  0
SECTION
  2
HEADER
  9
$ACADVER
  1
AC1015
  9
$ACADMAINTVER
 70
     6
  9
$DWGCODEPAGE
  3
ANSI_1252
  9
$INSBASE
 10
0.0
 20
0.0
 30
0.0
  9
$EXTMIN
 10
0.0
 20
0.0
 30
0.0
  9
$EXTMAX
 10
90.0
 20
46.0
 30
0.0
  9
$LIMMIN
 10
0.0
 20
0.0
  9
$LIMMAX
 10
90.0
 20
46.0
  9
$ORTHOMODE
 70
     0
  9
$REGENMODE
 70
     1
  9
$FILLMODE
 70
     1
  9
$QTEXTMODE
 70
     0
  9
$MIRRTEXT
 70
     1
  9
$LTSCALE
 40
1.0
  9
$ATTMODE
 70
     1
  9
$TEXTSIZE
 40
0.3888888889
  9
$TRACEWID
 40
0.05
  9
$TEXTSTYLE
  7
Standard
  9
$CLAYER
  8
0
  9
$CELTYPE
  6
ByLayer
  9
$CECOLOR
 62
   256
  9
$CELTSCALE
 40
1.0
  9
$DISPSILH
 70
     0
  9
$DIMSCALE
 40
1.0
  9
$DIMASZ
 40
0.08
  9
$DIMEXO
 40
0.0625
  9
$DIMDLI
 40
0.38
  9
$DIMRND
 40
0.0
  9
$DIMDLE
 40
0.0
  9
$DIMEXE
 40
0.125
  9
$DIMTP
 40
0.0
  9
$DIMTM
 40
0.0
  9
$DIMTXT
 40
0.3888888889
  9
$DIMCEN
 40
0.09
  9
$DIMTSZ
 40
0.0
  9
$DIMTOL
 70
     0
  9
$DIMLIM
 70
     0
  9
$DIMTIH
 70
     1
  9
$DIMTOH
 70
     1
  9
$DIMSE1
 70
     0
  9
$DIMSE2
 70
     0
  9
$DIMTAD
 70
     0
  9
$DIMZIN
 70
     1
  9
$DIMBLK
  1

  9
$DIMASO
 70
     1
  9
$DIMSHO
 70
     1
  9
$DIMPOST
  1

  9
$DIMAPOST
  1

  9
$DIMALT
 70
     0
  9
$DIMALTD
 70
     2
  9
$DIMALTF
 40
25.4
  9
$DIMLFAC
 40
1.0
  9
$DIMTOFL
 70
     0
  9
$DIMTVP
 40
0.0
  9
$DIMTIX
 70
     0
  9
$DIMSOXD
 70
     0
  9
$DIMSAH
 70
     0
  9
$DIMBLK1
  1

  9
$DIMBLK2
  1

  9
$DIMSTYLE
  2
Standard
  9
$DIMCLRD
 70
     0
  9
$DIMCLRE
 70
     0
  9
$DIMCLRT
 70
     0
  9
$DIMTFAC
 40
1.0
  9
$DIMGAP
 40
0.125
  9
$DIMJUST
 70
     0
  9
$DIMSD1
 70
     0
  9
$DIMSD2
 70
     0
  9
$DIMTOLJ
 70
     1
  9
$DIMTZIN
 70
     1
  9
$DIMALTZ
 70
     0
  9
$DIMALTTZ
 70
     0
  9
$DIMUPT
 70
     0
  9
$DIMDEC
 70
     3
  9
$DIMTDEC
 70
     3
  9
$DIMALTU
 70
     2
  9
$DIMALTTD
 70
     2
  9
$DIMTXSTY
  7
Standard
  9
$DIMAUNIT
 70
     0
  9
$DIMADEC
 70
     2
  9
$DIMALTRND
 40
0.0
  9
$DIMAZIN
 70
     0
  9
$DIMDSEP
 70
    46
  9
$DIMATFIT
 70
     3
  9
$DIMFRAC
 70
     0
  9
$DIMLDRBLK
  1

  9
$DIMLUNIT
 70
     2
  9
$DIMLWD
 70
    -2
  9
$DIMLWE
 70
    -2
  9
$DIMTMOVE
 70
     0
  9
$LUNITS
 70
     2
  9
$LUPREC
 70
     3
  9
$SKETCHINC
 40
0.1
  9
$FILLETRAD
 40
0.5
  9
$AUNITS
 70
     0
  9
$AUPREC
 70
     2
  9
$MENU
  1
.
  9
$ELEVATION
 40
0.0
  9
$PELEVATION
 40
0.0
  9
$THICKNESS
 40
0.0
  9
$LIMCHECK
 70
     0
  9
$CHAMFERA
 40
0.0
  9
$CHAMFERB
 40
0.0
  9
$CHAMFERC
 40
0.0
  9
$CHAMFERD
 40
0.0
  9
$SKPOLY
 70
     0
  9
$TDCREATE
 40
2460948.434356412
  9
$TDUCREATE
 40
2460948.601023079
  9
$TDUPDATE
 40
2460948.434363484
  9
$TDUUPDATE
 40
2460948.60103015
  9
$TDINDWG
 40
0.0000000116
  9
$TDUSRTIMER
 40
0.0000000116
  9
$USRTIMER
 70
     1
  9
$ANGBASE
 50
0.0
  9
$ANGDIR
 70
     0
  9
$PDMODE
 70
     0
  9
$PDSIZE
 40
-1.0
  9
$PLINEWID
 40
0.0
  9
$SPLFRAME
 70
     0
  9
$SPLINETYPE
 70
     6
  9
$SPLINESEGS
 70
     8
  9
$HANDSEED
  5
41F
  9
$SURFTAB1
 70
     6
  9
$SURFTAB2
 70
     6
  9
$SURFTYPE
 70
     6
  9
$SURFU
 70
     6
  9
$SURFV
 70
     6
  9
$UCSBASE
  2

  9
$UCSNAME
  2

  9
$UCSORG
 10
0.0
 20
0.0
 30
0.0
  9
$UCSXDIR
 10
1.0
 20
0.0
 30
0.0
  9
$UCSYDIR
 10
0.0
 20
1.0
 30
0.0
  9
$UCSORTHOREF
  2

  9
$UCSORTHOVIEW
 70
     0
  9
$UCSORGTOP
 10
0.0
 20
0.0
 30
0.0
  9
$UCSORGBOTTOM
 10
0.0
 20
0.0
 30
0.0
  9
$UCSORGLEFT
 10
0.0
 20
0.0
 30
0.0
  9
$UCSORGRIGHT
 10
0.0
 20
0.0
 30
0.0
  9
$UCSORGFRONT
 10
0.0
 20
0.0
 30
0.0
  9
$UCSORGBACK
 10
0.0
 20
0.0
 30
0.0
  9
$PUCSBASE
  2

  9
$PUCSNAME
  2

  9
$PUCSORG
 10
0.0
 20
0.0
 30
0.0
  9
$PUCSXDIR
 10
1.0
 20
0.0
 30
0.0
  9
$PUCSYDIR
 10
0.0
 20
1.0
 30
0.0
  9
$PUCSORTHOREF
  2

  9
$PUCSORTHOVIEW
 70
     0
  9
$PUCSORGTOP
 10
0.0
 20
0.0
 30
0.0
  9
$PUCSORGBOTTOM
 10
0.0
 20
0.0
 30
0.0
  9
$PUCSORGLEFT
 10
0.0
 20
0.0
 30
0.0
  9
$PUCSORGRIGHT
 10
0.0
 20
0.0
 30
0.0
  9
$PUCSORGFRONT
 10
0.0
 20
0.0
 30
0.0
  9
$PUCSORGBACK
 10
0.0
 20
0.0
 30
0.0
  9
$USERI1
 70
     0
  9
$USERI2
 70
     0
  9
$USERI3
 70
     0
  9
$USERI4
 70
     0
  9
$USERI5
 70
     0
  9
$USERR1
 40
0.0
  9
$USERR2
 40
0.0
  9
$USERR3
 40
0.0
  9
$USERR4
 40
0.0
  9
$USERR5
 40
0.0
  9
$WORLDVIEW
 70
     1
  9
$SHADEDGE
 70
     3
  9
$SHADEDIF
 70
    70
  9
$TILEMODE
 70
     1
  9
$MAXACTVP
 70
    64
  9
$PINSBASE
 10
0.0
 20
0.0
 30
0.0
  9
$PLIMCHECK
 70
     0
  9
$PEXTMIN
 10
1.0000000000E+20
 20
1.0000000000E+20
 30
1.0000000000E+20
  9
$PEXTMAX
 10
-1.0000000000E+20
 20
-1.0000000000E+20
 30
-1.0000000000E+20
  9
$PLIMMIN
 10
0.0
 20
0.0
  9
$PLIMMAX
 10
12.0
 20
9.0
  9
$UNITMODE
 70
     0
  9
$VISRETAIN
 70
     1
  9
$PLINEGEN
 70
     0
  9
$PSLTSCALE
 70
     1
  9
$TREEDEPTH
 70
  3020
  9
$CMLSTYLE
  2
Standard
  9
$CMLJUST
 70
     0
  9
$CMLSCALE
 40
1.0
  9
$PROXYGRAPHICS
 70
     1
  9
$MEASUREMENT
 70
     0
  9
$CELWEIGHT
370
    -1
  9
$ENDCAPS
280
     0
  9
$JOINSTYLE
280
     0
  9
$LWDISPLAY
290
     1
  9
$INSUNITS
 70
     1
  9
$HYPERLINKBASE
  1

  9
$STYLESHEET
  1

  9
$XEDIT
290
     1
  9
$CEPSNTYPE
380
     0
  9
$PSTYLEMODE
290
     1
  9
$FINGERPRINTGUID
  2
{89c7f663-0f37-45d3-9ba8-c3d9e7d73229}
  9
$VERSIONGUID
  2
{FAEB1C32-E019-11D5-929B-00C0DF256EC4}
  9
$EXTNAMES
290
     1
  9
$PSVPSCALE
 40
0.0
  9
$OLESTARTUP
290
     0
  0
ENDSEC
  0
SECTION
  2
CLASSES
  0
CLASS
  1
ACDBDICTIONARYWDFLT
  2
AcDbDictionaryWithDefault
  3
ObjectDBX Classes
 90
        0
280
     0
281
     0
  0
CLASS
  1
VISUALSTYLE
  2
AcDbVisualStyle
  3
ObjectDBX Classes
 90
     4095
280
     0
281
     0
  0
CLASS
  1
MATERIAL
  2
AcDbMaterial
  3
ObjectDBX Classes
 90
     1153
280
     0
281
     0
  0
CLASS
  1
SCALE
  2
AcDbScale
  3
ObjectDBX Classes
 90
     1153
280
     0
281
     0
  0
CLASS
  1
TABLESTYLE
  2
AcDbTableStyle
  3
ObjectDBX Classes
 90
     4095
280
     0
281
     0
  0
CLASS
  1
MLEADERSTYLE
  2
AcDbMLeaderStyle
  3
ACDB_MLEADERSTYLE_CLASS
 90
     4095
280
     0
281
     0
  0
CLASS
  1
SUN
  2
AcDbSun
  3
SCENEOE
 90
     1153
280
     0
281
     0
  0
CLASS
  1
ACDBPLACEHOLDER
  2
AcDbPlaceHolder
  3
ObjectDBX Classes
 90
        0
280
     0
281
     0
  0
CLASS
  1
LAYOUT
  2
AcDbLayout
  3
ObjectDBX Classes
 90
        0
280
     0
281
     0
  0
ENDSEC
  0
SECTION
  2
TABLES
  0
TABLE
  2
VPORT
  5
8
330
0
100
AcDbSymbolTable
 70
     1
  0
VPORT
  5
29
330
8
100
AcDbSymbolTableRecord
100
AcDbViewportTableRecord
  2
*Active
 70
     0
 10
0.0
 20
0.0
 11
1.0
 21
1.0
 12
45.0
 22
23.0
 13
0.0
 23
0.0
 14
0.5
 24
0.5
 15
0.5
 25
0.5
 16
0.0
 26
0.0
 36
1.0
 17
0.0
 27
0.0
 37
0.0
 40
46.0
 41
1.9565217391
 42
50.0
 43
0.0
 44
0.0
 50
0.0
 51
0.0
 71
     0
 72
  2000
 73
     1
 74
     3
 75
     0
 76
     0
 77
     0
 78
     0
281
     0
 65
     1
110
0.0
120
0.0
130
0.0
111
1.0
121
0.0
131
0.0
112
0.0
122
1.0
132
0.0
 79
     0
146
0.0
  0
ENDTAB
  0
TABLE
  2
LTYPE
  5
5
330
0
100
AcDbSymbolTable
 70
     6
  0
LTYPE
  5
14
330
5
100
AcDbSymbolTableRecord
100
AcDbLinetypeTableRecord
  2
ByBlock
 70
     0
  3

 72
    65
 73
     0
 40
0.0
  0
LTYPE
  5
15
330
5
100
AcDbSymbolTableRecord
100
AcDbLinetypeTableRecord
  2
ByLayer
 70
     0
  3

 72
    65
 73
     0
 40
0.0
  0
LTYPE
  5
16
330
5
100
AcDbSymbolTableRecord
100
AcDbLinetypeTableRecord
  2
Continuous
 70
     0
  3
Solid line
 72
    65
 73
     0
 40
0.0
  0
LTYPE
  5
6E
330
5
100
AcDbSymbolTableRecord
100
AcDbLinetypeTableRecord
  2
HIDDEN
 70
     0
  3
Hidden __ __ __ __ __ __ __ __ __ __ __ __ __ __
 72
    65
 73
     2
 40
0.075
 49
0.05
 74
     0
 49
-0.025
 74
     0
  0
LTYPE
  5
6F
330
5
100
AcDbSymbolTableRecord
100
AcDbLinetypeTableRecord
  2
PHANTOM
 70
     0
  3
Phantom ______  __  __  ______  __  __  ______
 72
    65
 73
     6
 40
0.5
 49
0.25
 74
     0
 49
-0.05
 74
     0
 49
0.05
 74
     0
 49
-0.05
 74
     0
 49
0.05
 74
     0
 49
-0.05
 74
     0
  0
LTYPE
  5
70
330
5
100
AcDbSymbolTableRecord
100
AcDbLinetypeTableRecord
  2
CENTER
 70
     0
  3
Center ____ _ ____ _ ____ _ ____ _ ____ _ ____
 72
    65
 73
     4
 40
0.4
 49
0.25
 74
     0
 49
-0.05
 74
     0
 49
0.05
 74
     0
 49
-0.05
 74
     0
  0
LTYPE
  5
71
330
5
100
AcDbSymbolTableRecord
100
AcDbLinetypeTableRecord
  2
CENTERX2
 70
     0
  3
Center (2x) ________  __  ________  __  _____
 72
    65
 73
     4
 40
0.8
 49
0.5
 74
     0
 49
-0.1
 74
     0
 49
0.1
 74
     0
 49
-0.1
 74
     0
  0
LTYPE
  5
72
330
5
100
AcDbSymbolTableRecord
100
AcDbLinetypeTableRecord
  2
DOT2
 70
     0
  3
Dot (.5x) ........................................
 72
    65
 73
     2
 40
0.025
 49
0.0
 74
     0
 49
-0.025
 74
     0
  0
ENDTAB
  0
TABLE
  2
LAYER
  5
2
330
0
100
AcDbSymbolTable
 70
     6
  0
LAYER
  5
10
330
2
100
AcDbSymbolTableRecord
100
AcDbLayerTableRecord
  2
0
 70
     0
 62
     7
  6
Continuous
370
    -3
390
F
  0
LAYER
  5
73
330
2
100
AcDbSymbolTableRecord
100
AcDbLayerTableRecord
  2
FORMAT
 70
     0
 62
     7
  6
Continuous
370
    -3
390
F
  0
LAYER
  5
74
330
2
100
AcDbSymbolTableRecord
100
AcDbLayerTableRecord
  2
NOTES
 70
     0
 62
     1
  6
Continuous
370
    -3
390
F
  0
LAYER
  5
75
330
2
100
AcDbSymbolTableRecord
100
AcDbLayerTableRecord
  2
OBJECT
 70
     0
 62
     7
  6
Continuous
370
    -3
390
F
  0
LAYER
  5
76
330
2
100
AcDbSymbolTableRecord
100
AcDbLayerTableRecord
  2
DIMS
 70
     0
 62
     5
  6
Continuous
370
    -3
390
F
  0
LAYER
  5
77
330
2
100
AcDbSymbolTableRecord
100
AcDbLayerTableRecord
  2
TITLE
 70
     0
 62
     7
  6
Continuous
370
    -3
390
F
  0
ENDTAB
  0
TABLE
  2
STYLE
  5
3
330
0
100
AcDbSymbolTable
 70
     5
  0
STYLE
  5
11
330
3
100
AcDbSymbolTableRecord
100
AcDbTextStyleTableRecord
  2
Standard
 70
     0
 40
0.0
 41
1.0
 50
0.0
 71
     0
 42
0.3888888889
  3
txt
  4

  0
STYLE
  5
10F
330
3
100
AcDbSymbolTableRecord
100
AcDbTextStyleTableRecord
  2
SLDTEXTSTYLE0
 70
     0
 40
0.0
 41
0.605
 50
0.0
 71
     0
 42
0.3888888889
  3
TXT
  4

  0
STYLE
  5
113
330
3
100
AcDbSymbolTableRecord
100
AcDbTextStyleTableRecord
  2
SLDTEXTSTYLE1
 70
     0
 40
0.0
 41
0.75
 50
0.0
 71
     0
 42
0.3888888889
  3
TXT
  4

  0
STYLE
  5
116
330
3
100
AcDbSymbolTableRecord
100
AcDbTextStyleTableRecord
  2
SLDTEXTSTYLE2
 70
     0
 40
0.0
 41
0.6607142857
 50
0.0
 71
     0
 42
0.3888888889
  3
TXT
  4

  0
STYLE
  5
118
330
3
100
AcDbSymbolTableRecord
100
AcDbTextStyleTableRecord
  2
SLDTEXTSTYLE3
 70
     0
 40
0.0
 41
0.6904761905
 50
0.0
 71
     0
 42
0.3888888889
  3
TXT
  4

  0
ENDTAB
  0
TABLE
  2
VIEW
  5
6
330
0
100
AcDbSymbolTable
 70
     0
  0
ENDTAB
  0
TABLE
  2
UCS
  5
7
330
0
100
AcDbSymbolTable
 70
     0
  0
ENDTAB
  0
TABLE
  2
APPID
  5
9
330
0
100
AcDbSymbolTable
 70
     1
  0
APPID
  5
12
330
9
100
AcDbSymbolTableRecord
100
AcDbRegAppTableRecord
  2
ACAD
 70
     0
  0
ENDTAB
  0
TABLE
  2
DIMSTYLE
  5
A
330
0
100
AcDbSymbolTable
 70
     5
100
AcDbDimStyleTable
  0
DIMSTYLE
105
27
330
A
100
AcDbSymbolTableRecord
100
AcDbDimStyleTableRecord
  2
Standard
 70
     0
178
     0
340
11
  0
DIMSTYLE
105
1F4
102
{ACAD_REACTORS
330
1F3
330
407
330
412
102
}
330
A
100
AcDbSymbolTableRecord
100
AcDbDimStyleTableRecord
  2
SLDDIMSTYLE0
 70
     0
 41
0.08
 44
0.0
 45
0.000000001
 78
    12
 79
     3
140
0.2831217448
147
0.0707804362
173
     1
178
     0
271
     3
272
     3
276
     2
277
     5
284
    12
340
10F
341
1F5
343
1F5
344
1F5
  0
DIMSTYLE
105
206
102
{ACAD_REACTORS
330
205
330
214
330
223
330
241
330
276
102
}
330
A
100
AcDbSymbolTableRecord
100
AcDbDimStyleTableRecord
  2
SLDDIMSTYLE1
 70
     0
 41
0.08
 44
0.0
 45
0.000000001
 78
    12
 79
     3
140
0.2831217448
147
0.0707804362
173
     1
178
     0
271
     6
272
     3
276
     2
277
     5
284
    12
340
10F
341
1F5
343
1F5
344
1F5
  0
DIMSTYLE
105
233
102
{ACAD_REACTORS
330
232
102
}
330
A
100
AcDbSymbolTableRecord
100
AcDbDimStyleTableRecord
  2
SLDDIMSTYLE2
 70
     0
 41
0.08
 44
0.0
 45
0.000000001
 78
    12
 79
     3
140
0.2831217448
147
0.0707804362
172
     1
173
     1
178
     0
271
     6
272
     3
276
     2
277
     5
284
    12
289
     0
340
10F
341
1F5
343
1F5
344
1F5
  0
DIMSTYLE
105
251
102
{ACAD_REACTORS
330
250
102
}
330
A
100
AcDbSymbolTableRecord
100
AcDbDimStyleTableRecord
  2
SLDDIMSTYLE3
 70
     0
 41
0.08
 44
0.0
 45
0.000000001
 78
    12
 79
     3
140
0.2831217448
141
0.0
147
0.0707804362
173
     1
178
     0
271
     3
272
     3
276
     2
277
     5
284
    12
340
10F
341
1F5
343
1F5
344
1F5
  0
ENDTAB
  0
TABLE
  2
BLOCK_RECORD
  5
1
330
0
100
AcDbSymbolTable
 70
    15
  0
BLOCK_RECORD
  5
1F
330
1
100
AcDbSymbolTableRecord
100
AcDbBlockTableRecord
  2
*Model_Space
340
22
  0
BLOCK_RECORD
  5
1B
330
1
100
AcDbSymbolTableRecord
100
AcDbBlockTableRecord
  2
*Paper_Space
340
1E
  0
BLOCK_RECORD
  5
23
330
1
100
AcDbSymbolTableRecord
100
AcDbBlockTableRecord
  2
*Paper_Space0
340
26
  0
BLOCK_RECORD
  5
11B
330
1
100
AcDbSymbolTableRecord
100
AcDbBlockTableRecord
  2
SW_NOTE_0
340
0
102
{BLKREFS
331
120
102
}
  0
BLOCK_RECORD
  5
121
330
1
100
AcDbSymbolTableRecord
100
AcDbBlockTableRecord
  2
SW_NOTE_0_1
340
0
102
{BLKREFS
331
128
102
}
  0
BLOCK_RECORD
  5
1F5
330
1
100
AcDbSymbolTableRecord
100
AcDbBlockTableRecord
  2
_Open30
340
0
102
{BLKREFS
331
1FE
331
1FF
331
20A
331
20B
331
218
331
219
331
227
331
228
331
237
331
238
331
245
331
246
331
255
331
27A
331
27B
331
40B
331
40C
331
416
331
417
102
}
  0
BLOCK_RECORD
  5
1FB
330
1
100
AcDbSymbolTableRecord
100
AcDbBlockTableRecord
  2
_D
340
0
  0
BLOCK_RECORD
  5
207
330
1
100
AcDbSymbolTableRecord
100
AcDbBlockTableRecord
  2
_D_1
340
0
  0
BLOCK_RECORD
  5
215
330
1
100
AcDbSymbolTableRecord
100
AcDbBlockTableRecord
  2
_D_2
340
0
  0
BLOCK_RECORD
  5
224
330
1
100
AcDbSymbolTableRecord
100
AcDbBlockTableRecord
  2
_D_3
340
0
  0
BLOCK_RECORD
  5
234
330
1
100
AcDbSymbolTableRecord
100
AcDbBlockTableRecord
  2
_D_4
340
0
  0
BLOCK_RECORD
  5
242
330
1
100
AcDbSymbolTableRecord
100
AcDbBlockTableRecord
  2
_D_5
340
0
  0
BLOCK_RECORD
  5
252
330
1
100
AcDbSymbolTableRecord
100
AcDbBlockTableRecord
  2
_D_6
340
0
  0
BLOCK_RECORD
  5
277
330
1
100
AcDbSymbolTableRecord
100
AcDbBlockTableRecord
  2
_D_7
340
0
  0
BLOCK_RECORD
  5
390
330
1
100
AcDbSymbolTableRecord
100
AcDbBlockTableRecord
  2
SW_NOTE_0_2
340
0
102
{BLKREFS
331
395
102
}
  0
BLOCK_RECORD
  5
408
330
1
100
AcDbSymbolTableRecord
100
AcDbBlockTableRecord
  2
_D_8
340
0
  0
BLOCK_RECORD
  5
413
330
1
100
AcDbSymbolTableRecord
100
AcDbBlockTableRecord
  2
_D_9
340
0
  0
ENDTAB
  0
ENDSEC
  0
SECTION
  2
BLOCKS
  0
BLOCK
  5
20
330
1F
100
AcDbEntity
  8
0
100
AcDbBlockBegin
  2
*Model_Space
 70
     0
 10
0.0
 20
0.0
 30
0.0
  3
*Model_Space
  1

  0
ENDBLK
  5
21
330
1F
100
AcDbEntity
  8
0
100
AcDbBlockEnd
  0
BLOCK
  5
1C
330
1B
100
AcDbEntity
 67
     1
  8
0
100
AcDbBlockBegin
  2
*Paper_Space
 70
     0
 10
0.0
 20
0.0
 30
0.0
  3
*Paper_Space
  1

  0
ENDBLK
  5
1D
330
1B
100
AcDbEntity
 67
     1
  8
0
100
AcDbBlockEnd
  0
BLOCK
  5
24
330
23
100
AcDbEntity
  8
0
100
AcDbBlockBegin
  2
*Paper_Space0
 70
     0
 10
0.0
 20
0.0
 30
0.0
  3
*Paper_Space0
  1

  0
ENDBLK
  5
25
330
23
100
AcDbEntity
  8
0
100
AcDbBlockEnd
  0
BLOCK
  5
11C
330
11B
100
AcDbEntity
  8
0
100
AcDbBlockBegin
  2
SW_NOTE_0
 70
     0
 10
0.0
 20
0.0
 30
0.0
  3
SW_NOTE_0
  1

  0
MTEXT
  5
11E
330
11B
100
AcDbEntity
  8
NOTES
 62
     0
100
AcDbMText
 10
0.0
 20
0.3759780908
 30
0.0
 40
0.2916666667
 41
0.0
 71
     1
 72
     1
  1
FROST PRODUCTS LTD.
  7
SLDTEXTSTYLE0
 73
     1
 44
1.0
  0
MTEXT
  5
11F
330
11B
100
AcDbEntity
  8
NOTES
 62
     0
100
AcDbMText
 10
0.0
 20
-0.0495142709
 30
0.0
 40
0.2291666667
 41
0.0
 71
     1
 72
     1
  1
5280 JOHN LUCAS DRIVE, BURLINGTON, ON, L7L 5Z9
  7
SLDTEXTSTYLE0
 73
     1
 44
1.0
  0
ENDBLK
  5
11D
330
11B
100
AcDbEntity
  8
0
100
AcDbBlockEnd
  0
BLOCK
  5
122
330
121
100
AcDbEntity
  8
0
100
AcDbBlockBegin
  2
SW_NOTE_0_1
 70
     0
 10
0.0
 20
0.0
 30
0.0
  3
SW_NOTE_0_1
  1

  0
MTEXT
  5
124
330
121
100
AcDbEntity
  8
NOTES
 62
     0
100
AcDbMText
 10
0.0
 20
0.2381282771
 30
0.0
 40
0.184729064
 41
0.0
 71
     1
 72
     1
  1
PROPRIETARY AND CONFIDENTIAL
  7
SLDTEXTSTYLE0
 73
     1
 44
1.0
  0
MTEXT
  5
125
330
121
100
AcDbEntity
  8
NOTES
 62
     0
100
AcDbMText
 10
0.0
 20
-0.0504364796
 30
0.0
 40
0.25
 41
0.0
 71
     1
 72
     1
  1
THE INFORMATION CONTAINED IN THIS DRAWING IS THE SOLE PROPERTY OF
  7
SLDTEXTSTYLE0
 73
     1
 44
1.0
  0
MTEXT
  5
126
330
121
100
AcDbEntity
  8
NOTES
 62
     0
100
AcDbMText
 10
0.0
 20
-0.4231398941
 30
0.0
 40
0.25
 41
0.0
 71
     1
 72
     1
  1
FROST PRODUCTS LTD.  ANY REPRODUCTION IN PART OR AS A WHOLE WITHOUT
  7
SLDTEXTSTYLE0
 73
     1
 44
1.0
  0
MTEXT
  5
127
330
121
100
AcDbEntity
  8
NOTES
 62
     0
100
AcDbMText
 10
0.0
 20
-0.7958433086
 30
0.0
 40
0.25
 41
0.0
 71
     1
 72
     1
  1
THE WRITTEN PERMISSION OF FROST PRODUCTS LTD. IS PROHIBITED.
  7
SLDTEXTSTYLE0
 73
     1
 44
1.0
  0
ENDBLK
  5
123
330
121
100
AcDbEntity
  8
0
100
AcDbBlockEnd
  0
BLOCK
  5
1F6
330
1F5
100
AcDbEntity
  8
0
100
AcDbBlockBegin
  2
_Open30
 70
     0
 10
0.0
 20
0.0
 30
0.0
  3
_Open30
  1

  0
LINE
  5
1F8
330
1F5
100
AcDbEntity
  8
0
  6
ByBlock
 62
     0
370
    -2
100
AcDbLine
 10
-1.0
 20
0.267949
 30
0.0
 11
0.0
 21
0.0
 31
0.0
  0
LINE
  5
1F9
330
1F5
100
AcDbEntity
  8
0
  6
ByBlock
 62
     0
370
    -2
100
AcDbLine
 10
0.0
 20
0.0
 30
0.0
 11
-1.0
 21
-0.267949
 31
0.0
  0
LINE
  5
1FA
330
1F5
100
AcDbEntity
  8
0
  6
ByBlock
 62
     0
370
    -2
100
AcDbLine
 10
0.0
 20
0.0
 30
0.0
 11
-1.0
 21
0.0
 31
0.0
  0
ENDBLK
  5
1F7
330
1F5
100
AcDbEntity
  8
0
100
AcDbBlockEnd
  0
BLOCK
  5
1FC
330
1FB
100
AcDbEntity
  8
0
100
AcDbBlockBegin
  2
_D
 70
     0
 10
0.0
 20
0.0
 30
0.0
  3
_D
  1

  0
INSERT
  5
1FE
330
1FB
100
AcDbEntity
  8
DIMS
100
AcDbBlockReference
  2
_Open30
 10
34.4113147607
 20
14.5600127619
 30
-4.6936916886
 41
0.08
 42
0.08
 50
90.0
  0
INSERT
  5
1FF
330
1FB
100
AcDbEntity
  8
DIMS
100
AcDbBlockReference
  2
_Open30
 10
34.4113147607
 20
12.5600127619
 30
-4.6936916886
 41
0.08
 42
0.08
 50
270.0
  0
LINE
  5
200
330
1FB
100
AcDbEntity
  8
DIMS
100
AcDbLine
 10
32.7265326741
 20
14.5600127619
 30
0.0
 11
34.5363147607
 21
14.5600127619
 31
0.0
  0
LINE
  5
201
330
1FB
100
AcDbEntity
  8
DIMS
100
AcDbLine
 10
32.7265326741
 20
12.5600127619
 30
0.0
 11
34.5363147607
 21
12.5600127619
 31
0.0
  0
LINE
  5
202
330
1FB
100
AcDbEntity
  8
DIMS
100
AcDbLine
 10
34.4113147607
 20
14.5600127619
 30
0.0
 11
34.4113147607
 21
13.8110326237
 31
0.0
  0
LINE
  5
203
330
1FB
100
AcDbEntity
  8
DIMS
100
AcDbLine
 10
34.4113147607
 20
12.5600127619
 30
0.0
 11
34.4113147607
 21
13.3702918785
 31
0.0
  0
MTEXT
  5
204
330
1FB
100
AcDbEntity
  8
DIMS
100
AcDbMText
 10
34.266021555
 20
13.7462699693
 30
0.0
 40
0.2916666667
 41
0.0
 71
     1
 72
     1
  1
2"
  7
SLDTEXTSTYLE0
 73
     1
 44
1.0
  0
ENDBLK
  5
1FD
330
1FB
100
AcDbEntity
  8
0
100
AcDbBlockEnd
  0
BLOCK
  5
208
330
207
100
AcDbEntity
  8
0
100
AcDbBlockBegin
  2
_D_1
 70
     0
 10
0.0
 20
0.0
 30
0.0
  3
_D_1
  1

  0
INSERT
  5
20A
330
207
100
AcDbEntity
  8
DIMS
100
AcDbBlockReference
  2
_Open30
 10
34.4113147607
 20
14.5600127619
 30
-4.6936916886
 41
0.08
 42
0.08
 50
270.0
  0
INSERT
  5
20B
330
207
100
AcDbEntity
  8
DIMS
100
AcDbBlockReference
  2
_Open30
 10
34.4113147607
 20
15.4944841637
 30
-4.6936916886
 41
0.08
 42
0.08
 50
90.0
  0
LINE
  5
20C
330
207
100
AcDbEntity
  8
DIMS
100
AcDbLine
 10
34.2454968737
 20
15.0427331179
 30
0.0
 11
34.463706743
 21
15.0427331179
 31
0.0
  0
LINE
  5
20D
330
207
100
AcDbEntity
  8
DIMS
100
AcDbLine
 10
32.7265326741
 20
14.5600127619
 30
0.0
 11
34.5363147607
 21
14.5600127619
 31
0.0
  0
LINE
  5
20E
330
207
100
AcDbEntity
  8
DIMS
100
AcDbLine
 10
31.6351514969
 20
15.4944841637
 30
0.0
 11
34.5363147607
 21
15.4944841637
 31
0.0
  0
LINE
  5
20F
330
207
100
AcDbEntity
  8
DIMS
100
AcDbLine
 10
34.4113147607
 20
14.5600127619
 30
0.0
 11
34.4113147607
 21
14.8133966961
 31
0.0
  0
LINE
  5
210
330
207
100
AcDbEntity
  8
DIMS
100
AcDbLine
 10
34.4113147607
 20
15.4944841637
 30
0.0
 11
34.4113147607
 21
15.2541374413
 31
0.0
  0
MTEXT
  5
211
330
207
100
AcDbEntity
  8
DIMS
100
AcDbMText
 10
34.2660215641
 20
15.2184073495
 30
0.0
 40
0.1458333333
 41
0.0
 71
     1
 72
     1
  1
15
  7
SLDTEXTSTYLE0
 73
     1
 44
1.0
  0
MTEXT
  5
212
330
207
100
AcDbEntity
  8
DIMS
100
AcDbMText
 10
34.2660215641
 20
15.0198579693
 30
0.0
 40
0.1458333333
 41
0.0
 71
     1
 72
     1
  1
16
  7
SLDTEXTSTYLE0
 73
     1
 44
1.0
  0
MTEXT
  5
213
330
207
100
AcDbEntity
  8
DIMS
100
AcDbMText
 10
34.4842314334
 20
15.1893747869
 30
0.0
 40
0.2916666667
 41
0.0
 71
     1
 72
     1
  1
"
  7
SLDTEXTSTYLE0
 73
     1
 44
1.0
  0
ENDBLK
  5
209
330
207
100
AcDbEntity
  8
0
100
AcDbBlockEnd
  0
BLOCK
  5
216
330
215
100
AcDbEntity
  8
0
100
AcDbBlockBegin
  2
_D_2
 70
     0
 10
0.0
 20
0.0
 30
0.0
  3
_D_2
  1

  0
INSERT
  5
218
330
215
100
AcDbEntity
  8
DIMS
100
AcDbBlockReference
  2
_Open30
 10
34.4113147607
 20
15.4944841637
 30
-4.6936916886
 41
0.08
 42
0.08
 50
270.0
  0
INSERT
  5
219
330
215
100
AcDbEntity
  8
DIMS
100
AcDbBlockReference
  2
_Open30
 10
34.4113147607
 20
15.9030841637
 30
-4.6936916886
 41
0.08
 42
0.08
 50
90.0
  0
LINE
  5
21A
330
215
100
AcDbEntity
  8
DIMS
100
AcDbLine
 10
34.5568394511
 20
16.3057536242
 30
0.0
 11
34.7750493203
 21
16.3057536242
 31
0.0
  0
LINE
  5
21B
330
215
100
AcDbEntity
  8
DIMS
100
AcDbLine
 10
31.6351514969
 20
15.4944841637
 30
0.0
 11
34.5363147607
 21
15.4944841637
 31
0.0
  0
LINE
  5
21C
330
215
100
AcDbEntity
  8
DIMS
100
AcDbLine
 10
32.8295421229
 20
15.9030841637
 30
0.0
 11
34.5363147607
 21
15.9030841637
 31
0.0
  0
LINE
  5
21D
330
215
100
AcDbEntity
  8
DIMS
100
AcDbLine
 10
34.5363147607
 20
16.2967875751
 30
0.0
 11
34.4113147607
 21
16.2967875751
 31
0.0
  0
LINE
  5
21E
330
215
100
AcDbEntity
  8
DIMS
100
AcDbLine
 10
34.4113147607
 20
16.2967875751
 30
0.0
 11
34.4113147607
 21
15.9030841637
 31
0.0
  0
LINE
  5
21F
330
215
100
AcDbEntity
  8
DIMS
100
AcDbLine
 10
34.4113147607
 20
15.4944841637
 30
0.0
 11
34.4113147607
 21
15.9030841637
 31
0.0
  0
MTEXT
  5
220
330
215
100
AcDbEntity
  8
DIMS
100
AcDbMText
 10
34.6216542636
 20
16.4814278558
 30
0.0
 40
0.1458333333
 41
0.0
 71
     1
 72
     1
  1
7
  7
SLDTEXTSTYLE0
 73
     1
 44
1.0
  0
MTEXT
  5
221
330
215
100
AcDbEntity
  8
DIMS
100
AcDbMText
 10
34.5773641415
 20
16.2828784757
 30
0.0
 40
0.1458333333
 41
0.0
 71
     1
 72
     1
  1
16
  7
SLDTEXTSTYLE0
 73
     1
 44
1.0
  0
MTEXT
  5
222
330
215
100
AcDbEntity
  8
DIMS
100
AcDbMText
 10
34.7955740107
 20
16.4523952933
 30
0.0
 40
0.2916666667
 41
0.0
 71
     1
 72
     1
  1
"
  7
SLDTEXTSTYLE0
 73
     1
 44
1.0
  0
ENDBLK
  5
217
330
215
100
AcDbEntity
  8
0
100
AcDbBlockEnd
  0
BLOCK
  5
225
330
224
100
AcDbEntity
  8
0
100
AcDbBlockBegin
  2
_D_3
 70
     0
 10
0.0
 20
0.0
 30
0.0
  3
_D_3
  1

  0
INSERT
  5
227
330
224
100
AcDbEntity
  8
DIMS
100
AcDbBlockReference
  2
_Open30
 10
32.6640326741
 20
10.8526870737
 30
-4.6936916886
 41
0.08
 42
0.08
 50
0.0
  0
INSERT
  5
228
330
224
100
AcDbEntity
  8
DIMS
100
AcDbBlockReference
  2
_Open30
 10
31.5726514969
 20
10.8526870737
 30
-4.6936916886
 41
0.08
 42
0.08
 50
180.0
  0
LINE
  5
229
330
224
100
AcDbEntity
  8
DIMS
100
AcDbLine
 10
31.9641602045
 20
10.8616531228
 30
0.0
 11
32.1823700737
 21
10.8616531228
 31
0.0
  0
LINE
  5
22A
330
224
100
AcDbEntity
  8
DIMS
100
AcDbLine
 10
32.6640326741
 20
12.4975127619
 30
0.0
 11
32.6640326741
 21
10.7276870737
 31
0.0
  0
LINE
  5
22B
330
224
100
AcDbEntity
  8
DIMS
100
AcDbLine
 10
31.5726514969
 20
15.4319841637
 30
0.0
 11
31.5726514969
 21
10.7276870737
 31
0.0
  0
LINE
  5
22C
330
224
100
AcDbEntity
  8
DIMS
100
AcDbLine
 10
32.6640326741
 20
10.8526870737
 30
0.0
 11
32.3163206872
 21
10.8526870737
 31
0.0
  0
LINE
  5
22D
330
224
100
AcDbEntity
  8
DIMS
100
AcDbLine
 10
31.5726514969
 20
10.8526870737
 30
0.0
 11
31.7664750257
 21
10.8526870737
 31
0.0
  0
MTEXT
  5
22E
330
224
100
AcDbEntity
  8
DIMS
100
AcDbMText
 10
31.7664750257
 20
11.0082947919
 30
0.0
 40
0.2916666667
 41
0.0
 71
     1
 72
     1
  1
1
  7
SLDTEXTSTYLE0
 73
     1
 44
1.0
  0
MTEXT
  5
22F
330
224
100
AcDbEntity
  8
DIMS
100
AcDbMText
 10
32.028975017
 20
11.0373273544
 30
0.0
 40
0.1458333333
 41
0.0
 71
     1
 72
     1
  1
1
  7
SLDTEXTSTYLE0
 73
     1
 44
1.0
  0
MTEXT
  5
230
330
224
100
AcDbEntity
  8
DIMS
100
AcDbMText
 10
31.9846848949
 20
10.8387779743
 30
0.0
 40
0.1458333333
 41
0.0
 71
     1
 72
     1
  1
16
  7
SLDTEXTSTYLE0
 73
     1
 44
1.0
  0
MTEXT
  5
231
330
224
100
AcDbEntity
  8
DIMS
100
AcDbMText
 10
32.2028947641
 20
11.0082947919
 30
0.0
 40
0.2916666667
 41
0.0
 71
     1
 72
     1
  1
"
  7
SLDTEXTSTYLE0
 73
     1
 44
1.0
  0
ENDBLK
  5
226
330
224
100
AcDbEntity
  8
0
100
AcDbBlockEnd
  0
BLOCK
  5
235
330
234
100
AcDbEntity
  8
0
100
AcDbBlockBegin
  2
_D_4
 70
     0
 10
0.0
 20
0.0
 30
0.0
  3
_D_4
  1

  0
INSERT
  5
237
330
234
100
AcDbEntity
  8
DIMS
100
AcDbBlockReference
  2
_Open30
 10
32.6640326741
 20
10.8526870737
 30
-4.6936916886
 41
0.08
 42
0.08
 50
360.0
  0
INSERT
  5
238
330
234
100
AcDbEntity
  8
DIMS
100
AcDbBlockReference
  2
_Open30
 10
33.0726326741
 20
10.8526870737
 30
-4.6936916886
 41
0.08
 42
0.08
 50
180.0
  0
LINE
  5
239
330
234
100
AcDbEntity
  8
DIMS
100
AcDbLine
 10
32.7066676915
 20
10.8616531228
 30
0.0
 11
32.9248775607
 21
10.8616531228
 31
0.0
  0
LINE
  5
23A
330
234
100
AcDbEntity
  8
DIMS
100
AcDbLine
 10
32.6640326741
 20
12.4975127619
 30
0.0
 11
32.6640326741
 21
10.7276870737
 31
0.0
  0
LINE
  5
23B
330
234
100
AcDbEntity
  8
DIMS
100
AcDbLine
 10
33.0726326741
 20
11.920875478
 30
0.0
 11
33.0726326741
 21
10.7276870737
 31
0.0
  0
LINE
  5
23C
330
234
100
AcDbEntity
  8
DIMS
100
AcDbLine
 10
32.6640326741
 20
10.8526870737
 30
0.0
 11
32.5440326741
 21
10.8526870737
 31
0.0
  0
LINE
  5
23D
330
234
100
AcDbEntity
  8
DIMS
100
AcDbLine
 10
33.0726326741
 20
10.8526870737
 30
0.0
 11
33.1926326741
 21
10.8526870737
 31
0.0
  0
MTEXT
  5
23E
330
234
100
AcDbEntity
  8
DIMS
100
AcDbMText
 10
32.771482504
 20
11.0373273544
 30
0.0
 40
0.1458333333
 41
0.0
 71
     1
 72
     1
  1
7
  7
SLDTEXTSTYLE0
 73
     1
 44
1.0
  0
MTEXT
  5
23F
330
234
100
AcDbEntity
  8
DIMS
100
AcDbMText
 10
32.7271923819
 20
10.8387779743
 30
0.0
 40
0.1458333333
 41
0.0
 71
     1
 72
     1
  1
16
  7
SLDTEXTSTYLE0
 73
     1
 44
1.0
  0
MTEXT
  5
240
330
234
100
AcDbEntity
  8
DIMS
100
AcDbMText
 10
32.9454022511
 20
11.0082947919
 30
0.0
 40
0.2916666667
 41
0.0
 71
     1
 72
     1
  1
"
  7
SLDTEXTSTYLE0
 73
     1
 44
1.0
  0
ENDBLK
  5
236
330
234
100
AcDbEntity
  8
0
100
AcDbBlockEnd
  0
BLOCK
  5
243
330
242
100
AcDbEntity
  8
0
100
AcDbBlockBegin
  2
_D_5
 70
     0
 10
0.0
 20
0.0
 30
0.0
  3
_D_5
  1

  0
INSERT
  5
245
330
242
100
AcDbEntity
  8
DIMS
100
AcDbBlockReference
  2
_Open30
 10
31.5726514969
 20
10.8526870737
 30
-4.6936916886
 41
0.08
 42
0.08
 50
0.0
  0
INSERT
  5
246
330
242
100
AcDbEntity
  8
DIMS
100
AcDbBlockReference
  2
_Open30
 10
24.0726514969
 20
10.8526870737
 30
-4.6936916886
 41
0.08
 42
0.08
 50
180.0
  0
LINE
  5
247
330
242
100
AcDbEntity
  8
DIMS
100
AcDbLine
 10
27.6008976108
 20
10.8616531228
 30
0.0
 11
27.730527245
 21
10.8616531228
 31
0.0
  0
LINE
  5
248
330
242
100
AcDbEntity
  8
DIMS
100
AcDbLine
 10
31.5726514969
 20
15.4319841637
 30
0.0
 11
31.5726514969
 21
10.7276870737
 31
0.0
  0
LINE
  5
249
330
242
100
AcDbEntity
  8
DIMS
100
AcDbLine
 10
24.0726514969
 20
15.4319841637
 30
0.0
 11
24.0726514969
 21
10.7276870737
 31
0.0
  0
LINE
  5
24A
330
242
100
AcDbEntity
  8
DIMS
100
AcDbLine
 10
31.5726514969
 20
10.8526870737
 30
0.0
 11
27.8644778767
 21
10.8526870737
 31
0.0
  0
LINE
  5
24B
330
242
100
AcDbEntity
  8
DIMS
100
AcDbLine
 10
24.0726514969
 20
10.8526870737
 30
0.0
 11
27.403212432
 21
10.8526870737
 31
0.0
  0
MTEXT
  5
24C
330
242
100
AcDbEntity
  8
DIMS
100
AcDbMText
 10
27.403212432
 20
11.0082947919
 30
0.0
 40
0.2916666667
 41
0.0
 71
     1
 72
     1
  1
7
  7
SLDTEXTSTYLE0
 73
     1
 44
1.0
  0
MTEXT
  5
24D
330
242
100
AcDbEntity
  8
DIMS
100
AcDbMText
 10
27.6214223058
 20
11.0373273544
 30
0.0
 40
0.1458333333
 41
0.0
 71
     1
 72
     1
  1
1
  7
SLDTEXTSTYLE0
 73
     1
 44
1.0
  0
MTEXT
  5
24E
330
242
100
AcDbEntity
  8
DIMS
100
AcDbMText
 10
27.6214223058
 20
10.8387779743
 30
0.0
 40
0.1458333333
 41
0.0
 71
     1
 72
     1
  1
2
  7
SLDTEXTSTYLE0
 73
     1
 44
1.0
  0
MTEXT
  5
24F
330
242
100
AcDbEntity
  8
DIMS
100
AcDbMText
 10
27.7510519537
 20
11.0082947919
 30
0.0
 40
0.2916666667
 41
0.0
 71
     1
 72
     1
  1
"
  7
SLDTEXTSTYLE0
 73
     1
 44
1.0
  0
ENDBLK
  5
244
330
242
100
AcDbEntity
  8
0
100
AcDbBlockEnd
  0
BLOCK
  5
253
330
252
100
AcDbEntity
  8
0
100
AcDbBlockBegin
  2
_D_6
 70
     0
 10
0.0
 20
0.0
 30
0.0
  3
_D_6
  1

  0
INSERT
  5
255
330
252
100
AcDbEntity
  8
DIMS
100
AcDbBlockReference
  2
_Open30
 10
15.5519809979
 20
14.4893020838
 30
-4.6936916886
 41
0.08
 42
0.08
 50
135.0
  0
LINE
  5
256
330
252
100
AcDbEntity
  8
DIMS
100
AcDbLine
 10
17.2696187022
 20
13.3297353785
 30
0.0
 11
17.4878285714
 21
13.3297353785
 31
0.0
  0
LINE
  5
257
330
252
100
AcDbEntity
  8
DIMS
100
AcDbLine
 10
15.5519809979
 20
14.4893020838
 30
0.0
 11
16.705390302
 21
13.3358927796
 31
0.0
  0
LINE
  5
258
330
252
100
AcDbEntity
  8
DIMS
100
AcDbLine
 10
16.705390302
 20
13.3358927796
 30
0.0
 11
16.830390302
 21
13.3358927796
 31
0.0
  0
MTEXT
  5
259
330
252
100
AcDbEntity
  8
DIMS
100
AcDbMText
 10
16.830390302
 20
13.4763770475
 30
0.0
 40
0.2916666667
 41
0.0
 71
     1
 72
     1
  1
%%c
  7
SLDTEXTSTYLE0
 73
     1
 44
1.0
  0
MTEXT
  5
25A
330
252
100
AcDbEntity
  8
DIMS
100
AcDbMText
 10
17.3344335147
 20
13.5054096101
 30
0.0
 40
0.1458333333
 41
0.0
 71
     1
 72
     1
  1
3
  7
SLDTEXTSTYLE0
 73
     1
 44
1.0
  0
MTEXT
  5
25B
330
252
100
AcDbEntity
  8
DIMS
100
AcDbMText
 10
17.2901433926
 20
13.30686023
 30
0.0
 40
0.1458333333
 41
0.0
 71
     1
 72
     1
  1
16
  7
SLDTEXTSTYLE0
 73
     1
 44
1.0
  0
MTEXT
  5
25C
330
252
100
AcDbEntity
  8
DIMS
100
AcDbMText
 10
17.5083532434
 20
13.4763770475
 30
0.0
 40
0.2916666667
 41
0.0
 71
     1
 72
     1
  1
"
  7
SLDTEXTSTYLE0
 73
     1
 44
1.0
  0
MTEXT
  5
25D
330
252
100
AcDbEntity
  8
DIMS
100
AcDbMText
 10
17.6217791665
 20
13.4763770475
 30
0.0
 40
0.2916666667
 41
0.0
 71
     1
 72
     1
  1
(7) mounting holes
  7
SLDTEXTSTYLE0
 73
     1
 44
1.0
  0
ENDBLK
  5
254
330
252
100
AcDbEntity
  8
0
100
AcDbBlockEnd
  0
BLOCK
  5
278
330
277
100
AcDbEntity
  8
0
100
AcDbBlockBegin
  2
_D_7
 70
     0
 10
0.0
 20
0.0
 30
0.0
  3
_D_7
  1

  0
INSERT
  5
27A
330
277
100
AcDbEntity
  8
DIMS
100
AcDbBlockReference
  2
_Open30
 10
48.735361442
 20
11.9571499184
 30
0.0
 41
0.08
 42
0.08
 50
270.0
  0
INSERT
  5
27B
330
277
100
AcDbEntity
  8
DIMS
100
AcDbBlockReference
  2
_Open30
 10
48.735361442
 20
15.9030841637
 30
0.0
 41
0.08
 42
0.08
 50
90.0
  0
LINE
  5
27C
330
277
100
AcDbEntity
  8
DIMS
100
AcDbLine
 10
48.65812379
 20
14.0204639539
 30
0.0
 11
48.8763336593
 21
14.0204639539
 31
0.0
  0
LINE
  5
27D
330
277
100
AcDbEntity
  8
DIMS
100
AcDbLine
 10
47.7384931331
 20
11.9571499184
 30
0.0
 11
48.860361442
 21
11.9571499184
 31
0.0
  0
LINE
  5
27E
330
277
100
AcDbEntity
  8
DIMS
100
AcDbLine
 10
48.1603671699
 20
15.9030841637
 30
0.0
 11
48.860361442
 21
15.9030841637
 31
0.0
  0
LINE
  5
27F
330
277
100
AcDbEntity
  8
DIMS
100
AcDbLine
 10
48.735361442
 20
11.9571499184
 30
0.0
 11
48.735361442
 21
13.7911275322
 31
0.0
  0
LINE
  5
280
330
277
100
AcDbEntity
  8
DIMS
100
AcDbLine
 10
48.735361442
 20
15.9030841637
 30
0.0
 11
48.735361442
 21
14.2318682773
 31
0.0
  0
MTEXT
  5
281
330
277
100
AcDbEntity
  8
DIMS
100
AcDbMText
 10
48.4604386112
 20
14.1671056229
 30
0.0
 40
0.2916666667
 41
0.0
 71
     1
 72
     1
  1
3
  7
SLDTEXTSTYLE0
 73
     1
 44
1.0
  0
MTEXT
  5
282
330
277
100
AcDbEntity
  8
DIMS
100
AcDbMText
 10
48.6786484804
 20
14.1961381855
 30
0.0
 40
0.1458333333
 41
0.0
 71
     1
 72
     1
  1
15
  7
SLDTEXTSTYLE0
 73
     1
 44
1.0
  0
MTEXT
  5
283
330
277
100
AcDbEntity
  8
DIMS
100
AcDbMText
 10
48.6786484804
 20
13.9975888054
 30
0.0
 40
0.1458333333
 41
0.0
 71
     1
 72
     1
  1
16
  7
SLDTEXTSTYLE0
 73
     1
 44
1.0
  0
MTEXT
  5
284
330
277
100
AcDbEntity
  8
DIMS
100
AcDbMText
 10
48.8968583497
 20
14.1671056229
 30
0.0
 40
0.2916666667
 41
0.0
 71
     1
 72
     1
  1
"
  7
SLDTEXTSTYLE0
 73
     1
 44
1.0
  0
ENDBLK
  5
279
330
277
100
AcDbEntity
  8
0
100
AcDbBlockEnd
  0
BLOCK
  5
391
330
390
100
AcDbEntity
  8
0
100
AcDbBlockBegin
  2
SW_NOTE_0_2
 70
     0
 10
0.0
 20
0.0
 30
0.0
  3
SW_NOTE_0_2
  1

  0
MTEXT
  5
393
330
390
100
AcDbEntity
  8
NOTES
 62
     0
100
AcDbMText
 10
0.0
 20
0.3759780908
 30
0.0
 40
0.2916666667
 41
0.0
 71
     1
 72
     1
  1
3D view
  7
SLDTEXTSTYLE0
 73
     1
 44
1.0
  0
MTEXT
  5
394
330
390
100
AcDbEntity
  8
NOTES
 62
     0
100
AcDbMText
 10
0.0
 20
-0.0522808786
 30
0.0
 40
0.2916666667
 41
0.0
 71
     1
 72
     1
  1
code 950-8x18
  7
SLDTEXTSTYLE0
 73
     1
 44
1.0
  0
ENDBLK
  5
392
330
390
100
AcDbEntity
  8
0
100
AcDbBlockEnd
  0
BLOCK
  5
409
330
408
100
AcDbEntity
  8
0
100
AcDbBlockBegin
  2
_D_8
 70
     0
 10
0.0
 20
0.0
 30
0.0
  3
_D_8
  1

  0
INSERT
  5
40B
330
408
100
AcDbEntity
  8
DIMS
100
AcDbBlockReference
  2
_Open30
 10
33.9388738158
 20
26.8832042245
 30
1.9740161306
 41
0.08
 42
0.08
 50
270.0
  0
INSERT
  5
40C
330
408
100
AcDbEntity
  8
DIMS
100
AcDbBlockReference
  2
_Open30
 10
33.9388738158
 20
34.8857326419
 30
1.9740161306
 41
0.08
 42
0.08
 50
90.0
  0
LINE
  5
40D
330
408
100
AcDbEntity
  8
DIMS
100
AcDbLine
 10
33.105093304
 20
26.8832042245
 30
0.0
 11
34.0638738158
 21
26.8832042245
 31
0.0
  0
LINE
  5
40E
330
408
100
AcDbEntity
  8
DIMS
100
AcDbLine
 10
33.0651326741
 20
34.8857326419
 30
0.0
 11
34.0638738158
 21
34.8857326419
 31
0.0
  0
LINE
  5
40F
330
408
100
AcDbEntity
  8
DIMS
100
AcDbLine
 10
33.9388738158
 20
26.8832042245
 30
0.0
 11
33.9388738158
 21
30.6274258371
 31
0.0
  0
LINE
  5
410
330
408
100
AcDbEntity
  8
DIMS
100
AcDbLine
 10
33.9388738158
 20
34.8857326419
 30
0.0
 11
33.9388738158
 21
31.0681665823
 31
0.0
  0
MTEXT
  5
411
330
408
100
AcDbEntity
  8
DIMS
100
AcDbMText
 10
33.7935806101
 20
31.0034039279
 30
0.0
 40
0.2916666667
 41
0.0
 71
     1
 72
     1
  1
8"
  7
SLDTEXTSTYLE0
 73
     1
 44
1.0
  0
ENDBLK
  5
40A
330
408
100
AcDbEntity
  8
0
100
AcDbBlockEnd
  0
BLOCK
  5
414
330
413
100
AcDbEntity
  8
0
100
AcDbBlockBegin
  2
_D_9
 70
     0
 10
0.0
 20
0.0
 30
0.0
  3
_D_9
  1

  0
INSERT
  5
416
330
413
100
AcDbEntity
  8
DIMS
100
AcDbBlockReference
  2
_Open30
 10
33.0726326741
 20
35.2794334293
 30
1.9740161306
 41
0.08
 42
0.08
 50
0.0
  0
INSERT
  5
417
330
413
100
AcDbEntity
  8
DIMS
100
AcDbBlockReference
  2
_Open30
 10
15.0726703198
 20
35.2794334293
 30
1.9740161306
 41
0.08
 42
0.08
 50
180.0
  0
LINE
  5
418
330
413
100
AcDbEntity
  8
DIMS
100
AcDbLine
 10
33.0726326741
 20
34.9406596297
 30
0.0
 11
33.0726326741
 21
35.4044334293
 31
0.0
  0
LINE
  5
419
330
413
100
AcDbEntity
  8
DIMS
100
AcDbLine
 10
15.0726703198
 20
34.9406596297
 30
0.0
 11
15.0726703198
 21
35.4044334293
 31
0.0
  0
LINE
  5
41A
330
413
100
AcDbEntity
  8
DIMS
100
AcDbLine
 10
33.0726326741
 20
35.2794334293
 30
0.0
 11
24.2885864803
 21
35.2794334293
 31
0.0
  0
LINE
  5
41B
330
413
100
AcDbEntity
  8
DIMS
100
AcDbLine
 10
15.0726703198
 20
35.2794334293
 30
0.0
 11
23.8208395804
 21
35.2794334293
 31
0.0
  0
MTEXT
  5
41C
330
413
100
AcDbEntity
  8
DIMS
100
AcDbMText
 10
23.8208395804
 20
35.4350411475
 30
0.0
 40
0.2916666667
 41
0.0
 71
     1
 72
     1
  1
18"
  7
SLDTEXTSTYLE0
 73
     1
 44
1.0
  0
ENDBLK
  5
415
330
413
100
AcDbEntity
  8
0
100
AcDbBlockEnd
  0
ENDSEC
  0
SECTION
  2
ENTITIES
  0
LINE
  5
78
330
1F
100
AcDbEntity
  8
TITLE
100
AcDbLine
 10
72.5182230965
 20
1.4876117645
 30
0.0
 11
89.4999864512
 21
1.4876117645
 31
0.0
  0
LINE
  5
79
330
1F
100
AcDbEntity
  8
TITLE
100
AcDbLine
 10
89.4999317442
 20
5.4753603936
 30
0.0
 11
79.3105350723
 21
5.4753603936
 31
0.0
  0
LINE
  5
7A
330
1F
100
AcDbEntity
  8
TITLE
  6
Continuous
370
    18
100
AcDbLine
 10
0.5
 20
0.5
 30
0.0
 11
0.5
 21
45.5
 31
0.0
  0
LINE
  5
7B
330
1F
100
AcDbEntity
  8
TITLE
  6
Continuous
370
    18
100
AcDbLine
 10
0.5
 20
45.5
 30
0.0
 11
89.5
 21
45.5
 31
0.0
  0
LINE
  5
7C
330
1F
100
AcDbEntity
  8
TITLE
100
AcDbLine
 10
72.5182230965
 20
2.5427877231
 30
0.0
 11
65.5059791203
 21
2.5427877231
 31
0.0
  0
LINE
  5
7D
330
1F
100
AcDbEntity
  8
TITLE
100
AcDbLine
 10
72.5182230965
 20
1.4876117645
 30
0.0
 11
65.5059791203
 21
1.4876117645
 31
0.0
  0
LINE
  5
7E
330
1F
100
AcDbEntity
  8
TITLE
  6
Continuous
370
    18
100
AcDbLine
 10
89.5
 20
45.5
 30
0.0
 11
89.5
 21
0.5
 31
0.0
  0
LINE
  5
7F
330
1F
100
AcDbEntity
  8
TITLE
  6
Continuous
370
    18
100
AcDbLine
 10
89.5
 20
0.5
 30
0.0
 11
0.5
 21
0.5
 31
0.0
  0
LINE
  5
80
330
1F
100
AcDbEntity
  8
TITLE
100
AcDbLine
 10
72.5182230965
 20
1.4876117645
 30
0.0
 11
72.5182230965
 21
3.5979636817
 31
0.0
  0
LINE
  5
81
330
1F
100
AcDbEntity
  8
TITLE
100
AcDbLine
 10
65.5059791203
 20
3.5979636817
 30
0.0
 11
65.5059791203
 21
0.5
 31
0.0
  0
LINE
  5
82
330
1F
100
AcDbEntity
  8
TITLE
100
AcDbLine
 10
65.5059791203
 20
0.5
 30
0.0
 11
89.5
 21
0.5
 31
0.0
  0
LINE
  5
83
330
1F
100
AcDbEntity
  8
TITLE
100
AcDbLine
 10
89.4999317442
 20
5.4753603936
 30
0.0
 11
89.5
 21
0.5
 31
0.0
  0
LINE
  5
84
330
1F
100
AcDbEntity
  8
TITLE
100
AcDbLine
 10
72.5182230965
 20
3.5979636817
 30
0.0
 11
65.5059791203
 21
3.5979636817
 31
0.0
  0
LINE
  5
85
330
1F
100
AcDbEntity
  8
TITLE
100
AcDbLine
 10
72.5182230965
 20
3.5979636817
 30
0.0
 11
89.4997615643
 21
3.5979648343
 31
0.0
  0
LINE
  5
86
330
1F
100
AcDbEntity
  8
TITLE
100
AcDbLine
 10
79.3105350723
 20
5.4753603936
 30
0.0
 11
79.3105350723
 21
0.4636772425
 31
0.0
  0
LINE
  5
87
330
1F
100
AcDbEntity
  8
TITLE
  6
Continuous
370
    18
100
AcDbLine
 10
0.4999606299
 20
23.0
 30
0.0
 11
0.5000393701
 21
23.0
 31
0.0
  0
LINE
  5
88
330
1F
100
AcDbEntity
  8
TITLE
  6
Continuous
370
    18
100
AcDbLine
 10
45.0
 20
45.5000393701
 30
0.0
 11
45.0
 21
45.4999606299
 31
0.0
  0
LINE
  5
89
330
1F
100
AcDbEntity
  8
TITLE
  6
Continuous
370
    18
100
AcDbLine
 10
89.5000393701
 20
23.0
 30
0.0
 11
89.4999606299
 21
23.0
 31
0.0
  0
LINE
  5
8A
330
1F
100
AcDbEntity
  8
TITLE
  6
Continuous
370
    18
100
AcDbLine
 10
45.0
 20
0.4999606299
 30
0.0
 11
45.0
 21
0.5000393701
 31
0.0
  0
LINE
  5
8B
330
1F
100
AcDbEntity
  8
TITLE
  6
Continuous
370
    18
100
AcDbLine
 10
0.5
 20
3.3149606299
 30
0.0
 11
0.1653543307
 21
3.3149606299
 31
0.0
  0
LINE
  5
8C
330
1F
100
AcDbEntity
  8
TITLE
  6
Continuous
370
    18
100
AcDbLine
 10
89.5
 20
3.3149606299
 30
0.0
 11
89.8346456693
 21
3.3149606299
 31
0.0
  0
LINE
  5
8D
330
1F
100
AcDbEntity
  8
TITLE
  6
Continuous
370
    18
100
AcDbLine
 10
0.5
 20
5.2834645669
 30
0.0
 11
0.1653543307
 21
5.2834645669
 31
0.0
  0
LINE
  5
8E
330
1F
100
AcDbEntity
  8
TITLE
  6
Continuous
370
    18
100
AcDbLine
 10
89.5
 20
5.2834645669
 30
0.0
 11
89.8346456693
 21
5.2834645669
 31
0.0
  0
LINE
  5
8F
330
1F
100
AcDbEntity
  8
TITLE
  6
Continuous
370
    18
100
AcDbLine
 10
0.5
 20
7.2519685039
 30
0.0
 11
0.1653543307
 21
7.2519685039
 31
0.0
  0
LINE
  5
90
330
1F
100
AcDbEntity
  8
TITLE
  6
Continuous
370
    18
100
AcDbLine
 10
89.5
 20
7.2519685039
 30
0.0
 11
89.8346456693
 21
7.2519685039
 31
0.0
  0
LINE
  5
91
330
1F
100
AcDbEntity
  8
TITLE
  6
Continuous
370
    18
100
AcDbLine
 10
0.5
 20
9.2204724409
 30
0.0
 11
0.1653543307
 21
9.2204724409
 31
0.0
  0
LINE
  5
92
330
1F
100
AcDbEntity
  8
TITLE
  6
Continuous
370
    18
100
AcDbLine
 10
89.5
 20
9.2204724409
 30
0.0
 11
89.8346456693
 21
9.2204724409
 31
0.0
  0
LINE
  5
93
330
1F
100
AcDbEntity
  8
TITLE
  6
Continuous
370
    18
100
AcDbLine
 10
0.5
 20
11.188976378
 30
0.0
 11
0.1653543307
 21
11.188976378
 31
0.0
  0
LINE
  5
94
330
1F
100
AcDbEntity
  8
TITLE
  6
Continuous
370
    18
100
AcDbLine
 10
89.5
 20
11.188976378
 30
0.0
 11
89.8346456693
 21
11.188976378
 31
0.0
  0
LINE
  5
95
330
1F
100
AcDbEntity
  8
TITLE
  6
Continuous
370
    18
100
AcDbLine
 10
0.5
 20
13.157480315
 30
0.0
 11
0.1653543307
 21
13.157480315
 31
0.0
  0
LINE
  5
96
330
1F
100
AcDbEntity
  8
TITLE
  6
Continuous
370
    18
100
AcDbLine
 10
89.5
 20
13.157480315
 30
0.0
 11
89.8346456693
 21
13.157480315
 31
0.0
  0
LINE
  5
97
330
1F
100
AcDbEntity
  8
TITLE
  6
Continuous
370
    18
100
AcDbLine
 10
0.5
 20
15.125984252
 30
0.0
 11
0.1653543307
 21
15.125984252
 31
0.0
  0
LINE
  5
98
330
1F
100
AcDbEntity
  8
TITLE
  6
Continuous
370
    18
100
AcDbLine
 10
89.5
 20
15.125984252
 30
0.0
 11
89.8346456693
 21
15.125984252
 31
0.0
  0
LINE
  5
99
330
1F
100
AcDbEntity
  8
TITLE
  6
Continuous
370
    18
100
AcDbLine
 10
0.5
 20
17.094488189
 30
0.0
 11
0.1653543307
 21
17.094488189
 31
0.0
  0
LINE
  5
9A
330
1F
100
AcDbEntity
  8
TITLE
  6
Continuous
370
    18
100
AcDbLine
 10
89.5
 20
17.094488189
 30
0.0
 11
89.8346456693
 21
17.094488189
 31
0.0
  0
LINE
  5
9B
330
1F
100
AcDbEntity
  8
TITLE
  6
Continuous
370
    18
100
AcDbLine
 10
0.5
 20
19.062992126
 30
0.0
 11
0.1653543307
 21
19.062992126
 31
0.0
  0
LINE
  5
9C
330
1F
100
AcDbEntity
  8
TITLE
  6
Continuous
370
    18
100
AcDbLine
 10
89.5
 20
19.062992126
 30
0.0
 11
89.8346456693
 21
19.062992126
 31
0.0
  0
LINE
  5
9D
330
1F
100
AcDbEntity
  8
TITLE
  6
Continuous
370
    18
100
AcDbLine
 10
0.5
 20
21.031496063
 30
0.0
 11
0.1653543307
 21
21.031496063
 31
0.0
  0
LINE
  5
9E
330
1F
100
AcDbEntity
  8
TITLE
  6
Continuous
370
    18
100
AcDbLine
 10
89.5
 20
21.031496063
 30
0.0
 11
89.8346456693
 21
21.031496063
 31
0.0
  0
LINE
  5
9F
330
1F
100
AcDbEntity
  8
TITLE
  6
Continuous
370
    18
100
AcDbLine
 10
0.4999606299
 20
23.0
 30
0.0
 11
0.1653543307
 21
23.0
 31
0.0
  0
LINE
  5
A0
330
1F
100
AcDbEntity
  8
TITLE
  6
Continuous
370
    18
100
AcDbLine
 10
89.5000393701
 20
23.0
 30
0.0
 11
89.8346456693
 21
23.0
 31
0.0
  0
LINE
  5
A1
330
1F
100
AcDbEntity
  8
TITLE
  6
Continuous
370
    18
100
AcDbLine
 10
0.5
 20
24.968503937
 30
0.0
 11
0.1653543307
 21
24.968503937
 31
0.0
  0
LINE
  5
A2
330
1F
100
AcDbEntity
  8
TITLE
  6
Continuous
370
    18
100
AcDbLine
 10
89.5
 20
24.968503937
 30
0.0
 11
89.8346456693
 21
24.968503937
 31
0.0
  0
LINE
  5
A3
330
1F
100
AcDbEntity
  8
TITLE
  6
Continuous
370
    18
100
AcDbLine
 10
0.5
 20
26.937007874
 30
0.0
 11
0.1653543307
 21
26.937007874
 31
0.0
  0
LINE
  5
A4
330
1F
100
AcDbEntity
  8
TITLE
  6
Continuous
370
    18
100
AcDbLine
 10
89.5
 20
26.937007874
 30
0.0
 11
89.8346456693
 21
26.937007874
 31
0.0
  0
LINE
  5
A5
330
1F
100
AcDbEntity
  8
TITLE
  6
Continuous
370
    18
100
AcDbLine
 10
0.5
 20
28.905511811
 30
0.0
 11
0.1653543307
 21
28.905511811
 31
0.0
  0
LINE
  5
A6
330
1F
100
AcDbEntity
  8
TITLE
  6
Continuous
370
    18
100
AcDbLine
 10
89.5
 20
28.905511811
 30
0.0
 11
89.8346456693
 21
28.905511811
 31
0.0
  0
LINE
  5
A7
330
1F
100
AcDbEntity
  8
TITLE
  6
Continuous
370
    18
100
AcDbLine
 10
0.5
 20
30.874015748
 30
0.0
 11
0.1653543307
 21
30.874015748
 31
0.0
  0
LINE
  5
A8
330
1F
100
AcDbEntity
  8
TITLE
  6
Continuous
370
    18
100
AcDbLine
 10
89.5
 20
30.874015748
 30
0.0
 11
89.8346456693
 21
30.874015748
 31
0.0
  0
LINE
  5
A9
330
1F
100
AcDbEntity
  8
TITLE
  6
Continuous
370
    18
100
AcDbLine
 10
0.5
 20
32.842519685
 30
0.0
 11
0.1653543307
 21
32.842519685
 31
0.0
  0
LINE
  5
AA
330
1F
100
AcDbEntity
  8
TITLE
  6
Continuous
370
    18
100
AcDbLine
 10
89.5
 20
32.842519685
 30
0.0
 11
89.8346456693
 21
32.842519685
 31
0.0
  0
LINE
  5
AB
330
1F
100
AcDbEntity
  8
TITLE
  6
Continuous
370
    18
100
AcDbLine
 10
0.5
 20
34.811023622
 30
0.0
 11
0.1653543307
 21
34.811023622
 31
0.0
  0
LINE
  5
AC
330
1F
100
AcDbEntity
  8
TITLE
  6
Continuous
370
    18
100
AcDbLine
 10
89.5
 20
34.811023622
 30
0.0
 11
89.8346456693
 21
34.811023622
 31
0.0
  0
LINE
  5
AD
330
1F
100
AcDbEntity
  8
TITLE
  6
Continuous
370
    18
100
AcDbLine
 10
0.5
 20
36.7795275591
 30
0.0
 11
0.1653543307
 21
36.7795275591
 31
0.0
  0
LINE
  5
AE
330
1F
100
AcDbEntity
  8
TITLE
  6
Continuous
370
    18
100
AcDbLine
 10
89.5
 20
36.7795275591
 30
0.0
 11
89.8346456693
 21
36.7795275591
 31
0.0
  0
LINE
  5
AF
330
1F
100
AcDbEntity
  8
TITLE
  6
Continuous
370
    18
100
AcDbLine
 10
0.5
 20
38.7480314961
 30
0.0
 11
0.1653543307
 21
38.7480314961
 31
0.0
  0
LINE
  5
B0
330
1F
100
AcDbEntity
  8
TITLE
  6
Continuous
370
    18
100
AcDbLine
 10
89.5
 20
38.7480314961
 30
0.0
 11
89.8346456693
 21
38.7480314961
 31
0.0
  0
LINE
  5
B1
330
1F
100
AcDbEntity
  8
TITLE
  6
Continuous
370
    18
100
AcDbLine
 10
0.5
 20
40.7165354331
 30
0.0
 11
0.1653543307
 21
40.7165354331
 31
0.0
  0
LINE
  5
B2
330
1F
100
AcDbEntity
  8
TITLE
  6
Continuous
370
    18
100
AcDbLine
 10
89.5
 20
40.7165354331
 30
0.0
 11
89.8346456693
 21
40.7165354331
 31
0.0
  0
LINE
  5
B3
330
1F
100
AcDbEntity
  8
TITLE
  6
Continuous
370
    18
100
AcDbLine
 10
0.5
 20
42.6850393701
 30
0.0
 11
0.1653543307
 21
42.6850393701
 31
0.0
  0
LINE
  5
B4
330
1F
100
AcDbEntity
  8
TITLE
  6
Continuous
370
    18
100
AcDbLine
 10
89.5
 20
42.6850393701
 30
0.0
 11
89.8346456693
 21
42.6850393701
 31
0.0
  0
LINE
  5
B5
330
1F
100
AcDbEntity
  8
TITLE
  6
Continuous
370
    18
100
AcDbLine
 10
1.6929133858
 20
45.5
 30
0.0
 11
1.6929133858
 21
45.8346456693
 31
0.0
  0
LINE
  5
B6
330
1F
100
AcDbEntity
  8
TITLE
  6
Continuous
370
    18
100
AcDbLine
 10
1.6929133858
 20
0.5
 30
0.0
 11
1.6929133858
 21
0.1653543307
 31
0.0
  0
LINE
  5
B7
330
1F
100
AcDbEntity
  8
TITLE
  6
Continuous
370
    18
100
AcDbLine
 10
3.6614173228
 20
45.5
 30
0.0
 11
3.6614173228
 21
45.8346456693
 31
0.0
  0
LINE
  5
B8
330
1F
100
AcDbEntity
  8
TITLE
  6
Continuous
370
    18
100
AcDbLine
 10
3.6614173228
 20
0.5
 30
0.0
 11
3.6614173228
 21
0.1653543307
 31
0.0
  0
LINE
  5
B9
330
1F
100
AcDbEntity
  8
TITLE
  6
Continuous
370
    18
100
AcDbLine
 10
5.6299212598
 20
45.5
 30
0.0
 11
5.6299212598
 21
45.8346456693
 31
0.0
  0
LINE
  5
BA
330
1F
100
AcDbEntity
  8
TITLE
  6
Continuous
370
    18
100
AcDbLine
 10
5.6299212598
 20
0.5
 30
0.0
 11
5.6299212598
 21
0.1653543307
 31
0.0
  0
LINE
  5
BB
330
1F
100
AcDbEntity
  8
TITLE
  6
Continuous
370
    18
100
AcDbLine
 10
7.5984251969
 20
45.5
 30
0.0
 11
7.5984251969
 21
45.8346456693
 31
0.0
  0
LINE
  5
BC
330
1F
100
AcDbEntity
  8
TITLE
  6
Continuous
370
    18
100
AcDbLine
 10
7.5984251969
 20
0.5
 30
0.0
 11
7.5984251969
 21
0.1653543307
 31
0.0
  0
LINE
  5
BD
330
1F
100
AcDbEntity
  8
TITLE
  6
Continuous
370
    18
100
AcDbLine
 10
9.5669291339
 20
45.5
 30
0.0
 11
9.5669291339
 21
45.8346456693
 31
0.0
  0
LINE
  5
BE
330
1F
100
AcDbEntity
  8
TITLE
  6
Continuous
370
    18
100
AcDbLine
 10
9.5669291339
 20
0.5
 30
0.0
 11
9.5669291339
 21
0.1653543307
 31
0.0
  0
LINE
  5
BF
330
1F
100
AcDbEntity
  8
TITLE
  6
Continuous
370
    18
100
AcDbLine
 10
11.5354330709
 20
45.5
 30
0.0
 11
11.5354330709
 21
45.8346456693
 31
0.0
  0
LINE
  5
C0
330
1F
100
AcDbEntity
  8
TITLE
  6
Continuous
370
    18
100
AcDbLine
 10
11.5354330709
 20
0.5
 30
0.0
 11
11.5354330709
 21
0.1653543307
 31
0.0
  0
LINE
  5
C1
330
1F
100
AcDbEntity
  8
TITLE
  6
Continuous
370
    18
100
AcDbLine
 10
13.5039370079
 20
45.5
 30
0.0
 11
13.5039370079
 21
45.8346456693
 31
0.0
  0
LINE
  5
C2
330
1F
100
AcDbEntity
  8
TITLE
  6
Continuous
370
    18
100
AcDbLine
 10
13.5039370079
 20
0.5
 30
0.0
 11
13.5039370079
 21
0.1653543307
 31
0.0
  0
LINE
  5
C3
330
1F
100
AcDbEntity
  8
TITLE
  6
Continuous
370
    18
100
AcDbLine
 10
15.4724409449
 20
45.5
 30
0.0
 11
15.4724409449
 21
45.8346456693
 31
0.0
  0
LINE
  5
C4
330
1F
100
AcDbEntity
  8
TITLE
  6
Continuous
370
    18
100
AcDbLine
 10
15.4724409449
 20
0.5
 30
0.0
 11
15.4724409449
 21
0.1653543307
 31
0.0
  0
LINE
  5
C5
330
1F
100
AcDbEntity
  8
TITLE
  6
Continuous
370
    18
100
AcDbLine
 10
17.4409448819
 20
45.5
 30
0.0
 11
17.4409448819
 21
45.8346456693
 31
0.0
  0
LINE
  5
C6
330
1F
100
AcDbEntity
  8
TITLE
  6
Continuous
370
    18
100
AcDbLine
 10
17.4409448819
 20
0.5
 30
0.0
 11
17.4409448819
 21
0.1653543307
 31
0.0
  0
LINE
  5
C7
330
1F
100
AcDbEntity
  8
TITLE
  6
Continuous
370
    18
100
AcDbLine
 10
19.4094488189
 20
45.5
 30
0.0
 11
19.4094488189
 21
45.8346456693
 31
0.0
  0
LINE
  5
C8
330
1F
100
AcDbEntity
  8
TITLE
  6
Continuous
370
    18
100
AcDbLine
 10
19.4094488189
 20
0.5
 30
0.0
 11
19.4094488189
 21
0.1653543307
 31
0.0
  0
LINE
  5
C9
330
1F
100
AcDbEntity
  8
TITLE
  6
Continuous
370
    18
100
AcDbLine
 10
21.3779527559
 20
45.5
 30
0.0
 11
21.3779527559
 21
45.8346456693
 31
0.0
  0
LINE
  5
CA
330
1F
100
AcDbEntity
  8
TITLE
  6
Continuous
370
    18
100
AcDbLine
 10
21.3779527559
 20
0.5
 30
0.0
 11
21.3779527559
 21
0.1653543307
 31
0.0
  0
LINE
  5
CB
330
1F
100
AcDbEntity
  8
TITLE
  6
Continuous
370
    18
100
AcDbLine
 10
23.3464566929
 20
45.5
 30
0.0
 11
23.3464566929
 21
45.8346456693
 31
0.0
  0
LINE
  5
CC
330
1F
100
AcDbEntity
  8
TITLE
  6
Continuous
370
    18
100
AcDbLine
 10
23.3464566929
 20
0.5
 30
0.0
 11
23.3464566929
 21
0.1653543307
 31
0.0
  0
LINE
  5
CD
330
1F
100
AcDbEntity
  8
TITLE
  6
Continuous
370
    18
100
AcDbLine
 10
25.3149606299
 20
45.5
 30
0.0
 11
25.3149606299
 21
45.8346456693
 31
0.0
  0
LINE
  5
CE
330
1F
100
AcDbEntity
  8
TITLE
  6
Continuous
370
    18
100
AcDbLine
 10
25.3149606299
 20
0.5
 30
0.0
 11
25.3149606299
 21
0.1653543307
 31
0.0
  0
LINE
  5
CF
330
1F
100
AcDbEntity
  8
TITLE
  6
Continuous
370
    18
100
AcDbLine
 10
27.2834645669
 20
45.5
 30
0.0
 11
27.2834645669
 21
45.8346456693
 31
0.0
  0
LINE
  5
D0
330
1F
100
AcDbEntity
  8
TITLE
  6
Continuous
370
    18
100
AcDbLine
 10
27.2834645669
 20
0.5
 30
0.0
 11
27.2834645669
 21
0.1653543307
 31
0.0
  0
LINE
  5
D1
330
1F
100
AcDbEntity
  8
TITLE
  6
Continuous
370
    18
100
AcDbLine
 10
29.2519685039
 20
45.5
 30
0.0
 11
29.2519685039
 21
45.8346456693
 31
0.0
  0
LINE
  5
D2
330
1F
100
AcDbEntity
  8
TITLE
  6
Continuous
370
    18
100
AcDbLine
 10
29.2519685039
 20
0.5
 30
0.0
 11
29.2519685039
 21
0.1653543307
 31
0.0
  0
LINE
  5
D3
330
1F
100
AcDbEntity
  8
TITLE
  6
Continuous
370
    18
100
AcDbLine
 10
31.2204724409
 20
45.5
 30
0.0
 11
31.2204724409
 21
45.8346456693
 31
0.0
  0
LINE
  5
D4
330
1F
100
AcDbEntity
  8
TITLE
  6
Continuous
370
    18
100
AcDbLine
 10
31.2204724409
 20
0.5
 30
0.0
 11
31.2204724409
 21
0.1653543307
 31
0.0
  0
LINE
  5
D5
330
1F
100
AcDbEntity
  8
TITLE
  6
Continuous
370
    18
100
AcDbLine
 10
33.188976378
 20
45.5
 30
0.0
 11
33.188976378
 21
45.8346456693
 31
0.0
  0
LINE
  5
D6
330
1F
100
AcDbEntity
  8
TITLE
  6
Continuous
370
    18
100
AcDbLine
 10
33.188976378
 20
0.5
 30
0.0
 11
33.188976378
 21
0.1653543307
 31
0.0
  0
LINE
  5
D7
330
1F
100
AcDbEntity
  8
TITLE
  6
Continuous
370
    18
100
AcDbLine
 10
35.157480315
 20
45.5
 30
0.0
 11
35.157480315
 21
45.8346456693
 31
0.0
  0
LINE
  5
D8
330
1F
100
AcDbEntity
  8
TITLE
  6
Continuous
370
    18
100
AcDbLine
 10
35.157480315
 20
0.5
 30
0.0
 11
35.157480315
 21
0.1653543307
 31
0.0
  0
LINE
  5
D9
330
1F
100
AcDbEntity
  8
TITLE
  6
Continuous
370
    18
100
AcDbLine
 10
37.125984252
 20
45.5
 30
0.0
 11
37.125984252
 21
45.8346456693
 31
0.0
  0
LINE
  5
DA
330
1F
100
AcDbEntity
  8
TITLE
  6
Continuous
370
    18
100
AcDbLine
 10
37.125984252
 20
0.5
 30
0.0
 11
37.125984252
 21
0.1653543307
 31
0.0
  0
LINE
  5
DB
330
1F
100
AcDbEntity
  8
TITLE
  6
Continuous
370
    18
100
AcDbLine
 10
39.094488189
 20
45.5
 30
0.0
 11
39.094488189
 21
45.8346456693
 31
0.0
  0
LINE
  5
DC
330
1F
100
AcDbEntity
  8
TITLE
  6
Continuous
370
    18
100
AcDbLine
 10
39.094488189
 20
0.5
 30
0.0
 11
39.094488189
 21
0.1653543307
 31
0.0
  0
LINE
  5
DD
330
1F
100
AcDbEntity
  8
TITLE
  6
Continuous
370
    18
100
AcDbLine
 10
41.062992126
 20
45.5
 30
0.0
 11
41.062992126
 21
45.8346456693
 31
0.0
  0
LINE
  5
DE
330
1F
100
AcDbEntity
  8
TITLE
  6
Continuous
370
    18
100
AcDbLine
 10
41.062992126
 20
0.5
 30
0.0
 11
41.062992126
 21
0.1653543307
 31
0.0
  0
LINE
  5
DF
330
1F
100
AcDbEntity
  8
TITLE
  6
Continuous
370
    18
100
AcDbLine
 10
43.031496063
 20
45.5
 30
0.0
 11
43.031496063
 21
45.8346456693
 31
0.0
  0
LINE
  5
E0
330
1F
100
AcDbEntity
  8
TITLE
  6
Continuous
370
    18
100
AcDbLine
 10
43.031496063
 20
0.5
 30
0.0
 11
43.031496063
 21
0.1653543307
 31
0.0
  0
LINE
  5
E1
330
1F
100
AcDbEntity
  8
TITLE
  6
Continuous
370
    18
100
AcDbLine
 10
45.0
 20
45.5000393701
 30
0.0
 11
45.0
 21
45.8346456693
 31
0.0
  0
LINE
  5
E2
330
1F
100
AcDbEntity
  8
TITLE
  6
Continuous
370
    18
100
AcDbLine
 10
45.0
 20
0.4999606299
 30
0.0
 11
45.0
 21
0.1653543307
 31
0.0
  0
LINE
  5
E3
330
1F
100
AcDbEntity
  8
TITLE
  6
Continuous
370
    18
100
AcDbLine
 10
46.968503937
 20
45.5
 30
0.0
 11
46.968503937
 21
45.8346456693
 31
0.0
  0
LINE
  5
E4
330
1F
100
AcDbEntity
  8
TITLE
  6
Continuous
370
    18
100
AcDbLine
 10
46.968503937
 20
0.5
 30
0.0
 11
46.968503937
 21
0.1653543307
 31
0.0
  0
LINE
  5
E5
330
1F
100
AcDbEntity
  8
TITLE
  6
Continuous
370
    18
100
AcDbLine
 10
48.937007874
 20
45.5
 30
0.0
 11
48.937007874
 21
45.8346456693
 31
0.0
  0
LINE
  5
E6
330
1F
100
AcDbEntity
  8
TITLE
  6
Continuous
370
    18
100
AcDbLine
 10
48.937007874
 20
0.5
 30
0.0
 11
48.937007874
 21
0.1653543307
 31
0.0
  0
LINE
  5
E7
330
1F
100
AcDbEntity
  8
TITLE
  6
Continuous
370
    18
100
AcDbLine
 10
50.905511811
 20
45.5
 30
0.0
 11
50.905511811
 21
45.8346456693
 31
0.0
  0
LINE
  5
E8
330
1F
100
AcDbEntity
  8
TITLE
  6
Continuous
370
    18
100
AcDbLine
 10
50.905511811
 20
0.5
 30
0.0
 11
50.905511811
 21
0.1653543307
 31
0.0
  0
LINE
  5
E9
330
1F
100
AcDbEntity
  8
TITLE
  6
Continuous
370
    18
100
AcDbLine
 10
52.874015748
 20
45.5
 30
0.0
 11
52.874015748
 21
45.8346456693
 31
0.0
  0
LINE
  5
EA
330
1F
100
AcDbEntity
  8
TITLE
  6
Continuous
370
    18
100
AcDbLine
 10
52.874015748
 20
0.5
 30
0.0
 11
52.874015748
 21
0.1653543307
 31
0.0
  0
LINE
  5
EB
330
1F
100
AcDbEntity
  8
TITLE
  6
Continuous
370
    18
100
AcDbLine
 10
54.842519685
 20
45.5
 30
0.0
 11
54.842519685
 21
45.8346456693
 31
0.0
  0
LINE
  5
EC
330
1F
100
AcDbEntity
  8
TITLE
  6
Continuous
370
    18
100
AcDbLine
 10
54.842519685
 20
0.5
 30
0.0
 11
54.842519685
 21
0.1653543307
 31
0.0
  0
LINE
  5
ED
330
1F
100
AcDbEntity
  8
TITLE
  6
Continuous
370
    18
100
AcDbLine
 10
56.811023622
 20
45.5
 30
0.0
 11
56.811023622
 21
45.8346456693
 31
0.0
  0
LINE
  5
EE
330
1F
100
AcDbEntity
  8
TITLE
  6
Continuous
370
    18
100
AcDbLine
 10
56.811023622
 20
0.5
 30
0.0
 11
56.811023622
 21
0.1653543307
 31
0.0
  0
LINE
  5
EF
330
1F
100
AcDbEntity
  8
TITLE
  6
Continuous
370
    18
100
AcDbLine
 10
58.7795275591
 20
45.5
 30
0.0
 11
58.7795275591
 21
45.8346456693
 31
0.0
  0
LINE
  5
F0
330
1F
100
AcDbEntity
  8
TITLE
  6
Continuous
370
    18
100
AcDbLine
 10
58.7795275591
 20
0.5
 30
0.0
 11
58.7795275591
 21
0.1653543307
 31
0.0
  0
LINE
  5
F1
330
1F
100
AcDbEntity
  8
TITLE
  6
Continuous
370
    18
100
AcDbLine
 10
60.7480314961
 20
45.5
 30
0.0
 11
60.7480314961
 21
45.8346456693
 31
0.0
  0
LINE
  5
F2
330
1F
100
AcDbEntity
  8
TITLE
  6
Continuous
370
    18
100
AcDbLine
 10
60.7480314961
 20
0.5
 30
0.0
 11
60.7480314961
 21
0.1653543307
 31
0.0
  0
LINE
  5
F3
330
1F
100
AcDbEntity
  8
TITLE
  6
Continuous
370
    18
100
AcDbLine
 10
62.7165354331
 20
45.5
 30
0.0
 11
62.7165354331
 21
45.8346456693
 31
0.0
  0
LINE
  5
F4
330
1F
100
AcDbEntity
  8
TITLE
  6
Continuous
370
    18
100
AcDbLine
 10
62.7165354331
 20
0.5
 30
0.0
 11
62.7165354331
 21
0.1653543307
 31
0.0
  0
LINE
  5
F5
330
1F
100
AcDbEntity
  8
TITLE
  6
Continuous
370
    18
100
AcDbLine
 10
64.6850393701
 20
45.5
 30
0.0
 11
64.6850393701
 21
45.8346456693
 31
0.0
  0
LINE
  5
F6
330
1F
100
AcDbEntity
  8
TITLE
  6
Continuous
370
    18
100
AcDbLine
 10
64.6850393701
 20
0.5
 30
0.0
 11
64.6850393701
 21
0.1653543307
 31
0.0
  0
LINE
  5
F7
330
1F
100
AcDbEntity
  8
TITLE
  6
Continuous
370
    18
100
AcDbLine
 10
66.6535433071
 20
45.5
 30
0.0
 11
66.6535433071
 21
45.8346456693
 31
0.0
  0
LINE
  5
F8
330
1F
100
AcDbEntity
  8
TITLE
  6
Continuous
370
    18
100
AcDbLine
 10
66.6535433071
 20
0.5
 30
0.0
 11
66.6535433071
 21
0.1653543307
 31
0.0
  0
LINE
  5
F9
330
1F
100
AcDbEntity
  8
TITLE
  6
Continuous
370
    18
100
AcDbLine
 10
68.6220472441
 20
45.5
 30
0.0
 11
68.6220472441
 21
45.8346456693
 31
0.0
  0
LINE
  5
FA
330
1F
100
AcDbEntity
  8
TITLE
  6
Continuous
370
    18
100
AcDbLine
 10
68.6220472441
 20
0.5
 30
0.0
 11
68.6220472441
 21
0.1653543307
 31
0.0
  0
LINE
  5
FB
330
1F
100
AcDbEntity
  8
TITLE
  6
Continuous
370
    18
100
AcDbLine
 10
70.5905511811
 20
45.5
 30
0.0
 11
70.5905511811
 21
45.8346456693
 31
0.0
  0
LINE
  5
FC
330
1F
100
AcDbEntity
  8
TITLE
  6
Continuous
370
    18
100
AcDbLine
 10
70.5905511811
 20
0.5
 30
0.0
 11
70.5905511811
 21
0.1653543307
 31
0.0
  0
LINE
  5
FD
330
1F
100
AcDbEntity
  8
TITLE
  6
Continuous
370
    18
100
AcDbLine
 10
72.5590551181
 20
45.5
 30
0.0
 11
72.5590551181
 21
45.8346456693
 31
0.0
  0
LINE
  5
FE
330
1F
100
AcDbEntity
  8
TITLE
  6
Continuous
370
    18
100
AcDbLine
 10
72.5590551181
 20
0.5
 30
0.0
 11
72.5590551181
 21
0.1653543307
 31
0.0
  0
LINE
  5
FF
330
1F
100
AcDbEntity
  8
TITLE
  6
Continuous
370
    18
100
AcDbLine
 10
74.5275590551
 20
45.5
 30
0.0
 11
74.5275590551
 21
45.8346456693
 31
0.0
  0
LINE
  5
100
330
1F
100
AcDbEntity
  8
TITLE
  6
Continuous
370
    18
100
AcDbLine
 10
74.5275590551
 20
0.5
 30
0.0
 11
74.5275590551
 21
0.1653543307
 31
0.0
  0
LINE
  5
101
330
1F
100
AcDbEntity
  8
TITLE
  6
Continuous
370
    18
100
AcDbLine
 10
76.4960629921
 20
45.5
 30
0.0
 11
76.4960629921
 21
45.8346456693
 31
0.0
  0
LINE
  5
102
330
1F
100
AcDbEntity
  8
TITLE
  6
Continuous
370
    18
100
AcDbLine
 10
76.4960629921
 20
0.5
 30
0.0
 11
76.4960629921
 21
0.1653543307
 31
0.0
  0
LINE
  5
103
330
1F
100
AcDbEntity
  8
TITLE
  6
Continuous
370
    18
100
AcDbLine
 10
78.4645669291
 20
45.5
 30
0.0
 11
78.4645669291
 21
45.8346456693
 31
0.0
  0
LINE
  5
104
330
1F
100
AcDbEntity
  8
TITLE
  6
Continuous
370
    18
100
AcDbLine
 10
78.4645669291
 20
0.5
 30
0.0
 11
78.4645669291
 21
0.1653543307
 31
0.0
  0
LINE
  5
105
330
1F
100
AcDbEntity
  8
TITLE
  6
Continuous
370
    18
100
AcDbLine
 10
80.4330708661
 20
45.5
 30
0.0
 11
80.4330708661
 21
45.8346456693
 31
0.0
  0
LINE
  5
106
330
1F
100
AcDbEntity
  8
TITLE
  6
Continuous
370
    18
100
AcDbLine
 10
80.4330708661
 20
0.5
 30
0.0
 11
80.4330708661
 21
0.1653543307
 31
0.0
  0
LINE
  5
107
330
1F
100
AcDbEntity
  8
TITLE
  6
Continuous
370
    18
100
AcDbLine
 10
82.4015748031
 20
45.5
 30
0.0
 11
82.4015748031
 21
45.8346456693
 31
0.0
  0
LINE
  5
108
330
1F
100
AcDbEntity
  8
TITLE
  6
Continuous
370
    18
100
AcDbLine
 10
82.4015748031
 20
0.5
 30
0.0
 11
82.4015748031
 21
0.1653543307
 31
0.0
  0
LINE
  5
109
330
1F
100
AcDbEntity
  8
TITLE
  6
Continuous
370
    18
100
AcDbLine
 10
84.3700787402
 20
45.5
 30
0.0
 11
84.3700787402
 21
45.8346456693
 31
0.0
  0
LINE
  5
10A
330
1F
100
AcDbEntity
  8
TITLE
  6
Continuous
370
    18
100
AcDbLine
 10
84.3700787402
 20
0.5
 30
0.0
 11
84.3700787402
 21
0.1653543307
 31
0.0
  0
LINE
  5
10B
330
1F
100
AcDbEntity
  8
TITLE
  6
Continuous
370
    18
100
AcDbLine
 10
86.3385826772
 20
45.5
 30
0.0
 11
86.3385826772
 21
45.8346456693
 31
0.0
  0
LINE
  5
10C
330
1F
100
AcDbEntity
  8
TITLE
  6
Continuous
370
    18
100
AcDbLine
 10
86.3385826772
 20
0.5
 30
0.0
 11
86.3385826772
 21
0.1653543307
 31
0.0
  0
LINE
  5
10D
330
1F
100
AcDbEntity
  8
TITLE
  6
Continuous
370
    18
100
AcDbLine
 10
88.3070866142
 20
45.5
 30
0.0
 11
88.3070866142
 21
45.8346456693
 31
0.0
  0
LINE
  5
10E
330
1F
100
AcDbEntity
  8
TITLE
  6
Continuous
370
    18
100
AcDbLine
 10
88.3070866142
 20
0.5
 30
0.0
 11
88.3070866142
 21
0.1653543307
 31
0.0
  0
MTEXT
  5
110
330
1F
100
AcDbEntity
  8
NOTES
100
AcDbMText
 10
66.408297803
 20
1.0702903347
 30
0.0
 40
0.25
 41
0.0
 71
     1
 72
     1
  1
UNLESS OTHERWISE SPECIFIED DIMENSIONS ARE IN INCHES.
  7
SLDTEXTSTYLE0
 73
     1
 44
1.0
  0
MTEXT
  5
111
330
1F
100
AcDbEntity
  8
NOTES
100
AcDbMText
 10
66.4368251132
 20
3.2193045501
 30
0.0
 40
0.25
 41
0.0
 71
     1
 72
     1
  1
DATE:
  7
SLDTEXTSTYLE0
 73
     1
 44
1.0
  0
MTEXT
  5
112
330
1F
100
AcDbEntity
  8
NOTES
100
AcDbMText
 10
68.7130669976
 20
2.1722148141
 30
0.0
 40
0.25
 41
0.0
 71
     2
 72
     1
  1
DO NOT SCALE DRAWING
  7
SLDTEXTSTYLE0
 73
     1
 44
1.0
  0
MTEXT
  5
114
330
1F
100
AcDbEntity
  8
NOTES
100
AcDbMText
 10
72.8307373075
 20
3.2712065527
 30
0.0
 40
0.25
 41
0.0
 71
     1
 72
     1
  1
TITLE:
  7
SLDTEXTSTYLE1
 73
     1
 44
1.0
  0
MTEXT
  5
115
330
1F
100
AcDbEntity
  8
NOTES
100
AcDbMText
 10
80.1561831052
 20
3.2712065527
 30
0.0
 40
0.25
 41
0.0
 71
     1
 72
     1
  1
DWG NO.
  7
SLDTEXTSTYLE1
 73
     1
 44
1.0
  0
MTEXT
  5
117
330
1F
100
AcDbEntity
  8
NOTES
100
AcDbMText
 10
80.1831753203
 20
1.0675125551
 30
0.0
 40
0.25
 41
0.0
 71
     1
 72
     1
  1
SCALE:     1:1
  7
SLDTEXTSTYLE2
 73
     1
 44
1.0
  0
MTEXT
  5
119
330
1F
100
AcDbEntity
  8
NOTES
100
AcDbMText
 10
84.1868762326
 20
2.6539654269
 30
0.0
 40
0.25
 41
0.0
 71
     2
 72
     1
  1
950 Shelf - 8 x18 CAD
  7
SLDTEXTSTYLE3
 73
     1
 44
1.0
  0
MTEXT
  5
11A
330
1F
100
AcDbEntity
  8
NOTES
100
AcDbMText
 10
75.9384891728
 20
2.6418171416
 30
0.0
 40
0.25
 41
0.0
 71
     2
 72
     1
  1
CAD
  7
SLDTEXTSTYLE1
 73
     1
 44
1.0
  0
INSERT
  5
120
330
1F
100
AcDbEntity
  8
NOTES
100
AcDbBlockReference
  2
SW_NOTE_0
 10
80.266131557
 20
4.6105227838
 30
0.0
  0
INSERT
  5
128
330
1F
100
AcDbEntity
  8
NOTES
100
AcDbBlockReference
  2
SW_NOTE_0_1
 10
66.6159726246
 20
5.1481526848
 30
0.0
  0
MTEXT
  5
129
330
1F
100
AcDbEntity
  8
NOTES
100
AcDbMText
 10
69.8653580373
 20
3.2165267706
 30
0.0
 40
0.25
 41
0.0
 71
     2
 72
     1
  1
September 29, 2025
  7
SLDTEXTSTYLE1
 73
     1
 44
1.0
  0
MTEXT
  5
12A
330
1F
100
AcDbEntity
  8
TITLE
100
AcDbMText
 10
0.3276279776
 20
1.9888237582
 30
0.0
 40
0.125
 41
0.0
 71
     2
 72
     1
  1
A
  7
SLDTEXTSTYLE1
 73
     1
 44
1.0
  0
MTEXT
  5
12B
330
1F
100
AcDbEntity
  8
TITLE
100
AcDbMText
 10
89.6622736469
 20
1.9888237582
 30
0.0
 40
0.125
 41
0.0
 71
     2
 72
     1
  1
A
  7
SLDTEXTSTYLE1
 73
     1
 44
1.0
  0
MTEXT
  5
12C
330
1F
100
AcDbEntity
  8
TITLE
100
AcDbMText
 10
0.3317512413
 20
4.3805560417
 30
0.0
 40
0.125
 41
0.0
 71
     2
 72
     1
  1
B
  7
SLDTEXTSTYLE1
 73
     1
 44
1.0
  0
MTEXT
  5
12D
330
1F
100
AcDbEntity
  8
TITLE
100
AcDbMText
 10
89.6663969106
 20
4.3805560417
 30
0.0
 40
0.125
 41
0.0
 71
     2
 72
     1
  1
B
  7
SLDTEXTSTYLE1
 73
     1
 44
1.0
  0
MTEXT
  5
12E
330
1F
100
AcDbEntity
  8
TITLE
100
AcDbMText
 10
0.3313750817
 20
6.3490599787
 30
0.0
 40
0.125
 41
0.0
 71
     2
 72
     1
  1
C
  7
SLDTEXTSTYLE1
 73
     1
 44
1.0
  0
MTEXT
  5
12F
330
1F
100
AcDbEntity
  8
TITLE
100
AcDbMText
 10
89.666020751
 20
6.3490599787
 30
0.0
 40
0.125
 41
0.0
 71
     2
 72
     1
  1
C
  7
SLDTEXTSTYLE1
 73
     1
 44
1.0
  0
MTEXT
  5
130
330
1F
100
AcDbEntity
  8
TITLE
100
AcDbMText
 10
0.3311870028
 20
8.3175639157
 30
0.0
 40
0.125
 41
0.0
 71
     2
 72
     1
  1
D
  7
SLDTEXTSTYLE1
 73
     1
 44
1.0
  0
MTEXT
  5
131
330
1F
100
AcDbEntity
  8
TITLE
100
AcDbMText
 10
89.6658326721
 20
8.3175639157
 30
0.0
 40
0.125
 41
0.0
 71
     2
 72
     1
  1
D
  7
SLDTEXTSTYLE1
 73
     1
 44
1.0
  0
MTEXT
  5
132
330
1F
100
AcDbEntity
  8
TITLE
100
AcDbMText
 10
0.332923116
 20
10.2860678527
 30
0.0
 40
0.125
 41
0.0
 71
     2
 72
     1
  1
E
  7
SLDTEXTSTYLE1
 73
     1
 44
1.0
  0
MTEXT
  5
133
330
1F
100
AcDbEntity
  8
TITLE
100
AcDbMText
 10
89.6675687853
 20
10.2860678527
 30
0.0
 40
0.125
 41
0.0
 71
     2
 72
     1
  1
E
  7
SLDTEXTSTYLE1
 73
     1
 44
1.0
  0
MTEXT
  5
134
330
1F
100
AcDbEntity
  8
TITLE
100
AcDbMText
 10
0.3313461474
 20
12.2545717897
 30
0.0
 40
0.125
 41
0.0
 71
     2
 72
     1
  1
F
  7
SLDTEXTSTYLE1
 73
     1
 44
1.0
  0
MTEXT
  5
135
330
1F
100
AcDbEntity
  8
TITLE
100
AcDbMText
 10
89.6659918167
 20
12.2545717897
 30
0.0
 40
0.125
 41
0.0
 71
     2
 72
     1
  1
F
  7
SLDTEXTSTYLE1
 73
     1
 44
1.0
  0
MTEXT
  5
136
330
1F
100
AcDbEntity
  8
TITLE
100
AcDbMText
 10
0.3322576054
 20
14.2230757267
 30
0.0
 40
0.125
 41
0.0
 71
     2
 72
     1
  1
G
  7
SLDTEXTSTYLE1
 73
     1
 44
1.0
  0
MTEXT
  5
137
330
1F
100
AcDbEntity
  8
TITLE
100
AcDbMText
 10
89.6669032747
 20
14.2230757267
 30
0.0
 40
0.125
 41
0.0
 71
     2
 72
     1
  1
G
  7
SLDTEXTSTYLE1
 73
     1
 44
1.0
  0
MTEXT
  5
138
330
1F
100
AcDbEntity
  8
TITLE
100
AcDbMText
 10
0.3323733457
 20
16.1915796637
 30
0.0
 40
0.125
 41
0.0
 71
     2
 72
     1
  1
H
  7
SLDTEXTSTYLE1
 73
     1
 44
1.0
  0
MTEXT
  5
139
330
1F
100
AcDbEntity
  8
TITLE
100
AcDbMText
 10
89.667019015
 20
16.1915796637
 30
0.0
 40
0.125
 41
0.0
 71
     2
 72
     1
  1
H
  7
SLDTEXTSTYLE1
 73
     1
 44
1.0
  0
MTEXT
  5
13A
330
1F
100
AcDbEntity
  8
TITLE
100
AcDbMText
 10
0.3315776306
 20
18.1600836007
 30
0.0
 40
0.125
 41
0.0
 71
     2
 72
     1
  1
J
  7
SLDTEXTSTYLE1
 73
     1
 44
1.0
  0
MTEXT
  5
13B
330
1F
100
AcDbEntity
  8
TITLE
100
AcDbMText
 10
89.6662232999
 20
18.1600836007
 30
0.0
 40
0.125
 41
0.0
 71
     2
 72
     1
  1
J
  7
SLDTEXTSTYLE1
 73
     1
 44
1.0
  0
MTEXT
  5
13C
330
1F
100
AcDbEntity
  8
TITLE
100
AcDbMText
 10
0.3323154765
 20
20.1285875377
 30
0.0
 40
0.125
 41
0.0
 71
     2
 72
     1
  1
K
  7
SLDTEXTSTYLE1
 73
     1
 44
1.0
  0
MTEXT
  5
13D
330
1F
100
AcDbEntity
  8
TITLE
100
AcDbMText
 10
89.6669611458
 20
20.1285875377
 30
0.0
 40
0.125
 41
0.0
 71
     2
 72
     1
  1
K
  7
SLDTEXTSTYLE1
 73
     1
 44
1.0
  0
MTEXT
  5
13E
330
1F
100
AcDbEntity
  8
TITLE
100
AcDbMText
 10
0.3312448739
 20
22.0970914747
 30
0.0
 40
0.125
 41
0.0
 71
     2
 72
     1
  1
L
  7
SLDTEXTSTYLE1
 73
     1
 44
1.0
  0
MTEXT
  5
13F
330
1F
100
AcDbEntity
  8
TITLE
100
AcDbMText
 10
89.6658905432
 20
22.0970914747
 30
0.0
 40
0.125
 41
0.0
 71
     2
 72
     1
  1
L
  7
SLDTEXTSTYLE1
 73
     1
 44
1.0
  0
MTEXT
  5
140
330
1F
100
AcDbEntity
  8
TITLE
100
AcDbMText
 10
0.3283224192
 20
24.0655954117
 30
0.0
 40
0.125
 41
0.0
 71
     2
 72
     1
  1
M
  7
SLDTEXTSTYLE1
 73
     1
 44
1.0
  0
MTEXT
  5
141
330
1F
100
AcDbEntity
  8
TITLE
100
AcDbMText
 10
89.6629680885
 20
24.0655954117
 30
0.0
 40
0.125
 41
0.0
 71
     2
 72
     1
  1
M
  7
SLDTEXTSTYLE1
 73
     1
 44
1.0
  0
MTEXT
  5
142
330
1F
100
AcDbEntity
  8
TITLE
100
AcDbMText
 10
0.3315342276
 20
26.0340993488
 30
0.0
 40
0.125
 41
0.0
 71
     2
 72
     1
  1
N
  7
SLDTEXTSTYLE1
 73
     1
 44
1.0
  0
MTEXT
  5
143
330
1F
100
AcDbEntity
  8
TITLE
100
AcDbMText
 10
89.6661798969
 20
26.0340993488
 30
0.0
 40
0.125
 41
0.0
 71
     2
 72
     1
  1
N
  7
SLDTEXTSTYLE1
 73
     1
 44
1.0
  0
MTEXT
  5
144
330
1F
100
AcDbEntity
  8
TITLE
100
AcDbMText
 10
0.3321997349
 20
28.0026032858
 30
0.0
 40
0.125
 41
0.0
 71
     2
 72
     1
  1
P
  7
SLDTEXTSTYLE1
 73
     1
 44
1.0
  0
MTEXT
  5
145
330
1F
100
AcDbEntity
  8
TITLE
100
AcDbMText
 10
89.6668454042
 20
28.0026032858
 30
0.0
 40
0.125
 41
0.0
 71
     2
 72
     1
  1
P
  7
SLDTEXTSTYLE1
 73
     1
 44
1.0
  0
MTEXT
  5
146
330
1F
100
AcDbEntity
  8
TITLE
100
AcDbMText
 10
0.3309265867
 20
29.9711072228
 30
0.0
 40
0.125
 41
0.0
 71
     2
 72
     1
  1
R
  7
SLDTEXTSTYLE1
 73
     1
 44
1.0
  0
MTEXT
  5
147
330
1F
100
AcDbEntity
  8
TITLE
100
AcDbMText
 10
89.665572256
 20
29.9711072228
 30
0.0
 40
0.125
 41
0.0
 71
     2
 72
     1
  1
R
  7
SLDTEXTSTYLE1
 73
     1
 44
1.0
  0
MTEXT
  5
148
330
1F
100
AcDbEntity
  8
TITLE
100
AcDbMText
 10
0.3323010071
 20
31.9396111598
 30
0.0
 40
0.125
 41
0.0
 71
     2
 72
     1
  1
T
  7
SLDTEXTSTYLE1
 73
     1
 44
1.0
  0
MTEXT
  5
149
330
1F
100
AcDbEntity
  8
TITLE
100
AcDbMText
 10
89.6669466764
 20
31.9396111598
 30
0.0
 40
0.125
 41
0.0
 71
     2
 72
     1
  1
T
  7
SLDTEXTSTYLE1
 73
     1
 44
1.0
  0
MTEXT
  5
14A
330
1F
100
AcDbEntity
  8
TITLE
100
AcDbMText
 10
0.3328507755
 20
33.9081150968
 30
0.0
 40
0.125
 41
0.0
 71
     2
 72
     1
  1
U
  7
SLDTEXTSTYLE1
 73
     1
 44
1.0
  0
MTEXT
  5
14B
330
1F
100
AcDbEntity
  8
TITLE
100
AcDbMText
 10
89.6674964448
 20
33.9081150968
 30
0.0
 40
0.125
 41
0.0
 71
     2
 72
     1
  1
U
  7
SLDTEXTSTYLE1
 73
     1
 44
1.0
  0
MTEXT
  5
14C
330
1F
100
AcDbEntity
  8
TITLE
100
AcDbMText
 10
0.3307529773
 20
35.8766190338
 30
0.0
 40
0.125
 41
0.0
 71
     2
 72
     1
  1
V
  7
SLDTEXTSTYLE1
 73
     1
 44
1.0
  0
MTEXT
  5
14D
330
1F
100
AcDbEntity
  8
TITLE
100
AcDbMText
 10
89.6653986466
 20
35.8766190338
 30
0.0
 40
0.125
 41
0.0
 71
     2
 72
     1
  1
V
  7
SLDTEXTSTYLE1
 73
     1
 44
1.0
  0
MTEXT
  5
14E
330
1F
100
AcDbEntity
  8
TITLE
100
AcDbMText
 10
0.3327784409
 20
37.8451229708
 30
0.0
 40
0.125
 41
0.0
 71
     2
 72
     1
  1
W
  7
SLDTEXTSTYLE1
 73
     1
 44
1.0
  0
MTEXT
  5
14F
330
1F
100
AcDbEntity
  8
TITLE
100
AcDbMText
 10
89.6674241102
 20
37.8451229708
 30
0.0
 40
0.125
 41
0.0
 71
     2
 72
     1
  1
W
  7
SLDTEXTSTYLE1
 73
     1
 44
1.0
  0
MTEXT
  5
150
330
1F
100
AcDbEntity
  8
TITLE
100
AcDbMText
 10
0.3321997349
 20
39.8136269078
 30
0.0
 40
0.125
 41
0.0
 71
     2
 72
     1
  1
Y
  7
SLDTEXTSTYLE1
 73
     1
 44
1.0
  0
MTEXT
  5
151
330
1F
100
AcDbEntity
  8
TITLE
100
AcDbMText
 10
89.6668454042
 20
39.8136269078
 30
0.0
 40
0.125
 41
0.0
 71
     2
 72
     1
  1
Y
  7
SLDTEXTSTYLE1
 73
     1
 44
1.0
  0
MTEXT
  5
152
330
1F
100
AcDbEntity
  8
TITLE
100
AcDbMText
 10
0.3225787898
 20
41.7821308448
 30
0.0
 40
0.125
 41
0.0
 71
     2
 72
     1
  1
AA
  7
SLDTEXTSTYLE1
 73
     1
 44
1.0
  0
MTEXT
  5
153
330
1F
100
AcDbEntity
  8
TITLE
100
AcDbMText
 10
89.6572244591
 20
41.7821308448
 30
0.0
 40
0.125
 41
0.0
 71
     2
 72
     1
  1
AA
  7
SLDTEXTSTYLE1
 73
     1
 44
1.0
  0
MTEXT
  5
154
330
1F
100
AcDbEntity
  8
TITLE
100
AcDbMText
 10
0.3267020535
 20
44.1738631283
 30
0.0
 40
0.125
 41
0.0
 71
     2
 72
     1
  1
AB
  7
SLDTEXTSTYLE1
 73
     1
 44
1.0
  0
MTEXT
  5
155
330
1F
100
AcDbEntity
  8
TITLE
100
AcDbMText
 10
89.6613477228
 20
44.1738631283
 30
0.0
 40
0.125
 41
0.0
 71
     2
 72
     1
  1
AB
  7
SLDTEXTSTYLE1
 73
     1
 44
1.0
  0
MTEXT
  5
156
330
1F
100
AcDbEntity
  8
TITLE
100
AcDbMText
 10
1.0939393315
 20
0.4140206086
 30
0.0
 40
0.125
 41
0.0
 71
     2
 72
     1
  1
46
  7
SLDTEXTSTYLE1
 73
     1
 44
1.0
  0
MTEXT
  5
157
330
1F
100
AcDbEntity
  8
TITLE
100
AcDbMText
 10
1.0939393315
 20
45.7486662779
 30
0.0
 40
0.125
 41
0.0
 71
     2
 72
     1
  1
46
  7
SLDTEXTSTYLE1
 73
     1
 44
1.0
  0
MTEXT
  5
158
330
1F
100
AcDbEntity
  8
TITLE
100
AcDbMText
 10
2.674647993
 20
0.4140206086
 30
0.0
 40
0.125
 41
0.0
 71
     2
 72
     1
  1
45
  7
SLDTEXTSTYLE1
 73
     1
 44
1.0
  0
MTEXT
  5
159
330
1F
100
AcDbEntity
  8
TITLE
100
AcDbMText
 10
2.674647993
 20
45.7486662779
 30
0.0
 40
0.125
 41
0.0
 71
     2
 72
     1
  1
45
  7
SLDTEXTSTYLE1
 73
     1
 44
1.0
  0
MTEXT
  5
15A
330
1F
100
AcDbEntity
  8
TITLE
100
AcDbMText
 10
4.64315193
 20
0.4140206086
 30
0.0
 40
0.125
 41
0.0
 71
     2
 72
     1
  1
44
  7
SLDTEXTSTYLE1
 73
     1
 44
1.0
  0
MTEXT
  5
15B
330
1F
100
AcDbEntity
  8
TITLE
100
AcDbMText
 10
4.64315193
 20
45.7486662779
 30
0.0
 40
0.125
 41
0.0
 71
     2
 72
     1
  1
44
  7
SLDTEXTSTYLE1
 73
     1
 44
1.0
  0
MTEXT
  5
15C
330
1F
100
AcDbEntity
  8
TITLE
100
AcDbMText
 10
6.611655867
 20
0.4140206086
 30
0.0
 40
0.125
 41
0.0
 71
     2
 72
     1
  1
43
  7
SLDTEXTSTYLE1
 73
     1
 44
1.0
  0
MTEXT
  5
15D
330
1F
100
AcDbEntity
  8
TITLE
100
AcDbMText
 10
6.611655867
 20
45.7486662779
 30
0.0
 40
0.125
 41
0.0
 71
     2
 72
     1
  1
43
  7
SLDTEXTSTYLE1
 73
     1
 44
1.0
  0
MTEXT
  5
15E
330
1F
100
AcDbEntity
  8
TITLE
100
AcDbMText
 10
8.580159804
 20
0.4140206086
 30
0.0
 40
0.125
 41
0.0
 71
     2
 72
     1
  1
42
  7
SLDTEXTSTYLE1
 73
     1
 44
1.0
  0
MTEXT
  5
15F
330
1F
100
AcDbEntity
  8
TITLE
100
AcDbMText
 10
8.580159804
 20
45.7486662779
 30
0.0
 40
0.125
 41
0.0
 71
     2
 72
     1
  1
42
  7
SLDTEXTSTYLE1
 73
     1
 44
1.0
  0
MTEXT
  5
160
330
1F
100
AcDbEntity
  8
TITLE
100
AcDbMText
 10
10.548663741
 20
0.4140206086
 30
0.0
 40
0.125
 41
0.0
 71
     2
 72
     1
  1
41
  7
SLDTEXTSTYLE1
 73
     1
 44
1.0
  0
MTEXT
  5
161
330
1F
100
AcDbEntity
  8
TITLE
100
AcDbMText
 10
10.548663741
 20
45.7486662779
 30
0.0
 40
0.125
 41
0.0
 71
     2
 72
     1
  1
41
  7
SLDTEXTSTYLE1
 73
     1
 44
1.0
  0
MTEXT
  5
162
330
1F
100
AcDbEntity
  8
TITLE
100
AcDbMText
 10
12.517167678
 20
0.4140206086
 30
0.0
 40
0.125
 41
0.0
 71
     2
 72
     1
  1
40
  7
SLDTEXTSTYLE1
 73
     1
 44
1.0
  0
MTEXT
  5
163
330
1F
100
AcDbEntity
  8
TITLE
100
AcDbMText
 10
12.517167678
 20
45.7486662779
 30
0.0
 40
0.125
 41
0.0
 71
     2
 72
     1
  1
40
  7
SLDTEXTSTYLE1
 73
     1
 44
1.0
  0
MTEXT
  5
164
330
1F
100
AcDbEntity
  8
TITLE
100
AcDbMText
 10
14.485671615
 20
0.4140206086
 30
0.0
 40
0.125
 41
0.0
 71
     2
 72
     1
  1
39
  7
SLDTEXTSTYLE1
 73
     1
 44
1.0
  0
MTEXT
  5
165
330
1F
100
AcDbEntity
  8
TITLE
100
AcDbMText
 10
14.485671615
 20
45.7486662779
 30
0.0
 40
0.125
 41
0.0
 71
     2
 72
     1
  1
39
  7
SLDTEXTSTYLE1
 73
     1
 44
1.0
  0
MTEXT
  5
166
330
1F
100
AcDbEntity
  8
TITLE
100
AcDbMText
 10
16.454175552
 20
0.4140206086
 30
0.0
 40
0.125
 41
0.0
 71
     2
 72
     1
  1
38
  7
SLDTEXTSTYLE1
 73
     1
 44
1.0
  0
MTEXT
  5
167
330
1F
100
AcDbEntity
  8
TITLE
100
AcDbMText
 10
16.454175552
 20
45.7486662779
 30
0.0
 40
0.125
 41
0.0
 71
     2
 72
     1
  1
38
  7
SLDTEXTSTYLE1
 73
     1
 44
1.0
  0
MTEXT
  5
168
330
1F
100
AcDbEntity
  8
TITLE
100
AcDbMText
 10
18.422679489
 20
0.4140206086
 30
0.0
 40
0.125
 41
0.0
 71
     2
 72
     1
  1
37
  7
SLDTEXTSTYLE1
 73
     1
 44
1.0
  0
MTEXT
  5
169
330
1F
100
AcDbEntity
  8
TITLE
100
AcDbMText
 10
18.422679489
 20
45.7486662779
 30
0.0
 40
0.125
 41
0.0
 71
     2
 72
     1
  1
37
  7
SLDTEXTSTYLE1
 73
     1
 44
1.0
  0
MTEXT
  5
16A
330
1F
100
AcDbEntity
  8
TITLE
100
AcDbMText
 10
20.391183426
 20
0.4140206086
 30
0.0
 40
0.125
 41
0.0
 71
     2
 72
     1
  1
36
  7
SLDTEXTSTYLE1
 73
     1
 44
1.0
  0
MTEXT
  5
16B
330
1F
100
AcDbEntity
  8
TITLE
100
AcDbMText
 10
20.391183426
 20
45.7486662779
 30
0.0
 40
0.125
 41
0.0
 71
     2
 72
     1
  1
36
  7
SLDTEXTSTYLE1
 73
     1
 44
1.0
  0
MTEXT
  5
16C
330
1F
100
AcDbEntity
  8
TITLE
100
AcDbMText
 10
22.359687363
 20
0.4140206086
 30
0.0
 40
0.125
 41
0.0
 71
     2
 72
     1
  1
35
  7
SLDTEXTSTYLE1
 73
     1
 44
1.0
  0
MTEXT
  5
16D
330
1F
100
AcDbEntity
  8
TITLE
100
AcDbMText
 10
22.359687363
 20
45.7486662779
 30
0.0
 40
0.125
 41
0.0
 71
     2
 72
     1
  1
35
  7
SLDTEXTSTYLE1
 73
     1
 44
1.0
  0
MTEXT
  5
16E
330
1F
100
AcDbEntity
  8
TITLE
100
AcDbMText
 10
24.3281913
 20
0.4140206086
 30
0.0
 40
0.125
 41
0.0
 71
     2
 72
     1
  1
34
  7
SLDTEXTSTYLE1
 73
     1
 44
1.0
  0
MTEXT
  5
16F
330
1F
100
AcDbEntity
  8
TITLE
100
AcDbMText
 10
24.3281913
 20
45.7486662779
 30
0.0
 40
0.125
 41
0.0
 71
     2
 72
     1
  1
34
  7
SLDTEXTSTYLE1
 73
     1
 44
1.0
  0
MTEXT
  5
170
330
1F
100
AcDbEntity
  8
TITLE
100
AcDbMText
 10
26.2966952371
 20
0.4140206086
 30
0.0
 40
0.125
 41
0.0
 71
     2
 72
     1
  1
33
  7
SLDTEXTSTYLE1
 73
     1
 44
1.0
  0
MTEXT
  5
171
330
1F
100
AcDbEntity
  8
TITLE
100
AcDbMText
 10
26.2966952371
 20
45.7486662779
 30
0.0
 40
0.125
 41
0.0
 71
     2
 72
     1
  1
33
  7
SLDTEXTSTYLE1
 73
     1
 44
1.0
  0
MTEXT
  5
172
330
1F
100
AcDbEntity
  8
TITLE
100
AcDbMText
 10
28.2651991741
 20
0.4140206086
 30
0.0
 40
0.125
 41
0.0
 71
     2
 72
     1
  1
32
  7
SLDTEXTSTYLE1
 73
     1
 44
1.0
  0
MTEXT
  5
173
330
1F
100
AcDbEntity
  8
TITLE
100
AcDbMText
 10
28.2651991741
 20
45.7486662779
 30
0.0
 40
0.125
 41
0.0
 71
     2
 72
     1
  1
32
  7
SLDTEXTSTYLE1
 73
     1
 44
1.0
  0
MTEXT
  5
174
330
1F
100
AcDbEntity
  8
TITLE
100
AcDbMText
 10
30.2337031111
 20
0.4140206086
 30
0.0
 40
0.125
 41
0.0
 71
     2
 72
     1
  1
31
  7
SLDTEXTSTYLE1
 73
     1
 44
1.0
  0
MTEXT
  5
175
330
1F
100
AcDbEntity
  8
TITLE
100
AcDbMText
 10
30.2337031111
 20
45.7486662779
 30
0.0
 40
0.125
 41
0.0
 71
     2
 72
     1
  1
31
  7
SLDTEXTSTYLE1
 73
     1
 44
1.0
  0
MTEXT
  5
176
330
1F
100
AcDbEntity
  8
TITLE
100
AcDbMText
 10
32.2022070481
 20
0.4140206086
 30
0.0
 40
0.125
 41
0.0
 71
     2
 72
     1
  1
30
  7
SLDTEXTSTYLE1
 73
     1
 44
1.0
  0
MTEXT
  5
177
330
1F
100
AcDbEntity
  8
TITLE
100
AcDbMText
 10
32.2022070481
 20
45.7486662779
 30
0.0
 40
0.125
 41
0.0
 71
     2
 72
     1
  1
30
  7
SLDTEXTSTYLE1
 73
     1
 44
1.0
  0
MTEXT
  5
178
330
1F
100
AcDbEntity
  8
TITLE
100
AcDbMText
 10
34.1707109851
 20
0.4140206086
 30
0.0
 40
0.125
 41
0.0
 71
     2
 72
     1
  1
29
  7
SLDTEXTSTYLE1
 73
     1
 44
1.0
  0
MTEXT
  5
179
330
1F
100
AcDbEntity
  8
TITLE
100
AcDbMText
 10
34.1707109851
 20
45.7486662779
 30
0.0
 40
0.125
 41
0.0
 71
     2
 72
     1
  1
29
  7
SLDTEXTSTYLE1
 73
     1
 44
1.0
  0
MTEXT
  5
17A
330
1F
100
AcDbEntity
  8
TITLE
100
AcDbMText
 10
36.1392149221
 20
0.4140206086
 30
0.0
 40
0.125
 41
0.0
 71
     2
 72
     1
  1
28
  7
SLDTEXTSTYLE1
 73
     1
 44
1.0
  0
MTEXT
  5
17B
330
1F
100
AcDbEntity
  8
TITLE
100
AcDbMText
 10
36.1392149221
 20
45.7486662779
 30
0.0
 40
0.125
 41
0.0
 71
     2
 72
     1
  1
28
  7
SLDTEXTSTYLE1
 73
     1
 44
1.0
  0
MTEXT
  5
17C
330
1F
100
AcDbEntity
  8
TITLE
100
AcDbMText
 10
38.1077188591
 20
0.4140206086
 30
0.0
 40
0.125
 41
0.0
 71
     2
 72
     1
  1
27
  7
SLDTEXTSTYLE1
 73
     1
 44
1.0
  0
MTEXT
  5
17D
330
1F
100
AcDbEntity
  8
TITLE
100
AcDbMText
 10
38.1077188591
 20
45.7486662779
 30
0.0
 40
0.125
 41
0.0
 71
     2
 72
     1
  1
27
  7
SLDTEXTSTYLE1
 73
     1
 44
1.0
  0
MTEXT
  5
17E
330
1F
100
AcDbEntity
  8
TITLE
100
AcDbMText
 10
40.0762227961
 20
0.4140206086
 30
0.0
 40
0.125
 41
0.0
 71
     2
 72
     1
  1
26
  7
SLDTEXTSTYLE1
 73
     1
 44
1.0
  0
MTEXT
  5
17F
330
1F
100
AcDbEntity
  8
TITLE
100
AcDbMText
 10
40.0762227961
 20
45.7486662779
 30
0.0
 40
0.125
 41
0.0
 71
     2
 72
     1
  1
26
  7
SLDTEXTSTYLE1
 73
     1
 44
1.0
  0
MTEXT
  5
180
330
1F
100
AcDbEntity
  8
TITLE
100
AcDbMText
 10
42.0447267331
 20
0.4140206086
 30
0.0
 40
0.125
 41
0.0
 71
     2
 72
     1
  1
25
  7
SLDTEXTSTYLE1
 73
     1
 44
1.0
  0
MTEXT
  5
181
330
1F
100
AcDbEntity
  8
TITLE
100
AcDbMText
 10
42.0447267331
 20
45.7486662779
 30
0.0
 40
0.125
 41
0.0
 71
     2
 72
     1
  1
25
  7
SLDTEXTSTYLE1
 73
     1
 44
1.0
  0
MTEXT
  5
182
330
1F
100
AcDbEntity
  8
TITLE
100
AcDbMText
 10
44.0132306701
 20
0.4140206086
 30
0.0
 40
0.125
 41
0.0
 71
     2
 72
     1
  1
24
  7
SLDTEXTSTYLE1
 73
     1
 44
1.0
  0
MTEXT
  5
183
330
1F
100
AcDbEntity
  8
TITLE
100
AcDbMText
 10
44.0132306701
 20
45.7486662779
 30
0.0
 40
0.125
 41
0.0
 71
     2
 72
     1
  1
24
  7
SLDTEXTSTYLE1
 73
     1
 44
1.0
  0
MTEXT
  5
184
330
1F
100
AcDbEntity
  8
TITLE
100
AcDbMText
 10
45.9817346071
 20
0.4140206086
 30
0.0
 40
0.125
 41
0.0
 71
     2
 72
     1
  1
23
  7
SLDTEXTSTYLE1
 73
     1
 44
1.0
  0
MTEXT
  5
185
330
1F
100
AcDbEntity
  8
TITLE
100
AcDbMText
 10
45.9817346071
 20
45.7486662779
 30
0.0
 40
0.125
 41
0.0
 71
     2
 72
     1
  1
23
  7
SLDTEXTSTYLE1
 73
     1
 44
1.0
  0
MTEXT
  5
186
330
1F
100
AcDbEntity
  8
TITLE
100
AcDbMText
 10
47.9502385441
 20
0.4140206086
 30
0.0
 40
0.125
 41
0.0
 71
     2
 72
     1
  1
22
  7
SLDTEXTSTYLE1
 73
     1
 44
1.0
  0
MTEXT
  5
187
330
1F
100
AcDbEntity
  8
TITLE
100
AcDbMText
 10
47.9502385441
 20
45.7486662779
 30
0.0
 40
0.125
 41
0.0
 71
     2
 72
     1
  1
22
  7
SLDTEXTSTYLE1
 73
     1
 44
1.0
  0
MTEXT
  5
188
330
1F
100
AcDbEntity
  8
TITLE
100
AcDbMText
 10
49.9187424811
 20
0.4140206086
 30
0.0
 40
0.125
 41
0.0
 71
     2
 72
     1
  1
21
  7
SLDTEXTSTYLE1
 73
     1
 44
1.0
  0
MTEXT
  5
189
330
1F
100
AcDbEntity
  8
TITLE
100
AcDbMText
 10
49.9187424811
 20
45.7486662779
 30
0.0
 40
0.125
 41
0.0
 71
     2
 72
     1
  1
21
  7
SLDTEXTSTYLE1
 73
     1
 44
1.0
  0
MTEXT
  5
18A
330
1F
100
AcDbEntity
  8
TITLE
100
AcDbMText
 10
51.8872464182
 20
0.4140206086
 30
0.0
 40
0.125
 41
0.0
 71
     2
 72
     1
  1
20
  7
SLDTEXTSTYLE1
 73
     1
 44
1.0
  0
MTEXT
  5
18B
330
1F
100
AcDbEntity
  8
TITLE
100
AcDbMText
 10
51.8872464182
 20
45.7486662779
 30
0.0
 40
0.125
 41
0.0
 71
     2
 72
     1
  1
20
  7
SLDTEXTSTYLE1
 73
     1
 44
1.0
  0
MTEXT
  5
18C
330
1F
100
AcDbEntity
  8
TITLE
100
AcDbMText
 10
53.8557503552
 20
0.4140206086
 30
0.0
 40
0.125
 41
0.0
 71
     2
 72
     1
  1
19
  7
SLDTEXTSTYLE1
 73
     1
 44
1.0
  0
MTEXT
  5
18D
330
1F
100
AcDbEntity
  8
TITLE
100
AcDbMText
 10
53.8557503552
 20
45.7486662779
 30
0.0
 40
0.125
 41
0.0
 71
     2
 72
     1
  1
19
  7
SLDTEXTSTYLE1
 73
     1
 44
1.0
  0
MTEXT
  5
18E
330
1F
100
AcDbEntity
  8
TITLE
100
AcDbMText
 10
55.8242542922
 20
0.4140206086
 30
0.0
 40
0.125
 41
0.0
 71
     2
 72
     1
  1
18
  7
SLDTEXTSTYLE1
 73
     1
 44
1.0
  0
MTEXT
  5
18F
330
1F
100
AcDbEntity
  8
TITLE
100
AcDbMText
 10
55.8242542922
 20
45.7486662779
 30
0.0
 40
0.125
 41
0.0
 71
     2
 72
     1
  1
18
  7
SLDTEXTSTYLE1
 73
     1
 44
1.0
  0
MTEXT
  5
190
330
1F
100
AcDbEntity
  8
TITLE
100
AcDbMText
 10
57.7927582292
 20
0.4140206086
 30
0.0
 40
0.125
 41
0.0
 71
     2
 72
     1
  1
17
  7
SLDTEXTSTYLE1
 73
     1
 44
1.0
  0
MTEXT
  5
191
330
1F
100
AcDbEntity
  8
TITLE
100
AcDbMText
 10
57.7927582292
 20
45.7486662779
 30
0.0
 40
0.125
 41
0.0
 71
     2
 72
     1
  1
17
  7
SLDTEXTSTYLE1
 73
     1
 44
1.0
  0
MTEXT
  5
192
330
1F
100
AcDbEntity
  8
TITLE
100
AcDbMText
 10
59.7612621662
 20
0.4140206086
 30
0.0
 40
0.125
 41
0.0
 71
     2
 72
     1
  1
16
  7
SLDTEXTSTYLE1
 73
     1
 44
1.0
  0
MTEXT
  5
193
330
1F
100
AcDbEntity
  8
TITLE
100
AcDbMText
 10
59.7612621662
 20
45.7486662779
 30
0.0
 40
0.125
 41
0.0
 71
     2
 72
     1
  1
16
  7
SLDTEXTSTYLE1
 73
     1
 44
1.0
  0
MTEXT
  5
194
330
1F
100
AcDbEntity
  8
TITLE
100
AcDbMText
 10
61.7297661032
 20
0.4140206086
 30
0.0
 40
0.125
 41
0.0
 71
     2
 72
     1
  1
15
  7
SLDTEXTSTYLE1
 73
     1
 44
1.0
  0
MTEXT
  5
195
330
1F
100
AcDbEntity
  8
TITLE
100
AcDbMText
 10
61.7297661032
 20
45.7486662779
 30
0.0
 40
0.125
 41
0.0
 71
     2
 72
     1
  1
15
  7
SLDTEXTSTYLE1
 73
     1
 44
1.0
  0
MTEXT
  5
196
330
1F
100
AcDbEntity
  8
TITLE
100
AcDbMText
 10
63.6982700402
 20
0.4140206086
 30
0.0
 40
0.125
 41
0.0
 71
     2
 72
     1
  1
14
  7
SLDTEXTSTYLE1
 73
     1
 44
1.0
  0
MTEXT
  5
197
330
1F
100
AcDbEntity
  8
TITLE
100
AcDbMText
 10
63.6982700402
 20
45.7486662779
 30
0.0
 40
0.125
 41
0.0
 71
     2
 72
     1
  1
14
  7
SLDTEXTSTYLE1
 73
     1
 44
1.0
  0
MTEXT
  5
198
330
1F
100
AcDbEntity
  8
TITLE
100
AcDbMText
 10
65.6667739772
 20
0.4140206086
 30
0.0
 40
0.125
 41
0.0
 71
     2
 72
     1
  1
13
  7
SLDTEXTSTYLE1
 73
     1
 44
1.0
  0
MTEXT
  5
199
330
1F
100
AcDbEntity
  8
TITLE
100
AcDbMText
 10
65.6667739772
 20
45.7486662779
 30
0.0
 40
0.125
 41
0.0
 71
     2
 72
     1
  1
13
  7
SLDTEXTSTYLE1
 73
     1
 44
1.0
  0
MTEXT
  5
19A
330
1F
100
AcDbEntity
  8
TITLE
100
AcDbMText
 10
67.6352779142
 20
0.4140206086
 30
0.0
 40
0.125
 41
0.0
 71
     2
 72
     1
  1
12
  7
SLDTEXTSTYLE1
 73
     1
 44
1.0
  0
MTEXT
  5
19B
330
1F
100
AcDbEntity
  8
TITLE
100
AcDbMText
 10
67.6352779142
 20
45.7486662779
 30
0.0
 40
0.125
 41
0.0
 71
     2
 72
     1
  1
12
  7
SLDTEXTSTYLE1
 73
     1
 44
1.0
  0
MTEXT
  5
19C
330
1F
100
AcDbEntity
  8
TITLE
100
AcDbMText
 10
69.6037818512
 20
0.4140206086
 30
0.0
 40
0.125
 41
0.0
 71
     2
 72
     1
  1
11
  7
SLDTEXTSTYLE1
 73
     1
 44
1.0
  0
MTEXT
  5
19D
330
1F
100
AcDbEntity
  8
TITLE
100
AcDbMText
 10
69.6037818512
 20
45.7486662779
 30
0.0
 40
0.125
 41
0.0
 71
     2
 72
     1
  1
11
  7
SLDTEXTSTYLE1
 73
     1
 44
1.0
  0
MTEXT
  5
19E
330
1F
100
AcDbEntity
  8
TITLE
100
AcDbMText
 10
71.5722857882
 20
0.4140206086
 30
0.0
 40
0.125
 41
0.0
 71
     2
 72
     1
  1
10
  7
SLDTEXTSTYLE1
 73
     1
 44
1.0
  0
MTEXT
  5
19F
330
1F
100
AcDbEntity
  8
TITLE
100
AcDbMText
 10
71.5722857882
 20
45.7486662779
 30
0.0
 40
0.125
 41
0.0
 71
     2
 72
     1
  1
10
  7
SLDTEXTSTYLE1
 73
     1
 44
1.0
  0
MTEXT
  5
1A0
330
1F
100
AcDbEntity
  8
TITLE
100
AcDbMText
 10
73.5420484059
 20
0.4140206086
 30
0.0
 40
0.125
 41
0.0
 71
     2
 72
     1
  1
9
  7
SLDTEXTSTYLE1
 73
     1
 44
1.0
  0
MTEXT
  5
1A1
330
1F
100
AcDbEntity
  8
TITLE
100
AcDbMText
 10
73.5420484059
 20
45.7486662779
 30
0.0
 40
0.125
 41
0.0
 71
     2
 72
     1
  1
9
  7
SLDTEXTSTYLE1
 73
     1
 44
1.0
  0
MTEXT
  5
1A2
330
1F
100
AcDbEntity
  8
TITLE
100
AcDbMText
 10
75.5105523429
 20
0.4140206086
 30
0.0
 40
0.125
 41
0.0
 71
     2
 72
     1
  1
8
  7
SLDTEXTSTYLE1
 73
     1
 44
1.0
  0
MTEXT
  5
1A3
330
1F
100
AcDbEntity
  8
TITLE
100
AcDbMText
 10
75.5105523429
 20
45.7486662779
 30
0.0
 40
0.125
 41
0.0
 71
     2
 72
     1
  1
8
  7
SLDTEXTSTYLE1
 73
     1
 44
1.0
  0
MTEXT
  5
1A4
330
1F
100
AcDbEntity
  8
TITLE
100
AcDbMText
 10
77.4790562799
 20
0.4140206086
 30
0.0
 40
0.125
 41
0.0
 71
     2
 72
     1
  1
7
  7
SLDTEXTSTYLE1
 73
     1
 44
1.0
  0
MTEXT
  5
1A5
330
1F
100
AcDbEntity
  8
TITLE
100
AcDbMText
 10
77.4790562799
 20
45.7486662779
 30
0.0
 40
0.125
 41
0.0
 71
     2
 72
     1
  1
7
  7
SLDTEXTSTYLE1
 73
     1
 44
1.0
  0
MTEXT
  5
1A6
330
1F
100
AcDbEntity
  8
TITLE
100
AcDbMText
 10
79.447560217
 20
0.4140206086
 30
0.0
 40
0.125
 41
0.0
 71
     2
 72
     1
  1
6
  7
SLDTEXTSTYLE1
 73
     1
 44
1.0
  0
MTEXT
  5
1A7
330
1F
100
AcDbEntity
  8
TITLE
100
AcDbMText
 10
79.447560217
 20
45.7486662779
 30
0.0
 40
0.125
 41
0.0
 71
     2
 72
     1
  1
6
  7
SLDTEXTSTYLE1
 73
     1
 44
1.0
  0
MTEXT
  5
1A8
330
1F
100
AcDbEntity
  8
TITLE
100
AcDbMText
 10
81.416064154
 20
0.4140206086
 30
0.0
 40
0.125
 41
0.0
 71
     2
 72
     1
  1
5
  7
SLDTEXTSTYLE1
 73
     1
 44
1.0
  0
MTEXT
  5
1A9
330
1F
100
AcDbEntity
  8
TITLE
100
AcDbMText
 10
81.416064154
 20
45.7486662779
 30
0.0
 40
0.125
 41
0.0
 71
     2
 72
     1
  1
5
  7
SLDTEXTSTYLE1
 73
     1
 44
1.0
  0
MTEXT
  5
1AA
330
1F
100
AcDbEntity
  8
TITLE
100
AcDbMText
 10
83.384568091
 20
0.4140206086
 30
0.0
 40
0.125
 41
0.0
 71
     2
 72
     1
  1
4
  7
SLDTEXTSTYLE1
 73
     1
 44
1.0
  0
MTEXT
  5
1AB
330
1F
100
AcDbEntity
  8
TITLE
100
AcDbMText
 10
83.384568091
 20
45.7486662779
 30
0.0
 40
0.125
 41
0.0
 71
     2
 72
     1
  1
4
  7
SLDTEXTSTYLE1
 73
     1
 44
1.0
  0
MTEXT
  5
1AC
330
1F
100
AcDbEntity
  8
TITLE
100
AcDbMText
 10
85.353072028
 20
0.4140206086
 30
0.0
 40
0.125
 41
0.0
 71
     2
 72
     1
  1
3
  7
SLDTEXTSTYLE1
 73
     1
 44
1.0
  0
MTEXT
  5
1AD
330
1F
100
AcDbEntity
  8
TITLE
100
AcDbMText
 10
85.353072028
 20
45.7486662779
 30
0.0
 40
0.125
 41
0.0
 71
     2
 72
     1
  1
3
  7
SLDTEXTSTYLE1
 73
     1
 44
1.0
  0
MTEXT
  5
1AE
330
1F
100
AcDbEntity
  8
TITLE
100
AcDbMText
 10
87.321575965
 20
0.4140206086
 30
0.0
 40
0.125
 41
0.0
 71
     2
 72
     1
  1
2
  7
SLDTEXTSTYLE1
 73
     1
 44
1.0
  0
MTEXT
  5
1AF
330
1F
100
AcDbEntity
  8
TITLE
100
AcDbMText
 10
87.321575965
 20
45.7486662779
 30
0.0
 40
0.125
 41
0.0
 71
     2
 72
     1
  1
2
  7
SLDTEXTSTYLE1
 73
     1
 44
1.0
  0
MTEXT
  5
1B0
330
1F
100
AcDbEntity
  8
TITLE
100
AcDbMText
 10
88.9022846264
 20
0.4140206086
 30
0.0
 40
0.125
 41
0.0
 71
     2
 72
     1
  1
1
  7
SLDTEXTSTYLE1
 73
     1
 44
1.0
  0
MTEXT
  5
1B1
330
1F
100
AcDbEntity
  8
TITLE
100
AcDbMText
 10
88.9022846264
 20
45.7486662779
 30
0.0
 40
0.125
 41
0.0
 71
     2
 72
     1
  1
1
  7
SLDTEXTSTYLE1
 73
     1
 44
1.0
  0
LINE
  5
1B2
330
1F
100
AcDbEntity
  8
0
  6
Continuous
 62
     7
370
    25
100
AcDbLine
 10
15.1327490599
 20
14.7695702885
 30
0.0
 11
15.1327490599
 21
15.5974936125
 31
0.0
  0
LINE
  5
1B3
330
1F
100
AcDbEntity
  8
0
  6
Continuous
 62
     7
370
    25
100
AcDbLine
 10
15.0726703198
 20
14.7650989953
 30
0.0
 11
15.0726703198
 21
15.5974936125
 31
0.0
  0
LINE
  5
1B4
330
1F
100
AcDbEntity
  8
0
  6
Continuous
 62
     7
370
    25
100
AcDbLine
 10
33.0125539339
 20
14.7695702885
 30
0.0
 11
33.0125539339
 21
15.5974936125
 31
0.0
  0
LINE
  5
1B5
330
1F
100
AcDbEntity
  8
0
  6
Continuous
 62
     7
370
    25
100
AcDbLine
 10
33.0726326741
 20
14.7650989953
 30
0.0
 11
33.0726326741
 21
15.5974936125
 31
0.0
  0
ARC
  5
1B6
330
1F
100
AcDbEntity
  8
0
  6
Continuous
 62
     7
370
    25
100
AcDbCircle
 10
15.3782608709
 20
15.5974936125
 30
0.0
 40
0.2455118110236238
100
AcDbArc
 50
90.0
 51
180.0
  0
ARC
  5
1B7
330
1F
100
AcDbEntity
  8
0
  6
Continuous
 62
     7
370
    25
100
AcDbCircle
 10
15.3782608709
 20
15.5974936125
 30
0.0
 40
0.3055905511811012
100
AcDbArc
 50
90.0
 51
180.0
  0
LINE
  5
1B8
330
1F
100
AcDbEntity
  8
0
  6
Continuous
 62
     7
370
    25
100
AcDbLine
 10
32.7670421229
 20
15.8430054235
 30
0.0
 11
15.3782608709
 21
15.8430054235
 31
0.0
  0
LINE
  5
1B9
330
1F
100
AcDbEntity
  8
0
  6
Continuous
 62
     7
370
    25
100
AcDbLine
 10
32.7670421229
 20
15.9030841637
 30
0.0
 11
15.3782608709
 21
15.9030841637
 31
0.0
  0
ARC
  5
1BA
330
1F
100
AcDbEntity
  8
0
  6
Continuous
 62
     7
370
    25
100
AcDbCircle
 10
32.7670421229
 20
15.5974936125
 30
0.0
 40
0.3055905511811048
100
AcDbArc
 50
0.0
 51
90.0
  0
ARC
  5
1BB
330
1F
100
AcDbEntity
  8
0
  6
Continuous
 62
     7
370
    25
100
AcDbCircle
 10
32.7670421229
 20
15.5974936125
 30
0.0
 40
0.2455118110236256
100
AcDbArc
 50
0.0
 51
90.0
  0
LINE
  5
1BC
330
1F
100
AcDbEntity
  8
0
  6
Continuous
 62
     7
370
    25
100
AcDbLine
 10
15.0726703198
 20
14.7475053309
 30
0.0
 11
15.0726703198
 21
14.7650989953
 31
0.0
  0
LINE
  5
1BD
330
1F
100
AcDbEntity
  8
0
  6
Continuous
 62
     7
370
    25
100
AcDbLine
 10
33.0726326741
 20
14.7475053309
 30
0.0
 11
33.0726326741
 21
14.7650989953
 31
0.0
  0
LINE
  5
1BE
330
1F
100
AcDbEntity
  8
0
  6
Continuous
 62
     7
370
    25
100
AcDbLine
 10
33.0426326741
 20
14.7475053309
 30
0.0
 11
33.0426326741
 21
14.7650989953
 31
0.0
  0
ARC
  5
1BF
330
1F
100
AcDbEntity
  8
0
  6
Continuous
 62
     7
370
    25
100
AcDbCircle
 10
15.1028731649
 20
14.7262616811
 30
0.0
 40
0.0302531505160893
100
AcDbArc
 50
183.3046061478
 51
314.0223076596
  0
ARC
  5
1C0
330
1F
100
AcDbEntity
  8
0
  6
Continuous
 62
     7
370
    25
100
AcDbCircle
 10
15.1093194952
 20
14.7228516311
 30
0.0
 40
0.0234310743486716
100
AcDbArc
 50
308.4736293348
 51
359.3496031807
  0
LINE
  5
1C1
330
1F
100
AcDbEntity
  8
0
  6
Continuous
 62
     7
370
    25
100
AcDbLine
 10
15.1327490599
 20
11.9873799076
 30
0.0
 11
15.1327490599
 21
14.7225856574
 31
0.0
  0
ARC
  5
1C2
330
1F
100
AcDbEntity
  8
0
  6
Continuous
 62
     7
370
    25
100
AcDbCircle
 10
15.1026053744
 20
11.9869427452
 30
0.0
 40
0.0301468553854337
100
AcDbArc
 50
186.7957124386
 51
0.8308806433
  0
LINE
  5
1C3
330
1F
100
AcDbEntity
  8
0
  6
Continuous
 62
     7
370
    25
100
AcDbLine
 10
15.0726703198
 20
11.983375478
 30
0.0
 11
15.0726703198
 21
14.7245177598
 31
0.0
  0
ARC
  5
1C4
330
1F
100
AcDbEntity
  8
0
  6
Continuous
 62
     7
370
    25
100
AcDbCircle
 10
33.0425930898
 20
14.7245200455
 30
0.0
 40
0.0000396502628053
100
AcDbArc
 50
225.9776923429
 51
356.6953938553
  0
ARC
  5
1C5
330
1F
100
AcDbEntity
  8
0
  6
Continuous
 62
     7
370
    25
100
AcDbCircle
 10
33.0424298289
 20
14.7262616811
 30
0.0
 40
0.0302531505160912
100
AcDbArc
 50
225.9776923408
 51
356.6953938578
  0
ARC
  5
1C6
330
1F
100
AcDbEntity
  8
0
  6
Continuous
 62
     7
370
    25
100
AcDbCircle
 10
33.0426976195
 20
11.9869427452
 30
0.0
 40
0.0301468553854326
100
AcDbArc
 50
179.1691193567
 51
353.2042875614
  0
LINE
  5
1C7
330
1F
100
AcDbEntity
  8
0
  6
Continuous
 62
     7
370
    25
100
AcDbLine
 10
33.0125539339
 20
11.9873799076
 30
0.0
 11
33.0125539339
 21
14.7225856574
 31
0.0
  0
ARC
  5
1C8
330
1F
100
AcDbEntity
  8
0
  6
Continuous
 62
     7
370
    25
100
AcDbCircle
 10
33.0359834987
 20
14.7228516311
 30
0.0
 40
0.0234310743486641
100
AcDbArc
 50
180.6503968287
 51
231.5263706654
  0
LINE
  5
1C9
330
1F
100
AcDbEntity
  8
0
  6
Continuous
 62
     7
370
    25
100
AcDbLine
 10
33.0726326741
 20
11.983375478
 30
0.0
 11
33.0726326741
 21
14.7245177598
 31
0.0
  0
LINE
  5
1CA
330
1F
100
AcDbEntity
  8
0
  6
Continuous
 62
     7
370
    25
100
AcDbLine
 10
33.0425539339
 20
14.7225856574
 30
0.0
 11
33.0425655353
 21
14.7244915342
 31
0.0
  0
LINE
  5
1CB
330
1F
100
AcDbEntity
  8
0
  6
Continuous
 62
     7
370
    25
100
AcDbLine
 10
15.0726703198
 20
14.7245177598
 30
0.0
 11
15.0726703198
 21
14.7475053309
 31
0.0
  0
LINE
  5
1CC
330
1F
100
AcDbEntity
  8
0
  6
Continuous
 62
     7
370
    25
100
AcDbLine
 10
33.0726326741
 20
14.7245177598
 30
0.0
 11
33.0726326741
 21
14.7475053309
 31
0.0
  0
LINE
  5
1CD
330
1F
100
AcDbEntity
  8
0
  6
Continuous
 62
     7
370
    25
100
AcDbLine
 10
15.1327490599
 20
14.7225856574
 30
0.0
 11
15.1327490599
 21
14.7695702885
 31
0.0
  0
LINE
  5
1CE
330
1F
100
AcDbEntity
  8
0
  6
Continuous
 62
     7
370
    25
100
AcDbLine
 10
33.0125539339
 20
14.7225856574
 30
0.0
 11
33.0125539339
 21
14.7695702885
 31
0.0
  0
LINE
  5
1CF
330
1F
100
AcDbEntity
  8
0
  6
Continuous
 62
     7
370
    25
100
AcDbLine
 10
15.1426703198
 20
11.9906438964
 30
0.0
 11
15.1327490599
 21
11.9906438964
 31
0.0
  0
LINE
  5
1D0
330
1F
100
AcDbEntity
  8
0
  6
Continuous
 62
     7
370
    25
100
AcDbLine
 10
15.1327490599
 20
15.2708029836
 30
0.0
 11
15.1426703198
 21
15.2708029836
 31
0.0
  0
LINE
  5
1D1
330
1F
100
AcDbEntity
  8
0
  6
Continuous
 62
     7
370
    25
100
AcDbLine
 10
32.5426514998
 20
15.8330841637
 30
0.0
 11
32.5426514998
 21
15.8430054235
 31
0.0
  0
LINE
  5
1D2
330
1F
100
AcDbEntity
  8
0
  6
Continuous
 62
     7
370
    25
100
AcDbLine
 10
15.602651494
 20
15.8330841637
 30
0.0
 11
15.602651494
 21
15.8430054235
 31
0.0
  0
LINE
  5
1D3
330
1F
100
AcDbEntity
  8
0
  6
Continuous
 62
     7
370
    25
100
AcDbLine
 10
33.0026326741
 20
11.9906438964
 30
0.0
 11
33.0125539339
 21
11.9906438964
 31
0.0
  0
LINE
  5
1D4
330
1F
100
AcDbEntity
  8
0
  6
Continuous
 62
     7
370
    25
100
AcDbLine
 10
33.0125539339
 20
15.2708029836
 30
0.0
 11
33.0026326741
 21
15.2708029836
 31
0.0
  0
LINE
  5
1D5
330
1F
100
AcDbEntity
  8
0
  6
Continuous
 62
     7
370
    25
100
AcDbLine
 10
15.3588506725
 20
15.2708029836
 30
0.0
 11
15.1426703198
 21
15.2708029836
 31
0.0
  0
ARC
  5
1D6
330
1F
100
AcDbEntity
  8
0
  6
Continuous
 62
     7
370
    25
100
AcDbCircle
 10
15.3588506725
 20
15.1708029836
 30
0.0
 40
0.1000000000000014
100
AcDbArc
 50
45.0
 51
90.0
  0
LINE
  5
1D7
330
1F
100
AcDbEntity
  8
0
  6
Continuous
 62
     7
370
    25
100
AcDbLine
 10
15.7969540101
 20
14.8741210023
 30
0.0
 11
15.4295613506
 21
15.2415136617
 31
0.0
  0
ARC
  5
1D8
330
1F
100
AcDbEntity
  8
0
  6
Continuous
 62
     7
370
    25
100
AcDbCircle
 10
15.7262433319
 20
14.8034103241
 30
0.0
 40
0.1000000000000014
100
AcDbArc
 50
0.0
 51
45.0
  0
LINE
  5
1D9
330
1F
100
AcDbEntity
  8
0
  6
Continuous
 62
     7
370
    25
100
AcDbLine
 10
15.8262433319
 20
12.0906438964
 30
0.0
 11
15.8262433319
 21
14.8034103241
 31
0.0
  0
ARC
  5
1DA
330
1F
100
AcDbEntity
  8
0
  6
Continuous
 62
     7
370
    25
100
AcDbCircle
 10
15.7262433319
 20
12.0906438964
 30
0.0
 40
0.0999999999999996
100
AcDbArc
 50
270.0
 51
0.0
  0
LINE
  5
1DB
330
1F
100
AcDbEntity
  8
0
  6
Continuous
 62
     7
370
    25
100
AcDbLine
 10
15.1426703198
 20
11.9906438964
 30
0.0
 11
15.7262433319
 21
11.9906438964
 31
0.0
  0
CIRCLE
  5
1DC
330
1F
100
AcDbEntity
  8
0
  6
Continuous
 62
     7
370
    25
100
AcDbCircle
 10
15.4812703198
 20
14.5600127619
 30
0.0
 40
0.0999999999999996
  0
CIRCLE
  5
1DD
330
1F
100
AcDbEntity
  8
0
  6
Continuous
 62
     7
370
    25
100
AcDbCircle
 10
15.4812703198
 20
12.5600127619
 30
0.0
 40
0.0999999999999996
  0
CIRCLE
  5
1DE
330
1F
100
AcDbEntity
  8
0
  6
Continuous
 62
     7
370
    25
100
AcDbCircle
 10
16.5726514969
 20
15.4944841637
 30
0.0
 40
0.1000000000000014
  0
CIRCLE
  5
1DF
330
1F
100
AcDbEntity
  8
0
  6
Continuous
 62
     7
370
    25
100
AcDbCircle
 10
24.0726514969
 20
15.4944841637
 30
0.0
 40
0.0999999999999996
  0
CIRCLE
  5
1E0
330
1F
100
AcDbEntity
  8
0
  6
Continuous
 62
     7
370
    25
100
AcDbCircle
 10
31.5726514969
 20
15.4944841637
 30
0.0
 40
0.1000000000000014
  0
LINE
  5
1E1
330
1F
100
AcDbEntity
  8
0
  6
Continuous
 62
     7
370
    25
100
AcDbLine
 10
15.6319408159
 20
15.5702218296
 30
0.0
 11
16.0233621721
 21
15.1788004734
 31
0.0
  0
ARC
  5
1E2
330
1F
100
AcDbEntity
  8
0
  6
Continuous
 62
     7
370
    25
100
AcDbCircle
 10
15.702651494
 20
15.6409325077
 30
0.0
 40
0.1000000000000032
100
AcDbArc
 50
180.0
 51
225.0
  0
LINE
  5
1E3
330
1F
100
AcDbEntity
  8
0
  6
Continuous
 62
     7
370
    25
100
AcDbLine
 10
15.602651494
 20
15.8330841637
 30
0.0
 11
15.602651494
 21
15.6409325077
 31
0.0
  0
LINE
  5
1E4
330
1F
100
AcDbEntity
  8
0
  6
Continuous
 62
     7
370
    25
100
AcDbLine
 10
32.5426514998
 20
15.8330841637
 30
0.0
 11
32.5426514998
 21
15.6409325077
 31
0.0
  0
ARC
  5
1E5
330
1F
100
AcDbEntity
  8
0
  6
Continuous
 62
     7
370
    25
100
AcDbCircle
 10
32.4426514998
 20
15.6409325077
 30
0.0
 40
0.1000000000000085
100
AcDbArc
 50
315.0
 51
360.0
  0
LINE
  5
1E6
330
1F
100
AcDbEntity
  8
0
  6
Continuous
 62
     7
370
    25
100
AcDbLine
 10
32.513362178
 20
15.5702218296
 30
0.0
 11
32.1219408217
 21
15.1788004734
 31
0.0
  0
ARC
  5
1E7
330
1F
100
AcDbEntity
  8
0
  6
Continuous
 62
     7
370
    25
100
AcDbCircle
 10
32.0512301436
 20
15.2495111515
 30
0.0
 40
0.1000000000000014
100
AcDbArc
 50
270.0
 51
315.0
  0
LINE
  5
1E8
330
1F
100
AcDbEntity
  8
0
  6
Continuous
 62
     7
370
    25
100
AcDbLine
 10
32.0512301436
 20
15.1495111515
 30
0.0
 11
16.0940728502
 21
15.1495111515
 31
0.0
  0
ARC
  5
1E9
330
1F
100
AcDbEntity
  8
0
  6
Continuous
 62
     7
370
    25
100
AcDbCircle
 10
16.0940728502
 20
15.2495111515
 30
0.0
 40
0.1000000000000023
100
AcDbArc
 50
225.0
 51
270.0
  0
ARC
  5
1EA
330
1F
100
AcDbEntity
  8
0
  6
Continuous
 62
     7
370
    25
100
AcDbCircle
 10
32.4190596619
 20
12.0906438964
 30
0.0
 40
0.1000000000000014
100
AcDbArc
 50
180.0
 51
270.0
  0
LINE
  5
1EB
330
1F
100
AcDbEntity
  8
0
  6
Continuous
 62
     7
370
    25
100
AcDbLine
 10
32.3190596619
 20
12.0906438964
 30
0.0
 11
32.3190596619
 21
14.8034103241
 31
0.0
  0
LINE
  5
1EC
330
1F
100
AcDbEntity
  8
0
  6
Continuous
 62
     7
370
    25
100
AcDbLine
 10
32.3483489838
 20
14.8741210023
 30
0.0
 11
32.7157416432
 21
15.2415136617
 31
0.0
  0
ARC
  5
1ED
330
1F
100
AcDbEntity
  8
0
  6
Continuous
 62
     7
370
    25
100
AcDbCircle
 10
32.7864523213
 20
15.1708029836
 30
0.0
 40
0.1000000000000014
100
AcDbArc
 50
90.0
 51
135.0
  0
LINE
  5
1EE
330
1F
100
AcDbEntity
  8
0
  6
Continuous
 62
     7
370
    25
100
AcDbLine
 10
32.7864523213
 20
15.2708029836
 30
0.0
 11
33.0026326741
 21
15.2708029836
 31
0.0
  0
LINE
  5
1EF
330
1F
100
AcDbEntity
  8
0
  6
Continuous
 62
     7
370
    25
100
AcDbLine
 10
33.0026326741
 20
11.9906438964
 30
0.0
 11
32.4190596619
 21
11.9906438964
 31
0.0
  0
CIRCLE
  5
1F0
330
1F
100
AcDbEntity
  8
0
  6
Continuous
 62
     7
370
    25
100
AcDbCircle
 10
32.6640326741
 20
14.5600127619
 30
0.0
 40
0.1000000000000014
  0
CIRCLE
  5
1F1
330
1F
100
AcDbEntity
  8
0
  6
Continuous
 62
     7
370
    25
100
AcDbCircle
 10
32.6640326741
 20
12.5600127619
 30
0.0
 40
0.1000000000000014
  0
ARC
  5
1F2
330
1F
100
AcDbEntity
  8
0
  6
Continuous
 62
     7
370
    25
100
AcDbCircle
 10
32.4190596619
 20
14.8034103241
 30
0.0
 40
0.1000000000000036
100
AcDbArc
 50
135.0
 51
180.0
  0
DIMENSION
  5
1F3
330
1F
100
AcDbEntity
  8
DIMS
100
AcDbDimension
  2
_D
 10
34.4113147607
 20
12.5600127619
 30
0.0
 11
34.4113147607
 21
13.5906622511
 31
0.0
 70
   160
  1
<>
 71
     2
 42
-1.0
  3
SLDDIMSTYLE0
100
AcDbAlignedDimension
 13
32.6640326741
 23
14.5600127619
 33
0.0
 14
32.6640326741
 24
12.5600127619
 34
0.0
 50
90.0
100
AcDbRotatedDimension
  0
DIMENSION
  5
205
330
1F
100
AcDbEntity
  8
DIMS
100
AcDbDimension
  2
_D_1
 10
34.4113147607
 20
15.4944841637
 30
0.0
 11
34.4113147607
 21
15.0337670687
 31
0.0
 70
   160
  1
<>
 71
     2
 42
-1.0
  3
SLDDIMSTYLE1
100
AcDbAlignedDimension
 13
32.6640326741
 23
14.5600127619
 33
0.0
 14
31.5726514969
 24
15.4944841637
 34
0.0
 50
90.0
100
AcDbRotatedDimension
  0
DIMENSION
  5
214
330
1F
100
AcDbEntity
  8
DIMS
100
AcDbDimension
  2
_D_2
 10
34.4113147607
 20
15.9030841637
 30
0.0
 11
34.4113147607
 21
16.2967875751
 31
0.0
 70
   160
  1
<>
 71
     2
 42
-1.0
  3
SLDDIMSTYLE1
100
AcDbAlignedDimension
 13
31.5726514969
 23
15.4944841637
 33
0.0
 14
32.7670421229
 24
15.9030841637
 34
0.0
 50
90.0
100
AcDbRotatedDimension
  0
DIMENSION
  5
223
330
1F
100
AcDbEntity
  8
DIMS
100
AcDbDimension
  2
_D_3
 10
31.5726514969
 20
10.8526870737
 30
0.0
 11
32.0413978564
 21
10.8526870737
 31
0.0
 70
   160
  1
<>
 71
     2
 42
-1.0
  3
SLDDIMSTYLE1
100
AcDbAlignedDimension
 13
32.6640326741
 23
12.5600127619
 33
0.0
 14
31.5726514969
 24
15.4944841637
 34
0.0
100
AcDbRotatedDimension
  0
DIMENSION
  5
232
330
1F
100
AcDbEntity
  8
DIMS
100
AcDbDimension
  2
_D_4
 10
33.0726326741
 20
10.8526870737
 30
0.0
 11
32.8724855784
 21
10.8526870737
 31
0.0
 70
   160
  1
<>
 71
     2
 42
-1.0
  3
SLDDIMSTYLE2
100
AcDbAlignedDimension
 13
32.6640326741
 23
12.5600127619
 33
0.0
 14
33.0726326741
 24
11.983375478
 34
0.0
 50
0.0
100
AcDbRotatedDimension
  0
DIMENSION
  5
241
330
1F
100
AcDbEntity
  8
DIMS
100
AcDbDimension
  2
_D_5
 10
24.0726514969
 20
10.8526870737
 30
0.0
 11
27.6338451544
 21
10.8526870737
 31
0.0
 70
   160
  1
<>
 71
     2
 42
-1.0
  3
SLDDIMSTYLE1
100
AcDbAlignedDimension
 13
31.5726514969
 23
15.4944841637
 33
0.0
 14
24.0726514969
 24
15.4944841637
 34
0.0
 50
0.0
100
AcDbRotatedDimension
  0
DIMENSION
  5
250
330
1F
100
AcDbEntity
  8
DIMS
100
AcDbDimension
  2
_D_6
 10
15.4105596416
 20
14.63072344
 30
0.0
 11
18.5458763646
 21
13.3358927796
 31
0.0
 70
   163
  1
<>(7) mounting holes
 71
     1
 42
-1.0
  3
SLDDIMSTYLE3
100
AcDbDiametricDimension
 15
15.5519809979
 25
14.4893020838
 35
0.0
 40
0.0
  0
MTEXT
  5
25E
330
1F
100
AcDbEntity
  8
NOTES
100
AcDbMText
 10
15.1121217661
 20
11.6072947064
 30
0.0
 40
0.2916666667
 41
0.0
 71
     1
 72
     1
  1
Front view
  7
SLDTEXTSTYLE0
 73
     1
 44
1.0
  0
LINE
  5
25F
330
1F
100
AcDbEntity
  8
0
  6
Continuous
 62
     7
370
    25
100
AcDbLine
 10
40.1502676502
 20
14.6962899854
 30
0.0
 11
47.6817645941
 21
11.9550492784
 31
0.0
  0
LINE
  5
260
330
1F
100
AcDbEntity
  8
0
  6
Continuous
 62
     7
370
    25
100
AcDbLine
 10
40.1029117647
 20
15.5974936125
 30
0.0
 11
40.1029117647
 21
14.7650989953
 31
0.0
  0
LINE
  5
261
330
1F
100
AcDbEntity
  8
0
  6
Continuous
 62
     7
370
    25
100
AcDbLine
 10
40.1029117647
 20
15.8730447936
 30
0.0
 11
40.1029117647
 21
15.5974936125
 31
0.0
  0
LINE
  5
262
330
1F
100
AcDbEntity
  8
0
  6
Continuous
 62
     7
370
    25
100
AcDbLine
 10
48.0978671699
 20
15.2808029836
 30
0.0
 11
48.0978671699
 21
15.5974936125
 31
0.0
  0
LINE
  5
263
330
1F
100
AcDbEntity
  8
0
  6
Continuous
 62
     7
370
    25
100
AcDbLine
 10
47.6978671699
 20
11.9906438964
 30
0.0
 11
48.0354401821
 21
11.9906438964
 31
0.0
  0
LINE
  5
264
330
1F
100
AcDbEntity
  8
0
  6
Continuous
 62
     7
370
    25
100
AcDbLine
 10
47.6917682427
 20
11.983375478
 30
0.0
 11
47.6978671699
 21
11.9906438964
 31
0.0
  0
LINE
  5
265
330
1F
100
AcDbEntity
  8
0
  6
Continuous
 62
     7
370
    25
100
AcDbLine
 10
40.1605417199
 20
14.7245177598
 30
0.0
 11
40.1689085115
 21
14.7475053309
 31
0.0
  0
LINE
  5
266
330
1F
100
AcDbEntity
  8
0
  6
Continuous
 62
     7
370
    25
100
AcDbLine
 10
40.1689085115
 20
14.7475053309
 30
0.0
 11
40.1425103733
 21
14.7650989953
 31
0.0
  0
ARC
  5
267
330
1F
100
AcDbEntity
  8
0
  6
Continuous
 62
     7
370
    25
100
AcDbCircle
 10
47.6092966631
 20
12.0151262278
 30
0.0
 40
0.0883723461529706
100
AcDbArc
 50
319.0010018286
 51
338.9437834944
  0
LINE
  5
268
330
1F
100
AcDbEntity
  8
0
  6
Continuous
 62
     7
370
    25
100
AcDbLine
 10
40.1502676502
 20
14.6962899854
 30
0.0
 11
40.1605417199
 21
14.7245177598
 31
0.0
  0
LINE
  5
269
330
1F
100
AcDbEntity
  8
0
  6
Continuous
 62
     7
370
    25
100
AcDbLine
 10
40.1329511348
 20
14.7650989953
 30
0.0
 11
40.1029117647
 21
14.7650989953
 31
0.0
  0
LINE
  5
26A
330
1F
100
AcDbEntity
  8
0
  6
Continuous
 62
     7
370
    25
100
AcDbLine
 10
40.1329511348
 20
15.9030841637
 30
0.0
 11
48.0978671699
 21
15.9030841637
 31
0.0
  0
LINE
  5
26B
330
1F
100
AcDbEntity
  8
0
  6
Continuous
 62
     7
370
    25
100
AcDbLine
 10
48.0978671699
 20
15.9030841637
 30
0.0
 11
48.0978671699
 21
15.5974936125
 31
0.0
  0
ARC
  5
26C
330
1F
100
AcDbEntity
  8
0
  6
Continuous
 62
     7
370
    25
100
AcDbCircle
 10
40.1329511348
 20
15.8730447936
 30
0.0
 40
0.0300393700787467
100
AcDbArc
 50
90.0
 51
180.0
  0
LINE
  5
26D
330
1F
100
AcDbEntity
  8
0
  6
Continuous
 62
     7
370
    25
100
AcDbLine
 10
48.1054401821
 20
11.9906438964
 30
0.0
 11
48.1054401821
 21
15.2708029836
 31
0.0
  0
LINE
  5
26E
330
1F
100
AcDbEntity
  8
0
  6
Continuous
 62
     7
370
    25
100
AcDbLine
 10
48.1054401821
 20
11.9906438964
 30
0.0
 11
48.0354401821
 21
11.9906438964
 31
0.0
  0
LINE
  5
26F
330
1F
100
AcDbEntity
  8
0
  6
Continuous
 62
     7
370
    25
100
AcDbLine
 10
48.1054401821
 20
15.8330841637
 30
0.0
 11
48.1054401821
 21
15.6409325077
 31
0.0
  0
LINE
  5
270
330
1F
100
AcDbEntity
  8
0
  6
Continuous
 62
     7
370
    25
100
AcDbLine
 10
48.0978671699
 20
15.6409325077
 30
0.0
 11
48.1054401821
 21
15.6409325077
 31
0.0
  0
LINE
  5
271
330
1F
100
AcDbEntity
  8
0
  6
Continuous
 62
     7
370
    25
100
AcDbLine
 10
48.0978671699
 20
15.8330841637
 30
0.0
 11
48.1054401821
 21
15.8330841637
 31
0.0
  0
LINE
  5
272
330
1F
100
AcDbEntity
  8
0
  6
Continuous
 62
     7
370
    25
100
AcDbLine
 10
48.0978671699
 20
15.5702218296
 30
0.0
 11
48.1054401821
 21
15.5702218296
 31
0.0
  0
LINE
  5
273
330
1F
100
AcDbEntity
  8
0
  6
Continuous
 62
     7
370
    25
100
AcDbLine
 10
48.1054401821
 20
15.6409325077
 30
0.0
 11
48.1054401821
 21
15.5702218296
 31
0.0
  0
ARC
  5
274
330
1F
100
AcDbEntity
  8
0
  6
Continuous
 62
     7
370
    25
100
AcDbCircle
 10
48.0354401821
 20
15.8330841637
 30
0.0
 40
0.0700000000000074
100
AcDbArc
 50
360.0
 51
26.8979000176
  0
LINE
  5
275
330
1F
100
AcDbEntity
  8
0
  6
Continuous
 62
     7
370
    25
100
AcDbLine
 10
48.1054401821
 20
15.5702218296
 30
0.0
 11
48.1054401821
 21
15.2708029836
 31
0.0
  0
DIMENSION
  5
276
330
1F
100
AcDbEntity
  8
DIMS
100
AcDbDimension
  2
_D_7
 10
48.735361442
 20
15.9030841637
 30
0.0
 11
48.735361442
 21
14.0114979047
 31
0.0
 70
   160
  1
<>
 71
     2
 42
-1.0
  3
SLDDIMSTYLE1
100
AcDbAlignedDimension
 13
47.6759931331
 23
11.9571499184
 33
0.0
 14
48.0978671699
 24
15.9030841637
 34
0.0
 50
90.0
100
AcDbRotatedDimension
  0
MTEXT
  5
285
330
1F
100
AcDbEntity
  8
NOTES
100
AcDbMText
 10
46.5066132003
 20
11.5962404645
 30
0.0
 40
0.2916666667
 41
0.0
 71
     1
 72
     1
  1
Side view
  7
SLDTEXTSTYLE0
 73
     1
 44
1.0
  0
ARC
  5
286
330
1F
100
AcDbEntity
  8
0
  6
Continuous
 62
     7
370
    25
100
AcDbCircle
 10
63.1687738252
 20
25.9675248181
 30
0.0
 40
0.392320758360424
100
AcDbArc
 50
2.718610173
 51
57.2811654397
  0
LINE
  5
287
330
1F
100
AcDbEntity
  8
0
  6
Continuous
 62
     7
370
    25
100
AcDbLine
 10
63.560653035
 20
25.9861329434
 30
0.0
 11
63.560653035
 21
25.3064487668
 31
0.0
  0
LINE
  5
288
330
1F
100
AcDbEntity
  8
0
  6
Continuous
 62
     7
370
    25
100
AcDbLine
 10
51.0851046921
 20
33.3957683104
 30
0.0
 11
63.3808298319
 21
26.297597276
 31
0.0
  0
LINE
  5
289
330
1F
100
AcDbEntity
  8
0
  6
Continuous
 62
     7
370
    25
100
AcDbLine
 10
63.614860666
 20
25.2548992111
 30
0.0
 11
68.9376851755
 21
26.0905204861
 31
0.0
  0
LINE
  5
28A
330
1F
100
AcDbEntity
  8
0
  6
Continuous
 62
     7
370
    25
100
AcDbLine
 10
68.8526549957
 20
29.6733189084
 30
0.0
 11
56.881692037
 21
36.5840087263
 31
0.0
  0
LINE
  5
28B
330
1F
100
AcDbEntity
  8
0
  6
Continuous
 62
     7
370
    25
100
AcDbLine
 10
69.2203395663
 20
26.28313312
 30
0.0
 11
69.2203395663
 21
28.9529438643
 31
0.0
  0
ARC
  5
28C
330
1F
100
AcDbEntity
  8
0
  6
Continuous
 62
     7
370
    25
100
AcDbCircle
 10
51.0394507047
 20
33.3230610542
 30
0.0
 40
0.1647894397615416
100
AcDbArc
 50
123.3103186734
 51
184.8019650781
  0
ARC
  5
28D
330
1F
100
AcDbEntity
  8
0
  6
Continuous
 62
     7
370
    25
100
AcDbCircle
 10
51.0195501186
 20
33.3065560573
 30
0.0
 40
0.1107078507241771
100
AcDbArc
 50
53.690966193
 51
112.3834281912
  0
LINE
  5
28E
330
1F
100
AcDbEntity
  8
0
  6
Continuous
 62
     7
370
    25
100
AcDbLine
 10
56.5793864382
 20
36.7127524673
 30
0.0
 11
50.9473402982
 21
33.4614414368
 31
0.0
  0
LINE
  5
28F
330
1F
100
AcDbEntity
  8
0
  6
Continuous
 62
     7
370
    25
100
AcDbLine
 10
50.8752396777
 20
33.3092661973
 30
0.0
 11
50.8752396777
 21
32.6295820207
 31
0.0
  0
LINE
  5
290
330
1F
100
AcDbEntity
  8
0
  6
Continuous
 62
     7
370
    25
100
AcDbLine
 10
50.9294473088
 20
32.578032465
 30
0.0
 11
52.1654878453
 21
32.7720763917
 31
0.0
  0
ARC
  5
291
330
1F
100
AcDbEntity
  8
0
  6
Continuous
 62
     7
370
    25
100
AcDbCircle
 10
63.1427859128
 20
25.9525219344
 30
0.0
 40
0.4696330282036194
100
AcDbArc
 50
2.6054784856
 51
57.39452166
  0
LINE
  5
292
330
1F
100
AcDbEntity
  8
0
  6
Continuous
 62
     7
370
    25
100
AcDbLine
 10
63.6119334474
 20
25.9738707507
 30
0.0
 11
69.2439795874
 21
29.2251817812
 31
0.0
  0
ARC
  5
293
330
1F
100
AcDbEntity
  8
0
  6
Continuous
 62
     7
370
    25
100
AcDbCircle
 10
68.7748320528
 20
29.2038329649
 30
0.0
 40
0.4696330282037922
100
AcDbArc
 50
2.6054784857
 51
57.39452166
  0
LWPOLYLINE
  5
294
330
1F
100
AcDbEntity
  8
0
  6
Continuous
 62
     7
370
    25
100
AcDbPolyline
 90
        9
 70
   128
 43
0.0
 10
63.6119334474
 20
25.2941865741
 10
63.6043143346
 20
25.2909928999
 10
63.5953568833
 20
25.2893177464
 10
63.5859411525
 20
25.2893256955
 10
63.5769922267
 20
25.2910159662
 10
63.5693893273
 20
25.2942224914
 10
63.5638794301
 20
25.2986302337
 10
63.5610038762
 20
25.3038061377
 10
63.560653035
 20
25.3064487668
  0
LINE
  5
295
330
1F
100
AcDbEntity
  8
0
  6
Continuous
 62
     7
370
    25
100
AcDbLine
 10
63.6119334474
 20
25.2941865741
 30
0.0
 11
63.6119334474
 21
25.9738707507
 31
0.0
  0
LINE
  5
296
330
1F
100
AcDbEntity
  8
0
  6
Continuous
 62
     7
370
    25
100
AcDbLine
 10
63.3958482964
 20
26.3481412099
 30
0.0
 11
51.1001231565
 21
33.4463122443
 31
0.0
  0
LINE
  5
297
330
1F
100
AcDbEntity
  8
0
  6
Continuous
 62
     7
370
    25
100
AcDbLine
 10
69.2439795874
 20
28.966590958
 30
0.0
 11
69.2439795874
 21
29.2251817812
 31
0.0
  0
LINE
  5
298
330
1F
100
AcDbEntity
  8
0
  6
Continuous
 62
     7
370
    25
100
AcDbLine
 10
68.9611368749
 20
26.1167601633
 30
0.0
 11
69.199837041
 21
26.2545588361
 31
0.0
  0
LINE
  5
299
330
1F
100
AcDbEntity
  8
0
  6
Continuous
 62
     7
370
    25
100
AcDbLine
 10
68.9568242821
 20
26.1083355962
 30
0.0
 11
68.9611368749
 21
26.1167601633
 31
0.0
  0
LINE
  5
29A
330
1F
100
AcDbEntity
  8
0
  6
Continuous
 62
     7
370
    25
100
AcDbLine
 10
63.6314429372
 20
25.2723129279
 30
0.0
 11
63.6373591523
 21
25.2944985762
 31
0.0
  0
LINE
  5
29B
330
1F
100
AcDbEntity
  8
0
  6
Continuous
 62
     7
370
    25
100
AcDbLine
 10
63.6373591523
 20
25.2944985762
 30
0.0
 11
63.6186928497
 21
25.298088694
 31
0.0
  0
LINE
  5
29C
330
1F
100
AcDbEntity
  8
0
  6
Continuous
 62
     7
370
    25
100
AcDbLine
 10
63.6186928497
 20
25.298088694
 30
0.0
 11
63.6119334474
 21
25.2941865741
 31
0.0
  0
LWPOLYLINE
  5
29D
330
1F
100
AcDbEntity
  8
0
  6
Continuous
 62
     7
370
    25
100
AcDbPolyline
 90
       17
 70
   128
 43
0.0
 10
62.9779537565
 20
27.6153190966
 10
63.1508402947
 20
27.507417954
 10
63.2928712573
 20
27.4025986537
 10
63.3994287204
 20
27.3057186188
 10
63.4532893639
 20
27.2411907789
 10
63.4826503951
 20
27.1859103015
 10
63.4876514527
 20
27.1552060365
 10
63.4803206926
 20
27.1301296551
 10
63.4600808742
 20
27.1112883351
 10
63.4273077866
 20
27.0995259559
 10
63.3837569173
 20
27.0952289979
 10
63.3304779361
 20
27.0980630108
 10
63.2346154065
 20
27.1149529904
 10
63.1227690165
 20
27.1460063713
 10
62.9548997864
 20
27.2074918765
 10
62.7733101793
 20
27.2894744574
 10
62.5863975522
 20
27.3892785113
  0
LWPOLYLINE
  5
29E
330
1F
100
AcDbEntity
  8
0
  6
Continuous
 62
     7
370
    25
100
AcDbPolyline
 90
       17
 70
   128
 43
0.0
 10
62.5863975522
 20
27.3892785113
 10
62.4134630048
 20
27.4972098095
 10
62.2713307526
 20
27.6021078801
 10
62.1646702987
 20
27.699104988
 10
62.1107623237
 20
27.7637395652
 10
62.0814037774
 20
27.8191381741
 10
62.0764427977
 20
27.849925375
 10
62.0838518949
 20
27.8750865339
 10
62.1042147568
 20
27.8940131839
 10
62.1368648009
 20
27.9056902331
 10
62.1803373331
 20
27.9099024136
 10
62.2335762364
 20
27.9069854648
 10
62.3294362812
 20
27.8899773538
 10
62.4413300026
 20
27.8588172355
 10
62.6093022235
 20
27.7972146573
 10
62.7909931202
 20
27.7151533061
 10
62.9779537565
 20
27.6153190966
  0
LINE
  5
29F
330
1F
100
AcDbEntity
  8
0
  6
Continuous
 62
     7
370
    25
100
AcDbLine
 10
56.7321692965
 20
36.6976232748
 30
0.0
 11
56.8837663599
 21
36.610108153
 31
0.0
  0
LINE
  5
2A0
330
1F
100
AcDbEntity
  8
0
  6
Continuous
 62
     7
370
    25
100
AcDbLine
 10
69.0278944364
 20
29.5994522404
 30
0.0
 11
68.876297373
 21
29.6869673623
 31
0.0
  0
ARC
  5
2A1
330
1F
100
AcDbEntity
  8
0
  6
Continuous
 62
     7
370
    25
100
AcDbCircle
 10
68.9347261152
 20
26.1135810981
 30
0.0
 40
0.022712205297019
100
AcDbArc
 50
277.2231716484
 51
346.6466852234
  0
LWPOLYLINE
  5
2A2
330
1F
100
AcDbEntity
  8
0
  6
Continuous
 62
     7
370
    25
100
AcDbPolyline
 90
        9
 70
   128
 43
0.0
 10
63.5900700951
 20
25.2739118314
 10
63.5938156281
 20
25.2662772379
 10
63.598969346
 20
25.2602151076
 10
63.6050883543
 20
25.2562464012
 10
63.6116468044
 20
25.254712177
 10
63.6180810834
 20
25.2557442814
 10
63.6238382495
 20
25.2592540187
 10
63.6284235495
 20
25.2649397729
 10
63.6314429372
 20
25.2723129279
  0
LWPOLYLINE
  5
2A3
330
1F
100
AcDbEntity
  8
0
  6
Continuous
 62
     7
370
    25
100
AcDbPolyline
 90
        7
 70
   128
 43
0.0
 10
62.9779537565
 20
27.6149108262
 10
63.1508402947
 20
27.5070096836
 10
63.2928712573
 20
27.4021903833
 10
63.3994287204
 20
27.3053103484
 10
63.4532893639
 20
27.2407825085
 10
63.4826503951
 20
27.1855020311
 10
63.4866141669
 20
27.1611662384
  0
LINE
  5
2A4
330
1F
100
AcDbEntity
  8
0
  6
Continuous
 62
     7
370
    25
100
AcDbLine
 10
62.9779537565
 20
27.6149108262
 30
0.0
 11
62.9779537565
 21
27.6153190966
 31
0.0
  0
LWPOLYLINE
  5
2A5
330
1F
100
AcDbEntity
  8
0
  6
Continuous
 62
     7
370
    25
100
AcDbPolyline
 90
        3
 70
   128
 43
0.0
 10
63.1078303418
 20
27.2241743683
 10
63.1068862785
 20
27.2285999375
 10
63.1069108369
 20
27.2286901089
  0
ARC
  5
2A6
330
1F
100
AcDbEntity
  8
0
  6
Continuous
 62
     7
370
    25
100
AcDbCircle
 10
63.1283374506
 20
27.2383807127
 30
0.0
 40
0.0249471788440696
100
AcDbArc
 50
214.7123658741
 51
265.2930106587
  0
LWPOLYLINE
  5
2A7
330
1F
100
AcDbEntity
  8
0
  6
Continuous
 62
     7
370
    25
100
AcDbPolyline
 90
        3
 70
   128
 43
0.0
 10
63.1399786453
 20
27.2135192782
 10
63.1323145617
 20
27.2129725296
 10
63.126290283
 20
27.2135176711
  0
ARC
  5
2A8
330
1F
100
AcDbEntity
  8
0
  6
Continuous
 62
     7
370
    25
100
AcDbCircle
 10
63.1389777054
 20
27.2365386124
 30
0.0
 40
0.0230410856639355
100
AcDbArc
 50
272.4897997173
 51
327.7733857645
  0
LINE
  5
2A9
330
1F
100
AcDbEntity
  8
0
  6
Continuous
 62
     7
370
    25
100
AcDbLine
 10
63.159377619
 20
27.2276116126
 30
0.0
 11
63.1584692093
 21
27.2242515092
 31
0.0
  0
LWPOLYLINE
  5
2AA
330
1F
100
AcDbEntity
  8
0
  6
Continuous
 62
     7
370
    25
100
AcDbPolyline
 90
        4
 70
   128
 43
0.0
 10
62.9910790219
 20
27.3110849517
 10
62.989119099
 20
27.3051657217
 10
62.9963314967
 20
27.2884123393
 10
63.0159426507
 20
27.2719647778
  0
ARC
  5
2AB
330
1F
100
AcDbEntity
  8
0
  6
Continuous
 62
     7
370
    25
100
AcDbCircle
 10
63.0777483415
 20
27.3836774447
 30
0.0
 40
0.1276701349617217
100
AcDbArc
 50
241.0461796385
 51
304.1054659449
  0
ARC
  5
2AC
330
1F
100
AcDbEntity
  8
0
  6
Continuous
 62
     7
370
    25
100
AcDbCircle
 10
63.1466202018
 20
27.2846576216
 30
0.0
 40
0.0072217376612536
100
AcDbArc
 50
292.0836286297
 51
347.0200023208
  0
LWPOLYLINE
  5
2AD
330
1F
100
AcDbEntity
  8
0
  6
Continuous
 62
     7
370
    25
100
AcDbPolyline
 90
        4
 70
   128
 43
0.0
 10
63.0135983462
 20
27.3038410747
 10
63.0117275169
 20
27.3099413759
 10
63.0177813391
 20
27.322227138
 10
63.0332166569
 20
27.3344473191
  0
LINE
  5
2AE
330
1F
100
AcDbEntity
  8
0
  6
Continuous
 62
     7
370
    25
100
AcDbLine
 10
63.0332166569
 20
27.3344473191
 30
0.0
 11
63.1079611843
 21
27.3775964163
 31
0.0
  0
LINE
  5
2AF
330
1F
100
AcDbEntity
  8
0
  6
Continuous
 62
     7
370
    25
100
AcDbLine
 10
63.1079611843
 20
27.3775964163
 30
0.0
 11
63.206054155
 21
27.3209685497
 31
0.0
  0
LWPOLYLINE
  5
2B0
330
1F
100
AcDbEntity
  8
0
  6
Continuous
 62
     7
370
    25
100
AcDbPolyline
 90
        8
 70
   128
 43
0.0
 10
63.206054155
 20
27.3209685497
 10
63.210131807
 20
27.3194904234
 10
63.2145166433
 20
27.3191221395
 10
63.2187613284
 20
27.31969273
 10
63.2224185268
 20
27.3210312267
 10
63.2250409029
 20
27.3229666616
 10
63.2261811213
 20
27.3253280666
 10
63.2260232065
 20
27.326287447
  0
LINE
  5
2B1
330
1F
100
AcDbEntity
  8
0
  6
Continuous
 62
     7
370
    25
100
AcDbLine
 10
63.1244195123
 20
27.3875155198
 30
0.0
 11
63.1489065644
 21
27.4012433237
 31
0.0
  0
ARC
  5
2B2
330
1F
100
AcDbEntity
  8
0
  6
Continuous
 62
     7
370
    25
100
AcDbCircle
 10
63.1472150746
 20
27.4061723778
 30
0.0
 40
0.0052112102411502
100
AcDbArc
 50
288.9405404894
 51
349.7876055044
  0
LWPOLYLINE
  5
2B3
330
1F
100
AcDbEntity
  8
0
  6
Continuous
 62
     7
370
    25
100
AcDbPolyline
 90
        4
 70
   128
 43
0.0
 10
63.0075325342
 20
27.4388382744
 10
63.0243698197
 20
27.4240841018
 10
63.0290200069
 20
27.4089093013
 10
63.0281267699
 20
27.4066034057
  0
LWPOLYLINE
  5
2B4
330
1F
100
AcDbEntity
  8
0
  6
Continuous
 62
     7
370
    25
100
AcDbPolyline
 90
        9
 70
   128
 43
0.0
 10
63.0096561291
 20
27.3824142444
 10
63.0095130944
 20
27.381482089
 10
63.010582302
 20
27.3792400428
 10
63.0130098279
 20
27.3773424941
 10
63.0163857886
 20
27.3759807132
 10
63.0203003006
 20
27.3753459705
 10
63.0230067588
 20
27.3754211732
 10
63.0256489556
 20
27.3759611857
 10
63.0281054441
 20
27.3770226807
  0
LWPOLYLINE
  5
2B5
330
1F
100
AcDbEntity
  8
0
  6
Continuous
 62
     7
370
    25
100
AcDbPolyline
 90
        3
 70
   128
 43
0.0
 10
63.0281054441
 20
27.3770226807
 10
63.0455012444
 20
27.393234428
 10
63.0498578533
 20
27.4067940637
  0
LWPOLYLINE
  5
2B6
330
1F
100
AcDbEntity
  8
0
  6
Continuous
 62
     7
370
    25
100
AcDbPolyline
 90
        3
 70
   128
 43
0.0
 10
62.8994019142
 20
27.4405647676
 10
62.9003165521
 20
27.4366170721
 10
62.9062325281
 20
27.429353155
  0
LWPOLYLINE
  5
2B7
330
1F
100
AcDbEntity
  8
0
  6
Continuous
 62
     7
370
    25
100
AcDbPolyline
 90
        3
 70
   128
 43
0.0
 10
62.9062325281
 20
27.429353155
 10
62.9431271494
 20
27.4023760618
 10
62.9703314794
 20
27.3799781423
  0
LWPOLYLINE
  5
2B8
330
1F
100
AcDbEntity
  8
0
  6
Continuous
 62
     7
370
    25
100
AcDbPolyline
 90
        3
 70
   128
 43
0.0
 10
62.9703314794
 20
27.3799781423
 10
62.9744738222
 20
27.3717504247
 10
62.9737148009
 20
27.3685468532
  0
LWPOLYLINE
  5
2B9
330
1F
100
AcDbEntity
  8
0
  6
Continuous
 62
     7
370
    25
100
AcDbPolyline
 90
        4
 70
   128
 43
0.0
 10
62.8513624807
 20
27.3942446719
 10
62.8502590992
 20
27.3998400105
 10
62.8556682463
 20
27.412176092
 10
62.8693961622
 20
27.4235772283
  0
ARC
  5
2BA
330
1F
100
AcDbEntity
  8
0
  6
Continuous
 62
     7
370
    25
100
AcDbCircle
 10
62.8659470648
 20
27.4321683823
 30
0.0
 40
0.009257656307026
100
AcDbArc
 50
291.8740196615
 51
342.9754770925
  0
LWPOLYLINE
  5
2BB
330
1F
100
AcDbEntity
  8
0
  6
Continuous
 62
     7
370
    25
100
AcDbPolyline
 90
        4
 70
   128
 43
0.0
 10
62.8284379658
 20
27.3948579313
 10
62.8283099383
 20
27.3943124711
 10
62.8373073467
 20
27.3763054745
 10
62.8594382057
 20
27.3576876295
  0
ARC
  5
2BC
330
1F
100
AcDbEntity
  8
0
  6
Continuous
 62
     7
370
    25
100
AcDbCircle
 10
62.9305684969
 20
27.4754102624
 30
0.0
 40
0.1375432172632215
100
AcDbArc
 50
238.8588168321
 51
284.542841559
  0
LWPOLYLINE
  5
2BD
330
1F
100
AcDbEntity
  8
0
  6
Continuous
 62
     7
370
    25
100
AcDbPolyline
 90
        5
 70
   128
 43
0.0
 10
62.9651061274
 20
27.3422739087
 10
62.9799472697
 20
27.3486715905
 10
62.9902810587
 20
27.3556445751
 10
62.9961055386
 20
27.3631926115
 10
62.9963788183
 20
27.3656465654
  0
LWPOLYLINE
  5
2BE
330
1F
100
AcDbEntity
  8
0
  6
Continuous
 62
     7
370
    25
100
AcDbPolyline
 90
        4
 70
   128
 43
0.0
 10
62.921205895
 20
27.446431722
 10
62.9211262865
 20
27.4471806184
 10
62.923428305
 20
27.4509664625
 10
62.92816119
 20
27.4542487811
  0
ARC
  5
2BF
330
1F
100
AcDbEntity
  8
0
  6
Continuous
 62
     7
370
    25
100
AcDbCircle
 10
62.9518764109
 20
27.3642882062
 30
0.0
 40
0.0930339547762609
100
AcDbArc
 50
53.2564411341
 51
104.7682112122
  0
LWPOLYLINE
  5
2C0
330
1F
100
AcDbEntity
  8
0
  6
Continuous
 62
     7
370
    25
100
AcDbPolyline
 90
        4
 70
   128
 43
0.0
 10
62.6905569388
 20
27.501131491
 10
62.6904343269
 20
27.5017054199
 10
62.6979988347
 20
27.5180791624
 10
62.7153610232
 20
27.532453607
  0
LWPOLYLINE
  5
2C1
330
1F
100
AcDbEntity
  8
0
  6
Continuous
 62
     7
370
    25
100
AcDbPolyline
 90
        3
 70
   128
 43
0.0
 10
62.7153610232
 20
27.532453607
 10
62.7347339089
 20
27.5408677841
 10
62.7517965097
 20
27.5452879945
  0
LINE
  5
2C2
330
1F
100
AcDbEntity
  8
0
  6
Continuous
 62
     7
370
    25
100
AcDbLine
 10
62.7517965097
 20
27.5452879945
 30
0.0
 11
62.7521606906
 21
27.5582915806
 31
0.0
  0
LWPOLYLINE
  5
2C3
330
1F
100
AcDbEntity
  8
0
  6
Continuous
 62
     7
370
    25
100
AcDbPolyline
 90
        4
 70
   128
 43
0.0
 10
62.6686753731
 20
27.493047624
 10
62.6683059064
 20
27.4913186493
 10
62.6778115207
 20
27.4707345149
 10
62.6996292893
 20
27.4526625708
  0
ARC
  5
2C4
330
1F
100
AcDbEntity
  8
0
  6
Continuous
 62
     7
370
    25
100
AcDbCircle
 10
62.7766267847
 20
27.6014503615
 30
0.0
 40
0.1675303582713481
100
AcDbArc
 50
242.6384917346
 51
297.3555282344
  0
LWPOLYLINE
  5
2C5
330
1F
100
AcDbEntity
  8
0
  6
Continuous
 62
     7
370
    25
100
AcDbPolyline
 90
        3
 70
   128
 43
0.0
 10
62.8536087506
 20
27.4526545353
 10
62.8730839169
 20
27.4679649605
 10
62.882023703
 20
27.4815000526
  0
LWPOLYLINE
  5
2C6
330
1F
100
AcDbEntity
  8
0
  6
Continuous
 62
     7
370
    25
100
AcDbPolyline
 90
       12
 70
   128
 43
0.0
 10
62.0774905782
 20
27.8430147138
 10
62.0764427977
 20
27.8495171046
 10
62.0838518949
 20
27.8746782635
 10
62.1042147568
 20
27.8936049134
 10
62.1368648009
 20
27.9052819627
 10
62.1803373331
 20
27.9094941432
 10
62.2335762364
 20
27.9065771944
 10
62.3294362812
 20
27.8895690834
 10
62.4413300026
 20
27.8584089651
 10
62.6093022235
 20
27.7968063869
 10
62.7909931202
 20
27.7147450357
 10
62.9779537565
 20
27.6149108262
  0
LWPOLYLINE
  5
2C7
330
1F
100
AcDbEntity
  8
0
  6
Continuous
 62
     7
370
    25
100
AcDbPolyline
 90
       12
 70
   128
 43
0.0
 10
63.4277176149
 20
27.171746045
 10
63.427830817
 20
27.170284387
 10
63.421807455
 20
27.1537522445
 10
63.4077855951
 20
27.1411723412
 10
63.3877803531
 20
27.1333334771
 10
63.3620153074
 20
27.1293504067
 10
63.2947875304
 20
27.1324309085
 10
63.2092657143
 20
27.1493723687
 10
63.1086133094
 20
27.1791333095
 10
62.9563413233
 20
27.2369558932
 10
62.7902929731
 20
27.3132484605
 10
62.6179668077
 20
27.4055423231
  0
LWPOLYLINE
  5
2C8
330
1F
100
AcDbEntity
  8
0
  6
Continuous
 62
     7
370
    25
100
AcDbPolyline
 90
        5
 70
   128
 43
0.0
 10
63.1191384825
 20
27.4724588604
 10
63.1184055187
 20
27.4731729806
 10
63.1181701472
 20
27.4738647362
 10
63.1183835793
 20
27.4745205769
 10
63.1185374148
 20
27.4746726389
  0
LWPOLYLINE
  5
2C9
330
1F
100
AcDbEntity
  8
0
  6
Continuous
 62
     7
370
    25
100
AcDbPolyline
 90
       12
 70
   128
 43
0.0
 10
62.7352129069
 20
27.6956275534
 10
62.6187700874
 20
27.7493149878
 10
62.5039361988
 20
27.7954663609
 10
62.3965442533
 20
27.8314204897
 10
62.3243929908
 20
27.8500932765
 10
62.2621696928
 20
27.8604105109
 10
62.2274182409
 20
27.8620922806
 10
62.1989020341
 20
27.8592288516
 10
62.1773501987
 20
27.8514875761
 10
62.1627194538
 20
27.8376514077
 10
62.1579999753
 20
27.8193400546
 10
62.1587898027
 20
27.8154099489
  0
LWPOLYLINE
  5
2CA
330
1F
100
AcDbEntity
  8
0
  6
Continuous
 62
     7
370
    25
100
AcDbPolyline
 90
        8
 70
   128
 43
0.0
 10
63.4057583703
 20
27.1802363575
 10
63.406666072
 20
27.1864861129
 10
63.4028906554
 20
27.2044577307
 10
63.3794238769
 20
27.2465262182
 10
63.3380080919
 20
27.2949489306
 10
63.2825822641
 20
27.3473120355
 10
63.2046307085
 20
27.4108010371
 10
63.1191384825
 20
27.4724588604
  0
ARC
  5
2CB
330
1F
100
AcDbEntity
  8
0
  6
Continuous
 62
     7
370
    25
100
AcDbCircle
 10
62.7387300588
 20
27.6995077606
 30
0.0
 40
0.0052370187222159
100
AcDbArc
 50
227.8097680126
 51
344.5748105625
  0
LWPOLYLINE
  5
2CC
330
1F
100
AcDbEntity
  8
0
  6
Continuous
 62
     7
370
    25
100
AcDbPolyline
 90
        7
 70
   128
 43
0.0
 10
62.6179668077
 20
27.4055423231
 10
62.4634518352
 20
27.5011854322
 10
62.3314487485
 20
27.5958223165
 10
62.2283641947
 20
27.6844083703
 10
62.1738825655
 20
27.7438424075
 10
62.1419741545
 20
27.7949070688
 10
62.1374427207
 20
27.8226236443
  0
LINE
  5
2CD
330
1F
100
AcDbEntity
  8
0
  6
Continuous
 62
     7
370
    25
100
AcDbLine
 10
62.5167029921
 20
27.651613835
 30
0.0
 11
62.4479466012
 21
27.6913060546
 31
0.0
  0
LWPOLYLINE
  5
2CE
330
1F
100
AcDbEntity
  8
0
  6
Continuous
 62
     7
370
    25
100
AcDbPolyline
 90
        9
 70
   128
 43
0.0
 10
62.5366803237
 20
27.6563842151
 10
62.5368303499
 20
27.6558375266
 10
62.5359656002
 20
27.65336079
 10
62.5335458441
 20
27.6513303823
 10
62.5299903935
 20
27.6499433931
 10
62.5257185601
 20
27.6493969123
 10
62.5226797482
 20
27.6495968692
 10
62.5196331454
 20
27.6503163778
 10
62.5167029921
 20
27.651613835
  0
LINE
  5
2CF
330
1F
100
AcDbEntity
  8
0
  6
Continuous
 62
     7
370
    25
100
AcDbLine
 10
62.498265322
 20
27.7203447912
 30
0.0
 11
62.4641376762
 21
27.701051591
 31
0.0
  0
LWPOLYLINE
  5
2D0
330
1F
100
AcDbEntity
  8
0
  6
Continuous
 62
     7
370
    25
100
AcDbPolyline
 90
        8
 70
   128
 43
0.0
 10
62.6007280878
 20
27.6963157629
 10
62.5981336283
 20
27.7055265018
 10
62.5873212039
 20
27.7161488723
 10
62.5715239508
 20
27.723656226
 10
62.5527308025
 20
27.7279390288
 10
62.5329306926
 20
27.7288877467
 10
62.5141125545
 20
27.7263928455
 10
62.498265322
 20
27.7203447912
  0
LWPOLYLINE
  5
2D1
330
1F
100
AcDbEntity
  8
0
  6
Continuous
 62
     7
370
    25
100
AcDbPolyline
 90
       10
 70
   128
 43
0.0
 10
62.6194144279
 20
27.6734913225
 10
62.6180694393
 20
27.6716317588
 10
62.616138066
 20
27.6702890738
 10
62.6137670128
 20
27.6694181963
 10
62.6097069503
 20
27.6688979251
 10
62.6054828236
 20
27.6691856938
 10
62.6015897616
 20
27.6701293863
 10
62.5985228937
 20
27.6715768866
 10
62.5967773489
 20
27.6733760788
 10
62.5967037796
 20
27.6737013478
  0
LWPOLYLINE
  5
2D2
330
1F
100
AcDbEntity
  8
0
  6
Continuous
 62
     7
370
    25
100
AcDbPolyline
 90
        3
 70
   128
 43
0.0
 10
62.6241061784
 20
27.6884048138
 10
62.624142219
 20
27.6878917771
 10
62.6194144279
 20
27.6734913225
  0
LWPOLYLINE
  5
2D3
330
1F
100
AcDbEntity
  8
0
  6
Continuous
 62
     7
370
    25
100
AcDbPolyline
 90
        9
 70
   128
 43
0.0
 10
62.3748250787
 20
27.6490938982
 10
62.3719090156
 20
27.6477340671
 10
62.368940861
 20
27.6469803871
 10
62.3660239569
 20
27.6467652316
 10
62.3619707563
 20
27.6473042984
 10
62.3586141686
 20
27.6486746453
 10
62.3563029732
 20
27.6506480323
 10
62.3553859495
 20
27.6529962195
 10
62.3555364385
 20
27.6537414108
  0
LINE
  5
2D4
330
1F
100
AcDbEntity
  8
0
  6
Continuous
 62
     7
370
    25
100
AcDbLine
 10
62.4479466012
 20
27.6913060546
 30
0.0
 11
62.3748250787
 21
27.6490938982
 31
0.0
  0
ARC
  5
2D5
330
1F
100
AcDbEntity
  8
0
  6
Continuous
 62
     7
370
    25
100
AcDbCircle
 10
62.6419146946
 20
27.5353032414
 30
0.0
 40
0.0941163755683274
100
AcDbArc
 50
61.7405961057
 51
119.3398404705
  0
LWPOLYLINE
  5
2D6
330
1F
100
AcDbEntity
  8
0
  6
Continuous
 62
     7
370
    25
100
AcDbPolyline
 90
        4
 70
   128
 43
0.0
 10
62.7052367998
 20
27.5896102874
 10
62.7057147729
 20
27.597329997
 10
62.6995958025
 20
27.6082297397
 10
62.6864754328
 20
27.6182021723
  0
LWPOLYLINE
  5
2D7
330
1F
100
AcDbEntity
  8
0
  6
Continuous
 62
     7
370
    25
100
AcDbPolyline
 90
        9
 70
   128
 43
0.0
 10
62.7018925878
 20
27.5582861739
 10
62.6989179519
 20
27.5569062233
 10
62.6959014611
 20
27.556097821
 10
62.6929496183
 20
27.5558042048
 10
62.6888760443
 20
27.5562048379
 10
62.6855470072
 20
27.5574444539
 10
62.6833219545
 20
27.5593314811
 10
62.6825603336
 20
27.5616743479
 10
62.6826803921
 20
27.5621022216
  0
LWPOLYLINE
  5
2D8
330
1F
100
AcDbEntity
  8
0
  6
Continuous
 62
     7
370
    25
100
AcDbPolyline
 90
        4
 70
   128
 43
0.0
 10
62.7271697571
 20
27.5895572288
 10
62.7274556078
 20
27.5860406544
 10
62.7187209311
 20
27.5716488045
 10
62.7018925878
 20
27.5582861739
  0
LINE
  5
2D9
330
1F
100
AcDbEntity
  8
0
  6
Continuous
 62
     7
370
    25
100
AcDbLine
 10
62.6513038302
 20
27.6493671056
 30
0.0
 11
62.6397212063
 21
27.6426805992
 31
0.0
  0
ARC
  5
2DA
330
1F
100
AcDbEntity
  8
0
  6
Continuous
 62
     7
370
    25
100
AcDbCircle
 10
62.6499929591
 20
27.653552643
 30
0.0
 40
0.0043860126233737
100
AcDbArc
 50
287.3900672663
 51
350.0418278983
  0
LWPOLYLINE
  5
2DB
330
1F
100
AcDbEntity
  8
0
  6
Continuous
 62
     7
370
    25
100
AcDbPolyline
 90
        9
 70
   128
 43
0.0
 10
62.512591194
 20
27.5693125047
 10
62.5095418137
 20
27.567940838
 10
62.506464005
 20
27.5671629678
 10
62.5034622697
 20
27.5669161892
 10
62.4993309029
 20
27.567404651
 10
62.4959585253
 20
27.568735354
 10
62.4936978313
 20
27.5706966689
 10
62.4929015151
 20
27.5730769667
 10
62.4930357054
 20
27.5735807651
  0
LINE
  5
2DC
330
1F
100
AcDbEntity
  8
0
  6
Continuous
 62
     7
370
    25
100
AcDbLine
 10
62.5957987317
 20
27.6173471938
 30
0.0
 11
62.512591194
 21
27.5693125047
 31
0.0
  0
LINE
  5
2DD
330
1F
100
AcDbEntity
  8
0
  6
Continuous
 62
     7
370
    25
100
AcDbLine
 10
62.7510392929
 20
27.4812834607
 30
0.0
 11
62.7500872043
 21
27.4817784483
 31
0.0
  0
LINE
  5
2DE
330
1F
100
AcDbEntity
  8
0
  6
Continuous
 62
     7
370
    25
100
AcDbLine
 10
62.8588535899
 20
27.4814538136
 30
0.0
 11
62.7510392929
 21
27.4812834607
 31
0.0
  0
LWPOLYLINE
  5
2DF
330
1F
100
AcDbEntity
  8
0
  6
Continuous
 62
     7
370
    25
100
AcDbPolyline
 90
        3
 70
   128
 43
0.0
 10
62.8627064867
 20
27.490389304
 10
62.8608175371
 20
27.4853872351
 10
62.8588535899
 20
27.4814538136
  0
LWPOLYLINE
  5
2E0
330
1F
100
AcDbEntity
  8
0
  6
Continuous
 62
     7
370
    25
100
AcDbPolyline
 90
        3
 70
   128
 43
0.0
 10
62.8627064867
 20
27.490389304
 10
62.8635014354
 20
27.4966039025
 10
62.863414728
 20
27.4979874538
  0
LINE
  5
2E1
330
1F
100
AcDbEntity
  8
0
  6
Continuous
 62
     7
370
    25
100
AcDbLine
 10
63.1623304577
 20
27.4818234472
 30
0.0
 11
62.8822076009
 21
27.4815004196
 31
0.0
  0
LINE
  5
2E2
330
1F
100
AcDbEntity
  8
0
  6
Continuous
 62
     7
370
    25
100
AcDbLine
 10
63.1647858443
 20
27.4830705588
 30
0.0
 11
63.1623304577
 21
27.4818234472
 31
0.0
  0
LWPOLYLINE
  5
2E3
330
1F
100
AcDbEntity
  8
0
  6
Continuous
 62
     7
370
    25
100
AcDbPolyline
 90
        3
 70
   128
 43
0.0
 10
62.7671357158
 20
27.559745423
 10
62.7585386864
 20
27.5590673353
 10
62.7521606906
 20
27.5582915806
  0
LWPOLYLINE
  5
2E4
330
1F
100
AcDbEntity
  8
0
  6
Continuous
 62
     7
370
    25
100
AcDbPolyline
 90
        3
 70
   128
 43
0.0
 10
62.7943900338
 20
27.5591932449
 10
62.7791481743
 20
27.5599850084
 10
62.7671357158
 20
27.559745423
  0
ARC
  5
2E5
330
1F
100
AcDbEntity
  8
0
  6
Continuous
 62
     7
370
    25
100
AcDbCircle
 10
62.7964341646
 20
27.4571940731
 30
0.0
 40
0.1020196526134369
100
AcDbArc
 50
32.573506884
 51
91.1480915925
  0
LINE
  5
2E6
330
1F
100
AcDbEntity
  8
0
  6
Continuous
 62
     7
370
    25
100
AcDbLine
 10
62.8836407709
 20
27.5012454165
 30
0.0
 11
62.8848495077
 21
27.4910064977
 31
0.0
  0
LWPOLYLINE
  5
2E7
330
1F
100
AcDbEntity
  8
0
  6
Continuous
 62
     7
370
    25
100
AcDbPolyline
 90
       12
 70
   128
 43
0.0
 10
62.737220088
 20
27.706425742
 10
62.741041976
 20
27.7041348958
 10
62.743185475
 20
27.7017212757
 10
62.7439079529
 20
27.6993879981
 10
62.7436720893
 20
27.697812952
 10
62.7428902479
 20
27.6964830413
 10
62.741671006
 20
27.6954839558
 10
62.7401229405
 20
27.6949013852
 10
62.7389618355
 20
27.6947867179
 10
62.7377350143
 20
27.6949206422
 10
62.7364746477
 20
27.6953285476
 10
62.7352129069
 20
27.6960358238
  0
LWPOLYLINE
  5
2E8
330
1F
100
AcDbEntity
  8
0
  6
Continuous
 62
     7
370
    25
100
AcDbPolyline
 90
       34
 70
   128
 43
0.0
 10
62.7352129069
 20
27.6960358238
 10
62.6187700874
 20
27.7497232582
 10
62.5039361988
 20
27.7958746314
 10
62.3965442533
 20
27.8318287601
 10
62.3243929908
 20
27.8505015469
 10
62.2621696928
 20
27.8608187813
 10
62.2274182409
 20
27.862500551
 10
62.1989020341
 20
27.859637122
 10
62.1773501987
 20
27.8518958465
 10
62.1627194538
 20
27.8380596781
 10
62.1579999753
 20
27.819748325
 10
62.1624854839
 20
27.7974288626
 10
62.1849281112
 20
27.7574561914
 10
62.2241091374
 20
27.7110925733
 10
62.2982680519
 20
27.6420575491
 10
62.3922962078
 20
27.5681998969
 10
62.5005433697
 20
27.4932562195
 10
62.6422428821
 20
27.4065826252
 10
62.8017556263
 20
27.3214769121
 10
62.9598257243
 20
27.248442168
 10
63.1072680492
 20
27.1914947291
 10
63.234897474
 20
27.1546509317
 10
63.3280397621
 20
27.1419444423
 10
63.3560904992
 20
27.1434138041
 10
63.3786372566
 20
27.1488279292
 10
63.3956580522
 20
27.158809189
 10
63.4044215357
 20
27.1714401833
 10
63.406666072
 20
27.1868943833
 10
63.4028906554
 20
27.2048660011
 10
63.3794238769
 20
27.2469344886
 10
63.3380080919
 20
27.295357201
 10
63.2825822641
 20
27.3477203059
 10
63.2046307085
 20
27.4112093075
 10
63.1191384825
 20
27.4728671308
  0
LWPOLYLINE
  5
2E9
330
1F
100
AcDbEntity
  8
0
  6
Continuous
 62
     7
370
    25
100
AcDbPolyline
 90
       11
 70
   128
 43
0.0
 10
63.1191384825
 20
27.4728671308
 10
63.1184055187
 20
27.473581251
 10
63.1181701472
 20
27.4742730066
 10
63.1183835793
 20
27.4749288473
 10
63.1189970263
 20
27.4755352225
 10
63.1207934023
 20
27.4764051567
 10
63.1233497413
 20
27.4770329831
 10
63.1283458558
 20
27.4773758697
 10
63.1324504984
 20
27.476979405
 10
63.1363988085
 20
27.47589726
 10
63.1398004767
 20
27.4740210305
  0
LWPOLYLINE
  5
2EA
330
1F
100
AcDbEntity
  8
0
  6
Continuous
 62
     7
370
    25
100
AcDbPolyline
 90
        6
 70
   128
 43
0.0
 10
63.1398004767
 20
27.4740210305
 10
63.238064566
 20
27.4019397491
 10
63.3193324964
 20
27.3326802273
 10
63.380271416
 20
27.269128509
 10
63.410629774
 20
27.2269466018
 10
63.4262722877
 20
27.1908162835
  0
LWPOLYLINE
  5
2EB
330
1F
100
AcDbEntity
  8
0
  6
Continuous
 62
     7
370
    25
100
AcDbPolyline
 90
       12
 70
   128
 43
0.0
 10
63.4271051397
 20
27.1800625539
 10
63.427830817
 20
27.1706926574
 10
63.421807455
 20
27.1541605149
 10
63.4077855951
 20
27.1415806116
 10
63.3877803531
 20
27.1337417475
 10
63.3620153074
 20
27.1297586771
 10
63.2947875304
 20
27.1328391789
 10
63.2092657143
 20
27.1497806391
 10
63.1086133094
 20
27.17954158
 10
62.9563413233
 20
27.2373641636
 10
62.7902929731
 20
27.3136567309
 10
62.6179668077
 20
27.4059505935
  0
LWPOLYLINE
  5
2EC
330
1F
100
AcDbEntity
  8
0
  6
Continuous
 62
     7
370
    25
100
AcDbPolyline
 90
        7
 70
   128
 43
0.0
 10
62.6179668077
 20
27.4059505935
 10
62.4634518352
 20
27.5015937026
 10
62.3314487485
 20
27.5962305869
 10
62.2283641947
 20
27.6848166407
 10
62.1738825655
 20
27.7442506779
 10
62.1419741545
 20
27.7953153392
 10
62.1374427207
 20
27.8226236443
  0
LWPOLYLINE
  5
2ED
330
1F
100
AcDbEntity
  8
0
  6
Continuous
 62
     7
370
    25
100
AcDbPolyline
 90
       14
 70
   128
 43
0.0
 10
62.1361542228
 20
27.830913029
 10
62.1353417661
 20
27.8358824315
 10
62.1392150152
 20
27.8467041667
 10
62.1462971267
 20
27.8560442175
 10
62.1566882045
 20
27.8638237618
 10
62.1770308011
 20
27.8713288686
 10
62.20436034
 20
27.8746880804
 10
62.2381099235
 20
27.8740203506
 10
62.2995317943
 20
27.8657284515
 10
62.3722099668
 20
27.8490450474
 10
62.483317097
 20
27.8144409518
 10
62.6064988643
 20
27.766583974
 10
62.737220088
 20
27.706425742
 10
62.737220088
 20
27.706425742
  0
LINE
  5
2EE
330
1F
100
AcDbEntity
  8
0
  6
Continuous
 62
     7
370
    25
100
AcDbLine
 10
62.6179668077
 20
27.4055423231
 30
0.0
 11
62.6179668077
 21
27.4059505935
 31
0.0
  0
LINE
  5
2EF
330
1F
100
AcDbEntity
  8
0
  6
Continuous
 62
     7
370
    25
100
AcDbLine
 10
62.7352129069
 20
27.6956275534
 30
0.0
 11
62.7352129069
 21
27.6960358238
 31
0.0
  0
LINE
  5
2F0
330
1F
100
AcDbEntity
  8
0
  6
Continuous
 62
     7
370
    25
100
AcDbLine
 10
63.1191384825
 20
27.4724588604
 30
0.0
 11
63.1191384825
 21
27.4728671308
 31
0.0
  0
LWPOLYLINE
  5
2F1
330
1F
100
AcDbEntity
  8
0
  6
Continuous
 62
     7
370
    25
100
AcDbPolyline
 90
        3
 70
   128
 43
0.0
 10
63.1516598266
 20
27.2392297716
 10
63.1561282348
 20
27.2357872672
 10
63.1584135316
 20
27.2325763669
  0
LWPOLYLINE
  5
2F2
330
1F
100
AcDbEntity
  8
0
  6
Continuous
 62
     7
370
    25
100
AcDbPolyline
 90
        3
 70
   128
 43
0.0
 10
63.1584135316
 20
27.2325763669
 10
63.1594179908
 20
27.2281692134
 10
63.1584692093
 20
27.2246597796
  0
ARC
  5
2F3
330
1F
100
AcDbEntity
  8
0
  6
Continuous
 62
     7
370
    25
100
AcDbCircle
 10
63.1389777054
 20
27.2369468828
 30
0.0
 40
0.0230410856639232
100
AcDbArc
 50
272.4897997173
 51
327.7733857644
  0
LWPOLYLINE
  5
2F4
330
1F
100
AcDbEntity
  8
0
  6
Continuous
 62
     7
370
    25
100
AcDbPolyline
 90
        3
 70
   128
 43
0.0
 10
63.1399786453
 20
27.2139275486
 10
63.1323145617
 20
27.2133808
 10
63.126290283
 20
27.2139259415
  0
ARC
  5
2F5
330
1F
100
AcDbEntity
  8
0
  6
Continuous
 62
     7
370
    25
100
AcDbCircle
 10
63.1283374506
 20
27.2387889831
 30
0.0
 40
0.0249471788440655
100
AcDbArc
 50
214.712365874
 51
265.2930106587
  0
LWPOLYLINE
  5
2F6
330
1F
100
AcDbEntity
  8
0
  6
Continuous
 62
     7
370
    25
100
AcDbPolyline
 90
        3
 70
   128
 43
0.0
 10
63.1078303418
 20
27.2245826387
 10
63.1068862785
 20
27.229008208
 10
63.1078331256
 20
27.2324847621
  0
ARC
  5
2F7
330
1F
100
AcDbEntity
  8
0
  6
Continuous
 62
     7
370
    25
100
AcDbCircle
 10
63.1273579964
 20
27.2200097392
 30
0.0
 40
0.0231699541659255
100
AcDbArc
 50
92.3173712455
 51
147.424276002
  0
LWPOLYLINE
  5
2F8
330
1F
100
AcDbEntity
  8
0
  6
Continuous
 62
     7
370
    25
100
AcDbPolyline
 90
        3
 70
   128
 43
0.0
 10
63.1264211256
 20
27.2431607446
 10
63.1341475532
 20
27.2437037549
 10
63.1401373268
 20
27.2431269954
  0
LWPOLYLINE
  5
2F9
330
1F
100
AcDbEntity
  8
0
  6
Continuous
 62
     7
370
    25
100
AcDbPolyline
 90
        3
 70
   128
 43
0.0
 10
63.1401373268
 20
27.2431269954
 10
63.1470807646
 20
27.2413406194
 10
63.1516598266
 20
27.2392297716
  0
LINE
  5
2FA
330
1F
100
AcDbEntity
  8
0
  6
Continuous
 62
     7
370
    25
100
AcDbLine
 10
63.1399786453
 20
27.2135192782
 30
0.0
 11
63.1399786453
 21
27.2139275486
 31
0.0
  0
LINE
  5
2FB
330
1F
100
AcDbEntity
  8
0
  6
Continuous
 62
     7
370
    25
100
AcDbLine
 10
63.126290283
 20
27.2135176711
 30
0.0
 11
63.126290283
 21
27.2139259415
 31
0.0
  0
LINE
  5
2FC
330
1F
100
AcDbEntity
  8
0
  6
Continuous
 62
     7
370
    25
100
AcDbLine
 10
63.1078303418
 20
27.2241743683
 30
0.0
 11
63.1078303418
 21
27.2245826387
 31
0.0
  0
LINE
  5
2FD
330
1F
100
AcDbEntity
  8
0
  6
Continuous
 62
     7
370
    25
100
AcDbLine
 10
63.1584692093
 20
27.2242515092
 30
0.0
 11
63.1584692093
 21
27.2246597796
 31
0.0
  0
LINE
  5
2FE
330
1F
100
AcDbEntity
  8
0
  6
Continuous
 62
     7
370
    25
100
AcDbLine
 10
63.2222257427
 20
27.3310531848
 30
0.0
 11
63.1244195123
 21
27.3875155198
 31
0.0
  0
LWPOLYLINE
  5
2FF
330
1F
100
AcDbEntity
  8
0
  6
Continuous
 62
     7
370
    25
100
AcDbPolyline
 90
       10
 70
   128
 43
0.0
 10
63.206054155
 20
27.3213768201
 10
63.210131807
 20
27.3198986938
 10
63.2145166433
 20
27.3195304099
 10
63.2187613284
 20
27.3201010004
 10
63.2224185268
 20
27.3214394971
 10
63.2250409029
 20
27.323374932
 10
63.2261811213
 20
27.325736337
 10
63.2258969395
 20
27.3274628283
 10
63.2246226613
 20
27.3292519967
 10
63.2222257427
 20
27.3310531848
  0
LINE
  5
300
330
1F
100
AcDbEntity
  8
0
  6
Continuous
 62
     7
370
    25
100
AcDbLine
 10
63.1079611843
 20
27.3780046867
 30
0.0
 11
63.206054155
 21
27.3213768201
 31
0.0
  0
LINE
  5
301
330
1F
100
AcDbEntity
  8
0
  6
Continuous
 62
     7
370
    25
100
AcDbLine
 10
63.0332166569
 20
27.3348555895
 30
0.0
 11
63.1079611843
 21
27.3780046867
 31
0.0
  0
LWPOLYLINE
  5
302
330
1F
100
AcDbEntity
  8
0
  6
Continuous
 62
     7
370
    25
100
AcDbPolyline
 90
        5
 70
   128
 43
0.0
 10
63.0336676463
 20
27.2803490983
 10
63.0164409686
 20
27.2949802721
 10
63.0117275169
 20
27.3103496463
 10
63.0177813391
 20
27.3226354084
 10
63.0332166569
 20
27.3348555895
  0
ARC
  5
303
330
1F
100
AcDbEntity
  8
0
  6
Continuous
 62
     7
370
    25
100
AcDbCircle
 10
63.0777381619
 20
27.3658446266
 30
0.0
 40
0.0961857354716935
100
AcDbArc
 50
242.7301808727
 51
305.4564389715
  0
LWPOLYLINE
  5
304
330
1F
100
AcDbEntity
  8
0
  6
Continuous
 62
     7
370
    25
100
AcDbPolyline
 90
       11
 70
   128
 43
0.0
 10
63.1493352827
 20
27.2783739692
 10
63.1518663368
 20
27.280254296
 10
63.1533142276
 20
27.2821382053
 10
63.1537940225
 20
27.2839635222
 10
63.1529502443
 20
27.2864556298
 10
63.1505755035
 20
27.2884661717
 10
63.1470581518
 20
27.2897853078
 10
63.1427865413
 20
27.2902031985
 10
63.139711547
 20
27.2898774756
 10
63.1365889947
 20
27.2889957622
 10
63.1335339516
 20
27.2874958835
  0
ARC
  5
305
330
1F
100
AcDbEntity
  8
0
  6
Continuous
 62
     7
370
    25
100
AcDbCircle
 10
63.0777483415
 20
27.3840857151
 30
0.0
 40
0.1276701349617341
100
AcDbArc
 50
241.0461796385
 51
304.1054659449
  0
LWPOLYLINE
  5
306
330
1F
100
AcDbEntity
  8
0
  6
Continuous
 62
     7
370
    25
100
AcDbPolyline
 90
        5
 70
   128
 43
0.0
 10
63.0185149604
 20
27.3450880116
 10
62.9959809811
 20
27.3262977958
 10
62.989119099
 20
27.3055739921
 10
62.9963314967
 20
27.2888206097
 10
63.0159426507
 20
27.2723730482
  0
LINE
  5
307
330
1F
100
AcDbEntity
  8
0
  6
Continuous
 62
     7
370
    25
100
AcDbLine
 10
63.1324343171
 20
27.4111029644
 30
0.0
 11
63.0185149604
 21
27.3450880116
 31
0.0
  0
LWPOLYLINE
  5
308
330
1F
100
AcDbEntity
  8
0
  6
Continuous
 62
     7
370
    25
100
AcDbPolyline
 90
       11
 70
   128
 43
0.0
 10
63.1489065644
 20
27.4016515941
 10
63.1511053244
 20
27.4032982753
 10
63.1522577691
 20
27.4050063166
 10
63.1524829866
 20
27.4067104517
 10
63.1513427682
 20
27.4091165605
 10
63.1487861614
 20
27.4111467579
 10
63.1452150895
 20
27.4125807706
 10
63.1410314758
 20
27.4131983248
 10
63.1381005798
 20
27.4130476627
 10
63.1351951641
 20
27.4123709646
 10
63.1324343171
 20
27.4111029644
  0
LINE
  5
309
330
1F
100
AcDbEntity
  8
0
  6
Continuous
 62
     7
370
    25
100
AcDbLine
 10
63.1244195123
 20
27.3875155198
 30
0.0
 11
63.1489065644
 21
27.4016515941
 31
0.0
  0
LINE
  5
30A
330
1F
100
AcDbEntity
  8
0
  6
Continuous
 62
     7
370
    25
100
AcDbLine
 10
63.1493352827
 20
27.2779656988
 30
0.0
 11
63.1493352827
 21
27.2783739692
 31
0.0
  0
LINE
  5
30B
330
1F
100
AcDbEntity
  8
0
  6
Continuous
 62
     7
370
    25
100
AcDbLine
 10
63.0159426507
 20
27.2719647778
 30
0.0
 11
63.0159426507
 21
27.2723730482
 31
0.0
  0
LINE
  5
30C
330
1F
100
AcDbEntity
  8
0
  6
Continuous
 62
     7
370
    25
100
AcDbLine
 10
63.0332166569
 20
27.3344473191
 30
0.0
 11
63.0332166569
 21
27.3348555895
 31
0.0
  0
LINE
  5
30D
330
1F
100
AcDbEntity
  8
0
  6
Continuous
 62
     7
370
    25
100
AcDbLine
 10
63.206054155
 20
27.3209685497
 30
0.0
 11
63.206054155
 21
27.3213768201
 31
0.0
  0
LWPOLYLINE
  5
30E
330
1F
100
AcDbEntity
  8
0
  6
Continuous
 62
     7
370
    25
100
AcDbPolyline
 90
        3
 70
   128
 43
0.0
 10
62.9919817528
 20
27.3836665091
 10
62.9557177808
 20
27.4147108495
 10
62.9262514449
 20
27.4356835984
  0
LWPOLYLINE
  5
30F
330
1F
100
AcDbEntity
  8
0
  6
Continuous
 62
     7
370
    25
100
AcDbPolyline
 90
        6
 70
   128
 43
0.0
 10
62.9651061274
 20
27.3426821791
 10
62.9799472697
 20
27.3490798609
 10
62.9902810587
 20
27.3560528455
 10
62.9961055386
 20
27.3636008819
 10
62.9971783887
 20
27.3732346928
 10
62.9919817528
 20
27.3836665091
  0
ARC
  5
310
330
1F
100
AcDbEntity
  8
0
  6
Continuous
 62
     7
370
    25
100
AcDbCircle
 10
62.9305684969
 20
27.4758185328
 30
0.0
 40
0.1375432172632337
100
AcDbArc
 50
238.8588168321
 51
284.542841559
  0
LINE
  5
311
330
1F
100
AcDbEntity
  8
0
  6
Continuous
 62
     7
370
    25
100
AcDbLine
 10
62.8534361497
 20
27.433719719
 30
0.0
 11
62.8332607433
 21
27.4158135964
 31
0.0
  0
LWPOLYLINE
  5
312
330
1F
100
AcDbEntity
  8
0
  6
Continuous
 62
     7
370
    25
100
AcDbPolyline
 90
        4
 70
   128
 43
0.0
 10
62.8302791755
 20
27.4031106569
 10
62.8283099383
 20
27.3947207415
 10
62.8373073467
 20
27.3767137449
 10
62.8594382057
 20
27.3580958999
  0
LWPOLYLINE
  5
313
330
1F
100
AcDbEntity
  8
0
  6
Continuous
 62
     7
370
    25
100
AcDbPolyline
 90
       10
 70
   128
 43
0.0
 10
62.8693961622
 20
27.4239854987
 10
62.8723741314
 20
27.4260578156
 10
62.8741554069
 20
27.4280972037
 10
62.8748640168
 20
27.4300447525
 10
62.8741869945
 20
27.4326650109
 10
62.8717941312
 20
27.4347472603
 10
62.868104021
 20
27.4360926782
 10
62.8635352579
 20
27.4365024423
 10
62.8585064362
 20
27.43577773
 10
62.8534361497
 20
27.433719719
  0
LWPOLYLINE
  5
314
330
1F
100
AcDbEntity
  8
0
  6
Continuous
 62
     7
370
    25
100
AcDbPolyline
 90
        6
 70
   128
 43
0.0
 10
62.8761498672
 20
27.3666537212
 10
62.8609913014
 20
27.3780101747
 10
62.8524242395
 20
27.3892686755
 10
62.8502590992
 20
27.4002482809
 10
62.8556682463
 20
27.4125843624
 10
62.8693961622
 20
27.4239854987
  0
ARC
  5
315
330
1F
100
AcDbEntity
  8
0
  6
Continuous
 62
     7
370
    25
100
AcDbCircle
 10
62.9310078239
 20
27.4574786016
 30
0.0
 40
0.1061063350208392
100
AcDbArc
 50
238.8681490802
 51
284.7771093467
  0
LWPOLYLINE
  5
316
330
1F
100
AcDbEntity
  8
0
  6
Continuous
 62
     7
370
    25
100
AcDbPolyline
 90
        5
 70
   128
 43
0.0
 10
62.9703314794
 20
27.3803864127
 10
62.9744738222
 20
27.3721586951
 10
62.9726793939
 20
27.364585022
 10
62.967160552
 20
27.3593305567
 10
62.95807125
 20
27.3548816948
  0
LWPOLYLINE
  5
317
330
1F
100
AcDbEntity
  8
0
  6
Continuous
 62
     7
370
    25
100
AcDbPolyline
 90
        3
 70
   128
 43
0.0
 10
62.9062325281
 20
27.4297614254
 10
62.9431271494
 20
27.4027843322
 10
62.9703314794
 20
27.3803864127
  0
LWPOLYLINE
  5
318
330
1F
100
AcDbEntity
  8
0
  6
Continuous
 62
     7
370
    25
100
AcDbPolyline
 90
        5
 70
   128
 43
0.0
 10
62.9140886515
 20
27.4644137713
 10
62.9023292837
 20
27.4557746372
 10
62.8984014335
 20
27.445291242
 10
62.9003165521
 20
27.4370253425
 10
62.9062325281
 20
27.4297614254
  0
ARC
  5
319
330
1F
100
AcDbEntity
  8
0
  6
Continuous
 62
     7
370
    25
100
AcDbCircle
 10
62.9535732282
 20
27.3501837266
 30
0.0
 40
0.1208616353701647
100
AcDbArc
 50
53.5415902666
 51
109.0681396086
  0
LWPOLYLINE
  5
31A
330
1F
100
AcDbEntity
  8
0
  6
Continuous
 62
     7
370
    25
100
AcDbPolyline
 90
        5
 70
   128
 43
0.0
 10
63.0281054441
 20
27.3774309511
 10
63.0455012444
 20
27.3936426984
 10
63.0516146288
 20
27.4126701728
 10
63.0449734471
 20
27.4293605485
 10
63.0253939402
 20
27.4473913407
  0
LWPOLYLINE
  5
31B
330
1F
100
AcDbEntity
  8
0
  6
Continuous
 62
     7
370
    25
100
AcDbPolyline
 90
       11
 70
   128
 43
0.0
 10
63.0130891686
 20
27.3866428631
 10
63.0109088647
 20
27.3850850487
 10
63.0097573223
 20
27.3834819899
 10
63.0095130944
 20
27.3818903594
 10
63.010582302
 20
27.3796483132
 10
63.0130098279
 20
27.3777507645
 10
63.0163857886
 20
27.3763889836
 10
63.0203003006
 20
27.3757542409
 10
63.0230067588
 20
27.3758294436
 10
63.0256489556
 20
27.3763694561
 10
63.0281054441
 20
27.3774309511
  0
LWPOLYLINE
  5
31C
330
1F
100
AcDbEntity
  8
0
  6
Continuous
 62
     7
370
    25
100
AcDbPolyline
 90
        5
 70
   128
 43
0.0
 10
63.0075325342
 20
27.4392465448
 10
63.0243698197
 20
27.4244923722
 10
63.0290200069
 20
27.4093175717
 10
63.0244991089
 20
27.3976468517
 10
63.0130891686
 20
27.3866428631
  0
ARC
  5
31D
330
1F
100
AcDbEntity
  8
0
  6
Continuous
 62
     7
370
    25
100
AcDbCircle
 10
62.9518764109
 20
27.3646964766
 30
0.0
 40
0.0930339547762506
100
AcDbArc
 50
53.2564411341
 51
104.7682112122
  0
LWPOLYLINE
  5
31E
330
1F
100
AcDbEntity
  8
0
  6
Continuous
 62
     7
370
    25
100
AcDbPolyline
 90
        3
 70
   128
 43
0.0
 10
62.9262514449
 20
27.4356835984
 10
62.9217158087
 20
27.4420431126
 10
62.9214369943
 20
27.4446659865
  0
LWPOLYLINE
  5
31F
330
1F
100
AcDbEntity
  8
0
  6
Continuous
 62
     7
370
    25
100
AcDbPolyline
 90
        4
 70
   128
 43
0.0
 10
62.921205895
 20
27.446431722
 10
62.9211262865
 20
27.4475888888
 10
62.923428305
 20
27.4513747329
 10
62.92816119
 20
27.4546570515
  0
LINE
  5
320
330
1F
100
AcDbEntity
  8
0
  6
Continuous
 62
     7
370
    25
100
AcDbLine
 10
62.9651061274
 20
27.3422739087
 30
0.0
 11
62.9651061274
 21
27.3426821791
 31
0.0
  0
LINE
  5
321
330
1F
100
AcDbEntity
  8
0
  6
Continuous
 62
     7
370
    25
100
AcDbLine
 10
62.8594382057
 20
27.3576876295
 30
0.0
 11
62.8594382057
 21
27.3580958999
 31
0.0
  0
LINE
  5
322
330
1F
100
AcDbEntity
  8
0
  6
Continuous
 62
     7
370
    25
100
AcDbLine
 10
63.1079611843
 20
27.3775964163
 30
0.0
 11
63.1079611843
 21
27.3780046867
 31
0.0
  0
LINE
  5
323
330
1F
100
AcDbEntity
  8
0
  6
Continuous
 62
     7
370
    25
100
AcDbLine
 10
62.9703314794
 20
27.3799781423
 30
0.0
 11
62.9703314794
 21
27.3803864127
 31
0.0
  0
LINE
  5
324
330
1F
100
AcDbEntity
  8
0
  6
Continuous
 62
     7
370
    25
100
AcDbLine
 10
62.8693961622
 20
27.4235772283
 30
0.0
 11
62.8693961622
 21
27.4239854987
 31
0.0
  0
LINE
  5
325
330
1F
100
AcDbEntity
  8
0
  6
Continuous
 62
     7
370
    25
100
AcDbLine
 10
63.0281054441
 20
27.3770226807
 30
0.0
 11
63.0281054441
 21
27.3774309511
 31
0.0
  0
LINE
  5
326
330
1F
100
AcDbEntity
  8
0
  6
Continuous
 62
     7
370
    25
100
AcDbLine
 10
62.9062325281
 20
27.429353155
 30
0.0
 11
62.9062325281
 21
27.4297614254
 31
0.0
  0
LINE
  5
327
330
1F
100
AcDbEntity
  8
0
  6
Continuous
 62
     7
370
    25
100
AcDbLine
 10
63.0075325342
 20
27.4388382744
 30
0.0
 11
63.0075325342
 21
27.4392465448
 31
0.0
  0
LINE
  5
328
330
1F
100
AcDbEntity
  8
0
  6
Continuous
 62
     7
370
    25
100
AcDbLine
 10
63.1489065644
 20
27.4012433237
 30
0.0
 11
63.1489065644
 21
27.4016515941
 31
0.0
  0
LWPOLYLINE
  5
329
330
1F
100
AcDbEntity
  8
0
  6
Continuous
 62
     7
370
    25
100
AcDbPolyline
 90
        3
 70
   128
 43
0.0
 10
62.7671357158
 20
27.5601536934
 10
62.7585386864
 20
27.5594756058
 10
62.7521611986
 20
27.5587185508
  0
LINE
  5
32A
330
1F
100
AcDbEntity
  8
0
  6
Continuous
 62
     7
370
    25
100
AcDbLine
 10
62.7521611986
 20
27.5587185508
 30
0.0
 11
62.7560781247
 21
27.7180708073
 31
0.0
  0
LINE
  5
32B
330
1F
100
AcDbEntity
  8
0
  6
Continuous
 62
     7
370
    25
100
AcDbLine
 10
62.7560781247
 20
27.7180708073
 30
0.0
 11
62.7575702871
 21
27.7185690091
 31
0.0
  0
ARC
  5
32C
330
1F
100
AcDbEntity
  8
0
  6
Continuous
 62
     7
370
    25
100
AcDbCircle
 10
61.5102026305
 20
25.0876915017
 30
0.0
 40
2.911604803210269
100
AcDbArc
 50
55.3701917274
 51
64.6331496223
  0
LINE
  5
32D
330
1F
100
AcDbEntity
  8
0
  6
Continuous
 62
     7
370
    25
100
AcDbLine
 10
63.1647858443
 20
27.4834788292
 30
0.0
 11
63.1623304577
 21
27.4822317176
 31
0.0
  0
LINE
  5
32E
330
1F
100
AcDbEntity
  8
0
  6
Continuous
 62
     7
370
    25
100
AcDbLine
 10
63.1623304577
 20
27.4822317176
 30
0.0
 11
62.8822076009
 21
27.48190869
 31
0.0
  0
LWPOLYLINE
  5
32F
330
1F
100
AcDbEntity
  8
0
  6
Continuous
 62
     7
370
    25
100
AcDbPolyline
 90
        3
 70
   128
 43
0.0
 10
62.8822076009
 20
27.48190869
 10
62.8839648781
 20
27.4871122329
 10
62.8848495077
 20
27.4910064977
  0
LWPOLYLINE
  5
330
330
1F
100
AcDbEntity
  8
0
  6
Continuous
 62
     7
370
    25
100
AcDbPolyline
 90
        5
 70
   128
 43
0.0
 10
62.7943900432
 20
27.559601549
 10
62.8368259846
 20
27.5499596088
 10
62.8682851646
 20
27.5315026915
 10
62.8824062718
 20
27.5125278049
 10
62.8848495077
 20
27.4910064977
  0
LWPOLYLINE
  5
331
330
1F
100
AcDbEntity
  8
0
  6
Continuous
 62
     7
370
    25
100
AcDbPolyline
 90
        3
 70
   128
 43
0.0
 10
62.7943900432
 20
27.559601549
 10
62.7791481743
 20
27.5603932788
 10
62.7671357158
 20
27.5601536934
  0
LINE
  5
332
330
1F
100
AcDbEntity
  8
0
  6
Continuous
 62
     7
370
    25
100
AcDbLine
 10
63.1623304577
 20
27.4818234472
 30
0.0
 11
63.1623304577
 21
27.4822317176
 31
0.0
  0
LINE
  5
333
330
1F
100
AcDbEntity
  8
0
  6
Continuous
 62
     7
370
    25
100
AcDbLine
 10
62.8822076009
 20
27.4815004196
 30
0.0
 11
62.8822076009
 21
27.48190869
 31
0.0
  0
LWPOLYLINE
  5
334
330
1F
100
AcDbEntity
  8
0
  6
Continuous
 62
     7
370
    25
100
AcDbPolyline
 90
        5
 70
   128
 43
0.0
 10
62.6996670429
 20
27.5419548611
 10
62.6740146684
 20
27.5184419259
 10
62.6683059064
 20
27.4917269197
 10
62.6778115207
 20
27.4711427854
 10
62.6996292893
 20
27.4530708413
  0
LWPOLYLINE
  5
335
330
1F
100
AcDbEntity
  8
0
  6
Continuous
 62
     7
370
    25
100
AcDbPolyline
 90
        3
 70
   128
 43
0.0
 10
62.7521606906
 20
27.558699851
 10
62.7211363586
 20
27.5515724465
 10
62.6996670429
 20
27.5419548611
  0
LINE
  5
336
330
1F
100
AcDbEntity
  8
0
  6
Continuous
 62
     7
370
    25
100
AcDbLine
 10
62.7517992935
 20
27.5453924562
 30
0.0
 11
62.7521606906
 21
27.558699851
 31
0.0
  0
LWPOLYLINE
  5
337
330
1F
100
AcDbEntity
  8
0
  6
Continuous
 62
     7
370
    25
100
AcDbPolyline
 90
        3
 70
   128
 43
0.0
 10
62.7153610232
 20
27.5328618774
 10
62.7347339089
 20
27.5412760545
 10
62.7517992935
 20
27.5453924562
  0
LWPOLYLINE
  5
338
330
1F
100
AcDbEntity
  8
0
  6
Continuous
 62
     7
370
    25
100
AcDbPolyline
 90
        3
 70
   128
 43
0.0
 10
62.7153805104
 20
27.4621509708
 10
62.6949747261
 20
27.4808607251
 10
62.6922353946
 20
27.4936831474
  0
LWPOLYLINE
  5
339
330
1F
100
AcDbEntity
  8
0
  6
Continuous
 62
     7
370
    25
100
AcDbPolyline
 90
        4
 70
   128
 43
0.0
 10
62.6905569388
 20
27.501131491
 10
62.6904343269
 20
27.5021136903
 10
62.6979988347
 20
27.5184874328
 10
62.7153610232
 20
27.5328618774
  0
ARC
  5
33A
330
1F
100
AcDbEntity
  8
0
  6
Continuous
 62
     7
370
    25
100
AcDbCircle
 10
62.7766236788
 20
27.5805000804
 30
0.0
 40
0.1332562846997578
100
AcDbArc
 50
242.6393882212
 51
297.3561008821
  0
LWPOLYLINE
  5
33B
330
1F
100
AcDbEntity
  8
0
  6
Continuous
 62
     7
370
    25
100
AcDbPolyline
 90
        3
 70
   128
 43
0.0
 10
62.8588173993
 20
27.4818026212
 10
62.8490493148
 20
27.4700891527
 10
62.8378575294
 20
27.4621461495
  0
LINE
  5
33C
330
1F
100
AcDbEntity
  8
0
  6
Continuous
 62
     7
370
    25
100
AcDbLine
 10
62.8588424543
 20
27.4818588698
 30
0.0
 11
62.8588173993
 21
27.4818026212
 31
0.0
  0
LINE
  5
33D
330
1F
100
AcDbEntity
  8
0
  6
Continuous
 62
     7
370
    25
100
AcDbLine
 10
62.8820237825
 20
27.4819086898
 30
0.0
 11
62.8588424543
 21
27.4818588698
 31
0.0
  0
LWPOLYLINE
  5
33E
330
1F
100
AcDbEntity
  8
0
  6
Continuous
 62
     7
370
    25
100
AcDbPolyline
 90
        3
 70
   128
 43
0.0
 10
62.8536087506
 20
27.4530628057
 10
62.8730839169
 20
27.4683732309
 10
62.8820237825
 20
27.4819086898
  0
ARC
  5
33F
330
1F
100
AcDbEntity
  8
0
  6
Continuous
 62
     7
370
    25
100
AcDbCircle
 10
62.7766267847
 20
27.6018586319
 30
0.0
 40
0.1675303582713449
100
AcDbArc
 50
242.6384917346
 51
297.3555282344
  0
LINE
  5
340
330
1F
100
AcDbEntity
  8
0
  6
Continuous
 62
     7
370
    25
100
AcDbLine
 10
62.8536087506
 20
27.4526545353
 30
0.0
 11
62.8536087506
 21
27.4530628057
 31
0.0
  0
LINE
  5
341
330
1F
100
AcDbEntity
  8
0
  6
Continuous
 62
     7
370
    25
100
AcDbLine
 10
62.6996292893
 20
27.4526625708
 30
0.0
 11
62.6996292893
 21
27.4530708413
 31
0.0
  0
LINE
  5
342
330
1F
100
AcDbEntity
  8
0
  6
Continuous
 62
     7
370
    25
100
AcDbLine
 10
62.92816119
 20
27.4542487811
 30
0.0
 11
62.92816119
 21
27.4546570515
 31
0.0
  0
LINE
  5
343
330
1F
100
AcDbEntity
  8
0
  6
Continuous
 62
     7
370
    25
100
AcDbLine
 10
62.8588535899
 20
27.481862084
 30
0.0
 11
62.7510392929
 21
27.4816917311
 31
0.0
  0
LINE
  5
344
330
1F
100
AcDbEntity
  8
0
  6
Continuous
 62
     7
370
    25
100
AcDbLine
 10
62.7510392929
 20
27.4816917311
 30
0.0
 11
62.7500872043
 21
27.4821867187
 31
0.0
  0
LINE
  5
345
330
1F
100
AcDbEntity
  8
0
  6
Continuous
 62
     7
370
    25
100
AcDbLine
 10
62.7500872043
 20
27.4821867187
 30
0.0
 11
62.7517965097
 21
27.5452879945
 31
0.0
  0
LWPOLYLINE
  5
346
330
1F
100
AcDbEntity
  8
0
  6
Continuous
 62
     7
370
    25
100
AcDbPolyline
 90
        3
 70
   128
 43
0.0
 10
62.7517965097
 20
27.5452879945
 10
62.7600453712
 20
27.5464817937
 10
62.7668517595
 20
27.5472325886
  0
LWPOLYLINE
  5
347
330
1F
100
AcDbEntity
  8
0
  6
Continuous
 62
     7
370
    25
100
AcDbPolyline
 90
        3
 70
   128
 43
0.0
 10
62.7863900388
 20
27.547272526
 10
62.7755660659
 20
27.5475647427
 10
62.7668517595
 20
27.5472325886
  0
LWPOLYLINE
  5
348
330
1F
100
AcDbEntity
  8
0
  6
Continuous
 62
     7
370
    25
100
AcDbPolyline
 90
        3
 70
   128
 43
0.0
 10
62.7863900388
 20
27.547272526
 10
62.8171134472
 20
27.5419046399
 10
62.8382110829
 20
27.5329566964
  0
LWPOLYLINE
  5
349
330
1F
100
AcDbEntity
  8
0
  6
Continuous
 62
     7
370
    25
100
AcDbPolyline
 90
        3
 70
   128
 43
0.0
 10
62.8382110829
 20
27.5329566964
 10
62.8571541382
 20
27.5164712445
 10
62.863202079
 20
27.5017888677
  0
LWPOLYLINE
  5
34A
330
1F
100
AcDbEntity
  8
0
  6
Continuous
 62
     7
370
    25
100
AcDbPolyline
 90
        3
 70
   128
 43
0.0
 10
62.8627064867
 20
27.4907975744
 10
62.8635014354
 20
27.4970121729
 10
62.863202079
 20
27.5017888677
  0
LWPOLYLINE
  5
34B
330
1F
100
AcDbEntity
  8
0
  6
Continuous
 62
     7
370
    25
100
AcDbPolyline
 90
        3
 70
   128
 43
0.0
 10
62.8627064867
 20
27.4907975744
 10
62.8608175371
 20
27.4857955055
 10
62.8588535899
 20
27.481862084
  0
LINE
  5
34C
330
1F
100
AcDbEntity
  8
0
  6
Continuous
 62
     7
370
    25
100
AcDbLine
 10
62.8588535899
 20
27.481862084
 30
0.0
 11
62.8588535899
 21
27.481862084
 31
0.0
  0
LINE
  5
34D
330
1F
100
AcDbEntity
  8
0
  6
Continuous
 62
     7
370
    25
100
AcDbLine
 10
62.7510392929
 20
27.4812834607
 30
0.0
 11
62.7510392929
 21
27.4816917311
 31
0.0
  0
LINE
  5
34E
330
1F
100
AcDbEntity
  8
0
  6
Continuous
 62
     7
370
    25
100
AcDbLine
 10
62.882023703
 20
27.4815000526
 30
0.0
 11
62.8820237825
 21
27.4819086898
 31
0.0
  0
LINE
  5
34F
330
1F
100
AcDbEntity
  8
0
  6
Continuous
 62
     7
370
    25
100
AcDbLine
 10
62.7153610232
 20
27.532453607
 30
0.0
 11
62.7153610232
 21
27.5328618774
 31
0.0
  0
LINE
  5
350
330
1F
100
AcDbEntity
  8
0
  6
Continuous
 62
     7
370
    25
100
AcDbLine
 10
62.7500872043
 20
27.4817784483
 30
0.0
 11
62.7500872043
 21
27.4821867187
 31
0.0
  0
LINE
  5
351
330
1F
100
AcDbEntity
  8
0
  6
Continuous
 62
     7
370
    25
100
AcDbLine
 10
62.8627064867
 20
27.490389304
 30
0.0
 11
62.8627064867
 21
27.4907975744
 31
0.0
  0
LINE
  5
352
330
1F
100
AcDbEntity
  8
0
  6
Continuous
 62
     7
370
    25
100
AcDbLine
 10
63.1647858443
 20
27.4830705588
 30
0.0
 11
63.1647858443
 21
27.4834788292
 31
0.0
  0
LINE
  5
353
330
1F
100
AcDbEntity
  8
0
  6
Continuous
 62
     7
370
    25
100
AcDbLine
 10
62.7943900338
 20
27.5591932449
 30
0.0
 11
62.7943900432
 21
27.559601549
 31
0.0
  0
LWPOLYLINE
  5
354
330
1F
100
AcDbEntity
  8
0
  6
Continuous
 62
     7
370
    25
100
AcDbPolyline
 90
       11
 70
   128
 43
0.0
 10
62.512591194
 20
27.5697207751
 10
62.5095418137
 20
27.5683491084
 10
62.506464005
 20
27.5675712382
 10
62.5034622697
 20
27.5673244596
 10
62.4993309029
 20
27.5678129215
 10
62.4959585253
 20
27.5691436244
 10
62.4936978313
 20
27.5711049393
 10
62.4929015151
 20
27.5734852371
 10
62.493358351
 20
27.5752003625
 10
62.4947272765
 20
27.5769449402
 10
62.4971127936
 20
27.5786562654
  0
LINE
  5
355
330
1F
100
AcDbEntity
  8
0
  6
Continuous
 62
     7
370
    25
100
AcDbLine
 10
62.4971127936
 20
27.5786562654
 30
0.0
 11
62.6358059426
 21
27.6587221161
 31
0.0
  0
LWPOLYLINE
  5
356
330
1F
100
AcDbEntity
  8
0
  6
Continuous
 62
     7
370
    25
100
AcDbPolyline
 90
       11
 70
   128
 43
0.0
 10
62.6358059426
 20
27.6587221161
 10
62.6381998162
 20
27.6597759383
 10
62.6407883491
 20
27.660309115
 10
62.6434530136
 20
27.6603796917
 10
62.6473334774
 20
27.6597451562
 10
62.6507185184
 20
27.658396276
 10
62.6532081054
 20
27.6565289547
 10
62.6544022071
 20
27.6543390953
 10
62.6542810147
 20
27.6527967437
 10
62.6532877316
 20
27.6512561555
 10
62.6513038302
 20
27.649775376
  0
LINE
  5
357
330
1F
100
AcDbEntity
  8
0
  6
Continuous
 62
     7
370
    25
100
AcDbLine
 10
62.6513038302
 20
27.649775376
 30
0.0
 11
62.6390797913
 21
27.6427185886
 31
0.0
  0
ARC
  5
358
330
1F
100
AcDbEntity
  8
0
  6
Continuous
 62
     7
370
    25
100
AcDbCircle
 10
62.6414001775
 20
27.5109740878
 30
0.0
 40
0.1317649333772258
100
AcDbArc
 50
59.112821211
 51
91.0090333384
  0
LWPOLYLINE
  5
359
330
1F
100
AcDbEntity
  8
0
  6
Continuous
 62
     7
370
    25
100
AcDbPolyline
 90
        5
 70
   128
 43
0.0
 10
62.7090416044
 20
27.6240520921
 10
62.7259146241
 20
27.6054063161
 10
62.7274556078
 20
27.5864489248
 10
62.7187209311
 20
27.5720570749
 10
62.7018925878
 20
27.5586944443
  0
LWPOLYLINE
  5
35A
330
1F
100
AcDbEntity
  8
0
  6
Continuous
 62
     7
370
    25
100
AcDbPolyline
 90
       11
 70
   128
 43
0.0
 10
62.7018925878
 20
27.5586944443
 10
62.6989179519
 20
27.5573144937
 10
62.6959014611
 20
27.5565060914
 10
62.6929496183
 20
27.5562124752
 10
62.6888760443
 20
27.5566131083
 10
62.6855470072
 20
27.5578527243
 10
62.6833219545
 20
27.5597397515
 10
62.6825603336
 20
27.5620826183
 10
62.6830431089
 20
27.5638031704
 10
62.6844425556
 20
27.565584413
 10
62.6868651767
 20
27.567369584
  0
LWPOLYLINE
  5
35B
330
1F
100
AcDbEntity
  8
0
  6
Continuous
 62
     7
370
    25
100
AcDbPolyline
 90
        6
 70
   128
 43
0.0
 10
62.6868651767
 20
27.567369584
 10
62.6989087997
 20
27.5777633818
 10
62.7051076551
 20
27.5879327506
 10
62.7057147729
 20
27.5977382674
 10
62.6995958025
 20
27.6086380101
 10
62.6864754328
 20
27.6186104427
  0
ARC
  5
35C
330
1F
100
AcDbEntity
  8
0
  6
Continuous
 62
     7
370
    25
100
AcDbCircle
 10
62.6419146946
 20
27.5357115118
 30
0.0
 40
0.0941163755683276
100
AcDbArc
 50
61.7405961057
 51
119.3398404705
  0
LINE
  5
35D
330
1F
100
AcDbEntity
  8
0
  6
Continuous
 62
     7
370
    25
100
AcDbLine
 10
62.5957987317
 20
27.6177554642
 30
0.0
 11
62.512591194
 21
27.5697207751
 31
0.0
  0
LINE
  5
35E
330
1F
100
AcDbEntity
  8
0
  6
Continuous
 62
     7
370
    25
100
AcDbLine
 10
62.7517965097
 20
27.5452879945
 30
0.0
 11
62.7517992935
 21
27.5453924562
 31
0.0
  0
LINE
  5
35F
330
1F
100
AcDbEntity
  8
0
  6
Continuous
 62
     7
370
    25
100
AcDbLine
 10
62.7521606906
 20
27.5582915806
 30
0.0
 11
62.7521606906
 21
27.558699851
 31
0.0
  0
LINE
  5
360
330
1F
100
AcDbEntity
  8
0
  6
Continuous
 62
     7
370
    25
100
AcDbLine
 10
62.7671357158
 20
27.559745423
 30
0.0
 11
62.7671357158
 21
27.5601536934
 31
0.0
  0
LINE
  5
361
330
1F
100
AcDbEntity
  8
0
  6
Continuous
 62
     7
370
    25
100
AcDbLine
 10
62.7018925878
 20
27.5582861739
 30
0.0
 11
62.7018925878
 21
27.5586944443
 31
0.0
  0
LINE
  5
362
330
1F
100
AcDbEntity
  8
0
  6
Continuous
 62
     7
370
    25
100
AcDbLine
 10
62.7521606906
 20
27.558699851
 30
0.0
 11
62.7521611986
 21
27.5587185508
 31
0.0
  0
LINE
  5
363
330
1F
100
AcDbEntity
  8
0
  6
Continuous
 62
     7
370
    25
100
AcDbLine
 10
62.512591194
 20
27.5693125047
 30
0.0
 11
62.512591194
 21
27.5697207751
 31
0.0
  0
LINE
  5
364
330
1F
100
AcDbEntity
  8
0
  6
Continuous
 62
     7
370
    25
100
AcDbLine
 10
62.6864754328
 20
27.6182021723
 30
0.0
 11
62.6864754328
 21
27.6186104427
 31
0.0
  0
LINE
  5
365
330
1F
100
AcDbEntity
  8
0
  6
Continuous
 62
     7
370
    25
100
AcDbLine
 10
62.5957987317
 20
27.6173471938
 30
0.0
 11
62.5957987317
 21
27.6177554642
 31
0.0
  0
LWPOLYLINE
  5
366
330
1F
100
AcDbEntity
  8
0
  6
Continuous
 62
     7
370
    25
100
AcDbPolyline
 90
       11
 70
   128
 43
0.0
 10
62.3748250787
 20
27.6495021686
 10
62.3719090156
 20
27.6481423375
 10
62.368940861
 20
27.6473886575
 10
62.3660239569
 20
27.647173502
 10
62.3619707563
 20
27.6477125688
 10
62.3586141686
 20
27.6490829157
 10
62.3563029732
 20
27.6510563027
 10
62.3553859495
 20
27.6534044899
 10
62.355721377
 20
27.6550654592
 10
62.3569347916
 20
27.6567239398
 10
62.3591295353
 20
27.6583123049
  0
LINE
  5
367
330
1F
100
AcDbEntity
  8
0
  6
Continuous
 62
     7
370
    25
100
AcDbLine
 10
62.3591295353
 20
27.6583123049
 30
0.0
 11
62.4808966637
 21
27.7286069719
 31
0.0
  0
ARC
  5
368
330
1F
100
AcDbEntity
  8
0
  6
Continuous
 62
     7
370
    25
100
AcDbCircle
 10
62.539651813
 20
27.6128448874
 30
0.0
 40
0.1298192119039656
100
AcDbArc
 50
63.3828612942
 51
116.9101121996
  0
ARC
  5
369
330
1F
100
AcDbEntity
  8
0
  6
Continuous
 62
     7
370
    25
100
AcDbCircle
 10
62.5850004036
 20
27.6921298956
 30
0.0
 40
0.0389444349128621
100
AcDbArc
 50
332.0882788279
 51
70.7901302871
  0
LWPOLYLINE
  5
36A
330
1F
100
AcDbEntity
  8
0
  6
Continuous
 62
     7
370
    25
100
AcDbPolyline
 90
       11
 70
   128
 43
0.0
 10
62.6194144279
 20
27.6738995929
 10
62.6180694393
 20
27.6720400292
 10
62.616138066
 20
27.6706973443
 10
62.6137670128
 20
27.6698264667
 10
62.6097069503
 20
27.6693061955
 10
62.6054828236
 20
27.6695939642
 10
62.6015897616
 20
27.6705376567
 10
62.5985228937
 20
27.671985157
 10
62.5967773489
 20
27.6737843492
 10
62.5965548005
 20
27.6747682934
 10
62.5968482564
 20
27.6757831171
  0
LWPOLYLINE
  5
36B
330
1F
100
AcDbEntity
  8
0
  6
Continuous
 62
     7
370
    25
100
AcDbPolyline
 90
        9
 70
   128
 43
0.0
 10
62.5968482564
 20
27.6757831171
 10
62.6019722903
 20
27.692306919
 10
62.5981336283
 20
27.7059347722
 10
62.5873212039
 20
27.7165571427
 10
62.5715239508
 20
27.7240644964
 10
62.5527308025
 20
27.7283472993
 10
62.5329306926
 20
27.7292960171
 10
62.5141125545
 20
27.7268011159
 10
62.498265322
 20
27.7207530616
  0
LINE
  5
36C
330
1F
100
AcDbEntity
  8
0
  6
Continuous
 62
     7
370
    25
100
AcDbLine
 10
62.498265322
 20
27.7207530616
 30
0.0
 11
62.4641376762
 21
27.701051591
 31
0.0
  0
LINE
  5
36D
330
1F
100
AcDbEntity
  8
0
  6
Continuous
 62
     7
370
    25
100
AcDbLine
 10
62.4641376762
 20
27.701051591
 30
0.0
 11
62.532217583
 21
27.6617498973
 31
0.0
  0
LWPOLYLINE
  5
36E
330
1F
100
AcDbEntity
  8
0
  6
Continuous
 62
     7
370
    25
100
AcDbPolyline
 90
       11
 70
   128
 43
0.0
 10
62.532217583
 20
27.6617498973
 10
62.5348397143
 20
27.6599017526
 10
62.5363358897
 20
27.6580475869
 10
62.5368303499
 20
27.656245797
 10
62.5359656002
 20
27.6537690605
 10
62.5335458441
 20
27.6517386527
 10
62.5299903935
 20
27.6503516635
 10
62.5257185601
 20
27.6498051827
 10
62.5226797482
 20
27.6500051396
 10
62.5196331454
 20
27.6507246482
 10
62.5167029921
 20
27.6520221054
  0
LINE
  5
36F
330
1F
100
AcDbEntity
  8
0
  6
Continuous
 62
     7
370
    25
100
AcDbLine
 10
62.5167029921
 20
27.6520221054
 30
0.0
 11
62.4479466012
 21
27.691714325
 31
0.0
  0
LINE
  5
370
330
1F
100
AcDbEntity
  8
0
  6
Continuous
 62
     7
370
    25
100
AcDbLine
 10
62.4479466012
 20
27.691714325
 30
0.0
 11
62.3748250787
 21
27.6495021686
 31
0.0
  0
LINE
  5
371
330
1F
100
AcDbEntity
  8
0
  6
Continuous
 62
     7
370
    25
100
AcDbLine
 10
62.6513038302
 20
27.6493671056
 30
0.0
 11
62.6513038302
 21
27.649775376
 31
0.0
  0
LINE
  5
372
330
1F
100
AcDbEntity
  8
0
  6
Continuous
 62
     7
370
    25
100
AcDbLine
 10
62.3748250787
 20
27.6490938982
 30
0.0
 11
62.3748250787
 21
27.6495021686
 31
0.0
  0
LINE
  5
373
330
1F
100
AcDbEntity
  8
0
  6
Continuous
 62
     7
370
    25
100
AcDbLine
 10
62.5167029921
 20
27.651613835
 30
0.0
 11
62.5167029921
 21
27.6520221054
 31
0.0
  0
LINE
  5
374
330
1F
100
AcDbEntity
  8
0
  6
Continuous
 62
     7
370
    25
100
AcDbLine
 10
62.4479466012
 20
27.6913060546
 30
0.0
 11
62.4479466012
 21
27.691714325
 31
0.0
  0
LINE
  5
375
330
1F
100
AcDbEntity
  8
0
  6
Continuous
 62
     7
370
    25
100
AcDbLine
 10
62.6194144279
 20
27.6734913225
 30
0.0
 11
62.6194144279
 21
27.6738995929
 31
0.0
  0
LINE
  5
376
330
1F
100
AcDbEntity
  8
0
  6
Continuous
 62
     7
370
    25
100
AcDbLine
 10
62.498265322
 20
27.7203447912
 30
0.0
 11
62.498265322
 21
27.7207530616
 31
0.0
  0
ARC
  5
377
330
1F
100
AcDbEntity
  8
0
  6
Continuous
 62
     7
370
    25
100
AcDbCircle
 10
69.1853075719
 20
26.2866265664
 30
0.0
 40
0.0352057494945499
100
AcDbArc
 50
294.3746582936
 51
354.3052007488
  0
ARC
  5
378
330
1F
100
AcDbEntity
  8
0
  6
Continuous
 62
     7
370
    25
100
AcDbCircle
 10
51.0496120455
 20
33.3085743538
 30
0.0
 40
0.1236345520844825
100
AcDbArc
 50
125.7422101905
 51
185.3698879215
  0
ARC
  5
379
330
1F
100
AcDbEntity
  8
0
  6
Continuous
 62
     7
370
    25
100
AcDbCircle
 10
51.01047354
 20
33.3209831877
 30
0.0
 40
0.1540922651758282
100
AcDbArc
 50
54.4233326688
 51
113.8388989022
  0
ARC
  5
37A
330
1F
100
AcDbEntity
  8
0
  6
Continuous
 62
     7
370
    25
100
AcDbCircle
 10
56.6426556955
 20
36.5726730041
 30
0.0
 40
0.1537050907507564
100
AcDbArc
 50
54.3824225248
 51
114.3071190461
  0
LINE
  5
37B
330
1F
100
AcDbEntity
  8
0
  6
Continuous
 62
     7
370
    25
100
AcDbLine
 10
50.9265200901
 20
32.6209708214
 30
0.0
 11
50.9265200901
 21
33.2970040046
 31
0.0
  0
LWPOLYLINE
  5
37C
330
1F
100
AcDbEntity
  8
0
  6
Continuous
 62
     7
370
    25
100
AcDbPolyline
 90
        3
 70
   128
 43
0.0
 10
50.9101170341
 20
32.612467045
 10
50.9189792262
 20
32.6159747168
 10
50.9265200901
 20
32.6209708214
  0
LWPOLYLINE
  5
37D
330
1F
100
AcDbEntity
  8
0
  6
Continuous
 62
     7
370
    25
100
AcDbPolyline
 90
        7
 70
   128
 43
0.0
 10
50.8752396777
 20
32.6295820207
 10
50.8756178045
 20
32.626839181
 10
50.8785457564
 20
32.6216730761
 10
50.8841002228
 20
32.6172840157
 10
50.8917354837
 20
32.6141032197
 10
50.9007013838
 20
32.6124431978
 10
50.9101170341
 20
32.612467045
  0
LINE
  5
37E
330
1F
100
AcDbEntity
  8
0
  6
Continuous
 62
     7
370
    25
100
AcDbLine
 10
51.1626343829
 20
33.3510113726
 30
0.0
 11
51.1626343829
 21
32.9906989613
 31
0.0
  0
ARC
  5
37F
330
1F
100
AcDbEntity
  8
0
  6
Continuous
 62
     7
370
    25
100
AcDbCircle
 10
51.0117282016
 20
32.9971395953
 30
0.0
 40
0.1510435609667752
100
AcDbArc
 50
323.0786912316
 51
357.5561151658
  0
LINE
  5
380
330
1F
100
AcDbEntity
  8
0
  6
Continuous
 62
     7
370
    25
100
AcDbLine
 10
51.1324816835
 20
32.9064050709
 30
0.0
 11
50.9265200901
 21
32.6209708214
 31
0.0
  0
LINE
  5
381
330
1F
100
AcDbEntity
  8
0
  6
Continuous
 62
     7
370
    25
100
AcDbLine
 10
50.9285699876
 20
32.6082815766
 30
0.0
 11
50.9247606987
 21
32.6077244455
 31
0.0
  0
LINE
  5
382
330
1F
100
AcDbEntity
  8
0
  6
Continuous
 62
     7
370
    25
100
AcDbLine
 10
50.949783191
 20
32.5960354549
 30
0.0
 11
51.1557447844
 21
32.8814697045
 31
0.0
  0
ARC
  5
383
330
1F
100
AcDbEntity
  8
0
  6
Continuous
 62
     7
370
    25
100
AcDbCircle
 10
51.2479715968
 20
32.8230075854
 30
0.0
 40
0.109195257640191
100
AcDbArc
 50
104.5780840005
 51
147.6295923232
  0
LINE
  5
384
330
1F
100
AcDbEntity
  8
0
  6
Continuous
 62
     7
370
    25
100
AcDbLine
 10
51.2204872395
 20
32.9286873582
 30
0.0
 11
51.750160352
 21
33.0118398501
 31
0.0
  0
LINE
  5
385
330
1F
100
AcDbEntity
  8
0
  6
Continuous
 62
     7
370
    25
100
AcDbLine
 10
50.9285699876
 20
32.6082815766
 30
0.0
 11
51.134531581
 21
32.8937158261
 31
0.0
  0
ARC
  5
386
330
1F
100
AcDbEntity
  8
0
  6
Continuous
 62
     7
370
    25
100
AcDbCircle
 10
50.9211869241
 20
32.6074544278
 30
0.0
 40
0.030791872649927
100
AcDbArc
 50
295.8660610322
 51
338.2323384078
  0
LWPOLYLINE
  5
387
330
1F
100
AcDbEntity
  8
0
  6
Continuous
 62
     7
370
    25
100
AcDbPolyline
 90
        9
 70
   128
 43
0.0
 10
50.9346204594
 20
32.579747397
 10
50.9283456851
 20
32.5778974037
 10
50.9217652207
 20
32.5786092727
 10
50.9154445707
 20
32.5818218282
 10
50.9099269123
 20
32.587258993
 10
50.9056864157
 20
32.5944535143
 10
50.9030874963
 20
32.6027871171
 10
50.9023534969
 20
32.6115436374
 10
50.9023821149
 20
32.6123214895
  0
LINE
  5
388
330
1F
100
AcDbEntity
  8
0
  6
Continuous
 62
     7
370
    25
100
AcDbLine
 10
50.9285699876
 20
32.6082815766
 30
0.0
 11
50.9248014235
 21
32.6076717284
 31
0.0
  0
LINE
  5
389
330
1F
100
AcDbEntity
  8
0
  6
Continuous
 62
     7
370
    25
100
AcDbLine
 10
50.913930669
 20
32.6139764886
 30
0.0
 11
50.9247606987
 21
32.6077244455
 31
0.0
  0
ARC
  5
38A
330
1F
100
AcDbEntity
  8
0
  6
Continuous
 62
     7
370
    25
100
AcDbCircle
 10
50.9247947657
 20
32.607708674
 30
0.0
 40
0.0000375406473046
100
AcDbArc
 50
155.1578471197
 51
280.2153335373
  0
ARC
  5
38B
330
1F
100
AcDbEntity
  8
0
  6
Continuous
 62
     7
370
    25
100
AcDbCircle
 10
51.2267583934
 20
32.835253707
 30
0.0
 40
0.1091952576401088
100
AcDbArc
 50
104.5780840005
 51
147.6295923232
  0
LINE
  5
38C
330
1F
100
AcDbEntity
  8
0
  6
Continuous
 62
     7
370
    25
100
AcDbLine
 10
51.199274036
 20
32.9409334799
 30
0.0
 11
51.7289471486
 21
33.0240859718
 31
0.0
  0
LINE
  5
38D
330
1F
100
AcDbEntity
  8
0
  6
Continuous
 62
     7
370
    25
100
AcDbLine
 10
56.8837663599
 20
36.610108153
 30
0.0
 11
56.8837663599
 21
36.5856119286
 31
0.0
  0
LINE
  5
38E
330
1F
100
AcDbEntity
  8
0
  6
Continuous
 62
     7
370
    25
100
AcDbLine
 10
56.881692037
 20
36.5840087263
 30
0.0
 11
56.8837663599
 21
36.5856119286
 31
0.0
  0
LINE
  5
38F
330
1F
100
AcDbEntity
  8
0
  6
Continuous
 62
     7
370
    18
100
AcDbLine
 10
51.6764579596
 20
33.3616524853
 30
0.0
 11
63.3979859619
 21
26.5949584027
 31
0.0
  0
INSERT
  5
395
330
1F
100
AcDbEntity
  8
NOTES
100
AcDbBlockReference
  2
SW_NOTE_0_2
 10
65.9814562951
 20
24.8813555231
 30
0.0
  0
LINE
  5
396
330
1F
100
AcDbEntity
  8
0
  6
Continuous
 62
     7
370
    25
100
AcDbLine
 10
15.3782608709
 20
26.8832042245
 30
0.0
 11
32.7670421229
 21
26.8832042245
 31
0.0
  0
LINE
  5
397
330
1F
100
AcDbEntity
  8
0
  6
Continuous
 62
     7
370
    25
100
AcDbLine
 10
15.1027096898
 20
26.8832042245
 30
0.0
 11
15.3782608709
 21
26.8832042245
 31
0.0
  0
LINE
  5
398
330
1F
100
AcDbEntity
  8
0
  6
Continuous
 62
     7
370
    25
100
AcDbLine
 10
32.7670421229
 20
26.8832042245
 30
0.0
 11
33.042593304
 21
26.8832042245
 31
0.0
  0
ARC
  5
399
330
1F
100
AcDbEntity
  8
0
  6
Continuous
 62
     7
370
    25
100
AcDbCircle
 10
30.9214802359
 20
27.8833340855
 30
0.0
 40
0.1089882223056275
100
AcDbArc
 50
180.0469922928
 51
269.92490943
  0
LWPOLYLINE
  5
39A
330
1F
100
AcDbEntity
  8
0
  6
Continuous
 62
     7
370
    25
100
AcDbPolyline
 90
        3
 70
   128
 43
0.0
 10
30.8291001018
 20
27.9408738738
 10
30.8158927842
 20
27.9102061602
 10
30.8124920503
 20
27.8832446966
  0
LINE
  5
39B
330
1F
100
AcDbEntity
  8
0
  6
Continuous
 62
     7
370
    25
100
AcDbLine
 10
30.8451444851
 20
27.9243183978
 30
0.0
 11
30.8291001018
 21
27.9408738738
 31
0.0
  0
LWPOLYLINE
  5
39C
330
1F
100
AcDbEntity
  8
0
  6
Continuous
 62
     7
370
    25
100
AcDbPolyline
 90
        3
 70
   128
 43
0.0
 10
30.8347271622
 20
27.8832042245
 10
30.8381195241
 20
27.9072092604
 10
30.8451444851
 20
27.9243183978
  0
ARC
  5
39D
330
1F
100
AcDbEntity
  8
0
  6
Continuous
 62
     7
370
    25
100
AcDbCircle
 10
30.9214249453
 20
27.8833036096
 30
0.0
 40
0.0866978400266884
100
AcDbArc
 50
180.0656803907
 51
269.9525504988
  0
ARC
  5
39E
330
1F
100
AcDbEntity
  8
0
  6
Continuous
 62
     7
370
    25
100
AcDbCircle
 10
30.9212763322
 20
27.8832928611
 30
0.0
 40
0.086687095821164
100
AcDbArc
 50
270.0507703588
 51
359.9414156925
  0
LWPOLYLINE
  5
39F
330
1F
100
AcDbEntity
  8
0
  6
Continuous
 62
     7
370
    25
100
AcDbPolyline
 90
        3
 70
   128
 43
0.0
 10
30.9987074772
 20
27.9221018623
 10
31.0061479635
 20
27.9008472184
 10
31.0079633827
 20
27.8832042245
  0
LINE
  5
3A0
330
1F
100
AcDbEntity
  8
0
  6
Continuous
 62
     7
370
    25
100
AcDbLine
 10
30.9986562961
 20
27.9221884765
 30
0.0
 11
30.9987074772
 21
27.9221018623
 31
0.0
  0
LINE
  5
3A1
330
1F
100
AcDbEntity
  8
0
  6
Continuous
 62
     7
370
    25
100
AcDbLine
 10
31.0149873402
 20
27.9386406688
 30
0.0
 11
30.9986562961
 21
27.9221884765
 31
0.0
  0
LWPOLYLINE
  5
3A2
330
1F
100
AcDbEntity
  8
0
  6
Continuous
 62
     7
370
    25
100
AcDbPolyline
 90
        3
 70
   128
 43
0.0
 10
31.0302271622
 20
27.8832160356
 10
31.0252447878
 20
27.9157404544
 10
31.0149873402
 20
27.9386406688
  0
ARC
  5
3A3
330
1F
100
AcDbEntity
  8
0
  6
Continuous
 62
     7
370
    25
100
AcDbCircle
 10
30.9212440445
 20
27.8833290932
 30
0.0
 40
0.1089831763979026
100
AcDbArc
 50
270.0490790383
 51
359.9405621218
  0
LINE
  5
3A4
330
1F
100
AcDbEntity
  8
0
  6
Continuous
 62
     7
370
    25
100
AcDbLine
 10
32.5426514998
 20
34.8857326419
 30
0.0
 11
15.602651494
 21
34.8857326419
 31
0.0
  0
LINE
  5
3A5
330
1F
100
AcDbEntity
  8
0
  6
Continuous
 62
     7
370
    25
100
AcDbLine
 10
33.0726326741
 20
26.9132435946
 30
0.0
 11
33.0726326741
 21
34.8781596297
 31
0.0
  0
LINE
  5
3A6
330
1F
100
AcDbEntity
  8
0
  6
Continuous
 62
     7
370
    25
100
AcDbLine
 10
32.7670421229
 20
34.8781596297
 30
0.0
 11
33.0726326741
 21
34.8781596297
 31
0.0
  0
LINE
  5
3A7
330
1F
100
AcDbEntity
  8
0
  6
Continuous
 62
     7
370
    25
100
AcDbLine
 10
15.0726703198
 20
26.9132435946
 30
0.0
 11
15.0726703198
 21
34.8781596297
 31
0.0
  0
LINE
  5
3A8
330
1F
100
AcDbEntity
  8
0
  6
Continuous
 62
     7
370
    25
100
AcDbLine
 10
15.3782608709
 20
34.8781596297
 30
0.0
 11
15.0726703198
 21
34.8781596297
 31
0.0
  0
LWPOLYLINE
  5
3A9
330
1F
100
AcDbEntity
  8
0
  6
Continuous
 62
     7
370
    25
100
AcDbPolyline
 90
       17
 70
   128
 43
0.0
 10
30.9194082646
 20
27.6161412324
 10
30.6649224452
 20
27.6260606696
 10
30.4359324699
 20
27.6540452861
 10
30.241702556
 20
27.6974345395
 10
30.1244144162
 20
27.73848529
 10
30.0357982745
 20
27.7855821773
 10
29.9945797797
 20
27.8197847874
 10
29.9689994629
 20
27.8558431499
 10
29.9602153513
 20
27.893424697
 10
29.9689994629
 20
27.9308147205
 10
29.9945797797
 20
27.9667138484
 10
30.0357982745
 20
28.0007865326
 10
30.1244144162
 20
28.0477369663
 10
30.241702556
 20
28.088690445
 10
30.4359324699
 20
28.1320091239
 10
30.6649224452
 20
28.159968879
 10
30.9194082646
 20
28.1698853269
  0
LINE
  5
3AA
330
1F
100
AcDbEntity
  8
0
  6
Continuous
 62
     7
370
    25
100
AcDbLine
 10
15.3782608709
 20
34.8781596297
 30
0.0
 11
15.592651494
 21
34.8781596297
 31
0.0
  0
LINE
  5
3AB
330
1F
100
AcDbEntity
  8
0
  6
Continuous
 62
     7
370
    25
100
AcDbLine
 10
32.7670421229
 20
34.8781596297
 30
0.0
 11
32.5526514998
 21
34.8781596297
 31
0.0
  0
LWPOLYLINE
  5
3AC
330
1F
100
AcDbEntity
  8
0
  6
Continuous
 62
     7
370
    25
100
AcDbPolyline
 90
        3
 70
   128
 43
0.0
 10
30.8379082646
 20
27.9532435946
 10
30.8326598212
 20
27.9463340024
 10
30.829077556
 20
27.9408971379
  0
LINE
  5
3AD
330
1F
100
AcDbEntity
  8
0
  6
Continuous
 62
     7
370
    25
100
AcDbLine
 10
30.829077556
 20
27.9408971379
 30
0.0
 11
30.6366602331
 21
28.1388538309
 31
0.0
  0
LINE
  5
3AE
330
1F
100
AcDbEntity
  8
0
  6
Continuous
 62
     7
370
    25
100
AcDbLine
 10
30.6366602331
 20
28.1388538309
 30
0.0
 11
30.637105115
 21
28.1405191852
 31
0.0
  0
ARC
  5
3AF
330
1F
100
AcDbEntity
  8
0
  6
Continuous
 62
     7
370
    25
100
AcDbCircle
 10
30.9249923777
 20
25.0430691391
 30
0.0
 40
3.110799875295002
100
AcDbArc
 50
84.6876454421
 51
95.3100044278
  0
LINE
  5
3B0
330
1F
100
AcDbEntity
  8
0
  6
Continuous
 62
     7
370
    25
100
AcDbLine
 10
31.2130066898
 20
28.1405073742
 30
0.0
 11
31.2127980284
 21
28.1372435946
 31
0.0
  0
LINE
  5
3B1
330
1F
100
AcDbEntity
  8
0
  6
Continuous
 62
     7
370
    25
100
AcDbLine
 10
31.2127980284
 20
28.1372435946
 30
0.0
 11
31.0151169261
 21
27.9387711537
 31
0.0
  0
LWPOLYLINE
  5
3B2
330
1F
100
AcDbEntity
  8
0
  6
Continuous
 62
     7
370
    25
100
AcDbPolyline
 90
        3
 70
   128
 43
0.0
 10
31.0151169261
 20
27.9387711537
 10
31.0099858057
 20
27.9463874394
 10
31.0058413355
 20
27.9517829647
  0
ARC
  5
3B3
330
1F
100
AcDbEntity
  8
0
  6
Continuous
 62
     7
370
    25
100
AcDbCircle
 10
30.9212331673
 20
27.8834826122
 30
0.0
 40
0.1087358279133022
100
AcDbArc
 50
38.9123708324
 51
125.6513744688
  0
LWPOLYLINE
  5
3B4
330
1F
100
AcDbEntity
  8
0
  6
Continuous
 62
     7
370
    25
100
AcDbPolyline
 90
        3
 70
   128
 43
0.0
 10
30.8578562937
 20
27.9718390051
 10
30.8461088927
 20
27.9620311482
 10
30.8379082646
 20
27.9532435946
  0
LWPOLYLINE
  5
3B5
330
1F
100
AcDbEntity
  8
0
  6
Continuous
 62
     7
370
    25
100
AcDbPolyline
 90
       12
 70
   128
 43
0.0
 10
30.637589367
 20
28.1112554057
 10
30.6430978562
 20
28.1111518823
 10
30.647569928
 20
28.1097111758
 10
30.6509387764
 20
28.1073640655
 10
30.6527012343
 20
28.1052680461
 10
30.6537773668
 20
28.1030862229
 10
30.65413899
 20
28.1010003312
 10
30.6537579201
 20
28.099192106
 10
30.6530773484
 20
28.0982306273
 10
30.6520458138
 20
28.0975271745
 10
30.6506549659
 20
28.0971355951
 10
30.6488964536
 20
28.0971097364
  0
LWPOLYLINE
  5
3B6
330
1F
100
AcDbEntity
  8
0
  6
Continuous
 62
     7
370
    25
100
AcDbPolyline
 90
       34
 70
   128
 43
0.0
 10
30.6488964536
 20
28.0971097364
 10
30.5007984112
 20
28.0805327642
 10
30.3630688071
 20
28.0558627256
 10
30.2430918276
 20
28.0239645592
 10
30.1692013026
 20
27.9958177903
 10
30.1125654374
 20
27.9644566237
 10
30.0859324882
 20
27.9419435983
 10
30.0692758349
 20
27.918272245
 10
30.0635185009
 20
27.8935506812
 10
30.0701206145
 20
27.8662575697
 10
30.0892126053
 20
27.8404912284
 10
30.1197229482
 20
27.8163243526
 10
30.1845539112
 20
27.7832320574
 10
30.2690488374
 20
27.75414747
 10
30.4060465626
 20
27.7220262874
 10
30.5630010924
 20
27.698047651
 10
30.7313402255
 20
27.6827931224
 10
30.9377014549
 20
27.6768252651
 10
31.1547380787
 20
27.6853737275
 10
31.3559691382
 20
27.7076875444
 10
31.5299802476
 20
27.7421913705
 10
31.6653570211
 20
27.7873098606
 10
31.7467824587
 20
27.83760751
 10
31.7648175369
 20
27.8592421647
 10
31.7741288614
 20
27.8818167703
 10
31.7739385599
 20
27.9060781117
 10
31.7646638567
 20
27.9277462521
 10
31.7473214802
 20
27.9482628823
 10
31.7226388257
 20
27.9676062915
 10
31.6545165599
 20
28.0025415209
 10
31.5659192822
 20
28.0325680337
 10
31.4625889099
 20
28.0575144487
 10
31.3297025811
 20
28.0801606303
 10
31.1937271623
 20
28.0952317836
  0
LWPOLYLINE
  5
3B7
330
1F
100
AcDbEntity
  8
0
  6
Continuous
 62
     7
370
    25
100
AcDbPolyline
 90
       11
 70
   128
 43
0.0
 10
31.1937271623
 20
28.0952317836
 10
31.1923341689
 20
28.0955882097
 10
31.1913204201
 20
28.0962690929
 10
31.1906680149
 20
28.0972233367
 10
31.190359052
 20
28.0983998446
 10
31.1905637187
 20
28.1007356372
 10
31.1916023129
 20
28.1033122523
 10
31.1947151052
 20
28.1072650329
 10
31.1981031465
 20
28.1096818328
 10
31.2022205186
 20
28.1111482145
 10
31.2069240127
 20
28.1112554057
  0
LWPOLYLINE
  5
3B8
330
1F
100
AcDbEntity
  8
0
  6
Continuous
 62
     7
370
    25
100
AcDbPolyline
 90
       17
 70
   128
 43
0.0
 10
31.2069240127
 20
28.1112554057
 10
31.3646979628
 20
28.0924478634
 10
31.5069975035
 20
28.0650785319
 10
31.6279309024
 20
28.0303257797
 10
31.7010651759
 20
28.0001247078
 10
31.7563813207
 20
27.966930418
 10
31.782132346
 20
27.943383486
 10
31.7981230366
 20
27.9188744751
 10
31.8036169261
 20
27.8935506812
 10
31.7990727328
 20
27.8698031899
 10
31.7857328679
 20
27.8467057778
 10
31.7344224133
 20
27.8029417984
 10
31.6531981422
 20
27.7632199572
 10
31.5455726347
 20
27.7285014686
 10
31.3670744939
 20
27.6916545016
 10
31.1562115236
 20
27.667689643
 10
30.9213098394
 20
27.6588853269
  0
LWPOLYLINE
  5
3B9
330
1F
100
AcDbEntity
  8
0
  6
Continuous
 62
     7
370
    25
100
AcDbPolyline
 90
       18
 70
   128
 43
0.0
 10
30.9213098394
 20
27.6588853269
 10
30.6949001537
 20
27.666777843
 10
30.4856412772
 20
27.6893561639
 10
30.3042424182
 20
27.724971449
 10
30.1929186685
 20
27.7592465397
 10
30.1078080555
 20
27.7992318451
 10
30.0534285264
 20
27.8442317605
 10
30.0429120262
 20
27.8602258621
 10
30.0364794164
 20
27.8766740901
 10
30.0342980284
 20
27.8935506812
 10
30.0394895793
 20
27.9171279063
 10
30.0546998584
 20
27.9405674318
 10
30.079382305
 20
27.963614104
 10
30.1329706877
 20
27.9968893639
 10
30.2047970442
 20
28.0278454647
 10
30.3257474306
 20
28.0640242887
 10
30.4714690331
 20
28.0925080121
 10
30.637589367
 20
28.1112554057
  0
ARC
  5
3BA
330
1F
100
AcDbEntity
  8
0
  6
Continuous
 62
     7
370
    25
100
AcDbCircle
 10
30.4401288661
 20
27.7842743723
 30
0.0
 40
0.0109790049421799
100
AcDbArc
 50
176.3571663735
 51
5.2503076034
  0
LINE
  5
3BB
330
1F
100
AcDbEntity
  8
0
  6
Continuous
 62
     7
370
    25
100
AcDbLine
 10
30.4291720442
 20
27.7849719411
 30
0.0
 11
30.4291720442
 21
27.9571766655
 31
0.0
  0
ARC
  5
3BC
330
1F
100
AcDbEntity
  8
0
  6
Continuous
 62
     7
370
    25
100
AcDbCircle
 10
30.5131976323
 20
27.9562023732
 30
0.0
 40
0.0840312365400554
100
AcDbArc
 50
91.171823188
 51
179.335674565
  0
ARC
  5
3BD
330
1F
100
AcDbEntity
  8
0
  6
Continuous
 62
     7
370
    25
100
AcDbCircle
 10
30.5119619959
 20
27.9493775789
 30
0.0
 40
0.0908397400444871
100
AcDbArc
 50
25.2407261304
 51
90.304561239
  0
LWPOLYLINE
  5
3BE
330
1F
100
AcDbEntity
  8
0
  6
Continuous
 62
     7
370
    25
100
AcDbPolyline
 90
       11
 70
   128
 43
0.0
 10
30.5941287371
 20
27.9881136734
 10
30.5954554244
 20
27.9848848849
 10
30.5957343619
 20
27.9818745731
 10
30.5951244925
 20
27.9791312669
 10
30.5928908634
 20
27.9756231007
 10
30.5895514733
 20
27.9729886734
 10
30.585642755
 20
27.9713917707
 10
30.5817011411
 20
27.9709961783
 10
30.5782630644
 20
27.9719656819
 10
30.5769004877
 20
27.9730135277
 10
30.5758649576
 20
27.9744640671
  0
ARC
  5
3BF
330
1F
100
AcDbEntity
  8
0
  6
Continuous
 62
     7
370
    25
100
AcDbCircle
 10
30.5150614767
 20
27.9535662575
 30
0.0
 40
0.0642944922085001
100
AcDbArc
 50
18.9675534278
 51
174.4019857677
  0
LINE
  5
3C0
330
1F
100
AcDbEntity
  8
0
  6
Continuous
 62
     7
370
    25
100
AcDbLine
 10
30.451073619
 20
27.9598380828
 30
0.0
 11
30.451073619
 21
27.9115743033
 31
0.0
  0
LINE
  5
3C1
330
1F
100
AcDbEntity
  8
0
  6
Continuous
 62
     7
370
    25
100
AcDbLine
 10
30.451073619
 20
27.9115743033
 30
0.0
 11
30.5473531465
 21
27.9115743033
 31
0.0
  0
ARC
  5
3C2
330
1F
100
AcDbEntity
  8
0
  6
Continuous
 62
     7
370
    25
100
AcDbCircle
 10
30.5488906685
 20
27.9001753637
 30
0.0
 40
0.0115021649471273
100
AcDbArc
 50
267.0465719143
 51
97.6818580754
  0
LINE
  5
3C3
330
1F
100
AcDbEntity
  8
0
  6
Continuous
 62
     7
370
    25
100
AcDbLine
 10
30.5482980284
 20
27.8886884765
 30
0.0
 11
30.4510618079
 21
27.8886884765
 31
0.0
  0
LINE
  5
3C4
330
1F
100
AcDbEntity
  8
0
  6
Continuous
 62
     7
370
    25
100
AcDbLine
 10
30.4510618079
 20
27.8886884765
 30
0.0
 11
30.4510618079
 21
27.7852790277
 31
0.0
  0
LINE
  5
3C5
330
1F
100
AcDbEntity
  8
0
  6
Continuous
 62
     7
370
    25
100
AcDbLine
 10
31.4403255875
 20
27.99442076
 30
0.0
 11
31.3020066898
 21
27.99442076
 31
0.0
  0
ARC
  5
3C6
330
1F
100
AcDbEntity
  8
0
  6
Continuous
 62
     7
370
    25
100
AcDbCircle
 10
31.4407902504
 20
27.9827816469
 30
0.0
 40
0.0116483846711417
100
AcDbArc
 50
269.7671439833
 51
92.2861789617
  0
LINE
  5
3C7
330
1F
100
AcDbEntity
  8
0
  6
Continuous
 62
     7
370
    25
100
AcDbLine
 10
31.3020185009
 20
27.9711333584
 30
0.0
 11
31.4407429103
 21
27.9711333584
 31
0.0
  0
LINE
  5
3C8
330
1F
100
AcDbEntity
  8
0
  6
Continuous
 62
     7
370
    25
100
AcDbLine
 10
31.3020185009
 20
27.865428634
 30
0.0
 11
31.3020185009
 21
27.9711333584
 31
0.0
  0
ARC
  5
3C9
330
1F
100
AcDbEntity
  8
0
  6
Continuous
 62
     7
370
    25
100
AcDbCircle
 10
31.3648153867
 20
27.8617425603
 30
0.0
 40
0.0629049760749025
100
AcDbArc
 50
176.6406868244
 51
273.9066563583
  0
ARC
  5
3CA
330
1F
100
AcDbEntity
  8
0
  6
Continuous
 62
     7
370
    25
100
AcDbCircle
 10
31.3670952997
 20
27.8643403579
 30
0.0
 40
0.0653873799941172
100
AcDbArc
 50
271.7579294033
 51
12.3753220281
  0
LWPOLYLINE
  5
3CB
330
1F
100
AcDbEntity
  8
0
  6
Continuous
 62
     7
370
    25
100
AcDbPolyline
 90
       11
 70
   128
 43
0.0
 10
31.4533098394
 20
27.8783538309
 10
31.4527963948
 20
27.8824467265
 10
31.45151265
 20
27.8857780981
 10
31.4496161263
 20
27.8883531542
 10
31.4459669583
 20
27.8908090397
 10
31.4418250953
 20
27.891592512
 10
31.4377221718
 20
27.8907211491
 10
31.4341898222
 20
27.8882125292
 10
31.4324144436
 20
27.8856392092
 10
31.4312864566
 20
27.8823512404
 10
31.4309633827
 20
27.8783538309
  0
ARC
  5
3CC
330
1F
100
AcDbEntity
  8
0
  6
Continuous
 62
     7
370
    25
100
AcDbCircle
 10
31.3680716914
 20
27.8632322925
 30
0.0
 40
0.0865690638020687
100
AcDbArc
 50
268.852080565
 51
10.0598042659
  0
ARC
  5
3CD
330
1F
100
AcDbEntity
  8
0
  6
Continuous
 62
     7
370
    25
100
AcDbCircle
 10
31.3644279171
 20
27.8621683846
 30
0.0
 40
0.0855091048589713
100
AcDbArc
 50
176.3806079906
 51
271.2795634073
  0
LINE
  5
3CE
330
1F
100
AcDbEntity
  8
0
  6
Continuous
 62
     7
370
    25
100
AcDbLine
 10
31.2787822804
 20
28.0289798151
 30
0.0
 11
31.279089367
 21
27.8675664293
 31
0.0
  0
LINE
  5
3CF
330
1F
100
AcDbEntity
  8
0
  6
Continuous
 62
     7
370
    25
100
AcDbLine
 10
31.3020066898
 20
27.99442076
 30
0.0
 11
31.3020066898
 21
28.0290506812
 31
0.0
  0
ARC
  5
3D0
330
1F
100
AcDbEntity
  8
0
  6
Continuous
 62
     7
370
    25
100
AcDbCircle
 10
31.2903936999
 20
28.0292725762
 30
0.0
 40
0.0116151096588627
100
AcDbArc
 50
358.9053553898
 51
181.4443041561
  0
LWPOLYLINE
  5
3D1
330
1F
100
AcDbEntity
  8
0
  6
Continuous
 62
     7
370
    25
100
AcDbPolyline
 90
        3
 70
   128
 43
0.0
 10
31.213073619
 20
27.8960585553
 10
31.1494056016
 20
27.9084415716
 10
31.1028807056
 20
27.9132947757
  0
ARC
  5
3D2
330
1F
100
AcDbEntity
  8
0
  6
Continuous
 62
     7
370
    25
100
AcDbCircle
 10
31.1945166227
 20
27.8460592446
 30
0.0
 40
0.0533319151502428
100
AcDbArc
 50
338.8929817745
 51
69.6378416985
  0
ARC
  5
3D3
330
1F
100
AcDbEntity
  8
0
  6
Continuous
 62
     7
370
    25
100
AcDbCircle
 10
31.1606747427
 20
27.8606140378
 30
0.0
 40
0.0901554051970502
100
AcDbArc
 50
263.6299461159
 51
338.0086377287
  0
ARC
  5
3D4
330
1F
100
AcDbEntity
  8
0
  6
Continuous
 62
     7
370
    25
100
AcDbCircle
 10
31.1449900842
 20
27.8620692176
 30
0.0
 40
0.0912310803602945
100
AcDbArc
 50
181.6759104008
 51
273.5707475715
  0
LWPOLYLINE
  5
3D5
330
1F
100
AcDbEntity
  8
0
  6
Continuous
 62
     7
370
    25
100
AcDbPolyline
 90
       10
 70
   128
 43
0.0
 10
31.0770066898
 20
27.8587632797
 10
31.0765740974
 20
27.8634073564
 10
31.0753356487
 20
27.8671649092
 10
31.0734512026
 20
27.870051481
 10
31.0697629798
 20
27.8727822496
 10
31.0655204694
 20
27.8736407403
 10
31.0612631951
 20
27.8726794106
 10
31.057530681
 20
27.8699507182
 10
31.0548624508
 20
27.8655071204
 10
31.0537980284
 20
27.8594010749
  0
ARC
  5
3D6
330
1F
100
AcDbEntity
  8
0
  6
Continuous
 62
     7
370
    25
100
AcDbCircle
 10
31.1448491582
 20
27.8608093239
 30
0.0
 40
0.067873314376053
100
AcDbArc
 50
181.7274456187
 51
276.0533403528
  0
ARC
  5
3D7
330
1F
100
AcDbEntity
  8
0
  6
Continuous
 62
     7
370
    25
100
AcDbCircle
 10
31.1592328306
 20
27.8632026554
 30
0.0
 40
0.0702607775455291
100
AcDbArc
 50
264.0968377824
 51
337.9470695376
  0
ARC
  5
3D8
330
1F
100
AcDbEntity
  8
0
  6
Continuous
 62
     7
370
    25
100
AcDbCircle
 10
31.1932409942
 20
27.8455640197
 30
0.0
 40
0.0323169162528534
100
AcDbArc
 50
344.3060534574
 51
74.6747746707
  0
LWPOLYLINE
  5
3D9
330
1F
100
AcDbEntity
  8
0
  6
Continuous
 62
     7
370
    25
100
AcDbPolyline
 90
        3
 70
   128
 43
0.0
 10
31.0959791308
 20
27.8918853269
 10
31.1551112046
 20
27.8849301269
 10
31.2017822804
 20
27.8767317836
  0
ARC
  5
3DA
330
1F
100
AcDbEntity
  8
0
  6
Continuous
 62
     7
370
    25
100
AcDbCircle
 10
31.1041839596
 20
27.9363666088
 30
0.0
 40
0.0452316665276109
100
AcDbArc
 50
175.5382674476
 51
259.5489353625
  0
ARC
  5
3DB
330
1F
100
AcDbEntity
  8
0
  6
Continuous
 62
     7
370
    25
100
AcDbCircle
 10
31.1586926097
 20
27.9100919875
 30
0.0
 40
0.0876476833084431
100
AcDbArc
 50
2.5320240697
 51
90.0314593289
  0
LWPOLYLINE
  5
3DC
330
1F
100
AcDbEntity
  8
0
  6
Continuous
 62
     7
370
    25
100
AcDbPolyline
 90
       11
 70
   128
 43
0.0
 10
31.2243531465
 20
27.9146294214
 10
31.2247195708
 20
27.9111795818
 10
31.2258688581
 20
27.9084017676
 10
31.2276457154
 20
27.9062795198
 10
31.2311479915
 20
27.9042893316
 10
31.2351887764
 20
27.9036815868
 10
31.2392439561
 20
27.9044007366
 10
31.2427894162
 20
27.9063912324
 10
31.244611057
 20
27.9083971015
 10
31.2458179231
 20
27.910926866
 10
31.2462547213
 20
27.9139640671
  0
ARC
  5
3DD
330
1F
100
AcDbEntity
  8
0
  6
Continuous
 62
     7
370
    25
100
AcDbCircle
 10
31.1587945376
 20
27.9094285643
 30
0.0
 40
0.0657645810402352
100
AcDbArc
 50
4.5358556613
 51
92.4433045797
  0
LWPOLYLINE
  5
3DE
330
1F
100
AcDbEntity
  8
0
  6
Continuous
 62
     7
370
    25
100
AcDbPolyline
 90
        5
 70
   128
 43
0.0
 10
31.0809909418
 20
27.9378853269
 10
31.0906566088
 20
27.9569461448
 10
31.109175352
 20
27.9691790511
 10
31.1298898813
 20
27.974143181
 10
31.1559909418
 20
27.9751333584
  0
ARC
  5
3DF
330
1F
100
AcDbEntity
  8
0
  6
Continuous
 62
     7
370
    25
100
AcDbCircle
 10
31.1052980718
 20
27.9374847198
 30
0.0
 40
0.0243104309546866
100
AcDbArc
 50
179.0557906637
 51
264.2932252733
  0
LWPOLYLINE
  5
3E0
330
1F
100
AcDbEntity
  8
0
  6
Continuous
 62
     7
370
    25
100
AcDbPolyline
 90
        6
 70
   128
 43
0.0
 10
31.1586444851
 20
27.9977396576
 10
31.1275916203
 20
27.996876951
 10
31.1018569176
 20
27.9901518943
 10
31.0818026714
 20
27.9787272714
 10
31.0659526852
 20
27.9608108684
 10
31.059089367
 20
27.9398853269
  0
ARC
  5
3E1
330
1F
100
AcDbEntity
  8
0
  6
Continuous
 62
     7
370
    25
100
AcDbCircle
 10
30.6352547213
 20
27.7837829817
 30
0.0
 40
0.0110092717299679
100
AcDbArc
 50
173.8001824818
 51
6.1998175182
  0
LINE
  5
3E2
330
1F
100
AcDbEntity
  8
0
  6
Continuous
 62
     7
370
    25
100
AcDbLine
 10
30.6243098394
 20
27.7849719411
 30
0.0
 11
30.6243098394
 21
27.9811136734
 31
0.0
  0
LINE
  5
3E3
330
1F
100
AcDbEntity
  8
0
  6
Continuous
 62
     7
370
    25
100
AcDbLine
 10
30.6462271623
 20
27.9811136734
 30
0.0
 11
30.6462271623
 21
27.9638262718
 31
0.0
  0
ARC
  5
3E4
330
1F
100
AcDbEntity
  8
0
  6
Continuous
 62
     7
370
    25
100
AcDbCircle
 10
30.7109626515
 20
27.9081356206
 30
0.0
 40
0.0826470521574837
100
AcDbArc
 50
358.0492886001
 51
84.7243679371
  0
LWPOLYLINE
  5
3E5
330
1F
100
AcDbEntity
  8
0
  6
Continuous
 62
     7
370
    25
100
AcDbPolyline
 90
       11
 70
   128
 43
0.0
 10
30.7935618079
 20
27.9053223348
 10
30.7931486932
 20
27.9015286791
 10
30.7920059061
 20
27.8984055041
 10
30.7902782819
 20
27.8959585922
 10
30.7869071035
 20
27.8935688668
 10
30.783034741
 20
27.89273326
 10
30.7791500138
 20
27.8934712875
 10
30.7757417415
 20
27.8958024652
 10
30.7739756494
 20
27.8982513046
 10
30.7727834036
 20
27.901422667
 10
30.7723098394
 20
27.9053223348
  0
ARC
  5
3E6
330
1F
100
AcDbEntity
  8
0
  6
Continuous
 62
     7
370
    25
100
AcDbCircle
 10
30.7108377875
 20
27.9063498656
 30
0.0
 40
0.0614806391321418
100
AcDbArc
 50
359.0423664934
 51
91.4607923061
  0
ARC
  5
3E7
330
1F
100
AcDbEntity
  8
0
  6
Continuous
 62
     7
370
    25
100
AcDbCircle
 10
30.7079836465
 20
27.9059514609
 30
0.0
 40
0.0618724459347679
100
AcDbArc
 50
88.8082766892
 51
183.0631862021
  0
LINE
  5
3E8
330
1F
100
AcDbEntity
  8
0
  6
Continuous
 62
     7
370
    25
100
AcDbLine
 10
30.6461996032
 20
27.9026451694
 30
0.0
 11
30.6461996032
 21
27.7849719411
 31
0.0
  0
ARC
  5
3E9
330
1F
100
AcDbEntity
  8
0
  6
Continuous
 62
     7
370
    25
100
AcDbCircle
 10
30.7114757096
 20
27.8980661871
 30
0.0
 40
0.0926377982568834
100
AcDbArc
 50
85.6130163839
 51
134.7762835668
  0
LWPOLYLINE
  5
3EA
330
1F
100
AcDbEntity
  8
0
  6
Continuous
 62
     7
370
    25
100
AcDbPolyline
 90
       11
 70
   128
 43
0.0
 10
30.6243098394
 20
27.9811136734
 10
30.6247117606
 20
27.9840972008
 10
30.6258890535
 20
27.9865806463
 10
30.6276868079
 20
27.9885512964
 10
30.6312079386
 20
27.9905179702
 10
30.6352537371
 20
27.9912593427
 10
30.639301381
 20
27.9907325064
 10
30.6428280481
 20
27.9888945543
 10
30.644631544
 20
27.9869196664
 10
30.6458162189
 20
27.9843302772
 10
30.6462271623
 20
27.9811136734
  0
LINE
  5
3EB
330
1F
100
AcDbEntity
  8
0
  6
Continuous
 62
     7
370
    25
100
AcDbLine
 10
30.9986602331
 20
27.9222002875
 30
0.0
 11
30.9226326741
 21
27.8457554057
 31
0.0
  0
LINE
  5
3EC
330
1F
100
AcDbEntity
  8
0
  6
Continuous
 62
     7
370
    25
100
AcDbLine
 10
30.9226326741
 20
27.8457554057
 30
0.0
 11
30.9213531465
 21
27.8456884765
 31
0.0
  0
LINE
  5
3ED
330
1F
100
AcDbEntity
  8
0
  6
Continuous
 62
     7
370
    25
100
AcDbLine
 10
30.9213531465
 20
27.8456884765
 30
0.0
 11
30.8452704694
 21
27.9241884765
 31
0.0
  0
LWPOLYLINE
  5
3EE
330
1F
100
AcDbEntity
  8
0
  6
Continuous
 62
     7
370
    25
100
AcDbPolyline
 90
        3
 70
   128
 43
0.0
 10
30.8452704694
 20
27.9241884765
 10
30.8496410374
 20
27.9314835604
 10
30.8535342489
 20
27.9372160356
  0
LWPOLYLINE
  5
3EF
330
1F
100
AcDbEntity
  8
0
  6
Continuous
 62
     7
370
    25
100
AcDbPolyline
 90
        3
 70
   128
 43
0.0
 10
30.8673009803
 20
27.9510806037
 10
30.859289346
 20
27.9437848288
 10
30.8535342489
 20
27.9372160356
  0
LWPOLYLINE
  5
3F0
330
1F
100
AcDbEntity
  8
0
  6
Continuous
 62
     7
370
    25
100
AcDbPolyline
 90
        3
 70
   128
 43
0.0
 10
30.8673009803
 20
27.9510806037
 10
30.8956007141
 20
27.9662303307
 10
30.9214791308
 20
27.9701884765
  0
LWPOLYLINE
  5
3F1
330
1F
100
AcDbEntity
  8
0
  6
Continuous
 62
     7
370
    25
100
AcDbPolyline
 90
        3
 70
   128
 43
0.0
 10
30.9214791308
 20
27.9701884765
 10
30.9550665542
 20
27.9633905788
 10
30.9773272085
 20
27.9496830044
  0
LWPOLYLINE
  5
3F2
330
1F
100
AcDbEntity
  8
0
  6
Continuous
 62
     7
370
    25
100
AcDbPolyline
 90
        3
 70
   128
 43
0.0
 10
30.9904397607
 20
27.9358695789
 10
30.9833897519
 20
27.944043815
 10
30.9773272085
 20
27.9496830044
  0
LWPOLYLINE
  5
3F3
330
1F
100
AcDbEntity
  8
0
  6
Continuous
 62
     7
370
    25
100
AcDbPolyline
 90
        3
 70
   128
 43
0.0
 10
30.9904397607
 20
27.9358695789
 10
30.9952309937
 20
27.9284069677
 10
30.9986602331
 20
27.9222002875
  0
ARC
  5
3F4
330
1F
100
AcDbEntity
  8
0
  6
Continuous
 62
     7
370
    25
100
AcDbCircle
 10
15.1027096898
 20
26.9132435946
 30
0.0
 40
0.0300393700787431
100
AcDbArc
 50
180.0
 51
270.0
  0
ARC
  5
3F5
330
1F
100
AcDbEntity
  8
0
  6
Continuous
 62
     7
370
    25
100
AcDbCircle
 10
33.042593304
 20
26.9132435946
 30
0.0
 40
0.0300393700787431
100
AcDbArc
 50
270.0
 51
0.0
  0
LWPOLYLINE
  5
3F6
330
1F
100
AcDbEntity
  8
0
  6
Continuous
 62
     7
370
    25
100
AcDbPolyline
 90
       17
 70
   128
 43
0.0
 10
30.9194082646
 20
27.6161412324
 10
30.6649224452
 20
27.6260606696
 10
30.4359324699
 20
27.6540452861
 10
30.241702556
 20
27.6974345395
 10
30.1244144162
 20
27.73848529
 10
30.0357982745
 20
27.7855821773
 10
29.9945797797
 20
27.8197847874
 10
29.9689994629
 20
27.8558431499
 10
29.9602153513
 20
27.893424697
 10
29.9689994629
 20
27.9308147205
 10
29.9945797797
 20
27.9667138484
 10
30.0357982745
 20
28.0007865326
 10
30.1244144162
 20
28.0477369663
 10
30.241702556
 20
28.088690445
 10
30.4359324699
 20
28.1320091239
 10
30.6649224452
 20
28.159968879
 10
30.9194082646
 20
28.1698853269
  0
LWPOLYLINE
  5
3F7
330
1F
100
AcDbEntity
  8
0
  6
Continuous
 62
     7
370
    25
100
AcDbPolyline
 90
       17
 70
   128
 43
0.0
 10
30.9194082646
 20
28.1698853269
 10
31.1738231997
 20
28.159968879
 10
31.4026450684
 20
28.1320091239
 10
31.5966587568
 20
28.088690445
 10
31.7137826879
 20
28.0477369663
 10
31.8022558901
 20
28.0007865326
 10
31.8434011379
 20
27.9667138484
 10
31.8689330054
 20
27.9308147205
 10
31.8776996032
 20
27.893424697
 10
31.8689330054
 20
27.8558431499
 10
31.8434011379
 20
27.8197847874
 10
31.8022558901
 20
27.7855821773
 10
31.7137826879
 20
27.73848529
 10
31.5966587568
 20
27.6974345395
 10
31.4026450684
 20
27.6540452861
 10
31.1738231997
 20
27.6260606696
 10
30.9194082646
 20
27.6161412324
  0
LINE
  5
3F8
330
1F
100
AcDbEntity
  8
0
  6
Continuous
 62
     7
370
    25
100
AcDbLine
 10
32.7864523213
 20
34.8781596297
 30
0.0
 11
32.7864523213
 21
34.8857326419
 31
0.0
  0
LINE
  5
3F9
330
1F
100
AcDbEntity
  8
0
  6
Continuous
 62
     7
370
    25
100
AcDbLine
 10
32.7157416432
 20
34.8781596297
 30
0.0
 11
32.7157416432
 21
34.8857326419
 31
0.0
  0
LINE
  5
3FA
330
1F
100
AcDbEntity
  8
0
  6
Continuous
 62
     7
370
    25
100
AcDbLine
 10
32.7157416432
 20
34.8857326419
 30
0.0
 11
32.7864523213
 21
34.8857326419
 31
0.0
  0
LINE
  5
3FB
330
1F
100
AcDbEntity
  8
0
  6
Continuous
 62
     7
370
    25
100
AcDbLine
 10
15.3588506725
 20
34.8857326419
 30
0.0
 11
15.1426703198
 21
34.8857326419
 31
0.0
  0
LINE
  5
3FC
330
1F
100
AcDbEntity
  8
0
  6
Continuous
 62
     7
370
    25
100
AcDbLine
 10
15.3588506725
 20
34.8781596297
 30
0.0
 11
15.3588506725
 21
34.8857326419
 31
0.0
  0
LINE
  5
3FD
330
1F
100
AcDbEntity
  8
0
  6
Continuous
 62
     7
370
    25
100
AcDbLine
 10
15.1426703198
 20
34.8857326419
 30
0.0
 11
15.1426703198
 21
34.8781596297
 31
0.0
  0
LINE
  5
3FE
330
1F
100
AcDbEntity
  8
0
  6
Continuous
 62
     7
370
    25
100
AcDbLine
 10
15.4295613506
 20
34.8781596297
 30
0.0
 11
15.4295613506
 21
34.8857326419
 31
0.0
  0
LINE
  5
3FF
330
1F
100
AcDbEntity
  8
0
  6
Continuous
 62
     7
370
    25
100
AcDbLine
 10
15.4295613506
 20
34.8857326419
 30
0.0
 11
15.3588506725
 21
34.8857326419
 31
0.0
  0
LINE
  5
400
330
1F
100
AcDbEntity
  8
0
  6
Continuous
 62
     7
370
    25
100
AcDbLine
 10
33.0026326741
 20
34.8857326419
 30
0.0
 11
33.0026326741
 21
34.8781596297
 31
0.0
  0
LINE
  5
401
330
1F
100
AcDbEntity
  8
0
  6
Continuous
 62
     7
370
    25
100
AcDbLine
 10
32.7864523213
 20
34.8857326419
 30
0.0
 11
33.0026326741
 21
34.8857326419
 31
0.0
  0
ARC
  5
402
330
1F
100
AcDbEntity
  8
0
  6
Continuous
 62
     7
370
    25
100
AcDbCircle
 10
15.1426703198
 20
34.8157326419
 30
0.0
 40
0.0700000000000033
100
AcDbArc
 50
90.0
 51
116.8979000177
  0
ARC
  5
403
330
1F
100
AcDbEntity
  8
0
  6
Continuous
 62
     7
370
    25
100
AcDbCircle
 10
33.0026326741
 20
34.8157326419
 30
0.0
 40
0.0700000000000033
100
AcDbArc
 50
63.1020999823
 51
90.0
  0
LINE
  5
404
330
1F
100
AcDbEntity
  8
0
  6
Continuous
 62
     7
370
    25
100
AcDbLine
 10
32.5426514998
 20
34.8857326419
 30
0.0
 11
32.7157416432
 21
34.8857326419
 31
0.0
  0
LINE
  5
405
330
1F
100
AcDbEntity
  8
0
  6
Continuous
 62
     7
370
    25
100
AcDbLine
 10
15.602651494
 20
34.8857326419
 30
0.0
 11
15.4295613506
 21
34.8857326419
 31
0.0
  0
LINE
  5
406
330
1F
100
AcDbEntity
  8
0
  6
Continuous
 62
     7
370
    18
100
AcDbLine
 10
15.3756479724
 20
27.2471596297
 30
0.0
 11
32.7670421229
 21
27.2471596297
 31
0.0
  0
DIMENSION
  5
407
330
1F
100
AcDbEntity
  8
DIMS
100
AcDbDimension
  2
_D_8
 10
33.9388738158
 20
34.8857326419
 30
0.0
 11
33.9388738158
 21
30.8477962097
 31
0.0
 70
   160
  1
<>
 71
     2
 42
-1.0
  3
SLDDIMSTYLE0
100
AcDbAlignedDimension
 13
33.042593304
 23
26.8832042245
 33
0.0
 14
33.0026326741
 24
34.8857326419
 34
0.0
 50
90.0
100
AcDbRotatedDimension
  0
DIMENSION
  5
412
330
1F
100
AcDbEntity
  8
DIMS
100
AcDbDimension
  2
_D_9
 10
15.0726703198
 20
35.2794334293
 30
0.0
 11
24.0547130303
 21
35.2794334293
 31
0.0
 70
   160
  1
<>
 71
     2
 42
-1.0
  3
SLDDIMSTYLE0
100
AcDbAlignedDimension
 13
33.0726326741
 23
34.8781596297
 33
0.0
 14
15.0726703198
 24
34.8781596297
 34
0.0
 50
0.0
100
AcDbRotatedDimension
  0
MTEXT
  5
41D
330
1F
100
AcDbEntity
  8
NOTES
100
AcDbMText
 10
15.1420742423
 20
26.5645527184
 30
0.0
 40
0.2916666667
 41
0.0
 71
     1
 72
     1
  1
Top view
  7
SLDTEXTSTYLE0
 73
     1
 44
1.0
  0
ENDSEC
  0
SECTION
  2
OBJECTS
  0
DICTIONARY
  5
C
330
0
100
AcDbDictionary
281
     1
  3
ACAD_GROUP
350
D
  3
ACAD_LAYOUT
350
1A
  3
ACAD_MLINESTYLE
350
17
  3
ACAD_PLOTSETTINGS
350
19
  3
ACAD_PLOTSTYLENAME
350
E
  3
ACAD_SCALELIST
350
47
  3
DWGPROPS
350
41E
  0
DICTIONARY
  5
D
102
{ACAD_REACTORS
330
C
102
}
330
C
100
AcDbDictionary
281
     1
  0
DICTIONARY
  5
1A
102
{ACAD_REACTORS
330
C
102
}
330
C
100
AcDbDictionary
281
     1
  3
Layout1
350
1E
  3
Layout2
350
26
  3
Model
350
22
  0
DICTIONARY
  5
17
102
{ACAD_REACTORS
330
C
102
}
330
C
100
AcDbDictionary
281
     1
  3
Standard
350
18
  0
DICTIONARY
  5
19
102
{ACAD_REACTORS
330
C
102
}
330
C
100
AcDbDictionary
281
     1
  0
ACDBDICTIONARYWDFLT
  5
E
102
{ACAD_REACTORS
330
C
102
}
330
C
100
AcDbDictionary
281
     1
  3
Normal
350
F
100
AcDbDictionaryWithDefault
340
F
  0
DICTIONARY
  5
47
102
{ACAD_REACTORS
330
C
102
}
330
C
100
AcDbDictionary
281
     1
  3
A0
350
48
  3
A1
350
49
  3
A2
350
4A
  3
A3
350
4B
  3
A4
350
4C
  3
A5
350
4D
  3
A6
350
4E
  3
A7
350
4F
  3
A8
350
50
  3
A9
350
51
  3
B0
350
52
  3
B1
350
53
  3
B2
350
54
  3
B3
350
55
  3
B4
350
56
  3
B5
350
57
  3
B6
350
58
  3
B7
350
59
  3
B8
350
5A
  3
B9
350
5B
  3
C0
350
5C
  3
C1
350
5D
  3
C2
350
5E
  3
C3
350
5F
  3
C4
350
60
  3
C5
350
61
  3
C6
350
62
  3
C7
350
63
  3
C8
350
64
  3
C9
350
65
  3
D0
350
66
  3
D1
350
67
  3
D2
350
68
  0
XRECORD
  5
41E
102
{ACAD_REACTORS
330
C
102
}
330
C
100
AcDbXrecord
280
     1
  1
DWGPROPS COOKIE
  2

  3

  4

  6

  7

  8
carl
  9

300
=
301
=
302
=
303
=
304
=
305
=
306
=
307
=
308
=
309
=
 40
0.0
 41
2460948.601023079
 42
2460948.60103015
  1

 90
        0
  0
LAYOUT
  5
1E
102
{ACAD_REACTORS
330
1A
102
}
330
1A
100
AcDbPlotSettings
  1

  2
none_device
  4

  6

 40
0.0
 41
0.0
 42
0.0
 43
0.0
 44
0.0
 45
0.0
 46
0.0
 47
0.0
 48
0.0
 49
0.0
140
0.0
141
0.0
142
1.0
143
1.0
 70
   688
 72
     0
 73
     0
 74
     5
  7

 75
    16
147
1.0
148
0.0
149
0.0
100
AcDbLayout
  1
Layout1
 70
     1
 71
     1
 10
0.0
 20
0.0
 11
12.0
 21
9.0
 12
0.0
 22
0.0
 32
0.0
 14
1.0000000000E+20
 24
1.0000000000E+20
 34
1.0000000000E+20
 15
-1.0000000000E+20
 25
-1.0000000000E+20
 35
-1.0000000000E+20
146
0.0
 13
0.0
 23
0.0
 33
0.0
 16
1.0
 26
0.0
 36
0.0
 17
0.0
 27
1.0
 37
0.0
 76
     0
330
1B
  0
LAYOUT
  5
26
102
{ACAD_REACTORS
330
1A
102
}
330
1A
100
AcDbPlotSettings
  1

  2
none_device
  4

  6

 40
0.0
 41
0.0
 42
0.0
 43
0.0
 44
0.0
 45
0.0
 46
0.0
 47
0.0
 48
0.0
 49
0.0
140
0.0
141
0.0
142
1.0
143
1.0
 70
   688
 72
     0
 73
     0
 74
     5
  7

 75
    16
147
1.0
148
0.0
149
0.0
100
AcDbLayout
  1
Layout2
 70
     1
 71
     2
 10
0.0
 20
0.0
 11
0.0
 21
0.0
 12
0.0
 22
0.0
 32
0.0
 14
0.0
 24
0.0
 34
0.0
 15
0.0
 25
0.0
 35
0.0
146
0.0
 13
0.0
 23
0.0
 33
0.0
 16
1.0
 26
0.0
 36
0.0
 17
0.0
 27
1.0
 37
0.0
 76
     0
330
23
  0
LAYOUT
  5
22
102
{ACAD_REACTORS
330
1A
102
}
330
1A
100
AcDbPlotSettings
  1

  2
none_device
  4
Letter_(8.50_x_11.00_Inches)
  6

 40
6.35
 41
6.35
 42
6.35000508
 43
6.35000508
 44
215.9
 45
279.4
 46
0.0
 47
0.0
 48
0.0
 49
0.0
140
0.0
141
0.0
142
1.0
143
1.0
 70
  1712
 72
     0
 73
     0
 74
     0
  7

 75
     0
147
1.0
148
0.0
149
0.0
100
AcDbLayout
  1
Model
 70
     1
 71
     0
 10
0.0
 20
0.0
 11
90.0
 21
46.0
 12
0.0
 22
0.0
 32
0.0
 14
0.0
 24
0.0
 34
0.0
 15
90.0
 25
46.0
 35
0.0
146
0.0
 13
0.0
 23
0.0
 33
0.0
 16
1.0
 26
0.0
 36
0.0
 17
0.0
 27
1.0
 37
0.0
 76
     0
330
1F
331
29
  0
MLINESTYLE
  5
18
102
{ACAD_REACTORS
330
17
102
}
330
17
100
AcDbMlineStyle
  2
Standard
 70
     0
  3

 62
   256
 51
90.0
 52
90.0
 71
     2
 49
0.5
 62
   256
  6
BYLAYER
 49
-0.5
 62
   256
  6
BYLAYER
  0
ACDBPLACEHOLDER
  5
F
102
{ACAD_REACTORS
330
E
102
}
330
E
  0
SCALE
  5
48
102
{ACAD_REACTORS
330
47
102
}
330
47
100
AcDbScale
 70
     0
300
1:1
140
1.0
141
1.0
290
     1
  0
SCALE
  5
49
102
{ACAD_REACTORS
330
47
102
}
330
47
100
AcDbScale
 70
     0
300
1:2
140
1.0
141
2.0
290
     0
  0
SCALE
  5
4A
102
{ACAD_REACTORS
330
47
102
}
330
47
100
AcDbScale
 70
     0
300
1:4
140
1.0
141
4.0
290
     0
  0
SCALE
  5
4B
102
{ACAD_REACTORS
330
47
102
}
330
47
100
AcDbScale
 70
     0
300
1:5
140
1.0
141
5.0
290
     0
  0
SCALE
  5
4C
102
{ACAD_REACTORS
330
47
102
}
330
47
100
AcDbScale
 70
     0
300
1:8
140
1.0
141
8.0
290
     0
  0
SCALE
  5
4D
102
{ACAD_REACTORS
330
47
102
}
330
47
100
AcDbScale
 70
     0
300
1:10
140
1.0
141
10.0
290
     0
  0
SCALE
  5
4E
102
{ACAD_REACTORS
330
47
102
}
330
47
100
AcDbScale
 70
     0
300
1:16
140
1.0
141
16.0
290
     0
  0
SCALE
  5
4F
102
{ACAD_REACTORS
330
47
102
}
330
47
100
AcDbScale
 70
     0
300
1:20
140
1.0
141
20.0
290
     0
  0
SCALE
  5
50
102
{ACAD_REACTORS
330
47
102
}
330
47
100
AcDbScale
 70
     0
300
1:30
140
1.0
141
30.0
290
     0
  0
SCALE
  5
51
102
{ACAD_REACTORS
330
47
102
}
330
47
100
AcDbScale
 70
     0
300
1:40
140
1.0
141
40.0
290
     0
  0
SCALE
  5
52
102
{ACAD_REACTORS
330
47
102
}
330
47
100
AcDbScale
 70
     0
300
1:50
140
1.0
141
50.0
290
     0
  0
SCALE
  5
53
102
{ACAD_REACTORS
330
47
102
}
330
47
100
AcDbScale
 70
     0
300
1:100
140
1.0
141
100.0
290
     0
  0
SCALE
  5
54
102
{ACAD_REACTORS
330
47
102
}
330
47
100
AcDbScale
 70
     0
300
2:1
140
2.0
141
1.0
290
     0
  0
SCALE
  5
55
102
{ACAD_REACTORS
330
47
102
}
330
47
100
AcDbScale
 70
     0
300
4:1
140
4.0
141
1.0
290
     0
  0
SCALE
  5
56
102
{ACAD_REACTORS
330
47
102
}
330
47
100
AcDbScale
 70
     0
300
8:1
140
8.0
141
1.0
290
     0
  0
SCALE
  5
57
102
{ACAD_REACTORS
330
47
102
}
330
47
100
AcDbScale
 70
     0
300
10:1
140
10.0
141
1.0
290
     0
  0
SCALE
  5
58
102
{ACAD_REACTORS
330
47
102
}
330
47
100
AcDbScale
 70
     0
300
100:1
140
100.0
141
1.0
290
     0
  0
SCALE
  5
59
102
{ACAD_REACTORS
330
47
102
}
330
47
100
AcDbScale
 70
     0
300
1/128" = 1'-0"
140
0.0078125
141
12.0
290
     0
  0
SCALE
  5
5A
102
{ACAD_REACTORS
330
47
102
}
330
47
100
AcDbScale
 70
     0
300
1/64" = 1'-0"
140
0.015625
141
12.0
290
     0
  0
SCALE
  5
5B
102
{ACAD_REACTORS
330
47
102
}
330
47
100
AcDbScale
 70
     0
300
1/32" = 1'-0"
140
0.03125
141
12.0
290
     0
  0
SCALE
  5
5C
102
{ACAD_REACTORS
330
47
102
}
330
47
100
AcDbScale
 70
     0
300
1/16" = 1'-0"
140
0.0625
141
12.0
290
     0
  0
SCALE
  5
5D
102
{ACAD_REACTORS
330
47
102
}
330
47
100
AcDbScale
 70
     0
300
3/32" = 1'-0"
140
0.09375
141
12.0
290
     0
  0
SCALE
  5
5E
102
{ACAD_REACTORS
330
47
102
}
330
47
100
AcDbScale
 70
     0
300
1/8" = 1'-0"
140
0.125
141
12.0
290
     0
  0
SCALE
  5
5F
102
{ACAD_REACTORS
330
47
102
}
330
47
100
AcDbScale
 70
     0
300
3/16" = 1'-0"
140
0.1875
141
12.0
290
     0
  0
SCALE
  5
60
102
{ACAD_REACTORS
330
47
102
}
330
47
100
AcDbScale
 70
     0
300
1/4" = 1'-0"
140
0.25
141
12.0
290
     0
  0
SCALE
  5
61
102
{ACAD_REACTORS
330
47
102
}
330
47
100
AcDbScale
 70
     0
300
3/8" = 1'-0"
140
0.375
141
12.0
290
     0
  0
SCALE
  5
62
102
{ACAD_REACTORS
330
47
102
}
330
47
100
AcDbScale
 70
     0
300
1/2" = 1'-0"
140
0.5
141
12.0
290
     0
  0
SCALE
  5
63
102
{ACAD_REACTORS
330
47
102
}
330
47
100
AcDbScale
 70
     0
300
3/4" = 1'-0"
140
0.75
141
12.0
290
     0
  0
SCALE
  5
64
102
{ACAD_REACTORS
330
47
102
}
330
47
100
AcDbScale
 70
     0
300
1" = 1'-0"
140
1.0
141
12.0
290
     0
  0
SCALE
  5
65
102
{ACAD_REACTORS
330
47
102
}
330
47
100
AcDbScale
 70
     0
300
1-1/2" = 1'-0"
140
1.5
141
12.0
290
     0
  0
SCALE
  5
66
102
{ACAD_REACTORS
330
47
102
}
330
47
100
AcDbScale
 70
     0
300
3" = 1'-0"
140
3.0
141
12.0
290
     0
  0
SCALE
  5
67
102
{ACAD_REACTORS
330
47
102
}
330
47
100
AcDbScale
 70
     0
300
6" = 1'-0"
140
6.0
141
12.0
290
     0
  0
SCALE
  5
68
102
{ACAD_REACTORS
330
47
102
}
330
47
100
AcDbScale
 70
     0
300
1'-0" = 1'-0"
140
12.0
141
12.0
290
     0
  0
ENDSEC
  0
EOF
