  0
SECTION
  2
HEADER
  9
$ACADVER
  1
AC1018
  9
$ACADMAINTVER
 70
    39
  9
$DWGCODEPAGE
  3
ANSI_1252
  9
$LASTSAVEDBY
  1
fottrem
  9
$INSBASE
 10
0.0
 20
0.0
 30
0.0
  9
$EXTMIN
 10
0.1653543307086614
 20
0.1653543307086614
 30
-14.72114888605114
  9
$EXTMAX
 10
80.20964566929135
 20
99.83464566929135
 30
4.631222854526543
  9
$LIMMIN
 10
0.0
 20
0.0
  9
$LIMMAX
 10
80.375
 20
100.0
  9
$ORTHOMODE
 70
     0
  9
$REGENMODE
 70
     1
  9
$FILLMODE
 70
     1
  9
$QTEXTMODE
 70
     0
  9
$MIRRTEXT
 70
     1
  9
$LTSCALE
 40
1.0
  9
$ATTMODE
 70
     1
  9
$TEXTSIZE
 40
0.7500000000000001
  9
$TRACEWID
 40
0.05
  9
$TEXTSTYLE
  7
Standard
  9
$CLAYER
  8
0
  9
$CELTYPE
  6
ByLayer
  9
$CECOLOR
 62
   256
  9
$CELTSCALE
 40
1.0
  9
$DISPSILH
 70
     0
  9
$DIMSCALE
 40
1.0
  9
$DIMASZ
 40
0.7500000000000001
  9
$DIMEXO
 40
0.1666666666666667
  9
$DIMDLI
 40
0.38
  9
$DIMRND
 40
0.0
  9
$DIMDLE
 40
0.0
  9
$DIMEXE
 40
0.3750000000000001
  9
$DIMTP
 40
0.0
  9
$DIMTM
 40
0.0
  9
$DIMTXT
 40
0.7500000000000001
  9
$DIMCEN
 40
0.09
  9
$DIMTSZ
 40
0.0
  9
$DIMTOL
 70
     0
  9
$DIMLIM
 70
     0
  9
$DIMTIH
 70
     1
  9
$DIMTOH
 70
     1
  9
$DIMSE1
 70
     0
  9
$DIMSE2
 70
     0
  9
$DIMTAD
 70
     0
  9
$DIMZIN
 70
     1
  9
$DIMBLK
  1

  9
$DIMASO
 70
     1
  9
$DIMSHO
 70
     1
  9
$DIMPOST
  1

  9
$DIMAPOST
  1

  9
$DIMALT
 70
     0
  9
$DIMALTD
 70
     2
  9
$DIMALTF
 40
25.4
  9
$DIMLFAC
 40
1.0
  9
$DIMTOFL
 70
     0
  9
$DIMTVP
 40
0.0
  9
$DIMTIX
 70
     0
  9
$DIMSOXD
 70
     0
  9
$DIMSAH
 70
     0
  9
$DIMBLK1
  1

  9
$DIMBLK2
  1

  9
$DIMSTYLE
  2
Standard
  9
$DIMCLRD
 70
     0
  9
$DIMCLRE
 70
     0
  9
$DIMCLRT
 70
     0
  9
$DIMTFAC
 40
1.0
  9
$DIMGAP
 40
0.125
  9
$DIMJUST
 70
     0
  9
$DIMSD1
 70
     0
  9
$DIMSD2
 70
     0
  9
$DIMTOLJ
 70
     1
  9
$DIMTZIN
 70
     1
  9
$DIMALTZ
 70
     0
  9
$DIMALTTZ
 70
     0
  9
$DIMUPT
 70
     0
  9
$DIMDEC
 70
     2
  9
$DIMTDEC
 70
     2
  9
$DIMALTU
 70
     2
  9
$DIMALTTD
 70
     2
  9
$DIMTXSTY
  7
Standard
  9
$DIMAUNIT
 70
     0
  9
$DIMADEC
 70
     2
  9
$DIMALTRND
 40
0.0
  9
$DIMAZIN
 70
     0
  9
$DIMDSEP
 70
    46
  9
$DIMATFIT
 70
     3
  9
$DIMFRAC
 70
     0
  9
$DIMLDRBLK
  1

  9
$DIMLUNIT
 70
     2
  9
$DIMLWD
 70
    -2
  9
$DIMLWE
 70
    -2
  9
$DIMTMOVE
 70
     0
  9
$LUNITS
 70
     2
  9
$LUPREC
 70
     4
  9
$SKETCHINC
 40
0.1
  9
$FILLETRAD
 40
0.5
  9
$AUNITS
 70
     0
  9
$AUPREC
 70
     2
  9
$MENU
  1
.
  9
$ELEVATION
 40
0.0
  9
$PELEVATION
 40
0.0
  9
$THICKNESS
 40
0.0
  9
$LIMCHECK
 70
     0
  9
$CHAMFERA
 40
0.0
  9
$CHAMFERB
 40
0.0
  9
$CHAMFERC
 40
0.0
  9
$CHAMFERD
 40
0.0
  9
$SKPOLY
 70
     0
  9
$TDCREATE
 40
2453353.550459155
  9
$TDUCREATE
 40
2453353.717125822
  9
$TDUPDATE
 40
2459452.652589387
  9
$TDUUPDATE
 40
2459452.819256053
  9
$TDINDWG
 40
0.0439467477
  9
$TDUSRTIMER
 40
0.0439467477
  9
$USRTIMER
 70
     1
  9
$ANGBASE
 50
0.0
  9
$ANGDIR
 70
     0
  9
$PDMODE
 70
     0
  9
$PDSIZE
 40
-1.0
  9
$PLINEWID
 40
0.0
  9
$SPLFRAME
 70
     0
  9
$SPLINETYPE
 70
     6
  9
$SPLINESEGS
 70
     8
  9
$HANDSEED
  5
360
  9
$SURFTAB1
 70
     6
  9
$SURFTAB2
 70
     6
  9
$SURFTYPE
 70
     6
  9
$SURFU
 70
     6
  9
$SURFV
 70
     6
  9
$UCSBASE
  2

  9
$UCSNAME
  2

  9
$UCSORG
 10
0.0
 20
0.0
 30
0.0
  9
$UCSXDIR
 10
1.0
 20
0.0
 30
0.0
  9
$UCSYDIR
 10
0.0
 20
1.0
 30
0.0
  9
$UCSORTHOREF
  2

  9
$UCSORTHOVIEW
 70
     0
  9
$UCSORGTOP
 10
0.0
 20
0.0
 30
0.0
  9
$UCSORGBOTTOM
 10
0.0
 20
0.0
 30
0.0
  9
$UCSORGLEFT
 10
0.0
 20
0.0
 30
0.0
  9
$UCSORGRIGHT
 10
0.0
 20
0.0
 30
0.0
  9
$UCSORGFRONT
 10
0.0
 20
0.0
 30
0.0
  9
$UCSORGBACK
 10
0.0
 20
0.0
 30
0.0
  9
$PUCSBASE
  2

  9
$PUCSNAME
  2

  9
$PUCSORG
 10
0.0
 20
0.0
 30
0.0
  9
$PUCSXDIR
 10
1.0
 20
0.0
 30
0.0
  9
$PUCSYDIR
 10
0.0
 20
1.0
 30
0.0
  9
$PUCSORTHOREF
  2

  9
$PUCSORTHOVIEW
 70
     0
  9
$PUCSORGTOP
 10
0.0
 20
0.0
 30
0.0
  9
$PUCSORGBOTTOM
 10
0.0
 20
0.0
 30
0.0
  9
$PUCSORGLEFT
 10
0.0
 20
0.0
 30
0.0
  9
$PUCSORGRIGHT
 10
0.0
 20
0.0
 30
0.0
  9
$PUCSORGFRONT
 10
0.0
 20
0.0
 30
0.0
  9
$PUCSORGBACK
 10
0.0
 20
0.0
 30
0.0
  9
$USERI1
 70
     0
  9
$USERI2
 70
     0
  9
$USERI3
 70
     0
  9
$USERI4
 70
     0
  9
$USERI5
 70
     0
  9
$USERR1
 40
0.0
  9
$USERR2
 40
0.0
  9
$USERR3
 40
0.0
  9
$USERR4
 40
0.0
  9
$USERR5
 40
0.0
  9
$WORLDVIEW
 70
     1
  9
$SHADEDGE
 70
     3
  9
$SHADEDIF
 70
    70
  9
$TILEMODE
 70
     1
  9
$MAXACTVP
 70
    64
  9
$PINSBASE
 10
0.0
 20
0.0
 30
0.0
  9
$PLIMCHECK
 70
     0
  9
$PEXTMIN
 10
1.000000000000000E+20
 20
1.000000000000000E+20
 30
1.000000000000000E+20
  9
$PEXTMAX
 10
-1.000000000000000E+20
 20
-1.000000000000000E+20
 30
-1.000000000000000E+20
  9
$PLIMMIN
 10
0.0
 20
0.0
  9
$PLIMMAX
 10
12.0
 20
9.0
  9
$UNITMODE
 70
     0
  9
$VISRETAIN
 70
     1
  9
$PLINEGEN
 70
     0
  9
$PSLTSCALE
 70
     1
  9
$TREEDEPTH
 70
  3020
  9
$CMLSTYLE
  2
Standard
  9
$CMLJUST
 70
     0
  9
$CMLSCALE
 40
1.0
  9
$PROXYGRAPHICS
 70
     1
  9
$MEASUREMENT
 70
     0
  9
$CELWEIGHT
370
    -1
  9
$ENDCAPS
280
     0
  9
$JOINSTYLE
280
     0
  9
$LWDISPLAY
290
     1
  9
$INSUNITS
 70
     1
  9
$HYPERLINKBASE
  1

  9
$STYLESHEET
  1

  9
$XEDIT
290
     0
  9
$CEPSNTYPE
380
     0
  9
$PSTYLEMODE
290
     1
  9
$FINGERPRINTGUID
  2
{f47fa0ab-f403-4bc8-b2c7-5ab5c08d87b0}
  9
$VERSIONGUID
  2
{FAEB1C32-E019-11D5-929B-00C0DF256EC4}
  9
$EXTNAMES
290
     1
  9
$PSVPSCALE
 40
0.0
  9
$OLESTARTUP
290
     0
  9
$SORTENTS
280
   127
  9
$INDEXCTL
280
     0
  9
$HIDETEXT
280
     1
  9
$XCLIPFRAME
290
     0
  9
$HALOGAP
280
     0
  9
$OBSCOLOR
 70
   257
  9
$OBSLTYPE
280
     0
  9
$INTERSECTIONDISPLAY
280
     0
  9
$INTERSECTIONCOLOR
 70
   257
  9
$DIMASSOC
280
     2
  9
$PROJECTNAME
  1

  0
ENDSEC
  0
SECTION
  2
CLASSES
  0
CLASS
  1
ACDBDICTIONARYWDFLT
  2
AcDbDictionaryWithDefault
  3
ObjectDBX Classes
 90
        0
 91
        3
280
     0
281
     0
  0
CLASS
  1
ACDBPLACEHOLDER
  2
AcDbPlaceHolder
  3
ObjectDBX Classes
 90
        0
 91
        1
280
     0
281
     0
  0
CLASS
  1
LAYOUT
  2
AcDbLayout
  3
ObjectDBX Classes
 90
        0
 91
        1
280
     0
281
     0
  0
CLASS
  1
DICTIONARYVAR
  2
AcDbDictionaryVar
  3
ObjectDBX Classes
 90
        0
 91
        3
280
     0
281
     0
  0
CLASS
  1
TABLESTYLE
  2
AcDbTableStyle
  3
ObjectDBX Classes
 90
     2047
 91
        3
280
     0
281
     0
  0
CLASS
  1
SCALE
  2
AcDbScale
  3
ObjectDBX Classes
 90
     1153
 91
       67
280
     1
281
     0
  0
ENDSEC
  0
SECTION
  2
TABLES
  0
TABLE
  2
VPORT
  5
8
330
0
100
AcDbSymbolTable
 70
     2
  0
VPORT
  5
97
330
8
100
AcDbSymbolTableRecord
100
AcDbViewportTableRecord
  2
*Active
 70
     0
 10
0.0
 20
0.0
 11
1.0
 21
1.0
 12
59.55402400586055
 22
3.343024256190748
 13
0.0
 23
0.0
 14
0.5
 24
0.5
 15
0.5
 25
0.5
 16
0.0
 26
0.0
 36
1.0
 17
0.0
 27
0.0
 37
0.0
 40
28.74761040988358
 41
0.80375
 42
50.0
 43
0.0
 44
0.0
 50
0.0
 51
0.0
 71
    16
 72
  2000
 73
     1
 74
     1
 75
     0
 76
     0
 77
     0
 78
     0
281
     0
 65
     0
110
0.0
120
0.0
130
0.0
111
1.0
121
0.0
131
0.0
112
0.0
122
1.0
132
0.0
 79
     0
146
0.0
  0
ENDTAB
  0
TABLE
  2
LTYPE
  5
5
330
0
100
AcDbSymbolTable
 70
     8
  0
LTYPE
  5
14
330
5
100
AcDbSymbolTableRecord
100
AcDbLinetypeTableRecord
  2
ByBlock
 70
     0
  3

 72
    65
 73
     0
 40
0.0
  0
LTYPE
  5
15
330
5
100
AcDbSymbolTableRecord
100
AcDbLinetypeTableRecord
  2
ByLayer
 70
     0
  3

 72
    65
 73
     0
 40
0.0
  0
LTYPE
  5
16
330
5
100
AcDbSymbolTableRecord
100
AcDbLinetypeTableRecord
  2
Continuous
 70
     0
  3
Solid line
 72
    65
 73
     0
 40
0.0
  0
LTYPE
  5
341
330
5
100
AcDbSymbolTableRecord
100
AcDbLinetypeTableRecord
  2
SLD-Solid
 70
     0
  3
SolidWorks Line Style
 72
    65
 73
     0
 40
0.0
  0
LTYPE
  5
342
330
5
100
AcDbSymbolTableRecord
100
AcDbLinetypeTableRecord
  2
SLD-Dashed
 70
     0
  3
SolidWorks Line Style
 72
    65
 73
     2
 40
0.075
 49
0.05
 74
     4
 75
     0
340
0
 46
1.0
 50
0.0
 44
0.0
 45
0.0
 49
-0.025
 74
     4
 75
     0
340
0
 46
1.0
 50
0.0
 44
0.0
 45
0.0
  0
LTYPE
  5
343
330
5
100
AcDbSymbolTableRecord
100
AcDbLinetypeTableRecord
  2
SLD-Phantom
 70
     0
  3
SolidWorks Line Style
 72
    65
 73
     6
 40
0.4999999999999999
 49
0.25
 74
     4
 75
     0
340
0
 46
1.0
 50
0.0
 44
0.0
 45
0.0
 49
-0.05
 74
     4
 75
     0
340
0
 46
1.0
 50
0.0
 44
0.0
 45
0.0
 49
0.05
 74
     4
 75
     0
340
0
 46
1.0
 50
0.0
 44
0.0
 45
0.0
 49
-0.05
 74
     4
 75
     0
340
0
 46
1.0
 50
0.0
 44
0.0
 45
0.0
 49
0.05
 74
     4
 75
     0
340
0
 46
1.0
 50
0.0
 44
0.0
 45
0.0
 49
-0.05
 74
     4
 75
     0
340
0
 46
1.0
 50
0.0
 44
0.0
 45
0.0
  0
LTYPE
  5
344
330
5
100
AcDbSymbolTableRecord
100
AcDbLinetypeTableRecord
  2
SLD-Chain
 70
     0
  3
SolidWorks Line Style
 72
    65
 73
     4
 40
0.4
 49
0.25
 74
     4
 75
     0
340
0
 46
1.0
 50
0.0
 44
0.0
 45
0.0
 49
-0.05
 74
     4
 75
     0
340
0
 46
1.0
 50
0.0
 44
0.0
 45
0.0
 49
0.05
 74
     4
 75
     0
340
0
 46
1.0
 50
0.0
 44
0.0
 45
0.0
 49
-0.05
 74
     4
 75
     0
340
0
 46
1.0
 50
0.0
 44
0.0
 45
0.0
  0
LTYPE
  5
345
330
5
100
AcDbSymbolTableRecord
100
AcDbLinetypeTableRecord
  2
SLD-Center
 70
     0
  3
SolidWorks Line Style
 72
    65
 73
     4
 40
0.7500000000000002
 49
0.6000000000000001
 74
     4
 75
     0
340
0
 46
1.0
 50
0.0
 44
0.0
 45
0.0
 49
-0.05
 74
     4
 75
     0
340
0
 46
1.0
 50
0.0
 44
0.0
 45
0.0
 49
0.05
 74
     4
 75
     0
340
0
 46
1.0
 50
0.0
 44
0.0
 45
0.0
 49
-0.05
 74
     4
 75
     0
340
0
 46
1.0
 50
0.0
 44
0.0
 45
0.0
  0
LTYPE
  5
346
330
5
100
AcDbSymbolTableRecord
100
AcDbLinetypeTableRecord
  2
SLD-Stitch
 70
     0
  3
SolidWorks Line Style
 72
    65
 73
     2
 40
0.025
 49
0.0
 74
     4
 75
     0
340
0
 46
1.0
 50
0.0
 44
0.0
 45
0.0
 49
-0.025
 74
     4
 75
     0
340
0
 46
1.0
 50
0.0
 44
0.0
 45
0.0
  0
LTYPE
  5
347
330
5
100
AcDbSymbolTableRecord
100
AcDbLinetypeTableRecord
  2
SLD-Thin-Thick-Chain
 70
     0
  3
SolidWorks Line Style
 72
    65
 73
     4
 40
0.4
 49
0.25
 74
     4
 75
     0
340
0
 46
1.0
 50
0.0
 44
0.0
 45
0.0
 49
-0.05
 74
     4
 75
     0
340
0
 46
1.0
 50
0.0
 44
0.0
 45
0.0
 49
0.05
 74
     4
 75
     0
340
0
 46
1.0
 50
0.0
 44
0.0
 45
0.0
 49
-0.05
 74
     4
 75
     0
340
0
 46
1.0
 50
0.0
 44
0.0
 45
0.0
  0
ENDTAB
  0
TABLE
  2
LAYER
  5
2
330
0
100
AcDbSymbolTable
 70
     6
  0
LAYER
  5
10
330
2
100
AcDbSymbolTableRecord
100
AcDbLayerTableRecord
  2
0
 70
     0
 62
     7
  6
Continuous
370
    -3
390
F
  0
LAYER
  5
320
330
2
100
AcDbSymbolTableRecord
100
AcDbLayerTableRecord
  2
FORMAT
 70
     0
 62
     7
  6
SLD-Solid
370
    -3
390
F
  0
LAYER
  5
321
330
2
100
AcDbSymbolTableRecord
100
AcDbLayerTableRecord
  2
NOTES
 70
     0
 62
     1
  6
SLD-Solid
370
    -3
390
F
  0
LAYER
  5
77
330
2
100
AcDbSymbolTableRecord
100
AcDbLayerTableRecord
  2
OBJECT
 70
     0
 62
     7
  6
SLD-Solid
370
    -3
390
F
  0
LAYER
  5
78
330
2
100
AcDbSymbolTableRecord
100
AcDbLayerTableRecord
  2
DIMS
 70
     0
 62
     5
  6
SLD-Solid
370
    -3
390
F
  0
LAYER
  5
79
330
2
100
AcDbSymbolTableRecord
100
AcDbLayerTableRecord
  2
TITLE
 70
     0
 62
     8
  6
SLD-Solid
370
    -3
390
F
  0
ENDTAB
  0
TABLE
  2
STYLE
  5
3
330
0
100
AcDbSymbolTable
 70
     5
  0
STYLE
  5
11
330
3
100
AcDbSymbolTableRecord
100
AcDbTextStyleTableRecord
  2
Standard
 70
     0
 40
0.0
 41
1.0
 50
0.0
 71
     0
 42
0.7500000000000001
  3
GOTHIC.TTF
  4

1001
ACAD
1000
CENTURY GOTHIC
1071
       34
  0
STYLE
  5
13D
330
3
100
AcDbSymbolTableRecord
100
AcDbTextStyleTableRecord
  2
SLDTEXTSTYLE0
 70
     0
 40
0.0
 41
0.948
 50
0.0
 71
     0
 42
0.7500000000000001
  3
ARIAL.TTF
  4

1001
ACAD
1000
Arial
1071
      290
  0
STYLE
  5
141
330
3
100
AcDbSymbolTableRecord
100
AcDbTextStyleTableRecord
  2
SLDTEXTSTYLE1
 70
     0
 40
0.0
 41
0.913
 50
0.0
 71
     0
 42
0.7500000000000001
  3
GOTHIC.TTF
  4

1001
ACAD
1000
Century Gothic
1071
      290
  0
STYLE
  5
150
330
3
100
AcDbSymbolTableRecord
100
AcDbTextStyleTableRecord
  2
SLDTEXTSTYLE2
 70
     0
 40
0.0
 41
0.87
 50
0.0
 71
     0
 42
0.7500000000000001
  3
ARIALNB.TTF
  4

1001
ACAD
1000
Arial Narrow
1071
 33554722
  0
STYLE
  5
152
330
3
100
AcDbSymbolTableRecord
100
AcDbTextStyleTableRecord
  2
SLDTEXTSTYLE3
 70
     0
 40
0.0
 41
0.87
 50
0.0
 71
     0
 42
0.7500000000000001
  3
ARIALN.TTF
  4

1001
ACAD
1000
Arial Narrow
1071
      290
  0
ENDTAB
  0
TABLE
  2
VIEW
  5
6
330
0
100
AcDbSymbolTable
 70
     0
  0
ENDTAB
  0
TABLE
  2
UCS
  5
7
330
0
100
AcDbSymbolTable
 70
     0
  0
ENDTAB
  0
TABLE
  2
APPID
  5
9
330
0
100
AcDbSymbolTable
 70
     1
  0
APPID
  5
12
330
9
100
AcDbSymbolTableRecord
100
AcDbRegAppTableRecord
  2
ACAD
 70
     0
  0
ENDTAB
  0
TABLE
  2
DIMSTYLE
  5
A
330
0
100
AcDbSymbolTable
 70
     5
100
AcDbDimStyleTable
  0
DIMSTYLE
105
27
330
A
100
AcDbSymbolTableRecord
100
AcDbDimStyleTableRecord
  2
Standard
 70
     0
340
11
  0
DIMSTYLE
105
224
102
{ACAD_REACTORS
330
223
330
2FF
102
}
330
A
100
AcDbSymbolTableRecord
100
AcDbDimStyleTableRecord
  2
SLDDIMSTYLE0
 70
     0
 41
0.7500000000000001
 44
0.0
 45
0.000000001
 78
    12
 79
     3
140
0.7500000000000001
147
0.1875
173
     1
271
     6
272
     2
276
     2
277
     5
284
    12
340
141
341
348
343
348
344
348
  0
DIMSTYLE
105
23A
102
{ACAD_REACTORS
330
239
102
}
330
A
100
AcDbSymbolTableRecord
100
AcDbDimStyleTableRecord
  2
SLDDIMSTYLE1
 70
     0
 41
0.7500000000000001
 44
0.0
 45
0.000000001
 78
    12
 79
     3
140
0.7500000000000001
147
0.1875
172
     1
173
     1
271
     6
272
     2
276
     2
277
     5
284
    12
289
     0
340
141
341
348
343
348
344
348
  0
DIMSTYLE
105
262
102
{ACAD_REACTORS
330
261
330
26F
102
}
330
A
100
AcDbSymbolTableRecord
100
AcDbDimStyleTableRecord
  2
SLDDIMSTYLE2
 70
     0
 41
0.7500000000000001
 44
0.0
 45
0.000000001
 78
    12
 79
     3
140
0.7500000000000001
141
0.0
147
0.1875
173
     1
271
     2
272
     2
276
     2
277
     5
284
    12
340
141
341
348
343
348
344
348
  0
DIMSTYLE
105
311
330
A
100
AcDbSymbolTableRecord
100
AcDbDimStyleTableRecord
  2
SLDDIMSTYLE3
 70
     0
 41
0.7500000000000001
 44
0.0
 45
0.000000001
146
0.7500000000000001
147
0.0
173
     1
271
     0
272
     0
276
     2
277
     5
340
11
341
348
343
348
344
348
  0
ENDTAB
  0
TABLE
  2
BLOCK_RECORD
  5
1
330
0
100
AcDbSymbolTable
 70
     9
  0
BLOCK_RECORD
  5
1F
330
1
100
AcDbSymbolTableRecord
100
AcDbBlockTableRecord
  2
*Model_Space
340
22
  0
BLOCK_RECORD
  5
73
330
1
100
AcDbSymbolTableRecord
100
AcDbBlockTableRecord
  2
*Paper_Space
340
74
  0
BLOCK_RECORD
  5
348
330
1
100
AcDbSymbolTableRecord
100
AcDbBlockTableRecord
  2
_Open90
340
0
102
{BLKREFS
331
22E
331
22F
331
23E
331
23F
331
266
331
273
331
303
331
304
331
27F
331
281
102
}
  0
BLOCK_RECORD
  5
23
330
1
100
AcDbSymbolTableRecord
100
AcDbBlockTableRecord
  2
*Paper_Space1
340
26
  0
BLOCK_RECORD
  5
147
330
1
100
AcDbSymbolTableRecord
100
AcDbBlockTableRecord
  2
SW_NOTE_0
340
0
  0
BLOCK_RECORD
  5
14D
330
1
100
AcDbSymbolTableRecord
100
AcDbBlockTableRecord
  2
SW_NOTE_0_1
340
0
102
{BLKREFS
331
156
102
}
  0
BLOCK_RECORD
  5
22B
330
1
100
AcDbSymbolTableRecord
100
AcDbBlockTableRecord
  2
_D
340
0
  0
BLOCK_RECORD
  5
23B
330
1
100
AcDbSymbolTableRecord
100
AcDbBlockTableRecord
  2
_D_1
340
0
  0
BLOCK_RECORD
  5
263
330
1
100
AcDbSymbolTableRecord
100
AcDbBlockTableRecord
  2
_D_2
340
0
  0
BLOCK_RECORD
  5
270
330
1
100
AcDbSymbolTableRecord
100
AcDbBlockTableRecord
  2
_D_3
340
0
  0
BLOCK_RECORD
  5
300
330
1
100
AcDbSymbolTableRecord
100
AcDbBlockTableRecord
  2
_D_4
340
0
  0
ENDTAB
  0
ENDSEC
  0
SECTION
  2
BLOCKS
  0
BLOCK
  5
20
330
1F
100
AcDbEntity
  8
0
100
AcDbBlockBegin
  2
*Model_Space
 70
     0
 71
     0
 10
0.0
 20
0.0
 30
0.0
  3
*Model_Space
  1

  0
ENDBLK
  5
21
330
1F
100
AcDbEntity
  8
0
100
AcDbBlockEnd
  0
BLOCK
  5
75
330
73
100
AcDbEntity
 67
     1
  8
0
100
AcDbBlockBegin
  2
*Paper_Space
 70
     0
 71
     0
 10
0.0
 20
0.0
 30
0.0
  3
*Paper_Space
  1

  0
ENDBLK
  5
76
330
73
100
AcDbEntity
 67
     1
  8
0
100
AcDbBlockEnd
  0
BLOCK
  5
349
330
348
100
AcDbEntity
  8
0
100
AcDbBlockBegin
  2
_Open90
 70
     0
 71
     0
 10
0.0
 20
0.0
 30
0.0
  3
_Open90
  1

  0
LINE
  5
228
330
348
100
AcDbEntity
  8
0
  6
ByBlock
 62
     0
370
    -2
100
AcDbLine
 10
-0.5
 20
0.5
 30
0.0
 11
0.0
 21
0.0
 31
0.0
  0
LINE
  5
229
330
348
100
AcDbEntity
  8
0
  6
ByBlock
 62
     0
370
    -2
100
AcDbLine
 10
0.0
 20
0.0
 30
0.0
 11
-0.5
 21
-0.5
 31
0.0
  0
LINE
  5
22A
330
348
100
AcDbEntity
  8
0
  6
ByBlock
 62
     0
370
    -2
100
AcDbLine
 10
0.0
 20
0.0
 30
0.0
 11
-1.0
 21
0.0
 31
0.0
  0
ENDBLK
  5
34A
330
348
100
AcDbEntity
  8
0
100
AcDbBlockEnd
  0
BLOCK
  5
350
330
23
100
AcDbEntity
  8
0
100
AcDbBlockBegin
  2
*Paper_Space1
 70
     0
 71
     0
 10
0.0
 20
0.0
 30
0.0
  3
*Paper_Space1
  1

  0
ENDBLK
  5
351
330
23
100
AcDbEntity
  8
0
100
AcDbBlockEnd
  0
BLOCK
  5
352
330
147
100
AcDbEntity
  8
0
100
AcDbBlockBegin
  2
SW_NOTE_0
 70
     0
 71
     0
 10
0.0
 20
0.0
 30
0.0
  3
SW_NOTE_0
  1

  0
MTEXT
  5
14A
330
147
100
AcDbEntity
  8
NOTES
 62
     0
100
AcDbMText
 10
0.0
 20
0.3759780907668229
 30
0.0
 40
0.2916666666666666
 41
0.0
 71
     1
 72
     1
  1
FROST PRODUCTS LTD.
  7
SLDTEXTSTYLE0
 73
     1
 44
1.0
  0
MTEXT
  5
14B
330
147
100
AcDbEntity
  8
NOTES
 62
     0
100
AcDbMText
 10
0.0
 20
-0.0495142708586375
 30
0.0
 40
0.2291666666666666
 41
0.0
 71
     1
 72
     1
  1
5280 JOHN LUCUS DRIVE, BURLINGTON, ON, L7L 5Z9
  7
SLDTEXTSTYLE0
 73
     1
 44
1.0
  0
ENDBLK
  5
353
330
147
100
AcDbEntity
  8
0
100
AcDbBlockEnd
  0
BLOCK
  5
354
330
14D
100
AcDbEntity
  8
0
100
AcDbBlockBegin
  2
SW_NOTE_0_1
 70
     0
 71
     0
 10
0.0
 20
0.0
 30
0.0
  3
SW_NOTE_0_1
  1

  0
MTEXT
  5
151
330
14D
100
AcDbEntity
  8
NOTES
 62
     0
100
AcDbMText
 10
0.0
 20
0.2381282770514712
 30
0.0
 40
0.1847290640394089
 41
0.0
 71
     1
 72
     1
  1
PROPRIETARY AND CONFIDENTIAL
  7
SLDTEXTSTYLE2
 73
     1
 44
1.0
  0
MTEXT
  5
153
330
14D
100
AcDbEntity
  8
NOTES
 62
     0
100
AcDbMText
 10
0.0
 20
-0.0504364795553608
 30
0.0
 40
0.25
 41
0.0
 71
     1
 72
     1
  1
THE INFORMATION CONTAINED IN THIS DRAWING IS THE SOLE PROPERTY OF 
  7
SLDTEXTSTYLE3
 73
     1
 44
1.0
  0
MTEXT
  5
154
330
14D
100
AcDbEntity
  8
NOTES
 62
     0
100
AcDbMText
 10
0.0
 20
-0.4231398940537119
 30
0.0
 40
0.25
 41
0.0
 71
     1
 72
     1
  1
FROST PRODUCTS LTD.  ANY REPRODUCTION IN PART OR AS A WHOLE WITHOUT 
  7
SLDTEXTSTYLE3
 73
     1
 44
1.0
  0
MTEXT
  5
155
330
14D
100
AcDbEntity
  8
NOTES
 62
     0
100
AcDbMText
 10
0.0
 20
-0.7958433085520636
 30
0.0
 40
0.25
 41
0.0
 71
     1
 72
     1
  1
THE WRITTEN PERMISSION OF FROST PRODUCTS LTD. IS PROHIBITED.
  7
SLDTEXTSTYLE3
 73
     1
 44
1.0
  0
ENDBLK
  5
355
330
14D
100
AcDbEntity
  8
0
100
AcDbBlockEnd
  0
BLOCK
  5
356
330
22B
100
AcDbEntity
  8
0
100
AcDbBlockBegin
  2
_D
 70
     0
 71
     0
 10
0.0
 20
0.0
 30
0.0
  3
_D
  1

  0
INSERT
  5
22E
330
22B
100
AcDbEntity
  8
DIMS
100
AcDbBlockReference
  2
_Open90
 10
51.51560819842955
 20
48.62126921183594
 30
0.0
 41
0.7500000000000001
 42
0.7500000000000001
 50
90.00000000000041
  0
INSERT
  5
22F
330
22B
100
AcDbEntity
  8
DIMS
100
AcDbBlockReference
  2
_Open90
 10
51.51560819842955
 20
19.17897143973365
 30
0.0
 41
0.7500000000000001
 42
0.7500000000000001
 50
270.0000000000004
  0
LINE
  5
230
330
22B
100
AcDbEntity
  8
DIMS
100
AcDbLine
 10
51.25102473492029
 20
33.6572516012977
 30
0.0
 11
52.57914983230584
 21
33.6572516012977
 31
0.0
  0
LINE
  5
231
330
22B
100
AcDbEntity
  8
DIMS
100
AcDbLine
 10
48.72274666890839
 20
48.62126921183594
 30
0.0
 11
51.89060819842955
 21
48.62126921183594
 31
0.0
  0
LINE
  5
232
330
22B
100
AcDbEntity
  8
DIMS
100
AcDbLine
 10
48.52502146669205
 20
19.17897143973365
 30
0.0
 11
51.89060819842955
 21
19.17897143973365
 31
0.0
  0
LINE
  5
233
330
22B
100
AcDbEntity
  8
DIMS
100
AcDbLine
 10
51.51560819842955
 20
48.62126921183594
 30
0.0
 11
51.51560819842955
 21
34.56110578823034
 31
0.0
  0
LINE
  5
234
330
22B
100
AcDbEntity
  8
DIMS
100
AcDbLine
 10
51.51560819842955
 20
19.17897143973365
 30
0.0
 11
51.51560819842955
 21
32.59954318170227
 31
0.0
  0
MTEXT
  5
235
330
22B
100
AcDbEntity
  8
DIMS
100
AcDbMText
 10
50.03279555467441
 20
34.00135318736149
 30
0.0
 40
0.7500000000000001
 41
0.0
 71
     1
 72
     1
  1
29
  7
SLDTEXTSTYLE1
 73
     1
 44
1.0
  0
MTEXT
  5
236
330
22B
100
AcDbEntity
  8
DIMS
100
AcDbMText
 10
51.63800394950339
 20
34.54932192217991
 30
0.0
 40
0.7500000000000001
 41
0.0
 71
     1
 72
     1
  1
7
  7
SLDTEXTSTYLE1
 73
     1
 44
1.0
  0
MTEXT
  5
237
330
22B
100
AcDbEntity
  8
DIMS
100
AcDbMText
 10
51.36092061539371
 20
33.55755105607658
 30
0.0
 40
0.7500000000000001
 41
0.0
 71
     1
 72
     1
  1
16
  7
SLDTEXTSTYLE1
 73
     1
 44
1.0
  0
MTEXT
  5
238
330
22B
100
AcDbEntity
  8
DIMS
100
AcDbMText
 10
52.68904574944549
 20
34.00135318736149
 30
0.0
 40
0.7500000000000001
 41
0.0
 71
     1
 72
     1
  1
"
  7
SLDTEXTSTYLE1
 73
     1
 44
1.0
  0
ENDBLK
  5
357
330
22B
100
AcDbEntity
  8
0
100
AcDbBlockEnd
  0
BLOCK
  5
358
330
23B
100
AcDbEntity
  8
0
100
AcDbBlockBegin
  2
_D_1
 70
     0
 71
     0
 10
0.0
 20
0.0
 30
0.0
  3
_D_1
  1

  0
INSERT
  5
23E
330
23B
100
AcDbEntity
  8
DIMS
100
AcDbBlockReference
  2
_Open90
 10
50.33450583622481
 20
46.87126921183594
 30
0.0
 41
0.7500000000000001
 42
0.7500000000000001
 50
90.00000000000041
  0
INSERT
  5
23F
330
23B
100
AcDbEntity
  8
DIMS
100
AcDbBlockReference
  2
_Open90
 10
50.33450583622481
 20
48.62126921183594
 30
0.0
 41
0.7500000000000001
 42
0.7500000000000001
 50
270.0000000000004
  0
LINE
  5
240
330
23B
100
AcDbEntity
  8
DIMS
100
AcDbLine
 10
50.06992248271428
 20
47.70770069714704
 30
0.0
 11
50.84388087521422
 21
47.70770069714704
 31
0.0
  0
LINE
  5
241
330
23B
100
AcDbEntity
  8
DIMS
100
AcDbLine
 10
49.02060524498663
 20
46.87126921183594
 30
0.0
 11
50.70950583622481
 21
46.87126921183594
 31
0.0
  0
LINE
  5
242
330
23B
100
AcDbEntity
  8
DIMS
100
AcDbLine
 10
48.72274666890839
 20
48.62126921183594
 30
0.0
 11
50.70950583622481
 21
48.62126921183594
 31
0.0
  0
LINE
  5
243
330
23B
100
AcDbEntity
  8
DIMS
100
AcDbLine
 10
50.33450583622481
 20
46.87126921183594
 30
0.0
 11
50.33450583622481
 21
45.42896151952825
 31
0.0
  0
LINE
  5
244
330
23B
100
AcDbEntity
  8
DIMS
100
AcDbLine
 10
50.33450583622481
 20
48.62126921183594
 30
0.0
 11
50.33450583622481
 21
50.06357690414363
 31
0.0
  0
MTEXT
  5
245
330
23B
100
AcDbEntity
  8
DIMS
100
AcDbMText
 10
49.40585997068776
 20
48.05180228321083
 30
0.0
 40
0.7500000000000001
 41
0.0
 71
     1
 72
     1
  1
1
  7
SLDTEXTSTYLE1
 73
     1
 44
1.0
  0
MTEXT
  5
246
330
23B
100
AcDbEntity
  8
DIMS
100
AcDbMText
 10
50.17981834485457
 20
48.59977101802924
 30
0.0
 40
0.7500000000000001
 41
0.0
 71
     1
 72
     1
  1
3
  7
SLDTEXTSTYLE1
 73
     1
 44
1.0
  0
MTEXT
  5
247
330
23B
100
AcDbEntity
  8
DIMS
100
AcDbMText
 10
50.17981834485457
 20
47.60800015192591
 30
0.0
 40
0.7500000000000001
 41
0.0
 71
     1
 72
     1
  1
4
  7
SLDTEXTSTYLE1
 73
     1
 44
1.0
  0
MTEXT
  5
248
330
23B
100
AcDbEntity
  8
DIMS
100
AcDbMText
 10
50.95377675568763
 20
48.05180228321083
 30
0.0
 40
0.7500000000000001
 41
0.0
 71
     1
 72
     1
  1
"
  7
SLDTEXTSTYLE1
 73
     1
 44
1.0
  0
ENDBLK
  5
359
330
23B
100
AcDbEntity
  8
0
100
AcDbBlockEnd
  0
BLOCK
  5
35A
330
263
100
AcDbEntity
  8
0
100
AcDbBlockBegin
  2
_D_2
 70
     0
 71
     0
 10
0.0
 20
0.0
 30
0.0
  3
_D_2
  1

  0
INSERT
  5
266
330
263
100
AcDbEntity
  8
DIMS
100
AcDbBlockReference
  2
_Open90
 10
46.13875126939753
 20
59.18423684912666
 30
-14.72114888605114
 41
0.7500000000000001
 42
0.7500000000000001
 50
135.0000000000003
  0
LINE
  5
267
330
263
100
AcDbEntity
  8
DIMS
100
AcDbLine
 10
50.68582360008089
 20
57.31341464852809
 30
0.0
 11
51.45978199258083
 21
57.31341464852809
 31
0.0
  0
LINE
  5
268
330
263
100
AcDbEntity
  8
DIMS
100
AcDbLine
 10
46.13875126939753
 20
59.18423684912666
 30
0.0
 11
48.08650058632748
 21
57.2364875321967
 31
0.0
  0
LINE
  5
269
330
263
100
AcDbEntity
  8
DIMS
100
AcDbLine
 10
48.08650058632748
 20
57.2364875321967
 30
0.0
 11
48.33650058632749
 21
57.2364875321967
 31
0.0
  0
MTEXT
  5
26A
330
263
100
AcDbEntity
  8
DIMS
100
AcDbMText
 10
48.33650058632749
 20
57.6460579052928
 30
0.0
 40
0.7500000000000001
 41
0.0
 71
     1
 72
     1
  1
%%c
  7
SLDTEXTSTYLE1
 73
     1
 44
1.0
  0
MTEXT
  5
26B
330
263
100
AcDbEntity
  8
DIMS
100
AcDbMText
 10
49.46759434650252
 20
57.65751623459187
 30
0.0
 40
0.7500000000000001
 41
0.0
 71
     1
 72
     1
  1
18
  7
SLDTEXTSTYLE1
 73
     1
 44
1.0
  0
MTEXT
  5
26C
330
263
100
AcDbEntity
  8
DIMS
100
AcDbMText
 10
50.79571946222118
 20
58.20548496941029
 30
0.0
 40
0.7500000000000001
 41
0.0
 71
     1
 72
     1
  1
1
  7
SLDTEXTSTYLE1
 73
     1
 44
1.0
  0
MTEXT
  5
26D
330
263
100
AcDbEntity
  8
DIMS
100
AcDbMText
 10
50.79571946222118
 20
57.21371410330696
 30
0.0
 40
0.7500000000000001
 41
0.0
 71
     1
 72
     1
  1
2
  7
SLDTEXTSTYLE1
 73
     1
 44
1.0
  0
MTEXT
  5
26E
330
263
100
AcDbEntity
  8
DIMS
100
AcDbMText
 10
51.56967768972302
 20
57.65751623459187
 30
0.0
 40
0.7500000000000001
 41
0.0
 71
     1
 72
     1
  1
"
  7
SLDTEXTSTYLE1
 73
     1
 44
1.0
  0
ENDBLK
  5
35B
330
263
100
AcDbEntity
  8
0
100
AcDbBlockEnd
  0
BLOCK
  5
35C
330
270
100
AcDbEntity
  8
0
100
AcDbBlockBegin
  2
_D_3
 70
     0
 71
     0
 10
0.0
 20
0.0
 30
0.0
  3
_D_3
  1

  0
INSERT
  5
273
330
270
100
AcDbEntity
  8
DIMS
100
AcDbBlockReference
  2
_Open90
 10
41.71649188501517
 20
62.05088826742517
 30
-14.72114888605114
 41
0.7500000000000001
 42
0.7500000000000001
 50
120.0000000000004
  0
LINE
  5
274
330
270
100
AcDbEntity
  8
DIMS
100
AcDbLine
 10
47.89627383019721
 20
54.9664337113835
 30
0.0
 11
48.67023222269714
 21
54.9664337113835
 31
0.0
  0
LINE
  5
275
330
270
100
AcDbEntity
  8
DIMS
100
AcDbLine
 10
41.71649188501517
 20
62.05088826742517
 30
0.0
 11
45.85111752132941
 21
54.88950659505212
 31
0.0
  0
LINE
  5
276
330
270
100
AcDbEntity
  8
DIMS
100
AcDbLine
 10
45.85111752132941
 20
54.88950659505212
 30
0.0
 11
46.10111752132941
 21
54.88950659505212
 31
0.0
  0
MTEXT
  5
277
330
270
100
AcDbEntity
  8
DIMS
100
AcDbMText
 10
46.10111752132941
 20
55.29907696814822
 30
0.0
 40
0.7500000000000001
 41
0.0
 71
     1
 72
     1
  1
%%c
  7
SLDTEXTSTYLE1
 73
     1
 44
1.0
  0
MTEXT
  5
278
330
270
100
AcDbEntity
  8
DIMS
100
AcDbMText
 10
47.23221128150443
 20
55.31053529744729
 30
0.0
 40
0.7500000000000001
 41
0.0
 71
     1
 72
     1
  1
8
  7
SLDTEXTSTYLE1
 73
     1
 44
1.0
  0
MTEXT
  5
279
330
270
100
AcDbEntity
  8
DIMS
100
AcDbMText
 10
48.00616969233749
 20
55.8585040322657
 30
0.0
 40
0.7500000000000001
 41
0.0
 71
     1
 72
     1
  1
1
  7
SLDTEXTSTYLE1
 73
     1
 44
1.0
  0
MTEXT
  5
27A
330
270
100
AcDbEntity
  8
DIMS
100
AcDbMText
 10
48.00616969233749
 20
54.86673316616238
 30
0.0
 40
0.7500000000000001
 41
0.0
 71
     1
 72
     1
  1
2
  7
SLDTEXTSTYLE1
 73
     1
 44
1.0
  0
MTEXT
  5
27B
330
270
100
AcDbEntity
  8
DIMS
100
AcDbMText
 10
48.78012806650431
 20
55.31053529744729
 30
0.0
 40
0.7500000000000001
 41
0.0
 71
     1
 72
     1
  1
"
  7
SLDTEXTSTYLE1
 73
     1
 44
1.0
  0
ENDBLK
  5
35D
330
270
100
AcDbEntity
  8
0
100
AcDbBlockEnd
  0
BLOCK
  5
35E
330
300
100
AcDbEntity
  8
0
100
AcDbBlockBegin
  2
_D_4
 70
     0
 71
     0
 10
0.0
 20
0.0
 30
0.0
  3
_D_4
  1

  0
INSERT
  5
303
330
300
100
AcDbEntity
  8
DIMS
100
AcDbBlockReference
  2
_Open90
 10
11.99029039555583
 20
50.42549607814205
 30
4.631222854526543
 41
0.7500000000000001
 42
0.7500000000000001
 50
180.0000000000004
  0
INSERT
  5
304
330
300
100
AcDbEntity
  8
DIMS
100
AcDbBlockReference
  2
_Open90
 10
20.49029039555583
 20
50.42549607814205
 30
4.631222854526543
 41
0.7500000000000001
 42
0.7500000000000001
 50
0.0000000000004071
  0
LINE
  5
305
330
300
100
AcDbEntity
  8
DIMS
100
AcDbLine
 10
16.06397723791318
 20
50.50242319447342
 30
0.0
 11
16.83793563041312
 21
50.50242319447342
 31
0.0
  0
LINE
  5
306
330
300
100
AcDbEntity
  8
DIMS
100
AcDbLine
 10
11.99029039555583
 20
47.28113912276147
 30
0.0
 11
11.99029039555583
 21
50.80049607814205
 31
0.0
  0
LINE
  5
307
330
300
100
AcDbEntity
  8
DIMS
100
AcDbLine
 10
20.49029039555583
 20
47.28113912276147
 30
0.0
 11
20.49029039555583
 21
50.80049607814205
 31
0.0
  0
LINE
  5
308
330
300
100
AcDbEntity
  8
DIMS
100
AcDbLine
 10
11.99029039555583
 20
50.42549607814205
 30
0.0
 11
14.26882092904538
 21
50.42549607814205
 31
0.0
  0
LINE
  5
309
330
300
100
AcDbEntity
  8
DIMS
100
AcDbLine
 10
20.49029039555583
 20
50.42549607814205
 30
0.0
 11
17.25720656695947
 21
50.42549607814205
 31
0.0
  0
MTEXT
  5
30A
330
300
100
AcDbEntity
  8
DIMS
100
AcDbMText
 10
14.26882092904538
 20
50.83506645123813
 30
0.0
 40
0.7500000000000001
 41
0.0
 71
     1
 72
     1
  1
%%c
  7
SLDTEXTSTYLE1
 73
     1
 44
1.0
  0
MTEXT
  5
30B
330
300
100
AcDbEntity
  8
DIMS
100
AcDbMText
 10
15.39991468922041
 20
50.84652478053719
 30
0.0
 40
0.7500000000000001
 41
0.0
 71
     1
 72
     1
  1
8
  7
SLDTEXTSTYLE1
 73
     1
 44
1.0
  0
MTEXT
  5
30C
330
300
100
AcDbEntity
  8
DIMS
100
AcDbMText
 10
16.17387310005347
 20
51.39449351535561
 30
0.0
 40
0.7500000000000001
 41
0.0
 71
     1
 72
     1
  1
1
  7
SLDTEXTSTYLE1
 73
     1
 44
1.0
  0
MTEXT
  5
30D
330
300
100
AcDbEntity
  8
DIMS
100
AcDbMText
 10
16.17387310005347
 20
50.40272264925229
 30
0.0
 40
0.7500000000000001
 41
0.0
 71
     1
 72
     1
  1
2
  7
SLDTEXTSTYLE1
 73
     1
 44
1.0
  0
MTEXT
  5
30E
330
300
100
AcDbEntity
  8
DIMS
100
AcDbMText
 10
16.94783147422029
 20
50.84652478053719
 30
0.0
 40
0.7500000000000001
 41
0.0
 71
     1
 72
     1
  1
"
  7
SLDTEXTSTYLE1
 73
     1
 44
1.0
  0
ENDBLK
  5
35F
330
300
100
AcDbEntity
  8
0
100
AcDbBlockEnd
  0
ENDSEC
  0
SECTION
  2
ENTITIES
  0
LINE
  5
7A
330
1F
100
AcDbEntity
  8
TITLE
370
    50
100
AcDbLine
 10
62.89322302401259
 20
1.48761176446163
 30
0.0
 11
79.87498645119503
 21
1.48761176446163
 31
0.0
  0
LINE
  5
7B
330
1F
100
AcDbEntity
  8
TITLE
370
    50
100
AcDbLine
 10
79.87493174424402
 20
5.475360393555786
 30
0.0
 11
69.68553507231782
 21
5.475360393555786
 31
0.0
  0
LINE
  5
7C
330
1F
100
AcDbEntity
  8
TITLE
  6
SLD-Solid
370
    18
100
AcDbLine
 10
0.5
 20
0.5
 30
0.0
 11
0.5
 21
99.5
 31
0.0
  0
LINE
  5
7D
330
1F
100
AcDbEntity
  8
TITLE
  6
SLD-Solid
370
    18
100
AcDbLine
 10
0.5
 20
99.5
 30
0.0
 11
79.875
 21
99.5
 31
0.0
  0
LINE
  5
7E
330
1F
100
AcDbEntity
  8
TITLE
370
    50
100
AcDbLine
 10
62.89322302401259
 20
2.542787723103441
 30
0.0
 11
55.88097912026432
 21
2.54278772310344
 31
0.0
  0
LINE
  5
7F
330
1F
100
AcDbEntity
  8
TITLE
370
    50
100
AcDbLine
 10
62.89322302401259
 20
1.48761176446163
 30
0.0
 11
55.88097912026432
 21
1.487611764461628
 31
0.0
  0
LINE
  5
80
330
1F
100
AcDbEntity
  8
TITLE
  6
SLD-Solid
370
    18
100
AcDbLine
 10
79.875
 20
99.5
 30
0.0
 11
79.875
 21
0.5
 31
0.0
  0
LINE
  5
81
330
1F
100
AcDbEntity
  8
TITLE
  6
SLD-Solid
370
    18
100
AcDbLine
 10
79.875
 20
0.5
 30
0.0
 11
0.5
 21
0.5
 31
0.0
  0
LINE
  5
82
330
1F
100
AcDbEntity
  8
TITLE
370
    50
100
AcDbLine
 10
62.89322302401259
 20
1.48761176446163
 30
0.0
 11
62.89322302401259
 21
3.597963681745253
 31
0.0
  0
LINE
  5
83
330
1F
100
AcDbEntity
  8
TITLE
370
    50
100
AcDbLine
 10
55.88097912026432
 20
3.597963681745253
 30
0.0
 11
55.88097912026432
 21
0.5
 31
0.0
  0
LINE
  5
84
330
1F
100
AcDbEntity
  8
TITLE
370
    50
100
AcDbLine
 10
55.88097912026432
 20
0.5
 30
0.0
 11
79.875
 21
0.5
 31
0.0
  0
LINE
  5
85
330
1F
100
AcDbEntity
  8
TITLE
370
    50
100
AcDbLine
 10
79.87493174424402
 20
5.475360393555786
 30
0.0
 11
79.875
 21
0.5
 31
0.0
  0
LINE
  5
86
330
1F
100
AcDbEntity
  8
TITLE
  6
SLD-Solid
370
    18
100
AcDbLine
 10
0.4999606299212599
 20
50.0
 30
0.0
 11
0.5000393700787401
 21
50.0
 31
0.0
  0
LINE
  5
87
330
1F
100
AcDbEntity
  8
TITLE
370
    50
100
AcDbLine
 10
62.89322302401259
 20
3.597963681745253
 30
0.0
 11
55.88097912026432
 21
3.597963681745253
 31
0.0
  0
LINE
  5
88
330
1F
100
AcDbEntity
  8
TITLE
370
    50
100
AcDbLine
 10
62.89322302401259
 20
3.597963681745253
 30
0.0
 11
79.87476156426074
 21
3.597964834324628
 31
0.0
  0
LINE
  5
89
330
1F
100
AcDbEntity
  8
TITLE
370
    50
100
AcDbLine
 10
69.68553507231782
 20
5.475360393555786
 30
0.0
 11
69.68553507231782
 21
0.4636772425222311
 31
0.0
  0
LINE
  5
8A
330
1F
100
AcDbEntity
  8
TITLE
  6
SLD-Solid
370
    18
100
AcDbLine
 10
40.1875
 20
99.50003937007874
 30
0.0
 11
40.1875
 21
99.49996062992125
 31
0.0
  0
LINE
  5
8B
330
1F
100
AcDbEntity
  8
TITLE
  6
SLD-Solid
370
    18
100
AcDbLine
 10
79.87503937007874
 20
50.0
 30
0.0
 11
79.87496062992125
 21
50.0
 31
0.0
  0
LINE
  5
8C
330
1F
100
AcDbEntity
  8
TITLE
  6
SLD-Solid
370
    18
100
AcDbLine
 10
40.1875
 20
0.4999606299212599
 30
0.0
 11
40.1875
 21
0.5000393700787401
 31
0.0
  0
LINE
  5
8D
330
1F
100
AcDbEntity
  8
TITLE
  6
SLD-Solid
370
    18
100
AcDbLine
 10
0.5
 20
2.755905511811017
 30
0.0
 11
0.1653543307086614
 21
2.755905511811017
 31
0.0
  0
LINE
  5
8E
330
1F
100
AcDbEntity
  8
TITLE
  6
SLD-Solid
370
    18
100
AcDbLine
 10
79.875
 20
2.755905511811017
 30
0.0
 11
80.20964566929135
 21
2.755905511811017
 31
0.0
  0
LINE
  5
8F
330
1F
100
AcDbEntity
  8
TITLE
  6
SLD-Solid
370
    18
100
AcDbLine
 10
0.5
 20
4.724409448818893
 30
0.0
 11
0.1653543307086614
 21
4.724409448818893
 31
0.0
  0
LINE
  5
90
330
1F
100
AcDbEntity
  8
TITLE
  6
SLD-Solid
370
    18
100
AcDbLine
 10
79.875
 20
4.724409448818893
 30
0.0
 11
80.20964566929135
 21
4.724409448818893
 31
0.0
  0
LINE
  5
91
330
1F
100
AcDbEntity
  8
TITLE
  6
SLD-Solid
370
    18
100
AcDbLine
 10
0.5
 20
6.692913385826769
 30
0.0
 11
0.1653543307086614
 21
6.692913385826769
 31
0.0
  0
LINE
  5
33B
330
1F
100
AcDbEntity
  8
TITLE
  6
SLD-Solid
370
    18
100
AcDbLine
 10
79.875
 20
6.692913385826769
 30
0.0
 11
80.20964566929135
 21
6.692913385826769
 31
0.0
  0
LINE
  5
33C
330
1F
100
AcDbEntity
  8
TITLE
  6
SLD-Solid
370
    18
100
AcDbLine
 10
0.5
 20
8.661417322834644
 30
0.0
 11
0.1653543307086614
 21
8.661417322834644
 31
0.0
  0
LINE
  5
94
330
1F
100
AcDbEntity
  8
TITLE
  6
SLD-Solid
370
    18
100
AcDbLine
 10
79.875
 20
8.661417322834644
 30
0.0
 11
80.20964566929135
 21
8.661417322834644
 31
0.0
  0
LINE
  5
95
330
1F
100
AcDbEntity
  8
TITLE
  6
SLD-Solid
370
    18
100
AcDbLine
 10
0.5
 20
10.62992125984252
 30
0.0
 11
0.1653543307086614
 21
10.62992125984252
 31
0.0
  0
LINE
  5
96
330
1F
100
AcDbEntity
  8
TITLE
  6
SLD-Solid
370
    18
100
AcDbLine
 10
79.875
 20
10.62992125984252
 30
0.0
 11
80.20964566929135
 21
10.62992125984252
 31
0.0
  0
LINE
  5
33D
330
1F
100
AcDbEntity
  8
TITLE
  6
SLD-Solid
370
    18
100
AcDbLine
 10
0.5
 20
12.59842519685039
 30
0.0
 11
0.1653543307086614
 21
12.59842519685039
 31
0.0
  0
LINE
  5
33E
330
1F
100
AcDbEntity
  8
TITLE
  6
SLD-Solid
370
    18
100
AcDbLine
 10
79.875
 20
12.59842519685039
 30
0.0
 11
80.20964566929135
 21
12.59842519685039
 31
0.0
  0
LINE
  5
99
330
1F
100
AcDbEntity
  8
TITLE
  6
SLD-Solid
370
    18
100
AcDbLine
 10
0.5
 20
14.56692913385827
 30
0.0
 11
0.1653543307086614
 21
14.56692913385827
 31
0.0
  0
LINE
  5
9A
330
1F
100
AcDbEntity
  8
TITLE
  6
SLD-Solid
370
    18
100
AcDbLine
 10
79.875
 20
14.56692913385827
 30
0.0
 11
80.20964566929135
 21
14.56692913385827
 31
0.0
  0
LINE
  5
9B
330
1F
100
AcDbEntity
  8
TITLE
  6
SLD-Solid
370
    18
100
AcDbLine
 10
0.5
 20
16.53543307086614
 30
0.0
 11
0.1653543307086614
 21
16.53543307086614
 31
0.0
  0
LINE
  5
9C
330
1F
100
AcDbEntity
  8
TITLE
  6
SLD-Solid
370
    18
100
AcDbLine
 10
79.875
 20
16.53543307086614
 30
0.0
 11
80.20964566929135
 21
16.53543307086614
 31
0.0
  0
LINE
  5
9D
330
1F
100
AcDbEntity
  8
TITLE
  6
SLD-Solid
370
    18
100
AcDbLine
 10
0.5
 20
18.50393700787401
 30
0.0
 11
0.1653543307086614
 21
18.50393700787401
 31
0.0
  0
LINE
  5
9E
330
1F
100
AcDbEntity
  8
TITLE
  6
SLD-Solid
370
    18
100
AcDbLine
 10
79.875
 20
18.50393700787401
 30
0.0
 11
80.20964566929135
 21
18.50393700787401
 31
0.0
  0
LINE
  5
9F
330
1F
100
AcDbEntity
  8
TITLE
  6
SLD-Solid
370
    18
100
AcDbLine
 10
0.5
 20
20.47244094488189
 30
0.0
 11
0.1653543307086614
 21
20.47244094488189
 31
0.0
  0
LINE
  5
A0
330
1F
100
AcDbEntity
  8
TITLE
  6
SLD-Solid
370
    18
100
AcDbLine
 10
79.875
 20
20.47244094488189
 30
0.0
 11
80.20964566929135
 21
20.47244094488189
 31
0.0
  0
LINE
  5
A1
330
1F
100
AcDbEntity
  8
TITLE
  6
SLD-Solid
370
    18
100
AcDbLine
 10
0.5
 20
22.44094488188976
 30
0.0
 11
0.1653543307086614
 21
22.44094488188976
 31
0.0
  0
LINE
  5
A2
330
1F
100
AcDbEntity
  8
TITLE
  6
SLD-Solid
370
    18
100
AcDbLine
 10
79.875
 20
22.44094488188976
 30
0.0
 11
80.20964566929135
 21
22.44094488188976
 31
0.0
  0
LINE
  5
A3
330
1F
100
AcDbEntity
  8
TITLE
  6
SLD-Solid
370
    18
100
AcDbLine
 10
0.5
 20
24.40944881889764
 30
0.0
 11
0.1653543307086614
 21
24.40944881889764
 31
0.0
  0
LINE
  5
A4
330
1F
100
AcDbEntity
  8
TITLE
  6
SLD-Solid
370
    18
100
AcDbLine
 10
79.875
 20
24.40944881889764
 30
0.0
 11
80.20964566929135
 21
24.40944881889764
 31
0.0
  0
LINE
  5
A5
330
1F
100
AcDbEntity
  8
TITLE
  6
SLD-Solid
370
    18
100
AcDbLine
 10
0.5
 20
26.37795275590551
 30
0.0
 11
0.1653543307086614
 21
26.37795275590551
 31
0.0
  0
LINE
  5
A6
330
1F
100
AcDbEntity
  8
TITLE
  6
SLD-Solid
370
    18
100
AcDbLine
 10
79.875
 20
26.37795275590551
 30
0.0
 11
80.20964566929135
 21
26.37795275590551
 31
0.0
  0
LINE
  5
A7
330
1F
100
AcDbEntity
  8
TITLE
  6
SLD-Solid
370
    18
100
AcDbLine
 10
0.5
 20
28.34645669291339
 30
0.0
 11
0.1653543307086614
 21
28.34645669291339
 31
0.0
  0
LINE
  5
A8
330
1F
100
AcDbEntity
  8
TITLE
  6
SLD-Solid
370
    18
100
AcDbLine
 10
79.875
 20
28.34645669291339
 30
0.0
 11
80.20964566929135
 21
28.34645669291339
 31
0.0
  0
LINE
  5
A9
330
1F
100
AcDbEntity
  8
TITLE
  6
SLD-Solid
370
    18
100
AcDbLine
 10
0.5
 20
30.31496062992126
 30
0.0
 11
0.1653543307086614
 21
30.31496062992126
 31
0.0
  0
LINE
  5
AA
330
1F
100
AcDbEntity
  8
TITLE
  6
SLD-Solid
370
    18
100
AcDbLine
 10
79.875
 20
30.31496062992126
 30
0.0
 11
80.20964566929135
 21
30.31496062992126
 31
0.0
  0
LINE
  5
AB
330
1F
100
AcDbEntity
  8
TITLE
  6
SLD-Solid
370
    18
100
AcDbLine
 10
0.5
 20
32.28346456692914
 30
0.0
 11
0.1653543307086614
 21
32.28346456692914
 31
0.0
  0
LINE
  5
AC
330
1F
100
AcDbEntity
  8
TITLE
  6
SLD-Solid
370
    18
100
AcDbLine
 10
79.875
 20
32.28346456692914
 30
0.0
 11
80.20964566929135
 21
32.28346456692914
 31
0.0
  0
LINE
  5
AD
330
1F
100
AcDbEntity
  8
TITLE
  6
SLD-Solid
370
    18
100
AcDbLine
 10
0.5
 20
34.25196850393701
 30
0.0
 11
0.1653543307086614
 21
34.25196850393701
 31
0.0
  0
LINE
  5
AE
330
1F
100
AcDbEntity
  8
TITLE
  6
SLD-Solid
370
    18
100
AcDbLine
 10
79.875
 20
34.25196850393701
 30
0.0
 11
80.20964566929135
 21
34.25196850393701
 31
0.0
  0
LINE
  5
AF
330
1F
100
AcDbEntity
  8
TITLE
  6
SLD-Solid
370
    18
100
AcDbLine
 10
0.5
 20
36.22047244094488
 30
0.0
 11
0.1653543307086614
 21
36.22047244094488
 31
0.0
  0
LINE
  5
B0
330
1F
100
AcDbEntity
  8
TITLE
  6
SLD-Solid
370
    18
100
AcDbLine
 10
79.875
 20
36.22047244094488
 30
0.0
 11
80.20964566929135
 21
36.22047244094488
 31
0.0
  0
LINE
  5
B1
330
1F
100
AcDbEntity
  8
TITLE
  6
SLD-Solid
370
    18
100
AcDbLine
 10
0.5
 20
38.18897637795276
 30
0.0
 11
0.1653543307086614
 21
38.18897637795276
 31
0.0
  0
LINE
  5
B2
330
1F
100
AcDbEntity
  8
TITLE
  6
SLD-Solid
370
    18
100
AcDbLine
 10
79.875
 20
38.18897637795276
 30
0.0
 11
80.20964566929135
 21
38.18897637795276
 31
0.0
  0
LINE
  5
B3
330
1F
100
AcDbEntity
  8
TITLE
  6
SLD-Solid
370
    18
100
AcDbLine
 10
0.5
 20
40.15748031496063
 30
0.0
 11
0.1653543307086614
 21
40.15748031496063
 31
0.0
  0
LINE
  5
B4
330
1F
100
AcDbEntity
  8
TITLE
  6
SLD-Solid
370
    18
100
AcDbLine
 10
79.875
 20
40.15748031496063
 30
0.0
 11
80.20964566929135
 21
40.15748031496063
 31
0.0
  0
LINE
  5
B5
330
1F
100
AcDbEntity
  8
TITLE
  6
SLD-Solid
370
    18
100
AcDbLine
 10
0.5
 20
42.12598425196851
 30
0.0
 11
0.1653543307086614
 21
42.12598425196851
 31
0.0
  0
LINE
  5
B6
330
1F
100
AcDbEntity
  8
TITLE
  6
SLD-Solid
370
    18
100
AcDbLine
 10
79.875
 20
42.12598425196851
 30
0.0
 11
80.20964566929135
 21
42.12598425196851
 31
0.0
  0
LINE
  5
B7
330
1F
100
AcDbEntity
  8
TITLE
  6
SLD-Solid
370
    18
100
AcDbLine
 10
0.5
 20
44.09448818897638
 30
0.0
 11
0.1653543307086614
 21
44.09448818897638
 31
0.0
  0
LINE
  5
B8
330
1F
100
AcDbEntity
  8
TITLE
  6
SLD-Solid
370
    18
100
AcDbLine
 10
79.875
 20
44.09448818897638
 30
0.0
 11
80.20964566929135
 21
44.09448818897638
 31
0.0
  0
LINE
  5
B9
330
1F
100
AcDbEntity
  8
TITLE
  6
SLD-Solid
370
    18
100
AcDbLine
 10
0.5
 20
46.06299212598425
 30
0.0
 11
0.1653543307086614
 21
46.06299212598425
 31
0.0
  0
LINE
  5
BA
330
1F
100
AcDbEntity
  8
TITLE
  6
SLD-Solid
370
    18
100
AcDbLine
 10
79.875
 20
46.06299212598425
 30
0.0
 11
80.20964566929135
 21
46.06299212598425
 31
0.0
  0
LINE
  5
BB
330
1F
100
AcDbEntity
  8
TITLE
  6
SLD-Solid
370
    18
100
AcDbLine
 10
0.5
 20
48.03149606299213
 30
0.0
 11
0.1653543307086614
 21
48.03149606299213
 31
0.0
  0
LINE
  5
BC
330
1F
100
AcDbEntity
  8
TITLE
  6
SLD-Solid
370
    18
100
AcDbLine
 10
79.875
 20
48.03149606299213
 30
0.0
 11
80.20964566929135
 21
48.03149606299213
 31
0.0
  0
LINE
  5
BD
330
1F
100
AcDbEntity
  8
TITLE
  6
SLD-Solid
370
    18
100
AcDbLine
 10
0.5
 20
50.0
 30
0.0
 11
0.1653543307086614
 21
50.0
 31
0.0
  0
LINE
  5
BE
330
1F
100
AcDbEntity
  8
TITLE
  6
SLD-Solid
370
    18
100
AcDbLine
 10
79.875
 20
50.0
 30
0.0
 11
80.20964566929135
 21
50.0
 31
0.0
  0
LINE
  5
BF
330
1F
100
AcDbEntity
  8
TITLE
  6
SLD-Solid
370
    18
100
AcDbLine
 10
0.5
 20
51.96850393700788
 30
0.0
 11
0.1653543307086614
 21
51.96850393700788
 31
0.0
  0
LINE
  5
C0
330
1F
100
AcDbEntity
  8
TITLE
  6
SLD-Solid
370
    18
100
AcDbLine
 10
79.875
 20
51.96850393700788
 30
0.0
 11
80.20964566929135
 21
51.96850393700788
 31
0.0
  0
LINE
  5
C1
330
1F
100
AcDbEntity
  8
TITLE
  6
SLD-Solid
370
    18
100
AcDbLine
 10
0.5
 20
53.93700787401576
 30
0.0
 11
0.1653543307086614
 21
53.93700787401576
 31
0.0
  0
LINE
  5
C2
330
1F
100
AcDbEntity
  8
TITLE
  6
SLD-Solid
370
    18
100
AcDbLine
 10
79.875
 20
53.93700787401576
 30
0.0
 11
80.20964566929135
 21
53.93700787401576
 31
0.0
  0
LINE
  5
C3
330
1F
100
AcDbEntity
  8
TITLE
  6
SLD-Solid
370
    18
100
AcDbLine
 10
0.5
 20
55.90551181102362
 30
0.0
 11
0.1653543307086614
 21
55.90551181102362
 31
0.0
  0
LINE
  5
C4
330
1F
100
AcDbEntity
  8
TITLE
  6
SLD-Solid
370
    18
100
AcDbLine
 10
79.875
 20
55.90551181102362
 30
0.0
 11
80.20964566929135
 21
55.90551181102362
 31
0.0
  0
LINE
  5
C5
330
1F
100
AcDbEntity
  8
TITLE
  6
SLD-Solid
370
    18
100
AcDbLine
 10
0.5
 20
57.8740157480315
 30
0.0
 11
0.1653543307086614
 21
57.8740157480315
 31
0.0
  0
LINE
  5
C6
330
1F
100
AcDbEntity
  8
TITLE
  6
SLD-Solid
370
    18
100
AcDbLine
 10
79.875
 20
57.8740157480315
 30
0.0
 11
80.20964566929135
 21
57.8740157480315
 31
0.0
  0
LINE
  5
C7
330
1F
100
AcDbEntity
  8
TITLE
  6
SLD-Solid
370
    18
100
AcDbLine
 10
0.5
 20
59.84251968503937
 30
0.0
 11
0.1653543307086614
 21
59.84251968503937
 31
0.0
  0
LINE
  5
C8
330
1F
100
AcDbEntity
  8
TITLE
  6
SLD-Solid
370
    18
100
AcDbLine
 10
79.875
 20
59.84251968503937
 30
0.0
 11
80.20964566929135
 21
59.84251968503937
 31
0.0
  0
LINE
  5
C9
330
1F
100
AcDbEntity
  8
TITLE
  6
SLD-Solid
370
    18
100
AcDbLine
 10
0.5
 20
61.81102362204725
 30
0.0
 11
0.1653543307086614
 21
61.81102362204725
 31
0.0
  0
LINE
  5
CA
330
1F
100
AcDbEntity
  8
TITLE
  6
SLD-Solid
370
    18
100
AcDbLine
 10
79.875
 20
61.81102362204725
 30
0.0
 11
80.20964566929135
 21
61.81102362204725
 31
0.0
  0
LINE
  5
CB
330
1F
100
AcDbEntity
  8
TITLE
  6
SLD-Solid
370
    18
100
AcDbLine
 10
0.5
 20
63.77952755905513
 30
0.0
 11
0.1653543307086614
 21
63.77952755905513
 31
0.0
  0
LINE
  5
CC
330
1F
100
AcDbEntity
  8
TITLE
  6
SLD-Solid
370
    18
100
AcDbLine
 10
79.875
 20
63.77952755905513
 30
0.0
 11
80.20964566929135
 21
63.77952755905513
 31
0.0
  0
LINE
  5
CD
330
1F
100
AcDbEntity
  8
TITLE
  6
SLD-Solid
370
    18
100
AcDbLine
 10
0.5
 20
65.74803149606299
 30
0.0
 11
0.1653543307086614
 21
65.74803149606299
 31
0.0
  0
LINE
  5
CE
330
1F
100
AcDbEntity
  8
TITLE
  6
SLD-Solid
370
    18
100
AcDbLine
 10
79.875
 20
65.74803149606299
 30
0.0
 11
80.20964566929135
 21
65.74803149606299
 31
0.0
  0
LINE
  5
CF
330
1F
100
AcDbEntity
  8
TITLE
  6
SLD-Solid
370
    18
100
AcDbLine
 10
0.5
 20
67.71653543307087
 30
0.0
 11
0.1653543307086614
 21
67.71653543307087
 31
0.0
  0
LINE
  5
D0
330
1F
100
AcDbEntity
  8
TITLE
  6
SLD-Solid
370
    18
100
AcDbLine
 10
79.875
 20
67.71653543307087
 30
0.0
 11
80.20964566929135
 21
67.71653543307087
 31
0.0
  0
LINE
  5
D1
330
1F
100
AcDbEntity
  8
TITLE
  6
SLD-Solid
370
    18
100
AcDbLine
 10
0.5
 20
69.68503937007874
 30
0.0
 11
0.1653543307086614
 21
69.68503937007874
 31
0.0
  0
LINE
  5
D2
330
1F
100
AcDbEntity
  8
TITLE
  6
SLD-Solid
370
    18
100
AcDbLine
 10
79.875
 20
69.68503937007874
 30
0.0
 11
80.20964566929135
 21
69.68503937007874
 31
0.0
  0
LINE
  5
D3
330
1F
100
AcDbEntity
  8
TITLE
  6
SLD-Solid
370
    18
100
AcDbLine
 10
0.5
 20
71.65354330708662
 30
0.0
 11
0.1653543307086614
 21
71.65354330708662
 31
0.0
  0
LINE
  5
D4
330
1F
100
AcDbEntity
  8
TITLE
  6
SLD-Solid
370
    18
100
AcDbLine
 10
79.875
 20
71.65354330708662
 30
0.0
 11
80.20964566929135
 21
71.65354330708662
 31
0.0
  0
LINE
  5
D5
330
1F
100
AcDbEntity
  8
TITLE
  6
SLD-Solid
370
    18
100
AcDbLine
 10
0.5
 20
73.62204724409449
 30
0.0
 11
0.1653543307086614
 21
73.62204724409449
 31
0.0
  0
LINE
  5
D6
330
1F
100
AcDbEntity
  8
TITLE
  6
SLD-Solid
370
    18
100
AcDbLine
 10
79.875
 20
73.62204724409449
 30
0.0
 11
80.20964566929135
 21
73.62204724409449
 31
0.0
  0
LINE
  5
D7
330
1F
100
AcDbEntity
  8
TITLE
  6
SLD-Solid
370
    18
100
AcDbLine
 10
0.5
 20
75.59055118110236
 30
0.0
 11
0.1653543307086614
 21
75.59055118110236
 31
0.0
  0
LINE
  5
D8
330
1F
100
AcDbEntity
  8
TITLE
  6
SLD-Solid
370
    18
100
AcDbLine
 10
79.875
 20
75.59055118110236
 30
0.0
 11
80.20964566929135
 21
75.59055118110236
 31
0.0
  0
LINE
  5
D9
330
1F
100
AcDbEntity
  8
TITLE
  6
SLD-Solid
370
    18
100
AcDbLine
 10
0.5
 20
77.55905511811025
 30
0.0
 11
0.1653543307086614
 21
77.55905511811025
 31
0.0
  0
LINE
  5
DA
330
1F
100
AcDbEntity
  8
TITLE
  6
SLD-Solid
370
    18
100
AcDbLine
 10
79.875
 20
77.55905511811025
 30
0.0
 11
80.20964566929135
 21
77.55905511811025
 31
0.0
  0
LINE
  5
DB
330
1F
100
AcDbEntity
  8
TITLE
  6
SLD-Solid
370
    18
100
AcDbLine
 10
0.5
 20
79.52755905511812
 30
0.0
 11
0.1653543307086614
 21
79.52755905511812
 31
0.0
  0
LINE
  5
DC
330
1F
100
AcDbEntity
  8
TITLE
  6
SLD-Solid
370
    18
100
AcDbLine
 10
79.875
 20
79.52755905511812
 30
0.0
 11
80.20964566929135
 21
79.52755905511812
 31
0.0
  0
LINE
  5
DD
330
1F
100
AcDbEntity
  8
TITLE
  6
SLD-Solid
370
    18
100
AcDbLine
 10
0.5
 20
81.496062992126
 30
0.0
 11
0.1653543307086614
 21
81.496062992126
 31
0.0
  0
LINE
  5
DE
330
1F
100
AcDbEntity
  8
TITLE
  6
SLD-Solid
370
    18
100
AcDbLine
 10
79.875
 20
81.496062992126
 30
0.0
 11
80.20964566929135
 21
81.496062992126
 31
0.0
  0
LINE
  5
DF
330
1F
100
AcDbEntity
  8
TITLE
  6
SLD-Solid
370
    18
100
AcDbLine
 10
0.5
 20
83.46456692913387
 30
0.0
 11
0.1653543307086614
 21
83.46456692913387
 31
0.0
  0
LINE
  5
E0
330
1F
100
AcDbEntity
  8
TITLE
  6
SLD-Solid
370
    18
100
AcDbLine
 10
79.875
 20
83.46456692913387
 30
0.0
 11
80.20964566929135
 21
83.46456692913387
 31
0.0
  0
LINE
  5
E1
330
1F
100
AcDbEntity
  8
TITLE
  6
SLD-Solid
370
    18
100
AcDbLine
 10
0.5
 20
85.43307086614173
 30
0.0
 11
0.1653543307086614
 21
85.43307086614173
 31
0.0
  0
LINE
  5
E2
330
1F
100
AcDbEntity
  8
TITLE
  6
SLD-Solid
370
    18
100
AcDbLine
 10
79.875
 20
85.43307086614173
 30
0.0
 11
80.20964566929135
 21
85.43307086614173
 31
0.0
  0
LINE
  5
E3
330
1F
100
AcDbEntity
  8
TITLE
  6
SLD-Solid
370
    18
100
AcDbLine
 10
0.5
 20
87.40157480314961
 30
0.0
 11
0.1653543307086614
 21
87.40157480314961
 31
0.0
  0
LINE
  5
E4
330
1F
100
AcDbEntity
  8
TITLE
  6
SLD-Solid
370
    18
100
AcDbLine
 10
79.875
 20
87.40157480314961
 30
0.0
 11
80.20964566929135
 21
87.40157480314961
 31
0.0
  0
LINE
  5
E5
330
1F
100
AcDbEntity
  8
TITLE
  6
SLD-Solid
370
    18
100
AcDbLine
 10
0.5
 20
89.37007874015748
 30
0.0
 11
0.1653543307086614
 21
89.37007874015748
 31
0.0
  0
LINE
  5
E6
330
1F
100
AcDbEntity
  8
TITLE
  6
SLD-Solid
370
    18
100
AcDbLine
 10
79.875
 20
89.37007874015748
 30
0.0
 11
80.20964566929135
 21
89.37007874015748
 31
0.0
  0
LINE
  5
E7
330
1F
100
AcDbEntity
  8
TITLE
  6
SLD-Solid
370
    18
100
AcDbLine
 10
0.5
 20
91.33858267716536
 30
0.0
 11
0.1653543307086614
 21
91.33858267716536
 31
0.0
  0
LINE
  5
E8
330
1F
100
AcDbEntity
  8
TITLE
  6
SLD-Solid
370
    18
100
AcDbLine
 10
79.875
 20
91.33858267716536
 30
0.0
 11
80.20964566929135
 21
91.33858267716536
 31
0.0
  0
LINE
  5
E9
330
1F
100
AcDbEntity
  8
TITLE
  6
SLD-Solid
370
    18
100
AcDbLine
 10
0.5
 20
93.30708661417323
 30
0.0
 11
0.1653543307086614
 21
93.30708661417323
 31
0.0
  0
LINE
  5
EA
330
1F
100
AcDbEntity
  8
TITLE
  6
SLD-Solid
370
    18
100
AcDbLine
 10
79.875
 20
93.30708661417323
 30
0.0
 11
80.20964566929135
 21
93.30708661417323
 31
0.0
  0
LINE
  5
EB
330
1F
100
AcDbEntity
  8
TITLE
  6
SLD-Solid
370
    18
100
AcDbLine
 10
0.5
 20
95.2755905511811
 30
0.0
 11
0.1653543307086614
 21
95.2755905511811
 31
0.0
  0
LINE
  5
EC
330
1F
100
AcDbEntity
  8
TITLE
  6
SLD-Solid
370
    18
100
AcDbLine
 10
79.875
 20
95.2755905511811
 30
0.0
 11
80.20964566929135
 21
95.2755905511811
 31
0.0
  0
LINE
  5
ED
330
1F
100
AcDbEntity
  8
TITLE
  6
SLD-Solid
370
    18
100
AcDbLine
 10
0.5
 20
97.24409448818899
 30
0.0
 11
0.1653543307086614
 21
97.24409448818899
 31
0.0
  0
LINE
  5
EE
330
1F
100
AcDbEntity
  8
TITLE
  6
SLD-Solid
370
    18
100
AcDbLine
 10
79.875
 20
97.24409448818899
 30
0.0
 11
80.20964566929135
 21
97.24409448818899
 31
0.0
  0
LINE
  5
EF
330
1F
100
AcDbEntity
  8
TITLE
  6
SLD-Solid
370
    18
100
AcDbLine
 10
2.785925196850392
 20
99.5
 30
0.0
 11
2.785925196850392
 21
99.83464566929135
 31
0.0
  0
LINE
  5
F0
330
1F
100
AcDbEntity
  8
TITLE
  6
SLD-Solid
370
    18
100
AcDbLine
 10
2.785925196850392
 20
0.5
 30
0.0
 11
2.785925196850392
 21
0.1653543307086614
 31
0.0
  0
LINE
  5
F1
330
1F
100
AcDbEntity
  8
TITLE
  6
SLD-Solid
370
    18
100
AcDbLine
 10
4.754429133858268
 20
99.5
 30
0.0
 11
4.754429133858268
 21
99.83464566929135
 31
0.0
  0
LINE
  5
F2
330
1F
100
AcDbEntity
  8
TITLE
  6
SLD-Solid
370
    18
100
AcDbLine
 10
4.754429133858268
 20
0.5
 30
0.0
 11
4.754429133858268
 21
0.1653543307086614
 31
0.0
  0
LINE
  5
F3
330
1F
100
AcDbEntity
  8
TITLE
  6
SLD-Solid
370
    18
100
AcDbLine
 10
6.722933070866139
 20
99.5
 30
0.0
 11
6.722933070866139
 21
99.83464566929135
 31
0.0
  0
LINE
  5
F4
330
1F
100
AcDbEntity
  8
TITLE
  6
SLD-Solid
370
    18
100
AcDbLine
 10
6.722933070866139
 20
0.5
 30
0.0
 11
6.722933070866139
 21
0.1653543307086614
 31
0.0
  0
LINE
  5
F5
330
1F
100
AcDbEntity
  8
TITLE
  6
SLD-Solid
370
    18
100
AcDbLine
 10
8.691437007874015
 20
99.5
 30
0.0
 11
8.691437007874015
 21
99.83464566929135
 31
0.0
  0
LINE
  5
F6
330
1F
100
AcDbEntity
  8
TITLE
  6
SLD-Solid
370
    18
100
AcDbLine
 10
8.691437007874015
 20
0.5
 30
0.0
 11
8.691437007874015
 21
0.1653543307086614
 31
0.0
  0
LINE
  5
F7
330
1F
100
AcDbEntity
  8
TITLE
  6
SLD-Solid
370
    18
100
AcDbLine
 10
10.65994094488189
 20
99.5
 30
0.0
 11
10.65994094488189
 21
99.83464566929135
 31
0.0
  0
LINE
  5
F8
330
1F
100
AcDbEntity
  8
TITLE
  6
SLD-Solid
370
    18
100
AcDbLine
 10
10.65994094488189
 20
0.5
 30
0.0
 11
10.65994094488189
 21
0.1653543307086614
 31
0.0
  0
LINE
  5
F9
330
1F
100
AcDbEntity
  8
TITLE
  6
SLD-Solid
370
    18
100
AcDbLine
 10
12.62844488188976
 20
99.5
 30
0.0
 11
12.62844488188976
 21
99.83464566929135
 31
0.0
  0
LINE
  5
FA
330
1F
100
AcDbEntity
  8
TITLE
  6
SLD-Solid
370
    18
100
AcDbLine
 10
12.62844488188976
 20
0.5
 30
0.0
 11
12.62844488188976
 21
0.1653543307086614
 31
0.0
  0
LINE
  5
FB
330
1F
100
AcDbEntity
  8
TITLE
  6
SLD-Solid
370
    18
100
AcDbLine
 10
14.59694881889764
 20
99.5
 30
0.0
 11
14.59694881889764
 21
99.83464566929135
 31
0.0
  0
LINE
  5
FC
330
1F
100
AcDbEntity
  8
TITLE
  6
SLD-Solid
370
    18
100
AcDbLine
 10
14.59694881889764
 20
0.5
 30
0.0
 11
14.59694881889764
 21
0.1653543307086614
 31
0.0
  0
LINE
  5
FD
330
1F
100
AcDbEntity
  8
TITLE
  6
SLD-Solid
370
    18
100
AcDbLine
 10
16.56545275590551
 20
99.5
 30
0.0
 11
16.56545275590551
 21
99.83464566929135
 31
0.0
  0
LINE
  5
FE
330
1F
100
AcDbEntity
  8
TITLE
  6
SLD-Solid
370
    18
100
AcDbLine
 10
16.56545275590551
 20
0.5
 30
0.0
 11
16.56545275590551
 21
0.1653543307086614
 31
0.0
  0
LINE
  5
FF
330
1F
100
AcDbEntity
  8
TITLE
  6
SLD-Solid
370
    18
100
AcDbLine
 10
18.53395669291339
 20
99.5
 30
0.0
 11
18.53395669291339
 21
99.83464566929135
 31
0.0
  0
LINE
  5
100
330
1F
100
AcDbEntity
  8
TITLE
  6
SLD-Solid
370
    18
100
AcDbLine
 10
18.53395669291339
 20
0.5
 30
0.0
 11
18.53395669291339
 21
0.1653543307086614
 31
0.0
  0
LINE
  5
101
330
1F
100
AcDbEntity
  8
TITLE
  6
SLD-Solid
370
    18
100
AcDbLine
 10
20.50246062992126
 20
99.5
 30
0.0
 11
20.50246062992126
 21
99.83464566929135
 31
0.0
  0
LINE
  5
102
330
1F
100
AcDbEntity
  8
TITLE
  6
SLD-Solid
370
    18
100
AcDbLine
 10
20.50246062992126
 20
0.5
 30
0.0
 11
20.50246062992126
 21
0.1653543307086614
 31
0.0
  0
LINE
  5
103
330
1F
100
AcDbEntity
  8
TITLE
  6
SLD-Solid
370
    18
100
AcDbLine
 10
22.47096456692914
 20
99.5
 30
0.0
 11
22.47096456692914
 21
99.83464566929135
 31
0.0
  0
LINE
  5
104
330
1F
100
AcDbEntity
  8
TITLE
  6
SLD-Solid
370
    18
100
AcDbLine
 10
22.47096456692914
 20
0.5
 30
0.0
 11
22.47096456692914
 21
0.1653543307086614
 31
0.0
  0
LINE
  5
105
330
1F
100
AcDbEntity
  8
TITLE
  6
SLD-Solid
370
    18
100
AcDbLine
 10
24.43946850393701
 20
99.5
 30
0.0
 11
24.43946850393701
 21
99.83464566929135
 31
0.0
  0
LINE
  5
106
330
1F
100
AcDbEntity
  8
TITLE
  6
SLD-Solid
370
    18
100
AcDbLine
 10
24.43946850393701
 20
0.5
 30
0.0
 11
24.43946850393701
 21
0.1653543307086614
 31
0.0
  0
LINE
  5
107
330
1F
100
AcDbEntity
  8
TITLE
  6
SLD-Solid
370
    18
100
AcDbLine
 10
26.40797244094488
 20
99.5
 30
0.0
 11
26.40797244094488
 21
99.83464566929135
 31
0.0
  0
LINE
  5
108
330
1F
100
AcDbEntity
  8
TITLE
  6
SLD-Solid
370
    18
100
AcDbLine
 10
26.40797244094488
 20
0.5
 30
0.0
 11
26.40797244094488
 21
0.1653543307086614
 31
0.0
  0
LINE
  5
109
330
1F
100
AcDbEntity
  8
TITLE
  6
SLD-Solid
370
    18
100
AcDbLine
 10
28.37647637795276
 20
99.5
 30
0.0
 11
28.37647637795276
 21
99.83464566929135
 31
0.0
  0
LINE
  5
10A
330
1F
100
AcDbEntity
  8
TITLE
  6
SLD-Solid
370
    18
100
AcDbLine
 10
28.37647637795276
 20
0.5
 30
0.0
 11
28.37647637795276
 21
0.1653543307086614
 31
0.0
  0
LINE
  5
10B
330
1F
100
AcDbEntity
  8
TITLE
  6
SLD-Solid
370
    18
100
AcDbLine
 10
30.34498031496063
 20
99.5
 30
0.0
 11
30.34498031496063
 21
99.83464566929135
 31
0.0
  0
LINE
  5
10C
330
1F
100
AcDbEntity
  8
TITLE
  6
SLD-Solid
370
    18
100
AcDbLine
 10
30.34498031496063
 20
0.5
 30
0.0
 11
30.34498031496063
 21
0.1653543307086614
 31
0.0
  0
LINE
  5
10D
330
1F
100
AcDbEntity
  8
TITLE
  6
SLD-Solid
370
    18
100
AcDbLine
 10
32.31348425196851
 20
99.5
 30
0.0
 11
32.31348425196851
 21
99.83464566929135
 31
0.0
  0
LINE
  5
10E
330
1F
100
AcDbEntity
  8
TITLE
  6
SLD-Solid
370
    18
100
AcDbLine
 10
32.31348425196851
 20
0.5
 30
0.0
 11
32.31348425196851
 21
0.1653543307086614
 31
0.0
  0
LINE
  5
10F
330
1F
100
AcDbEntity
  8
TITLE
  6
SLD-Solid
370
    18
100
AcDbLine
 10
34.28198818897638
 20
99.5
 30
0.0
 11
34.28198818897638
 21
99.83464566929135
 31
0.0
  0
LINE
  5
110
330
1F
100
AcDbEntity
  8
TITLE
  6
SLD-Solid
370
    18
100
AcDbLine
 10
34.28198818897638
 20
0.5
 30
0.0
 11
34.28198818897638
 21
0.1653543307086614
 31
0.0
  0
LINE
  5
111
330
1F
100
AcDbEntity
  8
TITLE
  6
SLD-Solid
370
    18
100
AcDbLine
 10
36.25049212598425
 20
99.5
 30
0.0
 11
36.25049212598425
 21
99.83464566929135
 31
0.0
  0
LINE
  5
112
330
1F
100
AcDbEntity
  8
TITLE
  6
SLD-Solid
370
    18
100
AcDbLine
 10
36.25049212598425
 20
0.5
 30
0.0
 11
36.25049212598425
 21
0.1653543307086614
 31
0.0
  0
LINE
  5
113
330
1F
100
AcDbEntity
  8
TITLE
  6
SLD-Solid
370
    18
100
AcDbLine
 10
38.21899606299213
 20
99.5
 30
0.0
 11
38.21899606299213
 21
99.83464566929135
 31
0.0
  0
LINE
  5
114
330
1F
100
AcDbEntity
  8
TITLE
  6
SLD-Solid
370
    18
100
AcDbLine
 10
38.21899606299213
 20
0.5
 30
0.0
 11
38.21899606299213
 21
0.1653543307086614
 31
0.0
  0
LINE
  5
115
330
1F
100
AcDbEntity
  8
TITLE
  6
SLD-Solid
370
    18
100
AcDbLine
 10
40.1875
 20
99.5
 30
0.0
 11
40.1875
 21
99.83464566929135
 31
0.0
  0
LINE
  5
116
330
1F
100
AcDbEntity
  8
TITLE
  6
SLD-Solid
370
    18
100
AcDbLine
 10
40.1875
 20
0.5
 30
0.0
 11
40.1875
 21
0.1653543307086614
 31
0.0
  0
LINE
  5
117
330
1F
100
AcDbEntity
  8
TITLE
  6
SLD-Solid
370
    18
100
AcDbLine
 10
42.15600393700788
 20
99.5
 30
0.0
 11
42.15600393700788
 21
99.83464566929135
 31
0.0
  0
LINE
  5
118
330
1F
100
AcDbEntity
  8
TITLE
  6
SLD-Solid
370
    18
100
AcDbLine
 10
42.15600393700788
 20
0.5
 30
0.0
 11
42.15600393700788
 21
0.1653543307086614
 31
0.0
  0
LINE
  5
119
330
1F
100
AcDbEntity
  8
TITLE
  6
SLD-Solid
370
    18
100
AcDbLine
 10
44.12450787401576
 20
99.5
 30
0.0
 11
44.12450787401576
 21
99.83464566929135
 31
0.0
  0
LINE
  5
11A
330
1F
100
AcDbEntity
  8
TITLE
  6
SLD-Solid
370
    18
100
AcDbLine
 10
44.12450787401576
 20
0.5
 30
0.0
 11
44.12450787401576
 21
0.1653543307086614
 31
0.0
  0
LINE
  5
11B
330
1F
100
AcDbEntity
  8
TITLE
  6
SLD-Solid
370
    18
100
AcDbLine
 10
46.09301181102362
 20
99.5
 30
0.0
 11
46.09301181102362
 21
99.83464566929135
 31
0.0
  0
LINE
  5
11C
330
1F
100
AcDbEntity
  8
TITLE
  6
SLD-Solid
370
    18
100
AcDbLine
 10
46.09301181102362
 20
0.5
 30
0.0
 11
46.09301181102362
 21
0.1653543307086614
 31
0.0
  0
LINE
  5
11D
330
1F
100
AcDbEntity
  8
TITLE
  6
SLD-Solid
370
    18
100
AcDbLine
 10
48.0615157480315
 20
99.5
 30
0.0
 11
48.0615157480315
 21
99.83464566929135
 31
0.0
  0
LINE
  5
11E
330
1F
100
AcDbEntity
  8
TITLE
  6
SLD-Solid
370
    18
100
AcDbLine
 10
48.0615157480315
 20
0.5
 30
0.0
 11
48.0615157480315
 21
0.1653543307086614
 31
0.0
  0
LINE
  5
11F
330
1F
100
AcDbEntity
  8
TITLE
  6
SLD-Solid
370
    18
100
AcDbLine
 10
50.03001968503937
 20
99.5
 30
0.0
 11
50.03001968503937
 21
99.83464566929135
 31
0.0
  0
LINE
  5
120
330
1F
100
AcDbEntity
  8
TITLE
  6
SLD-Solid
370
    18
100
AcDbLine
 10
50.03001968503937
 20
0.5
 30
0.0
 11
50.03001968503937
 21
0.1653543307086614
 31
0.0
  0
LINE
  5
121
330
1F
100
AcDbEntity
  8
TITLE
  6
SLD-Solid
370
    18
100
AcDbLine
 10
51.99852362204725
 20
99.5
 30
0.0
 11
51.99852362204725
 21
99.83464566929135
 31
0.0
  0
LINE
  5
122
330
1F
100
AcDbEntity
  8
TITLE
  6
SLD-Solid
370
    18
100
AcDbLine
 10
51.99852362204725
 20
0.5
 30
0.0
 11
51.99852362204725
 21
0.1653543307086614
 31
0.0
  0
LINE
  5
123
330
1F
100
AcDbEntity
  8
TITLE
  6
SLD-Solid
370
    18
100
AcDbLine
 10
53.96702755905513
 20
99.5
 30
0.0
 11
53.96702755905513
 21
99.83464566929135
 31
0.0
  0
LINE
  5
124
330
1F
100
AcDbEntity
  8
TITLE
  6
SLD-Solid
370
    18
100
AcDbLine
 10
53.96702755905513
 20
0.5
 30
0.0
 11
53.96702755905513
 21
0.1653543307086614
 31
0.0
  0
LINE
  5
125
330
1F
100
AcDbEntity
  8
TITLE
  6
SLD-Solid
370
    18
100
AcDbLine
 10
55.93553149606299
 20
99.5
 30
0.0
 11
55.93553149606299
 21
99.83464566929135
 31
0.0
  0
LINE
  5
126
330
1F
100
AcDbEntity
  8
TITLE
  6
SLD-Solid
370
    18
100
AcDbLine
 10
55.93553149606299
 20
0.5
 30
0.0
 11
55.93553149606299
 21
0.1653543307086614
 31
0.0
  0
LINE
  5
127
330
1F
100
AcDbEntity
  8
TITLE
  6
SLD-Solid
370
    18
100
AcDbLine
 10
57.90403543307087
 20
99.5
 30
0.0
 11
57.90403543307087
 21
99.83464566929135
 31
0.0
  0
LINE
  5
128
330
1F
100
AcDbEntity
  8
TITLE
  6
SLD-Solid
370
    18
100
AcDbLine
 10
57.90403543307087
 20
0.5
 30
0.0
 11
57.90403543307087
 21
0.1653543307086614
 31
0.0
  0
LINE
  5
129
330
1F
100
AcDbEntity
  8
TITLE
  6
SLD-Solid
370
    18
100
AcDbLine
 10
59.87253937007874
 20
99.5
 30
0.0
 11
59.87253937007874
 21
99.83464566929135
 31
0.0
  0
LINE
  5
12A
330
1F
100
AcDbEntity
  8
TITLE
  6
SLD-Solid
370
    18
100
AcDbLine
 10
59.87253937007874
 20
0.5
 30
0.0
 11
59.87253937007874
 21
0.1653543307086614
 31
0.0
  0
LINE
  5
12B
330
1F
100
AcDbEntity
  8
TITLE
  6
SLD-Solid
370
    18
100
AcDbLine
 10
61.84104330708662
 20
99.5
 30
0.0
 11
61.84104330708662
 21
99.83464566929135
 31
0.0
  0
LINE
  5
12C
330
1F
100
AcDbEntity
  8
TITLE
  6
SLD-Solid
370
    18
100
AcDbLine
 10
61.84104330708662
 20
0.5
 30
0.0
 11
61.84104330708662
 21
0.1653543307086614
 31
0.0
  0
LINE
  5
12D
330
1F
100
AcDbEntity
  8
TITLE
  6
SLD-Solid
370
    18
100
AcDbLine
 10
63.8095472440945
 20
99.5
 30
0.0
 11
63.8095472440945
 21
99.83464566929135
 31
0.0
  0
LINE
  5
12E
330
1F
100
AcDbEntity
  8
TITLE
  6
SLD-Solid
370
    18
100
AcDbLine
 10
63.8095472440945
 20
0.5
 30
0.0
 11
63.8095472440945
 21
0.1653543307086614
 31
0.0
  0
LINE
  5
12F
330
1F
100
AcDbEntity
  8
TITLE
  6
SLD-Solid
370
    18
100
AcDbLine
 10
65.77805118110236
 20
99.5
 30
0.0
 11
65.77805118110236
 21
99.83464566929135
 31
0.0
  0
LINE
  5
130
330
1F
100
AcDbEntity
  8
TITLE
  6
SLD-Solid
370
    18
100
AcDbLine
 10
65.77805118110236
 20
0.5
 30
0.0
 11
65.77805118110236
 21
0.1653543307086614
 31
0.0
  0
LINE
  5
131
330
1F
100
AcDbEntity
  8
TITLE
  6
SLD-Solid
370
    18
100
AcDbLine
 10
67.74655511811025
 20
99.5
 30
0.0
 11
67.74655511811025
 21
99.83464566929135
 31
0.0
  0
LINE
  5
132
330
1F
100
AcDbEntity
  8
TITLE
  6
SLD-Solid
370
    18
100
AcDbLine
 10
67.74655511811025
 20
0.5
 30
0.0
 11
67.74655511811025
 21
0.1653543307086614
 31
0.0
  0
LINE
  5
133
330
1F
100
AcDbEntity
  8
TITLE
  6
SLD-Solid
370
    18
100
AcDbLine
 10
69.71505905511812
 20
99.5
 30
0.0
 11
69.71505905511812
 21
99.83464566929135
 31
0.0
  0
LINE
  5
134
330
1F
100
AcDbEntity
  8
TITLE
  6
SLD-Solid
370
    18
100
AcDbLine
 10
69.71505905511812
 20
0.5
 30
0.0
 11
69.71505905511812
 21
0.1653543307086614
 31
0.0
  0
LINE
  5
135
330
1F
100
AcDbEntity
  8
TITLE
  6
SLD-Solid
370
    18
100
AcDbLine
 10
71.68356299212599
 20
99.5
 30
0.0
 11
71.68356299212599
 21
99.83464566929135
 31
0.0
  0
LINE
  5
136
330
1F
100
AcDbEntity
  8
TITLE
  6
SLD-Solid
370
    18
100
AcDbLine
 10
71.68356299212599
 20
0.5
 30
0.0
 11
71.68356299212599
 21
0.1653543307086614
 31
0.0
  0
LINE
  5
137
330
1F
100
AcDbEntity
  8
TITLE
  6
SLD-Solid
370
    18
100
AcDbLine
 10
73.65206692913387
 20
99.5
 30
0.0
 11
73.65206692913387
 21
99.83464566929135
 31
0.0
  0
LINE
  5
138
330
1F
100
AcDbEntity
  8
TITLE
  6
SLD-Solid
370
    18
100
AcDbLine
 10
73.65206692913387
 20
0.5
 30
0.0
 11
73.65206692913387
 21
0.1653543307086614
 31
0.0
  0
LINE
  5
139
330
1F
100
AcDbEntity
  8
TITLE
  6
SLD-Solid
370
    18
100
AcDbLine
 10
75.62057086614173
 20
99.5
 30
0.0
 11
75.62057086614173
 21
99.83464566929135
 31
0.0
  0
LINE
  5
13A
330
1F
100
AcDbEntity
  8
TITLE
  6
SLD-Solid
370
    18
100
AcDbLine
 10
75.62057086614173
 20
0.5
 30
0.0
 11
75.62057086614173
 21
0.1653543307086614
 31
0.0
  0
LINE
  5
13B
330
1F
100
AcDbEntity
  8
TITLE
  6
SLD-Solid
370
    18
100
AcDbLine
 10
77.58907480314961
 20
99.5
 30
0.0
 11
77.58907480314961
 21
99.83464566929135
 31
0.0
  0
LINE
  5
13C
330
1F
100
AcDbEntity
  8
TITLE
  6
SLD-Solid
370
    18
100
AcDbLine
 10
77.58907480314961
 20
0.5
 30
0.0
 11
77.58907480314961
 21
0.1653543307086614
 31
0.0
  0
MTEXT
  5
13E
330
1F
100
AcDbEntity
  8
NOTES
100
AcDbMText
 10
56.78329780303407
 20
1.07029033469434
 30
0.0
 40
0.25
 41
0.0
 71
     1
 72
     1
  1
UNLESS OTHERWISE SPECIFIED DIMENSIONS ARE IN INCHES.
  7
SLDTEXTSTYLE0
 73
     1
 44
1.0
  0
MTEXT
  5
13F
330
1F
100
AcDbEntity
  8
NOTES
100
AcDbMText
 10
56.8050699278903
 20
3.083062777580423
 30
0.0
 40
0.25
 41
0.0
 71
     1
 72
     1
  1
DATE:
  7
SLDTEXTSTYLE0
 73
     1
 44
1.0
  0
MTEXT
  5
140
330
1F
100
AcDbEntity
  8
NOTES
100
AcDbMText
 10
58.91370118800531
 20
2.193032963662711
 30
0.0
 40
0.25
 41
0.0
 71
     2
 72
     1
  1
DO NOT SCALE DRAWING
  7
SLDTEXTSTYLE0
 73
     1
 44
1.0
  0
MTEXT
  5
142
330
1F
100
AcDbEntity
  8
NOTES
100
AcDbMText
 10
63.20573730750537
 20
3.268275555297605
 30
0.0
 40
0.25
 41
0.0
 71
     1
 72
     1
  1
TITLE:
  7
SLDTEXTSTYLE1
 73
     1
 44
1.0
  0
MTEXT
  5
143
330
1F
100
AcDbEntity
  8
NOTES
100
AcDbMText
 10
70.53118310516095
 20
3.268275555297605
 30
0.0
 40
0.25
 41
0.0
 71
     1
 72
     1
  1
DWG NO.
  7
SLDTEXTSTYLE1
 73
     1
 44
1.0
  0
MTEXT
  5
144
330
1F
100
AcDbEntity
  8
NOTES
100
AcDbMText
 10
70.55817532028493
 20
1.064581557673831
 30
0.0
 40
0.25
 41
0.0
 71
     1
 72
     1
  1
SCALE:     1:1
  7
SLDTEXTSTYLE1
 73
     1
 44
1.0
  0
MTEXT
  5
145
330
1F
100
AcDbEntity
  8
NOTES
100
AcDbMText
 10
74.55805676645531
 20
2.651034429460866
 30
0.0
 40
0.25
 41
0.0
 71
     2
 72
     1
  1
310-B CAD
  7
SLDTEXTSTYLE1
 73
     1
 44
1.0
  0
MTEXT
  5
146
330
1F
100
AcDbEntity
  8
NOTES
100
AcDbMText
 10
66.82421829593514
 20
2.651034429460864
 30
0.0
 40
0.25
 41
0.0
 71
     2
 72
     1
  1
310-B Waste Receptacle
  7
SLDTEXTSTYLE1
 73
     1
 44
1.0
  0
INSERT
  5
156
330
1F
100
AcDbEntity
  8
NOTES
100
AcDbBlockReference
  2
SW_NOTE_0_1
 10
56.99097262459081
 20
5.148152684778704
 30
0.0
  0
MTEXT
  5
157
330
1F
100
AcDbEntity
  8
NOTES
100
AcDbMText
 10
59.88855900816622
 20
3.086473326765869
 30
0.0
 40
0.25
 41
0.0
 71
     2
 72
     1
  1
June 11, 2021
  7
SLDTEXTSTYLE1
 73
     1
 44
1.0
  0
MTEXT
  5
158
330
1F
100
AcDbEntity
  8
TITLE
100
AcDbMText
 10
0.3276279775836454
 20
1.707830700422988
 30
0.0
 40
0.125
 41
0.0
 71
     2
 72
     1
  1
A
  7
SLDTEXTSTYLE1
 73
     1
 44
1.0
  0
MTEXT
  5
159
330
1F
100
AcDbEntity
  8
TITLE
100
AcDbMText
 10
80.03727364687498
 20
1.707830700422989
 30
0.0
 40
0.125
 41
0.0
 71
     2
 72
     1
  1
A
  7
SLDTEXTSTYLE1
 73
     1
 44
1.0
  0
MTEXT
  5
15A
330
1F
100
AcDbEntity
  8
TITLE
100
AcDbMText
 10
0.3317512413046844
 20
3.820035424832436
 30
0.0
 40
0.125
 41
0.0
 71
     2
 72
     1
  1
B
  7
SLDTEXTSTYLE1
 73
     1
 44
1.0
  0
MTEXT
  5
15B
330
1F
100
AcDbEntity
  8
TITLE
100
AcDbMText
 10
80.04139691059602
 20
3.820035424832436
 30
0.0
 40
0.125
 41
0.0
 71
     2
 72
     1
  1
B
  7
SLDTEXTSTYLE1
 73
     1
 44
1.0
  0
MTEXT
  5
15C
330
1F
100
AcDbEntity
  8
TITLE
100
AcDbMText
 10
0.3313750816934456
 20
5.788539361840311
 30
0.0
 40
0.125
 41
0.0
 71
     2
 72
     1
  1
C
  7
SLDTEXTSTYLE1
 73
     1
 44
1.0
  0
MTEXT
  5
15D
330
1F
100
AcDbEntity
  8
TITLE
100
AcDbMText
 10
80.04102075098477
 20
5.788539361840311
 30
0.0
 40
0.125
 41
0.0
 71
     2
 72
     1
  1
C
  7
SLDTEXTSTYLE1
 73
     1
 44
1.0
  0
MTEXT
  5
15E
330
1F
100
AcDbEntity
  8
TITLE
100
AcDbMText
 10
0.3311870028448151
 20
7.757043298848185
 30
0.0
 40
0.125
 41
0.0
 71
     2
 72
     1
  1
D
  7
SLDTEXTSTYLE1
 73
     1
 44
1.0
  0
MTEXT
  5
15F
330
1F
100
AcDbEntity
  8
TITLE
100
AcDbMText
 10
80.04083267213615
 20
7.757043298848187
 30
0.0
 40
0.125
 41
0.0
 71
     2
 72
     1
  1
D
  7
SLDTEXTSTYLE1
 73
     1
 44
1.0
  0
MTEXT
  5
160
330
1F
100
AcDbEntity
  8
TITLE
100
AcDbMText
 10
0.3329231160377541
 20
9.725547235856062
 30
0.0
 40
0.125
 41
0.0
 71
     2
 72
     1
  1
E
  7
SLDTEXTSTYLE1
 73
     1
 44
1.0
  0
MTEXT
  5
161
330
1F
100
AcDbEntity
  8
TITLE
100
AcDbMText
 10
80.04256878532908
 20
9.725547235856062
 30
0.0
 40
0.125
 41
0.0
 71
     2
 72
     1
  1
E
  7
SLDTEXTSTYLE1
 73
     1
 44
1.0
  0
MTEXT
  5
162
330
1F
100
AcDbEntity
  8
TITLE
100
AcDbMText
 10
0.3313461474003637
 20
11.69405117286393
 30
0.0
 40
0.125
 41
0.0
 71
     2
 72
     1
  1
F
  7
SLDTEXTSTYLE1
 73
     1
 44
1.0
  0
MTEXT
  5
163
330
1F
100
AcDbEntity
  8
TITLE
100
AcDbMText
 10
80.0409918166917
 20
11.69405117286393
 30
0.0
 40
0.125
 41
0.0
 71
     2
 72
     1
  1
F
  7
SLDTEXTSTYLE1
 73
     1
 44
1.0
  0
MTEXT
  5
164
330
1F
100
AcDbEntity
  8
TITLE
100
AcDbMText
 10
0.332257605436456
 20
13.66255510987181
 30
0.0
 40
0.125
 41
0.0
 71
     2
 72
     1
  1
G
  7
SLDTEXTSTYLE1
 73
     1
 44
1.0
  0
MTEXT
  5
165
330
1F
100
AcDbEntity
  8
TITLE
100
AcDbMText
 10
80.0419032747278
 20
13.66255510987181
 30
0.0
 40
0.125
 41
0.0
 71
     2
 72
     1
  1
G
  7
SLDTEXTSTYLE1
 73
     1
 44
1.0
  0
MTEXT
  5
166
330
1F
100
AcDbEntity
  8
TITLE
100
AcDbMText
 10
0.3323733456814148
 20
15.63105904687968
 30
0.0
 40
0.125
 41
0.0
 71
     2
 72
     1
  1
H
  7
SLDTEXTSTYLE1
 73
     1
 44
1.0
  0
MTEXT
  5
167
330
1F
100
AcDbEntity
  8
TITLE
100
AcDbMText
 10
80.04201901497274
 20
15.63105904687968
 30
0.0
 40
0.125
 41
0.0
 71
     2
 72
     1
  1
H
  7
SLDTEXTSTYLE1
 73
     1
 44
1.0
  0
MTEXT
  5
168
330
1F
100
AcDbEntity
  8
TITLE
100
AcDbMText
 10
0.3315776305595838
 20
17.59956298388755
 30
0.0
 40
0.125
 41
0.0
 71
     2
 72
     1
  1
J
  7
SLDTEXTSTYLE1
 73
     1
 44
1.0
  0
MTEXT
  5
169
330
1F
100
AcDbEntity
  8
TITLE
100
AcDbMText
 10
80.04122329985091
 20
17.59956298388756
 30
0.0
 40
0.125
 41
0.0
 71
     2
 72
     1
  1
J
  7
SLDTEXTSTYLE1
 73
     1
 44
1.0
  0
MTEXT
  5
16A
330
1F
100
AcDbEntity
  8
TITLE
100
AcDbMText
 10
0.3323154765159243
 20
19.56806692089543
 30
0.0
 40
0.125
 41
0.0
 71
     2
 72
     1
  1
K
  7
SLDTEXTSTYLE1
 73
     1
 44
1.0
  0
MTEXT
  5
16B
330
1F
100
AcDbEntity
  8
TITLE
100
AcDbMText
 10
80.04196114580725
 20
19.56806692089543
 30
0.0
 40
0.125
 41
0.0
 71
     2
 72
     1
  1
K
  7
SLDTEXTSTYLE1
 73
     1
 44
1.0
  0
MTEXT
  5
16C
330
1F
100
AcDbEntity
  8
TITLE
100
AcDbMText
 10
0.3312448739242835
 20
21.53657085790331
 30
0.0
 40
0.125
 41
0.0
 71
     2
 72
     1
  1
L
  7
SLDTEXTSTYLE1
 73
     1
 44
1.0
  0
MTEXT
  5
16D
330
1F
100
AcDbEntity
  8
TITLE
100
AcDbMText
 10
80.04089054321562
 20
21.53657085790331
 30
0.0
 40
0.125
 41
0.0
 71
     2
 72
     1
  1
L
  7
SLDTEXTSTYLE1
 73
     1
 44
1.0
  0
MTEXT
  5
16E
330
1F
100
AcDbEntity
  8
TITLE
100
AcDbMText
 10
0.3283224192293962
 20
23.50507479491118
 30
0.0
 40
0.125
 41
0.0
 71
     2
 72
     1
  1
M
  7
SLDTEXTSTYLE1
 73
     1
 44
1.0
  0
MTEXT
  5
16F
330
1F
100
AcDbEntity
  8
TITLE
100
AcDbMText
 10
80.03796808852074
 20
23.50507479491118
 30
0.0
 40
0.125
 41
0.0
 71
     2
 72
     1
  1
M
  7
SLDTEXTSTYLE1
 73
     1
 44
1.0
  0
MTEXT
  5
170
330
1F
100
AcDbEntity
  8
TITLE
100
AcDbMText
 10
0.3315342275836453
 20
25.47357873191906
 30
0.0
 40
0.125
 41
0.0
 71
     2
 72
     1
  1
N
  7
SLDTEXTSTYLE1
 73
     1
 44
1.0
  0
MTEXT
  5
171
330
1F
100
AcDbEntity
  8
TITLE
100
AcDbMText
 10
80.04117989687497
 20
25.47357873191906
 30
0.0
 40
0.125
 41
0.0
 71
     2
 72
     1
  1
N
  7
SLDTEXTSTYLE1
 73
     1
 44
1.0
  0
MTEXT
  5
172
330
1F
100
AcDbEntity
  8
TITLE
100
AcDbMText
 10
0.3321997349363143
 20
27.44208266892693
 30
0.0
 40
0.125
 41
0.0
 71
     2
 72
     1
  1
P
  7
SLDTEXTSTYLE1
 73
     1
 44
1.0
  0
MTEXT
  5
173
330
1F
100
AcDbEntity
  8
TITLE
100
AcDbMText
 10
80.04184540422764
 20
27.44208266892693
 30
0.0
 40
0.125
 41
0.0
 71
     2
 72
     1
  1
P
  7
SLDTEXTSTYLE1
 73
     1
 44
1.0
  0
MTEXT
  5
174
330
1F
100
AcDbEntity
  8
TITLE
100
AcDbMText
 10
0.3309265867271644
 20
29.41058660593481
 30
0.0
 40
0.125
 41
0.0
 71
     2
 72
     1
  1
R
  7
SLDTEXTSTYLE1
 73
     1
 44
1.0
  0
MTEXT
  5
175
330
1F
100
AcDbEntity
  8
TITLE
100
AcDbMText
 10
80.04057225601849
 20
29.41058660593481
 30
0.0
 40
0.125
 41
0.0
 71
     2
 72
     1
  1
R
  7
SLDTEXTSTYLE1
 73
     1
 44
1.0
  0
MTEXT
  5
176
330
1F
100
AcDbEntity
  8
TITLE
100
AcDbMText
 10
0.3323010070777431
 20
31.37909054294268
 30
0.0
 40
0.125
 41
0.0
 71
     2
 72
     1
  1
T
  7
SLDTEXTSTYLE1
 73
     1
 44
1.0
  0
MTEXT
  5
177
330
1F
100
AcDbEntity
  8
TITLE
100
AcDbMText
 10
80.04194667636908
 20
31.37909054294268
 30
0.0
 40
0.125
 41
0.0
 71
     2
 72
     1
  1
T
  7
SLDTEXTSTYLE1
 73
     1
 44
1.0
  0
MTEXT
  5
178
330
1F
100
AcDbEntity
  8
TITLE
100
AcDbMText
 10
0.3328507755201046
 20
33.34759447995055
 30
0.0
 40
0.125
 41
0.0
 71
     2
 72
     1
  1
U
  7
SLDTEXTSTYLE1
 73
     1
 44
1.0
  0
MTEXT
  5
179
330
1F
100
AcDbEntity
  8
TITLE
100
AcDbMText
 10
80.04249644481143
 20
33.34759447995056
 30
0.0
 40
0.125
 41
0.0
 71
     2
 72
     1
  1
U
  7
SLDTEXTSTYLE1
 73
     1
 44
1.0
  0
MTEXT
  5
17A
330
1F
100
AcDbEntity
  8
TITLE
100
AcDbMText
 10
0.3307529773167151
 20
35.31609841695843
 30
0.0
 40
0.125
 41
0.0
 71
     2
 72
     1
  1
V
  7
SLDTEXTSTYLE1
 73
     1
 44
1.0
  0
MTEXT
  5
17B
330
1F
100
AcDbEntity
  8
TITLE
100
AcDbMText
 10
80.04039864660804
 20
35.31609841695843
 30
0.0
 40
0.125
 41
0.0
 71
     2
 72
     1
  1
V
  7
SLDTEXTSTYLE1
 73
     1
 44
1.0
  0
MTEXT
  5
17C
330
1F
100
AcDbEntity
  8
TITLE
100
AcDbMText
 10
0.3327784409203867
 20
37.2846023539663
 30
0.0
 40
0.125
 41
0.0
 71
     2
 72
     1
  1
W
  7
SLDTEXTSTYLE1
 73
     1
 44
1.0
  0
MTEXT
  5
17D
330
1F
100
AcDbEntity
  8
TITLE
100
AcDbMText
 10
80.04242411021173
 20
37.2846023539663
 30
0.0
 40
0.125
 41
0.0
 71
     2
 72
     1
  1
W
  7
SLDTEXTSTYLE1
 73
     1
 44
1.0
  0
MTEXT
  5
17E
330
1F
100
AcDbEntity
  8
TITLE
100
AcDbMText
 10
0.3321997349363143
 20
39.25310629097418
 30
0.0
 40
0.125
 41
0.0
 71
     2
 72
     1
  1
Y
  7
SLDTEXTSTYLE1
 73
     1
 44
1.0
  0
MTEXT
  5
17F
330
1F
100
AcDbEntity
  8
TITLE
100
AcDbMText
 10
80.04184540422764
 20
39.25310629097417
 30
0.0
 40
0.125
 41
0.0
 71
     2
 72
     1
  1
Y
  7
SLDTEXTSTYLE1
 73
     1
 44
1.0
  0
MTEXT
  5
180
330
1F
100
AcDbEntity
  8
TITLE
100
AcDbMText
 10
0.32257878981296
 20
41.22161022798205
 30
0.0
 40
0.125
 41
0.0
 71
     2
 72
     1
  1
AA
  7
SLDTEXTSTYLE1
 73
     1
 44
1.0
  0
MTEXT
  5
181
330
1F
100
AcDbEntity
  8
TITLE
100
AcDbMText
 10
80.03222445910428
 20
41.22161022798205
 30
0.0
 40
0.125
 41
0.0
 71
     2
 72
     1
  1
AA
  7
SLDTEXTSTYLE1
 73
     1
 44
1.0
  0
MTEXT
  5
182
330
1F
100
AcDbEntity
  8
TITLE
100
AcDbMText
 10
0.3267020535339989
 20
43.19011416498994
 30
0.0
 40
0.125
 41
0.0
 71
     2
 72
     1
  1
AB
  7
SLDTEXTSTYLE1
 73
     1
 44
1.0
  0
MTEXT
  5
183
330
1F
100
AcDbEntity
  8
TITLE
100
AcDbMText
 10
80.03634772282533
 20
43.19011416498994
 30
0.0
 40
0.125
 41
0.0
 71
     2
 72
     1
  1
AB
  7
SLDTEXTSTYLE1
 73
     1
 44
1.0
  0
MTEXT
  5
184
330
1F
100
AcDbEntity
  8
TITLE
100
AcDbMText
 10
0.3263258985060407
 20
45.1586181019978
 30
0.0
 40
0.125
 41
0.0
 71
     2
 72
     1
  1
AC
  7
SLDTEXTSTYLE1
 73
     1
 44
1.0
  0
MTEXT
  5
185
330
1F
100
AcDbEntity
  8
TITLE
100
AcDbMText
 10
80.03597156779738
 20
45.1586181019978
 30
0.0
 40
0.125
 41
0.0
 71
     2
 72
     1
  1
AC
  7
SLDTEXTSTYLE1
 73
     1
 44
1.0
  0
MTEXT
  5
186
330
1F
100
AcDbEntity
  8
TITLE
100
AcDbMText
 10
0.3261378196574102
 20
47.12712203900567
 30
0.0
 40
0.125
 41
0.0
 71
     2
 72
     1
  1
AD
  7
SLDTEXTSTYLE1
 73
     1
 44
1.0
  0
MTEXT
  5
187
330
1F
100
AcDbEntity
  8
TITLE
100
AcDbMText
 10
80.03578348894874
 20
47.12712203900567
 30
0.0
 40
0.125
 41
0.0
 71
     2
 72
     1
  1
AD
  7
SLDTEXTSTYLE1
 73
     1
 44
1.0
  0
MTEXT
  5
188
330
1F
100
AcDbEntity
  8
TITLE
100
AcDbMText
 10
0.3278739282670687
 20
49.09562597601355
 30
0.0
 40
0.125
 41
0.0
 71
     2
 72
     1
  1
AE
  7
SLDTEXTSTYLE1
 73
     1
 44
1.0
  0
MTEXT
  5
189
330
1F
100
AcDbEntity
  8
TITLE
100
AcDbMText
 10
80.0375195975584
 20
49.09562597601355
 30
0.0
 40
0.125
 41
0.0
 71
     2
 72
     1
  1
AE
  7
SLDTEXTSTYLE1
 73
     1
 44
1.0
  0
MTEXT
  5
18A
330
1F
100
AcDbEntity
  8
TITLE
100
AcDbMText
 10
0.3262969596296783
 20
51.06412991302141
 30
0.0
 40
0.125
 41
0.0
 71
     2
 72
     1
  1
AF
  7
SLDTEXTSTYLE1
 73
     1
 44
1.0
  0
MTEXT
  5
18B
330
1F
100
AcDbEntity
  8
TITLE
100
AcDbMText
 10
80.035942628921
 20
51.06412991302141
 30
0.0
 40
0.125
 41
0.0
 71
     2
 72
     1
  1
AF
  7
SLDTEXTSTYLE1
 73
     1
 44
1.0
  0
MTEXT
  5
18C
330
1F
100
AcDbEntity
  8
TITLE
100
AcDbMText
 10
0.3272084176657706
 20
53.03263385002931
 30
0.0
 40
0.125
 41
0.0
 71
     2
 72
     1
  1
AG
  7
SLDTEXTSTYLE1
 73
     1
 44
1.0
  0
MTEXT
  5
18D
330
1F
100
AcDbEntity
  8
TITLE
100
AcDbMText
 10
80.0368540869571
 20
53.03263385002931
 30
0.0
 40
0.125
 41
0.0
 71
     2
 72
     1
  1
AG
  7
SLDTEXTSTYLE1
 73
     1
 44
1.0
  0
MTEXT
  5
18E
330
1F
100
AcDbEntity
  8
TITLE
100
AcDbMText
 10
0.3273241624940099
 20
55.00113778703717
 30
0.0
 40
0.125
 41
0.0
 71
     2
 72
     1
  1
AH
  7
SLDTEXTSTYLE1
 73
     1
 44
1.0
  0
MTEXT
  5
18F
330
1F
100
AcDbEntity
  8
TITLE
100
AcDbMText
 10
80.03696983178533
 20
55.00113778703717
 30
0.0
 40
0.125
 41
0.0
 71
     2
 72
     1
  1
AH
  7
SLDTEXTSTYLE1
 73
     1
 44
1.0
  0
MTEXT
  5
190
330
1F
100
AcDbEntity
  8
TITLE
100
AcDbMText
 10
0.3265284427888985
 20
56.96964172404503
 30
0.0
 40
0.125
 41
0.0
 71
     2
 72
     1
  1
AJ
  7
SLDTEXTSTYLE1
 73
     1
 44
1.0
  0
MTEXT
  5
191
330
1F
100
AcDbEntity
  8
TITLE
100
AcDbMText
 10
80.03617411208023
 20
56.96964172404504
 30
0.0
 40
0.125
 41
0.0
 71
     2
 72
     1
  1
AJ
  7
SLDTEXTSTYLE1
 73
     1
 44
1.0
  0
MTEXT
  5
192
330
1F
100
AcDbEntity
  8
TITLE
100
AcDbMText
 10
0.327266288745239
 20
58.93814566105291
 30
0.0
 40
0.125
 41
0.0
 71
     2
 72
     1
  1
AK
  7
SLDTEXTSTYLE1
 73
     1
 44
1.0
  0
MTEXT
  5
193
330
1F
100
AcDbEntity
  8
TITLE
100
AcDbMText
 10
80.03691195803657
 20
58.93814566105292
 30
0.0
 40
0.125
 41
0.0
 71
     2
 72
     1
  1
AK
  7
SLDTEXTSTYLE1
 73
     1
 44
1.0
  0
MTEXT
  5
194
330
1F
100
AcDbEntity
  8
TITLE
100
AcDbMText
 10
0.3261956815703178
 20
60.90664959806079
 30
0.0
 40
0.125
 41
0.0
 71
     2
 72
     1
  1
AL
  7
SLDTEXTSTYLE1
 73
     1
 44
1.0
  0
MTEXT
  5
195
330
1F
100
AcDbEntity
  8
TITLE
100
AcDbMText
 10
80.03584135086165
 20
60.90664959806079
 30
0.0
 40
0.125
 41
0.0
 71
     2
 72
     1
  1
AL
  7
SLDTEXTSTYLE1
 73
     1
 44
1.0
  0
MTEXT
  5
196
330
1F
100
AcDbEntity
  8
TITLE
100
AcDbMText
 10
0.3232732314587108
 20
62.87515353506868
 30
0.0
 40
0.125
 41
0.0
 71
     2
 72
     1
  1
AM
  7
SLDTEXTSTYLE1
 73
     1
 44
1.0
  0
MTEXT
  5
197
330
1F
100
AcDbEntity
  8
TITLE
100
AcDbMText
 10
80.03291890075005
 20
62.87515353506868
 30
0.0
 40
0.125
 41
0.0
 71
     2
 72
     1
  1
AM
  7
SLDTEXTSTYLE1
 73
     1
 44
1.0
  0
MTEXT
  5
198
330
1F
100
AcDbEntity
  8
TITLE
100
AcDbMText
 10
0.32648503981296
 20
64.84365747207654
 30
0.0
 40
0.125
 41
0.0
 71
     2
 72
     1
  1
AN
  7
SLDTEXTSTYLE1
 73
     1
 44
1.0
  0
MTEXT
  5
199
330
1F
100
AcDbEntity
  8
TITLE
100
AcDbMText
 10
80.03613070910428
 20
64.84365747207654
 30
0.0
 40
0.125
 41
0.0
 71
     2
 72
     1
  1
AN
  7
SLDTEXTSTYLE1
 73
     1
 44
1.0
  0
MTEXT
  5
19A
330
1F
100
AcDbEntity
  8
TITLE
100
AcDbMText
 10
0.3271505425823485
 20
66.81216140908441
 30
0.0
 40
0.125
 41
0.0
 71
     2
 72
     1
  1
AP
  7
SLDTEXTSTYLE1
 73
     1
 44
1.0
  0
MTEXT
  5
19B
330
1F
100
AcDbEntity
  8
TITLE
100
AcDbMText
 10
80.03679621187368
 20
66.81216140908441
 30
0.0
 40
0.125
 41
0.0
 71
     2
 72
     1
  1
AP
  7
SLDTEXTSTYLE1
 73
     1
 44
1.0
  0
MTEXT
  5
19C
330
1F
100
AcDbEntity
  8
TITLE
100
AcDbMText
 10
0.325877398956479
 20
68.78066534609229
 30
0.0
 40
0.125
 41
0.0
 71
     2
 72
     1
  1
AR
  7
SLDTEXTSTYLE1
 73
     1
 44
1.0
  0
MTEXT
  5
19D
330
1F
100
AcDbEntity
  8
TITLE
100
AcDbMText
 10
80.03552306824781
 20
68.7806653460923
 30
0.0
 40
0.125
 41
0.0
 71
     2
 72
     1
  1
AR
  7
SLDTEXTSTYLE1
 73
     1
 44
1.0
  0
MTEXT
  5
19E
330
1F
100
AcDbEntity
  8
TITLE
100
AcDbMText
 10
0.3272518193070578
 20
70.74916928310017
 30
0.0
 40
0.125
 41
0.0
 71
     2
 72
     1
  1
AT
  7
SLDTEXTSTYLE1
 73
     1
 44
1.0
  0
MTEXT
  5
19F
330
1F
100
AcDbEntity
  8
TITLE
100
AcDbMText
 10
80.03689748859838
 20
70.74916928310016
 30
0.0
 40
0.125
 41
0.0
 71
     2
 72
     1
  1
AT
  7
SLDTEXTSTYLE1
 73
     1
 44
1.0
  0
MTEXT
  5
1A0
330
1F
100
AcDbEntity
  8
TITLE
100
AcDbMText
 10
0.3278015877494193
 20
72.71767322010805
 30
0.0
 40
0.125
 41
0.0
 71
     2
 72
     1
  1
AU
  7
SLDTEXTSTYLE1
 73
     1
 44
1.0
  0
MTEXT
  5
1A1
330
1F
100
AcDbEntity
  8
TITLE
100
AcDbMText
 10
80.03744725704074
 20
72.71767322010804
 30
0.0
 40
0.125
 41
0.0
 71
     2
 72
     1
  1
AU
  7
SLDTEXTSTYLE1
 73
     1
 44
1.0
  0
MTEXT
  5
1A2
330
1F
100
AcDbEntity
  8
TITLE
100
AcDbMText
 10
0.3257037895460298
 20
74.6861771571159
 30
0.0
 40
0.125
 41
0.0
 71
     2
 72
     1
  1
AV
  7
SLDTEXTSTYLE1
 73
     1
 44
1.0
  0
MTEXT
  5
1A3
330
1F
100
AcDbEntity
  8
TITLE
100
AcDbMText
 10
80.03534945883736
 20
74.6861771571159
 30
0.0
 40
0.125
 41
0.0
 71
     2
 72
     1
  1
AV
  7
SLDTEXTSTYLE1
 73
     1
 44
1.0
  0
MTEXT
  5
1A4
330
1F
100
AcDbEntity
  8
TITLE
100
AcDbMText
 10
0.327729248566421
 20
76.65468109412379
 30
0.0
 40
0.125
 41
0.0
 71
     2
 72
     1
  1
AW
  7
SLDTEXTSTYLE1
 73
     1
 44
1.0
  0
MTEXT
  5
1A5
330
1F
100
AcDbEntity
  8
TITLE
100
AcDbMText
 10
80.03737491785775
 20
76.65468109412379
 30
0.0
 40
0.125
 41
0.0
 71
     2
 72
     1
  1
AW
  7
SLDTEXTSTYLE1
 73
     1
 44
1.0
  0
MTEXT
  5
1A6
330
1F
100
AcDbEntity
  8
TITLE
100
AcDbMText
 10
0.3271505425823485
 20
78.62318503113167
 30
0.0
 40
0.125
 41
0.0
 71
     2
 72
     1
  1
AY
  7
SLDTEXTSTYLE1
 73
     1
 44
1.0
  0
MTEXT
  5
1A7
330
1F
100
AcDbEntity
  8
TITLE
100
AcDbMText
 10
80.03679621187368
 20
78.62318503113167
 30
0.0
 40
0.125
 41
0.0
 71
     2
 72
     1
  1
AY
  7
SLDTEXTSTYLE1
 73
     1
 44
1.0
  0
MTEXT
  5
1A8
330
1F
100
AcDbEntity
  8
TITLE
100
AcDbMText
 10
0.3267020535339989
 20
80.59168896813954
 30
0.0
 40
0.125
 41
0.0
 71
     2
 72
     1
  1
BA
  7
SLDTEXTSTYLE1
 73
     1
 44
1.0
  0
MTEXT
  5
1A9
330
1F
100
AcDbEntity
  8
TITLE
100
AcDbMText
 10
80.03634772282533
 20
80.59168896813954
 30
0.0
 40
0.125
 41
0.0
 71
     2
 72
     1
  1
BA
  7
SLDTEXTSTYLE1
 73
     1
 44
1.0
  0
MTEXT
  5
1AA
330
1F
100
AcDbEntity
  8
TITLE
100
AcDbMText
 10
0.3308253172550379
 20
82.56019290514742
 30
0.0
 40
0.125
 41
0.0
 71
     2
 72
     1
  1
BB
  7
SLDTEXTSTYLE1
 73
     1
 44
1.0
  0
MTEXT
  5
1AB
330
1F
100
AcDbEntity
  8
TITLE
100
AcDbMText
 10
80.04047098654637
 20
82.56019290514742
 30
0.0
 40
0.125
 41
0.0
 71
     2
 72
     1
  1
BB
  7
SLDTEXTSTYLE1
 73
     1
 44
1.0
  0
MTEXT
  5
1AC
330
1F
100
AcDbEntity
  8
TITLE
100
AcDbMText
 10
0.3304491530605189
 20
84.52869684215528
 30
0.0
 40
0.125
 41
0.0
 71
     2
 72
     1
  1
BC
  7
SLDTEXTSTYLE1
 73
     1
 44
1.0
  0
MTEXT
  5
1AD
330
1F
100
AcDbEntity
  8
TITLE
100
AcDbMText
 10
80.04009482235185
 20
84.52869684215528
 30
0.0
 40
0.125
 41
0.0
 71
     2
 72
     1
  1
BC
  7
SLDTEXTSTYLE1
 73
     1
 44
1.0
  0
MTEXT
  5
1AE
330
1F
100
AcDbEntity
  8
TITLE
100
AcDbMText
 10
0.3302610742118884
 20
86.49720077916318
 30
0.0
 40
0.125
 41
0.0
 71
     2
 72
     1
  1
BD
  7
SLDTEXTSTYLE1
 73
     1
 44
1.0
  0
MTEXT
  5
1AF
330
1F
100
AcDbEntity
  8
TITLE
100
AcDbMText
 10
80.03990674350321
 20
86.4972007791632
 30
0.0
 40
0.125
 41
0.0
 71
     2
 72
     1
  1
BD
  7
SLDTEXTSTYLE1
 73
     1
 44
1.0
  0
MTEXT
  5
1B0
330
1F
100
AcDbEntity
  8
TITLE
100
AcDbMText
 10
0.3319971919881077
 20
88.46570471617105
 30
0.0
 40
0.125
 41
0.0
 71
     2
 72
     1
  1
BE
  7
SLDTEXTSTYLE1
 73
     1
 44
1.0
  0
MTEXT
  5
1B1
330
1F
100
AcDbEntity
  8
TITLE
100
AcDbMText
 10
80.04164286127944
 20
88.46570471617105
 30
0.0
 40
0.125
 41
0.0
 71
     2
 72
     1
  1
BE
  7
SLDTEXTSTYLE1
 73
     1
 44
1.0
  0
MTEXT
  5
1B2
330
1F
100
AcDbEntity
  8
TITLE
100
AcDbMText
 10
0.3304202233507172
 20
90.43420865317891
 30
0.0
 40
0.125
 41
0.0
 71
     2
 72
     1
  1
BF
  7
SLDTEXTSTYLE1
 73
     1
 44
1.0
  0
MTEXT
  5
1B3
330
1F
100
AcDbEntity
  8
TITLE
100
AcDbMText
 10
80.04006589264205
 20
90.43420865317889
 30
0.0
 40
0.125
 41
0.0
 71
     2
 72
     1
  1
BF
  7
SLDTEXTSTYLE1
 73
     1
 44
1.0
  0
MTEXT
  5
1B4
330
1F
100
AcDbEntity
  8
TITLE
100
AcDbMText
 10
0.3313316813868096
 20
92.4027125901868
 30
0.0
 40
0.125
 41
0.0
 71
     2
 72
     1
  1
BG
  7
SLDTEXTSTYLE1
 73
     1
 44
1.0
  0
MTEXT
  5
1B5
330
1F
100
AcDbEntity
  8
TITLE
100
AcDbMText
 10
80.04097735067815
 20
92.4027125901868
 30
0.0
 40
0.125
 41
0.0
 71
     2
 72
     1
  1
BG
  7
SLDTEXTSTYLE1
 73
     1
 44
1.0
  0
MTEXT
  5
1B6
330
1F
100
AcDbEntity
  8
TITLE
100
AcDbMText
 10
0.331447417048488
 20
94.37121652719466
 30
0.0
 40
0.125
 41
0.0
 71
     2
 72
     1
  1
BH
  7
SLDTEXTSTYLE1
 73
     1
 44
1.0
  0
MTEXT
  5
1B7
330
1F
100
AcDbEntity
  8
TITLE
100
AcDbMText
 10
80.04109308633981
 20
94.37121652719466
 30
0.0
 40
0.125
 41
0.0
 71
     2
 72
     1
  1
BH
  7
SLDTEXTSTYLE1
 73
     1
 44
1.0
  0
MTEXT
  5
1B8
330
1F
100
AcDbEntity
  8
TITLE
100
AcDbMText
 10
0.3306517065099374
 20
96.33972046420254
 30
0.0
 40
0.125
 41
0.0
 71
     2
 72
     1
  1
BJ
  7
SLDTEXTSTYLE1
 73
     1
 44
1.0
  0
MTEXT
  5
1B9
330
1F
100
AcDbEntity
  8
TITLE
100
AcDbMText
 10
80.04029737580127
 20
96.33972046420254
 30
0.0
 40
0.125
 41
0.0
 71
     2
 72
     1
  1
BJ
  7
SLDTEXTSTYLE1
 73
     1
 44
1.0
  0
MTEXT
  5
1BA
330
1F
100
AcDbEntity
  8
TITLE
100
AcDbMText
 10
0.331389552466278
 20
98.45192518861198
 30
0.0
 40
0.125
 41
0.0
 71
     2
 72
     1
  1
BK
  7
SLDTEXTSTYLE1
 73
     1
 44
1.0
  0
MTEXT
  5
1BB
330
1F
100
AcDbEntity
  8
TITLE
100
AcDbMText
 10
80.04103522175761
 20
98.45192518861197
 30
0.0
 40
0.125
 41
0.0
 71
     2
 72
     1
  1
BK
  7
SLDTEXTSTYLE1
 73
     1
 44
1.0
  0
MTEXT
  5
1BC
330
1F
100
AcDbEntity
  8
TITLE
100
AcDbMText
 10
1.640445237055303
 20
0.4125551098718104
 30
0.0
 40
0.125
 41
0.0
 71
     2
 72
     1
  1
40
  7
SLDTEXTSTYLE1
 73
     1
 44
1.0
  0
MTEXT
  5
1BD
330
1F
100
AcDbEntity
  8
TITLE
100
AcDbMText
 10
1.640445237055303
 20
99.74720077916314
 30
0.0
 40
0.125
 41
0.0
 71
     2
 72
     1
  1
40
  7
SLDTEXTSTYLE1
 73
     1
 44
1.0
  0
MTEXT
  5
1BE
330
1F
100
AcDbEntity
  8
TITLE
100
AcDbMText
 10
3.767659803984436
 20
0.4125551098718104
 30
0.0
 40
0.125
 41
0.0
 71
     2
 72
     1
  1
39
  7
SLDTEXTSTYLE1
 73
     1
 44
1.0
  0
MTEXT
  5
1BF
330
1F
100
AcDbEntity
  8
TITLE
100
AcDbMText
 10
3.767659803984436
 20
99.74720077916314
 30
0.0
 40
0.125
 41
0.0
 71
     2
 72
     1
  1
39
  7
SLDTEXTSTYLE1
 73
     1
 44
1.0
  0
MTEXT
  5
1C0
330
1F
100
AcDbEntity
  8
TITLE
100
AcDbMText
 10
5.736163740992311
 20
0.4125551098718105
 30
0.0
 40
0.125
 41
0.0
 71
     2
 72
     1
  1
38
  7
SLDTEXTSTYLE1
 73
     1
 44
1.0
  0
MTEXT
  5
1C1
330
1F
100
AcDbEntity
  8
TITLE
100
AcDbMText
 10
5.736163740992311
 20
99.74720077916314
 30
0.0
 40
0.125
 41
0.0
 71
     2
 72
     1
  1
38
  7
SLDTEXTSTYLE1
 73
     1
 44
1.0
  0
MTEXT
  5
1C2
330
1F
100
AcDbEntity
  8
TITLE
100
AcDbMText
 10
7.704667678000185
 20
0.4125551098718104
 30
0.0
 40
0.125
 41
0.0
 71
     2
 72
     1
  1
37
  7
SLDTEXTSTYLE1
 73
     1
 44
1.0
  0
MTEXT
  5
1C3
330
1F
100
AcDbEntity
  8
TITLE
100
AcDbMText
 10
7.704667678000184
 20
99.74720077916314
 30
0.0
 40
0.125
 41
0.0
 71
     2
 72
     1
  1
37
  7
SLDTEXTSTYLE1
 73
     1
 44
1.0
  0
MTEXT
  5
1C4
330
1F
100
AcDbEntity
  8
TITLE
100
AcDbMText
 10
9.673171615008059
 20
0.4125551098718104
 30
0.0
 40
0.125
 41
0.0
 71
     2
 72
     1
  1
36
  7
SLDTEXTSTYLE1
 73
     1
 44
1.0
  0
MTEXT
  5
1C5
330
1F
100
AcDbEntity
  8
TITLE
100
AcDbMText
 10
9.67317161500806
 20
99.74720077916314
 30
0.0
 40
0.125
 41
0.0
 71
     2
 72
     1
  1
36
  7
SLDTEXTSTYLE1
 73
     1
 44
1.0
  0
MTEXT
  5
1C6
330
1F
100
AcDbEntity
  8
TITLE
100
AcDbMText
 10
11.64167555201593
 20
0.4125551098718104
 30
0.0
 40
0.125
 41
0.0
 71
     2
 72
     1
  1
35
  7
SLDTEXTSTYLE1
 73
     1
 44
1.0
  0
MTEXT
  5
1C7
330
1F
100
AcDbEntity
  8
TITLE
100
AcDbMText
 10
11.64167555201593
 20
99.74720077916314
 30
0.0
 40
0.125
 41
0.0
 71
     2
 72
     1
  1
35
  7
SLDTEXTSTYLE1
 73
     1
 44
1.0
  0
MTEXT
  5
1C8
330
1F
100
AcDbEntity
  8
TITLE
100
AcDbMText
 10
13.61017948902381
 20
0.4125551098718104
 30
0.0
 40
0.125
 41
0.0
 71
     2
 72
     1
  1
34
  7
SLDTEXTSTYLE1
 73
     1
 44
1.0
  0
MTEXT
  5
1C9
330
1F
100
AcDbEntity
  8
TITLE
100
AcDbMText
 10
13.61017948902381
 20
99.74720077916314
 30
0.0
 40
0.125
 41
0.0
 71
     2
 72
     1
  1
34
  7
SLDTEXTSTYLE1
 73
     1
 44
1.0
  0
MTEXT
  5
1CA
330
1F
100
AcDbEntity
  8
TITLE
100
AcDbMText
 10
15.57868342603168
 20
0.4125551098718104
 30
0.0
 40
0.125
 41
0.0
 71
     2
 72
     1
  1
33
  7
SLDTEXTSTYLE1
 73
     1
 44
1.0
  0
MTEXT
  5
1CB
330
1F
100
AcDbEntity
  8
TITLE
100
AcDbMText
 10
15.57868342603168
 20
99.74720077916314
 30
0.0
 40
0.125
 41
0.0
 71
     2
 72
     1
  1
33
  7
SLDTEXTSTYLE1
 73
     1
 44
1.0
  0
MTEXT
  5
1CC
330
1F
100
AcDbEntity
  8
TITLE
100
AcDbMText
 10
17.54718736303955
 20
0.4125551098718104
 30
0.0
 40
0.125
 41
0.0
 71
     2
 72
     1
  1
32
  7
SLDTEXTSTYLE1
 73
     1
 44
1.0
  0
MTEXT
  5
1CD
330
1F
100
AcDbEntity
  8
TITLE
100
AcDbMText
 10
17.54718736303955
 20
99.74720077916314
 30
0.0
 40
0.125
 41
0.0
 71
     2
 72
     1
  1
32
  7
SLDTEXTSTYLE1
 73
     1
 44
1.0
  0
MTEXT
  5
1CE
330
1F
100
AcDbEntity
  8
TITLE
100
AcDbMText
 10
19.51569130004743
 20
0.4125551098718104
 30
0.0
 40
0.125
 41
0.0
 71
     2
 72
     1
  1
31
  7
SLDTEXTSTYLE1
 73
     1
 44
1.0
  0
MTEXT
  5
1CF
330
1F
100
AcDbEntity
  8
TITLE
100
AcDbMText
 10
19.51569130004743
 20
99.74720077916314
 30
0.0
 40
0.125
 41
0.0
 71
     2
 72
     1
  1
31
  7
SLDTEXTSTYLE1
 73
     1
 44
1.0
  0
MTEXT
  5
1D0
330
1F
100
AcDbEntity
  8
TITLE
100
AcDbMText
 10
21.48419523705531
 20
0.4125551098718104
 30
0.0
 40
0.125
 41
0.0
 71
     2
 72
     1
  1
30
  7
SLDTEXTSTYLE1
 73
     1
 44
1.0
  0
MTEXT
  5
1D1
330
1F
100
AcDbEntity
  8
TITLE
100
AcDbMText
 10
21.48419523705531
 20
99.74720077916314
 30
0.0
 40
0.125
 41
0.0
 71
     2
 72
     1
  1
30
  7
SLDTEXTSTYLE1
 73
     1
 44
1.0
  0
MTEXT
  5
1D2
330
1F
100
AcDbEntity
  8
TITLE
100
AcDbMText
 10
23.45269917406318
 20
0.4125551098718104
 30
0.0
 40
0.125
 41
0.0
 71
     2
 72
     1
  1
29
  7
SLDTEXTSTYLE1
 73
     1
 44
1.0
  0
MTEXT
  5
1D3
330
1F
100
AcDbEntity
  8
TITLE
100
AcDbMText
 10
23.45269917406318
 20
99.74720077916314
 30
0.0
 40
0.125
 41
0.0
 71
     2
 72
     1
  1
29
  7
SLDTEXTSTYLE1
 73
     1
 44
1.0
  0
MTEXT
  5
1D4
330
1F
100
AcDbEntity
  8
TITLE
100
AcDbMText
 10
25.42120311107105
 20
0.4125551098718104
 30
0.0
 40
0.125
 41
0.0
 71
     2
 72
     1
  1
28
  7
SLDTEXTSTYLE1
 73
     1
 44
1.0
  0
MTEXT
  5
1D5
330
1F
100
AcDbEntity
  8
TITLE
100
AcDbMText
 10
25.42120311107105
 20
99.74720077916314
 30
0.0
 40
0.125
 41
0.0
 71
     2
 72
     1
  1
28
  7
SLDTEXTSTYLE1
 73
     1
 44
1.0
  0
MTEXT
  5
1D6
330
1F
100
AcDbEntity
  8
TITLE
100
AcDbMText
 10
27.38970704807892
 20
0.4125551098718104
 30
0.0
 40
0.125
 41
0.0
 71
     2
 72
     1
  1
27
  7
SLDTEXTSTYLE1
 73
     1
 44
1.0
  0
MTEXT
  5
1D7
330
1F
100
AcDbEntity
  8
TITLE
100
AcDbMText
 10
27.38970704807893
 20
99.74720077916314
 30
0.0
 40
0.125
 41
0.0
 71
     2
 72
     1
  1
27
  7
SLDTEXTSTYLE1
 73
     1
 44
1.0
  0
MTEXT
  5
1D8
330
1F
100
AcDbEntity
  8
TITLE
100
AcDbMText
 10
29.3582109850868
 20
0.4125551098718104
 30
0.0
 40
0.125
 41
0.0
 71
     2
 72
     1
  1
26
  7
SLDTEXTSTYLE1
 73
     1
 44
1.0
  0
MTEXT
  5
1D9
330
1F
100
AcDbEntity
  8
TITLE
100
AcDbMText
 10
29.3582109850868
 20
99.74720077916314
 30
0.0
 40
0.125
 41
0.0
 71
     2
 72
     1
  1
26
  7
SLDTEXTSTYLE1
 73
     1
 44
1.0
  0
MTEXT
  5
1DA
330
1F
100
AcDbEntity
  8
TITLE
100
AcDbMText
 10
31.32671492209467
 20
0.4125551098718104
 30
0.0
 40
0.125
 41
0.0
 71
     2
 72
     1
  1
25
  7
SLDTEXTSTYLE1
 73
     1
 44
1.0
  0
MTEXT
  5
1DB
330
1F
100
AcDbEntity
  8
TITLE
100
AcDbMText
 10
31.32671492209467
 20
99.74720077916312
 30
0.0
 40
0.125
 41
0.0
 71
     2
 72
     1
  1
25
  7
SLDTEXTSTYLE1
 73
     1
 44
1.0
  0
MTEXT
  5
1DC
330
1F
100
AcDbEntity
  8
TITLE
100
AcDbMText
 10
33.29521885910255
 20
0.4125551098718104
 30
0.0
 40
0.125
 41
0.0
 71
     2
 72
     1
  1
24
  7
SLDTEXTSTYLE1
 73
     1
 44
1.0
  0
MTEXT
  5
1DD
330
1F
100
AcDbEntity
  8
TITLE
100
AcDbMText
 10
33.29521885910255
 20
99.74720077916314
 30
0.0
 40
0.125
 41
0.0
 71
     2
 72
     1
  1
24
  7
SLDTEXTSTYLE1
 73
     1
 44
1.0
  0
MTEXT
  5
1DE
330
1F
100
AcDbEntity
  8
TITLE
100
AcDbMText
 10
35.26372279611042
 20
0.4125551098718104
 30
0.0
 40
0.125
 41
0.0
 71
     2
 72
     1
  1
23
  7
SLDTEXTSTYLE1
 73
     1
 44
1.0
  0
MTEXT
  5
1DF
330
1F
100
AcDbEntity
  8
TITLE
100
AcDbMText
 10
35.26372279611042
 20
99.74720077916314
 30
0.0
 40
0.125
 41
0.0
 71
     2
 72
     1
  1
23
  7
SLDTEXTSTYLE1
 73
     1
 44
1.0
  0
MTEXT
  5
1E0
330
1F
100
AcDbEntity
  8
TITLE
100
AcDbMText
 10
37.2322267331183
 20
0.4125551098718104
 30
0.0
 40
0.125
 41
0.0
 71
     2
 72
     1
  1
22
  7
SLDTEXTSTYLE1
 73
     1
 44
1.0
  0
MTEXT
  5
1E1
330
1F
100
AcDbEntity
  8
TITLE
100
AcDbMText
 10
37.2322267331183
 20
99.74720077916314
 30
0.0
 40
0.125
 41
0.0
 71
     2
 72
     1
  1
22
  7
SLDTEXTSTYLE1
 73
     1
 44
1.0
  0
MTEXT
  5
1E2
330
1F
100
AcDbEntity
  8
TITLE
100
AcDbMText
 10
39.20073067012617
 20
0.4125551098718104
 30
0.0
 40
0.125
 41
0.0
 71
     2
 72
     1
  1
21
  7
SLDTEXTSTYLE1
 73
     1
 44
1.0
  0
MTEXT
  5
1E3
330
1F
100
AcDbEntity
  8
TITLE
100
AcDbMText
 10
39.20073067012617
 20
99.74720077916314
 30
0.0
 40
0.125
 41
0.0
 71
     2
 72
     1
  1
21
  7
SLDTEXTSTYLE1
 73
     1
 44
1.0
  0
MTEXT
  5
1E4
330
1F
100
AcDbEntity
  8
TITLE
100
AcDbMText
 10
41.16923460713404
 20
0.4125551098718104
 30
0.0
 40
0.125
 41
0.0
 71
     2
 72
     1
  1
20
  7
SLDTEXTSTYLE1
 73
     1
 44
1.0
  0
MTEXT
  5
1E5
330
1F
100
AcDbEntity
  8
TITLE
100
AcDbMText
 10
41.16923460713404
 20
99.74720077916314
 30
0.0
 40
0.125
 41
0.0
 71
     2
 72
     1
  1
20
  7
SLDTEXTSTYLE1
 73
     1
 44
1.0
  0
MTEXT
  5
1E6
330
1F
100
AcDbEntity
  8
TITLE
100
AcDbMText
 10
43.13773854414192
 20
0.4125551098718104
 30
0.0
 40
0.125
 41
0.0
 71
     2
 72
     1
  1
19
  7
SLDTEXTSTYLE1
 73
     1
 44
1.0
  0
MTEXT
  5
1E7
330
1F
100
AcDbEntity
  8
TITLE
100
AcDbMText
 10
43.13773854414192
 20
99.74720077916314
 30
0.0
 40
0.125
 41
0.0
 71
     2
 72
     1
  1
19
  7
SLDTEXTSTYLE1
 73
     1
 44
1.0
  0
MTEXT
  5
1E8
330
1F
100
AcDbEntity
  8
TITLE
100
AcDbMText
 10
45.10624248114979
 20
0.4125551098718104
 30
0.0
 40
0.125
 41
0.0
 71
     2
 72
     1
  1
18
  7
SLDTEXTSTYLE1
 73
     1
 44
1.0
  0
MTEXT
  5
1E9
330
1F
100
AcDbEntity
  8
TITLE
100
AcDbMText
 10
45.10624248114979
 20
99.74720077916314
 30
0.0
 40
0.125
 41
0.0
 71
     2
 72
     1
  1
18
  7
SLDTEXTSTYLE1
 73
     1
 44
1.0
  0
MTEXT
  5
1EA
330
1F
100
AcDbEntity
  8
TITLE
100
AcDbMText
 10
47.07474641815766
 20
0.4125551098718104
 30
0.0
 40
0.125
 41
0.0
 71
     2
 72
     1
  1
17
  7
SLDTEXTSTYLE1
 73
     1
 44
1.0
  0
MTEXT
  5
1EB
330
1F
100
AcDbEntity
  8
TITLE
100
AcDbMText
 10
47.07474641815766
 20
99.74720077916314
 30
0.0
 40
0.125
 41
0.0
 71
     2
 72
     1
  1
17
  7
SLDTEXTSTYLE1
 73
     1
 44
1.0
  0
MTEXT
  5
1EC
330
1F
100
AcDbEntity
  8
TITLE
100
AcDbMText
 10
49.04325035516555
 20
0.4125551098718104
 30
0.0
 40
0.125
 41
0.0
 71
     2
 72
     1
  1
16
  7
SLDTEXTSTYLE1
 73
     1
 44
1.0
  0
MTEXT
  5
1ED
330
1F
100
AcDbEntity
  8
TITLE
100
AcDbMText
 10
49.04325035516555
 20
99.74720077916315
 30
0.0
 40
0.125
 41
0.0
 71
     2
 72
     1
  1
16
  7
SLDTEXTSTYLE1
 73
     1
 44
1.0
  0
MTEXT
  5
1EE
330
1F
100
AcDbEntity
  8
TITLE
100
AcDbMText
 10
51.01175429217341
 20
0.4125551098718104
 30
0.0
 40
0.125
 41
0.0
 71
     2
 72
     1
  1
15
  7
SLDTEXTSTYLE1
 73
     1
 44
1.0
  0
MTEXT
  5
1EF
330
1F
100
AcDbEntity
  8
TITLE
100
AcDbMText
 10
51.01175429217341
 20
99.74720077916314
 30
0.0
 40
0.125
 41
0.0
 71
     2
 72
     1
  1
15
  7
SLDTEXTSTYLE1
 73
     1
 44
1.0
  0
MTEXT
  5
1F0
330
1F
100
AcDbEntity
  8
TITLE
100
AcDbMText
 10
52.9802582291813
 20
0.4125551098718104
 30
0.0
 40
0.125
 41
0.0
 71
     2
 72
     1
  1
14
  7
SLDTEXTSTYLE1
 73
     1
 44
1.0
  0
MTEXT
  5
1F1
330
1F
100
AcDbEntity
  8
TITLE
100
AcDbMText
 10
52.98025822918129
 20
99.74720077916312
 30
0.0
 40
0.125
 41
0.0
 71
     2
 72
     1
  1
14
  7
SLDTEXTSTYLE1
 73
     1
 44
1.0
  0
MTEXT
  5
1F2
330
1F
100
AcDbEntity
  8
TITLE
100
AcDbMText
 10
54.94876216618916
 20
0.4125551098718104
 30
0.0
 40
0.125
 41
0.0
 71
     2
 72
     1
  1
13
  7
SLDTEXTSTYLE1
 73
     1
 44
1.0
  0
MTEXT
  5
1F3
330
1F
100
AcDbEntity
  8
TITLE
100
AcDbMText
 10
54.94876216618916
 20
99.74720077916314
 30
0.0
 40
0.125
 41
0.0
 71
     2
 72
     1
  1
13
  7
SLDTEXTSTYLE1
 73
     1
 44
1.0
  0
MTEXT
  5
1F4
330
1F
100
AcDbEntity
  8
TITLE
100
AcDbMText
 10
56.91726610319703
 20
0.4125551098718104
 30
0.0
 40
0.125
 41
0.0
 71
     2
 72
     1
  1
12
  7
SLDTEXTSTYLE1
 73
     1
 44
1.0
  0
MTEXT
  5
1F5
330
1F
100
AcDbEntity
  8
TITLE
100
AcDbMText
 10
56.91726610319703
 20
99.74720077916314
 30
0.0
 40
0.125
 41
0.0
 71
     2
 72
     1
  1
12
  7
SLDTEXTSTYLE1
 73
     1
 44
1.0
  0
MTEXT
  5
1F6
330
1F
100
AcDbEntity
  8
TITLE
100
AcDbMText
 10
58.88577004020492
 20
0.4125551098718104
 30
0.0
 40
0.125
 41
0.0
 71
     2
 72
     1
  1
11
  7
SLDTEXTSTYLE1
 73
     1
 44
1.0
  0
MTEXT
  5
1F7
330
1F
100
AcDbEntity
  8
TITLE
100
AcDbMText
 10
58.88577004020492
 20
99.74720077916314
 30
0.0
 40
0.125
 41
0.0
 71
     2
 72
     1
  1
11
  7
SLDTEXTSTYLE1
 73
     1
 44
1.0
  0
MTEXT
  5
1F8
330
1F
100
AcDbEntity
  8
TITLE
100
AcDbMText
 10
60.85427397721278
 20
0.4125551098718104
 30
0.0
 40
0.125
 41
0.0
 71
     2
 72
     1
  1
10
  7
SLDTEXTSTYLE1
 73
     1
 44
1.0
  0
MTEXT
  5
1F9
330
1F
100
AcDbEntity
  8
TITLE
100
AcDbMText
 10
60.85427397721278
 20
99.74720077916312
 30
0.0
 40
0.125
 41
0.0
 71
     2
 72
     1
  1
10
  7
SLDTEXTSTYLE1
 73
     1
 44
1.0
  0
MTEXT
  5
1FA
330
1F
100
AcDbEntity
  8
TITLE
100
AcDbMText
 10
62.82403659490561
 20
0.4125551098718105
 30
0.0
 40
0.125
 41
0.0
 71
     2
 72
     1
  1
9
  7
SLDTEXTSTYLE1
 73
     1
 44
1.0
  0
MTEXT
  5
1FB
330
1F
100
AcDbEntity
  8
TITLE
100
AcDbMText
 10
62.82403659490561
 20
99.74720077916314
 30
0.0
 40
0.125
 41
0.0
 71
     2
 72
     1
  1
9
  7
SLDTEXTSTYLE1
 73
     1
 44
1.0
  0
MTEXT
  5
1FC
330
1F
100
AcDbEntity
  8
TITLE
100
AcDbMText
 10
64.79254053191349
 20
0.4125551098718104
 30
0.0
 40
0.125
 41
0.0
 71
     2
 72
     1
  1
8
  7
SLDTEXTSTYLE1
 73
     1
 44
1.0
  0
MTEXT
  5
1FD
330
1F
100
AcDbEntity
  8
TITLE
100
AcDbMText
 10
64.79254053191349
 20
99.74720077916314
 30
0.0
 40
0.125
 41
0.0
 71
     2
 72
     1
  1
8
  7
SLDTEXTSTYLE1
 73
     1
 44
1.0
  0
MTEXT
  5
1FE
330
1F
100
AcDbEntity
  8
TITLE
100
AcDbMText
 10
66.76104446892136
 20
0.4125551098718104
 30
0.0
 40
0.125
 41
0.0
 71
     2
 72
     1
  1
7
  7
SLDTEXTSTYLE1
 73
     1
 44
1.0
  0
MTEXT
  5
1FF
330
1F
100
AcDbEntity
  8
TITLE
100
AcDbMText
 10
66.76104446892137
 20
99.74720077916314
 30
0.0
 40
0.125
 41
0.0
 71
     2
 72
     1
  1
7
  7
SLDTEXTSTYLE1
 73
     1
 44
1.0
  0
MTEXT
  5
200
330
1F
100
AcDbEntity
  8
TITLE
100
AcDbMText
 10
68.72954840592924
 20
0.4125551098718104
 30
0.0
 40
0.125
 41
0.0
 71
     2
 72
     1
  1
6
  7
SLDTEXTSTYLE1
 73
     1
 44
1.0
  0
MTEXT
  5
201
330
1F
100
AcDbEntity
  8
TITLE
100
AcDbMText
 10
68.72954840592924
 20
99.74720077916314
 30
0.0
 40
0.125
 41
0.0
 71
     2
 72
     1
  1
6
  7
SLDTEXTSTYLE1
 73
     1
 44
1.0
  0
MTEXT
  5
202
330
1F
100
AcDbEntity
  8
TITLE
100
AcDbMText
 10
70.69805234293709
 20
0.4125551098718104
 30
0.0
 40
0.125
 41
0.0
 71
     2
 72
     1
  1
5
  7
SLDTEXTSTYLE1
 73
     1
 44
1.0
  0
MTEXT
  5
203
330
1F
100
AcDbEntity
  8
TITLE
100
AcDbMText
 10
70.6980523429371
 20
99.74720077916314
 30
0.0
 40
0.125
 41
0.0
 71
     2
 72
     1
  1
5
  7
SLDTEXTSTYLE1
 73
     1
 44
1.0
  0
MTEXT
  5
204
330
1F
100
AcDbEntity
  8
TITLE
100
AcDbMText
 10
72.66655627994497
 20
0.4125551098718104
 30
0.0
 40
0.125
 41
0.0
 71
     2
 72
     1
  1
4
  7
SLDTEXTSTYLE1
 73
     1
 44
1.0
  0
MTEXT
  5
205
330
1F
100
AcDbEntity
  8
TITLE
100
AcDbMText
 10
72.66655627994498
 20
99.74720077916315
 30
0.0
 40
0.125
 41
0.0
 71
     2
 72
     1
  1
4
  7
SLDTEXTSTYLE1
 73
     1
 44
1.0
  0
MTEXT
  5
206
330
1F
100
AcDbEntity
  8
TITLE
100
AcDbMText
 10
74.63506021695285
 20
0.4125551098718104
 30
0.0
 40
0.125
 41
0.0
 71
     2
 72
     1
  1
3
  7
SLDTEXTSTYLE1
 73
     1
 44
1.0
  0
MTEXT
  5
207
330
1F
100
AcDbEntity
  8
TITLE
100
AcDbMText
 10
74.63506021695284
 20
99.74720077916314
 30
0.0
 40
0.125
 41
0.0
 71
     2
 72
     1
  1
3
  7
SLDTEXTSTYLE1
 73
     1
 44
1.0
  0
MTEXT
  5
208
330
1F
100
AcDbEntity
  8
TITLE
100
AcDbMText
 10
76.60356415396072
 20
0.4125551098718104
 30
0.0
 40
0.125
 41
0.0
 71
     2
 72
     1
  1
2
  7
SLDTEXTSTYLE1
 73
     1
 44
1.0
  0
MTEXT
  5
209
330
1F
100
AcDbEntity
  8
TITLE
100
AcDbMText
 10
76.60356415396073
 20
99.74720077916314
 30
0.0
 40
0.125
 41
0.0
 71
     2
 72
     1
  1
2
  7
SLDTEXTSTYLE1
 73
     1
 44
1.0
  0
MTEXT
  5
20A
330
1F
100
AcDbEntity
  8
TITLE
100
AcDbMText
 10
78.73077872088987
 20
0.4125551098718104
 30
0.0
 40
0.125
 41
0.0
 71
     2
 72
     1
  1
1
  7
SLDTEXTSTYLE1
 73
     1
 44
1.0
  0
MTEXT
  5
20B
330
1F
100
AcDbEntity
  8
TITLE
100
AcDbMText
 10
78.73077872088987
 20
99.74720077916314
 30
0.0
 40
0.125
 41
0.0
 71
     2
 72
     1
  1
1
  7
SLDTEXTSTYLE1
 73
     1
 44
1.0
  0
LINE
  5
20C
330
1F
100
AcDbEntity
  8
0
  6
SLD-Solid
 62
     7
370
    25
100
AcDbLine
 10
48.65139188501523
 20
19.4121085247235
 30
0.0
 11
48.65139188501523
 21
46.87126921183594
 31
0.0
  0
LINE
  5
20D
330
1F
100
AcDbEntity
  8
0
  6
SLD-Solid
 62
     7
370
    25
100
AcDbLine
 10
30.53159188501523
 20
46.87126921183594
 30
0.0
 11
30.53159188501523
 21
19.4121085247235
 31
0.0
  0
LINE
  5
20E
330
1F
100
AcDbEntity
  8
0
  6
SLD-Solid
 62
     7
370
    25
100
AcDbLine
 10
48.85393857831996
 20
46.87126921183594
 30
0.0
 11
48.85071490278324
 21
46.95481178112851
 31
0.0
  0
LINE
  5
20F
330
1F
100
AcDbEntity
  8
0
  6
SLD-Solid
 62
     7
370
    25
100
AcDbLine
 10
30.33226886724711
 20
46.95481178112851
 30
0.0
 11
30.3290451917104
 21
46.87126921183594
 31
0.0
  0
ARC
  5
210
330
1F
100
AcDbEntity
  8
0
  6
SLD-Solid
 62
     7
370
    25
100
AcDbCircle
 10
49.12892905508179
 20
47.06704762861406
 30
0.0
 40
0.3000000000000054
100
AcDbArc
 50
181.0000000000009
 51
201.9699024988175
  0
ARC
  5
211
330
1F
100
AcDbEntity
  8
0
  6
SLD-Solid
 62
     7
370
    25
100
AcDbCircle
 10
30.05405471494857
 20
47.06704762861406
 30
0.0
 40
0.2999999999999983
100
AcDbArc
 50
338.0300975011836
 51
359.0000000000007
  0
LINE
  5
212
330
1F
100
AcDbEntity
  8
0
  6
SLD-Solid
 62
     7
370
    25
100
AcDbLine
 10
48.82897474653487
 20
47.06181190668288
 30
0.0
 11
48.80604192603082
 21
48.37563231344527
 31
0.0
  0
LINE
  5
213
330
1F
100
AcDbEntity
  8
0
  6
SLD-Solid
 62
     7
370
    25
100
AcDbLine
 10
30.37694184399954
 20
48.37563231344527
 30
0.0
 11
30.35400902349549
 21
47.06181190668288
 31
0.0
  0
ARC
  5
214
330
1F
100
AcDbEntity
  8
0
  6
SLD-Solid
 62
     7
370
    25
100
AcDbCircle
 10
48.55608000224171
 20
48.37126921183594
 30
0.0
 40
0.2500000000000033
100
AcDbArc
 50
1.000000000000134
 51
90.0
  0
ARC
  5
215
330
1F
100
AcDbEntity
  8
0
  6
SLD-Solid
 62
     7
370
    25
100
AcDbCircle
 10
30.62690376778864
 20
48.37126921183594
 30
0.0
 40
0.2500000000000033
100
AcDbArc
 50
90.0
 51
178.9999999999999
  0
LINE
  5
216
330
1F
100
AcDbEntity
  8
0
  6
SLD-Solid
 62
     7
370
    25
100
AcDbLine
 10
48.55608000224171
 20
48.62126921183594
 30
0.0
 11
30.62690376778864
 21
48.62126921183594
 31
0.0
  0
ARC
  5
217
330
1F
100
AcDbEntity
  8
0
  6
SLD-Solid
 62
     7
370
    25
100
AcDbCircle
 10
48.51149188501523
 20
19.4121085247235
 30
0.0
 40
0.0800000000000079
100
AcDbArc
 50
315.000000000008
 51
0.0
  0
ARC
  5
218
330
1F
100
AcDbEntity
  8
0
  6
SLD-Solid
 62
     7
370
    25
100
AcDbCircle
 10
30.67149188501523
 20
19.4121085247235
 30
0.0
 40
0.0799999999999983
100
AcDbArc
 50
180.0
 51
225.0000000000008
  0
LINE
  5
219
330
1F
100
AcDbEntity
  8
0
  6
SLD-Solid
 62
     7
370
    25
100
AcDbLine
 10
30.61492334252031
 20
19.35553998222858
 30
0.0
 11
30.76806042751016
 21
19.20240289723873
 31
0.0
  0
LINE
  5
21A
330
1F
100
AcDbEntity
  8
0
  6
SLD-Solid
 62
     7
370
    25
100
AcDbLine
 10
48.41492334252031
 20
19.20240289723873
 30
0.0
 11
48.56806042751016
 21
19.35553998222858
 31
0.0
  0
ARC
  5
21B
330
1F
100
AcDbEntity
  8
0
  6
SLD-Solid
 62
     7
370
    25
100
AcDbCircle
 10
30.82462897000508
 20
19.25897143973365
 30
0.0
 40
0.0799999999999983
100
AcDbArc
 50
225.0000000000008
 51
270.0000000000008
  0
ARC
  5
21C
330
1F
100
AcDbEntity
  8
0
  6
SLD-Solid
 62
     7
370
    25
100
AcDbCircle
 10
48.35835480002539
 20
19.25897143973365
 30
0.0
 40
0.0799999999999983
100
AcDbArc
 50
270.0000000000008
 51
315.0000000000008
  0
LINE
  5
21D
330
1F
100
AcDbEntity
  8
0
  6
SLD-Solid
 62
     7
370
    25
100
AcDbLine
 10
48.65139188501523
 20
19.4121085247235
 30
0.0
 11
30.53159188501523
 21
19.4121085247235
 31
0.0
  0
LINE
  5
21E
330
1F
100
AcDbEntity
  8
0
  6
SLD-Solid
 62
     7
370
    25
100
AcDbLine
 10
48.85393857831996
 20
46.87126921183594
 30
0.0
 11
30.3290451917104
 21
46.87126921183594
 31
0.0
  0
LINE
  5
21F
330
1F
100
AcDbEntity
  8
0
  6
SLD-Solid
 62
     7
370
    25
100
AcDbLine
 10
39.59149188501523
 20
19.17897143973365
 30
0.0
 11
30.82462897000508
 21
19.17897143973365
 31
0.0
  0
LINE
  5
220
330
1F
100
AcDbEntity
  8
0
  6
SLD-Solid
 62
     7
370
    25
100
AcDbLine
 10
48.35835480002539
 20
19.17897143973365
 30
0.0
 11
39.59149188501523
 21
19.17897143973365
 31
0.0
  0
LINE
  5
221
330
1F
100
AcDbEntity
  8
0
  6
SLD-Solid
 62
     8
370
    25
100
AcDbLine
 10
39.59149188501523
 20
19.20240289723873
 30
0.0
 11
48.41492334252031
 21
19.20240289723873
 31
0.0
  0
LINE
  5
222
330
1F
100
AcDbEntity
  8
0
  6
SLD-Solid
 62
     8
370
    25
100
AcDbLine
 10
30.76806042751016
 20
19.20240289723873
 30
0.0
 11
39.59149188501523
 21
19.20240289723873
 31
0.0
  0
DIMENSION
  5
223
330
1F
100
AcDbEntity
  8
DIMS
100
AcDbDimension
  2
_D
 10
51.51560819842955
 20
19.17897143973365
 30
0.0
 11
51.51560819842955
 21
33.5803244849663
 31
0.0
 70
    32
  1
<>
 71
     2
 42
-1.0
  3
SLDDIMSTYLE0
100
AcDbAlignedDimension
 13
48.55608000224172
 23
48.62126921183594
 33
0.0
 14
48.35835480002539
 24
19.17897143973365
 34
0.0
 50
90.0000000000002
100
AcDbRotatedDimension
  0
DIMENSION
  5
239
330
1F
100
AcDbEntity
  8
DIMS
100
AcDbDimension
  2
_D_1
 10
50.33450583622482
 20
48.62126921183594
 30
0.0
 11
50.33450583622482
 21
47.63077358081566
 31
0.0
 70
    32
  1
<>
 71
     2
 42
-1.0
  3
SLDDIMSTYLE1
100
AcDbAlignedDimension
 13
48.85393857831996
 23
46.87126921183594
 33
0.0
 14
48.55608000224172
 24
48.62126921183594
 34
0.0
 50
90.0000000000002
100
AcDbRotatedDimension
  0
MTEXT
  5
249
330
1F
100
AcDbEntity
  8
NOTES
100
AcDbMText
 10
30.85273529541695
 20
17.80400315407652
 30
0.0
 40
0.7500000000000001
 41
0.0
 71
     1
 72
     1
  1
Front view
  7
SLDTEXTSTYLE1
 73
     1
 44
1.0
  0
LINE
  5
24A
330
1F
100
AcDbEntity
  8
0
  6
SLD-Solid
 62
     7
370
    25
100
AcDbLine
 10
73.44096158939699
 20
23.23341472719109
 30
0.0
 11
73.44096158939699
 21
44.54283599214141
 31
0.0
  0
LINE
  5
24B
330
1F
100
AcDbEntity
  8
0
  6
SLD-Solid
 62
     7
370
    25
100
AcDbLine
 10
55.32116158939699
 20
44.5428359921412
 30
0.0
 11
55.32116158939699
 21
23.23341472719109
 31
0.0
  0
SPLINE
  5
24C
330
1F
100
AcDbEntity
  8
0
  6
SLD-Solid
 62
     7
370
    25
100
AcDbSpline
210
0.0
220
0.0
230
1.0
 70
    12
 71
     3
 72
    28
 73
    24
 74
     0
 42
0.00000001
 43
0.00000001
 40
0.0
 40
0.0
 40
0.0
 40
0.0
 40
0.010215102389729
 40
0.0589743935136494
 40
0.1077721567621049
 40
0.1566359231263321
 40
0.2055891917449966
 40
0.254650290222771
 40
0.3038317107683061
 40
0.3531399503517713
 40
0.4025758232361012
 40
0.4521351615841491
 40
0.5018097831732442
 40
0.5515885903055192
 40
0.6014586714775024
 40
0.6514063027262595
 40
0.7014177808013117
 40
0.7514800567705204
 40
0.8015811695576265
 40
0.851710500572702
 40
0.9018588824570728
 40
0.9520185985763372
 40
0.9999999999999999
 40
0.9999999999999999
 40
0.9999999999999999
 40
0.9999999999999999
 10
73.58320996935743
 20
47.15145554507478
 30
0.0
 41
1.0
 10
73.58235242467585
 20
47.16545823356165
 30
0.0
 41
1.0
 10
73.57740160033967
 20
47.24629932840022
 30
0.0
 41
1.0
 10
73.55619186363941
 20
47.39355594632714
 30
0.0
 41
1.0
 10
73.51901989350444
 20
47.5928458689578
 30
0.0
 41
1.0
 10
73.46844458618895
 20
47.79111280984896
 30
0.0
 41
1.0
 10
73.40586834265164
 20
47.98816846827992
 30
0.0
 41
1.0
 10
73.33097876991805
 20
48.18375831013087
 30
0.0
 41
1.0
 10
73.24393943110779
 20
48.37763423980429
 30
0.0
 41
1.0
 10
73.1448068135084
 20
48.56953440800239
 30
0.0
 41
1.0
 10
73.03369197760556
 20
48.75918978775122
 30
0.0
 41
1.0
 10
72.9107209153465
 20
48.94632508855789
 30
0.0
 41
1.0
 10
72.77604752511031
 20
49.13066224369431
 30
0.0
 41
1.0
 10
72.62985086485683
 20
49.31192372591607
 30
0.0
 41
1.0
 10
72.47233502262021
 20
49.48983577793063
 30
0.0
 41
1.0
 10
72.30372767340681
 20
49.66413152304203
 30
0.0
 41
1.0
 10
72.12427623584358
 20
49.83455211273094
 30
0.0
 41
1.0
 10
71.93425186499265
 20
50.00085218515167
 30
0.0
 41
1.0
 10
71.73392321837092
 20
50.16278594884506
 30
0.0
 41
1.0
 10
71.52364369002989
 20
50.32016267339901
 30
0.0
 41
1.0
 10
71.30351599441393
 20
50.47264048487364
 30
0.0
 41
1.0
 10
71.07795756244263
 20
50.61835028473418
 30
0.0
 41
1.0
 10
70.92147643550324
 20
50.71056216574481
 30
0.0
 41
1.0
 10
70.8449724792117
 20
50.75564475079756
 30
0.0
 41
1.0
  0
SPLINE
  5
24D
330
1F
100
AcDbEntity
  8
0
  6
SLD-Solid
 62
     7
370
    25
100
AcDbSpline
210
0.0
220
0.0
230
1.0
 70
    12
 71
     3
 72
    70
 73
    66
 74
     0
 42
0.00000001
 43
0.00000001
 40
0.0
 40
0.0
 40
0.0
 40
0.0
 40
0.0084946643049534
 40
0.0245905306117552
 40
0.0406838224697961
 40
0.0567742491360492
 40
0.0728612869561041
 40
0.0889445985069032
 40
0.1050239981028644
 40
0.1210994222960597
 40
0.1371709050713611
 40
0.1532385572844558
 40
0.1693025498263268
 40
0.185363099992041
 40
0.2014204605602328
 40
0.2174749111359194
 40
0.23352675136257
 40
0.249576295663208
 40
0.2656238692206492
 40
0.2816698049521512
 40
0.2977144412726228
 40
0.3137581204731871
 40
0.3298011875684726
 40
0.3458439894868383
 40
0.361886874493394
 40
0.3779300882475271
 40
0.3939739677274011
 40
0.4100188628812736
 40
0.4260651233057707
 40
0.4421130974898597
 40
0.4581631317388872
 40
0.4742155686533964
 40
0.4902707450185028
 40
0.5063289889333679
 40
0.5223906159780239
 40
0.5384559241758354
 40
0.5545251874643311
 40
0.570598647335548
 40
0.5866765022507423
 40
0.6027588943767479
 40
0.6188458931377933
 40
0.6349374750367834
 40
0.6510334991887586
 40
0.6671336780484625
 40
0.6832375429358607
 40
0.6993444042115649
 40
0.7154533063853926
 40
0.731562780667572
 40
0.7476707583687648
 40
0.7637750410305896
 40
0.7798729599970332
 40
0.7959613534669244
 40
0.8120365707384423
 40
0.8280945156797599
 40
0.8441307421206395
 40
0.860140612258918
 40
0.8761195244884475
 40
0.8920632087460846
 40
0.9079680758675357
 40
0.9238315940905775
 40
0.9396526535432357
 40
0.9554318717577274
 40
0.9711717929677463
 40
0.9868769425286728
 40
1.0
 40
1.0
 40
1.0
 40
1.0
 10
70.8449724792117
 20
50.75564475079756
 30
0.0
 41
1.0
 10
70.80209563887142
 20
50.78010592858568
 30
0.0
 41
1.0
 10
70.67797487116692
 20
50.85091665395449
 30
0.0
 41
1.0
 10
70.46605854544231
 20
50.96391330206769
 30
0.0
 41
1.0
 10
70.20682803787344
 20
51.09266327326312
 30
0.0
 41
1.0
 10
69.93967635815069
 20
51.2155525025877
 30
0.0
 41
1.0
 10
69.66512088939692
 20
51.33252350164964
 30
0.0
 41
1.0
 10
69.38349656555694
 20
51.44340973557441
 30
0.0
 41
1.0
 10
69.09519727121888
 20
51.54808356712247
 30
0.0
 41
1.0
 10
68.80061024042479
 20
51.64641684328239
 30
0.0
 41
1.0
 10
68.50013332052042
 20
51.73829141897473
 30
0.0
 41
1.0
 10
68.19416999961147
 20
51.82359636615965
 30
0.0
 41
1.0
 10
67.88313034478426
 20
51.90222879568899
 30
0.0
 41
1.0
 10
67.56743031032701
 20
51.97409374444829
 30
0.0
 41
1.0
 10
67.24749143672453
 20
52.03910433428771
 30
0.0
 41
1.0
 10
66.92374040170318
 20
52.09718186989071
 30
0.0
 41
1.0
 10
66.59660857112208
 20
52.1482559567593
 30
0.0
 41
1.0
 10
66.26653151413316
 20
52.19226461110422
 30
0.0
 41
1.0
 10
65.93394849637005
 20
52.2291543640217
 30
0.0
 41
1.0
 10
65.59930195174364
 20
52.25888035522635
 30
0.0
 41
1.0
 10
65.26303693687203
 20
52.28140641440548
 30
0.0
 41
1.0
 10
64.92560057111888
 20
52.29670512824145
 30
0.0
 41
1.0
 10
64.58744146531647
 20
52.30475789174146
 30
0.0
 41
1.0
 10
64.24900914216207
 20
52.30555494284405
 30
0.0
 41
1.0
 10
63.91075417823769
 20
52.29909539345256
 30
0.0
 41
1.0
 10
63.57312697200086
 20
52.28538728855336
 30
0.0
 41
1.0
 10
63.23657704946039
 20
52.26444759155485
 30
0.0
 41
1.0
 10
62.90155175068952
 20
52.23630206197339
 30
0.0
 41
1.0
 10
62.5684962872261
 20
52.20098520069486
 30
0.0
 41
1.0
 10
62.23785325860155
 20
52.15854017945999
 30
0.0
 41
1.0
 10
61.91006208985667
 20
52.10901874947582
 30
0.0
 41
1.0
 10
61.58555848279659
 20
52.05248113369228
 30
0.0
 41
1.0
 10
61.2647738842226
 20
51.98899590403254
 30
0.0
 41
1.0
 10
60.94813497456772
 20
51.91863984534402
 30
0.0
 41
1.0
 10
60.63606318054907
 20
51.84149780843891
 30
0.0
 41
1.0
 10
60.32897421562176
 20
51.75766255534725
 30
0.0
 41
1.0
 10
60.02727765213302
 20
51.6672346008443
 30
0.0
 41
1.0
 10
59.73137652908516
 20
51.57032205547245
 30
0.0
 41
1.0
 10
59.44166699924179
 20
51.46704047668288
 30
0.0
 41
1.0
 10
59.15853801885499
 20
51.35751273639902
 30
0.0
 41
1.0
 10
58.8823710824066
 20
51.24186891524607
 30
0.0
 41
1.0
 10
58.61354000326153
 20
51.12024623586583
 30
0.0
 41
1.0
 10
58.35241073878723
 20
50.99278905003577
 30
0.0
 41
1.0
 10
58.09934125502367
 20
50.85964889654434
 30
0.0
 41
1.0
 10
57.85468142105164
 20
50.72098464857476
 30
0.0
 41
1.0
 10
57.61877291658308
 20
50.57696277023712
 30
0.0
 41
1.0
 10
57.39195005890057
 20
50.42775831355971
 30
0.0
 41
1.0
 10
57.1745404906214
 20
50.27355630503924
 30
0.0
 41
1.0
 10
56.96686320789176
 20
50.11455170849494
 30
0.0
 41
1.0
 10
56.76922723584868
 20
49.95094962643312
 30
0.0
 41
1.0
 10
56.58193018635081
 20
49.78296535047235
 30
0.0
 41
1.0
 10
56.40525854073475
 20
49.61082622738679
 30
0.0
 41
1.0
 10
56.2394861911068
 20
49.43477247269859
 30
0.0
 41
1.0
 10
56.08487254588407
 20
49.2550577459796
 30
0.0
 41
1.0
 10
55.94166024237393
 20
49.07194930941665
 30
0.0
 41
1.0
 10
55.81007243311199
 20
48.88572758289762
 30
0.0
 41
1.0
 10
55.69031025717116
 20
48.69668490356599
 30
0.0
 41
1.0
 10
55.58254914633257
 20
48.50512344431024
 30
0.0
 41
1.0
 10
55.4869403478825
 20
48.31135203546793
 30
0.0
 41
1.0
 10
55.40359560755559
 20
48.11568296475627
 30
0.0
 41
1.0
 10
55.33263876236833
 20
47.91842558718127
 30
0.0
 41
1.0
 10
55.27401436598829
 20
47.71989008318278
 30
0.0
 41
1.0
 10
55.22820614937293
 20
47.52035392257181
 30
0.0
 41
1.0
 10
55.19545519492645
 20
47.33101859731341
 30
0.0
 41
1.0
 10
55.18399577493322
 20
47.20799359434206
 30
0.0
 41
1.0
 10
55.17877926504098
 20
47.15199066004243
 30
0.0
 41
1.0
  0
LINE
  5
24E
330
1F
100
AcDbEntity
  8
0
  6
SLD-Solid
 62
     7
370
    25
100
AcDbLine
 10
73.61784103537917
 20
45.87633445280336
 30
0.0
 11
73.59490996116277
 21
46.94895905938674
 31
0.0
  0
LINE
  5
24F
330
1F
100
AcDbEntity
  8
0
  6
SLD-Solid
 62
     7
370
    25
100
AcDbLine
 10
55.16721321763114
 20
46.94895905938674
 30
0.0
 11
55.14428214341473
 21
45.87633445280336
 31
0.0
  0
LINE
  5
250
330
1F
100
AcDbEntity
  8
0
  6
SLD-Solid
 62
     7
370
    25
100
AcDbLine
 10
73.6400608771236
 20
45.80081343543975
 30
0.0
 11
73.63683840141209
 21
45.86897858345313
 31
0.0
  0
LINE
  5
251
330
1F
100
AcDbEntity
  8
0
  6
SLD-Solid
 62
     7
370
    25
100
AcDbLine
 10
55.12528477738181
 20
45.86897858345313
 30
0.0
 11
55.1220623016703
 21
45.80081343543975
 31
0.0
  0
SPLINE
  5
252
330
1F
100
AcDbEntity
  8
0
  6
SLD-Solid
 62
     7
370
    25
100
AcDbSpline
210
0.0
220
0.0
230
1.0
 70
    12
 71
     3
 72
    66
 73
    62
 74
     0
 42
0.00000001
 43
0.00000001
 40
0.0
 40
0.0
 40
0.0
 40
0.0
 40
0.017955244809056
 40
0.0364876070217559
 40
0.0548387669534136
 40
0.072910093851965
 40
0.0906737221689303
 40
0.1081525164700618
 40
0.1253935982879321
 40
0.1424496781729818
 40
0.1593694609211901
 40
0.1761939876193019
 40
0.1929560322999455
 40
0.2096808219023832
 40
0.2263872026964343
 40
0.2430887393350556
 40
0.2597922995997886
 40
0.2765053130067986
 40
0.2932325828046829
 40
0.3099769338442064
 40
0.3267397227302994
 40
0.3435212309080719
 40
0.3603209635934704
 40
0.3771378742760155
 40
0.3939705311722363
 40
0.4108172389079137
 40
0.4276761260144166
 40
0.4445452065761546
 40
0.4614224225422781
 40
0.4783056717718022
 40
0.4951928257653643
 40
0.5120817401997797
 40
0.528970102129863
 40
0.5458551908277165
 40
0.5627348425912347
 40
0.5796068955848511
 40
0.5964691980506663
 40
0.6133196228057304
 40
0.6301560907486756
 40
0.6469766069785243
 40
0.6637793141227412
 40
0.680562568760209
 40
0.6973250484455282
 40
0.7140658988176851
 40
0.7307849325973869
 40
0.7474828948606604
 40
0.7641618116051
 40
0.780825440839779
 40
0.7974798463322212
 40
0.8141325978760189
 40
0.8307934674167596
 40
0.8474785906876257
 40
0.8642096961189843
 40
0.8810151554620778
 40
0.8979307784160449
 40
0.9149998501970056
 40
0.9322714672456046
 40
0.9497955554962951
 40
0.9676122729821816
 40
0.985733893855191
 40
1.0
 40
1.0
 40
1.0
 40
1.0
 10
68.63086562512207
 20
45.93588937597121
 30
0.0
 41
1.0
 10
68.62966384822884
 20
45.89679213515605
 30
0.0
 41
1.0
 10
68.62722166693447
 20
45.81734099017478
 30
0.0
 41
1.0
 10
68.60797266860034
 20
45.69765197874165
 30
0.0
 41
1.0
 10
68.5771456226178
 20
45.5772581119898
 30
0.0
 41
1.0
 10
68.53404045223729
 20
45.45809698047817
 30
0.0
 41
1.0
 10
68.47933804372425
 20
45.34058376173851
 30
0.0
 41
1.0
 10
68.41327757595707
 20
45.22495131790636
 30
0.0
 41
1.0
 10
68.33612790264516
 20
45.11134337042289
 30
0.0
 41
1.0
 10
68.24807032514722
 20
44.99989515315069
 30
0.0
 41
1.0
 10
68.14926619257727
 20
44.89077710849177
 30
0.0
 41
1.0
 10
68.03987810445047
 20
44.78420814940629
 30
0.0
 41
1.0
 10
67.92009397581637
 20
44.6804522401434
 30
0.0
 41
1.0
 10
67.79013968941018
 20
44.5798081429766
 30
0.0
 41
1.0
 10
67.65028649002909
 20
44.4825978522156
 30
0.0
 41
1.0
 10
67.50086139647436
 20
44.38916048361619
 30
0.0
 41
1.0
 10
67.3422379093753
 20
44.29983514677529
 30
0.0
 41
1.0
 10
67.1748329738484
 20
44.21495388938371
 30
0.0
 41
1.0
 10
66.99909379052758
 20
44.1348327648149
 30
0.0
 41
1.0
 10
66.81550641580188
 20
44.05977451785605
 30
0.0
 41
1.0
 10
66.62459214585745
 20
43.99006499164653
 30
0.0
 41
1.0
 10
66.42690383671456
 20
43.92597047025809
 30
0.0
 41
1.0
 10
66.22302231484863
 20
43.86773575351038
 30
0.0
 41
1.0
 10
66.0135529513473
 20
43.81558278650186
 30
0.0
 41
1.0
 10
65.7991224308207
 20
43.76970970170162
 30
0.0
 41
1.0
 10
65.58037571921346
 20
43.7302901620891
 30
0.0
 41
1.0
 10
65.35797321879022
 20
43.69747291979611
 30
0.0
 41
1.0
 10
65.13258808996254
 20
43.67138152574267
 30
0.0
 41
1.0
 10
64.90490371579054
 20
43.65211414238686
 30
0.0
 41
1.0
 10
64.67561128402237
 20
43.63974342454704
 30
0.0
 41
1.0
 10
64.44540746213882
 20
43.63431644300559
 30
0.0
 41
1.0
 10
64.21499286358757
 20
43.6358546280727
 30
0.0
 41
1.0
 10
63.98507165226335
 20
43.64435354312329
 30
0.0
 41
1.0
 10
63.75634673224746
 20
43.65978259973524
 30
0.0
 41
1.0
 10
63.52951673321233
 20
43.68208513681926
 30
0.0
 41
1.0
 10
63.30527201789749
 20
43.71117883120812
 30
0.0
 41
1.0
 10
63.08429497997988
 20
43.74695558116446
 30
0.0
 41
1.0
 10
62.86725773501631
 20
43.78928149327084
 30
0.0
 41
1.0
 10
62.65481971490188
 20
43.83799689191181
 30
0.0
 41
1.0
 10
62.44762513693912
 20
43.89291637178812
 30
0.0
 41
1.0
 10
62.24630031426402
 20
43.95382892433515
 30
0.0
 41
1.0
 10
62.05145077236485
 20
44.02049818315964
 30
0.0
 41
1.0
 10
61.86365813620559
 20
44.09266285286352
 30
0.0
 41
1.0
 10
61.68347675616613
 20
44.17003741120257
 30
0.0
 41
1.0
 10
61.51143005129362
 20
44.25231320781794
 30
0.0
 41
1.0
 10
61.34800656918024
 20
44.33916012494147
 30
0.0
 41
1.0
 10
61.19365579875389
 20
44.43022901736659
 30
0.0
 41
1.0
 10
61.0487838328344
 20
44.5251552090817
 30
0.0
 41
1.0
 10
60.91375316400469
 20
44.62356040975211
 30
0.0
 41
1.0
 10
60.78888127643076
 20
44.72505548022852
 30
0.0
 41
1.0
 10
60.67443045048393
 20
44.82925171214147
 30
0.0
 41
1.0
 10
60.57060221474674
 20
44.93577510946898
 30
0.0
 41
1.0
 10
60.47753649815561
 20
45.04428435127971
 30
0.0
 41
1.0
 10
60.39532014589269
 20
45.15448482096789
 30
0.0
 41
1.0
 10
60.32400185841183
 20
45.26614848010622
 30
0.0
 41
1.0
 10
60.263599066061
 20
45.37913307918131
 30
0.0
 41
1.0
 10
60.21417997848221
 20
45.49339424412418
 30
0.0
 41
1.0
 10
60.17571110519052
 20
45.60897978470585
 30
0.0
 41
1.0
 10
60.14883849620566
 20
45.72598675408891
 30
0.0
 41
1.0
 10
60.13335824605321
 20
45.83548904053205
 30
0.0
 41
1.0
 10
60.13250441172504
 20
45.90600787196509
 30
0.0
 41
1.0
 10
60.13212831583078
 20
45.93706992006369
 30
0.0
 41
1.0
  0
LWPOLYLINE
  5
253
330
1F
100
AcDbEntity
  8
0
  6
SLD-Solid
 62
     7
370
    25
100
AcDbPolyline
 90
       82
 70
   128
 43
0.0
 10
73.44096158939699
 20
23.23341472719109
 10
73.44058872387669
 20
23.18596424202229
 10
73.43040189214638
 20
22.98096891957035
 10
73.40630174453524
 20
22.7763617312969
 10
73.36832533490082
 20
22.57245725974018
 10
73.31653105178479
 20
22.36956900701497
 10
73.2509985286408
 20
22.16800891280464
 10
73.17182852139854
 20
21.96808687475541
 10
73.07914275355186
 20
21.77011027201029
 10
72.97308372900964
 20
21.5743834926151
 10
72.85381451299666
 20
21.38120746552347
 10
72.72151848134162
 20
21.19087919791995
 10
72.5763990385377
 20
21.00369131857301
 10
72.41867930500926
 20
20.81993162791973
 10
72.24860177406516
 20
20.63988265557407
 10
72.06642793906661
 20
20.46382122593895
 10
71.8724378913823
 20
20.29201803259015
 10
71.66692988974948
 20
20.12473722208625
 10
71.45021990170244
 20
19.96223598784461
 10
71.22264111777413
 20
19.80476417470777
 10
70.98454343921733
 20
19.65256389480824
 10
70.73629294003314
 20
19.5058691553223
 10
70.47827130413414
 20
19.36490549868511
 10
70.21087523850713
 20
19.22988965582036
 10
69.93451586327824
 20
19.1010292129175
 10
69.64961807961765
 20
18.97852229226908
 10
69.35661991645622
 20
18.86255724765864
 10
69.05597185701819
 20
18.7533123747677
 10
68.74813614620535
 20
18.65095563704711
 10
68.43358607989796
 20
18.55564440747397
 10
68.11280527726451
 20
18.46752522659155
 10
67.78628693719978
 20
18.38673357720386
 10
67.45453308003385
 20
18.31339367607157
 10
67.11805377567849
 20
18.24761828292929
 10
66.77736635939705
 20
18.1895085271181
 10
66.43299463640415
 20
18.13915375209967
 10
66.0854680765177
 20
18.0966313780911
 10
65.73532100010173
 20
18.06200678303175
 10
65.38309175655144
 20
18.03533320206498
 10
65.02932189658367
 20
18.01665164568938
 10
64.67455533960538
 20
18.00599083670531
 10
64.31933753744025
 20
18.00336716605377
 10
63.9642146356992
 20
18.00878466761539
 10
63.60973263408421
 20
18.02223501200835
 10
63.25643654691648
 20
18.0436975193948
 10
62.90486956517964
 20
18.07313919127595
 10
62.5555722213663
 20
18.11051476122717
 10
62.209081558412
 20
18.15576676449482
 10
61.86593030399432
 20
18.20882562634808
 10
61.52664605146681
 20
18.26960976904974
 10
61.19175044868678
 20
18.33802573728154
 10
60.86175839598425
 20
18.41396834183128
 10
60.53717725450532
 20
18.49732082132073
 10
60.21850606614689
 20
18.58795502172565
 10
59.90623478628223
 20
18.68573159341194
 10
59.60084353045698
 20
18.79050020538508
 10
59.30280183621391
 20
18.90209977642323
 10
59.01256794118132
 20
19.02035872273883
 10
58.73058807853482
 20
19.14509522178783
 10
58.4572957909162
 20
19.27611749182095
 10
58.19311126386365
 20
19.41322408674716
 10
57.93844067977862
 20
19.55620420585606
 10
57.69367559342238
 20
19.70483801792288
 10
57.45919232990252
 20
19.858896999198
 10
57.23535140607498
 20
20.01814428476096
 10
57.02249697625112
 20
20.18233503269923
 10
56.8209563030622
 20
20.3512168005513
 10
56.63103925429476
 20
20.52452993343583
 10
56.45303782647031
 20
20.70200796326968
 10
56.28722569590222
 20
20.88337801846129
 10
56.13385779791976
 20
21.0683612434494
 10
55.99316993490621
 20
21.25667322744207
 10
55.86537841375391
 20
21.44802444169691
 10
55.7506797132935
 20
21.64212068467005
 10
55.64925018220867
 20
21.83866353434954
 10
55.56124576790092
 20
22.03735080707779
 10
55.48680177672126
 20
22.23787702215735
 10
55.42603266593727
 20
22.43993387152604
 10
55.37903186775573
 20
22.64321069377905
 10
55.34587164567095
 20
22.84739495180927
 10
55.32660298336012
 20
23.05217271333163
 10
55.32116158939699
 20
23.23341472719109
  0
ARC
  5
254
330
1F
100
AcDbEntity
  8
0
  6
SLD-Solid
 62
     7
370
    25
100
AcDbCircle
 10
70.51904498834016
 20
46.88328589177208
 30
0.0
 40
3.076561582073132
100
AcDbArc
 50
357.7035798639463
 51
4.807176923649201
  0
ARC
  5
255
330
1F
100
AcDbEntity
  8
0
  6
SLD-Solid
 62
     7
370
    25
100
AcDbCircle
 10
58.24118788021974
 20
46.8833273638007
 30
0.0
 40
3.074674492542632
100
AcDbArc
 50
175.1812727425426
 51
182.2687737908065
  0
LWPOLYLINE
  5
256
330
1F
100
AcDbEntity
  8
0
  6
SLD-Solid
 62
     7
370
    25
100
AcDbPolyline
 90
      160
 70
   128
 43
0.0
 10
70.67874036334652
 20
50.71382585466822
 10
70.92262373028738
 20
50.56735846875024
 10
71.1562932244754
 20
50.41544325926767
 10
71.37938399873364
 20
50.25831742378671
 10
71.59154772330058
 20
50.09622629564751
 10
71.79245312970562
 20
49.92942296090527
 10
71.9817865280056
 20
49.75816786316645
 10
72.15925229657428
 20
49.58272839693696
 10
72.32457334368051
 20
49.4033784901174
 10
72.47749154013404
 20
49.22039817629715
 10
72.61776812232354
 20
49.03407315751518
 10
72.74518406501778
 20
48.84469435817021
 10
72.85954042334745
 20
48.65255747077678
 10
72.96065864343389
 20
48.45796249427656
 10
73.04838084117992
 20
48.26121326562552
 10
73.122570048787
 20
48.06261698538868
 10
73.18311042861426
 20
47.86248373808281
 10
73.22990745404513
 20
47.66112600801634
 10
73.26288805707958
 20
47.45885819138218
 10
73.282000742421
 20
47.25599610536536
 10
73.28721566788003
 20
47.052856495032
 10
73.27852469096962
 20
46.84975653876955
 10
73.25594138161854
 20
46.64701335305026
 10
73.21950100098354
 20
46.44494349729159
 10
73.16926044639324
 20
46.24386247958617
 10
73.10529816250973
 20
46.04408426407338
 10
73.0277140188465
 20
45.84592078072166
 10
72.9366291538341
 20
45.64968143828683
 10
72.83218578567683
 20
45.45567264120709
 10
72.71454699029586
 20
45.26419731118887
 10
72.58389644670565
 20
45.07555441423047
 10
72.44043815022086
 20
44.89003849382225
 10
72.28439609394191
 20
44.70793921105186
 10
72.11601391901635
 20
44.52954089233287
 10
71.93555453422222
 20
44.35512208546279
 10
71.74329970546701
 20
44.1849551247038
 10
71.53954961584382
 20
44.01930570556508
 10
71.32462239693099
 20
43.85843246995086
 10
71.09885363206747
 20
43.70258660232172
 10
70.86259583237923
 20
43.55201143749999
 10
70.616217886375
 20
43.40694208073116
 10
70.36010448397062
 20
43.26760504059506
 10
70.09465551584147
 20
43.13421787533957
 10
69.82028544904058
 20
43.00698885318922
 10
69.5374226798576
 20
42.8861166271591
 10
69.24650886492876
 20
42.77178992488177
 10
68.94799823164253
 20
42.66418725393144
 10
68.64235686891743
 20
42.56347662310558
 10
68.33006199945955
 20
42.46981528009916
 10
68.01160123463592
 20
42.38334946598101
 10
67.68747181312723
 20
42.30421418685577
 10
67.35817982454871
 20
42.23253300306789
 10
67.0242394192512
 20
42.16841783627675
 10
66.68617200553646
 20
42.1119687947044
 10
66.34450543554
 20
42.06327401682832
 10
65.99977318105259
 20
42.02240953376376
 10
65.65251350056745
 20
41.98943915055012
 10
65.30326859885344
 20
41.96441434652697
 10
64.95258378036671
 20
41.94737419495517
 10
64.60100659782255
 20
41.9383453020086
 10
64.24908599725678
 20
41.93734176523181
 10
63.8973714609117
 20
41.94436515152836
 10
63.54641214928478
 20
41.95940449471426
 10
63.19675604367973
 20
41.9824363126404
 10
62.84894909059879
 20
42.01342464385714
 10
62.50353434931203
 20
42.05232110376382
 10
62.16105114393477
 20
42.09906496015559
 10
61.82203422133699
 20
42.15358322804949
 10
61.48701291619962
 20
42.21579078364195
 10
61.15651032452118
 20
42.28559049721938
 10
60.83104248686558
 20
42.36287338481477
 10
60.51111758262596
 20
42.44751877837313
 10
60.1972351365629
 20
42.53939451416047
 10
59.88988523885586
 20
42.63835713912164
 10
59.58954777988549
 20
42.74425213486536
 10
59.29669170094173
 20
42.85691415892624
 10
59.01177426202778
 20
42.9761673029275
 10
58.73524032790274
 20
43.10182536724101
 10
58.46752167347822
 20
43.23369215171582
 10
58.20903630965297
 20
43.37156176202152
 10
57.96018783063855
 20
43.51521893112772
 10
57.72136478379485
 20
43.664439355418
 10
57.49294006295951
 20
43.81899004491337
 10
57.27527032621846
 20
43.97862968705842
 10
57.0686954390267
 20
44.14310902350233
 10
56.87353794354863
 20
44.31217123928611
 10
56.69010255504686
 20
44.48555236382872
 10
56.51867568610546
 20
44.66298168308575
 10
56.35952499943067
 20
44.84418216223728
 10
56.21289898992742
 20
45.02887087824497
 10
56.07902659670398
 20
45.2167594616026
 10
55.95811684561077
 20
45.40755454659098
 10
55.85035852287129
 20
45.60095822933366
 10
55.75591988031478
 20
45.79666853293841
 10
55.67494837267106
 20
45.99437987899837
 10
55.60757042733744
 20
46.19378356471643
 10
55.55389124697729
 20
46.39456824490797
 10
55.51399464525865
 20
46.59642041812945
 10
55.48794291598909
 20
46.79902491617367
 10
55.47577673585135
 20
47.00206539616755
 10
55.47751510089148
 20
47.20522483450394
 10
55.49315529685885
 20
47.40818602183633
 10
55.52267290344405
 20
47.61063205836366
 10
55.56602183240833
 20
47.81224684863169
 10
55.62313439954497
 20
48.01271559507851
 10
55.69392143036005
 20
48.21172528955364
 10
55.77827239930784
 20
48.40896520204301
 10
55.87605560236346
 20
48.60412736583707
 10
55.98711836266284
 20
48.79690705838419
 10
56.11128726888975
 20
48.98700327707878
 10
56.24836844603684
 20
49.17411920924113
 10
56.39814785811852
 20
49.35796269555518
 10
56.5603916423627
 20
49.53824668624056
 10
56.73484647435978
 20
49.71468968924685
 10
56.92123996359863
 20
49.88701620976986
 10
57.11928107877205
 20
50.0549571804042
 10
57.3286606021876
 20
50.21825038126003
 10
57.54905161257429
 20
50.37664084938827
 10
57.7801099955314
 20
50.52988127687501
 10
58.02147498082221
 20
50.67773239698347
 10
58.27276970567397
 20
50.8199633577406
 10
58.53360180320426
 20
50.95635208238499
 10
58.80356401505546
 20
51.08668561611341
 10
59.08223482728017
 20
51.21076045858451
 10
59.36917912848534
 20
51.32838288166029
 10
59.66394888920698
 20
51.43936923188979
 10
59.96608386145499
 20
51.54354621726196
 10
60.27511229733578
 20
51.6407511777807
 10
60.59055168563061
 20
51.7308323394391
 10
60.91190950517958
 20
51.81364905119651
 10
61.23868399389492
 20
51.88907200458843
 10
61.57036493220295
 20
51.95698343562639
 10
61.90643443969143
 20
52.01727730867242
 10
62.24636778371825
 20
52.06985948200104
 10
62.58963419871922
 20
52.11464785479049
 10
62.93569771493553
 20
52.15157249531337
 10
63.28401799526679
 20
52.18057575012671
 10
63.63405117894336
 20
52.20161233409101
 10
63.98525073070039
 20
52.21464940107762
 10
64.33706829412769
 20
52.219666595254
 10
64.68895454786323
 20
52.21665608286707
 10
65.04036006329324
 20
52.2056225644745
 10
65.39073616241969
 20
52.18658326760553
 10
65.73953577455595
 20
52.15956791986213
 10
66.08621429051266
 20
52.12461870250287
 10
66.4302304129404
 20
52.08179018458193
 10
66.77104700150115
 20
52.03114923774601
 10
67.10813191154924
 20
51.97277493182213
 10
67.44095882501202
 20
51.90675841135957
 10
67.76900807217305
 20
51.83320275331838
 10
68.09176744307467
 20
51.75222280612702
 10
68.40873298727307
 20
51.66394501036012
 10
68.71940980069705
 20
51.56850720131657
 10
69.02331279838201
 20
51.46605839380606
 10
69.31996747187253
 20
51.35675854948007
 10
69.60891063011096
 20
51.24077832707088
 10
69.88969112265535
 20
51.11829881592809
 10
70.16187054409723
 20
50.98951125326916
 10
70.42502391857967
 20
50.85461672558516
 10
70.67874036334652
 20
50.71382585466822
  0
LWPOLYLINE
  5
257
330
1F
100
AcDbEntity
  8
0
  6
SLD-Solid
 62
     7
370
    25
100
AcDbPolyline
 90
      114
 70
   128
 43
0.0
 10
67.57601359885514
 20
48.06303867695155
 10
67.74863459072857
 20
47.95768574459159
 10
67.91084660744266
 20
47.84695749720463
 10
68.06214826094973
 20
47.73119618945778
 10
68.20207188650953
 20
47.61075963291923
 10
68.33018498821417
 20
47.48602009008333
 10
68.44609157580813
 20
47.35736312372844
 10
68.5494333886715
 20
47.22518640516456
 10
68.639891003183
 20
47.089898485054
 10
68.71718482004009
 20
46.9519175306048
 10
68.78107592848438
 20
46.81167003303978
 10
68.83136684476115
 20
46.66958948933669
 10
68.8679021225302
 20
46.52611506231378
 10
68.89056883334173
 20
46.38169022320279
 10
68.8992969156916
 20
46.23676138090479
 10
68.89405939157741
 20
46.09177650216576
 10
68.8748724498861
 20
45.94718372693715
 10
68.84179539635487
 20
45.80342998320092
 10
68.79493047026058
 20
45.66095960554075
 10
68.7344225284041
 20
45.52021296172935
 10
68.66045859736613
 20
45.38162509157689
 10
68.5732672954188
 20
45.24562436224786
 10
68.47311812587972
 20
45.11263114420271
 10
68.36032064409261
 20
44.98305651185691
 10
68.2352235006095
 20
44.85730097297339
 10
68.09821336353187
 20
44.73575323071612
 10
67.9497137233417
 20
44.61878898219079
 10
67.79018358391667
 20
44.50676975718661
 10
67.62011604377543
 20
44.40004180070854
 10
67.44003677193835
 20
44.29893500275372
 10
67.2505023831148
 20
44.20376187864043
 10
67.05209871723885
 20
44.11481660304115
 10
66.84543902867165
 20
44.0323741007055
 10
66.63116209066737
 20
43.95668919668364
 10
66.40993022096171
 20
43.88799582867655
 10
66.18242723458562
 20
43.8265063239481
 10
65.9493563302323
 20
43.77241074303357
 10
65.7114379167104
 20
43.72587629227348
 10
65.46940738620154
 20
43.68704680698836
 10
65.22401284120531
 20
43.65604230689198
 10
64.97601278219733
 20
43.63295862511735
 10
64.72617376314766
 20
43.61786711200199
 10
64.47526802214651
 20
43.61081441454803
 10
64.22407109446047
 20
43.61182233223916
 10
63.97335941539754
 20
43.62088774965956
 10
63.72390792038995
 20
43.63798264612348
 10
63.47648764971334
 20
43.66305418228563
 10
63.23186336524526
 20
43.69602486346453
 10
62.99079118663015
 20
43.73679277917412
 10
62.75401625415684
 20
43.78523191812325
 10
62.52227042557257
 20
43.8411925577094
 10
62.29627001395269
 20
43.90450172680253
 10
62.07671357361796
 20
43.97496374038911
 10
61.86427974094318
 20
44.05236080442315
 10
61.65962513673106
 20
44.13645368901515
 10
61.46338233663494
 20
44.22698246787802
 10
61.2761579159037
 20
44.3236673217443
 10
61.09853057449244
 20
44.42620940327145
 10
60.93104934833402
 20
44.53429176076193
 10
60.77423191230056
 20
44.64758031784268
 10
60.6285629801
 20
44.76572490607607
 10
60.49449280605382
 20
44.88836034731046
 10
60.37243579338674
 20
45.01510758242494
 10
60.26276921333011
 20
45.14557484297937
 10
60.16583203899816
 20
45.27935886214816
 10
60.08192389764149
 20
45.41604612119489
 10
60.01130414451647
 20
45.55521412763508
 10
59.95419106123296
 20
45.69643272113622
 10
59.91076118105834
 20
45.83926540311871
 10
59.8811487432634
 20
45.98327068594796
 10
59.86544527819633
 20
46.12800345754732
 10
59.86369932436771
 20
46.27301635721412
 10
59.87591627842078
 20
46.41786115838579
 10
59.90205837845069
 20
46.56209015408268
 10
59.9420448207244
 20
46.70525754074447
 10
59.99575200944034
 20
46.84692079618361
 10
60.06301393875606
 20
46.98664204739593
 10
60.14362270590264
 20
47.12398942400101
 10
60.23732915380035
 20
47.25853839312884
 10
60.34384364118883
 20
47.38987307162652
 10
60.46283693789165
 20
47.51758751152931
 10
60.59394124244795
 20
47.64128695482248
 10
60.73675131896561
 20
47.76058905361575
 10
60.89082574968224
 20
47.87512505195867
 10
61.05568829936214
 20
47.98454092564415
 10
61.23082938731213
 20
48.088498476477
 10
61.41570766246629
 20
48.18667637762515
 10
61.60975167667107
 20
48.27877116682252
 10
61.81236165099875
 20
48.36449818435342
 10
62.02291132962982
 20
48.44359245291948
 10
62.24074991557372
 20
48.51580949666928
 10
62.46520408224514
 20
48.58092609685917
 10
62.69558005467782
 20
48.63874098180965
 10
62.9311657539433
 20
48.68907544902459
 10
63.171232998146
 20
48.73177391755035
 10
63.41503975319181
 20
48.76670440886767
 10
63.66183242637287
 20
48.7937589548297
 10
63.91084819567948
 20
48.81285393138528
 10
64.16131736763924
 20
48.82393031705617
 10
64.41246575639542
 20
48.82695387536903
 10
64.66351707667111
 20
48.82191526067839
 10
64.9136953432225
 20
48.80883004705348
 10
65.16222726936482
 20
48.78773868013977
 10
65.40834465715714
 20
48.75870635214368
 10
65.65128677185821
 20
48.72182280032727
 10
65.89030269331396
 20
48.67720202963547
 10
66.12465363700858
 20
48.62498196031341
 10
66.35361523760523
 20
48.56532400160274
 10
66.57647978791773
 20
48.49841255283498
 10
66.79255842639292
 20
48.42445443346372
 10
67.00118326634221
 20
48.34367824379758
 10
67.20170946034115
 20
48.25633365840973
 10
67.39351719341576
 20
48.16269065440807
 10
67.57601359885514
 20
48.06303867695155
  0
LWPOLYLINE
  5
258
330
1F
100
AcDbEntity
  8
0
  6
SLD-Solid
 62
     7
370
    25
100
AcDbPolyline
 90
       84
 70
   128
 43
0.0
 10
73.6400608771236
 20
45.80081343543975
 10
73.64307286904328
 20
45.70678618822816
 10
73.6395898053895
 20
45.49942128590196
 10
73.62218103581702
 20
45.2922902986276
 10
73.59087274476897
 20
45.08570477108565
 10
73.54571202288908
 20
44.8799754275334
 10
73.48676679619297
 20
44.6754117044461
 10
73.41412572390087
 20
44.47232128509509
 10
73.3278980650858
 20
44.27100963676297
 10
73.22821351433754
 20
44.0717795512917
 10
73.11522200668956
 20
43.87493068965502
 10
72.98909349210265
 20
43.68075913123982
 10
72.85001767984386
 20
43.48955692851459
 10
72.69820375314585
 20
43.30161166775483
 10
72.53388005457542
 20
43.11720603648592
 10
72.35729374258457
 20
42.93661739829429
 10
72.16871041976077
 20
42.76011737564616
 10
71.96841373333534
 20
42.58797144134159
 10
71.75670494855116
 20
42.42043851921819
 10
71.53390249553111
 20
42.25777059470505
 10
71.30034149032885
 20
42.10021233581271
 10
71.05637323088253
 20
41.94800072512924
 10
70.80236466862928
 20
41.80136470337593
 10
70.53869785657541
 20
41.66052482505867
 10
70.26576937465235
 20
41.52569292673306
 10
69.98398973322281
 20
41.39707180838207
 10
69.69378275563419
 20
41.2748549283856
 10
69.39558494074798
 20
41.15922611254076
 10
69.08984480640403
 20
41.05035927757031
 10
68.77702221480716
 20
40.9484181695355
 10
68.45758768085058
 20
40.85355611754635
 10
68.13202166441698
 20
40.76591580314013
 10
67.80081384772107
 20
40.68562904567482
 10
67.4644623987811
 20
40.61281660406019
 10
67.12347322212683
 20
40.547587995125
 10
66.77835919787104
 20
40.49004132889326
 10
66.4296394102891
 20
40.44026316101742
 10
66.07783836706697
 20
40.39832836259048
 10
65.7234852103918
 20
40.36430000753273
 10
65.36711292107177
 20
40.33822927772255
 10
65.00925751688236
 20
40.32015538601411
 10
64.65045724634471
 20
40.31010551725739
 10
64.29125177914871
 20
40.30809478740966
 10
63.93218139443849
 20
40.31412622079961
 10
63.57378616818131
 20
40.32819074557847
 10
63.21660516084198
 20
40.35026720736499
 10
62.86117560658469
 20
40.38032240106354
 10
62.50803210522188
 20
40.41831112080784
 10
62.15770581812522
 20
40.46417622795475
 10
61.81072366930853
 20
40.51784873702636
 10
61.46760755288402
 20
40.57924791947056
 10
61.1288735480839
 20
40.64828142508457
 10
60.79503114302827
 20
40.72484542091834
 10
60.46658246840654
 20
40.80882474744921
 10
60.14402154222517
 20
40.90009309179275
 10
59.8278335267577
 20
40.99851317768935
 10
59.51849399881459
 20
41.10393697198074
 10
59.21646823443051
 20
41.21620590726594
 10
58.92221050904496
 20
41.33515112040168
 10
58.63616341422893
 20
41.46059370648861
 10
58.35875719198509
 20
41.59234498796128
 10
58.09040908762292
 20
41.73020679837709
 10
57.83152272218218
 20
41.87397178047748
 10
57.58248748534852
 20
42.02342369807291
 10
57.34367794977437
 20
42.17833776128265
 10
57.11545330768612
 20
42.33848096464009
 10
56.89815683062488
 20
42.50361243755516
 10
56.69211535313347
 20
42.67348380660647
 10
56.49763878116627
 20
42.84783956911865
 10
56.31501962596109
 20
43.02641747746254
 10
56.14453256407469
 20
43.20894893350064
 10
55.98643402424294
 20
43.39515939258407
 10
55.84096180168778
 20
43.58476877649399
 10
55.70833470045056
 20
43.77749189470568
 10
55.58875220429
 20
43.97303887334232
 10
55.48239417663966
 20
44.1711155911727
 10
55.38942059007621
 20
44.37142412199761
 10
55.30997128570557
 20
44.57366318275907
 10
55.24416576282852
 20
44.77752858669869
 10
55.19210299920243
 20
44.98271370088346
 10
55.15386130216933
 20
45.1889099074108
 10
55.12949819087417
 20
45.39580706759918
 10
55.11905030975065
 20
45.60309398846623
 10
55.1220623016703
 20
45.80081343543975
  0
LWPOLYLINE
  5
259
330
1F
100
AcDbEntity
  8
0
  6
SLD-Solid
 62
     7
370
    25
100
AcDbPolyline
 90
       15
 70
   128
 43
0.0
 10
67.38626540943979
 20
47.59394252894186
 10
67.552927746815
 20
47.49207163317465
 10
67.70924411606431
 20
47.38487424276232
 10
67.85470464568193
 20
47.27270001331114
 10
67.98883487365455
 20
47.15591483384195
 10
68.11119729505779
 20
47.03489963333607
 10
68.22139278910635
 20
46.91004913822431
 10
68.31906192100301
 20
46.78177058487123
 10
68.4038861143403
 20
46.65048239125491
 10
68.47558869023042
 20
46.51661279217434
 10
68.53393576977439
 20
46.38059844243666
 10
68.5787370369263
 20
46.2428829925798
 10
68.60984635926474
 20
46.10391564177672
 10
68.62716226464639
 20
45.96414967264108
 10
68.63100604258707
 20
45.87161911434401
  0
LWPOLYLINE
  5
25A
330
1F
100
AcDbEntity
  8
0
  6
SLD-Solid
 62
     7
370
    25
100
AcDbPolyline
 90
       43
 70
   128
 43
0.0
 10
60.13106158939695
 20
45.8590752913186
 10
60.13149490660687
 20
45.89410960992372
 10
60.14189010230339
 20
46.03410403518595
 10
60.16611259426938
 20
46.17352755306582
 10
60.20408337377076
 20
46.31192539302749
 10
60.2556785880171
 20
46.4488461300833
 10
60.32072994414371
 20
46.58384315724828
 10
60.39902525814799
 20
46.71647614227924
 10
60.4903091469895
 20
46.84631246394708
 10
60.59428386159642
 20
46.97292862315729
 10
60.71061025806107
 20
47.095911624316
 10
60.83890890385688
 20
47.2148603224357
 10
60.97876131546845
 20
47.32938673158689
 10
61.12971132339774
 20
47.4391172904275
 10
61.29126656009418
 20
47.54369408068235
 10
61.46290006595529
 20
47.64277599459813
 10
61.64405200815936
 20
47.73603984756604
 10
61.83413150672378
 20
47.82318143228284
 10
62.03251856183267
 20
47.90391651101173
 10
62.23856607614747
 20
47.97798174270686
 10
62.45160196550393
 20
48.04513554197709
 10
62.67093135111097
 20
48.10515886708725
 10
62.89583882610084
 20
48.15785593442685
 10
63.12559078903766
 20
48.20305485711538
 10
63.35943783677279
 20
48.24060820566178
 10
63.59661720884217
 20
48.27039348884861
 10
63.83635527543237
 20
48.29231355327307
 10
64.07787006080027
 20
48.30629690024112
 10
64.32037379391541
 20
48.31229791898144
 10
64.56307547800533
 20
48.31029703541822
 10
64.8051834706226
 20
48.30030077601775
 10
65.045908065818
 20
48.28234174650046
 10
65.28446406999716
 20
48.25647852548781
 10
65.52007336305887
 20
48.22279547343098
 10
65.75196743646109
 20
48.18140245744473
 10
65.97938989993605
 20
48.13243449294355
 10
66.20159894867822
 20
48.07605130324954
 10
66.41786978295725
 20
48.01243679860812
 10
66.62749697226408
 20
47.94179847631099
 10
66.8297967562787
 20
47.86436674388316
 10
67.02410927515412
 20
47.78039416754146
 10
67.20980072184206
 20
47.690154648376
 10
67.38626540943979
 20
47.59394252894186
  0
LWPOLYLINE
  5
25B
330
1F
100
AcDbEntity
  8
0
  6
SLD-Solid
 62
     7
370
    25
100
AcDbPolyline
 90
       35
 70
   128
 43
0.0
 10
58.98380953784751
 20
19.03262178132461
 10
59.20898239594704
 20
18.93538026184248
 10
59.49727503992797
 20
18.81993880359967
 10
59.79328995428345
 20
18.71120520307108
 10
60.09655907858938
 20
18.60935139042881
 10
60.40660288202468
 20
18.51453841748625
 10
60.72293112160801
 20
18.42691620304198
 10
61.04504361737278
 20
18.34662329582738
 10
61.37243104325448
 20
18.27378665543259
 10
61.70457573243978
 20
18.20852145155733
 10
62.04095249590427
 20
18.15093088190387
 10
62.38102945284423
 20
18.10110600900031
 10
62.72426887168947
 20
18.059125616212
 10
63.07012802036753
 20
18.02505608316879
 10
63.41806002447458
 20
17.99895128080528
 10
63.76751473199631
 20
17.98085248617971
 10
64.11793958321132
 20
17.97078831720652
 10
64.46878048440165
 20
17.96877468740549
 10
64.81948268398874
 20
17.97481478073924
 10
65.16949164970984
 20
17.98889904657868
 10
65.51825394544743
 20
18.01100521480458
 10
65.86521810632543
 20
18.04109833102114
 10
66.20983551068865
 20
18.07913081182613
 10
66.55156124758624
 20
18.12504252004999
 10
66.88985497838802
 20
18.17876085984508
 10
67.22418179117086
 20
18.24020089147462
 10
67.55401304652445
 20
18.30926546561989
 10
67.87882721343874
 20
18.38584537699327
 10
68.1981106939518
 20
18.46981953701423
 10
68.5113586352537
 20
18.56105516527527
 10
68.81807572796255
 20
18.65940799949503
 10
69.1177769893105
 20
18.76472252362667
 10
69.40998853000113
 20
18.87683221376059
 10
69.6942483035259
 20
18.99555980143308
 10
69.77831364094645
 20
19.0326217813246
  0
LWPOLYLINE
  5
25C
330
1F
100
AcDbEntity
  8
0
  6
SLD-Solid
 62
     8
370
    25
100
AcDbPolyline
 90
       82
 70
   128
 43
0.0
 10
73.59313578569903
 20
46.76001003086739
 10
73.59171341577517
 20
46.72859935106253
 10
73.5743946679659
 20
46.52253945020889
 10
73.5432482739176
 20
46.31702218848355
 10
73.49832108076556
 20
46.11235668337055
 10
73.43968066327598
 20
45.90885077123106
 10
73.36741522220711
 20
45.70681054428828
 10
73.28163345164693
 20
45.50653989023564
 10
73.18246437552689
 20
45.30834003516088
 10
73.07005715355773
 20
45.11250909047331
 10
72.94458085687897
 20
44.91934160451604
 10
72.80622421376006
 20
44.72912811953722
 10
72.65519532573492
 20
44.54215473468693
 10
72.49172135459763
 20
44.35870267569688
 10
72.31604818072942
 20
44.17904787189019
 10
72.12844003327126
 20
44.00346054115744
 10
71.92917909269809
 20
43.83220478352342
 10
71.71856506639264
 20
43.66553818391539
 10
71.49691473785707
 20
43.50371142473112
 10
71.26456149024034
 20
43.3469679087886
 10
71.0218548048985
 20
43.1955433932251
 10
70.76915973574135
 20
43.04966563489609
 10
70.50685636015685
 20
42.90955404780723
 10
70.23533920733843
 20
42.77541937309493
 10
69.95501666487577
 20
42.64746336205161
 10
69.66631036450103
 20
42.52587847267262
 10
69.3696545479146
 20
42.41084758018113
 10
69.06549541364446
 20
42.3025437019664
 10
68.75429044592104
 20
42.20112973734921
 10
68.43650772657769
 20
42.10675822256583
 10
68.11262523101094
 20
42.01957110133898
 10
67.78313010926021
 20
41.93969951138102
 10
67.44851795328789
 20
41.86726358715039
 10
67.10929205156188
 20
41.80237227915791
 10
66.76596263206196
 20
41.74512319009494
 10
66.41904609484843
 20
41.69560242802962
 10
66.06906423534743
 20
41.65388447689212
 10
65.71654345952095
 20
41.62003208444383
 10
65.36201399210232
 20
41.59409616789866
 10
65.00600907908785
 20
41.5761157373388
 10
64.64906418568414
 20
41.5661178370398
 10
64.29171619091767
 20
41.56411750479344
 10
63.93450258011754
 20
41.5701177492894
 10
63.5779606364867
 20
41.58410954559002
 10
63.22262663297683
 20
41.60607184870454
 10
62.86903502568295
 20
41.63597162524285
 10
62.51771764997062
 20
41.67376390310079
 10
62.1692029205451
 20
41.71939183910256
 10
61.82401503666539
 20
41.7727868044981
 10
61.48267319369879
 20
41.83386848818742
 10
61.14569080220168
 20
41.90254501751599
 10
60.81357471570137
 20
41.97871309646001
 10
60.48682446834017
 20
42.06225816099342
 10
60.16593152352863
 20
42.15305455140312
 10
59.85137853473784
 20
42.250965701293
 10
59.54363861954283
 20
42.35584434299292
 10
59.24317464800873
 20
42.46753272906318
 10
58.95043854649028
 20
42.58586286956166
 10
58.6658706178916
 20
42.71065678471672
 10
58.38989887940886
 20
42.84172677262557
 10
58.12293841875172
 20
42.97887569157587
 10
57.86539076981197
 20
43.12189725656553
 10
57.61764330871849
 20
43.27057634957497
 10
57.38006867118667
 20
43.42468934312504
 10
57.15302419203893
 20
43.58400443663401
 10
56.93685136773922
 20
43.74828200506767
 10
56.73187534274988
 20
43.9172749593581
 10
56.53840442048347
 20
44.09072911804915
 10
56.3567295995852
 20
44.26838358960948
 10
56.18712413624325
 20
44.44997116483818
 10
56.02984313318559
 20
44.63521871877284
 10
55.88512315598115
 20
44.82384762149537
 10
55.75318187722286
 20
45.01557415721794
 10
55.63421774912726
 20
45.21010995101841
 10
55.52840970504359
 20
45.40716240258368
 10
55.435916890321
 20
45.60643512630824
 10
55.35687842293891
 20
45.80762839708642
 10
55.29141318426023
 20
46.01043960112728
 10
55.23961964022257
 20
46.21456369111462
 10
55.20157569323612
 20
46.41969364502703
 10
55.17733856501098
 20
46.62552092792821
 10
55.16892356796459
 20
46.76160953135336
  0
MTEXT
  5
25D
330
1F
100
AcDbEntity
  8
NOTES
100
AcDbMText
 10
55.19632495089141
 20
17.33043709552027
 30
0.0
 40
0.7500000000000001
 41
0.0
 71
     1
 72
     1
  1
3D view 310-B
  7
SLDTEXTSTYLE1
 73
     1
 44
1.0
  0
CIRCLE
  5
25E
330
1F
100
AcDbEntity
  8
0
  6
SLD-Solid
 62
     7
370
    25
100
AcDbCircle
 10
39.59149188501518
 20
65.73149623350915
 30
0.0
 40
4.25
  0
CIRCLE
  5
25F
330
1F
100
AcDbEntity
  8
0
  6
SLD-Solid
 62
     7
370
    25
100
AcDbCircle
 10
39.59149188501518
 20
65.73149623350915
 30
0.0
 40
9.259223017768065
  0
CIRCLE
  5
260
330
1F
100
AcDbEntity
  8
0
  6
SLD-Solid
 62
     7
370
    25
100
AcDbCircle
 10
39.59149188501518
 20
65.73149623350915
 30
0.0
 40
9.262446693304781
  0
DIMENSION
  5
261
330
1F
100
AcDbEntity
  8
DIMS
100
AcDbDimension
  2
_D_2
 10
33.04423250063283
 20
72.27875561789143
 30
0.0
 11
50.10777668439486
 21
57.23648753219669
 31
0.0
 70
    35
  1
<>
 71
     1
 42
-1.0
  3
SLDDIMSTYLE2
100
AcDbDiametricDimension
 15
46.13875126939753
 25
59.18423684912666
 35
0.0
 40
0.0
  0
DIMENSION
  5
26F
330
1F
100
AcDbEntity
  8
DIMS
100
AcDbDimension
  2
_D_3
 10
37.46649188501519
 20
69.41210419959292
 30
0.0
 11
47.59531034028646
 21
54.8895065950521
 31
0.0
 70
    35
  1
<>
 71
     1
 42
-1.0
  3
SLDDIMSTYLE2
100
AcDbDiametricDimension
 15
41.71649188501517
 25
62.05088826742517
 35
0.0
 40
0.0
  0
MTEXT
  5
27C
330
1F
100
AcDbEntity
  8
NOTES
100
AcDbMText
 10
31.39848468812195
 20
56.84152826859813
 30
0.0
 40
0.7500000000000001
 41
0.0
 71
     1
 72
     1
  1
Top view
  7
SLDTEXTSTYLE1
 73
     1
 44
1.0
  0
LINE
  5
27D
330
1F
100
AcDbEntity
  8
OBJECT
100
AcDbLine
 10
49.3249977097673
 20
65.73149623350915
 30
0.0
 11
29.84215871314932
 21
65.73149623350915
 31
0.0
  0
LINE
  5
27E
330
1F
100
AcDbEntity
  8
OBJECT
100
AcDbLine
 10
49.3249977097673
 20
65.73149623350915
 30
0.0
 11
49.3249977097673
 21
66.23149623350915
 31
0.0
  0
INSERT
  5
27F
330
1F
100
AcDbEntity
  8
OBJECT
100
AcDbBlockReference
  2
_Open90
 10
49.3249977097673
 20
66.23149623350915
 30
0.0
 41
0.25
 42
0.25
 50
90.00000000000041
  0
LINE
  5
280
330
1F
100
AcDbEntity
  8
OBJECT
100
AcDbLine
 10
29.84215871314932
 20
65.73149623350915
 30
0.0
 11
29.84215871314932
 21
66.23149623350915
 31
0.0
  0
INSERT
  5
281
330
1F
100
AcDbEntity
  8
OBJECT
100
AcDbBlockReference
  2
_Open90
 10
29.84215871314932
 20
66.23149623350915
 30
0.0
 41
0.25
 42
0.25
 50
90.00000000000041
  0
MTEXT
  5
282
330
1F
100
AcDbEntity
  8
OBJECT
100
AcDbMText
 10
49.07874391754184
 20
67.02478523560686
 30
0.0
 40
0.5
 41
0.0
 71
     1
 72
     1
  1
A
  7
SLDTEXTSTYLE1
 73
     1
 44
1.0
  0
MTEXT
  5
283
330
1F
100
AcDbEntity
  8
OBJECT
100
AcDbMText
 10
29.59590492092386
 20
67.02478523560686
 30
0.0
 40
0.5
 41
0.0
 71
     1
 72
     1
  1
A
  7
SLDTEXTSTYLE1
 73
     1
 44
1.0
  0
LINE
  5
284
330
1F
100
AcDbEntity
  8
0
  6
SLD-Solid
 62
     7
370
    25
100
AcDbLine
 10
24.95904039555523
 20
46.49831176898154
 30
0.0
 11
7.521540395555223
 21
46.49831176898154
 31
0.0
  0
LINE
  5
285
330
1F
100
AcDbEntity
  8
0
  6
SLD-Solid
 62
     7
370
    25
100
AcDbLine
 10
7.521540395555223
 20
46.24831176898154
 30
0.0
 11
24.95904039555523
 21
46.24831176898154
 31
0.0
  0
LINE
  5
286
330
1F
100
AcDbEntity
  8
0
  6
SLD-Solid
 62
     7
370
    25
100
AcDbLine
 10
25.20487851278236
 20
48.61447245609481
 30
0.0
 11
7.275702278329293
 21
48.61447245609481
 31
0.0
  0
CIRCLE
  5
287
330
1F
100
AcDbEntity
  8
0
  6
SLD-Solid
 62
     7
370
    25
100
AcDbCircle
 10
24.95904039555523
 20
46.37331176898155
 30
0.0
 40
0.1249999999999929
  0
CIRCLE
  5
288
330
1F
100
AcDbEntity
  8
0
  6
SLD-Solid
 62
     7
370
    25
100
AcDbCircle
 10
7.521540395555223
 20
46.37331176898155
 30
0.0
 40
0.1249999999999929
  0
LINE
  5
289
330
1F
100
AcDbEntity
  8
0
  6
SLD-Solid
 62
     7
370
    25
100
AcDbLine
 10
25.30019039555588
 20
19.40531176898237
 30
0.0
 11
25.30019039555588
 21
48.53031176898236
 31
0.0
  0
LINE
  5
28A
330
1F
100
AcDbEntity
  8
0
  6
SLD-Solid
 62
     7
370
    25
100
AcDbLine
 10
25.27019039555588
 20
48.53031176898236
 30
0.0
 11
25.03883967391425
 21
48.53031176898236
 31
0.0
  0
LINE
  5
28B
330
1F
100
AcDbEntity
  8
0
  6
SLD-Solid
 62
     7
370
    25
100
AcDbLine
 10
25.27019039555589
 20
19.40531176898237
 30
0.0
 11
25.27019039555588
 21
48.53031176898236
 31
0.0
  0
LINE
  5
28C
330
1F
100
AcDbEntity
  8
0
  6
SLD-Solid
 62
     7
370
    25
100
AcDbLine
 10
25.24029039555588
 20
19.40531176898237
 30
0.0
 11
25.27019039555589
 21
19.40531176898237
 31
0.0
  0
LINE
  5
28D
330
1F
100
AcDbEntity
  8
0
  6
SLD-Solid
 62
     7
370
    25
100
AcDbLine
 10
7.210390395555884
 20
19.40531176898237
 30
0.0
 11
7.240290395555883
 21
19.40531176898237
 31
0.0
  0
LINE
  5
28E
330
1F
100
AcDbEntity
  8
0
  6
SLD-Solid
 62
     7
370
    25
100
AcDbLine
 10
7.210390395555887
 20
48.53031176898236
 30
0.0
 11
7.210390395555884
 21
19.40531176898237
 31
0.0
  0
LINE
  5
28F
330
1F
100
AcDbEntity
  8
0
  6
SLD-Solid
 62
     7
370
    25
100
AcDbLine
 10
7.441741117197411
 20
48.53031176898236
 30
0.0
 11
7.210390395555887
 21
48.53031176898236
 31
0.0
  0
LINE
  5
290
330
1F
100
AcDbEntity
  8
0
  6
SLD-Solid
 62
     7
370
    25
100
AcDbLine
 10
7.180390395555887
 20
48.53031176898236
 30
0.0
 11
7.180390395555887
 21
19.40531176898237
 31
0.0
  0
LINE
  5
291
330
1F
100
AcDbEntity
  8
0
  6
SLD-Solid
 62
     7
370
    25
100
AcDbLine
 10
7.210390395555884
 20
19.40531176898237
 30
0.0
 11
7.180390395555887
 21
19.40531176898237
 31
0.0
  0
LINE
  5
292
330
1F
100
AcDbEntity
  8
0
  6
SLD-Solid
 62
     7
370
    25
100
AcDbLine
 10
7.180390395555887
 20
48.53031176898236
 30
0.0
 11
7.210390395555887
 21
48.53031176898236
 31
0.0
  0
LINE
  5
293
330
1F
100
AcDbEntity
  8
0
  6
SLD-Solid
 62
     7
370
    25
100
AcDbLine
 10
25.30019039555588
 20
19.40531176898237
 30
0.0
 11
25.27019039555589
 21
19.40531176898237
 31
0.0
  0
LINE
  5
294
330
1F
100
AcDbEntity
  8
0
  6
SLD-Solid
 62
     7
370
    25
100
AcDbLine
 10
25.27019039555588
 20
48.53031176898236
 30
0.0
 11
25.30019039555588
 21
48.53031176898236
 31
0.0
  0
ARC
  5
295
330
1F
100
AcDbEntity
  8
0
  6
SLD-Solid
 62
     7
370
    25
100
AcDbCircle
 10
7.473427480545733
 20
19.25217468399251
 30
0.0
 40
0.0800000000000018
100
AcDbArc
 50
225.0000000000003
 51
270.0000000000008
  0
ARC
  5
296
330
1F
100
AcDbEntity
  8
0
  6
SLD-Solid
 62
     7
370
    25
100
AcDbCircle
 10
25.00715331056604
 20
19.25217468399251
 30
0.0
 40
0.0800000000000018
100
AcDbArc
 50
270.0000000000008
 51
315.0000000000008
  0
LINE
  5
297
330
1F
100
AcDbEntity
  8
0
  6
SLD-Solid
 62
     7
370
    25
100
AcDbLine
 10
7.41685893805081
 20
19.19560614149759
 30
0.0
 11
7.26372185306096
 21
19.34874322648744
 31
0.0
  0
ARC
  5
298
330
1F
100
AcDbEntity
  8
0
  6
SLD-Solid
 62
     7
370
    25
100
AcDbCircle
 10
7.320290395555883
 20
19.40531176898237
 30
0.0
 40
0.080000000000001
100
AcDbArc
 50
180.0
 51
225.0000000000022
  0
LINE
  5
299
330
1F
100
AcDbEntity
  8
0
  6
SLD-Solid
 62
     7
370
    25
100
AcDbLine
 10
7.240290395555883
 20
20.00217468399251
 30
0.0
 11
7.240290395555883
 21
19.40531176898237
 31
0.0
  0
LINE
  5
29A
330
1F
100
AcDbEntity
  8
0
  6
SLD-Solid
 62
     7
370
    25
100
AcDbLine
 10
7.240290395555883
 20
20.00217468399251
 30
0.0
 11
7.275290395555882
 21
20.00217468399251
 31
0.0
  0
LINE
  5
29B
330
1F
100
AcDbEntity
  8
0
  6
SLD-Solid
 62
     7
370
    25
100
AcDbLine
 10
7.275290395555883
 20
19.39495642992305
 30
0.0
 11
7.275290395555882
 21
20.00217468399251
 31
0.0
  0
ARC
  5
29C
330
1F
100
AcDbEntity
  8
0
  6
SLD-Solid
 62
     7
370
    25
100
AcDbCircle
 10
7.295290395555884
 20
19.39495642992305
 30
0.0
 40
0.0200000000000039
100
AcDbArc
 50
180.0
 51
225.0000000000098
  0
LINE
  5
29D
330
1F
100
AcDbEntity
  8
0
  6
SLD-Solid
 62
     7
370
    25
100
AcDbLine
 10
7.44893000586269
 20
19.21303254836878
 30
0.0
 11
7.281148259932152
 21
19.38081429429932
 31
0.0
  0
ARC
  5
29E
330
1F
100
AcDbEntity
  8
0
  6
SLD-Solid
 62
     7
370
    25
100
AcDbCircle
 10
7.463072141486421
 20
19.22717468399251
 30
0.0
 40
0.0199999999999996
100
AcDbArc
 50
224.9999999999954
 51
270.0000000000008
  0
LINE
  5
29F
330
1F
100
AcDbEntity
  8
0
  6
SLD-Solid
 62
     7
370
    25
100
AcDbLine
 10
25.01750864962534
 20
19.20717468399251
 30
0.0
 11
7.463072141486421
 21
19.20717468399251
 31
0.0
  0
ARC
  5
2A0
330
1F
100
AcDbEntity
  8
0
  6
SLD-Solid
 62
     7
370
    25
100
AcDbCircle
 10
25.01750864962534
 20
19.22717468399251
 30
0.0
 40
0.020000000000002
100
AcDbArc
 50
270.0000000000008
 51
315.0000000000152
  0
LINE
  5
2A1
330
1F
100
AcDbEntity
  8
0
  6
SLD-Solid
 62
     7
370
    25
100
AcDbLine
 10
25.19943253117961
 20
19.38081429429932
 30
0.0
 11
25.03165078524908
 21
19.21303254836878
 31
0.0
  0
ARC
  5
2A2
330
1F
100
AcDbEntity
  8
0
  6
SLD-Solid
 62
     7
370
    25
100
AcDbCircle
 10
25.18529039555589
 20
19.39495642992305
 30
0.0
 40
0.0200000000000031
100
AcDbArc
 50
314.9999999999864
 51
0.0
  0
LINE
  5
2A3
330
1F
100
AcDbEntity
  8
0
  6
SLD-Solid
 62
     7
370
    25
100
AcDbLine
 10
25.20529039555589
 20
20.00217468399251
 30
0.0
 11
25.20529039555589
 21
19.39495642992305
 31
0.0
  0
LINE
  5
2A4
330
1F
100
AcDbEntity
  8
0
  6
SLD-Solid
 62
     7
370
    25
100
AcDbLine
 10
25.20529039555589
 20
20.00217468399251
 30
0.0
 11
25.24029039555588
 21
20.00217468399251
 31
0.0
  0
LINE
  5
2A5
330
1F
100
AcDbEntity
  8
0
  6
SLD-Solid
 62
     7
370
    25
100
AcDbLine
 10
25.24029039555588
 20
19.40531176898237
 30
0.0
 11
25.24029039555588
 21
20.00217468399251
 31
0.0
  0
ARC
  5
2A6
330
1F
100
AcDbEntity
  8
0
  6
SLD-Solid
 62
     7
370
    25
100
AcDbCircle
 10
25.16029039555589
 20
19.40531176898237
 30
0.0
 40
0.0800000000000003
100
AcDbArc
 50
314.999999999999
 51
0.0
  0
LINE
  5
2A7
330
1F
100
AcDbEntity
  8
0
  6
SLD-Solid
 62
     7
370
    25
100
AcDbLine
 10
25.21685893805081
 20
19.34874322648744
 30
0.0
 11
25.06372185306096
 21
19.19560614149759
 31
0.0
  0
LINE
  5
2A8
330
1F
100
AcDbEntity
  8
0
  6
SLD-Solid
 62
     7
370
    25
100
AcDbLine
 10
7.473427480545733
 20
19.17217468399251
 30
0.0
 11
25.00715331056604
 21
19.17217468399251
 31
0.0
  0
LINE
  5
2A9
330
1F
100
AcDbEntity
  8
0
  6
SLD-Solid
 62
     7
370
    25
100
AcDbLine
 10
7.44893000586269
 20
19.21303254836878
 30
0.0
 11
25.03165078524908
 21
19.21303254836878
 31
0.0
  0
LINE
  5
2AA
330
1F
100
AcDbEntity
  8
0
  6
SLD-Solid
 62
     7
370
    25
100
AcDbLine
 10
7.275290395555883
 20
19.39495642992305
 30
0.0
 11
25.20529039555589
 21
19.39495642992305
 31
0.0
  0
LINE
  5
2AB
330
1F
100
AcDbEntity
  8
0
  6
SLD-Solid
 62
     7
370
    25
100
AcDbLine
 10
25.19943253117961
 20
19.38081429429932
 30
0.0
 11
7.281148259932152
 21
19.38081429429932
 31
0.0
  0
LINE
  5
2AC
330
1F
100
AcDbEntity
  8
0
  6
SLD-Solid
 62
     7
370
    25
100
AcDbLine
 10
25.15821820587204
 20
48.55895334399651
 30
0.0
 11
20.77029993519034
 21
47.50619378794735
 31
0.0
  0
ARC
  5
2AD
330
1F
100
AcDbEntity
  8
0
  6
SLD-Solid
 62
     7
370
    25
100
AcDbCircle
 10
20.84029039555583
 20
47.2144724560948
 30
0.0
 40
0.3000000000000007
100
AcDbArc
 50
103.4915251740664
 51
180.0
  0
LINE
  5
2AE
330
1F
100
AcDbEntity
  8
0
  6
SLD-Solid
 62
     7
370
    25
100
AcDbLine
 10
20.54029039555583
 20
47.2144724560948
 30
0.0
 11
20.54029039555583
 21
47.11447245609481
 31
0.0
  0
LINE
  5
2AF
330
1F
100
AcDbEntity
  8
0
  6
SLD-Solid
 62
     7
370
    25
100
AcDbLine
 10
20.54029039555583
 20
47.11447245609481
 30
0.0
 11
20.49029039555583
 21
47.11447245609481
 31
0.0
  0
LINE
  5
2B0
330
1F
100
AcDbEntity
  8
0
  6
SLD-Solid
 62
     7
370
    25
100
AcDbLine
 10
20.49029039555583
 20
47.11447245609481
 30
0.0
 11
20.49029039555583
 21
47.2144724560948
 31
0.0
  0
ARC
  5
2B1
330
1F
100
AcDbEntity
  8
0
  6
SLD-Solid
 62
     7
370
    25
100
AcDbCircle
 10
20.84029039555583
 20
47.2144724560948
 30
0.0
 40
0.350000000000006
100
AcDbArc
 50
103.4915251740666
 51
179.9999999999827
  0
ARC
  5
2B2
330
1F
100
AcDbEntity
  8
0
  6
SLD-Solid
 62
     7
370
    25
100
AcDbCircle
 10
48.61036391290365
 20
-58.86079193524868
 30
0.0
 40
110.0
100
AcDbArc
 50
102.3162433904793
 51
104.6668069576539
  0
ARC
  5
2B3
330
1F
100
AcDbEntity
  8
0
  6
SLD-Solid
 62
     7
370
    25
100
AcDbCircle
 10
25.20487851278236
 20
48.3644724560948
 30
0.0
 40
0.2500000000000045
100
AcDbArc
 50
1.000000000001762
 51
103.4915251740668
  0
LINE
  5
2B4
330
1F
100
AcDbEntity
  8
0
  6
SLD-Solid
 62
     7
370
    25
100
AcDbLine
 10
25.45484043657147
 20
48.36883555770413
 30
0.0
 11
25.47777325707552
 21
47.05501515094175
 31
0.0
  0
ARC
  5
2B5
330
1F
100
AcDbEntity
  8
0
  6
SLD-Solid
 62
     7
370
    25
100
AcDbCircle
 10
25.77772756562244
 20
47.06025087287293
 30
0.0
 40
0.2999999999999993
100
AcDbArc
 50
180.9999999999996
 51
201.9699024988192
  0
LINE
  5
2B6
330
1F
100
AcDbEntity
  8
0
  6
SLD-Solid
 62
     7
370
    25
100
AcDbLine
 10
25.49951341332389
 20
46.94801502538737
 30
0.0
 11
25.50273708886062
 21
46.86447245609484
 31
0.0
  0
LINE
  5
2B7
330
1F
100
AcDbEntity
  8
0
  6
SLD-Solid
 62
     7
370
    25
100
AcDbLine
 10
25.50273708886062
 20
46.86447245609484
 30
0.0
 11
25.47773708886061
 21
46.8644724560948
 31
0.0
  0
LINE
  5
2B8
330
1F
100
AcDbEntity
  8
0
  6
SLD-Solid
 62
     7
370
    25
100
AcDbLine
 10
25.47773708886061
 20
46.8644724560948
 30
0.0
 11
25.4509180968707
 21
46.9344481654728
 31
0.0
  0
ARC
  5
2B9
330
1F
100
AcDbEntity
  8
0
  6
SLD-Solid
 62
     7
370
    25
100
AcDbCircle
 10
25.77773708886057
 20
47.05970528692581
 30
0.0
 40
0.3499999999999804
100
AcDbArc
 50
180.9999999999801
 51
200.9699024987982
  0
LINE
  5
2BA
330
1F
100
AcDbEntity
  8
0
  6
SLD-Solid
 62
     7
370
    25
100
AcDbLine
 10
25.42779039555585
 20
47.05359694467289
 30
0.0
 11
25.40484805181365
 21
48.36796293738232
 31
0.0
  0
ARC
  5
2BB
330
1F
100
AcDbEntity
  8
0
  6
SLD-Solid
 62
     7
370
    25
100
AcDbCircle
 10
25.20487851278236
 20
48.3644724560948
 30
0.0
 40
0.2000000000000059
100
AcDbArc
 50
1.00000000001844
 51
103.491525174066
  0
ARC
  5
2BC
330
1F
100
AcDbEntity
  8
0
  6
SLD-Solid
 62
     7
370
    25
100
AcDbCircle
 10
6.702853225489221
 20
47.06025087287293
 30
0.0
 40
0.2999999999999985
100
AcDbArc
 50
338.0300975011823
 51
359.000000000002
  0
LINE
  5
2BD
330
1F
100
AcDbEntity
  8
0
  6
SLD-Solid
 62
     7
370
    25
100
AcDbLine
 10
6.977843702251046
 20
46.86447245609484
 30
0.0
 11
6.981067377787766
 21
46.94801502538737
 31
0.0
  0
LINE
  5
2BE
330
1F
100
AcDbEntity
  8
0
  6
SLD-Solid
 62
     7
370
    25
100
AcDbLine
 10
7.075732739298015
 20
48.36796293738232
 30
0.0
 11
7.052790395555808
 21
47.05359694467289
 31
0.0
  0
ARC
  5
2BF
330
1F
100
AcDbEntity
  8
0
  6
SLD-Solid
 62
     7
370
    25
100
AcDbCircle
 10
6.702843702251091
 20
47.05970528692581
 30
0.0
 40
0.3499999999999786
100
AcDbArc
 50
339.0300975012035
 51
359.0000000000215
  0
LINE
  5
2C0
330
1F
100
AcDbEntity
  8
0
  6
SLD-Solid
 62
     7
370
    25
100
AcDbLine
 10
7.02966269424096
 20
46.9344481654728
 30
0.0
 11
7.002843702251046
 21
46.8644724560948
 31
0.0
  0
LINE
  5
2C1
330
1F
100
AcDbEntity
  8
0
  6
SLD-Solid
 62
     7
370
    25
100
AcDbLine
 10
7.002843702251046
 20
46.8644724560948
 30
0.0
 11
6.977843702251046
 21
46.86447245609484
 31
0.0
  0
LINE
  5
2C2
330
1F
100
AcDbEntity
  8
0
  6
SLD-Solid
 62
     7
370
    25
100
AcDbLine
 10
7.002807534036135
 20
47.05501515094175
 30
0.0
 11
7.025740354540194
 21
48.36883555770413
 31
0.0
  0
ARC
  5
2C3
330
1F
100
AcDbEntity
  8
0
  6
SLD-Solid
 62
     7
370
    25
100
AcDbCircle
 10
7.275702278329293
 20
48.3644724560948
 30
0.0
 40
0.2500000000000053
100
AcDbArc
 50
76.5084748259324
 51
178.9999999999982
  0
ARC
  5
2C4
330
1F
100
AcDbEntity
  8
0
  6
SLD-Solid
 62
     7
370
    25
100
AcDbCircle
 10
-16.12978312179199
 20
-58.86079193524868
 30
0.0
 40
110.0
100
AcDbArc
 50
75.33319304234614
 51
77.68375660952067
  0
ARC
  5
2C5
330
1F
100
AcDbEntity
  8
0
  6
SLD-Solid
 62
     7
370
    25
100
AcDbCircle
 10
11.64029039555583
 20
47.2144724560948
 30
0.0
 40
0.350000000000006
100
AcDbArc
 50
0.0000000000173022
 51
76.5084748259334
  0
LINE
  5
2C6
330
1F
100
AcDbEntity
  8
0
  6
SLD-Solid
 62
     7
370
    25
100
AcDbLine
 10
11.99029039555583
 20
47.2144724560948
 30
0.0
 11
11.99029039555583
 21
47.11447245609481
 31
0.0
  0
LINE
  5
2C7
330
1F
100
AcDbEntity
  8
0
  6
SLD-Solid
 62
     7
370
    25
100
AcDbLine
 10
11.99029039555583
 20
47.11447245609481
 30
0.0
 11
11.94029039555583
 21
47.11447245609481
 31
0.0
  0
LINE
  5
2C8
330
1F
100
AcDbEntity
  8
0
  6
SLD-Solid
 62
     7
370
    25
100
AcDbLine
 10
11.94029039555583
 20
47.11447245609481
 30
0.0
 11
11.94029039555583
 21
47.2144724560948
 31
0.0
  0
ARC
  5
2C9
330
1F
100
AcDbEntity
  8
0
  6
SLD-Solid
 62
     7
370
    25
100
AcDbCircle
 10
11.64029039555583
 20
47.2144724560948
 30
0.0
 40
0.3000000000000007
100
AcDbArc
 50
0.0
 51
76.50847482593333
  0
LINE
  5
2CA
330
1F
100
AcDbEntity
  8
0
  6
SLD-Solid
 62
     7
370
    25
100
AcDbLine
 10
11.71028085592132
 20
47.50619378794735
 30
0.0
 11
7.322362585239621
 21
48.55895334399651
 31
0.0
  0
ARC
  5
2CB
330
1F
100
AcDbEntity
  8
0
  6
SLD-Solid
 62
     7
370
    25
100
AcDbCircle
 10
7.275702278329293
 20
48.3644724560948
 30
0.0
 40
0.2000000000000036
100
AcDbArc
 50
76.50847482593323
 51
178.9999999999815
  0
LINE
  5
2CC
330
1F
100
AcDbEntity
  8
0
  6
SLD-Solid
 62
     7
370
    25
100
AcDbLine
 10
11.99029039555583
 20
47.11447245609481
 30
0.0
 11
20.49029039555583
 21
47.11447245609481
 31
0.0
  0
LINE
  5
2CD
330
1F
100
AcDbEntity
  8
0
  6
SLD-Solid
 62
     7
370
    25
100
AcDbLine
 10
7.002843702251046
 20
46.8644724560948
 30
0.0
 11
7.180390395555887
 21
46.8644724560948
 31
0.0
  0
LINE
  5
2CE
330
1F
100
AcDbEntity
  8
0
  6
SLD-Solid
 62
     7
370
    25
100
AcDbLine
 10
25.30019039555588
 20
46.8644724560948
 30
0.0
 11
25.47773708886061
 21
46.8644724560948
 31
0.0
  0
LINE
  5
2CF
330
1F
100
AcDbEntity
  8
0
  6
SLD-Solid
 62
     7
370
    25
100
AcDbLine
 10
7.334027661967207
 20
48.60757356597193
 30
0.0
 11
25.14655312914445
 21
48.60757356597193
 31
0.0
  0
LINE
  5
2D0
330
1F
100
AcDbEntity
  8
0
  6
SLD-Solid
 62
     7
370
    25
100
AcDbLine
 10
19.67482609102658
 20
47.11447245609481
 30
0.0
 11
19.67482609102658
 21
46.49831176898154
 31
0.0
  0
LINE
  5
2D1
330
1F
100
AcDbEntity
  8
0
  6
SLD-Solid
 62
     7
370
    25
100
AcDbLine
 10
19.67482609102658
 20
46.24831176898154
 30
0.0
 11
19.67482609102658
 21
44.06831176898236
 31
0.0
  0
LINE
  5
2D2
330
1F
100
AcDbEntity
  8
0
  6
SLD-Solid
 62
     7
370
    25
100
AcDbLine
 10
19.6660576772674
 20
47.11447245609481
 30
0.0
 11
19.6660576772674
 21
46.49831176898154
 31
0.0
  0
LINE
  5
2D3
330
1F
100
AcDbEntity
  8
0
  6
SLD-Solid
 62
     7
370
    25
100
AcDbLine
 10
19.6660576772674
 20
46.24831176898154
 30
0.0
 11
19.6660576772674
 21
44.06831176898236
 31
0.0
  0
LINE
  5
2D4
330
1F
100
AcDbEntity
  8
0
  6
SLD-Solid
 62
     7
370
    25
100
AcDbLine
 10
19.67482609102658
 20
44.06831176898236
 30
0.0
 11
19.6660576772674
 21
44.06831176898236
 31
0.0
  0
LINE
  5
2D5
330
1F
100
AcDbEntity
  8
0
  6
SLD-Solid
 62
     7
370
    25
100
AcDbLine
 10
19.6660576772674
 20
44.06831176898236
 30
0.0
 11
17.8792103636306
 21
44.06831176898236
 31
0.0
  0
LINE
  5
2D6
330
1F
100
AcDbEntity
  8
0
  6
SLD-Solid
 62
     7
370
    25
100
AcDbLine
 10
12.82991777906891
 20
44.06831176898236
 30
0.0
 11
14.61777810840388
 21
44.06831176898236
 31
0.0
  0
LINE
  5
2D7
330
1F
100
AcDbEntity
  8
0
  6
SLD-Solid
 62
     7
370
    25
100
AcDbLine
 10
12.82991777906891
 20
47.11447245609481
 30
0.0
 11
12.82991777906891
 21
46.49831176898154
 31
0.0
  0
LINE
  5
2D8
330
1F
100
AcDbEntity
  8
0
  6
SLD-Solid
 62
     7
370
    25
100
AcDbLine
 10
12.82991777906891
 20
46.24831176898154
 30
0.0
 11
12.82991777906891
 21
44.06831176898236
 31
0.0
  0
LINE
  5
2D9
330
1F
100
AcDbEntity
  8
0
  6
SLD-Solid
 62
     7
370
    25
100
AcDbLine
 10
12.82120237239636
 20
47.11447245609481
 30
0.0
 11
12.82120237239636
 21
46.49831176898154
 31
0.0
  0
LINE
  5
2DA
330
1F
100
AcDbEntity
  8
0
  6
SLD-Solid
 62
     7
370
    25
100
AcDbLine
 10
12.82120237239636
 20
46.24831176898154
 30
0.0
 11
12.82120237239636
 21
44.06831176898236
 31
0.0
  0
LINE
  5
2DB
330
1F
100
AcDbEntity
  8
0
  6
SLD-Solid
 62
     7
370
    25
100
AcDbLine
 10
12.82120237239636
 20
44.06831176898236
 30
0.0
 11
12.82991777906891
 21
44.06831176898236
 31
0.0
  0
LINE
  5
2DC
330
1F
100
AcDbEntity
  8
0
  6
SLD-Solid
 62
     7
370
    25
100
AcDbLine
 10
16.91089897453167
 20
46.12286879709599
 30
0.0
 11
16.91089897453167
 21
46.12331176898236
 31
0.0
  0
LINE
  5
2DD
330
1F
100
AcDbEntity
  8
0
  6
SLD-Solid
 62
     7
370
    25
100
AcDbLine
 10
16.98479876734532
 20
46.12331176898236
 30
0.0
 11
16.98479876734532
 21
46.12286879709599
 31
0.0
  0
LWPOLYLINE
  5
2DE
330
1F
100
AcDbEntity
  8
0
  6
SLD-Solid
 62
     7
370
    25
100
AcDbPolyline
 90
        9
 70
   128
 43
0.0
 10
16.9110148379797
 20
46.24831176898235
 10
16.92540936851925
 20
46.24590992903276
 10
16.93925072532271
 20
46.23879671054627
 10
16.95200699281045
 20
46.22724547052018
 10
16.96318795477671
 20
46.21170011663068
 10
16.97236393312349
 20
46.19275804810982
 10
16.97918230014885
 20
46.171147198028
 10
16.9833810298318
 20
46.14769805923438
 10
16.98479876734532
 20
46.12331176898236
  0
ARC
  5
2DF
330
1F
100
AcDbEntity
  8
0
  6
SLD-Solid
 62
     7
370
    25
100
AcDbCircle
 10
16.76417661300249
 20
46.41929355562858
 30
0.0
 40
0.3695155916304118
100
AcDbArc
 50
293.3961136186656
 51
306.659465144231
  0
LINE
  5
2E0
330
1F
100
AcDbEntity
  8
0
  6
SLD-Solid
 62
     7
370
    25
100
AcDbLine
 10
16.91090594756206
 20
46.08015895869444
 30
0.0
 11
16.24830146649585
 21
46.08015895869444
 31
0.0
  0
LINE
  5
2E1
330
1F
100
AcDbEntity
  8
0
  6
SLD-Solid
 62
     7
370
    25
100
AcDbLine
 10
15.58569001239926
 20
46.12331176898236
 30
0.0
 11
15.58569001239926
 21
46.12286879709599
 31
0.0
  0
LINE
  5
2E2
330
1F
100
AcDbEntity
  8
0
  6
SLD-Solid
 62
     7
370
    25
100
AcDbLine
 10
16.24830146649585
 20
46.08015895869444
 30
0.0
 11
15.58569698542965
 21
46.08015895869444
 31
0.0
  0
ARC
  5
2E3
330
1F
100
AcDbEntity
  8
0
  6
SLD-Solid
 62
     7
370
    25
100
AcDbCircle
 10
15.73185690611193
 20
46.41814943500196
 30
0.0
 40
0.3682394390725125
100
AcDbArc
 50
233.3091717837455
 51
246.6145109010618
  0
LINE
  5
2E4
330
1F
100
AcDbEntity
  8
0
  6
SLD-Solid
 62
     7
370
    25
100
AcDbLine
 10
15.51183502227698
 20
46.12286879709599
 30
0.0
 11
15.51183502227698
 21
46.12331176898236
 31
0.0
  0
LWPOLYLINE
  5
2E5
330
1F
100
AcDbEntity
  8
0
  6
SLD-Solid
 62
     7
370
    25
100
AcDbPolyline
 90
        9
 70
   128
 43
0.0
 10
15.51183502227698
 20
46.12331176898236
 10
15.51325635148667
 20
46.14769805923438
 10
15.51746571823129
 20
46.171147198028
 10
15.5243013589075
 20
46.19275804810981
 10
15.53350058367757
 20
46.21170011663068
 10
15.54470987149257
 20
46.22724547052018
 10
15.55749845570803
 20
46.23879671054627
 10
15.57137487820445
 20
46.24590992903277
 10
15.58580587584729
 20
46.24831176898235
  0
LINE
  5
2E6
330
1F
100
AcDbEntity
  8
0
  6
SLD-Solid
 62
     7
370
    25
100
AcDbLine
 10
16.98479876734532
 20
46.12286879709599
 30
0.0
 11
17.235292211726
 21
45.6183938077471
 31
0.0
  0
LINE
  5
2E7
330
1F
100
AcDbEntity
  8
0
  6
SLD-Solid
 62
     7
370
    25
100
AcDbLine
 10
17.19322613001408
 20
45.51158730849585
 30
0.0
 11
16.91090594756206
 21
46.08015895869444
 31
0.0
  0
LINE
  5
2E8
330
1F
100
AcDbEntity
  8
0
  6
SLD-Solid
 62
     7
370
    25
100
AcDbLine
 10
15.58569698542965
 20
46.08015895869444
 30
0.0
 11
15.30376000371234
 21
45.51158730849585
 31
0.0
  0
LINE
  5
2E9
330
1F
100
AcDbEntity
  8
0
  6
SLD-Solid
 62
     7
370
    25
100
AcDbLine
 10
15.26168157934818
 20
45.6183938077471
 30
0.0
 11
15.51183502227698
 21
46.12286879709599
 31
0.0
  0
ELLIPSE
  5
2EA
330
1F
100
AcDbEntity
  8
0
  6
SLD-Solid
 62
     7
370
    25
100
AcDbEllipse
 10
16.96875367746782
 20
46.00668044564805
 30
0.0
 11
-0.2511971361235509
 21
0.5062357814656551
 31
0.0
210
0.0
220
0.0
230
0.9999999999999999
 40
0.3096618230300508
 41
2.989129091827282
 42
3.699515184495468
  0
LWPOLYLINE
  5
2EB
330
1F
100
AcDbEntity
  8
0
  6
SLD-Solid
 62
     7
370
    25
100
AcDbPolyline
 90
        9
 70
   128
 43
0.0
 10
17.19322891922623
 20
45.49450337313522
 10
17.19322887520746
 20
45.4966820738831
 10
17.19322874323477
 20
45.4988566359778
 10
17.19322852355885
 20
45.50102292862791
 10
17.19322821659701
 20
45.50317683675063
 10
17.19322782293234
 20
45.50531426878879
 10
17.19322734331264
 20
45.50743116448312
 10
17.19322677864901
 20
45.50952350258513
 10
17.19322613001408
 20
45.51158730849585
  0
LINE
  5
2EC
330
1F
100
AcDbEntity
  8
0
  6
SLD-Solid
 62
     7
370
    25
100
AcDbLine
 10
17.26485212885146
 20
46.12331176898236
 30
0.0
 11
17.26485212885146
 21
45.6183938077471
 31
0.0
  0
ELLIPSE
  5
2ED
330
1F
100
AcDbEntity
  8
0
  6
SLD-Solid
 62
     7
370
    25
100
AcDbEllipse
 10
15.5282380346829
 20
46.00668044564805
 30
0.0
 11
0.2511971361235509
 21
0.5062357814656551
 31
0.0
210
0.0
220
0.0
230
0.9999999999999999
 40
0.3096618230300451
 41
2.583670122684142
 42
3.294056215352349
  0
LINE
  5
2EE
330
1F
100
AcDbEntity
  8
0
  6
SLD-Solid
 62
     7
370
    25
100
AcDbLine
 10
15.23213958329926
 20
45.6183938077471
 30
0.0
 11
15.23213958329926
 21
46.12331176898236
 31
0.0
  0
LINE
  5
2EF
330
1F
100
AcDbEntity
  8
0
  6
SLD-Solid
 62
     7
370
    25
100
AcDbLine
 10
17.19322891922623
 20
45.49450337313522
 30
0.0
 11
16.24849585607536
 21
45.49450337313522
 31
0.0
  0
LINE
  5
2F0
330
1F
100
AcDbEntity
  8
0
  6
SLD-Solid
 62
     7
370
    25
100
AcDbLine
 10
17.86751712052368
 20
44.06831176898236
 30
0.0
 11
17.8792103636306
 21
44.06831176898236
 31
0.0
  0
LINE
  5
2F1
330
1F
100
AcDbEntity
  8
0
  6
SLD-Solid
 62
     7
370
    25
100
AcDbLine
 10
16.24849585607536
 20
45.49450337313522
 30
0.0
 11
15.30376279292449
 21
45.49450337313522
 31
0.0
  0
LINE
  5
2F2
330
1F
100
AcDbEntity
  8
0
  6
SLD-Solid
 62
     7
370
    25
100
AcDbLine
 10
14.62947459162704
 20
44.06831176898236
 30
0.0
 11
17.86751712052368
 21
44.06831176898236
 31
0.0
  0
LINE
  5
2F3
330
1F
100
AcDbEntity
  8
0
  6
SLD-Solid
 62
     7
370
    25
100
AcDbLine
 10
14.62947459162704
 20
44.06831176898236
 30
0.0
 11
14.61777810840388
 21
44.06831176898236
 31
0.0
  0
ELLIPSE
  5
2F4
330
1F
100
AcDbEntity
  8
0
  6
SLD-Solid
 62
     8
370
    25
100
AcDbEllipse
 10
16.96875367746782
 20
46.12331176898236
 30
0.0
 11
0.2960984513836386
 21
0.0
 31
0.0
210
0.0
220
0.0
230
1.0
 40
0.5910196395227075
 41
0.0
 42
0.7956029534778986
  0
ELLIPSE
  5
2F5
330
1F
100
AcDbEntity
  8
0
  6
SLD-Solid
 62
     8
370
    25
100
AcDbEllipse
 10
15.5282380346829
 20
46.12331176898236
 30
0.0
 11
0.2960984513836404
 21
0.0
 31
0.0
210
0.0
220
0.0
230
1.0
 40
0.591019639522704
 41
2.345989700111896
 42
3.141592653589793
  0
ARC
  5
2F6
330
1F
100
AcDbEntity
  8
0
  6
SLD-Solid
 62
     8
370
    25
100
AcDbCircle
 10
16.24849588804609
 20
46.67531181538675
 30
0.0
 40
0.3620413364300118
100
AcDbArc
 50
330.732048738077
 51
180.0000073438461
  0
ARC
  5
2F7
330
1F
100
AcDbEntity
  8
0
  6
SLD-Solid
 62
     8
370
    25
100
AcDbCircle
 10
16.24849612934922
 20
46.67531176430239
 30
0.0
 40
0.3620415777331357
100
AcDbArc
 50
179.9999992593601
 51
209.2679205923417
  0
HATCH
  5
2F8
330
1F
100
AcDbEntity
  8
OBJECT
  6
SLD-Solid
370
    18
100
AcDbHatch
 10
0.0
 20
0.0
 30
0.0
210
0.0
220
0.0
230
1.0
  2
ANSI31
 70
     0
 71
     0
 91
        1
 92
        0
 93
       16
 72
     2
 10
25.20487851278236
 20
48.3644724560948
 40
0.1999999999999997
 50
256.5084748259348
 51
358.9999999999824
 73
     0
 72
     1
 10
25.40484805181365
 20
48.36796293738232
 11
25.42779039555585
 21
47.05359694467289
 72
     2
 10
25.77773708886057
 20
47.05970528692581
 40
0.3499999999999774
 50
180.9999999999801
 51
200.9699024987982
 73
     1
 72
     1
 10
25.4509180968707
 20
46.9344481654728
 11
25.47773708886061
 21
46.8644724560948
 72
     1
 10
25.47773708886061
 20
46.8644724560948
 11
25.50273708886062
 21
46.86447245609484
 72
     1
 10
25.50273708886062
 20
46.86447245609484
 11
25.49951341332389
 21
46.94801502538737
 72
     2
 10
25.77772756562244
 20
47.06025087287293
 40
0.2999999999999984
 50
158.0300975011816
 51
179.0000000000012
 73
     0
 72
     1
 10
25.47777325707552
 20
47.05501515094175
 11
25.45484043657147
 21
48.36883555770413
 72
     2
 10
25.20487851278236
 20
48.3644724560948
 40
0.2500000000000013
 50
1.000000000001762
 51
103.4915251740668
 73
     1
 72
     2
 10
48.61036391290365
 20
-58.86079193524869
 40
110.0
 50
102.3162433904793
 51
104.6668069576539
 73
     1
 72
     2
 10
20.84029039555583
 20
47.2144724560948
 40
0.3499999999999995
 50
103.4915251740666
 51
180.0
 73
     1
 72
     1
 10
20.49029039555583
 20
47.2144724560948
 11
20.49029039555583
 21
47.11447245609481
 72
     1
 10
20.49029039555583
 20
47.11447245609481
 11
20.54029039555583
 21
47.11447245609481
 72
     1
 10
20.54029039555583
 20
47.11447245609481
 11
20.54029039555583
 21
47.2144724560948
 72
     2
 10
20.84029039555583
 20
47.2144724560948
 40
0.3000000000000008
 50
180.0
 51
256.5084748259345
 73
     0
 72
     1
 10
20.77029993519034
 20
47.50619378794735
 11
25.15821820587204
 21
48.55895334399651
 97
        0
 75
     0
 76
     1
 52
0.0
 41
1.0
 77
     0
 78
     1
 53
45.0
 43
0.0
 44
0.0
 45
-0.0883883476483184
 46
0.0883883476483184
 79
     0
 98
        1
 10
0.0
 20
0.0
  0
HATCH
  5
2F9
330
1F
100
AcDbEntity
  8
OBJECT
  6
SLD-Solid
370
    18
100
AcDbHatch
 10
0.0
 20
0.0
 30
0.0
210
0.0
220
0.0
230
1.0
  2
ANSI31
 70
     0
 71
     0
 91
        1
 92
        0
 93
       16
 72
     2
 10
7.275702278329293
 20
48.3644724560948
 40
0.1999999999999997
 50
181.0000000000193
 51
283.4915251740675
 73
     0
 72
     1
 10
7.322362585239621
 20
48.55895334399651
 11
11.71028085592132
 21
47.50619378794735
 72
     2
 10
11.64029039555583
 20
47.2144724560948
 40
0.3000000000000008
 50
283.4915251740675
 51
360.0000000000008
 73
     0
 72
     1
 10
11.94029039555583
 20
47.2144724560948
 11
11.94029039555583
 21
47.11447245609481
 72
     1
 10
11.94029039555583
 20
47.11447245609481
 11
11.99029039555583
 21
47.11447245609481
 72
     1
 10
11.99029039555583
 20
47.11447245609481
 11
11.99029039555583
 21
47.2144724560948
 72
     2
 10
11.64029039555583
 20
47.2144724560948
 40
0.3499999999999995
 50
0.0
 51
76.5084748259334
 73
     1
 72
     2
 10
-16.12978312179198
 20
-58.86079193524869
 40
110.0
 50
75.33319304234614
 51
77.68375660952067
 73
     1
 72
     2
 10
7.275702278329293
 20
48.3644724560948
 40
0.2500000000000013
 50
76.5084748259324
 51
178.9999999999982
 73
     1
 72
     1
 10
7.025740354540194
 20
48.36883555770413
 11
7.002807534036135
 21
47.05501515094175
 72
     2
 10
6.702853225489221
 20
47.06025087287293
 40
0.2999999999999984
 50
0.9999999999988015
 51
21.96990249881851
 73
     0
 72
     1
 10
6.981067377787766
 20
46.94801502538737
 11
6.977843702251046
 21
46.86447245609484
 72
     1
 10
6.977843702251046
 20
46.86447245609484
 11
7.002843702251046
 21
46.8644724560948
 72
     1
 10
7.002843702251046
 20
46.8644724560948
 11
7.02966269424096
 21
46.9344481654728
 72
     2
 10
6.702843702251091
 20
47.05970528692581
 40
0.3499999999999774
 50
339.0300975012035
 51
359.0000000000215
 73
     1
 72
     1
 10
7.052790395555808
 20
47.05359694467289
 11
7.075732739298015
 21
48.36796293738232
 97
        0
 75
     0
 76
     1
 52
0.0
 41
1.0
 77
     0
 78
     1
 53
45.0
 43
0.0
 44
0.0
 45
-0.0883883476483184
 46
0.0883883476483184
 79
     0
 98
        1
 10
0.0
 20
0.0
  0
HATCH
  5
2FA
330
1F
100
AcDbEntity
  8
OBJECT
  6
SLD-Solid
370
    18
100
AcDbHatch
 10
0.0
 20
0.0
 30
0.0
210
0.0
220
0.0
230
1.0
  2
ANSI31
 70
     0
 71
     0
 91
        1
 92
        0
 93
       20
 72
     2
 10
7.473427480545733
 20
19.25217468399251
 40
0.08
 50
225.0000000000003
 51
270.0000000000008
 73
     1
 72
     1
 10
7.473427480545733
 20
19.17217468399251
 11
25.00715331056604
 21
19.17217468399251
 72
     2
 10
25.00715331056604
 20
19.25217468399251
 40
0.08
 50
270.0000000000008
 51
315.0000000000008
 73
     1
 72
     1
 10
25.06372185306096
 20
19.19560614149759
 11
25.21685893805081
 21
19.34874322648744
 72
     2
 10
25.16029039555589
 20
19.40531176898237
 40
0.08
 50
314.999999999999
 51
360.0000000000008
 73
     1
 72
     1
 10
25.24029039555588
 20
19.40531176898237
 11
25.24029039555588
 21
20.00217468399251
 72
     1
 10
25.24029039555588
 20
20.00217468399251
 11
25.20529039555589
 21
20.00217468399251
 72
     1
 10
25.20529039555589
 20
20.00217468399251
 11
25.20529039555589
 21
19.39495642992305
 72
     2
 10
25.18529039555589
 20
19.39495642992305
 40
0.02
 50
0.0
 51
45.0000000000144
 73
     0
 72
     1
 10
25.19943253117961
 20
19.38081429429932
 11
25.03165078524908
 21
19.21303254836878
 72
     2
 10
25.01750864962534
 20
19.22717468399251
 40
0.02
 50
44.99999999998561
 51
90.0
 73
     0
 72
     1
 10
25.01750864962534
 20
19.20717468399251
 11
7.463072141486421
 21
19.20717468399251
 72
     2
 10
7.463072141486421
 20
19.22717468399251
 40
0.02
 50
90.0
 51
135.0000000000054
 73
     0
 72
     1
 10
7.44893000586269
 20
19.21303254836878
 11
7.281148259932152
 21
19.38081429429932
 72
     2
 10
7.295290395555884
 20
19.39495642992305
 40
0.02
 50
134.999999999991
 51
180.0
 73
     0
 72
     1
 10
7.275290395555883
 20
19.39495642992305
 11
7.275290395555882
 21
20.00217468399251
 72
     1
 10
7.275290395555882
 20
20.00217468399251
 11
7.240290395555883
 21
20.00217468399251
 72
     1
 10
7.240290395555883
 20
20.00217468399251
 11
7.240290395555883
 21
19.40531176898237
 72
     2
 10
7.320290395555883
 20
19.40531176898237
 40
0.08
 50
180.0
 51
225.0000000000022
 73
     1
 72
     1
 10
7.26372185306096
 20
19.34874322648744
 11
7.41685893805081
 21
19.19560614149759
 97
        0
 75
     0
 76
     1
 52
0.0
 41
1.0
 77
     0
 78
     1
 53
45.0
 43
0.0
 44
0.0
 45
-0.0883883476483184
 46
0.0883883476483184
 79
     0
 98
        1
 10
0.0
 20
0.0
  0
HATCH
  5
2FB
330
1F
100
AcDbEntity
  8
OBJECT
  6
SLD-Solid
370
    18
100
AcDbHatch
 10
0.0
 20
0.0
 30
0.0
210
0.0
220
0.0
230
1.0
  2
ANSI31
 70
     0
 71
     0
 91
        1
 92
        0
 93
        4
 72
     1
 10
25.27019039555588
 20
48.53031176898236
 11
25.27019039555589
 21
19.40531176898237
 72
     1
 10
25.27019039555589
 20
19.40531176898237
 11
25.30019039555588
 21
19.40531176898237
 72
     1
 10
25.30019039555588
 20
19.40531176898237
 11
25.30019039555588
 21
48.53031176898236
 72
     1
 10
25.30019039555588
 20
48.53031176898236
 11
25.27019039555588
 21
48.53031176898236
 97
        0
 75
     0
 76
     1
 52
0.0
 41
1.0
 77
     0
 78
     1
 53
45.0
 43
0.0
 44
0.0
 45
-0.0883883476483184
 46
0.0883883476483184
 79
     0
 98
        1
 10
0.0
 20
0.0
  0
HATCH
  5
2FC
330
1F
100
AcDbEntity
  8
OBJECT
  6
SLD-Solid
370
    18
100
AcDbHatch
 10
0.0
 20
0.0
 30
0.0
210
0.0
220
0.0
230
1.0
  2
ANSI31
 70
     0
 71
     0
 91
        1
 92
        0
 93
        4
 72
     1
 10
7.210390395555884
 20
19.40531176898237
 11
7.210390395555887
 21
48.53031176898236
 72
     1
 10
7.210390395555887
 20
48.53031176898236
 11
7.180390395555887
 21
48.53031176898236
 72
     1
 10
7.180390395555887
 20
48.53031176898236
 11
7.180390395555887
 21
19.40531176898237
 72
     1
 10
7.180390395555887
 20
19.40531176898237
 11
7.210390395555884
 21
19.40531176898237
 97
        0
 75
     0
 76
     1
 52
0.0
 41
1.0
 77
     0
 78
     1
 53
45.0
 43
0.0
 44
0.0
 45
-0.0883883476483184
 46
0.0883883476483184
 79
     0
 98
        1
 10
0.0
 20
0.0
  0
HATCH
  5
2FD
330
1F
100
AcDbEntity
  8
OBJECT
  6
SLD-Solid
370
    18
100
AcDbHatch
 10
0.0
 20
0.0
 30
0.0
210
0.0
220
0.0
230
1.0
  2
ANSI31
 70
     0
 71
     0
 91
        1
 92
        0
 93
        1
 72
     2
 10
7.521540395555219
 20
46.37331176898155
 40
0.1249999999999999
 50
0.0
 51
360.0
 73
     1
 97
        0
 75
     0
 76
     1
 52
0.0
 41
1.0
 77
     0
 78
     1
 53
45.0
 43
0.0
 44
0.0
 45
-0.0883883476483184
 46
0.0883883476483184
 79
     0
 98
        1
 10
0.0
 20
0.0
  0
HATCH
  5
2FE
330
1F
100
AcDbEntity
  8
OBJECT
  6
SLD-Solid
370
    18
100
AcDbHatch
 10
0.0
 20
0.0
 30
0.0
210
0.0
220
0.0
230
1.0
  2
ANSI31
 70
     0
 71
     0
 91
        1
 92
        0
 93
        1
 72
     2
 10
24.95904039555523
 20
46.37331176898155
 40
0.1249999999999999
 50
0.0
 51
360.0
 73
     1
 97
        0
 75
     0
 76
     1
 52
0.0
 41
1.0
 77
     0
 78
     1
 53
45.0
 43
0.0
 44
0.0
 45
-0.0883883476483184
 46
0.0883883476483184
 79
     0
 98
        1
 10
0.0
 20
0.0
  0
DIMENSION
  5
2FF
330
1F
100
AcDbEntity
  8
DIMS
100
AcDbDimension
  2
_D_4
 10
20.49029039555583
 20
50.42549607814205
 30
0.0
 11
15.76301374800243
 21
50.42549607814205
 31
0.0
 70
    32
  1
%%c<>
 71
     2
 42
-1.0
  3
SLDDIMSTYLE0
100
AcDbAlignedDimension
 13
11.99029039555583
 23
47.11447245609481
 33
0.0
 14
20.49029039555583
 24
47.11447245609481
 34
0.0
100
AcDbRotatedDimension
  0
MTEXT
  5
30F
330
1F
100
AcDbEntity
  8
NOTES
100
AcDbMText
 10
16.25902720051715
 20
17.9691324048378
 30
0.0
 40
0.5
 41
0.0
 71
     2
 72
     1
  1
SECTION A-A
  7
SLDTEXTSTYLE1
 73
     1
 44
1.0
  0
MTEXT
  5
310
330
1F
100
AcDbEntity
  8
NOTES
100
AcDbMText
 10
24.47488860402444
 20
50.85040864697589
 30
0.0
 40
0.7500000000000001
 41
0.0
 71
     1
 72
     1
  1
Bag holder apparatus
  7
SLDTEXTSTYLE1
 73
     1
 44
1.0
  0
LEADER
  5
312
330
1F
100
AcDbEntity
  8
NOTES
100
AcDbLeader
  3
SLDDIMSTYLE3
 76
     3
 10
21.38004775767394
 20
46.49831176898154
 30
0.0
 10
23.95167640335281
 20
50.48331004531885
 30
0.0
 10
24.45167640335281
 20
50.48331004531885
 30
0.0
1001
ACAD
1000
DSTYLE
1002
{
1070
   176
1070
     0
1070
    77
1070
     0
1070
    40
1040
1.0
1070
   147
1040
0.0
1002
}
  0
MTEXT
  5
316
330
1F
100
AcDbEntity
  8
NOTES
100
AcDbMText
 10
70.64113155701669
 20
4.986500874567161
 30
0.0
 40
0.2916666666666666
 41
0.0
 71
     1
 72
     1
  1
FROST PRODUCTS LTD.
  7
SLDTEXTSTYLE0
 73
     1
 44
1.0
  0
MTEXT
  5
317
330
1F
100
AcDbEntity
  8
NOTES
100
AcDbMText
 10
70.64113155701669
 20
4.561008512941702
 30
0.0
 40
0.2291666666666666
 41
0.0
 71
     1
 72
     1
  1
5280 JOHN LUCUS DRIVE, BURLINGTON, ON, L7L 5Z9
  7
SLDTEXTSTYLE0
 73
     1
 44
1.0
  0
ENDSEC
  0
SECTION
  2
OBJECTS
  0
DICTIONARY
  5
C
330
0
100
AcDbDictionary
281
     1
  3
ACAD_COLOR
350
6C
  3
ACAD_GROUP
350
D
  3
ACAD_LAYOUT
350
1A
  3
ACAD_MATERIAL
350
6B
  3
ACAD_MLINESTYLE
350
17
  3
ACAD_PLOTSETTINGS
350
19
  3
ACAD_PLOTSTYLENAME
350
E
  3
ACAD_SCALELIST
350
47
  3
ACAD_TABLESTYLE
350
92
  3
AcDbVariableDictionary
350
59
  0
DICTIONARY
  5
6C
102
{ACAD_REACTORS
330
C
102
}
330
C
100
AcDbDictionary
281
     1
  0
DICTIONARY
  5
D
102
{ACAD_REACTORS
330
C
102
}
330
C
100
AcDbDictionary
281
     1
  0
DICTIONARY
  5
1A
102
{ACAD_REACTORS
330
C
102
}
330
C
100
AcDbDictionary
281
     1
  3
Layout1
350
74
  3
Layout2
350
26
  3
Model
350
22
  0
DICTIONARY
  5
6B
102
{ACAD_REACTORS
330
C
102
}
330
C
100
AcDbDictionary
281
     1
  0
DICTIONARY
  5
17
102
{ACAD_REACTORS
330
C
102
}
330
C
100
AcDbDictionary
281
     1
  3
Standard
350
18
  0
DICTIONARY
  5
19
102
{ACAD_REACTORS
330
C
102
}
330
C
100
AcDbDictionary
281
     1
  0
ACDBDICTIONARYWDFLT
  5
E
102
{ACAD_REACTORS
330
C
102
}
330
C
100
AcDbDictionary
281
     1
  3
Normal
350
F
100
AcDbDictionaryWithDefault
340
F
  0
DICTIONARY
  5
47
102
{ACAD_REACTORS
330
C
102
}
330
C
100
AcDbDictionary
281
     1
  3
A0
350
48
  3
A1
350
49
  3
A2
350
4A
  3
A3
350
4B
  3
A4
350
4C
  3
A5
350
4D
  3
A6
350
4E
  3
A7
350
4F
  3
A8
350
50
  3
A9
350
51
  3
B0
350
52
  3
B1
350
53
  3
B2
350
54
  3
B3
350
55
  3
B4
350
56
  3
B5
350
57
  3
B6
350
58
  3
B7
350
328
  3
B8
350
329
  3
B9
350
5B
  3
C0
350
5C
  3
C1
350
5D
  3
C2
350
32A
  3
C3
350
5F
  3
C4
350
60
  3
C5
350
61
  3
C6
350
62
  3
C7
350
63
  3
C8
350
64
  3
C9
350
65
  3
D0
350
66
  3
D1
350
67
  3
D2
350
68
  0
DICTIONARY
  5
92
102
{ACAD_REACTORS
330
C
102
}
330
C
100
AcDbDictionary
281
     1
  0
DICTIONARY
  5
59
102
{ACAD_REACTORS
330
C
102
}
330
C
100
AcDbDictionary
281
     1
  0
LAYOUT
  5
74
102
{ACAD_REACTORS
330
1A
102
}
330
1A
100
AcDbPlotSettings
  1

  2
none_device
  4

  6

 40
0.0
 41
0.0
 42
0.0
 43
0.0
 44
0.0
 45
0.0
 46
0.0
 47
0.0
 48
0.0
 49
0.0
140
0.0
141
0.0
142
1.0
143
1.0
 70
   688
 72
     0
 73
     0
 74
     5
  7

 75
    16
 76
     0
 77
     2
 78
   300
147
1.0
148
0.0
149
0.0
100
AcDbLayout
  1
Layout1
 70
     1
 71
     1
 10
0.0
 20
0.0
 11
12.0
 21
9.0
 12
0.0
 22
0.0
 32
0.0
 14
1.000000000000000E+20
 24
1.000000000000000E+20
 34
1.000000000000000E+20
 15
-1.000000000000000E+20
 25
-1.000000000000000E+20
 35
-1.000000000000000E+20
146
0.0
 13
0.0
 23
0.0
 33
0.0
 16
1.0
 26
0.0
 36
0.0
 17
0.0
 27
1.0
 37
0.0
 76
     0
330
73
  0
LAYOUT
  5
26
102
{ACAD_REACTORS
330
1A
102
}
330
1A
100
AcDbPlotSettings
  1

  2
none_device
  4

  6

 40
0.0
 41
0.0
 42
0.0
 43
0.0
 44
0.0
 45
0.0
 46
0.0
 47
0.0
 48
0.0
 49
0.0
140
0.0
141
0.0
142
1.0
143
1.0
 70
   688
 72
     0
 73
     0
 74
     5
  7

 75
    16
 76
     0
 77
     2
 78
   300
147
1.0
148
0.0
149
0.0
100
AcDbLayout
  1
Layout2
 70
     1
 71
     2
 10
0.0
 20
0.0
 11
0.0
 21
0.0
 12
0.0
 22
0.0
 32
0.0
 14
0.0
 24
0.0
 34
0.0
 15
0.0
 25
0.0
 35
0.0
146
0.0
 13
0.0
 23
0.0
 33
0.0
 16
1.0
 26
0.0
 36
0.0
 17
0.0
 27
1.0
 37
0.0
 76
     0
330
23
  0
LAYOUT
  5
22
102
{ACAD_REACTORS
330
1A
102
}
330
1A
100
AcDbPlotSettings
  1

  2
none_device
  4
Letter_(8.50_x_11.00_Inches)
  6

 40
6.35
 41
6.35
 42
6.35000508
 43
6.35000508
 44
215.9
 45
279.4
 46
0.0
 47
0.0
 48
0.0
 49
0.0
140
0.0
141
0.0
142
1.0
143
1.0
 70
 11952
 72
     0
 73
     0
 74
     0
  7

 75
     0
 76
     0
 77
     2
 78
   300
147
1.0
148
0.0
149
0.0
100
AcDbLayout
  1
Model
 70
     1
 71
     0
 10
0.0
 20
0.0
 11
80.375
 21
100.0
 12
0.0
 22
0.0
 32
0.0
 14
0.1653543307086614
 24
0.1653543307086614
 34
-14.72114888605114
 15
80.20964566929135
 25
99.83464566929135
 35
4.631222854526543
146
0.0
 13
0.0
 23
0.0
 33
0.0
 16
1.0
 26
0.0
 36
0.0
 17
0.0
 27
1.0
 37
0.0
 76
     0
330
1F
  0
MLINESTYLE
  5
18
102
{ACAD_REACTORS
330
17
102
}
330
17
100
AcDbMlineStyle
  2
Standard
 70
     0
  3

 62
   256
 51
90.0
 52
90.0
 71
     2
 49
0.5
 62
   256
  6
BYLAYER
 49
-0.5
 62
   256
  6
BYLAYER
  0
ACDBPLACEHOLDER
  5
F
102
{ACAD_REACTORS
330
E
102
}
330
E
  0
ACAD_PROXY_OBJECT
  5
48
102
{ACAD_REACTORS
330
47
102
}
330
47
100
AcDbProxyObject
 90
      499
 91
      505
 95
   393239
 70
     0
 93
       41
310
903313A31580
  0
ACAD_PROXY_OBJECT
  5
49
102
{ACAD_REACTORS
330
47
102
}
330
47
100
AcDbProxyObject
 90
      499
 91
      505
 95
   393239
 70
     0
 93
      105
310
903313A324000000000000004000
  0
ACAD_PROXY_OBJECT
  5
4A
102
{ACAD_REACTORS
330
47
102
}
330
47
100
AcDbProxyObject
 90
      499
 91
      505
 95
   393239
 70
     0
 93
      105
310
903313A344000000000000104000
  0
ACAD_PROXY_OBJECT
  5
4B
102
{ACAD_REACTORS
330
47
102
}
330
47
100
AcDbProxyObject
 90
      499
 91
      505
 95
   393239
 70
     0
 93
      105
310
903313A354000000000000144000
  0
ACAD_PROXY_OBJECT
  5
4C
102
{ACAD_REACTORS
330
47
102
}
330
47
100
AcDbProxyObject
 90
      499
 91
      505
 95
   393239
 70
     0
 93
      105
310
903313A384000000000000204000
  0
ACAD_PROXY_OBJECT
  5
4D
102
{ACAD_REACTORS
330
47
102
}
330
47
100
AcDbProxyObject
 90
      499
 91
      505
 95
   393239
 70
     0
 93
      113
310
904313A31304000000000000244000
  0
ACAD_PROXY_OBJECT
  5
4E
102
{ACAD_REACTORS
330
47
102
}
330
47
100
AcDbProxyObject
 90
      499
 91
      505
 95
   393239
 70
     0
 93
      113
310
904313A31364000000000000304000
  0
ACAD_PROXY_OBJECT
  5
4F
102
{ACAD_REACTORS
330
47
102
}
330
47
100
AcDbProxyObject
 90
      499
 91
      505
 95
   393239
 70
     0
 93
      113
310
904313A32304000000000000344000
  0
ACAD_PROXY_OBJECT
  5
50
102
{ACAD_REACTORS
330
47
102
}
330
47
100
AcDbProxyObject
 90
      499
 91
      505
 95
   393239
 70
     0
 93
      113
310
904313A333040000000000003E4000
  0
ACAD_PROXY_OBJECT
  5
51
102
{ACAD_REACTORS
330
47
102
}
330
47
100
AcDbProxyObject
 90
      499
 91
      505
 95
   393239
 70
     0
 93
      113
310
904313A34304000000000000444000
  0
ACAD_PROXY_OBJECT
  5
52
102
{ACAD_REACTORS
330
47
102
}
330
47
100
AcDbProxyObject
 90
      499
 91
      505
 95
   393239
 70
     0
 93
      113
310
904313A35304000000000000494000
  0
ACAD_PROXY_OBJECT
  5
53
102
{ACAD_REACTORS
330
47
102
}
330
47
100
AcDbProxyObject
 90
      499
 91
      505
 95
   393239
 70
     0
 93
      121
310
905313A3130304000000000000594000
  0
ACAD_PROXY_OBJECT
  5
54
102
{ACAD_REACTORS
330
47
102
}
330
47
100
AcDbProxyObject
 90
      499
 91
      505
 95
   393239
 70
     0
 93
      105
310
903323A310000000000000010100
  0
ACAD_PROXY_OBJECT
  5
55
102
{ACAD_REACTORS
330
47
102
}
330
47
100
AcDbProxyObject
 90
      499
 91
      505
 95
   393239
 70
     0
 93
      105
310
903343A310000000000000410100
  0
ACAD_PROXY_OBJECT
  5
56
102
{ACAD_REACTORS
330
47
102
}
330
47
100
AcDbProxyObject
 90
      499
 91
      505
 95
   393239
 70
     0
 93
      105
310
903383A310000000000000810100
  0
ACAD_PROXY_OBJECT
  5
57
102
{ACAD_REACTORS
330
47
102
}
330
47
100
AcDbProxyObject
 90
      499
 91
      505
 95
   393239
 70
     0
 93
      113
310
90431303A310000000000000910100
  0
ACAD_PROXY_OBJECT
  5
58
102
{ACAD_REACTORS
330
47
102
}
330
47
100
AcDbProxyObject
 90
      499
 91
      505
 95
   393239
 70
     0
 93
      121
310
9053130303A310000000000001650100
  0
ACAD_PROXY_OBJECT
  5
328
102
{ACAD_REACTORS
330
47
102
}
330
47
100
AcDbProxyObject
 90
      499
 91
      505
 95
   393239
 70
     0
 93
      257
310
90E312F31323822203D2031272D3022000000000000200FC000000000000284000
  0
ACAD_PROXY_OBJECT
  5
329
102
{ACAD_REACTORS
330
47
102
}
330
47
100
AcDbProxyObject
 90
      499
 91
      505
 95
   393239
 70
     0
 93
      249
310
90D312F363422203D2031272D3022000000000000240FC000000000000284000
  0
ACAD_PROXY_OBJECT
  5
5B
102
{ACAD_REACTORS
330
47
102
}
330
47
100
AcDbProxyObject
 90
      499
 91
      505
 95
   393239
 70
     0
 93
      249
310
90D312F333222203D2031272D3022000000000000280FC000000000000284000
  0
ACAD_PROXY_OBJECT
  5
5C
102
{ACAD_REACTORS
330
47
102
}
330
47
100
AcDbProxyObject
 90
      499
 91
      505
 95
   393239
 70
     0
 93
      249
310
90D312F313622203D2031272D30220000000000002C0FC000000000000284000
  0
ACAD_PROXY_OBJECT
  5
5D
102
{ACAD_REACTORS
330
47
102
}
330
47
100
AcDbProxyObject
 90
      499
 91
      505
 95
   393239
 70
     0
 93
      249
310
90D332F333222203D2031272D30220000000000002E0FC000000000000284000
  0
ACAD_PROXY_OBJECT
  5
32A
102
{ACAD_REACTORS
330
47
102
}
330
47
100
AcDbProxyObject
 90
      499
 91
      505
 95
   393239
 70
     0
 93
      241
310
90C312F3822203D2031272D3022000000000000300FC000000000000284000
  0
ACAD_PROXY_OBJECT
  5
5F
102
{ACAD_REACTORS
330
47
102
}
330
47
100
AcDbProxyObject
 90
      499
 91
      505
 95
   393239
 70
     0
 93
      249
310
90D332F313622203D2031272D3022000000000000320FC000000000000284000
  0
ACAD_PROXY_OBJECT
  5
60
102
{ACAD_REACTORS
330
47
102
}
330
47
100
AcDbProxyObject
 90
      499
 91
      505
 95
   393239
 70
     0
 93
      241
310
90C312F3422203D2031272D3022000000000000340FC000000000000284000
  0
ACAD_PROXY_OBJECT
  5
61
102
{ACAD_REACTORS
330
47
102
}
330
47
100
AcDbProxyObject
 90
      499
 91
      505
 95
   393239
 70
     0
 93
      241
310
90C332F3822203D2031272D3022000000000000360FC000000000000284000
  0
ACAD_PROXY_OBJECT
  5
62
102
{ACAD_REACTORS
330
47
102
}
330
47
100
AcDbProxyObject
 90
      499
 91
      505
 95
   393239
 70
     0
 93
      241
310
90C312F3222203D2031272D3022000000000000380FC000000000000284000
  0
ACAD_PROXY_OBJECT
  5
63
102
{ACAD_REACTORS
330
47
102
}
330
47
100
AcDbProxyObject
 90
      499
 91
      505
 95
   393239
 70
     0
 93
      241
310
90C332F3422203D2031272D30220000000000003A0FC000000000000284000
  0
ACAD_PROXY_OBJECT
  5
64
102
{ACAD_REACTORS
330
47
102
}
330
47
100
AcDbProxyObject
 90
      499
 91
      505
 95
   393239
 70
     0
 93
      161
310
90A3122203D2031272D30224000000000000284000
  0
ACAD_PROXY_OBJECT
  5
65
102
{ACAD_REACTORS
330
47
102
}
330
47
100
AcDbProxyObject
 90
      499
 91
      505
 95
   393239
 70
     0
 93
      257
310
90E312D312F3222203D2031272D30220000000000003E0FC000000000000284000
  0
ACAD_PROXY_OBJECT
  5
66
102
{ACAD_REACTORS
330
47
102
}
330
47
100
AcDbProxyObject
 90
      499
 91
      505
 95
   393239
 70
     0
 93
      225
310
90A3322203D2031272D302200000000000002100000000000000284000
  0
ACAD_PROXY_OBJECT
  5
67
102
{ACAD_REACTORS
330
47
102
}
330
47
100
AcDbProxyObject
 90
      499
 91
      505
 95
   393239
 70
     0
 93
      225
310
90A3622203D2031272D302200000000000006100000000000000284000
  0
ACAD_PROXY_OBJECT
  5
68
102
{ACAD_REACTORS
330
47
102
}
330
47
100
AcDbProxyObject
 90
      499
 91
      505
 95
   393239
 70
     0
 93
      249
310
90D31272D3022203D2031272D30220000000000000A100000000000000284000
  0
ENDSEC
  0
EOF
