  0
SECTION
  2
HEADER
  9
$ACADVER
  1
AC1018
  9
$ACADMAINTVER
 70
     0
  9
$DWGCODEPAGE
  3
ANSI_1252
  9
$LASTSAVEDBY
  1
carl
  9
$INSBASE
 10
0.0
 20
0.0
 30
0.0
  9
$EXTMIN
 10
0.0
 20
0.0
 30
0.0
  9
$EXTMAX
 10
34.0
 20
22.0
 30
0.0
  9
$LIMMIN
 10
0.0
 20
0.0
  9
$LIMMAX
 10
34.0
 20
22.0
  9
$ORTHOMODE
 70
     0
  9
$REGENMODE
 70
     1
  9
$FILLMODE
 70
     1
  9
$QTEXTMODE
 70
     0
  9
$MIRRTEXT
 70
     1
  9
$LTSCALE
 40
1.0
  9
$ATTMODE
 70
     1
  9
$TEXTSIZE
 40
0.5
  9
$TRACEWID
 40
0.05
  9
$TEXTSTYLE
  7
Standard
  9
$CLAYER
  8
0
  9
$CELTYPE
  6
ByLayer
  9
$CECOLOR
 62
   256
  9
$CELTSCALE
 40
1.0
  9
$DISPSILH
 70
     0
  9
$DIMSCALE
 40
1.0
  9
$DIMASZ
 40
0.3
  9
$DIMEXO
 40
0.1666666667
  9
$DIMDLI
 40
0.38
  9
$DIMRND
 40
0.0
  9
$DIMDLE
 40
0.0
  9
$DIMEXE
 40
0.375
  9
$DIMTP
 40
0.0
  9
$DIMTM
 40
0.0
  9
$DIMTXT
 40
0.5
  9
$DIMCEN
 40
0.09
  9
$DIMTSZ
 40
0.0
  9
$DIMTOL
 70
     0
  9
$DIMLIM
 70
     0
  9
$DIMTIH
 70
     1
  9
$DIMTOH
 70
     1
  9
$DIMSE1
 70
     0
  9
$DIMSE2
 70
     0
  9
$DIMTAD
 70
     0
  9
$DIMZIN
 70
     1
  9
$DIMBLK
  1

  9
$DIMASO
 70
     1
  9
$DIMSHO
 70
     1
  9
$DIMPOST
  1

  9
$DIMAPOST
  1

  9
$DIMALT
 70
     0
  9
$DIMALTD
 70
     2
  9
$DIMALTF
 40
25.4
  9
$DIMLFAC
 40
1.0
  9
$DIMTOFL
 70
     0
  9
$DIMTVP
 40
0.0
  9
$DIMTIX
 70
     0
  9
$DIMSOXD
 70
     0
  9
$DIMSAH
 70
     0
  9
$DIMBLK1
  1

  9
$DIMBLK2
  1

  9
$DIMSTYLE
  2
Standard
  9
$DIMCLRD
 70
     0
  9
$DIMCLRE
 70
     0
  9
$DIMCLRT
 70
     0
  9
$DIMTFAC
 40
1.0
  9
$DIMGAP
 40
0.125
  9
$DIMJUST
 70
     0
  9
$DIMSD1
 70
     0
  9
$DIMSD2
 70
     0
  9
$DIMTOLJ
 70
     1
  9
$DIMTZIN
 70
     1
  9
$DIMALTZ
 70
     0
  9
$DIMALTTZ
 70
     0
  9
$DIMUPT
 70
     0
  9
$DIMDEC
 70
     2
  9
$DIMTDEC
 70
     2
  9
$DIMALTU
 70
     2
  9
$DIMALTTD
 70
     2
  9
$DIMTXSTY
  7
Standard
  9
$DIMAUNIT
 70
     0
  9
$DIMADEC
 70
     2
  9
$DIMALTRND
 40
0.0
  9
$DIMAZIN
 70
     0
  9
$DIMDSEP
 70
    46
  9
$DIMATFIT
 70
     3
  9
$DIMFRAC
 70
     0
  9
$DIMLDRBLK
  1

  9
$DIMLUNIT
 70
     2
  9
$DIMLWD
 70
    -2
  9
$DIMLWE
 70
    -2
  9
$DIMTMOVE
 70
     0
  9
$LUNITS
 70
     2
  9
$LUPREC
 70
     3
  9
$SKETCHINC
 40
0.1
  9
$FILLETRAD
 40
0.5
  9
$AUNITS
 70
     0
  9
$AUPREC
 70
     2
  9
$MENU
  1
.
  9
$ELEVATION
 40
0.0
  9
$PELEVATION
 40
0.0
  9
$THICKNESS
 40
0.0
  9
$LIMCHECK
 70
     0
  9
$CHAMFERA
 40
0.0
  9
$CHAMFERB
 40
0.0
  9
$CHAMFERC
 40
0.0
  9
$CHAMFERD
 40
0.0
  9
$SKPOLY
 70
     0
  9
$TDCREATE
 40
2460712.353514745
  9
$TDUCREATE
 40
2460712.561848079
  9
$TDUPDATE
 40
2460712.353519398
  9
$TDUUPDATE
 40
2460712.561852731
  9
$TDINDWG
 40
0.0000000116
  9
$TDUSRTIMER
 40
0.0000000116
  9
$USRTIMER
 70
     1
  9
$ANGBASE
 50
0.0
  9
$ANGDIR
 70
     0
  9
$PDMODE
 70
     0
  9
$PDSIZE
 40
-1.0
  9
$PLINEWID
 40
0.0
  9
$SPLFRAME
 70
     0
  9
$SPLINETYPE
 70
     6
  9
$SPLINESEGS
 70
     8
  9
$HANDSEED
  5
28F
  9
$SURFTAB1
 70
     6
  9
$SURFTAB2
 70
     6
  9
$SURFTYPE
 70
     6
  9
$SURFU
 70
     6
  9
$SURFV
 70
     6
  9
$UCSBASE
  2

  9
$UCSNAME
  2

  9
$UCSORG
 10
0.0
 20
0.0
 30
0.0
  9
$UCSXDIR
 10
1.0
 20
0.0
 30
0.0
  9
$UCSYDIR
 10
0.0
 20
1.0
 30
0.0
  9
$UCSORTHOREF
  2

  9
$UCSORTHOVIEW
 70
     0
  9
$UCSORGTOP
 10
0.0
 20
0.0
 30
0.0
  9
$UCSORGBOTTOM
 10
0.0
 20
0.0
 30
0.0
  9
$UCSORGLEFT
 10
0.0
 20
0.0
 30
0.0
  9
$UCSORGRIGHT
 10
0.0
 20
0.0
 30
0.0
  9
$UCSORGFRONT
 10
0.0
 20
0.0
 30
0.0
  9
$UCSORGBACK
 10
0.0
 20
0.0
 30
0.0
  9
$PUCSBASE
  2

  9
$PUCSNAME
  2

  9
$PUCSORG
 10
0.0
 20
0.0
 30
0.0
  9
$PUCSXDIR
 10
1.0
 20
0.0
 30
0.0
  9
$PUCSYDIR
 10
0.0
 20
1.0
 30
0.0
  9
$PUCSORTHOREF
  2

  9
$PUCSORTHOVIEW
 70
     0
  9
$PUCSORGTOP
 10
0.0
 20
0.0
 30
0.0
  9
$PUCSORGBOTTOM
 10
0.0
 20
0.0
 30
0.0
  9
$PUCSORGLEFT
 10
0.0
 20
0.0
 30
0.0
  9
$PUCSORGRIGHT
 10
0.0
 20
0.0
 30
0.0
  9
$PUCSORGFRONT
 10
0.0
 20
0.0
 30
0.0
  9
$PUCSORGBACK
 10
0.0
 20
0.0
 30
0.0
  9
$USERI1
 70
     0
  9
$USERI2
 70
     0
  9
$USERI3
 70
     0
  9
$USERI4
 70
     0
  9
$USERI5
 70
     0
  9
$USERR1
 40
0.0
  9
$USERR2
 40
0.0
  9
$USERR3
 40
0.0
  9
$USERR4
 40
0.0
  9
$USERR5
 40
0.0
  9
$WORLDVIEW
 70
     1
  9
$SHADEDGE
 70
     3
  9
$SHADEDIF
 70
    70
  9
$TILEMODE
 70
     1
  9
$MAXACTVP
 70
    64
  9
$PINSBASE
 10
0.0
 20
0.0
 30
0.0
  9
$PLIMCHECK
 70
     0
  9
$PEXTMIN
 10
1.0000000000E+20
 20
1.0000000000E+20
 30
1.0000000000E+20
  9
$PEXTMAX
 10
-1.0000000000E+20
 20
-1.0000000000E+20
 30
-1.0000000000E+20
  9
$PLIMMIN
 10
0.0
 20
0.0
  9
$PLIMMAX
 10
12.0
 20
9.0
  9
$UNITMODE
 70
     0
  9
$VISRETAIN
 70
     1
  9
$PLINEGEN
 70
     0
  9
$PSLTSCALE
 70
     1
  9
$TREEDEPTH
 70
  3020
  9
$CMLSTYLE
  2
Standard
  9
$CMLJUST
 70
     0
  9
$CMLSCALE
 40
1.0
  9
$PROXYGRAPHICS
 70
     1
  9
$MEASUREMENT
 70
     0
  9
$CELWEIGHT
370
    -1
  9
$ENDCAPS
280
     0
  9
$JOINSTYLE
280
     0
  9
$LWDISPLAY
290
     1
  9
$INSUNITS
 70
     1
  9
$HYPERLINKBASE
  1

  9
$STYLESHEET
  1

  9
$XEDIT
290
     1
  9
$CEPSNTYPE
380
     0
  9
$PSTYLEMODE
290
     1
  9
$FINGERPRINTGUID
  2
{8ed17ecf-4111-4096-a1ac-7f49a3a801b5}
  9
$VERSIONGUID
  2
{FAEB1C32-E019-11D5-929B-00C0DF256EC4}
  9
$EXTNAMES
290
     1
  9
$PSVPSCALE
 40
0.0
  9
$OLESTARTUP
290
     0
  9
$SORTENTS
280
   127
  9
$INDEXCTL
280
     0
  9
$HIDETEXT
280
     1
  9
$XCLIPFRAME
290
     0
  9
$HALOGAP
280
     0
  9
$OBSCOLOR
 70
   257
  9
$OBSLTYPE
280
     0
  9
$INTERSECTIONDISPLAY
280
     0
  9
$INTERSECTIONCOLOR
 70
   257
  9
$DIMASSOC
280
     2
  9
$PROJECTNAME
  1

  0
ENDSEC
  0
SECTION
  2
CLASSES
  0
CLASS
  1
ACDBDICTIONARYWDFLT
  2
AcDbDictionaryWithDefault
  3
ObjectDBX Classes
 90
        0
 91
        3
280
     0
281
     0
  0
CLASS
  1
VISUALSTYLE
  2
AcDbVisualStyle
  3
ObjectDBX Classes
 90
     4095
 91
        3
280
     0
281
     0
  0
CLASS
  1
MATERIAL
  2
AcDbMaterial
  3
ObjectDBX Classes
 90
     1153
 91
        3
280
     0
281
     0
  0
CLASS
  1
SCALE
  2
AcDbScale
  3
ObjectDBX Classes
 90
     1153
 91
        3
280
     0
281
     0
  0
CLASS
  1
TABLESTYLE
  2
AcDbTableStyle
  3
ObjectDBX Classes
 90
     4095
 91
        3
280
     0
281
     0
  0
CLASS
  1
MLEADERSTYLE
  2
AcDbMLeaderStyle
  3
ACDB_MLEADERSTYLE_CLASS
 90
     4095
 91
        3
280
     0
281
     0
  0
CLASS
  1
SUN
  2
AcDbSun
  3
SCENEOE
 90
     1153
 91
        3
280
     0
281
     0
  0
CLASS
  1
DICTIONARYVAR
  2
AcDbDictionaryVar
  3
ObjectDBX Classes
 90
        0
 91
        3
280
     0
281
     0
  0
CLASS
  1
CELLSTYLEMAP
  2
AcDbCellStyleMap
  3
ObjectDBX Classes
 90
     1152
 91
        3
280
     0
281
     0
  0
ENDSEC
  0
SECTION
  2
TABLES
  0
TABLE
  2
VPORT
  5
8
330
0
100
AcDbSymbolTable
 70
     1
  0
VPORT
  5
29
330
8
100
AcDbSymbolTableRecord
100
AcDbViewportTableRecord
  2
*Active
 70
     0
 10
0.0
 20
0.0
 11
1.0
 21
1.0
 12
17.0
 22
11.0
 13
0.0
 23
0.0
 14
0.5
 24
0.5
 15
0.5
 25
0.5
 16
0.0
 26
0.0
 36
1.0
 17
0.0
 27
0.0
 37
0.0
 40
22.0
 41
1.5454545455
 42
50.0
 43
0.0
 44
0.0
 50
0.0
 51
0.0
 71
     0
 72
  2000
 73
     1
 74
     3
 75
     0
 76
     0
 77
     0
 78
     0
281
     0
 65
     1
110
0.0
120
0.0
130
0.0
111
1.0
121
0.0
131
0.0
112
0.0
122
1.0
132
0.0
 79
     0
146
0.0
  0
ENDTAB
  0
TABLE
  2
LTYPE
  5
5
330
0
100
AcDbSymbolTable
 70
     6
  0
LTYPE
  5
14
330
5
100
AcDbSymbolTableRecord
100
AcDbLinetypeTableRecord
  2
ByBlock
 70
     0
  3

 72
    65
 73
     0
 40
0.0
  0
LTYPE
  5
15
330
5
100
AcDbSymbolTableRecord
100
AcDbLinetypeTableRecord
  2
ByLayer
 70
     0
  3

 72
    65
 73
     0
 40
0.0
  0
LTYPE
  5
16
330
5
100
AcDbSymbolTableRecord
100
AcDbLinetypeTableRecord
  2
Continuous
 70
     0
  3
Solid line
 72
    65
 73
     0
 40
0.0
  0
LTYPE
  5
6E
330
5
100
AcDbSymbolTableRecord
100
AcDbLinetypeTableRecord
  2
HIDDEN
 70
     0
  3
Hidden __ __ __ __ __ __ __ __ __ __ __ __ __ __
 72
    65
 73
     2
 40
0.075
 49
0.05
 74
     0
 49
-0.025
 74
     0
  0
LTYPE
  5
6F
330
5
100
AcDbSymbolTableRecord
100
AcDbLinetypeTableRecord
  2
PHANTOM
 70
     0
  3
Phantom ______  __  __  ______  __  __  ______
 72
    65
 73
     6
 40
0.5
 49
0.25
 74
     0
 49
-0.05
 74
     0
 49
0.05
 74
     0
 49
-0.05
 74
     0
 49
0.05
 74
     0
 49
-0.05
 74
     0
  0
LTYPE
  5
70
330
5
100
AcDbSymbolTableRecord
100
AcDbLinetypeTableRecord
  2
CENTER
 70
     0
  3
Center ____ _ ____ _ ____ _ ____ _ ____ _ ____
 72
    65
 73
     4
 40
0.4
 49
0.25
 74
     0
 49
-0.05
 74
     0
 49
0.05
 74
     0
 49
-0.05
 74
     0
  0
LTYPE
  5
71
330
5
100
AcDbSymbolTableRecord
100
AcDbLinetypeTableRecord
  2
CENTERX2
 70
     0
  3
Center (2x) ________  __  ________  __  _____
 72
    65
 73
     4
 40
0.8
 49
0.5
 74
     0
 49
-0.1
 74
     0
 49
0.1
 74
     0
 49
-0.1
 74
     0
  0
LTYPE
  5
72
330
5
100
AcDbSymbolTableRecord
100
AcDbLinetypeTableRecord
  2
DOT2
 70
     0
  3
Dot (.5x) ........................................
 72
    65
 73
     2
 40
0.025
 49
0.0
 74
     0
 49
-0.025
 74
     0
  0
ENDTAB
  0
TABLE
  2
LAYER
  5
2
330
0
100
AcDbSymbolTable
 70
     7
  0
LAYER
  5
10
330
2
100
AcDbSymbolTableRecord
100
AcDbLayerTableRecord
  2
0
 70
     0
 62
     7
  6
Continuous
370
    -3
390
F
  0
LAYER
  5
73
330
2
100
AcDbSymbolTableRecord
100
AcDbLayerTableRecord
  2
FORMAT
 70
     0
 62
     7
  6
Continuous
370
    -3
390
F
  0
LAYER
  5
74
330
2
100
AcDbSymbolTableRecord
100
AcDbLayerTableRecord
  2
NOTES
 70
     0
 62
     1
  6
Continuous
370
    -3
390
F
  0
LAYER
  5
75
330
2
100
AcDbSymbolTableRecord
100
AcDbLayerTableRecord
  2
OBJECT
 70
     0
 62
     7
  6
Continuous
370
    -3
390
F
  0
LAYER
  5
76
330
2
100
AcDbSymbolTableRecord
100
AcDbLayerTableRecord
  2
DIMS
 70
     0
 62
     5
  6
Continuous
370
    -3
390
F
  0
LAYER
  5
77
330
2
100
AcDbSymbolTableRecord
100
AcDbLayerTableRecord
  2
TITLE
 70
     0
 62
     7
  6
Continuous
370
    -3
390
F
  0
LAYER
  5
78
330
2
100
AcDbSymbolTableRecord
100
AcDbLayerTableRecord
  2
BEND_LINE
 70
     0
 62
    30
  6
CENTERX2
370
    35
390
F
  0
ENDTAB
  0
TABLE
  2
STYLE
  5
3
330
0
100
AcDbSymbolTable
 70
     5
  0
STYLE
  5
11
330
3
100
AcDbSymbolTableRecord
100
AcDbTextStyleTableRecord
  2
Standard
 70
     0
 40
0.0
 41
1.0
 50
0.0
 71
     0
 42
0.5
  3
txt
  4

  0
STYLE
  5
BC
330
3
100
AcDbSymbolTableRecord
100
AcDbTextStyleTableRecord
  2
SLDTEXTSTYLE0
 70
     0
 40
0.0
 41
0.605
 50
0.0
 71
     0
 42
0.5
  3
TXT
  4

  0
STYLE
  5
C0
330
3
100
AcDbSymbolTableRecord
100
AcDbTextStyleTableRecord
  2
SLDTEXTSTYLE1
 70
     0
 40
0.0
 41
0.75
 50
0.0
 71
     0
 42
0.5
  3
TXT
  4

  0
STYLE
  5
C3
330
3
100
AcDbSymbolTableRecord
100
AcDbTextStyleTableRecord
  2
SLDTEXTSTYLE2
 70
     0
 40
0.0
 41
0.6607142857
 50
0.0
 71
     0
 42
0.5
  3
TXT
  4

  0
STYLE
  5
C6
330
3
100
AcDbSymbolTableRecord
100
AcDbTextStyleTableRecord
  2
SLDTEXTSTYLE3
 70
     0
 40
0.0
 41
0.7
 50
0.0
 71
     0
 42
0.5
  3
TXT
  4

  0
ENDTAB
  0
TABLE
  2
VIEW
  5
6
330
0
100
AcDbSymbolTable
 70
     0
  0
ENDTAB
  0
TABLE
  2
UCS
  5
7
330
0
100
AcDbSymbolTable
 70
     0
  0
ENDTAB
  0
TABLE
  2
APPID
  5
9
330
0
100
AcDbSymbolTable
 70
     2
  0
APPID
  5
12
330
9
100
AcDbSymbolTableRecord
100
AcDbRegAppTableRecord
  2
ACAD
 70
     0
  0
APPID
  5
289
330
9
100
AcDbSymbolTableRecord
100
AcDbRegAppTableRecord
  2
ACAD_MLEADERVER
 70
     0
  0
ENDTAB
  0
TABLE
  2
DIMSTYLE
  5
A
330
0
100
AcDbSymbolTable
 70
     6
100
AcDbDimStyleTable
  0
DIMSTYLE
105
27
330
A
100
AcDbSymbolTableRecord
100
AcDbDimStyleTableRecord
  2
Standard
 70
     0
178
     0
340
11
  0
DIMSTYLE
105
118
102
{ACAD_REACTORS
330
117
330
172
330
239
330
248
330
257
330
274
102
}
330
A
100
AcDbSymbolTableRecord
100
AcDbDimStyleTableRecord
  2
SLDDIMSTYLE0
 70
     0
 41
0.3
 44
0.0
 45
0.000000001
 78
    12
 79
     3
140
0.5
147
0.125
173
     1
178
     0
271
     6
272
     2
276
     2
277
     5
284
    12
340
BC
341
119
343
119
344
119
  0
DIMSTYLE
105
12E
102
{ACAD_REACTORS
330
12D
102
}
330
A
100
AcDbSymbolTableRecord
100
AcDbDimStyleTableRecord
  2
SLDDIMSTYLE1
 70
     0
 41
0.3
 44
0.0
 45
0.000000001
 78
    12
 79
     3
140
0.5
147
0.125
172
     1
173
     1
178
     0
271
     2
272
     2
276
     2
277
     5
284
    12
289
     0
340
BC
341
119
343
119
344
119
  0
DIMSTYLE
105
1EA
330
A
100
AcDbSymbolTableRecord
100
AcDbDimStyleTableRecord
  2
SLDDIMSTYLE2
 70
     0
 41
0.3
 44
0.0
 45
0.000000001
146
0.3
147
0.0
173
     1
178
     0
271
     0
272
     0
276
     2
277
     5
340
11
341
119
343
119
344
119
  0
DIMSTYLE
105
201
102
{ACAD_REACTORS
330
200
102
}
330
A
100
AcDbSymbolTableRecord
100
AcDbDimStyleTableRecord
  2
SLDDIMSTYLE3
 70
     0
 41
0.3
 44
0.0
 45
0.000000001
 78
    12
 79
     3
140
0.5
147
0.125
172
     1
173
     1
178
     0
271
     6
272
     2
276
     2
277
     5
284
    12
289
     0
340
BC
341
119
343
119
344
119
  0
DIMSTYLE
105
267
102
{ACAD_REACTORS
330
266
102
}
330
A
100
AcDbSymbolTableRecord
100
AcDbDimStyleTableRecord
  2
SLDDIMSTYLE4
 70
     0
 41
0.3
 44
0.0
 45
0.000000001
 78
    12
 79
     3
140
0.5
141
0.0
147
0.125
173
     1
178
     0
271
     2
272
     2
276
     2
277
     5
284
    12
340
BC
341
119
343
119
344
119
  0
ENDTAB
  0
TABLE
  2
BLOCK_RECORD
  5
1
330
0
100
AcDbSymbolTable
 70
    14
  0
BLOCK_RECORD
  5
1F
330
1
100
AcDbSymbolTableRecord
100
AcDbBlockTableRecord
  2
*Model_Space
340
22
  0
BLOCK_RECORD
  5
1B
330
1
100
AcDbSymbolTableRecord
100
AcDbBlockTableRecord
  2
*Paper_Space
340
1E
  0
BLOCK_RECORD
  5
23
330
1
100
AcDbSymbolTableRecord
100
AcDbBlockTableRecord
  2
*Paper_Space0
340
26
  0
BLOCK_RECORD
  5
C8
330
1
100
AcDbSymbolTableRecord
100
AcDbBlockTableRecord
  2
SW_NOTE_0
340
0
102
{BLKREFS
331
CD
102
}
  0
BLOCK_RECORD
  5
CE
330
1
100
AcDbSymbolTableRecord
100
AcDbBlockTableRecord
  2
SW_NOTE_0_1
340
0
102
{BLKREFS
331
D5
102
}
  0
BLOCK_RECORD
  5
119
330
1
100
AcDbSymbolTableRecord
100
AcDbBlockTableRecord
  2
_Open90
340
0
102
{BLKREFS
331
122
331
123
331
132
331
133
331
176
331
177
331
205
331
206
331
23D
331
23E
331
24C
331
24D
331
25B
331
25C
331
26B
331
278
331
279
102
}
  0
BLOCK_RECORD
  5
11F
330
1
100
AcDbSymbolTableRecord
100
AcDbBlockTableRecord
  2
_D
340
0
  0
BLOCK_RECORD
  5
12F
330
1
100
AcDbSymbolTableRecord
100
AcDbBlockTableRecord
  2
_D_1
340
0
  0
BLOCK_RECORD
  5
15A
330
1
100
AcDbSymbolTableRecord
100
AcDbBlockTableRecord
  2
SW_NOTE_0_2
340
0
102
{BLKREFS
331
15F
102
}
  0
BLOCK_RECORD
  5
173
330
1
100
AcDbSymbolTableRecord
100
AcDbBlockTableRecord
  2
_D_2
340
0
  0
BLOCK_RECORD
  5
202
330
1
100
AcDbSymbolTableRecord
100
AcDbBlockTableRecord
  2
_D_3
340
0
  0
BLOCK_RECORD
  5
23A
330
1
100
AcDbSymbolTableRecord
100
AcDbBlockTableRecord
  2
_D_4
340
0
  0
BLOCK_RECORD
  5
249
330
1
100
AcDbSymbolTableRecord
100
AcDbBlockTableRecord
  2
_D_5
340
0
  0
BLOCK_RECORD
  5
258
330
1
100
AcDbSymbolTableRecord
100
AcDbBlockTableRecord
  2
_D_6
340
0
  0
BLOCK_RECORD
  5
268
330
1
100
AcDbSymbolTableRecord
100
AcDbBlockTableRecord
  2
_D_7
340
0
  0
BLOCK_RECORD
  5
275
330
1
100
AcDbSymbolTableRecord
100
AcDbBlockTableRecord
  2
_D_8
340
0
  0
ENDTAB
  0
ENDSEC
  0
SECTION
  2
BLOCKS
  0
BLOCK
  5
20
330
1F
100
AcDbEntity
  8
0
100
AcDbBlockBegin
  2
*Model_Space
 70
     0
 10
0.0
 20
0.0
 30
0.0
  3
*Model_Space
  1

  0
ENDBLK
  5
21
330
1F
100
AcDbEntity
  8
0
100
AcDbBlockEnd
  0
BLOCK
  5
1C
330
1B
100
AcDbEntity
 67
     1
  8
0
100
AcDbBlockBegin
  2
*Paper_Space
 70
     0
 10
0.0
 20
0.0
 30
0.0
  3
*Paper_Space
  1

  0
ENDBLK
  5
1D
330
1B
100
AcDbEntity
 67
     1
  8
0
100
AcDbBlockEnd
  0
BLOCK
  5
24
330
23
100
AcDbEntity
  8
0
100
AcDbBlockBegin
  2
*Paper_Space0
 70
     0
 10
0.0
 20
0.0
 30
0.0
  3
*Paper_Space0
  1

  0
ENDBLK
  5
25
330
23
100
AcDbEntity
  8
0
100
AcDbBlockEnd
  0
BLOCK
  5
C9
330
C8
100
AcDbEntity
  8
0
100
AcDbBlockBegin
  2
SW_NOTE_0
 70
     0
 10
0.0
 20
0.0
 30
0.0
  3
SW_NOTE_0
  1

  0
MTEXT
  5
CB
330
C8
100
AcDbEntity
  8
NOTES
 62
     0
100
AcDbMText
 10
0.0
 20
0.3759780908
 30
0.0
 40
0.2916666667
 41
0.0
 71
     1
 72
     1
  1
FROST PRODUCTS LTD.
  7
SLDTEXTSTYLE0
 73
     1
 44
1.0
  0
MTEXT
  5
CC
330
C8
100
AcDbEntity
  8
NOTES
 62
     0
100
AcDbMText
 10
0.0
 20
-0.0495142709
 30
0.0
 40
0.2291666667
 41
0.0
 71
     1
 72
     1
  1
5280 JOHN LUCAS DRIVE, BURLINGTON, ON, L7L 5Z9
  7
SLDTEXTSTYLE0
 73
     1
 44
1.0
  0
ENDBLK
  5
CA
330
C8
100
AcDbEntity
  8
0
100
AcDbBlockEnd
  0
BLOCK
  5
CF
330
CE
100
AcDbEntity
  8
0
100
AcDbBlockBegin
  2
SW_NOTE_0_1
 70
     0
 10
0.0
 20
0.0
 30
0.0
  3
SW_NOTE_0_1
  1

  0
MTEXT
  5
D1
330
CE
100
AcDbEntity
  8
NOTES
 62
     0
100
AcDbMText
 10
0.0
 20
0.2381282771
 30
0.0
 40
0.184729064
 41
0.0
 71
     1
 72
     1
  1
PROPRIETARY AND CONFIDENTIAL
  7
SLDTEXTSTYLE0
 73
     1
 44
1.0
  0
MTEXT
  5
D2
330
CE
100
AcDbEntity
  8
NOTES
 62
     0
100
AcDbMText
 10
0.0
 20
-0.0504364796
 30
0.0
 40
0.25
 41
0.0
 71
     1
 72
     1
  1
THE INFORMATION CONTAINED IN THIS DRAWING IS THE SOLE PROPERTY OF
  7
SLDTEXTSTYLE0
 73
     1
 44
1.0
  0
MTEXT
  5
D3
330
CE
100
AcDbEntity
  8
NOTES
 62
     0
100
AcDbMText
 10
0.0
 20
-0.4231398941
 30
0.0
 40
0.25
 41
0.0
 71
     1
 72
     1
  1
FROST PRODUCTS LTD.  ANY REPRODUCTION IN PART OR AS A WHOLE WITHOUT
  7
SLDTEXTSTYLE0
 73
     1
 44
1.0
  0
MTEXT
  5
D4
330
CE
100
AcDbEntity
  8
NOTES
 62
     0
100
AcDbMText
 10
0.0
 20
-0.7958433086
 30
0.0
 40
0.25
 41
0.0
 71
     1
 72
     1
  1
THE WRITTEN PERMISSION OF FROST PRODUCTS LTD. IS PROHIBITED.
  7
SLDTEXTSTYLE0
 73
     1
 44
1.0
  0
ENDBLK
  5
D0
330
CE
100
AcDbEntity
  8
0
100
AcDbBlockEnd
  0
BLOCK
  5
11A
330
119
100
AcDbEntity
  8
0
100
AcDbBlockBegin
  2
_Open90
 70
     0
 10
0.0
 20
0.0
 30
0.0
  3
_Open90
  1

  0
LINE
  5
11C
330
119
100
AcDbEntity
  8
0
  6
ByBlock
 62
     0
370
    -2
100
AcDbLine
 10
-0.5
 20
0.5
 30
0.0
 11
0.0
 21
0.0
 31
0.0
  0
LINE
  5
11D
330
119
100
AcDbEntity
  8
0
  6
ByBlock
 62
     0
370
    -2
100
AcDbLine
 10
0.0
 20
0.0
 30
0.0
 11
-0.5
 21
-0.5
 31
0.0
  0
LINE
  5
11E
330
119
100
AcDbEntity
  8
0
  6
ByBlock
 62
     0
370
    -2
100
AcDbLine
 10
0.0
 20
0.0
 30
0.0
 11
-1.0
 21
0.0
 31
0.0
  0
ENDBLK
  5
11B
330
119
100
AcDbEntity
  8
0
100
AcDbBlockEnd
  0
BLOCK
  5
120
330
11F
100
AcDbEntity
  8
0
100
AcDbBlockBegin
  2
_D
 70
     0
 10
0.0
 20
0.0
 30
0.0
  3
_D
  1

  0
INSERT
  5
122
330
11F
100
AcDbEntity
  8
DIMS
100
AcDbBlockReference
  2
_Open90
 10
9.481439018
 20
7.3731332445
 30
-1.64175
 41
0.3
 42
0.3
 50
0.0
  0
INSERT
  5
123
330
11F
100
AcDbEntity
  8
DIMS
100
AcDbBlockReference
  2
_Open90
 10
3.111439018
 20
7.3731332445
 30
-1.64175
 41
0.3
 42
0.3
 50
180.0
  0
LINE
  5
124
330
11F
100
AcDbEntity
  8
DIMS
100
AcDbLine
 10
5.9271124404
 20
7.4241749191
 30
0.0
 11
6.4548901934
 21
7.4241749191
 31
0.0
  0
LINE
  5
125
330
11F
100
AcDbEntity
  8
DIMS
100
AcDbLine
 10
9.481439018
 20
8.9438287826
 30
0.0
 11
9.481439018
 21
6.9981332445
 31
0.0
  0
LINE
  5
126
330
11F
100
AcDbEntity
  8
DIMS
100
AcDbLine
 10
3.111439018
 20
8.8273287826
 30
0.0
 11
3.111439018
 21
6.9981332445
 31
0.0
  0
LINE
  5
127
330
11F
100
AcDbEntity
  8
DIMS
100
AcDbLine
 10
9.481439018
 20
7.3731332445
 30
0.0
 11
6.7715569003
 21
7.3731332445
 31
0.0
  0
LINE
  5
128
330
11F
100
AcDbEntity
  8
DIMS
100
AcDbLine
 10
3.111439018
 20
7.3731332445
 30
0.0
 11
5.4722513233
 21
7.3731332445
 31
0.0
  0
MTEXT
  5
129
330
11F
100
AcDbEntity
  8
DIMS
100
AcDbMText
 10
5.4722513233
 20
7.658639347
 30
0.0
 40
0.5
 41
0.0
 71
     1
 72
     1
  1
6
  7
SLDTEXTSTYLE0
 73
     1
 44
1.0
  0
MTEXT
  5
12A
330
11F
100
AcDbEntity
  8
DIMS
100
AcDbMText
 10
6.0000290947
 20
8.0249587927
 30
0.0
 40
0.5
 41
0.0
 71
     1
 72
     1
  1
3
  7
SLDTEXTSTYLE0
 73
     1
 44
1.0
  0
MTEXT
  5
12B
330
11F
100
AcDbEntity
  8
DIMS
100
AcDbMText
 10
6.0000290947
 20
7.3645421187
 30
0.0
 40
0.5
 41
0.0
 71
     1
 72
     1
  1
8
  7
SLDTEXTSTYLE0
 73
     1
 44
1.0
  0
MTEXT
  5
12C
330
11F
100
AcDbEntity
  8
DIMS
100
AcDbMText
 10
6.5278069028
 20
7.658639347
 30
0.0
 40
0.5
 41
0.0
 71
     1
 72
     1
  1
"
  7
SLDTEXTSTYLE0
 73
     1
 44
1.0
  0
ENDBLK
  5
121
330
11F
100
AcDbEntity
  8
0
100
AcDbBlockEnd
  0
BLOCK
  5
130
330
12F
100
AcDbEntity
  8
0
100
AcDbBlockBegin
  2
_D_1
 70
     0
 10
0.0
 20
0.0
 30
0.0
  3
_D_1
  1

  0
INSERT
  5
132
330
12F
100
AcDbEntity
  8
DIMS
100
AcDbBlockReference
  2
_Open90
 10
2.0090768132
 20
8.9939954493
 30
-1.64175
 41
0.3
 42
0.3
 50
90.0
  0
INSERT
  5
133
330
12F
100
AcDbEntity
  8
DIMS
100
AcDbBlockReference
  2
_Open90
 10
2.0090768132
 20
9.9919954493
 30
-1.64175
 41
0.3
 42
0.3
 50
270.0
  0
LINE
  5
134
330
12F
100
AcDbEntity
  8
DIMS
100
AcDbLine
 10
2.9447723513
 20
8.9939954493
 30
0.0
 11
1.6340768132
 21
8.9939954493
 31
0.0
  0
LINE
  5
135
330
12F
100
AcDbEntity
  8
DIMS
100
AcDbLine
 10
2.9447723513
 20
9.9919954493
 30
0.0
 11
1.6340768132
 21
9.9919954493
 31
0.0
  0
LINE
  5
136
330
12F
100
AcDbEntity
  8
DIMS
100
AcDbLine
 10
2.0090768132
 20
8.9939954493
 30
0.0
 11
2.0090768132
 21
8.5939954493
 31
0.0
  0
LINE
  5
137
330
12F
100
AcDbEntity
  8
DIMS
100
AcDbLine
 10
2.0090768132
 20
9.9919954493
 30
0.0
 11
2.0090768132
 21
10.3919954493
 31
0.0
  0
MTEXT
  5
138
330
12F
100
AcDbEntity
  8
DIMS
100
AcDbMText
 10
1.3317330913
 20
9.7515604406
 30
0.0
 40
0.5
 41
0.0
 71
     1
 72
     1
  1
%%c
  7
SLDTEXTSTYLE0
 73
     1
 44
1.0
  0
MTEXT
  5
139
330
12F
100
AcDbEntity
  8
DIMS
100
AcDbMText
 10
2.0607261299
 20
9.7529493303
 30
0.0
 40
0.5
 41
0.0
 71
     1
 72
     1
  1
1"
  7
SLDTEXTSTYLE0
 73
     1
 44
1.0
  0
ENDBLK
  5
131
330
12F
100
AcDbEntity
  8
0
100
AcDbBlockEnd
  0
BLOCK
  5
15B
330
15A
100
AcDbEntity
  8
0
100
AcDbBlockBegin
  2
SW_NOTE_0_2
 70
     0
 10
0.0
 20
0.0
 30
0.0
  3
SW_NOTE_0_2
  1

  0
MTEXT
  5
15D
330
15A
100
AcDbEntity
  8
NOTES
 62
     0
100
AcDbMText
 10
0.0
 20
0.6445338699
 30
0.0
 40
0.5
 41
0.0
 71
     1
 72
     1
  1
3D view
  7
SLDTEXTSTYLE0
 73
     1
 44
1.0
  0
MTEXT
  5
15E
330
15A
100
AcDbEntity
  8
NOTES
 62
     0
100
AcDbMText
 10
0.0
 20
-0.3554661914
 30
0.0
 40
0.5
 41
0.0
 71
     1
 72
     1
  1
Code 1131 - BLK
  7
SLDTEXTSTYLE0
 73
     1
 44
1.0
  0
ENDBLK
  5
15C
330
15A
100
AcDbEntity
  8
0
100
AcDbBlockEnd
  0
BLOCK
  5
174
330
173
100
AcDbEntity
  8
0
100
AcDbBlockBegin
  2
_D_2
 70
     0
 10
0.0
 20
0.0
 30
0.0
  3
_D_2
  1

  0
INSERT
  5
176
330
173
100
AcDbEntity
  8
DIMS
100
AcDbBlockReference
  2
_Open90
 10
2.2471722857
 20
18.1144443231
 30
0.0
 41
0.3
 42
0.3
 50
90.0
  0
INSERT
  5
177
330
173
100
AcDbEntity
  8
DIMS
100
AcDbBlockReference
  2
_Open90
 10
2.2471722857
 20
14.8309443231
 30
0.0
 41
0.3
 42
0.3
 50
270.0
  0
LINE
  5
178
330
173
100
AcDbEntity
  8
DIMS
100
AcDbLine
 10
1.8614083737
 20
16.565302553
 30
0.0
 11
2.7711306079
 21
16.565302553
 31
0.0
  0
LINE
  5
179
330
173
100
AcDbEntity
  8
DIMS
100
AcDbLine
 10
7.2916473513
 20
18.1144443231
 30
0.0
 11
1.8721722857
 21
18.1144443231
 31
0.0
  0
LINE
  5
17A
330
173
100
AcDbEntity
  8
DIMS
100
AcDbLine
 10
2.9447723513
 20
14.8309443231
 30
0.0
 11
1.8721722857
 21
14.8309443231
 31
0.0
  0
LINE
  5
17B
330
173
100
AcDbEntity
  8
DIMS
100
AcDbLine
 10
2.2471722857
 20
18.1144443231
 30
0.0
 11
2.2471722857
 21
17.1673858869
 31
0.0
  0
LINE
  5
17C
330
173
100
AcDbEntity
  8
DIMS
100
AcDbLine
 10
2.2471722857
 20
14.8309443231
 30
0.0
 11
2.2471722857
 21
15.8611358701
 31
0.0
  0
MTEXT
  5
17D
330
173
100
AcDbEntity
  8
DIMS
100
AcDbMText
 10
1.4065472567
 20
16.7997669809
 30
0.0
 40
0.5
 41
0.0
 71
     1
 72
     1
  1
3
  7
SLDTEXTSTYLE0
 73
     1
 44
1.0
  0
MTEXT
  5
17E
330
173
100
AcDbEntity
  8
DIMS
100
AcDbMText
 10
2.1252972686
 20
17.1660864266
 30
0.0
 40
0.5
 41
0.0
 71
     1
 72
     1
  1
5
  7
SLDTEXTSTYLE0
 73
     1
 44
1.0
  0
MTEXT
  5
17F
330
173
100
AcDbEntity
  8
DIMS
100
AcDbMText
 10
1.9343250464
 20
16.5056697526
 30
0.0
 40
0.5
 41
0.0
 71
     1
 72
     1
  1
16
  7
SLDTEXTSTYLE0
 73
     1
 44
1.0
  0
MTEXT
  5
180
330
173
100
AcDbEntity
  8
DIMS
100
AcDbMText
 10
2.8440473172
 20
16.7997669809
 30
0.0
 40
0.5
 41
0.0
 71
     1
 72
     1
  1
"
  7
SLDTEXTSTYLE0
 73
     1
 44
1.0
  0
ENDBLK
  5
175
330
173
100
AcDbEntity
  8
0
100
AcDbBlockEnd
  0
BLOCK
  5
203
330
202
100
AcDbEntity
  8
0
100
AcDbBlockBegin
  2
_D_3
 70
     0
 10
0.0
 20
0.0
 30
0.0
  3
_D_3
  1

  0
INSERT
  5
205
330
202
100
AcDbEntity
  8
DIMS
100
AcDbBlockReference
  2
_Open90
 10
17.0583636798
 20
8.4773704493
 30
2.172489549
 41
0.3
 42
0.3
 50
90.0
  0
INSERT
  5
206
330
202
100
AcDbEntity
  8
DIMS
100
AcDbBlockReference
  2
_Open90
 10
17.0583636798
 20
10.5086204493
 30
2.172489549
 41
0.3
 42
0.3
 50
270.0
  0
LINE
  5
207
330
202
100
AcDbEntity
  8
DIMS
100
AcDbLine
 10
17.0370962872
 20
9.5298301398
 30
0.0
 11
17.9468185213
 21
9.5298301398
 31
0.0
  0
LINE
  5
208
330
202
100
AcDbEntity
  8
DIMS
100
AcDbLine
 10
15.7357229589
 20
8.4773704493
 30
0.0
 11
17.4333636798
 21
8.4773704493
 31
0.0
  0
LINE
  5
209
330
202
100
AcDbEntity
  8
DIMS
100
AcDbLine
 10
15.7357229589
 20
10.5086204493
 30
0.0
 11
17.4333636798
 21
10.5086204493
 31
0.0
  0
LINE
  5
20A
330
202
100
AcDbEntity
  8
DIMS
100
AcDbLine
 10
17.0583636798
 20
8.4773704493
 30
0.0
 11
17.0583636798
 21
8.0773704493
 31
0.0
  0
LINE
  5
20B
330
202
100
AcDbEntity
  8
DIMS
100
AcDbLine
 10
17.0583636798
 20
10.5086204493
 30
0.0
 11
17.0583636798
 21
10.9086204493
 31
0.0
  0
MTEXT
  5
20C
330
202
100
AcDbEntity
  8
DIMS
100
AcDbMText
 10
15.8532421681
 20
9.7629056779
 30
0.0
 40
0.5
 41
0.0
 71
     1
 72
     1
  1
%%c
  7
SLDTEXTSTYLE0
 73
     1
 44
1.0
  0
MTEXT
  5
20D
330
202
100
AcDbEntity
  8
DIMS
100
AcDbMText
 10
16.5822352068
 20
9.7642945677
 30
0.0
 40
0.5
 41
0.0
 71
     1
 72
     1
  1
2
  7
SLDTEXTSTYLE0
 73
     1
 44
1.0
  0
MTEXT
  5
20E
330
202
100
AcDbEntity
  8
DIMS
100
AcDbMText
 10
17.300985182
 20
10.1306140134
 30
0.0
 40
0.5
 41
0.0
 71
     1
 72
     1
  1
1
  7
SLDTEXTSTYLE0
 73
     1
 44
1.0
  0
MTEXT
  5
20F
330
202
100
AcDbEntity
  8
DIMS
100
AcDbMText
 10
17.1100129598
 20
9.4701973394
 30
0.0
 40
0.5
 41
0.0
 71
     1
 72
     1
  1
16
  7
SLDTEXTSTYLE0
 73
     1
 44
1.0
  0
MTEXT
  5
210
330
202
100
AcDbEntity
  8
DIMS
100
AcDbMText
 10
18.019735194
 20
9.7642945677
 30
0.0
 40
0.5
 41
0.0
 71
     1
 72
     1
  1
"
  7
SLDTEXTSTYLE0
 73
     1
 44
1.0
  0
ENDBLK
  5
204
330
202
100
AcDbEntity
  8
0
100
AcDbBlockEnd
  0
BLOCK
  5
23B
330
23A
100
AcDbEntity
  8
0
100
AcDbBlockBegin
  2
_D_4
 70
     0
 10
0.0
 20
0.0
 30
0.0
  3
_D_4
  1

  0
INSERT
  5
23D
330
23A
100
AcDbEntity
  8
DIMS
100
AcDbBlockReference
  2
_Open90
 10
26.6463525649
 20
7.609353717
 30
0.0
 41
0.3
 42
0.3
 50
0.0
  0
INSERT
  5
23E
330
23A
100
AcDbEntity
  8
DIMS
100
AcDbBlockReference
  2
_Open90
 10
25.4978129098
 20
7.609353717
 30
0.0
 41
0.3
 42
0.3
 50
180.0
  0
LINE
  5
23F
330
23A
100
AcDbEntity
  8
DIMS
100
AcDbLine
 10
27.7108845588
 20
7.6603953915
 30
0.0
 11
28.2386623119
 21
7.6603953915
 31
0.0
  0
LINE
  5
240
330
23A
100
AcDbEntity
  8
DIMS
100
AcDbLine
 10
26.6463525649
 20
9.3263287826
 30
0.0
 11
26.6463525649
 21
7.234353717
 31
0.0
  0
LINE
  5
241
330
23A
100
AcDbEntity
  8
DIMS
100
AcDbLine
 10
25.4978129098
 20
9.3263287826
 30
0.0
 11
25.4978129098
 21
7.234353717
 31
0.0
  0
LINE
  5
242
330
23A
100
AcDbEntity
  8
DIMS
100
AcDbLine
 10
26.6463525649
 20
7.609353717
 30
0.0
 11
27.2560234417
 21
7.609353717
 31
0.0
  0
LINE
  5
243
330
23A
100
AcDbEntity
  8
DIMS
100
AcDbLine
 10
25.4978129098
 20
7.609353717
 30
0.0
 11
26.6463525649
 21
7.609353717
 31
0.0
  0
MTEXT
  5
244
330
23A
100
AcDbEntity
  8
DIMS
100
AcDbMText
 10
27.2560234417
 20
7.8948598194
 30
0.0
 40
0.5
 41
0.0
 71
     1
 72
     1
  1
1
  7
SLDTEXTSTYLE0
 73
     1
 44
1.0
  0
MTEXT
  5
245
330
23A
100
AcDbEntity
  8
DIMS
100
AcDbMText
 10
27.7838012131
 20
8.2611792651
 30
0.0
 40
0.5
 41
0.0
 71
     1
 72
     1
  1
1
  7
SLDTEXTSTYLE0
 73
     1
 44
1.0
  0
MTEXT
  5
246
330
23A
100
AcDbEntity
  8
DIMS
100
AcDbMText
 10
27.7838012131
 20
7.6007625911
 30
0.0
 40
0.5
 41
0.0
 71
     1
 72
     1
  1
8
  7
SLDTEXTSTYLE0
 73
     1
 44
1.0
  0
MTEXT
  5
247
330
23A
100
AcDbEntity
  8
DIMS
100
AcDbMText
 10
28.3115790212
 20
7.8948598194
 30
0.0
 40
0.5
 41
0.0
 71
     1
 72
     1
  1
"
  7
SLDTEXTSTYLE0
 73
     1
 44
1.0
  0
ENDBLK
  5
23C
330
23A
100
AcDbEntity
  8
0
100
AcDbBlockEnd
  0
BLOCK
  5
24A
330
249
100
AcDbEntity
  8
0
100
AcDbBlockBegin
  2
_D_5
 70
     0
 10
0.0
 20
0.0
 30
0.0
  3
_D_5
  1

  0
INSERT
  5
24C
330
249
100
AcDbEntity
  8
DIMS
100
AcDbBlockReference
  2
_Open90
 10
24.8659957479
 20
8.4754954493
 30
0.0
 41
0.3
 42
0.3
 50
270.0
  0
INSERT
  5
24D
330
249
100
AcDbEntity
  8
DIMS
100
AcDbBlockReference
  2
_Open90
 10
24.8659957479
 20
9.0594954493
 30
0.0
 41
0.3
 42
0.3
 50
90.0
  0
LINE
  5
24E
330
249
100
AcDbEntity
  8
DIMS
100
AcDbLine
 10
23.3396068436
 20
6.9517339742
 30
0.0
 11
24.2493290777
 21
6.9517339742
 31
0.0
  0
LINE
  5
24F
330
249
100
AcDbEntity
  8
DIMS
100
AcDbLine
 10
26.3467712431
 20
8.4754954493
 30
0.0
 11
24.4909957479
 21
8.4754954493
 31
0.0
  0
LINE
  5
250
330
249
100
AcDbEntity
  8
DIMS
100
AcDbLine
 10
26.4796858983
 20
9.0594954493
 30
0.0
 11
24.4909957479
 21
9.0594954493
 31
0.0
  0
LINE
  5
251
330
249
100
AcDbEntity
  8
DIMS
100
AcDbLine
 10
24.5659957479
 20
6.9006922997
 30
0.0
 11
24.8659957479
 21
6.9006922997
 31
0.0
  0
LINE
  5
252
330
249
100
AcDbEntity
  8
DIMS
100
AcDbLine
 10
24.8659957479
 20
6.9006922997
 30
0.0
 11
24.8659957479
 21
8.4754954493
 31
0.0
  0
LINE
  5
253
330
249
100
AcDbEntity
  8
DIMS
100
AcDbLine
 10
24.8659957479
 20
8.4754954493
 30
0.0
 11
24.8659957479
 21
9.0594954493
 31
0.0
  0
MTEXT
  5
254
330
249
100
AcDbEntity
  8
DIMS
100
AcDbMText
 10
23.6034957385
 20
7.5525178478
 30
0.0
 40
0.5
 41
0.0
 71
     1
 72
     1
  1
9
  7
SLDTEXTSTYLE0
 73
     1
 44
1.0
  0
MTEXT
  5
255
330
249
100
AcDbEntity
  8
DIMS
100
AcDbMText
 10
23.4125235163
 20
6.8921011738
 30
0.0
 40
0.5
 41
0.0
 71
     1
 72
     1
  1
16
  7
SLDTEXTSTYLE0
 73
     1
 44
1.0
  0
MTEXT
  5
256
330
249
100
AcDbEntity
  8
DIMS
100
AcDbMText
 10
24.3222457504
 20
7.1861984021
 30
0.0
 40
0.5
 41
0.0
 71
     1
 72
     1
  1
"
  7
SLDTEXTSTYLE0
 73
     1
 44
1.0
  0
ENDBLK
  5
24B
330
249
100
AcDbEntity
  8
0
100
AcDbBlockEnd
  0
BLOCK
  5
259
330
258
100
AcDbEntity
  8
0
100
AcDbBlockBegin
  2
_D_6
 70
     0
 10
0.0
 20
0.0
 30
0.0
  3
_D_6
  1

  0
INSERT
  5
25B
330
258
100
AcDbEntity
  8
DIMS
100
AcDbBlockReference
  2
_Open90
 10
23.4467979133
 20
9.9264954493
 30
1.64175
 41
0.3
 42
0.3
 50
90.0
  0
INSERT
  5
25C
330
258
100
AcDbEntity
  8
DIMS
100
AcDbBlockReference
  2
_Open90
 10
23.4467979133
 20
9.0594954493
 30
1.64175
 41
0.3
 42
0.3
 50
270.0
  0
LINE
  5
25D
330
258
100
AcDbEntity
  8
DIMS
100
AcDbLine
 10
22.30235349
 20
11.1914583836
 30
0.0
 11
22.8301312431
 21
11.1914583836
 31
0.0
  0
LINE
  5
25E
330
258
100
AcDbEntity
  8
DIMS
100
AcDbLine
 10
26.4796858983
 20
9.9264954493
 30
0.0
 11
23.0717979133
 21
9.9264954493
 31
0.0
  0
LINE
  5
25F
330
258
100
AcDbEntity
  8
DIMS
100
AcDbLine
 10
26.4796858983
 20
9.0594954493
 30
0.0
 11
23.0717979133
 21
9.0594954493
 31
0.0
  0
LINE
  5
260
330
258
100
AcDbEntity
  8
DIMS
100
AcDbLine
 10
23.1467979133
 20
11.1404167091
 30
0.0
 11
23.4467979133
 21
11.1404167091
 31
0.0
  0
LINE
  5
261
330
258
100
AcDbEntity
  8
DIMS
100
AcDbLine
 10
23.4467979133
 20
11.1404167091
 30
0.0
 11
23.4467979133
 21
9.9264954493
 31
0.0
  0
LINE
  5
262
330
258
100
AcDbEntity
  8
DIMS
100
AcDbLine
 10
23.4467979133
 20
9.9264954493
 30
0.0
 11
23.4467979133
 21
9.0594954493
 31
0.0
  0
MTEXT
  5
263
330
258
100
AcDbEntity
  8
DIMS
100
AcDbMText
 10
22.3752701444
 20
11.7922422573
 30
0.0
 40
0.5
 41
0.0
 71
     1
 72
     1
  1
7
  7
SLDTEXTSTYLE0
 73
     1
 44
1.0
  0
MTEXT
  5
264
330
258
100
AcDbEntity
  8
DIMS
100
AcDbMText
 10
22.3752701444
 20
11.1318255832
 30
0.0
 40
0.5
 41
0.0
 71
     1
 72
     1
  1
8
  7
SLDTEXTSTYLE0
 73
     1
 44
1.0
  0
MTEXT
  5
265
330
258
100
AcDbEntity
  8
DIMS
100
AcDbMText
 10
22.9030479158
 20
11.4259228115
 30
0.0
 40
0.5
 41
0.0
 71
     1
 72
     1
  1
"
  7
SLDTEXTSTYLE0
 73
     1
 44
1.0
  0
ENDBLK
  5
25A
330
258
100
AcDbEntity
  8
0
100
AcDbBlockEnd
  0
BLOCK
  5
269
330
268
100
AcDbEntity
  8
0
100
AcDbBlockBegin
  2
_D_7
 70
     0
 10
0.0
 20
0.0
 30
0.0
  3
_D_7
  1

  0
INSERT
  5
26B
330
268
100
AcDbEntity
  8
DIMS
100
AcDbBlockReference
  2
_Open90
 10
26.5774096538
 20
9.9954383604
 30
1.64175
 41
0.3
 42
0.3
 50
315.0
  0
LINE
  5
26C
330
268
100
AcDbEntity
  8
DIMS
100
AcDbLine
 10
25.7454373622
 20
11.9803620378
 30
0.0
 11
26.6551595964
 21
11.9803620378
 31
0.0
  0
LINE
  5
26D
330
268
100
AcDbEntity
  8
DIMS
100
AcDbLine
 10
26.5774096538
 20
9.9954383604
 30
0.0
 11
24.643527651
 21
11.9293203633
 31
0.0
  0
LINE
  5
26E
330
268
100
AcDbEntity
  8
DIMS
100
AcDbLine
 10
24.643527651
 20
11.9293203633
 30
0.0
 11
24.943527651
 21
11.9293203633
 31
0.0
  0
MTEXT
  5
26F
330
268
100
AcDbEntity
  8
DIMS
100
AcDbMText
 10
24.943527651
 20
12.2134375759
 30
0.0
 40
0.5
 41
0.0
 71
     1
 72
     1
  1
%%c
  7
SLDTEXTSTYLE0
 73
     1
 44
1.0
  0
MTEXT
  5
270
330
268
100
AcDbEntity
  8
DIMS
100
AcDbMText
 10
26.0093262571
 20
12.5811459114
 30
0.0
 40
0.5
 41
0.0
 71
     1
 72
     1
  1
3
  7
SLDTEXTSTYLE0
 73
     1
 44
1.0
  0
MTEXT
  5
271
330
268
100
AcDbEntity
  8
DIMS
100
AcDbMText
 10
25.8183540349
 20
11.9207292374
 30
0.0
 40
0.5
 41
0.0
 71
     1
 72
     1
  1
16
  7
SLDTEXTSTYLE0
 73
     1
 44
1.0
  0
MTEXT
  5
272
330
268
100
AcDbEntity
  8
DIMS
100
AcDbMText
 10
26.7280763424
 20
12.2148264657
 30
0.0
 40
0.5
 41
0.0
 71
     1
 72
     1
  1
"
  7
SLDTEXTSTYLE0
 73
     1
 44
1.0
  0
MTEXT
  5
273
330
268
100
AcDbEntity
  8
DIMS
100
AcDbMText
 10
27.3468261932
 20
12.2148264657
 30
0.0
 40
0.5
 41
0.0
 71
     1
 72
     1
  1
mounting holes (3)
  7
SLDTEXTSTYLE0
 73
     1
 44
1.0
  0
ENDBLK
  5
26A
330
268
100
AcDbEntity
  8
0
100
AcDbBlockEnd
  0
BLOCK
  5
276
330
275
100
AcDbEntity
  8
0
100
AcDbBlockBegin
  2
_D_8
 70
     0
 10
0.0
 20
0.0
 30
0.0
  3
_D_8
  1

  0
INSERT
  5
278
330
275
100
AcDbEntity
  8
DIMS
100
AcDbBlockReference
  2
_Open90
 10
24.1554593306
 20
9.0594954493
 30
1.64175
 41
0.3
 42
0.3
 50
270.0
  0
INSERT
  5
279
330
275
100
AcDbEntity
  8
DIMS
100
AcDbBlockReference
  2
_Open90
 10
24.1554593306
 20
9.4929954493
 30
1.64175
 41
0.3
 42
0.3
 50
90.0
  0
LINE
  5
27A
330
275
100
AcDbEntity
  8
DIMS
100
AcDbLine
 10
22.6290704263
 20
8.1328363364
 30
0.0
 11
23.5387926604
 21
8.1328363364
 31
0.0
  0
LINE
  5
27B
330
275
100
AcDbEntity
  8
DIMS
100
AcDbLine
 10
26.4796858983
 20
9.0594954493
 30
0.0
 11
23.7804593306
 21
9.0594954493
 31
0.0
  0
LINE
  5
27C
330
275
100
AcDbEntity
  8
DIMS
100
AcDbLine
 10
26.4796858983
 20
9.4929954493
 30
0.0
 11
23.7804593306
 21
9.4929954493
 31
0.0
  0
LINE
  5
27D
330
275
100
AcDbEntity
  8
DIMS
100
AcDbLine
 10
23.8554593306
 20
8.0817946619
 30
0.0
 11
24.1554593306
 21
8.0817946619
 31
0.0
  0
LINE
  5
27E
330
275
100
AcDbEntity
  8
DIMS
100
AcDbLine
 10
24.1554593306
 20
8.0817946619
 30
0.0
 11
24.1554593306
 21
9.0594954493
 31
0.0
  0
LINE
  5
27F
330
275
100
AcDbEntity
  8
DIMS
100
AcDbLine
 10
24.1554593306
 20
9.0594954493
 30
0.0
 11
24.1554593306
 21
9.4929954493
 31
0.0
  0
MTEXT
  5
280
330
275
100
AcDbEntity
  8
DIMS
100
AcDbMText
 10
22.8929593211
 20
8.73362021
 30
0.0
 40
0.5
 41
0.0
 71
     1
 72
     1
  1
7
  7
SLDTEXTSTYLE0
 73
     1
 44
1.0
  0
MTEXT
  5
281
330
275
100
AcDbEntity
  8
DIMS
100
AcDbMText
 10
22.7019870989
 20
8.073203536
 30
0.0
 40
0.5
 41
0.0
 71
     1
 72
     1
  1
16
  7
SLDTEXTSTYLE0
 73
     1
 44
1.0
  0
MTEXT
  5
282
330
275
100
AcDbEntity
  8
DIMS
100
AcDbMText
 10
23.6117093331
 20
8.3673007643
 30
0.0
 40
0.5
 41
0.0
 71
     1
 72
     1
  1
"
  7
SLDTEXTSTYLE0
 73
     1
 44
1.0
  0
ENDBLK
  5
277
330
275
100
AcDbEntity
  8
0
100
AcDbBlockEnd
  0
ENDSEC
  0
SECTION
  2
ENTITIES
  0
LINE
  5
79
330
1F
100
AcDbEntity
  8
TITLE
370
    35
100
AcDbLine
 10
16.5182230965
 20
1.4876117645
 30
0.0
 11
33.4999864512
 21
1.4876117645
 31
0.0
  0
LINE
  5
7A
330
1F
100
AcDbEntity
  8
TITLE
370
    35
100
AcDbLine
 10
33.4999317442
 20
5.4753603936
 30
0.0
 11
23.3105350723
 21
5.4753603936
 31
0.0
  0
LINE
  5
7B
330
1F
100
AcDbEntity
  8
TITLE
  6
Continuous
370
    18
100
AcDbLine
 10
0.5
 20
0.5
 30
0.0
 11
0.5
 21
21.5
 31
0.0
  0
LINE
  5
7C
330
1F
100
AcDbEntity
  8
TITLE
  6
Continuous
370
    18
100
AcDbLine
 10
0.5
 20
21.5
 30
0.0
 11
33.5
 21
21.5
 31
0.0
  0
LINE
  5
7D
330
1F
100
AcDbEntity
  8
TITLE
370
    35
100
AcDbLine
 10
16.5182230965
 20
2.5427877231
 30
0.0
 11
9.5059791203
 21
2.5427877231
 31
0.0
  0
LINE
  5
7E
330
1F
100
AcDbEntity
  8
TITLE
370
    35
100
AcDbLine
 10
16.5182230965
 20
1.4876117645
 30
0.0
 11
9.5059791203
 21
1.4876117645
 31
0.0
  0
LINE
  5
7F
330
1F
100
AcDbEntity
  8
TITLE
  6
Continuous
370
    18
100
AcDbLine
 10
33.5
 20
21.5
 30
0.0
 11
33.5
 21
0.5
 31
0.0
  0
LINE
  5
80
330
1F
100
AcDbEntity
  8
TITLE
  6
Continuous
370
    18
100
AcDbLine
 10
33.5
 20
0.5
 30
0.0
 11
0.5
 21
0.5
 31
0.0
  0
LINE
  5
81
330
1F
100
AcDbEntity
  8
TITLE
370
    35
100
AcDbLine
 10
16.5182230965
 20
1.4876117645
 30
0.0
 11
16.5182230965
 21
3.5979636817
 31
0.0
  0
LINE
  5
82
330
1F
100
AcDbEntity
  8
TITLE
370
    35
100
AcDbLine
 10
9.5059791203
 20
3.5979636817
 30
0.0
 11
9.5059791203
 21
0.5
 31
0.0
  0
LINE
  5
83
330
1F
100
AcDbEntity
  8
TITLE
370
    35
100
AcDbLine
 10
9.5059791203
 20
0.5
 30
0.0
 11
33.5
 21
0.5
 31
0.0
  0
LINE
  5
84
330
1F
100
AcDbEntity
  8
TITLE
370
    35
100
AcDbLine
 10
33.4999317442
 20
5.4753603936
 30
0.0
 11
33.5
 21
0.5
 31
0.0
  0
LINE
  5
85
330
1F
100
AcDbEntity
  8
TITLE
370
    35
100
AcDbLine
 10
16.5182230965
 20
3.5979636817
 30
0.0
 11
9.5059791203
 21
3.5979636817
 31
0.0
  0
LINE
  5
86
330
1F
100
AcDbEntity
  8
TITLE
370
    35
100
AcDbLine
 10
16.5182230965
 20
3.5979636817
 30
0.0
 11
33.4997615643
 21
3.5979648343
 31
0.0
  0
LINE
  5
87
330
1F
100
AcDbEntity
  8
TITLE
370
    35
100
AcDbLine
 10
23.3105350723
 20
5.4753603936
 30
0.0
 11
23.3105350723
 21
0.4636772425
 31
0.0
  0
LINE
  5
88
330
1F
100
AcDbEntity
  8
TITLE
  6
Continuous
370
    18
100
AcDbLine
 10
0.4999606299
 20
11.0
 30
0.0
 11
0.5000393701
 21
11.0
 31
0.0
  0
LINE
  5
89
330
1F
100
AcDbEntity
  8
TITLE
  6
Continuous
370
    18
100
AcDbLine
 10
17.0
 20
21.5000393701
 30
0.0
 11
17.0
 21
21.4999606299
 31
0.0
  0
LINE
  5
8A
330
1F
100
AcDbEntity
  8
TITLE
  6
Continuous
370
    18
100
AcDbLine
 10
33.4999606299
 20
11.0
 30
0.0
 11
33.4999606299
 21
11.0
 31
0.0
  0
LINE
  5
8B
330
1F
100
AcDbEntity
  8
TITLE
  6
Continuous
370
    18
100
AcDbLine
 10
17.0
 20
0.4999606299
 30
0.0
 11
17.0
 21
0.5000393701
 31
0.0
  0
LINE
  5
8C
330
1F
100
AcDbEntity
  8
TITLE
  6
Continuous
370
    18
100
AcDbLine
 10
0.5
 20
3.125984252
 30
0.0
 11
0.1653543307
 21
3.125984252
 31
0.0
  0
LINE
  5
8D
330
1F
100
AcDbEntity
  8
TITLE
  6
Continuous
370
    18
100
AcDbLine
 10
33.5
 20
3.125984252
 30
0.0
 11
33.8346456693
 21
3.125984252
 31
0.0
  0
LINE
  5
8E
330
1F
100
AcDbEntity
  8
TITLE
  6
Continuous
370
    18
100
AcDbLine
 10
0.5
 20
5.094488189
 30
0.0
 11
0.1653543307
 21
5.094488189
 31
0.0
  0
LINE
  5
8F
330
1F
100
AcDbEntity
  8
TITLE
  6
Continuous
370
    18
100
AcDbLine
 10
33.5
 20
5.094488189
 30
0.0
 11
33.8346456693
 21
5.094488189
 31
0.0
  0
LINE
  5
90
330
1F
100
AcDbEntity
  8
TITLE
  6
Continuous
370
    18
100
AcDbLine
 10
0.5
 20
7.062992126
 30
0.0
 11
0.1653543307
 21
7.062992126
 31
0.0
  0
LINE
  5
91
330
1F
100
AcDbEntity
  8
TITLE
  6
Continuous
370
    18
100
AcDbLine
 10
33.5
 20
7.062992126
 30
0.0
 11
33.8346456693
 21
7.062992126
 31
0.0
  0
LINE
  5
92
330
1F
100
AcDbEntity
  8
TITLE
  6
Continuous
370
    18
100
AcDbLine
 10
0.5
 20
9.031496063
 30
0.0
 11
0.1653543307
 21
9.031496063
 31
0.0
  0
LINE
  5
93
330
1F
100
AcDbEntity
  8
TITLE
  6
Continuous
370
    18
100
AcDbLine
 10
33.5
 20
9.031496063
 30
0.0
 11
33.8346456693
 21
9.031496063
 31
0.0
  0
LINE
  5
94
330
1F
100
AcDbEntity
  8
TITLE
  6
Continuous
370
    18
100
AcDbLine
 10
0.4999606299
 20
11.0
 30
0.0
 11
0.1653543307
 21
11.0
 31
0.0
  0
LINE
  5
95
330
1F
100
AcDbEntity
  8
TITLE
  6
Continuous
370
    18
100
AcDbLine
 10
33.4999606299
 20
11.0
 30
0.0
 11
33.8346456693
 21
11.0
 31
0.0
  0
LINE
  5
96
330
1F
100
AcDbEntity
  8
TITLE
  6
Continuous
370
    18
100
AcDbLine
 10
0.5
 20
12.968503937
 30
0.0
 11
0.1653543307
 21
12.968503937
 31
0.0
  0
LINE
  5
97
330
1F
100
AcDbEntity
  8
TITLE
  6
Continuous
370
    18
100
AcDbLine
 10
33.5
 20
12.968503937
 30
0.0
 11
33.8346456693
 21
12.968503937
 31
0.0
  0
LINE
  5
98
330
1F
100
AcDbEntity
  8
TITLE
  6
Continuous
370
    18
100
AcDbLine
 10
0.5
 20
14.937007874
 30
0.0
 11
0.1653543307
 21
14.937007874
 31
0.0
  0
LINE
  5
99
330
1F
100
AcDbEntity
  8
TITLE
  6
Continuous
370
    18
100
AcDbLine
 10
33.5
 20
14.937007874
 30
0.0
 11
33.8346456693
 21
14.937007874
 31
0.0
  0
LINE
  5
9A
330
1F
100
AcDbEntity
  8
TITLE
  6
Continuous
370
    18
100
AcDbLine
 10
0.5
 20
16.905511811
 30
0.0
 11
0.1653543307
 21
16.905511811
 31
0.0
  0
LINE
  5
9B
330
1F
100
AcDbEntity
  8
TITLE
  6
Continuous
370
    18
100
AcDbLine
 10
33.5
 20
16.905511811
 30
0.0
 11
33.8346456693
 21
16.905511811
 31
0.0
  0
LINE
  5
9C
330
1F
100
AcDbEntity
  8
TITLE
  6
Continuous
370
    18
100
AcDbLine
 10
0.5
 20
18.874015748
 30
0.0
 11
0.1653543307
 21
18.874015748
 31
0.0
  0
LINE
  5
9D
330
1F
100
AcDbEntity
  8
TITLE
  6
Continuous
370
    18
100
AcDbLine
 10
33.5
 20
18.874015748
 30
0.0
 11
33.8346456693
 21
18.874015748
 31
0.0
  0
LINE
  5
9E
330
1F
100
AcDbEntity
  8
TITLE
  6
Continuous
370
    18
100
AcDbLine
 10
3.2204724409
 20
21.5
 30
0.0
 11
3.2204724409
 21
21.8346456693
 31
0.0
  0
LINE
  5
9F
330
1F
100
AcDbEntity
  8
TITLE
  6
Continuous
370
    18
100
AcDbLine
 10
3.2204724409
 20
0.5
 30
0.0
 11
3.2204724409
 21
0.1653543307
 31
0.0
  0
LINE
  5
A0
330
1F
100
AcDbEntity
  8
TITLE
  6
Continuous
370
    18
100
AcDbLine
 10
5.188976378
 20
21.5
 30
0.0
 11
5.188976378
 21
21.8346456693
 31
0.0
  0
LINE
  5
A1
330
1F
100
AcDbEntity
  8
TITLE
  6
Continuous
370
    18
100
AcDbLine
 10
5.188976378
 20
0.5
 30
0.0
 11
5.188976378
 21
0.1653543307
 31
0.0
  0
LINE
  5
A2
330
1F
100
AcDbEntity
  8
TITLE
  6
Continuous
370
    18
100
AcDbLine
 10
7.157480315
 20
21.5
 30
0.0
 11
7.157480315
 21
21.8346456693
 31
0.0
  0
LINE
  5
A3
330
1F
100
AcDbEntity
  8
TITLE
  6
Continuous
370
    18
100
AcDbLine
 10
7.157480315
 20
0.5
 30
0.0
 11
7.157480315
 21
0.1653543307
 31
0.0
  0
LINE
  5
A4
330
1F
100
AcDbEntity
  8
TITLE
  6
Continuous
370
    18
100
AcDbLine
 10
9.125984252
 20
21.5
 30
0.0
 11
9.125984252
 21
21.8346456693
 31
0.0
  0
LINE
  5
A5
330
1F
100
AcDbEntity
  8
TITLE
  6
Continuous
370
    18
100
AcDbLine
 10
9.125984252
 20
0.5
 30
0.0
 11
9.125984252
 21
0.1653543307
 31
0.0
  0
LINE
  5
A6
330
1F
100
AcDbEntity
  8
TITLE
  6
Continuous
370
    18
100
AcDbLine
 10
11.094488189
 20
21.5
 30
0.0
 11
11.094488189
 21
21.8346456693
 31
0.0
  0
LINE
  5
A7
330
1F
100
AcDbEntity
  8
TITLE
  6
Continuous
370
    18
100
AcDbLine
 10
11.094488189
 20
0.5
 30
0.0
 11
11.094488189
 21
0.1653543307
 31
0.0
  0
LINE
  5
A8
330
1F
100
AcDbEntity
  8
TITLE
  6
Continuous
370
    18
100
AcDbLine
 10
13.062992126
 20
21.5
 30
0.0
 11
13.062992126
 21
21.8346456693
 31
0.0
  0
LINE
  5
A9
330
1F
100
AcDbEntity
  8
TITLE
  6
Continuous
370
    18
100
AcDbLine
 10
13.062992126
 20
0.5
 30
0.0
 11
13.062992126
 21
0.1653543307
 31
0.0
  0
LINE
  5
AA
330
1F
100
AcDbEntity
  8
TITLE
  6
Continuous
370
    18
100
AcDbLine
 10
15.031496063
 20
21.5
 30
0.0
 11
15.031496063
 21
21.8346456693
 31
0.0
  0
LINE
  5
AB
330
1F
100
AcDbEntity
  8
TITLE
  6
Continuous
370
    18
100
AcDbLine
 10
15.031496063
 20
0.5
 30
0.0
 11
15.031496063
 21
0.1653543307
 31
0.0
  0
LINE
  5
AC
330
1F
100
AcDbEntity
  8
TITLE
  6
Continuous
370
    18
100
AcDbLine
 10
17.0
 20
21.5000393701
 30
0.0
 11
17.0
 21
21.8346456693
 31
0.0
  0
LINE
  5
AD
330
1F
100
AcDbEntity
  8
TITLE
  6
Continuous
370
    18
100
AcDbLine
 10
17.0
 20
0.4999606299
 30
0.0
 11
17.0
 21
0.1653543307
 31
0.0
  0
LINE
  5
AE
330
1F
100
AcDbEntity
  8
TITLE
  6
Continuous
370
    18
100
AcDbLine
 10
18.968503937
 20
21.5
 30
0.0
 11
18.968503937
 21
21.8346456693
 31
0.0
  0
LINE
  5
AF
330
1F
100
AcDbEntity
  8
TITLE
  6
Continuous
370
    18
100
AcDbLine
 10
18.968503937
 20
0.5
 30
0.0
 11
18.968503937
 21
0.1653543307
 31
0.0
  0
LINE
  5
B0
330
1F
100
AcDbEntity
  8
TITLE
  6
Continuous
370
    18
100
AcDbLine
 10
20.937007874
 20
21.5
 30
0.0
 11
20.937007874
 21
21.8346456693
 31
0.0
  0
LINE
  5
B1
330
1F
100
AcDbEntity
  8
TITLE
  6
Continuous
370
    18
100
AcDbLine
 10
20.937007874
 20
0.5
 30
0.0
 11
20.937007874
 21
0.1653543307
 31
0.0
  0
LINE
  5
B2
330
1F
100
AcDbEntity
  8
TITLE
  6
Continuous
370
    18
100
AcDbLine
 10
22.905511811
 20
21.5
 30
0.0
 11
22.905511811
 21
21.8346456693
 31
0.0
  0
LINE
  5
B3
330
1F
100
AcDbEntity
  8
TITLE
  6
Continuous
370
    18
100
AcDbLine
 10
22.905511811
 20
0.5
 30
0.0
 11
22.905511811
 21
0.1653543307
 31
0.0
  0
LINE
  5
B4
330
1F
100
AcDbEntity
  8
TITLE
  6
Continuous
370
    18
100
AcDbLine
 10
24.874015748
 20
21.5
 30
0.0
 11
24.874015748
 21
21.8346456693
 31
0.0
  0
LINE
  5
B5
330
1F
100
AcDbEntity
  8
TITLE
  6
Continuous
370
    18
100
AcDbLine
 10
24.874015748
 20
0.5
 30
0.0
 11
24.874015748
 21
0.1653543307
 31
0.0
  0
LINE
  5
B6
330
1F
100
AcDbEntity
  8
TITLE
  6
Continuous
370
    18
100
AcDbLine
 10
26.842519685
 20
21.5
 30
0.0
 11
26.842519685
 21
21.8346456693
 31
0.0
  0
LINE
  5
B7
330
1F
100
AcDbEntity
  8
TITLE
  6
Continuous
370
    18
100
AcDbLine
 10
26.842519685
 20
0.5
 30
0.0
 11
26.842519685
 21
0.1653543307
 31
0.0
  0
LINE
  5
B8
330
1F
100
AcDbEntity
  8
TITLE
  6
Continuous
370
    18
100
AcDbLine
 10
28.811023622
 20
21.5
 30
0.0
 11
28.811023622
 21
21.8346456693
 31
0.0
  0
LINE
  5
B9
330
1F
100
AcDbEntity
  8
TITLE
  6
Continuous
370
    18
100
AcDbLine
 10
28.811023622
 20
0.5
 30
0.0
 11
28.811023622
 21
0.1653543307
 31
0.0
  0
LINE
  5
BA
330
1F
100
AcDbEntity
  8
TITLE
  6
Continuous
370
    18
100
AcDbLine
 10
30.7795275591
 20
21.5
 30
0.0
 11
30.7795275591
 21
21.8346456693
 31
0.0
  0
LINE
  5
BB
330
1F
100
AcDbEntity
  8
TITLE
  6
Continuous
370
    18
100
AcDbLine
 10
30.7795275591
 20
0.5
 30
0.0
 11
30.7795275591
 21
0.1653543307
 31
0.0
  0
MTEXT
  5
BD
330
1F
100
AcDbEntity
  8
NOTES
100
AcDbMText
 10
10.408297803
 20
1.0702903347
 30
0.0
 40
0.25
 41
0.0
 71
     1
 72
     1
  1
UNLESS OTHERWISE SPECIFIED DIMENSIONS ARE IN INCHES.
  7
SLDTEXTSTYLE0
 73
     1
 44
1.0
  0
MTEXT
  5
BE
330
1F
100
AcDbEntity
  8
NOTES
100
AcDbMText
 10
10.4368251132
 20
3.2193045501
 30
0.0
 40
0.25
 41
0.0
 71
     1
 72
     1
  1
DATE:
  7
SLDTEXTSTYLE0
 73
     1
 44
1.0
  0
MTEXT
  5
BF
330
1F
100
AcDbEntity
  8
NOTES
100
AcDbMText
 10
12.7130669976
 20
2.1722148141
 30
0.0
 40
0.25
 41
0.0
 71
     2
 72
     1
  1
DO NOT SCALE DRAWING
  7
SLDTEXTSTYLE0
 73
     1
 44
1.0
  0
MTEXT
  5
C1
330
1F
100
AcDbEntity
  8
NOTES
100
AcDbMText
 10
16.8307373075
 20
3.2712065527
 30
0.0
 40
0.25
 41
0.0
 71
     1
 72
     1
  1
TITLE:
  7
SLDTEXTSTYLE1
 73
     1
 44
1.0
  0
MTEXT
  5
C2
330
1F
100
AcDbEntity
  8
NOTES
100
AcDbMText
 10
24.1561831052
 20
3.2712065527
 30
0.0
 40
0.25
 41
0.0
 71
     1
 72
     1
  1
DWG NO.
  7
SLDTEXTSTYLE1
 73
     1
 44
1.0
  0
MTEXT
  5
C4
330
1F
100
AcDbEntity
  8
NOTES
100
AcDbMText
 10
24.1831753203
 20
1.0675125551
 30
0.0
 40
0.25
 41
0.0
 71
     1
 72
     1
  1
SCALE:     1:1
  7
SLDTEXTSTYLE2
 73
     1
 44
1.0
  0
MTEXT
  5
C5
330
1F
100
AcDbEntity
  8
NOTES
100
AcDbMText
 10
28.1946018955
 20
2.6539654269
 30
0.0
 40
0.25
 41
0.0
 71
     2
 72
     1
  1
1131-BLK CAD
  7
SLDTEXTSTYLE1
 73
     1
 44
1.0
  0
MTEXT
  5
C7
330
1F
100
AcDbEntity
  8
NOTES
100
AcDbMText
 10
19.9669034376
 20
2.6418171416
 30
0.0
 40
0.25
 41
0.0
 71
     2
 72
     1
  1
1131 - BLK
  7
SLDTEXTSTYLE3
 73
     1
 44
1.0
  0
INSERT
  5
CD
330
1F
100
AcDbEntity
  8
NOTES
100
AcDbBlockReference
  2
SW_NOTE_0
 10
24.266131557
 20
4.6105227838
 30
0.0
  0
INSERT
  5
D5
330
1F
100
AcDbEntity
  8
NOTES
100
AcDbBlockReference
  2
SW_NOTE_0_1
 10
10.6159726246
 20
5.1481526848
 30
0.0
  0
MTEXT
  5
D6
330
1F
100
AcDbEntity
  8
NOTES
100
AcDbMText
 10
13.5218566211
 20
3.2165267706
 30
0.0
 40
0.25
 41
0.0
 71
     2
 72
     1
  1
February 5, 2025
  7
SLDTEXTSTYLE1
 73
     1
 44
1.0
  0
MTEXT
  5
D7
330
1F
100
AcDbEntity
  8
TITLE
100
AcDbMText
 10
0.3276279776
 20
1.8943355692
 30
0.0
 40
0.125
 41
0.0
 71
     2
 72
     1
  1
A
  7
SLDTEXTSTYLE1
 73
     1
 44
1.0
  0
MTEXT
  5
D8
330
1F
100
AcDbEntity
  8
TITLE
100
AcDbMText
 10
33.6622736469
 20
1.8943355692
 30
0.0
 40
0.125
 41
0.0
 71
     2
 72
     1
  1
A
  7
SLDTEXTSTYLE1
 73
     1
 44
1.0
  0
MTEXT
  5
D9
330
1F
100
AcDbEntity
  8
TITLE
100
AcDbMText
 10
0.3317512413
 20
4.1915796637
 30
0.0
 40
0.125
 41
0.0
 71
     2
 72
     1
  1
B
  7
SLDTEXTSTYLE1
 73
     1
 44
1.0
  0
MTEXT
  5
DA
330
1F
100
AcDbEntity
  8
TITLE
100
AcDbMText
 10
33.6663969106
 20
4.1915796637
 30
0.0
 40
0.125
 41
0.0
 71
     2
 72
     1
  1
B
  7
SLDTEXTSTYLE1
 73
     1
 44
1.0
  0
MTEXT
  5
DB
330
1F
100
AcDbEntity
  8
TITLE
100
AcDbMText
 10
0.3313750817
 20
6.1600836007
 30
0.0
 40
0.125
 41
0.0
 71
     2
 72
     1
  1
C
  7
SLDTEXTSTYLE1
 73
     1
 44
1.0
  0
MTEXT
  5
DC
330
1F
100
AcDbEntity
  8
TITLE
100
AcDbMText
 10
33.666020751
 20
6.1600836007
 30
0.0
 40
0.125
 41
0.0
 71
     2
 72
     1
  1
C
  7
SLDTEXTSTYLE1
 73
     1
 44
1.0
  0
MTEXT
  5
DD
330
1F
100
AcDbEntity
  8
TITLE
100
AcDbMText
 10
0.3311870028
 20
8.1285875377
 30
0.0
 40
0.125
 41
0.0
 71
     2
 72
     1
  1
D
  7
SLDTEXTSTYLE1
 73
     1
 44
1.0
  0
MTEXT
  5
DE
330
1F
100
AcDbEntity
  8
TITLE
100
AcDbMText
 10
33.6658326721
 20
8.1285875377
 30
0.0
 40
0.125
 41
0.0
 71
     2
 72
     1
  1
D
  7
SLDTEXTSTYLE1
 73
     1
 44
1.0
  0
MTEXT
  5
DF
330
1F
100
AcDbEntity
  8
TITLE
100
AcDbMText
 10
0.332923116
 20
10.0970914747
 30
0.0
 40
0.125
 41
0.0
 71
     2
 72
     1
  1
E
  7
SLDTEXTSTYLE1
 73
     1
 44
1.0
  0
MTEXT
  5
E0
330
1F
100
AcDbEntity
  8
TITLE
100
AcDbMText
 10
33.6675687853
 20
10.0970914747
 30
0.0
 40
0.125
 41
0.0
 71
     2
 72
     1
  1
E
  7
SLDTEXTSTYLE1
 73
     1
 44
1.0
  0
MTEXT
  5
E1
330
1F
100
AcDbEntity
  8
TITLE
100
AcDbMText
 10
0.3313461474
 20
12.0655954117
 30
0.0
 40
0.125
 41
0.0
 71
     2
 72
     1
  1
F
  7
SLDTEXTSTYLE1
 73
     1
 44
1.0
  0
MTEXT
  5
E2
330
1F
100
AcDbEntity
  8
TITLE
100
AcDbMText
 10
33.6659918167
 20
12.0655954117
 30
0.0
 40
0.125
 41
0.0
 71
     2
 72
     1
  1
F
  7
SLDTEXTSTYLE1
 73
     1
 44
1.0
  0
MTEXT
  5
E3
330
1F
100
AcDbEntity
  8
TITLE
100
AcDbMText
 10
0.3322576054
 20
14.0340993488
 30
0.0
 40
0.125
 41
0.0
 71
     2
 72
     1
  1
G
  7
SLDTEXTSTYLE1
 73
     1
 44
1.0
  0
MTEXT
  5
E4
330
1F
100
AcDbEntity
  8
TITLE
100
AcDbMText
 10
33.6669032747
 20
14.0340993488
 30
0.0
 40
0.125
 41
0.0
 71
     2
 72
     1
  1
G
  7
SLDTEXTSTYLE1
 73
     1
 44
1.0
  0
MTEXT
  5
E5
330
1F
100
AcDbEntity
  8
TITLE
100
AcDbMText
 10
0.3323733457
 20
16.0026032858
 30
0.0
 40
0.125
 41
0.0
 71
     2
 72
     1
  1
H
  7
SLDTEXTSTYLE1
 73
     1
 44
1.0
  0
MTEXT
  5
E6
330
1F
100
AcDbEntity
  8
TITLE
100
AcDbMText
 10
33.667019015
 20
16.0026032858
 30
0.0
 40
0.125
 41
0.0
 71
     2
 72
     1
  1
H
  7
SLDTEXTSTYLE1
 73
     1
 44
1.0
  0
MTEXT
  5
E7
330
1F
100
AcDbEntity
  8
TITLE
100
AcDbMText
 10
0.3315776306
 20
17.9711072228
 30
0.0
 40
0.125
 41
0.0
 71
     2
 72
     1
  1
J
  7
SLDTEXTSTYLE1
 73
     1
 44
1.0
  0
MTEXT
  5
E8
330
1F
100
AcDbEntity
  8
TITLE
100
AcDbMText
 10
33.6662232999
 20
17.9711072228
 30
0.0
 40
0.125
 41
0.0
 71
     2
 72
     1
  1
J
  7
SLDTEXTSTYLE1
 73
     1
 44
1.0
  0
MTEXT
  5
E9
330
1F
100
AcDbEntity
  8
TITLE
100
AcDbMText
 10
0.3323154765
 20
20.2683513173
 30
0.0
 40
0.125
 41
0.0
 71
     2
 72
     1
  1
K
  7
SLDTEXTSTYLE1
 73
     1
 44
1.0
  0
MTEXT
  5
EA
330
1F
100
AcDbEntity
  8
TITLE
100
AcDbMText
 10
33.6669611458
 20
20.2683513173
 30
0.0
 40
0.125
 41
0.0
 71
     2
 72
     1
  1
K
  7
SLDTEXTSTYLE1
 73
     1
 44
1.0
  0
MTEXT
  5
EB
330
1F
100
AcDbEntity
  8
TITLE
100
AcDbMText
 10
1.8577188591
 20
0.4140206086
 30
0.0
 40
0.125
 41
0.0
 71
     2
 72
     1
  1
16
  7
SLDTEXTSTYLE1
 73
     1
 44
1.0
  0
MTEXT
  5
EC
330
1F
100
AcDbEntity
  8
TITLE
100
AcDbMText
 10
1.8577188591
 20
21.7486662779
 30
0.0
 40
0.125
 41
0.0
 71
     2
 72
     1
  1
16
  7
SLDTEXTSTYLE1
 73
     1
 44
1.0
  0
MTEXT
  5
ED
330
1F
100
AcDbEntity
  8
TITLE
100
AcDbMText
 10
4.2022070481
 20
0.4140206086
 30
0.0
 40
0.125
 41
0.0
 71
     2
 72
     1
  1
15
  7
SLDTEXTSTYLE1
 73
     1
 44
1.0
  0
MTEXT
  5
EE
330
1F
100
AcDbEntity
  8
TITLE
100
AcDbMText
 10
4.2022070481
 20
21.7486662779
 30
0.0
 40
0.125
 41
0.0
 71
     2
 72
     1
  1
15
  7
SLDTEXTSTYLE1
 73
     1
 44
1.0
  0
MTEXT
  5
EF
330
1F
100
AcDbEntity
  8
TITLE
100
AcDbMText
 10
6.1707109851
 20
0.4140206086
 30
0.0
 40
0.125
 41
0.0
 71
     2
 72
     1
  1
14
  7
SLDTEXTSTYLE1
 73
     1
 44
1.0
  0
MTEXT
  5
F0
330
1F
100
AcDbEntity
  8
TITLE
100
AcDbMText
 10
6.1707109851
 20
21.7486662779
 30
0.0
 40
0.125
 41
0.0
 71
     2
 72
     1
  1
14
  7
SLDTEXTSTYLE1
 73
     1
 44
1.0
  0
MTEXT
  5
F1
330
1F
100
AcDbEntity
  8
TITLE
100
AcDbMText
 10
8.1392149221
 20
0.4140206086
 30
0.0
 40
0.125
 41
0.0
 71
     2
 72
     1
  1
13
  7
SLDTEXTSTYLE1
 73
     1
 44
1.0
  0
MTEXT
  5
F2
330
1F
100
AcDbEntity
  8
TITLE
100
AcDbMText
 10
8.1392149221
 20
21.7486662779
 30
0.0
 40
0.125
 41
0.0
 71
     2
 72
     1
  1
13
  7
SLDTEXTSTYLE1
 73
     1
 44
1.0
  0
MTEXT
  5
F3
330
1F
100
AcDbEntity
  8
TITLE
100
AcDbMText
 10
10.1077188591
 20
0.4140206086
 30
0.0
 40
0.125
 41
0.0
 71
     2
 72
     1
  1
12
  7
SLDTEXTSTYLE1
 73
     1
 44
1.0
  0
MTEXT
  5
F4
330
1F
100
AcDbEntity
  8
TITLE
100
AcDbMText
 10
10.1077188591
 20
21.7486662779
 30
0.0
 40
0.125
 41
0.0
 71
     2
 72
     1
  1
12
  7
SLDTEXTSTYLE1
 73
     1
 44
1.0
  0
MTEXT
  5
F5
330
1F
100
AcDbEntity
  8
TITLE
100
AcDbMText
 10
12.0762227961
 20
0.4140206086
 30
0.0
 40
0.125
 41
0.0
 71
     2
 72
     1
  1
11
  7
SLDTEXTSTYLE1
 73
     1
 44
1.0
  0
MTEXT
  5
F6
330
1F
100
AcDbEntity
  8
TITLE
100
AcDbMText
 10
12.0762227961
 20
21.7486662779
 30
0.0
 40
0.125
 41
0.0
 71
     2
 72
     1
  1
11
  7
SLDTEXTSTYLE1
 73
     1
 44
1.0
  0
MTEXT
  5
F7
330
1F
100
AcDbEntity
  8
TITLE
100
AcDbMText
 10
14.0447267331
 20
0.4140206086
 30
0.0
 40
0.125
 41
0.0
 71
     2
 72
     1
  1
10
  7
SLDTEXTSTYLE1
 73
     1
 44
1.0
  0
MTEXT
  5
F8
330
1F
100
AcDbEntity
  8
TITLE
100
AcDbMText
 10
14.0447267331
 20
21.7486662779
 30
0.0
 40
0.125
 41
0.0
 71
     2
 72
     1
  1
10
  7
SLDTEXTSTYLE1
 73
     1
 44
1.0
  0
MTEXT
  5
F9
330
1F
100
AcDbEntity
  8
TITLE
100
AcDbMText
 10
16.0144893508
 20
0.4140206086
 30
0.0
 40
0.125
 41
0.0
 71
     2
 72
     1
  1
9
  7
SLDTEXTSTYLE1
 73
     1
 44
1.0
  0
MTEXT
  5
FA
330
1F
100
AcDbEntity
  8
TITLE
100
AcDbMText
 10
16.0144893508
 20
21.7486662779
 30
0.0
 40
0.125
 41
0.0
 71
     2
 72
     1
  1
9
  7
SLDTEXTSTYLE1
 73
     1
 44
1.0
  0
MTEXT
  5
FB
330
1F
100
AcDbEntity
  8
TITLE
100
AcDbMText
 10
17.9829932878
 20
0.4140206086
 30
0.0
 40
0.125
 41
0.0
 71
     2
 72
     1
  1
8
  7
SLDTEXTSTYLE1
 73
     1
 44
1.0
  0
MTEXT
  5
FC
330
1F
100
AcDbEntity
  8
TITLE
100
AcDbMText
 10
17.9829932878
 20
21.7486662779
 30
0.0
 40
0.125
 41
0.0
 71
     2
 72
     1
  1
8
  7
SLDTEXTSTYLE1
 73
     1
 44
1.0
  0
MTEXT
  5
FD
330
1F
100
AcDbEntity
  8
TITLE
100
AcDbMText
 10
19.9514972248
 20
0.4140206086
 30
0.0
 40
0.125
 41
0.0
 71
     2
 72
     1
  1
7
  7
SLDTEXTSTYLE1
 73
     1
 44
1.0
  0
MTEXT
  5
FE
330
1F
100
AcDbEntity
  8
TITLE
100
AcDbMText
 10
19.9514972248
 20
21.7486662779
 30
0.0
 40
0.125
 41
0.0
 71
     2
 72
     1
  1
7
  7
SLDTEXTSTYLE1
 73
     1
 44
1.0
  0
MTEXT
  5
FF
330
1F
100
AcDbEntity
  8
TITLE
100
AcDbMText
 10
21.9200011618
 20
0.4140206086
 30
0.0
 40
0.125
 41
0.0
 71
     2
 72
     1
  1
6
  7
SLDTEXTSTYLE1
 73
     1
 44
1.0
  0
MTEXT
  5
100
330
1F
100
AcDbEntity
  8
TITLE
100
AcDbMText
 10
21.9200011618
 20
21.7486662779
 30
0.0
 40
0.125
 41
0.0
 71
     2
 72
     1
  1
6
  7
SLDTEXTSTYLE1
 73
     1
 44
1.0
  0
MTEXT
  5
101
330
1F
100
AcDbEntity
  8
TITLE
100
AcDbMText
 10
23.8885050988
 20
0.4140206086
 30
0.0
 40
0.125
 41
0.0
 71
     2
 72
     1
  1
5
  7
SLDTEXTSTYLE1
 73
     1
 44
1.0
  0
MTEXT
  5
102
330
1F
100
AcDbEntity
  8
TITLE
100
AcDbMText
 10
23.8885050988
 20
21.7486662779
 30
0.0
 40
0.125
 41
0.0
 71
     2
 72
     1
  1
5
  7
SLDTEXTSTYLE1
 73
     1
 44
1.0
  0
MTEXT
  5
103
330
1F
100
AcDbEntity
  8
TITLE
100
AcDbMText
 10
25.8570090359
 20
0.4140206086
 30
0.0
 40
0.125
 41
0.0
 71
     2
 72
     1
  1
4
  7
SLDTEXTSTYLE1
 73
     1
 44
1.0
  0
MTEXT
  5
104
330
1F
100
AcDbEntity
  8
TITLE
100
AcDbMText
 10
25.8570090359
 20
21.7486662779
 30
0.0
 40
0.125
 41
0.0
 71
     2
 72
     1
  1
4
  7
SLDTEXTSTYLE1
 73
     1
 44
1.0
  0
MTEXT
  5
105
330
1F
100
AcDbEntity
  8
TITLE
100
AcDbMText
 10
27.8255129729
 20
0.4140206086
 30
0.0
 40
0.125
 41
0.0
 71
     2
 72
     1
  1
3
  7
SLDTEXTSTYLE1
 73
     1
 44
1.0
  0
MTEXT
  5
106
330
1F
100
AcDbEntity
  8
TITLE
100
AcDbMText
 10
27.8255129729
 20
21.7486662779
 30
0.0
 40
0.125
 41
0.0
 71
     2
 72
     1
  1
3
  7
SLDTEXTSTYLE1
 73
     1
 44
1.0
  0
MTEXT
  5
107
330
1F
100
AcDbEntity
  8
TITLE
100
AcDbMText
 10
29.7940169099
 20
0.4140206086
 30
0.0
 40
0.125
 41
0.0
 71
     2
 72
     1
  1
2
  7
SLDTEXTSTYLE1
 73
     1
 44
1.0
  0
MTEXT
  5
108
330
1F
100
AcDbEntity
  8
TITLE
100
AcDbMText
 10
29.7940169099
 20
21.7486662779
 30
0.0
 40
0.125
 41
0.0
 71
     2
 72
     1
  1
2
  7
SLDTEXTSTYLE1
 73
     1
 44
1.0
  0
MTEXT
  5
109
330
1F
100
AcDbEntity
  8
TITLE
100
AcDbMText
 10
32.1385050988
 20
0.4140206086
 30
0.0
 40
0.125
 41
0.0
 71
     2
 72
     1
  1
1
  7
SLDTEXTSTYLE1
 73
     1
 44
1.0
  0
MTEXT
  5
10A
330
1F
100
AcDbEntity
  8
TITLE
100
AcDbMText
 10
32.1385050988
 20
21.7486662779
 30
0.0
 40
0.125
 41
0.0
 71
     2
 72
     1
  1
1
  7
SLDTEXTSTYLE1
 73
     1
 44
1.0
  0
LINE
  5
10B
330
1F
100
AcDbEntity
  8
0
  6
Continuous
 62
     7
370
    25
100
AcDbLine
 10
3.111439018
 20
8.9939954493
 30
0.0
 11
3.299439018
 21
8.9939954493
 31
0.0
  0
LINE
  5
10C
330
1F
100
AcDbEntity
  8
0
  6
Continuous
 62
     7
370
    25
100
AcDbLine
 10
3.299439018
 20
9.9919954493
 30
0.0
 11
3.111439018
 21
9.9919954493
 31
0.0
  0
LINE
  5
10D
330
1F
100
AcDbEntity
  8
0
  6
Continuous
 62
     7
370
    25
100
AcDbLine
 10
8.473939018
 20
9.8754954493
 30
0.0
 11
3.299439018
 21
9.8754954493
 31
0.0
  0
LINE
  5
10E
330
1F
100
AcDbEntity
  8
0
  6
Continuous
 62
     7
370
    25
100
AcDbLine
 10
9.481439018
 20
9.8754954493
 30
0.0
 11
8.473939018
 21
9.8754954493
 31
0.0
  0
LINE
  5
10F
330
1F
100
AcDbEntity
  8
0
  6
Continuous
 62
     7
370
    25
100
AcDbLine
 10
8.473939018
 20
9.1104954493
 30
0.0
 11
9.481439018
 21
9.1104954493
 31
0.0
  0
LINE
  5
110
330
1F
100
AcDbEntity
  8
0
  6
Continuous
 62
     7
370
    25
100
AcDbLine
 10
3.299439018
 20
9.1104954493
 30
0.0
 11
8.473939018
 21
9.1104954493
 31
0.0
  0
LINE
  5
111
330
1F
100
AcDbEntity
  8
0
  6
Continuous
 62
     7
370
    25
100
AcDbLine
 10
3.299439018
 20
8.9939954493
 30
0.0
 11
3.299439018
 21
9.9919954493
 31
0.0
  0
LINE
  5
112
330
1F
100
AcDbEntity
  8
0
  6
Continuous
 62
     7
370
    25
100
AcDbLine
 10
3.111439018
 20
8.9939954493
 30
0.0
 11
3.111439018
 21
9.9919954493
 31
0.0
  0
LINE
  5
113
330
1F
100
AcDbEntity
  8
0
  6
Continuous
 62
     7
370
    25
100
AcDbLine
 10
9.481439018
 20
9.1104954493
 30
0.0
 11
9.481439018
 21
9.8754954493
 31
0.0
  0
ARC
  5
114
330
1F
100
AcDbEntity
  8
0
  6
Continuous
 62
     7
370
    25
100
AcDbCircle
 10
8.473939018
 20
9.4929954493
 30
0.0
 40
1.015625000000001
100
AcDbArc
 50
202.1241887091
 51
337.8758112909
  0
ARC
  5
115
330
1F
100
AcDbEntity
  8
0
  6
Continuous
 62
     7
370
    25
100
AcDbCircle
 10
8.473939018
 20
9.4929954493
 30
0.0
 40
1.015625000000002
100
AcDbArc
 50
352.7477531349
 51
7.2522468651
  0
ARC
  5
116
330
1F
100
AcDbEntity
  8
0
  6
Continuous
 62
     7
370
    25
100
AcDbCircle
 10
8.473939018
 20
9.4929954493
 30
0.0
 40
1.015625000000002
100
AcDbArc
 50
22.1241887091
 51
157.8758112909
  0
DIMENSION
  5
117
330
1F
100
AcDbEntity
  8
DIMS
100
AcDbDimension
  2
_D
 10
3.111439018
 20
7.3731332445
 30
0.0
 11
6.1219041118
 21
7.3731332445
 31
0.0
 70
   160
  1
<>
 71
     2
 42
-1.0
  3
SLDDIMSTYLE0
100
AcDbAlignedDimension
 13
9.481439018
 23
9.1104954493
 33
0.0
 14
3.111439018
 24
8.9939954493
 34
0.0
 50
0.0
100
AcDbRotatedDimension
  0
DIMENSION
  5
12D
330
1F
100
AcDbEntity
  8
DIMS
100
AcDbDimension
  2
_D_1
 10
2.0090768132
 20
9.9919954493
 30
0.0
 11
2.0090768132
 21
9.5028599221
 31
0.0
 70
   160
  1
%%c<>
 71
     2
 42
-1.0
  3
SLDDIMSTYLE1
100
AcDbAlignedDimension
 13
3.111439018
 23
8.9939954493
 33
0.0
 14
3.111439018
 24
9.9919954493
 34
0.0
 50
90.0
100
AcDbRotatedDimension
  0
MTEXT
  5
13A
330
1F
100
AcDbEntity
  8
NOTES
100
AcDbMText
 10
3.3398071179
 20
8.6593944459
 30
0.0
 40
0.5
 41
0.0
 71
     1
 72
     1
  1
Front view
  7
SLDTEXTSTYLE0
 73
     1
 44
1.0
  0
LINE
  5
13B
330
1F
100
AcDbEntity
  8
0
  6
Continuous
 62
     7
370
    25
100
AcDbLine
 10
16.1075305485
 20
16.9526786105
 30
0.0
 11
12.6398409669
 21
18.9545331953
 31
0.0
  0
LINE
  5
13C
330
1F
100
AcDbEntity
  8
0
  6
Continuous
 62
     7
370
    25
100
AcDbLine
 10
17.0111750881
 20
16.4310157216
 30
0.0
 11
16.4899994637
 21
16.7318840055
 31
0.0
  0
LINE
  5
13D
330
1F
100
AcDbEntity
  8
0
  6
Continuous
 62
     7
370
    25
100
AcDbLine
 10
12.2573720516
 20
18.2920058156
 30
0.0
 11
16.6287061729
 21
15.7684883419
 31
0.0
  0
LINE
  5
13E
330
1F
100
AcDbEntity
  8
0
  6
Continuous
 62
     7
370
    25
100
AcDbLine
 10
17.594614036
 20
17.8111536347
 30
0.0
 11
16.1075305485
 21
16.9526786105
 31
0.0
  0
LINE
  5
13F
330
1F
100
AcDbEntity
  8
0
  6
Continuous
 62
     7
370
    25
100
AcDbLine
 10
16.8725927231
 20
16.5110176181
 30
0.0
 11
17.9770829512
 21
17.1486262549
 31
0.0
  0
LINE
  5
140
330
1F
100
AcDbEntity
  8
0
  6
Continuous
 62
     7
370
    25
100
AcDbLine
 10
17.5686981493
 20
18.5272426876
 30
0.0
 11
17.2780772622
 21
18.3594708207
 31
0.0
  0
LINE
  5
141
330
1F
100
AcDbEntity
  8
0
  6
Continuous
 62
     7
370
    25
100
AcDbLine
 10
18.293619725
 20
16.600309069
 30
0.0
 11
18.5842406121
 21
16.7680809359
 31
0.0
  0
LINE
  5
142
330
1F
100
AcDbEntity
  8
0
  6
Continuous
 62
     7
370
    25
100
AcDbLine
 10
12.0661907106
 20
18.2678534856
 30
0.0
 11
12.1991267854
 21
18.1911111231
 31
0.0
  0
LINE
  5
143
330
1F
100
AcDbEntity
  8
0
  6
Continuous
 62
     7
370
    25
100
AcDbLine
 10
12.698086233
 20
19.0554278877
 30
0.0
 11
12.5651501582
 21
19.1321702503
 31
0.0
  0
LWPOLYLINE
  5
144
330
1F
100
AcDbEntity
  8
0
  6
Continuous
 62
     7
370
    25
100
AcDbPolyline
 90
       11
 70
   128
 43
0.0
 10
18.6830786106
 20
17.2229765171
 10
18.6812293592
 20
17.2043219764
 10
18.6757890767
 20
17.1846164695
 10
18.6670739326
 20
17.1650052089
 10
18.6555904194
 20
17.1466279299
 10
18.6420059171
 20
17.1305526529
 10
18.6271099077
 20
17.1177136147
 10
18.6117680929
 20
17.1088569736
 10
18.5968720835
 20
17.1044974453
 10
18.5832875812
 20
17.1048883898
 10
18.5793389337
 20
17.1060245941
  0
ARC
  5
145
330
1F
100
AcDbEntity
  8
0
  6
Continuous
 62
     7
370
    25
100
AcDbCircle
 10
18.6397387511
 20
17.2281883191
 30
0.0
 40
0.0436521053362398
100
AcDbArc
 50
353.1428667726
 51
55.5449528341
  0
LINE
  5
146
330
1F
100
AcDbEntity
  8
0
  6
Continuous
 62
     7
370
    25
100
AcDbLine
 10
18.5912496183
 20
17.1409482484
 30
0.0
 11
18.6271055203
 21
17.1479647709
 31
0.0
  0
LINE
  5
147
330
1F
100
AcDbEntity
  8
0
  6
Continuous
 62
     7
370
    25
100
AcDbLine
 10
18.6271055203
 20
17.1479647709
 30
0.0
 11
18.6552949023
 21
17.1932546745
 31
0.0
  0
LINE
  5
148
330
1F
100
AcDbEntity
  8
0
  6
Continuous
 62
     7
370
    25
100
AcDbLine
 10
18.6552949023
 20
17.1932546745
 30
0.0
 11
18.6476283823
 21
17.2315280558
 31
0.0
  0
LINE
  5
149
330
1F
100
AcDbEntity
  8
0
  6
Continuous
 62
     7
370
    25
100
AcDbLine
 10
18.6476283823
 20
17.2315280558
 30
0.0
 11
18.6117724803
 21
17.2245115333
 31
0.0
  0
LINE
  5
14A
330
1F
100
AcDbEntity
  8
0
  6
Continuous
 62
     7
370
    25
100
AcDbLine
 10
18.6117724803
 20
17.2245115333
 30
0.0
 11
18.5835830983
 21
17.1792216296
 31
0.0
  0
LINE
  5
14B
330
1F
100
AcDbEntity
  8
0
  6
Continuous
 62
     7
370
    25
100
AcDbLine
 10
18.5835830983
 20
17.1792216296
 30
0.0
 11
18.5912496183
 21
17.1409482484
 31
0.0
  0
LINE
  5
14C
330
1F
100
AcDbEntity
  8
0
  6
Continuous
 62
     7
370
    25
100
AcDbLine
 10
18.5849719807
 20
17.1722879455
 30
0.0
 11
18.6271055203
 21
17.1479647709
 31
0.0
  0
LINE
  5
14D
330
1F
100
AcDbEntity
  8
0
  6
Continuous
 62
     7
370
    25
100
AcDbLine
 10
18.6089647282
 20
17.2200005148
 30
0.0
 11
18.6552949023
 21
17.1932546745
 31
0.0
  0
LWPOLYLINE
  5
14E
330
1F
100
AcDbEntity
  8
0
  6
Continuous
 62
     7
370
    25
100
AcDbPolyline
 90
       29
 70
   128
 43
0.0
 10
12.2573720516
 20
18.2920058156
 10
12.2414157374
 20
18.3029009827
 10
12.2226335046
 20
18.3211916526
 10
12.206907169
 20
18.3435674073
 10
12.1944494024
 20
18.3697256531
 10
12.1854286746
 20
18.3993126445
 10
12.1799669756
 20
18.4319282683
 10
12.1781381654
 20
18.467131454
 10
12.1799669756
 20
18.5044461391
 10
12.1854286746
 20
18.5433677063
 10
12.1944494024
 20
18.5833698083
 10
12.206907169
 20
18.6239114853
 10
12.2226335046
 20
18.6644444805
 10
12.2414157374
 20
18.7044206549
 10
12.26299987
 20
18.7432993992
 10
12.2870940139
 20
18.7805549451
 10
12.3133723373
 20
18.8156834752
 10
12.3414794709
 20
18.8482099365
 10
12.3710353139
 20
18.8776944643
 10
12.4016401742
 20
18.9037383311
 10
12.4328801737
 20
18.9259893381
 10
12.4643328448
 20
18.9441465786
 10
12.4955728443
 20
18.9579645072
 10
12.5261777046
 20
18.9672562601
 10
12.5557335476
 20
18.9718961822
 10
12.5838406811
 20
18.9718215266
 10
12.6101190045
 20
18.9670333029
 10
12.6342131485
 20
18.9575962634
 10
12.6398409669
 20
18.9545331953
  0
LINE
  5
14F
330
1F
100
AcDbEntity
  8
0
  6
Continuous
 62
     7
370
    25
100
AcDbLine
 10
16.1075305485
 20
16.8233444786
 30
0.0
 11
16.1075305485
 21
16.9526786105
 31
0.0
  0
ELLIPSE
  5
150
330
1F
100
AcDbEntity
  8
0
  6
Continuous
 62
     7
370
    25
100
AcDbEllipse
 10
16.1075305485
 20
16.5110176181
 30
0.0
 11
0.540936687607708
 21
0.0
 31
0.0
210
0.0
220
0.0
230
1.0
 40
0.5773815452
 41
0.7854794274595517
 42
1.570796326794897
  0
LWPOLYLINE
  5
151
330
1F
100
AcDbEntity
  8
0
  6
Continuous
 62
     7
370
    25
100
AcDbPolyline
 90
       55
 70
   128
 43
0.0
 10
17.0904089743
 20
16.2558900832
 10
17.0885801641
 20
16.2185753981
 10
17.0831184651
 20
16.1796538309
 10
17.0740977374
 20
16.1396517289
 10
17.0616399707
 20
16.0991100519
 10
17.0459136352
 20
16.0585770566
 10
17.0271314023
 20
16.0186008823
 10
17.0055472698
 20
15.979722138
 10
16.9814531258
 20
15.9424665921
 10
16.9551748024
 20
15.9073380619
 10
16.9270676689
 20
15.8748116007
 10
16.8975118259
 20
15.8453270728
 10
16.8669069655
 20
15.8192832061
 10
16.8356669661
 20
15.7970321991
 10
16.804214295
 20
15.7788749586
 10
16.7729742955
 20
15.7650570299
 10
16.7423694352
 20
15.7557652771
 10
16.7128135922
 20
15.7511253549
 10
16.6847064586
 20
15.7512000106
 10
16.6584281352
 20
15.7559882343
 10
16.6343339913
 20
15.7654252737
 10
16.6127498587
 20
15.779383509
 10
16.5939676259
 20
15.797674179
 10
16.5782412903
 20
15.8200499337
 10
16.5657835237
 20
15.8462081795
 10
16.5567627959
 20
15.8757951709
 10
16.5513010969
 20
15.9084107946
 10
16.5494722867
 20
15.9436139804
 10
16.5513010969
 20
15.9809286654
 10
16.5567627959
 20
16.0198502327
 10
16.5657835237
 20
16.0598523347
 10
16.5782412903
 20
16.1003940116
 10
16.5939676259
 20
16.1409270069
 10
16.6127498587
 20
16.1809031813
 10
16.6343339913
 20
16.2197819256
 10
16.6584281352
 20
16.2570374715
 10
16.6847064586
 20
16.2921660016
 10
16.7128135922
 20
16.3246924629
 10
16.7423694352
 20
16.3541769907
 10
16.7729742955
 20
16.3802208574
 10
16.804214295
 20
16.4024718644
 10
16.8356669661
 20
16.420629105
 10
16.8669069655
 20
16.4344470336
 10
16.8975118259
 20
16.4437387865
 10
16.9270676689
 20
16.4483787086
 10
16.9551748024
 20
16.448304053
 10
16.9814531258
 20
16.4435158292
 10
17.0055472698
 20
16.4340787898
 10
17.0271314023
 20
16.4201205545
 10
17.0459136352
 20
16.4018298846
 10
17.0616399707
 20
16.3794541299
 10
17.0740977374
 20
16.3532958841
 10
17.0831184651
 20
16.3237088927
 10
17.0885801641
 20
16.2910932689
 10
17.0904089743
 20
16.2558900832
  0
LWPOLYLINE
  5
152
330
1F
100
AcDbEntity
  8
0
  6
Continuous
 62
     7
370
    25
100
AcDbPolyline
 90
       29
 70
   128
 43
0.0
 10
17.594614036
 20
17.8111536347
 10
17.6002418544
 20
17.8142167028
 10
17.6243359983
 20
17.8236537422
 10
17.6506143217
 20
17.828441966
 10
17.6787214553
 20
17.8285166216
 10
17.7082772983
 20
17.8238766995
 10
17.7388821586
 20
17.8145849466
 10
17.7701221581
 20
17.800767018
 10
17.8015748292
 20
17.7826097775
 10
17.8328148286
 20
17.7603587705
 10
17.863419689
 20
17.7343149037
 10
17.892975532
 20
17.7048303759
 10
17.9210826655
 20
17.6723039146
 10
17.9473609889
 20
17.6371753845
 10
17.9714551329
 20
17.5999198386
 10
17.9930392654
 20
17.5610410943
 10
18.0118214983
 20
17.5210649199
 10
18.0275478338
 20
17.4805319247
 10
18.0400056005
 20
17.4399902477
 10
18.0490263282
 20
17.3999881457
 10
18.0544880273
 20
17.3610665785
 10
18.0563168374
 20
17.3237518934
 10
18.0544880273
 20
17.2885487077
 10
18.0490263282
 20
17.2559330839
 10
18.0400056005
 20
17.2263460925
 10
18.0275478338
 20
17.2001878467
 10
18.0118214983
 20
17.177812092
 10
17.9930392654
 20
17.1595214221
 10
17.9770829512
 20
17.1486262549
  0
LWPOLYLINE
  5
153
330
1F
100
AcDbEntity
  8
0
  6
Continuous
 62
     7
370
    25
100
AcDbPolyline
 90
       46
 70
   128
 43
0.0
 10
18.5842406121
 20
16.7680809359
 10
18.5842818807
 20
16.7681047636
 10
18.6192149616
 20
16.7912659337
 10
18.6513823355
 20
16.8187911009
 10
18.6806200847
 20
16.8505400032
 10
18.7067792204
 20
16.8863508555
 10
18.7297264416
 20
16.9260411739
 10
18.7493448146
 20
16.9694087058
 10
18.7655343687
 20
17.0162324599
 10
18.7782126055
 20
17.0662738333
 10
18.7873149196
 20
17.1192778266
 10
18.7927949279
 20
17.1749743436
 10
18.7946247053
 20
17.2330795675
 10
18.7927949279
 20
17.2932974075
 10
18.7873149196
 20
17.3553210073
 10
18.7782126055
 20
17.4188343089
 10
18.7655343687
 20
17.4835136629
 10
18.7493448146
 20
17.5490294783
 10
18.7297264416
 20
17.6150479014
 10
18.7067792204
 20
17.6812325176
 10
18.6806200847
 20
17.7472460651
 10
18.6513823355
 20
17.8127521541
 10
18.6192149616
 20
17.8774169806
 10
18.5842818807
 20
17.9409110273
 10
18.5467611037
 20
18.0029107433
 10
18.5068438278
 20
18.0631001922
 10
18.4647334625
 20
18.1211726623
 10
18.4206445923
 20
18.1768322297
 10
18.3748018842
 20
18.2297952659
 10
18.327438942
 20
18.2797918835
 10
18.2787971165
 20
18.3265673111
 10
18.2291242752
 20
18.3698831919
 10
18.1786735396
 20
18.4095187981
 10
18.127701995
 20
18.4452721557
 10
18.0764693807
 20
18.4769610739
 10
18.0252367664
 20
18.5044240731
 10
17.9742652218
 20
18.5275212082
 10
17.9238144862
 20
18.5461347815
 10
17.8741416449
 20
18.5601699425
 10
17.8254998193
 20
18.5695551712
 10
17.7781368772
 20
18.5742426427
 10
17.7322941691
 20
18.5742084707
 10
17.6882052989
 20
18.5694528292
 10
17.6460949336
 20
18.5599999521
 10
17.6061776577
 20
18.5458980089
 10
17.5686981493
 20
18.5272426876
  0
ARC
  5
154
330
1F
100
AcDbEntity
  8
0
  6
Continuous
 62
     7
370
    25
100
AcDbCircle
 10
18.315293685
 20
17.9110000309
 30
0.0
 40
1.24770998918063
100
AcDbArc
 50
180.7589931021
 51
197.3192287564
  0
LWPOLYLINE
  5
155
330
1F
100
AcDbEntity
  8
0
  6
Continuous
 62
     7
370
    25
100
AcDbPolyline
 90
       74
 70
   128
 43
0.0
 10
17.5066226026
 20
16.8770352767
 10
17.5348789323
 20
16.8477598731
 10
17.5835207578
 20
16.8009844455
 10
17.6331935991
 20
16.7576685647
 10
17.6836443347
 20
16.7180329585
 10
17.7346158794
 20
16.6822796009
 10
17.7858484936
 20
16.6505906827
 10
17.8370811079
 20
16.6231276835
 10
17.8880526525
 20
16.6000305484
 10
17.9385033882
 20
16.5814169751
 10
17.9881762295
 20
16.5673818141
 10
18.036818055
 20
16.5579965854
 10
18.0841809972
 20
16.5533091139
 10
18.1300237053
 20
16.5533432859
 10
18.1741125754
 20
16.5580989274
 10
18.2162229408
 20
16.5675518045
 10
18.2561402166
 20
16.5816537477
 10
18.2936609936
 20
16.6003328967
 10
18.3285940745
 20
16.6234940667
 10
18.3607614484
 20
16.6510192339
 10
18.3899991976
 20
16.6827681362
 10
18.4161583333
 20
16.7185789885
 10
18.4391055546
 20
16.758269307
 10
18.4587239276
 20
16.8016368388
 10
18.4749134816
 20
16.8484605929
 10
18.4875917184
 20
16.8985019663
 10
18.4966940326
 20
16.9515059596
 10
18.5021740408
 20
17.0072024766
 10
18.5040038183
 20
17.0653077005
 10
18.5021740408
 20
17.1255255405
 10
18.4966940326
 20
17.1875491404
 10
18.4875917184
 20
17.2510624419
 10
18.4749134816
 20
17.3157417959
 10
18.4587239276
 20
17.3812576113
 10
18.4391055546
 20
17.4472760344
 10
18.4161583333
 20
17.5134606506
 10
18.3899991976
 20
17.5794741981
 10
18.3607614484
 20
17.6449802871
 10
18.3285940745
 20
17.7096451136
 10
18.2936609936
 20
17.7731391604
 10
18.2561402166
 20
17.8351388764
 10
18.2162229408
 20
17.8953283252
 10
18.1741125754
 20
17.9534007953
 10
18.1300237053
 20
18.0090603627
 10
18.0841809972
 20
18.0620233989
 10
18.036818055
 20
18.1120200165
 10
17.9881762295
 20
18.1587954441
 10
17.9385033882
 20
18.2021113249
 10
17.8880526525
 20
18.2417469311
 10
17.8370811079
 20
18.2775002887
 10
17.7858484936
 20
18.3091892069
 10
17.7346158794
 20
18.3366522061
 10
17.6836443347
 20
18.3597493412
 10
17.6331935991
 20
18.3783629145
 10
17.5835207578
 20
18.3923980755
 10
17.5348789323
 20
18.4017833042
 10
17.4875159901
 20
18.4064707757
 10
17.441673282
 20
18.4064366037
 10
17.3975844119
 20
18.4016809623
 10
17.3554740465
 20
18.3922280851
 10
17.3155567706
 20
18.3781261419
 10
17.2780359936
 20
18.3594469929
 10
17.2431029127
 20
18.3362858229
 10
17.2109355389
 20
18.3087606557
 10
17.1816977897
 20
18.2770117534
 10
17.1555386539
 20
18.2412009011
 10
17.1325914327
 20
18.2015105827
 10
17.1129730597
 20
18.1581430508
 10
17.0967835057
 20
18.1113192967
 10
17.0841052689
 20
18.0612779233
 10
17.0750029547
 20
18.00827393
 10
17.0695229464
 20
17.952577413
 10
17.067693169
 20
17.8944721891
 10
17.067693169
 20
17.8944721891
  0
LWPOLYLINE
  5
156
330
1F
100
AcDbEntity
  8
0
  6
Continuous
 62
     7
370
    25
100
AcDbPolyline
 90
       33
 70
   128
 43
0.0
 10
18.5732761207
 20
17.1052977495
 10
18.5748236055
 20
17.1286193415
 10
18.579397076
 20
17.1532427962
 10
18.5869407796
 20
17.1784258181
 10
18.5972350005
 20
17.2029437822
 10
18.6100459784
 20
17.2258506881
 10
18.6250881052
 20
17.2462595508
 10
18.6417881888
 20
17.263159489
 10
18.6597749911
 20
17.2760241964
 10
18.6781845029
 20
17.284185936
 10
18.6964202846
 20
17.2874265264
 10
18.7136295043
 20
17.2856433345
 10
18.728981797
 20
17.2790185465
 10
18.7418751252
 20
17.2678255042
 10
18.7515427442
 20
17.2526907876
 10
18.7576062049
 20
17.2340375396
 10
18.759647016
 20
17.2127617684
 10
18.7575858274
 20
17.1898488053
 10
18.7515310229
 20
17.165958606
 10
18.7418116696
 20
17.1420627171
 10
18.7289710438
 20
17.1190622743
 10
18.7135363928
 20
17.0975679938
 10
18.6963984652
 20
17.0785293148
 10
18.6781428051
 20
17.0623913994
 10
18.6597117519
 20
17.049885321
 10
18.6417812223
 20
17.0414219228
 10
18.6249968361
 20
17.0373520891
 10
18.6100355237
 20
17.0378844013
 10
18.597185637
 20
17.043070721
 10
18.5869188216
 20
17.0527456888
 10
18.5793897902
 20
17.0666989613
 10
18.5748084985
 20
17.0844490594
 10
18.5732761207
 20
17.1052977495
  0
LWPOLYLINE
  5
157
330
1F
100
AcDbEntity
  8
0
  6
Continuous
 62
     7
370
    25
100
AcDbPolyline
 90
       13
 70
   128
 43
0.0
 10
18.573938022
 20
17.1152730283
 10
18.5836694047
 20
17.1029672959
 10
18.6020243347
 20
17.1002365329
 10
18.6254659314
 20
17.1092342315
 10
18.6507855703
 20
17.1283603007
 10
18.6736680883
 20
17.1548689731
 10
18.6897109622
 20
17.1853252641
 10
18.6955180298
 20
17.21571369
 10
18.6940563294
 20
17.2295531963
 10
18.6897206998
 20
17.2417026206
 10
18.6736898901
 20
17.2588400135
 10
18.6507966195
 20
17.264153448
 10
18.6391748552
 20
17.2605148809
  0
LWPOLYLINE
  5
158
330
1F
100
AcDbEntity
  8
0
  6
Continuous
 62
     7
370
    25
100
AcDbPolyline
 90
       33
 70
   128
 43
0.0
 10
12.0661907106
 20
18.2678534856
 10
12.0479454505
 20
18.2800532888
 10
12.0260671043
 20
18.3000619818
 10
12.0071604801
 20
18.3241747019
 10
11.9914195856
 20
18.3521440199
 10
11.9790059435
 20
18.3836829327
 10
11.9700469347
 20
18.4184678085
 10
11.9646344907
 20
18.4561417073
 10
11.9628241506
 20
18.496318044
 10
11.9646344907
 20
18.538584555
 10
11.9700469347
 20
18.5825075286
 10
11.9790059435
 20
18.6276362558
 10
11.9914195856
 20
18.6735076547
 10
12.0071604801
 20
18.7196510227
 10
12.0260671043
 20
18.7655928663
 10
12.0479454505
 20
18.8108617602
 10
12.0725710173
 20
18.8549931842
 10
12.0996911131
 20
18.8975342902
 10
12.1290274491
 20
18.9380485488
 10
12.1602789946
 20
18.976120229
 10
12.1931250666
 20
19.0113586637
 10
12.2272286198
 20
19.043402259
 10
12.2622397058
 20
19.0719222042
 10
12.2977990634
 20
19.0966258461
 10
12.3335418054
 20
19.1172596918
 10
12.3691011629
 20
19.1336120103
 10
12.4041122489
 20
19.1455150045
 10
12.4382158022
 20
19.1528465337
 10
12.4710618742
 20
19.1555313665
 10
12.5023134197
 20
19.1535419527
 10
12.5316497556
 20
19.1468987066
 10
12.5587698514
 20
19.1356697968
 10
12.5651501582
 20
19.1321702503
  0
LWPOLYLINE
  5
159
330
1F
100
AcDbEntity
  8
0
  6
Continuous
 62
     7
370
    25
100
AcDbPolyline
 90
       47
 70
   128
 43
0.0
 10
12.41761518
 20
18.1994994266
 10
12.3951757807
 20
18.1896693631
 10
12.3601646947
 20
18.1777663688
 10
12.3260611414
 20
18.1704348396
 10
12.2932150694
 20
18.1677500069
 10
12.2619635239
 20
18.1697394206
 10
12.232627188
 20
18.1763826667
 10
12.2055070922
 20
18.1876115766
 10
12.1808815253
 20
18.2033109263
 10
12.1590031791
 20
18.2233196193
 10
12.140096555
 20
18.2474323394
 10
12.1243556604
 20
18.2754016574
 10
12.1119420184
 20
18.3069405702
 10
12.1029830096
 20
18.341725446
 10
12.0975705656
 20
18.3793993448
 10
12.0957602254
 20
18.4195756815
 10
12.0975705656
 20
18.4618421925
 10
12.1029830096
 20
18.5057651661
 10
12.1119420184
 20
18.5508938933
 10
12.1243556604
 20
18.5967652922
 10
12.140096555
 20
18.6429086601
 10
12.1590031791
 20
18.6888505038
 10
12.1808815253
 20
18.7341193977
 10
12.2055070922
 20
18.7782508217
 10
12.232627188
 20
18.8207919277
 10
12.2619635239
 20
18.8613061863
 10
12.2932150694
 20
18.8993778664
 10
12.3260611414
 20
18.9346163012
 10
12.3601646947
 20
18.9666598965
 10
12.3951757807
 20
18.9951798417
 10
12.4307351382
 20
19.0198834836
 10
12.4664778802
 20
19.0405173293
 10
12.5020372378
 20
19.0568696478
 10
12.5370483238
 20
19.068772642
 10
12.571151877
 20
19.0761041712
 10
12.603997949
 20
19.0787890039
 10
12.6352494945
 20
19.0767995902
 10
12.6645858305
 20
19.0701563441
 10
12.6917059263
 20
19.0589274343
 10
12.7163314931
 20
19.0432280846
 10
12.7382098394
 20
19.0232193915
 10
12.7571164635
 20
18.9991066715
 10
12.772857358
 20
18.9711373535
 10
12.7852710001
 20
18.9395984406
 10
12.7942300089
 20
18.9048135648
 10
12.7996424529
 20
18.867139666
 10
12.8000840952
 20
18.8620268063
  0
INSERT
  5
15F
330
1F
100
AcDbEntity
  8
NOTES
100
AcDbBlockReference
  2
SW_NOTE_0_2
 10
12.1474633986
 20
15.0152177418
 30
0.0
  0
LINE
  5
160
330
1F
100
AcDbEntity
  8
0
  6
Continuous
 62
     7
370
    25
100
AcDbLine
 10
7.458314018
 20
18.1144443231
 30
0.0
 11
7.458314018
 21
17.7034443231
 31
0.0
  0
LINE
  5
161
330
1F
100
AcDbEntity
  8
0
  6
Continuous
 62
     7
370
    25
100
AcDbLine
 10
9.489564018
 20
18.0649640874
 30
0.0
 11
9.489564018
 21
18.1144443231
 31
0.0
  0
LINE
  5
162
330
1F
100
AcDbEntity
  8
0
  6
Continuous
 62
     7
370
    25
100
AcDbLine
 10
9.489564018
 20
17.7034443231
 30
0.0
 11
9.489564018
 21
17.8014101527
 31
0.0
  0
LINE
  5
163
330
1F
100
AcDbEntity
  8
0
  6
Continuous
 62
     7
370
    25
100
AcDbLine
 10
3.111439018
 20
14.8309443231
 30
0.0
 11
3.299439018
 21
14.8309443231
 31
0.0
  0
LINE
  5
164
330
1F
100
AcDbEntity
  8
0
  6
Continuous
 62
     7
370
    25
100
AcDbLine
 10
3.299439018
 20
15.8289443231
 30
0.0
 11
3.111439018
 21
15.8289443231
 31
0.0
  0
LINE
  5
165
330
1F
100
AcDbEntity
  8
0
  6
Continuous
 62
     7
370
    25
100
AcDbLine
 10
8.091439018
 20
17.7034443231
 30
0.0
 11
8.091439018
 21
15.7124443231
 31
0.0
  0
LINE
  5
166
330
1F
100
AcDbEntity
  8
0
  6
Continuous
 62
     7
370
    25
100
AcDbLine
 10
8.856439018
 20
15.7124443231
 30
0.0
 11
8.856439018
 21
17.7034443231
 31
0.0
  0
LINE
  5
167
330
1F
100
AcDbEntity
  8
0
  6
Continuous
 62
     7
370
    25
100
AcDbLine
 10
8.091439018
 20
15.7124443231
 30
0.0
 11
3.299439018
 21
15.7124443231
 31
0.0
  0
LINE
  5
168
330
1F
100
AcDbEntity
  8
0
  6
Continuous
 62
     7
370
    25
100
AcDbLine
 10
9.481439018
 20
15.7124443231
 30
0.0
 11
8.856439018
 21
15.7124443231
 31
0.0
  0
LINE
  5
169
330
1F
100
AcDbEntity
  8
0
  6
Continuous
 62
     7
370
    25
100
AcDbLine
 10
3.299439018
 20
14.9474443231
 30
0.0
 11
9.481439018
 21
14.9474443231
 31
0.0
  0
LINE
  5
16A
330
1F
100
AcDbEntity
  8
0
  6
Continuous
 62
     7
370
    25
100
AcDbLine
 10
9.489564018
 20
18.1144443231
 30
0.0
 11
7.458314018
 21
18.1144443231
 31
0.0
  0
LINE
  5
16B
330
1F
100
AcDbEntity
  8
0
  6
Continuous
 62
     7
370
    25
100
AcDbLine
 10
9.489564018
 20
17.7034443231
 30
0.0
 11
7.458314018
 21
17.7034443231
 31
0.0
  0
ARC
  5
16C
330
1F
100
AcDbEntity
  8
0
  6
Continuous
 62
     7
370
    25
100
AcDbCircle
 10
10.4037084981
 20
17.9331871201
 30
0.0
 40
0.9235936875147859
100
AcDbArc
 50
171.7971303738
 51
188.2028696262
  0
LINE
  5
16D
330
1F
100
AcDbEntity
  8
0
  6
Continuous
 62
     7
370
    25
100
AcDbLine
 10
3.111439018
 20
14.8309443231
 30
0.0
 11
3.111439018
 21
15.8289443231
 31
0.0
  0
LINE
  5
16E
330
1F
100
AcDbEntity
  8
0
  6
Continuous
 62
     7
370
    25
100
AcDbLine
 10
3.299439018
 20
14.8309443231
 30
0.0
 11
3.299439018
 21
15.8289443231
 31
0.0
  0
LINE
  5
16F
330
1F
100
AcDbEntity
  8
0
  6
Continuous
 62
     7
370
    25
100
AcDbLine
 10
8.856439018
 20
15.7124443231
 30
0.0
 11
8.473939018
 21
15.3299443231
 31
0.0
  0
LINE
  5
170
330
1F
100
AcDbEntity
  8
0
  6
Continuous
 62
     7
370
    25
100
AcDbLine
 10
8.473939018
 20
15.3299443231
 30
0.0
 11
8.091439018
 21
15.7124443231
 31
0.0
  0
LINE
  5
171
330
1F
100
AcDbEntity
  8
0
  6
Continuous
 62
     7
370
    25
100
AcDbLine
 10
9.481439018
 20
14.9474443231
 30
0.0
 11
9.481439018
 21
15.7124443231
 31
0.0
  0
DIMENSION
  5
172
330
1F
100
AcDbEntity
  8
DIMS
100
AcDbDimension
  2
_D_2
 10
2.2471722857
 20
14.8309443231
 30
0.0
 11
2.2471722857
 21
16.5142608785
 31
0.0
 70
   160
  1
<>
 71
     2
 42
-1.0
  3
SLDDIMSTYLE0
100
AcDbAlignedDimension
 13
7.458314018
 23
18.1144443231
 33
0.0
 14
3.111439018
 24
14.8309443231
 34
0.0
 50
90.0
100
AcDbRotatedDimension
  0
MTEXT
  5
181
330
1F
100
AcDbEntity
  8
NOTES
100
AcDbMText
 10
3.4448424845
 20
14.4492198261
 30
0.0
 40
0.5
 41
0.0
 71
     1
 72
     1
  1
Top view
  7
SLDTEXTSTYLE0
 73
     1
 44
1.0
  0
ARC
  5
182
330
1F
100
AcDbEntity
  8
0
  6
Continuous
 62
     7
370
    25
100
AcDbCircle
 10
25.8641078772
 20
17.6178027477
 30
0.0
 40
0.1362386577471476
100
AcDbArc
 50
122.2099103534
 51
182.6467500149
  0
LWPOLYLINE
  5
183
330
1F
100
AcDbEntity
  8
0
  6
Continuous
 62
     7
370
    25
100
AcDbPolyline
 90
       15
 70
   128
 43
0.0
 10
25.7280145556
 20
17.6115115088
 10
25.7288684028
 20
17.5930803904
 10
25.7340120468
 20
17.5616504369
 10
25.7435145814
 20
17.530253239
 10
25.7569742282
 20
17.4997089766
 10
25.773978829
 20
17.4707644936
 10
25.7942039286
 20
17.4440473236
 10
25.8173769975
 20
17.4202287907
 10
25.8433966266
 20
17.3999792563
 10
25.8721805835
 20
17.384219552
 10
25.8983921382
 20
17.3753467803
 10
25.9241834268
 20
17.3715485917
 10
25.9491567131
 20
17.3726867719
 10
25.9728595157
 20
17.3786412705
 10
25.9912916644
 20
17.3878121613
  0
LINE
  5
184
330
1F
100
AcDbEntity
  8
0
  6
Continuous
 62
     7
370
    25
100
AcDbLine
 10
25.8493937861
 20
17.7671685069
 30
0.0
 11
25.79141103
 21
17.7336957743
 31
0.0
  0
LINE
  5
185
330
1F
100
AcDbEntity
  8
0
  6
Continuous
 62
     7
370
    25
100
AcDbLine
 10
25.9913947766
 20
17.3872762293
 30
0.0
 11
26.0493775326
 21
17.4207489619
 31
0.0
  0
LWPOLYLINE
  5
186
330
1F
100
AcDbEntity
  8
0
  6
Continuous
 62
     7
370
    25
100
AcDbPolyline
 90
       20
 70
   128
 43
0.0
 10
26.0542530776
 20
17.4246239932
 10
26.0645933548
 20
17.432118115
 10
26.0782533281
 20
17.4487335941
 10
26.0882575014
 20
17.4690612896
 10
26.0944841353
 20
17.4929379868
 10
26.0966640245
 20
17.5199127113
 10
26.0946419483
 20
17.5491443181
 10
26.0885030017
 20
17.5796219796
 10
26.0784964759
 20
17.6104336274
 10
26.0649511864
 20
17.640749932
 10
26.0482574716
 20
17.6697716461
 10
26.0288589085
 20
17.6967310504
 10
26.0072534325
 20
17.720890558
 10
25.9839516888
 20
17.7415862631
 10
25.9594675182
 20
17.7582093048
 10
25.9343182417
 20
17.7701844045
 10
25.909119605
 20
17.7769348909
 10
25.8847934898
 20
17.7779740856
 10
25.8625273921
 20
17.7732453318
 10
25.850531127
 20
17.7670280631
  0
LINE
  5
187
330
1F
100
AcDbEntity
  8
0
  6
Continuous
 62
     7
370
    25
100
AcDbLine
 10
25.2853324383
 20
17.772185961
 30
0.0
 11
25.3418917868
 21
17.804847593
 31
0.0
  0
LINE
  5
188
330
1F
100
AcDbEntity
  8
0
  6
Continuous
 62
     7
370
    25
100
AcDbLine
 10
25.3489617054
 20
17.8170943781
 30
0.0
 11
25.3489617054
 21
17.8824070271
 31
0.0
  0
LINE
  5
189
330
1F
100
AcDbEntity
  8
0
  6
Continuous
 62
     7
370
    25
100
AcDbLine
 10
23.4854417978
 20
16.8677657845
 30
0.0
 11
23.4081723524
 21
16.6704092446
 31
0.0
  0
LINE
  5
18A
330
1F
100
AcDbEntity
  8
0
  6
Continuous
 62
     7
370
    25
100
AcDbLine
 10
23.9727680912
 20
15.6923947694
 30
0.0
 11
24.1823156097
 21
15.6606141384
 31
0.0
  0
LWPOLYLINE
  5
18B
330
1F
100
AcDbEntity
  8
0
  6
Continuous
 62
     7
370
    25
100
AcDbPolyline
 90
       25
 70
   128
 43
0.0
 10
23.4061021066
 20
16.6640491886
 10
23.4034488211
 20
16.6576885506
 10
23.3907934647
 20
16.6141318305
 10
23.3823523875
 20
16.5672818034
 10
23.3782800183
 20
16.5175981292
 10
23.3786392561
 20
16.4656530503
 10
23.3833922202
 20
16.4120517925
 10
23.3924139542
 20
16.3574140714
 10
23.405538684
 20
16.302239067
 10
23.4225801715
 20
16.2469905885
 10
23.4433393608
 20
16.1921108814
 10
23.4676064853
 20
16.1380301261
 10
23.4951612782
 20
16.0851708941
 10
23.5257732182
 20
16.0339490556
 10
23.5591997354
 20
15.9847767147
 10
23.5951847001
 20
15.9380626086
 10
23.6334748795
 20
15.8941921057
 10
23.6738161312
 20
15.8535395741
 10
23.7159554231
 20
15.8164708392
 10
23.7596399475
 20
15.7833484615
 10
23.8046098965
 20
15.7545397982
 10
23.8505798844
 20
15.730425635
 10
23.897170748
 20
15.7114140193
 10
23.9438698265
 20
15.6978994081
 10
23.9716087244
 20
15.6932647327
  0
LINE
  5
18C
330
1F
100
AcDbEntity
  8
0
  6
Continuous
 62
     7
370
    25
100
AcDbLine
 10
31.7174802569
 20
16.8339571714
 30
0.0
 11
31.584544182
 21
16.9106995339
 31
0.0
  0
LINE
  5
18D
330
1F
100
AcDbEntity
  8
0
  6
Continuous
 62
     7
370
    25
100
AcDbLine
 10
31.0855847345
 20
16.0463827693
 30
0.0
 11
31.2185208093
 21
15.9696404068
 31
0.0
  0
LINE
  5
18E
330
1F
100
AcDbEntity
  8
0
  6
Continuous
 62
     7
370
    25
100
AcDbLine
 10
27.676140419
 20
18.1491320465
 30
0.0
 11
30.9835868722
 21
16.2397838507
 31
0.0
  0
LINE
  5
18F
330
1F
100
AcDbEntity
  8
0
  6
Continuous
 62
     7
370
    25
100
AcDbLine
 10
26.7724958793
 20
18.6707949354
 30
0.0
 11
26.9110782444
 21
18.5907930389
 31
0.0
  0
LINE
  5
190
330
1F
100
AcDbEntity
  8
0
  6
Continuous
 62
     7
370
    25
100
AcDbLine
 10
31.3660557875
 20
16.9023112304
 30
0.0
 11
27.1549647946
 21
19.3333223151
 31
0.0
  0
LINE
  5
191
330
1F
100
AcDbEntity
  8
0
  6
Continuous
 62
     7
370
    25
100
AcDbLine
 10
26.2149728182
 20
16.5745679694
 30
0.0
 11
26.5055937053
 21
16.7423398364
 31
0.0
  0
LINE
  5
192
330
1F
100
AcDbEntity
  8
0
  6
Continuous
 62
     7
370
    25
100
AcDbLine
 10
25.4900512424
 20
18.5015015881
 30
0.0
 11
25.1994303554
 21
18.3337297211
 31
0.0
  0
LINE
  5
193
330
1F
100
AcDbEntity
  8
0
  6
Continuous
 62
     7
370
    25
100
AcDbLine
 10
26.6595172801
 20
17.5622480006
 30
0.0
 11
27.676140419
 21
18.1491320465
 31
0.0
  0
LINE
  5
194
330
1F
100
AcDbEntity
  8
0
  6
Continuous
 62
     7
370
    25
100
AcDbLine
 10
27.2936715038
 20
18.8116594263
 30
0.0
 11
26.2770483649
 21
18.2247753804
 31
0.0
  0
LWPOLYLINE
  5
195
330
1F
100
AcDbEntity
  8
0
  6
Continuous
 62
     7
370
    25
100
AcDbPolyline
 90
       29
 70
   128
 43
0.0
 10
25.749981547
 20
17.5808962046
 10
25.7521976275
 20
17.5569047106
 10
25.7587347452
 20
17.5315576183
 10
25.7692651018
 20
17.5061259367
 10
25.7832606613
 20
17.4818849167
 10
25.8000196279
 20
17.460050104
 10
25.818701637
 20
17.4417163875
 10
25.8383698947
 20
17.4278030961
 10
25.8580381524
 20
17.4190079005
 10
25.8767201615
 20
17.4157718285
 10
25.8934791281
 20
17.4182571502
 10
25.9074746876
 20
17.4263392412
 10
25.9180050442
 20
17.4396128318
 10
25.9245421619
 20
17.4574123286
 10
25.9267582423
 20
17.4788451906
 10
25.9245421619
 20
17.5028366846
 10
25.9180050442
 20
17.5281837769
 10
25.9074746876
 20
17.5536154585
 10
25.8934791281
 20
17.5778564785
 10
25.8767201615
 20
17.5996912912
 10
25.8580381524
 20
17.6180250077
 10
25.8383698947
 20
17.6319382991
 10
25.818701637
 20
17.6407334947
 10
25.8000196279
 20
17.6439695667
 10
25.7832606613
 20
17.641484245
 10
25.7692651018
 20
17.633402154
 10
25.7587347452
 20
17.6201285634
 10
25.7521976275
 20
17.6023290666
 10
25.749981547
 20
17.5808962046
  0
LINE
  5
196
330
1F
100
AcDbEntity
  8
0
  6
Continuous
 62
     7
370
    25
100
AcDbLine
 10
26.0493775326
 20
17.4207489619
 30
0.0
 11
26.0537520001
 21
17.4235055552
 31
0.0
  0
LINE
  5
197
330
1F
100
AcDbEntity
  8
0
  6
Continuous
 62
     7
370
    25
100
AcDbLine
 10
25.8560475642
 20
17.6176504936
 30
0.0
 11
25.8206922252
 21
17.6380606964
 31
0.0
  0
LINE
  5
198
330
1F
100
AcDbEntity
  8
0
  6
Continuous
 62
     7
370
    25
100
AcDbLine
 10
25.8206922252
 20
17.6380606964
 30
0.0
 11
25.8206922252
 21
17.5933908076
 31
0.0
  0
LINE
  5
199
330
1F
100
AcDbEntity
  8
0
  6
Continuous
 62
     7
370
    25
100
AcDbLine
 10
25.7923392223
 20
17.5768571595
 30
0.0
 11
25.8206922252
 21
17.5933908076
 31
0.0
  0
LINE
  5
19A
330
1F
100
AcDbEntity
  8
0
  6
Continuous
 62
     7
370
    25
100
AcDbLine
 10
25.7923392223
 20
17.5768571595
 30
0.0
 11
25.753517081
 21
17.5992687046
 31
0.0
  0
LINE
  5
19B
330
1F
100
AcDbEntity
  8
0
  6
Continuous
 62
     7
370
    25
100
AcDbLine
 10
25.753517081
 20
17.5992687046
 30
0.0
 11
25.753517081
 21
17.558441664
 31
0.0
  0
LINE
  5
19C
330
1F
100
AcDbEntity
  8
0
  6
Continuous
 62
     7
370
    25
100
AcDbLine
 10
25.753517081
 20
17.558441664
 30
0.0
 11
25.7923392223
 21
17.5360301189
 31
0.0
  0
LINE
  5
19D
330
1F
100
AcDbEntity
  8
0
  6
Continuous
 62
     7
370
    25
100
AcDbLine
 10
25.8206922252
 20
17.4867607904
 30
0.0
 11
25.7923392223
 21
17.5360301189
 31
0.0
  0
LINE
  5
19E
330
1F
100
AcDbEntity
  8
0
  6
Continuous
 62
     7
370
    25
100
AcDbLine
 10
25.8206922252
 20
17.4867607904
 30
0.0
 11
25.8206922252
 21
17.4420909016
 31
0.0
  0
LINE
  5
19F
330
1F
100
AcDbEntity
  8
0
  6
Continuous
 62
     7
370
    25
100
AcDbLine
 10
25.8206922252
 20
17.4420909016
 30
0.0
 11
25.8560475642
 21
17.4216806988
 31
0.0
  0
LINE
  5
1A0
330
1F
100
AcDbEntity
  8
0
  6
Continuous
 62
     7
370
    25
100
AcDbLine
 10
25.8560475642
 20
17.4216806988
 30
0.0
 11
25.8560475642
 21
17.4663505876
 31
0.0
  0
LINE
  5
1A1
330
1F
100
AcDbEntity
  8
0
  6
Continuous
 62
     7
370
    25
100
AcDbLine
 10
25.8844005671
 20
17.4828842357
 30
0.0
 11
25.8560475642
 21
17.4663505876
 31
0.0
  0
LINE
  5
1A2
330
1F
100
AcDbEntity
  8
0
  6
Continuous
 62
     7
370
    25
100
AcDbLine
 10
25.8844005671
 20
17.4828842357
 30
0.0
 11
25.9232227084
 21
17.4604726906
 31
0.0
  0
LINE
  5
1A3
330
1F
100
AcDbEntity
  8
0
  6
Continuous
 62
     7
370
    25
100
AcDbLine
 10
25.9232227084
 20
17.4604726906
 30
0.0
 11
25.9232227084
 21
17.5012997312
 31
0.0
  0
LINE
  5
1A4
330
1F
100
AcDbEntity
  8
0
  6
Continuous
 62
     7
370
    25
100
AcDbLine
 10
25.9232227084
 20
17.5012997312
 30
0.0
 11
25.8844005671
 21
17.5237112763
 31
0.0
  0
LINE
  5
1A5
330
1F
100
AcDbEntity
  8
0
  6
Continuous
 62
     7
370
    25
100
AcDbLine
 10
25.8560475642
 20
17.5729806048
 30
0.0
 11
25.8844005671
 21
17.5237112763
 31
0.0
  0
LINE
  5
1A6
330
1F
100
AcDbEntity
  8
0
  6
Continuous
 62
     7
370
    25
100
AcDbLine
 10
25.8560475642
 20
17.5729806048
 30
0.0
 11
25.8560475642
 21
17.6176504936
 31
0.0
  0
LINE
  5
1A7
330
1F
100
AcDbEntity
  8
0
  6
Continuous
 62
     7
370
    25
100
AcDbLine
 10
25.8560475642
 20
17.6042816478
 30
0.0
 11
25.8412531001
 21
17.5956544677
 31
0.0
  0
LINE
  5
1A8
330
1F
100
AcDbEntity
  8
0
  6
Continuous
 62
     7
370
    25
100
AcDbLine
 10
25.8967880162
 20
17.499155755
 30
0.0
 11
25.9117863341
 21
17.5079018095
 31
0.0
  0
LINE
  5
1A9
330
1F
100
AcDbEntity
  8
0
  6
Continuous
 62
     7
370
    25
100
AcDbLine
 10
25.8412531001
 20
17.5946489798
 30
0.0
 11
25.8959172853
 21
17.4996584172
 31
0.0
  0
LINE
  5
1AA
330
1F
100
AcDbEntity
  8
0
  6
Continuous
 62
     7
370
    25
100
AcDbLine
 10
25.9151391635
 20
17.5059662624
 30
0.0
 11
25.8844005671
 21
17.4828842357
 31
0.0
  0
LINE
  5
1AB
330
1F
100
AcDbEntity
  8
0
  6
Continuous
 62
     7
370
    25
100
AcDbLine
 10
25.8206922252
 20
17.5933908076
 30
0.0
 11
25.8560475642
 21
17.6084648083
 31
0.0
  0
ELLIPSE
  5
1AC
330
1F
100
AcDbEntity
  8
0
  6
Continuous
 62
     7
370
    25
100
AcDbEllipse
 10
25.8251379593
 20
17.5886293782
 30
0.0
 11
0.02138597337396675
 21
0.01073052853976364
 31
0.0
210
0.0
220
0.0
230
1.0
 40
0.0583134287
 41
5.536075236404971
 42
7.037058393121651
  0
LINE
  5
1AD
330
1F
100
AcDbEntity
  8
0
  6
Continuous
 62
     7
370
    25
100
AcDbLine
 10
25.8403009662
 20
17.5973059908
 30
0.0
 11
25.7923392223
 21
17.5768571595
 31
0.0
  0
LINE
  5
1AE
330
1F
100
AcDbEntity
  8
0
  6
Continuous
 62
     7
370
    25
100
AcDbLine
 10
25.8560475642
 20
17.4663505876
 30
0.0
 11
25.8977400722
 21
17.4976580543
 31
0.0
  0
ELLIPSE
  5
1AF
330
1F
100
AcDbEntity
  8
0
  6
Continuous
 62
     7
370
    25
100
AcDbEllipse
 10
25.8826458806
 20
17.4887021524
 30
0.0
 11
0.01998705206086626
 21
0.01327075074997452
 31
0.0
210
0.0
220
0.0
230
1.0
 40
0.0542206259
 41
5.531615127396947
 42
7.032598284110485
  0
ELLIPSE
  5
1B0
330
1F
100
AcDbEntity
  8
0
  6
Continuous
 62
     7
370
    25
100
AcDbEllipse
 10
25.8817751497
 20
17.4892048147
 30
0.0
 11
-0.01245638459210241
 21
0.02559739438234132
 31
0.0
210
0.0
220
0.0
230
1.0
 40
0.6112854802
 41
4.825446119097158
 42
6.326429275812244
  0
LINE
  5
1B1
330
1F
100
AcDbEntity
  8
0
  6
Continuous
 62
     7
370
    25
100
AcDbLine
 10
25.8686539691
 20
17.5144491041
 30
0.0
 11
25.8206922252
 21
17.4867607904
 31
0.0
  0
LINE
  5
1B2
330
1F
100
AcDbEntity
  8
0
  6
Continuous
 62
     7
370
    25
100
AcDbLine
 10
25.7923392223
 20
17.5360301189
 30
0.0
 11
25.8403009662
 21
17.5637184326
 31
0.0
  0
ELLIPSE
  5
1B3
330
1F
100
AcDbEntity
  8
0
  6
Continuous
 62
     7
370
    25
100
AcDbEllipse
 10
25.8251379593
 20
17.5876238903
 30
0.0
 11
-0.01577229441393513
 21
0.02352595975891347
 31
0.0
210
0.0
220
0.0
230
1.0
 40
0.6144851346
 41
3.100361525099142
 42
4.601344681814218
  0
LINE
  5
1B4
330
1F
100
AcDbEntity
  8
0
  6
Continuous
 62
     7
370
    25
100
AcDbLine
 10
25.7888777911
 20
17.5788554012
 30
0.0
 11
25.753517081
 21
17.558441664
 31
0.0
  0
LINE
  5
1B5
330
1F
100
AcDbEntity
  8
0
  6
Continuous
 62
     7
370
    25
100
AcDbLine
 10
25.8560475642
 20
17.462501538
 30
0.0
 11
25.8206922252
 21
17.4420909016
 31
0.0
  0
LWPOLYLINE
  5
1B6
330
1F
100
AcDbEntity
  8
0
  6
Continuous
 62
     7
370
    25
100
AcDbPolyline
 90
       17
 70
   128
 43
0.0
 10
25.3348195698
 20
17.808930297
 10
25.3353578228
 20
17.8061162574
 10
25.3368906376
 20
17.8043520836
 10
25.3391846571
 20
17.8039063548
 10
25.3418906376
 20
17.8048469294
 10
25.3445966181
 20
17.8070306134
 10
25.3468906376
 20
17.8101249607
 10
25.3484234524
 20
17.8136588849
 10
25.3489617054
 20
17.8170943781
 10
25.3484234524
 20
17.8199084177
 10
25.3468906376
 20
17.8216725916
 10
25.3445966181
 20
17.8221183203
 10
25.3418906376
 20
17.8211777457
 10
25.3391846571
 20
17.8189940617
 10
25.3368906376
 20
17.8158997145
 10
25.3353578228
 20
17.8123657902
 10
25.3348195698
 20
17.808930297
  0
LWPOLYLINE
  5
1B7
330
1F
100
AcDbEntity
  8
0
  6
Continuous
 62
     7
370
    25
100
AcDbPolyline
 90
        3
 70
   128
 43
0.0
 10
25.3474979873
 20
17.8972327511
 10
25.3483689626
 20
17.8920715503
 10
25.3489617054
 20
17.8824070271
  0
LWPOLYLINE
  5
1B8
330
1F
100
AcDbEntity
  8
0
  6
Continuous
 62
     7
370
    25
100
AcDbPolyline
 90
        3
 70
   128
 43
0.0
 10
25.2853324383
 20
17.772185961
 10
25.2723742337
 20
17.7662424303
 10
25.2717617024
 20
17.7660394425
  0
LWPOLYLINE
  5
1B9
330
1F
100
AcDbEntity
  8
0
  6
Continuous
 62
     7
370
    25
100
AcDbPolyline
 90
       15
 70
   128
 43
0.0
 10
24.5373321822
 20
16.0436917847
 10
24.5350836722
 20
15.9880013918
 10
24.528356774
 20
15.9353685413
 10
24.5172072289
 20
15.8862293658
 10
24.5017274254
 20
15.8409910478
 10
24.4820456341
 20
15.8000284465
 10
24.4583249446
 20
15.7636809906
 10
24.4307619138
 20
15.7322498668
 10
24.3995849379
 20
15.7059955233
 10
24.365052359
 20
15.6851355117
 10
24.3274503249
 20
15.6698426847
 10
24.2870904179
 20
15.6602437635
 10
24.244307073
 20
15.6564182877
 10
24.1994548064
 20
15.6583979566
 10
24.1823156097
 20
15.6606141384
  0
LWPOLYLINE
  5
1BA
330
1F
100
AcDbEntity
  8
0
  6
Continuous
 62
     7
370
    25
100
AcDbPolyline
 90
       32
 70
   128
 43
0.0
 10
23.4854417978
 20
16.8677657845
 10
23.4968530686
 20
16.8940235919
 10
23.5185768219
 20
16.9327187213
 10
23.5442452829
 20
16.9666431679
 10
23.5736457547
 20
16.995515823
 10
23.6065346158
 20
17.0190974389
 10
23.6426393386
 20
17.0371926107
 10
23.681660748
 20
17.0496513961
 10
23.7232755004
 20
17.0563705579
 10
23.7671387628
 20
17.0572944187
 10
23.8128870704
 20
17.0524153234
 10
23.8601413383
 20
17.0417737015
 10
23.9085100028
 20
17.0254577329
 10
23.9575922659
 20
17.0036026169
 10
24.0069814165
 20
16.9763894518
 10
24.0562682006
 20
16.9440437345
 10
24.1050442122
 20
16.9068334918
 10
24.1529052781
 20
16.8650670595
 10
24.1994548064
 20
16.8190905274
 10
24.244307073
 20
16.7692848715
 10
24.2870904179
 20
16.7160627972
 10
24.3274503249
 20
16.6598653193
 10
24.365052359
 20
16.6011581078
 10
24.3995849379
 20
16.5404276293
 10
24.4307619138
 20
16.4781771154
 10
24.4583249446
 20
16.4149223938
 10
24.4820456341
 20
16.3511876127
 10
24.5017274254
 20
16.2875008988
 10
24.5172072289
 20
16.2243899802
 10
24.528356774
 20
16.1623778139
 10
24.5350836722
 20
16.1019782521
 10
24.5373321822
 20
16.0436917847
  0
LINE
  5
1BB
330
1F
100
AcDbEntity
  8
0
  6
Continuous
 62
     7
370
    25
100
AcDbLine
 10
23.4061504148
 20
16.6651104288
 30
0.0
 11
23.4081723524
 21
16.6704092446
 31
0.0
  0
ARC
  5
1BC
330
1F
100
AcDbEntity
  8
0
  6
Continuous
 62
     7
370
    25
100
AcDbCircle
 10
24.5672175274
 20
16.6521927707
 30
0.0
 40
1.06050992437146
100
AcDbArc
 50
219.9242277789
 51
227.5584294946
  0
LWPOLYLINE
  5
1BD
330
1F
100
AcDbEntity
  8
0
  6
Continuous
 62
     7
370
    25
100
AcDbPolyline
 90
       25
 70
   128
 43
0.0
 10
23.717088316
 20
16.2763680966
 10
23.7194374888
 20
16.2544066575
 10
23.7263249147
 20
16.2312295571
 10
23.7372812272
 20
16.2084162765
 10
23.7515597716
 20
16.187521503
 10
23.7681874888
 20
16.1699691809
 10
23.7860312272
 20
16.156955472
 10
23.8038749656
 20
16.149367239
 10
23.8205026828
 20
16.1477216075
 10
23.8347812272
 20
16.1521307245
 10
23.8457375397
 20
16.162294116
 10
23.8526249656
 20
16.1775191637
 10
23.8549741384
 20
16.1967683057
 10
23.8526249656
 20
16.2187297448
 10
23.8457375397
 20
16.2419068452
 10
23.8347812272
 20
16.2647201258
 10
23.8205026828
 20
16.2856148993
 10
23.8038749656
 20
16.3031672214
 10
23.7860312272
 20
16.3161809303
 10
23.7681874888
 20
16.3237691633
 10
23.7515597716
 20
16.3254147948
 10
23.7372812272
 20
16.3210056778
 10
23.7263249147
 20
16.3108422863
 10
23.7194374888
 20
16.2956172386
 10
23.717088316
 20
16.2763680966
  0
LWPOLYLINE
  5
1BE
330
1F
100
AcDbEntity
  8
0
  6
Continuous
 62
     7
370
    25
100
AcDbPolyline
 90
       25
 70
   128
 43
0.0
 10
23.717088316
 20
15.9223976547
 10
23.7194374888
 20
15.9004362156
 10
23.7263249147
 20
15.8772591151
 10
23.7372812272
 20
15.8544458345
 10
23.7515597716
 20
15.833551061
 10
23.7681874888
 20
15.8159987389
 10
23.7860312272
 20
15.80298503
 10
23.8038749656
 20
15.7953967971
 10
23.8205026828
 20
15.7937511656
 10
23.8347812272
 20
15.7981602826
 10
23.8457375397
 20
15.8083236741
 10
23.8526249656
 20
15.8235487218
 10
23.8549741384
 20
15.8427978637
 10
23.8526249656
 20
15.8647593028
 10
23.8457375397
 20
15.8879364033
 10
23.8347812272
 20
15.9107496839
 10
23.8205026828
 20
15.9316444574
 10
23.8038749656
 20
15.9491967795
 10
23.7860312272
 20
15.9622104884
 10
23.7681874888
 20
15.9697987213
 10
23.7515597716
 20
15.9714443528
 10
23.7372812272
 20
15.9670352358
 10
23.7263249147
 20
15.9568718443
 10
23.7194374888
 20
15.9416467966
 10
23.717088316
 20
15.9223976547
  0
LWPOLYLINE
  5
1BF
330
1F
100
AcDbEntity
  8
0
  6
Continuous
 62
     7
370
    25
100
AcDbPolyline
 90
       25
 70
   128
 43
0.0
 10
23.8549741384
 20
16.5507387477
 10
23.8526249656
 20
16.5727001867
 10
23.8457375397
 20
16.5958772872
 10
23.8347812272
 20
16.6186905678
 10
23.8205026828
 20
16.6395853413
 10
23.8038749656
 20
16.6571376634
 10
23.7860312272
 20
16.6701513723
 10
23.7681874888
 20
16.6777396052
 10
23.7515597716
 20
16.6793852367
 10
23.7372812272
 20
16.6749761197
 10
23.7263249147
 20
16.6648127282
 10
23.7194374888
 20
16.6495876805
 10
23.717088316
 20
16.6303385386
 10
23.7194374888
 20
16.6083770995
 10
23.7263249147
 20
16.5851999991
 10
23.7372812272
 20
16.5623867184
 10
23.7515597716
 20
16.5414919449
 10
23.7681874888
 20
16.5239396228
 10
23.7860312272
 20
16.5109259139
 10
23.8038749656
 20
16.503337681
 10
23.8205026828
 20
16.5016920495
 10
23.8347812272
 20
16.5061011665
 10
23.8457375397
 20
16.516264558
 10
23.8526249656
 20
16.5314896057
 10
23.8549741384
 20
16.5507387477
  0
LWPOLYLINE
  5
1C0
330
1F
100
AcDbEntity
  8
0
  6
Continuous
 62
     7
370
    25
100
AcDbPolyline
 90
       13
 70
   128
 43
0.0
 10
23.845555368
 20
16.5160075636
 10
23.8452514201
 20
16.5159791914
 10
23.828623703
 20
16.5176248229
 10
23.8107799645
 20
16.5252130559
 10
23.7929362261
 20
16.5382267648
 10
23.776308509
 20
16.5557790869
 10
23.7620299645
 20
16.5766738604
 10
23.7510736521
 20
16.599487141
 10
23.7441862261
 20
16.6226642414
 10
23.7418370534
 20
16.6446256805
 10
23.7441862261
 20
16.6638748225
 10
23.7510736521
 20
16.6790998702
 10
23.7512558238
 20
16.6793568645
  0
LWPOLYLINE
  5
1C1
330
1F
100
AcDbEntity
  8
0
  6
Continuous
 62
     7
370
    25
100
AcDbPolyline
 90
       13
 70
   128
 43
0.0
 10
23.845555368
 20
16.1620371217
 10
23.8452514201
 20
16.1620087495
 10
23.828623703
 20
16.163654381
 10
23.8107799645
 20
16.171242614
 10
23.7929362261
 20
16.1842563228
 10
23.776308509
 20
16.2018086449
 10
23.7620299645
 20
16.2227034184
 10
23.7510736521
 20
16.2455166991
 10
23.7441862261
 20
16.2686937995
 10
23.7418370534
 20
16.2906552386
 10
23.7441862261
 20
16.3099043805
 10
23.7510736521
 20
16.3251294282
 10
23.7512558238
 20
16.3253864226
  0
LWPOLYLINE
  5
1C2
330
1F
100
AcDbEntity
  8
0
  6
Continuous
 62
     7
370
    25
100
AcDbPolyline
 90
       13
 70
   128
 43
0.0
 10
23.845555368
 20
15.8080666797
 10
23.8452514201
 20
15.8080383075
 10
23.828623703
 20
15.809683939
 10
23.8107799645
 20
15.817272172
 10
23.7929362261
 20
15.8302858809
 10
23.776308509
 20
15.847838203
 10
23.7620299645
 20
15.8687329765
 10
23.7510736521
 20
15.8915462571
 10
23.7441862261
 20
15.9147233575
 10
23.7418370534
 20
15.9366847966
 10
23.7441862261
 20
15.9559339386
 10
23.7510736521
 20
15.9711589863
 10
23.7512558238
 20
15.9714159806
  0
LWPOLYLINE
  5
1C3
330
1F
100
AcDbEntity
  8
0
  6
Continuous
 62
     7
370
    25
100
AcDbPolyline
 90
       57
 70
   128
 43
0.0
 10
31.1151542493
 20
16.1981049652
 10
31.1173728727
 20
16.1537653907
 10
31.1240008423
 20
16.11254498
 10
31.1349548077
 20
16.0749621039
 10
31.1500970162
 20
16.0414893886
 10
31.169237046
 20
16.0125477732
 10
31.1921342
 20
15.9885012151
 10
31.2185005331
 20
15.9696521139
 10
31.2480044735
 20
15.9562375078
 10
31.280274992
 20
15.9484260933
 10
31.3149062682
 20
15.9463161035
 10
31.3514627935
 20
15.9499340728
 10
31.3894848485
 20
15.9592345031
 10
31.4284942838
 20
15.9741004361
 10
31.4680005331
 20
15.994344924
 10
31.5075067824
 20
16.0197133806
 10
31.5465162177
 20
16.049886783
 10
31.5845382727
 20
16.084485683
 10
31.6210947981
 20
16.1230749794
 10
31.6557260742
 20
16.1651693895
 10
31.6879965927
 20
16.2102395516
 10
31.7175005331
 20
16.2577186822
 10
31.7438668663
 20
16.3070097038
 10
31.7667640202
 20
16.3574927531
 10
31.78590405
 20
16.4085329765
 10
31.8010462586
 20
16.4594885136
 10
31.8120002239
 20
16.5097185689
 10
31.8186281936
 20
16.5585914704
 10
31.8208468169
 20
16.605492613
 10
31.8186281936
 20
16.6498321875
 10
31.8120002239
 20
16.6910525982
 10
31.8010462586
 20
16.7286354743
 10
31.78590405
 20
16.7621081895
 10
31.7667640202
 20
16.791049805
 10
31.7438668663
 20
16.815096363
 10
31.7175005331
 20
16.8339454643
 10
31.6879965927
 20
16.8473600704
 10
31.6557260742
 20
16.8551714849
 10
31.6210947981
 20
16.8572814746
 10
31.5845382727
 20
16.8536635053
 10
31.5465162177
 20
16.8443630751
 10
31.5075067824
 20
16.8294971421
 10
31.4680005331
 20
16.8092526542
 10
31.4284942838
 20
16.7838841976
 10
31.3894848485
 20
16.7537107952
 10
31.3514627935
 20
16.7191118952
 10
31.3149062682
 20
16.6805225987
 10
31.280274992
 20
16.6384281887
 10
31.2480044735
 20
16.5933580266
 10
31.2185005331
 20
16.545878896
 10
31.1921342
 20
16.4965878744
 10
31.169237046
 20
16.4461048251
 10
31.1500970162
 20
16.3950646017
 10
31.1349548077
 20
16.3441090646
 10
31.1240008423
 20
16.2938790092
 10
31.1173728727
 20
16.2450061077
 10
31.1151542493
 20
16.1981049652
  0
ARC
  5
1C4
330
1F
100
AcDbEntity
  8
0
  6
Continuous
 62
     7
370
    25
100
AcDbCircle
 10
31.225983907
 20
16.2475208797
 30
0.0
 40
0.2452926152993229
100
AcDbArc
 50
173.6037743406
 51
235.0840452661
  0
LWPOLYLINE
  5
1C5
330
1F
100
AcDbEntity
  8
0
  6
Continuous
 62
     7
370
    25
100
AcDbPolyline
 90
       22
 70
   128
 43
0.0
 10
31.584544182
 20
16.9106995339
 10
31.5550605178
 20
16.9241024329
 10
31.5227899993
 20
16.9319138474
 10
31.4881587232
 20
16.9340238371
 10
31.4516021979
 20
16.9304058678
 10
31.4135801429
 20
16.9211054376
 10
31.3745707076
 20
16.9062395046
 10
31.3350644583
 20
16.8859950167
 10
31.2955582089
 20
16.8606265601
 10
31.2565487736
 20
16.8304531577
 10
31.2185267186
 20
16.7958542577
 10
31.1819701933
 20
16.7572649612
 10
31.1473389172
 20
16.7151705512
 10
31.1150683987
 20
16.6701003891
 10
31.0855644583
 20
16.6226212585
 10
31.0591981251
 20
16.5733302369
 10
31.0363009711
 20
16.5228471876
 10
31.0171609414
 20
16.4718069642
 10
31.0020187328
 20
16.4208514271
 10
30.9910647675
 20
16.3706213718
 10
30.9844367978
 20
16.3217484703
 10
30.9822181744
 20
16.2748473277
  0
LINE
  5
1C6
330
1F
100
AcDbEntity
  8
0
  6
Continuous
 62
     7
370
    25
100
AcDbLine
 10
27.676140419
 20
18.9031198995
 30
0.0
 11
27.676140419
 21
18.1491320465
 31
0.0
  0
ELLIPSE
  5
1C7
330
1F
100
AcDbEntity
  8
0
  6
Continuous
 62
     7
370
    25
100
AcDbEllipse
 10
27.676140419
 20
18.5907930389
 30
0.0
 11
0.540936687607708
 21
0.0
 31
0.0
210
0.0
220
0.0
230
1.0
 40
0.5773815452
 41
1.570796326794897
 42
2.356113226130251
  0
ARC
  5
1C8
330
1F
100
AcDbEntity
  8
0
  6
Continuous
 62
     7
370
    25
100
AcDbCircle
 10
26.8752988915
 20
18.8227942736
 30
0.0
 40
0.183500022146072
100
AcDbArc
 50
172.7598244569
 51
235.9279951497
  0
LWPOLYLINE
  5
1C9
330
1F
100
AcDbEntity
  8
0
  6
Continuous
 62
     7
370
    25
100
AcDbPolyline
 90
       20
 70
   128
 43
0.0
 10
27.1549647946
 20
19.3333223151
 10
27.1455664453
 20
19.338239079
 10
27.1184697825
 20
19.3475496311
 10
27.0888323023
 20
19.3511872305
 10
27.0571406512
 20
19.3490921478
 10
27.0239152054
 20
19.3412987843
 10
26.9897015257
 20
19.3279351068
 10
26.9550613999
 20
19.3092205464
 10
26.9205636177
 20
19.2854623958
 10
26.8867746318
 20
19.2570507631
 10
26.8542492565
 20
19.2244521666
 10
26.8235215576
 20
19.1882018743
 10
26.7950960829
 20
19.1488951149
 10
26.769439578
 20
19.1071773045
 10
26.7469733219
 20
19.0637334482
 10
26.7280662101
 20
19.0192768931
 10
26.7130286968
 20
18.9745376145
 10
26.7021076974
 20
18.9302502301
 10
26.6954825345
 20
18.8871419375
 10
26.6932619932
 20
18.8459205739
  0
LWPOLYLINE
  5
1CA
330
1F
100
AcDbEntity
  8
0
  6
Continuous
 62
     7
370
    25
100
AcDbPolyline
 90
       81
 70
   128
 43
0.0
 10
26.4253569114
 20
17.0395666009
 10
26.4231430782
 20
16.9757785495
 10
26.4165152277
 20
16.9149398099
 10
26.4055142226
 20
16.8574254734
 10
26.390207888
 20
16.8035901349
 10
26.3706905924
 20
16.7537657071
 10
26.3470826664
 20
16.7082593743
 10
26.3195296608
 20
16.6673516982
 10
26.288201449
 20
16.6312948881
 10
26.2532911799
 20
16.6003112462
 10
26.2150140868
 20
16.5745917971
 10
26.1736061608
 20
16.5542951097
 10
26.1293226955
 20
16.5395463197
 10
26.0824367132
 20
16.5304363585
 10
26.0332372815
 20
16.527021392
 10
25.9820277314
 20
16.5293224744
 10
25.9291237867
 20
16.537325419
 10
25.8748516179
 20
16.5509808849
 10
25.8195458308
 20
16.5702046816
 10
25.7635474042
 20
16.594878288
 10
25.7072015868
 20
16.6248495832
 10
25.6508557694
 20
16.659933784
 10
25.5948573428
 20
16.6999145848
 10
25.5395515557
 20
16.7445454906
 10
25.4852793869
 20
16.7935513371
 10
25.4323754422
 20
16.8466299869
 10
25.3811658921
 20
16.9034541925
 10
25.3319664604
 20
16.9636736137
 10
25.2850804781
 20
17.0269169778
 10
25.2407970128
 20
17.0927943685
 10
25.1993890868
 20
17.1608996297
 10
25.1611119937
 20
17.2308128698
 10
25.1262017246
 20
17.3021030504
 10
25.0948735128
 20
17.374330644
 10
25.0673205072
 20
17.4470503433
 10
25.0437125812
 20
17.5198138072
 10
25.0241952856
 20
17.5921724248
 10
25.0088889509
 20
17.6636800811
 10
24.9978879459
 20
17.7338959077
 10
24.9912600953
 20
17.8023870006
 10
24.9890462621
 20
17.8687310895
 10
24.9912600953
 20
17.932519141
 10
24.9978879459
 20
17.9933578805
 10
25.0088889509
 20
18.0508722171
 10
25.0241952856
 20
18.1047075556
 10
25.0437125812
 20
18.1545319833
 10
25.0673205072
 20
18.2000383161
 10
25.0948735128
 20
18.2409459923
 10
25.1262017246
 20
18.2770028024
 10
25.1611119937
 20
18.3079864442
 10
25.1993890868
 20
18.3337058934
 10
25.2407970128
 20
18.3540025808
 10
25.2850804781
 20
18.3687513707
 10
25.3319664604
 20
18.3778613319
 10
25.3811658921
 20
18.3812762985
 10
25.4323754422
 20
18.378975216
 10
25.4852793869
 20
18.3709722714
 10
25.5395515557
 20
18.3573168055
 10
25.5948573428
 20
18.3380930088
 10
25.6508557694
 20
18.3134194024
 10
25.7072015868
 20
18.2834481073
 10
25.7635474042
 20
18.2483639064
 10
25.8195458308
 20
18.2083831056
 10
25.8748516179
 20
18.1637521998
 10
25.9291237867
 20
18.1147463533
 10
25.9820277314
 20
18.0616677035
 10
26.0332372815
 20
18.004843498
 10
26.0824367132
 20
17.9446240767
 10
26.1293226955
 20
17.8813807126
 10
26.1736061608
 20
17.815503322
 10
26.2150140868
 20
17.7473980608
 10
26.2532911799
 20
17.6774848207
 10
26.288201449
 20
17.60619464
 10
26.3195296608
 20
17.5339670465
 10
26.3470826664
 20
17.4612473472
 10
26.3706905924
 20
17.3884838833
 10
26.390207888
 20
17.3161252657
 10
26.4055142226
 20
17.2446176093
 10
26.4165152277
 20
17.1744017827
 10
26.4231430782
 20
17.1059106898
 10
26.4253569114
 20
17.0395666009
  0
LINE
  5
1CB
330
1F
100
AcDbEntity
  8
0
  6
Continuous
 62
     7
370
    25
100
AcDbLine
 10
26.3593301269
 20
16.920498946
 30
0.0
 11
26.214992644
 21
17.0038232013
 31
0.0
  0
LINE
  5
1CC
330
1F
100
AcDbEntity
  8
0
  6
Continuous
 62
     7
370
    25
100
AcDbLine
 10
26.214992644
 20
17.0038232013
 30
0.0
 11
26.214992644
 21
17.3181914139
 31
0.0
  0
LINE
  5
1CD
330
1F
100
AcDbEntity
  8
0
  6
Continuous
 62
     7
370
    25
100
AcDbLine
 10
26.3593301269
 20
17.2348671586
 30
0.0
 11
26.214992644
 21
17.3181914139
 31
0.0
  0
LWPOLYLINE
  5
1CE
330
1F
100
AcDbEntity
  8
0
  6
Continuous
 62
     7
370
    25
100
AcDbPolyline
 90
       34
 70
   128
 43
0.0
 10
26.3593301269
 20
17.2348671586
 10
26.3458517931
 20
17.3043385173
 10
26.3280050163
 20
17.3748345965
 10
26.3059118703
 20
17.4458731945
 10
26.279723475
 20
17.5169683989
 10
26.2496189622
 20
17.5876339102
 10
26.2158042501
 20
17.6573863677
 10
26.1785106355
 20
17.7257486566
 10
26.1379932112
 20
17.7922531705
 10
26.0945291211
 20
17.8564450107
 10
26.0484156647
 20
17.9178850974
 10
25.9999682635
 20
17.9761531732
 10
25.9495183036
 20
18.0308506775
 10
25.8974108686
 20
18.0816034729
 10
25.8440023795
 20
18.1280644043
 10
25.7896581568
 20
18.1699156733
 10
25.7347499214
 20
18.2068710123
 10
25.6796532521
 20
18.2386776425
 10
25.6247450167
 20
18.2651180026
 10
25.570400794
 20
18.2860112376
 10
25.516992305
 20
18.3012144351
 10
25.46488487
 20
18.3106236036
 10
25.4144349101
 20
18.3141743832
 10
25.3659875089
 20
18.3118424861
 10
25.3198740525
 20
18.3036438629
 10
25.2764099624
 20
18.2896345929
 10
25.235892538
 20
18.2699105014
 10
25.1985989235
 20
18.2446065035
 10
25.1647842114
 20
18.2138956814
 10
25.1346796985
 20
18.1779881009
 10
25.1084913033
 20
18.1371293741
 10
25.0863981573
 20
18.0915989794
 10
25.0685513804
 20
18.0417083503
 10
25.0550730467
 20
17.9877987444
  0
LINE
  5
1CF
330
1F
100
AcDbEntity
  8
0
  6
Continuous
 62
     7
370
    25
100
AcDbLine
 10
25.2057744906
 20
17.9008006527
 30
0.0
 11
25.0550730467
 21
17.9877987444
 31
0.0
  0
LINE
  5
1D0
330
1F
100
AcDbEntity
  8
0
  6
Continuous
 62
     7
370
    25
100
AcDbLine
 10
25.2057744906
 20
17.5864324401
 30
0.0
 11
25.2057744906
 21
17.9008006527
 31
0.0
  0
LINE
  5
1D1
330
1F
100
AcDbEntity
  8
0
  6
Continuous
 62
     7
370
    25
100
AcDbLine
 10
25.2057744906
 20
17.5864324401
 30
0.0
 11
25.0550730467
 21
17.6734305318
 31
0.0
  0
LWPOLYLINE
  5
1D2
330
1F
100
AcDbEntity
  8
0
  6
Continuous
 62
     7
370
    25
100
AcDbPolyline
 90
       34
 70
   128
 43
0.0
 10
25.0550730467
 20
17.6734305318
 10
25.0685513804
 20
17.6039591731
 10
25.0863981573
 20
17.533463094
 10
25.1084913033
 20
17.462424496
 10
25.1346796985
 20
17.3913292915
 10
25.1647842114
 20
17.3206637803
 10
25.1985989235
 20
17.2509113227
 10
25.235892538
 20
17.1825490339
 10
25.2764099624
 20
17.11604452
 10
25.3198740525
 20
17.0518526798
 10
25.3659875089
 20
16.990412593
 10
25.4144349101
 20
16.9321445172
 10
25.46488487
 20
16.8774470129
 10
25.516992305
 20
16.8266942175
 10
25.570400794
 20
16.7802332862
 10
25.6247450167
 20
16.7383820172
 10
25.6796532521
 20
16.7014266781
 10
25.7347499214
 20
16.669620048
 10
25.7896581568
 20
16.6431796878
 10
25.8440023795
 20
16.6222864529
 10
25.8974108686
 20
16.6070832553
 10
25.9495183036
 20
16.5976740868
 10
25.9999682635
 20
16.5941233072
 10
26.0484156647
 20
16.5964552043
 10
26.0945291211
 20
16.6046538276
 10
26.1379932112
 20
16.6186630975
 10
26.1785106355
 20
16.638387189
 10
26.2158042501
 20
16.663691187
 10
26.2496189622
 20
16.694402009
 10
26.279723475
 20
16.7303095896
 10
26.3059118703
 20
16.7711683164
 10
26.3280050163
 20
16.8166987111
 10
26.3458517931
 20
16.8665893402
 10
26.3593301269
 20
16.920498946
  0
LWPOLYLINE
  5
1D3
330
1F
100
AcDbEntity
  8
0
  6
Continuous
 62
     7
370
    25
100
AcDbPolyline
 90
       12
 70
   128
 43
0.0
 10
26.7159777985
 20
17.2073384679
 10
26.7137639653
 20
17.1435504164
 10
26.7071361147
 20
17.0827116769
 10
26.6961351097
 20
17.0251973404
 10
26.6808287751
 20
16.9713620018
 10
26.6613114795
 20
16.9215375741
 10
26.6377035535
 20
16.8760312413
 10
26.6101505479
 20
16.8351235651
 10
26.5788223361
 20
16.799066755
 10
26.5439120669
 20
16.7680831132
 10
26.5056349739
 20
16.7423636641
 10
26.5055937053
 20
16.7423398364
  0
LWPOLYLINE
  5
1D4
330
1F
100
AcDbEntity
  8
0
  6
Continuous
 62
     7
370
    25
100
AcDbPolyline
 90
       31
 70
   128
 43
0.0
 10
25.4900512424
 20
18.5015015881
 10
25.5314178999
 20
18.5217744478
 10
25.5757013652
 20
18.5365232377
 10
25.6225873475
 20
18.5456331989
 10
25.6717867791
 20
18.5490481655
 10
25.7229963292
 20
18.546747083
 10
25.7759002739
 20
18.5387441384
 10
25.8301724428
 20
18.5250886725
 10
25.8854782298
 20
18.5058648758
 10
25.9414766565
 20
18.4811912694
 10
25.9978224739
 20
18.4512199743
 10
26.0541682912
 20
18.4161357734
 10
26.1101667179
 20
18.3761549726
 10
26.1654725049
 20
18.3315240668
 10
26.2197446738
 20
18.2825182203
 10
26.2726486185
 20
18.2294395705
 10
26.3238581686
 20
18.172615365
 10
26.3730576002
 20
18.1123959437
 10
26.4199435825
 20
18.0491525796
 10
26.4642270478
 20
17.9832751889
 10
26.5056349739
 20
17.9151699278
 10
26.5439120669
 20
17.8452566877
 10
26.5788223361
 20
17.773966507
 10
26.6101505479
 20
17.7017389135
 10
26.6377035535
 20
17.6290192142
 10
26.6613114795
 20
17.5562557502
 10
26.6808287751
 20
17.4838971326
 10
26.6961351097
 20
17.4123894763
 10
26.7071361147
 20
17.3421736497
 10
26.7137639653
 20
17.2736825568
 10
26.7159777985
 20
17.2073384679
  0
ARC
  5
1D5
330
1F
100
AcDbEntity
  8
0
  6
Continuous
 62
     7
370
    25
100
AcDbCircle
 10
25.7912212664
 20
18.0474920722
 30
0.0
 40
0.4878756343959528
100
AcDbArc
 50
146.9888438247
 51
169.5749546545
  0
LINE
  5
1D6
330
1F
100
AcDbEntity
  8
0
  6
Continuous
 62
     7
370
    25
100
AcDbLine
 10
25.0550730467
 20
17.9877987444
 30
0.0
 11
25.3113992549
 21
18.1357727147
 31
0.0
  0
LINE
  5
1D7
330
1F
100
AcDbEntity
  8
0
  6
Continuous
 62
     7
370
    25
100
AcDbLine
 10
25.4621006988
 20
18.0487746229
 30
0.0
 11
25.3113992549
 21
18.1357727147
 31
0.0
  0
LWPOLYLINE
  5
1D8
330
1F
100
AcDbEntity
  8
0
  6
Continuous
 62
     7
370
    25
100
AcDbPolyline
 90
       22
 70
   128
 43
0.0
 10
25.3466591288
 20
17.6677634105
 10
25.3637887487
 20
17.6134379497
 10
25.3894071657
 20
17.5433460283
 10
25.4188416478
 20
17.4736447844
 10
25.4518965497
 20
17.4047975084
 10
25.4883521623
 20
17.3372618142
 10
25.5279661723
 20
17.2714865981
 10
25.5704752733
 20
17.2079090549
 10
25.6155969159
 20
17.1469517717
 10
25.6630311854
 20
17.0890199195
 10
25.7124627958
 20
17.0344985596
 10
25.7635631851
 20
16.9837500846
 10
25.8159926991
 20
16.9371118095
 10
25.8694028495
 20
16.8948937297
 10
25.9234386295
 20
16.8573764602
 10
25.9777408742
 20
16.8248093708
 10
26.0319486474
 20
16.7974089284
 10
26.0857016408
 20
16.7753572584
 10
26.1386425692
 20
16.7588009337
 10
26.1904195446
 20
16.7478500009
 10
26.240688416
 20
16.7425772488
 10
26.2886233048
 20
16.7429838092
  0
LINE
  5
1D9
330
1F
100
AcDbEntity
  8
0
  6
Continuous
 62
     7
370
    25
100
AcDbLine
 10
25.4621006988
 20
17.7344064104
 30
0.0
 11
25.4621006988
 21
18.0487746229
 31
0.0
  0
LINE
  5
1DA
330
1F
100
AcDbEntity
  8
0
  6
Continuous
 62
     7
370
    25
100
AcDbLine
 10
26.214992644
 20
17.3181914139
 30
0.0
 11
26.3385854671
 21
17.3350401498
 31
0.0
  0
LINE
  5
1DB
330
1F
100
AcDbEntity
  8
0
  6
Continuous
 62
     7
370
    25
100
AcDbLine
 10
25.4621006988
 20
17.7344064104
 30
0.0
 11
25.2057744906
 21
17.5864324401
 31
0.0
  0
LINE
  5
1DC
330
1F
100
AcDbEntity
  8
0
  6
Continuous
 62
     7
370
    25
100
AcDbLine
 10
25.4621006988
 20
18.0487746229
 30
0.0
 11
25.2057744906
 21
17.9008006527
 31
0.0
  0
LWPOLYLINE
  5
1DD
330
1F
100
AcDbEntity
  8
0
  6
Continuous
 62
     7
370
    25
100
AcDbPolyline
 90
       24
 70
   128
 43
0.0
 10
25.2702979844
 20
17.7808651665
 10
25.2726579137
 20
17.762400518
 10
25.2795626767
 20
17.7480300245
 10
25.2905001786
 20
17.7388194797
 10
25.304659235
 20
17.7354519877
 10
25.3209897333
 20
17.7381772998
 10
25.3382805153
 20
17.7467932922
 10
25.3552492027
 20
17.7606609561
 10
25.3706373056
 20
17.7787517903
 10
25.3833035589
 20
17.7997240804
 10
25.3923085645
 20
17.8220224077
 10
25.3969844622
 20
17.8439930071
 10
25.3969844622
 20
17.8640064198
 10
25.3923085645
 20
17.8805783426
 10
25.3833035589
 20
17.8924797117
 10
25.3706373056
 20
17.8988278571
 10
25.3552492027
 20
17.8991519658
 10
25.3382805153
 20
17.8934280002
 10
25.3209897333
 20
17.8820804807
 10
25.304659235
 20
17.8659510008
 10
25.2905001786
 20
17.8462358102
 10
25.2795626767
 20
17.8243970946
 10
25.2726579137
 20
17.8020545314
 10
25.2702979844
 20
17.7808651665
  0
LWPOLYLINE
  5
1DE
330
1F
100
AcDbEntity
  8
0
  6
Continuous
 62
     8
370
    25
100
AcDbPolyline
 90
       19
 70
   128
 43
0.0
 10
25.7912890974
 20
17.7336252122
 10
25.8032281299
 20
17.7390676777
 10
25.8243877544
 20
17.7429814619
 10
25.8477013008
 20
17.7410296919
 10
25.8724194528
 20
17.7332750991
 10
25.8977477484
 20
17.7199669226
 10
25.9228721156
 20
17.701532898
 10
25.9469850363
 20
17.6785655102
 10
25.9693115016
 20
17.6518029498
 10
25.9891339204
 20
17.6221053875
 10
26.0058151839
 20
17.5904273275
 10
26.0188191425
 20
17.5577869287
 10
26.0277278384
 20
17.5252332803
 10
26.0322549387
 20
17.4938126833
 10
26.0322549387
 20
17.4645350217
 10
26.0277278384
 20
17.4383413035
 10
26.0188191425
 20
17.4160734164
 10
26.0058151839
 20
17.3984470687
 10
25.9913947766
 20
17.3872762293
  0
LWPOLYLINE
  5
1DF
330
1F
100
AcDbEntity
  8
0
  6
Continuous
 62
     8
370
    25
100
AcDbPolyline
 90
       19
 70
   128
 43
0.0
 10
26.0537520001
 20
17.4235055552
 10
26.0637979399
 20
17.4319198013
 10
26.0768018986
 20
17.449546149
 10
26.0857105945
 20
17.4718140361
 10
26.0902376948
 20
17.4980077543
 10
26.0902376948
 20
17.5272854159
 10
26.0857105945
 20
17.5587060129
 10
26.0768018986
 20
17.5912596613
 10
26.0637979399
 20
17.6239000601
 10
26.0471166764
 20
17.6555781201
 10
26.0272942576
 20
17.6852756824
 10
26.0049677924
 20
17.7120382428
 10
25.9808548716
 20
17.7350056306
 10
25.9557305045
 20
17.7534396552
 10
25.9304022088
 20
17.7667478317
 10
25.9056840569
 20
17.7745024245
 10
25.8823705104
 20
17.7764541945
 10
25.861210886
 20
17.7725404103
 10
25.8493937861
 20
17.7671685069
  0
LINE
  5
1E0
330
1F
100
AcDbEntity
  8
0
  6
Continuous
 62
     8
370
    25
100
AcDbLine
 10
25.8412531001
 20
17.5956544677
 30
0.0
 11
25.8392030998
 21
17.5968379076
 31
0.0
  0
LINE
  5
1E1
330
1F
100
AcDbEntity
  8
0
  6
Continuous
 62
     8
370
    25
100
AcDbLine
 10
25.8967880162
 20
17.4969431426
 30
0.0
 11
25.8967880162
 21
17.499155755
 31
0.0
  0
LINE
  5
1E2
330
1F
100
AcDbEntity
  8
0
  6
Continuous
 62
     8
370
    25
100
AcDbLine
 10
25.8959172853
 20
17.4996584172
 30
0.0
 11
25.8959172853
 21
17.496289299
 31
0.0
  0
LINE
  5
1E3
330
1F
100
AcDbEntity
  8
0
  6
Continuous
 62
     8
370
    25
100
AcDbLine
 10
25.8382012635
 20
17.5964107676
 30
0.0
 11
25.8412531001
 21
17.5946489798
 31
0.0
  0
LINE
  5
1E4
330
1F
100
AcDbEntity
  8
0
  6
Continuous
 62
     8
370
    25
100
AcDbLine
 10
25.8403009662
 20
17.5637184326
 30
0.0
 11
25.8068353846
 21
17.5830377016
 31
0.0
  0
LINE
  5
1E5
330
1F
100
AcDbEntity
  8
0
  6
Continuous
 62
     8
370
    25
100
AcDbLine
 10
25.8686539691
 20
17.4758169071
 30
0.0
 11
25.8686539691
 21
17.5144491041
 31
0.0
  0
LWPOLYLINE
  5
1E6
330
1F
100
AcDbEntity
  8
0
  6
Continuous
 62
     8
370
    25
100
AcDbPolyline
 90
       14
 70
   128
 43
0.0
 10
24.2603966986
 20
16.0027579988
 10
24.2581407901
 20
15.952693298
 10
24.2513962133
 20
15.9057469453
 10
24.2402321766
 20
15.8624006737
 10
24.2247632383
 20
15.8230992748
 10
24.2051481305
 20
15.788246034
 10
24.1815881308
 20
15.7581985927
 10
24.1543249966
 20
15.7332652784
 10
24.1236384846
 20
15.7137019406
 10
24.08984348
 20
15.6997093257
 10
24.0532867652
 20
15.6914310167
 10
24.0143434617
 20
15.6889519603
 10
23.9734131803
 20
15.692297595
 10
23.9727680912
 20
15.6923947694
  0
LWPOLYLINE
  5
1E7
330
1F
100
AcDbEntity
  8
0
  6
Continuous
 62
     8
370
    25
100
AcDbPolyline
 90
       29
 70
   128
 43
0.0
 10
23.4081723524
 20
16.6704092446
 10
23.4166496534
 20
16.6900722828
 10
23.4362647613
 20
16.7249255236
 10
23.459824761
 20
16.7549729649
 10
23.4870878952
 20
16.7799062792
 10
23.5177744071
 20
16.799469617
 10
23.5515694117
 20
16.813462232
 10
23.5881261265
 20
16.8217405409
 10
23.6270694301
 20
16.8242195973
 10
23.6679997115
 20
16.8208739626
 10
23.7104969706
 20
16.8117379674
 10
23.7541251281
 20
16.7969053596
 10
23.7984365
 20
16.7765283418
 10
23.8429763917
 20
16.7508160096
 10
23.8872877636
 20
16.7200322064
 10
23.9309159211
 20
16.6844928158
 10
23.9734131803
 20
16.6445625199
 10
24.0143434617
 20
16.6006510577
 10
24.0532867652
 20
16.5532090201
 10
24.08984348
 20
16.5027232266
 10
24.1236384846
 20
16.4497117298
 10
24.1543249966
 20
16.3947184995
 10
24.1815881308
 20
16.3383078405
 10
24.2051481305
 20
16.2810586025
 10
24.2247632383
 20
16.2235582403
 10
24.2402321766
 20
16.1663967853
 10
24.2513962133
 20
16.1101607915
 10
24.2581407901
 20
16.0554273161
 10
24.2603966986
 20
16.0027579988
  0
LINE
  5
1E8
330
1F
100
AcDbEntity
  8
BEND_LINE
100
AcDbLine
 10
24.4660444268
 20
16.6291314653
 30
0.0
 11
25.6249848069
 21
17.2981735058
 31
0.0
  0
MTEXT
  5
1E9
330
1F
100
AcDbEntity
  8
NOTES
100
AcDbMText
 10
25.4476430882
 20
15.5436654905
 30
0.0
 40
0.5
 41
0.0
 71
     1
 72
     1
  1
mounting plate
  7
SLDTEXTSTYLE0
 73
     1
 44
1.0
  0
LEADER
  5
1EB
330
1F
100
AcDbEntity
  8
NOTES
100
AcDbLeader
  3
SLDDIMSTYLE2
 76
     3
 10
24.4562692645
 20
15.760995796
 30
0.0
 10
24.9261232052
 20
15.2905666234
 30
0.0
 10
25.4261232052
 20
15.2905666234
 30
0.0
  0
MTEXT
  5
1EC
330
1F
100
AcDbEntity
  8
NOTES
100
AcDbMText
 10
20.9671428408
 20
18.3890794207
 30
0.0
 40
0.5
 41
0.0
 71
     1
 72
     1
  1
set screw
  7
SLDTEXTSTYLE0
 73
     1
 44
1.0
  0
LEADER
  5
1ED
330
1F
100
AcDbEntity
  8
NOTES
100
AcDbLeader
  3
SLDDIMSTYLE2
 76
     3
 10
24.9727784513
 20
17.960525906
 30
0.0
 10
24.3846759785
 20
18.1371777087
 30
0.0
 10
23.8846759785
 20
18.1371777087
 30
0.0
  0
MTEXT
  5
1EE
330
1F
100
AcDbEntity
  8
NOTES
100
AcDbMText
 10
23.4675648922
 20
14.7649462402
 30
0.0
 40
0.5
 41
0.0
 71
     1
 72
     1
  1
3d  Back view - assembly
  7
SLDTEXTSTYLE0
 73
     1
 44
1.0
  0
LINE
  5
1EF
330
1F
100
AcDbEntity
  8
0
  6
Continuous
 62
     7
370
    25
100
AcDbLine
 10
15.5690562923
 20
10.5086204493
 30
0.0
 11
15.1580562923
 21
10.5086204493
 31
0.0
  0
LINE
  5
1F0
330
1F
100
AcDbEntity
  8
0
  6
Continuous
 62
     7
370
    25
100
AcDbLine
 10
15.1580562923
 20
8.4773704493
 30
0.0
 11
15.5690562923
 21
8.4773704493
 31
0.0
  0
LINE
  5
1F1
330
1F
100
AcDbEntity
  8
0
  6
Continuous
 62
     7
370
    25
100
AcDbLine
 10
15.1580562923
 20
9.8754954493
 30
0.0
 11
12.7845562923
 21
9.8754954493
 31
0.0
  0
LINE
  5
1F2
330
1F
100
AcDbEntity
  8
0
  6
Continuous
 62
     7
370
    25
100
AcDbLine
 10
12.7845562923
 20
9.1104954493
 30
0.0
 11
15.1580562923
 21
9.1104954493
 31
0.0
  0
CIRCLE
  5
1F3
330
1F
100
AcDbEntity
  8
0
  6
Continuous
 62
     7
370
    25
100
AcDbCircle
 10
15.3878062923
 20
9.4929954493
 30
0.0
 40
0.0900000000000016
  0
LINE
  5
1F4
330
1F
100
AcDbEntity
  8
0
  6
Continuous
 62
     7
370
    25
100
AcDbLine
 10
15.3479404859
 20
9.4574595405
 30
0.0
 11
15.3986483888
 21
9.4407026938
 31
0.0
  0
LINE
  5
1F5
330
1F
100
AcDbEntity
  8
0
  6
Continuous
 62
     7
370
    25
100
AcDbLine
 10
15.3986483888
 20
9.4407026938
 30
0.0
 11
15.4385141952
 21
9.4762386026
 31
0.0
  0
LINE
  5
1F6
330
1F
100
AcDbEntity
  8
0
  6
Continuous
 62
     7
370
    25
100
AcDbLine
 10
15.4385141952
 20
9.4762386026
 30
0.0
 11
15.4276720987
 21
9.5285313581
 31
0.0
  0
LINE
  5
1F7
330
1F
100
AcDbEntity
  8
0
  6
Continuous
 62
     7
370
    25
100
AcDbLine
 10
15.4276720987
 20
9.5285313581
 30
0.0
 11
15.3769641957
 21
9.5452882048
 31
0.0
  0
LINE
  5
1F8
330
1F
100
AcDbEntity
  8
0
  6
Continuous
 62
     7
370
    25
100
AcDbLine
 10
15.3769641957
 20
9.5452882048
 30
0.0
 11
15.3370983893
 21
9.509752296
 31
0.0
  0
LINE
  5
1F9
330
1F
100
AcDbEntity
  8
0
  6
Continuous
 62
     7
370
    25
100
AcDbLine
 10
15.3370983893
 20
9.509752296
 30
0.0
 11
15.3479404859
 21
9.4574595405
 31
0.0
  0
LINE
  5
1FA
330
1F
100
AcDbEntity
  8
0
  6
Continuous
 62
     7
370
    25
100
AcDbLine
 10
15.5690562923
 20
8.4773704493
 30
0.0
 11
15.5690562923
 21
10.5086204493
 31
0.0
  0
LINE
  5
1FB
330
1F
100
AcDbEntity
  8
0
  6
Continuous
 62
     7
370
    25
100
AcDbLine
 10
15.1580562923
 20
8.4773704493
 30
0.0
 11
15.1580562923
 21
10.5086204493
 31
0.0
  0
LWPOLYLINE
  5
1FC
330
1F
100
AcDbEntity
  8
0
  6
Continuous
 62
     7
370
    25
100
AcDbPolyline
 90
       33
 70
   128
 43
0.0
 10
15.2560221218
 20
9.4929954493
 10
15.2585723676
 20
9.5201011302
 10
15.2660626026
 20
9.5460013352
 10
15.2782681967
 20
9.5699721679
 10
15.2946361345
 20
9.5909114447
 10
15.3145657784
 20
9.6080958928
 10
15.3373829168
 20
9.6209114197
 10
15.3620296327
 20
9.6287725239
 10
15.3878311904
 20
9.6314468131
 10
15.4135040214
 20
9.6287890367
 10
15.4382601671
 20
9.6208981452
 10
15.4610543974
 20
9.6080905608
 10
15.4809562915
 20
9.5909326115
 10
15.4973748163
 20
9.5699243544
 10
15.5095176273
 20
9.5460832825
 10
15.5170628224
 20
9.5199818986
 10
15.5195903813
 20
9.4928416071
 10
15.5170375546
 20
9.4658757615
 10
15.5095029895
 20
9.4398705904
 10
15.4972946468
 20
9.4159406633
 10
15.4809424879
 20
9.3950437983
 10
15.4609324778
 20
9.3778147999
 10
15.4382309256
 20
9.3650800261
 10
15.4134466663
 20
9.3571898958
 10
15.3877417548
 20
9.3545440995
 10
15.3620194939
 20
9.3572204996
 10
15.3372462854
 20
9.3651390196
 10
15.3145497054
 20
9.3779062961
 10
15.2945584145
 20
9.3951611472
 10
15.2782329328
 20
9.4160741461
 10
15.2660507253
 20
9.4400196832
 10
15.2585475104
 20
9.4660209067
 10
15.2560221218
 20
9.4929954493
  0
CIRCLE
  5
1FD
330
1F
100
AcDbEntity
  8
0
  6
Continuous
 62
     7
370
    25
100
AcDbCircle
 10
15.3878062923
 20
9.4929954493
 30
0.0
 40
0.0899999999999999
  0
CIRCLE
  5
1FE
330
1F
100
AcDbEntity
  8
0
  6
Continuous
 62
     7
370
    25
100
AcDbCircle
 10
12.7845562923
 20
9.4929954493
 30
0.0
 40
0.3824999999999985
  0
ARC
  5
1FF
330
1F
100
AcDbEntity
  8
0
  6
Continuous
 62
     7
370
    25
100
AcDbCircle
 10
12.7845562923
 20
9.4929954493
 30
0.0
 40
0.4990000000000001
100
AcDbArc
 50
50.0435738514
 51
309.9564261486
  0
DIMENSION
  5
200
330
1F
100
AcDbEntity
  8
DIMS
100
AcDbDimension
  2
_D_3
 10
17.0583636798
 20
10.5086204493
 30
0.0
 11
17.0583636798
 21
9.4787884653
 31
0.0
 70
   160
  1
%%c<>
 71
     2
 42
-1.0
  3
SLDDIMSTYLE3
100
AcDbAlignedDimension
 13
15.5690562923
 23
8.4773704493
 33
0.0
 14
15.5690562923
 24
10.5086204493
 34
0.0
 50
90.0
100
AcDbRotatedDimension
  0
MTEXT
  5
211
330
1F
100
AcDbEntity
  8
NOTES
100
AcDbMText
 10
10.9814833084
 20
11.3668352664
 30
0.0
 40
0.5
 41
0.0
 71
     1
 72
     1
  1
set screw
  7
SLDTEXTSTYLE0
 73
     1
 44
1.0
  0
LEADER
  5
212
330
1F
100
AcDbEntity
  8
NOTES
100
AcDbLeader
  3
SLDDIMSTYLE2
 76
     3
 10
15.3370983893
 20
9.509752296
 30
0.0
 10
14.4022381215
 20
11.1171452863
 30
0.0
 10
13.9022381215
 20
11.1171452863
 30
0.0
  0
MTEXT
  5
213
330
1F
100
AcDbEntity
  8
NOTES
100
AcDbMText
 10
11.44503928
 20
8.6994498336
 30
0.0
 40
0.5
 41
0.0
 71
     1
 72
     1
  1
Side view
  7
SLDTEXTSTYLE0
 73
     1
 44
1.0
  0
LINE
  5
214
330
1F
100
AcDbEntity
  8
0
  6
Continuous
 62
     7
370
    25
100
AcDbLine
 10
25.8643129098
 20
9.4029954493
 30
0.0
 11
25.9443129098
 21
9.4829954493
 31
0.0
  0
LINE
  5
215
330
1F
100
AcDbEntity
  8
0
  6
Continuous
 62
     7
370
    25
100
AcDbLine
 10
25.9443129098
 20
9.5029954493
 30
0.0
 11
25.8643129098
 21
9.5829954493
 31
0.0
  0
LINE
  5
216
330
1F
100
AcDbEntity
  8
0
  6
Continuous
 62
     7
370
    25
100
AcDbLine
 10
25.8643129098
 20
9.5829954493
 30
0.0
 11
25.8043129098
 21
9.5829954493
 31
0.0
  0
LINE
  5
217
330
1F
100
AcDbEntity
  8
0
  6
Continuous
 62
     7
370
    25
100
AcDbLine
 10
25.8043129098
 20
9.4029954493
 30
0.0
 11
25.8643129098
 21
9.4029954493
 31
0.0
  0
LINE
  5
218
330
1F
100
AcDbEntity
  8
0
  6
Continuous
 62
     7
370
    25
100
AcDbLine
 10
31.8759379098
 20
9.9919954493
 30
0.0
 11
31.6879379098
 21
9.9919954493
 31
0.0
  0
LINE
  5
219
330
1F
100
AcDbEntity
  8
0
  6
Continuous
 62
     7
370
    25
100
AcDbLine
 10
31.6879379098
 20
8.9939954493
 30
0.0
 11
31.8759379098
 21
8.9939954493
 31
0.0
  0
LINE
  5
21A
330
1F
100
AcDbEntity
  8
0
  6
Continuous
 62
     7
370
    25
100
AcDbLine
 10
27.4542821533
 20
9.1104954493
 30
0.0
 11
31.6879379098
 21
9.1104954493
 31
0.0
  0
LINE
  5
21B
330
1F
100
AcDbEntity
  8
0
  6
Continuous
 62
     7
370
    25
100
AcDbLine
 10
25.5059379098
 20
9.1104954493
 30
0.0
 11
25.5725936662
 21
9.1104954493
 31
0.0
  0
LINE
  5
21C
330
1F
100
AcDbEntity
  8
0
  6
Continuous
 62
     7
370
    25
100
AcDbLine
 10
25.5725936662
 20
9.8754954493
 30
0.0
 11
25.5059379098
 21
9.8754954493
 31
0.0
  0
LINE
  5
21D
330
1F
100
AcDbEntity
  8
0
  6
Continuous
 62
     7
370
    25
100
AcDbLine
 10
31.6879379098
 20
9.8754954493
 30
0.0
 11
27.4542821533
 21
9.8754954493
 31
0.0
  0
LINE
  5
21E
330
1F
100
AcDbEntity
  8
0
  6
Continuous
 62
     7
370
    25
100
AcDbLine
 10
25.9443129098
 20
9.4929954493
 30
0.0
 11
25.9443129098
 21
9.4829954493
 31
0.0
  0
LINE
  5
21F
330
1F
100
AcDbEntity
  8
0
  6
Continuous
 62
     7
370
    25
100
AcDbLine
 10
25.9443129098
 20
9.5029954493
 30
0.0
 11
25.9443129098
 21
9.4929954493
 31
0.0
  0
LINE
  5
220
330
1F
100
AcDbEntity
  8
0
  6
Continuous
 62
     7
370
    25
100
AcDbLine
 10
25.8643129098
 20
9.4929954493
 30
0.0
 11
25.8643129098
 21
9.5829954493
 31
0.0
  0
LINE
  5
221
330
1F
100
AcDbEntity
  8
0
  6
Continuous
 62
     7
370
    25
100
AcDbLine
 10
25.8643129098
 20
9.4029954493
 30
0.0
 11
25.8643129098
 21
9.4929954493
 31
0.0
  0
CIRCLE
  5
222
330
1F
100
AcDbEntity
  8
0
  6
Continuous
 62
     7
370
    25
100
AcDbCircle
 10
26.6463525649
 20
9.4929954493
 30
0.0
 40
0.0975000000000001
  0
CIRCLE
  5
223
330
1F
100
AcDbEntity
  8
0
  6
Continuous
 62
     7
370
    25
100
AcDbCircle
 10
26.6463525649
 20
9.0594954493
 30
0.0
 40
0.0975000000000001
  0
CIRCLE
  5
224
330
1F
100
AcDbEntity
  8
0
  6
Continuous
 62
     7
370
    25
100
AcDbCircle
 10
26.6463525649
 20
9.9264954493
 30
0.0
 40
0.0975000000000001
  0
ARC
  5
225
330
1F
100
AcDbEntity
  8
0
  6
Continuous
 62
     7
370
    25
100
AcDbCircle
 10
26.6463525649
 20
9.4929954493
 30
0.0
 40
0.7675000000000037
100
AcDbArc
 50
185.3880798867
 51
345.4742946055
  0
ARC
  5
226
330
1F
100
AcDbEntity
  8
0
  6
Continuous
 62
     7
370
    25
100
AcDbCircle
 10
26.6463525649
 20
9.4929954493
 30
0.0
 40
0.7675000000000037
100
AcDbArc
 50
14.5257053945
 51
174.6119201133
  0
LINE
  5
227
330
1F
100
AcDbEntity
  8
0
  6
Continuous
 62
     7
370
    25
100
AcDbLine
 10
27.4356869356
 20
9.3004954493
 30
0.0
 11
27.2315629098
 21
9.3004954493
 31
0.0
  0
LINE
  5
228
330
1F
100
AcDbEntity
  8
0
  6
Continuous
 62
     7
370
    25
100
AcDbLine
 10
27.2315629098
 20
9.3004954493
 30
0.0
 11
27.2315629098
 21
9.6854954493
 31
0.0
  0
LINE
  5
229
330
1F
100
AcDbEntity
  8
0
  6
Continuous
 62
     7
370
    25
100
AcDbLine
 10
27.4356869356
 20
9.6854954493
 30
0.0
 11
27.2315629098
 21
9.6854954493
 31
0.0
  0
ARC
  5
22A
330
1F
100
AcDbEntity
  8
0
  6
Continuous
 62
     7
370
    25
100
AcDbCircle
 10
26.5134379098
 20
9.4929954493
 30
0.0
 40
0.9421250000000023
100
AcDbArc
 50
11.7900072719
 51
168.2099927281
  0
LINE
  5
22B
330
1F
100
AcDbEntity
  8
0
  6
Continuous
 62
     7
370
    25
100
AcDbLine
 10
25.8043129098
 20
9.6854954493
 30
0.0
 11
25.5911888839
 21
9.6854954493
 31
0.0
  0
LINE
  5
22C
330
1F
100
AcDbEntity
  8
0
  6
Continuous
 62
     7
370
    25
100
AcDbLine
 10
25.8043129098
 20
9.3004954493
 30
0.0
 11
25.8043129098
 21
9.6854954493
 31
0.0
  0
LINE
  5
22D
330
1F
100
AcDbEntity
  8
0
  6
Continuous
 62
     7
370
    25
100
AcDbLine
 10
25.8043129098
 20
9.3004954493
 30
0.0
 11
25.5911888839
 21
9.3004954493
 31
0.0
  0
ARC
  5
22E
330
1F
100
AcDbEntity
  8
0
  6
Continuous
 62
     7
370
    25
100
AcDbCircle
 10
26.5134379098
 20
9.4929954493
 30
0.0
 40
0.9421250000000052
100
AcDbArc
 50
191.7900072719
 51
348.2099927281
  0
CIRCLE
  5
22F
330
1F
100
AcDbEntity
  8
0
  6
Continuous
 62
     7
370
    25
100
AcDbCircle
 10
26.5134379098
 20
9.4929954493
 30
0.0
 40
1.015625000000004
  0
LINE
  5
230
330
1F
100
AcDbEntity
  8
0
  6
Continuous
 62
     7
370
    25
100
AcDbLine
 10
31.6879379098
 20
9.4929954493
 30
0.0
 11
31.6879379098
 21
8.9939954493
 31
0.0
  0
LINE
  5
231
330
1F
100
AcDbEntity
  8
0
  6
Continuous
 62
     7
370
    25
100
AcDbLine
 10
31.6879379098
 20
9.9919954493
 30
0.0
 11
31.6879379098
 21
9.4929954493
 31
0.0
  0
LINE
  5
232
330
1F
100
AcDbEntity
  8
0
  6
Continuous
 62
     7
370
    25
100
AcDbLine
 10
31.8759379098
 20
9.4929954493
 30
0.0
 11
31.8759379098
 21
8.9939954493
 31
0.0
  0
LINE
  5
233
330
1F
100
AcDbEntity
  8
0
  6
Continuous
 62
     7
370
    25
100
AcDbLine
 10
31.8759379098
 20
9.9919954493
 30
0.0
 11
31.8759379098
 21
9.4929954493
 31
0.0
  0
LINE
  5
234
330
1F
100
AcDbEntity
  8
0
  6
Continuous
 62
     7
370
    25
100
AcDbLine
 10
25.5059379098
 20
9.3647851118
 30
0.0
 11
25.5059379098
 21
9.1104954493
 31
0.0
  0
LINE
  5
235
330
1F
100
AcDbEntity
  8
0
  6
Continuous
 62
     7
370
    25
100
AcDbLine
 10
25.5059379098
 20
9.8754954493
 30
0.0
 11
25.5059379098
 21
9.6212057867
 31
0.0
  0
ARC
  5
236
330
1F
100
AcDbEntity
  8
0
  6
Continuous
 62
     8
370
    25
100
AcDbCircle
 10
26.6463525649
 20
9.4929954493
 30
0.0
 40
0.6218159186312274
100
AcDbArc
 50
18.0337494502
 51
341.9662505498
  0
LINE
  5
237
330
1F
100
AcDbEntity
  8
0
  6
CENTERX2
 62
     7
370
    18
100
AcDbLine
 10
26.6463525649
 20
9.4929954493
 30
0.0
 11
25.4978129098
 21
9.4929954493
 31
0.0
  0
POINT
  5
238
330
1F
100
AcDbEntity
  8
0
  6
Continuous
 62
     7
370
     0
100
AcDbPoint
 10
26.5134379098
 20
8.4754954493
 30
0.0
  0
DIMENSION
  5
239
330
1F
100
AcDbEntity
  8
DIMS
100
AcDbDimension
  2
_D_4
 10
25.4978129098
 20
7.609353717
 30
0.0
 11
27.9056762302
 21
7.609353717
 31
0.0
 70
   160
  1
<>
 71
     2
 42
-1.0
  3
SLDDIMSTYLE0
100
AcDbAlignedDimension
 13
26.6463525649
 23
9.4929954493
 33
0.0
 14
25.4978129098
 24
9.4929954493
 34
0.0
 50
0.0
100
AcDbRotatedDimension
  0
DIMENSION
  5
248
330
1F
100
AcDbEntity
  8
DIMS
100
AcDbDimension
  2
_D_5
 10
24.8659957479
 20
9.0594954493
 30
0.0
 11
24.8659957479
 21
6.9006922997
 31
0.0
 70
   160
  1
<>
 71
     2
 42
-1.0
  3
SLDDIMSTYLE0
100
AcDbAlignedDimension
 13
26.5134379098
 23
8.4754954493
 33
0.0
 14
26.6463525649
 24
9.0594954493
 34
0.0
 50
90.0
100
AcDbRotatedDimension
  0
DIMENSION
  5
257
330
1F
100
AcDbEntity
  8
DIMS
100
AcDbDimension
  2
_D_6
 10
23.4467979133
 20
9.0594954493
 30
0.0
 11
23.4467979133
 21
11.1404167091
 31
0.0
 70
   160
  1
<>
 71
     2
 42
-1.0
  3
SLDDIMSTYLE0
100
AcDbAlignedDimension
 13
26.6463525649
 23
9.9264954493
 33
0.0
 14
26.6463525649
 24
9.0594954493
 34
0.0
 50
90.0
100
AcDbRotatedDimension
  0
DIMENSION
  5
266
330
1F
100
AcDbEntity
  8
DIMS
100
AcDbDimension
  2
_D_7
 10
26.7152954761
 20
9.8575525381
 30
0.0
 11
28.9930936167
 21
11.9293203633
 31
0.0
 70
   163
  1
<>  mounting holes (3)
 71
     1
 42
-1.0
  3
SLDDIMSTYLE4
100
AcDbDiametricDimension
 15
26.5774096538
 25
9.9954383604
 35
0.0
 40
0.0
  0
DIMENSION
  5
274
330
1F
100
AcDbEntity
  8
DIMS
100
AcDbDimension
  2
_D_8
 10
24.1554593306
 20
9.4929954493
 30
0.0
 11
24.1554593306
 21
8.0817946619
 31
0.0
 70
   160
  1
<>
 71
     2
 42
-1.0
  3
SLDDIMSTYLE0
100
AcDbAlignedDimension
 13
26.6463525649
 23
9.0594954493
 33
0.0
 14
26.6463525649
 24
9.4929954493
 34
0.0
 50
90.0
100
AcDbRotatedDimension
  0
MTEXT
  5
283
330
1F
100
AcDbEntity
  8
NOTES
100
AcDbMText
 10
29.0197353717
 20
8.5804951956
 30
0.0
 40
0.5
 41
0.0
 71
     1
 72
     1
  1
Back view
  7
SLDTEXTSTYLE0
 73
     1
 44
1.0
  0
ENDSEC
  0
SECTION
  2
OBJECTS
  0
DICTIONARY
  5
C
330
0
100
AcDbDictionary
281
     1
  3
ACAD_DETAILVIEWSTYLE
350
28D
  3
ACAD_GROUP
350
D
  3
ACAD_LAYOUT
350
1A
  3
ACAD_MATERIAL
350
43
  3
ACAD_MLEADERSTYLE
350
6B
  3
ACAD_MLINESTYLE
350
17
  3
ACAD_PLOTSETTINGS
350
19
  3
ACAD_PLOTSTYLENAME
350
E
  3
ACAD_SCALELIST
350
47
  3
ACAD_SECTIONVIEWSTYLE
350
28E
  3
ACAD_TABLESTYLE
350
69
  3
ACDB_RECOMPOSE_DATA
350
28A
  3
AcDbVariableDictionary
350
284
  0
DICTIONARY
  5
28D
102
{ACAD_REACTORS
330
C
102
}
330
C
100
AcDbDictionary
281
     1
  0
DICTIONARY
  5
D
102
{ACAD_REACTORS
330
C
102
}
330
C
100
AcDbDictionary
281
     1
  0
DICTIONARY
  5
1A
102
{ACAD_REACTORS
330
C
102
}
330
C
100
AcDbDictionary
281
     1
  3
Layout1
350
1E
  3
Layout2
350
26
  3
Model
350
22
  0
DICTIONARY
  5
43
102
{ACAD_REACTORS
330
C
102
}
330
C
100
AcDbDictionary
281
     1
  3
ByBlock
350
45
  3
ByLayer
350
44
  3
Global
350
46
  0
DICTIONARY
  5
6B
102
{ACAD_REACTORS
330
C
102
}
330
C
100
AcDbDictionary
281
     1
  3
Standard
350
6C
  0
DICTIONARY
  5
17
102
{ACAD_REACTORS
330
C
102
}
330
C
100
AcDbDictionary
281
     1
  3
Standard
350
18
  0
DICTIONARY
  5
19
102
{ACAD_REACTORS
330
C
102
}
330
C
100
AcDbDictionary
281
     1
  0
ACDBDICTIONARYWDFLT
  5
E
102
{ACAD_REACTORS
330
C
102
}
330
C
100
AcDbDictionary
281
     1
  3
Normal
350
F
100
AcDbDictionaryWithDefault
340
F
  0
DICTIONARY
  5
47
102
{ACAD_REACTORS
330
C
102
}
330
C
100
AcDbDictionary
281
     1
  3
A0
350
48
  3
A1
350
49
  3
A2
350
4A
  3
A3
350
4B
  3
A4
350
4C
  3
A5
350
4D
  3
A6
350
4E
  3
A7
350
4F
  3
A8
350
50
  3
A9
350
51
  3
B0
350
52
  3
B1
350
53
  3
B2
350
54
  3
B3
350
55
  3
B4
350
56
  3
B5
350
57
  3
B6
350
58
  3
B7
350
59
  3
B8
350
5A
  3
B9
350
5B
  3
C0
350
5C
  3
C1
350
5D
  3
C2
350
5E
  3
C3
350
5F
  3
C4
350
60
  3
C5
350
61
  3
C6
350
62
  3
C7
350
63
  3
C8
350
64
  3
C9
350
65
  3
D0
350
66
  3
D1
350
67
  3
D2
350
68
  0
DICTIONARY
  5
28E
102
{ACAD_REACTORS
330
C
102
}
330
C
100
AcDbDictionary
281
     1
  0
DICTIONARY
  5
69
102
{ACAD_REACTORS
330
C
102
}
330
C
100
AcDbDictionary
281
     1
  3
Standard
350
6A
  0
XRECORD
  5
28A
102
{ACAD_REACTORS
330
C
102
}
330
C
100
AcDbXrecord
280
     1
 90
        1
330
6A
  0
DICTIONARY
  5
284
102
{ACAD_REACTORS
330
C
102
}
330
C
100
AcDbDictionary
281
     1
  3
CANNOSCALE
350
285
  3
CMLEADERSTYLE
350
28C
  3
CTABLESTYLE
350
28B
  0
LAYOUT
  5
1E
102
{ACAD_REACTORS
330
1A
102
}
330
1A
100
AcDbPlotSettings
  1

  2
none_device
  4

  6

 40
0.0
 41
0.0
 42
0.0
 43
0.0
 44
0.0
 45
0.0
 46
0.0
 47
0.0
 48
0.0
 49
0.0
140
0.0
141
0.0
142
1.0
143
1.0
 70
   688
 72
     0
 73
     0
 74
     5
  7

 75
    16
 76
     0
 77
     2
 78
   300
147
1.0
148
0.0
149
0.0
100
AcDbLayout
  1
Layout1
 70
     1
 71
     1
 10
0.0
 20
0.0
 11
12.0
 21
9.0
 12
0.0
 22
0.0
 32
0.0
 14
1.0000000000E+20
 24
1.0000000000E+20
 34
1.0000000000E+20
 15
-1.0000000000E+20
 25
-1.0000000000E+20
 35
-1.0000000000E+20
146
0.0
 13
0.0
 23
0.0
 33
0.0
 16
1.0
 26
0.0
 36
0.0
 17
0.0
 27
1.0
 37
0.0
 76
     0
330
1B
  0
LAYOUT
  5
26
102
{ACAD_REACTORS
330
1A
102
}
330
1A
100
AcDbPlotSettings
  1

  2
none_device
  4

  6

 40
0.0
 41
0.0
 42
0.0
 43
0.0
 44
0.0
 45
0.0
 46
0.0
 47
0.0
 48
0.0
 49
0.0
140
0.0
141
0.0
142
1.0
143
1.0
 70
   688
 72
     0
 73
     0
 74
     5
  7

 75
    16
 76
     0
 77
     2
 78
   300
147
1.0
148
0.0
149
0.0
100
AcDbLayout
  1
Layout2
 70
     1
 71
     2
 10
0.0
 20
0.0
 11
0.0
 21
0.0
 12
0.0
 22
0.0
 32
0.0
 14
0.0
 24
0.0
 34
0.0
 15
0.0
 25
0.0
 35
0.0
146
0.0
 13
0.0
 23
0.0
 33
0.0
 16
1.0
 26
0.0
 36
0.0
 17
0.0
 27
1.0
 37
0.0
 76
     0
330
23
  0
LAYOUT
  5
22
102
{ACAD_REACTORS
330
1A
102
}
330
1A
100
AcDbPlotSettings
  1

  2
none_device
  4
Letter_(8.50_x_11.00_Inches)
  6

 40
6.35
 41
6.35
 42
6.35000508
 43
6.35000508
 44
215.9
 45
279.4
 46
0.0
 47
0.0
 48
0.0
 49
0.0
140
0.0
141
0.0
142
1.0
143
1.0
 70
  1712
 72
     0
 73
     0
 74
     0
  7

 75
     0
 76
     0
 77
     2
 78
   300
147
1.0
148
0.0
149
0.0
100
AcDbLayout
  1
Model
 70
     1
 71
     0
 10
0.0
 20
0.0
 11
34.0
 21
22.0
 12
0.0
 22
0.0
 32
0.0
 14
0.0
 24
0.0
 34
0.0
 15
34.0
 25
22.0
 35
0.0
146
0.0
 13
0.0
 23
0.0
 33
0.0
 16
1.0
 26
0.0
 36
0.0
 17
0.0
 27
1.0
 37
0.0
 76
     0
330
1F
331
29
  0
MATERIAL
  5
45
102
{ACAD_REACTORS
330
43
102
}
330
43
100
AcDbMaterial
  1
ByBlock
  0
MATERIAL
  5
44
102
{ACAD_REACTORS
330
43
102
}
330
43
100
AcDbMaterial
  1
ByLayer
  0
MATERIAL
  5
46
102
{ACAD_REACTORS
330
43
102
}
330
43
100
AcDbMaterial
  1
Global
  0
MLEADERSTYLE
  5
6C
102
{ACAD_REACTORS
330
6B
102
}
330
6B
100
AcDbMLeaderStyle
170
     2
171
     1
172
     0
 90
        2
 40
0.0
 41
0.0
173
     1
 91
-1056964608
340
14
 92
       -2
290
     1
 42
0.09
291
     1
 43
0.36
  3
Standard
341
0
 44
0.18
300

342
11
174
     1
178
     6
175
     1
176
     0
 93
-1056964608
 45
0.18
292
     0
297
     0
 46
0.18
343
0
 94
-1056964608
 47
1.0
 49
1.0
140
1.0
293
     1
141
0.0
294
     1
177
     0
142
1.0
295
     0
296
     0
143
0.125
1001
ACAD_MLEADERVER
1070
     2
  0
MLINESTYLE
  5
18
102
{ACAD_REACTORS
330
17
102
}
330
17
100
AcDbMlineStyle
  2
Standard
 70
     0
  3

 62
   256
 51
90.0
 52
90.0
 71
     2
 49
0.5
 62
   256
  6
BYLAYER
 49
-0.5
 62
   256
  6
BYLAYER
  0
ACDBPLACEHOLDER
  5
F
102
{ACAD_REACTORS
330
E
102
}
330
E
  0
SCALE
  5
48
102
{ACAD_REACTORS
330
47
102
}
330
47
100
AcDbScale
 70
     0
300
1:1
140
1.0
141
1.0
290
     1
  0
SCALE
  5
49
102
{ACAD_REACTORS
330
47
102
}
330
47
100
AcDbScale
 70
     0
300
1:2
140
1.0
141
2.0
290
     0
  0
SCALE
  5
4A
102
{ACAD_REACTORS
330
47
102
}
330
47
100
AcDbScale
 70
     0
300
1:4
140
1.0
141
4.0
290
     0
  0
SCALE
  5
4B
102
{ACAD_REACTORS
330
47
102
}
330
47
100
AcDbScale
 70
     0
300
1:5
140
1.0
141
5.0
290
     0
  0
SCALE
  5
4C
102
{ACAD_REACTORS
330
47
102
}
330
47
100
AcDbScale
 70
     0
300
1:8
140
1.0
141
8.0
290
     0
  0
SCALE
  5
4D
102
{ACAD_REACTORS
330
47
102
}
330
47
100
AcDbScale
 70
     0
300
1:10
140
1.0
141
10.0
290
     0
  0
SCALE
  5
4E
102
{ACAD_REACTORS
330
47
102
}
330
47
100
AcDbScale
 70
     0
300
1:16
140
1.0
141
16.0
290
     0
  0
SCALE
  5
4F
102
{ACAD_REACTORS
330
47
102
}
330
47
100
AcDbScale
 70
     0
300
1:20
140
1.0
141
20.0
290
     0
  0
SCALE
  5
50
102
{ACAD_REACTORS
330
47
102
}
330
47
100
AcDbScale
 70
     0
300
1:30
140
1.0
141
30.0
290
     0
  0
SCALE
  5
51
102
{ACAD_REACTORS
330
47
102
}
330
47
100
AcDbScale
 70
     0
300
1:40
140
1.0
141
40.0
290
     0
  0
SCALE
  5
52
102
{ACAD_REACTORS
330
47
102
}
330
47
100
AcDbScale
 70
     0
300
1:50
140
1.0
141
50.0
290
     0
  0
SCALE
  5
53
102
{ACAD_REACTORS
330
47
102
}
330
47
100
AcDbScale
 70
     0
300
1:100
140
1.0
141
100.0
290
     0
  0
SCALE
  5
54
102
{ACAD_REACTORS
330
47
102
}
330
47
100
AcDbScale
 70
     0
300
2:1
140
2.0
141
1.0
290
     0
  0
SCALE
  5
55
102
{ACAD_REACTORS
330
47
102
}
330
47
100
AcDbScale
 70
     0
300
4:1
140
4.0
141
1.0
290
     0
  0
SCALE
  5
56
102
{ACAD_REACTORS
330
47
102
}
330
47
100
AcDbScale
 70
     0
300
8:1
140
8.0
141
1.0
290
     0
  0
SCALE
  5
57
102
{ACAD_REACTORS
330
47
102
}
330
47
100
AcDbScale
 70
     0
300
10:1
140
10.0
141
1.0
290
     0
  0
SCALE
  5
58
102
{ACAD_REACTORS
330
47
102
}
330
47
100
AcDbScale
 70
     0
300
100:1
140
100.0
141
1.0
290
     0
  0
SCALE
  5
59
102
{ACAD_REACTORS
330
47
102
}
330
47
100
AcDbScale
 70
     0
300
1/128" = 1'-0"
140
0.0078125
141
12.0
290
     0
  0
SCALE
  5
5A
102
{ACAD_REACTORS
330
47
102
}
330
47
100
AcDbScale
 70
     0
300
1/64" = 1'-0"
140
0.015625
141
12.0
290
     0
  0
SCALE
  5
5B
102
{ACAD_REACTORS
330
47
102
}
330
47
100
AcDbScale
 70
     0
300
1/32" = 1'-0"
140
0.03125
141
12.0
290
     0
  0
SCALE
  5
5C
102
{ACAD_REACTORS
330
47
102
}
330
47
100
AcDbScale
 70
     0
300
1/16" = 1'-0"
140
0.0625
141
12.0
290
     0
  0
SCALE
  5
5D
102
{ACAD_REACTORS
330
47
102
}
330
47
100
AcDbScale
 70
     0
300
3/32" = 1'-0"
140
0.09375
141
12.0
290
     0
  0
SCALE
  5
5E
102
{ACAD_REACTORS
330
47
102
}
330
47
100
AcDbScale
 70
     0
300
1/8" = 1'-0"
140
0.125
141
12.0
290
     0
  0
SCALE
  5
5F
102
{ACAD_REACTORS
330
47
102
}
330
47
100
AcDbScale
 70
     0
300
3/16" = 1'-0"
140
0.1875
141
12.0
290
     0
  0
SCALE
  5
60
102
{ACAD_REACTORS
330
47
102
}
330
47
100
AcDbScale
 70
     0
300
1/4" = 1'-0"
140
0.25
141
12.0
290
     0
  0
SCALE
  5
61
102
{ACAD_REACTORS
330
47
102
}
330
47
100
AcDbScale
 70
     0
300
3/8" = 1'-0"
140
0.375
141
12.0
290
     0
  0
SCALE
  5
62
102
{ACAD_REACTORS
330
47
102
}
330
47
100
AcDbScale
 70
     0
300
1/2" = 1'-0"
140
0.5
141
12.0
290
     0
  0
SCALE
  5
63
102
{ACAD_REACTORS
330
47
102
}
330
47
100
AcDbScale
 70
     0
300
3/4" = 1'-0"
140
0.75
141
12.0
290
     0
  0
SCALE
  5
64
102
{ACAD_REACTORS
330
47
102
}
330
47
100
AcDbScale
 70
     0
300
1" = 1'-0"
140
1.0
141
12.0
290
     0
  0
SCALE
  5
65
102
{ACAD_REACTORS
330
47
102
}
330
47
100
AcDbScale
 70
     0
300
1-1/2" = 1'-0"
140
1.5
141
12.0
290
     0
  0
SCALE
  5
66
102
{ACAD_REACTORS
330
47
102
}
330
47
100
AcDbScale
 70
     0
300
3" = 1'-0"
140
3.0
141
12.0
290
     0
  0
SCALE
  5
67
102
{ACAD_REACTORS
330
47
102
}
330
47
100
AcDbScale
 70
     0
300
6" = 1'-0"
140
6.0
141
12.0
290
     0
  0
SCALE
  5
68
102
{ACAD_REACTORS
330
47
102
}
330
47
100
AcDbScale
 70
     0
300
1'-0" = 1'-0"
140
12.0
141
12.0
290
     0
  0
TABLESTYLE
  5
6A
102
{ACAD_REACTORS
330
69
102
}
102
{ACAD_XDICTIONARY
360
286
102
}
330
69
100
AcDbTableStyle
  3
Standard
 70
     0
 71
     0
 40
0.06
 41
0.06
280
     0
281
     0
  7
Standard
140
0.18
170
     2
 62
     0
 63
   257
283
     0
274
    -2
284
     1
 64
     0
275
    -2
285
     1
 65
     0
276
    -2
286
     1
 66
     0
277
    -2
287
     1
 67
     0
278
    -2
288
     1
 68
     0
279
    -2
289
     1
 69
     0
  7
Standard
140
0.25
170
     5
 62
     0
 63
   257
283
     0
274
    -2
284
     1
 64
     0
275
    -2
285
     1
 65
     0
276
    -2
286
     1
 66
     0
277
    -2
287
     1
 67
     0
278
    -2
288
     1
 68
     0
279
    -2
289
     1
 69
     0
  7
Standard
140
0.18
170
     5
 62
     0
 63
   257
283
     0
274
    -2
284
     1
 64
     0
275
    -2
285
     1
 65
     0
276
    -2
286
     1
 66
     0
277
    -2
287
     1
 67
     0
278
    -2
288
     1
 68
     0
279
    -2
289
     1
 69
     0
  0
DICTIONARYVAR
  5
285
102
{ACAD_REACTORS
330
284
102
}
330
284
100
DictionaryVariables
280
     0
  1
1:1
  0
DICTIONARYVAR
  5
28C
102
{ACAD_REACTORS
330
284
102
}
330
284
100
DictionaryVariables
280
     0
  1
Standard
  0
DICTIONARYVAR
  5
28B
102
{ACAD_REACTORS
330
284
102
}
330
284
100
DictionaryVariables
280
     0
  1
Standard
  0
DICTIONARY
  5
286
330
6A
100
AcDbDictionary
280
     1
281
     1
  3
ACAD_ROUNDTRIP_2008_TABLESTYLE_CELLSTYLEMAP
360
288
  3
ACAD_XREC_ROUNDTRIP
360
287
  0
CELLSTYLEMAP
  5
288
102
{ACAD_REACTORS
330
286
102
}
330
286
100
AcDbCellStyleMap
 90
        3
300
CELLSTYLE
  1
TABLEFORMAT_BEGIN
 90
        5
170
     1
 91
        0
 92
    32768
 62
   257
 93
        1
300
CONTENTFORMAT
  1
CONTENTFORMAT_BEGIN
 90
        0
 91
        0
 92
        4
 93
        0
300

 40
0.0
140
1.0
 94
        5
 62
     0
340
11
144
0.25
309
CONTENTFORMAT_END
171
     1
301
MARGIN
  1
CELLMARGIN_BEGIN
 40
0.06
 40
0.06
 40
0.06
 40
0.06
 40
0.06
 40
0.06
309
CELLMARGIN_END
 94
        6
 95
        1
302
GRIDFORMAT
  1
GRIDFORMAT_BEGIN
 90
        0
 91
        1
 62
     0
 92
       -2
340
14
 93
        0
 40
0.045
309
GRIDFORMAT_END
 95
        2
302
GRIDFORMAT
  1
GRIDFORMAT_BEGIN
 90
        0
 91
        1
 62
     0
 92
       -2
340
14
 93
        0
 40
0.045
309
GRIDFORMAT_END
 95
        4
302
GRIDFORMAT
  1
GRIDFORMAT_BEGIN
 90
        0
 91
        1
 62
     0
 92
       -2
340
14
 93
        0
 40
0.045
309
GRIDFORMAT_END
 95
        8
302
GRIDFORMAT
  1
GRIDFORMAT_BEGIN
 90
        0
 91
        1
 62
     0
 92
       -2
340
14
 93
        0
 40
0.045
309
GRIDFORMAT_END
 95
       16
302
GRIDFORMAT
  1
GRIDFORMAT_BEGIN
 90
        0
 91
        1
 62
     0
 92
       -2
340
14
 93
        0
 40
0.045
309
GRIDFORMAT_END
 95
       32
302
GRIDFORMAT
  1
GRIDFORMAT_BEGIN
 90
        0
 91
        1
 62
     0
 92
       -2
340
14
 93
        0
 40
0.045
309
GRIDFORMAT_END
309
TABLEFORMAT_END
  1
CELLSTYLE_BEGIN
 90
        1
 91
        1
300
_TITLE
309
CELLSTYLE_END
300
CELLSTYLE
  1
TABLEFORMAT_BEGIN
 90
        5
170
     1
 91
        0
 92
        0
 62
   257
 93
        1
300
CONTENTFORMAT
  1
CONTENTFORMAT_BEGIN
 90
        0
 91
        0
 92
        4
 93
        0
300

 40
0.0
140
1.0
 94
        5
 62
     0
340
11
144
0.18
309
CONTENTFORMAT_END
171
     1
301
MARGIN
  1
CELLMARGIN_BEGIN
 40
0.06
 40
0.06
 40
0.06
 40
0.06
 40
0.06
 40
0.06
309
CELLMARGIN_END
 94
        6
 95
        1
302
GRIDFORMAT
  1
GRIDFORMAT_BEGIN
 90
        0
 91
        1
 62
     0
 92
       -2
340
14
 93
        0
 40
0.045
309
GRIDFORMAT_END
 95
        2
302
GRIDFORMAT
  1
GRIDFORMAT_BEGIN
 90
        0
 91
        1
 62
     0
 92
       -2
340
14
 93
        0
 40
0.045
309
GRIDFORMAT_END
 95
        4
302
GRIDFORMAT
  1
GRIDFORMAT_BEGIN
 90
        0
 91
        1
 62
     0
 92
       -2
340
14
 93
        0
 40
0.045
309
GRIDFORMAT_END
 95
        8
302
GRIDFORMAT
  1
GRIDFORMAT_BEGIN
 90
        0
 91
        1
 62
     0
 92
       -2
340
14
 93
        0
 40
0.045
309
GRIDFORMAT_END
 95
       16
302
GRIDFORMAT
  1
GRIDFORMAT_BEGIN
 90
        0
 91
        1
 62
     0
 92
       -2
340
14
 93
        0
 40
0.045
309
GRIDFORMAT_END
 95
       32
302
GRIDFORMAT
  1
GRIDFORMAT_BEGIN
 90
        0
 91
        1
 62
     0
 92
       -2
340
14
 93
        0
 40
0.045
309
GRIDFORMAT_END
309
TABLEFORMAT_END
  1
CELLSTYLE_BEGIN
 90
        2
 91
        1
300
_HEADER
309
CELLSTYLE_END
300
CELLSTYLE
  1
TABLEFORMAT_BEGIN
 90
        5
170
     1
 91
        0
 92
        0
 62
   257
 93
        1
300
CONTENTFORMAT
  1
CONTENTFORMAT_BEGIN
 90
        0
 91
        0
 92
        4
 93
        0
300

 40
0.0
140
1.0
 94
        2
 62
     0
340
11
144
0.18
309
CONTENTFORMAT_END
171
     1
301
MARGIN
  1
CELLMARGIN_BEGIN
 40
0.06
 40
0.06
 40
0.06
 40
0.06
 40
0.06
 40
0.06
309
CELLMARGIN_END
 94
        6
 95
        1
302
GRIDFORMAT
  1
GRIDFORMAT_BEGIN
 90
        0
 91
        1
 62
     0
 92
       -2
340
14
 93
        0
 40
0.045
309
GRIDFORMAT_END
 95
        2
302
GRIDFORMAT
  1
GRIDFORMAT_BEGIN
 90
        0
 91
        1
 62
     0
 92
       -2
340
14
 93
        0
 40
0.045
309
GRIDFORMAT_END
 95
        4
302
GRIDFORMAT
  1
GRIDFORMAT_BEGIN
 90
        0
 91
        1
 62
     0
 92
       -2
340
14
 93
        0
 40
0.045
309
GRIDFORMAT_END
 95
        8
302
GRIDFORMAT
  1
GRIDFORMAT_BEGIN
 90
        0
 91
        1
 62
     0
 92
       -2
340
14
 93
        0
 40
0.045
309
GRIDFORMAT_END
 95
       16
302
GRIDFORMAT
  1
GRIDFORMAT_BEGIN
 90
        0
 91
        1
 62
     0
 92
       -2
340
14
 93
        0
 40
0.045
309
GRIDFORMAT_END
 95
       32
302
GRIDFORMAT
  1
GRIDFORMAT_BEGIN
 90
        0
 91
        1
 62
     0
 92
       -2
340
14
 93
        0
 40
0.045
309
GRIDFORMAT_END
309
TABLEFORMAT_END
  1
CELLSTYLE_BEGIN
 90
        3
 91
        2
300
_DATA
309
CELLSTYLE_END
  0
XRECORD
  5
287
102
{ACAD_REACTORS
330
286
102
}
330
286
100
AcDbXrecord
280
     1
102
ACAD_ROUNDTRIP_PRE2007_TABLESTYLE
 90
        4
 91
        0
  1

 92
        4
 93
        0
  2

 94
        4
 95
        0
  3

  0
ENDSEC
  0
EOF
