  0
SECTION
  2
HEADER
  9
$ACADVER
  1
AC1018
  9
$ACADMAINTVER
 70
     0
  9
$DWGCODEPAGE
  3
ANSI_1252
  9
$LASTSAVEDBY
  1
carl
  9
$INSBASE
 10
0.0
 20
0.0
 30
0.0
  9
$EXTMIN
 10
0.0
 20
0.0
 30
0.0
  9
$EXTMAX
 10
90.0
 20
80.0
 30
0.0
  9
$LIMMIN
 10
0.0
 20
0.0
  9
$LIMMAX
 10
90.0
 20
80.0
  9
$ORTHOMODE
 70
     0
  9
$REGENMODE
 70
     1
  9
$FILLMODE
 70
     1
  9
$QTEXTMODE
 70
     0
  9
$MIRRTEXT
 70
     1
  9
$LTSCALE
 40
1.0
  9
$ATTMODE
 70
     1
  9
$TEXTSIZE
 40
0.5
  9
$TRACEWID
 40
0.05
  9
$TEXTSTYLE
  7
Standard
  9
$CLAYER
  8
0
  9
$CELTYPE
  6
ByLayer
  9
$CECOLOR
 62
   256
  9
$CELTSCALE
 40
1.0
  9
$DISPSILH
 70
     0
  9
$DIMSCALE
 40
1.0
  9
$DIMASZ
 40
0.3
  9
$DIMEXO
 40
0.1666666667
  9
$DIMDLI
 40
0.38
  9
$DIMRND
 40
0.0
  9
$DIMDLE
 40
0.0
  9
$DIMEXE
 40
0.375
  9
$DIMTP
 40
0.0
  9
$DIMTM
 40
0.0
  9
$DIMTXT
 40
0.5
  9
$DIMCEN
 40
0.09
  9
$DIMTSZ
 40
0.0
  9
$DIMTOL
 70
     0
  9
$DIMLIM
 70
     0
  9
$DIMTIH
 70
     1
  9
$DIMTOH
 70
     1
  9
$DIMSE1
 70
     0
  9
$DIMSE2
 70
     0
  9
$DIMTAD
 70
     0
  9
$DIMZIN
 70
     1
  9
$DIMBLK
  1

  9
$DIMASO
 70
     1
  9
$DIMSHO
 70
     1
  9
$DIMPOST
  1

  9
$DIMAPOST
  1

  9
$DIMALT
 70
     0
  9
$DIMALTD
 70
     2
  9
$DIMALTF
 40
25.4
  9
$DIMLFAC
 40
1.0
  9
$DIMTOFL
 70
     0
  9
$DIMTVP
 40
0.0
  9
$DIMTIX
 70
     0
  9
$DIMSOXD
 70
     0
  9
$DIMSAH
 70
     0
  9
$DIMBLK1
  1

  9
$DIMBLK2
  1

  9
$DIMSTYLE
  2
Standard
  9
$DIMCLRD
 70
     0
  9
$DIMCLRE
 70
     0
  9
$DIMCLRT
 70
     0
  9
$DIMTFAC
 40
1.0
  9
$DIMGAP
 40
0.125
  9
$DIMJUST
 70
     0
  9
$DIMSD1
 70
     0
  9
$DIMSD2
 70
     0
  9
$DIMTOLJ
 70
     1
  9
$DIMTZIN
 70
     1
  9
$DIMALTZ
 70
     0
  9
$DIMALTTZ
 70
     0
  9
$DIMUPT
 70
     0
  9
$DIMDEC
 70
     2
  9
$DIMTDEC
 70
     2
  9
$DIMALTU
 70
     2
  9
$DIMALTTD
 70
     2
  9
$DIMTXSTY
  7
Standard
  9
$DIMAUNIT
 70
     0
  9
$DIMADEC
 70
     2
  9
$DIMALTRND
 40
0.0
  9
$DIMAZIN
 70
     0
  9
$DIMDSEP
 70
    46
  9
$DIMATFIT
 70
     3
  9
$DIMFRAC
 70
     0
  9
$DIMLDRBLK
  1

  9
$DIMLUNIT
 70
     2
  9
$DIMLWD
 70
    -2
  9
$DIMLWE
 70
    -2
  9
$DIMTMOVE
 70
     0
  9
$LUNITS
 70
     2
  9
$LUPREC
 70
     4
  9
$SKETCHINC
 40
0.1
  9
$FILLETRAD
 40
0.5
  9
$AUNITS
 70
     0
  9
$AUPREC
 70
     2
  9
$MENU
  1
.
  9
$ELEVATION
 40
0.0
  9
$PELEVATION
 40
0.0
  9
$THICKNESS
 40
0.0
  9
$LIMCHECK
 70
     0
  9
$CHAMFERA
 40
0.0
  9
$CHAMFERB
 40
0.0
  9
$CHAMFERC
 40
0.0
  9
$CHAMFERD
 40
0.0
  9
$SKPOLY
 70
     0
  9
$TDCREATE
 40
2460713.603890775
  9
$TDUCREATE
 40
2460713.812224109
  9
$TDUPDATE
 40
2460713.603895972
  9
$TDUUPDATE
 40
2460713.812229306
  9
$TDINDWG
 40
0.0000000116
  9
$TDUSRTIMER
 40
0.0000000116
  9
$USRTIMER
 70
     1
  9
$ANGBASE
 50
0.0
  9
$ANGDIR
 70
     0
  9
$PDMODE
 70
     0
  9
$PDSIZE
 40
-1.0
  9
$PLINEWID
 40
0.0
  9
$SPLFRAME
 70
     0
  9
$SPLINETYPE
 70
     6
  9
$SPLINESEGS
 70
     8
  9
$HANDSEED
  5
308
  9
$SURFTAB1
 70
     6
  9
$SURFTAB2
 70
     6
  9
$SURFTYPE
 70
     6
  9
$SURFU
 70
     6
  9
$SURFV
 70
     6
  9
$UCSBASE
  2

  9
$UCSNAME
  2

  9
$UCSORG
 10
0.0
 20
0.0
 30
0.0
  9
$UCSXDIR
 10
1.0
 20
0.0
 30
0.0
  9
$UCSYDIR
 10
0.0
 20
1.0
 30
0.0
  9
$UCSORTHOREF
  2

  9
$UCSORTHOVIEW
 70
     0
  9
$UCSORGTOP
 10
0.0
 20
0.0
 30
0.0
  9
$UCSORGBOTTOM
 10
0.0
 20
0.0
 30
0.0
  9
$UCSORGLEFT
 10
0.0
 20
0.0
 30
0.0
  9
$UCSORGRIGHT
 10
0.0
 20
0.0
 30
0.0
  9
$UCSORGFRONT
 10
0.0
 20
0.0
 30
0.0
  9
$UCSORGBACK
 10
0.0
 20
0.0
 30
0.0
  9
$PUCSBASE
  2

  9
$PUCSNAME
  2

  9
$PUCSORG
 10
0.0
 20
0.0
 30
0.0
  9
$PUCSXDIR
 10
1.0
 20
0.0
 30
0.0
  9
$PUCSYDIR
 10
0.0
 20
1.0
 30
0.0
  9
$PUCSORTHOREF
  2

  9
$PUCSORTHOVIEW
 70
     0
  9
$PUCSORGTOP
 10
0.0
 20
0.0
 30
0.0
  9
$PUCSORGBOTTOM
 10
0.0
 20
0.0
 30
0.0
  9
$PUCSORGLEFT
 10
0.0
 20
0.0
 30
0.0
  9
$PUCSORGRIGHT
 10
0.0
 20
0.0
 30
0.0
  9
$PUCSORGFRONT
 10
0.0
 20
0.0
 30
0.0
  9
$PUCSORGBACK
 10
0.0
 20
0.0
 30
0.0
  9
$USERI1
 70
     0
  9
$USERI2
 70
     0
  9
$USERI3
 70
     0
  9
$USERI4
 70
     0
  9
$USERI5
 70
     0
  9
$USERR1
 40
0.0
  9
$USERR2
 40
0.0
  9
$USERR3
 40
0.0
  9
$USERR4
 40
0.0
  9
$USERR5
 40
0.0
  9
$WORLDVIEW
 70
     1
  9
$SHADEDGE
 70
     3
  9
$SHADEDIF
 70
    70
  9
$TILEMODE
 70
     1
  9
$MAXACTVP
 70
    64
  9
$PINSBASE
 10
0.0
 20
0.0
 30
0.0
  9
$PLIMCHECK
 70
     0
  9
$PEXTMIN
 10
1.0000000000E+20
 20
1.0000000000E+20
 30
1.0000000000E+20
  9
$PEXTMAX
 10
-1.0000000000E+20
 20
-1.0000000000E+20
 30
-1.0000000000E+20
  9
$PLIMMIN
 10
0.0
 20
0.0
  9
$PLIMMAX
 10
12.0
 20
9.0
  9
$UNITMODE
 70
     0
  9
$VISRETAIN
 70
     1
  9
$PLINEGEN
 70
     0
  9
$PSLTSCALE
 70
     1
  9
$TREEDEPTH
 70
  3020
  9
$CMLSTYLE
  2
Standard
  9
$CMLJUST
 70
     0
  9
$CMLSCALE
 40
1.0
  9
$PROXYGRAPHICS
 70
     1
  9
$MEASUREMENT
 70
     0
  9
$CELWEIGHT
370
    -1
  9
$ENDCAPS
280
     0
  9
$JOINSTYLE
280
     0
  9
$LWDISPLAY
290
     1
  9
$INSUNITS
 70
     1
  9
$HYPERLINKBASE
  1

  9
$STYLESHEET
  1

  9
$XEDIT
290
     1
  9
$CEPSNTYPE
380
     0
  9
$PSTYLEMODE
290
     1
  9
$FINGERPRINTGUID
  2
{a396638f-df36-4f5e-877e-1a6350b76656}
  9
$VERSIONGUID
  2
{FAEB1C32-E019-11D5-929B-00C0DF256EC4}
  9
$EXTNAMES
290
     1
  9
$PSVPSCALE
 40
0.0
  9
$OLESTARTUP
290
     0
  9
$SORTENTS
280
   127
  9
$INDEXCTL
280
     0
  9
$HIDETEXT
280
     1
  9
$XCLIPFRAME
290
     0
  9
$HALOGAP
280
     0
  9
$OBSCOLOR
 70
   257
  9
$OBSLTYPE
280
     0
  9
$INTERSECTIONDISPLAY
280
     0
  9
$INTERSECTIONCOLOR
 70
   257
  9
$DIMASSOC
280
     2
  9
$PROJECTNAME
  1

  0
ENDSEC
  0
SECTION
  2
CLASSES
  0
CLASS
  1
ACDBDICTIONARYWDFLT
  2
AcDbDictionaryWithDefault
  3
ObjectDBX Classes
 90
        0
 91
        3
280
     0
281
     0
  0
CLASS
  1
VISUALSTYLE
  2
AcDbVisualStyle
  3
ObjectDBX Classes
 90
     4095
 91
        3
280
     0
281
     0
  0
CLASS
  1
MATERIAL
  2
AcDbMaterial
  3
ObjectDBX Classes
 90
     1153
 91
        3
280
     0
281
     0
  0
CLASS
  1
SCALE
  2
AcDbScale
  3
ObjectDBX Classes
 90
     1153
 91
        3
280
     0
281
     0
  0
CLASS
  1
TABLESTYLE
  2
AcDbTableStyle
  3
ObjectDBX Classes
 90
     4095
 91
        3
280
     0
281
     0
  0
CLASS
  1
MLEADERSTYLE
  2
AcDbMLeaderStyle
  3
ACDB_MLEADERSTYLE_CLASS
 90
     4095
 91
        3
280
     0
281
     0
  0
CLASS
  1
SUN
  2
AcDbSun
  3
SCENEOE
 90
     1153
 91
        3
280
     0
281
     0
  0
CLASS
  1
DICTIONARYVAR
  2
AcDbDictionaryVar
  3
ObjectDBX Classes
 90
        0
 91
        3
280
     0
281
     0
  0
CLASS
  1
CELLSTYLEMAP
  2
AcDbCellStyleMap
  3
ObjectDBX Classes
 90
     1152
 91
        3
280
     0
281
     0
  0
ENDSEC
  0
SECTION
  2
TABLES
  0
TABLE
  2
VPORT
  5
8
330
0
100
AcDbSymbolTable
 70
     1
  0
VPORT
  5
29
330
8
100
AcDbSymbolTableRecord
100
AcDbViewportTableRecord
  2
*Active
 70
     0
 10
0.0
 20
0.0
 11
1.0
 21
1.0
 12
45.0
 22
40.0
 13
0.0
 23
0.0
 14
0.5
 24
0.5
 15
0.5
 25
0.5
 16
0.0
 26
0.0
 36
1.0
 17
0.0
 27
0.0
 37
0.0
 40
80.0
 41
1.125
 42
50.0
 43
0.0
 44
0.0
 50
0.0
 51
0.0
 71
     0
 72
  2000
 73
     1
 74
     3
 75
     0
 76
     0
 77
     0
 78
     0
281
     0
 65
     1
110
0.0
120
0.0
130
0.0
111
1.0
121
0.0
131
0.0
112
0.0
122
1.0
132
0.0
 79
     0
146
0.0
  0
ENDTAB
  0
TABLE
  2
LTYPE
  5
5
330
0
100
AcDbSymbolTable
 70
     6
  0
LTYPE
  5
14
330
5
100
AcDbSymbolTableRecord
100
AcDbLinetypeTableRecord
  2
ByBlock
 70
     0
  3

 72
    65
 73
     0
 40
0.0
  0
LTYPE
  5
15
330
5
100
AcDbSymbolTableRecord
100
AcDbLinetypeTableRecord
  2
ByLayer
 70
     0
  3

 72
    65
 73
     0
 40
0.0
  0
LTYPE
  5
16
330
5
100
AcDbSymbolTableRecord
100
AcDbLinetypeTableRecord
  2
Continuous
 70
     0
  3
Solid line
 72
    65
 73
     0
 40
0.0
  0
LTYPE
  5
6E
330
5
100
AcDbSymbolTableRecord
100
AcDbLinetypeTableRecord
  2
HIDDEN
 70
     0
  3
Hidden __ __ __ __ __ __ __ __ __ __ __ __ __ __
 72
    65
 73
     2
 40
0.075
 49
0.05
 74
     0
 49
-0.025
 74
     0
  0
LTYPE
  5
6F
330
5
100
AcDbSymbolTableRecord
100
AcDbLinetypeTableRecord
  2
PHANTOM
 70
     0
  3
Phantom ______  __  __  ______  __  __  ______
 72
    65
 73
     6
 40
0.5
 49
0.25
 74
     0
 49
-0.05
 74
     0
 49
0.05
 74
     0
 49
-0.05
 74
     0
 49
0.05
 74
     0
 49
-0.05
 74
     0
  0
LTYPE
  5
70
330
5
100
AcDbSymbolTableRecord
100
AcDbLinetypeTableRecord
  2
CENTER
 70
     0
  3
Center ____ _ ____ _ ____ _ ____ _ ____ _ ____
 72
    65
 73
     4
 40
0.4
 49
0.25
 74
     0
 49
-0.05
 74
     0
 49
0.05
 74
     0
 49
-0.05
 74
     0
  0
LTYPE
  5
71
330
5
100
AcDbSymbolTableRecord
100
AcDbLinetypeTableRecord
  2
CENTERX2
 70
     0
  3
Center (2x) ________  __  ________  __  _____
 72
    65
 73
     4
 40
0.8
 49
0.5
 74
     0
 49
-0.1
 74
     0
 49
0.1
 74
     0
 49
-0.1
 74
     0
  0
LTYPE
  5
72
330
5
100
AcDbSymbolTableRecord
100
AcDbLinetypeTableRecord
  2
DOT2
 70
     0
  3
Dot (.5x) ........................................
 72
    65
 73
     2
 40
0.025
 49
0.0
 74
     0
 49
-0.025
 74
     0
  0
ENDTAB
  0
TABLE
  2
LAYER
  5
2
330
0
100
AcDbSymbolTable
 70
     6
  0
LAYER
  5
10
330
2
100
AcDbSymbolTableRecord
100
AcDbLayerTableRecord
  2
0
 70
     0
 62
     7
  6
Continuous
370
    -3
390
F
  0
LAYER
  5
73
330
2
100
AcDbSymbolTableRecord
100
AcDbLayerTableRecord
  2
FORMAT
 70
     0
 62
     7
  6
Continuous
370
    -3
390
F
  0
LAYER
  5
74
330
2
100
AcDbSymbolTableRecord
100
AcDbLayerTableRecord
  2
NOTES
 70
     0
 62
     1
  6
Continuous
370
    -3
390
F
  0
LAYER
  5
75
330
2
100
AcDbSymbolTableRecord
100
AcDbLayerTableRecord
  2
OBJECT
 70
     0
 62
     7
  6
Continuous
370
    25
390
F
  0
LAYER
  5
76
330
2
100
AcDbSymbolTableRecord
100
AcDbLayerTableRecord
  2
DIMS
 70
     0
 62
     5
  6
Continuous
370
    -3
390
F
  0
LAYER
  5
77
330
2
100
AcDbSymbolTableRecord
100
AcDbLayerTableRecord
  2
TITLE
 70
     0
 62
     7
  6
Continuous
370
    -3
390
F
  0
ENDTAB
  0
TABLE
  2
STYLE
  5
3
330
0
100
AcDbSymbolTable
 70
     4
  0
STYLE
  5
11
330
3
100
AcDbSymbolTableRecord
100
AcDbTextStyleTableRecord
  2
Standard
 70
     0
 40
0.0
 41
1.0
 50
0.0
 71
     0
 42
0.5
  3
txt
  4

  0
STYLE
  5
133
330
3
100
AcDbSymbolTableRecord
100
AcDbTextStyleTableRecord
  2
SLDTEXTSTYLE0
 70
     0
 40
0.0
 41
0.605
 50
0.0
 71
     0
 42
0.5
  3
TXT
  4

  0
STYLE
  5
137
330
3
100
AcDbSymbolTableRecord
100
AcDbTextStyleTableRecord
  2
SLDTEXTSTYLE1
 70
     0
 40
0.0
 41
0.75
 50
0.0
 71
     0
 42
0.5
  3
TXT
  4

  0
STYLE
  5
13A
330
3
100
AcDbSymbolTableRecord
100
AcDbTextStyleTableRecord
  2
SLDTEXTSTYLE2
 70
     0
 40
0.0
 41
0.6607142857
 50
0.0
 71
     0
 42
0.5
  3
TXT
  4

  0
ENDTAB
  0
TABLE
  2
VIEW
  5
6
330
0
100
AcDbSymbolTable
 70
     0
  0
ENDTAB
  0
TABLE
  2
UCS
  5
7
330
0
100
AcDbSymbolTable
 70
     0
  0
ENDTAB
  0
TABLE
  2
APPID
  5
9
330
0
100
AcDbSymbolTable
 70
     2
  0
APPID
  5
12
330
9
100
AcDbSymbolTableRecord
100
AcDbRegAppTableRecord
  2
ACAD
 70
     0
  0
APPID
  5
302
330
9
100
AcDbSymbolTableRecord
100
AcDbRegAppTableRecord
  2
ACAD_MLEADERVER
 70
     0
  0
ENDTAB
  0
TABLE
  2
DIMSTYLE
  5
A
330
0
100
AcDbSymbolTable
 70
     6
100
AcDbDimStyleTable
  0
DIMSTYLE
105
27
330
A
100
AcDbSymbolTableRecord
100
AcDbDimStyleTableRecord
  2
Standard
 70
     0
178
     0
340
11
  0
DIMSTYLE
105
227
102
{ACAD_REACTORS
330
226
330
23C
330
2AD
102
}
330
A
100
AcDbSymbolTableRecord
100
AcDbDimStyleTableRecord
  2
SLDDIMSTYLE0
 70
     0
 41
0.3
 44
0.0
 45
0.000000001
 78
    12
 79
     3
140
0.5
147
0.125
173
     1
178
     0
271
     6
272
     2
276
     2
277
     5
284
    12
340
137
341
228
343
228
344
228
  0
DIMSTYLE
105
24C
102
{ACAD_REACTORS
330
24B
330
257
102
}
330
A
100
AcDbSymbolTableRecord
100
AcDbDimStyleTableRecord
  2
SLDDIMSTYLE1
 70
     0
 41
0.3
 44
0.0
 45
0.000000001
 78
    12
 79
     3
140
0.5
147
0.125
173
     1
178
     0
271
     2
272
     2
276
     2
277
     5
284
    12
340
137
341
228
343
228
344
228
  0
DIMSTYLE
105
261
102
{ACAD_REACTORS
330
260
102
}
330
A
100
AcDbSymbolTableRecord
100
AcDbDimStyleTableRecord
  2
SLDDIMSTYLE2
 70
     0
 41
0.3
 44
0.0
 45
0.000000001
 78
    12
 79
     3
140
0.5
141
0.0
147
0.125
173
     1
178
     0
271
     2
272
     2
276
     2
277
     5
284
    12
340
137
341
228
343
228
344
228
  0
DIMSTYLE
105
270
330
A
100
AcDbSymbolTableRecord
100
AcDbDimStyleTableRecord
  2
SLDDIMSTYLE3
 70
     0
 41
0.3
 44
0.0
 45
0.000000001
146
0.3
147
0.0
173
     1
178
     0
271
     0
272
     0
276
     2
277
     5
340
11
341
228
343
228
344
228
  0
DIMSTYLE
105
29F
102
{ACAD_REACTORS
330
29E
102
}
330
A
100
AcDbSymbolTableRecord
100
AcDbDimStyleTableRecord
  2
SLDDIMSTYLE4
 70
     0
 41
0.3
 44
0.0
 45
0.000000001
 78
    12
 79
     3
140
0.5
147
0.125
172
     1
173
     1
178
     0
271
     6
272
     2
276
     2
277
     5
284
    12
289
     0
340
137
341
228
343
228
344
228
  0
ENDTAB
  0
TABLE
  2
BLOCK_RECORD
  5
1
330
0
100
AcDbSymbolTable
 70
    12
  0
BLOCK_RECORD
  5
1F
330
1
100
AcDbSymbolTableRecord
100
AcDbBlockTableRecord
  2
*Model_Space
340
22
  0
BLOCK_RECORD
  5
1B
330
1
100
AcDbSymbolTableRecord
100
AcDbBlockTableRecord
  2
*Paper_Space
340
1E
  0
BLOCK_RECORD
  5
23
330
1
100
AcDbSymbolTableRecord
100
AcDbBlockTableRecord
  2
*Paper_Space0
340
26
  0
BLOCK_RECORD
  5
13E
330
1
100
AcDbSymbolTableRecord
100
AcDbBlockTableRecord
  2
SW_NOTE_0
340
0
102
{BLKREFS
331
143
102
}
  0
BLOCK_RECORD
  5
144
330
1
100
AcDbSymbolTableRecord
100
AcDbBlockTableRecord
  2
SW_NOTE_0_1
340
0
102
{BLKREFS
331
14B
102
}
  0
BLOCK_RECORD
  5
228
330
1
100
AcDbSymbolTableRecord
100
AcDbBlockTableRecord
  2
_Open90
340
0
102
{BLKREFS
331
231
331
232
331
240
331
241
331
250
331
251
331
25B
331
25C
331
265
331
2A3
331
2A4
331
2B1
331
2B2
102
}
  0
BLOCK_RECORD
  5
22E
330
1
100
AcDbSymbolTableRecord
100
AcDbBlockTableRecord
  2
_D
340
0
  0
BLOCK_RECORD
  5
23D
330
1
100
AcDbSymbolTableRecord
100
AcDbBlockTableRecord
  2
_D_1
340
0
  0
BLOCK_RECORD
  5
24D
330
1
100
AcDbSymbolTableRecord
100
AcDbBlockTableRecord
  2
_D_2
340
0
  0
BLOCK_RECORD
  5
258
330
1
100
AcDbSymbolTableRecord
100
AcDbBlockTableRecord
  2
_D_3
340
0
  0
BLOCK_RECORD
  5
262
330
1
100
AcDbSymbolTableRecord
100
AcDbBlockTableRecord
  2
_D_4
340
0
  0
BLOCK_RECORD
  5
2A0
330
1
100
AcDbSymbolTableRecord
100
AcDbBlockTableRecord
  2
_D_5
340
0
  0
BLOCK_RECORD
  5
2AE
330
1
100
AcDbSymbolTableRecord
100
AcDbBlockTableRecord
  2
_D_6
340
0
  0
BLOCK_RECORD
  5
2F7
330
1
100
AcDbSymbolTableRecord
100
AcDbBlockTableRecord
  2
SW_NOTE_0_2
340
0
102
{BLKREFS
331
2FC
102
}
  0
ENDTAB
  0
ENDSEC
  0
SECTION
  2
BLOCKS
  0
BLOCK
  5
20
330
1F
100
AcDbEntity
  8
0
100
AcDbBlockBegin
  2
*Model_Space
 70
     0
 10
0.0
 20
0.0
 30
0.0
  3
*Model_Space
  1

  0
ENDBLK
  5
21
330
1F
100
AcDbEntity
  8
0
100
AcDbBlockEnd
  0
BLOCK
  5
1C
330
1B
100
AcDbEntity
 67
     1
  8
0
100
AcDbBlockBegin
  2
*Paper_Space
 70
     0
 10
0.0
 20
0.0
 30
0.0
  3
*Paper_Space
  1

  0
ENDBLK
  5
1D
330
1B
100
AcDbEntity
 67
     1
  8
0
100
AcDbBlockEnd
  0
BLOCK
  5
24
330
23
100
AcDbEntity
  8
0
100
AcDbBlockBegin
  2
*Paper_Space0
 70
     0
 10
0.0
 20
0.0
 30
0.0
  3
*Paper_Space0
  1

  0
ENDBLK
  5
25
330
23
100
AcDbEntity
  8
0
100
AcDbBlockEnd
  0
BLOCK
  5
13F
330
13E
100
AcDbEntity
  8
0
100
AcDbBlockBegin
  2
SW_NOTE_0
 70
     0
 10
0.0
 20
0.0
 30
0.0
  3
SW_NOTE_0
  1

  0
MTEXT
  5
141
330
13E
100
AcDbEntity
  8
NOTES
 62
     0
100
AcDbMText
 10
0.0
 20
0.3759780908
 30
0.0
 40
0.2916666667
 41
0.0
 71
     1
 72
     1
  1
FROST PRODUCTS LTD.
  7
SLDTEXTSTYLE0
 73
     1
 44
1.0
  0
MTEXT
  5
142
330
13E
100
AcDbEntity
  8
NOTES
 62
     0
100
AcDbMText
 10
0.0
 20
-0.0495142709
 30
0.0
 40
0.2291666667
 41
0.0
 71
     1
 72
     1
  1
5280 JOHN LUCAS DRIVE, BURLINGTON, ON, L7L 5Z9
  7
SLDTEXTSTYLE0
 73
     1
 44
1.0
  0
ENDBLK
  5
140
330
13E
100
AcDbEntity
  8
0
100
AcDbBlockEnd
  0
BLOCK
  5
145
330
144
100
AcDbEntity
  8
0
100
AcDbBlockBegin
  2
SW_NOTE_0_1
 70
     0
 10
0.0
 20
0.0
 30
0.0
  3
SW_NOTE_0_1
  1

  0
MTEXT
  5
147
330
144
100
AcDbEntity
  8
NOTES
 62
     0
100
AcDbMText
 10
0.0
 20
0.2381282771
 30
0.0
 40
0.184729064
 41
0.0
 71
     1
 72
     1
  1
PROPRIETARY AND CONFIDENTIAL
  7
SLDTEXTSTYLE0
 73
     1
 44
1.0
  0
MTEXT
  5
148
330
144
100
AcDbEntity
  8
NOTES
 62
     0
100
AcDbMText
 10
0.0
 20
-0.0504364796
 30
0.0
 40
0.25
 41
0.0
 71
     1
 72
     1
  1
THE INFORMATION CONTAINED IN THIS DRAWING IS THE SOLE PROPERTY OF
  7
SLDTEXTSTYLE0
 73
     1
 44
1.0
  0
MTEXT
  5
149
330
144
100
AcDbEntity
  8
NOTES
 62
     0
100
AcDbMText
 10
0.0
 20
-0.4231398941
 30
0.0
 40
0.25
 41
0.0
 71
     1
 72
     1
  1
FROST PRODUCTS LTD.  ANY REPRODUCTION IN PART OR AS A WHOLE WITHOUT
  7
SLDTEXTSTYLE0
 73
     1
 44
1.0
  0
MTEXT
  5
14A
330
144
100
AcDbEntity
  8
NOTES
 62
     0
100
AcDbMText
 10
0.0
 20
-0.7958433086
 30
0.0
 40
0.25
 41
0.0
 71
     1
 72
     1
  1
THE WRITTEN PERMISSION OF FROST PRODUCTS LTD. IS PROHIBITED.
  7
SLDTEXTSTYLE0
 73
     1
 44
1.0
  0
ENDBLK
  5
146
330
144
100
AcDbEntity
  8
0
100
AcDbBlockEnd
  0
BLOCK
  5
229
330
228
100
AcDbEntity
  8
0
100
AcDbBlockBegin
  2
_Open90
 70
     0
 10
0.0
 20
0.0
 30
0.0
  3
_Open90
  1

  0
LINE
  5
22B
330
228
100
AcDbEntity
  8
0
  6
ByBlock
 62
     0
370
    -2
100
AcDbLine
 10
-0.5
 20
0.5
 30
0.0
 11
0.0
 21
0.0
 31
0.0
  0
LINE
  5
22C
330
228
100
AcDbEntity
  8
0
  6
ByBlock
 62
     0
370
    -2
100
AcDbLine
 10
0.0
 20
0.0
 30
0.0
 11
-0.5
 21
-0.5
 31
0.0
  0
LINE
  5
22D
330
228
100
AcDbEntity
  8
0
  6
ByBlock
 62
     0
370
    -2
100
AcDbLine
 10
0.0
 20
0.0
 30
0.0
 11
-1.0
 21
0.0
 31
0.0
  0
ENDBLK
  5
22A
330
228
100
AcDbEntity
  8
0
100
AcDbBlockEnd
  0
BLOCK
  5
22F
330
22E
100
AcDbEntity
  8
0
100
AcDbBlockBegin
  2
_D
 70
     0
 10
0.0
 20
0.0
 30
0.0
  3
_D
  1

  0
INSERT
  5
231
330
22E
100
AcDbEntity
  8
DIMS
100
AcDbBlockReference
  2
_Open90
 10
6.0358504783
 20
9.5849248869
 30
0.0
 41
0.3
 42
0.3
 50
180.0
  0
INSERT
  5
232
330
22E
100
AcDbEntity
  8
DIMS
100
AcDbBlockReference
  2
_Open90
 10
35.4108504783
 20
9.5849248869
 30
0.0
 41
0.3
 42
0.3
 50
0.0
  0
LINE
  5
233
330
22E
100
AcDbEntity
  8
DIMS
100
AcDbLine
 10
22.3572656895
 20
9.6362095853
 30
0.0
 11
22.873237939
 21
9.6362095853
 31
0.0
  0
LINE
  5
234
330
22E
100
AcDbEntity
  8
DIMS
100
AcDbLine
 10
6.0358504783
 20
15.3467781976
 30
0.0
 11
6.0358504783
 21
9.2099248869
 31
0.0
  0
LINE
  5
235
330
22E
100
AcDbEntity
  8
DIMS
100
AcDbLine
 10
35.4108504783
 20
14.9074383693
 30
0.0
 11
35.4108504783
 21
9.2099248869
 31
0.0
  0
LINE
  5
236
330
22E
100
AcDbEntity
  8
DIMS
100
AcDbLine
 10
6.0358504783
 20
9.5849248869
 30
0.0
 11
21.5451128966
 21
9.5849248869
 31
0.0
  0
LINE
  5
237
330
22E
100
AcDbEntity
  8
DIMS
100
AcDbLine
 10
35.4108504783
 20
9.5849248869
 30
0.0
 11
23.152751805
 21
9.5849248869
 31
0.0
  0
MTEXT
  5
238
330
22E
100
AcDbEntity
  8
DIMS
100
AcDbMText
 10
21.5451128966
 20
9.8714726406
 30
0.0
 40
0.5
 41
0.0
 71
     1
 72
     1
  1
29
  7
SLDTEXTSTYLE1
 73
     1
 44
1.0
  0
MTEXT
  5
239
330
22E
100
AcDbEntity
  8
DIMS
100
AcDbMText
 10
22.4305295915
 20
10.2367851396
 30
0.0
 40
0.5
 41
0.0
 71
     1
 72
     1
  1
3
  7
SLDTEXTSTYLE1
 73
     1
 44
1.0
  0
MTEXT
  5
23A
330
22E
100
AcDbEntity
  8
DIMS
100
AcDbMText
 10
22.4305295915
 20
9.5756045611
 30
0.0
 40
0.5
 41
0.0
 71
     1
 72
     1
  1
8
  7
SLDTEXTSTYLE1
 73
     1
 44
1.0
  0
MTEXT
  5
23B
330
22E
100
AcDbEntity
  8
DIMS
100
AcDbMText
 10
22.946501841
 20
9.8714726406
 30
0.0
 40
0.5
 41
0.0
 71
     1
 72
     1
  1
"
  7
SLDTEXTSTYLE1
 73
     1
 44
1.0
  0
ENDBLK
  5
230
330
22E
100
AcDbEntity
  8
0
100
AcDbBlockEnd
  0
BLOCK
  5
23E
330
23D
100
AcDbEntity
  8
0
100
AcDbBlockBegin
  2
_D_1
 70
     0
 10
0.0
 20
0.0
 30
0.0
  3
_D_1
  1

  0
INSERT
  5
240
330
23D
100
AcDbEntity
  8
DIMS
100
AcDbBlockReference
  2
_Open90
 10
2.7279279729
 20
15.5134448642
 30
0.0
 41
0.3
 42
0.3
 50
270.0
  0
INSERT
  5
241
330
23D
100
AcDbEntity
  8
DIMS
100
AcDbBlockReference
  2
_Open90
 10
2.7279279729
 20
44.8884448642
 30
0.0
 41
0.3
 42
0.3
 50
90.0
  0
LINE
  5
242
330
23D
100
AcDbEntity
  8
DIMS
100
AcDbLine
 10
2.7362613116
 20
31.7879165495
 30
0.0
 11
3.2522335611
 21
31.7879165495
 31
0.0
  0
LINE
  5
243
330
23D
100
AcDbEntity
  8
DIMS
100
AcDbLine
 10
5.8691838116
 20
15.5134448642
 30
0.0
 11
2.3529279729
 21
15.5134448642
 31
0.0
  0
LINE
  5
244
330
23D
100
AcDbEntity
  8
DIMS
100
AcDbLine
 10
5.4298439834
 20
44.8884448642
 30
0.0
 11
2.3529279729
 21
44.8884448642
 31
0.0
  0
LINE
  5
245
330
23D
100
AcDbEntity
  8
DIMS
100
AcDbLine
 10
2.7279279729
 20
15.5134448642
 30
0.0
 11
2.7279279729
 21
31.0827776979
 31
0.0
  0
LINE
  5
246
330
23D
100
AcDbEntity
  8
DIMS
100
AcDbLine
 10
2.7279279729
 20
44.8884448642
 30
0.0
 11
2.7279279729
 21
32.3904860044
 31
0.0
  0
MTEXT
  5
247
330
23D
100
AcDbEntity
  8
DIMS
100
AcDbMText
 10
1.9241085187
 20
32.0231796049
 30
0.0
 40
0.5
 41
0.0
 71
     1
 72
     1
  1
29
  7
SLDTEXTSTYLE1
 73
     1
 44
1.0
  0
MTEXT
  5
248
330
23D
100
AcDbEntity
  8
DIMS
100
AcDbMText
 10
2.8095252136
 20
32.3884921039
 30
0.0
 40
0.5
 41
0.0
 71
     1
 72
     1
  1
3
  7
SLDTEXTSTYLE1
 73
     1
 44
1.0
  0
MTEXT
  5
249
330
23D
100
AcDbEntity
  8
DIMS
100
AcDbMText
 10
2.8095252136
 20
31.7273115254
 30
0.0
 40
0.5
 41
0.0
 71
     1
 72
     1
  1
8
  7
SLDTEXTSTYLE1
 73
     1
 44
1.0
  0
MTEXT
  5
24A
330
23D
100
AcDbEntity
  8
DIMS
100
AcDbMText
 10
3.325497463
 20
32.0231796049
 30
0.0
 40
0.5
 41
0.0
 71
     1
 72
     1
  1
"
  7
SLDTEXTSTYLE1
 73
     1
 44
1.0
  0
ENDBLK
  5
23F
330
23D
100
AcDbEntity
  8
0
100
AcDbBlockEnd
  0
BLOCK
  5
24E
330
24D
100
AcDbEntity
  8
0
100
AcDbBlockBegin
  2
_D_2
 70
     0
 10
0.0
 20
0.0
 30
0.0
  3
_D_2
  1

  0
INSERT
  5
250
330
24D
100
AcDbEntity
  8
DIMS
100
AcDbBlockReference
  2
_Open90
 10
2.7279279729
 20
15.5134448642
 30
0.0
 41
0.3
 42
0.3
 50
90.0
  0
INSERT
  5
251
330
24D
100
AcDbEntity
  8
DIMS
100
AcDbBlockReference
  2
_Open90
 10
2.7279279729
 20
0.9732812987
 30
0.0
 41
0.3
 42
0.3
 50
270.0
  0
LINE
  5
252
330
24D
100
AcDbEntity
  8
DIMS
100
AcDbLine
 10
5.8691838116
 20
15.5134448642
 30
0.0
 11
2.3529279729
 21
15.5134448642
 31
0.0
  0
LINE
  5
253
330
24D
100
AcDbEntity
  8
DIMS
100
AcDbLine
 10
2.7279279729
 20
15.5134448642
 30
0.0
 11
2.7279279729
 21
4.4721768167
 31
0.0
  0
LINE
  5
254
330
24D
100
AcDbEntity
  8
DIMS
100
AcDbLine
 10
2.7279279729
 20
0.9732812987
 30
0.0
 11
2.7279279729
 21
2.0909266718
 31
0.0
  0
MTEXT
  5
255
330
24D
100
AcDbEntity
  8
DIMS
100
AcDbMText
 10
2.2553585454
 20
4.3229607177
 30
0.0
 40
0.5
 41
0.0
 71
     1
 72
     1
  1
24"
  7
SLDTEXTSTYLE1
 73
     1
 44
1.0
  0
MTEXT
  5
256
330
24D
100
AcDbEntity
  8
DIMS
100
AcDbMText
 10
3.2032751776
 20
2.73546067
 30
0.0
 40
0.5
 41
0.0
 71
     1
 72
     1
  1

  7
SLDTEXTSTYLE1
 73
     1
 44
1.0
  0
ENDBLK
  5
24F
330
24D
100
AcDbEntity
  8
0
100
AcDbBlockEnd
  0
BLOCK
  5
259
330
258
100
AcDbEntity
  8
0
100
AcDbBlockBegin
  2
_D_3
 70
     0
 10
0.0
 20
0.0
 30
0.0
  3
_D_3
  1

  0
INSERT
  5
25B
330
258
100
AcDbEntity
  8
DIMS
100
AcDbBlockReference
  2
_Open90
 10
35.4108504783
 20
9.5849248869
 30
0.0
 41
0.3
 42
0.3
 50
180.0
  0
INSERT
  5
25C
330
258
100
AcDbEntity
  8
DIMS
100
AcDbBlockReference
  2
_Open90
 10
45.4108504783
 20
9.5849248869
 30
0.0
 41
0.3
 42
0.3
 50
0.0
  0
LINE
  5
25D
330
258
100
AcDbEntity
  8
DIMS
100
AcDbLine
 10
35.4108504783
 20
14.9074383693
 30
0.0
 11
35.4108504783
 21
9.2099248869
 31
0.0
  0
LINE
  5
25E
330
258
100
AcDbEntity
  8
DIMS
100
AcDbLine
 10
35.4108504783
 20
9.5849248869
 30
0.0
 11
43.1958019574
 21
9.5849248869
 31
0.0
  0
MTEXT
  5
25F
330
258
100
AcDbEntity
  8
DIMS
100
AcDbMText
 10
43.1958019574
 20
9.8325837998
 30
0.0
 40
0.5
 41
0.0
 71
     1
 72
     1
  1
20"
  7
SLDTEXTSTYLE1
 73
     1
 44
1.0
  0
ENDBLK
  5
25A
330
258
100
AcDbEntity
  8
0
100
AcDbBlockEnd
  0
BLOCK
  5
263
330
262
100
AcDbEntity
  8
0
100
AcDbBlockBegin
  2
_D_4
 70
     0
 10
0.0
 20
0.0
 30
0.0
  3
_D_4
  1

  0
INSERT
  5
265
330
262
100
AcDbEntity
  8
DIMS
100
AcDbBlockReference
  2
_Open90
 10
6.9215295178
 20
44.1234448642
 30
-1.5
 41
0.3
 42
0.3
 50
150.0
  0
LINE
  5
266
330
262
100
AcDbEntity
  8
DIMS
100
AcDbLine
 10
10.8845870921
 20
42.7508182468
 30
0.0
 11
11.7700037871
 21
42.7508182468
 31
0.0
  0
LINE
  5
267
330
262
100
AcDbEntity
  8
DIMS
100
AcDbLine
 10
6.9215295178
 20
44.1234448642
 30
0.0
 11
9.3878162623
 21
42.6995335484
 31
0.0
  0
LINE
  5
268
330
262
100
AcDbEntity
  8
DIMS
100
AcDbLine
 10
9.3878162623
 20
42.6995335484
 30
0.0
 11
9.6878162623
 21
42.6995335484
 31
0.0
  0
MTEXT
  5
269
330
262
100
AcDbEntity
  8
DIMS
100
AcDbMText
 10
9.6878162623
 20
42.9784424129
 30
0.0
 40
0.5
 41
0.0
 71
     1
 72
     1
  1
%%c
  7
SLDTEXTSTYLE1
 73
     1
 44
1.0
  0
MTEXT
  5
26A
330
262
100
AcDbEntity
  8
DIMS
100
AcDbMText
 10
10.4418787447
 20
42.9860813021
 30
0.0
 40
0.5
 41
0.0
 71
     1
 72
     1
  1
3
  7
SLDTEXTSTYLE1
 73
     1
 44
1.0
  0
MTEXT
  5
26B
330
262
100
AcDbEntity
  8
DIMS
100
AcDbMText
 10
11.1425732168
 20
43.3513938012
 30
0.0
 40
0.5
 41
0.0
 71
     1
 72
     1
  1
1
  7
SLDTEXTSTYLE1
 73
     1
 44
1.0
  0
MTEXT
  5
26C
330
262
100
AcDbEntity
  8
DIMS
100
AcDbMText
 10
10.9578509941
 20
42.6902132226
 30
0.0
 40
0.5
 41
0.0
 71
     1
 72
     1
  1
16
  7
SLDTEXTSTYLE1
 73
     1
 44
1.0
  0
MTEXT
  5
26D
330
262
100
AcDbEntity
  8
DIMS
100
AcDbMText
 10
11.8432677624
 20
42.9860813021
 30
0.0
 40
0.5
 41
0.0
 71
     1
 72
     1
  1
"
  7
SLDTEXTSTYLE1
 73
     1
 44
1.0
  0
ENDBLK
  5
264
330
262
100
AcDbEntity
  8
0
100
AcDbBlockEnd
  0
BLOCK
  5
2A1
330
2A0
100
AcDbEntity
  8
0
100
AcDbBlockBegin
  2
_D_5
 70
     0
 10
0.0
 20
0.0
 30
0.0
  3
_D_5
  1

  0
INSERT
  5
2A3
330
2A0
100
AcDbEntity
  8
DIMS
100
AcDbBlockReference
  2
_Open90
 10
51.3997824906
 20
19.1366197507
 30
9.75
 41
0.3
 42
0.3
 50
180.0
  0
INSERT
  5
2A4
330
2A0
100
AcDbEntity
  8
DIMS
100
AcDbBlockReference
  2
_Open90
 10
49.8997824906
 20
19.1366197507
 30
9.75
 41
0.3
 42
0.3
 50
0.0
  0
LINE
  5
2A5
330
2A0
100
AcDbEntity
  8
DIMS
100
AcDbLine
 10
47.5807398084
 20
19.1879044491
 30
0.0
 11
48.0967120578
 21
19.1879044491
 31
0.0
  0
LINE
  5
2A6
330
2A0
100
AcDbEntity
  8
DIMS
100
AcDbLine
 10
51.3997824906
 20
19.1366197507
 30
0.0
 11
51.7997824906
 21
19.1366197507
 31
0.0
  0
LINE
  5
2A7
330
2A0
100
AcDbEntity
  8
DIMS
100
AcDbLine
 10
49.8997824906
 20
19.1366197507
 30
0.0
 11
48.3762259238
 21
19.1366197507
 31
0.0
  0
MTEXT
  5
2A8
330
2A0
100
AcDbEntity
  8
DIMS
100
AcDbMText
 10
46.3839689786
 20
19.4155286151
 30
0.0
 40
0.5
 41
0.0
 71
     1
 72
     1
  1
%%c
  7
SLDTEXTSTYLE1
 73
     1
 44
1.0
  0
MTEXT
  5
2A9
330
2A0
100
AcDbEntity
  8
DIMS
100
AcDbMText
 10
47.1380314609
 20
19.4231675044
 30
0.0
 40
0.5
 41
0.0
 71
     1
 72
     1
  1
1
  7
SLDTEXTSTYLE1
 73
     1
 44
1.0
  0
MTEXT
  5
2AA
330
2A0
100
AcDbEntity
  8
DIMS
100
AcDbMText
 10
47.6540037103
 20
19.7884800034
 30
0.0
 40
0.5
 41
0.0
 71
     1
 72
     1
  1
1
  7
SLDTEXTSTYLE1
 73
     1
 44
1.0
  0
MTEXT
  5
2AB
330
2A0
100
AcDbEntity
  8
DIMS
100
AcDbMText
 10
47.6540037103
 20
19.1272994249
 30
0.0
 40
0.5
 41
0.0
 71
     1
 72
     1
  1
2
  7
SLDTEXTSTYLE1
 73
     1
 44
1.0
  0
MTEXT
  5
2AC
330
2A0
100
AcDbEntity
  8
DIMS
100
AcDbMText
 10
48.1699759598
 20
19.4231675044
 30
0.0
 40
0.5
 41
0.0
 71
     1
 72
     1
  1
"
  7
SLDTEXTSTYLE1
 73
     1
 44
1.0
  0
ENDBLK
  5
2A2
330
2A0
100
AcDbEntity
  8
0
100
AcDbBlockEnd
  0
BLOCK
  5
2AF
330
2AE
100
AcDbEntity
  8
0
100
AcDbBlockBegin
  2
_D_6
 70
     0
 10
0.0
 20
0.0
 30
0.0
  3
_D_6
  1

  0
INSERT
  5
2B1
330
2AE
100
AcDbEntity
  8
DIMS
100
AcDbBlockReference
  2
_Open90
 10
52.8997824906
 20
18.7221041819
 30
9.75
 41
0.3
 42
0.3
 50
0.0
  0
INSERT
  5
2B2
330
2AE
100
AcDbEntity
  8
DIMS
100
AcDbBlockReference
  2
_Open90
 10
51.3997824906
 20
18.7221041819
 30
9.75
 41
0.3
 42
0.3
 50
180.0
  0
LINE
  5
2B3
330
2AE
100
AcDbEntity
  8
DIMS
100
AcDbLine
 10
54.0619762471
 20
18.7733888803
 30
0.0
 11
54.5779484965
 21
18.7733888803
 31
0.0
  0
LINE
  5
2B4
330
2AE
100
AcDbEntity
  8
DIMS
100
AcDbLine
 10
52.8997824906
 20
16.3841115309
 30
0.0
 11
52.8997824906
 21
19.0971041819
 31
0.0
  0
LINE
  5
2B5
330
2AE
100
AcDbEntity
  8
DIMS
100
AcDbLine
 10
52.8997824906
 20
18.7221041819
 30
0.0
 11
53.6192678996
 21
18.7221041819
 31
0.0
  0
LINE
  5
2B6
330
2AE
100
AcDbEntity
  8
DIMS
100
AcDbLine
 10
51.3997824906
 20
18.7221041819
 30
0.0
 11
52.8997824906
 21
18.7221041819
 31
0.0
  0
MTEXT
  5
2B7
330
2AE
100
AcDbEntity
  8
DIMS
100
AcDbMText
 10
53.6192678996
 20
19.0086519356
 30
0.0
 40
0.5
 41
0.0
 71
     1
 72
     1
  1
1
  7
SLDTEXTSTYLE1
 73
     1
 44
1.0
  0
MTEXT
  5
2B8
330
2AE
100
AcDbEntity
  8
DIMS
100
AcDbMText
 10
54.135240149
 20
19.3739644346
 30
0.0
 40
0.5
 41
0.0
 71
     1
 72
     1
  1
1
  7
SLDTEXTSTYLE1
 73
     1
 44
1.0
  0
MTEXT
  5
2B9
330
2AE
100
AcDbEntity
  8
DIMS
100
AcDbMText
 10
54.135240149
 20
18.7127838561
 30
0.0
 40
0.5
 41
0.0
 71
     1
 72
     1
  1
2
  7
SLDTEXTSTYLE1
 73
     1
 44
1.0
  0
MTEXT
  5
2BA
330
2AE
100
AcDbEntity
  8
DIMS
100
AcDbMText
 10
54.6512123985
 20
19.0086519356
 30
0.0
 40
0.5
 41
0.0
 71
     1
 72
     1
  1
"
  7
SLDTEXTSTYLE1
 73
     1
 44
1.0
  0
ENDBLK
  5
2B0
330
2AE
100
AcDbEntity
  8
0
100
AcDbBlockEnd
  0
BLOCK
  5
2F8
330
2F7
100
AcDbEntity
  8
0
100
AcDbBlockBegin
  2
SW_NOTE_0_2
 70
     0
 10
0.0
 20
0.0
 30
0.0
  3
SW_NOTE_0_2
  1

  0
MTEXT
  5
2FA
330
2F7
100
AcDbEntity
  8
NOTES
 62
     0
100
AcDbMText
 10
0.0
 20
0.6445338699
 30
0.0
 40
0.5
 41
0.0
 71
     1
 72
     1
  1
3D view
  7
SLDTEXTSTYLE1
 73
     1
 44
1.0
  0
MTEXT
  5
2FB
330
2F7
100
AcDbEntity
  8
NOTES
 62
     0
100
AcDbMText
 10
0.0
 20
-0.0019939555
 30
0.0
 40
0.5
 41
0.0
 71
     1
 72
     1
  1
1003-BLK 30x30
  7
SLDTEXTSTYLE1
 73
     1
 44
1.0
  0
ENDBLK
  5
2F9
330
2F7
100
AcDbEntity
  8
0
100
AcDbBlockEnd
  0
ENDSEC
  0
SECTION
  2
ENTITIES
  0
LINE
  5
78
330
1F
100
AcDbEntity
  8
TITLE
370
    35
100
AcDbLine
 10
72.5182230965
 20
1.4876117645
 30
0.0
 11
89.4999864512
 21
1.4876117645
 31
0.0
  0
LINE
  5
79
330
1F
100
AcDbEntity
  8
TITLE
370
    35
100
AcDbLine
 10
89.4999317442
 20
5.4753603936
 30
0.0
 11
79.3105350723
 21
5.4753603936
 31
0.0
  0
LINE
  5
7A
330
1F
100
AcDbEntity
  8
TITLE
  6
Continuous
370
    18
100
AcDbLine
 10
0.5
 20
0.5
 30
0.0
 11
0.5
 21
79.5
 31
0.0
  0
LINE
  5
7B
330
1F
100
AcDbEntity
  8
TITLE
  6
Continuous
370
    18
100
AcDbLine
 10
0.5
 20
79.5
 30
0.0
 11
89.5
 21
79.5
 31
0.0
  0
LINE
  5
7C
330
1F
100
AcDbEntity
  8
TITLE
370
    35
100
AcDbLine
 10
72.5182230965
 20
2.5427877231
 30
0.0
 11
65.5059791203
 21
2.5427877231
 31
0.0
  0
LINE
  5
7D
330
1F
100
AcDbEntity
  8
TITLE
370
    35
100
AcDbLine
 10
72.5182230965
 20
1.4876117645
 30
0.0
 11
65.5059791203
 21
1.4876117645
 31
0.0
  0
LINE
  5
7E
330
1F
100
AcDbEntity
  8
TITLE
  6
Continuous
370
    18
100
AcDbLine
 10
89.5
 20
79.5
 30
0.0
 11
89.5
 21
0.5
 31
0.0
  0
LINE
  5
7F
330
1F
100
AcDbEntity
  8
TITLE
  6
Continuous
370
    18
100
AcDbLine
 10
89.5
 20
0.5
 30
0.0
 11
0.5
 21
0.5
 31
0.0
  0
LINE
  5
80
330
1F
100
AcDbEntity
  8
TITLE
370
    35
100
AcDbLine
 10
72.5182230965
 20
1.4876117645
 30
0.0
 11
72.5182230965
 21
3.5979636817
 31
0.0
  0
LINE
  5
81
330
1F
100
AcDbEntity
  8
TITLE
370
    35
100
AcDbLine
 10
65.5059791203
 20
3.5979636817
 30
0.0
 11
65.5059791203
 21
0.5
 31
0.0
  0
LINE
  5
82
330
1F
100
AcDbEntity
  8
TITLE
370
    35
100
AcDbLine
 10
65.5059791203
 20
0.5
 30
0.0
 11
89.5
 21
0.5
 31
0.0
  0
LINE
  5
83
330
1F
100
AcDbEntity
  8
TITLE
370
    35
100
AcDbLine
 10
89.4999317442
 20
5.4753603936
 30
0.0
 11
89.5
 21
0.5
 31
0.0
  0
LINE
  5
84
330
1F
100
AcDbEntity
  8
TITLE
  6
Continuous
370
    18
100
AcDbLine
 10
0.4999606299
 20
40.0
 30
0.0
 11
0.5000393701
 21
40.0
 31
0.0
  0
LINE
  5
85
330
1F
100
AcDbEntity
  8
TITLE
370
    35
100
AcDbLine
 10
72.5182230965
 20
3.5979636817
 30
0.0
 11
65.5059791203
 21
3.5979636817
 31
0.0
  0
LINE
  5
86
330
1F
100
AcDbEntity
  8
TITLE
370
    35
100
AcDbLine
 10
72.5182230965
 20
3.5979636817
 30
0.0
 11
89.4997615643
 21
3.5979648343
 31
0.0
  0
LINE
  5
87
330
1F
100
AcDbEntity
  8
TITLE
370
    35
100
AcDbLine
 10
79.3105350723
 20
5.4753603936
 30
0.0
 11
79.3105350723
 21
0.4636772425
 31
0.0
  0
LINE
  5
88
330
1F
100
AcDbEntity
  8
TITLE
  6
Continuous
370
    18
100
AcDbLine
 10
45.0
 20
79.5000393701
 30
0.0
 11
45.0
 21
79.4999606299
 31
0.0
  0
LINE
  5
89
330
1F
100
AcDbEntity
  8
TITLE
  6
Continuous
370
    18
100
AcDbLine
 10
89.5000393701
 20
40.0
 30
0.0
 11
89.4999606299
 21
40.0
 31
0.0
  0
LINE
  5
8A
330
1F
100
AcDbEntity
  8
TITLE
  6
Continuous
370
    18
100
AcDbLine
 10
45.0
 20
0.4999606299
 30
0.0
 11
45.0
 21
0.5000393701
 31
0.0
  0
LINE
  5
8B
330
1F
100
AcDbEntity
  8
TITLE
  6
Continuous
370
    18
100
AcDbLine
 10
0.5
 20
2.5984251969
 30
0.0
 11
0.1653543307
 21
2.5984251969
 31
0.0
  0
LINE
  5
8C
330
1F
100
AcDbEntity
  8
TITLE
  6
Continuous
370
    18
100
AcDbLine
 10
89.5
 20
2.5984251969
 30
0.0
 11
89.8346456693
 21
2.5984251969
 31
0.0
  0
LINE
  5
8D
330
1F
100
AcDbEntity
  8
TITLE
  6
Continuous
370
    18
100
AcDbLine
 10
0.5
 20
4.5669291339
 30
0.0
 11
0.1653543307
 21
4.5669291339
 31
0.0
  0
LINE
  5
8E
330
1F
100
AcDbEntity
  8
TITLE
  6
Continuous
370
    18
100
AcDbLine
 10
89.5
 20
4.5669291339
 30
0.0
 11
89.8346456693
 21
4.5669291339
 31
0.0
  0
LINE
  5
8F
330
1F
100
AcDbEntity
  8
TITLE
  6
Continuous
370
    18
100
AcDbLine
 10
0.5
 20
6.5354330709
 30
0.0
 11
0.1653543307
 21
6.5354330709
 31
0.0
  0
LINE
  5
90
330
1F
100
AcDbEntity
  8
TITLE
  6
Continuous
370
    18
100
AcDbLine
 10
89.5
 20
6.5354330709
 30
0.0
 11
89.8346456693
 21
6.5354330709
 31
0.0
  0
LINE
  5
91
330
1F
100
AcDbEntity
  8
TITLE
  6
Continuous
370
    18
100
AcDbLine
 10
0.5
 20
8.5039370079
 30
0.0
 11
0.1653543307
 21
8.5039370079
 31
0.0
  0
LINE
  5
92
330
1F
100
AcDbEntity
  8
TITLE
  6
Continuous
370
    18
100
AcDbLine
 10
89.5
 20
8.5039370079
 30
0.0
 11
89.8346456693
 21
8.5039370079
 31
0.0
  0
LINE
  5
93
330
1F
100
AcDbEntity
  8
TITLE
  6
Continuous
370
    18
100
AcDbLine
 10
0.5
 20
10.4724409449
 30
0.0
 11
0.1653543307
 21
10.4724409449
 31
0.0
  0
LINE
  5
94
330
1F
100
AcDbEntity
  8
TITLE
  6
Continuous
370
    18
100
AcDbLine
 10
89.5
 20
10.4724409449
 30
0.0
 11
89.8346456693
 21
10.4724409449
 31
0.0
  0
LINE
  5
95
330
1F
100
AcDbEntity
  8
TITLE
  6
Continuous
370
    18
100
AcDbLine
 10
0.5
 20
12.4409448819
 30
0.0
 11
0.1653543307
 21
12.4409448819
 31
0.0
  0
LINE
  5
96
330
1F
100
AcDbEntity
  8
TITLE
  6
Continuous
370
    18
100
AcDbLine
 10
89.5
 20
12.4409448819
 30
0.0
 11
89.8346456693
 21
12.4409448819
 31
0.0
  0
LINE
  5
97
330
1F
100
AcDbEntity
  8
TITLE
  6
Continuous
370
    18
100
AcDbLine
 10
0.5
 20
14.4094488189
 30
0.0
 11
0.1653543307
 21
14.4094488189
 31
0.0
  0
LINE
  5
98
330
1F
100
AcDbEntity
  8
TITLE
  6
Continuous
370
    18
100
AcDbLine
 10
89.5
 20
14.4094488189
 30
0.0
 11
89.8346456693
 21
14.4094488189
 31
0.0
  0
LINE
  5
99
330
1F
100
AcDbEntity
  8
TITLE
  6
Continuous
370
    18
100
AcDbLine
 10
0.5
 20
16.3779527559
 30
0.0
 11
0.1653543307
 21
16.3779527559
 31
0.0
  0
LINE
  5
9A
330
1F
100
AcDbEntity
  8
TITLE
  6
Continuous
370
    18
100
AcDbLine
 10
89.5
 20
16.3779527559
 30
0.0
 11
89.8346456693
 21
16.3779527559
 31
0.0
  0
LINE
  5
9B
330
1F
100
AcDbEntity
  8
TITLE
  6
Continuous
370
    18
100
AcDbLine
 10
0.5
 20
18.3464566929
 30
0.0
 11
0.1653543307
 21
18.3464566929
 31
0.0
  0
LINE
  5
9C
330
1F
100
AcDbEntity
  8
TITLE
  6
Continuous
370
    18
100
AcDbLine
 10
89.5
 20
18.3464566929
 30
0.0
 11
89.8346456693
 21
18.3464566929
 31
0.0
  0
LINE
  5
9D
330
1F
100
AcDbEntity
  8
TITLE
  6
Continuous
370
    18
100
AcDbLine
 10
0.5
 20
20.3149606299
 30
0.0
 11
0.1653543307
 21
20.3149606299
 31
0.0
  0
LINE
  5
9E
330
1F
100
AcDbEntity
  8
TITLE
  6
Continuous
370
    18
100
AcDbLine
 10
89.5
 20
20.3149606299
 30
0.0
 11
89.8346456693
 21
20.3149606299
 31
0.0
  0
LINE
  5
9F
330
1F
100
AcDbEntity
  8
TITLE
  6
Continuous
370
    18
100
AcDbLine
 10
0.5
 20
22.2834645669
 30
0.0
 11
0.1653543307
 21
22.2834645669
 31
0.0
  0
LINE
  5
A0
330
1F
100
AcDbEntity
  8
TITLE
  6
Continuous
370
    18
100
AcDbLine
 10
89.5
 20
22.2834645669
 30
0.0
 11
89.8346456693
 21
22.2834645669
 31
0.0
  0
LINE
  5
A1
330
1F
100
AcDbEntity
  8
TITLE
  6
Continuous
370
    18
100
AcDbLine
 10
0.5
 20
24.2519685039
 30
0.0
 11
0.1653543307
 21
24.2519685039
 31
0.0
  0
LINE
  5
A2
330
1F
100
AcDbEntity
  8
TITLE
  6
Continuous
370
    18
100
AcDbLine
 10
89.5
 20
24.2519685039
 30
0.0
 11
89.8346456693
 21
24.2519685039
 31
0.0
  0
LINE
  5
A3
330
1F
100
AcDbEntity
  8
TITLE
  6
Continuous
370
    18
100
AcDbLine
 10
0.5
 20
26.2204724409
 30
0.0
 11
0.1653543307
 21
26.2204724409
 31
0.0
  0
LINE
  5
A4
330
1F
100
AcDbEntity
  8
TITLE
  6
Continuous
370
    18
100
AcDbLine
 10
89.5
 20
26.2204724409
 30
0.0
 11
89.8346456693
 21
26.2204724409
 31
0.0
  0
LINE
  5
A5
330
1F
100
AcDbEntity
  8
TITLE
  6
Continuous
370
    18
100
AcDbLine
 10
0.5
 20
28.188976378
 30
0.0
 11
0.1653543307
 21
28.188976378
 31
0.0
  0
LINE
  5
A6
330
1F
100
AcDbEntity
  8
TITLE
  6
Continuous
370
    18
100
AcDbLine
 10
89.5
 20
28.188976378
 30
0.0
 11
89.8346456693
 21
28.188976378
 31
0.0
  0
LINE
  5
A7
330
1F
100
AcDbEntity
  8
TITLE
  6
Continuous
370
    18
100
AcDbLine
 10
0.5
 20
30.157480315
 30
0.0
 11
0.1653543307
 21
30.157480315
 31
0.0
  0
LINE
  5
A8
330
1F
100
AcDbEntity
  8
TITLE
  6
Continuous
370
    18
100
AcDbLine
 10
89.5
 20
30.157480315
 30
0.0
 11
89.8346456693
 21
30.157480315
 31
0.0
  0
LINE
  5
A9
330
1F
100
AcDbEntity
  8
TITLE
  6
Continuous
370
    18
100
AcDbLine
 10
0.5
 20
32.125984252
 30
0.0
 11
0.1653543307
 21
32.125984252
 31
0.0
  0
LINE
  5
AA
330
1F
100
AcDbEntity
  8
TITLE
  6
Continuous
370
    18
100
AcDbLine
 10
89.5
 20
32.125984252
 30
0.0
 11
89.8346456693
 21
32.125984252
 31
0.0
  0
LINE
  5
AB
330
1F
100
AcDbEntity
  8
TITLE
  6
Continuous
370
    18
100
AcDbLine
 10
0.5
 20
34.094488189
 30
0.0
 11
0.1653543307
 21
34.094488189
 31
0.0
  0
LINE
  5
AC
330
1F
100
AcDbEntity
  8
TITLE
  6
Continuous
370
    18
100
AcDbLine
 10
89.5
 20
34.094488189
 30
0.0
 11
89.8346456693
 21
34.094488189
 31
0.0
  0
LINE
  5
AD
330
1F
100
AcDbEntity
  8
TITLE
  6
Continuous
370
    18
100
AcDbLine
 10
0.5
 20
36.062992126
 30
0.0
 11
0.1653543307
 21
36.062992126
 31
0.0
  0
LINE
  5
AE
330
1F
100
AcDbEntity
  8
TITLE
  6
Continuous
370
    18
100
AcDbLine
 10
89.5
 20
36.062992126
 30
0.0
 11
89.8346456693
 21
36.062992126
 31
0.0
  0
LINE
  5
AF
330
1F
100
AcDbEntity
  8
TITLE
  6
Continuous
370
    18
100
AcDbLine
 10
0.5
 20
38.031496063
 30
0.0
 11
0.1653543307
 21
38.031496063
 31
0.0
  0
LINE
  5
B0
330
1F
100
AcDbEntity
  8
TITLE
  6
Continuous
370
    18
100
AcDbLine
 10
89.5
 20
38.031496063
 30
0.0
 11
89.8346456693
 21
38.031496063
 31
0.0
  0
LINE
  5
B1
330
1F
100
AcDbEntity
  8
TITLE
  6
Continuous
370
    18
100
AcDbLine
 10
0.4999606299
 20
40.0
 30
0.0
 11
0.1653543307
 21
40.0
 31
0.0
  0
LINE
  5
B2
330
1F
100
AcDbEntity
  8
TITLE
  6
Continuous
370
    18
100
AcDbLine
 10
89.5000393701
 20
40.0
 30
0.0
 11
89.8346456693
 21
40.0
 31
0.0
  0
LINE
  5
B3
330
1F
100
AcDbEntity
  8
TITLE
  6
Continuous
370
    18
100
AcDbLine
 10
0.5
 20
41.968503937
 30
0.0
 11
0.1653543307
 21
41.968503937
 31
0.0
  0
LINE
  5
B4
330
1F
100
AcDbEntity
  8
TITLE
  6
Continuous
370
    18
100
AcDbLine
 10
89.5
 20
41.968503937
 30
0.0
 11
89.8346456693
 21
41.968503937
 31
0.0
  0
LINE
  5
B5
330
1F
100
AcDbEntity
  8
TITLE
  6
Continuous
370
    18
100
AcDbLine
 10
0.5
 20
43.937007874
 30
0.0
 11
0.1653543307
 21
43.937007874
 31
0.0
  0
LINE
  5
B6
330
1F
100
AcDbEntity
  8
TITLE
  6
Continuous
370
    18
100
AcDbLine
 10
89.5
 20
43.937007874
 30
0.0
 11
89.8346456693
 21
43.937007874
 31
0.0
  0
LINE
  5
B7
330
1F
100
AcDbEntity
  8
TITLE
  6
Continuous
370
    18
100
AcDbLine
 10
0.5
 20
45.905511811
 30
0.0
 11
0.1653543307
 21
45.905511811
 31
0.0
  0
LINE
  5
B8
330
1F
100
AcDbEntity
  8
TITLE
  6
Continuous
370
    18
100
AcDbLine
 10
89.5
 20
45.905511811
 30
0.0
 11
89.8346456693
 21
45.905511811
 31
0.0
  0
LINE
  5
B9
330
1F
100
AcDbEntity
  8
TITLE
  6
Continuous
370
    18
100
AcDbLine
 10
0.5
 20
47.874015748
 30
0.0
 11
0.1653543307
 21
47.874015748
 31
0.0
  0
LINE
  5
BA
330
1F
100
AcDbEntity
  8
TITLE
  6
Continuous
370
    18
100
AcDbLine
 10
89.5
 20
47.874015748
 30
0.0
 11
89.8346456693
 21
47.874015748
 31
0.0
  0
LINE
  5
BB
330
1F
100
AcDbEntity
  8
TITLE
  6
Continuous
370
    18
100
AcDbLine
 10
0.5
 20
49.842519685
 30
0.0
 11
0.1653543307
 21
49.842519685
 31
0.0
  0
LINE
  5
BC
330
1F
100
AcDbEntity
  8
TITLE
  6
Continuous
370
    18
100
AcDbLine
 10
89.5
 20
49.842519685
 30
0.0
 11
89.8346456693
 21
49.842519685
 31
0.0
  0
LINE
  5
BD
330
1F
100
AcDbEntity
  8
TITLE
  6
Continuous
370
    18
100
AcDbLine
 10
0.5
 20
51.811023622
 30
0.0
 11
0.1653543307
 21
51.811023622
 31
0.0
  0
LINE
  5
BE
330
1F
100
AcDbEntity
  8
TITLE
  6
Continuous
370
    18
100
AcDbLine
 10
89.5
 20
51.811023622
 30
0.0
 11
89.8346456693
 21
51.811023622
 31
0.0
  0
LINE
  5
BF
330
1F
100
AcDbEntity
  8
TITLE
  6
Continuous
370
    18
100
AcDbLine
 10
0.5
 20
53.7795275591
 30
0.0
 11
0.1653543307
 21
53.7795275591
 31
0.0
  0
LINE
  5
C0
330
1F
100
AcDbEntity
  8
TITLE
  6
Continuous
370
    18
100
AcDbLine
 10
89.5
 20
53.7795275591
 30
0.0
 11
89.8346456693
 21
53.7795275591
 31
0.0
  0
LINE
  5
C1
330
1F
100
AcDbEntity
  8
TITLE
  6
Continuous
370
    18
100
AcDbLine
 10
0.5
 20
55.7480314961
 30
0.0
 11
0.1653543307
 21
55.7480314961
 31
0.0
  0
LINE
  5
C2
330
1F
100
AcDbEntity
  8
TITLE
  6
Continuous
370
    18
100
AcDbLine
 10
89.5
 20
55.7480314961
 30
0.0
 11
89.8346456693
 21
55.7480314961
 31
0.0
  0
LINE
  5
C3
330
1F
100
AcDbEntity
  8
TITLE
  6
Continuous
370
    18
100
AcDbLine
 10
0.5
 20
57.7165354331
 30
0.0
 11
0.1653543307
 21
57.7165354331
 31
0.0
  0
LINE
  5
C4
330
1F
100
AcDbEntity
  8
TITLE
  6
Continuous
370
    18
100
AcDbLine
 10
89.5
 20
57.7165354331
 30
0.0
 11
89.8346456693
 21
57.7165354331
 31
0.0
  0
LINE
  5
C5
330
1F
100
AcDbEntity
  8
TITLE
  6
Continuous
370
    18
100
AcDbLine
 10
0.5
 20
59.6850393701
 30
0.0
 11
0.1653543307
 21
59.6850393701
 31
0.0
  0
LINE
  5
C6
330
1F
100
AcDbEntity
  8
TITLE
  6
Continuous
370
    18
100
AcDbLine
 10
89.5
 20
59.6850393701
 30
0.0
 11
89.8346456693
 21
59.6850393701
 31
0.0
  0
LINE
  5
C7
330
1F
100
AcDbEntity
  8
TITLE
  6
Continuous
370
    18
100
AcDbLine
 10
0.5
 20
61.6535433071
 30
0.0
 11
0.1653543307
 21
61.6535433071
 31
0.0
  0
LINE
  5
C8
330
1F
100
AcDbEntity
  8
TITLE
  6
Continuous
370
    18
100
AcDbLine
 10
89.5
 20
61.6535433071
 30
0.0
 11
89.8346456693
 21
61.6535433071
 31
0.0
  0
LINE
  5
C9
330
1F
100
AcDbEntity
  8
TITLE
  6
Continuous
370
    18
100
AcDbLine
 10
0.5
 20
63.6220472441
 30
0.0
 11
0.1653543307
 21
63.6220472441
 31
0.0
  0
LINE
  5
CA
330
1F
100
AcDbEntity
  8
TITLE
  6
Continuous
370
    18
100
AcDbLine
 10
89.5
 20
63.6220472441
 30
0.0
 11
89.8346456693
 21
63.6220472441
 31
0.0
  0
LINE
  5
CB
330
1F
100
AcDbEntity
  8
TITLE
  6
Continuous
370
    18
100
AcDbLine
 10
0.5
 20
65.5905511811
 30
0.0
 11
0.1653543307
 21
65.5905511811
 31
0.0
  0
LINE
  5
CC
330
1F
100
AcDbEntity
  8
TITLE
  6
Continuous
370
    18
100
AcDbLine
 10
89.5
 20
65.5905511811
 30
0.0
 11
89.8346456693
 21
65.5905511811
 31
0.0
  0
LINE
  5
CD
330
1F
100
AcDbEntity
  8
TITLE
  6
Continuous
370
    18
100
AcDbLine
 10
0.5
 20
67.5590551181
 30
0.0
 11
0.1653543307
 21
67.5590551181
 31
0.0
  0
LINE
  5
CE
330
1F
100
AcDbEntity
  8
TITLE
  6
Continuous
370
    18
100
AcDbLine
 10
89.5
 20
67.5590551181
 30
0.0
 11
89.8346456693
 21
67.5590551181
 31
0.0
  0
LINE
  5
CF
330
1F
100
AcDbEntity
  8
TITLE
  6
Continuous
370
    18
100
AcDbLine
 10
0.5
 20
69.5275590551
 30
0.0
 11
0.1653543307
 21
69.5275590551
 31
0.0
  0
LINE
  5
D0
330
1F
100
AcDbEntity
  8
TITLE
  6
Continuous
370
    18
100
AcDbLine
 10
89.5
 20
69.5275590551
 30
0.0
 11
89.8346456693
 21
69.5275590551
 31
0.0
  0
LINE
  5
D1
330
1F
100
AcDbEntity
  8
TITLE
  6
Continuous
370
    18
100
AcDbLine
 10
0.5
 20
71.4960629921
 30
0.0
 11
0.1653543307
 21
71.4960629921
 31
0.0
  0
LINE
  5
D2
330
1F
100
AcDbEntity
  8
TITLE
  6
Continuous
370
    18
100
AcDbLine
 10
89.5
 20
71.4960629921
 30
0.0
 11
89.8346456693
 21
71.4960629921
 31
0.0
  0
LINE
  5
D3
330
1F
100
AcDbEntity
  8
TITLE
  6
Continuous
370
    18
100
AcDbLine
 10
0.5
 20
73.4645669291
 30
0.0
 11
0.1653543307
 21
73.4645669291
 31
0.0
  0
LINE
  5
D4
330
1F
100
AcDbEntity
  8
TITLE
  6
Continuous
370
    18
100
AcDbLine
 10
89.5
 20
73.4645669291
 30
0.0
 11
89.8346456693
 21
73.4645669291
 31
0.0
  0
LINE
  5
D5
330
1F
100
AcDbEntity
  8
TITLE
  6
Continuous
370
    18
100
AcDbLine
 10
0.5
 20
75.4330708661
 30
0.0
 11
0.1653543307
 21
75.4330708661
 31
0.0
  0
LINE
  5
D6
330
1F
100
AcDbEntity
  8
TITLE
  6
Continuous
370
    18
100
AcDbLine
 10
89.5
 20
75.4330708661
 30
0.0
 11
89.8346456693
 21
75.4330708661
 31
0.0
  0
LINE
  5
D7
330
1F
100
AcDbEntity
  8
TITLE
  6
Continuous
370
    18
100
AcDbLine
 10
0.5
 20
77.4015748031
 30
0.0
 11
0.1653543307
 21
77.4015748031
 31
0.0
  0
LINE
  5
D8
330
1F
100
AcDbEntity
  8
TITLE
  6
Continuous
370
    18
100
AcDbLine
 10
89.5
 20
77.4015748031
 30
0.0
 11
89.8346456693
 21
77.4015748031
 31
0.0
  0
LINE
  5
D9
330
1F
100
AcDbEntity
  8
TITLE
  6
Continuous
370
    18
100
AcDbLine
 10
1.6929133858
 20
79.5
 30
0.0
 11
1.6929133858
 21
79.8346456693
 31
0.0
  0
LINE
  5
DA
330
1F
100
AcDbEntity
  8
TITLE
  6
Continuous
370
    18
100
AcDbLine
 10
1.6929133858
 20
0.5
 30
0.0
 11
1.6929133858
 21
0.1653543307
 31
0.0
  0
LINE
  5
DB
330
1F
100
AcDbEntity
  8
TITLE
  6
Continuous
370
    18
100
AcDbLine
 10
3.6614173228
 20
79.5
 30
0.0
 11
3.6614173228
 21
79.8346456693
 31
0.0
  0
LINE
  5
DC
330
1F
100
AcDbEntity
  8
TITLE
  6
Continuous
370
    18
100
AcDbLine
 10
3.6614173228
 20
0.5
 30
0.0
 11
3.6614173228
 21
0.1653543307
 31
0.0
  0
LINE
  5
DD
330
1F
100
AcDbEntity
  8
TITLE
  6
Continuous
370
    18
100
AcDbLine
 10
5.6299212598
 20
79.5
 30
0.0
 11
5.6299212598
 21
79.8346456693
 31
0.0
  0
LINE
  5
DE
330
1F
100
AcDbEntity
  8
TITLE
  6
Continuous
370
    18
100
AcDbLine
 10
5.6299212598
 20
0.5
 30
0.0
 11
5.6299212598
 21
0.1653543307
 31
0.0
  0
LINE
  5
DF
330
1F
100
AcDbEntity
  8
TITLE
  6
Continuous
370
    18
100
AcDbLine
 10
7.5984251969
 20
79.5
 30
0.0
 11
7.5984251969
 21
79.8346456693
 31
0.0
  0
LINE
  5
E0
330
1F
100
AcDbEntity
  8
TITLE
  6
Continuous
370
    18
100
AcDbLine
 10
7.5984251969
 20
0.5
 30
0.0
 11
7.5984251969
 21
0.1653543307
 31
0.0
  0
LINE
  5
E1
330
1F
100
AcDbEntity
  8
TITLE
  6
Continuous
370
    18
100
AcDbLine
 10
9.5669291339
 20
79.5
 30
0.0
 11
9.5669291339
 21
79.8346456693
 31
0.0
  0
LINE
  5
E2
330
1F
100
AcDbEntity
  8
TITLE
  6
Continuous
370
    18
100
AcDbLine
 10
9.5669291339
 20
0.5
 30
0.0
 11
9.5669291339
 21
0.1653543307
 31
0.0
  0
LINE
  5
E3
330
1F
100
AcDbEntity
  8
TITLE
  6
Continuous
370
    18
100
AcDbLine
 10
11.5354330709
 20
79.5
 30
0.0
 11
11.5354330709
 21
79.8346456693
 31
0.0
  0
LINE
  5
E4
330
1F
100
AcDbEntity
  8
TITLE
  6
Continuous
370
    18
100
AcDbLine
 10
11.5354330709
 20
0.5
 30
0.0
 11
11.5354330709
 21
0.1653543307
 31
0.0
  0
LINE
  5
E5
330
1F
100
AcDbEntity
  8
TITLE
  6
Continuous
370
    18
100
AcDbLine
 10
13.5039370079
 20
79.5
 30
0.0
 11
13.5039370079
 21
79.8346456693
 31
0.0
  0
LINE
  5
E6
330
1F
100
AcDbEntity
  8
TITLE
  6
Continuous
370
    18
100
AcDbLine
 10
13.5039370079
 20
0.5
 30
0.0
 11
13.5039370079
 21
0.1653543307
 31
0.0
  0
LINE
  5
E7
330
1F
100
AcDbEntity
  8
TITLE
  6
Continuous
370
    18
100
AcDbLine
 10
15.4724409449
 20
79.5
 30
0.0
 11
15.4724409449
 21
79.8346456693
 31
0.0
  0
LINE
  5
E8
330
1F
100
AcDbEntity
  8
TITLE
  6
Continuous
370
    18
100
AcDbLine
 10
15.4724409449
 20
0.5
 30
0.0
 11
15.4724409449
 21
0.1653543307
 31
0.0
  0
LINE
  5
E9
330
1F
100
AcDbEntity
  8
TITLE
  6
Continuous
370
    18
100
AcDbLine
 10
17.4409448819
 20
79.5
 30
0.0
 11
17.4409448819
 21
79.8346456693
 31
0.0
  0
LINE
  5
EA
330
1F
100
AcDbEntity
  8
TITLE
  6
Continuous
370
    18
100
AcDbLine
 10
17.4409448819
 20
0.5
 30
0.0
 11
17.4409448819
 21
0.1653543307
 31
0.0
  0
LINE
  5
EB
330
1F
100
AcDbEntity
  8
TITLE
  6
Continuous
370
    18
100
AcDbLine
 10
19.4094488189
 20
79.5
 30
0.0
 11
19.4094488189
 21
79.8346456693
 31
0.0
  0
LINE
  5
EC
330
1F
100
AcDbEntity
  8
TITLE
  6
Continuous
370
    18
100
AcDbLine
 10
19.4094488189
 20
0.5
 30
0.0
 11
19.4094488189
 21
0.1653543307
 31
0.0
  0
LINE
  5
ED
330
1F
100
AcDbEntity
  8
TITLE
  6
Continuous
370
    18
100
AcDbLine
 10
21.3779527559
 20
79.5
 30
0.0
 11
21.3779527559
 21
79.8346456693
 31
0.0
  0
LINE
  5
EE
330
1F
100
AcDbEntity
  8
TITLE
  6
Continuous
370
    18
100
AcDbLine
 10
21.3779527559
 20
0.5
 30
0.0
 11
21.3779527559
 21
0.1653543307
 31
0.0
  0
LINE
  5
EF
330
1F
100
AcDbEntity
  8
TITLE
  6
Continuous
370
    18
100
AcDbLine
 10
23.3464566929
 20
79.5
 30
0.0
 11
23.3464566929
 21
79.8346456693
 31
0.0
  0
LINE
  5
F0
330
1F
100
AcDbEntity
  8
TITLE
  6
Continuous
370
    18
100
AcDbLine
 10
23.3464566929
 20
0.5
 30
0.0
 11
23.3464566929
 21
0.1653543307
 31
0.0
  0
LINE
  5
F1
330
1F
100
AcDbEntity
  8
TITLE
  6
Continuous
370
    18
100
AcDbLine
 10
25.3149606299
 20
79.5
 30
0.0
 11
25.3149606299
 21
79.8346456693
 31
0.0
  0
LINE
  5
F2
330
1F
100
AcDbEntity
  8
TITLE
  6
Continuous
370
    18
100
AcDbLine
 10
25.3149606299
 20
0.5
 30
0.0
 11
25.3149606299
 21
0.1653543307
 31
0.0
  0
LINE
  5
F3
330
1F
100
AcDbEntity
  8
TITLE
  6
Continuous
370
    18
100
AcDbLine
 10
27.2834645669
 20
79.5
 30
0.0
 11
27.2834645669
 21
79.8346456693
 31
0.0
  0
LINE
  5
F4
330
1F
100
AcDbEntity
  8
TITLE
  6
Continuous
370
    18
100
AcDbLine
 10
27.2834645669
 20
0.5
 30
0.0
 11
27.2834645669
 21
0.1653543307
 31
0.0
  0
LINE
  5
F5
330
1F
100
AcDbEntity
  8
TITLE
  6
Continuous
370
    18
100
AcDbLine
 10
29.2519685039
 20
79.5
 30
0.0
 11
29.2519685039
 21
79.8346456693
 31
0.0
  0
LINE
  5
F6
330
1F
100
AcDbEntity
  8
TITLE
  6
Continuous
370
    18
100
AcDbLine
 10
29.2519685039
 20
0.5
 30
0.0
 11
29.2519685039
 21
0.1653543307
 31
0.0
  0
LINE
  5
F7
330
1F
100
AcDbEntity
  8
TITLE
  6
Continuous
370
    18
100
AcDbLine
 10
31.2204724409
 20
79.5
 30
0.0
 11
31.2204724409
 21
79.8346456693
 31
0.0
  0
LINE
  5
F8
330
1F
100
AcDbEntity
  8
TITLE
  6
Continuous
370
    18
100
AcDbLine
 10
31.2204724409
 20
0.5
 30
0.0
 11
31.2204724409
 21
0.1653543307
 31
0.0
  0
LINE
  5
F9
330
1F
100
AcDbEntity
  8
TITLE
  6
Continuous
370
    18
100
AcDbLine
 10
33.188976378
 20
79.5
 30
0.0
 11
33.188976378
 21
79.8346456693
 31
0.0
  0
LINE
  5
FA
330
1F
100
AcDbEntity
  8
TITLE
  6
Continuous
370
    18
100
AcDbLine
 10
33.188976378
 20
0.5
 30
0.0
 11
33.188976378
 21
0.1653543307
 31
0.0
  0
LINE
  5
FB
330
1F
100
AcDbEntity
  8
TITLE
  6
Continuous
370
    18
100
AcDbLine
 10
35.157480315
 20
79.5
 30
0.0
 11
35.157480315
 21
79.8346456693
 31
0.0
  0
LINE
  5
FC
330
1F
100
AcDbEntity
  8
TITLE
  6
Continuous
370
    18
100
AcDbLine
 10
35.157480315
 20
0.5
 30
0.0
 11
35.157480315
 21
0.1653543307
 31
0.0
  0
LINE
  5
FD
330
1F
100
AcDbEntity
  8
TITLE
  6
Continuous
370
    18
100
AcDbLine
 10
37.125984252
 20
79.5
 30
0.0
 11
37.125984252
 21
79.8346456693
 31
0.0
  0
LINE
  5
FE
330
1F
100
AcDbEntity
  8
TITLE
  6
Continuous
370
    18
100
AcDbLine
 10
37.125984252
 20
0.5
 30
0.0
 11
37.125984252
 21
0.1653543307
 31
0.0
  0
LINE
  5
FF
330
1F
100
AcDbEntity
  8
TITLE
  6
Continuous
370
    18
100
AcDbLine
 10
39.094488189
 20
79.5
 30
0.0
 11
39.094488189
 21
79.8346456693
 31
0.0
  0
LINE
  5
100
330
1F
100
AcDbEntity
  8
TITLE
  6
Continuous
370
    18
100
AcDbLine
 10
39.094488189
 20
0.5
 30
0.0
 11
39.094488189
 21
0.1653543307
 31
0.0
  0
LINE
  5
101
330
1F
100
AcDbEntity
  8
TITLE
  6
Continuous
370
    18
100
AcDbLine
 10
41.062992126
 20
79.5
 30
0.0
 11
41.062992126
 21
79.8346456693
 31
0.0
  0
LINE
  5
102
330
1F
100
AcDbEntity
  8
TITLE
  6
Continuous
370
    18
100
AcDbLine
 10
41.062992126
 20
0.5
 30
0.0
 11
41.062992126
 21
0.1653543307
 31
0.0
  0
LINE
  5
103
330
1F
100
AcDbEntity
  8
TITLE
  6
Continuous
370
    18
100
AcDbLine
 10
43.031496063
 20
79.5
 30
0.0
 11
43.031496063
 21
79.8346456693
 31
0.0
  0
LINE
  5
104
330
1F
100
AcDbEntity
  8
TITLE
  6
Continuous
370
    18
100
AcDbLine
 10
43.031496063
 20
0.5
 30
0.0
 11
43.031496063
 21
0.1653543307
 31
0.0
  0
LINE
  5
105
330
1F
100
AcDbEntity
  8
TITLE
  6
Continuous
370
    18
100
AcDbLine
 10
45.0
 20
79.5000393701
 30
0.0
 11
45.0
 21
79.8346456693
 31
0.0
  0
LINE
  5
106
330
1F
100
AcDbEntity
  8
TITLE
  6
Continuous
370
    18
100
AcDbLine
 10
45.0
 20
0.4999606299
 30
0.0
 11
45.0
 21
0.1653543307
 31
0.0
  0
LINE
  5
107
330
1F
100
AcDbEntity
  8
TITLE
  6
Continuous
370
    18
100
AcDbLine
 10
46.968503937
 20
79.5
 30
0.0
 11
46.968503937
 21
79.8346456693
 31
0.0
  0
LINE
  5
108
330
1F
100
AcDbEntity
  8
TITLE
  6
Continuous
370
    18
100
AcDbLine
 10
46.968503937
 20
0.5
 30
0.0
 11
46.968503937
 21
0.1653543307
 31
0.0
  0
LINE
  5
109
330
1F
100
AcDbEntity
  8
TITLE
  6
Continuous
370
    18
100
AcDbLine
 10
48.937007874
 20
79.5
 30
0.0
 11
48.937007874
 21
79.8346456693
 31
0.0
  0
LINE
  5
10A
330
1F
100
AcDbEntity
  8
TITLE
  6
Continuous
370
    18
100
AcDbLine
 10
48.937007874
 20
0.5
 30
0.0
 11
48.937007874
 21
0.1653543307
 31
0.0
  0
LINE
  5
10B
330
1F
100
AcDbEntity
  8
TITLE
  6
Continuous
370
    18
100
AcDbLine
 10
50.905511811
 20
79.5
 30
0.0
 11
50.905511811
 21
79.8346456693
 31
0.0
  0
LINE
  5
10C
330
1F
100
AcDbEntity
  8
TITLE
  6
Continuous
370
    18
100
AcDbLine
 10
50.905511811
 20
0.5
 30
0.0
 11
50.905511811
 21
0.1653543307
 31
0.0
  0
LINE
  5
10D
330
1F
100
AcDbEntity
  8
TITLE
  6
Continuous
370
    18
100
AcDbLine
 10
52.874015748
 20
79.5
 30
0.0
 11
52.874015748
 21
79.8346456693
 31
0.0
  0
LINE
  5
10E
330
1F
100
AcDbEntity
  8
TITLE
  6
Continuous
370
    18
100
AcDbLine
 10
52.874015748
 20
0.5
 30
0.0
 11
52.874015748
 21
0.1653543307
 31
0.0
  0
LINE
  5
10F
330
1F
100
AcDbEntity
  8
TITLE
  6
Continuous
370
    18
100
AcDbLine
 10
54.842519685
 20
79.5
 30
0.0
 11
54.842519685
 21
79.8346456693
 31
0.0
  0
LINE
  5
110
330
1F
100
AcDbEntity
  8
TITLE
  6
Continuous
370
    18
100
AcDbLine
 10
54.842519685
 20
0.5
 30
0.0
 11
54.842519685
 21
0.1653543307
 31
0.0
  0
LINE
  5
111
330
1F
100
AcDbEntity
  8
TITLE
  6
Continuous
370
    18
100
AcDbLine
 10
56.811023622
 20
79.5
 30
0.0
 11
56.811023622
 21
79.8346456693
 31
0.0
  0
LINE
  5
112
330
1F
100
AcDbEntity
  8
TITLE
  6
Continuous
370
    18
100
AcDbLine
 10
56.811023622
 20
0.5
 30
0.0
 11
56.811023622
 21
0.1653543307
 31
0.0
  0
LINE
  5
113
330
1F
100
AcDbEntity
  8
TITLE
  6
Continuous
370
    18
100
AcDbLine
 10
58.7795275591
 20
79.5
 30
0.0
 11
58.7795275591
 21
79.8346456693
 31
0.0
  0
LINE
  5
114
330
1F
100
AcDbEntity
  8
TITLE
  6
Continuous
370
    18
100
AcDbLine
 10
58.7795275591
 20
0.5
 30
0.0
 11
58.7795275591
 21
0.1653543307
 31
0.0
  0
LINE
  5
115
330
1F
100
AcDbEntity
  8
TITLE
  6
Continuous
370
    18
100
AcDbLine
 10
60.7480314961
 20
79.5
 30
0.0
 11
60.7480314961
 21
79.8346456693
 31
0.0
  0
LINE
  5
116
330
1F
100
AcDbEntity
  8
TITLE
  6
Continuous
370
    18
100
AcDbLine
 10
60.7480314961
 20
0.5
 30
0.0
 11
60.7480314961
 21
0.1653543307
 31
0.0
  0
LINE
  5
117
330
1F
100
AcDbEntity
  8
TITLE
  6
Continuous
370
    18
100
AcDbLine
 10
62.7165354331
 20
79.5
 30
0.0
 11
62.7165354331
 21
79.8346456693
 31
0.0
  0
LINE
  5
118
330
1F
100
AcDbEntity
  8
TITLE
  6
Continuous
370
    18
100
AcDbLine
 10
62.7165354331
 20
0.5
 30
0.0
 11
62.7165354331
 21
0.1653543307
 31
0.0
  0
LINE
  5
119
330
1F
100
AcDbEntity
  8
TITLE
  6
Continuous
370
    18
100
AcDbLine
 10
64.6850393701
 20
79.5
 30
0.0
 11
64.6850393701
 21
79.8346456693
 31
0.0
  0
LINE
  5
11A
330
1F
100
AcDbEntity
  8
TITLE
  6
Continuous
370
    18
100
AcDbLine
 10
64.6850393701
 20
0.5
 30
0.0
 11
64.6850393701
 21
0.1653543307
 31
0.0
  0
LINE
  5
11B
330
1F
100
AcDbEntity
  8
TITLE
  6
Continuous
370
    18
100
AcDbLine
 10
66.6535433071
 20
79.5
 30
0.0
 11
66.6535433071
 21
79.8346456693
 31
0.0
  0
LINE
  5
11C
330
1F
100
AcDbEntity
  8
TITLE
  6
Continuous
370
    18
100
AcDbLine
 10
66.6535433071
 20
0.5
 30
0.0
 11
66.6535433071
 21
0.1653543307
 31
0.0
  0
LINE
  5
11D
330
1F
100
AcDbEntity
  8
TITLE
  6
Continuous
370
    18
100
AcDbLine
 10
68.6220472441
 20
79.5
 30
0.0
 11
68.6220472441
 21
79.8346456693
 31
0.0
  0
LINE
  5
11E
330
1F
100
AcDbEntity
  8
TITLE
  6
Continuous
370
    18
100
AcDbLine
 10
68.6220472441
 20
0.5
 30
0.0
 11
68.6220472441
 21
0.1653543307
 31
0.0
  0
LINE
  5
11F
330
1F
100
AcDbEntity
  8
TITLE
  6
Continuous
370
    18
100
AcDbLine
 10
70.5905511811
 20
79.5
 30
0.0
 11
70.5905511811
 21
79.8346456693
 31
0.0
  0
LINE
  5
120
330
1F
100
AcDbEntity
  8
TITLE
  6
Continuous
370
    18
100
AcDbLine
 10
70.5905511811
 20
0.5
 30
0.0
 11
70.5905511811
 21
0.1653543307
 31
0.0
  0
LINE
  5
121
330
1F
100
AcDbEntity
  8
TITLE
  6
Continuous
370
    18
100
AcDbLine
 10
72.5590551181
 20
79.5
 30
0.0
 11
72.5590551181
 21
79.8346456693
 31
0.0
  0
LINE
  5
122
330
1F
100
AcDbEntity
  8
TITLE
  6
Continuous
370
    18
100
AcDbLine
 10
72.5590551181
 20
0.5
 30
0.0
 11
72.5590551181
 21
0.1653543307
 31
0.0
  0
LINE
  5
123
330
1F
100
AcDbEntity
  8
TITLE
  6
Continuous
370
    18
100
AcDbLine
 10
74.5275590551
 20
79.5
 30
0.0
 11
74.5275590551
 21
79.8346456693
 31
0.0
  0
LINE
  5
124
330
1F
100
AcDbEntity
  8
TITLE
  6
Continuous
370
    18
100
AcDbLine
 10
74.5275590551
 20
0.5
 30
0.0
 11
74.5275590551
 21
0.1653543307
 31
0.0
  0
LINE
  5
125
330
1F
100
AcDbEntity
  8
TITLE
  6
Continuous
370
    18
100
AcDbLine
 10
76.4960629921
 20
79.5
 30
0.0
 11
76.4960629921
 21
79.8346456693
 31
0.0
  0
LINE
  5
126
330
1F
100
AcDbEntity
  8
TITLE
  6
Continuous
370
    18
100
AcDbLine
 10
76.4960629921
 20
0.5
 30
0.0
 11
76.4960629921
 21
0.1653543307
 31
0.0
  0
LINE
  5
127
330
1F
100
AcDbEntity
  8
TITLE
  6
Continuous
370
    18
100
AcDbLine
 10
78.4645669291
 20
79.5
 30
0.0
 11
78.4645669291
 21
79.8346456693
 31
0.0
  0
LINE
  5
128
330
1F
100
AcDbEntity
  8
TITLE
  6
Continuous
370
    18
100
AcDbLine
 10
78.4645669291
 20
0.5
 30
0.0
 11
78.4645669291
 21
0.1653543307
 31
0.0
  0
LINE
  5
129
330
1F
100
AcDbEntity
  8
TITLE
  6
Continuous
370
    18
100
AcDbLine
 10
80.4330708661
 20
79.5
 30
0.0
 11
80.4330708661
 21
79.8346456693
 31
0.0
  0
LINE
  5
12A
330
1F
100
AcDbEntity
  8
TITLE
  6
Continuous
370
    18
100
AcDbLine
 10
80.4330708661
 20
0.5
 30
0.0
 11
80.4330708661
 21
0.1653543307
 31
0.0
  0
LINE
  5
12B
330
1F
100
AcDbEntity
  8
TITLE
  6
Continuous
370
    18
100
AcDbLine
 10
82.4015748031
 20
79.5
 30
0.0
 11
82.4015748031
 21
79.8346456693
 31
0.0
  0
LINE
  5
12C
330
1F
100
AcDbEntity
  8
TITLE
  6
Continuous
370
    18
100
AcDbLine
 10
82.4015748031
 20
0.5
 30
0.0
 11
82.4015748031
 21
0.1653543307
 31
0.0
  0
LINE
  5
12D
330
1F
100
AcDbEntity
  8
TITLE
  6
Continuous
370
    18
100
AcDbLine
 10
84.3700787402
 20
79.5
 30
0.0
 11
84.3700787402
 21
79.8346456693
 31
0.0
  0
LINE
  5
12E
330
1F
100
AcDbEntity
  8
TITLE
  6
Continuous
370
    18
100
AcDbLine
 10
84.3700787402
 20
0.5
 30
0.0
 11
84.3700787402
 21
0.1653543307
 31
0.0
  0
LINE
  5
12F
330
1F
100
AcDbEntity
  8
TITLE
  6
Continuous
370
    18
100
AcDbLine
 10
86.3385826772
 20
79.5
 30
0.0
 11
86.3385826772
 21
79.8346456693
 31
0.0
  0
LINE
  5
130
330
1F
100
AcDbEntity
  8
TITLE
  6
Continuous
370
    18
100
AcDbLine
 10
86.3385826772
 20
0.5
 30
0.0
 11
86.3385826772
 21
0.1653543307
 31
0.0
  0
LINE
  5
131
330
1F
100
AcDbEntity
  8
TITLE
  6
Continuous
370
    18
100
AcDbLine
 10
88.3070866142
 20
79.5
 30
0.0
 11
88.3070866142
 21
79.8346456693
 31
0.0
  0
LINE
  5
132
330
1F
100
AcDbEntity
  8
TITLE
  6
Continuous
370
    18
100
AcDbLine
 10
88.3070866142
 20
0.5
 30
0.0
 11
88.3070866142
 21
0.1653543307
 31
0.0
  0
MTEXT
  5
134
330
1F
100
AcDbEntity
  8
NOTES
100
AcDbMText
 10
66.408297803
 20
1.0702903347
 30
0.0
 40
0.25
 41
0.0
 71
     1
 72
     1
  1
UNLESS OTHERWISE SPECIFIED DIMENSIONS ARE IN INCHES.
  7
SLDTEXTSTYLE0
 73
     1
 44
1.0
  0
MTEXT
  5
135
330
1F
100
AcDbEntity
  8
NOTES
100
AcDbMText
 10
66.4368251132
 20
3.2193045501
 30
0.0
 40
0.25
 41
0.0
 71
     1
 72
     1
  1
DATE:
  7
SLDTEXTSTYLE0
 73
     1
 44
1.0
  0
MTEXT
  5
136
330
1F
100
AcDbEntity
  8
NOTES
100
AcDbMText
 10
68.7130669976
 20
2.1722148141
 30
0.0
 40
0.25
 41
0.0
 71
     2
 72
     1
  1
DO NOT SCALE DRAWING
  7
SLDTEXTSTYLE0
 73
     1
 44
1.0
  0
MTEXT
  5
138
330
1F
100
AcDbEntity
  8
NOTES
100
AcDbMText
 10
72.8307373075
 20
3.2712065527
 30
0.0
 40
0.25
 41
0.0
 71
     1
 72
     1
  1
TITLE:
  7
SLDTEXTSTYLE1
 73
     1
 44
1.0
  0
MTEXT
  5
139
330
1F
100
AcDbEntity
  8
NOTES
100
AcDbMText
 10
80.1561831052
 20
3.2712065527
 30
0.0
 40
0.25
 41
0.0
 71
     1
 72
     1
  1
DWG NO.
  7
SLDTEXTSTYLE1
 73
     1
 44
1.0
  0
MTEXT
  5
13B
330
1F
100
AcDbEntity
  8
NOTES
100
AcDbMText
 10
80.1831753203
 20
1.0675125551
 30
0.0
 40
0.25
 41
0.0
 71
     1
 72
     1
  1
SCALE:     1:1
  7
SLDTEXTSTYLE2
 73
     1
 44
1.0
  0
MTEXT
  5
13C
330
1F
100
AcDbEntity
  8
NOTES
100
AcDbMText
 10
84.1761123513
 20
2.6539654269
 30
0.0
 40
0.25
 41
0.0
 71
     2
 72
     1
  1
1003-BLK 30x30 CAD
  7
SLDTEXTSTYLE1
 73
     1
 44
1.0
  0
MTEXT
  5
13D
330
1F
100
AcDbEntity
  8
NOTES
100
AcDbMText
 10
75.9467935491
 20
2.6418171416
 30
0.0
 40
0.25
 41
0.0
 71
     2
 72
     1
  1
1003-BLK 30x30
  7
SLDTEXTSTYLE1
 73
     1
 44
1.0
  0
INSERT
  5
143
330
1F
100
AcDbEntity
  8
NOTES
100
AcDbBlockReference
  2
SW_NOTE_0
 10
80.266131557
 20
4.6105227838
 30
0.0
  0
INSERT
  5
14B
330
1F
100
AcDbEntity
  8
NOTES
100
AcDbBlockReference
  2
SW_NOTE_0_1
 10
66.6159726246
 20
5.1481526848
 30
0.0
  0
MTEXT
  5
14C
330
1F
100
AcDbEntity
  8
NOTES
100
AcDbMText
 10
69.5224063214
 20
3.2165267706
 30
0.0
 40
0.25
 41
0.0
 71
     2
 72
     1
  1
February 6, 2025
  7
SLDTEXTSTYLE1
 73
     1
 44
1.0
  0
MTEXT
  5
14D
330
1F
100
AcDbEntity
  8
TITLE
100
AcDbMText
 10
0.3276279776
 20
1.6305560417
 30
0.0
 40
0.125
 41
0.0
 71
     2
 72
     1
  1
A
  7
SLDTEXTSTYLE1
 73
     1
 44
1.0
  0
MTEXT
  5
14E
330
1F
100
AcDbEntity
  8
TITLE
100
AcDbMText
 10
89.6622736469
 20
1.6305560417
 30
0.0
 40
0.125
 41
0.0
 71
     2
 72
     1
  1
A
  7
SLDTEXTSTYLE1
 73
     1
 44
1.0
  0
MTEXT
  5
14F
330
1F
100
AcDbEntity
  8
TITLE
100
AcDbMText
 10
0.3317512413
 20
3.6640206086
 30
0.0
 40
0.125
 41
0.0
 71
     2
 72
     1
  1
B
  7
SLDTEXTSTYLE1
 73
     1
 44
1.0
  0
MTEXT
  5
150
330
1F
100
AcDbEntity
  8
TITLE
100
AcDbMText
 10
89.6663969106
 20
3.6640206086
 30
0.0
 40
0.125
 41
0.0
 71
     2
 72
     1
  1
B
  7
SLDTEXTSTYLE1
 73
     1
 44
1.0
  0
MTEXT
  5
151
330
1F
100
AcDbEntity
  8
TITLE
100
AcDbMText
 10
0.3313750817
 20
5.6325245456
 30
0.0
 40
0.125
 41
0.0
 71
     2
 72
     1
  1
C
  7
SLDTEXTSTYLE1
 73
     1
 44
1.0
  0
MTEXT
  5
152
330
1F
100
AcDbEntity
  8
TITLE
100
AcDbMText
 10
89.666020751
 20
5.6325245456
 30
0.0
 40
0.125
 41
0.0
 71
     2
 72
     1
  1
C
  7
SLDTEXTSTYLE1
 73
     1
 44
1.0
  0
MTEXT
  5
153
330
1F
100
AcDbEntity
  8
TITLE
100
AcDbMText
 10
0.3311870028
 20
7.6010284826
 30
0.0
 40
0.125
 41
0.0
 71
     2
 72
     1
  1
D
  7
SLDTEXTSTYLE1
 73
     1
 44
1.0
  0
MTEXT
  5
154
330
1F
100
AcDbEntity
  8
TITLE
100
AcDbMText
 10
89.6658326721
 20
7.6010284826
 30
0.0
 40
0.125
 41
0.0
 71
     2
 72
     1
  1
D
  7
SLDTEXTSTYLE1
 73
     1
 44
1.0
  0
MTEXT
  5
155
330
1F
100
AcDbEntity
  8
TITLE
100
AcDbMText
 10
0.332923116
 20
9.5695324196
 30
0.0
 40
0.125
 41
0.0
 71
     2
 72
     1
  1
E
  7
SLDTEXTSTYLE1
 73
     1
 44
1.0
  0
MTEXT
  5
156
330
1F
100
AcDbEntity
  8
TITLE
100
AcDbMText
 10
89.6675687853
 20
9.5695324196
 30
0.0
 40
0.125
 41
0.0
 71
     2
 72
     1
  1
E
  7
SLDTEXTSTYLE1
 73
     1
 44
1.0
  0
MTEXT
  5
157
330
1F
100
AcDbEntity
  8
TITLE
100
AcDbMText
 10
0.3313461474
 20
11.5380363566
 30
0.0
 40
0.125
 41
0.0
 71
     2
 72
     1
  1
F
  7
SLDTEXTSTYLE1
 73
     1
 44
1.0
  0
MTEXT
  5
158
330
1F
100
AcDbEntity
  8
TITLE
100
AcDbMText
 10
89.6659918167
 20
11.5380363566
 30
0.0
 40
0.125
 41
0.0
 71
     2
 72
     1
  1
F
  7
SLDTEXTSTYLE1
 73
     1
 44
1.0
  0
MTEXT
  5
159
330
1F
100
AcDbEntity
  8
TITLE
100
AcDbMText
 10
0.3322576054
 20
13.5065402936
 30
0.0
 40
0.125
 41
0.0
 71
     2
 72
     1
  1
G
  7
SLDTEXTSTYLE1
 73
     1
 44
1.0
  0
MTEXT
  5
15A
330
1F
100
AcDbEntity
  8
TITLE
100
AcDbMText
 10
89.6669032747
 20
13.5065402936
 30
0.0
 40
0.125
 41
0.0
 71
     2
 72
     1
  1
G
  7
SLDTEXTSTYLE1
 73
     1
 44
1.0
  0
MTEXT
  5
15B
330
1F
100
AcDbEntity
  8
TITLE
100
AcDbMText
 10
0.3323733457
 20
15.4750442306
 30
0.0
 40
0.125
 41
0.0
 71
     2
 72
     1
  1
H
  7
SLDTEXTSTYLE1
 73
     1
 44
1.0
  0
MTEXT
  5
15C
330
1F
100
AcDbEntity
  8
TITLE
100
AcDbMText
 10
89.667019015
 20
15.4750442306
 30
0.0
 40
0.125
 41
0.0
 71
     2
 72
     1
  1
H
  7
SLDTEXTSTYLE1
 73
     1
 44
1.0
  0
MTEXT
  5
15D
330
1F
100
AcDbEntity
  8
TITLE
100
AcDbMText
 10
0.3315776306
 20
17.4435481676
 30
0.0
 40
0.125
 41
0.0
 71
     2
 72
     1
  1
J
  7
SLDTEXTSTYLE1
 73
     1
 44
1.0
  0
MTEXT
  5
15E
330
1F
100
AcDbEntity
  8
TITLE
100
AcDbMText
 10
89.6662232999
 20
17.4435481676
 30
0.0
 40
0.125
 41
0.0
 71
     2
 72
     1
  1
J
  7
SLDTEXTSTYLE1
 73
     1
 44
1.0
  0
MTEXT
  5
15F
330
1F
100
AcDbEntity
  8
TITLE
100
AcDbMText
 10
0.3323154765
 20
19.4120521047
 30
0.0
 40
0.125
 41
0.0
 71
     2
 72
     1
  1
K
  7
SLDTEXTSTYLE1
 73
     1
 44
1.0
  0
MTEXT
  5
160
330
1F
100
AcDbEntity
  8
TITLE
100
AcDbMText
 10
89.6669611458
 20
19.4120521047
 30
0.0
 40
0.125
 41
0.0
 71
     2
 72
     1
  1
K
  7
SLDTEXTSTYLE1
 73
     1
 44
1.0
  0
MTEXT
  5
161
330
1F
100
AcDbEntity
  8
TITLE
100
AcDbMText
 10
0.3312448739
 20
21.3805560417
 30
0.0
 40
0.125
 41
0.0
 71
     2
 72
     1
  1
L
  7
SLDTEXTSTYLE1
 73
     1
 44
1.0
  0
MTEXT
  5
162
330
1F
100
AcDbEntity
  8
TITLE
100
AcDbMText
 10
89.6658905432
 20
21.3805560417
 30
0.0
 40
0.125
 41
0.0
 71
     2
 72
     1
  1
L
  7
SLDTEXTSTYLE1
 73
     1
 44
1.0
  0
MTEXT
  5
163
330
1F
100
AcDbEntity
  8
TITLE
100
AcDbMText
 10
0.3283224192
 20
23.3490599787
 30
0.0
 40
0.125
 41
0.0
 71
     2
 72
     1
  1
M
  7
SLDTEXTSTYLE1
 73
     1
 44
1.0
  0
MTEXT
  5
164
330
1F
100
AcDbEntity
  8
TITLE
100
AcDbMText
 10
89.6629680885
 20
23.3490599787
 30
0.0
 40
0.125
 41
0.0
 71
     2
 72
     1
  1
M
  7
SLDTEXTSTYLE1
 73
     1
 44
1.0
  0
MTEXT
  5
165
330
1F
100
AcDbEntity
  8
TITLE
100
AcDbMText
 10
0.3315342276
 20
25.3175639157
 30
0.0
 40
0.125
 41
0.0
 71
     2
 72
     1
  1
N
  7
SLDTEXTSTYLE1
 73
     1
 44
1.0
  0
MTEXT
  5
166
330
1F
100
AcDbEntity
  8
TITLE
100
AcDbMText
 10
89.6661798969
 20
25.3175639157
 30
0.0
 40
0.125
 41
0.0
 71
     2
 72
     1
  1
N
  7
SLDTEXTSTYLE1
 73
     1
 44
1.0
  0
MTEXT
  5
167
330
1F
100
AcDbEntity
  8
TITLE
100
AcDbMText
 10
0.3321997349
 20
27.2860678527
 30
0.0
 40
0.125
 41
0.0
 71
     2
 72
     1
  1
P
  7
SLDTEXTSTYLE1
 73
     1
 44
1.0
  0
MTEXT
  5
168
330
1F
100
AcDbEntity
  8
TITLE
100
AcDbMText
 10
89.6668454042
 20
27.2860678527
 30
0.0
 40
0.125
 41
0.0
 71
     2
 72
     1
  1
P
  7
SLDTEXTSTYLE1
 73
     1
 44
1.0
  0
MTEXT
  5
169
330
1F
100
AcDbEntity
  8
TITLE
100
AcDbMText
 10
0.3309265867
 20
29.2545717897
 30
0.0
 40
0.125
 41
0.0
 71
     2
 72
     1
  1
R
  7
SLDTEXTSTYLE1
 73
     1
 44
1.0
  0
MTEXT
  5
16A
330
1F
100
AcDbEntity
  8
TITLE
100
AcDbMText
 10
89.665572256
 20
29.2545717897
 30
0.0
 40
0.125
 41
0.0
 71
     2
 72
     1
  1
R
  7
SLDTEXTSTYLE1
 73
     1
 44
1.0
  0
MTEXT
  5
16B
330
1F
100
AcDbEntity
  8
TITLE
100
AcDbMText
 10
0.3323010071
 20
31.2230757267
 30
0.0
 40
0.125
 41
0.0
 71
     2
 72
     1
  1
T
  7
SLDTEXTSTYLE1
 73
     1
 44
1.0
  0
MTEXT
  5
16C
330
1F
100
AcDbEntity
  8
TITLE
100
AcDbMText
 10
89.6669466764
 20
31.2230757267
 30
0.0
 40
0.125
 41
0.0
 71
     2
 72
     1
  1
T
  7
SLDTEXTSTYLE1
 73
     1
 44
1.0
  0
MTEXT
  5
16D
330
1F
100
AcDbEntity
  8
TITLE
100
AcDbMText
 10
0.3328507755
 20
33.1915796637
 30
0.0
 40
0.125
 41
0.0
 71
     2
 72
     1
  1
U
  7
SLDTEXTSTYLE1
 73
     1
 44
1.0
  0
MTEXT
  5
16E
330
1F
100
AcDbEntity
  8
TITLE
100
AcDbMText
 10
89.6674964448
 20
33.1915796637
 30
0.0
 40
0.125
 41
0.0
 71
     2
 72
     1
  1
U
  7
SLDTEXTSTYLE1
 73
     1
 44
1.0
  0
MTEXT
  5
16F
330
1F
100
AcDbEntity
  8
TITLE
100
AcDbMText
 10
0.3307529773
 20
35.1600836007
 30
0.0
 40
0.125
 41
0.0
 71
     2
 72
     1
  1
V
  7
SLDTEXTSTYLE1
 73
     1
 44
1.0
  0
MTEXT
  5
170
330
1F
100
AcDbEntity
  8
TITLE
100
AcDbMText
 10
89.6653986466
 20
35.1600836007
 30
0.0
 40
0.125
 41
0.0
 71
     2
 72
     1
  1
V
  7
SLDTEXTSTYLE1
 73
     1
 44
1.0
  0
MTEXT
  5
171
330
1F
100
AcDbEntity
  8
TITLE
100
AcDbMText
 10
0.3327784409
 20
37.1285875377
 30
0.0
 40
0.125
 41
0.0
 71
     2
 72
     1
  1
W
  7
SLDTEXTSTYLE1
 73
     1
 44
1.0
  0
MTEXT
  5
172
330
1F
100
AcDbEntity
  8
TITLE
100
AcDbMText
 10
89.6674241102
 20
37.1285875377
 30
0.0
 40
0.125
 41
0.0
 71
     2
 72
     1
  1
W
  7
SLDTEXTSTYLE1
 73
     1
 44
1.0
  0
MTEXT
  5
173
330
1F
100
AcDbEntity
  8
TITLE
100
AcDbMText
 10
0.3321997349
 20
39.0970914747
 30
0.0
 40
0.125
 41
0.0
 71
     2
 72
     1
  1
Y
  7
SLDTEXTSTYLE1
 73
     1
 44
1.0
  0
MTEXT
  5
174
330
1F
100
AcDbEntity
  8
TITLE
100
AcDbMText
 10
89.6668454042
 20
39.0970914747
 30
0.0
 40
0.125
 41
0.0
 71
     2
 72
     1
  1
Y
  7
SLDTEXTSTYLE1
 73
     1
 44
1.0
  0
MTEXT
  5
175
330
1F
100
AcDbEntity
  8
TITLE
100
AcDbMText
 10
0.3225787898
 20
41.0655954117
 30
0.0
 40
0.125
 41
0.0
 71
     2
 72
     1
  1
AA
  7
SLDTEXTSTYLE1
 73
     1
 44
1.0
  0
MTEXT
  5
176
330
1F
100
AcDbEntity
  8
TITLE
100
AcDbMText
 10
89.6572244591
 20
41.0655954117
 30
0.0
 40
0.125
 41
0.0
 71
     2
 72
     1
  1
AA
  7
SLDTEXTSTYLE1
 73
     1
 44
1.0
  0
MTEXT
  5
177
330
1F
100
AcDbEntity
  8
TITLE
100
AcDbMText
 10
0.3267020535
 20
43.0340993488
 30
0.0
 40
0.125
 41
0.0
 71
     2
 72
     1
  1
AB
  7
SLDTEXTSTYLE1
 73
     1
 44
1.0
  0
MTEXT
  5
178
330
1F
100
AcDbEntity
  8
TITLE
100
AcDbMText
 10
89.6613477228
 20
43.0340993488
 30
0.0
 40
0.125
 41
0.0
 71
     2
 72
     1
  1
AB
  7
SLDTEXTSTYLE1
 73
     1
 44
1.0
  0
MTEXT
  5
179
330
1F
100
AcDbEntity
  8
TITLE
100
AcDbMText
 10
0.3263258985
 20
45.0026032858
 30
0.0
 40
0.125
 41
0.0
 71
     2
 72
     1
  1
AC
  7
SLDTEXTSTYLE1
 73
     1
 44
1.0
  0
MTEXT
  5
17A
330
1F
100
AcDbEntity
  8
TITLE
100
AcDbMText
 10
89.6609715678
 20
45.0026032858
 30
0.0
 40
0.125
 41
0.0
 71
     2
 72
     1
  1
AC
  7
SLDTEXTSTYLE1
 73
     1
 44
1.0
  0
MTEXT
  5
17B
330
1F
100
AcDbEntity
  8
TITLE
100
AcDbMText
 10
0.3261378197
 20
46.9711072228
 30
0.0
 40
0.125
 41
0.0
 71
     2
 72
     1
  1
AD
  7
SLDTEXTSTYLE1
 73
     1
 44
1.0
  0
MTEXT
  5
17C
330
1F
100
AcDbEntity
  8
TITLE
100
AcDbMText
 10
89.6607834889
 20
46.9711072228
 30
0.0
 40
0.125
 41
0.0
 71
     2
 72
     1
  1
AD
  7
SLDTEXTSTYLE1
 73
     1
 44
1.0
  0
MTEXT
  5
17D
330
1F
100
AcDbEntity
  8
TITLE
100
AcDbMText
 10
0.3278739283
 20
48.9396111598
 30
0.0
 40
0.125
 41
0.0
 71
     2
 72
     1
  1
AE
  7
SLDTEXTSTYLE1
 73
     1
 44
1.0
  0
MTEXT
  5
17E
330
1F
100
AcDbEntity
  8
TITLE
100
AcDbMText
 10
89.6625195976
 20
48.9396111598
 30
0.0
 40
0.125
 41
0.0
 71
     2
 72
     1
  1
AE
  7
SLDTEXTSTYLE1
 73
     1
 44
1.0
  0
MTEXT
  5
17F
330
1F
100
AcDbEntity
  8
TITLE
100
AcDbMText
 10
0.3262969596
 20
50.9081150968
 30
0.0
 40
0.125
 41
0.0
 71
     2
 72
     1
  1
AF
  7
SLDTEXTSTYLE1
 73
     1
 44
1.0
  0
MTEXT
  5
180
330
1F
100
AcDbEntity
  8
TITLE
100
AcDbMText
 10
89.6609426289
 20
50.9081150968
 30
0.0
 40
0.125
 41
0.0
 71
     2
 72
     1
  1
AF
  7
SLDTEXTSTYLE1
 73
     1
 44
1.0
  0
MTEXT
  5
181
330
1F
100
AcDbEntity
  8
TITLE
100
AcDbMText
 10
0.3272084177
 20
52.8766190338
 30
0.0
 40
0.125
 41
0.0
 71
     2
 72
     1
  1
AG
  7
SLDTEXTSTYLE1
 73
     1
 44
1.0
  0
MTEXT
  5
182
330
1F
100
AcDbEntity
  8
TITLE
100
AcDbMText
 10
89.661854087
 20
52.8766190338
 30
0.0
 40
0.125
 41
0.0
 71
     2
 72
     1
  1
AG
  7
SLDTEXTSTYLE1
 73
     1
 44
1.0
  0
MTEXT
  5
183
330
1F
100
AcDbEntity
  8
TITLE
100
AcDbMText
 10
0.3273241625
 20
54.8451229708
 30
0.0
 40
0.125
 41
0.0
 71
     2
 72
     1
  1
AH
  7
SLDTEXTSTYLE1
 73
     1
 44
1.0
  0
MTEXT
  5
184
330
1F
100
AcDbEntity
  8
TITLE
100
AcDbMText
 10
89.6619698318
 20
54.8451229708
 30
0.0
 40
0.125
 41
0.0
 71
     2
 72
     1
  1
AH
  7
SLDTEXTSTYLE1
 73
     1
 44
1.0
  0
MTEXT
  5
185
330
1F
100
AcDbEntity
  8
TITLE
100
AcDbMText
 10
0.3265284428
 20
56.8136269078
 30
0.0
 40
0.125
 41
0.0
 71
     2
 72
     1
  1
AJ
  7
SLDTEXTSTYLE1
 73
     1
 44
1.0
  0
MTEXT
  5
186
330
1F
100
AcDbEntity
  8
TITLE
100
AcDbMText
 10
89.6611741121
 20
56.8136269078
 30
0.0
 40
0.125
 41
0.0
 71
     2
 72
     1
  1
AJ
  7
SLDTEXTSTYLE1
 73
     1
 44
1.0
  0
MTEXT
  5
187
330
1F
100
AcDbEntity
  8
TITLE
100
AcDbMText
 10
0.3272662887
 20
58.7821308448
 30
0.0
 40
0.125
 41
0.0
 71
     2
 72
     1
  1
AK
  7
SLDTEXTSTYLE1
 73
     1
 44
1.0
  0
MTEXT
  5
188
330
1F
100
AcDbEntity
  8
TITLE
100
AcDbMText
 10
89.661911958
 20
58.7821308448
 30
0.0
 40
0.125
 41
0.0
 71
     2
 72
     1
  1
AK
  7
SLDTEXTSTYLE1
 73
     1
 44
1.0
  0
MTEXT
  5
189
330
1F
100
AcDbEntity
  8
TITLE
100
AcDbMText
 10
0.3261956816
 20
60.7506347818
 30
0.0
 40
0.125
 41
0.0
 71
     2
 72
     1
  1
AL
  7
SLDTEXTSTYLE1
 73
     1
 44
1.0
  0
MTEXT
  5
18A
330
1F
100
AcDbEntity
  8
TITLE
100
AcDbMText
 10
89.6608413509
 20
60.7506347818
 30
0.0
 40
0.125
 41
0.0
 71
     2
 72
     1
  1
AL
  7
SLDTEXTSTYLE1
 73
     1
 44
1.0
  0
MTEXT
  5
18B
330
1F
100
AcDbEntity
  8
TITLE
100
AcDbMText
 10
0.3232732315
 20
62.7191387188
 30
0.0
 40
0.125
 41
0.0
 71
     2
 72
     1
  1
AM
  7
SLDTEXTSTYLE1
 73
     1
 44
1.0
  0
MTEXT
  5
18C
330
1F
100
AcDbEntity
  8
TITLE
100
AcDbMText
 10
89.6579189008
 20
62.7191387188
 30
0.0
 40
0.125
 41
0.0
 71
     2
 72
     1
  1
AM
  7
SLDTEXTSTYLE1
 73
     1
 44
1.0
  0
MTEXT
  5
18D
330
1F
100
AcDbEntity
  8
TITLE
100
AcDbMText
 10
0.3264850398
 20
64.6876426558
 30
0.0
 40
0.125
 41
0.0
 71
     2
 72
     1
  1
AN
  7
SLDTEXTSTYLE1
 73
     1
 44
1.0
  0
MTEXT
  5
18E
330
1F
100
AcDbEntity
  8
TITLE
100
AcDbMText
 10
89.6611307091
 20
64.6876426558
 30
0.0
 40
0.125
 41
0.0
 71
     2
 72
     1
  1
AN
  7
SLDTEXTSTYLE1
 73
     1
 44
1.0
  0
MTEXT
  5
18F
330
1F
100
AcDbEntity
  8
TITLE
100
AcDbMText
 10
0.3271505426
 20
66.6561465928
 30
0.0
 40
0.125
 41
0.0
 71
     2
 72
     1
  1
AP
  7
SLDTEXTSTYLE1
 73
     1
 44
1.0
  0
MTEXT
  5
190
330
1F
100
AcDbEntity
  8
TITLE
100
AcDbMText
 10
89.6617962119
 20
66.6561465928
 30
0.0
 40
0.125
 41
0.0
 71
     2
 72
     1
  1
AP
  7
SLDTEXTSTYLE1
 73
     1
 44
1.0
  0
MTEXT
  5
191
330
1F
100
AcDbEntity
  8
TITLE
100
AcDbMText
 10
0.325877399
 20
68.6246505299
 30
0.0
 40
0.125
 41
0.0
 71
     2
 72
     1
  1
AR
  7
SLDTEXTSTYLE1
 73
     1
 44
1.0
  0
MTEXT
  5
192
330
1F
100
AcDbEntity
  8
TITLE
100
AcDbMText
 10
89.6605230682
 20
68.6246505299
 30
0.0
 40
0.125
 41
0.0
 71
     2
 72
     1
  1
AR
  7
SLDTEXTSTYLE1
 73
     1
 44
1.0
  0
MTEXT
  5
193
330
1F
100
AcDbEntity
  8
TITLE
100
AcDbMText
 10
0.3272518193
 20
70.5931544669
 30
0.0
 40
0.125
 41
0.0
 71
     2
 72
     1
  1
AT
  7
SLDTEXTSTYLE1
 73
     1
 44
1.0
  0
MTEXT
  5
194
330
1F
100
AcDbEntity
  8
TITLE
100
AcDbMText
 10
89.6618974886
 20
70.5931544669
 30
0.0
 40
0.125
 41
0.0
 71
     2
 72
     1
  1
AT
  7
SLDTEXTSTYLE1
 73
     1
 44
1.0
  0
MTEXT
  5
195
330
1F
100
AcDbEntity
  8
TITLE
100
AcDbMText
 10
0.3278015877
 20
72.5616584039
 30
0.0
 40
0.125
 41
0.0
 71
     2
 72
     1
  1
AU
  7
SLDTEXTSTYLE1
 73
     1
 44
1.0
  0
MTEXT
  5
196
330
1F
100
AcDbEntity
  8
TITLE
100
AcDbMText
 10
89.662447257
 20
72.5616584039
 30
0.0
 40
0.125
 41
0.0
 71
     2
 72
     1
  1
AU
  7
SLDTEXTSTYLE1
 73
     1
 44
1.0
  0
MTEXT
  5
197
330
1F
100
AcDbEntity
  8
TITLE
100
AcDbMText
 10
0.3257037895
 20
74.5301623409
 30
0.0
 40
0.125
 41
0.0
 71
     2
 72
     1
  1
AV
  7
SLDTEXTSTYLE1
 73
     1
 44
1.0
  0
MTEXT
  5
198
330
1F
100
AcDbEntity
  8
TITLE
100
AcDbMText
 10
89.6603494588
 20
74.5301623409
 30
0.0
 40
0.125
 41
0.0
 71
     2
 72
     1
  1
AV
  7
SLDTEXTSTYLE1
 73
     1
 44
1.0
  0
MTEXT
  5
199
330
1F
100
AcDbEntity
  8
TITLE
100
AcDbMText
 10
0.3277292486
 20
76.4986662779
 30
0.0
 40
0.125
 41
0.0
 71
     2
 72
     1
  1
AW
  7
SLDTEXTSTYLE1
 73
     1
 44
1.0
  0
MTEXT
  5
19A
330
1F
100
AcDbEntity
  8
TITLE
100
AcDbMText
 10
89.6623749179
 20
76.4986662779
 30
0.0
 40
0.125
 41
0.0
 71
     2
 72
     1
  1
AW
  7
SLDTEXTSTYLE1
 73
     1
 44
1.0
  0
MTEXT
  5
19B
330
1F
100
AcDbEntity
  8
TITLE
100
AcDbMText
 10
0.3271505426
 20
78.5321308448
 30
0.0
 40
0.125
 41
0.0
 71
     2
 72
     1
  1
AY
  7
SLDTEXTSTYLE1
 73
     1
 44
1.0
  0
MTEXT
  5
19C
330
1F
100
AcDbEntity
  8
TITLE
100
AcDbMText
 10
89.6617962119
 20
78.5321308448
 30
0.0
 40
0.125
 41
0.0
 71
     2
 72
     1
  1
AY
  7
SLDTEXTSTYLE1
 73
     1
 44
1.0
  0
MTEXT
  5
19D
330
1F
100
AcDbEntity
  8
TITLE
100
AcDbMText
 10
1.0939393315
 20
0.4140206086
 30
0.0
 40
0.125
 41
0.0
 71
     2
 72
     1
  1
46
  7
SLDTEXTSTYLE1
 73
     1
 44
1.0
  0
MTEXT
  5
19E
330
1F
100
AcDbEntity
  8
TITLE
100
AcDbMText
 10
1.0939393315
 20
79.7486662779
 30
0.0
 40
0.125
 41
0.0
 71
     2
 72
     1
  1
46
  7
SLDTEXTSTYLE1
 73
     1
 44
1.0
  0
MTEXT
  5
19F
330
1F
100
AcDbEntity
  8
TITLE
100
AcDbMText
 10
2.674647993
 20
0.4140206086
 30
0.0
 40
0.125
 41
0.0
 71
     2
 72
     1
  1
45
  7
SLDTEXTSTYLE1
 73
     1
 44
1.0
  0
MTEXT
  5
1A0
330
1F
100
AcDbEntity
  8
TITLE
100
AcDbMText
 10
2.674647993
 20
79.7486662779
 30
0.0
 40
0.125
 41
0.0
 71
     2
 72
     1
  1
45
  7
SLDTEXTSTYLE1
 73
     1
 44
1.0
  0
MTEXT
  5
1A1
330
1F
100
AcDbEntity
  8
TITLE
100
AcDbMText
 10
4.64315193
 20
0.4140206086
 30
0.0
 40
0.125
 41
0.0
 71
     2
 72
     1
  1
44
  7
SLDTEXTSTYLE1
 73
     1
 44
1.0
  0
MTEXT
  5
1A2
330
1F
100
AcDbEntity
  8
TITLE
100
AcDbMText
 10
4.64315193
 20
79.7486662779
 30
0.0
 40
0.125
 41
0.0
 71
     2
 72
     1
  1
44
  7
SLDTEXTSTYLE1
 73
     1
 44
1.0
  0
MTEXT
  5
1A3
330
1F
100
AcDbEntity
  8
TITLE
100
AcDbMText
 10
6.611655867
 20
0.4140206086
 30
0.0
 40
0.125
 41
0.0
 71
     2
 72
     1
  1
43
  7
SLDTEXTSTYLE1
 73
     1
 44
1.0
  0
MTEXT
  5
1A4
330
1F
100
AcDbEntity
  8
TITLE
100
AcDbMText
 10
6.611655867
 20
79.7486662779
 30
0.0
 40
0.125
 41
0.0
 71
     2
 72
     1
  1
43
  7
SLDTEXTSTYLE1
 73
     1
 44
1.0
  0
MTEXT
  5
1A5
330
1F
100
AcDbEntity
  8
TITLE
100
AcDbMText
 10
8.580159804
 20
0.4140206086
 30
0.0
 40
0.125
 41
0.0
 71
     2
 72
     1
  1
42
  7
SLDTEXTSTYLE1
 73
     1
 44
1.0
  0
MTEXT
  5
1A6
330
1F
100
AcDbEntity
  8
TITLE
100
AcDbMText
 10
8.580159804
 20
79.7486662779
 30
0.0
 40
0.125
 41
0.0
 71
     2
 72
     1
  1
42
  7
SLDTEXTSTYLE1
 73
     1
 44
1.0
  0
MTEXT
  5
1A7
330
1F
100
AcDbEntity
  8
TITLE
100
AcDbMText
 10
10.548663741
 20
0.4140206086
 30
0.0
 40
0.125
 41
0.0
 71
     2
 72
     1
  1
41
  7
SLDTEXTSTYLE1
 73
     1
 44
1.0
  0
MTEXT
  5
1A8
330
1F
100
AcDbEntity
  8
TITLE
100
AcDbMText
 10
10.548663741
 20
79.7486662779
 30
0.0
 40
0.125
 41
0.0
 71
     2
 72
     1
  1
41
  7
SLDTEXTSTYLE1
 73
     1
 44
1.0
  0
MTEXT
  5
1A9
330
1F
100
AcDbEntity
  8
TITLE
100
AcDbMText
 10
12.517167678
 20
0.4140206086
 30
0.0
 40
0.125
 41
0.0
 71
     2
 72
     1
  1
40
  7
SLDTEXTSTYLE1
 73
     1
 44
1.0
  0
MTEXT
  5
1AA
330
1F
100
AcDbEntity
  8
TITLE
100
AcDbMText
 10
12.517167678
 20
79.7486662779
 30
0.0
 40
0.125
 41
0.0
 71
     2
 72
     1
  1
40
  7
SLDTEXTSTYLE1
 73
     1
 44
1.0
  0
MTEXT
  5
1AB
330
1F
100
AcDbEntity
  8
TITLE
100
AcDbMText
 10
14.485671615
 20
0.4140206086
 30
0.0
 40
0.125
 41
0.0
 71
     2
 72
     1
  1
39
  7
SLDTEXTSTYLE1
 73
     1
 44
1.0
  0
MTEXT
  5
1AC
330
1F
100
AcDbEntity
  8
TITLE
100
AcDbMText
 10
14.485671615
 20
79.7486662779
 30
0.0
 40
0.125
 41
0.0
 71
     2
 72
     1
  1
39
  7
SLDTEXTSTYLE1
 73
     1
 44
1.0
  0
MTEXT
  5
1AD
330
1F
100
AcDbEntity
  8
TITLE
100
AcDbMText
 10
16.454175552
 20
0.4140206086
 30
0.0
 40
0.125
 41
0.0
 71
     2
 72
     1
  1
38
  7
SLDTEXTSTYLE1
 73
     1
 44
1.0
  0
MTEXT
  5
1AE
330
1F
100
AcDbEntity
  8
TITLE
100
AcDbMText
 10
16.454175552
 20
79.7486662779
 30
0.0
 40
0.125
 41
0.0
 71
     2
 72
     1
  1
38
  7
SLDTEXTSTYLE1
 73
     1
 44
1.0
  0
MTEXT
  5
1AF
330
1F
100
AcDbEntity
  8
TITLE
100
AcDbMText
 10
18.422679489
 20
0.4140206086
 30
0.0
 40
0.125
 41
0.0
 71
     2
 72
     1
  1
37
  7
SLDTEXTSTYLE1
 73
     1
 44
1.0
  0
MTEXT
  5
1B0
330
1F
100
AcDbEntity
  8
TITLE
100
AcDbMText
 10
18.422679489
 20
79.7486662779
 30
0.0
 40
0.125
 41
0.0
 71
     2
 72
     1
  1
37
  7
SLDTEXTSTYLE1
 73
     1
 44
1.0
  0
MTEXT
  5
1B1
330
1F
100
AcDbEntity
  8
TITLE
100
AcDbMText
 10
20.391183426
 20
0.4140206086
 30
0.0
 40
0.125
 41
0.0
 71
     2
 72
     1
  1
36
  7
SLDTEXTSTYLE1
 73
     1
 44
1.0
  0
MTEXT
  5
1B2
330
1F
100
AcDbEntity
  8
TITLE
100
AcDbMText
 10
20.391183426
 20
79.7486662779
 30
0.0
 40
0.125
 41
0.0
 71
     2
 72
     1
  1
36
  7
SLDTEXTSTYLE1
 73
     1
 44
1.0
  0
MTEXT
  5
1B3
330
1F
100
AcDbEntity
  8
TITLE
100
AcDbMText
 10
22.359687363
 20
0.4140206086
 30
0.0
 40
0.125
 41
0.0
 71
     2
 72
     1
  1
35
  7
SLDTEXTSTYLE1
 73
     1
 44
1.0
  0
MTEXT
  5
1B4
330
1F
100
AcDbEntity
  8
TITLE
100
AcDbMText
 10
22.359687363
 20
79.7486662779
 30
0.0
 40
0.125
 41
0.0
 71
     2
 72
     1
  1
35
  7
SLDTEXTSTYLE1
 73
     1
 44
1.0
  0
MTEXT
  5
1B5
330
1F
100
AcDbEntity
  8
TITLE
100
AcDbMText
 10
24.3281913
 20
0.4140206086
 30
0.0
 40
0.125
 41
0.0
 71
     2
 72
     1
  1
34
  7
SLDTEXTSTYLE1
 73
     1
 44
1.0
  0
MTEXT
  5
1B6
330
1F
100
AcDbEntity
  8
TITLE
100
AcDbMText
 10
24.3281913
 20
79.7486662779
 30
0.0
 40
0.125
 41
0.0
 71
     2
 72
     1
  1
34
  7
SLDTEXTSTYLE1
 73
     1
 44
1.0
  0
MTEXT
  5
1B7
330
1F
100
AcDbEntity
  8
TITLE
100
AcDbMText
 10
26.2966952371
 20
0.4140206086
 30
0.0
 40
0.125
 41
0.0
 71
     2
 72
     1
  1
33
  7
SLDTEXTSTYLE1
 73
     1
 44
1.0
  0
MTEXT
  5
1B8
330
1F
100
AcDbEntity
  8
TITLE
100
AcDbMText
 10
26.2966952371
 20
79.7486662779
 30
0.0
 40
0.125
 41
0.0
 71
     2
 72
     1
  1
33
  7
SLDTEXTSTYLE1
 73
     1
 44
1.0
  0
MTEXT
  5
1B9
330
1F
100
AcDbEntity
  8
TITLE
100
AcDbMText
 10
28.2651991741
 20
0.4140206086
 30
0.0
 40
0.125
 41
0.0
 71
     2
 72
     1
  1
32
  7
SLDTEXTSTYLE1
 73
     1
 44
1.0
  0
MTEXT
  5
1BA
330
1F
100
AcDbEntity
  8
TITLE
100
AcDbMText
 10
28.2651991741
 20
79.7486662779
 30
0.0
 40
0.125
 41
0.0
 71
     2
 72
     1
  1
32
  7
SLDTEXTSTYLE1
 73
     1
 44
1.0
  0
MTEXT
  5
1BB
330
1F
100
AcDbEntity
  8
TITLE
100
AcDbMText
 10
30.2337031111
 20
0.4140206086
 30
0.0
 40
0.125
 41
0.0
 71
     2
 72
     1
  1
31
  7
SLDTEXTSTYLE1
 73
     1
 44
1.0
  0
MTEXT
  5
1BC
330
1F
100
AcDbEntity
  8
TITLE
100
AcDbMText
 10
30.2337031111
 20
79.7486662779
 30
0.0
 40
0.125
 41
0.0
 71
     2
 72
     1
  1
31
  7
SLDTEXTSTYLE1
 73
     1
 44
1.0
  0
MTEXT
  5
1BD
330
1F
100
AcDbEntity
  8
TITLE
100
AcDbMText
 10
32.2022070481
 20
0.4140206086
 30
0.0
 40
0.125
 41
0.0
 71
     2
 72
     1
  1
30
  7
SLDTEXTSTYLE1
 73
     1
 44
1.0
  0
MTEXT
  5
1BE
330
1F
100
AcDbEntity
  8
TITLE
100
AcDbMText
 10
32.2022070481
 20
79.7486662779
 30
0.0
 40
0.125
 41
0.0
 71
     2
 72
     1
  1
30
  7
SLDTEXTSTYLE1
 73
     1
 44
1.0
  0
MTEXT
  5
1BF
330
1F
100
AcDbEntity
  8
TITLE
100
AcDbMText
 10
34.1707109851
 20
0.4140206086
 30
0.0
 40
0.125
 41
0.0
 71
     2
 72
     1
  1
29
  7
SLDTEXTSTYLE1
 73
     1
 44
1.0
  0
MTEXT
  5
1C0
330
1F
100
AcDbEntity
  8
TITLE
100
AcDbMText
 10
34.1707109851
 20
79.7486662779
 30
0.0
 40
0.125
 41
0.0
 71
     2
 72
     1
  1
29
  7
SLDTEXTSTYLE1
 73
     1
 44
1.0
  0
MTEXT
  5
1C1
330
1F
100
AcDbEntity
  8
TITLE
100
AcDbMText
 10
36.1392149221
 20
0.4140206086
 30
0.0
 40
0.125
 41
0.0
 71
     2
 72
     1
  1
28
  7
SLDTEXTSTYLE1
 73
     1
 44
1.0
  0
MTEXT
  5
1C2
330
1F
100
AcDbEntity
  8
TITLE
100
AcDbMText
 10
36.1392149221
 20
79.7486662779
 30
0.0
 40
0.125
 41
0.0
 71
     2
 72
     1
  1
28
  7
SLDTEXTSTYLE1
 73
     1
 44
1.0
  0
MTEXT
  5
1C3
330
1F
100
AcDbEntity
  8
TITLE
100
AcDbMText
 10
38.1077188591
 20
0.4140206086
 30
0.0
 40
0.125
 41
0.0
 71
     2
 72
     1
  1
27
  7
SLDTEXTSTYLE1
 73
     1
 44
1.0
  0
MTEXT
  5
1C4
330
1F
100
AcDbEntity
  8
TITLE
100
AcDbMText
 10
38.1077188591
 20
79.7486662779
 30
0.0
 40
0.125
 41
0.0
 71
     2
 72
     1
  1
27
  7
SLDTEXTSTYLE1
 73
     1
 44
1.0
  0
MTEXT
  5
1C5
330
1F
100
AcDbEntity
  8
TITLE
100
AcDbMText
 10
40.0762227961
 20
0.4140206086
 30
0.0
 40
0.125
 41
0.0
 71
     2
 72
     1
  1
26
  7
SLDTEXTSTYLE1
 73
     1
 44
1.0
  0
MTEXT
  5
1C6
330
1F
100
AcDbEntity
  8
TITLE
100
AcDbMText
 10
40.0762227961
 20
79.7486662779
 30
0.0
 40
0.125
 41
0.0
 71
     2
 72
     1
  1
26
  7
SLDTEXTSTYLE1
 73
     1
 44
1.0
  0
MTEXT
  5
1C7
330
1F
100
AcDbEntity
  8
TITLE
100
AcDbMText
 10
42.0447267331
 20
0.4140206086
 30
0.0
 40
0.125
 41
0.0
 71
     2
 72
     1
  1
25
  7
SLDTEXTSTYLE1
 73
     1
 44
1.0
  0
MTEXT
  5
1C8
330
1F
100
AcDbEntity
  8
TITLE
100
AcDbMText
 10
42.0447267331
 20
79.7486662779
 30
0.0
 40
0.125
 41
0.0
 71
     2
 72
     1
  1
25
  7
SLDTEXTSTYLE1
 73
     1
 44
1.0
  0
MTEXT
  5
1C9
330
1F
100
AcDbEntity
  8
TITLE
100
AcDbMText
 10
44.0132306701
 20
0.4140206086
 30
0.0
 40
0.125
 41
0.0
 71
     2
 72
     1
  1
24
  7
SLDTEXTSTYLE1
 73
     1
 44
1.0
  0
MTEXT
  5
1CA
330
1F
100
AcDbEntity
  8
TITLE
100
AcDbMText
 10
44.0132306701
 20
79.7486662779
 30
0.0
 40
0.125
 41
0.0
 71
     2
 72
     1
  1
24
  7
SLDTEXTSTYLE1
 73
     1
 44
1.0
  0
MTEXT
  5
1CB
330
1F
100
AcDbEntity
  8
TITLE
100
AcDbMText
 10
45.9817346071
 20
0.4140206086
 30
0.0
 40
0.125
 41
0.0
 71
     2
 72
     1
  1
23
  7
SLDTEXTSTYLE1
 73
     1
 44
1.0
  0
MTEXT
  5
1CC
330
1F
100
AcDbEntity
  8
TITLE
100
AcDbMText
 10
45.9817346071
 20
79.7486662779
 30
0.0
 40
0.125
 41
0.0
 71
     2
 72
     1
  1
23
  7
SLDTEXTSTYLE1
 73
     1
 44
1.0
  0
MTEXT
  5
1CD
330
1F
100
AcDbEntity
  8
TITLE
100
AcDbMText
 10
47.9502385441
 20
0.4140206086
 30
0.0
 40
0.125
 41
0.0
 71
     2
 72
     1
  1
22
  7
SLDTEXTSTYLE1
 73
     1
 44
1.0
  0
MTEXT
  5
1CE
330
1F
100
AcDbEntity
  8
TITLE
100
AcDbMText
 10
47.9502385441
 20
79.7486662779
 30
0.0
 40
0.125
 41
0.0
 71
     2
 72
     1
  1
22
  7
SLDTEXTSTYLE1
 73
     1
 44
1.0
  0
MTEXT
  5
1CF
330
1F
100
AcDbEntity
  8
TITLE
100
AcDbMText
 10
49.9187424811
 20
0.4140206086
 30
0.0
 40
0.125
 41
0.0
 71
     2
 72
     1
  1
21
  7
SLDTEXTSTYLE1
 73
     1
 44
1.0
  0
MTEXT
  5
1D0
330
1F
100
AcDbEntity
  8
TITLE
100
AcDbMText
 10
49.9187424811
 20
79.7486662779
 30
0.0
 40
0.125
 41
0.0
 71
     2
 72
     1
  1
21
  7
SLDTEXTSTYLE1
 73
     1
 44
1.0
  0
MTEXT
  5
1D1
330
1F
100
AcDbEntity
  8
TITLE
100
AcDbMText
 10
51.8872464182
 20
0.4140206086
 30
0.0
 40
0.125
 41
0.0
 71
     2
 72
     1
  1
20
  7
SLDTEXTSTYLE1
 73
     1
 44
1.0
  0
MTEXT
  5
1D2
330
1F
100
AcDbEntity
  8
TITLE
100
AcDbMText
 10
51.8872464182
 20
79.7486662779
 30
0.0
 40
0.125
 41
0.0
 71
     2
 72
     1
  1
20
  7
SLDTEXTSTYLE1
 73
     1
 44
1.0
  0
MTEXT
  5
1D3
330
1F
100
AcDbEntity
  8
TITLE
100
AcDbMText
 10
53.8557503552
 20
0.4140206086
 30
0.0
 40
0.125
 41
0.0
 71
     2
 72
     1
  1
19
  7
SLDTEXTSTYLE1
 73
     1
 44
1.0
  0
MTEXT
  5
1D4
330
1F
100
AcDbEntity
  8
TITLE
100
AcDbMText
 10
53.8557503552
 20
79.7486662779
 30
0.0
 40
0.125
 41
0.0
 71
     2
 72
     1
  1
19
  7
SLDTEXTSTYLE1
 73
     1
 44
1.0
  0
MTEXT
  5
1D5
330
1F
100
AcDbEntity
  8
TITLE
100
AcDbMText
 10
55.8242542922
 20
0.4140206086
 30
0.0
 40
0.125
 41
0.0
 71
     2
 72
     1
  1
18
  7
SLDTEXTSTYLE1
 73
     1
 44
1.0
  0
MTEXT
  5
1D6
330
1F
100
AcDbEntity
  8
TITLE
100
AcDbMText
 10
55.8242542922
 20
79.7486662779
 30
0.0
 40
0.125
 41
0.0
 71
     2
 72
     1
  1
18
  7
SLDTEXTSTYLE1
 73
     1
 44
1.0
  0
MTEXT
  5
1D7
330
1F
100
AcDbEntity
  8
TITLE
100
AcDbMText
 10
57.7927582292
 20
0.4140206086
 30
0.0
 40
0.125
 41
0.0
 71
     2
 72
     1
  1
17
  7
SLDTEXTSTYLE1
 73
     1
 44
1.0
  0
MTEXT
  5
1D8
330
1F
100
AcDbEntity
  8
TITLE
100
AcDbMText
 10
57.7927582292
 20
79.7486662779
 30
0.0
 40
0.125
 41
0.0
 71
     2
 72
     1
  1
17
  7
SLDTEXTSTYLE1
 73
     1
 44
1.0
  0
MTEXT
  5
1D9
330
1F
100
AcDbEntity
  8
TITLE
100
AcDbMText
 10
59.7612621662
 20
0.4140206086
 30
0.0
 40
0.125
 41
0.0
 71
     2
 72
     1
  1
16
  7
SLDTEXTSTYLE1
 73
     1
 44
1.0
  0
MTEXT
  5
1DA
330
1F
100
AcDbEntity
  8
TITLE
100
AcDbMText
 10
59.7612621662
 20
79.7486662779
 30
0.0
 40
0.125
 41
0.0
 71
     2
 72
     1
  1
16
  7
SLDTEXTSTYLE1
 73
     1
 44
1.0
  0
MTEXT
  5
1DB
330
1F
100
AcDbEntity
  8
TITLE
100
AcDbMText
 10
61.7297661032
 20
0.4140206086
 30
0.0
 40
0.125
 41
0.0
 71
     2
 72
     1
  1
15
  7
SLDTEXTSTYLE1
 73
     1
 44
1.0
  0
MTEXT
  5
1DC
330
1F
100
AcDbEntity
  8
TITLE
100
AcDbMText
 10
61.7297661032
 20
79.7486662779
 30
0.0
 40
0.125
 41
0.0
 71
     2
 72
     1
  1
15
  7
SLDTEXTSTYLE1
 73
     1
 44
1.0
  0
MTEXT
  5
1DD
330
1F
100
AcDbEntity
  8
TITLE
100
AcDbMText
 10
63.6982700402
 20
0.4140206086
 30
0.0
 40
0.125
 41
0.0
 71
     2
 72
     1
  1
14
  7
SLDTEXTSTYLE1
 73
     1
 44
1.0
  0
MTEXT
  5
1DE
330
1F
100
AcDbEntity
  8
TITLE
100
AcDbMText
 10
63.6982700402
 20
79.7486662779
 30
0.0
 40
0.125
 41
0.0
 71
     2
 72
     1
  1
14
  7
SLDTEXTSTYLE1
 73
     1
 44
1.0
  0
MTEXT
  5
1DF
330
1F
100
AcDbEntity
  8
TITLE
100
AcDbMText
 10
65.6667739772
 20
0.4140206086
 30
0.0
 40
0.125
 41
0.0
 71
     2
 72
     1
  1
13
  7
SLDTEXTSTYLE1
 73
     1
 44
1.0
  0
MTEXT
  5
1E0
330
1F
100
AcDbEntity
  8
TITLE
100
AcDbMText
 10
65.6667739772
 20
79.7486662779
 30
0.0
 40
0.125
 41
0.0
 71
     2
 72
     1
  1
13
  7
SLDTEXTSTYLE1
 73
     1
 44
1.0
  0
MTEXT
  5
1E1
330
1F
100
AcDbEntity
  8
TITLE
100
AcDbMText
 10
67.6352779142
 20
0.4140206086
 30
0.0
 40
0.125
 41
0.0
 71
     2
 72
     1
  1
12
  7
SLDTEXTSTYLE1
 73
     1
 44
1.0
  0
MTEXT
  5
1E2
330
1F
100
AcDbEntity
  8
TITLE
100
AcDbMText
 10
67.6352779142
 20
79.7486662779
 30
0.0
 40
0.125
 41
0.0
 71
     2
 72
     1
  1
12
  7
SLDTEXTSTYLE1
 73
     1
 44
1.0
  0
MTEXT
  5
1E3
330
1F
100
AcDbEntity
  8
TITLE
100
AcDbMText
 10
69.6037818512
 20
0.4140206086
 30
0.0
 40
0.125
 41
0.0
 71
     2
 72
     1
  1
11
  7
SLDTEXTSTYLE1
 73
     1
 44
1.0
  0
MTEXT
  5
1E4
330
1F
100
AcDbEntity
  8
TITLE
100
AcDbMText
 10
69.6037818512
 20
79.7486662779
 30
0.0
 40
0.125
 41
0.0
 71
     2
 72
     1
  1
11
  7
SLDTEXTSTYLE1
 73
     1
 44
1.0
  0
MTEXT
  5
1E5
330
1F
100
AcDbEntity
  8
TITLE
100
AcDbMText
 10
71.5722857882
 20
0.4140206086
 30
0.0
 40
0.125
 41
0.0
 71
     2
 72
     1
  1
10
  7
SLDTEXTSTYLE1
 73
     1
 44
1.0
  0
MTEXT
  5
1E6
330
1F
100
AcDbEntity
  8
TITLE
100
AcDbMText
 10
71.5722857882
 20
79.7486662779
 30
0.0
 40
0.125
 41
0.0
 71
     2
 72
     1
  1
10
  7
SLDTEXTSTYLE1
 73
     1
 44
1.0
  0
MTEXT
  5
1E7
330
1F
100
AcDbEntity
  8
TITLE
100
AcDbMText
 10
73.5420484059
 20
0.4140206086
 30
0.0
 40
0.125
 41
0.0
 71
     2
 72
     1
  1
9
  7
SLDTEXTSTYLE1
 73
     1
 44
1.0
  0
MTEXT
  5
1E8
330
1F
100
AcDbEntity
  8
TITLE
100
AcDbMText
 10
73.5420484059
 20
79.7486662779
 30
0.0
 40
0.125
 41
0.0
 71
     2
 72
     1
  1
9
  7
SLDTEXTSTYLE1
 73
     1
 44
1.0
  0
MTEXT
  5
1E9
330
1F
100
AcDbEntity
  8
TITLE
100
AcDbMText
 10
75.5105523429
 20
0.4140206086
 30
0.0
 40
0.125
 41
0.0
 71
     2
 72
     1
  1
8
  7
SLDTEXTSTYLE1
 73
     1
 44
1.0
  0
MTEXT
  5
1EA
330
1F
100
AcDbEntity
  8
TITLE
100
AcDbMText
 10
75.5105523429
 20
79.7486662779
 30
0.0
 40
0.125
 41
0.0
 71
     2
 72
     1
  1
8
  7
SLDTEXTSTYLE1
 73
     1
 44
1.0
  0
MTEXT
  5
1EB
330
1F
100
AcDbEntity
  8
TITLE
100
AcDbMText
 10
77.4790562799
 20
0.4140206086
 30
0.0
 40
0.125
 41
0.0
 71
     2
 72
     1
  1
7
  7
SLDTEXTSTYLE1
 73
     1
 44
1.0
  0
MTEXT
  5
1EC
330
1F
100
AcDbEntity
  8
TITLE
100
AcDbMText
 10
77.4790562799
 20
79.7486662779
 30
0.0
 40
0.125
 41
0.0
 71
     2
 72
     1
  1
7
  7
SLDTEXTSTYLE1
 73
     1
 44
1.0
  0
MTEXT
  5
1ED
330
1F
100
AcDbEntity
  8
TITLE
100
AcDbMText
 10
79.447560217
 20
0.4140206086
 30
0.0
 40
0.125
 41
0.0
 71
     2
 72
     1
  1
6
  7
SLDTEXTSTYLE1
 73
     1
 44
1.0
  0
MTEXT
  5
1EE
330
1F
100
AcDbEntity
  8
TITLE
100
AcDbMText
 10
79.447560217
 20
79.7486662779
 30
0.0
 40
0.125
 41
0.0
 71
     2
 72
     1
  1
6
  7
SLDTEXTSTYLE1
 73
     1
 44
1.0
  0
MTEXT
  5
1EF
330
1F
100
AcDbEntity
  8
TITLE
100
AcDbMText
 10
81.416064154
 20
0.4140206086
 30
0.0
 40
0.125
 41
0.0
 71
     2
 72
     1
  1
5
  7
SLDTEXTSTYLE1
 73
     1
 44
1.0
  0
MTEXT
  5
1F0
330
1F
100
AcDbEntity
  8
TITLE
100
AcDbMText
 10
81.416064154
 20
79.7486662779
 30
0.0
 40
0.125
 41
0.0
 71
     2
 72
     1
  1
5
  7
SLDTEXTSTYLE1
 73
     1
 44
1.0
  0
MTEXT
  5
1F1
330
1F
100
AcDbEntity
  8
TITLE
100
AcDbMText
 10
83.384568091
 20
0.4140206086
 30
0.0
 40
0.125
 41
0.0
 71
     2
 72
     1
  1
4
  7
SLDTEXTSTYLE1
 73
     1
 44
1.0
  0
MTEXT
  5
1F2
330
1F
100
AcDbEntity
  8
TITLE
100
AcDbMText
 10
83.384568091
 20
79.7486662779
 30
0.0
 40
0.125
 41
0.0
 71
     2
 72
     1
  1
4
  7
SLDTEXTSTYLE1
 73
     1
 44
1.0
  0
MTEXT
  5
1F3
330
1F
100
AcDbEntity
  8
TITLE
100
AcDbMText
 10
85.353072028
 20
0.4140206086
 30
0.0
 40
0.125
 41
0.0
 71
     2
 72
     1
  1
3
  7
SLDTEXTSTYLE1
 73
     1
 44
1.0
  0
MTEXT
  5
1F4
330
1F
100
AcDbEntity
  8
TITLE
100
AcDbMText
 10
85.353072028
 20
79.7486662779
 30
0.0
 40
0.125
 41
0.0
 71
     2
 72
     1
  1
3
  7
SLDTEXTSTYLE1
 73
     1
 44
1.0
  0
MTEXT
  5
1F5
330
1F
100
AcDbEntity
  8
TITLE
100
AcDbMText
 10
87.321575965
 20
0.4140206086
 30
0.0
 40
0.125
 41
0.0
 71
     2
 72
     1
  1
2
  7
SLDTEXTSTYLE1
 73
     1
 44
1.0
  0
MTEXT
  5
1F6
330
1F
100
AcDbEntity
  8
TITLE
100
AcDbMText
 10
87.321575965
 20
79.7486662779
 30
0.0
 40
0.125
 41
0.0
 71
     2
 72
     1
  1
2
  7
SLDTEXTSTYLE1
 73
     1
 44
1.0
  0
MTEXT
  5
1F7
330
1F
100
AcDbEntity
  8
TITLE
100
AcDbMText
 10
88.9022846264
 20
0.4140206086
 30
0.0
 40
0.125
 41
0.0
 71
     2
 72
     1
  1
1
  7
SLDTEXTSTYLE1
 73
     1
 44
1.0
  0
MTEXT
  5
1F8
330
1F
100
AcDbEntity
  8
TITLE
100
AcDbMText
 10
88.9022846264
 20
79.7486662779
 30
0.0
 40
0.125
 41
0.0
 71
     2
 72
     1
  1
1
  7
SLDTEXTSTYLE1
 73
     1
 44
1.0
  0
LINE
  5
1F9
330
1F
100
AcDbEntity
  8
OBJECT
  6
Continuous
370
    25
100
AcDbLine
 10
35.4108504783
 20
15.824105036
 30
0.0
 11
33.3958504783
 21
15.824105036
 31
0.0
  0
LINE
  5
1FA
330
1F
100
AcDbEntity
  8
OBJECT
  6
Continuous
370
    25
100
AcDbLine
 10
33.3958504783
 20
14.324105036
 30
0.0
 11
35.4108504783
 21
14.324105036
 31
0.0
  0
LINE
  5
1FB
330
1F
100
AcDbEntity
  8
OBJECT
  6
Continuous
370
    25
100
AcDbLine
 10
30.5036805642
 20
14.324105036
 30
0.0
 11
33.3958504783
 21
14.324105036
 31
0.0
  0
LINE
  5
1FC
330
1F
100
AcDbEntity
  8
OBJECT
  6
Continuous
370
    25
100
AcDbLine
 10
33.3958504783
 20
15.824105036
 30
0.0
 11
30.5036805642
 21
15.824105036
 31
0.0
  0
LINE
  5
1FD
330
1F
100
AcDbEntity
  8
OBJECT
  6
Continuous
370
    25
100
AcDbLine
 10
4.84651065
 20
19.9812749501
 30
0.0
 11
4.84651065
 21
16.574105036
 31
0.0
  0
LINE
  5
1FE
330
1F
100
AcDbEntity
  8
OBJECT
  6
Continuous
370
    25
100
AcDbLine
 10
6.34651065
 20
16.574105036
 30
0.0
 11
6.34651065
 21
19.9812749501
 31
0.0
  0
ARC
  5
1FF
330
1F
100
AcDbEntity
  8
OBJECT
  6
Continuous
370
    25
100
AcDbCircle
 10
7.09651065
 20
16.574105036
 30
0.0
 40
0.7499999999999964
100
AcDbArc
 50
180.0
 51
224.9823824998
  0
ARC
  5
200
330
1F
100
AcDbEntity
  8
OBJECT
  6
Continuous
370
    25
100
AcDbCircle
 10
7.09651065
 20
16.574105036
 30
0.0
 40
0.7499999999999968
100
AcDbArc
 50
224.9823824998
 51
270.0
  0
ARC
  5
201
330
1F
100
AcDbEntity
  8
OBJECT
  6
Continuous
370
    25
100
AcDbCircle
 10
7.09651065
 20
16.574105036
 30
0.0
 40
2.249999999999995
100
AcDbArc
 50
225.0245532734
 51
270.0
  0
ARC
  5
202
330
1F
100
AcDbEntity
  8
OBJECT
  6
Continuous
370
    25
100
AcDbCircle
 10
7.09651065
 20
16.574105036
 30
0.0
 40
2.249999999999996
100
AcDbArc
 50
180.0
 51
225.0245532734
  0
LINE
  5
203
330
1F
100
AcDbEntity
  8
OBJECT
  6
Continuous
370
    25
100
AcDbLine
 10
10.5036805642
 20
14.324105036
 30
0.0
 11
30.5036805642
 21
14.324105036
 31
0.0
  0
LINE
  5
204
330
1F
100
AcDbEntity
  8
OBJECT
  6
Continuous
370
    25
100
AcDbLine
 10
30.5036805642
 20
15.824105036
 30
0.0
 11
10.5036805642
 21
15.824105036
 31
0.0
  0
LINE
  5
205
330
1F
100
AcDbEntity
  8
OBJECT
  6
Continuous
370
    25
100
AcDbLine
 10
4.84651065
 20
39.9812749501
 30
0.0
 11
4.84651065
 21
19.9812749501
 31
0.0
  0
LINE
  5
206
330
1F
100
AcDbEntity
  8
OBJECT
  6
Continuous
370
    25
100
AcDbLine
 10
6.34651065
 20
19.9812749501
 30
0.0
 11
6.34651065
 21
39.9812749501
 31
0.0
  0
LINE
  5
207
330
1F
100
AcDbEntity
  8
OBJECT
  6
Continuous
370
    25
100
AcDbLine
 10
7.09651065
 20
14.324105036
 30
0.0
 11
10.5036805642
 21
14.324105036
 31
0.0
  0
LINE
  5
208
330
1F
100
AcDbEntity
  8
OBJECT
  6
Continuous
370
    25
100
AcDbLine
 10
10.5036805642
 20
15.824105036
 30
0.0
 11
7.09651065
 21
15.824105036
 31
0.0
  0
LINE
  5
209
330
1F
100
AcDbEntity
  8
OBJECT
  6
Continuous
370
    25
100
AcDbLine
 10
4.84651065
 20
42.8734448642
 30
0.0
 11
4.84651065
 21
39.9812749501
 31
0.0
  0
LINE
  5
20A
330
1F
100
AcDbEntity
  8
OBJECT
  6
Continuous
370
    25
100
AcDbLine
 10
6.34651065
 20
39.9812749501
 30
0.0
 11
6.34651065
 21
42.8734448642
 31
0.0
  0
LINE
  5
20B
330
1F
100
AcDbEntity
  8
OBJECT
  6
Continuous
370
    25
100
AcDbLine
 10
6.34651065
 20
42.8734448642
 30
0.0
 11
6.34651065
 21
44.8884448642
 31
0.0
  0
LINE
  5
20C
330
1F
100
AcDbEntity
  8
OBJECT
  6
Continuous
370
    25
100
AcDbLine
 10
4.84651065
 20
44.8884448642
 30
0.0
 11
4.84651065
 21
42.8734448642
 31
0.0
  0
ARC
  5
20D
330
1F
100
AcDbEntity
  8
OBJECT
  6
Continuous
370
    25
100
AcDbCircle
 10
35.4108504783
 20
15.074105036
 30
0.0
 40
0.75
100
AcDbArc
 50
270.0
 51
90.0
  0
ARC
  5
20E
330
1F
100
AcDbEntity
  8
OBJECT
  6
Continuous
370
    25
100
AcDbCircle
 10
5.59651065
 20
44.8884448642
 30
0.0
 40
0.7500000000000013
100
AcDbArc
 50
0.0
 51
180.0
  0
ARC
  5
20F
330
1F
100
AcDbEntity
  8
OBJECT
  6
Continuous
370
    25
100
AcDbCircle
 10
35.4108504783
 20
15.074105036
 30
0.0
 40
0.7800000000000006
100
AcDbArc
 50
254.0576313944
 51
270.0
  0
ARC
  5
210
330
1F
100
AcDbEntity
  8
OBJECT
  6
Continuous
370
    25
100
AcDbCircle
 10
35.4108504783
 20
15.074105036
 30
0.0
 40
0.7800000000000006
100
AcDbArc
 50
270.0
 51
105.9423686056
  0
ARC
  5
211
330
1F
100
AcDbEntity
  8
OBJECT
  6
Continuous
370
    25
100
AcDbCircle
 10
35.4108504783
 20
15.074105036
 30
0.0
 40
1.53
100
AcDbArc
 50
209.3534700548
 51
90.0
  0
ARC
  5
212
330
1F
100
AcDbEntity
  8
OBJECT
  6
Continuous
370
    25
100
AcDbCircle
 10
35.4108504783
 20
15.074105036
 30
0.0
 40
1.53
100
AcDbArc
 50
90.0
 51
150.6465299452
  0
ARC
  5
213
330
1F
100
AcDbEntity
  8
OBJECT
  6
Continuous
370
    25
100
AcDbCircle
 10
6.0358504783
 20
15.5134448642
 30
0.0
 40
0.7800000000000008
100
AcDbArc
 50
205.3770612362
 51
244.6229387638
  0
ARC
  5
214
330
1F
100
AcDbEntity
  8
OBJECT
  6
Continuous
370
    25
100
AcDbCircle
 10
6.0358504783
 20
15.5134448642
 30
0.0
 40
0.7800000000000018
100
AcDbArc
 50
33.858762551
 51
56.1412374491
  0
ARC
  5
215
330
1F
100
AcDbEntity
  8
OBJECT
  6
Continuous
370
    25
100
AcDbCircle
 10
6.0358504783
 20
15.5134448642
 30
0.0
 40
1.529999999999999
100
AcDbArc
 50
11.7151296435
 51
78.2848703565
  0
ARC
  5
216
330
1F
100
AcDbEntity
  8
OBJECT
  6
Continuous
370
    25
100
AcDbCircle
 10
6.0358504783
 20
15.5134448642
 30
0.0
 40
1.529999999999999
100
AcDbArc
 50
140.8972674921
 51
309.1027325079
  0
ARC
  5
217
330
1F
100
AcDbEntity
  8
OBJECT
  6
Continuous
370
    25
100
AcDbCircle
 10
5.59651065
 20
44.8884448642
 30
0.0
 40
0.7800000000000017
100
AcDbArc
 50
344.0576313944
 51
195.9423686056
  0
ARC
  5
218
330
1F
100
AcDbEntity
  8
OBJECT
  6
Continuous
370
    25
100
AcDbCircle
 10
5.59651065
 20
44.8884448642
 30
0.0
 40
1.530000000000001
100
AcDbArc
 50
299.3534700548
 51
90.0
  0
ARC
  5
219
330
1F
100
AcDbEntity
  8
OBJECT
  6
Continuous
370
    25
100
AcDbCircle
 10
5.59651065
 20
44.8884448642
 30
0.0
 40
1.530000000000001
100
AcDbArc
 50
90.0
 51
240.6465299452
  0
LINE
  5
21A
330
1F
100
AcDbEntity
  8
DIMS
100
AcDbLine
 10
1.4965222322
 20
0.9732812987
 30
0.0
 11
45.4108504783
 21
0.9732812987
 31
0.0
  0
LINE
  5
21B
330
1F
100
AcDbEntity
  8
DIMS
100
AcDbLine
 10
45.4108504783
 20
0.9732812987
 30
0.0
 11
45.4108504783
 21
49.069948114
 31
0.0
  0
LINE
  5
21C
330
1F
100
AcDbEntity
  8
DIMS
100
AcDbLine
 10
45.4108504783
 20
9.5858360299
 30
0.0
 11
45.1552023095
 21
9.5858360299
 31
0.0
  0
LINE
  5
21D
330
1F
100
AcDbEntity
  8
DIMS
100
AcDbLine
 10
45.1552023095
 20
9.5858360299
 30
0.0
 11
45.0274486777
 21
9.8219025234
 31
0.0
  0
LINE
  5
21E
330
1F
100
AcDbEntity
  8
DIMS
100
AcDbLine
 10
45.0274486777
 20
9.8219025234
 30
0.0
 11
44.9024722987
 21
9.3525467892
 31
0.0
  0
LINE
  5
21F
330
1F
100
AcDbEntity
  8
DIMS
100
AcDbLine
 10
44.9024722987
 20
9.3525467892
 30
0.0
 11
44.7136191039
 21
9.5858360299
 31
0.0
  0
LINE
  5
220
330
1F
100
AcDbEntity
  8
DIMS
100
AcDbLine
 10
44.7136191039
 20
9.5858360299
 30
0.0
 11
44.2692586454
 21
9.5858360299
 31
0.0
  0
LINE
  5
221
330
1F
100
AcDbEntity
  8
DIMS
100
AcDbLine
 10
2.730041364
 20
0.9732812987
 30
0.0
 11
2.730041364
 21
2.1133962879
 31
0.0
  0
LINE
  5
222
330
1F
100
AcDbEntity
  8
DIMS
100
AcDbLine
 10
2.730041364
 20
2.1133962879
 30
0.0
 11
3.059634144
 21
2.4351416208
 31
0.0
  0
LINE
  5
223
330
1F
100
AcDbEntity
  8
DIMS
100
AcDbLine
 10
3.059634144
 20
2.4351416208
 30
0.0
 11
2.3766461781
 21
2.8101426968
 31
0.0
  0
LINE
  5
224
330
1F
100
AcDbEntity
  8
DIMS
100
AcDbLine
 10
2.3766461781
 20
2.8101426968
 30
0.0
 11
2.7226018303
 21
3.1478613096
 31
0.0
  0
LINE
  5
225
330
1F
100
AcDbEntity
  8
DIMS
100
AcDbLine
 10
2.7226018303
 20
3.1478613096
 30
0.0
 11
2.7226018303
 21
3.7333452063
 31
0.0
  0
DIMENSION
  5
226
330
1F
100
AcDbEntity
  8
DIMS
100
AcDbDimension
  2
_D
 10
35.4108504783
 20
9.5849248869
 30
0.0
 11
22.3489323508
 21
9.5849248869
 31
0.0
 70
   160
  1
<>
 71
     2
 42
-1.0
  3
SLDDIMSTYLE0
100
AcDbAlignedDimension
 13
6.0358504783
 23
15.5134448642
 33
0.0
 14
35.4108504783
 24
15.074105036
 34
0.0
 50
0.0
100
AcDbRotatedDimension
  0
DIMENSION
  5
23C
330
1F
100
AcDbEntity
  8
DIMS
100
AcDbDimension
  2
_D_1
 10
2.7279279729
 20
44.8884448642
 30
0.0
 11
2.7279279729
 21
31.7366318512
 31
0.0
 70
   160
  1
<>
 71
     2
 42
-1.0
  3
SLDDIMSTYLE0
100
AcDbAlignedDimension
 13
6.0358504783
 23
15.5134448642
 33
0.0
 14
5.59651065
 24
44.8884448642
 34
0.0
 50
90.0
100
AcDbRotatedDimension
  0
DIMENSION
  5
24B
330
1F
100
AcDbEntity
  8
DIMS
100
AcDbDimension
  2
_D_2
 10
2.7279279729
 20
0.9732812987
 30
0.0
 11
2.7279279729
 21
3.2815517443
 31
0.0
 70
   160
  1
24"^M\P 
 71
     3
 42
-1.0
  3
SLDDIMSTYLE1
100
AcDbAlignedDimension
 13
6.0358504783
 23
15.5134448642
 33
0.0
 14
1.4965222322
 24
0.9732812987
 34
0.0
 50
90.0
100
AcDbRotatedDimension
  0
DIMENSION
  5
257
330
1F
100
AcDbEntity
  8
DIMS
100
AcDbDimension
  2
_D_3
 10
45.4108504783
 20
9.5849248869
 30
0.0
 11
44.4072601292
 21
9.5849248869
 31
0.0
 70
   160
  1
20"        
 71
     2
 42
-1.0
  3
SLDDIMSTYLE1
100
AcDbAlignedDimension
 13
35.4108504783
 23
15.074105036
 33
0.0
 14
45.4108504783
 24
0.9732812987
 34
0.0
 50
0.0
100
AcDbRotatedDimension
  0
DIMENSION
  5
260
330
1F
100
AcDbEntity
  8
DIMS
100
AcDbDimension
  2
_D_4
 10
4.2714917823
 20
45.6534448642
 30
0.0
 11
10.8686669944
 21
42.6995335484
 31
0.0
 70
   163
  1
<>
 71
     1
 42
-1.0
  3
SLDDIMSTYLE2
100
AcDbDiametricDimension
 15
6.9215295178
 25
44.1234448642
 35
0.0
 40
0.0
  0
MTEXT
  5
26E
330
1F
100
AcDbEntity
  8
NOTES
100
AcDbMText
 10
10.7210142398
 20
13.8753239435
 30
0.0
 40
0.5
 41
0.0
 71
     1
 72
     1
  1
Front view
  7
SLDTEXTSTYLE1
 73
     1
 44
1.0
  0
MTEXT
  5
26F
330
1F
100
AcDbEntity
  8
NOTES
100
AcDbMText
 10
10.177827907
 20
44.5289956765
 30
0.0
 40
0.5
 41
0.0
 71
     1
 72
     1
  1
remove flange cover to access mounting holes
  7
SLDTEXTSTYLE1
 73
     1
 44
1.0
  0
LEADER
  5
271
330
1F
100
AcDbEntity
  8
NOTES
100
AcDbLeader
  3
SLDDIMSTYLE3
 76
     3
 10
7.0816250352
 20
44.907313051
 30
0.0
 10
9.7600895465
 20
44.2777520487
 30
0.0
 10
10.1557433997
 20
44.2777520487
 30
0.0
  0
MTEXT
  5
272
330
1F
100
AcDbEntity
  8
NOTES
100
AcDbMText
 10
4.1009717421
 20
1.787245694
 30
0.0
 40
0.5
 41
0.0
 71
     1
 72
     1
  1
Floor
  7
SLDTEXTSTYLE1
 73
     1
 44
1.0
  0
MTEXT
  5
273
330
1F
100
AcDbEntity
  8
NOTES
100
AcDbMText
 10
42.4477212117
 20
4.5551853659
 30
0.0
 40
0.5
 41
0.0
 71
     1
 72
     1
  1
Wall
  7
SLDTEXTSTYLE1
 73
     1
 44
1.0
  0
LEADER
  5
274
330
1F
100
AcDbEntity
  8
NOTES
100
AcDbLeader
  3
SLDDIMSTYLE3
 76
     3
 10
45.4108504783
 20
4.8629029604
 30
0.0
 10
43.9537390072
 20
4.3045777396
 30
0.0
 10
43.8256387924
 20
4.3045777396
 30
0.0
  0
MTEXT
  5
275
330
1F
100
AcDbEntity
  8
NOTES
100
AcDbMText
 10
15.8680883743
 20
17.7338382349
 30
0.0
 40
0.5
 41
0.0
 71
     1
 72
     1
  1
Matte black
  7
SLDTEXTSTYLE1
 73
     1
 44
1.0
  0
LEADER
  5
276
330
1F
100
AcDbEntity
  8
NOTES
100
AcDbLeader
  3
SLDDIMSTYLE3
 76
     3
 10
12.8260587926
 20
15.824105036
 30
0.0
 10
15.3441408059
 20
17.4810097297
 30
0.0
 10
15.8441408059
 20
17.4810097297
 30
0.0
  0
LINE
  5
277
330
1F
100
AcDbEntity
  8
OBJECT
  6
Continuous
370
    25
100
AcDbLine
 10
52.4368351222
 20
15.824105036
 30
0.0
 11
50.6497824906
 21
15.824105036
 31
0.0
  0
LINE
  5
278
330
1F
100
AcDbEntity
  8
OBJECT
  6
Continuous
370
    25
100
AcDbLine
 10
50.6497824906
 20
14.324105036
 30
0.0
 11
52.4368351222
 21
14.324105036
 31
0.0
  0
LINE
  5
279
330
1F
100
AcDbEntity
  8
OBJECT
  6
Continuous
370
    25
100
AcDbLine
 10
49.8997824906
 20
16.574105036
 30
0.0
 11
49.8997824906
 21
15.074105036
 31
0.0
  0
LINE
  5
27A
330
1F
100
AcDbEntity
  8
OBJECT
  6
Continuous
370
    25
100
AcDbLine
 10
51.3997824906
 20
16.2634448642
 30
0.0
 11
51.3997824906
 21
16.574105036
 31
0.0
  0
LINE
  5
27B
330
1F
100
AcDbEntity
  8
OBJECT
  6
Continuous
370
    25
100
AcDbLine
 10
52.4368351222
 20
16.2634448642
 30
0.0
 11
51.2866448476
 21
16.2634448642
 31
0.0
  0
LINE
  5
27C
330
1F
100
AcDbEntity
  8
OBJECT
  6
Continuous
370
    25
100
AcDbLine
 10
49.8997824906
 20
19.9812749501
 30
0.0
 11
49.8997824906
 21
16.574105036
 31
0.0
  0
LINE
  5
27D
330
1F
100
AcDbEntity
  8
OBJECT
  6
Continuous
370
    25
100
AcDbLine
 10
51.3997824906
 20
16.574105036
 30
0.0
 11
51.3997824906
 21
19.9812749501
 31
0.0
  0
LINE
  5
27E
330
1F
100
AcDbEntity
  8
OBJECT
  6
Continuous
370
    25
100
AcDbLine
 10
49.8997824906
 20
39.9812749501
 30
0.0
 11
49.8997824906
 21
19.9812749501
 31
0.0
  0
LINE
  5
27F
330
1F
100
AcDbEntity
  8
OBJECT
  6
Continuous
370
    25
100
AcDbLine
 10
51.3997824906
 20
19.9812749501
 30
0.0
 11
51.3997824906
 21
39.9812749501
 31
0.0
  0
ARC
  5
280
330
1F
100
AcDbEntity
  8
OBJECT
  6
Continuous
370
    25
100
AcDbCircle
 10
52.6647824906
 20
42.8734448642
 30
0.0
 40
1.265000000000008
100
AcDbArc
 50
100.3811501363
 51
180.0
  0
ARC
  5
281
330
1F
100
AcDbEntity
  8
OBJECT
  6
Continuous
370
    25
100
AcDbCircle
 10
52.6647824906
 20
42.8734448642
 30
0.0
 40
2.765000000000008
100
AcDbArc
 50
94.7288468591
 51
180.0
  0
LINE
  5
282
330
1F
100
AcDbEntity
  8
OBJECT
  6
Continuous
370
    25
100
AcDbLine
 10
49.8997824906
 20
42.8734448642
 30
0.0
 11
49.8997824906
 21
39.9812749501
 31
0.0
  0
LINE
  5
283
330
1F
100
AcDbEntity
  8
OBJECT
  6
Continuous
370
    25
100
AcDbLine
 10
51.3997824906
 20
39.9812749501
 30
0.0
 11
51.3997824906
 21
42.8734448642
 31
0.0
  0
LINE
  5
284
330
1F
100
AcDbEntity
  8
OBJECT
  6
Continuous
370
    25
100
AcDbLine
 10
52.8997824906
 20
16.604105036
 30
0.0
 11
52.5607955779
 21
16.604105036
 31
0.0
  0
LINE
  5
285
330
1F
100
AcDbEntity
  8
OBJECT
  6
Continuous
370
    25
100
AcDbLine
 10
52.5607955779
 20
13.544105036
 30
0.0
 11
52.8997824906
 21
13.544105036
 31
0.0
  0
ARC
  5
286
330
1F
100
AcDbEntity
  8
OBJECT
  6
Continuous
370
    25
100
AcDbCircle
 10
52.5607955779
 20
13.594105036
 30
0.0
 40
0.0500000000000011
100
AcDbArc
 50
186.0090059575
 51
270.0
  0
ARC
  5
287
330
1F
100
AcDbEntity
  8
OBJECT
  6
Continuous
370
    25
100
AcDbCircle
 10
52.5607955779
 20
16.554105036
 30
0.0
 40
0.0500000000000013
100
AcDbArc
 50
90.0
 51
173.9909940425
  0
LINE
  5
288
330
1F
100
AcDbEntity
  8
OBJECT
  6
Continuous
370
    25
100
AcDbLine
 10
52.5110703052
 20
16.5593392752
 30
0.0
 11
52.4368351222
 21
15.854105036
 31
0.0
  0
LINE
  5
289
330
1F
100
AcDbEntity
  8
OBJECT
  6
Continuous
370
    25
100
AcDbLine
 10
52.4368351222
 20
14.294105036
 30
0.0
 11
52.5110703052
 21
13.5888707968
 31
0.0
  0
LINE
  5
28A
330
1F
100
AcDbEntity
  8
OBJECT
  6
Continuous
370
    25
100
AcDbLine
 10
52.8997824906
 20
17.0434448642
 30
0.0
 11
52.5607955779
 21
17.0434448642
 31
0.0
  0
ARC
  5
28B
330
1F
100
AcDbEntity
  8
OBJECT
  6
Continuous
370
    25
100
AcDbCircle
 10
52.5607955779
 20
16.9934448642
 30
0.0
 40
0.0500000000000043
100
AcDbArc
 50
90.0
 51
173.9909940425
  0
LINE
  5
28C
330
1F
100
AcDbEntity
  8
OBJECT
  6
Continuous
370
    25
100
AcDbLine
 10
52.5110703052
 20
16.9986791035
 30
0.0
 11
52.4368351222
 21
16.2934448642
 31
0.0
  0
ARC
  5
28D
330
1F
100
AcDbEntity
  8
OBJECT
  6
Continuous
370
    25
100
AcDbCircle
 10
52.5607955779
 20
43.4084448642
 30
0.0
 40
0.0500000000000009
100
AcDbArc
 50
186.0090059575
 51
270.0
  0
ARC
  5
28E
330
1F
100
AcDbEntity
  8
OBJECT
  6
Continuous
370
    25
100
AcDbCircle
 10
52.5607955779
 20
46.3684448642
 30
0.0
 40
0.0500000000000009
100
AcDbArc
 50
90.0
 51
173.9909940425
  0
LINE
  5
28F
330
1F
100
AcDbEntity
  8
OBJECT
  6
Continuous
370
    25
100
AcDbLine
 10
52.8997824906
 20
46.4184448642
 30
0.0
 11
52.5607955779
 21
46.4184448642
 31
0.0
  0
LINE
  5
290
330
1F
100
AcDbEntity
  8
OBJECT
  6
Continuous
370
    25
100
AcDbLine
 10
52.5607955779
 20
43.3584448642
 30
0.0
 11
52.8997824906
 21
43.3584448642
 31
0.0
  0
LINE
  5
291
330
1F
100
AcDbEntity
  8
OBJECT
  6
Continuous
370
    25
100
AcDbLine
 10
52.5110703052
 20
46.3736791035
 30
0.0
 11
52.4368351222
 21
45.6684448642
 31
0.0
  0
LINE
  5
292
330
1F
100
AcDbEntity
  8
OBJECT
  6
Continuous
370
    25
100
AcDbLine
 10
52.4368351222
 20
44.1084448642
 30
0.0
 11
52.5110703052
 21
43.403210625
 31
0.0
  0
ARC
  5
293
330
1F
100
AcDbEntity
  8
OBJECT
  6
Continuous
370
    25
100
AcDbCircle
 10
50.6497824906
 20
15.074105036
 30
0.0
 40
0.75
100
AcDbArc
 50
90.0
 51
270.0
  0
LWPOLYLINE
  5
294
330
1F
100
AcDbEntity
  8
OBJECT
  6
Continuous
370
    25
100
AcDbPolyline
 90
       12
 70
   128
 43
0.0
 10
50.6497824906
 20
16.0437749501
 10
50.650669847
 20
16.0442184429
 10
50.7554119776
 20
16.0941308516
 10
50.8593713172
 20
16.1393590343
 10
50.9622958029
 20
16.180137978
 10
51.0126044119
 20
16.1984971145
 10
51.0617099395
 20
16.215234401
 10
51.1078030728
 20
16.229654483
 10
51.1523816864
 20
16.242088855
 10
51.1948948658
 20
16.2521084415
 10
51.2350830339
 20
16.259287532
 10
51.2866448476
 20
16.2628080256
  0
ARC
  5
295
330
1F
100
AcDbEntity
  8
OBJECT
  6
Continuous
370
    25
100
AcDbCircle
 10
49.7200744891
 20
14.142807693
 30
0.0
 40
2.116136451336024
100
AcDbArc
 50
52.6092557027
 51
63.9380828397
  0
LINE
  5
296
330
1F
100
AcDbEntity
  8
OBJECT
  6
Continuous
370
    25
100
AcDbLine
 10
52.8997824906
 20
13.544105036
 30
0.0
 11
52.8997824906
 21
16.604105036
 31
0.0
  0
LINE
  5
297
330
1F
100
AcDbEntity
  8
OBJECT
  6
Continuous
370
    25
100
AcDbLine
 10
52.4368351222
 20
15.854105036
 30
0.0
 11
52.4368351222
 21
14.294105036
 31
0.0
  0
LINE
  5
298
330
1F
100
AcDbEntity
  8
OBJECT
  6
Continuous
370
    25
100
AcDbLine
 10
52.8997824906
 20
16.604105036
 30
0.0
 11
52.8997824906
 21
17.0434448642
 31
0.0
  0
LINE
  5
299
330
1F
100
AcDbEntity
  8
OBJECT
  6
Continuous
370
    25
100
AcDbLine
 10
52.4368351222
 20
16.2934448642
 30
0.0
 11
52.4368351222
 21
15.854105036
 31
0.0
  0
LINE
  5
29A
330
1F
100
AcDbEntity
  8
OBJECT
  6
Continuous
370
    25
100
AcDbLine
 10
52.8997824906
 20
43.3584448642
 30
0.0
 11
52.8997824906
 21
46.4184448642
 31
0.0
  0
LINE
  5
29B
330
1F
100
AcDbEntity
  8
OBJECT
  6
Continuous
370
    25
100
AcDbLine
 10
52.4368351222
 20
45.6684448642
 30
0.0
 11
52.4368351222
 21
44.1084448642
 31
0.0
  0
LINE
  5
29C
330
1F
100
AcDbEntity
  8
OBJECT
  6
Continuous
370
    25
100
AcDbLine
 10
52.5110703052
 20
16.5593392752
 30
0.0
 11
52.5110703052
 21
16.9986791035
 31
0.0
  0
LINE
  5
29D
330
1F
100
AcDbEntity
  8
OBJECT
  6
Continuous
370
    25
100
AcDbLine
 10
52.5110703052
 20
43.403210625
 30
0.0
 11
52.5110703052
 21
46.3736791035
 31
0.0
  0
DIMENSION
  5
29E
330
1F
100
AcDbEntity
  8
DIMS
100
AcDbDimension
  2
_D_5
 10
49.8997824906
 20
19.1366197507
 30
0.0
 11
47.3800974512
 21
19.1366197507
 31
0.0
 70
   160
  1
%%c<>
 71
     2
 42
-1.0
  3
SLDDIMSTYLE4
100
AcDbAlignedDimension
 13
51.3997824906
 23
16.574105036
 33
0.0
 14
49.8997824906
 24
16.574105036
 34
0.0
100
AcDbRotatedDimension
  0
DIMENSION
  5
2AD
330
1F
100
AcDbEntity
  8
DIMS
100
AcDbDimension
  2
_D_6
 10
51.3997824906
 20
18.7221041819
 30
0.0
 11
54.2383651677
 21
18.7221041819
 31
0.0
 70
   160
  1
<>
 71
     2
 42
-1.0
  3
SLDDIMSTYLE0
100
AcDbAlignedDimension
 13
52.8997824906
 23
16.2174448642
 33
0.0
 14
51.3997824906
 24
16.574105036
 34
0.0
100
AcDbRotatedDimension
  0
MTEXT
  5
2BB
330
1F
100
AcDbEntity
  8
NOTES
100
AcDbMText
 10
50.49087247
 20
12.9925993171
 30
0.0
 40
0.5
 41
0.0
 71
     1
 72
     1
  1
Side view
  7
SLDTEXTSTYLE1
 73
     1
 44
1.0
  0
LWPOLYLINE
  5
2BC
330
1F
100
AcDbEntity
  8
OBJECT
  6
Continuous
370
    25
100
AcDbPolyline
 90
       21
 70
   128
 43
0.0
 10
83.6014821309
 20
12.0299107157
 10
83.5598883042
 20
12.009485988
 10
83.4729781448
 20
11.9731337455
 10
83.3769467853
 20
11.9392479464
 10
83.2726707778
 20
11.9086945882
 10
83.1611824205
 20
11.8822277768
 10
83.0436416414
 20
11.8604823083
 10
82.9213085948
 20
11.8439691028
 10
82.7955187676
 20
11.8330729503
 10
82.6676607643
 20
11.8280515733
 10
82.5391564562
 20
11.8290351383
 10
82.4114555662
 20
11.8360245416
 10
82.2860559857
 20
11.8488821528
 10
82.1643650704
 20
11.8673381407
 10
82.0477467419
 20
11.8909891342
 10
81.9375004582
 20
11.9192953384
 10
81.8348366025
 20
11.9515778642
 10
81.740847378
 20
11.9870173825
 10
81.6564725791
 20
12.0246556904
 10
81.5866510133
 20
12.061038044
 10
81.5745106566
 20
12.0679496442
  0
LWPOLYLINE
  5
2BD
330
1F
100
AcDbEntity
  8
OBJECT
  6
Continuous
370
    25
100
AcDbPolyline
 90
       22
 70
   128
 43
0.0
 10
80.8245716071
 20
10.7688763506
 10
80.9076291869
 20
10.7228639269
 10
81.0611995287
 20
10.6470949481
 10
81.2214194496
 20
10.5792658039
 10
81.3876039987
 20
10.5194139919
 10
81.5588260142
 20
10.4676481255
 10
81.734237662
 20
10.424012894
 10
81.9130547751
 20
10.3885179984
 10
82.0945389394
 20
10.3611571719
 10
82.2779819277
 20
10.3419192915
 10
82.4626944287
 20
10.3307941609
 10
82.6479989037
 20
10.3277753131
 10
82.833225571
 20
10.3328615266
 10
83.0176751363
 20
10.3460548093
 10
83.2006688278
 20
10.3673611589
 10
83.3815539013
 20
10.3967972236
 10
83.5596792534
 20
10.434392769
 10
83.7343891905
 20
10.4801928103
 10
83.9050126998
 20
10.5342578324
 10
84.0708466894
 20
10.5966595649
 10
84.2311323784
 20
10.6674684125
 10
84.3612386267
 20
10.7344762565
  0
LWPOLYLINE
  5
2BE
330
1F
100
AcDbEntity
  8
OBJECT
  6
Continuous
370
    25
100
AcDbPolyline
 90
       21
 70
   128
 43
0.0
 10
62.2924394268
 20
45.4655117801
 10
62.2931943032
 20
45.5078792451
 10
62.2989654094
 20
45.593769388
 10
62.3109363181
 20
45.6872236645
 10
62.3296044093
 20
45.7873419994
 10
62.3552812781
 20
45.8929322222
 10
62.3881037616
 20
46.0027232477
 10
62.4280415674
 20
46.1153931325
 10
62.474907016
 20
46.2295950882
 10
62.5283655302
 20
46.3439801657
 10
62.5879459272
 20
46.4572169633
 10
62.6530499176
 20
46.5680090652
 10
62.7229532695
 20
46.6751005086
 10
62.7967878089
 20
46.777263096
 10
62.8736160787
 20
46.873413065
 10
62.952406689
 20
46.962571076
 10
63.0320423402
 20
47.0438818721
 10
63.111329826
 20
47.1166369334
 10
63.1890134315
 20
47.1803003583
 10
63.2637934183
 20
47.2345377226
 10
63.2744495765
 20
47.2413186653
  0
LWPOLYLINE
  5
2BF
330
1F
100
AcDbEntity
  8
OBJECT
  6
Continuous
370
    25
100
AcDbPolyline
 90
       23
 70
   128
 43
0.0
 10
62.5351681101
 20
48.5485746314
 10
62.5109052611
 20
48.5339907866
 10
62.3684960394
 20
48.4388927172
 10
62.2296375929
 20
48.3340644591
 10
62.0947051761
 20
48.220080384
 10
61.964256686
 20
48.0976890921
 10
61.8387549756
 20
47.967602521
 10
61.7186007186
 20
47.8304950022
 10
61.6041578343
 20
47.6870092413
 10
61.4957708996
 20
47.5377642297
 10
61.393775802
 20
47.3833621108
 10
61.2985057474
 20
47.2243929655
 10
61.2102945865
 20
47.0614375355
 10
61.1294936698
 20
46.895100427
 10
61.0564476043
 20
46.725966633
 10
60.9914971588
 20
46.5545932369
 10
60.9349936241
 20
46.3815293592
 10
60.8873037702
 20
46.2073204903
 10
60.8488153926
 20
46.0325176677
 10
60.8199420237
 20
45.8576940923
 10
60.8011238428
 20
45.683471835
 10
60.7928196814
 20
45.5105599614
 10
60.7924394268
 20
45.4655117801
  0
LINE
  5
2C0
330
1F
100
AcDbEntity
  8
OBJECT
  6
Continuous
370
    25
100
AcDbLine
 10
78.7794986485
 20
11.9494718399
 30
0.0
 11
80.8245716071
 21
10.7688763506
 31
0.0
  0
LINE
  5
2C1
330
1F
100
AcDbEntity
  8
OBJECT
  6
Continuous
370
    25
100
AcDbLine
 10
81.5745106566
 20
12.0679496442
 30
0.0
 11
79.529437698
 21
13.2485451335
 31
0.0
  0
LINE
  5
2C2
330
1F
100
AcDbEntity
  8
OBJECT
  6
Continuous
370
    25
100
AcDbLine
 10
60.7924394268
 20
45.4655117801
 30
0.0
 11
60.7924394268
 21
43.1039370104
 31
0.0
  0
LINE
  5
2C3
330
1F
100
AcDbEntity
  8
OBJECT
  6
Continuous
370
    25
100
AcDbLine
 10
62.2924394268
 20
43.1039370104
 30
0.0
 11
62.2924394268
 21
45.4655117801
 31
0.0
  0
LINE
  5
2C4
330
1F
100
AcDbEntity
  8
OBJECT
  6
Continuous
370
    25
100
AcDbLine
 10
64.6373630248
 20
20.1135529581
 30
0.0
 11
78.7794986485
 21
11.9494718399
 31
0.0
  0
LINE
  5
2C5
330
1F
100
AcDbEntity
  8
OBJECT
  6
Continuous
370
    25
100
AcDbLine
 10
79.529437698
 20
13.2485451335
 30
0.0
 11
65.3873020742
 21
21.4126262517
 31
0.0
  0
LINE
  5
2C6
330
1F
100
AcDbEntity
  8
OBJECT
  6
Continuous
370
    25
100
AcDbLine
 10
60.7924394268
 20
43.1039370104
 30
0.0
 11
60.7924394268
 21
26.7731207726
 31
0.0
  0
LINE
  5
2C7
330
1F
100
AcDbEntity
  8
OBJECT
  6
Continuous
370
    25
100
AcDbLine
 10
62.2924394268
 20
26.7731207726
 30
0.0
 11
62.2924394268
 21
43.1039370104
 31
0.0
  0
LINE
  5
2C8
330
1F
100
AcDbEntity
  8
OBJECT
  6
Continuous
370
    25
100
AcDbLine
 10
62.2281300738
 20
21.5043735363
 30
0.0
 11
64.6373630248
 21
20.1135529581
 31
0.0
  0
LINE
  5
2C9
330
1F
100
AcDbEntity
  8
OBJECT
  6
Continuous
370
    25
100
AcDbLine
 10
65.3873020742
 20
21.4126262517
 30
0.0
 11
62.9780691233
 21
22.8034468298
 31
0.0
  0
LINE
  5
2CA
330
1F
100
AcDbEntity
  8
OBJECT
  6
Continuous
370
    25
100
AcDbLine
 10
60.7924394268
 20
26.7731207726
 30
0.0
 11
60.7924394268
 21
23.9910274847
 31
0.0
  0
LINE
  5
2CB
330
1F
100
AcDbEntity
  8
OBJECT
  6
Continuous
370
    25
100
AcDbLine
 10
62.2924394268
 20
23.9910274847
 30
0.0
 11
62.2924394268
 21
26.7731207726
 31
0.0
  0
ARC
  5
2CC
330
1F
100
AcDbEntity
  8
OBJECT
  6
Continuous
370
    25
100
AcDbCircle
 10
63.2642389206
 20
24.0028791173
 30
0.0
 40
0.9718717597434552
100
AcDbArc
 50
180.6987190942
 51
194.294947115
  0
ARC
  5
2CD
330
1F
100
AcDbEntity
  8
OBJECT
  6
Continuous
370
    25
100
AcDbCircle
 10
63.4745716185
 20
23.6391329459
 30
0.0
 40
0.9720524740554362
100
AcDbArc
 50
225.6894456886
 51
239.2843700524
  0
LWPOLYLINE
  5
2CE
330
1F
100
AcDbEntity
  8
OBJECT
  6
Continuous
370
    25
100
AcDbPolyline
 90
       20
 70
   128
 43
0.0
 10
60.7924394268
 20
23.9910274847
 10
60.7942691044
 20
23.9013591939
 10
60.8058902673
 20
23.7450064008
 10
60.8279243156
 20
23.5872509773
 10
60.860008653
 20
23.4288195942
 10
60.9016898136
 20
23.270723766
 10
60.9524980501
 20
23.1138143383
 10
61.0119782388
 20
22.958826424
 10
61.0797025724
 20
22.806422349
 10
61.1552731446
 20
22.6572243056
 10
61.2383207729
 20
22.5118357172
 10
61.3285034666
 20
22.3708544085
 10
61.4254618987
 20
22.2349396022
 10
61.5288955159
 20
22.104698988
 10
61.638536003
 20
21.9807505392
 10
61.7541390086
 20
21.8637426201
 10
61.8754710033
 20
21.7543733858
 10
62.0022801115
 20
21.6534156956
 10
62.1342421931
 20
21.5617430131
 10
62.2281300738
 20
21.5043735363
  0
LINE
  5
2CF
330
1F
100
AcDbEntity
  8
OBJECT
  6
Continuous
370
    25
100
AcDbLine
 10
62.8488972392
 20
24.3864785546
 30
0.0
 11
62.2924394268
 21
24.0652422972
 31
0.0
  0
LINE
  5
2D0
330
1F
100
AcDbEntity
  8
OBJECT
  6
Continuous
370
    25
100
AcDbLine
 10
63.0425108426
 20
22.7662454171
 30
0.0
 11
63.5988362886
 21
23.087405261
 31
0.0
  0
LWPOLYLINE
  5
2D1
330
1F
100
AcDbEntity
  8
OBJECT
  6
Continuous
370
    25
100
AcDbPolyline
 90
       10
 70
   128
 43
0.0
 10
83.0631467344
 20
12.5748151885
 10
83.0377497199
 20
12.5450704766
 10
82.9902726925
 20
12.4710919495
 10
82.9507865064
 20
12.3881246153
 10
82.9196602772
 20
12.2967584529
 10
82.8972122873
 20
12.1977388009
 10
82.8836656602
 20
12.0919324053
 10
82.8791335828
 20
11.9802773361
 10
82.8836265908
 20
11.8637455477
 10
82.8861734416
 20
11.8409256295
  0
LWPOLYLINE
  5
2D2
330
1F
100
AcDbEntity
  8
OBJECT
  6
Continuous
370
    25
100
AcDbPolyline
 90
       12
 70
   128
 43
0.0
 10
83.5603135619
 20
10.4345590524
 10
83.641292549
 20
10.3550605064
 10
83.7365019111
 20
10.2725565933
 10
83.8337767132
 20
10.1989638574
 10
83.9323806141
 20
10.1349089773
 10
84.0315668035
 20
10.0809593264
 10
84.1305752022
 20
10.0376222772
 10
84.2286014174
 20
10.0053480518
 10
84.3248084614
 20
9.9845018539
 10
84.4183157834
 20
9.9753395632
 10
84.5082030989
 20
9.9779692002
 10
84.5648500503
 20
9.987488973
  0
LINE
  5
2D3
330
1F
100
AcDbEntity
  8
OBJECT
  6
Continuous
370
    25
100
AcDbLine
 10
83.4504137231
 20
12.83939571
 30
0.0
 11
83.2107137784
 21
12.7010198773
 31
0.0
  0
LINE
  5
2D4
330
1F
100
AcDbEntity
  8
OBJECT
  6
Continuous
370
    25
100
AcDbLine
 10
84.7405894394
 20
10.0509103584
 30
0.0
 11
84.9802893841
 21
10.1892861911
 31
0.0
  0
LINE
  5
2D5
330
1F
100
AcDbEntity
  8
OBJECT
  6
Continuous
370
    25
100
AcDbLine
 10
62.6791520258
 20
25.1891287524
 30
0.0
 11
62.4394520811
 21
25.0507529197
 31
0.0
  0
LINE
  5
2D6
330
1F
100
AcDbEntity
  8
OBJECT
  6
Continuous
370
    25
100
AcDbLine
 10
63.969327742
 20
22.4006434008
 30
0.0
 11
64.2090276867
 21
22.5390192335
 31
0.0
  0
LWPOLYLINE
  5
2D7
330
1F
100
AcDbEntity
  8
OBJECT
  6
Continuous
370
    25
100
AcDbPolyline
 90
       13
 70
   128
 43
0.0
 10
61.9812248652
 20
49.0897748798
 10
61.9558278508
 20
49.060030168
 10
61.9083508233
 20
48.9860516408
 10
61.8688646373
 20
48.9030843067
 10
61.8377384081
 20
48.8117181443
 10
61.8152904182
 20
48.7126984923
 10
61.8017437911
 20
48.6068920966
 10
61.7972117136
 20
48.4952370275
 10
61.8017047216
 20
48.3787052391
 10
61.8151425413
 20
48.2583016615
 10
61.8373710912
 20
48.1350085312
 10
61.8681719466
 20
48.0098167034
 10
61.8709224951
 20
48.0009451926
  0
LWPOLYLINE
  5
2D8
330
1F
100
AcDbEntity
  8
OBJECT
  6
Continuous
370
    25
100
AcDbPolyline
 90
       10
 70
   128
 43
0.0
 10
62.7513094865
 20
46.7143361362
 10
62.7518548441
 20
46.7139235488
 10
62.850458745
 20
46.6498686687
 10
62.9496449344
 20
46.5959190178
 10
63.0486533331
 20
46.5525819686
 10
63.1466795483
 20
46.5203077432
 10
63.2428865922
 20
46.4994615452
 10
63.3363939143
 20
46.4902992546
 10
63.4262812298
 20
46.4929288916
 10
63.4829281812
 20
46.5024486644
  0
LINE
  5
2D9
330
1F
100
AcDbEntity
  8
OBJECT
  6
Continuous
370
    25
100
AcDbLine
 10
62.368491854
 20
49.3543554013
 30
0.0
 11
62.1287919093
 21
49.2159795687
 31
0.0
  0
LINE
  5
2DA
330
1F
100
AcDbEntity
  8
OBJECT
  6
Continuous
370
    25
100
AcDbLine
 10
63.6586675702
 20
46.5658700498
 30
0.0
 11
63.8983675149
 21
46.7042458825
 31
0.0
  0
LWPOLYLINE
  5
2DB
330
1F
100
AcDbEntity
  8
OBJECT
  6
Continuous
370
    25
100
AcDbPolyline
 90
       12
 70
   128
 43
0.0
 10
62.2280995986
 20
23.162168134
 10
62.2284131951
 20
23.1630736735
 10
62.2634274727
 20
23.2691282052
 10
62.2934754153
 20
23.3735858022
 10
62.3169999213
 20
23.4773314508
 10
62.3255277252
 20
23.5284717951
 10
62.3314477293
 20
23.5788110781
 10
62.3343599443
 20
23.6265352856
 10
62.3341450559
 20
23.673206852
 10
62.3304111683
 20
23.7182518851
 10
62.3227311943
 20
23.7613574066
 10
62.3222177286
 20
23.7628488666
  0
LWPOLYLINE
  5
2DC
330
1F
100
AcDbEntity
  8
OBJECT
  6
Continuous
370
    25
100
AcDbPolyline
 90
       12
 70
   128
 43
0.0
 10
62.7953673142
 20
22.9433791831
 10
62.7942146232
 20
22.9446086052
 10
62.7538115387
 20
22.9779498031
 10
62.7074808638
 20
23.0083893974
 10
62.655483949
 20
23.0362569107
 10
62.5993131093
 20
23.0612401542
 10
62.5218614853
 20
23.0895883637
 10
62.4398141191
 20
23.1141784179
 10
62.3533935203
 20
23.1358534227
 10
62.2637899527
 20
23.1551440367
 10
62.2290406511
 20
23.161986888
 10
62.2280995986
 20
23.162168134
  0
ARC
  5
2DD
330
1F
100
AcDbEntity
  8
OBJECT
  6
Continuous
370
    25
100
AcDbCircle
 10
84.4788735403
 20
10.5042372073
 30
0.0
 40
0.5232484323107911
100
AcDbArc
 50
280.6437983617
 51
319.0964490804
  0
ARC
  5
2DE
330
1F
100
AcDbEntity
  8
OBJECT
  6
Continuous
370
    25
100
AcDbCircle
 10
83.47280035
 20
12.2469907567
 30
0.0
 40
0.5240254925207213
100
AcDbArc
 50
100.1592585591
 51
140.1040076565
  0
LWPOLYLINE
  5
2DF
330
1F
100
AcDbEntity
  8
OBJECT
  6
Continuous
370
    25
100
AcDbPolyline
 90
       29
 70
   128
 43
0.0
 10
83.4630581194
 20
11.9766967707
 10
83.4668110857
 20
11.97971174
 10
83.5180315136
 20
12.0113008398
 10
83.5758540081
 20
12.0306493797
 10
83.6392467254
 20
12.0374120846
 10
83.707078421
 20
12.0314682737
 10
83.7781386366
 20
12.0129240146
 10
83.8511593011
 20
11.98211023
 10
83.924837359
 20
11.9395767925
 10
83.9978580235
 20
11.8860827125
 10
84.0689182391
 20
11.822582593
 10
84.1367499347
 20
11.7502095951
 10
84.2001426521
 20
11.6702552168
 10
84.2579651466
 20
11.5841462458
 10
84.3091855744
 20
11.4934192987
 10
84.352889906
 20
11.3996934
 10
84.3882982363
 20
11.3046410907
 10
84.414778703
 20
11.2099585814
 10
84.4318587615
 20
11.1173354838
 10
84.4392336176
 20
11.0284246592
 10
84.436771667
 20
10.9448127234
 10
84.4245168432
 20
10.8679917334
 10
84.4026878338
 20
10.7993325616
 10
84.371674178
 20
10.7400604325
 10
84.3320293153
 20
10.6912330586
 10
84.2844607091
 20
10.6537217657
 10
84.2298172224
 20
10.6281959435
 10
84.1690739694
 20
10.6151111011
 10
84.1126368836
 20
10.6140013963
  0
LWPOLYLINE
  5
2E0
330
1F
100
AcDbEntity
  8
OBJECT
  6
Continuous
370
    25
100
AcDbPolyline
 90
       10
 70
   128
 43
0.0
 10
84.2153515536
 20
12.7636483927
 10
84.1125129512
 20
12.8173588934
 10
84.0106056711
 20
12.8592690618
 10
83.9105526014
 20
12.8889993529
 10
83.8132598383
 20
12.9062805247
 10
83.7196084799
 20
12.9109560762
 10
83.6304466476
 20
12.9029836648
 10
83.5465818048
 20
12.88243549
 10
83.4687734443
 20
12.8494976391
 10
83.4504137231
 20
12.83939571
  0
LWPOLYLINE
  5
2E1
330
1F
100
AcDbEntity
  8
OBJECT
  6
Continuous
370
    25
100
AcDbPolyline
 90
       26
 70
   128
 43
0.0
 10
84.9802893841
 20
10.1892861911
 10
85.0329768964
 20
10.2242134985
 10
85.0966195882
 20
10.2809263291
 10
85.1522813802
 20
10.3488091534
 10
85.1994581906
 20
10.4272472143
 10
85.2377227789
 20
10.5155301643
 10
85.2667286151
 20
10.6128584995
 10
85.2862130178
 20
10.7183507993
 10
85.2959995332
 20
10.8310517092
 10
85.2959995332
 20
10.9499405923
 10
85.2862130178
 20
11.0739407725
 10
85.2667286151
 20
11.2019292848
 10
85.2377227789
 20
11.3327470456
 10
85.1994581906
 20
11.4652093489
 10
85.1522813802
 20
11.5981165956
 10
85.0966195882
 20
11.7302651571
 10
85.0329768964
 20
11.8604582755
 10
84.9619296629
 20
11.9875169019
 10
84.8841213024
 20
12.1102903735
 10
84.8002564596
 20
12.2276668349
 10
84.7110946273
 20
12.3385833066
 10
84.6174432689
 20
12.4420353119
 10
84.5201505058
 20
12.5370859734
 10
84.4200974361
 20
12.6228744976
 10
84.318190156
 20
12.6986239704
 10
84.2153515536
 20
12.7636483927
  0
LWPOLYLINE
  5
2E2
330
1F
100
AcDbEntity
  8
OBJECT
  6
Continuous
370
    25
100
AcDbPolyline
 90
        3
 70
   128
 43
0.0
 10
83.4750858446
 20
11.9810364997
 10
83.48814149
 20
11.9920255203
 10
83.5088410471
 20
12.0067863638
  0
ARC
  5
2E3
330
1F
100
AcDbEntity
  8
OBJECT
  6
Continuous
370
    25
100
AcDbCircle
 10
84.1579287772
 20
10.9171045354
 30
0.0
 40
0.2916976184320588
100
AcDbArc
 50
266.1072494805
 51
296.5883536388
  0
ARC
  5
2E4
330
1F
100
AcDbEntity
  8
OBJECT
  6
Continuous
370
    25
100
AcDbCircle
 10
63.7076118429
 20
22.8539702497
 30
0.0
 40
0.5232484323108213
100
AcDbArc
 50
280.6437983617
 51
319.0964490804
  0
ARC
  5
2E5
330
1F
100
AcDbEntity
  8
OBJECT
  6
Continuous
370
    25
100
AcDbCircle
 10
62.7015386526
 20
24.5967237991
 30
0.0
 40
0.524025492520672
100
AcDbArc
 50
100.1592585591
 51
140.1040076565
  0
LWPOLYLINE
  5
2E6
330
1F
100
AcDbEntity
  8
OBJECT
  6
Continuous
370
    25
100
AcDbPolyline
 90
       30
 70
   128
 43
0.0
 10
62.6346369768
 20
24.2627887379
 10
62.6518450568
 20
24.2861788309
 10
62.6955493883
 20
24.3294447824
 10
62.7467698162
 20
24.3610338823
 10
62.8045923107
 20
24.3803824222
 10
62.867985028
 20
24.387145127
 10
62.9358167236
 20
24.3812013161
 10
63.0068769393
 20
24.362657057
 10
63.0798976038
 20
24.3318432724
 10
63.1535756616
 20
24.2893098349
 10
63.2265963261
 20
24.2358157549
 10
63.2976565418
 20
24.1723156354
 10
63.3654882374
 20
24.0999426375
 10
63.4288809547
 20
24.0199882592
 10
63.4867034492
 20
23.9338792882
 10
63.5379238771
 20
23.8431523411
 10
63.5816282086
 20
23.7494264424
 10
63.617036539
 20
23.6543741331
 10
63.6435170057
 20
23.5596916238
 10
63.6605970641
 20
23.4670685262
 10
63.6679719203
 20
23.3781577016
 10
63.6655099696
 20
23.2945457659
 10
63.6532551458
 20
23.2177247759
 10
63.6314261365
 20
23.149065604
 10
63.6004124807
 20
23.0897934749
 10
63.5607676179
 20
23.040966101
 10
63.5131990118
 20
23.0034548081
 10
63.458555525
 20
22.977928986
 10
63.3978122721
 20
22.9648441435
 10
63.3845760262
 20
22.9637154444
  0
LWPOLYLINE
  5
2E7
330
1F
100
AcDbEntity
  8
OBJECT
  6
Continuous
370
    25
100
AcDbPolyline
 90
       35
 70
   128
 43
0.0
 10
64.2090276867
 20
22.5390192335
 10
64.2625565428
 20
22.5745834221
 10
64.3260719961
 20
22.631406544
 10
64.3816083828
 20
22.6993812927
 10
64.4286632794
 20
22.777892718
 10
64.4668109924
 20
22.8662305471
 10
64.4957064092
 20
22.9635956104
 10
64.5150881203
 20
23.0691070711
 10
64.5247807844
 20
23.1818103939
 10
64.5246967143
 20
23.3006859808
 10
64.5148366707
 20
23.4246583948
 10
64.4952898549
 20
23.5526060892
 10
64.4662331018
 20
23.6833715539
 10
64.4279292806
 20
23.8157717874
 10
64.3807249159
 20
23.9486089985
 10
64.3250470538
 20
24.0806814431
 10
64.2613993974
 20
24.2107942956
 10
64.190357751
 20
24.3377704582
 10
64.1125648099
 20
24.4604612102
 10
64.0287243472
 20
24.5777565998
 10
63.9395948458
 20
24.6885954856
 10
63.8459826378
 20
24.7919751366
 10
63.7487346086
 20
24.8869603035
 10
63.6487305364
 20
24.9726916799
 10
63.5468751324
 20
25.048393676
 10
63.4440898562
 20
25.1133814351
 10
63.3413045801
 20
25.1670670298
 10
63.2394491761
 20
25.20896478
 10
63.1394451039
 20
25.2386956477
 10
63.0421970747
 20
25.2559906653
 10
62.9485848666
 20
25.2606933692
 10
62.8594553653
 20
25.2527612151
 10
62.7756149026
 20
25.2322659634
 10
62.6978219615
 20
25.1993930293
 10
62.6791520258
 20
25.1891287524
  0
ARC
  5
2E8
330
1F
100
AcDbEntity
  8
OBJECT
  6
Continuous
370
    25
100
AcDbCircle
 10
62.8906459678
 20
24.1214738273
 30
0.0
 40
0.2804920921328812
100
AcDbArc
 50
123.0730200187
 51
146.7898595404
  0
ARC
  5
2E9
330
1F
100
AcDbEntity
  8
OBJECT
  6
Continuous
370
    25
100
AcDbCircle
 10
63.3895044433
 20
23.2587624332
 30
0.0
 40
0.2832085669620888
100
AcDbArc
 50
273.3201354124
 51
296.8062319574
  0
ARC
  5
2EA
330
1F
100
AcDbEntity
  8
OBJECT
  6
Continuous
370
    25
100
AcDbCircle
 10
63.3969516711
 20
47.0191968986
 30
0.0
 40
0.52324843231075
100
AcDbArc
 50
280.6437983617
 51
319.0964490804
  0
ARC
  5
2EB
330
1F
100
AcDbEntity
  8
OBJECT
  6
Continuous
370
    25
100
AcDbCircle
 10
62.3908784808
 20
48.7619504481
 30
0.0
 40
0.524025492520971
100
AcDbArc
 50
100.1592585591
 51
140.1040076565
  0
LWPOLYLINE
  5
2EC
330
1F
100
AcDbEntity
  8
OBJECT
  6
Continuous
370
    25
100
AcDbPolyline
 90
       29
 70
   128
 43
0.0
 10
62.3078927568
 20
48.4012175112
 10
62.341184885
 20
48.4514054798
 10
62.3848892165
 20
48.4946714314
 10
62.4361096444
 20
48.5262605312
 10
62.4939321389
 20
48.5456090711
 10
62.5573248563
 20
48.552371776
 10
62.6251565519
 20
48.5464279651
 10
62.6962167675
 20
48.527883706
 10
62.769237432
 20
48.4970699213
 10
62.8429154898
 20
48.4545364839
 10
62.9159361543
 20
48.4010424038
 10
62.98699637
 20
48.3375422843
 10
63.0548280656
 20
48.2651692865
 10
63.1182207829
 20
48.1852149082
 10
63.1760432774
 20
48.0991059371
 10
63.2272637053
 20
48.00837899
 10
63.2709680368
 20
47.9146530914
 10
63.3063763672
 20
47.8196007821
 10
63.3328568339
 20
47.7249182728
 10
63.3499368923
 20
47.6322951752
 10
63.3573117485
 20
47.5433843506
 10
63.3548497979
 20
47.4597724148
 10
63.3425949741
 20
47.3829514248
 10
63.3207659647
 20
47.314292253
 10
63.2897523089
 20
47.2550201238
 10
63.2501074462
 20
47.20619275
 10
63.20253884
 20
47.168681457
 10
63.1478953532
 20
47.1431556349
 10
63.1475791026
 20
47.1430500277
  0
LWPOLYLINE
  5
2ED
330
1F
100
AcDbEntity
  8
OBJECT
  6
Continuous
370
    25
100
AcDbPolyline
 90
       10
 70
   128
 43
0.0
 10
63.1334296845
 20
49.2786080841
 10
63.0305910821
 20
49.3323185847
 10
62.928683802
 20
49.3742287531
 10
62.8286307323
 20
49.4039590443
 10
62.7313379691
 20
49.4212402161
 10
62.6376866108
 20
49.4259157676
 10
62.5485247785
 20
49.4179433562
 10
62.4646599356
 20
49.3973951813
 10
62.3868515752
 20
49.3644573305
 10
62.368491854
 20
49.3543554013
  0
LWPOLYLINE
  5
2EE
330
1F
100
AcDbEntity
  8
OBJECT
  6
Continuous
370
    25
100
AcDbPolyline
 90
       26
 70
   128
 43
0.0
 10
63.8983675149
 20
46.7042458825
 10
63.9510550273
 20
46.7391731899
 10
64.0146977191
 20
46.7958860204
 10
64.0703595111
 20
46.8637688448
 10
64.1175363215
 20
46.9422069056
 10
64.1558009098
 20
47.0304898557
 10
64.184806746
 20
47.1278181908
 10
64.2042911487
 20
47.2333104907
 10
64.2140776641
 20
47.3460114006
 10
64.2140776641
 20
47.4649002837
 10
64.2042911487
 20
47.5889004639
 10
64.184806746
 20
47.7168889762
 10
64.1558009098
 20
47.847706737
 10
64.1175363215
 20
47.9801690403
 10
64.0703595111
 20
48.113076287
 10
64.0146977191
 20
48.2452248485
 10
63.9510550273
 20
48.3754179669
 10
63.8800077938
 20
48.5024765932
 10
63.8021994333
 20
48.6252500649
 10
63.7183345904
 20
48.7426265263
 10
63.6291727581
 20
48.853542998
 10
63.5355213998
 20
48.9569950033
 10
63.4382286366
 20
49.0520456648
 10
63.338175567
 20
49.137834189
 10
63.2362682869
 20
49.2135836618
 10
63.1334296845
 20
49.2786080841
  0
ARC
  5
2EF
330
1F
100
AcDbEntity
  8
OBJECT
  6
Continuous
370
    25
100
AcDbCircle
 10
62.5831406487
 20
48.2828098819
 30
0.0
 40
0.2854744171266984
100
AcDbArc
 50
123.1774992041
 51
151.3967622383
  0
LWPOLYLINE
  5
2F0
330
1F
100
AcDbEntity
  8
OBJECT
  6
Continuous
370
    25
100
AcDbPolyline
 90
        3
 70
   128
 43
0.0
 10
63.2065641482
 20
47.171215022
 10
63.1692257576
 20
47.1554694152
 10
63.1616437447
 20
47.1530551433
  0
LWPOLYLINE
  5
2F1
330
1F
100
AcDbEntity
  8
OBJECT
  6
Continuous
370
    25
100
AcDbPolyline
 90
       24
 70
   128
 43
0.0
 10
83.9756516089
 20
12.62527256
 10
84.0784902113
 20
12.5602481377
 10
84.1803974914
 20
12.484498665
 10
84.2804505611
 20
12.3987101408
 10
84.3777433242
 20
12.3036594793
 10
84.4713946826
 20
12.200207474
 10
84.5605565149
 20
12.0892910022
 10
84.6444213577
 20
11.9719145409
 10
84.7222297182
 20
11.8491410692
 10
84.7932769517
 20
11.7220824429
 10
84.8569196435
 20
11.5918893244
 10
84.9125814355
 20
11.459740763
 10
84.9597582459
 20
11.3268335163
 10
84.9980228342
 20
11.194371213
 10
85.0270286704
 20
11.0635534522
 10
85.0465130731
 20
10.9355649398
 10
85.0562995885
 20
10.8115647597
 10
85.0562995885
 20
10.6926758766
 10
85.0465130731
 20
10.5799749666
 10
85.0270286704
 20
10.4744826668
 10
84.9980228342
 20
10.3771543316
 10
84.9597582459
 20
10.2888713816
 10
84.9125814355
 20
10.2104333208
 10
84.8743514501
 20
10.1616205924
  0
ARC
  5
2F2
330
1F
100
AcDbEntity
  8
OBJECT
  6
Continuous
370
    25
100
AcDbCircle
 10
83.4877120466
 20
11.8703374429
 30
0.0
 40
0.8988949035373947
100
AcDbArc
 50
57.1240758271
 51
96.8583626837
  0
LWPOLYLINE
  5
2F3
330
1F
100
AcDbEntity
  8
OBJECT
  6
Continuous
370
    25
100
AcDbPolyline
 90
       24
 70
   128
 43
0.0
 10
63.2043899115
 20
24.9750056025
 10
63.3072285139
 20
24.9099811801
 10
63.409135794
 20
24.8342317074
 10
63.5091888637
 20
24.7484431832
 10
63.6064816269
 20
24.6533925217
 10
63.7001329852
 20
24.5499405164
 10
63.7892948175
 20
24.4390240447
 10
63.8731596604
 20
24.3216475833
 10
63.9509680209
 20
24.1988741116
 10
64.0220152544
 20
24.0718154853
 10
64.0856579462
 20
23.9416223669
 10
64.1413197382
 20
23.8094738054
 10
64.1884965486
 20
23.6765665587
 10
64.2267611369
 20
23.5441042554
 10
64.255766973
 20
23.4132864946
 10
64.2752513757
 20
23.2852979822
 10
64.2850378912
 20
23.1612978021
 10
64.2850378912
 20
23.042408919
 10
64.2752513757
 20
22.9297080091
 10
64.255766973
 20
22.8242157092
 10
64.2267611369
 20
22.726887374
 10
64.1884965486
 20
22.638604424
 10
64.1413197382
 20
22.5601663632
 10
64.1030897527
 20
22.5113536349
  0
ARC
  5
2F4
330
1F
100
AcDbEntity
  8
OBJECT
  6
Continuous
370
    25
100
AcDbCircle
 10
62.7164503493
 20
24.2200704853
 30
0.0
 40
0.8988949035373505
100
AcDbArc
 50
57.1240758271
 51
96.8583626837
  0
LWPOLYLINE
  5
2F5
330
1F
100
AcDbEntity
  8
OBJECT
  6
Continuous
370
    25
100
AcDbPolyline
 90
       24
 70
   128
 43
0.0
 10
62.8937297398
 20
49.1402322514
 10
62.9965683422
 20
49.0752078291
 10
63.0984756223
 20
48.9994583563
 10
63.1985286919
 20
48.9136698321
 10
63.2958214551
 20
48.8186191706
 10
63.3894728134
 20
48.7151671653
 10
63.4786346457
 20
48.6042506936
 10
63.5624994886
 20
48.4868742322
 10
63.6403078491
 20
48.3641007606
 10
63.7113550826
 20
48.2370421342
 10
63.7749977744
 20
48.1068490158
 10
63.8306595664
 20
47.9747004543
 10
63.8778363768
 20
47.8417932076
 10
63.9161009651
 20
47.7093309043
 10
63.9451068013
 20
47.5785131436
 10
63.964591204
 20
47.4505246312
 10
63.9743777194
 20
47.326524451
 10
63.9743777194
 20
47.2076355679
 10
63.964591204
 20
47.094934658
 10
63.9451068013
 20
46.9894423582
 10
63.9161009651
 20
46.892114023
 10
63.8778363768
 20
46.803831073
 10
63.8306595664
 20
46.7253930121
 10
63.7924295809
 20
46.6765802838
  0
ARC
  5
2F6
330
1F
100
AcDbEntity
  8
OBJECT
  6
Continuous
370
    25
100
AcDbCircle
 10
62.4057901775
 20
48.3852971342
 30
0.0
 40
0.8988949035373185
100
AcDbArc
 50
57.1240758271
 51
96.8583626837
  0
INSERT
  5
2FC
330
1F
100
AcDbEntity
  8
NOTES
100
AcDbBlockReference
  2
SW_NOTE_0_2
 10
75.4506245783
 20
10.3939639803
 30
0.0
  0
ENDSEC
  0
SECTION
  2
OBJECTS
  0
DICTIONARY
  5
C
330
0
100
AcDbDictionary
281
     1
  3
ACAD_DETAILVIEWSTYLE
350
306
  3
ACAD_GROUP
350
D
  3
ACAD_LAYOUT
350
1A
  3
ACAD_MATERIAL
350
43
  3
ACAD_MLEADERSTYLE
350
6B
  3
ACAD_MLINESTYLE
350
17
  3
ACAD_PLOTSETTINGS
350
19
  3
ACAD_PLOTSTYLENAME
350
E
  3
ACAD_SCALELIST
350
47
  3
ACAD_SECTIONVIEWSTYLE
350
307
  3
ACAD_TABLESTYLE
350
69
  3
ACDB_RECOMPOSE_DATA
350
303
  3
AcDbVariableDictionary
350
2FD
  0
DICTIONARY
  5
306
102
{ACAD_REACTORS
330
C
102
}
330
C
100
AcDbDictionary
281
     1
  0
DICTIONARY
  5
D
102
{ACAD_REACTORS
330
C
102
}
330
C
100
AcDbDictionary
281
     1
  0
DICTIONARY
  5
1A
102
{ACAD_REACTORS
330
C
102
}
330
C
100
AcDbDictionary
281
     1
  3
Layout1
350
1E
  3
Layout2
350
26
  3
Model
350
22
  0
DICTIONARY
  5
43
102
{ACAD_REACTORS
330
C
102
}
330
C
100
AcDbDictionary
281
     1
  3
ByBlock
350
45
  3
ByLayer
350
44
  3
Global
350
46
  0
DICTIONARY
  5
6B
102
{ACAD_REACTORS
330
C
102
}
330
C
100
AcDbDictionary
281
     1
  3
Standard
350
6C
  0
DICTIONARY
  5
17
102
{ACAD_REACTORS
330
C
102
}
330
C
100
AcDbDictionary
281
     1
  3
Standard
350
18
  0
DICTIONARY
  5
19
102
{ACAD_REACTORS
330
C
102
}
330
C
100
AcDbDictionary
281
     1
  0
ACDBDICTIONARYWDFLT
  5
E
102
{ACAD_REACTORS
330
C
102
}
330
C
100
AcDbDictionary
281
     1
  3
Normal
350
F
100
AcDbDictionaryWithDefault
340
F
  0
DICTIONARY
  5
47
102
{ACAD_REACTORS
330
C
102
}
330
C
100
AcDbDictionary
281
     1
  3
A0
350
48
  3
A1
350
49
  3
A2
350
4A
  3
A3
350
4B
  3
A4
350
4C
  3
A5
350
4D
  3
A6
350
4E
  3
A7
350
4F
  3
A8
350
50
  3
A9
350
51
  3
B0
350
52
  3
B1
350
53
  3
B2
350
54
  3
B3
350
55
  3
B4
350
56
  3
B5
350
57
  3
B6
350
58
  3
B7
350
59
  3
B8
350
5A
  3
B9
350
5B
  3
C0
350
5C
  3
C1
350
5D
  3
C2
350
5E
  3
C3
350
5F
  3
C4
350
60
  3
C5
350
61
  3
C6
350
62
  3
C7
350
63
  3
C8
350
64
  3
C9
350
65
  3
D0
350
66
  3
D1
350
67
  3
D2
350
68
  0
DICTIONARY
  5
307
102
{ACAD_REACTORS
330
C
102
}
330
C
100
AcDbDictionary
281
     1
  0
DICTIONARY
  5
69
102
{ACAD_REACTORS
330
C
102
}
330
C
100
AcDbDictionary
281
     1
  3
Standard
350
6A
  0
XRECORD
  5
303
102
{ACAD_REACTORS
330
C
102
}
330
C
100
AcDbXrecord
280
     1
 90
        1
330
6A
  0
DICTIONARY
  5
2FD
102
{ACAD_REACTORS
330
C
102
}
330
C
100
AcDbDictionary
281
     1
  3
CANNOSCALE
350
2FE
  3
CMLEADERSTYLE
350
305
  3
CTABLESTYLE
350
304
  0
LAYOUT
  5
1E
102
{ACAD_REACTORS
330
1A
102
}
330
1A
100
AcDbPlotSettings
  1

  2
none_device
  4

  6

 40
0.0
 41
0.0
 42
0.0
 43
0.0
 44
0.0
 45
0.0
 46
0.0
 47
0.0
 48
0.0
 49
0.0
140
0.0
141
0.0
142
1.0
143
1.0
 70
   688
 72
     0
 73
     0
 74
     5
  7

 75
    16
 76
     0
 77
     2
 78
   300
147
1.0
148
0.0
149
0.0
100
AcDbLayout
  1
Layout1
 70
     1
 71
     1
 10
0.0
 20
0.0
 11
12.0
 21
9.0
 12
0.0
 22
0.0
 32
0.0
 14
1.0000000000E+20
 24
1.0000000000E+20
 34
1.0000000000E+20
 15
-1.0000000000E+20
 25
-1.0000000000E+20
 35
-1.0000000000E+20
146
0.0
 13
0.0
 23
0.0
 33
0.0
 16
1.0
 26
0.0
 36
0.0
 17
0.0
 27
1.0
 37
0.0
 76
     0
330
1B
  0
LAYOUT
  5
26
102
{ACAD_REACTORS
330
1A
102
}
330
1A
100
AcDbPlotSettings
  1

  2
none_device
  4

  6

 40
0.0
 41
0.0
 42
0.0
 43
0.0
 44
0.0
 45
0.0
 46
0.0
 47
0.0
 48
0.0
 49
0.0
140
0.0
141
0.0
142
1.0
143
1.0
 70
   688
 72
     0
 73
     0
 74
     5
  7

 75
    16
 76
     0
 77
     2
 78
   300
147
1.0
148
0.0
149
0.0
100
AcDbLayout
  1
Layout2
 70
     1
 71
     2
 10
0.0
 20
0.0
 11
0.0
 21
0.0
 12
0.0
 22
0.0
 32
0.0
 14
0.0
 24
0.0
 34
0.0
 15
0.0
 25
0.0
 35
0.0
146
0.0
 13
0.0
 23
0.0
 33
0.0
 16
1.0
 26
0.0
 36
0.0
 17
0.0
 27
1.0
 37
0.0
 76
     0
330
23
  0
LAYOUT
  5
22
102
{ACAD_REACTORS
330
1A
102
}
330
1A
100
AcDbPlotSettings
  1

  2
none_device
  4
Letter_(8.50_x_11.00_Inches)
  6

 40
6.35
 41
6.35
 42
6.35000508
 43
6.35000508
 44
215.9
 45
279.4
 46
0.0
 47
0.0
 48
0.0
 49
0.0
140
0.0
141
0.0
142
1.0
143
1.0
 70
  1712
 72
     0
 73
     0
 74
     0
  7

 75
     0
 76
     0
 77
     2
 78
   300
147
1.0
148
0.0
149
0.0
100
AcDbLayout
  1
Model
 70
     1
 71
     0
 10
0.0
 20
0.0
 11
90.0
 21
80.0
 12
0.0
 22
0.0
 32
0.0
 14
0.0
 24
0.0
 34
0.0
 15
90.0
 25
80.0
 35
0.0
146
0.0
 13
0.0
 23
0.0
 33
0.0
 16
1.0
 26
0.0
 36
0.0
 17
0.0
 27
1.0
 37
0.0
 76
     0
330
1F
331
29
  0
MATERIAL
  5
45
102
{ACAD_REACTORS
330
43
102
}
330
43
100
AcDbMaterial
  1
ByBlock
  0
MATERIAL
  5
44
102
{ACAD_REACTORS
330
43
102
}
330
43
100
AcDbMaterial
  1
ByLayer
  0
MATERIAL
  5
46
102
{ACAD_REACTORS
330
43
102
}
330
43
100
AcDbMaterial
  1
Global
  0
MLEADERSTYLE
  5
6C
102
{ACAD_REACTORS
330
6B
102
}
330
6B
100
AcDbMLeaderStyle
170
     2
171
     1
172
     0
 90
        2
 40
0.0
 41
0.0
173
     1
 91
-1056964608
340
14
 92
       -2
290
     1
 42
0.09
291
     1
 43
0.36
  3
Standard
341
0
 44
0.18
300

342
11
174
     1
178
     6
175
     1
176
     0
 93
-1056964608
 45
0.18
292
     0
297
     0
 46
0.18
343
0
 94
-1056964608
 47
1.0
 49
1.0
140
1.0
293
     1
141
0.0
294
     1
177
     0
142
1.0
295
     0
296
     0
143
0.125
1001
ACAD_MLEADERVER
1070
     2
  0
MLINESTYLE
  5
18
102
{ACAD_REACTORS
330
17
102
}
330
17
100
AcDbMlineStyle
  2
Standard
 70
     0
  3

 62
   256
 51
90.0
 52
90.0
 71
     2
 49
0.5
 62
   256
  6
BYLAYER
 49
-0.5
 62
   256
  6
BYLAYER
  0
ACDBPLACEHOLDER
  5
F
102
{ACAD_REACTORS
330
E
102
}
330
E
  0
SCALE
  5
48
102
{ACAD_REACTORS
330
47
102
}
330
47
100
AcDbScale
 70
     0
300
1:1
140
1.0
141
1.0
290
     1
  0
SCALE
  5
49
102
{ACAD_REACTORS
330
47
102
}
330
47
100
AcDbScale
 70
     0
300
1:2
140
1.0
141
2.0
290
     0
  0
SCALE
  5
4A
102
{ACAD_REACTORS
330
47
102
}
330
47
100
AcDbScale
 70
     0
300
1:4
140
1.0
141
4.0
290
     0
  0
SCALE
  5
4B
102
{ACAD_REACTORS
330
47
102
}
330
47
100
AcDbScale
 70
     0
300
1:5
140
1.0
141
5.0
290
     0
  0
SCALE
  5
4C
102
{ACAD_REACTORS
330
47
102
}
330
47
100
AcDbScale
 70
     0
300
1:8
140
1.0
141
8.0
290
     0
  0
SCALE
  5
4D
102
{ACAD_REACTORS
330
47
102
}
330
47
100
AcDbScale
 70
     0
300
1:10
140
1.0
141
10.0
290
     0
  0
SCALE
  5
4E
102
{ACAD_REACTORS
330
47
102
}
330
47
100
AcDbScale
 70
     0
300
1:16
140
1.0
141
16.0
290
     0
  0
SCALE
  5
4F
102
{ACAD_REACTORS
330
47
102
}
330
47
100
AcDbScale
 70
     0
300
1:20
140
1.0
141
20.0
290
     0
  0
SCALE
  5
50
102
{ACAD_REACTORS
330
47
102
}
330
47
100
AcDbScale
 70
     0
300
1:30
140
1.0
141
30.0
290
     0
  0
SCALE
  5
51
102
{ACAD_REACTORS
330
47
102
}
330
47
100
AcDbScale
 70
     0
300
1:40
140
1.0
141
40.0
290
     0
  0
SCALE
  5
52
102
{ACAD_REACTORS
330
47
102
}
330
47
100
AcDbScale
 70
     0
300
1:50
140
1.0
141
50.0
290
     0
  0
SCALE
  5
53
102
{ACAD_REACTORS
330
47
102
}
330
47
100
AcDbScale
 70
     0
300
1:100
140
1.0
141
100.0
290
     0
  0
SCALE
  5
54
102
{ACAD_REACTORS
330
47
102
}
330
47
100
AcDbScale
 70
     0
300
2:1
140
2.0
141
1.0
290
     0
  0
SCALE
  5
55
102
{ACAD_REACTORS
330
47
102
}
330
47
100
AcDbScale
 70
     0
300
4:1
140
4.0
141
1.0
290
     0
  0
SCALE
  5
56
102
{ACAD_REACTORS
330
47
102
}
330
47
100
AcDbScale
 70
     0
300
8:1
140
8.0
141
1.0
290
     0
  0
SCALE
  5
57
102
{ACAD_REACTORS
330
47
102
}
330
47
100
AcDbScale
 70
     0
300
10:1
140
10.0
141
1.0
290
     0
  0
SCALE
  5
58
102
{ACAD_REACTORS
330
47
102
}
330
47
100
AcDbScale
 70
     0
300
100:1
140
100.0
141
1.0
290
     0
  0
SCALE
  5
59
102
{ACAD_REACTORS
330
47
102
}
330
47
100
AcDbScale
 70
     0
300
1/128" = 1'-0"
140
0.0078125
141
12.0
290
     0
  0
SCALE
  5
5A
102
{ACAD_REACTORS
330
47
102
}
330
47
100
AcDbScale
 70
     0
300
1/64" = 1'-0"
140
0.015625
141
12.0
290
     0
  0
SCALE
  5
5B
102
{ACAD_REACTORS
330
47
102
}
330
47
100
AcDbScale
 70
     0
300
1/32" = 1'-0"
140
0.03125
141
12.0
290
     0
  0
SCALE
  5
5C
102
{ACAD_REACTORS
330
47
102
}
330
47
100
AcDbScale
 70
     0
300
1/16" = 1'-0"
140
0.0625
141
12.0
290
     0
  0
SCALE
  5
5D
102
{ACAD_REACTORS
330
47
102
}
330
47
100
AcDbScale
 70
     0
300
3/32" = 1'-0"
140
0.09375
141
12.0
290
     0
  0
SCALE
  5
5E
102
{ACAD_REACTORS
330
47
102
}
330
47
100
AcDbScale
 70
     0
300
1/8" = 1'-0"
140
0.125
141
12.0
290
     0
  0
SCALE
  5
5F
102
{ACAD_REACTORS
330
47
102
}
330
47
100
AcDbScale
 70
     0
300
3/16" = 1'-0"
140
0.1875
141
12.0
290
     0
  0
SCALE
  5
60
102
{ACAD_REACTORS
330
47
102
}
330
47
100
AcDbScale
 70
     0
300
1/4" = 1'-0"
140
0.25
141
12.0
290
     0
  0
SCALE
  5
61
102
{ACAD_REACTORS
330
47
102
}
330
47
100
AcDbScale
 70
     0
300
3/8" = 1'-0"
140
0.375
141
12.0
290
     0
  0
SCALE
  5
62
102
{ACAD_REACTORS
330
47
102
}
330
47
100
AcDbScale
 70
     0
300
1/2" = 1'-0"
140
0.5
141
12.0
290
     0
  0
SCALE
  5
63
102
{ACAD_REACTORS
330
47
102
}
330
47
100
AcDbScale
 70
     0
300
3/4" = 1'-0"
140
0.75
141
12.0
290
     0
  0
SCALE
  5
64
102
{ACAD_REACTORS
330
47
102
}
330
47
100
AcDbScale
 70
     0
300
1" = 1'-0"
140
1.0
141
12.0
290
     0
  0
SCALE
  5
65
102
{ACAD_REACTORS
330
47
102
}
330
47
100
AcDbScale
 70
     0
300
1-1/2" = 1'-0"
140
1.5
141
12.0
290
     0
  0
SCALE
  5
66
102
{ACAD_REACTORS
330
47
102
}
330
47
100
AcDbScale
 70
     0
300
3" = 1'-0"
140
3.0
141
12.0
290
     0
  0
SCALE
  5
67
102
{ACAD_REACTORS
330
47
102
}
330
47
100
AcDbScale
 70
     0
300
6" = 1'-0"
140
6.0
141
12.0
290
     0
  0
SCALE
  5
68
102
{ACAD_REACTORS
330
47
102
}
330
47
100
AcDbScale
 70
     0
300
1'-0" = 1'-0"
140
12.0
141
12.0
290
     0
  0
TABLESTYLE
  5
6A
102
{ACAD_REACTORS
330
69
102
}
102
{ACAD_XDICTIONARY
360
2FF
102
}
330
69
100
AcDbTableStyle
  3
Standard
 70
     0
 71
     0
 40
0.06
 41
0.06
280
     0
281
     0
  7
Standard
140
0.18
170
     2
 62
     0
 63
   257
283
     0
274
    -2
284
     1
 64
     0
275
    -2
285
     1
 65
     0
276
    -2
286
     1
 66
     0
277
    -2
287
     1
 67
     0
278
    -2
288
     1
 68
     0
279
    -2
289
     1
 69
     0
  7
Standard
140
0.25
170
     5
 62
     0
 63
   257
283
     0
274
    -2
284
     1
 64
     0
275
    -2
285
     1
 65
     0
276
    -2
286
     1
 66
     0
277
    -2
287
     1
 67
     0
278
    -2
288
     1
 68
     0
279
    -2
289
     1
 69
     0
  7
Standard
140
0.18
170
     5
 62
     0
 63
   257
283
     0
274
    -2
284
     1
 64
     0
275
    -2
285
     1
 65
     0
276
    -2
286
     1
 66
     0
277
    -2
287
     1
 67
     0
278
    -2
288
     1
 68
     0
279
    -2
289
     1
 69
     0
  0
DICTIONARYVAR
  5
2FE
102
{ACAD_REACTORS
330
2FD
102
}
330
2FD
100
DictionaryVariables
280
     0
  1
1:1
  0
DICTIONARYVAR
  5
305
102
{ACAD_REACTORS
330
2FD
102
}
330
2FD
100
DictionaryVariables
280
     0
  1
Standard
  0
DICTIONARYVAR
  5
304
102
{ACAD_REACTORS
330
2FD
102
}
330
2FD
100
DictionaryVariables
280
     0
  1
Standard
  0
DICTIONARY
  5
2FF
330
6A
100
AcDbDictionary
280
     1
281
     1
  3
ACAD_ROUNDTRIP_2008_TABLESTYLE_CELLSTYLEMAP
360
301
  3
ACAD_XREC_ROUNDTRIP
360
300
  0
CELLSTYLEMAP
  5
301
102
{ACAD_REACTORS
330
2FF
102
}
330
2FF
100
AcDbCellStyleMap
 90
        3
300
CELLSTYLE
  1
TABLEFORMAT_BEGIN
 90
        5
170
     1
 91
        0
 92
    32768
 62
   257
 93
        1
300
CONTENTFORMAT
  1
CONTENTFORMAT_BEGIN
 90
        0
 91
        0
 92
        4
 93
        0
300

 40
0.0
140
1.0
 94
        5
 62
     0
340
11
144
0.25
309
CONTENTFORMAT_END
171
     1
301
MARGIN
  1
CELLMARGIN_BEGIN
 40
0.06
 40
0.06
 40
0.06
 40
0.06
 40
0.06
 40
0.06
309
CELLMARGIN_END
 94
        6
 95
        1
302
GRIDFORMAT
  1
GRIDFORMAT_BEGIN
 90
        0
 91
        1
 62
     0
 92
       -2
340
14
 93
        0
 40
0.045
309
GRIDFORMAT_END
 95
        2
302
GRIDFORMAT
  1
GRIDFORMAT_BEGIN
 90
        0
 91
        1
 62
     0
 92
       -2
340
14
 93
        0
 40
0.045
309
GRIDFORMAT_END
 95
        4
302
GRIDFORMAT
  1
GRIDFORMAT_BEGIN
 90
        0
 91
        1
 62
     0
 92
       -2
340
14
 93
        0
 40
0.045
309
GRIDFORMAT_END
 95
        8
302
GRIDFORMAT
  1
GRIDFORMAT_BEGIN
 90
        0
 91
        1
 62
     0
 92
       -2
340
14
 93
        0
 40
0.045
309
GRIDFORMAT_END
 95
       16
302
GRIDFORMAT
  1
GRIDFORMAT_BEGIN
 90
        0
 91
        1
 62
     0
 92
       -2
340
14
 93
        0
 40
0.045
309
GRIDFORMAT_END
 95
       32
302
GRIDFORMAT
  1
GRIDFORMAT_BEGIN
 90
        0
 91
        1
 62
     0
 92
       -2
340
14
 93
        0
 40
0.045
309
GRIDFORMAT_END
309
TABLEFORMAT_END
  1
CELLSTYLE_BEGIN
 90
        1
 91
        1
300
_TITLE
309
CELLSTYLE_END
300
CELLSTYLE
  1
TABLEFORMAT_BEGIN
 90
        5
170
     1
 91
        0
 92
        0
 62
   257
 93
        1
300
CONTENTFORMAT
  1
CONTENTFORMAT_BEGIN
 90
        0
 91
        0
 92
        4
 93
        0
300

 40
0.0
140
1.0
 94
        5
 62
     0
340
11
144
0.18
309
CONTENTFORMAT_END
171
     1
301
MARGIN
  1
CELLMARGIN_BEGIN
 40
0.06
 40
0.06
 40
0.06
 40
0.06
 40
0.06
 40
0.06
309
CELLMARGIN_END
 94
        6
 95
        1
302
GRIDFORMAT
  1
GRIDFORMAT_BEGIN
 90
        0
 91
        1
 62
     0
 92
       -2
340
14
 93
        0
 40
0.045
309
GRIDFORMAT_END
 95
        2
302
GRIDFORMAT
  1
GRIDFORMAT_BEGIN
 90
        0
 91
        1
 62
     0
 92
       -2
340
14
 93
        0
 40
0.045
309
GRIDFORMAT_END
 95
        4
302
GRIDFORMAT
  1
GRIDFORMAT_BEGIN
 90
        0
 91
        1
 62
     0
 92
       -2
340
14
 93
        0
 40
0.045
309
GRIDFORMAT_END
 95
        8
302
GRIDFORMAT
  1
GRIDFORMAT_BEGIN
 90
        0
 91
        1
 62
     0
 92
       -2
340
14
 93
        0
 40
0.045
309
GRIDFORMAT_END
 95
       16
302
GRIDFORMAT
  1
GRIDFORMAT_BEGIN
 90
        0
 91
        1
 62
     0
 92
       -2
340
14
 93
        0
 40
0.045
309
GRIDFORMAT_END
 95
       32
302
GRIDFORMAT
  1
GRIDFORMAT_BEGIN
 90
        0
 91
        1
 62
     0
 92
       -2
340
14
 93
        0
 40
0.045
309
GRIDFORMAT_END
309
TABLEFORMAT_END
  1
CELLSTYLE_BEGIN
 90
        2
 91
        1
300
_HEADER
309
CELLSTYLE_END
300
CELLSTYLE
  1
TABLEFORMAT_BEGIN
 90
        5
170
     1
 91
        0
 92
        0
 62
   257
 93
        1
300
CONTENTFORMAT
  1
CONTENTFORMAT_BEGIN
 90
        0
 91
        0
 92
        4
 93
        0
300

 40
0.0
140
1.0
 94
        2
 62
     0
340
11
144
0.18
309
CONTENTFORMAT_END
171
     1
301
MARGIN
  1
CELLMARGIN_BEGIN
 40
0.06
 40
0.06
 40
0.06
 40
0.06
 40
0.06
 40
0.06
309
CELLMARGIN_END
 94
        6
 95
        1
302
GRIDFORMAT
  1
GRIDFORMAT_BEGIN
 90
        0
 91
        1
 62
     0
 92
       -2
340
14
 93
        0
 40
0.045
309
GRIDFORMAT_END
 95
        2
302
GRIDFORMAT
  1
GRIDFORMAT_BEGIN
 90
        0
 91
        1
 62
     0
 92
       -2
340
14
 93
        0
 40
0.045
309
GRIDFORMAT_END
 95
        4
302
GRIDFORMAT
  1
GRIDFORMAT_BEGIN
 90
        0
 91
        1
 62
     0
 92
       -2
340
14
 93
        0
 40
0.045
309
GRIDFORMAT_END
 95
        8
302
GRIDFORMAT
  1
GRIDFORMAT_BEGIN
 90
        0
 91
        1
 62
     0
 92
       -2
340
14
 93
        0
 40
0.045
309
GRIDFORMAT_END
 95
       16
302
GRIDFORMAT
  1
GRIDFORMAT_BEGIN
 90
        0
 91
        1
 62
     0
 92
       -2
340
14
 93
        0
 40
0.045
309
GRIDFORMAT_END
 95
       32
302
GRIDFORMAT
  1
GRIDFORMAT_BEGIN
 90
        0
 91
        1
 62
     0
 92
       -2
340
14
 93
        0
 40
0.045
309
GRIDFORMAT_END
309
TABLEFORMAT_END
  1
CELLSTYLE_BEGIN
 90
        3
 91
        2
300
_DATA
309
CELLSTYLE_END
  0
XRECORD
  5
300
102
{ACAD_REACTORS
330
2FF
102
}
330
2FF
100
AcDbXrecord
280
     1
102
ACAD_ROUNDTRIP_PRE2007_TABLESTYLE
 90
        4
 91
        0
  1

 92
        4
 93
        0
  2

 94
        4
 95
        0
  3

  0
ENDSEC
  0
EOF
