  0
SECTION
  2
HEADER
  9
$ACADVER
  1
AC1018
  9
$ACADMAINTVER
 70
     0
  9
$DWGCODEPAGE
  3
ANSI_1252
  9
$LASTSAVEDBY
  1
carl
  9
$INSBASE
 10
0.0
 20
0.0
 30
0.0
  9
$EXTMIN
 10
0.0
 20
0.0
 30
0.0
  9
$EXTMAX
 10
90.0
 20
120.0
 30
0.0
  9
$LIMMIN
 10
0.0
 20
0.0
  9
$LIMMAX
 10
90.0
 20
120.0
  9
$ORTHOMODE
 70
     0
  9
$REGENMODE
 70
     1
  9
$FILLMODE
 70
     1
  9
$QTEXTMODE
 70
     0
  9
$MIRRTEXT
 70
     1
  9
$LTSCALE
 40
1.0
  9
$ATTMODE
 70
     1
  9
$TEXTSIZE
 40
0.5
  9
$TRACEWID
 40
0.05
  9
$TEXTSTYLE
  7
Standard
  9
$CLAYER
  8
0
  9
$CELTYPE
  6
ByLayer
  9
$CECOLOR
 62
   256
  9
$CELTSCALE
 40
1.0
  9
$DISPSILH
 70
     0
  9
$DIMSCALE
 40
1.0
  9
$DIMASZ
 40
0.3
  9
$DIMEXO
 40
0.1666666667
  9
$DIMDLI
 40
0.38
  9
$DIMRND
 40
0.0
  9
$DIMDLE
 40
0.0
  9
$DIMEXE
 40
0.375
  9
$DIMTP
 40
0.0
  9
$DIMTM
 40
0.0
  9
$DIMTXT
 40
0.5
  9
$DIMCEN
 40
0.09
  9
$DIMTSZ
 40
0.0
  9
$DIMTOL
 70
     0
  9
$DIMLIM
 70
     0
  9
$DIMTIH
 70
     1
  9
$DIMTOH
 70
     1
  9
$DIMSE1
 70
     0
  9
$DIMSE2
 70
     0
  9
$DIMTAD
 70
     0
  9
$DIMZIN
 70
     1
  9
$DIMBLK
  1

  9
$DIMASO
 70
     1
  9
$DIMSHO
 70
     1
  9
$DIMPOST
  1

  9
$DIMAPOST
  1

  9
$DIMALT
 70
     0
  9
$DIMALTD
 70
     2
  9
$DIMALTF
 40
25.4
  9
$DIMLFAC
 40
1.0
  9
$DIMTOFL
 70
     0
  9
$DIMTVP
 40
0.0
  9
$DIMTIX
 70
     0
  9
$DIMSOXD
 70
     0
  9
$DIMSAH
 70
     0
  9
$DIMBLK1
  1

  9
$DIMBLK2
  1

  9
$DIMSTYLE
  2
Standard
  9
$DIMCLRD
 70
     0
  9
$DIMCLRE
 70
     0
  9
$DIMCLRT
 70
     0
  9
$DIMTFAC
 40
1.0
  9
$DIMGAP
 40
0.125
  9
$DIMJUST
 70
     0
  9
$DIMSD1
 70
     0
  9
$DIMSD2
 70
     0
  9
$DIMTOLJ
 70
     1
  9
$DIMTZIN
 70
     1
  9
$DIMALTZ
 70
     0
  9
$DIMALTTZ
 70
     0
  9
$DIMUPT
 70
     0
  9
$DIMDEC
 70
     2
  9
$DIMTDEC
 70
     2
  9
$DIMALTU
 70
     2
  9
$DIMALTTD
 70
     2
  9
$DIMTXSTY
  7
Standard
  9
$DIMAUNIT
 70
     0
  9
$DIMADEC
 70
     2
  9
$DIMALTRND
 40
0.0
  9
$DIMAZIN
 70
     0
  9
$DIMDSEP
 70
    46
  9
$DIMATFIT
 70
     3
  9
$DIMFRAC
 70
     0
  9
$DIMLDRBLK
  1

  9
$DIMLUNIT
 70
     2
  9
$DIMLWD
 70
    -2
  9
$DIMLWE
 70
    -2
  9
$DIMTMOVE
 70
     0
  9
$LUNITS
 70
     2
  9
$LUPREC
 70
     4
  9
$SKETCHINC
 40
0.1
  9
$FILLETRAD
 40
0.5
  9
$AUNITS
 70
     0
  9
$AUPREC
 70
     2
  9
$MENU
  1
.
  9
$ELEVATION
 40
0.0
  9
$PELEVATION
 40
0.0
  9
$THICKNESS
 40
0.0
  9
$LIMCHECK
 70
     0
  9
$CHAMFERA
 40
0.0
  9
$CHAMFERB
 40
0.0
  9
$CHAMFERC
 40
0.0
  9
$CHAMFERD
 40
0.0
  9
$SKPOLY
 70
     0
  9
$TDCREATE
 40
2460713.328354479
  9
$TDUCREATE
 40
2460713.536687812
  9
$TDUPDATE
 40
2460713.328361204
  9
$TDUUPDATE
 40
2460713.536694537
  9
$TDINDWG
 40
0.0000000116
  9
$TDUSRTIMER
 40
0.0000000116
  9
$USRTIMER
 70
     1
  9
$ANGBASE
 50
0.0
  9
$ANGDIR
 70
     0
  9
$PDMODE
 70
     0
  9
$PDSIZE
 40
-1.0
  9
$PLINEWID
 40
0.0
  9
$SPLFRAME
 70
     0
  9
$SPLINETYPE
 70
     6
  9
$SPLINESEGS
 70
     8
  9
$HANDSEED
  5
31B
  9
$SURFTAB1
 70
     6
  9
$SURFTAB2
 70
     6
  9
$SURFTYPE
 70
     6
  9
$SURFU
 70
     6
  9
$SURFV
 70
     6
  9
$UCSBASE
  2

  9
$UCSNAME
  2

  9
$UCSORG
 10
0.0
 20
0.0
 30
0.0
  9
$UCSXDIR
 10
1.0
 20
0.0
 30
0.0
  9
$UCSYDIR
 10
0.0
 20
1.0
 30
0.0
  9
$UCSORTHOREF
  2

  9
$UCSORTHOVIEW
 70
     0
  9
$UCSORGTOP
 10
0.0
 20
0.0
 30
0.0
  9
$UCSORGBOTTOM
 10
0.0
 20
0.0
 30
0.0
  9
$UCSORGLEFT
 10
0.0
 20
0.0
 30
0.0
  9
$UCSORGRIGHT
 10
0.0
 20
0.0
 30
0.0
  9
$UCSORGFRONT
 10
0.0
 20
0.0
 30
0.0
  9
$UCSORGBACK
 10
0.0
 20
0.0
 30
0.0
  9
$PUCSBASE
  2

  9
$PUCSNAME
  2

  9
$PUCSORG
 10
0.0
 20
0.0
 30
0.0
  9
$PUCSXDIR
 10
1.0
 20
0.0
 30
0.0
  9
$PUCSYDIR
 10
0.0
 20
1.0
 30
0.0
  9
$PUCSORTHOREF
  2

  9
$PUCSORTHOVIEW
 70
     0
  9
$PUCSORGTOP
 10
0.0
 20
0.0
 30
0.0
  9
$PUCSORGBOTTOM
 10
0.0
 20
0.0
 30
0.0
  9
$PUCSORGLEFT
 10
0.0
 20
0.0
 30
0.0
  9
$PUCSORGRIGHT
 10
0.0
 20
0.0
 30
0.0
  9
$PUCSORGFRONT
 10
0.0
 20
0.0
 30
0.0
  9
$PUCSORGBACK
 10
0.0
 20
0.0
 30
0.0
  9
$USERI1
 70
     0
  9
$USERI2
 70
     0
  9
$USERI3
 70
     0
  9
$USERI4
 70
     0
  9
$USERI5
 70
     0
  9
$USERR1
 40
0.0
  9
$USERR2
 40
0.0
  9
$USERR3
 40
0.0
  9
$USERR4
 40
0.0
  9
$USERR5
 40
0.0
  9
$WORLDVIEW
 70
     1
  9
$SHADEDGE
 70
     3
  9
$SHADEDIF
 70
    70
  9
$TILEMODE
 70
     1
  9
$MAXACTVP
 70
    64
  9
$PINSBASE
 10
0.0
 20
0.0
 30
0.0
  9
$PLIMCHECK
 70
     0
  9
$PEXTMIN
 10
1.0000000000E+20
 20
1.0000000000E+20
 30
1.0000000000E+20
  9
$PEXTMAX
 10
-1.0000000000E+20
 20
-1.0000000000E+20
 30
-1.0000000000E+20
  9
$PLIMMIN
 10
0.0
 20
0.0
  9
$PLIMMAX
 10
12.0
 20
9.0
  9
$UNITMODE
 70
     0
  9
$VISRETAIN
 70
     1
  9
$PLINEGEN
 70
     0
  9
$PSLTSCALE
 70
     1
  9
$TREEDEPTH
 70
  3020
  9
$CMLSTYLE
  2
Standard
  9
$CMLJUST
 70
     0
  9
$CMLSCALE
 40
1.0
  9
$PROXYGRAPHICS
 70
     1
  9
$MEASUREMENT
 70
     0
  9
$CELWEIGHT
370
    -1
  9
$ENDCAPS
280
     0
  9
$JOINSTYLE
280
     0
  9
$LWDISPLAY
290
     1
  9
$INSUNITS
 70
     1
  9
$HYPERLINKBASE
  1

  9
$STYLESHEET
  1

  9
$XEDIT
290
     1
  9
$CEPSNTYPE
380
     0
  9
$PSTYLEMODE
290
     1
  9
$FINGERPRINTGUID
  2
{0a143ca7-f501-44a6-a586-d807137f217b}
  9
$VERSIONGUID
  2
{FAEB1C32-E019-11D5-929B-00C0DF256EC4}
  9
$EXTNAMES
290
     1
  9
$PSVPSCALE
 40
0.0
  9
$OLESTARTUP
290
     0
  9
$SORTENTS
280
   127
  9
$INDEXCTL
280
     0
  9
$HIDETEXT
280
     1
  9
$XCLIPFRAME
290
     0
  9
$HALOGAP
280
     0
  9
$OBSCOLOR
 70
   257
  9
$OBSLTYPE
280
     0
  9
$INTERSECTIONDISPLAY
280
     0
  9
$INTERSECTIONCOLOR
 70
   257
  9
$DIMASSOC
280
     2
  9
$PROJECTNAME
  1

  0
ENDSEC
  0
SECTION
  2
CLASSES
  0
CLASS
  1
ACDBDICTIONARYWDFLT
  2
AcDbDictionaryWithDefault
  3
ObjectDBX Classes
 90
        0
 91
        3
280
     0
281
     0
  0
CLASS
  1
VISUALSTYLE
  2
AcDbVisualStyle
  3
ObjectDBX Classes
 90
     4095
 91
        3
280
     0
281
     0
  0
CLASS
  1
MATERIAL
  2
AcDbMaterial
  3
ObjectDBX Classes
 90
     1153
 91
        3
280
     0
281
     0
  0
CLASS
  1
SCALE
  2
AcDbScale
  3
ObjectDBX Classes
 90
     1153
 91
        3
280
     0
281
     0
  0
CLASS
  1
TABLESTYLE
  2
AcDbTableStyle
  3
ObjectDBX Classes
 90
     4095
 91
        3
280
     0
281
     0
  0
CLASS
  1
MLEADERSTYLE
  2
AcDbMLeaderStyle
  3
ACDB_MLEADERSTYLE_CLASS
 90
     4095
 91
        3
280
     0
281
     0
  0
CLASS
  1
SUN
  2
AcDbSun
  3
SCENEOE
 90
     1153
 91
        3
280
     0
281
     0
  0
CLASS
  1
DICTIONARYVAR
  2
AcDbDictionaryVar
  3
ObjectDBX Classes
 90
        0
 91
        3
280
     0
281
     0
  0
CLASS
  1
CELLSTYLEMAP
  2
AcDbCellStyleMap
  3
ObjectDBX Classes
 90
     1152
 91
        3
280
     0
281
     0
  0
ENDSEC
  0
SECTION
  2
TABLES
  0
TABLE
  2
VPORT
  5
8
330
0
100
AcDbSymbolTable
 70
     1
  0
VPORT
  5
29
330
8
100
AcDbSymbolTableRecord
100
AcDbViewportTableRecord
  2
*Active
 70
     0
 10
0.0
 20
0.0
 11
1.0
 21
1.0
 12
45.0
 22
60.0
 13
0.0
 23
0.0
 14
0.5
 24
0.5
 15
0.5
 25
0.5
 16
0.0
 26
0.0
 36
1.0
 17
0.0
 27
0.0
 37
0.0
 40
120.0
 41
0.75
 42
50.0
 43
0.0
 44
0.0
 50
0.0
 51
0.0
 71
     0
 72
  2000
 73
     1
 74
     3
 75
     0
 76
     0
 77
     0
 78
     0
281
     0
 65
     1
110
0.0
120
0.0
130
0.0
111
1.0
121
0.0
131
0.0
112
0.0
122
1.0
132
0.0
 79
     0
146
0.0
  0
ENDTAB
  0
TABLE
  2
LTYPE
  5
5
330
0
100
AcDbSymbolTable
 70
     6
  0
LTYPE
  5
14
330
5
100
AcDbSymbolTableRecord
100
AcDbLinetypeTableRecord
  2
ByBlock
 70
     0
  3

 72
    65
 73
     0
 40
0.0
  0
LTYPE
  5
15
330
5
100
AcDbSymbolTableRecord
100
AcDbLinetypeTableRecord
  2
ByLayer
 70
     0
  3

 72
    65
 73
     0
 40
0.0
  0
LTYPE
  5
16
330
5
100
AcDbSymbolTableRecord
100
AcDbLinetypeTableRecord
  2
Continuous
 70
     0
  3
Solid line
 72
    65
 73
     0
 40
0.0
  0
LTYPE
  5
6E
330
5
100
AcDbSymbolTableRecord
100
AcDbLinetypeTableRecord
  2
HIDDEN
 70
     0
  3
Hidden __ __ __ __ __ __ __ __ __ __ __ __ __ __
 72
    65
 73
     2
 40
0.075
 49
0.05
 74
     0
 49
-0.025
 74
     0
  0
LTYPE
  5
6F
330
5
100
AcDbSymbolTableRecord
100
AcDbLinetypeTableRecord
  2
PHANTOM
 70
     0
  3
Phantom ______  __  __  ______  __  __  ______
 72
    65
 73
     6
 40
0.5
 49
0.25
 74
     0
 49
-0.05
 74
     0
 49
0.05
 74
     0
 49
-0.05
 74
     0
 49
0.05
 74
     0
 49
-0.05
 74
     0
  0
LTYPE
  5
70
330
5
100
AcDbSymbolTableRecord
100
AcDbLinetypeTableRecord
  2
CENTER
 70
     0
  3
Center ____ _ ____ _ ____ _ ____ _ ____ _ ____
 72
    65
 73
     4
 40
0.4
 49
0.25
 74
     0
 49
-0.05
 74
     0
 49
0.05
 74
     0
 49
-0.05
 74
     0
  0
LTYPE
  5
71
330
5
100
AcDbSymbolTableRecord
100
AcDbLinetypeTableRecord
  2
CENTERX2
 70
     0
  3
Center (2x) ________  __  ________  __  _____
 72
    65
 73
     4
 40
0.8
 49
0.5
 74
     0
 49
-0.1
 74
     0
 49
0.1
 74
     0
 49
-0.1
 74
     0
  0
LTYPE
  5
72
330
5
100
AcDbSymbolTableRecord
100
AcDbLinetypeTableRecord
  2
DOT2
 70
     0
  3
Dot (.5x) ........................................
 72
    65
 73
     2
 40
0.025
 49
0.0
 74
     0
 49
-0.025
 74
     0
  0
ENDTAB
  0
TABLE
  2
LAYER
  5
2
330
0
100
AcDbSymbolTable
 70
     6
  0
LAYER
  5
10
330
2
100
AcDbSymbolTableRecord
100
AcDbLayerTableRecord
  2
0
 70
     0
 62
     7
  6
Continuous
370
    -3
390
F
  0
LAYER
  5
73
330
2
100
AcDbSymbolTableRecord
100
AcDbLayerTableRecord
  2
FORMAT
 70
     0
 62
     7
  6
Continuous
370
    -3
390
F
  0
LAYER
  5
74
330
2
100
AcDbSymbolTableRecord
100
AcDbLayerTableRecord
  2
NOTES
 70
     0
 62
     1
  6
Continuous
370
    -3
390
F
  0
LAYER
  5
75
330
2
100
AcDbSymbolTableRecord
100
AcDbLayerTableRecord
  2
OBJECT
 70
     0
 62
     7
  6
Continuous
370
    25
390
F
  0
LAYER
  5
76
330
2
100
AcDbSymbolTableRecord
100
AcDbLayerTableRecord
  2
DIMS
 70
     0
 62
     5
  6
Continuous
370
    -3
390
F
  0
LAYER
  5
77
330
2
100
AcDbSymbolTableRecord
100
AcDbLayerTableRecord
  2
TITLE
 70
     0
 62
     8
  6
Continuous
370
    -3
390
F
  0
ENDTAB
  0
TABLE
  2
STYLE
  5
3
330
0
100
AcDbSymbolTable
 70
     5
  0
STYLE
  5
11
330
3
100
AcDbSymbolTableRecord
100
AcDbTextStyleTableRecord
  2
Standard
 70
     0
 40
0.0
 41
1.0
 50
0.0
 71
     0
 42
0.5
  3
txt
  4

  0
STYLE
  5
15B
330
3
100
AcDbSymbolTableRecord
100
AcDbTextStyleTableRecord
  2
SLDTEXTSTYLE0
 70
     0
 40
0.0
 41
0.605
 50
0.0
 71
     0
 42
0.5
  3
TXT
  4

  0
STYLE
  5
15F
330
3
100
AcDbSymbolTableRecord
100
AcDbTextStyleTableRecord
  2
SLDTEXTSTYLE1
 70
     0
 40
0.0
 41
0.75
 50
0.0
 71
     0
 42
0.5
  3
TXT
  4

  0
STYLE
  5
162
330
3
100
AcDbSymbolTableRecord
100
AcDbTextStyleTableRecord
  2
SLDTEXTSTYLE2
 70
     0
 40
0.0
 41
0.6607142857
 50
0.0
 71
     0
 42
0.5
  3
TXT
  4

  0
STYLE
  5
164
330
3
100
AcDbSymbolTableRecord
100
AcDbTextStyleTableRecord
  2
SLDTEXTSTYLE3
 70
     0
 40
0.0
 41
0.6842105263
 50
0.0
 71
     0
 42
0.5
  3
TXT
  4

  0
ENDTAB
  0
TABLE
  2
VIEW
  5
6
330
0
100
AcDbSymbolTable
 70
     0
  0
ENDTAB
  0
TABLE
  2
UCS
  5
7
330
0
100
AcDbSymbolTable
 70
     0
  0
ENDTAB
  0
TABLE
  2
APPID
  5
9
330
0
100
AcDbSymbolTable
 70
     2
  0
APPID
  5
12
330
9
100
AcDbSymbolTableRecord
100
AcDbRegAppTableRecord
  2
ACAD
 70
     0
  0
APPID
  5
315
330
9
100
AcDbSymbolTableRecord
100
AcDbRegAppTableRecord
  2
ACAD_MLEADERVER
 70
     0
  0
ENDTAB
  0
TABLE
  2
DIMSTYLE
  5
A
330
0
100
AcDbSymbolTable
 70
     7
100
AcDbDimStyleTable
  0
DIMSTYLE
105
27
330
A
100
AcDbSymbolTableRecord
100
AcDbDimStyleTableRecord
  2
Standard
 70
     0
178
     0
340
11
  0
DIMSTYLE
105
257
102
{ACAD_REACTORS
330
256
102
}
330
A
100
AcDbSymbolTableRecord
100
AcDbDimStyleTableRecord
  2
SLDDIMSTYLE0
 70
     0
 41
0.3
 44
0.0
 45
0.000000001
 78
    12
 79
     3
140
0.5
141
0.0
147
0.125
173
     1
178
     0
271
     2
272
     2
276
     2
277
     5
284
    12
340
15F
341
258
343
258
344
258
  0
DIMSTYLE
105
267
102
{ACAD_REACTORS
330
266
330
289
102
}
330
A
100
AcDbSymbolTableRecord
100
AcDbDimStyleTableRecord
  2
SLDDIMSTYLE1
 70
     0
 41
0.3
 44
0.0
 45
0.000000001
 78
    12
 79
     3
140
0.5
147
0.125
173
     1
178
     0
271
     2
272
     2
276
     2
277
     5
284
    12
340
15F
341
258
343
258
344
258
  0
DIMSTYLE
105
279
330
A
100
AcDbSymbolTableRecord
100
AcDbDimStyleTableRecord
  2
SLDDIMSTYLE2
 70
     0
 41
0.3
 44
0.0
 45
0.000000001
146
0.3
147
0.0
173
     1
178
     0
271
     0
272
     0
276
     2
277
     5
340
11
341
258
343
258
344
258
  0
DIMSTYLE
105
295
102
{ACAD_REACTORS
330
294
102
}
330
A
100
AcDbSymbolTableRecord
100
AcDbDimStyleTableRecord
  2
SLDDIMSTYLE3
 70
     0
 41
0.3
 44
0.0
 45
0.000000001
 78
    12
 79
     3
140
0.5
147
0.125
172
     1
173
     1
178
     0
271
     6
272
     2
276
     2
277
     5
284
    12
289
     0
340
15F
341
258
343
258
344
258
  0
DIMSTYLE
105
2E8
102
{ACAD_REACTORS
330
2E7
330
2F8
102
}
330
A
100
AcDbSymbolTableRecord
100
AcDbDimStyleTableRecord
  2
SLDDIMSTYLE4
 70
     0
 41
0.3
 44
0.0
 45
0.000000001
 78
    12
 79
     3
140
0.5
147
0.125
173
     1
178
     0
271
     6
272
     2
276
     2
277
     5
284
    12
340
15F
341
258
343
258
344
258
  0
DIMSTYLE
105
309
330
A
100
AcDbSymbolTableRecord
100
AcDbDimStyleTableRecord
  2
SLDDIMSTYLE5
 70
     0
 41
0.0666666667
 44
0.0
 45
0.000000001
146
0.2
147
0.0
173
     1
178
     0
271
     0
272
     0
276
     2
277
     5
340
11
341
30A
343
30A
344
30A
  0
ENDTAB
  0
TABLE
  2
BLOCK_RECORD
  5
1
330
0
100
AcDbSymbolTable
 70
    13
  0
BLOCK_RECORD
  5
1F
330
1
100
AcDbSymbolTableRecord
100
AcDbBlockTableRecord
  2
*Model_Space
340
22
  0
BLOCK_RECORD
  5
1B
330
1
100
AcDbSymbolTableRecord
100
AcDbBlockTableRecord
  2
*Paper_Space
340
1E
  0
BLOCK_RECORD
  5
23
330
1
100
AcDbSymbolTableRecord
100
AcDbBlockTableRecord
  2
*Paper_Space0
340
26
  0
BLOCK_RECORD
  5
167
330
1
100
AcDbSymbolTableRecord
100
AcDbBlockTableRecord
  2
SW_NOTE_0
340
0
102
{BLKREFS
331
16C
102
}
  0
BLOCK_RECORD
  5
16D
330
1
100
AcDbSymbolTableRecord
100
AcDbBlockTableRecord
  2
SW_NOTE_0_1
340
0
102
{BLKREFS
331
174
102
}
  0
BLOCK_RECORD
  5
258
330
1
100
AcDbSymbolTableRecord
100
AcDbBlockTableRecord
  2
_Open90
340
0
102
{BLKREFS
331
261
331
26B
331
26C
331
28D
331
28E
331
299
331
29A
331
2EC
331
2ED
331
2FC
331
2FD
102
}
  0
BLOCK_RECORD
  5
25E
330
1
100
AcDbSymbolTableRecord
100
AcDbBlockTableRecord
  2
_D
340
0
  0
BLOCK_RECORD
  5
268
330
1
100
AcDbSymbolTableRecord
100
AcDbBlockTableRecord
  2
_D_1
340
0
  0
BLOCK_RECORD
  5
273
330
1
100
AcDbSymbolTableRecord
100
AcDbBlockTableRecord
  2
SW_NOTE_0_2
340
0
102
{BLKREFS
331
278
102
}
  0
BLOCK_RECORD
  5
28A
330
1
100
AcDbSymbolTableRecord
100
AcDbBlockTableRecord
  2
_D_2
340
0
  0
BLOCK_RECORD
  5
296
330
1
100
AcDbSymbolTableRecord
100
AcDbBlockTableRecord
  2
_D_3
340
0
  0
BLOCK_RECORD
  5
2C3
330
1
100
AcDbSymbolTableRecord
100
AcDbBlockTableRecord
  2
SW_NOTE_0_3
340
0
102
{BLKREFS
331
2C8
102
}
  0
BLOCK_RECORD
  5
2E9
330
1
100
AcDbSymbolTableRecord
100
AcDbBlockTableRecord
  2
_D_4
340
0
  0
BLOCK_RECORD
  5
2F9
330
1
100
AcDbSymbolTableRecord
100
AcDbBlockTableRecord
  2
_D_5
340
0
  0
BLOCK_RECORD
  5
30A
330
1
100
AcDbSymbolTableRecord
100
AcDbBlockTableRecord
  2
_Origin
340
0
  0
ENDTAB
  0
ENDSEC
  0
SECTION
  2
BLOCKS
  0
BLOCK
  5
20
330
1F
100
AcDbEntity
  8
0
100
AcDbBlockBegin
  2
*Model_Space
 70
     0
 10
0.0
 20
0.0
 30
0.0
  3
*Model_Space
  1

  0
ENDBLK
  5
21
330
1F
100
AcDbEntity
  8
0
100
AcDbBlockEnd
  0
BLOCK
  5
1C
330
1B
100
AcDbEntity
 67
     1
  8
0
100
AcDbBlockBegin
  2
*Paper_Space
 70
     0
 10
0.0
 20
0.0
 30
0.0
  3
*Paper_Space
  1

  0
ENDBLK
  5
1D
330
1B
100
AcDbEntity
 67
     1
  8
0
100
AcDbBlockEnd
  0
BLOCK
  5
24
330
23
100
AcDbEntity
  8
0
100
AcDbBlockBegin
  2
*Paper_Space0
 70
     0
 10
0.0
 20
0.0
 30
0.0
  3
*Paper_Space0
  1

  0
ENDBLK
  5
25
330
23
100
AcDbEntity
  8
0
100
AcDbBlockEnd
  0
BLOCK
  5
168
330
167
100
AcDbEntity
  8
0
100
AcDbBlockBegin
  2
SW_NOTE_0
 70
     0
 10
0.0
 20
0.0
 30
0.0
  3
SW_NOTE_0
  1

  0
MTEXT
  5
16A
330
167
100
AcDbEntity
  8
NOTES
 62
     0
100
AcDbMText
 10
0.0
 20
0.3759780908
 30
0.0
 40
0.2916666667
 41
0.0
 71
     1
 72
     1
  1
FROST PRODUCTS LTD.
  7
SLDTEXTSTYLE0
 73
     1
 44
1.0
  0
MTEXT
  5
16B
330
167
100
AcDbEntity
  8
NOTES
 62
     0
100
AcDbMText
 10
0.0
 20
-0.0495142709
 30
0.0
 40
0.2291666667
 41
0.0
 71
     1
 72
     1
  1
5280 JOHN LUCAS DRIVE, BURLINGTON, ON, L7L 5Z9
  7
SLDTEXTSTYLE0
 73
     1
 44
1.0
  0
ENDBLK
  5
169
330
167
100
AcDbEntity
  8
0
100
AcDbBlockEnd
  0
BLOCK
  5
16E
330
16D
100
AcDbEntity
  8
0
100
AcDbBlockBegin
  2
SW_NOTE_0_1
 70
     0
 10
0.0
 20
0.0
 30
0.0
  3
SW_NOTE_0_1
  1

  0
MTEXT
  5
170
330
16D
100
AcDbEntity
  8
NOTES
 62
     0
100
AcDbMText
 10
0.0
 20
0.2381282771
 30
0.0
 40
0.184729064
 41
0.0
 71
     1
 72
     1
  1
PROPRIETARY AND CONFIDENTIAL
  7
SLDTEXTSTYLE0
 73
     1
 44
1.0
  0
MTEXT
  5
171
330
16D
100
AcDbEntity
  8
NOTES
 62
     0
100
AcDbMText
 10
0.0
 20
-0.0504364796
 30
0.0
 40
0.25
 41
0.0
 71
     1
 72
     1
  1
THE INFORMATION CONTAINED IN THIS DRAWING IS THE SOLE PROPERTY OF
  7
SLDTEXTSTYLE0
 73
     1
 44
1.0
  0
MTEXT
  5
172
330
16D
100
AcDbEntity
  8
NOTES
 62
     0
100
AcDbMText
 10
0.0
 20
-0.4231398941
 30
0.0
 40
0.25
 41
0.0
 71
     1
 72
     1
  1
FROST PRODUCTS LTD.  ANY REPRODUCTION IN PART OR AS A WHOLE WITHOUT
  7
SLDTEXTSTYLE0
 73
     1
 44
1.0
  0
MTEXT
  5
173
330
16D
100
AcDbEntity
  8
NOTES
 62
     0
100
AcDbMText
 10
0.0
 20
-0.7958433086
 30
0.0
 40
0.25
 41
0.0
 71
     1
 72
     1
  1
THE WRITTEN PERMISSION OF FROST PRODUCTS LTD. IS PROHIBITED.
  7
SLDTEXTSTYLE0
 73
     1
 44
1.0
  0
ENDBLK
  5
16F
330
16D
100
AcDbEntity
  8
0
100
AcDbBlockEnd
  0
BLOCK
  5
259
330
258
100
AcDbEntity
  8
0
100
AcDbBlockBegin
  2
_Open90
 70
     0
 10
0.0
 20
0.0
 30
0.0
  3
_Open90
  1

  0
LINE
  5
25B
330
258
100
AcDbEntity
  8
0
  6
ByBlock
 62
     0
370
    -2
100
AcDbLine
 10
-0.5
 20
0.5
 30
0.0
 11
0.0
 21
0.0
 31
0.0
  0
LINE
  5
25C
330
258
100
AcDbEntity
  8
0
  6
ByBlock
 62
     0
370
    -2
100
AcDbLine
 10
0.0
 20
0.0
 30
0.0
 11
-0.5
 21
-0.5
 31
0.0
  0
LINE
  5
25D
330
258
100
AcDbEntity
  8
0
  6
ByBlock
 62
     0
370
    -2
100
AcDbLine
 10
0.0
 20
0.0
 30
0.0
 11
-1.0
 21
0.0
 31
0.0
  0
ENDBLK
  5
25A
330
258
100
AcDbEntity
  8
0
100
AcDbBlockEnd
  0
BLOCK
  5
25F
330
25E
100
AcDbEntity
  8
0
100
AcDbBlockBegin
  2
_D
 70
     0
 10
0.0
 20
0.0
 30
0.0
  3
_D
  1

  0
INSERT
  5
261
330
25E
100
AcDbEntity
  8
DIMS
100
AcDbBlockReference
  2
_Open90
 10
34.8131244322
 20
27.385588675
 30
-1.5
 41
0.3
 42
0.3
 50
240.0
  0
LINE
  5
262
330
25E
100
AcDbEntity
  8
DIMS
100
AcDbLine
 10
34.8131244322
 20
27.385588675
 30
0.0
 11
36.0905921679
 21
29.5982276982
 31
0.0
  0
LINE
  5
263
330
25E
100
AcDbEntity
  8
DIMS
100
AcDbLine
 10
36.0905921679
 20
29.5982276982
 30
0.0
 11
36.3905921679
 21
29.5982276982
 31
0.0
  0
MTEXT
  5
264
330
25E
100
AcDbEntity
  8
DIMS
100
AcDbMText
 10
36.3905921679
 20
29.8420671345
 30
0.0
 40
0.5
 41
0.0
 71
     1
 72
     1
  1
%%c
  7
SLDTEXTSTYLE1
 73
     1
 44
1.0
  0
MTEXT
  5
265
330
25E
100
AcDbEntity
  8
DIMS
100
AcDbMText
 10
37.1446546503
 20
29.8497060237
 30
0.0
 40
0.5
 41
0.0
 71
     1
 72
     1
  1
3"
  7
SLDTEXTSTYLE1
 73
     1
 44
1.0
  0
ENDBLK
  5
260
330
25E
100
AcDbEntity
  8
0
100
AcDbBlockEnd
  0
BLOCK
  5
269
330
268
100
AcDbEntity
  8
0
100
AcDbBlockBegin
  2
_D_1
 70
     0
 10
0.0
 20
0.0
 30
0.0
  3
_D_1
  1

  0
INSERT
  5
26B
330
268
100
AcDbEntity
  8
DIMS
100
AcDbBlockReference
  2
_Open90
 10
16.0631244322
 20
28.2164718291
 30
-1.5
 41
0.3
 42
0.3
 50
180.0
  0
INSERT
  5
26C
330
268
100
AcDbEntity
  8
DIMS
100
AcDbBlockReference
  2
_Open90
 10
34.0631244322
 20
28.2164718291
 30
-1.5
 41
0.3
 42
0.3
 50
0.0
  0
LINE
  5
26D
330
268
100
AcDbEntity
  8
DIMS
100
AcDbLine
 10
16.0631244322
 20
26.2532172359
 30
0.0
 11
16.0631244322
 21
28.5914718291
 31
0.0
  0
LINE
  5
26E
330
268
100
AcDbEntity
  8
DIMS
100
AcDbLine
 10
34.0631244322
 20
26.2532172359
 30
0.0
 11
34.0631244322
 21
28.5914718291
 31
0.0
  0
LINE
  5
26F
330
268
100
AcDbEntity
  8
DIMS
100
AcDbLine
 10
16.0631244322
 20
28.2164718291
 30
0.0
 11
24.550092988
 21
28.2164718291
 31
0.0
  0
LINE
  5
270
330
268
100
AcDbEntity
  8
DIMS
100
AcDbLine
 10
34.0631244322
 20
28.2164718291
 30
0.0
 11
25.495231843
 21
28.2164718291
 31
0.0
  0
MTEXT
  5
271
330
268
100
AcDbEntity
  8
DIMS
100
AcDbMText
 10
24.550092988
 20
28.4641307421
 30
0.0
 40
0.5
 41
0.0
 71
     1
 72
     1
  1
18"
  7
SLDTEXTSTYLE1
 73
     1
 44
1.0
  0
ENDBLK
  5
26A
330
268
100
AcDbEntity
  8
0
100
AcDbBlockEnd
  0
BLOCK
  5
274
330
273
100
AcDbEntity
  8
0
100
AcDbBlockBegin
  2
SW_NOTE_0_2
 70
     0
 10
0.0
 20
0.0
 30
0.0
  3
SW_NOTE_0_2
  1

  0
MTEXT
  5
276
330
273
100
AcDbEntity
  8
NOTES
 62
     0
100
AcDbMText
 10
0.0205056932
 20
0.0720202339
 30
0.0
 40
0.5
 41
0.0
 71
     1
 72
     1
  1
remove flange cover to
  7
SLDTEXTSTYLE1
 73
     1
 44
1.0
  0
MTEXT
  5
277
330
273
100
AcDbEntity
  8
NOTES
 62
     0
100
AcDbMText
 10
0.0205056932
 20
-0.927979754
 30
0.0
 40
0.5
 41
0.0
 71
     1
 72
     1
  1
access mounting holes
  7
SLDTEXTSTYLE1
 73
     1
 44
1.0
  0
ENDBLK
  5
275
330
273
100
AcDbEntity
  8
0
100
AcDbBlockEnd
  0
BLOCK
  5
28B
330
28A
100
AcDbEntity
  8
0
100
AcDbBlockBegin
  2
_D_2
 70
     0
 10
0.0
 20
0.0
 30
0.0
  3
_D_2
  1

  0
INSERT
  5
28D
330
28A
100
AcDbEntity
  8
DIMS
100
AcDbBlockReference
  2
_Open90
 10
52.3251068717
 20
29.3975741913
 30
-9.75
 41
0.3
 42
0.3
 50
180.0
  0
INSERT
  5
28E
330
28A
100
AcDbEntity
  8
DIMS
100
AcDbBlockReference
  2
_Open90
 10
55.3251068717
 20
29.3975741913
 30
-9.75
 41
0.3
 42
0.3
 50
0.0
  0
LINE
  5
28F
330
28A
100
AcDbEntity
  8
DIMS
100
AcDbLine
 10
52.3251068717
 20
26.2532172359
 30
0.0
 11
52.3251068717
 21
29.7725741913
 31
0.0
  0
LINE
  5
290
330
28A
100
AcDbEntity
  8
DIMS
100
AcDbLine
 10
55.3251068717
 20
27.7532172359
 30
0.0
 11
55.3251068717
 21
29.7725741913
 31
0.0
  0
LINE
  5
291
330
28A
100
AcDbEntity
  8
DIMS
100
AcDbLine
 10
52.3251068717
 20
29.3975741913
 30
0.0
 11
53.4595864676
 21
29.3975741913
 31
0.0
  0
LINE
  5
292
330
28A
100
AcDbEntity
  8
DIMS
100
AcDbLine
 10
55.3251068717
 20
29.3975741913
 30
0.0
 11
54.0352809138
 21
29.3975741913
 31
0.0
  0
MTEXT
  5
293
330
28A
100
AcDbEntity
  8
DIMS
100
AcDbMText
 10
53.4595864676
 20
29.6452331043
 30
0.0
 40
0.5
 41
0.0
 71
     1
 72
     1
  1
3"
  7
SLDTEXTSTYLE1
 73
     1
 44
1.0
  0
ENDBLK
  5
28C
330
28A
100
AcDbEntity
  8
0
100
AcDbBlockEnd
  0
BLOCK
  5
297
330
296
100
AcDbEntity
  8
0
100
AcDbBlockBegin
  2
_D_3
 70
     0
 10
0.0
 20
0.0
 30
0.0
  3
_D_3
  1

  0
INSERT
  5
299
330
296
100
AcDbEntity
  8
DIMS
100
AcDbBlockReference
  2
_Open90
 10
54.8411068717
 20
28.4526923016
 30
-9.75
 41
0.3
 42
0.3
 50
0.0
  0
INSERT
  5
29A
330
296
100
AcDbEntity
  8
DIMS
100
AcDbBlockReference
  2
_Open90
 10
55.3251068717
 20
28.4526923016
 30
-9.75
 41
0.3
 42
0.3
 50
180.0
  0
LINE
  5
29B
330
296
100
AcDbEntity
  8
DIMS
100
AcDbLine
 10
55.6358707737
 20
28.503977
 30
0.0
 11
56.1518430232
 21
28.503977
 31
0.0
  0
LINE
  5
29C
330
296
100
AcDbEntity
  8
DIMS
100
AcDbLine
 10
54.8411068717
 20
27.0032172359
 30
0.0
 11
54.8411068717
 21
28.8276923016
 31
0.0
  0
LINE
  5
29D
330
296
100
AcDbEntity
  8
DIMS
100
AcDbLine
 10
55.3251068717
 20
27.7532172359
 30
0.0
 11
55.3251068717
 21
28.8276923016
 31
0.0
  0
LINE
  5
29E
330
296
100
AcDbEntity
  8
DIMS
100
AcDbLine
 10
54.8411068717
 20
28.4526923016
 30
0.0
 11
54.5411068717
 21
28.4526923016
 31
0.0
  0
LINE
  5
29F
330
296
100
AcDbEntity
  8
DIMS
100
AcDbLine
 10
55.3251068717
 20
28.4526923016
 30
0.0
 11
55.5626068717
 21
28.4526923016
 31
0.0
  0
MTEXT
  5
2A0
330
296
100
AcDbEntity
  8
DIMS
100
AcDbMText
 10
55.7091346757
 20
29.1045525543
 30
0.0
 40
0.5
 41
0.0
 71
     1
 72
     1
  1
1
  7
SLDTEXTSTYLE1
 73
     1
 44
1.0
  0
MTEXT
  5
2A1
330
296
100
AcDbEntity
  8
DIMS
100
AcDbMText
 10
55.7091346757
 20
28.4433719758
 30
0.0
 40
0.5
 41
0.0
 71
     1
 72
     1
  1
2
  7
SLDTEXTSTYLE1
 73
     1
 44
1.0
  0
MTEXT
  5
2A2
330
296
100
AcDbEntity
  8
DIMS
100
AcDbMText
 10
56.2251069251
 20
28.7392400553
 30
0.0
 40
0.5
 41
0.0
 71
     1
 72
     1
  1
"
  7
SLDTEXTSTYLE1
 73
     1
 44
1.0
  0
ENDBLK
  5
298
330
296
100
AcDbEntity
  8
0
100
AcDbBlockEnd
  0
BLOCK
  5
2C4
330
2C3
100
AcDbEntity
  8
0
100
AcDbBlockBegin
  2
SW_NOTE_0_3
 70
     0
 10
0.0
 20
0.0
 30
0.0
  3
SW_NOTE_0_3
  1

  0
MTEXT
  5
2C6
330
2C3
100
AcDbEntity
  8
NOTES
 62
     0
100
AcDbMText
 10
0.0
 20
0.6445338699
 30
0.0
 40
0.5
 41
0.0
 71
     1
 72
     1
  1
3D view
  7
SLDTEXTSTYLE1
 73
     1
 44
1.0
  0
MTEXT
  5
2C7
330
2C3
100
AcDbEntity
  8
NOTES
 62
     0
100
AcDbMText
 10
0.0
 20
-0.3554661914
 30
0.0
 40
0.5
 41
0.0
 71
     1
 72
     1
  1
1001-BLK-18
  7
SLDTEXTSTYLE1
 73
     1
 44
1.0
  0
ENDBLK
  5
2C5
330
2C3
100
AcDbEntity
  8
0
100
AcDbBlockEnd
  0
BLOCK
  5
2EA
330
2E9
100
AcDbEntity
  8
0
100
AcDbBlockBegin
  2
_D_4
 70
     0
 10
0.0
 20
0.0
 30
0.0
  3
_D_4
  1

  0
INSERT
  5
2EC
330
2E9
100
AcDbEntity
  8
DIMS
100
AcDbBlockReference
  2
_Open90
 10
31.4817107278
 20
44.4063277787
 30
0.0
 41
0.3
 42
0.3
 50
90.0
  0
INSERT
  5
2ED
330
2E9
100
AcDbEntity
  8
DIMS
100
AcDbBlockReference
  2
_Open90
 10
31.4817107278
 20
42.9063277787
 30
0.0
 41
0.3
 42
0.3
 50
270.0
  0
LINE
  5
2EE
330
2E9
100
AcDbEntity
  8
DIMS
100
AcDbLine
 10
32.2244190753
 20
41.6190297999
 30
0.0
 11
32.7403913247
 21
41.6190297999
 31
0.0
  0
LINE
  5
2EF
330
2E9
100
AcDbEntity
  8
DIMS
100
AcDbLine
 10
31.2297910989
 20
44.4063277787
 30
0.0
 11
31.8567107278
 21
44.4063277787
 31
0.0
  0
LINE
  5
2F0
330
2E9
100
AcDbEntity
  8
DIMS
100
AcDbLine
 10
31.2297910989
 20
42.9063277787
 30
0.0
 11
31.8567107278
 21
42.9063277787
 31
0.0
  0
LINE
  5
2F1
330
2E9
100
AcDbEntity
  8
DIMS
100
AcDbLine
 10
31.7817107278
 20
41.5677451015
 30
0.0
 11
31.4817107278
 21
41.5677451015
 31
0.0
  0
LINE
  5
2F2
330
2E9
100
AcDbEntity
  8
DIMS
100
AcDbLine
 10
31.4817107278
 20
41.5677451015
 30
0.0
 11
31.4817107278
 21
42.9063277787
 31
0.0
  0
LINE
  5
2F3
330
2E9
100
AcDbEntity
  8
DIMS
100
AcDbLine
 10
31.4817107278
 20
44.4063277787
 30
0.0
 11
31.4817107278
 21
42.9063277787
 31
0.0
  0
MTEXT
  5
2F4
330
2E9
100
AcDbEntity
  8
DIMS
100
AcDbMText
 10
31.7817107278
 20
41.8542928552
 30
0.0
 40
0.5
 41
0.0
 71
     1
 72
     1
  1
1
  7
SLDTEXTSTYLE1
 73
     1
 44
1.0
  0
MTEXT
  5
2F5
330
2E9
100
AcDbEntity
  8
DIMS
100
AcDbMText
 10
32.2976829772
 20
42.2196053542
 30
0.0
 40
0.5
 41
0.0
 71
     1
 72
     1
  1
1
  7
SLDTEXTSTYLE1
 73
     1
 44
1.0
  0
MTEXT
  5
2F6
330
2E9
100
AcDbEntity
  8
DIMS
100
AcDbMText
 10
32.2976829772
 20
41.5584247757
 30
0.0
 40
0.5
 41
0.0
 71
     1
 72
     1
  1
2
  7
SLDTEXTSTYLE1
 73
     1
 44
1.0
  0
MTEXT
  5
2F7
330
2E9
100
AcDbEntity
  8
DIMS
100
AcDbMText
 10
32.8136552267
 20
41.8542928552
 30
0.0
 40
0.5
 41
0.0
 71
     1
 72
     1
  1
"
  7
SLDTEXTSTYLE1
 73
     1
 44
1.0
  0
ENDBLK
  5
2EB
330
2E9
100
AcDbEntity
  8
0
100
AcDbBlockEnd
  0
BLOCK
  5
2FA
330
2F9
100
AcDbEntity
  8
0
100
AcDbBlockBegin
  2
_D_5
 70
     0
 10
0.0
 20
0.0
 30
0.0
  3
_D_5
  1

  0
INSERT
  5
2FC
330
2F9
100
AcDbEntity
  8
DIMS
100
AcDbBlockReference
  2
_Open90
 10
31.4817107278
 20
44.4063277787
 30
0.0
 41
0.3
 42
0.3
 50
270.0
  0
INSERT
  5
2FD
330
2F9
100
AcDbEntity
  8
DIMS
100
AcDbBlockReference
  2
_Open90
 10
31.4817107278
 20
45.9063277787
 30
0.0
 41
0.3
 42
0.3
 50
90.0
  0
LINE
  5
2FE
330
2F9
100
AcDbEntity
  8
DIMS
100
AcDbLine
 10
32.2244190753
 20
47.5324156266
 30
0.0
 11
32.7403913247
 21
47.5324156266
 31
0.0
  0
LINE
  5
2FF
330
2F9
100
AcDbEntity
  8
DIMS
100
AcDbLine
 10
32.3964577656
 20
45.9063277787
 30
0.0
 11
31.1067107278
 21
45.9063277787
 31
0.0
  0
LINE
  5
300
330
2F9
100
AcDbEntity
  8
DIMS
100
AcDbLine
 10
31.7817107278
 20
47.4811309283
 30
0.0
 11
31.4817107278
 21
47.4811309283
 31
0.0
  0
LINE
  5
301
330
2F9
100
AcDbEntity
  8
DIMS
100
AcDbLine
 10
31.4817107278
 20
47.4811309283
 30
0.0
 11
31.4817107278
 21
45.9063277787
 31
0.0
  0
LINE
  5
302
330
2F9
100
AcDbEntity
  8
DIMS
100
AcDbLine
 10
31.4817107278
 20
44.4063277787
 30
0.0
 11
31.4817107278
 21
45.9063277787
 31
0.0
  0
MTEXT
  5
303
330
2F9
100
AcDbEntity
  8
DIMS
100
AcDbMText
 10
31.7817107278
 20
47.767678682
 30
0.0
 40
0.5
 41
0.0
 71
     1
 72
     1
  1
1
  7
SLDTEXTSTYLE1
 73
     1
 44
1.0
  0
MTEXT
  5
304
330
2F9
100
AcDbEntity
  8
DIMS
100
AcDbMText
 10
32.2976829772
 20
48.132991181
 30
0.0
 40
0.5
 41
0.0
 71
     1
 72
     1
  1
1
  7
SLDTEXTSTYLE1
 73
     1
 44
1.0
  0
MTEXT
  5
305
330
2F9
100
AcDbEntity
  8
DIMS
100
AcDbMText
 10
32.2976829772
 20
47.4718106025
 30
0.0
 40
0.5
 41
0.0
 71
     1
 72
     1
  1
2
  7
SLDTEXTSTYLE1
 73
     1
 44
1.0
  0
MTEXT
  5
306
330
2F9
100
AcDbEntity
  8
DIMS
100
AcDbMText
 10
32.8136552267
 20
47.767678682
 30
0.0
 40
0.5
 41
0.0
 71
     1
 72
     1
  1
"
  7
SLDTEXTSTYLE1
 73
     1
 44
1.0
  0
ENDBLK
  5
2FB
330
2F9
100
AcDbEntity
  8
0
100
AcDbBlockEnd
  0
BLOCK
  5
30B
330
30A
100
AcDbEntity
  8
0
100
AcDbBlockBegin
  2
_Origin
 70
     0
 10
0.0
 20
0.0
 30
0.0
  3
_Origin
  1

  0
CIRCLE
  5
30D
330
30A
100
AcDbEntity
  8
0
  6
ByBlock
 62
     0
370
    -2
100
AcDbCircle
 10
0.0
 20
0.0
 30
0.0
 40
0.5
  0
LINE
  5
30E
330
30A
100
AcDbEntity
  8
0
  6
ByBlock
 62
     0
370
    -2
100
AcDbLine
 10
0.0
 20
0.0
 30
0.0
 11
-1.0
 21
0.0
 31
0.0
  0
ENDBLK
  5
30C
330
30A
100
AcDbEntity
  8
0
100
AcDbBlockEnd
  0
ENDSEC
  0
SECTION
  2
ENTITIES
  0
LINE
  5
78
330
1F
100
AcDbEntity
  8
TITLE
370
    35
100
AcDbLine
 10
72.5182230965
 20
1.4876117645
 30
0.0
 11
89.4999864512
 21
1.4876117645
 31
0.0
  0
LINE
  5
79
330
1F
100
AcDbEntity
  8
TITLE
370
    35
100
AcDbLine
 10
89.4999317442
 20
5.4753603936
 30
0.0
 11
79.3105350723
 21
5.4753603936
 31
0.0
  0
LINE
  5
7A
330
1F
100
AcDbEntity
  8
TITLE
  6
Continuous
370
    18
100
AcDbLine
 10
0.5
 20
0.5
 30
0.0
 11
0.5
 21
119.5
 31
0.0
  0
LINE
  5
7B
330
1F
100
AcDbEntity
  8
TITLE
  6
Continuous
370
    18
100
AcDbLine
 10
0.5
 20
119.5
 30
0.0
 11
89.5
 21
119.5
 31
0.0
  0
LINE
  5
7C
330
1F
100
AcDbEntity
  8
TITLE
370
    35
100
AcDbLine
 10
72.5182230965
 20
2.5427877231
 30
0.0
 11
65.5059791203
 21
2.5427877231
 31
0.0
  0
LINE
  5
7D
330
1F
100
AcDbEntity
  8
TITLE
370
    35
100
AcDbLine
 10
72.5182230965
 20
1.4876117645
 30
0.0
 11
65.5059791203
 21
1.4876117645
 31
0.0
  0
LINE
  5
7E
330
1F
100
AcDbEntity
  8
TITLE
  6
Continuous
370
    18
100
AcDbLine
 10
89.5
 20
119.5
 30
0.0
 11
89.5
 21
0.5
 31
0.0
  0
LINE
  5
7F
330
1F
100
AcDbEntity
  8
TITLE
  6
Continuous
370
    18
100
AcDbLine
 10
89.5
 20
0.5
 30
0.0
 11
0.5
 21
0.5
 31
0.0
  0
LINE
  5
80
330
1F
100
AcDbEntity
  8
TITLE
370
    35
100
AcDbLine
 10
72.5182230965
 20
1.4876117645
 30
0.0
 11
72.5182230965
 21
3.5979636817
 31
0.0
  0
LINE
  5
81
330
1F
100
AcDbEntity
  8
TITLE
370
    35
100
AcDbLine
 10
65.5059791203
 20
3.5979636817
 30
0.0
 11
65.5059791203
 21
0.5
 31
0.0
  0
LINE
  5
82
330
1F
100
AcDbEntity
  8
TITLE
370
    35
100
AcDbLine
 10
65.5059791203
 20
0.5
 30
0.0
 11
89.5
 21
0.5
 31
0.0
  0
LINE
  5
83
330
1F
100
AcDbEntity
  8
TITLE
370
    35
100
AcDbLine
 10
89.4999317442
 20
5.4753603936
 30
0.0
 11
89.5
 21
0.5
 31
0.0
  0
LINE
  5
84
330
1F
100
AcDbEntity
  8
TITLE
  6
Continuous
370
    18
100
AcDbLine
 10
0.4999606299
 20
60.0
 30
0.0
 11
0.5000393701
 21
60.0
 31
0.0
  0
LINE
  5
85
330
1F
100
AcDbEntity
  8
TITLE
370
    35
100
AcDbLine
 10
72.5182230965
 20
3.5979636817
 30
0.0
 11
65.5059791203
 21
3.5979636817
 31
0.0
  0
LINE
  5
86
330
1F
100
AcDbEntity
  8
TITLE
370
    35
100
AcDbLine
 10
72.5182230965
 20
3.5979636817
 30
0.0
 11
89.4997615643
 21
3.5979648343
 31
0.0
  0
LINE
  5
87
330
1F
100
AcDbEntity
  8
TITLE
370
    35
100
AcDbLine
 10
79.3105350723
 20
5.4753603936
 30
0.0
 11
79.3105350723
 21
0.4636772425
 31
0.0
  0
LINE
  5
88
330
1F
100
AcDbEntity
  8
TITLE
  6
Continuous
370
    18
100
AcDbLine
 10
45.0
 20
119.5000393701
 30
0.0
 11
45.0
 21
119.4999606299
 31
0.0
  0
LINE
  5
89
330
1F
100
AcDbEntity
  8
TITLE
  6
Continuous
370
    18
100
AcDbLine
 10
89.5000393701
 20
60.0
 30
0.0
 11
89.4999606299
 21
60.0
 31
0.0
  0
LINE
  5
8A
330
1F
100
AcDbEntity
  8
TITLE
  6
Continuous
370
    18
100
AcDbLine
 10
45.0
 20
0.4999606299
 30
0.0
 11
45.0
 21
0.5000393701
 31
0.0
  0
LINE
  5
8B
330
1F
100
AcDbEntity
  8
TITLE
  6
Continuous
370
    18
100
AcDbLine
 10
0.5
 20
2.9133858268
 30
0.0
 11
0.1653543307
 21
2.9133858268
 31
0.0
  0
LINE
  5
8C
330
1F
100
AcDbEntity
  8
TITLE
  6
Continuous
370
    18
100
AcDbLine
 10
89.5
 20
2.9133858268
 30
0.0
 11
89.8346456693
 21
2.9133858268
 31
0.0
  0
LINE
  5
8D
330
1F
100
AcDbEntity
  8
TITLE
  6
Continuous
370
    18
100
AcDbLine
 10
0.5
 20
4.8818897638
 30
0.0
 11
0.1653543307
 21
4.8818897638
 31
0.0
  0
LINE
  5
8E
330
1F
100
AcDbEntity
  8
TITLE
  6
Continuous
370
    18
100
AcDbLine
 10
89.5
 20
4.8818897638
 30
0.0
 11
89.8346456693
 21
4.8818897638
 31
0.0
  0
LINE
  5
8F
330
1F
100
AcDbEntity
  8
TITLE
  6
Continuous
370
    18
100
AcDbLine
 10
0.5
 20
6.8503937008
 30
0.0
 11
0.1653543307
 21
6.8503937008
 31
0.0
  0
LINE
  5
90
330
1F
100
AcDbEntity
  8
TITLE
  6
Continuous
370
    18
100
AcDbLine
 10
89.5
 20
6.8503937008
 30
0.0
 11
89.8346456693
 21
6.8503937008
 31
0.0
  0
LINE
  5
91
330
1F
100
AcDbEntity
  8
TITLE
  6
Continuous
370
    18
100
AcDbLine
 10
0.5
 20
8.8188976378
 30
0.0
 11
0.1653543307
 21
8.8188976378
 31
0.0
  0
LINE
  5
92
330
1F
100
AcDbEntity
  8
TITLE
  6
Continuous
370
    18
100
AcDbLine
 10
89.5
 20
8.8188976378
 30
0.0
 11
89.8346456693
 21
8.8188976378
 31
0.0
  0
LINE
  5
93
330
1F
100
AcDbEntity
  8
TITLE
  6
Continuous
370
    18
100
AcDbLine
 10
0.5
 20
10.7874015748
 30
0.0
 11
0.1653543307
 21
10.7874015748
 31
0.0
  0
LINE
  5
94
330
1F
100
AcDbEntity
  8
TITLE
  6
Continuous
370
    18
100
AcDbLine
 10
89.5
 20
10.7874015748
 30
0.0
 11
89.8346456693
 21
10.7874015748
 31
0.0
  0
LINE
  5
95
330
1F
100
AcDbEntity
  8
TITLE
  6
Continuous
370
    18
100
AcDbLine
 10
0.5
 20
12.7559055118
 30
0.0
 11
0.1653543307
 21
12.7559055118
 31
0.0
  0
LINE
  5
96
330
1F
100
AcDbEntity
  8
TITLE
  6
Continuous
370
    18
100
AcDbLine
 10
89.5
 20
12.7559055118
 30
0.0
 11
89.8346456693
 21
12.7559055118
 31
0.0
  0
LINE
  5
97
330
1F
100
AcDbEntity
  8
TITLE
  6
Continuous
370
    18
100
AcDbLine
 10
0.5
 20
14.7244094488
 30
0.0
 11
0.1653543307
 21
14.7244094488
 31
0.0
  0
LINE
  5
98
330
1F
100
AcDbEntity
  8
TITLE
  6
Continuous
370
    18
100
AcDbLine
 10
89.5
 20
14.7244094488
 30
0.0
 11
89.8346456693
 21
14.7244094488
 31
0.0
  0
LINE
  5
99
330
1F
100
AcDbEntity
  8
TITLE
  6
Continuous
370
    18
100
AcDbLine
 10
0.5
 20
16.6929133858
 30
0.0
 11
0.1653543307
 21
16.6929133858
 31
0.0
  0
LINE
  5
9A
330
1F
100
AcDbEntity
  8
TITLE
  6
Continuous
370
    18
100
AcDbLine
 10
89.5
 20
16.6929133858
 30
0.0
 11
89.8346456693
 21
16.6929133858
 31
0.0
  0
LINE
  5
9B
330
1F
100
AcDbEntity
  8
TITLE
  6
Continuous
370
    18
100
AcDbLine
 10
0.5
 20
18.6614173228
 30
0.0
 11
0.1653543307
 21
18.6614173228
 31
0.0
  0
LINE
  5
9C
330
1F
100
AcDbEntity
  8
TITLE
  6
Continuous
370
    18
100
AcDbLine
 10
89.5
 20
18.6614173228
 30
0.0
 11
89.8346456693
 21
18.6614173228
 31
0.0
  0
LINE
  5
9D
330
1F
100
AcDbEntity
  8
TITLE
  6
Continuous
370
    18
100
AcDbLine
 10
0.5
 20
20.6299212598
 30
0.0
 11
0.1653543307
 21
20.6299212598
 31
0.0
  0
LINE
  5
9E
330
1F
100
AcDbEntity
  8
TITLE
  6
Continuous
370
    18
100
AcDbLine
 10
89.5
 20
20.6299212598
 30
0.0
 11
89.8346456693
 21
20.6299212598
 31
0.0
  0
LINE
  5
9F
330
1F
100
AcDbEntity
  8
TITLE
  6
Continuous
370
    18
100
AcDbLine
 10
0.5
 20
22.5984251969
 30
0.0
 11
0.1653543307
 21
22.5984251969
 31
0.0
  0
LINE
  5
A0
330
1F
100
AcDbEntity
  8
TITLE
  6
Continuous
370
    18
100
AcDbLine
 10
89.5
 20
22.5984251969
 30
0.0
 11
89.8346456693
 21
22.5984251969
 31
0.0
  0
LINE
  5
A1
330
1F
100
AcDbEntity
  8
TITLE
  6
Continuous
370
    18
100
AcDbLine
 10
0.5
 20
24.5669291339
 30
0.0
 11
0.1653543307
 21
24.5669291339
 31
0.0
  0
LINE
  5
A2
330
1F
100
AcDbEntity
  8
TITLE
  6
Continuous
370
    18
100
AcDbLine
 10
89.5
 20
24.5669291339
 30
0.0
 11
89.8346456693
 21
24.5669291339
 31
0.0
  0
LINE
  5
A3
330
1F
100
AcDbEntity
  8
TITLE
  6
Continuous
370
    18
100
AcDbLine
 10
0.5
 20
26.5354330709
 30
0.0
 11
0.1653543307
 21
26.5354330709
 31
0.0
  0
LINE
  5
A4
330
1F
100
AcDbEntity
  8
TITLE
  6
Continuous
370
    18
100
AcDbLine
 10
89.5
 20
26.5354330709
 30
0.0
 11
89.8346456693
 21
26.5354330709
 31
0.0
  0
LINE
  5
A5
330
1F
100
AcDbEntity
  8
TITLE
  6
Continuous
370
    18
100
AcDbLine
 10
0.5
 20
28.5039370079
 30
0.0
 11
0.1653543307
 21
28.5039370079
 31
0.0
  0
LINE
  5
A6
330
1F
100
AcDbEntity
  8
TITLE
  6
Continuous
370
    18
100
AcDbLine
 10
89.5
 20
28.5039370079
 30
0.0
 11
89.8346456693
 21
28.5039370079
 31
0.0
  0
LINE
  5
A7
330
1F
100
AcDbEntity
  8
TITLE
  6
Continuous
370
    18
100
AcDbLine
 10
0.5
 20
30.4724409449
 30
0.0
 11
0.1653543307
 21
30.4724409449
 31
0.0
  0
LINE
  5
A8
330
1F
100
AcDbEntity
  8
TITLE
  6
Continuous
370
    18
100
AcDbLine
 10
89.5
 20
30.4724409449
 30
0.0
 11
89.8346456693
 21
30.4724409449
 31
0.0
  0
LINE
  5
A9
330
1F
100
AcDbEntity
  8
TITLE
  6
Continuous
370
    18
100
AcDbLine
 10
0.5
 20
32.4409448819
 30
0.0
 11
0.1653543307
 21
32.4409448819
 31
0.0
  0
LINE
  5
AA
330
1F
100
AcDbEntity
  8
TITLE
  6
Continuous
370
    18
100
AcDbLine
 10
89.5
 20
32.4409448819
 30
0.0
 11
89.8346456693
 21
32.4409448819
 31
0.0
  0
LINE
  5
AB
330
1F
100
AcDbEntity
  8
TITLE
  6
Continuous
370
    18
100
AcDbLine
 10
0.5
 20
34.4094488189
 30
0.0
 11
0.1653543307
 21
34.4094488189
 31
0.0
  0
LINE
  5
AC
330
1F
100
AcDbEntity
  8
TITLE
  6
Continuous
370
    18
100
AcDbLine
 10
89.5
 20
34.4094488189
 30
0.0
 11
89.8346456693
 21
34.4094488189
 31
0.0
  0
LINE
  5
AD
330
1F
100
AcDbEntity
  8
TITLE
  6
Continuous
370
    18
100
AcDbLine
 10
0.5
 20
36.3779527559
 30
0.0
 11
0.1653543307
 21
36.3779527559
 31
0.0
  0
LINE
  5
AE
330
1F
100
AcDbEntity
  8
TITLE
  6
Continuous
370
    18
100
AcDbLine
 10
89.5
 20
36.3779527559
 30
0.0
 11
89.8346456693
 21
36.3779527559
 31
0.0
  0
LINE
  5
AF
330
1F
100
AcDbEntity
  8
TITLE
  6
Continuous
370
    18
100
AcDbLine
 10
0.5
 20
38.3464566929
 30
0.0
 11
0.1653543307
 21
38.3464566929
 31
0.0
  0
LINE
  5
B0
330
1F
100
AcDbEntity
  8
TITLE
  6
Continuous
370
    18
100
AcDbLine
 10
89.5
 20
38.3464566929
 30
0.0
 11
89.8346456693
 21
38.3464566929
 31
0.0
  0
LINE
  5
B1
330
1F
100
AcDbEntity
  8
TITLE
  6
Continuous
370
    18
100
AcDbLine
 10
0.5
 20
40.3149606299
 30
0.0
 11
0.1653543307
 21
40.3149606299
 31
0.0
  0
LINE
  5
B2
330
1F
100
AcDbEntity
  8
TITLE
  6
Continuous
370
    18
100
AcDbLine
 10
89.5
 20
40.3149606299
 30
0.0
 11
89.8346456693
 21
40.3149606299
 31
0.0
  0
LINE
  5
B3
330
1F
100
AcDbEntity
  8
TITLE
  6
Continuous
370
    18
100
AcDbLine
 10
0.5
 20
42.2834645669
 30
0.0
 11
0.1653543307
 21
42.2834645669
 31
0.0
  0
LINE
  5
B4
330
1F
100
AcDbEntity
  8
TITLE
  6
Continuous
370
    18
100
AcDbLine
 10
89.5
 20
42.2834645669
 30
0.0
 11
89.8346456693
 21
42.2834645669
 31
0.0
  0
LINE
  5
B5
330
1F
100
AcDbEntity
  8
TITLE
  6
Continuous
370
    18
100
AcDbLine
 10
0.5
 20
44.2519685039
 30
0.0
 11
0.1653543307
 21
44.2519685039
 31
0.0
  0
LINE
  5
B6
330
1F
100
AcDbEntity
  8
TITLE
  6
Continuous
370
    18
100
AcDbLine
 10
89.5
 20
44.2519685039
 30
0.0
 11
89.8346456693
 21
44.2519685039
 31
0.0
  0
LINE
  5
B7
330
1F
100
AcDbEntity
  8
TITLE
  6
Continuous
370
    18
100
AcDbLine
 10
0.5
 20
46.2204724409
 30
0.0
 11
0.1653543307
 21
46.2204724409
 31
0.0
  0
LINE
  5
B8
330
1F
100
AcDbEntity
  8
TITLE
  6
Continuous
370
    18
100
AcDbLine
 10
89.5
 20
46.2204724409
 30
0.0
 11
89.8346456693
 21
46.2204724409
 31
0.0
  0
LINE
  5
B9
330
1F
100
AcDbEntity
  8
TITLE
  6
Continuous
370
    18
100
AcDbLine
 10
0.5
 20
48.188976378
 30
0.0
 11
0.1653543307
 21
48.188976378
 31
0.0
  0
LINE
  5
BA
330
1F
100
AcDbEntity
  8
TITLE
  6
Continuous
370
    18
100
AcDbLine
 10
89.5
 20
48.188976378
 30
0.0
 11
89.8346456693
 21
48.188976378
 31
0.0
  0
LINE
  5
BB
330
1F
100
AcDbEntity
  8
TITLE
  6
Continuous
370
    18
100
AcDbLine
 10
0.5
 20
50.157480315
 30
0.0
 11
0.1653543307
 21
50.157480315
 31
0.0
  0
LINE
  5
BC
330
1F
100
AcDbEntity
  8
TITLE
  6
Continuous
370
    18
100
AcDbLine
 10
89.5
 20
50.157480315
 30
0.0
 11
89.8346456693
 21
50.157480315
 31
0.0
  0
LINE
  5
BD
330
1F
100
AcDbEntity
  8
TITLE
  6
Continuous
370
    18
100
AcDbLine
 10
0.5
 20
52.125984252
 30
0.0
 11
0.1653543307
 21
52.125984252
 31
0.0
  0
LINE
  5
BE
330
1F
100
AcDbEntity
  8
TITLE
  6
Continuous
370
    18
100
AcDbLine
 10
89.5
 20
52.125984252
 30
0.0
 11
89.8346456693
 21
52.125984252
 31
0.0
  0
LINE
  5
BF
330
1F
100
AcDbEntity
  8
TITLE
  6
Continuous
370
    18
100
AcDbLine
 10
0.5
 20
54.094488189
 30
0.0
 11
0.1653543307
 21
54.094488189
 31
0.0
  0
LINE
  5
C0
330
1F
100
AcDbEntity
  8
TITLE
  6
Continuous
370
    18
100
AcDbLine
 10
89.5
 20
54.094488189
 30
0.0
 11
89.8346456693
 21
54.094488189
 31
0.0
  0
LINE
  5
C1
330
1F
100
AcDbEntity
  8
TITLE
  6
Continuous
370
    18
100
AcDbLine
 10
0.5
 20
56.062992126
 30
0.0
 11
0.1653543307
 21
56.062992126
 31
0.0
  0
LINE
  5
C2
330
1F
100
AcDbEntity
  8
TITLE
  6
Continuous
370
    18
100
AcDbLine
 10
89.5
 20
56.062992126
 30
0.0
 11
89.8346456693
 21
56.062992126
 31
0.0
  0
LINE
  5
C3
330
1F
100
AcDbEntity
  8
TITLE
  6
Continuous
370
    18
100
AcDbLine
 10
0.5
 20
58.031496063
 30
0.0
 11
0.1653543307
 21
58.031496063
 31
0.0
  0
LINE
  5
C4
330
1F
100
AcDbEntity
  8
TITLE
  6
Continuous
370
    18
100
AcDbLine
 10
89.5
 20
58.031496063
 30
0.0
 11
89.8346456693
 21
58.031496063
 31
0.0
  0
LINE
  5
C5
330
1F
100
AcDbEntity
  8
TITLE
  6
Continuous
370
    18
100
AcDbLine
 10
0.4999606299
 20
60.0
 30
0.0
 11
0.1653543307
 21
60.0
 31
0.0
  0
LINE
  5
C6
330
1F
100
AcDbEntity
  8
TITLE
  6
Continuous
370
    18
100
AcDbLine
 10
89.5000393701
 20
60.0
 30
0.0
 11
89.8346456693
 21
60.0
 31
0.0
  0
LINE
  5
C7
330
1F
100
AcDbEntity
  8
TITLE
  6
Continuous
370
    18
100
AcDbLine
 10
0.5
 20
61.968503937
 30
0.0
 11
0.1653543307
 21
61.968503937
 31
0.0
  0
LINE
  5
C8
330
1F
100
AcDbEntity
  8
TITLE
  6
Continuous
370
    18
100
AcDbLine
 10
89.5
 20
61.968503937
 30
0.0
 11
89.8346456693
 21
61.968503937
 31
0.0
  0
LINE
  5
C9
330
1F
100
AcDbEntity
  8
TITLE
  6
Continuous
370
    18
100
AcDbLine
 10
0.5
 20
63.937007874
 30
0.0
 11
0.1653543307
 21
63.937007874
 31
0.0
  0
LINE
  5
CA
330
1F
100
AcDbEntity
  8
TITLE
  6
Continuous
370
    18
100
AcDbLine
 10
89.5
 20
63.937007874
 30
0.0
 11
89.8346456693
 21
63.937007874
 31
0.0
  0
LINE
  5
CB
330
1F
100
AcDbEntity
  8
TITLE
  6
Continuous
370
    18
100
AcDbLine
 10
0.5
 20
65.905511811
 30
0.0
 11
0.1653543307
 21
65.905511811
 31
0.0
  0
LINE
  5
CC
330
1F
100
AcDbEntity
  8
TITLE
  6
Continuous
370
    18
100
AcDbLine
 10
89.5
 20
65.905511811
 30
0.0
 11
89.8346456693
 21
65.905511811
 31
0.0
  0
LINE
  5
CD
330
1F
100
AcDbEntity
  8
TITLE
  6
Continuous
370
    18
100
AcDbLine
 10
0.5
 20
67.874015748
 30
0.0
 11
0.1653543307
 21
67.874015748
 31
0.0
  0
LINE
  5
CE
330
1F
100
AcDbEntity
  8
TITLE
  6
Continuous
370
    18
100
AcDbLine
 10
89.5
 20
67.874015748
 30
0.0
 11
89.8346456693
 21
67.874015748
 31
0.0
  0
LINE
  5
CF
330
1F
100
AcDbEntity
  8
TITLE
  6
Continuous
370
    18
100
AcDbLine
 10
0.5
 20
69.842519685
 30
0.0
 11
0.1653543307
 21
69.842519685
 31
0.0
  0
LINE
  5
D0
330
1F
100
AcDbEntity
  8
TITLE
  6
Continuous
370
    18
100
AcDbLine
 10
89.5
 20
69.842519685
 30
0.0
 11
89.8346456693
 21
69.842519685
 31
0.0
  0
LINE
  5
D1
330
1F
100
AcDbEntity
  8
TITLE
  6
Continuous
370
    18
100
AcDbLine
 10
0.5
 20
71.811023622
 30
0.0
 11
0.1653543307
 21
71.811023622
 31
0.0
  0
LINE
  5
D2
330
1F
100
AcDbEntity
  8
TITLE
  6
Continuous
370
    18
100
AcDbLine
 10
89.5
 20
71.811023622
 30
0.0
 11
89.8346456693
 21
71.811023622
 31
0.0
  0
LINE
  5
D3
330
1F
100
AcDbEntity
  8
TITLE
  6
Continuous
370
    18
100
AcDbLine
 10
0.5
 20
73.7795275591
 30
0.0
 11
0.1653543307
 21
73.7795275591
 31
0.0
  0
LINE
  5
D4
330
1F
100
AcDbEntity
  8
TITLE
  6
Continuous
370
    18
100
AcDbLine
 10
89.5
 20
73.7795275591
 30
0.0
 11
89.8346456693
 21
73.7795275591
 31
0.0
  0
LINE
  5
D5
330
1F
100
AcDbEntity
  8
TITLE
  6
Continuous
370
    18
100
AcDbLine
 10
0.5
 20
75.7480314961
 30
0.0
 11
0.1653543307
 21
75.7480314961
 31
0.0
  0
LINE
  5
D6
330
1F
100
AcDbEntity
  8
TITLE
  6
Continuous
370
    18
100
AcDbLine
 10
89.5
 20
75.7480314961
 30
0.0
 11
89.8346456693
 21
75.7480314961
 31
0.0
  0
LINE
  5
D7
330
1F
100
AcDbEntity
  8
TITLE
  6
Continuous
370
    18
100
AcDbLine
 10
0.5
 20
77.7165354331
 30
0.0
 11
0.1653543307
 21
77.7165354331
 31
0.0
  0
LINE
  5
D8
330
1F
100
AcDbEntity
  8
TITLE
  6
Continuous
370
    18
100
AcDbLine
 10
89.5
 20
77.7165354331
 30
0.0
 11
89.8346456693
 21
77.7165354331
 31
0.0
  0
LINE
  5
D9
330
1F
100
AcDbEntity
  8
TITLE
  6
Continuous
370
    18
100
AcDbLine
 10
0.5
 20
79.6850393701
 30
0.0
 11
0.1653543307
 21
79.6850393701
 31
0.0
  0
LINE
  5
DA
330
1F
100
AcDbEntity
  8
TITLE
  6
Continuous
370
    18
100
AcDbLine
 10
89.5
 20
79.6850393701
 30
0.0
 11
89.8346456693
 21
79.6850393701
 31
0.0
  0
LINE
  5
DB
330
1F
100
AcDbEntity
  8
TITLE
  6
Continuous
370
    18
100
AcDbLine
 10
0.5
 20
81.6535433071
 30
0.0
 11
0.1653543307
 21
81.6535433071
 31
0.0
  0
LINE
  5
DC
330
1F
100
AcDbEntity
  8
TITLE
  6
Continuous
370
    18
100
AcDbLine
 10
89.5
 20
81.6535433071
 30
0.0
 11
89.8346456693
 21
81.6535433071
 31
0.0
  0
LINE
  5
DD
330
1F
100
AcDbEntity
  8
TITLE
  6
Continuous
370
    18
100
AcDbLine
 10
0.5
 20
83.6220472441
 30
0.0
 11
0.1653543307
 21
83.6220472441
 31
0.0
  0
LINE
  5
DE
330
1F
100
AcDbEntity
  8
TITLE
  6
Continuous
370
    18
100
AcDbLine
 10
89.5
 20
83.6220472441
 30
0.0
 11
89.8346456693
 21
83.6220472441
 31
0.0
  0
LINE
  5
DF
330
1F
100
AcDbEntity
  8
TITLE
  6
Continuous
370
    18
100
AcDbLine
 10
0.5
 20
85.5905511811
 30
0.0
 11
0.1653543307
 21
85.5905511811
 31
0.0
  0
LINE
  5
E0
330
1F
100
AcDbEntity
  8
TITLE
  6
Continuous
370
    18
100
AcDbLine
 10
89.5
 20
85.5905511811
 30
0.0
 11
89.8346456693
 21
85.5905511811
 31
0.0
  0
LINE
  5
E1
330
1F
100
AcDbEntity
  8
TITLE
  6
Continuous
370
    18
100
AcDbLine
 10
0.5
 20
87.5590551181
 30
0.0
 11
0.1653543307
 21
87.5590551181
 31
0.0
  0
LINE
  5
E2
330
1F
100
AcDbEntity
  8
TITLE
  6
Continuous
370
    18
100
AcDbLine
 10
89.5
 20
87.5590551181
 30
0.0
 11
89.8346456693
 21
87.5590551181
 31
0.0
  0
LINE
  5
E3
330
1F
100
AcDbEntity
  8
TITLE
  6
Continuous
370
    18
100
AcDbLine
 10
0.5
 20
89.5275590551
 30
0.0
 11
0.1653543307
 21
89.5275590551
 31
0.0
  0
LINE
  5
E4
330
1F
100
AcDbEntity
  8
TITLE
  6
Continuous
370
    18
100
AcDbLine
 10
89.5
 20
89.5275590551
 30
0.0
 11
89.8346456693
 21
89.5275590551
 31
0.0
  0
LINE
  5
E5
330
1F
100
AcDbEntity
  8
TITLE
  6
Continuous
370
    18
100
AcDbLine
 10
0.5
 20
91.4960629921
 30
0.0
 11
0.1653543307
 21
91.4960629921
 31
0.0
  0
LINE
  5
E6
330
1F
100
AcDbEntity
  8
TITLE
  6
Continuous
370
    18
100
AcDbLine
 10
89.5
 20
91.4960629921
 30
0.0
 11
89.8346456693
 21
91.4960629921
 31
0.0
  0
LINE
  5
E7
330
1F
100
AcDbEntity
  8
TITLE
  6
Continuous
370
    18
100
AcDbLine
 10
0.5
 20
93.4645669291
 30
0.0
 11
0.1653543307
 21
93.4645669291
 31
0.0
  0
LINE
  5
E8
330
1F
100
AcDbEntity
  8
TITLE
  6
Continuous
370
    18
100
AcDbLine
 10
89.5
 20
93.4645669291
 30
0.0
 11
89.8346456693
 21
93.4645669291
 31
0.0
  0
LINE
  5
E9
330
1F
100
AcDbEntity
  8
TITLE
  6
Continuous
370
    18
100
AcDbLine
 10
0.5
 20
95.4330708661
 30
0.0
 11
0.1653543307
 21
95.4330708661
 31
0.0
  0
LINE
  5
EA
330
1F
100
AcDbEntity
  8
TITLE
  6
Continuous
370
    18
100
AcDbLine
 10
89.5
 20
95.4330708661
 30
0.0
 11
89.8346456693
 21
95.4330708661
 31
0.0
  0
LINE
  5
EB
330
1F
100
AcDbEntity
  8
TITLE
  6
Continuous
370
    18
100
AcDbLine
 10
0.5
 20
97.4015748031
 30
0.0
 11
0.1653543307
 21
97.4015748031
 31
0.0
  0
LINE
  5
EC
330
1F
100
AcDbEntity
  8
TITLE
  6
Continuous
370
    18
100
AcDbLine
 10
89.5
 20
97.4015748031
 30
0.0
 11
89.8346456693
 21
97.4015748031
 31
0.0
  0
LINE
  5
ED
330
1F
100
AcDbEntity
  8
TITLE
  6
Continuous
370
    18
100
AcDbLine
 10
0.5
 20
99.3700787402
 30
0.0
 11
0.1653543307
 21
99.3700787402
 31
0.0
  0
LINE
  5
EE
330
1F
100
AcDbEntity
  8
TITLE
  6
Continuous
370
    18
100
AcDbLine
 10
89.5
 20
99.3700787402
 30
0.0
 11
89.8346456693
 21
99.3700787402
 31
0.0
  0
LINE
  5
EF
330
1F
100
AcDbEntity
  8
TITLE
  6
Continuous
370
    18
100
AcDbLine
 10
0.5
 20
101.3385826772
 30
0.0
 11
0.1653543307
 21
101.3385826772
 31
0.0
  0
LINE
  5
F0
330
1F
100
AcDbEntity
  8
TITLE
  6
Continuous
370
    18
100
AcDbLine
 10
89.5
 20
101.3385826772
 30
0.0
 11
89.8346456693
 21
101.3385826772
 31
0.0
  0
LINE
  5
F1
330
1F
100
AcDbEntity
  8
TITLE
  6
Continuous
370
    18
100
AcDbLine
 10
0.5
 20
103.3070866142
 30
0.0
 11
0.1653543307
 21
103.3070866142
 31
0.0
  0
LINE
  5
F2
330
1F
100
AcDbEntity
  8
TITLE
  6
Continuous
370
    18
100
AcDbLine
 10
89.5
 20
103.3070866142
 30
0.0
 11
89.8346456693
 21
103.3070866142
 31
0.0
  0
LINE
  5
F3
330
1F
100
AcDbEntity
  8
TITLE
  6
Continuous
370
    18
100
AcDbLine
 10
0.5
 20
105.2755905512
 30
0.0
 11
0.1653543307
 21
105.2755905512
 31
0.0
  0
LINE
  5
F4
330
1F
100
AcDbEntity
  8
TITLE
  6
Continuous
370
    18
100
AcDbLine
 10
89.5
 20
105.2755905512
 30
0.0
 11
89.8346456693
 21
105.2755905512
 31
0.0
  0
LINE
  5
F5
330
1F
100
AcDbEntity
  8
TITLE
  6
Continuous
370
    18
100
AcDbLine
 10
0.5
 20
107.2440944882
 30
0.0
 11
0.1653543307
 21
107.2440944882
 31
0.0
  0
LINE
  5
F6
330
1F
100
AcDbEntity
  8
TITLE
  6
Continuous
370
    18
100
AcDbLine
 10
89.5
 20
107.2440944882
 30
0.0
 11
89.8346456693
 21
107.2440944882
 31
0.0
  0
LINE
  5
F7
330
1F
100
AcDbEntity
  8
TITLE
  6
Continuous
370
    18
100
AcDbLine
 10
0.5
 20
109.2125984252
 30
0.0
 11
0.1653543307
 21
109.2125984252
 31
0.0
  0
LINE
  5
F8
330
1F
100
AcDbEntity
  8
TITLE
  6
Continuous
370
    18
100
AcDbLine
 10
89.5
 20
109.2125984252
 30
0.0
 11
89.8346456693
 21
109.2125984252
 31
0.0
  0
LINE
  5
F9
330
1F
100
AcDbEntity
  8
TITLE
  6
Continuous
370
    18
100
AcDbLine
 10
0.5
 20
111.1811023622
 30
0.0
 11
0.1653543307
 21
111.1811023622
 31
0.0
  0
LINE
  5
FA
330
1F
100
AcDbEntity
  8
TITLE
  6
Continuous
370
    18
100
AcDbLine
 10
89.5
 20
111.1811023622
 30
0.0
 11
89.8346456693
 21
111.1811023622
 31
0.0
  0
LINE
  5
FB
330
1F
100
AcDbEntity
  8
TITLE
  6
Continuous
370
    18
100
AcDbLine
 10
0.5
 20
113.1496062992
 30
0.0
 11
0.1653543307
 21
113.1496062992
 31
0.0
  0
LINE
  5
FC
330
1F
100
AcDbEntity
  8
TITLE
  6
Continuous
370
    18
100
AcDbLine
 10
89.5
 20
113.1496062992
 30
0.0
 11
89.8346456693
 21
113.1496062992
 31
0.0
  0
LINE
  5
FD
330
1F
100
AcDbEntity
  8
TITLE
  6
Continuous
370
    18
100
AcDbLine
 10
0.5
 20
115.1181102362
 30
0.0
 11
0.1653543307
 21
115.1181102362
 31
0.0
  0
LINE
  5
FE
330
1F
100
AcDbEntity
  8
TITLE
  6
Continuous
370
    18
100
AcDbLine
 10
89.5
 20
115.1181102362
 30
0.0
 11
89.8346456693
 21
115.1181102362
 31
0.0
  0
LINE
  5
FF
330
1F
100
AcDbEntity
  8
TITLE
  6
Continuous
370
    18
100
AcDbLine
 10
0.5
 20
117.0866141732
 30
0.0
 11
0.1653543307
 21
117.0866141732
 31
0.0
  0
LINE
  5
100
330
1F
100
AcDbEntity
  8
TITLE
  6
Continuous
370
    18
100
AcDbLine
 10
89.5
 20
117.0866141732
 30
0.0
 11
89.8346456693
 21
117.0866141732
 31
0.0
  0
LINE
  5
101
330
1F
100
AcDbEntity
  8
TITLE
  6
Continuous
370
    18
100
AcDbLine
 10
1.6929133858
 20
119.5
 30
0.0
 11
1.6929133858
 21
119.8346456693
 31
0.0
  0
LINE
  5
102
330
1F
100
AcDbEntity
  8
TITLE
  6
Continuous
370
    18
100
AcDbLine
 10
1.6929133858
 20
0.5
 30
0.0
 11
1.6929133858
 21
0.1653543307
 31
0.0
  0
LINE
  5
103
330
1F
100
AcDbEntity
  8
TITLE
  6
Continuous
370
    18
100
AcDbLine
 10
3.6614173228
 20
119.5
 30
0.0
 11
3.6614173228
 21
119.8346456693
 31
0.0
  0
LINE
  5
104
330
1F
100
AcDbEntity
  8
TITLE
  6
Continuous
370
    18
100
AcDbLine
 10
3.6614173228
 20
0.5
 30
0.0
 11
3.6614173228
 21
0.1653543307
 31
0.0
  0
LINE
  5
105
330
1F
100
AcDbEntity
  8
TITLE
  6
Continuous
370
    18
100
AcDbLine
 10
5.6299212598
 20
119.5
 30
0.0
 11
5.6299212598
 21
119.8346456693
 31
0.0
  0
LINE
  5
106
330
1F
100
AcDbEntity
  8
TITLE
  6
Continuous
370
    18
100
AcDbLine
 10
5.6299212598
 20
0.5
 30
0.0
 11
5.6299212598
 21
0.1653543307
 31
0.0
  0
LINE
  5
107
330
1F
100
AcDbEntity
  8
TITLE
  6
Continuous
370
    18
100
AcDbLine
 10
7.5984251969
 20
119.5
 30
0.0
 11
7.5984251969
 21
119.8346456693
 31
0.0
  0
LINE
  5
108
330
1F
100
AcDbEntity
  8
TITLE
  6
Continuous
370
    18
100
AcDbLine
 10
7.5984251969
 20
0.5
 30
0.0
 11
7.5984251969
 21
0.1653543307
 31
0.0
  0
LINE
  5
109
330
1F
100
AcDbEntity
  8
TITLE
  6
Continuous
370
    18
100
AcDbLine
 10
9.5669291339
 20
119.5
 30
0.0
 11
9.5669291339
 21
119.8346456693
 31
0.0
  0
LINE
  5
10A
330
1F
100
AcDbEntity
  8
TITLE
  6
Continuous
370
    18
100
AcDbLine
 10
9.5669291339
 20
0.5
 30
0.0
 11
9.5669291339
 21
0.1653543307
 31
0.0
  0
LINE
  5
10B
330
1F
100
AcDbEntity
  8
TITLE
  6
Continuous
370
    18
100
AcDbLine
 10
11.5354330709
 20
119.5
 30
0.0
 11
11.5354330709
 21
119.8346456693
 31
0.0
  0
LINE
  5
10C
330
1F
100
AcDbEntity
  8
TITLE
  6
Continuous
370
    18
100
AcDbLine
 10
11.5354330709
 20
0.5
 30
0.0
 11
11.5354330709
 21
0.1653543307
 31
0.0
  0
LINE
  5
10D
330
1F
100
AcDbEntity
  8
TITLE
  6
Continuous
370
    18
100
AcDbLine
 10
13.5039370079
 20
119.5
 30
0.0
 11
13.5039370079
 21
119.8346456693
 31
0.0
  0
LINE
  5
10E
330
1F
100
AcDbEntity
  8
TITLE
  6
Continuous
370
    18
100
AcDbLine
 10
13.5039370079
 20
0.5
 30
0.0
 11
13.5039370079
 21
0.1653543307
 31
0.0
  0
LINE
  5
10F
330
1F
100
AcDbEntity
  8
TITLE
  6
Continuous
370
    18
100
AcDbLine
 10
15.4724409449
 20
119.5
 30
0.0
 11
15.4724409449
 21
119.8346456693
 31
0.0
  0
LINE
  5
110
330
1F
100
AcDbEntity
  8
TITLE
  6
Continuous
370
    18
100
AcDbLine
 10
15.4724409449
 20
0.5
 30
0.0
 11
15.4724409449
 21
0.1653543307
 31
0.0
  0
LINE
  5
111
330
1F
100
AcDbEntity
  8
TITLE
  6
Continuous
370
    18
100
AcDbLine
 10
17.4409448819
 20
119.5
 30
0.0
 11
17.4409448819
 21
119.8346456693
 31
0.0
  0
LINE
  5
112
330
1F
100
AcDbEntity
  8
TITLE
  6
Continuous
370
    18
100
AcDbLine
 10
17.4409448819
 20
0.5
 30
0.0
 11
17.4409448819
 21
0.1653543307
 31
0.0
  0
LINE
  5
113
330
1F
100
AcDbEntity
  8
TITLE
  6
Continuous
370
    18
100
AcDbLine
 10
19.4094488189
 20
119.5
 30
0.0
 11
19.4094488189
 21
119.8346456693
 31
0.0
  0
LINE
  5
114
330
1F
100
AcDbEntity
  8
TITLE
  6
Continuous
370
    18
100
AcDbLine
 10
19.4094488189
 20
0.5
 30
0.0
 11
19.4094488189
 21
0.1653543307
 31
0.0
  0
LINE
  5
115
330
1F
100
AcDbEntity
  8
TITLE
  6
Continuous
370
    18
100
AcDbLine
 10
21.3779527559
 20
119.5
 30
0.0
 11
21.3779527559
 21
119.8346456693
 31
0.0
  0
LINE
  5
116
330
1F
100
AcDbEntity
  8
TITLE
  6
Continuous
370
    18
100
AcDbLine
 10
21.3779527559
 20
0.5
 30
0.0
 11
21.3779527559
 21
0.1653543307
 31
0.0
  0
LINE
  5
117
330
1F
100
AcDbEntity
  8
TITLE
  6
Continuous
370
    18
100
AcDbLine
 10
23.3464566929
 20
119.5
 30
0.0
 11
23.3464566929
 21
119.8346456693
 31
0.0
  0
LINE
  5
118
330
1F
100
AcDbEntity
  8
TITLE
  6
Continuous
370
    18
100
AcDbLine
 10
23.3464566929
 20
0.5
 30
0.0
 11
23.3464566929
 21
0.1653543307
 31
0.0
  0
LINE
  5
119
330
1F
100
AcDbEntity
  8
TITLE
  6
Continuous
370
    18
100
AcDbLine
 10
25.3149606299
 20
119.5
 30
0.0
 11
25.3149606299
 21
119.8346456693
 31
0.0
  0
LINE
  5
11A
330
1F
100
AcDbEntity
  8
TITLE
  6
Continuous
370
    18
100
AcDbLine
 10
25.3149606299
 20
0.5
 30
0.0
 11
25.3149606299
 21
0.1653543307
 31
0.0
  0
LINE
  5
11B
330
1F
100
AcDbEntity
  8
TITLE
  6
Continuous
370
    18
100
AcDbLine
 10
27.2834645669
 20
119.5
 30
0.0
 11
27.2834645669
 21
119.8346456693
 31
0.0
  0
LINE
  5
11C
330
1F
100
AcDbEntity
  8
TITLE
  6
Continuous
370
    18
100
AcDbLine
 10
27.2834645669
 20
0.5
 30
0.0
 11
27.2834645669
 21
0.1653543307
 31
0.0
  0
LINE
  5
11D
330
1F
100
AcDbEntity
  8
TITLE
  6
Continuous
370
    18
100
AcDbLine
 10
29.2519685039
 20
119.5
 30
0.0
 11
29.2519685039
 21
119.8346456693
 31
0.0
  0
LINE
  5
11E
330
1F
100
AcDbEntity
  8
TITLE
  6
Continuous
370
    18
100
AcDbLine
 10
29.2519685039
 20
0.5
 30
0.0
 11
29.2519685039
 21
0.1653543307
 31
0.0
  0
LINE
  5
11F
330
1F
100
AcDbEntity
  8
TITLE
  6
Continuous
370
    18
100
AcDbLine
 10
31.2204724409
 20
119.5
 30
0.0
 11
31.2204724409
 21
119.8346456693
 31
0.0
  0
LINE
  5
120
330
1F
100
AcDbEntity
  8
TITLE
  6
Continuous
370
    18
100
AcDbLine
 10
31.2204724409
 20
0.5
 30
0.0
 11
31.2204724409
 21
0.1653543307
 31
0.0
  0
LINE
  5
121
330
1F
100
AcDbEntity
  8
TITLE
  6
Continuous
370
    18
100
AcDbLine
 10
33.188976378
 20
119.5
 30
0.0
 11
33.188976378
 21
119.8346456693
 31
0.0
  0
LINE
  5
122
330
1F
100
AcDbEntity
  8
TITLE
  6
Continuous
370
    18
100
AcDbLine
 10
33.188976378
 20
0.5
 30
0.0
 11
33.188976378
 21
0.1653543307
 31
0.0
  0
LINE
  5
123
330
1F
100
AcDbEntity
  8
TITLE
  6
Continuous
370
    18
100
AcDbLine
 10
35.157480315
 20
119.5
 30
0.0
 11
35.157480315
 21
119.8346456693
 31
0.0
  0
LINE
  5
124
330
1F
100
AcDbEntity
  8
TITLE
  6
Continuous
370
    18
100
AcDbLine
 10
35.157480315
 20
0.5
 30
0.0
 11
35.157480315
 21
0.1653543307
 31
0.0
  0
LINE
  5
125
330
1F
100
AcDbEntity
  8
TITLE
  6
Continuous
370
    18
100
AcDbLine
 10
37.125984252
 20
119.5
 30
0.0
 11
37.125984252
 21
119.8346456693
 31
0.0
  0
LINE
  5
126
330
1F
100
AcDbEntity
  8
TITLE
  6
Continuous
370
    18
100
AcDbLine
 10
37.125984252
 20
0.5
 30
0.0
 11
37.125984252
 21
0.1653543307
 31
0.0
  0
LINE
  5
127
330
1F
100
AcDbEntity
  8
TITLE
  6
Continuous
370
    18
100
AcDbLine
 10
39.094488189
 20
119.5
 30
0.0
 11
39.094488189
 21
119.8346456693
 31
0.0
  0
LINE
  5
128
330
1F
100
AcDbEntity
  8
TITLE
  6
Continuous
370
    18
100
AcDbLine
 10
39.094488189
 20
0.5
 30
0.0
 11
39.094488189
 21
0.1653543307
 31
0.0
  0
LINE
  5
129
330
1F
100
AcDbEntity
  8
TITLE
  6
Continuous
370
    18
100
AcDbLine
 10
41.062992126
 20
119.5
 30
0.0
 11
41.062992126
 21
119.8346456693
 31
0.0
  0
LINE
  5
12A
330
1F
100
AcDbEntity
  8
TITLE
  6
Continuous
370
    18
100
AcDbLine
 10
41.062992126
 20
0.5
 30
0.0
 11
41.062992126
 21
0.1653543307
 31
0.0
  0
LINE
  5
12B
330
1F
100
AcDbEntity
  8
TITLE
  6
Continuous
370
    18
100
AcDbLine
 10
43.031496063
 20
119.5
 30
0.0
 11
43.031496063
 21
119.8346456693
 31
0.0
  0
LINE
  5
12C
330
1F
100
AcDbEntity
  8
TITLE
  6
Continuous
370
    18
100
AcDbLine
 10
43.031496063
 20
0.5
 30
0.0
 11
43.031496063
 21
0.1653543307
 31
0.0
  0
LINE
  5
12D
330
1F
100
AcDbEntity
  8
TITLE
  6
Continuous
370
    18
100
AcDbLine
 10
45.0
 20
119.5000393701
 30
0.0
 11
45.0
 21
119.8346456693
 31
0.0
  0
LINE
  5
12E
330
1F
100
AcDbEntity
  8
TITLE
  6
Continuous
370
    18
100
AcDbLine
 10
45.0
 20
0.4999606299
 30
0.0
 11
45.0
 21
0.1653543307
 31
0.0
  0
LINE
  5
12F
330
1F
100
AcDbEntity
  8
TITLE
  6
Continuous
370
    18
100
AcDbLine
 10
46.968503937
 20
119.5
 30
0.0
 11
46.968503937
 21
119.8346456693
 31
0.0
  0
LINE
  5
130
330
1F
100
AcDbEntity
  8
TITLE
  6
Continuous
370
    18
100
AcDbLine
 10
46.968503937
 20
0.5
 30
0.0
 11
46.968503937
 21
0.1653543307
 31
0.0
  0
LINE
  5
131
330
1F
100
AcDbEntity
  8
TITLE
  6
Continuous
370
    18
100
AcDbLine
 10
48.937007874
 20
119.5
 30
0.0
 11
48.937007874
 21
119.8346456693
 31
0.0
  0
LINE
  5
132
330
1F
100
AcDbEntity
  8
TITLE
  6
Continuous
370
    18
100
AcDbLine
 10
48.937007874
 20
0.5
 30
0.0
 11
48.937007874
 21
0.1653543307
 31
0.0
  0
LINE
  5
133
330
1F
100
AcDbEntity
  8
TITLE
  6
Continuous
370
    18
100
AcDbLine
 10
50.905511811
 20
119.5
 30
0.0
 11
50.905511811
 21
119.8346456693
 31
0.0
  0
LINE
  5
134
330
1F
100
AcDbEntity
  8
TITLE
  6
Continuous
370
    18
100
AcDbLine
 10
50.905511811
 20
0.5
 30
0.0
 11
50.905511811
 21
0.1653543307
 31
0.0
  0
LINE
  5
135
330
1F
100
AcDbEntity
  8
TITLE
  6
Continuous
370
    18
100
AcDbLine
 10
52.874015748
 20
119.5
 30
0.0
 11
52.874015748
 21
119.8346456693
 31
0.0
  0
LINE
  5
136
330
1F
100
AcDbEntity
  8
TITLE
  6
Continuous
370
    18
100
AcDbLine
 10
52.874015748
 20
0.5
 30
0.0
 11
52.874015748
 21
0.1653543307
 31
0.0
  0
LINE
  5
137
330
1F
100
AcDbEntity
  8
TITLE
  6
Continuous
370
    18
100
AcDbLine
 10
54.842519685
 20
119.5
 30
0.0
 11
54.842519685
 21
119.8346456693
 31
0.0
  0
LINE
  5
138
330
1F
100
AcDbEntity
  8
TITLE
  6
Continuous
370
    18
100
AcDbLine
 10
54.842519685
 20
0.5
 30
0.0
 11
54.842519685
 21
0.1653543307
 31
0.0
  0
LINE
  5
139
330
1F
100
AcDbEntity
  8
TITLE
  6
Continuous
370
    18
100
AcDbLine
 10
56.811023622
 20
119.5
 30
0.0
 11
56.811023622
 21
119.8346456693
 31
0.0
  0
LINE
  5
13A
330
1F
100
AcDbEntity
  8
TITLE
  6
Continuous
370
    18
100
AcDbLine
 10
56.811023622
 20
0.5
 30
0.0
 11
56.811023622
 21
0.1653543307
 31
0.0
  0
LINE
  5
13B
330
1F
100
AcDbEntity
  8
TITLE
  6
Continuous
370
    18
100
AcDbLine
 10
58.7795275591
 20
119.5
 30
0.0
 11
58.7795275591
 21
119.8346456693
 31
0.0
  0
LINE
  5
13C
330
1F
100
AcDbEntity
  8
TITLE
  6
Continuous
370
    18
100
AcDbLine
 10
58.7795275591
 20
0.5
 30
0.0
 11
58.7795275591
 21
0.1653543307
 31
0.0
  0
LINE
  5
13D
330
1F
100
AcDbEntity
  8
TITLE
  6
Continuous
370
    18
100
AcDbLine
 10
60.7480314961
 20
119.5
 30
0.0
 11
60.7480314961
 21
119.8346456693
 31
0.0
  0
LINE
  5
13E
330
1F
100
AcDbEntity
  8
TITLE
  6
Continuous
370
    18
100
AcDbLine
 10
60.7480314961
 20
0.5
 30
0.0
 11
60.7480314961
 21
0.1653543307
 31
0.0
  0
LINE
  5
13F
330
1F
100
AcDbEntity
  8
TITLE
  6
Continuous
370
    18
100
AcDbLine
 10
62.7165354331
 20
119.5
 30
0.0
 11
62.7165354331
 21
119.8346456693
 31
0.0
  0
LINE
  5
140
330
1F
100
AcDbEntity
  8
TITLE
  6
Continuous
370
    18
100
AcDbLine
 10
62.7165354331
 20
0.5
 30
0.0
 11
62.7165354331
 21
0.1653543307
 31
0.0
  0
LINE
  5
141
330
1F
100
AcDbEntity
  8
TITLE
  6
Continuous
370
    18
100
AcDbLine
 10
64.6850393701
 20
119.5
 30
0.0
 11
64.6850393701
 21
119.8346456693
 31
0.0
  0
LINE
  5
142
330
1F
100
AcDbEntity
  8
TITLE
  6
Continuous
370
    18
100
AcDbLine
 10
64.6850393701
 20
0.5
 30
0.0
 11
64.6850393701
 21
0.1653543307
 31
0.0
  0
LINE
  5
143
330
1F
100
AcDbEntity
  8
TITLE
  6
Continuous
370
    18
100
AcDbLine
 10
66.6535433071
 20
119.5
 30
0.0
 11
66.6535433071
 21
119.8346456693
 31
0.0
  0
LINE
  5
144
330
1F
100
AcDbEntity
  8
TITLE
  6
Continuous
370
    18
100
AcDbLine
 10
66.6535433071
 20
0.5
 30
0.0
 11
66.6535433071
 21
0.1653543307
 31
0.0
  0
LINE
  5
145
330
1F
100
AcDbEntity
  8
TITLE
  6
Continuous
370
    18
100
AcDbLine
 10
68.6220472441
 20
119.5
 30
0.0
 11
68.6220472441
 21
119.8346456693
 31
0.0
  0
LINE
  5
146
330
1F
100
AcDbEntity
  8
TITLE
  6
Continuous
370
    18
100
AcDbLine
 10
68.6220472441
 20
0.5
 30
0.0
 11
68.6220472441
 21
0.1653543307
 31
0.0
  0
LINE
  5
147
330
1F
100
AcDbEntity
  8
TITLE
  6
Continuous
370
    18
100
AcDbLine
 10
70.5905511811
 20
119.5
 30
0.0
 11
70.5905511811
 21
119.8346456693
 31
0.0
  0
LINE
  5
148
330
1F
100
AcDbEntity
  8
TITLE
  6
Continuous
370
    18
100
AcDbLine
 10
70.5905511811
 20
0.5
 30
0.0
 11
70.5905511811
 21
0.1653543307
 31
0.0
  0
LINE
  5
149
330
1F
100
AcDbEntity
  8
TITLE
  6
Continuous
370
    18
100
AcDbLine
 10
72.5590551181
 20
119.5
 30
0.0
 11
72.5590551181
 21
119.8346456693
 31
0.0
  0
LINE
  5
14A
330
1F
100
AcDbEntity
  8
TITLE
  6
Continuous
370
    18
100
AcDbLine
 10
72.5590551181
 20
0.5
 30
0.0
 11
72.5590551181
 21
0.1653543307
 31
0.0
  0
LINE
  5
14B
330
1F
100
AcDbEntity
  8
TITLE
  6
Continuous
370
    18
100
AcDbLine
 10
74.5275590551
 20
119.5
 30
0.0
 11
74.5275590551
 21
119.8346456693
 31
0.0
  0
LINE
  5
14C
330
1F
100
AcDbEntity
  8
TITLE
  6
Continuous
370
    18
100
AcDbLine
 10
74.5275590551
 20
0.5
 30
0.0
 11
74.5275590551
 21
0.1653543307
 31
0.0
  0
LINE
  5
14D
330
1F
100
AcDbEntity
  8
TITLE
  6
Continuous
370
    18
100
AcDbLine
 10
76.4960629921
 20
119.5
 30
0.0
 11
76.4960629921
 21
119.8346456693
 31
0.0
  0
LINE
  5
14E
330
1F
100
AcDbEntity
  8
TITLE
  6
Continuous
370
    18
100
AcDbLine
 10
76.4960629921
 20
0.5
 30
0.0
 11
76.4960629921
 21
0.1653543307
 31
0.0
  0
LINE
  5
14F
330
1F
100
AcDbEntity
  8
TITLE
  6
Continuous
370
    18
100
AcDbLine
 10
78.4645669291
 20
119.5
 30
0.0
 11
78.4645669291
 21
119.8346456693
 31
0.0
  0
LINE
  5
150
330
1F
100
AcDbEntity
  8
TITLE
  6
Continuous
370
    18
100
AcDbLine
 10
78.4645669291
 20
0.5
 30
0.0
 11
78.4645669291
 21
0.1653543307
 31
0.0
  0
LINE
  5
151
330
1F
100
AcDbEntity
  8
TITLE
  6
Continuous
370
    18
100
AcDbLine
 10
80.4330708661
 20
119.5
 30
0.0
 11
80.4330708661
 21
119.8346456693
 31
0.0
  0
LINE
  5
152
330
1F
100
AcDbEntity
  8
TITLE
  6
Continuous
370
    18
100
AcDbLine
 10
80.4330708661
 20
0.5
 30
0.0
 11
80.4330708661
 21
0.1653543307
 31
0.0
  0
LINE
  5
153
330
1F
100
AcDbEntity
  8
TITLE
  6
Continuous
370
    18
100
AcDbLine
 10
82.4015748031
 20
119.5
 30
0.0
 11
82.4015748031
 21
119.8346456693
 31
0.0
  0
LINE
  5
154
330
1F
100
AcDbEntity
  8
TITLE
  6
Continuous
370
    18
100
AcDbLine
 10
82.4015748031
 20
0.5
 30
0.0
 11
82.4015748031
 21
0.1653543307
 31
0.0
  0
LINE
  5
155
330
1F
100
AcDbEntity
  8
TITLE
  6
Continuous
370
    18
100
AcDbLine
 10
84.3700787402
 20
119.5
 30
0.0
 11
84.3700787402
 21
119.8346456693
 31
0.0
  0
LINE
  5
156
330
1F
100
AcDbEntity
  8
TITLE
  6
Continuous
370
    18
100
AcDbLine
 10
84.3700787402
 20
0.5
 30
0.0
 11
84.3700787402
 21
0.1653543307
 31
0.0
  0
LINE
  5
157
330
1F
100
AcDbEntity
  8
TITLE
  6
Continuous
370
    18
100
AcDbLine
 10
86.3385826772
 20
119.5
 30
0.0
 11
86.3385826772
 21
119.8346456693
 31
0.0
  0
LINE
  5
158
330
1F
100
AcDbEntity
  8
TITLE
  6
Continuous
370
    18
100
AcDbLine
 10
86.3385826772
 20
0.5
 30
0.0
 11
86.3385826772
 21
0.1653543307
 31
0.0
  0
LINE
  5
159
330
1F
100
AcDbEntity
  8
TITLE
  6
Continuous
370
    18
100
AcDbLine
 10
88.3070866142
 20
119.5
 30
0.0
 11
88.3070866142
 21
119.8346456693
 31
0.0
  0
LINE
  5
15A
330
1F
100
AcDbEntity
  8
TITLE
  6
Continuous
370
    18
100
AcDbLine
 10
88.3070866142
 20
0.5
 30
0.0
 11
88.3070866142
 21
0.1653543307
 31
0.0
  0
MTEXT
  5
15C
330
1F
100
AcDbEntity
  8
NOTES
100
AcDbMText
 10
66.408297803
 20
1.0702903347
 30
0.0
 40
0.25
 41
0.0
 71
     1
 72
     1
  1
UNLESS OTHERWISE SPECIFIED DIMENSIONS ARE IN INCHES.
  7
SLDTEXTSTYLE0
 73
     1
 44
1.0
  0
MTEXT
  5
15D
330
1F
100
AcDbEntity
  8
NOTES
100
AcDbMText
 10
66.4368251132
 20
3.2193045501
 30
0.0
 40
0.25
 41
0.0
 71
     1
 72
     1
  1
DATE:
  7
SLDTEXTSTYLE0
 73
     1
 44
1.0
  0
MTEXT
  5
15E
330
1F
100
AcDbEntity
  8
NOTES
100
AcDbMText
 10
68.7130669976
 20
2.1722148141
 30
0.0
 40
0.25
 41
0.0
 71
     2
 72
     1
  1
DO NOT SCALE DRAWING
  7
SLDTEXTSTYLE0
 73
     1
 44
1.0
  0
MTEXT
  5
160
330
1F
100
AcDbEntity
  8
NOTES
100
AcDbMText
 10
72.8307373075
 20
3.2712065527
 30
0.0
 40
0.25
 41
0.0
 71
     1
 72
     1
  1
TITLE:
  7
SLDTEXTSTYLE1
 73
     1
 44
1.0
  0
MTEXT
  5
161
330
1F
100
AcDbEntity
  8
NOTES
100
AcDbMText
 10
80.1561831052
 20
3.2712065527
 30
0.0
 40
0.25
 41
0.0
 71
     1
 72
     1
  1
DWG NO.
  7
SLDTEXTSTYLE1
 73
     1
 44
1.0
  0
MTEXT
  5
163
330
1F
100
AcDbEntity
  8
NOTES
100
AcDbMText
 10
80.1831753203
 20
1.0675125551
 30
0.0
 40
0.25
 41
0.0
 71
     1
 72
     1
  1
SCALE:     1:1
  7
SLDTEXTSTYLE2
 73
     1
 44
1.0
  0
MTEXT
  5
165
330
1F
100
AcDbEntity
  8
NOTES
100
AcDbMText
 10
84.1959908397
 20
2.6539654269
 30
0.0
 40
0.25
 41
0.0
 71
     2
 72
     1
  1
1001 - BLK - 18 CAD
  7
SLDTEXTSTYLE3
 73
     1
 44
1.0
  0
MTEXT
  5
166
330
1F
100
AcDbEntity
  8
NOTES
100
AcDbMText
 10
75.9645307823
 20
2.6418171416
 30
0.0
 40
0.25
 41
0.0
 71
     2
 72
     1
  1
Matte black grab bar
  7
SLDTEXTSTYLE1
 73
     1
 44
1.0
  0
INSERT
  5
16C
330
1F
100
AcDbEntity
  8
NOTES
100
AcDbBlockReference
  2
SW_NOTE_0
 10
80.266131557
 20
4.6105227838
 30
0.0
  0
INSERT
  5
174
330
1F
100
AcDbEntity
  8
NOTES
100
AcDbBlockReference
  2
SW_NOTE_0_1
 10
66.6159726246
 20
5.1481526848
 30
0.0
  0
MTEXT
  5
175
330
1F
100
AcDbEntity
  8
NOTES
100
AcDbMText
 10
69.5224063214
 20
3.2165267706
 30
0.0
 40
0.25
 41
0.0
 71
     2
 72
     1
  1
February 6, 2025
  7
SLDTEXTSTYLE1
 73
     1
 44
1.0
  0
MTEXT
  5
176
330
1F
100
AcDbEntity
  8
TITLE
100
AcDbMText
 10
0.3276279776
 20
1.7880363566
 30
0.0
 40
0.125
 41
0.0
 71
     2
 72
     1
  1
A
  7
SLDTEXTSTYLE1
 73
     1
 44
1.0
  0
MTEXT
  5
177
330
1F
100
AcDbEntity
  8
TITLE
100
AcDbMText
 10
89.6622736469
 20
1.7880363566
 30
0.0
 40
0.125
 41
0.0
 71
     2
 72
     1
  1
A
  7
SLDTEXTSTYLE1
 73
     1
 44
1.0
  0
MTEXT
  5
178
330
1F
100
AcDbEntity
  8
TITLE
100
AcDbMText
 10
0.3317512413
 20
3.9789812385
 30
0.0
 40
0.125
 41
0.0
 71
     2
 72
     1
  1
B
  7
SLDTEXTSTYLE1
 73
     1
 44
1.0
  0
MTEXT
  5
179
330
1F
100
AcDbEntity
  8
TITLE
100
AcDbMText
 10
89.6663969106
 20
3.9789812385
 30
0.0
 40
0.125
 41
0.0
 71
     2
 72
     1
  1
B
  7
SLDTEXTSTYLE1
 73
     1
 44
1.0
  0
MTEXT
  5
17A
330
1F
100
AcDbEntity
  8
TITLE
100
AcDbMText
 10
0.3313750817
 20
5.9474851755
 30
0.0
 40
0.125
 41
0.0
 71
     2
 72
     1
  1
C
  7
SLDTEXTSTYLE1
 73
     1
 44
1.0
  0
MTEXT
  5
17B
330
1F
100
AcDbEntity
  8
TITLE
100
AcDbMText
 10
89.666020751
 20
5.9474851755
 30
0.0
 40
0.125
 41
0.0
 71
     2
 72
     1
  1
C
  7
SLDTEXTSTYLE1
 73
     1
 44
1.0
  0
MTEXT
  5
17C
330
1F
100
AcDbEntity
  8
TITLE
100
AcDbMText
 10
0.3311870028
 20
7.9159891125
 30
0.0
 40
0.125
 41
0.0
 71
     2
 72
     1
  1
D
  7
SLDTEXTSTYLE1
 73
     1
 44
1.0
  0
MTEXT
  5
17D
330
1F
100
AcDbEntity
  8
TITLE
100
AcDbMText
 10
89.6658326721
 20
7.9159891125
 30
0.0
 40
0.125
 41
0.0
 71
     2
 72
     1
  1
D
  7
SLDTEXTSTYLE1
 73
     1
 44
1.0
  0
MTEXT
  5
17E
330
1F
100
AcDbEntity
  8
TITLE
100
AcDbMText
 10
0.332923116
 20
9.8844930495
 30
0.0
 40
0.125
 41
0.0
 71
     2
 72
     1
  1
E
  7
SLDTEXTSTYLE1
 73
     1
 44
1.0
  0
MTEXT
  5
17F
330
1F
100
AcDbEntity
  8
TITLE
100
AcDbMText
 10
89.6675687853
 20
9.8844930495
 30
0.0
 40
0.125
 41
0.0
 71
     2
 72
     1
  1
E
  7
SLDTEXTSTYLE1
 73
     1
 44
1.0
  0
MTEXT
  5
180
330
1F
100
AcDbEntity
  8
TITLE
100
AcDbMText
 10
0.3313461474
 20
11.8529969865
 30
0.0
 40
0.125
 41
0.0
 71
     2
 72
     1
  1
F
  7
SLDTEXTSTYLE1
 73
     1
 44
1.0
  0
MTEXT
  5
181
330
1F
100
AcDbEntity
  8
TITLE
100
AcDbMText
 10
89.6659918167
 20
11.8529969865
 30
0.0
 40
0.125
 41
0.0
 71
     2
 72
     1
  1
F
  7
SLDTEXTSTYLE1
 73
     1
 44
1.0
  0
MTEXT
  5
182
330
1F
100
AcDbEntity
  8
TITLE
100
AcDbMText
 10
0.3322576054
 20
13.8215009236
 30
0.0
 40
0.125
 41
0.0
 71
     2
 72
     1
  1
G
  7
SLDTEXTSTYLE1
 73
     1
 44
1.0
  0
MTEXT
  5
183
330
1F
100
AcDbEntity
  8
TITLE
100
AcDbMText
 10
89.6669032747
 20
13.8215009236
 30
0.0
 40
0.125
 41
0.0
 71
     2
 72
     1
  1
G
  7
SLDTEXTSTYLE1
 73
     1
 44
1.0
  0
MTEXT
  5
184
330
1F
100
AcDbEntity
  8
TITLE
100
AcDbMText
 10
0.3323733457
 20
15.7900048606
 30
0.0
 40
0.125
 41
0.0
 71
     2
 72
     1
  1
H
  7
SLDTEXTSTYLE1
 73
     1
 44
1.0
  0
MTEXT
  5
185
330
1F
100
AcDbEntity
  8
TITLE
100
AcDbMText
 10
89.667019015
 20
15.7900048606
 30
0.0
 40
0.125
 41
0.0
 71
     2
 72
     1
  1
H
  7
SLDTEXTSTYLE1
 73
     1
 44
1.0
  0
MTEXT
  5
186
330
1F
100
AcDbEntity
  8
TITLE
100
AcDbMText
 10
0.3315776306
 20
17.7585087976
 30
0.0
 40
0.125
 41
0.0
 71
     2
 72
     1
  1
J
  7
SLDTEXTSTYLE1
 73
     1
 44
1.0
  0
MTEXT
  5
187
330
1F
100
AcDbEntity
  8
TITLE
100
AcDbMText
 10
89.6662232999
 20
17.7585087976
 30
0.0
 40
0.125
 41
0.0
 71
     2
 72
     1
  1
J
  7
SLDTEXTSTYLE1
 73
     1
 44
1.0
  0
MTEXT
  5
188
330
1F
100
AcDbEntity
  8
TITLE
100
AcDbMText
 10
0.3323154765
 20
19.7270127346
 30
0.0
 40
0.125
 41
0.0
 71
     2
 72
     1
  1
K
  7
SLDTEXTSTYLE1
 73
     1
 44
1.0
  0
MTEXT
  5
189
330
1F
100
AcDbEntity
  8
TITLE
100
AcDbMText
 10
89.6669611458
 20
19.7270127346
 30
0.0
 40
0.125
 41
0.0
 71
     2
 72
     1
  1
K
  7
SLDTEXTSTYLE1
 73
     1
 44
1.0
  0
MTEXT
  5
18A
330
1F
100
AcDbEntity
  8
TITLE
100
AcDbMText
 10
0.3312448739
 20
21.6955166716
 30
0.0
 40
0.125
 41
0.0
 71
     2
 72
     1
  1
L
  7
SLDTEXTSTYLE1
 73
     1
 44
1.0
  0
MTEXT
  5
18B
330
1F
100
AcDbEntity
  8
TITLE
100
AcDbMText
 10
89.6658905432
 20
21.6955166716
 30
0.0
 40
0.125
 41
0.0
 71
     2
 72
     1
  1
L
  7
SLDTEXTSTYLE1
 73
     1
 44
1.0
  0
MTEXT
  5
18C
330
1F
100
AcDbEntity
  8
TITLE
100
AcDbMText
 10
0.3283224192
 20
23.6640206086
 30
0.0
 40
0.125
 41
0.0
 71
     2
 72
     1
  1
M
  7
SLDTEXTSTYLE1
 73
     1
 44
1.0
  0
MTEXT
  5
18D
330
1F
100
AcDbEntity
  8
TITLE
100
AcDbMText
 10
89.6629680885
 20
23.6640206086
 30
0.0
 40
0.125
 41
0.0
 71
     2
 72
     1
  1
M
  7
SLDTEXTSTYLE1
 73
     1
 44
1.0
  0
MTEXT
  5
18E
330
1F
100
AcDbEntity
  8
TITLE
100
AcDbMText
 10
0.3315342276
 20
25.6325245456
 30
0.0
 40
0.125
 41
0.0
 71
     2
 72
     1
  1
N
  7
SLDTEXTSTYLE1
 73
     1
 44
1.0
  0
MTEXT
  5
18F
330
1F
100
AcDbEntity
  8
TITLE
100
AcDbMText
 10
89.6661798969
 20
25.6325245456
 30
0.0
 40
0.125
 41
0.0
 71
     2
 72
     1
  1
N
  7
SLDTEXTSTYLE1
 73
     1
 44
1.0
  0
MTEXT
  5
190
330
1F
100
AcDbEntity
  8
TITLE
100
AcDbMText
 10
0.3321997349
 20
27.6010284826
 30
0.0
 40
0.125
 41
0.0
 71
     2
 72
     1
  1
P
  7
SLDTEXTSTYLE1
 73
     1
 44
1.0
  0
MTEXT
  5
191
330
1F
100
AcDbEntity
  8
TITLE
100
AcDbMText
 10
89.6668454042
 20
27.6010284826
 30
0.0
 40
0.125
 41
0.0
 71
     2
 72
     1
  1
P
  7
SLDTEXTSTYLE1
 73
     1
 44
1.0
  0
MTEXT
  5
192
330
1F
100
AcDbEntity
  8
TITLE
100
AcDbMText
 10
0.3309265867
 20
29.5695324196
 30
0.0
 40
0.125
 41
0.0
 71
     2
 72
     1
  1
R
  7
SLDTEXTSTYLE1
 73
     1
 44
1.0
  0
MTEXT
  5
193
330
1F
100
AcDbEntity
  8
TITLE
100
AcDbMText
 10
89.665572256
 20
29.5695324196
 30
0.0
 40
0.125
 41
0.0
 71
     2
 72
     1
  1
R
  7
SLDTEXTSTYLE1
 73
     1
 44
1.0
  0
MTEXT
  5
194
330
1F
100
AcDbEntity
  8
TITLE
100
AcDbMText
 10
0.3323010071
 20
31.5380363566
 30
0.0
 40
0.125
 41
0.0
 71
     2
 72
     1
  1
T
  7
SLDTEXTSTYLE1
 73
     1
 44
1.0
  0
MTEXT
  5
195
330
1F
100
AcDbEntity
  8
TITLE
100
AcDbMText
 10
89.6669466764
 20
31.5380363566
 30
0.0
 40
0.125
 41
0.0
 71
     2
 72
     1
  1
T
  7
SLDTEXTSTYLE1
 73
     1
 44
1.0
  0
MTEXT
  5
196
330
1F
100
AcDbEntity
  8
TITLE
100
AcDbMText
 10
0.3328507755
 20
33.5065402936
 30
0.0
 40
0.125
 41
0.0
 71
     2
 72
     1
  1
U
  7
SLDTEXTSTYLE1
 73
     1
 44
1.0
  0
MTEXT
  5
197
330
1F
100
AcDbEntity
  8
TITLE
100
AcDbMText
 10
89.6674964448
 20
33.5065402936
 30
0.0
 40
0.125
 41
0.0
 71
     2
 72
     1
  1
U
  7
SLDTEXTSTYLE1
 73
     1
 44
1.0
  0
MTEXT
  5
198
330
1F
100
AcDbEntity
  8
TITLE
100
AcDbMText
 10
0.3307529773
 20
35.4750442306
 30
0.0
 40
0.125
 41
0.0
 71
     2
 72
     1
  1
V
  7
SLDTEXTSTYLE1
 73
     1
 44
1.0
  0
MTEXT
  5
199
330
1F
100
AcDbEntity
  8
TITLE
100
AcDbMText
 10
89.6653986466
 20
35.4750442306
 30
0.0
 40
0.125
 41
0.0
 71
     2
 72
     1
  1
V
  7
SLDTEXTSTYLE1
 73
     1
 44
1.0
  0
MTEXT
  5
19A
330
1F
100
AcDbEntity
  8
TITLE
100
AcDbMText
 10
0.3327784409
 20
37.4435481676
 30
0.0
 40
0.125
 41
0.0
 71
     2
 72
     1
  1
W
  7
SLDTEXTSTYLE1
 73
     1
 44
1.0
  0
MTEXT
  5
19B
330
1F
100
AcDbEntity
  8
TITLE
100
AcDbMText
 10
89.6674241102
 20
37.4435481676
 30
0.0
 40
0.125
 41
0.0
 71
     2
 72
     1
  1
W
  7
SLDTEXTSTYLE1
 73
     1
 44
1.0
  0
MTEXT
  5
19C
330
1F
100
AcDbEntity
  8
TITLE
100
AcDbMText
 10
0.3321997349
 20
39.4120521047
 30
0.0
 40
0.125
 41
0.0
 71
     2
 72
     1
  1
Y
  7
SLDTEXTSTYLE1
 73
     1
 44
1.0
  0
MTEXT
  5
19D
330
1F
100
AcDbEntity
  8
TITLE
100
AcDbMText
 10
89.6668454042
 20
39.4120521047
 30
0.0
 40
0.125
 41
0.0
 71
     2
 72
     1
  1
Y
  7
SLDTEXTSTYLE1
 73
     1
 44
1.0
  0
MTEXT
  5
19E
330
1F
100
AcDbEntity
  8
TITLE
100
AcDbMText
 10
0.3225787898
 20
41.3805560417
 30
0.0
 40
0.125
 41
0.0
 71
     2
 72
     1
  1
AA
  7
SLDTEXTSTYLE1
 73
     1
 44
1.0
  0
MTEXT
  5
19F
330
1F
100
AcDbEntity
  8
TITLE
100
AcDbMText
 10
89.6572244591
 20
41.3805560417
 30
0.0
 40
0.125
 41
0.0
 71
     2
 72
     1
  1
AA
  7
SLDTEXTSTYLE1
 73
     1
 44
1.0
  0
MTEXT
  5
1A0
330
1F
100
AcDbEntity
  8
TITLE
100
AcDbMText
 10
0.3267020535
 20
43.3490599787
 30
0.0
 40
0.125
 41
0.0
 71
     2
 72
     1
  1
AB
  7
SLDTEXTSTYLE1
 73
     1
 44
1.0
  0
MTEXT
  5
1A1
330
1F
100
AcDbEntity
  8
TITLE
100
AcDbMText
 10
89.6613477228
 20
43.3490599787
 30
0.0
 40
0.125
 41
0.0
 71
     2
 72
     1
  1
AB
  7
SLDTEXTSTYLE1
 73
     1
 44
1.0
  0
MTEXT
  5
1A2
330
1F
100
AcDbEntity
  8
TITLE
100
AcDbMText
 10
0.3263258985
 20
45.3175639157
 30
0.0
 40
0.125
 41
0.0
 71
     2
 72
     1
  1
AC
  7
SLDTEXTSTYLE1
 73
     1
 44
1.0
  0
MTEXT
  5
1A3
330
1F
100
AcDbEntity
  8
TITLE
100
AcDbMText
 10
89.6609715678
 20
45.3175639157
 30
0.0
 40
0.125
 41
0.0
 71
     2
 72
     1
  1
AC
  7
SLDTEXTSTYLE1
 73
     1
 44
1.0
  0
MTEXT
  5
1A4
330
1F
100
AcDbEntity
  8
TITLE
100
AcDbMText
 10
0.3261378197
 20
47.2860678527
 30
0.0
 40
0.125
 41
0.0
 71
     2
 72
     1
  1
AD
  7
SLDTEXTSTYLE1
 73
     1
 44
1.0
  0
MTEXT
  5
1A5
330
1F
100
AcDbEntity
  8
TITLE
100
AcDbMText
 10
89.6607834889
 20
47.2860678527
 30
0.0
 40
0.125
 41
0.0
 71
     2
 72
     1
  1
AD
  7
SLDTEXTSTYLE1
 73
     1
 44
1.0
  0
MTEXT
  5
1A6
330
1F
100
AcDbEntity
  8
TITLE
100
AcDbMText
 10
0.3278739283
 20
49.2545717897
 30
0.0
 40
0.125
 41
0.0
 71
     2
 72
     1
  1
AE
  7
SLDTEXTSTYLE1
 73
     1
 44
1.0
  0
MTEXT
  5
1A7
330
1F
100
AcDbEntity
  8
TITLE
100
AcDbMText
 10
89.6625195976
 20
49.2545717897
 30
0.0
 40
0.125
 41
0.0
 71
     2
 72
     1
  1
AE
  7
SLDTEXTSTYLE1
 73
     1
 44
1.0
  0
MTEXT
  5
1A8
330
1F
100
AcDbEntity
  8
TITLE
100
AcDbMText
 10
0.3262969596
 20
51.2230757267
 30
0.0
 40
0.125
 41
0.0
 71
     2
 72
     1
  1
AF
  7
SLDTEXTSTYLE1
 73
     1
 44
1.0
  0
MTEXT
  5
1A9
330
1F
100
AcDbEntity
  8
TITLE
100
AcDbMText
 10
89.6609426289
 20
51.2230757267
 30
0.0
 40
0.125
 41
0.0
 71
     2
 72
     1
  1
AF
  7
SLDTEXTSTYLE1
 73
     1
 44
1.0
  0
MTEXT
  5
1AA
330
1F
100
AcDbEntity
  8
TITLE
100
AcDbMText
 10
0.3272084177
 20
53.1915796637
 30
0.0
 40
0.125
 41
0.0
 71
     2
 72
     1
  1
AG
  7
SLDTEXTSTYLE1
 73
     1
 44
1.0
  0
MTEXT
  5
1AB
330
1F
100
AcDbEntity
  8
TITLE
100
AcDbMText
 10
89.661854087
 20
53.1915796637
 30
0.0
 40
0.125
 41
0.0
 71
     2
 72
     1
  1
AG
  7
SLDTEXTSTYLE1
 73
     1
 44
1.0
  0
MTEXT
  5
1AC
330
1F
100
AcDbEntity
  8
TITLE
100
AcDbMText
 10
0.3273241625
 20
55.1600836007
 30
0.0
 40
0.125
 41
0.0
 71
     2
 72
     1
  1
AH
  7
SLDTEXTSTYLE1
 73
     1
 44
1.0
  0
MTEXT
  5
1AD
330
1F
100
AcDbEntity
  8
TITLE
100
AcDbMText
 10
89.6619698318
 20
55.1600836007
 30
0.0
 40
0.125
 41
0.0
 71
     2
 72
     1
  1
AH
  7
SLDTEXTSTYLE1
 73
     1
 44
1.0
  0
MTEXT
  5
1AE
330
1F
100
AcDbEntity
  8
TITLE
100
AcDbMText
 10
0.3265284428
 20
57.1285875377
 30
0.0
 40
0.125
 41
0.0
 71
     2
 72
     1
  1
AJ
  7
SLDTEXTSTYLE1
 73
     1
 44
1.0
  0
MTEXT
  5
1AF
330
1F
100
AcDbEntity
  8
TITLE
100
AcDbMText
 10
89.6611741121
 20
57.1285875377
 30
0.0
 40
0.125
 41
0.0
 71
     2
 72
     1
  1
AJ
  7
SLDTEXTSTYLE1
 73
     1
 44
1.0
  0
MTEXT
  5
1B0
330
1F
100
AcDbEntity
  8
TITLE
100
AcDbMText
 10
0.3272662887
 20
59.0970914747
 30
0.0
 40
0.125
 41
0.0
 71
     2
 72
     1
  1
AK
  7
SLDTEXTSTYLE1
 73
     1
 44
1.0
  0
MTEXT
  5
1B1
330
1F
100
AcDbEntity
  8
TITLE
100
AcDbMText
 10
89.661911958
 20
59.0970914747
 30
0.0
 40
0.125
 41
0.0
 71
     2
 72
     1
  1
AK
  7
SLDTEXTSTYLE1
 73
     1
 44
1.0
  0
MTEXT
  5
1B2
330
1F
100
AcDbEntity
  8
TITLE
100
AcDbMText
 10
0.3261956816
 20
61.0655954117
 30
0.0
 40
0.125
 41
0.0
 71
     2
 72
     1
  1
AL
  7
SLDTEXTSTYLE1
 73
     1
 44
1.0
  0
MTEXT
  5
1B3
330
1F
100
AcDbEntity
  8
TITLE
100
AcDbMText
 10
89.6608413509
 20
61.0655954117
 30
0.0
 40
0.125
 41
0.0
 71
     2
 72
     1
  1
AL
  7
SLDTEXTSTYLE1
 73
     1
 44
1.0
  0
MTEXT
  5
1B4
330
1F
100
AcDbEntity
  8
TITLE
100
AcDbMText
 10
0.3232732315
 20
63.0340993488
 30
0.0
 40
0.125
 41
0.0
 71
     2
 72
     1
  1
AM
  7
SLDTEXTSTYLE1
 73
     1
 44
1.0
  0
MTEXT
  5
1B5
330
1F
100
AcDbEntity
  8
TITLE
100
AcDbMText
 10
89.6579189008
 20
63.0340993488
 30
0.0
 40
0.125
 41
0.0
 71
     2
 72
     1
  1
AM
  7
SLDTEXTSTYLE1
 73
     1
 44
1.0
  0
MTEXT
  5
1B6
330
1F
100
AcDbEntity
  8
TITLE
100
AcDbMText
 10
0.3264850398
 20
65.0026032858
 30
0.0
 40
0.125
 41
0.0
 71
     2
 72
     1
  1
AN
  7
SLDTEXTSTYLE1
 73
     1
 44
1.0
  0
MTEXT
  5
1B7
330
1F
100
AcDbEntity
  8
TITLE
100
AcDbMText
 10
89.6611307091
 20
65.0026032858
 30
0.0
 40
0.125
 41
0.0
 71
     2
 72
     1
  1
AN
  7
SLDTEXTSTYLE1
 73
     1
 44
1.0
  0
MTEXT
  5
1B8
330
1F
100
AcDbEntity
  8
TITLE
100
AcDbMText
 10
0.3271505426
 20
66.9711072228
 30
0.0
 40
0.125
 41
0.0
 71
     2
 72
     1
  1
AP
  7
SLDTEXTSTYLE1
 73
     1
 44
1.0
  0
MTEXT
  5
1B9
330
1F
100
AcDbEntity
  8
TITLE
100
AcDbMText
 10
89.6617962119
 20
66.9711072228
 30
0.0
 40
0.125
 41
0.0
 71
     2
 72
     1
  1
AP
  7
SLDTEXTSTYLE1
 73
     1
 44
1.0
  0
MTEXT
  5
1BA
330
1F
100
AcDbEntity
  8
TITLE
100
AcDbMText
 10
0.325877399
 20
68.9396111598
 30
0.0
 40
0.125
 41
0.0
 71
     2
 72
     1
  1
AR
  7
SLDTEXTSTYLE1
 73
     1
 44
1.0
  0
MTEXT
  5
1BB
330
1F
100
AcDbEntity
  8
TITLE
100
AcDbMText
 10
89.6605230682
 20
68.9396111598
 30
0.0
 40
0.125
 41
0.0
 71
     2
 72
     1
  1
AR
  7
SLDTEXTSTYLE1
 73
     1
 44
1.0
  0
MTEXT
  5
1BC
330
1F
100
AcDbEntity
  8
TITLE
100
AcDbMText
 10
0.3272518193
 20
70.9081150968
 30
0.0
 40
0.125
 41
0.0
 71
     2
 72
     1
  1
AT
  7
SLDTEXTSTYLE1
 73
     1
 44
1.0
  0
MTEXT
  5
1BD
330
1F
100
AcDbEntity
  8
TITLE
100
AcDbMText
 10
89.6618974886
 20
70.9081150968
 30
0.0
 40
0.125
 41
0.0
 71
     2
 72
     1
  1
AT
  7
SLDTEXTSTYLE1
 73
     1
 44
1.0
  0
MTEXT
  5
1BE
330
1F
100
AcDbEntity
  8
TITLE
100
AcDbMText
 10
0.3278015877
 20
72.8766190338
 30
0.0
 40
0.125
 41
0.0
 71
     2
 72
     1
  1
AU
  7
SLDTEXTSTYLE1
 73
     1
 44
1.0
  0
MTEXT
  5
1BF
330
1F
100
AcDbEntity
  8
TITLE
100
AcDbMText
 10
89.662447257
 20
72.8766190338
 30
0.0
 40
0.125
 41
0.0
 71
     2
 72
     1
  1
AU
  7
SLDTEXTSTYLE1
 73
     1
 44
1.0
  0
MTEXT
  5
1C0
330
1F
100
AcDbEntity
  8
TITLE
100
AcDbMText
 10
0.3257037895
 20
74.8451229708
 30
0.0
 40
0.125
 41
0.0
 71
     2
 72
     1
  1
AV
  7
SLDTEXTSTYLE1
 73
     1
 44
1.0
  0
MTEXT
  5
1C1
330
1F
100
AcDbEntity
  8
TITLE
100
AcDbMText
 10
89.6603494588
 20
74.8451229708
 30
0.0
 40
0.125
 41
0.0
 71
     2
 72
     1
  1
AV
  7
SLDTEXTSTYLE1
 73
     1
 44
1.0
  0
MTEXT
  5
1C2
330
1F
100
AcDbEntity
  8
TITLE
100
AcDbMText
 10
0.3277292486
 20
76.8136269078
 30
0.0
 40
0.125
 41
0.0
 71
     2
 72
     1
  1
AW
  7
SLDTEXTSTYLE1
 73
     1
 44
1.0
  0
MTEXT
  5
1C3
330
1F
100
AcDbEntity
  8
TITLE
100
AcDbMText
 10
89.6623749179
 20
76.8136269078
 30
0.0
 40
0.125
 41
0.0
 71
     2
 72
     1
  1
AW
  7
SLDTEXTSTYLE1
 73
     1
 44
1.0
  0
MTEXT
  5
1C4
330
1F
100
AcDbEntity
  8
TITLE
100
AcDbMText
 10
0.3271505426
 20
78.7821308448
 30
0.0
 40
0.125
 41
0.0
 71
     2
 72
     1
  1
AY
  7
SLDTEXTSTYLE1
 73
     1
 44
1.0
  0
MTEXT
  5
1C5
330
1F
100
AcDbEntity
  8
TITLE
100
AcDbMText
 10
89.6617962119
 20
78.7821308448
 30
0.0
 40
0.125
 41
0.0
 71
     2
 72
     1
  1
AY
  7
SLDTEXTSTYLE1
 73
     1
 44
1.0
  0
MTEXT
  5
1C6
330
1F
100
AcDbEntity
  8
TITLE
100
AcDbMText
 10
0.3267020535
 20
80.7506347818
 30
0.0
 40
0.125
 41
0.0
 71
     2
 72
     1
  1
BA
  7
SLDTEXTSTYLE1
 73
     1
 44
1.0
  0
MTEXT
  5
1C7
330
1F
100
AcDbEntity
  8
TITLE
100
AcDbMText
 10
89.6613477228
 20
80.7506347818
 30
0.0
 40
0.125
 41
0.0
 71
     2
 72
     1
  1
BA
  7
SLDTEXTSTYLE1
 73
     1
 44
1.0
  0
MTEXT
  5
1C8
330
1F
100
AcDbEntity
  8
TITLE
100
AcDbMText
 10
0.3308253173
 20
82.7191387188
 30
0.0
 40
0.125
 41
0.0
 71
     2
 72
     1
  1
BB
  7
SLDTEXTSTYLE1
 73
     1
 44
1.0
  0
MTEXT
  5
1C9
330
1F
100
AcDbEntity
  8
TITLE
100
AcDbMText
 10
89.6654709865
 20
82.7191387188
 30
0.0
 40
0.125
 41
0.0
 71
     2
 72
     1
  1
BB
  7
SLDTEXTSTYLE1
 73
     1
 44
1.0
  0
MTEXT
  5
1CA
330
1F
100
AcDbEntity
  8
TITLE
100
AcDbMText
 10
0.3304491531
 20
84.6876426558
 30
0.0
 40
0.125
 41
0.0
 71
     2
 72
     1
  1
BC
  7
SLDTEXTSTYLE1
 73
     1
 44
1.0
  0
MTEXT
  5
1CB
330
1F
100
AcDbEntity
  8
TITLE
100
AcDbMText
 10
89.6650948224
 20
84.6876426558
 30
0.0
 40
0.125
 41
0.0
 71
     2
 72
     1
  1
BC
  7
SLDTEXTSTYLE1
 73
     1
 44
1.0
  0
MTEXT
  5
1CC
330
1F
100
AcDbEntity
  8
TITLE
100
AcDbMText
 10
0.3302610742
 20
86.6561465928
 30
0.0
 40
0.125
 41
0.0
 71
     2
 72
     1
  1
BD
  7
SLDTEXTSTYLE1
 73
     1
 44
1.0
  0
MTEXT
  5
1CD
330
1F
100
AcDbEntity
  8
TITLE
100
AcDbMText
 10
89.6649067435
 20
86.6561465928
 30
0.0
 40
0.125
 41
0.0
 71
     2
 72
     1
  1
BD
  7
SLDTEXTSTYLE1
 73
     1
 44
1.0
  0
MTEXT
  5
1CE
330
1F
100
AcDbEntity
  8
TITLE
100
AcDbMText
 10
0.331997192
 20
88.6246505299
 30
0.0
 40
0.125
 41
0.0
 71
     2
 72
     1
  1
BE
  7
SLDTEXTSTYLE1
 73
     1
 44
1.0
  0
MTEXT
  5
1CF
330
1F
100
AcDbEntity
  8
TITLE
100
AcDbMText
 10
89.6666428613
 20
88.6246505299
 30
0.0
 40
0.125
 41
0.0
 71
     2
 72
     1
  1
BE
  7
SLDTEXTSTYLE1
 73
     1
 44
1.0
  0
MTEXT
  5
1D0
330
1F
100
AcDbEntity
  8
TITLE
100
AcDbMText
 10
0.3304202234
 20
90.5931544669
 30
0.0
 40
0.125
 41
0.0
 71
     2
 72
     1
  1
BF
  7
SLDTEXTSTYLE1
 73
     1
 44
1.0
  0
MTEXT
  5
1D1
330
1F
100
AcDbEntity
  8
TITLE
100
AcDbMText
 10
89.6650658926
 20
90.5931544669
 30
0.0
 40
0.125
 41
0.0
 71
     2
 72
     1
  1
BF
  7
SLDTEXTSTYLE1
 73
     1
 44
1.0
  0
MTEXT
  5
1D2
330
1F
100
AcDbEntity
  8
TITLE
100
AcDbMText
 10
0.3313316814
 20
92.5616584039
 30
0.0
 40
0.125
 41
0.0
 71
     2
 72
     1
  1
BG
  7
SLDTEXTSTYLE1
 73
     1
 44
1.0
  0
MTEXT
  5
1D3
330
1F
100
AcDbEntity
  8
TITLE
100
AcDbMText
 10
89.6659773507
 20
92.5616584039
 30
0.0
 40
0.125
 41
0.0
 71
     2
 72
     1
  1
BG
  7
SLDTEXTSTYLE1
 73
     1
 44
1.0
  0
MTEXT
  5
1D4
330
1F
100
AcDbEntity
  8
TITLE
100
AcDbMText
 10
0.331447417
 20
94.5301623409
 30
0.0
 40
0.125
 41
0.0
 71
     2
 72
     1
  1
BH
  7
SLDTEXTSTYLE1
 73
     1
 44
1.0
  0
MTEXT
  5
1D5
330
1F
100
AcDbEntity
  8
TITLE
100
AcDbMText
 10
89.6660930863
 20
94.5301623409
 30
0.0
 40
0.125
 41
0.0
 71
     2
 72
     1
  1
BH
  7
SLDTEXTSTYLE1
 73
     1
 44
1.0
  0
MTEXT
  5
1D6
330
1F
100
AcDbEntity
  8
TITLE
100
AcDbMText
 10
0.3306517065
 20
96.4986662779
 30
0.0
 40
0.125
 41
0.0
 71
     2
 72
     1
  1
BJ
  7
SLDTEXTSTYLE1
 73
     1
 44
1.0
  0
MTEXT
  5
1D7
330
1F
100
AcDbEntity
  8
TITLE
100
AcDbMText
 10
89.6652973758
 20
96.4986662779
 30
0.0
 40
0.125
 41
0.0
 71
     2
 72
     1
  1
BJ
  7
SLDTEXTSTYLE1
 73
     1
 44
1.0
  0
MTEXT
  5
1D8
330
1F
100
AcDbEntity
  8
TITLE
100
AcDbMText
 10
0.3313895525
 20
98.4671702149
 30
0.0
 40
0.125
 41
0.0
 71
     2
 72
     1
  1
BK
  7
SLDTEXTSTYLE1
 73
     1
 44
1.0
  0
MTEXT
  5
1D9
330
1F
100
AcDbEntity
  8
TITLE
100
AcDbMText
 10
89.6660352218
 20
98.4671702149
 30
0.0
 40
0.125
 41
0.0
 71
     2
 72
     1
  1
BK
  7
SLDTEXTSTYLE1
 73
     1
 44
1.0
  0
MTEXT
  5
1DA
330
1F
100
AcDbEntity
  8
TITLE
100
AcDbMText
 10
0.3303189545
 20
100.4356741519
 30
0.0
 40
0.125
 41
0.0
 71
     2
 72
     1
  1
BL
  7
SLDTEXTSTYLE1
 73
     1
 44
1.0
  0
MTEXT
  5
1DB
330
1F
100
AcDbEntity
  8
TITLE
100
AcDbMText
 10
89.6649646237
 20
100.4356741519
 30
0.0
 40
0.125
 41
0.0
 71
     2
 72
     1
  1
BL
  7
SLDTEXTSTYLE1
 73
     1
 44
1.0
  0
MTEXT
  5
1DC
330
1F
100
AcDbEntity
  8
TITLE
100
AcDbMText
 10
0.3273964952
 20
102.4041780889
 30
0.0
 40
0.125
 41
0.0
 71
     2
 72
     1
  1
BM
  7
SLDTEXTSTYLE1
 73
     1
 44
1.0
  0
MTEXT
  5
1DD
330
1F
100
AcDbEntity
  8
TITLE
100
AcDbMText
 10
89.6620421645
 20
102.4041780889
 30
0.0
 40
0.125
 41
0.0
 71
     2
 72
     1
  1
BM
  7
SLDTEXTSTYLE1
 73
     1
 44
1.0
  0
MTEXT
  5
1DE
330
1F
100
AcDbEntity
  8
TITLE
100
AcDbMText
 10
0.3306083035
 20
104.3726820259
 30
0.0
 40
0.125
 41
0.0
 71
     2
 72
     1
  1
BN
  7
SLDTEXTSTYLE1
 73
     1
 44
1.0
  0
MTEXT
  5
1DF
330
1F
100
AcDbEntity
  8
TITLE
100
AcDbMText
 10
89.6652539728
 20
104.3726820259
 30
0.0
 40
0.125
 41
0.0
 71
     2
 72
     1
  1
BN
  7
SLDTEXTSTYLE1
 73
     1
 44
1.0
  0
MTEXT
  5
1E0
330
1F
100
AcDbEntity
  8
TITLE
100
AcDbMText
 10
0.3312738155
 20
106.3411859629
 30
0.0
 40
0.125
 41
0.0
 71
     2
 72
     1
  1
BP
  7
SLDTEXTSTYLE1
 73
     1
 44
1.0
  0
MTEXT
  5
1E1
330
1F
100
AcDbEntity
  8
TITLE
100
AcDbMText
 10
89.6659194848
 20
106.3411859629
 30
0.0
 40
0.125
 41
0.0
 71
     2
 72
     1
  1
BP
  7
SLDTEXTSTYLE1
 73
     1
 44
1.0
  0
MTEXT
  5
1E2
330
1F
100
AcDbEntity
  8
TITLE
100
AcDbMText
 10
0.3300006627
 20
108.3096898999
 30
0.0
 40
0.125
 41
0.0
 71
     2
 72
     1
  1
BR
  7
SLDTEXTSTYLE1
 73
     1
 44
1.0
  0
MTEXT
  5
1E3
330
1F
100
AcDbEntity
  8
TITLE
100
AcDbMText
 10
89.664646332
 20
108.3096898999
 30
0.0
 40
0.125
 41
0.0
 71
     2
 72
     1
  1
BR
  7
SLDTEXTSTYLE1
 73
     1
 44
1.0
  0
MTEXT
  5
1E4
330
1F
100
AcDbEntity
  8
TITLE
100
AcDbMText
 10
0.331375083
 20
110.2781938369
 30
0.0
 40
0.125
 41
0.0
 71
     2
 72
     1
  1
BT
  7
SLDTEXTSTYLE1
 73
     1
 44
1.0
  0
MTEXT
  5
1E5
330
1F
100
AcDbEntity
  8
TITLE
100
AcDbMText
 10
89.6660207523
 20
110.2781938369
 30
0.0
 40
0.125
 41
0.0
 71
     2
 72
     1
  1
BT
  7
SLDTEXTSTYLE1
 73
     1
 44
1.0
  0
MTEXT
  5
1E6
330
1F
100
AcDbEntity
  8
TITLE
100
AcDbMText
 10
0.3319248515
 20
112.2466977739
 30
0.0
 40
0.125
 41
0.0
 71
     2
 72
     1
  1
BU
  7
SLDTEXTSTYLE1
 73
     1
 44
1.0
  0
MTEXT
  5
1E7
330
1F
100
AcDbEntity
  8
TITLE
100
AcDbMText
 10
89.6665705208
 20
112.2466977739
 30
0.0
 40
0.125
 41
0.0
 71
     2
 72
     1
  1
BU
  7
SLDTEXTSTYLE1
 73
     1
 44
1.0
  0
MTEXT
  5
1E8
330
1F
100
AcDbEntity
  8
TITLE
100
AcDbMText
 10
0.3298270533
 20
114.215201711
 30
0.0
 40
0.125
 41
0.0
 71
     2
 72
     1
  1
BV
  7
SLDTEXTSTYLE1
 73
     1
 44
1.0
  0
MTEXT
  5
1E9
330
1F
100
AcDbEntity
  8
TITLE
100
AcDbMText
 10
89.6644727226
 20
114.215201711
 30
0.0
 40
0.125
 41
0.0
 71
     2
 72
     1
  1
BV
  7
SLDTEXTSTYLE1
 73
     1
 44
1.0
  0
MTEXT
  5
1EA
330
1F
100
AcDbEntity
  8
TITLE
100
AcDbMText
 10
0.3318525215
 20
116.183705648
 30
0.0
 40
0.125
 41
0.0
 71
     2
 72
     1
  1
BW
  7
SLDTEXTSTYLE1
 73
     1
 44
1.0
  0
MTEXT
  5
1EB
330
1F
100
AcDbEntity
  8
TITLE
100
AcDbMText
 10
89.6664981907
 20
116.183705648
 30
0.0
 40
0.125
 41
0.0
 71
     2
 72
     1
  1
BW
  7
SLDTEXTSTYLE1
 73
     1
 44
1.0
  0
MTEXT
  5
1EC
330
1F
100
AcDbEntity
  8
TITLE
100
AcDbMText
 10
0.3312738155
 20
118.3746505299
 30
0.0
 40
0.125
 41
0.0
 71
     2
 72
     1
  1
BY
  7
SLDTEXTSTYLE1
 73
     1
 44
1.0
  0
MTEXT
  5
1ED
330
1F
100
AcDbEntity
  8
TITLE
100
AcDbMText
 10
89.6659194848
 20
118.3746505299
 30
0.0
 40
0.125
 41
0.0
 71
     2
 72
     1
  1
BY
  7
SLDTEXTSTYLE1
 73
     1
 44
1.0
  0
MTEXT
  5
1EE
330
1F
100
AcDbEntity
  8
TITLE
100
AcDbMText
 10
1.0939393315
 20
0.4140206086
 30
0.0
 40
0.125
 41
0.0
 71
     2
 72
     1
  1
46
  7
SLDTEXTSTYLE1
 73
     1
 44
1.0
  0
MTEXT
  5
1EF
330
1F
100
AcDbEntity
  8
TITLE
100
AcDbMText
 10
1.0939393315
 20
119.7486662779
 30
0.0
 40
0.125
 41
0.0
 71
     2
 72
     1
  1
46
  7
SLDTEXTSTYLE1
 73
     1
 44
1.0
  0
MTEXT
  5
1F0
330
1F
100
AcDbEntity
  8
TITLE
100
AcDbMText
 10
2.674647993
 20
0.4140206086
 30
0.0
 40
0.125
 41
0.0
 71
     2
 72
     1
  1
45
  7
SLDTEXTSTYLE1
 73
     1
 44
1.0
  0
MTEXT
  5
1F1
330
1F
100
AcDbEntity
  8
TITLE
100
AcDbMText
 10
2.674647993
 20
119.7486662779
 30
0.0
 40
0.125
 41
0.0
 71
     2
 72
     1
  1
45
  7
SLDTEXTSTYLE1
 73
     1
 44
1.0
  0
MTEXT
  5
1F2
330
1F
100
AcDbEntity
  8
TITLE
100
AcDbMText
 10
4.64315193
 20
0.4140206086
 30
0.0
 40
0.125
 41
0.0
 71
     2
 72
     1
  1
44
  7
SLDTEXTSTYLE1
 73
     1
 44
1.0
  0
MTEXT
  5
1F3
330
1F
100
AcDbEntity
  8
TITLE
100
AcDbMText
 10
4.64315193
 20
119.7486662779
 30
0.0
 40
0.125
 41
0.0
 71
     2
 72
     1
  1
44
  7
SLDTEXTSTYLE1
 73
     1
 44
1.0
  0
MTEXT
  5
1F4
330
1F
100
AcDbEntity
  8
TITLE
100
AcDbMText
 10
6.611655867
 20
0.4140206086
 30
0.0
 40
0.125
 41
0.0
 71
     2
 72
     1
  1
43
  7
SLDTEXTSTYLE1
 73
     1
 44
1.0
  0
MTEXT
  5
1F5
330
1F
100
AcDbEntity
  8
TITLE
100
AcDbMText
 10
6.611655867
 20
119.7486662779
 30
0.0
 40
0.125
 41
0.0
 71
     2
 72
     1
  1
43
  7
SLDTEXTSTYLE1
 73
     1
 44
1.0
  0
MTEXT
  5
1F6
330
1F
100
AcDbEntity
  8
TITLE
100
AcDbMText
 10
8.580159804
 20
0.4140206086
 30
0.0
 40
0.125
 41
0.0
 71
     2
 72
     1
  1
42
  7
SLDTEXTSTYLE1
 73
     1
 44
1.0
  0
MTEXT
  5
1F7
330
1F
100
AcDbEntity
  8
TITLE
100
AcDbMText
 10
8.580159804
 20
119.7486662779
 30
0.0
 40
0.125
 41
0.0
 71
     2
 72
     1
  1
42
  7
SLDTEXTSTYLE1
 73
     1
 44
1.0
  0
MTEXT
  5
1F8
330
1F
100
AcDbEntity
  8
TITLE
100
AcDbMText
 10
10.548663741
 20
0.4140206086
 30
0.0
 40
0.125
 41
0.0
 71
     2
 72
     1
  1
41
  7
SLDTEXTSTYLE1
 73
     1
 44
1.0
  0
MTEXT
  5
1F9
330
1F
100
AcDbEntity
  8
TITLE
100
AcDbMText
 10
10.548663741
 20
119.7486662779
 30
0.0
 40
0.125
 41
0.0
 71
     2
 72
     1
  1
41
  7
SLDTEXTSTYLE1
 73
     1
 44
1.0
  0
MTEXT
  5
1FA
330
1F
100
AcDbEntity
  8
TITLE
100
AcDbMText
 10
12.517167678
 20
0.4140206086
 30
0.0
 40
0.125
 41
0.0
 71
     2
 72
     1
  1
40
  7
SLDTEXTSTYLE1
 73
     1
 44
1.0
  0
MTEXT
  5
1FB
330
1F
100
AcDbEntity
  8
TITLE
100
AcDbMText
 10
12.517167678
 20
119.7486662779
 30
0.0
 40
0.125
 41
0.0
 71
     2
 72
     1
  1
40
  7
SLDTEXTSTYLE1
 73
     1
 44
1.0
  0
MTEXT
  5
1FC
330
1F
100
AcDbEntity
  8
TITLE
100
AcDbMText
 10
14.485671615
 20
0.4140206086
 30
0.0
 40
0.125
 41
0.0
 71
     2
 72
     1
  1
39
  7
SLDTEXTSTYLE1
 73
     1
 44
1.0
  0
MTEXT
  5
1FD
330
1F
100
AcDbEntity
  8
TITLE
100
AcDbMText
 10
14.485671615
 20
119.7486662779
 30
0.0
 40
0.125
 41
0.0
 71
     2
 72
     1
  1
39
  7
SLDTEXTSTYLE1
 73
     1
 44
1.0
  0
MTEXT
  5
1FE
330
1F
100
AcDbEntity
  8
TITLE
100
AcDbMText
 10
16.454175552
 20
0.4140206086
 30
0.0
 40
0.125
 41
0.0
 71
     2
 72
     1
  1
38
  7
SLDTEXTSTYLE1
 73
     1
 44
1.0
  0
MTEXT
  5
1FF
330
1F
100
AcDbEntity
  8
TITLE
100
AcDbMText
 10
16.454175552
 20
119.7486662779
 30
0.0
 40
0.125
 41
0.0
 71
     2
 72
     1
  1
38
  7
SLDTEXTSTYLE1
 73
     1
 44
1.0
  0
MTEXT
  5
200
330
1F
100
AcDbEntity
  8
TITLE
100
AcDbMText
 10
18.422679489
 20
0.4140206086
 30
0.0
 40
0.125
 41
0.0
 71
     2
 72
     1
  1
37
  7
SLDTEXTSTYLE1
 73
     1
 44
1.0
  0
MTEXT
  5
201
330
1F
100
AcDbEntity
  8
TITLE
100
AcDbMText
 10
18.422679489
 20
119.7486662779
 30
0.0
 40
0.125
 41
0.0
 71
     2
 72
     1
  1
37
  7
SLDTEXTSTYLE1
 73
     1
 44
1.0
  0
MTEXT
  5
202
330
1F
100
AcDbEntity
  8
TITLE
100
AcDbMText
 10
20.391183426
 20
0.4140206086
 30
0.0
 40
0.125
 41
0.0
 71
     2
 72
     1
  1
36
  7
SLDTEXTSTYLE1
 73
     1
 44
1.0
  0
MTEXT
  5
203
330
1F
100
AcDbEntity
  8
TITLE
100
AcDbMText
 10
20.391183426
 20
119.7486662779
 30
0.0
 40
0.125
 41
0.0
 71
     2
 72
     1
  1
36
  7
SLDTEXTSTYLE1
 73
     1
 44
1.0
  0
MTEXT
  5
204
330
1F
100
AcDbEntity
  8
TITLE
100
AcDbMText
 10
22.359687363
 20
0.4140206086
 30
0.0
 40
0.125
 41
0.0
 71
     2
 72
     1
  1
35
  7
SLDTEXTSTYLE1
 73
     1
 44
1.0
  0
MTEXT
  5
205
330
1F
100
AcDbEntity
  8
TITLE
100
AcDbMText
 10
22.359687363
 20
119.7486662779
 30
0.0
 40
0.125
 41
0.0
 71
     2
 72
     1
  1
35
  7
SLDTEXTSTYLE1
 73
     1
 44
1.0
  0
MTEXT
  5
206
330
1F
100
AcDbEntity
  8
TITLE
100
AcDbMText
 10
24.3281913
 20
0.4140206086
 30
0.0
 40
0.125
 41
0.0
 71
     2
 72
     1
  1
34
  7
SLDTEXTSTYLE1
 73
     1
 44
1.0
  0
MTEXT
  5
207
330
1F
100
AcDbEntity
  8
TITLE
100
AcDbMText
 10
24.3281913
 20
119.7486662779
 30
0.0
 40
0.125
 41
0.0
 71
     2
 72
     1
  1
34
  7
SLDTEXTSTYLE1
 73
     1
 44
1.0
  0
MTEXT
  5
208
330
1F
100
AcDbEntity
  8
TITLE
100
AcDbMText
 10
26.2966952371
 20
0.4140206086
 30
0.0
 40
0.125
 41
0.0
 71
     2
 72
     1
  1
33
  7
SLDTEXTSTYLE1
 73
     1
 44
1.0
  0
MTEXT
  5
209
330
1F
100
AcDbEntity
  8
TITLE
100
AcDbMText
 10
26.2966952371
 20
119.7486662779
 30
0.0
 40
0.125
 41
0.0
 71
     2
 72
     1
  1
33
  7
SLDTEXTSTYLE1
 73
     1
 44
1.0
  0
MTEXT
  5
20A
330
1F
100
AcDbEntity
  8
TITLE
100
AcDbMText
 10
28.2651991741
 20
0.4140206086
 30
0.0
 40
0.125
 41
0.0
 71
     2
 72
     1
  1
32
  7
SLDTEXTSTYLE1
 73
     1
 44
1.0
  0
MTEXT
  5
20B
330
1F
100
AcDbEntity
  8
TITLE
100
AcDbMText
 10
28.2651991741
 20
119.7486662779
 30
0.0
 40
0.125
 41
0.0
 71
     2
 72
     1
  1
32
  7
SLDTEXTSTYLE1
 73
     1
 44
1.0
  0
MTEXT
  5
20C
330
1F
100
AcDbEntity
  8
TITLE
100
AcDbMText
 10
30.2337031111
 20
0.4140206086
 30
0.0
 40
0.125
 41
0.0
 71
     2
 72
     1
  1
31
  7
SLDTEXTSTYLE1
 73
     1
 44
1.0
  0
MTEXT
  5
20D
330
1F
100
AcDbEntity
  8
TITLE
100
AcDbMText
 10
30.2337031111
 20
119.7486662779
 30
0.0
 40
0.125
 41
0.0
 71
     2
 72
     1
  1
31
  7
SLDTEXTSTYLE1
 73
     1
 44
1.0
  0
MTEXT
  5
20E
330
1F
100
AcDbEntity
  8
TITLE
100
AcDbMText
 10
32.2022070481
 20
0.4140206086
 30
0.0
 40
0.125
 41
0.0
 71
     2
 72
     1
  1
30
  7
SLDTEXTSTYLE1
 73
     1
 44
1.0
  0
MTEXT
  5
20F
330
1F
100
AcDbEntity
  8
TITLE
100
AcDbMText
 10
32.2022070481
 20
119.7486662779
 30
0.0
 40
0.125
 41
0.0
 71
     2
 72
     1
  1
30
  7
SLDTEXTSTYLE1
 73
     1
 44
1.0
  0
MTEXT
  5
210
330
1F
100
AcDbEntity
  8
TITLE
100
AcDbMText
 10
34.1707109851
 20
0.4140206086
 30
0.0
 40
0.125
 41
0.0
 71
     2
 72
     1
  1
29
  7
SLDTEXTSTYLE1
 73
     1
 44
1.0
  0
MTEXT
  5
211
330
1F
100
AcDbEntity
  8
TITLE
100
AcDbMText
 10
34.1707109851
 20
119.7486662779
 30
0.0
 40
0.125
 41
0.0
 71
     2
 72
     1
  1
29
  7
SLDTEXTSTYLE1
 73
     1
 44
1.0
  0
MTEXT
  5
212
330
1F
100
AcDbEntity
  8
TITLE
100
AcDbMText
 10
36.1392149221
 20
0.4140206086
 30
0.0
 40
0.125
 41
0.0
 71
     2
 72
     1
  1
28
  7
SLDTEXTSTYLE1
 73
     1
 44
1.0
  0
MTEXT
  5
213
330
1F
100
AcDbEntity
  8
TITLE
100
AcDbMText
 10
36.1392149221
 20
119.7486662779
 30
0.0
 40
0.125
 41
0.0
 71
     2
 72
     1
  1
28
  7
SLDTEXTSTYLE1
 73
     1
 44
1.0
  0
MTEXT
  5
214
330
1F
100
AcDbEntity
  8
TITLE
100
AcDbMText
 10
38.1077188591
 20
0.4140206086
 30
0.0
 40
0.125
 41
0.0
 71
     2
 72
     1
  1
27
  7
SLDTEXTSTYLE1
 73
     1
 44
1.0
  0
MTEXT
  5
215
330
1F
100
AcDbEntity
  8
TITLE
100
AcDbMText
 10
38.1077188591
 20
119.7486662779
 30
0.0
 40
0.125
 41
0.0
 71
     2
 72
     1
  1
27
  7
SLDTEXTSTYLE1
 73
     1
 44
1.0
  0
MTEXT
  5
216
330
1F
100
AcDbEntity
  8
TITLE
100
AcDbMText
 10
40.0762227961
 20
0.4140206086
 30
0.0
 40
0.125
 41
0.0
 71
     2
 72
     1
  1
26
  7
SLDTEXTSTYLE1
 73
     1
 44
1.0
  0
MTEXT
  5
217
330
1F
100
AcDbEntity
  8
TITLE
100
AcDbMText
 10
40.0762227961
 20
119.7486662779
 30
0.0
 40
0.125
 41
0.0
 71
     2
 72
     1
  1
26
  7
SLDTEXTSTYLE1
 73
     1
 44
1.0
  0
MTEXT
  5
218
330
1F
100
AcDbEntity
  8
TITLE
100
AcDbMText
 10
42.0447267331
 20
0.4140206086
 30
0.0
 40
0.125
 41
0.0
 71
     2
 72
     1
  1
25
  7
SLDTEXTSTYLE1
 73
     1
 44
1.0
  0
MTEXT
  5
219
330
1F
100
AcDbEntity
  8
TITLE
100
AcDbMText
 10
42.0447267331
 20
119.7486662779
 30
0.0
 40
0.125
 41
0.0
 71
     2
 72
     1
  1
25
  7
SLDTEXTSTYLE1
 73
     1
 44
1.0
  0
MTEXT
  5
21A
330
1F
100
AcDbEntity
  8
TITLE
100
AcDbMText
 10
44.0132306701
 20
0.4140206086
 30
0.0
 40
0.125
 41
0.0
 71
     2
 72
     1
  1
24
  7
SLDTEXTSTYLE1
 73
     1
 44
1.0
  0
MTEXT
  5
21B
330
1F
100
AcDbEntity
  8
TITLE
100
AcDbMText
 10
44.0132306701
 20
119.7486662779
 30
0.0
 40
0.125
 41
0.0
 71
     2
 72
     1
  1
24
  7
SLDTEXTSTYLE1
 73
     1
 44
1.0
  0
MTEXT
  5
21C
330
1F
100
AcDbEntity
  8
TITLE
100
AcDbMText
 10
45.9817346071
 20
0.4140206086
 30
0.0
 40
0.125
 41
0.0
 71
     2
 72
     1
  1
23
  7
SLDTEXTSTYLE1
 73
     1
 44
1.0
  0
MTEXT
  5
21D
330
1F
100
AcDbEntity
  8
TITLE
100
AcDbMText
 10
45.9817346071
 20
119.7486662779
 30
0.0
 40
0.125
 41
0.0
 71
     2
 72
     1
  1
23
  7
SLDTEXTSTYLE1
 73
     1
 44
1.0
  0
MTEXT
  5
21E
330
1F
100
AcDbEntity
  8
TITLE
100
AcDbMText
 10
47.9502385441
 20
0.4140206086
 30
0.0
 40
0.125
 41
0.0
 71
     2
 72
     1
  1
22
  7
SLDTEXTSTYLE1
 73
     1
 44
1.0
  0
MTEXT
  5
21F
330
1F
100
AcDbEntity
  8
TITLE
100
AcDbMText
 10
47.9502385441
 20
119.7486662779
 30
0.0
 40
0.125
 41
0.0
 71
     2
 72
     1
  1
22
  7
SLDTEXTSTYLE1
 73
     1
 44
1.0
  0
MTEXT
  5
220
330
1F
100
AcDbEntity
  8
TITLE
100
AcDbMText
 10
49.9187424811
 20
0.4140206086
 30
0.0
 40
0.125
 41
0.0
 71
     2
 72
     1
  1
21
  7
SLDTEXTSTYLE1
 73
     1
 44
1.0
  0
MTEXT
  5
221
330
1F
100
AcDbEntity
  8
TITLE
100
AcDbMText
 10
49.9187424811
 20
119.7486662779
 30
0.0
 40
0.125
 41
0.0
 71
     2
 72
     1
  1
21
  7
SLDTEXTSTYLE1
 73
     1
 44
1.0
  0
MTEXT
  5
222
330
1F
100
AcDbEntity
  8
TITLE
100
AcDbMText
 10
51.8872464182
 20
0.4140206086
 30
0.0
 40
0.125
 41
0.0
 71
     2
 72
     1
  1
20
  7
SLDTEXTSTYLE1
 73
     1
 44
1.0
  0
MTEXT
  5
223
330
1F
100
AcDbEntity
  8
TITLE
100
AcDbMText
 10
51.8872464182
 20
119.7486662779
 30
0.0
 40
0.125
 41
0.0
 71
     2
 72
     1
  1
20
  7
SLDTEXTSTYLE1
 73
     1
 44
1.0
  0
MTEXT
  5
224
330
1F
100
AcDbEntity
  8
TITLE
100
AcDbMText
 10
53.8557503552
 20
0.4140206086
 30
0.0
 40
0.125
 41
0.0
 71
     2
 72
     1
  1
19
  7
SLDTEXTSTYLE1
 73
     1
 44
1.0
  0
MTEXT
  5
225
330
1F
100
AcDbEntity
  8
TITLE
100
AcDbMText
 10
53.8557503552
 20
119.7486662779
 30
0.0
 40
0.125
 41
0.0
 71
     2
 72
     1
  1
19
  7
SLDTEXTSTYLE1
 73
     1
 44
1.0
  0
MTEXT
  5
226
330
1F
100
AcDbEntity
  8
TITLE
100
AcDbMText
 10
55.8242542922
 20
0.4140206086
 30
0.0
 40
0.125
 41
0.0
 71
     2
 72
     1
  1
18
  7
SLDTEXTSTYLE1
 73
     1
 44
1.0
  0
MTEXT
  5
227
330
1F
100
AcDbEntity
  8
TITLE
100
AcDbMText
 10
55.8242542922
 20
119.7486662779
 30
0.0
 40
0.125
 41
0.0
 71
     2
 72
     1
  1
18
  7
SLDTEXTSTYLE1
 73
     1
 44
1.0
  0
MTEXT
  5
228
330
1F
100
AcDbEntity
  8
TITLE
100
AcDbMText
 10
57.7927582292
 20
0.4140206086
 30
0.0
 40
0.125
 41
0.0
 71
     2
 72
     1
  1
17
  7
SLDTEXTSTYLE1
 73
     1
 44
1.0
  0
MTEXT
  5
229
330
1F
100
AcDbEntity
  8
TITLE
100
AcDbMText
 10
57.7927582292
 20
119.7486662779
 30
0.0
 40
0.125
 41
0.0
 71
     2
 72
     1
  1
17
  7
SLDTEXTSTYLE1
 73
     1
 44
1.0
  0
MTEXT
  5
22A
330
1F
100
AcDbEntity
  8
TITLE
100
AcDbMText
 10
59.7612621662
 20
0.4140206086
 30
0.0
 40
0.125
 41
0.0
 71
     2
 72
     1
  1
16
  7
SLDTEXTSTYLE1
 73
     1
 44
1.0
  0
MTEXT
  5
22B
330
1F
100
AcDbEntity
  8
TITLE
100
AcDbMText
 10
59.7612621662
 20
119.7486662779
 30
0.0
 40
0.125
 41
0.0
 71
     2
 72
     1
  1
16
  7
SLDTEXTSTYLE1
 73
     1
 44
1.0
  0
MTEXT
  5
22C
330
1F
100
AcDbEntity
  8
TITLE
100
AcDbMText
 10
61.7297661032
 20
0.4140206086
 30
0.0
 40
0.125
 41
0.0
 71
     2
 72
     1
  1
15
  7
SLDTEXTSTYLE1
 73
     1
 44
1.0
  0
MTEXT
  5
22D
330
1F
100
AcDbEntity
  8
TITLE
100
AcDbMText
 10
61.7297661032
 20
119.7486662779
 30
0.0
 40
0.125
 41
0.0
 71
     2
 72
     1
  1
15
  7
SLDTEXTSTYLE1
 73
     1
 44
1.0
  0
MTEXT
  5
22E
330
1F
100
AcDbEntity
  8
TITLE
100
AcDbMText
 10
63.6982700402
 20
0.4140206086
 30
0.0
 40
0.125
 41
0.0
 71
     2
 72
     1
  1
14
  7
SLDTEXTSTYLE1
 73
     1
 44
1.0
  0
MTEXT
  5
22F
330
1F
100
AcDbEntity
  8
TITLE
100
AcDbMText
 10
63.6982700402
 20
119.7486662779
 30
0.0
 40
0.125
 41
0.0
 71
     2
 72
     1
  1
14
  7
SLDTEXTSTYLE1
 73
     1
 44
1.0
  0
MTEXT
  5
230
330
1F
100
AcDbEntity
  8
TITLE
100
AcDbMText
 10
65.6667739772
 20
0.4140206086
 30
0.0
 40
0.125
 41
0.0
 71
     2
 72
     1
  1
13
  7
SLDTEXTSTYLE1
 73
     1
 44
1.0
  0
MTEXT
  5
231
330
1F
100
AcDbEntity
  8
TITLE
100
AcDbMText
 10
65.6667739772
 20
119.7486662779
 30
0.0
 40
0.125
 41
0.0
 71
     2
 72
     1
  1
13
  7
SLDTEXTSTYLE1
 73
     1
 44
1.0
  0
MTEXT
  5
232
330
1F
100
AcDbEntity
  8
TITLE
100
AcDbMText
 10
67.6352779142
 20
0.4140206086
 30
0.0
 40
0.125
 41
0.0
 71
     2
 72
     1
  1
12
  7
SLDTEXTSTYLE1
 73
     1
 44
1.0
  0
MTEXT
  5
233
330
1F
100
AcDbEntity
  8
TITLE
100
AcDbMText
 10
67.6352779142
 20
119.7486662779
 30
0.0
 40
0.125
 41
0.0
 71
     2
 72
     1
  1
12
  7
SLDTEXTSTYLE1
 73
     1
 44
1.0
  0
MTEXT
  5
234
330
1F
100
AcDbEntity
  8
TITLE
100
AcDbMText
 10
69.6037818512
 20
0.4140206086
 30
0.0
 40
0.125
 41
0.0
 71
     2
 72
     1
  1
11
  7
SLDTEXTSTYLE1
 73
     1
 44
1.0
  0
MTEXT
  5
235
330
1F
100
AcDbEntity
  8
TITLE
100
AcDbMText
 10
69.6037818512
 20
119.7486662779
 30
0.0
 40
0.125
 41
0.0
 71
     2
 72
     1
  1
11
  7
SLDTEXTSTYLE1
 73
     1
 44
1.0
  0
MTEXT
  5
236
330
1F
100
AcDbEntity
  8
TITLE
100
AcDbMText
 10
71.5722857882
 20
0.4140206086
 30
0.0
 40
0.125
 41
0.0
 71
     2
 72
     1
  1
10
  7
SLDTEXTSTYLE1
 73
     1
 44
1.0
  0
MTEXT
  5
237
330
1F
100
AcDbEntity
  8
TITLE
100
AcDbMText
 10
71.5722857882
 20
119.7486662779
 30
0.0
 40
0.125
 41
0.0
 71
     2
 72
     1
  1
10
  7
SLDTEXTSTYLE1
 73
     1
 44
1.0
  0
MTEXT
  5
238
330
1F
100
AcDbEntity
  8
TITLE
100
AcDbMText
 10
73.5420484059
 20
0.4140206086
 30
0.0
 40
0.125
 41
0.0
 71
     2
 72
     1
  1
9
  7
SLDTEXTSTYLE1
 73
     1
 44
1.0
  0
MTEXT
  5
239
330
1F
100
AcDbEntity
  8
TITLE
100
AcDbMText
 10
73.5420484059
 20
119.7486662779
 30
0.0
 40
0.125
 41
0.0
 71
     2
 72
     1
  1
9
  7
SLDTEXTSTYLE1
 73
     1
 44
1.0
  0
MTEXT
  5
23A
330
1F
100
AcDbEntity
  8
TITLE
100
AcDbMText
 10
75.5105523429
 20
0.4140206086
 30
0.0
 40
0.125
 41
0.0
 71
     2
 72
     1
  1
8
  7
SLDTEXTSTYLE1
 73
     1
 44
1.0
  0
MTEXT
  5
23B
330
1F
100
AcDbEntity
  8
TITLE
100
AcDbMText
 10
75.5105523429
 20
119.7486662779
 30
0.0
 40
0.125
 41
0.0
 71
     2
 72
     1
  1
8
  7
SLDTEXTSTYLE1
 73
     1
 44
1.0
  0
MTEXT
  5
23C
330
1F
100
AcDbEntity
  8
TITLE
100
AcDbMText
 10
77.4790562799
 20
0.4140206086
 30
0.0
 40
0.125
 41
0.0
 71
     2
 72
     1
  1
7
  7
SLDTEXTSTYLE1
 73
     1
 44
1.0
  0
MTEXT
  5
23D
330
1F
100
AcDbEntity
  8
TITLE
100
AcDbMText
 10
77.4790562799
 20
119.7486662779
 30
0.0
 40
0.125
 41
0.0
 71
     2
 72
     1
  1
7
  7
SLDTEXTSTYLE1
 73
     1
 44
1.0
  0
MTEXT
  5
23E
330
1F
100
AcDbEntity
  8
TITLE
100
AcDbMText
 10
79.447560217
 20
0.4140206086
 30
0.0
 40
0.125
 41
0.0
 71
     2
 72
     1
  1
6
  7
SLDTEXTSTYLE1
 73
     1
 44
1.0
  0
MTEXT
  5
23F
330
1F
100
AcDbEntity
  8
TITLE
100
AcDbMText
 10
79.447560217
 20
119.7486662779
 30
0.0
 40
0.125
 41
0.0
 71
     2
 72
     1
  1
6
  7
SLDTEXTSTYLE1
 73
     1
 44
1.0
  0
MTEXT
  5
240
330
1F
100
AcDbEntity
  8
TITLE
100
AcDbMText
 10
81.416064154
 20
0.4140206086
 30
0.0
 40
0.125
 41
0.0
 71
     2
 72
     1
  1
5
  7
SLDTEXTSTYLE1
 73
     1
 44
1.0
  0
MTEXT
  5
241
330
1F
100
AcDbEntity
  8
TITLE
100
AcDbMText
 10
81.416064154
 20
119.7486662779
 30
0.0
 40
0.125
 41
0.0
 71
     2
 72
     1
  1
5
  7
SLDTEXTSTYLE1
 73
     1
 44
1.0
  0
MTEXT
  5
242
330
1F
100
AcDbEntity
  8
TITLE
100
AcDbMText
 10
83.384568091
 20
0.4140206086
 30
0.0
 40
0.125
 41
0.0
 71
     2
 72
     1
  1
4
  7
SLDTEXTSTYLE1
 73
     1
 44
1.0
  0
MTEXT
  5
243
330
1F
100
AcDbEntity
  8
TITLE
100
AcDbMText
 10
83.384568091
 20
119.7486662779
 30
0.0
 40
0.125
 41
0.0
 71
     2
 72
     1
  1
4
  7
SLDTEXTSTYLE1
 73
     1
 44
1.0
  0
MTEXT
  5
244
330
1F
100
AcDbEntity
  8
TITLE
100
AcDbMText
 10
85.353072028
 20
0.4140206086
 30
0.0
 40
0.125
 41
0.0
 71
     2
 72
     1
  1
3
  7
SLDTEXTSTYLE1
 73
     1
 44
1.0
  0
MTEXT
  5
245
330
1F
100
AcDbEntity
  8
TITLE
100
AcDbMText
 10
85.353072028
 20
119.7486662779
 30
0.0
 40
0.125
 41
0.0
 71
     2
 72
     1
  1
3
  7
SLDTEXTSTYLE1
 73
     1
 44
1.0
  0
MTEXT
  5
246
330
1F
100
AcDbEntity
  8
TITLE
100
AcDbMText
 10
87.321575965
 20
0.4140206086
 30
0.0
 40
0.125
 41
0.0
 71
     2
 72
     1
  1
2
  7
SLDTEXTSTYLE1
 73
     1
 44
1.0
  0
MTEXT
  5
247
330
1F
100
AcDbEntity
  8
TITLE
100
AcDbMText
 10
87.321575965
 20
119.7486662779
 30
0.0
 40
0.125
 41
0.0
 71
     2
 72
     1
  1
2
  7
SLDTEXTSTYLE1
 73
     1
 44
1.0
  0
MTEXT
  5
248
330
1F
100
AcDbEntity
  8
TITLE
100
AcDbMText
 10
88.9022846264
 20
0.4140206086
 30
0.0
 40
0.125
 41
0.0
 71
     2
 72
     1
  1
1
  7
SLDTEXTSTYLE1
 73
     1
 44
1.0
  0
MTEXT
  5
249
330
1F
100
AcDbEntity
  8
TITLE
100
AcDbMText
 10
88.9022846264
 20
119.7486662779
 30
0.0
 40
0.125
 41
0.0
 71
     2
 72
     1
  1
1
  7
SLDTEXTSTYLE1
 73
     1
 44
1.0
  0
LINE
  5
24A
330
1F
100
AcDbEntity
  8
0
  6
Continuous
 62
     7
370
    25
100
AcDbLine
 10
16.0631244322
 20
25.3365505693
 30
0.0
 11
17.8131244322
 21
25.3365505693
 31
0.0
  0
LINE
  5
24B
330
1F
100
AcDbEntity
  8
0
  6
Continuous
 62
     7
370
    25
100
AcDbLine
 10
17.8131244322
 20
26.8365505693
 30
0.0
 11
16.0631244322
 21
26.8365505693
 31
0.0
  0
LINE
  5
24C
330
1F
100
AcDbEntity
  8
0
  6
Continuous
 62
     7
370
    25
100
AcDbLine
 10
32.3131244322
 20
26.8365505693
 30
0.0
 11
17.8131244322
 21
26.8365505693
 31
0.0
  0
LINE
  5
24D
330
1F
100
AcDbEntity
  8
0
  6
Continuous
 62
     7
370
    25
100
AcDbLine
 10
17.8131244322
 20
25.3365505693
 30
0.0
 11
32.3131244322
 21
25.3365505693
 31
0.0
  0
LINE
  5
24E
330
1F
100
AcDbEntity
  8
0
  6
Continuous
 62
     7
370
    25
100
AcDbLine
 10
32.3131244322
 20
25.3365505693
 30
0.0
 11
34.0631244322
 21
25.3365505693
 31
0.0
  0
LINE
  5
24F
330
1F
100
AcDbEntity
  8
0
  6
Continuous
 62
     7
370
    25
100
AcDbLine
 10
34.0631244322
 20
26.8365505693
 30
0.0
 11
32.3131244322
 21
26.8365505693
 31
0.0
  0
ARC
  5
250
330
1F
100
AcDbEntity
  8
0
  6
Continuous
 62
     7
370
    25
100
AcDbCircle
 10
16.0631244322
 20
26.0865505693
 30
0.0
 40
0.7500000000000018
100
AcDbArc
 50
90.0
 51
270.0
  0
ARC
  5
251
330
1F
100
AcDbEntity
  8
0
  6
Continuous
 62
     7
370
    25
100
AcDbCircle
 10
34.0631244322
 20
26.0865505693
 30
0.0
 40
0.7500000000000036
100
AcDbArc
 50
270.0
 51
90.0
  0
ARC
  5
252
330
1F
100
AcDbEntity
  8
0
  6
Continuous
 62
     7
370
    25
100
AcDbCircle
 10
16.0631244322
 20
26.0865505693
 30
0.0
 40
1.500000000000004
100
AcDbArc
 50
30.0
 51
270.0
  0
ARC
  5
253
330
1F
100
AcDbEntity
  8
0
  6
Continuous
 62
     7
370
    25
100
AcDbCircle
 10
16.0631244322
 20
26.0865505693
 30
0.0
 40
1.500000000000004
100
AcDbArc
 50
270.0
 51
330.0
  0
ARC
  5
254
330
1F
100
AcDbEntity
  8
0
  6
Continuous
 62
     7
370
    25
100
AcDbCircle
 10
34.0631244322
 20
26.0865505693
 30
0.0
 40
1.500000000000004
100
AcDbArc
 50
210.0
 51
270.0
  0
ARC
  5
255
330
1F
100
AcDbEntity
  8
0
  6
Continuous
 62
     7
370
    25
100
AcDbCircle
 10
34.0631244322
 20
26.0865505693
 30
0.0
 40
1.500000000000004
100
AcDbArc
 50
270.0
 51
150.0
  0
DIMENSION
  5
256
330
1F
100
AcDbEntity
  8
DIMS
100
AcDbDimension
  2
_D
 10
33.3131244322
 20
24.7875124636
 30
0.0
 11
37.0554706139
 21
29.5982276982
 31
0.0
 70
   163
  1
<>
 71
     1
 42
-1.0
  3
SLDDIMSTYLE0
100
AcDbDiametricDimension
 15
34.8131244322
 25
27.385588675
 35
0.0
 40
0.0
  0
DIMENSION
  5
266
330
1F
100
AcDbEntity
  8
DIMS
100
AcDbDimension
  2
_D_1
 10
34.0631244322
 20
28.2164718291
 30
0.0
 11
25.0226624155
 21
28.2164718291
 31
0.0
 70
   160
  1
<>
 71
     2
 42
-1.0
  3
SLDDIMSTYLE1
100
AcDbAlignedDimension
 13
16.0631244322
 23
26.0865505693
 33
0.0
 14
34.0631244322
 24
26.0865505693
 34
0.0
100
AcDbRotatedDimension
  0
MTEXT
  5
272
330
1F
100
AcDbEntity
  8
NOTES
100
AcDbMText
 10
17.146969158
 20
24.5748094851
 30
0.0
 40
0.5
 41
0.0
 71
     1
 72
     1
  1
Front view
  7
SLDTEXTSTYLE1
 73
     1
 44
1.0
  0
INSERT
  5
278
102
{ACAD_REACTORS
330
27A
102
}
330
1F
100
AcDbEntity
  8
NOTES
100
AcDbBlockReference
  2
SW_NOTE_0_2
 10
40.4281496063
 20
31.6795631023
 30
0.0
  0
LEADER
  5
27A
330
1F
100
AcDbEntity
  8
NOTES
100
AcDbLeader
  3
SLDDIMSTYLE2
 73
     2
 76
     3
 10
35.5491017674
 20
26.2911754926
 30
0.0
 10
39.9281496063
 20
31.6795631023
 30
0.0
 10
40.4281496063
 20
31.6795631023
 30
0.0
340
278
  0
LINE
  5
27B
330
1F
100
AcDbEntity
  8
0
  6
Continuous
 62
     7
370
    25
100
AcDbLine
 10
54.8411068717
 20
26.8365505693
 30
0.0
 11
54.8251068717
 21
26.8365505693
 31
0.0
  0
LINE
  5
27C
330
1F
100
AcDbEntity
  8
0
  6
Continuous
 62
     7
370
    25
100
AcDbLine
 10
54.8251068717
 20
25.3365505693
 30
0.0
 11
54.8411068717
 21
25.3365505693
 31
0.0
  0
LINE
  5
27D
330
1F
100
AcDbEntity
  8
0
  6
Continuous
 62
     7
370
    25
100
AcDbLine
 10
53.0751068717
 20
25.3365505693
 30
0.0
 11
54.8251068717
 21
25.3365505693
 31
0.0
  0
LINE
  5
27E
330
1F
100
AcDbEntity
  8
0
  6
Continuous
 62
     7
370
    25
100
AcDbLine
 10
54.8251068717
 20
26.8365505693
 30
0.0
 11
53.0751068717
 21
26.8365505693
 31
0.0
  0
LINE
  5
27F
330
1F
100
AcDbEntity
  8
0
  6
Continuous
 62
     7
370
    25
100
AcDbLine
 10
55.3251068717
 20
27.5865505693
 30
0.0
 11
54.9848826916
 21
27.5865505693
 31
0.0
  0
LINE
  5
280
330
1F
100
AcDbEntity
  8
0
  6
Continuous
 62
     7
370
    25
100
AcDbLine
 10
54.9848826916
 20
24.5865505693
 30
0.0
 11
55.3251068717
 21
24.5865505693
 31
0.0
  0
ARC
  5
281
330
1F
100
AcDbEntity
  8
0
  6
Continuous
 62
     7
370
    25
100
AcDbCircle
 10
54.9848826916
 20
24.6365505693
 30
0.0
 40
0.0500000000000007
100
AcDbArc
 50
187.5946433686
 51
270.0
  0
ARC
  5
282
330
1F
100
AcDbEntity
  8
0
  6
Continuous
 62
     7
370
    25
100
AcDbCircle
 10
54.9848826916
 20
27.5365505693
 30
0.0
 40
0.0500000000000007
100
AcDbArc
 50
90.0
 51
172.4053566314
  0
LINE
  5
283
330
1F
100
AcDbEntity
  8
0
  6
Continuous
 62
     7
370
    25
100
AcDbLine
 10
54.9353212965
 20
27.5431587553
 30
0.0
 11
54.8411068717
 21
26.8365505693
 31
0.0
  0
LINE
  5
284
330
1F
100
AcDbEntity
  8
0
  6
Continuous
 62
     7
370
    25
100
AcDbLine
 10
54.8411068717
 20
25.3365505693
 30
0.0
 11
54.9353212965
 21
24.6299423833
 31
0.0
  0
ARC
  5
285
330
1F
100
AcDbEntity
  8
0
  6
Continuous
 62
     7
370
    25
100
AcDbCircle
 10
53.0751068717
 20
26.0865505693
 30
0.0
 40
0.7500000000000018
100
AcDbArc
 50
90.0
 51
270.0
  0
LINE
  5
286
330
1F
100
AcDbEntity
  8
0
  6
Continuous
 62
     7
370
    25
100
AcDbLine
 10
55.3251068717
 20
24.5865505693
 30
0.0
 11
55.3251068717
 21
27.5865505693
 31
0.0
  0
LINE
  5
287
330
1F
100
AcDbEntity
  8
0
  6
Continuous
 62
     7
370
    25
100
AcDbLine
 10
54.8411068717
 20
26.8365505693
 30
0.0
 11
54.8411068717
 21
25.3365505693
 31
0.0
  0
LINE
  5
288
330
1F
100
AcDbEntity
  8
0
  6
Continuous
 62
     8
370
    25
100
AcDbLine
 10
54.9353212965
 20
24.6299423833
 30
0.0
 11
54.9353212965
 21
27.5431587553
 31
0.0
  0
DIMENSION
  5
289
330
1F
100
AcDbEntity
  8
DIMS
100
AcDbDimension
  2
_D_2
 10
55.3251068717
 20
29.3975741913
 30
0.0
 11
53.7474336907
 21
29.3975741913
 31
0.0
 70
   160
  1
<>
 71
     2
 42
-1.0
  3
SLDDIMSTYLE1
100
AcDbAlignedDimension
 13
52.3251068717
 23
26.0865505693
 33
0.0
 14
55.3251068717
 24
27.5865505693
 34
0.0
100
AcDbRotatedDimension
  0
DIMENSION
  5
294
330
1F
100
AcDbEntity
  8
DIMS
100
AcDbDimension
  2
_D_3
 10
55.3251068717
 20
28.4526923016
 30
0.0
 11
55.9969818805
 21
28.4526923016
 31
0.0
 70
   160
  1
<>
 71
     2
 42
-1.0
  3
SLDDIMSTYLE3
100
AcDbAlignedDimension
 13
54.8411068717
 23
26.8365505693
 33
0.0
 14
55.3251068717
 24
27.5865505693
 34
0.0
100
AcDbRotatedDimension
  0
MTEXT
  5
2A3
330
1F
100
AcDbEntity
  8
NOTES
100
AcDbMText
 10
52.2541859244
 20
23.9526896236
 30
0.0
 40
0.5
 41
0.0
 71
     1
 72
     1
  1
Side view
  7
SLDTEXTSTYLE1
 73
     1
 44
1.0
  0
LWPOLYLINE
  5
2A4
330
1F
100
AcDbEntity
  8
0
  6
Continuous
 62
     7
370
    25
100
AcDbPolyline
 90
       21
 70
   128
 43
0.0
 10
73.0603283683
 20
43.9743720005
 10
73.1410279493
 20
43.9297990553
 10
73.2884363282
 20
43.8578361193
 10
73.442377816
 20
43.793999243
 10
73.6021101419
 20
43.7383279335
 10
73.7666249713
 20
43.6909312029
 10
73.9350160145
 20
43.6518407486
 10
74.1064596015
 20
43.6210485798
 10
74.2801912132
 20
43.5985317136
 10
74.4554850847
 20
43.5842664156
 10
74.6316396459
 20
43.5782355697
 10
74.807968361
 20
43.5804324229
 10
74.9837764462
 20
43.5908614618
 10
75.1583455102
 20
43.6095348017
 10
75.33101245
 20
43.6364820225
 10
75.5011148508
 20
43.6717539998
 10
75.6679817089
 20
43.71542546
 10
75.8309177807
 20
43.767594596
 10
75.9891792182
 20
43.8283757697
 10
76.1419396205
 20
43.8978791685
 10
76.2851411519
 20
43.9743720005
  0
LWPOLYLINE
  5
2A5
330
1F
100
AcDbEntity
  8
0
  6
Continuous
 62
     7
370
    25
100
AcDbPolyline
 90
       20
 70
   128
 43
0.0
 10
75.5352021025
 20
45.273445294
 10
75.5038102554
 20
45.2561156689
 10
75.4376607533
 20
45.2240023319
 10
75.3617131416
 20
45.1929441529
 10
75.2764893518
 20
45.1639432621
 10
75.1829368211
 20
45.1379848614
 10
75.082203891
 20
45.1159198473
 10
74.9756028626
 20
45.0984522311
 10
74.8645724493
 20
45.0861307183
 10
74.7506432013
 20
45.0793439243
 10
74.6354064662
 20
45.0783177044
 10
74.5204864254
 20
45.0831132111
 10
74.40759208
 20
45.0936153267
 10
74.2983428135
 20
45.1095342161
 10
74.1942861178
 20
45.1304085952
 10
74.0968840729
 20
45.1556024999
 10
74.007477295
 20
45.1843033178
 10
73.9272422821
 20
45.2155228429
 10
73.857141903
 20
45.2481040861
 10
73.8102674178
 20
45.273445294
  0
LINE
  5
2A6
330
1F
100
AcDbEntity
  8
0
  6
Continuous
 62
     7
370
    25
100
AcDbLine
 10
75.546515811
 20
45.2799765589
 30
0.0
 11
75.5352021025
 21
45.273445294
 31
0.0
  0
LINE
  5
2A7
330
1F
100
AcDbEntity
  8
0
  6
Continuous
 62
     7
370
    25
100
AcDbLine
 10
76.2851411519
 20
43.9743720005
 30
0.0
 11
76.2964548604
 21
43.9809032654
 31
0.0
  0
LINE
  5
2A8
330
1F
100
AcDbEntity
  8
0
  6
Continuous
 62
     7
370
    25
100
AcDbLine
 10
73.8102674178
 20
45.273445294
 30
0.0
 11
63.5572190906
 21
51.1924041048
 31
0.0
  0
LINE
  5
2A9
330
1F
100
AcDbEntity
  8
0
  6
Continuous
 62
     7
370
    25
100
AcDbLine
 10
62.8072800411
 20
49.8933308112
 30
0.0
 11
73.0603283683
 21
43.9743720005
 31
0.0
  0
LWPOLYLINE
  5
2AA
330
1F
100
AcDbEntity
  8
0
  6
Continuous
 62
     7
370
    25
100
AcDbPolyline
 90
       26
 70
   128
 43
0.0
 10
62.8072800411
 20
52.6211183004
 10
62.7284597417
 20
52.5735457753
 10
62.5949530728
 20
52.4823890219
 10
62.4706587034
 20
52.3828686461
 10
62.3573955817
 20
52.27605339
 10
62.2562789657
 20
52.1629207004
 10
62.1680965239
 20
52.0445543584
 10
62.0932863821
 20
51.9220299714
 10
62.0319999386
 20
51.796348378
 10
61.9841970993
 20
51.668425532
 10
61.9497255299
 20
51.5391105586
 10
61.9283689132
 20
51.4092039657
 10
61.9198719248
 20
51.2794635712
 10
61.9239550907
 20
51.1505985381
 10
61.9403183267
 20
51.0233178097
 10
61.9686307171
 20
50.8983116721
 10
62.0085939418
 20
50.7760567336
 10
62.0599656909
 20
50.6569512264
 10
62.122576025
 20
50.5413302392
 10
62.1963314775
 20
50.4294934442
 10
62.2811976985
 20
50.3217444213
 10
62.3771519931
 20
50.2184364628
 10
62.4841033268
 20
50.1200133993
 10
62.6017923812
 20
50.0270276946
 10
62.729704997
 20
49.9401182966
 10
62.8072800411
 20
49.8933308112
  0
LWPOLYLINE
  5
2AB
330
1F
100
AcDbEntity
  8
0
  6
Continuous
 62
     7
370
    25
100
AcDbPolyline
 90
        8
 70
   128
 43
0.0
 10
63.5572190906
 20
51.1924041048
 10
63.5288093745
 20
51.2095405837
 10
63.4842850379
 20
51.2399971578
 10
63.4507688717
 20
51.2671292591
 10
63.4278176421
 20
51.2892916957
 10
63.4144778556
 20
51.3048642039
 10
63.4092051966
 20
51.3124239125
 10
63.4094534914
 20
51.3118678937
  0
ARC
  5
2AC
330
1F
100
AcDbEntity
  8
0
  6
Continuous
 62
     7
370
    25
100
AcDbCircle
 10
63.8521421837
 20
50.7925834784
 30
0.0
 40
0.6060603443292334
100
AcDbArc
 50
119.118882358
 51
129.9460968437
  0
LINE
  5
2AD
330
1F
100
AcDbEntity
  8
0
  6
Continuous
 62
     7
370
    25
100
AcDbLine
 10
63.5572190906
 20
51.3220450069
 30
0.0
 11
63.5685327991
 21
51.3285762718
 31
0.0
  0
LINE
  5
2AE
330
1F
100
AcDbEntity
  8
0
  6
Continuous
 62
     7
370
    25
100
AcDbLine
 10
62.8185937496
 20
52.6276495653
 30
0.0
 11
62.8072800411
 21
52.6211183004
 31
0.0
  0
LWPOLYLINE
  5
2AF
330
1F
100
AcDbEntity
  8
0
  6
Continuous
 62
     7
370
    25
100
AcDbPolyline
 90
       12
 70
   128
 43
0.0
 10
62.4016334579
 20
53.2140261397
 10
62.3887188094
 20
53.1999889414
 10
62.3397536399
 20
53.1290336052
 10
62.298687719
 20
53.0489710506
 10
62.2658966913
 20
52.9603555319
 10
62.2417199134
 20
52.8639026996
 10
62.2264080375
 20
52.7604648977
 10
62.2201000075
 20
52.6509795096
 10
62.2228266808
 20
52.5364247458
 10
62.2345231951
 20
52.4178136726
 10
62.2550457241
 20
52.2961424068
 10
62.2801334313
 20
52.1896098832
  0
LINE
  5
2B0
330
1F
100
AcDbEntity
  8
0
  6
Continuous
 62
     7
370
    25
100
AcDbLine
 10
62.785863907
 20
53.4747569752
 30
0.0
 11
62.545289082
 21
53.3358760849
 31
0.0
  0
LINE
  5
2B1
330
1F
100
AcDbEntity
  8
0
  6
Continuous
 62
     7
370
    25
100
AcDbLine
 10
64.1949955652
 20
50.8242235829
 30
0.0
 11
64.2857420059
 21
50.876610388
 31
0.0
  0
LWPOLYLINE
  5
2B2
330
1F
100
AcDbEntity
  8
0
  6
Continuous
 62
     7
370
    25
100
AcDbPolyline
 90
       10
 70
   128
 43
0.0
 10
75.1295555193
 20
45.8663531333
 10
75.1166408708
 20
45.852315935
 10
75.0676757012
 20
45.7813605988
 10
75.0266097804
 20
45.7012980442
 10
74.9938187527
 20
45.6126825255
 10
74.9696419748
 20
45.5162296932
 10
74.9543300989
 20
45.4127918913
 10
74.9480220689
 20
45.3033065032
 10
74.9507487422
 20
45.1887517394
 10
74.9598260396
 20
45.0967014106
  0
ARC
  5
2B3
330
1F
100
AcDbEntity
  8
0
  6
Continuous
 62
     7
370
    25
100
AcDbCircle
 10
76.802588169
 20
44.8553449667
 30
0.0
 40
1.609025935536717
100
AcDbArc
 50
225.1194081687
 51
240.0031669742
  0
LWPOLYLINE
  5
2B4
330
1F
100
AcDbEntity
  8
0
  6
Continuous
 62
     7
370
    25
100
AcDbPolyline
 90
        8
 70
   128
 43
0.0
 10
75.9981522246
 20
43.4618431646
 10
76.0499430682
 20
43.4334017013
 10
76.1481021121
 20
43.3875218495
 10
76.2455552759
 20
43.3525705746
 10
76.3414221788
 20
43.3289667918
 10
76.4348240586
 20
43.3170026027
 10
76.5248352276
 20
43.3168296169
 10
76.5998335423
 20
43.3269707539
  0
LINE
  5
2B5
330
1F
100
AcDbEntity
  8
0
  6
Continuous
 62
     7
370
    25
100
AcDbLine
 10
75.5137859683
 20
46.1270839688
 30
0.0
 11
75.2732111434
 21
45.9882030785
 31
0.0
  0
LINE
  5
2B6
330
1F
100
AcDbEntity
  8
0
  6
Continuous
 62
     7
370
    25
100
AcDbLine
 10
76.7730892424
 20
43.3900564914
 30
0.0
 11
77.0136640673
 21
43.5289373816
 31
0.0
  0
LWPOLYLINE
  5
2B7
330
1F
100
AcDbEntity
  8
0
  6
Continuous
 62
     7
370
    25
100
AcDbPolyline
 90
       19
 70
   128
 43
0.0
 10
63.1935632743
 20
52.5905185275
 10
63.2657765451
 20
52.5431267147
 10
63.3366446192
 20
52.4852097641
 10
63.4048473585
 20
52.4178465586
 10
63.4691142752
 20
52.3422919474
 10
63.5282481981
 20
52.25995337
 10
63.5811475741
 20
52.1723646382
 10
63.6268269879
 20
52.0811573645
 10
63.6644355185
 20
51.9880305676
 10
63.6932725901
 20
51.8947190238
 10
63.7128010227
 20
51.8029609504
 10
63.7226570384
 20
51.7144656267
 10
63.7226570384
 20
51.6308815533
 10
63.7128010227
 20
51.5537657432
 10
63.6932725901
 20
51.4845547181
 10
63.6644355185
 20
51.4245377485
 10
63.6268269879
 20
51.3748328368
 10
63.5811475741
 20
51.3363658916
 10
63.5685327991
 20
51.3285762718
  0
LWPOLYLINE
  5
2B8
330
1F
100
AcDbEntity
  8
0
  6
Continuous
 62
     7
370
    25
100
AcDbPolyline
 90
        7
 70
   128
 43
0.0
 10
62.8185937496
 20
52.6276495653
 10
62.8588783506
 20
52.6463723578
 10
62.9180122735
 20
52.6604363611
 10
62.9822791901
 20
52.6617899697
 10
63.0504819295
 20
52.6504079684
 10
63.1213500036
 20
52.6265023824
 10
63.1935632743
 20
52.5905185275
  0
ARC
  5
2B9
330
1F
100
AcDbEntity
  8
0
  6
Continuous
 62
     7
370
    25
100
AcDbCircle
 10
62.8022197626
 20
52.8907731512
 30
0.0
 40
0.5137121538362924
100
AcDbArc
 50
100.4867027834
 51
139.8521222671
  0
LINE
  5
2BA
330
1F
100
AcDbEntity
  8
0
  6
Continuous
 62
     7
370
    25
100
AcDbLine
 10
64.1788864633
 20
50.8492460354
 30
0.0
 11
64.169694621
 21
50.8388295071
 31
0.0
  0
LWPOLYLINE
  5
2BB
330
1F
100
AcDbEntity
  8
0
  6
Continuous
 62
     7
370
    25
100
AcDbPolyline
 90
       34
 70
   128
 43
0.0
 10
64.2857420059
 20
50.876610388
 10
64.3464821999
 20
50.91787854
 10
64.408709165
 20
50.9759935794
 10
64.4627860401
 20
51.0453098019
 10
64.5082079238
 20
51.1251800208
 10
64.5445507244
 20
51.2148585094
 10
64.5714751188
 20
51.3135079637
 10
64.5887297214
 20
51.4202073204
 10
64.5961534304
 20
51.5339603563
 10
64.5936769327
 20
51.65370499
 10
64.5813233508
 20
51.7783231981
 10
64.5592080266
 20
51.906651454
 10
64.527537445
 20
52.0374915913
 10
64.4866073057
 20
52.1696219909
 10
64.4367997624
 20
52.3018089868
 10
64.3785798547
 20
52.4328183848
 10
64.3124911661
 20
52.5614269854
 10
64.239150749
 20
52.6864340047
 10
64.1592433631
 20
52.8066722858
 10
64.0735150821
 20
52.9210191963
 10
63.9827663278
 20
53.0284071099
 10
63.887844397
 20
53.1278333747
 10
63.78963555
 20
53.2183696743
 10
63.6890567366
 20
53.2991706957
 10
63.5870470339
 20
53.3694820216
 10
63.484558879
 20
53.428647174
 10
63.3825491763
 20
53.4761137439
 10
63.2819703628
 20
53.5114385487
 10
63.1837615159
 20
53.5342917702
 10
63.0888395851
 20
53.544460034
 10
62.9980908308
 20
53.5418484018
 10
62.9123625498
 20
53.5264812577
 10
62.8324551638
 20
53.4985020806
 10
62.785863907
 20
53.4747569752
  0
LWPOLYLINE
  5
2BC
330
1F
100
AcDbEntity
  8
0
  6
Continuous
 62
     7
370
    25
100
AcDbPolyline
 90
       19
 70
   128
 43
0.0
 10
75.9214853357
 20
45.2428455211
 10
75.9936986064
 20
45.1954537083
 10
76.0645666805
 20
45.1375367576
 10
76.1327694199
 20
45.0701735522
 10
76.1970363366
 20
44.994618941
 10
76.2561702594
 20
44.9122803636
 10
76.3090696354
 20
44.8246916318
 10
76.3547490492
 20
44.7334843581
 10
76.3923575798
 20
44.6403575612
 10
76.4211946515
 20
44.5470460174
 10
76.440723084
 20
44.455287944
 10
76.4505790998
 20
44.3667926203
 10
76.4505790998
 20
44.2832085469
 10
76.440723084
 20
44.2060927368
 10
76.4211946515
 20
44.1368817117
 10
76.3923575798
 20
44.0768647421
 10
76.3547490492
 20
44.0271598304
 10
76.3090696354
 20
43.9886928852
 10
76.2964548604
 20
43.9809032654
  0
LWPOLYLINE
  5
2BD
330
1F
100
AcDbEntity
  8
0
  6
Continuous
 62
     7
370
    25
100
AcDbPolyline
 90
        7
 70
   128
 43
0.0
 10
75.546515811
 20
45.2799765589
 10
75.586800412
 20
45.2986993514
 10
75.6459343349
 20
45.3127633547
 10
75.7102012515
 20
45.3141169633
 10
75.7784039909
 20
45.302734962
 10
75.849272065
 20
45.278829376
 10
75.9214853357
 20
45.2428455211
  0
ARC
  5
2BE
330
1F
100
AcDbEntity
  8
0
  6
Continuous
 62
     7
370
    25
100
AcDbCircle
 10
75.530141824
 20
45.5431001448
 30
0.0
 40
0.5137121538362333
100
AcDbArc
 50
100.4867027834
 51
139.8521222671
  0
ARC
  5
2BF
330
1F
100
AcDbEntity
  8
0
  6
Continuous
 62
     7
370
    25
100
AcDbCircle
 10
76.5162858381
 20
43.8349092949
 30
0.0
 40
0.5134403907736846
100
AcDbArc
 50
280.5527325006
 51
319.5171083228
  0
LWPOLYLINE
  5
2C0
330
1F
100
AcDbEntity
  8
0
  6
Continuous
 62
     7
370
    25
100
AcDbPolyline
 90
       34
 70
   128
 43
0.0
 10
77.0136640673
 20
43.5289373816
 10
77.0744042612
 20
43.5702055336
 10
77.1366312264
 20
43.628320573
 10
77.1907081014
 20
43.6976367955
 10
77.2361299852
 20
43.7775070144
 10
77.2724727857
 20
43.867185503
 10
77.2993971802
 20
43.9658349573
 10
77.3166517827
 20
44.072534314
 10
77.3240754917
 20
44.1862873499
 10
77.3215989941
 20
44.3060319836
 10
77.3092454121
 20
44.4306501917
 10
77.287130088
 20
44.5589784475
 10
77.2554595064
 20
44.6898185848
 10
77.2145293671
 20
44.8219489845
 10
77.1647218238
 20
44.9541359804
 10
77.1065019161
 20
45.0851453784
 10
77.0404132275
 20
45.213753979
 10
76.9670728104
 20
45.3387609982
 10
76.8871654245
 20
45.4589992793
 10
76.8014371434
 20
45.5733461899
 10
76.7106883892
 20
45.6807341035
 10
76.6157664583
 20
45.7801603682
 10
76.5175576114
 20
45.8706966678
 10
76.4169787979
 20
45.9514976893
 10
76.3149690952
 20
46.0218090151
 10
76.2124809404
 20
46.0809741676
 10
76.1104712377
 20
46.1284407375
 10
76.0098924242
 20
46.1637655423
 10
75.9116835773
 20
46.1866187638
 10
75.8167616464
 20
46.1967870276
 10
75.7260128922
 20
46.1941753954
 10
75.6402846111
 20
46.1788082513
 10
75.5603772252
 20
46.1508290742
 10
75.5137859683
 20
46.1270839688
  0
LWPOLYLINE
  5
2C1
330
1F
100
AcDbEntity
  8
0
  6
Continuous
 62
     8
370
    25
100
AcDbPolyline
 90
       30
 70
   128
 43
0.0
 10
62.7087203869
 20
53.3959048605
 10
62.7575160059
 20
53.4029675115
 10
62.8482647602
 20
53.4055791437
 10
62.943186691
 20
53.3954108799
 10
63.0413955379
 20
53.3725576584
 10
63.1419743514
 20
53.3372328536
 10
63.2439840541
 20
53.2897662837
 10
63.3464722089
 20
53.2306011313
 10
63.4484819117
 20
53.1602898054
 10
63.5490607251
 20
53.079488784
 10
63.647269572
 20
52.9889524844
 10
63.7421915029
 20
52.8895262196
 10
63.8329402572
 20
52.782138306
 10
63.9186685382
 20
52.6677913955
 10
63.9985759241
 20
52.5475531144
 10
64.0719163412
 20
52.4225460951
 10
64.1380050298
 20
52.2939374946
 10
64.1962249375
 20
52.1629280966
 10
64.2460324808
 20
52.0307411006
 10
64.2869626201
 20
51.898610701
 10
64.3186332017
 20
51.7677705637
 10
64.3407485259
 20
51.6394423078
 10
64.3531021078
 20
51.5148240997
 10
64.3555786055
 20
51.395079466
 10
64.3481548965
 20
51.2813264301
 10
64.3309002939
 20
51.1746270734
 10
64.3039758995
 20
51.0759776191
 10
64.2676330989
 20
50.9862991306
 10
64.2222112151
 20
50.9064289117
 10
64.1788864633
 20
50.8492460354
  0
LWPOLYLINE
  5
2C2
330
1F
100
AcDbEntity
  8
0
  6
Continuous
 62
     8
370
    25
100
AcDbPolyline
 90
       30
 70
   128
 43
0.0
 10
75.4366424482
 20
46.0482318541
 10
75.4854380672
 20
46.0552945051
 10
75.5761868215
 20
46.0579061373
 10
75.6711087524
 20
46.0477378735
 10
75.7693175993
 20
46.024884652
 10
75.8698964127
 20
45.9895598472
 10
75.9719061155
 20
45.9420932773
 10
76.0743942703
 20
45.8829281249
 10
76.176403973
 20
45.812616799
 10
76.2769827865
 20
45.7318157776
 10
76.3751916334
 20
45.641279478
 10
76.4701135642
 20
45.5418532132
 10
76.5608623185
 20
45.4344652996
 10
76.6465905995
 20
45.3201183891
 10
76.7264979855
 20
45.199880108
 10
76.7998384026
 20
45.0748730887
 10
76.8659270911
 20
44.9462644882
 10
76.9241469989
 20
44.8152550902
 10
76.9739545422
 20
44.6830680942
 10
77.0148846815
 20
44.5509376946
 10
77.046555263
 20
44.4200975573
 10
77.0686705872
 20
44.2917693014
 10
77.0810241692
 20
44.1671510933
 10
77.0835006668
 20
44.0474064596
 10
77.0760769578
 20
43.9336534237
 10
77.0588223553
 20
43.826954067
 10
77.0318979608
 20
43.7283046127
 10
76.9955551603
 20
43.6386261242
 10
76.9501332765
 20
43.5587559052
 10
76.9068085247
 20
43.501573029
  0
INSERT
  5
2C8
330
1F
100
AcDbEntity
  8
NOTES
100
AcDbBlockReference
  2
SW_NOTE_0_3
 10
74.0206120625
 20
40.6294176098
 30
0.0
  0
LINE
  5
2C9
330
1F
100
AcDbEntity
  8
0
  6
Continuous
 62
     7
370
    25
100
AcDbLine
 10
16.8131244322
 20
45.4063277787
 30
0.0
 11
16.8131244322
 21
45.4223277787
 31
0.0
  0
LINE
  5
2CA
330
1F
100
AcDbEntity
  8
0
  6
Continuous
 62
     7
370
    25
100
AcDbLine
 10
15.3131244322
 20
45.4223277787
 30
0.0
 11
15.3131244322
 21
45.4063277787
 31
0.0
  0
LINE
  5
2CB
330
1F
100
AcDbEntity
  8
0
  6
Continuous
 62
     7
370
    25
100
AcDbLine
 10
33.3131244322
 20
45.4223277787
 30
0.0
 11
33.3131244322
 21
45.4063277787
 31
0.0
  0
LINE
  5
2CC
330
1F
100
AcDbEntity
  8
0
  6
Continuous
 62
     7
370
    25
100
AcDbLine
 10
34.8131244322
 20
45.4063277787
 30
0.0
 11
34.8131244322
 21
45.4223277787
 31
0.0
  0
ARC
  5
2CD
330
1F
100
AcDbEntity
  8
0
  6
Continuous
 62
     7
370
    25
100
AcDbCircle
 10
17.8131244322
 20
45.4063277787
 30
0.0
 40
1.0
100
AcDbArc
 50
180.0
 51
270.0
  0
ARC
  5
2CE
330
1F
100
AcDbEntity
  8
0
  6
Continuous
 62
     7
370
    25
100
AcDbCircle
 10
17.8131244322
 20
45.4063277787
 30
0.0
 40
2.500000000000002
100
AcDbArc
 50
180.0
 51
270.0
  0
ARC
  5
2CF
330
1F
100
AcDbEntity
  8
0
  6
Continuous
 62
     7
370
    25
100
AcDbCircle
 10
32.3131244322
 20
45.4063277787
 30
0.0
 40
1.000000000000007
100
AcDbArc
 50
270.0
 51
0.0
  0
ARC
  5
2D0
330
1F
100
AcDbEntity
  8
0
  6
Continuous
 62
     7
370
    25
100
AcDbCircle
 10
32.3131244322
 20
45.4063277787
 30
0.0
 40
2.500000000000014
100
AcDbArc
 50
270.0
 51
0.0
  0
LINE
  5
2D1
330
1F
100
AcDbEntity
  8
0
  6
Continuous
 62
     7
370
    25
100
AcDbLine
 10
32.3131244322
 20
44.4063277787
 30
0.0
 11
17.8131244322
 21
44.4063277787
 31
0.0
  0
LINE
  5
2D2
330
1F
100
AcDbEntity
  8
0
  6
Continuous
 62
     7
370
    25
100
AcDbLine
 10
17.8131244322
 20
42.9063277787
 30
0.0
 11
32.3131244322
 21
42.9063277787
 31
0.0
  0
LINE
  5
2D3
330
1F
100
AcDbEntity
  8
0
  6
Continuous
 62
     7
370
    25
100
AcDbLine
 10
14.5631244322
 20
45.9063277787
 30
0.0
 11
14.5631244322
 21
45.5661035985
 31
0.0
  0
LINE
  5
2D4
330
1F
100
AcDbEntity
  8
0
  6
Continuous
 62
     7
370
    25
100
AcDbLine
 10
17.5631244322
 20
45.5661035985
 30
0.0
 11
17.5631244322
 21
45.9063277787
 31
0.0
  0
ARC
  5
2D5
330
1F
100
AcDbEntity
  8
0
  6
Continuous
 62
     7
370
    25
100
AcDbCircle
 10
17.5131244322
 20
45.5661035985
 30
0.0
 40
0.0500000000000007
100
AcDbArc
 50
277.5946433686
 51
0.0
  0
ARC
  5
2D6
330
1F
100
AcDbEntity
  8
0
  6
Continuous
 62
     7
370
    25
100
AcDbCircle
 10
14.6131244322
 20
45.5661035985
 30
0.0
 40
0.0500000000000007
100
AcDbArc
 50
180.0
 51
262.4053566314
  0
LINE
  5
2D7
330
1F
100
AcDbEntity
  8
0
  6
Continuous
 62
     7
370
    25
100
AcDbLine
 10
14.6065162462
 20
45.5165422035
 30
0.0
 11
15.3131244322
 21
45.4223277787
 31
0.0
  0
LINE
  5
2D8
330
1F
100
AcDbEntity
  8
0
  6
Continuous
 62
     7
370
    25
100
AcDbLine
 10
16.8131244322
 20
45.4223277787
 30
0.0
 11
17.5197326182
 21
45.5165422035
 31
0.0
  0
LINE
  5
2D9
330
1F
100
AcDbEntity
  8
0
  6
Continuous
 62
     7
370
    25
100
AcDbLine
 10
32.5631244322
 20
45.9063277787
 30
0.0
 11
32.5631244322
 21
45.5661035985
 31
0.0
  0
LINE
  5
2DA
330
1F
100
AcDbEntity
  8
0
  6
Continuous
 62
     7
370
    25
100
AcDbLine
 10
35.5631244322
 20
45.5661035985
 30
0.0
 11
35.5631244322
 21
45.9063277787
 31
0.0
  0
ARC
  5
2DB
330
1F
100
AcDbEntity
  8
0
  6
Continuous
 62
     7
370
    25
100
AcDbCircle
 10
35.5131244322
 20
45.5661035985
 30
0.0
 40
0.0500000000000002
100
AcDbArc
 50
277.5946433686
 51
0.0
  0
ARC
  5
2DC
330
1F
100
AcDbEntity
  8
0
  6
Continuous
 62
     7
370
    25
100
AcDbCircle
 10
32.6131244322
 20
45.5661035985
 30
0.0
 40
0.0499999999999972
100
AcDbArc
 50
180.0
 51
262.4053566314
  0
LINE
  5
2DD
330
1F
100
AcDbEntity
  8
0
  6
Continuous
 62
     7
370
    25
100
AcDbLine
 10
32.6065162462
 20
45.5165422035
 30
0.0
 11
33.3131244322
 21
45.4223277787
 31
0.0
  0
LINE
  5
2DE
330
1F
100
AcDbEntity
  8
0
  6
Continuous
 62
     7
370
    25
100
AcDbLine
 10
34.8131244322
 20
45.4223277787
 30
0.0
 11
35.5197326182
 21
45.5165422035
 31
0.0
  0
LINE
  5
2DF
330
1F
100
AcDbEntity
  8
0
  6
Continuous
 62
     7
370
    25
100
AcDbLine
 10
17.5631244322
 20
45.9063277787
 30
0.0
 11
14.5631244322
 21
45.9063277787
 31
0.0
  0
LINE
  5
2E0
330
1F
100
AcDbEntity
  8
0
  6
Continuous
 62
     7
370
    25
100
AcDbLine
 10
16.0631244322
 20
45.4223277787
 30
0.0
 11
16.8131244322
 21
45.4223277787
 31
0.0
  0
LINE
  5
2E1
330
1F
100
AcDbEntity
  8
0
  6
Continuous
 62
     7
370
    25
100
AcDbLine
 10
15.3131244322
 20
45.4223277787
 30
0.0
 11
16.0631244322
 21
45.4223277787
 31
0.0
  0
LINE
  5
2E2
330
1F
100
AcDbEntity
  8
0
  6
Continuous
 62
     7
370
    25
100
AcDbLine
 10
35.5631244322
 20
45.9063277787
 30
0.0
 11
32.5631244322
 21
45.9063277787
 31
0.0
  0
LINE
  5
2E3
330
1F
100
AcDbEntity
  8
0
  6
Continuous
 62
     7
370
    25
100
AcDbLine
 10
34.0631244322
 20
45.4223277787
 30
0.0
 11
34.8131244322
 21
45.4223277787
 31
0.0
  0
LINE
  5
2E4
330
1F
100
AcDbEntity
  8
0
  6
Continuous
 62
     7
370
    25
100
AcDbLine
 10
33.3131244322
 20
45.4223277787
 30
0.0
 11
34.0631244322
 21
45.4223277787
 31
0.0
  0
LINE
  5
2E5
330
1F
100
AcDbEntity
  8
0
  6
Continuous
 62
     8
370
    25
100
AcDbLine
 10
14.5631244322
 20
45.5661035985
 30
0.0
 11
17.5631244322
 21
45.5661035985
 31
0.0
  0
LINE
  5
2E6
330
1F
100
AcDbEntity
  8
0
  6
Continuous
 62
     8
370
    25
100
AcDbLine
 10
32.5631244322
 20
45.5661035985
 30
0.0
 11
35.5631244322
 21
45.5661035985
 31
0.0
  0
DIMENSION
  5
2E7
330
1F
100
AcDbEntity
  8
DIMS
100
AcDbDimension
  2
_D_4
 10
31.4817107278
 20
42.9063277787
 30
0.0
 11
31.4817107278
 21
41.5677451015
 31
0.0
 70
   160
  1
<>
 71
     2
 42
-1.0
  3
SLDDIMSTYLE4
100
AcDbAlignedDimension
 13
31.0631244322
 23
44.4063277787
 33
0.0
 14
31.0631244322
 24
42.9063277787
 34
0.0
 50
90.0
100
AcDbRotatedDimension
  0
DIMENSION
  5
2F8
330
1F
100
AcDbEntity
  8
DIMS
100
AcDbDimension
  2
_D_5
 10
31.4817107278
 20
45.9063277787
 30
0.0
 11
31.4817107278
 21
47.4811309283
 31
0.0
 70
   160
  1
<>
 71
     2
 42
-1.0
  3
SLDDIMSTYLE4
100
AcDbAlignedDimension
 13
32.3131244322
 23
44.4063277787
 33
0.0
 14
32.5631244322
 24
45.9063277787
 34
0.0
 50
90.0
100
AcDbRotatedDimension
  0
MTEXT
  5
307
330
1F
100
AcDbEntity
  8
NOTES
100
AcDbMText
 10
17.32638365
 20
42.4499312196
 30
0.0
 40
0.5
 41
0.0
 71
     1
 72
     1
  1
Top view
  7
SLDTEXTSTYLE1
 73
     1
 44
1.0
  0
MTEXT
  5
308
330
1F
100
AcDbEntity
  8
NOTES
100
AcDbMText
 10
22.5136873457
 20
46.2203878861
 30
0.0
 40
0.5
 41
0.0
 71
     1
 72
     1
  1
Matte black finish
  7
SLDTEXTSTYLE1
 73
     1
 44
1.0
  0
LEADER
  5
30F
330
1F
100
AcDbEntity
  8
NOTES
100
AcDbLeader
  3
SLDDIMSTYLE5
 76
     3
 10
19.7141391587
 20
44.1619897954
 30
0.0
 10
21.9901574803
 20
45.970472444
 30
0.0
 10
22.4901574803
 20
45.970472444
 30
0.0
  0
ENDSEC
  0
SECTION
  2
OBJECTS
  0
DICTIONARY
  5
C
330
0
100
AcDbDictionary
281
     1
  3
ACAD_DETAILVIEWSTYLE
350
319
  3
ACAD_GROUP
350
D
  3
ACAD_LAYOUT
350
1A
  3
ACAD_MATERIAL
350
43
  3
ACAD_MLEADERSTYLE
350
6B
  3
ACAD_MLINESTYLE
350
17
  3
ACAD_PLOTSETTINGS
350
19
  3
ACAD_PLOTSTYLENAME
350
E
  3
ACAD_SCALELIST
350
47
  3
ACAD_SECTIONVIEWSTYLE
350
31A
  3
ACAD_TABLESTYLE
350
69
  3
ACDB_RECOMPOSE_DATA
350
316
  3
AcDbVariableDictionary
350
310
  0
DICTIONARY
  5
319
102
{ACAD_REACTORS
330
C
102
}
330
C
100
AcDbDictionary
281
     1
  0
DICTIONARY
  5
D
102
{ACAD_REACTORS
330
C
102
}
330
C
100
AcDbDictionary
281
     1
  0
DICTIONARY
  5
1A
102
{ACAD_REACTORS
330
C
102
}
330
C
100
AcDbDictionary
281
     1
  3
Layout1
350
1E
  3
Layout2
350
26
  3
Model
350
22
  0
DICTIONARY
  5
43
102
{ACAD_REACTORS
330
C
102
}
330
C
100
AcDbDictionary
281
     1
  3
ByBlock
350
45
  3
ByLayer
350
44
  3
Global
350
46
  0
DICTIONARY
  5
6B
102
{ACAD_REACTORS
330
C
102
}
330
C
100
AcDbDictionary
281
     1
  3
Standard
350
6C
  0
DICTIONARY
  5
17
102
{ACAD_REACTORS
330
C
102
}
330
C
100
AcDbDictionary
281
     1
  3
Standard
350
18
  0
DICTIONARY
  5
19
102
{ACAD_REACTORS
330
C
102
}
330
C
100
AcDbDictionary
281
     1
  0
ACDBDICTIONARYWDFLT
  5
E
102
{ACAD_REACTORS
330
C
102
}
330
C
100
AcDbDictionary
281
     1
  3
Normal
350
F
100
AcDbDictionaryWithDefault
340
F
  0
DICTIONARY
  5
47
102
{ACAD_REACTORS
330
C
102
}
330
C
100
AcDbDictionary
281
     1
  3
A0
350
48
  3
A1
350
49
  3
A2
350
4A
  3
A3
350
4B
  3
A4
350
4C
  3
A5
350
4D
  3
A6
350
4E
  3
A7
350
4F
  3
A8
350
50
  3
A9
350
51
  3
B0
350
52
  3
B1
350
53
  3
B2
350
54
  3
B3
350
55
  3
B4
350
56
  3
B5
350
57
  3
B6
350
58
  3
B7
350
59
  3
B8
350
5A
  3
B9
350
5B
  3
C0
350
5C
  3
C1
350
5D
  3
C2
350
5E
  3
C3
350
5F
  3
C4
350
60
  3
C5
350
61
  3
C6
350
62
  3
C7
350
63
  3
C8
350
64
  3
C9
350
65
  3
D0
350
66
  3
D1
350
67
  3
D2
350
68
  0
DICTIONARY
  5
31A
102
{ACAD_REACTORS
330
C
102
}
330
C
100
AcDbDictionary
281
     1
  0
DICTIONARY
  5
69
102
{ACAD_REACTORS
330
C
102
}
330
C
100
AcDbDictionary
281
     1
  3
Standard
350
6A
  0
XRECORD
  5
316
102
{ACAD_REACTORS
330
C
102
}
330
C
100
AcDbXrecord
280
     1
 90
        1
330
6A
  0
DICTIONARY
  5
310
102
{ACAD_REACTORS
330
C
102
}
330
C
100
AcDbDictionary
281
     1
  3
CANNOSCALE
350
311
  3
CMLEADERSTYLE
350
318
  3
CTABLESTYLE
350
317
  0
LAYOUT
  5
1E
102
{ACAD_REACTORS
330
1A
102
}
330
1A
100
AcDbPlotSettings
  1

  2
none_device
  4

  6

 40
0.0
 41
0.0
 42
0.0
 43
0.0
 44
0.0
 45
0.0
 46
0.0
 47
0.0
 48
0.0
 49
0.0
140
0.0
141
0.0
142
1.0
143
1.0
 70
   688
 72
     0
 73
     0
 74
     5
  7

 75
    16
 76
     0
 77
     2
 78
   300
147
1.0
148
0.0
149
0.0
100
AcDbLayout
  1
Layout1
 70
     1
 71
     1
 10
0.0
 20
0.0
 11
12.0
 21
9.0
 12
0.0
 22
0.0
 32
0.0
 14
1.0000000000E+20
 24
1.0000000000E+20
 34
1.0000000000E+20
 15
-1.0000000000E+20
 25
-1.0000000000E+20
 35
-1.0000000000E+20
146
0.0
 13
0.0
 23
0.0
 33
0.0
 16
1.0
 26
0.0
 36
0.0
 17
0.0
 27
1.0
 37
0.0
 76
     0
330
1B
  0
LAYOUT
  5
26
102
{ACAD_REACTORS
330
1A
102
}
330
1A
100
AcDbPlotSettings
  1

  2
none_device
  4

  6

 40
0.0
 41
0.0
 42
0.0
 43
0.0
 44
0.0
 45
0.0
 46
0.0
 47
0.0
 48
0.0
 49
0.0
140
0.0
141
0.0
142
1.0
143
1.0
 70
   688
 72
     0
 73
     0
 74
     5
  7

 75
    16
 76
     0
 77
     2
 78
   300
147
1.0
148
0.0
149
0.0
100
AcDbLayout
  1
Layout2
 70
     1
 71
     2
 10
0.0
 20
0.0
 11
0.0
 21
0.0
 12
0.0
 22
0.0
 32
0.0
 14
0.0
 24
0.0
 34
0.0
 15
0.0
 25
0.0
 35
0.0
146
0.0
 13
0.0
 23
0.0
 33
0.0
 16
1.0
 26
0.0
 36
0.0
 17
0.0
 27
1.0
 37
0.0
 76
     0
330
23
  0
LAYOUT
  5
22
102
{ACAD_REACTORS
330
1A
102
}
330
1A
100
AcDbPlotSettings
  1

  2
none_device
  4
Letter_(8.50_x_11.00_Inches)
  6

 40
6.35
 41
6.35
 42
6.35000508
 43
6.35000508
 44
215.9
 45
279.4
 46
0.0
 47
0.0
 48
0.0
 49
0.0
140
0.0
141
0.0
142
1.0
143
1.0
 70
  1712
 72
     0
 73
     0
 74
     0
  7

 75
     0
 76
     0
 77
     2
 78
   300
147
1.0
148
0.0
149
0.0
100
AcDbLayout
  1
Model
 70
     1
 71
     0
 10
0.0
 20
0.0
 11
90.0
 21
120.0
 12
0.0
 22
0.0
 32
0.0
 14
0.0
 24
0.0
 34
0.0
 15
90.0
 25
120.0
 35
0.0
146
0.0
 13
0.0
 23
0.0
 33
0.0
 16
1.0
 26
0.0
 36
0.0
 17
0.0
 27
1.0
 37
0.0
 76
     0
330
1F
331
29
  0
MATERIAL
  5
45
102
{ACAD_REACTORS
330
43
102
}
330
43
100
AcDbMaterial
  1
ByBlock
  0
MATERIAL
  5
44
102
{ACAD_REACTORS
330
43
102
}
330
43
100
AcDbMaterial
  1
ByLayer
  0
MATERIAL
  5
46
102
{ACAD_REACTORS
330
43
102
}
330
43
100
AcDbMaterial
  1
Global
  0
MLEADERSTYLE
  5
6C
102
{ACAD_REACTORS
330
6B
102
}
330
6B
100
AcDbMLeaderStyle
170
     2
171
     1
172
     0
 90
        2
 40
0.0
 41
0.0
173
     1
 91
-1056964608
340
14
 92
       -2
290
     1
 42
0.09
291
     1
 43
0.36
  3
Standard
341
0
 44
0.18
300

342
11
174
     1
178
     6
175
     1
176
     0
 93
-1056964608
 45
0.18
292
     0
297
     0
 46
0.18
343
0
 94
-1056964608
 47
1.0
 49
1.0
140
1.0
293
     1
141
0.0
294
     1
177
     0
142
1.0
295
     0
296
     0
143
0.125
1001
ACAD_MLEADERVER
1070
     2
  0
MLINESTYLE
  5
18
102
{ACAD_REACTORS
330
17
102
}
330
17
100
AcDbMlineStyle
  2
Standard
 70
     0
  3

 62
   256
 51
90.0
 52
90.0
 71
     2
 49
0.5
 62
   256
  6
BYLAYER
 49
-0.5
 62
   256
  6
BYLAYER
  0
ACDBPLACEHOLDER
  5
F
102
{ACAD_REACTORS
330
E
102
}
330
E
  0
SCALE
  5
48
102
{ACAD_REACTORS
330
47
102
}
330
47
100
AcDbScale
 70
     0
300
1:1
140
1.0
141
1.0
290
     1
  0
SCALE
  5
49
102
{ACAD_REACTORS
330
47
102
}
330
47
100
AcDbScale
 70
     0
300
1:2
140
1.0
141
2.0
290
     0
  0
SCALE
  5
4A
102
{ACAD_REACTORS
330
47
102
}
330
47
100
AcDbScale
 70
     0
300
1:4
140
1.0
141
4.0
290
     0
  0
SCALE
  5
4B
102
{ACAD_REACTORS
330
47
102
}
330
47
100
AcDbScale
 70
     0
300
1:5
140
1.0
141
5.0
290
     0
  0
SCALE
  5
4C
102
{ACAD_REACTORS
330
47
102
}
330
47
100
AcDbScale
 70
     0
300
1:8
140
1.0
141
8.0
290
     0
  0
SCALE
  5
4D
102
{ACAD_REACTORS
330
47
102
}
330
47
100
AcDbScale
 70
     0
300
1:10
140
1.0
141
10.0
290
     0
  0
SCALE
  5
4E
102
{ACAD_REACTORS
330
47
102
}
330
47
100
AcDbScale
 70
     0
300
1:16
140
1.0
141
16.0
290
     0
  0
SCALE
  5
4F
102
{ACAD_REACTORS
330
47
102
}
330
47
100
AcDbScale
 70
     0
300
1:20
140
1.0
141
20.0
290
     0
  0
SCALE
  5
50
102
{ACAD_REACTORS
330
47
102
}
330
47
100
AcDbScale
 70
     0
300
1:30
140
1.0
141
30.0
290
     0
  0
SCALE
  5
51
102
{ACAD_REACTORS
330
47
102
}
330
47
100
AcDbScale
 70
     0
300
1:40
140
1.0
141
40.0
290
     0
  0
SCALE
  5
52
102
{ACAD_REACTORS
330
47
102
}
330
47
100
AcDbScale
 70
     0
300
1:50
140
1.0
141
50.0
290
     0
  0
SCALE
  5
53
102
{ACAD_REACTORS
330
47
102
}
330
47
100
AcDbScale
 70
     0
300
1:100
140
1.0
141
100.0
290
     0
  0
SCALE
  5
54
102
{ACAD_REACTORS
330
47
102
}
330
47
100
AcDbScale
 70
     0
300
2:1
140
2.0
141
1.0
290
     0
  0
SCALE
  5
55
102
{ACAD_REACTORS
330
47
102
}
330
47
100
AcDbScale
 70
     0
300
4:1
140
4.0
141
1.0
290
     0
  0
SCALE
  5
56
102
{ACAD_REACTORS
330
47
102
}
330
47
100
AcDbScale
 70
     0
300
8:1
140
8.0
141
1.0
290
     0
  0
SCALE
  5
57
102
{ACAD_REACTORS
330
47
102
}
330
47
100
AcDbScale
 70
     0
300
10:1
140
10.0
141
1.0
290
     0
  0
SCALE
  5
58
102
{ACAD_REACTORS
330
47
102
}
330
47
100
AcDbScale
 70
     0
300
100:1
140
100.0
141
1.0
290
     0
  0
SCALE
  5
59
102
{ACAD_REACTORS
330
47
102
}
330
47
100
AcDbScale
 70
     0
300
1/128" = 1'-0"
140
0.0078125
141
12.0
290
     0
  0
SCALE
  5
5A
102
{ACAD_REACTORS
330
47
102
}
330
47
100
AcDbScale
 70
     0
300
1/64" = 1'-0"
140
0.015625
141
12.0
290
     0
  0
SCALE
  5
5B
102
{ACAD_REACTORS
330
47
102
}
330
47
100
AcDbScale
 70
     0
300
1/32" = 1'-0"
140
0.03125
141
12.0
290
     0
  0
SCALE
  5
5C
102
{ACAD_REACTORS
330
47
102
}
330
47
100
AcDbScale
 70
     0
300
1/16" = 1'-0"
140
0.0625
141
12.0
290
     0
  0
SCALE
  5
5D
102
{ACAD_REACTORS
330
47
102
}
330
47
100
AcDbScale
 70
     0
300
3/32" = 1'-0"
140
0.09375
141
12.0
290
     0
  0
SCALE
  5
5E
102
{ACAD_REACTORS
330
47
102
}
330
47
100
AcDbScale
 70
     0
300
1/8" = 1'-0"
140
0.125
141
12.0
290
     0
  0
SCALE
  5
5F
102
{ACAD_REACTORS
330
47
102
}
330
47
100
AcDbScale
 70
     0
300
3/16" = 1'-0"
140
0.1875
141
12.0
290
     0
  0
SCALE
  5
60
102
{ACAD_REACTORS
330
47
102
}
330
47
100
AcDbScale
 70
     0
300
1/4" = 1'-0"
140
0.25
141
12.0
290
     0
  0
SCALE
  5
61
102
{ACAD_REACTORS
330
47
102
}
330
47
100
AcDbScale
 70
     0
300
3/8" = 1'-0"
140
0.375
141
12.0
290
     0
  0
SCALE
  5
62
102
{ACAD_REACTORS
330
47
102
}
330
47
100
AcDbScale
 70
     0
300
1/2" = 1'-0"
140
0.5
141
12.0
290
     0
  0
SCALE
  5
63
102
{ACAD_REACTORS
330
47
102
}
330
47
100
AcDbScale
 70
     0
300
3/4" = 1'-0"
140
0.75
141
12.0
290
     0
  0
SCALE
  5
64
102
{ACAD_REACTORS
330
47
102
}
330
47
100
AcDbScale
 70
     0
300
1" = 1'-0"
140
1.0
141
12.0
290
     0
  0
SCALE
  5
65
102
{ACAD_REACTORS
330
47
102
}
330
47
100
AcDbScale
 70
     0
300
1-1/2" = 1'-0"
140
1.5
141
12.0
290
     0
  0
SCALE
  5
66
102
{ACAD_REACTORS
330
47
102
}
330
47
100
AcDbScale
 70
     0
300
3" = 1'-0"
140
3.0
141
12.0
290
     0
  0
SCALE
  5
67
102
{ACAD_REACTORS
330
47
102
}
330
47
100
AcDbScale
 70
     0
300
6" = 1'-0"
140
6.0
141
12.0
290
     0
  0
SCALE
  5
68
102
{ACAD_REACTORS
330
47
102
}
330
47
100
AcDbScale
 70
     0
300
1'-0" = 1'-0"
140
12.0
141
12.0
290
     0
  0
TABLESTYLE
  5
6A
102
{ACAD_REACTORS
330
69
102
}
102
{ACAD_XDICTIONARY
360
312
102
}
330
69
100
AcDbTableStyle
  3
Standard
 70
     0
 71
     0
 40
0.06
 41
0.06
280
     0
281
     0
  7
Standard
140
0.18
170
     2
 62
     0
 63
   257
283
     0
274
    -2
284
     1
 64
     0
275
    -2
285
     1
 65
     0
276
    -2
286
     1
 66
     0
277
    -2
287
     1
 67
     0
278
    -2
288
     1
 68
     0
279
    -2
289
     1
 69
     0
  7
Standard
140
0.25
170
     5
 62
     0
 63
   257
283
     0
274
    -2
284
     1
 64
     0
275
    -2
285
     1
 65
     0
276
    -2
286
     1
 66
     0
277
    -2
287
     1
 67
     0
278
    -2
288
     1
 68
     0
279
    -2
289
     1
 69
     0
  7
Standard
140
0.18
170
     5
 62
     0
 63
   257
283
     0
274
    -2
284
     1
 64
     0
275
    -2
285
     1
 65
     0
276
    -2
286
     1
 66
     0
277
    -2
287
     1
 67
     0
278
    -2
288
     1
 68
     0
279
    -2
289
     1
 69
     0
  0
DICTIONARYVAR
  5
311
102
{ACAD_REACTORS
330
310
102
}
330
310
100
DictionaryVariables
280
     0
  1
1:1
  0
DICTIONARYVAR
  5
318
102
{ACAD_REACTORS
330
310
102
}
330
310
100
DictionaryVariables
280
     0
  1
Standard
  0
DICTIONARYVAR
  5
317
102
{ACAD_REACTORS
330
310
102
}
330
310
100
DictionaryVariables
280
     0
  1
Standard
  0
DICTIONARY
  5
312
330
6A
100
AcDbDictionary
280
     1
281
     1
  3
ACAD_ROUNDTRIP_2008_TABLESTYLE_CELLSTYLEMAP
360
314
  3
ACAD_XREC_ROUNDTRIP
360
313
  0
CELLSTYLEMAP
  5
314
102
{ACAD_REACTORS
330
312
102
}
330
312
100
AcDbCellStyleMap
 90
        3
300
CELLSTYLE
  1
TABLEFORMAT_BEGIN
 90
        5
170
     1
 91
        0
 92
    32768
 62
   257
 93
        1
300
CONTENTFORMAT
  1
CONTENTFORMAT_BEGIN
 90
        0
 91
        0
 92
        4
 93
        0
300

 40
0.0
140
1.0
 94
        5
 62
     0
340
11
144
0.25
309
CONTENTFORMAT_END
171
     1
301
MARGIN
  1
CELLMARGIN_BEGIN
 40
0.06
 40
0.06
 40
0.06
 40
0.06
 40
0.06
 40
0.06
309
CELLMARGIN_END
 94
        6
 95
        1
302
GRIDFORMAT
  1
GRIDFORMAT_BEGIN
 90
        0
 91
        1
 62
     0
 92
       -2
340
14
 93
        0
 40
0.045
309
GRIDFORMAT_END
 95
        2
302
GRIDFORMAT
  1
GRIDFORMAT_BEGIN
 90
        0
 91
        1
 62
     0
 92
       -2
340
14
 93
        0
 40
0.045
309
GRIDFORMAT_END
 95
        4
302
GRIDFORMAT
  1
GRIDFORMAT_BEGIN
 90
        0
 91
        1
 62
     0
 92
       -2
340
14
 93
        0
 40
0.045
309
GRIDFORMAT_END
 95
        8
302
GRIDFORMAT
  1
GRIDFORMAT_BEGIN
 90
        0
 91
        1
 62
     0
 92
       -2
340
14
 93
        0
 40
0.045
309
GRIDFORMAT_END
 95
       16
302
GRIDFORMAT
  1
GRIDFORMAT_BEGIN
 90
        0
 91
        1
 62
     0
 92
       -2
340
14
 93
        0
 40
0.045
309
GRIDFORMAT_END
 95
       32
302
GRIDFORMAT
  1
GRIDFORMAT_BEGIN
 90
        0
 91
        1
 62
     0
 92
       -2
340
14
 93
        0
 40
0.045
309
GRIDFORMAT_END
309
TABLEFORMAT_END
  1
CELLSTYLE_BEGIN
 90
        1
 91
        1
300
_TITLE
309
CELLSTYLE_END
300
CELLSTYLE
  1
TABLEFORMAT_BEGIN
 90
        5
170
     1
 91
        0
 92
        0
 62
   257
 93
        1
300
CONTENTFORMAT
  1
CONTENTFORMAT_BEGIN
 90
        0
 91
        0
 92
        4
 93
        0
300

 40
0.0
140
1.0
 94
        5
 62
     0
340
11
144
0.18
309
CONTENTFORMAT_END
171
     1
301
MARGIN
  1
CELLMARGIN_BEGIN
 40
0.06
 40
0.06
 40
0.06
 40
0.06
 40
0.06
 40
0.06
309
CELLMARGIN_END
 94
        6
 95
        1
302
GRIDFORMAT
  1
GRIDFORMAT_BEGIN
 90
        0
 91
        1
 62
     0
 92
       -2
340
14
 93
        0
 40
0.045
309
GRIDFORMAT_END
 95
        2
302
GRIDFORMAT
  1
GRIDFORMAT_BEGIN
 90
        0
 91
        1
 62
     0
 92
       -2
340
14
 93
        0
 40
0.045
309
GRIDFORMAT_END
 95
        4
302
GRIDFORMAT
  1
GRIDFORMAT_BEGIN
 90
        0
 91
        1
 62
     0
 92
       -2
340
14
 93
        0
 40
0.045
309
GRIDFORMAT_END
 95
        8
302
GRIDFORMAT
  1
GRIDFORMAT_BEGIN
 90
        0
 91
        1
 62
     0
 92
       -2
340
14
 93
        0
 40
0.045
309
GRIDFORMAT_END
 95
       16
302
GRIDFORMAT
  1
GRIDFORMAT_BEGIN
 90
        0
 91
        1
 62
     0
 92
       -2
340
14
 93
        0
 40
0.045
309
GRIDFORMAT_END
 95
       32
302
GRIDFORMAT
  1
GRIDFORMAT_BEGIN
 90
        0
 91
        1
 62
     0
 92
       -2
340
14
 93
        0
 40
0.045
309
GRIDFORMAT_END
309
TABLEFORMAT_END
  1
CELLSTYLE_BEGIN
 90
        2
 91
        1
300
_HEADER
309
CELLSTYLE_END
300
CELLSTYLE
  1
TABLEFORMAT_BEGIN
 90
        5
170
     1
 91
        0
 92
        0
 62
   257
 93
        1
300
CONTENTFORMAT
  1
CONTENTFORMAT_BEGIN
 90
        0
 91
        0
 92
        4
 93
        0
300

 40
0.0
140
1.0
 94
        2
 62
     0
340
11
144
0.18
309
CONTENTFORMAT_END
171
     1
301
MARGIN
  1
CELLMARGIN_BEGIN
 40
0.06
 40
0.06
 40
0.06
 40
0.06
 40
0.06
 40
0.06
309
CELLMARGIN_END
 94
        6
 95
        1
302
GRIDFORMAT
  1
GRIDFORMAT_BEGIN
 90
        0
 91
        1
 62
     0
 92
       -2
340
14
 93
        0
 40
0.045
309
GRIDFORMAT_END
 95
        2
302
GRIDFORMAT
  1
GRIDFORMAT_BEGIN
 90
        0
 91
        1
 62
     0
 92
       -2
340
14
 93
        0
 40
0.045
309
GRIDFORMAT_END
 95
        4
302
GRIDFORMAT
  1
GRIDFORMAT_BEGIN
 90
        0
 91
        1
 62
     0
 92
       -2
340
14
 93
        0
 40
0.045
309
GRIDFORMAT_END
 95
        8
302
GRIDFORMAT
  1
GRIDFORMAT_BEGIN
 90
        0
 91
        1
 62
     0
 92
       -2
340
14
 93
        0
 40
0.045
309
GRIDFORMAT_END
 95
       16
302
GRIDFORMAT
  1
GRIDFORMAT_BEGIN
 90
        0
 91
        1
 62
     0
 92
       -2
340
14
 93
        0
 40
0.045
309
GRIDFORMAT_END
 95
       32
302
GRIDFORMAT
  1
GRIDFORMAT_BEGIN
 90
        0
 91
        1
 62
     0
 92
       -2
340
14
 93
        0
 40
0.045
309
GRIDFORMAT_END
309
TABLEFORMAT_END
  1
CELLSTYLE_BEGIN
 90
        3
 91
        2
300
_DATA
309
CELLSTYLE_END
  0
XRECORD
  5
313
102
{ACAD_REACTORS
330
312
102
}
330
312
100
AcDbXrecord
280
     1
102
ACAD_ROUNDTRIP_PRE2007_TABLESTYLE
 90
        4
 91
        0
  1

 92
        4
 93
        0
  2

 94
        4
 95
        0
  3

  0
ENDSEC
  0
EOF
