  0
SECTION
  2
HEADER
  9
$ACADVER
  1
AC1018
  9
$ACADMAINTVER
 70
     0
  9
$DWGCODEPAGE
  3
ANSI_1252
  9
$LASTSAVEDBY
  1
carl
  9
$INSBASE
 10
0.0
 20
0.0
 30
0.0
  9
$EXTMIN
 10
0.0
 20
0.0
 30
0.0
  9
$EXTMAX
 10
70.0
 20
96.0
 30
0.0
  9
$LIMMIN
 10
0.0
 20
0.0
  9
$LIMMAX
 10
70.0
 20
96.0
  9
$ORTHOMODE
 70
     0
  9
$REGENMODE
 70
     1
  9
$FILLMODE
 70
     1
  9
$QTEXTMODE
 70
     0
  9
$MIRRTEXT
 70
     1
  9
$LTSCALE
 40
1.0
  9
$ATTMODE
 70
     1
  9
$TEXTSIZE
 40
0.5
  9
$TRACEWID
 40
0.05
  9
$TEXTSTYLE
  7
Standard
  9
$CLAYER
  8
0
  9
$CELTYPE
  6
ByLayer
  9
$CECOLOR
 62
   256
  9
$CELTSCALE
 40
1.0
  9
$DISPSILH
 70
     0
  9
$DIMSCALE
 40
1.0
  9
$DIMASZ
 40
0.3
  9
$DIMEXO
 40
0.1666666667
  9
$DIMDLI
 40
0.38
  9
$DIMRND
 40
0.0
  9
$DIMDLE
 40
0.0
  9
$DIMEXE
 40
0.375
  9
$DIMTP
 40
0.0
  9
$DIMTM
 40
0.0
  9
$DIMTXT
 40
0.5
  9
$DIMCEN
 40
0.09
  9
$DIMTSZ
 40
0.0
  9
$DIMTOL
 70
     0
  9
$DIMLIM
 70
     0
  9
$DIMTIH
 70
     1
  9
$DIMTOH
 70
     1
  9
$DIMSE1
 70
     0
  9
$DIMSE2
 70
     0
  9
$DIMTAD
 70
     0
  9
$DIMZIN
 70
     1
  9
$DIMBLK
  1

  9
$DIMASO
 70
     1
  9
$DIMSHO
 70
     1
  9
$DIMPOST
  1

  9
$DIMAPOST
  1

  9
$DIMALT
 70
     0
  9
$DIMALTD
 70
     2
  9
$DIMALTF
 40
25.4
  9
$DIMLFAC
 40
1.0
  9
$DIMTOFL
 70
     0
  9
$DIMTVP
 40
0.0
  9
$DIMTIX
 70
     0
  9
$DIMSOXD
 70
     0
  9
$DIMSAH
 70
     0
  9
$DIMBLK1
  1

  9
$DIMBLK2
  1

  9
$DIMSTYLE
  2
Standard
  9
$DIMCLRD
 70
     0
  9
$DIMCLRE
 70
     0
  9
$DIMCLRT
 70
     0
  9
$DIMTFAC
 40
1.0
  9
$DIMGAP
 40
0.125
  9
$DIMJUST
 70
     0
  9
$DIMSD1
 70
     0
  9
$DIMSD2
 70
     0
  9
$DIMTOLJ
 70
     1
  9
$DIMTZIN
 70
     1
  9
$DIMALTZ
 70
     0
  9
$DIMALTTZ
 70
     0
  9
$DIMUPT
 70
     0
  9
$DIMDEC
 70
     2
  9
$DIMTDEC
 70
     2
  9
$DIMALTU
 70
     2
  9
$DIMALTTD
 70
     2
  9
$DIMTXSTY
  7
Standard
  9
$DIMAUNIT
 70
     0
  9
$DIMADEC
 70
     2
  9
$DIMALTRND
 40
0.0
  9
$DIMAZIN
 70
     0
  9
$DIMDSEP
 70
    46
  9
$DIMATFIT
 70
     3
  9
$DIMFRAC
 70
     0
  9
$DIMLDRBLK
  1

  9
$DIMLUNIT
 70
     2
  9
$DIMLWD
 70
    -2
  9
$DIMLWE
 70
    -2
  9
$DIMTMOVE
 70
     0
  9
$LUNITS
 70
     2
  9
$LUPREC
 70
     2
  9
$SKETCHINC
 40
0.1
  9
$FILLETRAD
 40
0.5
  9
$AUNITS
 70
     0
  9
$AUPREC
 70
     2
  9
$MENU
  1
.
  9
$ELEVATION
 40
0.0
  9
$PELEVATION
 40
0.0
  9
$THICKNESS
 40
0.0
  9
$LIMCHECK
 70
     0
  9
$CHAMFERA
 40
0.0
  9
$CHAMFERB
 40
0.0
  9
$CHAMFERC
 40
0.0
  9
$CHAMFERD
 40
0.0
  9
$SKPOLY
 70
     0
  9
$TDCREATE
 40
2460200.375369757
  9
$TDUCREATE
 40
2460200.542036423
  9
$TDUPDATE
 40
2460200.37537772
  9
$TDUUPDATE
 40
2460200.542044387
  9
$TDINDWG
 40
0.0000000116
  9
$TDUSRTIMER
 40
0.0000000116
  9
$USRTIMER
 70
     1
  9
$ANGBASE
 50
0.0
  9
$ANGDIR
 70
     0
  9
$PDMODE
 70
     0
  9
$PDSIZE
 40
-1.0
  9
$PLINEWID
 40
0.0
  9
$SPLFRAME
 70
     0
  9
$SPLINETYPE
 70
     6
  9
$SPLINESEGS
 70
     8
  9
$HANDSEED
  5
636
  9
$SURFTAB1
 70
     6
  9
$SURFTAB2
 70
     6
  9
$SURFTYPE
 70
     6
  9
$SURFU
 70
     6
  9
$SURFV
 70
     6
  9
$UCSBASE
  2

  9
$UCSNAME
  2

  9
$UCSORG
 10
0.0
 20
0.0
 30
0.0
  9
$UCSXDIR
 10
1.0
 20
0.0
 30
0.0
  9
$UCSYDIR
 10
0.0
 20
1.0
 30
0.0
  9
$UCSORTHOREF
  2

  9
$UCSORTHOVIEW
 70
     0
  9
$UCSORGTOP
 10
0.0
 20
0.0
 30
0.0
  9
$UCSORGBOTTOM
 10
0.0
 20
0.0
 30
0.0
  9
$UCSORGLEFT
 10
0.0
 20
0.0
 30
0.0
  9
$UCSORGRIGHT
 10
0.0
 20
0.0
 30
0.0
  9
$UCSORGFRONT
 10
0.0
 20
0.0
 30
0.0
  9
$UCSORGBACK
 10
0.0
 20
0.0
 30
0.0
  9
$PUCSBASE
  2

  9
$PUCSNAME
  2

  9
$PUCSORG
 10
0.0
 20
0.0
 30
0.0
  9
$PUCSXDIR
 10
1.0
 20
0.0
 30
0.0
  9
$PUCSYDIR
 10
0.0
 20
1.0
 30
0.0
  9
$PUCSORTHOREF
  2

  9
$PUCSORTHOVIEW
 70
     0
  9
$PUCSORGTOP
 10
0.0
 20
0.0
 30
0.0
  9
$PUCSORGBOTTOM
 10
0.0
 20
0.0
 30
0.0
  9
$PUCSORGLEFT
 10
0.0
 20
0.0
 30
0.0
  9
$PUCSORGRIGHT
 10
0.0
 20
0.0
 30
0.0
  9
$PUCSORGFRONT
 10
0.0
 20
0.0
 30
0.0
  9
$PUCSORGBACK
 10
0.0
 20
0.0
 30
0.0
  9
$USERI1
 70
     0
  9
$USERI2
 70
     0
  9
$USERI3
 70
     0
  9
$USERI4
 70
     0
  9
$USERI5
 70
     0
  9
$USERR1
 40
0.0
  9
$USERR2
 40
0.0
  9
$USERR3
 40
0.0
  9
$USERR4
 40
0.0
  9
$USERR5
 40
0.0
  9
$WORLDVIEW
 70
     1
  9
$SHADEDGE
 70
     3
  9
$SHADEDIF
 70
    70
  9
$TILEMODE
 70
     1
  9
$MAXACTVP
 70
    64
  9
$PINSBASE
 10
0.0
 20
0.0
 30
0.0
  9
$PLIMCHECK
 70
     0
  9
$PEXTMIN
 10
1.0000000000E+20
 20
1.0000000000E+20
 30
1.0000000000E+20
  9
$PEXTMAX
 10
-1.0000000000E+20
 20
-1.0000000000E+20
 30
-1.0000000000E+20
  9
$PLIMMIN
 10
0.0
 20
0.0
  9
$PLIMMAX
 10
12.0
 20
9.0
  9
$UNITMODE
 70
     0
  9
$VISRETAIN
 70
     1
  9
$PLINEGEN
 70
     0
  9
$PSLTSCALE
 70
     1
  9
$TREEDEPTH
 70
  3020
  9
$CMLSTYLE
  2
Standard
  9
$CMLJUST
 70
     0
  9
$CMLSCALE
 40
1.0
  9
$PROXYGRAPHICS
 70
     1
  9
$MEASUREMENT
 70
     0
  9
$CELWEIGHT
370
    -1
  9
$ENDCAPS
280
     0
  9
$JOINSTYLE
280
     0
  9
$LWDISPLAY
290
     1
  9
$INSUNITS
 70
     1
  9
$HYPERLINKBASE
  1

  9
$STYLESHEET
  1

  9
$XEDIT
290
     1
  9
$CEPSNTYPE
380
     0
  9
$PSTYLEMODE
290
     1
  9
$FINGERPRINTGUID
  2
{a84d01ca-62ee-4c9d-8ea6-b08d4ef23588}
  9
$VERSIONGUID
  2
{FAEB1C32-E019-11D5-929B-00C0DF256EC4}
  9
$EXTNAMES
290
     1
  9
$PSVPSCALE
 40
0.0
  9
$OLESTARTUP
290
     0
  9
$SORTENTS
280
   127
  9
$INDEXCTL
280
     0
  9
$HIDETEXT
280
     1
  9
$XCLIPFRAME
290
     0
  9
$HALOGAP
280
     0
  9
$OBSCOLOR
 70
   257
  9
$OBSLTYPE
280
     0
  9
$INTERSECTIONDISPLAY
280
     0
  9
$INTERSECTIONCOLOR
 70
   257
  9
$DIMASSOC
280
     2
  9
$PROJECTNAME
  1

  0
ENDSEC
  0
SECTION
  2
CLASSES
  0
CLASS
  1
ACDBDICTIONARYWDFLT
  2
AcDbDictionaryWithDefault
  3
ObjectDBX Classes
 90
        0
 91
        3
280
     0
281
     0
  0
CLASS
  1
VISUALSTYLE
  2
AcDbVisualStyle
  3
ObjectDBX Classes
 90
     4095
 91
        3
280
     0
281
     0
  0
CLASS
  1
MATERIAL
  2
AcDbMaterial
  3
ObjectDBX Classes
 90
     1153
 91
        3
280
     0
281
     0
  0
CLASS
  1
SCALE
  2
AcDbScale
  3
ObjectDBX Classes
 90
     1153
 91
        3
280
     0
281
     0
  0
CLASS
  1
TABLESTYLE
  2
AcDbTableStyle
  3
ObjectDBX Classes
 90
     4095
 91
        3
280
     0
281
     0
  0
CLASS
  1
MLEADERSTYLE
  2
AcDbMLeaderStyle
  3
ACDB_MLEADERSTYLE_CLASS
 90
     4095
 91
        3
280
     0
281
     0
  0
CLASS
  1
SUN
  2
AcDbSun
  3
SCENEOE
 90
     1153
 91
        3
280
     0
281
     0
  0
CLASS
  1
DICTIONARYVAR
  2
AcDbDictionaryVar
  3
ObjectDBX Classes
 90
        0
 91
        3
280
     0
281
     0
  0
CLASS
  1
CELLSTYLEMAP
  2
AcDbCellStyleMap
  3
ObjectDBX Classes
 90
     1152
 91
        3
280
     0
281
     0
  0
ENDSEC
  0
SECTION
  2
TABLES
  0
TABLE
  2
VPORT
  5
8
330
0
100
AcDbSymbolTable
 70
     1
  0
VPORT
  5
29
330
8
100
AcDbSymbolTableRecord
100
AcDbViewportTableRecord
  2
*Active
 70
     0
 10
0.0
 20
0.0
 11
1.0
 21
1.0
 12
35.0
 22
48.0
 13
0.0
 23
0.0
 14
0.5
 24
0.5
 15
0.5
 25
0.5
 16
0.0
 26
0.0
 36
1.0
 17
0.0
 27
0.0
 37
0.0
 40
96.0
 41
0.7291666667
 42
50.0
 43
0.0
 44
0.0
 50
0.0
 51
0.0
 71
     0
 72
  2000
 73
     1
 74
     3
 75
     0
 76
     0
 77
     0
 78
     0
281
     0
 65
     1
110
0.0
120
0.0
130
0.0
111
1.0
121
0.0
131
0.0
112
0.0
122
1.0
132
0.0
 79
     0
146
0.0
  0
ENDTAB
  0
TABLE
  2
LTYPE
  5
5
330
0
100
AcDbSymbolTable
 70
     6
  0
LTYPE
  5
14
330
5
100
AcDbSymbolTableRecord
100
AcDbLinetypeTableRecord
  2
ByBlock
 70
     0
  3

 72
    65
 73
     0
 40
0.0
  0
LTYPE
  5
15
330
5
100
AcDbSymbolTableRecord
100
AcDbLinetypeTableRecord
  2
ByLayer
 70
     0
  3

 72
    65
 73
     0
 40
0.0
  0
LTYPE
  5
16
330
5
100
AcDbSymbolTableRecord
100
AcDbLinetypeTableRecord
  2
Continuous
 70
     0
  3
Solid line
 72
    65
 73
     0
 40
0.0
  0
LTYPE
  5
6E
330
5
100
AcDbSymbolTableRecord
100
AcDbLinetypeTableRecord
  2
HIDDEN
 70
     0
  3
Hidden __ __ __ __ __ __ __ __ __ __ __ __ __ __
 72
    65
 73
     2
 40
0.075
 49
0.05
 74
     0
 49
-0.025
 74
     0
  0
LTYPE
  5
6F
330
5
100
AcDbSymbolTableRecord
100
AcDbLinetypeTableRecord
  2
PHANTOM
 70
     0
  3
Phantom ______  __  __  ______  __  __  ______
 72
    65
 73
     6
 40
0.5
 49
0.25
 74
     0
 49
-0.05
 74
     0
 49
0.05
 74
     0
 49
-0.05
 74
     0
 49
0.05
 74
     0
 49
-0.05
 74
     0
  0
LTYPE
  5
70
330
5
100
AcDbSymbolTableRecord
100
AcDbLinetypeTableRecord
  2
CENTER
 70
     0
  3
Center ____ _ ____ _ ____ _ ____ _ ____ _ ____
 72
    65
 73
     4
 40
0.4
 49
0.25
 74
     0
 49
-0.05
 74
     0
 49
0.05
 74
     0
 49
-0.05
 74
     0
  0
LTYPE
  5
71
330
5
100
AcDbSymbolTableRecord
100
AcDbLinetypeTableRecord
  2
CENTERX2
 70
     0
  3
Center (2x) ________  __  ________  __  _____
 72
    65
 73
     4
 40
0.8
 49
0.5
 74
     0
 49
-0.1
 74
     0
 49
0.1
 74
     0
 49
-0.1
 74
     0
  0
LTYPE
  5
72
330
5
100
AcDbSymbolTableRecord
100
AcDbLinetypeTableRecord
  2
DOT2
 70
     0
  3
Dot (.5x) ........................................
 72
    65
 73
     2
 40
0.025
 49
0.0
 74
     0
 49
-0.025
 74
     0
  0
ENDTAB
  0
TABLE
  2
LAYER
  5
2
330
0
100
AcDbSymbolTable
 70
     7
  0
LAYER
  5
10
330
2
100
AcDbSymbolTableRecord
100
AcDbLayerTableRecord
  2
0
 70
     0
 62
     7
  6
Continuous
370
    -3
390
F
  0
LAYER
  5
73
330
2
100
AcDbSymbolTableRecord
100
AcDbLayerTableRecord
  2
FORMAT
 70
     0
 62
     7
  6
Continuous
370
    -3
390
F
  0
LAYER
  5
74
330
2
100
AcDbSymbolTableRecord
100
AcDbLayerTableRecord
  2
NOTES
 70
     0
 62
     1
  6
Continuous
370
    -3
390
F
  0
LAYER
  5
75
330
2
100
AcDbSymbolTableRecord
100
AcDbLayerTableRecord
  2
OBJECT
 70
     0
 62
     7
  6
Continuous
370
    -3
390
F
  0
LAYER
  5
76
330
2
100
AcDbSymbolTableRecord
100
AcDbLayerTableRecord
  2
DIMS
 70
     0
 62
     5
  6
Continuous
370
    -3
390
F
  0
LAYER
  5
77
330
2
100
AcDbSymbolTableRecord
100
AcDbLayerTableRecord
  2
TITLE
 70
     0
 62
    59
  6
Continuous
370
    -3
390
F
  0
LAYER
  5
78
330
2
100
AcDbSymbolTableRecord
100
AcDbLayerTableRecord
  2
CONSRTUCTION
 70
     0
 62
     6
  6
Continuous
290
     0
370
    -3
390
F
  0
ENDTAB
  0
TABLE
  2
STYLE
  5
3
330
0
100
AcDbSymbolTable
 70
     4
  0
STYLE
  5
11
330
3
100
AcDbSymbolTableRecord
100
AcDbTextStyleTableRecord
  2
Standard
 70
     0
 40
0.0
 41
1.0
 50
0.0
 71
     0
 42
0.5
  3
txt
  4

  0
STYLE
  5
130
330
3
100
AcDbSymbolTableRecord
100
AcDbTextStyleTableRecord
  2
SLDTEXTSTYLE0
 70
     0
 40
0.0
 41
0.605
 50
0.0
 71
     0
 42
0.5
  3
TXT
  4

  0
STYLE
  5
134
330
3
100
AcDbSymbolTableRecord
100
AcDbTextStyleTableRecord
  2
SLDTEXTSTYLE1
 70
     0
 40
0.0
 41
0.75
 50
0.0
 71
     0
 42
0.5
  3
TXT
  4

  0
STYLE
  5
137
330
3
100
AcDbSymbolTableRecord
100
AcDbTextStyleTableRecord
  2
SLDTEXTSTYLE2
 70
     0
 40
0.0
 41
0.6607142857
 50
0.0
 71
     0
 42
0.5
  3
TXT
  4

  0
ENDTAB
  0
TABLE
  2
VIEW
  5
6
330
0
100
AcDbSymbolTable
 70
     0
  0
ENDTAB
  0
TABLE
  2
UCS
  5
7
330
0
100
AcDbSymbolTable
 70
     0
  0
ENDTAB
  0
TABLE
  2
APPID
  5
9
330
0
100
AcDbSymbolTable
 70
     2
  0
APPID
  5
12
330
9
100
AcDbSymbolTableRecord
100
AcDbRegAppTableRecord
  2
ACAD
 70
     0
  0
APPID
  5
630
330
9
100
AcDbSymbolTableRecord
100
AcDbRegAppTableRecord
  2
ACAD_MLEADERVER
 70
     0
  0
ENDTAB
  0
TABLE
  2
DIMSTYLE
  5
A
330
0
100
AcDbSymbolTable
 70
     6
100
AcDbDimStyleTable
  0
DIMSTYLE
105
27
330
A
100
AcDbSymbolTableRecord
100
AcDbDimStyleTableRecord
  2
Standard
 70
     0
178
     0
340
11
  0
DIMSTYLE
105
2E6
102
{ACAD_REACTORS
330
2E5
102
}
330
A
100
AcDbSymbolTableRecord
100
AcDbDimStyleTableRecord
  2
SLDDIMSTYLE0
 70
     0
 41
0.3
 44
0.0
 45
0.000000001
 78
    12
 79
     3
140
0.5
147
0.125
173
     1
178
     0
271
     2
272
     2
276
     2
277
     5
284
    12
340
130
341
2E7
343
2E7
344
2E7
  0
DIMSTYLE
105
2F8
102
{ACAD_REACTORS
330
2F7
330
307
330
43D
330
44C
330
45B
330
46A
330
479
330
489
330
614
102
}
330
A
100
AcDbSymbolTableRecord
100
AcDbDimStyleTableRecord
  2
SLDDIMSTYLE1
 70
     0
 41
0.3
 44
0.0
 45
0.000000001
 78
    12
 79
     3
140
0.5
147
0.125
173
     1
178
     0
271
     6
272
     2
276
     2
277
     5
284
    12
340
130
341
2E7
343
2E7
344
2E7
  0
DIMSTYLE
105
318
330
A
100
AcDbSymbolTableRecord
100
AcDbDimStyleTableRecord
  2
SLDDIMSTYLE2
 70
     0
 41
0.3
 44
0.0
 45
0.000000001
146
0.3
147
0.0
173
     1
178
     0
271
     0
272
     0
276
     2
277
     5
340
11
341
2E7
343
2E7
344
2E7
  0
DIMSTYLE
105
36E
102
{ACAD_REACTORS
330
36D
102
}
330
A
100
AcDbSymbolTableRecord
100
AcDbDimStyleTableRecord
  2
SLDDIMSTYLE3
 70
     0
 41
0.3
 44
0.0
 45
0.000000001
 78
    12
 79
     3
140
0.5
147
0.125
172
     1
173
     1
178
     0
271
     6
272
     2
276
     2
277
     5
284
    12
289
     0
340
130
341
2E7
343
2E7
344
2E7
  0
DIMSTYLE
105
499
102
{ACAD_REACTORS
330
498
102
}
330
A
100
AcDbSymbolTableRecord
100
AcDbDimStyleTableRecord
  2
SLDDIMSTYLE4
 70
     0
 41
0.3
 44
0.0
 45
0.000000001
 78
    12
 79
     3
140
0.5
141
0.0
147
0.125
173
     1
178
     0
271
     2
272
     2
276
     2
277
     5
284
    12
340
130
341
2E7
343
2E7
344
2E7
  0
ENDTAB
  0
TABLE
  2
BLOCK_RECORD
  5
1
330
0
100
AcDbSymbolTable
 70
    17
  0
BLOCK_RECORD
  5
1F
330
1
100
AcDbSymbolTableRecord
100
AcDbBlockTableRecord
  2
*Model_Space
340
22
  0
BLOCK_RECORD
  5
1B
330
1
100
AcDbSymbolTableRecord
100
AcDbBlockTableRecord
  2
*Paper_Space
340
1E
  0
BLOCK_RECORD
  5
23
330
1
100
AcDbSymbolTableRecord
100
AcDbBlockTableRecord
  2
*Paper_Space0
340
26
  0
BLOCK_RECORD
  5
13B
330
1
100
AcDbSymbolTableRecord
100
AcDbBlockTableRecord
  2
SW_NOTE_0
340
0
102
{BLKREFS
331
140
102
}
  0
BLOCK_RECORD
  5
141
330
1
100
AcDbSymbolTableRecord
100
AcDbBlockTableRecord
  2
SW_NOTE_0_1
340
0
102
{BLKREFS
331
148
102
}
  0
BLOCK_RECORD
  5
2E7
330
1
100
AcDbSymbolTableRecord
100
AcDbBlockTableRecord
  2
_Open90
340
0
102
{BLKREFS
331
2F0
331
2F1
331
2FC
331
2FD
331
30B
331
30C
331
372
331
373
331
441
331
442
331
450
331
451
331
45F
331
460
331
46E
331
46F
331
47D
331
47E
331
48D
331
48E
331
49D
331
618
331
619
102
}
  0
BLOCK_RECORD
  5
2ED
330
1
100
AcDbSymbolTableRecord
100
AcDbBlockTableRecord
  2
_D
340
0
  0
BLOCK_RECORD
  5
2F9
330
1
100
AcDbSymbolTableRecord
100
AcDbBlockTableRecord
  2
_D_1
340
0
  0
BLOCK_RECORD
  5
308
330
1
100
AcDbSymbolTableRecord
100
AcDbBlockTableRecord
  2
_D_2
340
0
  0
BLOCK_RECORD
  5
36F
330
1
100
AcDbSymbolTableRecord
100
AcDbBlockTableRecord
  2
_D_3
340
0
  0
BLOCK_RECORD
  5
43E
330
1
100
AcDbSymbolTableRecord
100
AcDbBlockTableRecord
  2
_D_4
340
0
  0
BLOCK_RECORD
  5
44D
330
1
100
AcDbSymbolTableRecord
100
AcDbBlockTableRecord
  2
_D_5
340
0
  0
BLOCK_RECORD
  5
45C
330
1
100
AcDbSymbolTableRecord
100
AcDbBlockTableRecord
  2
_D_6
340
0
  0
BLOCK_RECORD
  5
46B
330
1
100
AcDbSymbolTableRecord
100
AcDbBlockTableRecord
  2
_D_7
340
0
  0
BLOCK_RECORD
  5
47A
330
1
100
AcDbSymbolTableRecord
100
AcDbBlockTableRecord
  2
_D_8
340
0
  0
BLOCK_RECORD
  5
48A
330
1
100
AcDbSymbolTableRecord
100
AcDbBlockTableRecord
  2
_D_9
340
0
  0
BLOCK_RECORD
  5
49A
330
1
100
AcDbSymbolTableRecord
100
AcDbBlockTableRecord
  2
_D_10
340
0
  0
BLOCK_RECORD
  5
615
330
1
100
AcDbSymbolTableRecord
100
AcDbBlockTableRecord
  2
_D_11
340
0
  0
BLOCK_RECORD
  5
623
330
1
100
AcDbSymbolTableRecord
100
AcDbBlockTableRecord
  2
SW_NOTE_0_2
340
0
102
{BLKREFS
331
628
102
}
  0
ENDTAB
  0
ENDSEC
  0
SECTION
  2
BLOCKS
  0
BLOCK
  5
20
330
1F
100
AcDbEntity
  8
0
100
AcDbBlockBegin
  2
*Model_Space
 70
     0
 10
0.0
 20
0.0
 30
0.0
  3
*Model_Space
  1

  0
ENDBLK
  5
21
330
1F
100
AcDbEntity
  8
0
100
AcDbBlockEnd
  0
BLOCK
  5
1C
330
1B
100
AcDbEntity
 67
     1
  8
0
100
AcDbBlockBegin
  2
*Paper_Space
 70
     0
 10
0.0
 20
0.0
 30
0.0
  3
*Paper_Space
  1

  0
ENDBLK
  5
1D
330
1B
100
AcDbEntity
 67
     1
  8
0
100
AcDbBlockEnd
  0
BLOCK
  5
24
330
23
100
AcDbEntity
  8
0
100
AcDbBlockBegin
  2
*Paper_Space0
 70
     0
 10
0.0
 20
0.0
 30
0.0
  3
*Paper_Space0
  1

  0
ENDBLK
  5
25
330
23
100
AcDbEntity
  8
0
100
AcDbBlockEnd
  0
BLOCK
  5
13C
330
13B
100
AcDbEntity
  8
0
100
AcDbBlockBegin
  2
SW_NOTE_0
 70
     0
 10
0.0
 20
0.0
 30
0.0
  3
SW_NOTE_0
  1

  0
MTEXT
  5
13E
330
13B
100
AcDbEntity
  8
NOTES
 62
     0
100
AcDbMText
 10
0.0
 20
0.3759780908
 30
0.0
 40
0.2916666667
 41
0.0
 71
     1
 72
     1
  1
FROST PRODUCTS LTD.
  7
SLDTEXTSTYLE0
 73
     1
 44
1.0
  0
MTEXT
  5
13F
330
13B
100
AcDbEntity
  8
NOTES
 62
     0
100
AcDbMText
 10
0.0
 20
-0.0495142709
 30
0.0
 40
0.2291666667
 41
0.0
 71
     1
 72
     1
  1
5280 JOHN LUCAS DRIVE, BURLINGTON, ON, L7L 5Z9
  7
SLDTEXTSTYLE0
 73
     1
 44
1.0
  0
ENDBLK
  5
13D
330
13B
100
AcDbEntity
  8
0
100
AcDbBlockEnd
  0
BLOCK
  5
142
330
141
100
AcDbEntity
  8
0
100
AcDbBlockBegin
  2
SW_NOTE_0_1
 70
     0
 10
0.0
 20
0.0
 30
0.0
  3
SW_NOTE_0_1
  1

  0
MTEXT
  5
144
330
141
100
AcDbEntity
  8
NOTES
 62
     0
100
AcDbMText
 10
0.0
 20
0.2381282771
 30
0.0
 40
0.184729064
 41
0.0
 71
     1
 72
     1
  1
PROPRIETARY AND CONFIDENTIAL
  7
SLDTEXTSTYLE0
 73
     1
 44
1.0
  0
MTEXT
  5
145
330
141
100
AcDbEntity
  8
NOTES
 62
     0
100
AcDbMText
 10
0.0
 20
-0.0504364796
 30
0.0
 40
0.25
 41
0.0
 71
     1
 72
     1
  1
THE INFORMATION CONTAINED IN THIS DRAWING IS THE SOLE PROPERTY OF
  7
SLDTEXTSTYLE0
 73
     1
 44
1.0
  0
MTEXT
  5
146
330
141
100
AcDbEntity
  8
NOTES
 62
     0
100
AcDbMText
 10
0.0
 20
-0.4231398941
 30
0.0
 40
0.25
 41
0.0
 71
     1
 72
     1
  1
FROST PRODUCTS LTD.  ANY REPRODUCTION IN PART OR AS A WHOLE WITHOUT
  7
SLDTEXTSTYLE0
 73
     1
 44
1.0
  0
MTEXT
  5
147
330
141
100
AcDbEntity
  8
NOTES
 62
     0
100
AcDbMText
 10
0.0
 20
-0.7958433086
 30
0.0
 40
0.25
 41
0.0
 71
     1
 72
     1
  1
THE WRITTEN PERMISSION OF FROST PRODUCTS LTD. IS PROHIBITED.
  7
SLDTEXTSTYLE0
 73
     1
 44
1.0
  0
ENDBLK
  5
143
330
141
100
AcDbEntity
  8
0
100
AcDbBlockEnd
  0
BLOCK
  5
2E8
330
2E7
100
AcDbEntity
  8
0
100
AcDbBlockBegin
  2
_Open90
 70
     0
 10
0.0
 20
0.0
 30
0.0
  3
_Open90
  1

  0
LINE
  5
2EA
330
2E7
100
AcDbEntity
  8
0
  6
ByBlock
 62
     0
370
    -2
100
AcDbLine
 10
-0.5
 20
0.5
 30
0.0
 11
0.0
 21
0.0
 31
0.0
  0
LINE
  5
2EB
330
2E7
100
AcDbEntity
  8
0
  6
ByBlock
 62
     0
370
    -2
100
AcDbLine
 10
0.0
 20
0.0
 30
0.0
 11
-0.5
 21
-0.5
 31
0.0
  0
LINE
  5
2EC
330
2E7
100
AcDbEntity
  8
0
  6
ByBlock
 62
     0
370
    -2
100
AcDbLine
 10
0.0
 20
0.0
 30
0.0
 11
-1.0
 21
0.0
 31
0.0
  0
ENDBLK
  5
2E9
330
2E7
100
AcDbEntity
  8
0
100
AcDbBlockEnd
  0
BLOCK
  5
2EE
330
2ED
100
AcDbEntity
  8
0
100
AcDbBlockBegin
  2
_D
 70
     0
 10
0.0
 20
0.0
 30
0.0
  3
_D
  1

  0
INSERT
  5
2F0
330
2ED
100
AcDbEntity
  8
DIMS
100
AcDbBlockReference
  2
_Open90
 10
3.543235191
 20
57.6278454144
 30
0.0
 41
0.3
 42
0.3
 50
90.0
  0
INSERT
  5
2F1
330
2ED
100
AcDbEntity
  8
DIMS
100
AcDbBlockReference
  2
_Open90
 10
3.543235191
 20
9.6278454144
 30
0.0
 41
0.3
 42
0.3
 50
270.0
  0
LINE
  5
2F2
330
2ED
100
AcDbEntity
  8
DIMS
100
AcDbLine
 10
5.9129819373
 20
57.6278454144
 30
0.0
 11
3.168235191
 21
57.6278454144
 31
0.0
  0
LINE
  5
2F3
330
2ED
100
AcDbEntity
  8
DIMS
100
AcDbLine
 10
2.503939164
 20
9.6278454144
 30
0.0
 11
3.918235191
 21
9.6278454144
 31
0.0
  0
LINE
  5
2F4
330
2ED
100
AcDbEntity
  8
DIMS
100
AcDbLine
 10
3.543235191
 20
57.6278454144
 30
0.0
 11
3.543235191
 21
12.8665514559
 31
0.0
  0
LINE
  5
2F5
330
2ED
100
AcDbEntity
  8
DIMS
100
AcDbLine
 10
3.543235191
 20
9.6278454144
 30
0.0
 11
3.543235191
 21
12.0991903472
 31
0.0
  0
MTEXT
  5
2F6
330
2ED
100
AcDbEntity
  8
DIMS
100
AcDbMText
 10
2.8331846025
 20
12.7437242354
 30
0.0
 40
0.5
 41
0.0
 71
     1
 72
     1
  1
48" (1220mm) Max. height above floor for barrier free installation
  7
SLDTEXTSTYLE0
 73
     1
 44
1.0
  0
ENDBLK
  5
2EF
330
2ED
100
AcDbEntity
  8
0
100
AcDbBlockEnd
  0
BLOCK
  5
2FA
330
2F9
100
AcDbEntity
  8
0
100
AcDbBlockBegin
  2
_D_1
 70
     0
 10
0.0
 20
0.0
 30
0.0
  3
_D_1
  1

  0
INSERT
  5
2FC
330
2F9
100
AcDbEntity
  8
DIMS
100
AcDbBlockReference
  2
_Open90
 10
5.8179819373
 20
55.691501673
 30
-0.110630303
 41
0.3
 42
0.3
 50
180.0
  0
INSERT
  5
2FD
330
2F9
100
AcDbEntity
  8
DIMS
100
AcDbBlockReference
  2
_Open90
 10
11.3229819373
 20
55.691501673
 30
-0.110630303
 41
0.3
 42
0.3
 50
0.0
  0
LINE
  5
2FE
330
2F9
100
AcDbEntity
  8
DIMS
100
AcDbLine
 10
8.4977600326
 20
55.7425433476
 30
0.0
 11
9.0255377857
 21
55.7425433476
 31
0.0
  0
LINE
  5
2FF
330
2F9
100
AcDbEntity
  8
DIMS
100
AcDbLine
 10
5.8179819373
 20
58.1786979856
 30
0.0
 11
5.8179819373
 21
55.316501673
 31
0.0
  0
LINE
  5
300
330
2F9
100
AcDbEntity
  8
DIMS
100
AcDbLine
 10
11.3229819373
 20
58.1786979856
 30
0.0
 11
11.3229819373
 21
55.316501673
 31
0.0
  0
LINE
  5
301
330
2F9
100
AcDbEntity
  8
DIMS
100
AcDbLine
 10
5.8179819373
 20
55.691501673
 30
0.0
 11
8.0428989155
 21
55.691501673
 31
0.0
  0
LINE
  5
302
330
2F9
100
AcDbEntity
  8
DIMS
100
AcDbLine
 10
11.3229819373
 20
55.691501673
 30
0.0
 11
9.3422044925
 21
55.691501673
 31
0.0
  0
MTEXT
  5
303
330
2F9
100
AcDbEntity
  8
DIMS
100
AcDbMText
 10
8.0428989155
 20
55.9770077755
 30
0.0
 40
0.5
 41
0.0
 71
     1
 72
     1
  1
5
  7
SLDTEXTSTYLE0
 73
     1
 44
1.0
  0
MTEXT
  5
304
330
2F9
100
AcDbEntity
  8
DIMS
100
AcDbMText
 10
8.5706766869
 20
56.3433272212
 30
0.0
 40
0.5
 41
0.0
 71
     1
 72
     1
  1
1
  7
SLDTEXTSTYLE0
 73
     1
 44
1.0
  0
MTEXT
  5
305
330
2F9
100
AcDbEntity
  8
DIMS
100
AcDbMText
 10
8.5706766869
 20
55.6829105472
 30
0.0
 40
0.5
 41
0.0
 71
     1
 72
     1
  1
2
  7
SLDTEXTSTYLE0
 73
     1
 44
1.0
  0
MTEXT
  5
306
330
2F9
100
AcDbEntity
  8
DIMS
100
AcDbMText
 10
9.098454495
 20
55.9770077755
 30
0.0
 40
0.5
 41
0.0
 71
     1
 72
     1
  1
"
  7
SLDTEXTSTYLE0
 73
     1
 44
1.0
  0
ENDBLK
  5
2FB
330
2F9
100
AcDbEntity
  8
0
100
AcDbBlockEnd
  0
BLOCK
  5
309
330
308
100
AcDbEntity
  8
0
100
AcDbBlockBegin
  2
_D_2
 70
     0
 10
0.0
 20
0.0
 30
0.0
  3
_D_2
  1

  0
INSERT
  5
30B
330
308
100
AcDbEntity
  8
DIMS
100
AcDbBlockReference
  2
_Open90
 10
13.6040509925
 20
73.9999646523
 30
-0.110630303
 41
0.3
 42
0.3
 50
90.0
  0
INSERT
  5
30C
330
308
100
AcDbEntity
  8
DIMS
100
AcDbBlockReference
  2
_Open90
 10
13.6040509925
 20
57.0761744521
 30
-0.110630303
 41
0.3
 42
0.3
 50
270.0
  0
LINE
  5
30D
330
308
100
AcDbEntity
  8
DIMS
100
AcDbLine
 10
13.4092593577
 20
65.0248285578
 30
0.0
 11
14.3189815919
 21
65.0248285578
 31
0.0
  0
LINE
  5
30E
330
308
100
AcDbEntity
  8
DIMS
100
AcDbLine
 10
11.4416270185
 20
73.9999646523
 30
0.0
 11
13.9790509925
 21
73.9999646523
 31
0.0
  0
LINE
  5
30F
330
308
100
AcDbEntity
  8
DIMS
100
AcDbLine
 10
11.302148604
 20
57.0761744521
 30
0.0
 11
13.9790509925
 21
57.0761744521
 31
0.0
  0
LINE
  5
310
330
308
100
AcDbEntity
  8
DIMS
100
AcDbLine
 10
13.6040509925
 20
73.9999646523
 30
0.0
 11
13.6040509925
 21
65.6269118917
 31
0.0
  0
LINE
  5
311
330
308
100
AcDbEntity
  8
DIMS
100
AcDbLine
 10
13.6040509925
 20
57.0761744521
 30
0.0
 11
13.6040509925
 21
64.3206618749
 31
0.0
  0
MTEXT
  5
312
330
308
100
AcDbEntity
  8
DIMS
100
AcDbMText
 10
12.5724537962
 20
65.2592929857
 30
0.0
 40
0.5
 41
0.0
 71
     1
 72
     1
  1
16
  7
SLDTEXTSTYLE0
 73
     1
 44
1.0
  0
MTEXT
  5
313
330
308
100
AcDbEntity
  8
DIMS
100
AcDbMText
 10
13.4821760304
 20
65.6256124315
 30
0.0
 40
0.5
 41
0.0
 71
     1
 72
     1
  1
15
  7
SLDTEXTSTYLE0
 73
     1
 44
1.0
  0
MTEXT
  5
314
330
308
100
AcDbEntity
  8
DIMS
100
AcDbMText
 10
13.4821760304
 20
64.9651957574
 30
0.0
 40
0.5
 41
0.0
 71
     1
 72
     1
  1
16
  7
SLDTEXTSTYLE0
 73
     1
 44
1.0
  0
MTEXT
  5
315
330
308
100
AcDbEntity
  8
DIMS
100
AcDbMText
 10
14.3918981912
 20
65.2592929857
 30
0.0
 40
0.5
 41
0.0
 71
     1
 72
     1
  1
"
  7
SLDTEXTSTYLE0
 73
     1
 44
1.0
  0
ENDBLK
  5
30A
330
308
100
AcDbEntity
  8
0
100
AcDbBlockEnd
  0
BLOCK
  5
370
330
36F
100
AcDbEntity
  8
0
100
AcDbBlockBegin
  2
_D_3
 70
     0
 10
0.0
 20
0.0
 30
0.0
  3
_D_3
  1

  0
INSERT
  5
372
330
36F
100
AcDbEntity
  8
DIMS
100
AcDbBlockReference
  2
_Open90
 10
18.5140173061
 20
55.7402879896
 30
1.6990999887
 41
0.3
 42
0.3
 50
180.0
  0
INSERT
  5
373
330
36F
100
AcDbEntity
  8
DIMS
100
AcDbBlockReference
  2
_Open90
 10
16.905219674
 20
55.7402879896
 30
1.6990999887
 41
0.3
 42
0.3
 50
0.0
  0
LINE
  5
374
330
36F
100
AcDbEntity
  8
DIMS
100
AcDbLine
 10
17.443702031
 20
55.7913296642
 30
0.0
 11
17.971479784
 21
55.7913296642
 31
0.0
  0
LINE
  5
375
330
36F
100
AcDbEntity
  8
DIMS
100
AcDbLine
 10
18.5140173061
 20
57.3054330125
 30
0.0
 11
18.5140173061
 21
55.3652879896
 31
0.0
  0
LINE
  5
376
330
36F
100
AcDbEntity
  8
DIMS
100
AcDbLine
 10
16.905219674
 20
57.4611787477
 30
0.0
 11
16.905219674
 21
55.3652879896
 31
0.0
  0
LINE
  5
377
330
36F
100
AcDbEntity
  8
DIMS
100
AcDbLine
 10
18.5140173061
 20
55.7402879896
 30
0.0
 11
18.9140173061
 21
55.7402879896
 31
0.0
  0
LINE
  5
378
330
36F
100
AcDbEntity
  8
DIMS
100
AcDbLine
 10
16.905219674
 20
55.7402879896
 30
0.0
 11
16.505219674
 21
55.7402879896
 31
0.0
  0
MTEXT
  5
379
330
36F
100
AcDbEntity
  8
DIMS
100
AcDbMText
 10
16.9888409139
 20
56.0257940921
 30
0.0
 40
0.5
 41
0.0
 71
     1
 72
     1
  1
1
  7
SLDTEXTSTYLE0
 73
     1
 44
1.0
  0
MTEXT
  5
37A
330
36F
100
AcDbEntity
  8
DIMS
100
AcDbMText
 10
17.5166186853
 20
56.3921135378
 30
0.0
 40
0.5
 41
0.0
 71
     1
 72
     1
  1
5
  7
SLDTEXTSTYLE0
 73
     1
 44
1.0
  0
MTEXT
  5
37B
330
36F
100
AcDbEntity
  8
DIMS
100
AcDbMText
 10
17.5166186853
 20
55.7316968638
 30
0.0
 40
0.5
 41
0.0
 71
     1
 72
     1
  1
8
  7
SLDTEXTSTYLE0
 73
     1
 44
1.0
  0
MTEXT
  5
37C
330
36F
100
AcDbEntity
  8
DIMS
100
AcDbMText
 10
18.0443964934
 20
56.0257940921
 30
0.0
 40
0.5
 41
0.0
 71
     1
 72
     1
  1
"
  7
SLDTEXTSTYLE0
 73
     1
 44
1.0
  0
ENDBLK
  5
371
330
36F
100
AcDbEntity
  8
0
100
AcDbBlockEnd
  0
BLOCK
  5
43F
330
43E
100
AcDbEntity
  8
0
100
AcDbBlockBegin
  2
_D_4
 70
     0
 10
0.0
 20
0.0
 30
0.0
  3
_D_4
  1

  0
INSERT
  5
441
330
43E
100
AcDbEntity
  8
DIMS
100
AcDbBlockReference
  2
_Open90
 10
44.8117874375
 20
63.5761744521
 30
0.0
 41
0.3
 42
0.3
 50
90.0
  0
INSERT
  5
442
330
43E
100
AcDbEntity
  8
DIMS
100
AcDbBlockReference
  2
_Open90
 10
44.8117874375
 20
9.6278454144
 30
0.0
 41
0.3
 42
0.3
 50
270.0
  0
LINE
  5
443
330
43E
100
AcDbEntity
  8
DIMS
100
AcDbLine
 10
44.6169958028
 20
12.5523245679
 30
0.0
 11
45.5267180369
 21
12.5523245679
 31
0.0
  0
LINE
  5
444
330
43E
100
AcDbEntity
  8
DIMS
100
AcDbLine
 10
49.0170757103
 20
63.5761744521
 30
0.0
 11
44.4367874375
 21
63.5761744521
 31
0.0
  0
LINE
  5
445
330
43E
100
AcDbEntity
  8
DIMS
100
AcDbLine
 10
47.0218623629
 20
9.6278454144
 30
0.0
 11
44.4367874375
 21
9.6278454144
 31
0.0
  0
LINE
  5
446
330
43E
100
AcDbEntity
  8
DIMS
100
AcDbLine
 10
44.8117874375
 20
63.5761744521
 30
0.0
 11
44.8117874375
 21
13.1544079017
 31
0.0
  0
LINE
  5
447
330
43E
100
AcDbEntity
  8
DIMS
100
AcDbLine
 10
44.8117874375
 20
9.6278454144
 30
0.0
 11
44.8117874375
 21
11.8481578849
 31
0.0
  0
MTEXT
  5
448
330
43E
100
AcDbEntity
  8
DIMS
100
AcDbMText
 10
43.7801902413
 20
12.7867889957
 30
0.0
 40
0.5
 41
0.0
 71
     1
 72
     1
  1
53
  7
SLDTEXTSTYLE0
 73
     1
 44
1.0
  0
MTEXT
  5
449
330
43E
100
AcDbEntity
  8
DIMS
100
AcDbMText
 10
44.6899124755
 20
13.1531084415
 30
0.0
 40
0.5
 41
0.0
 71
     1
 72
     1
  1
15
  7
SLDTEXTSTYLE0
 73
     1
 44
1.0
  0
MTEXT
  5
44A
330
43E
100
AcDbEntity
  8
DIMS
100
AcDbMText
 10
44.6899124755
 20
12.4926917674
 30
0.0
 40
0.5
 41
0.0
 71
     1
 72
     1
  1
16
  7
SLDTEXTSTYLE0
 73
     1
 44
1.0
  0
MTEXT
  5
44B
330
43E
100
AcDbEntity
  8
DIMS
100
AcDbMText
 10
45.5996346363
 20
12.7867889957
 30
0.0
 40
0.5
 41
0.0
 71
     1
 72
     1
  1
"
  7
SLDTEXTSTYLE0
 73
     1
 44
1.0
  0
ENDBLK
  5
440
330
43E
100
AcDbEntity
  8
0
100
AcDbBlockEnd
  0
BLOCK
  5
44E
330
44D
100
AcDbEntity
  8
0
100
AcDbBlockBegin
  2
_D_5
 70
     0
 10
0.0
 20
0.0
 30
0.0
  3
_D_5
  1

  0
INSERT
  5
450
330
44D
100
AcDbEntity
  8
DIMS
100
AcDbBlockReference
  2
_Open90
 10
55.2937450288
 20
57.0761744521
 30
0.110630303
 41
0.3
 42
0.3
 50
270.0
  0
INSERT
  5
451
330
44D
100
AcDbEntity
  8
DIMS
100
AcDbBlockReference
  2
_Open90
 10
55.2937450288
 20
73.9999646523
 30
0.110630303
 41
0.3
 42
0.3
 50
90.0
  0
LINE
  5
452
330
44D
100
AcDbEntity
  8
DIMS
100
AcDbLine
 10
55.098953394
 20
65.6761754915
 30
0.0
 11
56.0086756282
 21
65.6761754915
 31
0.0
  0
LINE
  5
453
330
44D
100
AcDbEntity
  8
DIMS
100
AcDbLine
 10
50.1960251784
 20
57.0761744521
 30
0.0
 11
55.6687450288
 21
57.0761744521
 31
0.0
  0
LINE
  5
454
330
44D
100
AcDbEntity
  8
DIMS
100
AcDbLine
 10
53.3779090436
 20
73.9999646523
 30
0.0
 11
55.6687450288
 21
73.9999646523
 31
0.0
  0
LINE
  5
455
330
44D
100
AcDbEntity
  8
DIMS
100
AcDbLine
 10
55.2937450288
 20
57.0761744521
 30
0.0
 11
55.2937450288
 21
64.9720088086
 31
0.0
  0
LINE
  5
456
330
44D
100
AcDbEntity
  8
DIMS
100
AcDbLine
 10
55.2937450288
 20
73.9999646523
 30
0.0
 11
55.2937450288
 21
66.2782588254
 31
0.0
  0
MTEXT
  5
457
330
44D
100
AcDbEntity
  8
DIMS
100
AcDbMText
 10
54.2621478326
 20
65.9106399194
 30
0.0
 40
0.5
 41
0.0
 71
     1
 72
     1
  1
16
  7
SLDTEXTSTYLE0
 73
     1
 44
1.0
  0
MTEXT
  5
458
330
44D
100
AcDbEntity
  8
DIMS
100
AcDbMText
 10
55.1718700667
 20
66.2769593651
 30
0.0
 40
0.5
 41
0.0
 71
     1
 72
     1
  1
15
  7
SLDTEXTSTYLE0
 73
     1
 44
1.0
  0
MTEXT
  5
459
330
44D
100
AcDbEntity
  8
DIMS
100
AcDbMText
 10
55.1718700667
 20
65.6165426911
 30
0.0
 40
0.5
 41
0.0
 71
     1
 72
     1
  1
16
  7
SLDTEXTSTYLE0
 73
     1
 44
1.0
  0
MTEXT
  5
45A
330
44D
100
AcDbEntity
  8
DIMS
100
AcDbMText
 10
56.0815922275
 20
65.9106399194
 30
0.0
 40
0.5
 41
0.0
 71
     1
 72
     1
  1
"
  7
SLDTEXTSTYLE0
 73
     1
 44
1.0
  0
ENDBLK
  5
44F
330
44D
100
AcDbEntity
  8
0
100
AcDbBlockEnd
  0
BLOCK
  5
45D
330
45C
100
AcDbEntity
  8
0
100
AcDbBlockBegin
  2
_D_6
 70
     0
 10
0.0
 20
0.0
 30
0.0
  3
_D_6
  1

  0
INSERT
  5
45F
330
45C
100
AcDbEntity
  8
DIMS
100
AcDbBlockReference
  2
_Open90
 10
46.0521530323
 20
72.6853646523
 30
0.110630303
 41
0.3
 42
0.3
 50
90.0
  0
INSERT
  5
460
330
45C
100
AcDbEntity
  8
DIMS
100
AcDbBlockReference
  2
_Open90
 10
46.0521530323
 20
63.5761744521
 30
0.110630303
 41
0.3
 42
0.3
 50
270.0
  0
LINE
  5
461
330
45C
100
AcDbEntity
  8
DIMS
100
AcDbLine
 10
45.8573613609
 20
68.4138412887
 30
0.0
 11
46.385139114
 21
68.4138412887
 31
0.0
  0
LINE
  5
462
330
45C
100
AcDbEntity
  8
DIMS
100
AcDbLine
 10
49.0170757103
 20
72.6853646523
 30
0.0
 11
45.6771530323
 21
72.6853646523
 31
0.0
  0
LINE
  5
463
330
45C
100
AcDbEntity
  8
DIMS
100
AcDbLine
 10
49.0170757103
 20
63.5761744521
 30
0.0
 11
45.6771530323
 21
63.5761744521
 31
0.0
  0
LINE
  5
464
330
45C
100
AcDbEntity
  8
DIMS
100
AcDbLine
 10
46.0521530323
 20
72.6853646523
 30
0.0
 11
46.0521530323
 21
69.0159246226
 31
0.0
  0
LINE
  5
465
330
45C
100
AcDbEntity
  8
DIMS
100
AcDbLine
 10
46.0521530323
 20
63.5761744521
 30
0.0
 11
46.0521530323
 21
67.7096746058
 31
0.0
  0
MTEXT
  5
466
330
45C
100
AcDbEntity
  8
DIMS
100
AcDbMText
 10
45.4025002438
 20
68.6483057166
 30
0.0
 40
0.5
 41
0.0
 71
     1
 72
     1
  1
9
  7
SLDTEXTSTYLE0
 73
     1
 44
1.0
  0
MTEXT
  5
467
330
45C
100
AcDbEntity
  8
DIMS
100
AcDbMText
 10
45.9302780152
 20
69.0146251623
 30
0.0
 40
0.5
 41
0.0
 71
     1
 72
     1
  1
1
  7
SLDTEXTSTYLE0
 73
     1
 44
1.0
  0
MTEXT
  5
468
330
45C
100
AcDbEntity
  8
DIMS
100
AcDbMText
 10
45.9302780152
 20
68.3542084883
 30
0.0
 40
0.5
 41
0.0
 71
     1
 72
     1
  1
8
  7
SLDTEXTSTYLE0
 73
     1
 44
1.0
  0
MTEXT
  5
469
330
45C
100
AcDbEntity
  8
DIMS
100
AcDbMText
 10
46.4580558233
 20
68.6483057166
 30
0.0
 40
0.5
 41
0.0
 71
     1
 72
     1
  1
"
  7
SLDTEXTSTYLE0
 73
     1
 44
1.0
  0
ENDBLK
  5
45E
330
45C
100
AcDbEntity
  8
0
100
AcDbBlockEnd
  0
BLOCK
  5
46C
330
46B
100
AcDbEntity
  8
0
100
AcDbBlockBegin
  2
_D_7
 70
     0
 10
0.0
 20
0.0
 30
0.0
  3
_D_7
  1

  0
INSERT
  5
46E
330
46B
100
AcDbEntity
  8
DIMS
100
AcDbBlockReference
  2
_Open90
 10
46.0521530323
 20
63.5761744521
 30
0.110630303
 41
0.3
 42
0.3
 50
90.0
  0
INSERT
  5
46F
330
46B
100
AcDbEntity
  8
DIMS
100
AcDbBlockReference
  2
_Open90
 10
46.0521530323
 20
57.0761744521
 30
0.110630303
 41
0.3
 42
0.3
 50
270.0
  0
LINE
  5
470
330
46B
100
AcDbEntity
  8
DIMS
100
AcDbLine
 10
45.8573613609
 20
60.6039092932
 30
0.0
 11
46.385139114
 21
60.6039092932
 31
0.0
  0
LINE
  5
471
330
46B
100
AcDbEntity
  8
DIMS
100
AcDbLine
 10
49.0170757103
 20
63.5761744521
 30
0.0
 11
45.6771530323
 21
63.5761744521
 31
0.0
  0
LINE
  5
472
330
46B
100
AcDbEntity
  8
DIMS
100
AcDbLine
 10
47.8320757103
 20
57.0761744521
 30
0.0
 11
45.6771530323
 21
57.0761744521
 31
0.0
  0
LINE
  5
473
330
46B
100
AcDbEntity
  8
DIMS
100
AcDbLine
 10
46.0521530323
 20
63.5761744521
 30
0.0
 11
46.0521530323
 21
61.205992627
 31
0.0
  0
LINE
  5
474
330
46B
100
AcDbEntity
  8
DIMS
100
AcDbLine
 10
46.0521530323
 20
57.0761744521
 30
0.0
 11
46.0521530323
 21
59.8997426103
 31
0.0
  0
MTEXT
  5
475
330
46B
100
AcDbEntity
  8
DIMS
100
AcDbMText
 10
45.4025002438
 20
60.838373721
 30
0.0
 40
0.5
 41
0.0
 71
     1
 72
     1
  1
6
  7
SLDTEXTSTYLE0
 73
     1
 44
1.0
  0
MTEXT
  5
476
330
46B
100
AcDbEntity
  8
DIMS
100
AcDbMText
 10
45.9302780152
 20
61.2046931668
 30
0.0
 40
0.5
 41
0.0
 71
     1
 72
     1
  1
1
  7
SLDTEXTSTYLE0
 73
     1
 44
1.0
  0
MTEXT
  5
477
330
46B
100
AcDbEntity
  8
DIMS
100
AcDbMText
 10
45.9302780152
 20
60.5442764928
 30
0.0
 40
0.5
 41
0.0
 71
     1
 72
     1
  1
2
  7
SLDTEXTSTYLE0
 73
     1
 44
1.0
  0
MTEXT
  5
478
330
46B
100
AcDbEntity
  8
DIMS
100
AcDbMText
 10
46.4580558233
 20
60.838373721
 30
0.0
 40
0.5
 41
0.0
 71
     1
 72
     1
  1
"
  7
SLDTEXTSTYLE0
 73
     1
 44
1.0
  0
ENDBLK
  5
46D
330
46B
100
AcDbEntity
  8
0
100
AcDbBlockEnd
  0
BLOCK
  5
47B
330
47A
100
AcDbEntity
  8
0
100
AcDbBlockBegin
  2
_D_8
 70
     0
 10
0.0
 20
0.0
 30
0.0
  3
_D_8
  1

  0
INSERT
  5
47D
330
47A
100
AcDbEntity
  8
DIMS
100
AcDbBlockReference
  2
_Open90
 10
46.0321530323
 20
73.9999646523
 30
0.110630303
 41
0.3
 42
0.3
 50
90.0
  0
INSERT
  5
47E
330
47A
100
AcDbEntity
  8
DIMS
100
AcDbBlockReference
  2
_Open90
 10
46.0321530323
 20
72.6853646523
 30
0.110630303
 41
0.3
 42
0.3
 50
270.0
  0
LINE
  5
47F
330
47A
100
AcDbEntity
  8
DIMS
100
AcDbLine
 10
44.7310284069
 20
74.7381806286
 30
0.0
 11
45.6407506411
 21
74.7381806286
 31
0.0
  0
LINE
  5
480
330
47A
100
AcDbEntity
  8
DIMS
100
AcDbLine
 10
47.7495757103
 20
73.9999646523
 30
0.0
 11
45.6571530323
 21
73.9999646523
 31
0.0
  0
LINE
  5
481
330
47A
100
AcDbEntity
  8
DIMS
100
AcDbLine
 10
49.0170757103
 20
72.6853646523
 30
0.0
 11
45.6571530323
 21
72.6853646523
 31
0.0
  0
LINE
  5
482
330
47A
100
AcDbEntity
  8
DIMS
100
AcDbLine
 10
45.9574173479
 20
74.6871389541
 30
0.0
 11
46.0321530323
 21
74.6871389541
 31
0.0
  0
LINE
  5
483
330
47A
100
AcDbEntity
  8
DIMS
100
AcDbLine
 10
46.0321530323
 20
74.6871389541
 30
0.0
 11
46.0321530323
 21
73.9999646523
 31
0.0
  0
LINE
  5
484
330
47A
100
AcDbEntity
  8
DIMS
100
AcDbLine
 10
46.0321530323
 20
73.9999646523
 30
0.0
 11
46.0321530323
 21
72.6853646523
 31
0.0
  0
MTEXT
  5
485
330
47A
100
AcDbEntity
  8
DIMS
100
AcDbMText
 10
44.2761672899
 20
74.9726450565
 30
0.0
 40
0.5
 41
0.0
 71
     1
 72
     1
  1
1
  7
SLDTEXTSTYLE0
 73
     1
 44
1.0
  0
MTEXT
  5
486
330
47A
100
AcDbEntity
  8
DIMS
100
AcDbMText
 10
44.9949173018
 20
75.3389645022
 30
0.0
 40
0.5
 41
0.0
 71
     1
 72
     1
  1
5
  7
SLDTEXTSTYLE0
 73
     1
 44
1.0
  0
MTEXT
  5
487
330
47A
100
AcDbEntity
  8
DIMS
100
AcDbMText
 10
44.8039450796
 20
74.6785478282
 30
0.0
 40
0.5
 41
0.0
 71
     1
 72
     1
  1
16
  7
SLDTEXTSTYLE0
 73
     1
 44
1.0
  0
MTEXT
  5
488
330
47A
100
AcDbEntity
  8
DIMS
100
AcDbMText
 10
45.7136673504
 20
74.9726450565
 30
0.0
 40
0.5
 41
0.0
 71
     1
 72
     1
  1
"
  7
SLDTEXTSTYLE0
 73
     1
 44
1.0
  0
ENDBLK
  5
47C
330
47A
100
AcDbEntity
  8
0
100
AcDbBlockEnd
  0
BLOCK
  5
48B
330
48A
100
AcDbEntity
  8
0
100
AcDbBlockBegin
  2
_D_9
 70
     0
 10
0.0
 20
0.0
 30
0.0
  3
_D_9
  1

  0
INSERT
  5
48D
330
48A
100
AcDbEntity
  8
DIMS
100
AcDbBlockReference
  2
_Open90
 10
49.183742377
 20
55.6587628366
 30
0.110630303
 41
0.3
 42
0.3
 50
180.0
  0
INSERT
  5
48E
330
48A
100
AcDbEntity
  8
DIMS
100
AcDbBlockReference
  2
_Open90
 10
51.943742377
 20
55.6587628366
 30
0.110630303
 41
0.3
 42
0.3
 50
0.0
  0
LINE
  5
48F
330
48A
100
AcDbEntity
  8
DIMS
100
AcDbLine
 10
50.4078951245
 20
55.7098045111
 30
0.0
 11
50.9356728775
 21
55.7098045111
 31
0.0
  0
LINE
  5
490
330
48A
100
AcDbEntity
  8
DIMS
100
AcDbLine
 10
49.183742377
 20
63.4095077854
 30
0.0
 11
49.183742377
 21
55.2837628366
 31
0.0
  0
LINE
  5
491
330
48A
100
AcDbEntity
  8
DIMS
100
AcDbLine
 10
51.943742377
 20
63.4095077854
 30
0.0
 11
51.943742377
 21
55.2837628366
 31
0.0
  0
LINE
  5
492
330
48A
100
AcDbEntity
  8
DIMS
100
AcDbLine
 10
49.183742377
 20
55.6587628366
 30
0.0
 11
49.9530340074
 21
55.6587628366
 31
0.0
  0
LINE
  5
493
330
48A
100
AcDbEntity
  8
DIMS
100
AcDbLine
 10
51.943742377
 20
55.6587628366
 30
0.0
 11
51.2523395844
 21
55.6587628366
 31
0.0
  0
MTEXT
  5
494
330
48A
100
AcDbEntity
  8
DIMS
100
AcDbMText
 10
49.9530340074
 20
55.944268939
 30
0.0
 40
0.5
 41
0.0
 71
     1
 72
     1
  1
2
  7
SLDTEXTSTYLE0
 73
     1
 44
1.0
  0
MTEXT
  5
495
330
48A
100
AcDbEntity
  8
DIMS
100
AcDbMText
 10
50.4808117788
 20
56.3105883847
 30
0.0
 40
0.5
 41
0.0
 71
     1
 72
     1
  1
3
  7
SLDTEXTSTYLE0
 73
     1
 44
1.0
  0
MTEXT
  5
496
330
48A
100
AcDbEntity
  8
DIMS
100
AcDbMText
 10
50.4808117788
 20
55.6501717107
 30
0.0
 40
0.5
 41
0.0
 71
     1
 72
     1
  1
4
  7
SLDTEXTSTYLE0
 73
     1
 44
1.0
  0
MTEXT
  5
497
330
48A
100
AcDbEntity
  8
DIMS
100
AcDbMText
 10
51.0085895869
 20
55.944268939
 30
0.0
 40
0.5
 41
0.0
 71
     1
 72
     1
  1
"
  7
SLDTEXTSTYLE0
 73
     1
 44
1.0
  0
ENDBLK
  5
48C
330
48A
100
AcDbEntity
  8
0
100
AcDbBlockEnd
  0
BLOCK
  5
49B
330
49A
100
AcDbEntity
  8
0
100
AcDbBlockBegin
  2
_D_10
 70
     0
 10
0.0
 20
0.0
 30
0.0
  3
_D_10
  1

  0
INSERT
  5
49D
330
49A
100
AcDbEntity
  8
DIMS
100
AcDbBlockReference
  2
_Open90
 10
49.233742377
 20
72.7719671927
 30
0.110630303
 41
0.3
 42
0.3
 50
240.0
  0
LINE
  5
49E
330
49A
100
AcDbEntity
  8
DIMS
100
AcDbLine
 10
58.160762068
 20
75.530731175
 30
0.0
 11
59.0704843021
 21
75.530731175
 31
0.0
  0
LINE
  5
49F
330
49A
100
AcDbEntity
  8
DIMS
100
AcDbLine
 10
49.233742377
 20
72.7719671927
 30
0.0
 11
50.7970465803
 21
75.4796895005
 31
0.0
  0
LINE
  5
4A0
330
49A
100
AcDbEntity
  8
DIMS
100
AcDbLine
 10
50.7970465803
 20
75.4796895005
 30
0.0
 11
51.0970465803
 21
75.4796895005
 31
0.0
  0
MTEXT
  5
4A1
330
49A
100
AcDbEntity
  8
DIMS
100
AcDbMText
 10
51.4720465803
 20
75.7651956029
 30
0.0
 40
0.5
 41
0.0
 71
     1
 72
     1
  1
mounting holes (6)
  7
SLDTEXTSTYLE0
 73
     1
 44
1.0
  0
MTEXT
  5
4A2
330
49A
100
AcDbEntity
  8
DIMS
100
AcDbMText
 10
57.3588518434
 20
75.7638067131
 30
0.0
 40
0.5
 41
0.0
 71
     1
 72
     1
  1
%%c
  7
SLDTEXTSTYLE0
 73
     1
 44
1.0
  0
MTEXT
  5
4A3
330
49A
100
AcDbEntity
  8
DIMS
100
AcDbMText
 10
58.4246509628
 20
76.1315150487
 30
0.0
 40
0.5
 41
0.0
 71
     1
 72
     1
  1
3
  7
SLDTEXTSTYLE0
 73
     1
 44
1.0
  0
MTEXT
  5
4A4
330
49A
100
AcDbEntity
  8
DIMS
100
AcDbMText
 10
58.2336787406
 20
75.4710983746
 30
0.0
 40
0.5
 41
0.0
 71
     1
 72
     1
  1
16
  7
SLDTEXTSTYLE0
 73
     1
 44
1.0
  0
MTEXT
  5
4A5
330
49A
100
AcDbEntity
  8
DIMS
100
AcDbMText
 10
59.1434008281
 20
75.7651956029
 30
0.0
 40
0.5
 41
0.0
 71
     1
 72
     1
  1
"
  7
SLDTEXTSTYLE0
 73
     1
 44
1.0
  0
ENDBLK
  5
49C
330
49A
100
AcDbEntity
  8
0
100
AcDbBlockEnd
  0
BLOCK
  5
616
330
615
100
AcDbEntity
  8
0
100
AcDbBlockBegin
  2
_D_11
 70
     0
 10
0.0
 20
0.0
 30
0.0
  3
_D_11
  1

  0
INSERT
  5
618
330
615
100
AcDbEntity
  8
DIMS
100
AcDbBlockReference
  2
_Open90
 10
22.8771742856
 20
74.6568605046
 30
1.6990999887
 41
0.3
 42
0.3
 50
180.0
  0
INSERT
  5
619
330
615
100
AcDbEntity
  8
DIMS
100
AcDbBlockReference
  2
_Open90
 10
37.1970896996
 20
74.6568605046
 30
1.6990999887
 41
0.3
 42
0.3
 50
0.0
  0
LINE
  5
61A
330
615
100
AcDbEntity
  8
DIMS
100
AcDbLine
 10
29.2283766875
 20
74.7079021792
 30
0.0
 11
30.1380989216
 21
74.7079021792
 31
0.0
  0
LINE
  5
61B
330
615
100
AcDbEntity
  8
DIMS
100
AcDbLine
 10
22.8771742856
 20
65.8422817625
 30
0.0
 11
22.8771742856
 21
75.0318605046
 31
0.0
  0
LINE
  5
61C
330
615
100
AcDbEntity
  8
DIMS
100
AcDbLine
 10
37.1970896996
 20
73.842031319
 30
0.0
 11
37.1970896996
 21
75.0318605046
 31
0.0
  0
LINE
  5
61D
330
615
100
AcDbEntity
  8
DIMS
100
AcDbLine
 10
22.8771742856
 20
74.6568605046
 30
0.0
 11
28.391571126
 21
74.6568605046
 31
0.0
  0
LINE
  5
61E
330
615
100
AcDbEntity
  8
DIMS
100
AcDbLine
 10
37.1970896996
 20
74.6568605046
 30
0.0
 11
30.4547655185
 21
74.6568605046
 31
0.0
  0
MTEXT
  5
61F
330
615
100
AcDbEntity
  8
DIMS
100
AcDbMText
 10
28.391571126
 20
74.942366607
 30
0.0
 40
0.5
 41
0.0
 71
     1
 72
     1
  1
14
  7
SLDTEXTSTYLE0
 73
     1
 44
1.0
  0
MTEXT
  5
620
330
615
100
AcDbEntity
  8
DIMS
100
AcDbMText
 10
29.4922655823
 20
75.3086860528
 30
0.0
 40
0.5
 41
0.0
 71
     1
 72
     1
  1
5
  7
SLDTEXTSTYLE0
 73
     1
 44
1.0
  0
MTEXT
  5
621
330
615
100
AcDbEntity
  8
DIMS
100
AcDbMText
 10
29.3012933601
 20
74.6482693787
 30
0.0
 40
0.5
 41
0.0
 71
     1
 72
     1
  1
16
  7
SLDTEXTSTYLE0
 73
     1
 44
1.0
  0
MTEXT
  5
622
330
615
100
AcDbEntity
  8
DIMS
100
AcDbMText
 10
30.211015521
 20
74.942366607
 30
0.0
 40
0.5
 41
0.0
 71
     1
 72
     1
  1
"
  7
SLDTEXTSTYLE0
 73
     1
 44
1.0
  0
ENDBLK
  5
617
330
615
100
AcDbEntity
  8
0
100
AcDbBlockEnd
  0
BLOCK
  5
624
330
623
100
AcDbEntity
  8
0
100
AcDbBlockBegin
  2
SW_NOTE_0_2
 70
     0
 10
0.0
 20
0.0
 30
0.0
  3
SW_NOTE_0_2
  1

  0
MTEXT
  5
626
330
623
100
AcDbEntity
  8
NOTES
 62
     0
100
AcDbMText
 10
0.0
 20
0.6445338699
 30
0.0
 40
0.5
 41
0.0
 71
     1
 72
     1
  1
Side view
  7
SLDTEXTSTYLE0
 73
     1
 44
1.0
  0
MTEXT
  5
627
330
623
100
AcDbEntity
  8
NOTES
 62
     0
100
AcDbMText
 10
0.0
 20
-0.0012994694
 30
0.0
 40
0.5
 41
0.0
 71
     1
 72
     1
  1
- open
  7
SLDTEXTSTYLE0
 73
     1
 44
1.0
  0
ENDBLK
  5
625
330
623
100
AcDbEntity
  8
0
100
AcDbBlockEnd
  0
ENDSEC
  0
SECTION
  2
ENTITIES
  0
LINE
  5
79
330
1F
100
AcDbEntity
  8
TITLE
100
AcDbLine
 10
52.518223024
 20
1.4876117645
 30
0.0
 11
69.4999864512
 21
1.4876117645
 31
0.0
  0
LINE
  5
7A
330
1F
100
AcDbEntity
  8
TITLE
100
AcDbLine
 10
69.4999317442
 20
5.4753603936
 30
0.0
 11
59.3105350723
 21
5.4753603936
 31
0.0
  0
LINE
  5
7B
330
1F
100
AcDbEntity
  8
TITLE
  6
Continuous
370
    18
100
AcDbLine
 10
0.5
 20
0.5
 30
0.0
 11
0.5
 21
95.5
 31
0.0
  0
LINE
  5
7C
330
1F
100
AcDbEntity
  8
TITLE
  6
Continuous
370
    18
100
AcDbLine
 10
0.5
 20
95.5
 30
0.0
 11
69.5
 21
95.5
 31
0.0
  0
LINE
  5
7D
330
1F
100
AcDbEntity
  8
TITLE
100
AcDbLine
 10
52.518223024
 20
2.5427877231
 30
0.0
 11
45.5059791203
 21
2.5427877231
 31
0.0
  0
LINE
  5
7E
330
1F
100
AcDbEntity
  8
TITLE
100
AcDbLine
 10
52.518223024
 20
1.4876117645
 30
0.0
 11
45.5059791203
 21
1.4876117645
 31
0.0
  0
LINE
  5
7F
330
1F
100
AcDbEntity
  8
TITLE
  6
Continuous
370
    18
100
AcDbLine
 10
69.5
 20
95.5
 30
0.0
 11
69.5
 21
0.5
 31
0.0
  0
LINE
  5
80
330
1F
100
AcDbEntity
  8
TITLE
  6
Continuous
370
    18
100
AcDbLine
 10
69.5
 20
0.5
 30
0.0
 11
0.5
 21
0.5
 31
0.0
  0
LINE
  5
81
330
1F
100
AcDbEntity
  8
TITLE
100
AcDbLine
 10
52.518223024
 20
1.4876117645
 30
0.0
 11
52.518223024
 21
3.5979636817
 31
0.0
  0
LINE
  5
82
330
1F
100
AcDbEntity
  8
TITLE
100
AcDbLine
 10
45.5059791203
 20
3.5979636817
 30
0.0
 11
45.5059791203
 21
0.5
 31
0.0
  0
LINE
  5
83
330
1F
100
AcDbEntity
  8
TITLE
100
AcDbLine
 10
45.5059791203
 20
0.5
 30
0.0
 11
69.5
 21
0.5
 31
0.0
  0
LINE
  5
84
330
1F
100
AcDbEntity
  8
TITLE
100
AcDbLine
 10
69.4999317442
 20
5.4753603936
 30
0.0
 11
69.5
 21
0.5
 31
0.0
  0
LINE
  5
85
330
1F
100
AcDbEntity
  8
TITLE
100
AcDbLine
 10
52.518223024
 20
3.5979636817
 30
0.0
 11
45.5059791203
 21
3.5979636817
 31
0.0
  0
LINE
  5
86
330
1F
100
AcDbEntity
  8
TITLE
100
AcDbLine
 10
52.518223024
 20
3.5979636817
 30
0.0
 11
69.4997615643
 21
3.5979648343
 31
0.0
  0
LINE
  5
87
330
1F
100
AcDbEntity
  8
TITLE
100
AcDbLine
 10
59.3105350723
 20
5.4753603936
 30
0.0
 11
59.3105350723
 21
0.4636772425
 31
0.0
  0
LINE
  5
88
330
1F
100
AcDbEntity
  8
TITLE
  6
Continuous
370
    18
100
AcDbLine
 10
0.4999606299
 20
48.0
 30
0.0
 11
0.5000393701
 21
48.0
 31
0.0
  0
LINE
  5
89
330
1F
100
AcDbEntity
  8
TITLE
  6
Continuous
370
    18
100
AcDbLine
 10
35.0
 20
95.5000393701
 30
0.0
 11
35.0
 21
95.4999606299
 31
0.0
  0
LINE
  5
8A
330
1F
100
AcDbEntity
  8
TITLE
  6
Continuous
370
    18
100
AcDbLine
 10
69.5000393701
 20
48.0
 30
0.0
 11
69.4999606299
 21
48.0
 31
0.0
  0
LINE
  5
8B
330
1F
100
AcDbEntity
  8
TITLE
  6
Continuous
370
    18
100
AcDbLine
 10
35.0
 20
0.4999606299
 30
0.0
 11
35.0
 21
0.5000393701
 31
0.0
  0
LINE
  5
8C
330
1F
100
AcDbEntity
  8
TITLE
  6
Continuous
370
    18
100
AcDbLine
 10
0.5
 20
2.7244094488
 30
0.0
 11
0.1653543307
 21
2.7244094488
 31
0.0
  0
LINE
  5
8D
330
1F
100
AcDbEntity
  8
TITLE
  6
Continuous
370
    18
100
AcDbLine
 10
69.5
 20
2.7244094488
 30
0.0
 11
69.8346456693
 21
2.7244094488
 31
0.0
  0
LINE
  5
8E
330
1F
100
AcDbEntity
  8
TITLE
  6
Continuous
370
    18
100
AcDbLine
 10
0.5
 20
4.6929133858
 30
0.0
 11
0.1653543307
 21
4.6929133858
 31
0.0
  0
LINE
  5
8F
330
1F
100
AcDbEntity
  8
TITLE
  6
Continuous
370
    18
100
AcDbLine
 10
69.5
 20
4.6929133858
 30
0.0
 11
69.8346456693
 21
4.6929133858
 31
0.0
  0
LINE
  5
90
330
1F
100
AcDbEntity
  8
TITLE
  6
Continuous
370
    18
100
AcDbLine
 10
0.5
 20
6.6614173228
 30
0.0
 11
0.1653543307
 21
6.6614173228
 31
0.0
  0
LINE
  5
91
330
1F
100
AcDbEntity
  8
TITLE
  6
Continuous
370
    18
100
AcDbLine
 10
69.5
 20
6.6614173228
 30
0.0
 11
69.8346456693
 21
6.6614173228
 31
0.0
  0
LINE
  5
92
330
1F
100
AcDbEntity
  8
TITLE
  6
Continuous
370
    18
100
AcDbLine
 10
0.5
 20
8.6299212598
 30
0.0
 11
0.1653543307
 21
8.6299212598
 31
0.0
  0
LINE
  5
93
330
1F
100
AcDbEntity
  8
TITLE
  6
Continuous
370
    18
100
AcDbLine
 10
69.5
 20
8.6299212598
 30
0.0
 11
69.8346456693
 21
8.6299212598
 31
0.0
  0
LINE
  5
94
330
1F
100
AcDbEntity
  8
TITLE
  6
Continuous
370
    18
100
AcDbLine
 10
0.5
 20
10.5984251969
 30
0.0
 11
0.1653543307
 21
10.5984251969
 31
0.0
  0
LINE
  5
95
330
1F
100
AcDbEntity
  8
TITLE
  6
Continuous
370
    18
100
AcDbLine
 10
69.5
 20
10.5984251969
 30
0.0
 11
69.8346456693
 21
10.5984251969
 31
0.0
  0
LINE
  5
96
330
1F
100
AcDbEntity
  8
TITLE
  6
Continuous
370
    18
100
AcDbLine
 10
0.5
 20
12.5669291339
 30
0.0
 11
0.1653543307
 21
12.5669291339
 31
0.0
  0
LINE
  5
97
330
1F
100
AcDbEntity
  8
TITLE
  6
Continuous
370
    18
100
AcDbLine
 10
69.5
 20
12.5669291339
 30
0.0
 11
69.8346456693
 21
12.5669291339
 31
0.0
  0
LINE
  5
98
330
1F
100
AcDbEntity
  8
TITLE
  6
Continuous
370
    18
100
AcDbLine
 10
0.5
 20
14.5354330709
 30
0.0
 11
0.1653543307
 21
14.5354330709
 31
0.0
  0
LINE
  5
99
330
1F
100
AcDbEntity
  8
TITLE
  6
Continuous
370
    18
100
AcDbLine
 10
69.5
 20
14.5354330709
 30
0.0
 11
69.8346456693
 21
14.5354330709
 31
0.0
  0
LINE
  5
9A
330
1F
100
AcDbEntity
  8
TITLE
  6
Continuous
370
    18
100
AcDbLine
 10
0.5
 20
16.5039370079
 30
0.0
 11
0.1653543307
 21
16.5039370079
 31
0.0
  0
LINE
  5
9B
330
1F
100
AcDbEntity
  8
TITLE
  6
Continuous
370
    18
100
AcDbLine
 10
69.5
 20
16.5039370079
 30
0.0
 11
69.8346456693
 21
16.5039370079
 31
0.0
  0
LINE
  5
9C
330
1F
100
AcDbEntity
  8
TITLE
  6
Continuous
370
    18
100
AcDbLine
 10
0.5
 20
18.4724409449
 30
0.0
 11
0.1653543307
 21
18.4724409449
 31
0.0
  0
LINE
  5
9D
330
1F
100
AcDbEntity
  8
TITLE
  6
Continuous
370
    18
100
AcDbLine
 10
69.5
 20
18.4724409449
 30
0.0
 11
69.8346456693
 21
18.4724409449
 31
0.0
  0
LINE
  5
9E
330
1F
100
AcDbEntity
  8
TITLE
  6
Continuous
370
    18
100
AcDbLine
 10
0.5
 20
20.4409448819
 30
0.0
 11
0.1653543307
 21
20.4409448819
 31
0.0
  0
LINE
  5
9F
330
1F
100
AcDbEntity
  8
TITLE
  6
Continuous
370
    18
100
AcDbLine
 10
69.5
 20
20.4409448819
 30
0.0
 11
69.8346456693
 21
20.4409448819
 31
0.0
  0
LINE
  5
A0
330
1F
100
AcDbEntity
  8
TITLE
  6
Continuous
370
    18
100
AcDbLine
 10
0.5
 20
22.4094488189
 30
0.0
 11
0.1653543307
 21
22.4094488189
 31
0.0
  0
LINE
  5
A1
330
1F
100
AcDbEntity
  8
TITLE
  6
Continuous
370
    18
100
AcDbLine
 10
69.5
 20
22.4094488189
 30
0.0
 11
69.8346456693
 21
22.4094488189
 31
0.0
  0
LINE
  5
A2
330
1F
100
AcDbEntity
  8
TITLE
  6
Continuous
370
    18
100
AcDbLine
 10
0.5
 20
24.3779527559
 30
0.0
 11
0.1653543307
 21
24.3779527559
 31
0.0
  0
LINE
  5
A3
330
1F
100
AcDbEntity
  8
TITLE
  6
Continuous
370
    18
100
AcDbLine
 10
69.5
 20
24.3779527559
 30
0.0
 11
69.8346456693
 21
24.3779527559
 31
0.0
  0
LINE
  5
A4
330
1F
100
AcDbEntity
  8
TITLE
  6
Continuous
370
    18
100
AcDbLine
 10
0.5
 20
26.3464566929
 30
0.0
 11
0.1653543307
 21
26.3464566929
 31
0.0
  0
LINE
  5
A5
330
1F
100
AcDbEntity
  8
TITLE
  6
Continuous
370
    18
100
AcDbLine
 10
69.5
 20
26.3464566929
 30
0.0
 11
69.8346456693
 21
26.3464566929
 31
0.0
  0
LINE
  5
A6
330
1F
100
AcDbEntity
  8
TITLE
  6
Continuous
370
    18
100
AcDbLine
 10
0.5
 20
28.3149606299
 30
0.0
 11
0.1653543307
 21
28.3149606299
 31
0.0
  0
LINE
  5
A7
330
1F
100
AcDbEntity
  8
TITLE
  6
Continuous
370
    18
100
AcDbLine
 10
69.5
 20
28.3149606299
 30
0.0
 11
69.8346456693
 21
28.3149606299
 31
0.0
  0
LINE
  5
A8
330
1F
100
AcDbEntity
  8
TITLE
  6
Continuous
370
    18
100
AcDbLine
 10
0.5
 20
30.2834645669
 30
0.0
 11
0.1653543307
 21
30.2834645669
 31
0.0
  0
LINE
  5
A9
330
1F
100
AcDbEntity
  8
TITLE
  6
Continuous
370
    18
100
AcDbLine
 10
69.5
 20
30.2834645669
 30
0.0
 11
69.8346456693
 21
30.2834645669
 31
0.0
  0
LINE
  5
AA
330
1F
100
AcDbEntity
  8
TITLE
  6
Continuous
370
    18
100
AcDbLine
 10
0.5
 20
32.2519685039
 30
0.0
 11
0.1653543307
 21
32.2519685039
 31
0.0
  0
LINE
  5
AB
330
1F
100
AcDbEntity
  8
TITLE
  6
Continuous
370
    18
100
AcDbLine
 10
69.5
 20
32.2519685039
 30
0.0
 11
69.8346456693
 21
32.2519685039
 31
0.0
  0
LINE
  5
AC
330
1F
100
AcDbEntity
  8
TITLE
  6
Continuous
370
    18
100
AcDbLine
 10
0.5
 20
34.2204724409
 30
0.0
 11
0.1653543307
 21
34.2204724409
 31
0.0
  0
LINE
  5
AD
330
1F
100
AcDbEntity
  8
TITLE
  6
Continuous
370
    18
100
AcDbLine
 10
69.5
 20
34.2204724409
 30
0.0
 11
69.8346456693
 21
34.2204724409
 31
0.0
  0
LINE
  5
AE
330
1F
100
AcDbEntity
  8
TITLE
  6
Continuous
370
    18
100
AcDbLine
 10
0.5
 20
36.188976378
 30
0.0
 11
0.1653543307
 21
36.188976378
 31
0.0
  0
LINE
  5
AF
330
1F
100
AcDbEntity
  8
TITLE
  6
Continuous
370
    18
100
AcDbLine
 10
69.5
 20
36.188976378
 30
0.0
 11
69.8346456693
 21
36.188976378
 31
0.0
  0
LINE
  5
B0
330
1F
100
AcDbEntity
  8
TITLE
  6
Continuous
370
    18
100
AcDbLine
 10
0.5
 20
38.157480315
 30
0.0
 11
0.1653543307
 21
38.157480315
 31
0.0
  0
LINE
  5
B1
330
1F
100
AcDbEntity
  8
TITLE
  6
Continuous
370
    18
100
AcDbLine
 10
69.5
 20
38.157480315
 30
0.0
 11
69.8346456693
 21
38.157480315
 31
0.0
  0
LINE
  5
B2
330
1F
100
AcDbEntity
  8
TITLE
  6
Continuous
370
    18
100
AcDbLine
 10
0.5
 20
40.125984252
 30
0.0
 11
0.1653543307
 21
40.125984252
 31
0.0
  0
LINE
  5
B3
330
1F
100
AcDbEntity
  8
TITLE
  6
Continuous
370
    18
100
AcDbLine
 10
69.5
 20
40.125984252
 30
0.0
 11
69.8346456693
 21
40.125984252
 31
0.0
  0
LINE
  5
B4
330
1F
100
AcDbEntity
  8
TITLE
  6
Continuous
370
    18
100
AcDbLine
 10
0.5
 20
42.094488189
 30
0.0
 11
0.1653543307
 21
42.094488189
 31
0.0
  0
LINE
  5
B5
330
1F
100
AcDbEntity
  8
TITLE
  6
Continuous
370
    18
100
AcDbLine
 10
69.5
 20
42.094488189
 30
0.0
 11
69.8346456693
 21
42.094488189
 31
0.0
  0
LINE
  5
B6
330
1F
100
AcDbEntity
  8
TITLE
  6
Continuous
370
    18
100
AcDbLine
 10
0.5
 20
44.062992126
 30
0.0
 11
0.1653543307
 21
44.062992126
 31
0.0
  0
LINE
  5
B7
330
1F
100
AcDbEntity
  8
TITLE
  6
Continuous
370
    18
100
AcDbLine
 10
69.5
 20
44.062992126
 30
0.0
 11
69.8346456693
 21
44.062992126
 31
0.0
  0
LINE
  5
B8
330
1F
100
AcDbEntity
  8
TITLE
  6
Continuous
370
    18
100
AcDbLine
 10
0.5
 20
46.031496063
 30
0.0
 11
0.1653543307
 21
46.031496063
 31
0.0
  0
LINE
  5
B9
330
1F
100
AcDbEntity
  8
TITLE
  6
Continuous
370
    18
100
AcDbLine
 10
69.5
 20
46.031496063
 30
0.0
 11
69.8346456693
 21
46.031496063
 31
0.0
  0
LINE
  5
BA
330
1F
100
AcDbEntity
  8
TITLE
  6
Continuous
370
    18
100
AcDbLine
 10
0.5
 20
48.0
 30
0.0
 11
0.1653543307
 21
48.0
 31
0.0
  0
LINE
  5
BB
330
1F
100
AcDbEntity
  8
TITLE
  6
Continuous
370
    18
100
AcDbLine
 10
69.5
 20
48.0
 30
0.0
 11
69.8346456693
 21
48.0
 31
0.0
  0
LINE
  5
BC
330
1F
100
AcDbEntity
  8
TITLE
  6
Continuous
370
    18
100
AcDbLine
 10
0.5
 20
49.968503937
 30
0.0
 11
0.1653543307
 21
49.968503937
 31
0.0
  0
LINE
  5
BD
330
1F
100
AcDbEntity
  8
TITLE
  6
Continuous
370
    18
100
AcDbLine
 10
69.5
 20
49.968503937
 30
0.0
 11
69.8346456693
 21
49.968503937
 31
0.0
  0
LINE
  5
BE
330
1F
100
AcDbEntity
  8
TITLE
  6
Continuous
370
    18
100
AcDbLine
 10
0.5
 20
51.937007874
 30
0.0
 11
0.1653543307
 21
51.937007874
 31
0.0
  0
LINE
  5
BF
330
1F
100
AcDbEntity
  8
TITLE
  6
Continuous
370
    18
100
AcDbLine
 10
69.5
 20
51.937007874
 30
0.0
 11
69.8346456693
 21
51.937007874
 31
0.0
  0
LINE
  5
C0
330
1F
100
AcDbEntity
  8
TITLE
  6
Continuous
370
    18
100
AcDbLine
 10
0.5
 20
53.905511811
 30
0.0
 11
0.1653543307
 21
53.905511811
 31
0.0
  0
LINE
  5
C1
330
1F
100
AcDbEntity
  8
TITLE
  6
Continuous
370
    18
100
AcDbLine
 10
69.5
 20
53.905511811
 30
0.0
 11
69.8346456693
 21
53.905511811
 31
0.0
  0
LINE
  5
C2
330
1F
100
AcDbEntity
  8
TITLE
  6
Continuous
370
    18
100
AcDbLine
 10
0.5
 20
55.874015748
 30
0.0
 11
0.1653543307
 21
55.874015748
 31
0.0
  0
LINE
  5
C3
330
1F
100
AcDbEntity
  8
TITLE
  6
Continuous
370
    18
100
AcDbLine
 10
69.5
 20
55.874015748
 30
0.0
 11
69.8346456693
 21
55.874015748
 31
0.0
  0
LINE
  5
C4
330
1F
100
AcDbEntity
  8
TITLE
  6
Continuous
370
    18
100
AcDbLine
 10
0.5
 20
57.842519685
 30
0.0
 11
0.1653543307
 21
57.842519685
 31
0.0
  0
LINE
  5
C5
330
1F
100
AcDbEntity
  8
TITLE
  6
Continuous
370
    18
100
AcDbLine
 10
69.5
 20
57.842519685
 30
0.0
 11
69.8346456693
 21
57.842519685
 31
0.0
  0
LINE
  5
C6
330
1F
100
AcDbEntity
  8
TITLE
  6
Continuous
370
    18
100
AcDbLine
 10
0.5
 20
59.811023622
 30
0.0
 11
0.1653543307
 21
59.811023622
 31
0.0
  0
LINE
  5
C7
330
1F
100
AcDbEntity
  8
TITLE
  6
Continuous
370
    18
100
AcDbLine
 10
69.5
 20
59.811023622
 30
0.0
 11
69.8346456693
 21
59.811023622
 31
0.0
  0
LINE
  5
C8
330
1F
100
AcDbEntity
  8
TITLE
  6
Continuous
370
    18
100
AcDbLine
 10
0.5
 20
61.7795275591
 30
0.0
 11
0.1653543307
 21
61.7795275591
 31
0.0
  0
LINE
  5
C9
330
1F
100
AcDbEntity
  8
TITLE
  6
Continuous
370
    18
100
AcDbLine
 10
69.5
 20
61.7795275591
 30
0.0
 11
69.8346456693
 21
61.7795275591
 31
0.0
  0
LINE
  5
CA
330
1F
100
AcDbEntity
  8
TITLE
  6
Continuous
370
    18
100
AcDbLine
 10
0.5
 20
63.7480314961
 30
0.0
 11
0.1653543307
 21
63.7480314961
 31
0.0
  0
LINE
  5
CB
330
1F
100
AcDbEntity
  8
TITLE
  6
Continuous
370
    18
100
AcDbLine
 10
69.5
 20
63.7480314961
 30
0.0
 11
69.8346456693
 21
63.7480314961
 31
0.0
  0
LINE
  5
CC
330
1F
100
AcDbEntity
  8
TITLE
  6
Continuous
370
    18
100
AcDbLine
 10
0.5
 20
65.7165354331
 30
0.0
 11
0.1653543307
 21
65.7165354331
 31
0.0
  0
LINE
  5
CD
330
1F
100
AcDbEntity
  8
TITLE
  6
Continuous
370
    18
100
AcDbLine
 10
69.5
 20
65.7165354331
 30
0.0
 11
69.8346456693
 21
65.7165354331
 31
0.0
  0
LINE
  5
CE
330
1F
100
AcDbEntity
  8
TITLE
  6
Continuous
370
    18
100
AcDbLine
 10
0.5
 20
67.6850393701
 30
0.0
 11
0.1653543307
 21
67.6850393701
 31
0.0
  0
LINE
  5
CF
330
1F
100
AcDbEntity
  8
TITLE
  6
Continuous
370
    18
100
AcDbLine
 10
69.5
 20
67.6850393701
 30
0.0
 11
69.8346456693
 21
67.6850393701
 31
0.0
  0
LINE
  5
D0
330
1F
100
AcDbEntity
  8
TITLE
  6
Continuous
370
    18
100
AcDbLine
 10
0.5
 20
69.6535433071
 30
0.0
 11
0.1653543307
 21
69.6535433071
 31
0.0
  0
LINE
  5
D1
330
1F
100
AcDbEntity
  8
TITLE
  6
Continuous
370
    18
100
AcDbLine
 10
69.5
 20
69.6535433071
 30
0.0
 11
69.8346456693
 21
69.6535433071
 31
0.0
  0
LINE
  5
D2
330
1F
100
AcDbEntity
  8
TITLE
  6
Continuous
370
    18
100
AcDbLine
 10
0.5
 20
71.6220472441
 30
0.0
 11
0.1653543307
 21
71.6220472441
 31
0.0
  0
LINE
  5
D3
330
1F
100
AcDbEntity
  8
TITLE
  6
Continuous
370
    18
100
AcDbLine
 10
69.5
 20
71.6220472441
 30
0.0
 11
69.8346456693
 21
71.6220472441
 31
0.0
  0
LINE
  5
D4
330
1F
100
AcDbEntity
  8
TITLE
  6
Continuous
370
    18
100
AcDbLine
 10
0.5
 20
73.5905511811
 30
0.0
 11
0.1653543307
 21
73.5905511811
 31
0.0
  0
LINE
  5
D5
330
1F
100
AcDbEntity
  8
TITLE
  6
Continuous
370
    18
100
AcDbLine
 10
69.5
 20
73.5905511811
 30
0.0
 11
69.8346456693
 21
73.5905511811
 31
0.0
  0
LINE
  5
D6
330
1F
100
AcDbEntity
  8
TITLE
  6
Continuous
370
    18
100
AcDbLine
 10
0.5
 20
75.5590551181
 30
0.0
 11
0.1653543307
 21
75.5590551181
 31
0.0
  0
LINE
  5
D7
330
1F
100
AcDbEntity
  8
TITLE
  6
Continuous
370
    18
100
AcDbLine
 10
69.5
 20
75.5590551181
 30
0.0
 11
69.8346456693
 21
75.5590551181
 31
0.0
  0
LINE
  5
D8
330
1F
100
AcDbEntity
  8
TITLE
  6
Continuous
370
    18
100
AcDbLine
 10
0.5
 20
77.5275590551
 30
0.0
 11
0.1653543307
 21
77.5275590551
 31
0.0
  0
LINE
  5
D9
330
1F
100
AcDbEntity
  8
TITLE
  6
Continuous
370
    18
100
AcDbLine
 10
69.5
 20
77.5275590551
 30
0.0
 11
69.8346456693
 21
77.5275590551
 31
0.0
  0
LINE
  5
DA
330
1F
100
AcDbEntity
  8
TITLE
  6
Continuous
370
    18
100
AcDbLine
 10
0.5
 20
79.4960629921
 30
0.0
 11
0.1653543307
 21
79.4960629921
 31
0.0
  0
LINE
  5
DB
330
1F
100
AcDbEntity
  8
TITLE
  6
Continuous
370
    18
100
AcDbLine
 10
69.5
 20
79.4960629921
 30
0.0
 11
69.8346456693
 21
79.4960629921
 31
0.0
  0
LINE
  5
DC
330
1F
100
AcDbEntity
  8
TITLE
  6
Continuous
370
    18
100
AcDbLine
 10
0.5
 20
81.4645669291
 30
0.0
 11
0.1653543307
 21
81.4645669291
 31
0.0
  0
LINE
  5
DD
330
1F
100
AcDbEntity
  8
TITLE
  6
Continuous
370
    18
100
AcDbLine
 10
69.5
 20
81.4645669291
 30
0.0
 11
69.8346456693
 21
81.4645669291
 31
0.0
  0
LINE
  5
DE
330
1F
100
AcDbEntity
  8
TITLE
  6
Continuous
370
    18
100
AcDbLine
 10
0.5
 20
83.4330708661
 30
0.0
 11
0.1653543307
 21
83.4330708661
 31
0.0
  0
LINE
  5
DF
330
1F
100
AcDbEntity
  8
TITLE
  6
Continuous
370
    18
100
AcDbLine
 10
69.5
 20
83.4330708661
 30
0.0
 11
69.8346456693
 21
83.4330708661
 31
0.0
  0
LINE
  5
E0
330
1F
100
AcDbEntity
  8
TITLE
  6
Continuous
370
    18
100
AcDbLine
 10
0.5
 20
85.4015748031
 30
0.0
 11
0.1653543307
 21
85.4015748031
 31
0.0
  0
LINE
  5
E1
330
1F
100
AcDbEntity
  8
TITLE
  6
Continuous
370
    18
100
AcDbLine
 10
69.5
 20
85.4015748031
 30
0.0
 11
69.8346456693
 21
85.4015748031
 31
0.0
  0
LINE
  5
E2
330
1F
100
AcDbEntity
  8
TITLE
  6
Continuous
370
    18
100
AcDbLine
 10
0.5
 20
87.3700787402
 30
0.0
 11
0.1653543307
 21
87.3700787402
 31
0.0
  0
LINE
  5
E3
330
1F
100
AcDbEntity
  8
TITLE
  6
Continuous
370
    18
100
AcDbLine
 10
69.5
 20
87.3700787402
 30
0.0
 11
69.8346456693
 21
87.3700787402
 31
0.0
  0
LINE
  5
E4
330
1F
100
AcDbEntity
  8
TITLE
  6
Continuous
370
    18
100
AcDbLine
 10
0.5
 20
89.3385826772
 30
0.0
 11
0.1653543307
 21
89.3385826772
 31
0.0
  0
LINE
  5
E5
330
1F
100
AcDbEntity
  8
TITLE
  6
Continuous
370
    18
100
AcDbLine
 10
69.5
 20
89.3385826772
 30
0.0
 11
69.8346456693
 21
89.3385826772
 31
0.0
  0
LINE
  5
E6
330
1F
100
AcDbEntity
  8
TITLE
  6
Continuous
370
    18
100
AcDbLine
 10
0.5
 20
91.3070866142
 30
0.0
 11
0.1653543307
 21
91.3070866142
 31
0.0
  0
LINE
  5
E7
330
1F
100
AcDbEntity
  8
TITLE
  6
Continuous
370
    18
100
AcDbLine
 10
69.5
 20
91.3070866142
 30
0.0
 11
69.8346456693
 21
91.3070866142
 31
0.0
  0
LINE
  5
E8
330
1F
100
AcDbEntity
  8
TITLE
  6
Continuous
370
    18
100
AcDbLine
 10
0.5
 20
93.2755905512
 30
0.0
 11
0.1653543307
 21
93.2755905512
 31
0.0
  0
LINE
  5
E9
330
1F
100
AcDbEntity
  8
TITLE
  6
Continuous
370
    18
100
AcDbLine
 10
69.5
 20
93.2755905512
 30
0.0
 11
69.8346456693
 21
93.2755905512
 31
0.0
  0
LINE
  5
EA
330
1F
100
AcDbEntity
  8
TITLE
  6
Continuous
370
    18
100
AcDbLine
 10
1.5354330709
 20
95.5
 30
0.0
 11
1.5354330709
 21
95.8346456693
 31
0.0
  0
LINE
  5
EB
330
1F
100
AcDbEntity
  8
TITLE
  6
Continuous
370
    18
100
AcDbLine
 10
1.5354330709
 20
0.5
 30
0.0
 11
1.5354330709
 21
0.1653543307
 31
0.0
  0
LINE
  5
EC
330
1F
100
AcDbEntity
  8
TITLE
  6
Continuous
370
    18
100
AcDbLine
 10
3.5039370079
 20
95.5
 30
0.0
 11
3.5039370079
 21
95.8346456693
 31
0.0
  0
LINE
  5
ED
330
1F
100
AcDbEntity
  8
TITLE
  6
Continuous
370
    18
100
AcDbLine
 10
3.5039370079
 20
0.5
 30
0.0
 11
3.5039370079
 21
0.1653543307
 31
0.0
  0
LINE
  5
EE
330
1F
100
AcDbEntity
  8
TITLE
  6
Continuous
370
    18
100
AcDbLine
 10
5.4724409449
 20
95.5
 30
0.0
 11
5.4724409449
 21
95.8346456693
 31
0.0
  0
LINE
  5
EF
330
1F
100
AcDbEntity
  8
TITLE
  6
Continuous
370
    18
100
AcDbLine
 10
5.4724409449
 20
0.5
 30
0.0
 11
5.4724409449
 21
0.1653543307
 31
0.0
  0
LINE
  5
F0
330
1F
100
AcDbEntity
  8
TITLE
  6
Continuous
370
    18
100
AcDbLine
 10
7.4409448819
 20
95.5
 30
0.0
 11
7.4409448819
 21
95.8346456693
 31
0.0
  0
LINE
  5
F1
330
1F
100
AcDbEntity
  8
TITLE
  6
Continuous
370
    18
100
AcDbLine
 10
7.4409448819
 20
0.5
 30
0.0
 11
7.4409448819
 21
0.1653543307
 31
0.0
  0
LINE
  5
F2
330
1F
100
AcDbEntity
  8
TITLE
  6
Continuous
370
    18
100
AcDbLine
 10
9.4094488189
 20
95.5
 30
0.0
 11
9.4094488189
 21
95.8346456693
 31
0.0
  0
LINE
  5
F3
330
1F
100
AcDbEntity
  8
TITLE
  6
Continuous
370
    18
100
AcDbLine
 10
9.4094488189
 20
0.5
 30
0.0
 11
9.4094488189
 21
0.1653543307
 31
0.0
  0
LINE
  5
F4
330
1F
100
AcDbEntity
  8
TITLE
  6
Continuous
370
    18
100
AcDbLine
 10
11.3779527559
 20
95.5
 30
0.0
 11
11.3779527559
 21
95.8346456693
 31
0.0
  0
LINE
  5
F5
330
1F
100
AcDbEntity
  8
TITLE
  6
Continuous
370
    18
100
AcDbLine
 10
11.3779527559
 20
0.5
 30
0.0
 11
11.3779527559
 21
0.1653543307
 31
0.0
  0
LINE
  5
F6
330
1F
100
AcDbEntity
  8
TITLE
  6
Continuous
370
    18
100
AcDbLine
 10
13.3464566929
 20
95.5
 30
0.0
 11
13.3464566929
 21
95.8346456693
 31
0.0
  0
LINE
  5
F7
330
1F
100
AcDbEntity
  8
TITLE
  6
Continuous
370
    18
100
AcDbLine
 10
13.3464566929
 20
0.5
 30
0.0
 11
13.3464566929
 21
0.1653543307
 31
0.0
  0
LINE
  5
F8
330
1F
100
AcDbEntity
  8
TITLE
  6
Continuous
370
    18
100
AcDbLine
 10
15.3149606299
 20
95.5
 30
0.0
 11
15.3149606299
 21
95.8346456693
 31
0.0
  0
LINE
  5
F9
330
1F
100
AcDbEntity
  8
TITLE
  6
Continuous
370
    18
100
AcDbLine
 10
15.3149606299
 20
0.5
 30
0.0
 11
15.3149606299
 21
0.1653543307
 31
0.0
  0
LINE
  5
FA
330
1F
100
AcDbEntity
  8
TITLE
  6
Continuous
370
    18
100
AcDbLine
 10
17.2834645669
 20
95.5
 30
0.0
 11
17.2834645669
 21
95.8346456693
 31
0.0
  0
LINE
  5
FB
330
1F
100
AcDbEntity
  8
TITLE
  6
Continuous
370
    18
100
AcDbLine
 10
17.2834645669
 20
0.5
 30
0.0
 11
17.2834645669
 21
0.1653543307
 31
0.0
  0
LINE
  5
FC
330
1F
100
AcDbEntity
  8
TITLE
  6
Continuous
370
    18
100
AcDbLine
 10
19.2519685039
 20
95.5
 30
0.0
 11
19.2519685039
 21
95.8346456693
 31
0.0
  0
LINE
  5
FD
330
1F
100
AcDbEntity
  8
TITLE
  6
Continuous
370
    18
100
AcDbLine
 10
19.2519685039
 20
0.5
 30
0.0
 11
19.2519685039
 21
0.1653543307
 31
0.0
  0
LINE
  5
FE
330
1F
100
AcDbEntity
  8
TITLE
  6
Continuous
370
    18
100
AcDbLine
 10
21.2204724409
 20
95.5
 30
0.0
 11
21.2204724409
 21
95.8346456693
 31
0.0
  0
LINE
  5
FF
330
1F
100
AcDbEntity
  8
TITLE
  6
Continuous
370
    18
100
AcDbLine
 10
21.2204724409
 20
0.5
 30
0.0
 11
21.2204724409
 21
0.1653543307
 31
0.0
  0
LINE
  5
100
330
1F
100
AcDbEntity
  8
TITLE
  6
Continuous
370
    18
100
AcDbLine
 10
23.188976378
 20
95.5
 30
0.0
 11
23.188976378
 21
95.8346456693
 31
0.0
  0
LINE
  5
101
330
1F
100
AcDbEntity
  8
TITLE
  6
Continuous
370
    18
100
AcDbLine
 10
23.188976378
 20
0.5
 30
0.0
 11
23.188976378
 21
0.1653543307
 31
0.0
  0
LINE
  5
102
330
1F
100
AcDbEntity
  8
TITLE
  6
Continuous
370
    18
100
AcDbLine
 10
25.157480315
 20
95.5
 30
0.0
 11
25.157480315
 21
95.8346456693
 31
0.0
  0
LINE
  5
103
330
1F
100
AcDbEntity
  8
TITLE
  6
Continuous
370
    18
100
AcDbLine
 10
25.157480315
 20
0.5
 30
0.0
 11
25.157480315
 21
0.1653543307
 31
0.0
  0
LINE
  5
104
330
1F
100
AcDbEntity
  8
TITLE
  6
Continuous
370
    18
100
AcDbLine
 10
27.125984252
 20
95.5
 30
0.0
 11
27.125984252
 21
95.8346456693
 31
0.0
  0
LINE
  5
105
330
1F
100
AcDbEntity
  8
TITLE
  6
Continuous
370
    18
100
AcDbLine
 10
27.125984252
 20
0.5
 30
0.0
 11
27.125984252
 21
0.1653543307
 31
0.0
  0
LINE
  5
106
330
1F
100
AcDbEntity
  8
TITLE
  6
Continuous
370
    18
100
AcDbLine
 10
29.094488189
 20
95.5
 30
0.0
 11
29.094488189
 21
95.8346456693
 31
0.0
  0
LINE
  5
107
330
1F
100
AcDbEntity
  8
TITLE
  6
Continuous
370
    18
100
AcDbLine
 10
29.094488189
 20
0.5
 30
0.0
 11
29.094488189
 21
0.1653543307
 31
0.0
  0
LINE
  5
108
330
1F
100
AcDbEntity
  8
TITLE
  6
Continuous
370
    18
100
AcDbLine
 10
31.062992126
 20
95.5
 30
0.0
 11
31.062992126
 21
95.8346456693
 31
0.0
  0
LINE
  5
109
330
1F
100
AcDbEntity
  8
TITLE
  6
Continuous
370
    18
100
AcDbLine
 10
31.062992126
 20
0.5
 30
0.0
 11
31.062992126
 21
0.1653543307
 31
0.0
  0
LINE
  5
10A
330
1F
100
AcDbEntity
  8
TITLE
  6
Continuous
370
    18
100
AcDbLine
 10
33.031496063
 20
95.5
 30
0.0
 11
33.031496063
 21
95.8346456693
 31
0.0
  0
LINE
  5
10B
330
1F
100
AcDbEntity
  8
TITLE
  6
Continuous
370
    18
100
AcDbLine
 10
33.031496063
 20
0.5
 30
0.0
 11
33.031496063
 21
0.1653543307
 31
0.0
  0
LINE
  5
10C
330
1F
100
AcDbEntity
  8
TITLE
  6
Continuous
370
    18
100
AcDbLine
 10
35.0
 20
95.5
 30
0.0
 11
35.0
 21
95.8346456693
 31
0.0
  0
LINE
  5
10D
330
1F
100
AcDbEntity
  8
TITLE
  6
Continuous
370
    18
100
AcDbLine
 10
35.0
 20
0.5
 30
0.0
 11
35.0
 21
0.1653543307
 31
0.0
  0
LINE
  5
10E
330
1F
100
AcDbEntity
  8
TITLE
  6
Continuous
370
    18
100
AcDbLine
 10
36.968503937
 20
95.5
 30
0.0
 11
36.968503937
 21
95.8346456693
 31
0.0
  0
LINE
  5
10F
330
1F
100
AcDbEntity
  8
TITLE
  6
Continuous
370
    18
100
AcDbLine
 10
36.968503937
 20
0.5
 30
0.0
 11
36.968503937
 21
0.1653543307
 31
0.0
  0
LINE
  5
110
330
1F
100
AcDbEntity
  8
TITLE
  6
Continuous
370
    18
100
AcDbLine
 10
38.937007874
 20
95.5
 30
0.0
 11
38.937007874
 21
95.8346456693
 31
0.0
  0
LINE
  5
111
330
1F
100
AcDbEntity
  8
TITLE
  6
Continuous
370
    18
100
AcDbLine
 10
38.937007874
 20
0.5
 30
0.0
 11
38.937007874
 21
0.1653543307
 31
0.0
  0
LINE
  5
112
330
1F
100
AcDbEntity
  8
TITLE
  6
Continuous
370
    18
100
AcDbLine
 10
40.905511811
 20
95.5
 30
0.0
 11
40.905511811
 21
95.8346456693
 31
0.0
  0
LINE
  5
113
330
1F
100
AcDbEntity
  8
TITLE
  6
Continuous
370
    18
100
AcDbLine
 10
40.905511811
 20
0.5
 30
0.0
 11
40.905511811
 21
0.1653543307
 31
0.0
  0
LINE
  5
114
330
1F
100
AcDbEntity
  8
TITLE
  6
Continuous
370
    18
100
AcDbLine
 10
42.874015748
 20
95.5
 30
0.0
 11
42.874015748
 21
95.8346456693
 31
0.0
  0
LINE
  5
115
330
1F
100
AcDbEntity
  8
TITLE
  6
Continuous
370
    18
100
AcDbLine
 10
42.874015748
 20
0.5
 30
0.0
 11
42.874015748
 21
0.1653543307
 31
0.0
  0
LINE
  5
116
330
1F
100
AcDbEntity
  8
TITLE
  6
Continuous
370
    18
100
AcDbLine
 10
44.842519685
 20
95.5
 30
0.0
 11
44.842519685
 21
95.8346456693
 31
0.0
  0
LINE
  5
117
330
1F
100
AcDbEntity
  8
TITLE
  6
Continuous
370
    18
100
AcDbLine
 10
44.842519685
 20
0.5
 30
0.0
 11
44.842519685
 21
0.1653543307
 31
0.0
  0
LINE
  5
118
330
1F
100
AcDbEntity
  8
TITLE
  6
Continuous
370
    18
100
AcDbLine
 10
46.811023622
 20
95.5
 30
0.0
 11
46.811023622
 21
95.8346456693
 31
0.0
  0
LINE
  5
119
330
1F
100
AcDbEntity
  8
TITLE
  6
Continuous
370
    18
100
AcDbLine
 10
46.811023622
 20
0.5
 30
0.0
 11
46.811023622
 21
0.1653543307
 31
0.0
  0
LINE
  5
11A
330
1F
100
AcDbEntity
  8
TITLE
  6
Continuous
370
    18
100
AcDbLine
 10
48.7795275591
 20
95.5
 30
0.0
 11
48.7795275591
 21
95.8346456693
 31
0.0
  0
LINE
  5
11B
330
1F
100
AcDbEntity
  8
TITLE
  6
Continuous
370
    18
100
AcDbLine
 10
48.7795275591
 20
0.5
 30
0.0
 11
48.7795275591
 21
0.1653543307
 31
0.0
  0
LINE
  5
11C
330
1F
100
AcDbEntity
  8
TITLE
  6
Continuous
370
    18
100
AcDbLine
 10
50.7480314961
 20
95.5
 30
0.0
 11
50.7480314961
 21
95.8346456693
 31
0.0
  0
LINE
  5
11D
330
1F
100
AcDbEntity
  8
TITLE
  6
Continuous
370
    18
100
AcDbLine
 10
50.7480314961
 20
0.5
 30
0.0
 11
50.7480314961
 21
0.1653543307
 31
0.0
  0
LINE
  5
11E
330
1F
100
AcDbEntity
  8
TITLE
  6
Continuous
370
    18
100
AcDbLine
 10
52.7165354331
 20
95.5
 30
0.0
 11
52.7165354331
 21
95.8346456693
 31
0.0
  0
LINE
  5
11F
330
1F
100
AcDbEntity
  8
TITLE
  6
Continuous
370
    18
100
AcDbLine
 10
52.7165354331
 20
0.5
 30
0.0
 11
52.7165354331
 21
0.1653543307
 31
0.0
  0
LINE
  5
120
330
1F
100
AcDbEntity
  8
TITLE
  6
Continuous
370
    18
100
AcDbLine
 10
54.6850393701
 20
95.5
 30
0.0
 11
54.6850393701
 21
95.8346456693
 31
0.0
  0
LINE
  5
121
330
1F
100
AcDbEntity
  8
TITLE
  6
Continuous
370
    18
100
AcDbLine
 10
54.6850393701
 20
0.5
 30
0.0
 11
54.6850393701
 21
0.1653543307
 31
0.0
  0
LINE
  5
122
330
1F
100
AcDbEntity
  8
TITLE
  6
Continuous
370
    18
100
AcDbLine
 10
56.6535433071
 20
95.5
 30
0.0
 11
56.6535433071
 21
95.8346456693
 31
0.0
  0
LINE
  5
123
330
1F
100
AcDbEntity
  8
TITLE
  6
Continuous
370
    18
100
AcDbLine
 10
56.6535433071
 20
0.5
 30
0.0
 11
56.6535433071
 21
0.1653543307
 31
0.0
  0
LINE
  5
124
330
1F
100
AcDbEntity
  8
TITLE
  6
Continuous
370
    18
100
AcDbLine
 10
58.6220472441
 20
95.5
 30
0.0
 11
58.6220472441
 21
95.8346456693
 31
0.0
  0
LINE
  5
125
330
1F
100
AcDbEntity
  8
TITLE
  6
Continuous
370
    18
100
AcDbLine
 10
58.6220472441
 20
0.5
 30
0.0
 11
58.6220472441
 21
0.1653543307
 31
0.0
  0
LINE
  5
126
330
1F
100
AcDbEntity
  8
TITLE
  6
Continuous
370
    18
100
AcDbLine
 10
60.5905511811
 20
95.5
 30
0.0
 11
60.5905511811
 21
95.8346456693
 31
0.0
  0
LINE
  5
127
330
1F
100
AcDbEntity
  8
TITLE
  6
Continuous
370
    18
100
AcDbLine
 10
60.5905511811
 20
0.5
 30
0.0
 11
60.5905511811
 21
0.1653543307
 31
0.0
  0
LINE
  5
128
330
1F
100
AcDbEntity
  8
TITLE
  6
Continuous
370
    18
100
AcDbLine
 10
62.5590551181
 20
95.5
 30
0.0
 11
62.5590551181
 21
95.8346456693
 31
0.0
  0
LINE
  5
129
330
1F
100
AcDbEntity
  8
TITLE
  6
Continuous
370
    18
100
AcDbLine
 10
62.5590551181
 20
0.5
 30
0.0
 11
62.5590551181
 21
0.1653543307
 31
0.0
  0
LINE
  5
12A
330
1F
100
AcDbEntity
  8
TITLE
  6
Continuous
370
    18
100
AcDbLine
 10
64.5275590551
 20
95.5
 30
0.0
 11
64.5275590551
 21
95.8346456693
 31
0.0
  0
LINE
  5
12B
330
1F
100
AcDbEntity
  8
TITLE
  6
Continuous
370
    18
100
AcDbLine
 10
64.5275590551
 20
0.5
 30
0.0
 11
64.5275590551
 21
0.1653543307
 31
0.0
  0
LINE
  5
12C
330
1F
100
AcDbEntity
  8
TITLE
  6
Continuous
370
    18
100
AcDbLine
 10
66.4960629921
 20
95.5
 30
0.0
 11
66.4960629921
 21
95.8346456693
 31
0.0
  0
LINE
  5
12D
330
1F
100
AcDbEntity
  8
TITLE
  6
Continuous
370
    18
100
AcDbLine
 10
66.4960629921
 20
0.5
 30
0.0
 11
66.4960629921
 21
0.1653543307
 31
0.0
  0
LINE
  5
12E
330
1F
100
AcDbEntity
  8
TITLE
  6
Continuous
370
    18
100
AcDbLine
 10
68.4645669291
 20
95.5
 30
0.0
 11
68.4645669291
 21
95.8346456693
 31
0.0
  0
LINE
  5
12F
330
1F
100
AcDbEntity
  8
TITLE
  6
Continuous
370
    18
100
AcDbLine
 10
68.4645669291
 20
0.5
 30
0.0
 11
68.4645669291
 21
0.1653543307
 31
0.0
  0
MTEXT
  5
131
330
1F
100
AcDbEntity
  8
NOTES
100
AcDbMText
 10
46.408297803
 20
1.0702903347
 30
0.0
 40
0.25
 41
0.0
 71
     1
 72
     1
  1
UNLESS OTHERWISE SPECIFIED DIMENSIONS ARE IN INCHES.
  7
SLDTEXTSTYLE0
 73
     1
 44
1.0
  0
MTEXT
  5
132
330
1F
100
AcDbEntity
  8
NOTES
100
AcDbMText
 10
46.4300699279
 20
3.0830627776
 30
0.0
 40
0.25
 41
0.0
 71
     1
 72
     1
  1
DATE:
  7
SLDTEXTSTYLE0
 73
     1
 44
1.0
  0
MTEXT
  5
133
330
1F
100
AcDbEntity
  8
NOTES
100
AcDbMText
 10
48.538701188
 20
2.1930329637
 30
0.0
 40
0.25
 41
0.0
 71
     2
 72
     1
  1
DO NOT SCALE DRAWING
  7
SLDTEXTSTYLE0
 73
     1
 44
1.0
  0
MTEXT
  5
135
330
1F
100
AcDbEntity
  8
NOTES
100
AcDbMText
 10
52.8307373075
 20
3.2712065527
 30
0.0
 40
0.25
 41
0.0
 71
     1
 72
     1
  1
TITLE:
  7
SLDTEXTSTYLE1
 73
     1
 44
1.0
  0
MTEXT
  5
136
330
1F
100
AcDbEntity
  8
NOTES
100
AcDbMText
 10
60.1561831052
 20
3.2712065527
 30
0.0
 40
0.25
 41
0.0
 71
     1
 72
     1
  1
DWG NO.
  7
SLDTEXTSTYLE1
 73
     1
 44
1.0
  0
MTEXT
  5
138
330
1F
100
AcDbEntity
  8
NOTES
100
AcDbMText
 10
60.1831753203
 20
1.0675125551
 30
0.0
 40
0.25
 41
0.0
 71
     1
 72
     1
  1
SCALE:     1:1
  7
SLDTEXTSTYLE2
 73
     1
 44
1.0
  0
MTEXT
  5
139
330
1F
100
AcDbEntity
  8
NOTES
100
AcDbMText
 10
64.1812049755
 20
2.6539654269
 30
0.0
 40
0.25
 41
0.0
 71
     2
 72
     1
  1
613 CAD
  7
SLDTEXTSTYLE1
 73
     1
 44
1.0
  0
MTEXT
  5
13A
330
1F
100
AcDbEntity
  8
NOTES
100
AcDbMText
 10
55.88972421
 20
2.564712634
 30
0.0
 40
0.25
 41
0.0
 71
     2
 72
     1
  1
Elevation
  7
SLDTEXTSTYLE1
 73
     1
 44
1.0
  0
INSERT
  5
140
330
1F
100
AcDbEntity
  8
NOTES
100
AcDbBlockReference
  2
SW_NOTE_0
 10
60.266131557
 20
4.6105227838
 30
0.0
  0
INSERT
  5
148
330
1F
100
AcDbEntity
  8
NOTES
100
AcDbBlockReference
  2
SW_NOTE_0_1
 10
46.6159726246
 20
5.1481526848
 30
0.0
  0
MTEXT
  5
149
330
1F
100
AcDbEntity
  8
NOTES
100
AcDbMText
 10
49.6218909683
 20
3.0829216904
 30
0.0
 40
0.25
 41
0.0
 71
     2
 72
     1
  1
September 12, 2023
  7
SLDTEXTSTYLE1
 73
     1
 44
1.0
  0
MTEXT
  5
14A
330
1F
100
AcDbEntity
  8
TITLE
100
AcDbMText
 10
0.3276279776
 20
1.6935481676
 30
0.0
 40
0.125
 41
0.0
 71
     2
 72
     1
  1
A
  7
SLDTEXTSTYLE1
 73
     1
 44
1.0
  0
MTEXT
  5
14B
330
1F
100
AcDbEntity
  8
TITLE
100
AcDbMText
 10
69.6622736469
 20
1.6935481676
 30
0.0
 40
0.125
 41
0.0
 71
     2
 72
     1
  1
A
  7
SLDTEXTSTYLE1
 73
     1
 44
1.0
  0
MTEXT
  5
14C
330
1F
100
AcDbEntity
  8
TITLE
100
AcDbMText
 10
0.3317512413
 20
3.7900048606
 30
0.0
 40
0.125
 41
0.0
 71
     2
 72
     1
  1
B
  7
SLDTEXTSTYLE1
 73
     1
 44
1.0
  0
MTEXT
  5
14D
330
1F
100
AcDbEntity
  8
TITLE
100
AcDbMText
 10
69.6663969106
 20
3.7900048606
 30
0.0
 40
0.125
 41
0.0
 71
     2
 72
     1
  1
B
  7
SLDTEXTSTYLE1
 73
     1
 44
1.0
  0
MTEXT
  5
14E
330
1F
100
AcDbEntity
  8
TITLE
100
AcDbMText
 10
0.3313750817
 20
5.7585087976
 30
0.0
 40
0.125
 41
0.0
 71
     2
 72
     1
  1
C
  7
SLDTEXTSTYLE1
 73
     1
 44
1.0
  0
MTEXT
  5
14F
330
1F
100
AcDbEntity
  8
TITLE
100
AcDbMText
 10
69.666020751
 20
5.7585087976
 30
0.0
 40
0.125
 41
0.0
 71
     2
 72
     1
  1
C
  7
SLDTEXTSTYLE1
 73
     1
 44
1.0
  0
MTEXT
  5
150
330
1F
100
AcDbEntity
  8
TITLE
100
AcDbMText
 10
0.3311870028
 20
7.7270127346
 30
0.0
 40
0.125
 41
0.0
 71
     2
 72
     1
  1
D
  7
SLDTEXTSTYLE1
 73
     1
 44
1.0
  0
MTEXT
  5
151
330
1F
100
AcDbEntity
  8
TITLE
100
AcDbMText
 10
69.6658326721
 20
7.7270127346
 30
0.0
 40
0.125
 41
0.0
 71
     2
 72
     1
  1
D
  7
SLDTEXTSTYLE1
 73
     1
 44
1.0
  0
MTEXT
  5
152
330
1F
100
AcDbEntity
  8
TITLE
100
AcDbMText
 10
0.332923116
 20
9.6955166716
 30
0.0
 40
0.125
 41
0.0
 71
     2
 72
     1
  1
E
  7
SLDTEXTSTYLE1
 73
     1
 44
1.0
  0
MTEXT
  5
153
330
1F
100
AcDbEntity
  8
TITLE
100
AcDbMText
 10
69.6675687853
 20
9.6955166716
 30
0.0
 40
0.125
 41
0.0
 71
     2
 72
     1
  1
E
  7
SLDTEXTSTYLE1
 73
     1
 44
1.0
  0
MTEXT
  5
154
330
1F
100
AcDbEntity
  8
TITLE
100
AcDbMText
 10
0.3313461474
 20
11.6640206086
 30
0.0
 40
0.125
 41
0.0
 71
     2
 72
     1
  1
F
  7
SLDTEXTSTYLE1
 73
     1
 44
1.0
  0
MTEXT
  5
155
330
1F
100
AcDbEntity
  8
TITLE
100
AcDbMText
 10
69.6659918167
 20
11.6640206086
 30
0.0
 40
0.125
 41
0.0
 71
     2
 72
     1
  1
F
  7
SLDTEXTSTYLE1
 73
     1
 44
1.0
  0
MTEXT
  5
156
330
1F
100
AcDbEntity
  8
TITLE
100
AcDbMText
 10
0.3322576054
 20
13.6325245456
 30
0.0
 40
0.125
 41
0.0
 71
     2
 72
     1
  1
G
  7
SLDTEXTSTYLE1
 73
     1
 44
1.0
  0
MTEXT
  5
157
330
1F
100
AcDbEntity
  8
TITLE
100
AcDbMText
 10
69.6669032747
 20
13.6325245456
 30
0.0
 40
0.125
 41
0.0
 71
     2
 72
     1
  1
G
  7
SLDTEXTSTYLE1
 73
     1
 44
1.0
  0
MTEXT
  5
158
330
1F
100
AcDbEntity
  8
TITLE
100
AcDbMText
 10
0.3323733457
 20
15.6010284826
 30
0.0
 40
0.125
 41
0.0
 71
     2
 72
     1
  1
H
  7
SLDTEXTSTYLE1
 73
     1
 44
1.0
  0
MTEXT
  5
159
330
1F
100
AcDbEntity
  8
TITLE
100
AcDbMText
 10
69.667019015
 20
15.6010284826
 30
0.0
 40
0.125
 41
0.0
 71
     2
 72
     1
  1
H
  7
SLDTEXTSTYLE1
 73
     1
 44
1.0
  0
MTEXT
  5
15A
330
1F
100
AcDbEntity
  8
TITLE
100
AcDbMText
 10
0.3315776306
 20
17.5695324196
 30
0.0
 40
0.125
 41
0.0
 71
     2
 72
     1
  1
J
  7
SLDTEXTSTYLE1
 73
     1
 44
1.0
  0
MTEXT
  5
15B
330
1F
100
AcDbEntity
  8
TITLE
100
AcDbMText
 10
69.6662232999
 20
17.5695324196
 30
0.0
 40
0.125
 41
0.0
 71
     2
 72
     1
  1
J
  7
SLDTEXTSTYLE1
 73
     1
 44
1.0
  0
MTEXT
  5
15C
330
1F
100
AcDbEntity
  8
TITLE
100
AcDbMText
 10
0.3323154765
 20
19.5380363566
 30
0.0
 40
0.125
 41
0.0
 71
     2
 72
     1
  1
K
  7
SLDTEXTSTYLE1
 73
     1
 44
1.0
  0
MTEXT
  5
15D
330
1F
100
AcDbEntity
  8
TITLE
100
AcDbMText
 10
69.6669611458
 20
19.5380363566
 30
0.0
 40
0.125
 41
0.0
 71
     2
 72
     1
  1
K
  7
SLDTEXTSTYLE1
 73
     1
 44
1.0
  0
MTEXT
  5
15E
330
1F
100
AcDbEntity
  8
TITLE
100
AcDbMText
 10
0.3312448739
 20
21.5065402936
 30
0.0
 40
0.125
 41
0.0
 71
     2
 72
     1
  1
L
  7
SLDTEXTSTYLE1
 73
     1
 44
1.0
  0
MTEXT
  5
15F
330
1F
100
AcDbEntity
  8
TITLE
100
AcDbMText
 10
69.6658905432
 20
21.5065402936
 30
0.0
 40
0.125
 41
0.0
 71
     2
 72
     1
  1
L
  7
SLDTEXTSTYLE1
 73
     1
 44
1.0
  0
MTEXT
  5
160
330
1F
100
AcDbEntity
  8
TITLE
100
AcDbMText
 10
0.3283224192
 20
23.4750442306
 30
0.0
 40
0.125
 41
0.0
 71
     2
 72
     1
  1
M
  7
SLDTEXTSTYLE1
 73
     1
 44
1.0
  0
MTEXT
  5
161
330
1F
100
AcDbEntity
  8
TITLE
100
AcDbMText
 10
69.6629680885
 20
23.4750442306
 30
0.0
 40
0.125
 41
0.0
 71
     2
 72
     1
  1
M
  7
SLDTEXTSTYLE1
 73
     1
 44
1.0
  0
MTEXT
  5
162
330
1F
100
AcDbEntity
  8
TITLE
100
AcDbMText
 10
0.3315342276
 20
25.4435481676
 30
0.0
 40
0.125
 41
0.0
 71
     2
 72
     1
  1
N
  7
SLDTEXTSTYLE1
 73
     1
 44
1.0
  0
MTEXT
  5
163
330
1F
100
AcDbEntity
  8
TITLE
100
AcDbMText
 10
69.6661798969
 20
25.4435481676
 30
0.0
 40
0.125
 41
0.0
 71
     2
 72
     1
  1
N
  7
SLDTEXTSTYLE1
 73
     1
 44
1.0
  0
MTEXT
  5
164
330
1F
100
AcDbEntity
  8
TITLE
100
AcDbMText
 10
0.3321997349
 20
27.4120521047
 30
0.0
 40
0.125
 41
0.0
 71
     2
 72
     1
  1
P
  7
SLDTEXTSTYLE1
 73
     1
 44
1.0
  0
MTEXT
  5
165
330
1F
100
AcDbEntity
  8
TITLE
100
AcDbMText
 10
69.6668454042
 20
27.4120521047
 30
0.0
 40
0.125
 41
0.0
 71
     2
 72
     1
  1
P
  7
SLDTEXTSTYLE1
 73
     1
 44
1.0
  0
MTEXT
  5
166
330
1F
100
AcDbEntity
  8
TITLE
100
AcDbMText
 10
0.3309265867
 20
29.3805560417
 30
0.0
 40
0.125
 41
0.0
 71
     2
 72
     1
  1
R
  7
SLDTEXTSTYLE1
 73
     1
 44
1.0
  0
MTEXT
  5
167
330
1F
100
AcDbEntity
  8
TITLE
100
AcDbMText
 10
69.665572256
 20
29.3805560417
 30
0.0
 40
0.125
 41
0.0
 71
     2
 72
     1
  1
R
  7
SLDTEXTSTYLE1
 73
     1
 44
1.0
  0
MTEXT
  5
168
330
1F
100
AcDbEntity
  8
TITLE
100
AcDbMText
 10
0.3323010071
 20
31.3490599787
 30
0.0
 40
0.125
 41
0.0
 71
     2
 72
     1
  1
T
  7
SLDTEXTSTYLE1
 73
     1
 44
1.0
  0
MTEXT
  5
169
330
1F
100
AcDbEntity
  8
TITLE
100
AcDbMText
 10
69.6669466764
 20
31.3490599787
 30
0.0
 40
0.125
 41
0.0
 71
     2
 72
     1
  1
T
  7
SLDTEXTSTYLE1
 73
     1
 44
1.0
  0
MTEXT
  5
16A
330
1F
100
AcDbEntity
  8
TITLE
100
AcDbMText
 10
0.3328507755
 20
33.3175639157
 30
0.0
 40
0.125
 41
0.0
 71
     2
 72
     1
  1
U
  7
SLDTEXTSTYLE1
 73
     1
 44
1.0
  0
MTEXT
  5
16B
330
1F
100
AcDbEntity
  8
TITLE
100
AcDbMText
 10
69.6674964448
 20
33.3175639157
 30
0.0
 40
0.125
 41
0.0
 71
     2
 72
     1
  1
U
  7
SLDTEXTSTYLE1
 73
     1
 44
1.0
  0
MTEXT
  5
16C
330
1F
100
AcDbEntity
  8
TITLE
100
AcDbMText
 10
0.3307529773
 20
35.2860678527
 30
0.0
 40
0.125
 41
0.0
 71
     2
 72
     1
  1
V
  7
SLDTEXTSTYLE1
 73
     1
 44
1.0
  0
MTEXT
  5
16D
330
1F
100
AcDbEntity
  8
TITLE
100
AcDbMText
 10
69.6653986466
 20
35.2860678527
 30
0.0
 40
0.125
 41
0.0
 71
     2
 72
     1
  1
V
  7
SLDTEXTSTYLE1
 73
     1
 44
1.0
  0
MTEXT
  5
16E
330
1F
100
AcDbEntity
  8
TITLE
100
AcDbMText
 10
0.3327784409
 20
37.2545717897
 30
0.0
 40
0.125
 41
0.0
 71
     2
 72
     1
  1
W
  7
SLDTEXTSTYLE1
 73
     1
 44
1.0
  0
MTEXT
  5
16F
330
1F
100
AcDbEntity
  8
TITLE
100
AcDbMText
 10
69.6674241102
 20
37.2545717897
 30
0.0
 40
0.125
 41
0.0
 71
     2
 72
     1
  1
W
  7
SLDTEXTSTYLE1
 73
     1
 44
1.0
  0
MTEXT
  5
170
330
1F
100
AcDbEntity
  8
TITLE
100
AcDbMText
 10
0.3321997349
 20
39.2230757267
 30
0.0
 40
0.125
 41
0.0
 71
     2
 72
     1
  1
Y
  7
SLDTEXTSTYLE1
 73
     1
 44
1.0
  0
MTEXT
  5
171
330
1F
100
AcDbEntity
  8
TITLE
100
AcDbMText
 10
69.6668454042
 20
39.2230757267
 30
0.0
 40
0.125
 41
0.0
 71
     2
 72
     1
  1
Y
  7
SLDTEXTSTYLE1
 73
     1
 44
1.0
  0
MTEXT
  5
172
330
1F
100
AcDbEntity
  8
TITLE
100
AcDbMText
 10
0.3225787898
 20
41.1915796637
 30
0.0
 40
0.125
 41
0.0
 71
     2
 72
     1
  1
AA
  7
SLDTEXTSTYLE1
 73
     1
 44
1.0
  0
MTEXT
  5
173
330
1F
100
AcDbEntity
  8
TITLE
100
AcDbMText
 10
69.6572244591
 20
41.1915796637
 30
0.0
 40
0.125
 41
0.0
 71
     2
 72
     1
  1
AA
  7
SLDTEXTSTYLE1
 73
     1
 44
1.0
  0
MTEXT
  5
174
330
1F
100
AcDbEntity
  8
TITLE
100
AcDbMText
 10
0.3267020535
 20
43.1600836007
 30
0.0
 40
0.125
 41
0.0
 71
     2
 72
     1
  1
AB
  7
SLDTEXTSTYLE1
 73
     1
 44
1.0
  0
MTEXT
  5
175
330
1F
100
AcDbEntity
  8
TITLE
100
AcDbMText
 10
69.6613477228
 20
43.1600836007
 30
0.0
 40
0.125
 41
0.0
 71
     2
 72
     1
  1
AB
  7
SLDTEXTSTYLE1
 73
     1
 44
1.0
  0
MTEXT
  5
176
330
1F
100
AcDbEntity
  8
TITLE
100
AcDbMText
 10
0.3263258985
 20
45.1285875377
 30
0.0
 40
0.125
 41
0.0
 71
     2
 72
     1
  1
AC
  7
SLDTEXTSTYLE1
 73
     1
 44
1.0
  0
MTEXT
  5
177
330
1F
100
AcDbEntity
  8
TITLE
100
AcDbMText
 10
69.6609715678
 20
45.1285875377
 30
0.0
 40
0.125
 41
0.0
 71
     2
 72
     1
  1
AC
  7
SLDTEXTSTYLE1
 73
     1
 44
1.0
  0
MTEXT
  5
178
330
1F
100
AcDbEntity
  8
TITLE
100
AcDbMText
 10
0.3261378197
 20
47.0970914747
 30
0.0
 40
0.125
 41
0.0
 71
     2
 72
     1
  1
AD
  7
SLDTEXTSTYLE1
 73
     1
 44
1.0
  0
MTEXT
  5
179
330
1F
100
AcDbEntity
  8
TITLE
100
AcDbMText
 10
69.6607834889
 20
47.0970914747
 30
0.0
 40
0.125
 41
0.0
 71
     2
 72
     1
  1
AD
  7
SLDTEXTSTYLE1
 73
     1
 44
1.0
  0
MTEXT
  5
17A
330
1F
100
AcDbEntity
  8
TITLE
100
AcDbMText
 10
0.3278739283
 20
49.0655954117
 30
0.0
 40
0.125
 41
0.0
 71
     2
 72
     1
  1
AE
  7
SLDTEXTSTYLE1
 73
     1
 44
1.0
  0
MTEXT
  5
17B
330
1F
100
AcDbEntity
  8
TITLE
100
AcDbMText
 10
69.6625195976
 20
49.0655954117
 30
0.0
 40
0.125
 41
0.0
 71
     2
 72
     1
  1
AE
  7
SLDTEXTSTYLE1
 73
     1
 44
1.0
  0
MTEXT
  5
17C
330
1F
100
AcDbEntity
  8
TITLE
100
AcDbMText
 10
0.3262969596
 20
51.0340993488
 30
0.0
 40
0.125
 41
0.0
 71
     2
 72
     1
  1
AF
  7
SLDTEXTSTYLE1
 73
     1
 44
1.0
  0
MTEXT
  5
17D
330
1F
100
AcDbEntity
  8
TITLE
100
AcDbMText
 10
69.6609426289
 20
51.0340993488
 30
0.0
 40
0.125
 41
0.0
 71
     2
 72
     1
  1
AF
  7
SLDTEXTSTYLE1
 73
     1
 44
1.0
  0
MTEXT
  5
17E
330
1F
100
AcDbEntity
  8
TITLE
100
AcDbMText
 10
0.3272084177
 20
53.0026032858
 30
0.0
 40
0.125
 41
0.0
 71
     2
 72
     1
  1
AG
  7
SLDTEXTSTYLE1
 73
     1
 44
1.0
  0
MTEXT
  5
17F
330
1F
100
AcDbEntity
  8
TITLE
100
AcDbMText
 10
69.661854087
 20
53.0026032858
 30
0.0
 40
0.125
 41
0.0
 71
     2
 72
     1
  1
AG
  7
SLDTEXTSTYLE1
 73
     1
 44
1.0
  0
MTEXT
  5
180
330
1F
100
AcDbEntity
  8
TITLE
100
AcDbMText
 10
0.3273241625
 20
54.9711072228
 30
0.0
 40
0.125
 41
0.0
 71
     2
 72
     1
  1
AH
  7
SLDTEXTSTYLE1
 73
     1
 44
1.0
  0
MTEXT
  5
181
330
1F
100
AcDbEntity
  8
TITLE
100
AcDbMText
 10
69.6619698318
 20
54.9711072228
 30
0.0
 40
0.125
 41
0.0
 71
     2
 72
     1
  1
AH
  7
SLDTEXTSTYLE1
 73
     1
 44
1.0
  0
MTEXT
  5
182
330
1F
100
AcDbEntity
  8
TITLE
100
AcDbMText
 10
0.3265284428
 20
56.9396111598
 30
0.0
 40
0.125
 41
0.0
 71
     2
 72
     1
  1
AJ
  7
SLDTEXTSTYLE1
 73
     1
 44
1.0
  0
MTEXT
  5
183
330
1F
100
AcDbEntity
  8
TITLE
100
AcDbMText
 10
69.6611741121
 20
56.9396111598
 30
0.0
 40
0.125
 41
0.0
 71
     2
 72
     1
  1
AJ
  7
SLDTEXTSTYLE1
 73
     1
 44
1.0
  0
MTEXT
  5
184
330
1F
100
AcDbEntity
  8
TITLE
100
AcDbMText
 10
0.3272662887
 20
58.9081150968
 30
0.0
 40
0.125
 41
0.0
 71
     2
 72
     1
  1
AK
  7
SLDTEXTSTYLE1
 73
     1
 44
1.0
  0
MTEXT
  5
185
330
1F
100
AcDbEntity
  8
TITLE
100
AcDbMText
 10
69.661911958
 20
58.9081150968
 30
0.0
 40
0.125
 41
0.0
 71
     2
 72
     1
  1
AK
  7
SLDTEXTSTYLE1
 73
     1
 44
1.0
  0
MTEXT
  5
186
330
1F
100
AcDbEntity
  8
TITLE
100
AcDbMText
 10
0.3261956816
 20
60.8766190338
 30
0.0
 40
0.125
 41
0.0
 71
     2
 72
     1
  1
AL
  7
SLDTEXTSTYLE1
 73
     1
 44
1.0
  0
MTEXT
  5
187
330
1F
100
AcDbEntity
  8
TITLE
100
AcDbMText
 10
69.6608413509
 20
60.8766190338
 30
0.0
 40
0.125
 41
0.0
 71
     2
 72
     1
  1
AL
  7
SLDTEXTSTYLE1
 73
     1
 44
1.0
  0
MTEXT
  5
188
330
1F
100
AcDbEntity
  8
TITLE
100
AcDbMText
 10
0.3232732315
 20
62.8451229708
 30
0.0
 40
0.125
 41
0.0
 71
     2
 72
     1
  1
AM
  7
SLDTEXTSTYLE1
 73
     1
 44
1.0
  0
MTEXT
  5
189
330
1F
100
AcDbEntity
  8
TITLE
100
AcDbMText
 10
69.6579189008
 20
62.8451229708
 30
0.0
 40
0.125
 41
0.0
 71
     2
 72
     1
  1
AM
  7
SLDTEXTSTYLE1
 73
     1
 44
1.0
  0
MTEXT
  5
18A
330
1F
100
AcDbEntity
  8
TITLE
100
AcDbMText
 10
0.3264850398
 20
64.8136269078
 30
0.0
 40
0.125
 41
0.0
 71
     2
 72
     1
  1
AN
  7
SLDTEXTSTYLE1
 73
     1
 44
1.0
  0
MTEXT
  5
18B
330
1F
100
AcDbEntity
  8
TITLE
100
AcDbMText
 10
69.6611307091
 20
64.8136269078
 30
0.0
 40
0.125
 41
0.0
 71
     2
 72
     1
  1
AN
  7
SLDTEXTSTYLE1
 73
     1
 44
1.0
  0
MTEXT
  5
18C
330
1F
100
AcDbEntity
  8
TITLE
100
AcDbMText
 10
0.3271505426
 20
66.7821308448
 30
0.0
 40
0.125
 41
0.0
 71
     2
 72
     1
  1
AP
  7
SLDTEXTSTYLE1
 73
     1
 44
1.0
  0
MTEXT
  5
18D
330
1F
100
AcDbEntity
  8
TITLE
100
AcDbMText
 10
69.6617962119
 20
66.7821308448
 30
0.0
 40
0.125
 41
0.0
 71
     2
 72
     1
  1
AP
  7
SLDTEXTSTYLE1
 73
     1
 44
1.0
  0
MTEXT
  5
18E
330
1F
100
AcDbEntity
  8
TITLE
100
AcDbMText
 10
0.325877399
 20
68.7506347818
 30
0.0
 40
0.125
 41
0.0
 71
     2
 72
     1
  1
AR
  7
SLDTEXTSTYLE1
 73
     1
 44
1.0
  0
MTEXT
  5
18F
330
1F
100
AcDbEntity
  8
TITLE
100
AcDbMText
 10
69.6605230682
 20
68.7506347818
 30
0.0
 40
0.125
 41
0.0
 71
     2
 72
     1
  1
AR
  7
SLDTEXTSTYLE1
 73
     1
 44
1.0
  0
MTEXT
  5
190
330
1F
100
AcDbEntity
  8
TITLE
100
AcDbMText
 10
0.3272518193
 20
70.7191387188
 30
0.0
 40
0.125
 41
0.0
 71
     2
 72
     1
  1
AT
  7
SLDTEXTSTYLE1
 73
     1
 44
1.0
  0
MTEXT
  5
191
330
1F
100
AcDbEntity
  8
TITLE
100
AcDbMText
 10
69.6618974886
 20
70.7191387188
 30
0.0
 40
0.125
 41
0.0
 71
     2
 72
     1
  1
AT
  7
SLDTEXTSTYLE1
 73
     1
 44
1.0
  0
MTEXT
  5
192
330
1F
100
AcDbEntity
  8
TITLE
100
AcDbMText
 10
0.3278015877
 20
72.6876426558
 30
0.0
 40
0.125
 41
0.0
 71
     2
 72
     1
  1
AU
  7
SLDTEXTSTYLE1
 73
     1
 44
1.0
  0
MTEXT
  5
193
330
1F
100
AcDbEntity
  8
TITLE
100
AcDbMText
 10
69.662447257
 20
72.6876426558
 30
0.0
 40
0.125
 41
0.0
 71
     2
 72
     1
  1
AU
  7
SLDTEXTSTYLE1
 73
     1
 44
1.0
  0
MTEXT
  5
194
330
1F
100
AcDbEntity
  8
TITLE
100
AcDbMText
 10
0.3257037895
 20
74.6561465928
 30
0.0
 40
0.125
 41
0.0
 71
     2
 72
     1
  1
AV
  7
SLDTEXTSTYLE1
 73
     1
 44
1.0
  0
MTEXT
  5
195
330
1F
100
AcDbEntity
  8
TITLE
100
AcDbMText
 10
69.6603494588
 20
74.6561465928
 30
0.0
 40
0.125
 41
0.0
 71
     2
 72
     1
  1
AV
  7
SLDTEXTSTYLE1
 73
     1
 44
1.0
  0
MTEXT
  5
196
330
1F
100
AcDbEntity
  8
TITLE
100
AcDbMText
 10
0.3277292486
 20
76.6246505299
 30
0.0
 40
0.125
 41
0.0
 71
     2
 72
     1
  1
AW
  7
SLDTEXTSTYLE1
 73
     1
 44
1.0
  0
MTEXT
  5
197
330
1F
100
AcDbEntity
  8
TITLE
100
AcDbMText
 10
69.6623749179
 20
76.6246505299
 30
0.0
 40
0.125
 41
0.0
 71
     2
 72
     1
  1
AW
  7
SLDTEXTSTYLE1
 73
     1
 44
1.0
  0
MTEXT
  5
198
330
1F
100
AcDbEntity
  8
TITLE
100
AcDbMText
 10
0.3271505426
 20
78.5931544669
 30
0.0
 40
0.125
 41
0.0
 71
     2
 72
     1
  1
AY
  7
SLDTEXTSTYLE1
 73
     1
 44
1.0
  0
MTEXT
  5
199
330
1F
100
AcDbEntity
  8
TITLE
100
AcDbMText
 10
69.6617962119
 20
78.5931544669
 30
0.0
 40
0.125
 41
0.0
 71
     2
 72
     1
  1
AY
  7
SLDTEXTSTYLE1
 73
     1
 44
1.0
  0
MTEXT
  5
19A
330
1F
100
AcDbEntity
  8
TITLE
100
AcDbMText
 10
0.3267020535
 20
80.5616584039
 30
0.0
 40
0.125
 41
0.0
 71
     2
 72
     1
  1
BA
  7
SLDTEXTSTYLE1
 73
     1
 44
1.0
  0
MTEXT
  5
19B
330
1F
100
AcDbEntity
  8
TITLE
100
AcDbMText
 10
69.6613477228
 20
80.5616584039
 30
0.0
 40
0.125
 41
0.0
 71
     2
 72
     1
  1
BA
  7
SLDTEXTSTYLE1
 73
     1
 44
1.0
  0
MTEXT
  5
19C
330
1F
100
AcDbEntity
  8
TITLE
100
AcDbMText
 10
0.3308253173
 20
82.5301623409
 30
0.0
 40
0.125
 41
0.0
 71
     2
 72
     1
  1
BB
  7
SLDTEXTSTYLE1
 73
     1
 44
1.0
  0
MTEXT
  5
19D
330
1F
100
AcDbEntity
  8
TITLE
100
AcDbMText
 10
69.6654709865
 20
82.5301623409
 30
0.0
 40
0.125
 41
0.0
 71
     2
 72
     1
  1
BB
  7
SLDTEXTSTYLE1
 73
     1
 44
1.0
  0
MTEXT
  5
19E
330
1F
100
AcDbEntity
  8
TITLE
100
AcDbMText
 10
0.3304491531
 20
84.4986662779
 30
0.0
 40
0.125
 41
0.0
 71
     2
 72
     1
  1
BC
  7
SLDTEXTSTYLE1
 73
     1
 44
1.0
  0
MTEXT
  5
19F
330
1F
100
AcDbEntity
  8
TITLE
100
AcDbMText
 10
69.6650948224
 20
84.4986662779
 30
0.0
 40
0.125
 41
0.0
 71
     2
 72
     1
  1
BC
  7
SLDTEXTSTYLE1
 73
     1
 44
1.0
  0
MTEXT
  5
1A0
330
1F
100
AcDbEntity
  8
TITLE
100
AcDbMText
 10
0.3302610742
 20
86.4671702149
 30
0.0
 40
0.125
 41
0.0
 71
     2
 72
     1
  1
BD
  7
SLDTEXTSTYLE1
 73
     1
 44
1.0
  0
MTEXT
  5
1A1
330
1F
100
AcDbEntity
  8
TITLE
100
AcDbMText
 10
69.6649067435
 20
86.4671702149
 30
0.0
 40
0.125
 41
0.0
 71
     2
 72
     1
  1
BD
  7
SLDTEXTSTYLE1
 73
     1
 44
1.0
  0
MTEXT
  5
1A2
330
1F
100
AcDbEntity
  8
TITLE
100
AcDbMText
 10
0.331997192
 20
88.4356741519
 30
0.0
 40
0.125
 41
0.0
 71
     2
 72
     1
  1
BE
  7
SLDTEXTSTYLE1
 73
     1
 44
1.0
  0
MTEXT
  5
1A3
330
1F
100
AcDbEntity
  8
TITLE
100
AcDbMText
 10
69.6666428613
 20
88.4356741519
 30
0.0
 40
0.125
 41
0.0
 71
     2
 72
     1
  1
BE
  7
SLDTEXTSTYLE1
 73
     1
 44
1.0
  0
MTEXT
  5
1A4
330
1F
100
AcDbEntity
  8
TITLE
100
AcDbMText
 10
0.3304202234
 20
90.4041780889
 30
0.0
 40
0.125
 41
0.0
 71
     2
 72
     1
  1
BF
  7
SLDTEXTSTYLE1
 73
     1
 44
1.0
  0
MTEXT
  5
1A5
330
1F
100
AcDbEntity
  8
TITLE
100
AcDbMText
 10
69.6650658926
 20
90.4041780889
 30
0.0
 40
0.125
 41
0.0
 71
     2
 72
     1
  1
BF
  7
SLDTEXTSTYLE1
 73
     1
 44
1.0
  0
MTEXT
  5
1A6
330
1F
100
AcDbEntity
  8
TITLE
100
AcDbMText
 10
0.3313316814
 20
92.3726820259
 30
0.0
 40
0.125
 41
0.0
 71
     2
 72
     1
  1
BG
  7
SLDTEXTSTYLE1
 73
     1
 44
1.0
  0
MTEXT
  5
1A7
330
1F
100
AcDbEntity
  8
TITLE
100
AcDbMText
 10
69.6659773507
 20
92.3726820259
 30
0.0
 40
0.125
 41
0.0
 71
     2
 72
     1
  1
BG
  7
SLDTEXTSTYLE1
 73
     1
 44
1.0
  0
MTEXT
  5
1A8
330
1F
100
AcDbEntity
  8
TITLE
100
AcDbMText
 10
0.331447417
 20
94.4691387188
 30
0.0
 40
0.125
 41
0.0
 71
     2
 72
     1
  1
BH
  7
SLDTEXTSTYLE1
 73
     1
 44
1.0
  0
MTEXT
  5
1A9
330
1F
100
AcDbEntity
  8
TITLE
100
AcDbMText
 10
69.6660930863
 20
94.4691387188
 30
0.0
 40
0.125
 41
0.0
 71
     2
 72
     1
  1
BH
  7
SLDTEXTSTYLE1
 73
     1
 44
1.0
  0
MTEXT
  5
1AA
330
1F
100
AcDbEntity
  8
TITLE
100
AcDbMText
 10
1.0151991741
 20
0.4140206086
 30
0.0
 40
0.125
 41
0.0
 71
     2
 72
     1
  1
36
  7
SLDTEXTSTYLE1
 73
     1
 44
1.0
  0
MTEXT
  5
1AB
330
1F
100
AcDbEntity
  8
TITLE
100
AcDbMText
 10
1.0151991741
 20
95.7486662779
 30
0.0
 40
0.125
 41
0.0
 71
     2
 72
     1
  1
36
  7
SLDTEXTSTYLE1
 73
     1
 44
1.0
  0
MTEXT
  5
1AC
330
1F
100
AcDbEntity
  8
TITLE
100
AcDbMText
 10
2.517167678
 20
0.4140206086
 30
0.0
 40
0.125
 41
0.0
 71
     2
 72
     1
  1
35
  7
SLDTEXTSTYLE1
 73
     1
 44
1.0
  0
MTEXT
  5
1AD
330
1F
100
AcDbEntity
  8
TITLE
100
AcDbMText
 10
2.517167678
 20
95.7486662779
 30
0.0
 40
0.125
 41
0.0
 71
     2
 72
     1
  1
35
  7
SLDTEXTSTYLE1
 73
     1
 44
1.0
  0
MTEXT
  5
1AE
330
1F
100
AcDbEntity
  8
TITLE
100
AcDbMText
 10
4.485671615
 20
0.4140206086
 30
0.0
 40
0.125
 41
0.0
 71
     2
 72
     1
  1
34
  7
SLDTEXTSTYLE1
 73
     1
 44
1.0
  0
MTEXT
  5
1AF
330
1F
100
AcDbEntity
  8
TITLE
100
AcDbMText
 10
4.485671615
 20
95.7486662779
 30
0.0
 40
0.125
 41
0.0
 71
     2
 72
     1
  1
34
  7
SLDTEXTSTYLE1
 73
     1
 44
1.0
  0
MTEXT
  5
1B0
330
1F
100
AcDbEntity
  8
TITLE
100
AcDbMText
 10
6.454175552
 20
0.4140206086
 30
0.0
 40
0.125
 41
0.0
 71
     2
 72
     1
  1
33
  7
SLDTEXTSTYLE1
 73
     1
 44
1.0
  0
MTEXT
  5
1B1
330
1F
100
AcDbEntity
  8
TITLE
100
AcDbMText
 10
6.454175552
 20
95.7486662779
 30
0.0
 40
0.125
 41
0.0
 71
     2
 72
     1
  1
33
  7
SLDTEXTSTYLE1
 73
     1
 44
1.0
  0
MTEXT
  5
1B2
330
1F
100
AcDbEntity
  8
TITLE
100
AcDbMText
 10
8.422679489
 20
0.4140206086
 30
0.0
 40
0.125
 41
0.0
 71
     2
 72
     1
  1
32
  7
SLDTEXTSTYLE1
 73
     1
 44
1.0
  0
MTEXT
  5
1B3
330
1F
100
AcDbEntity
  8
TITLE
100
AcDbMText
 10
8.422679489
 20
95.7486662779
 30
0.0
 40
0.125
 41
0.0
 71
     2
 72
     1
  1
32
  7
SLDTEXTSTYLE1
 73
     1
 44
1.0
  0
MTEXT
  5
1B4
330
1F
100
AcDbEntity
  8
TITLE
100
AcDbMText
 10
10.391183426
 20
0.4140206086
 30
0.0
 40
0.125
 41
0.0
 71
     2
 72
     1
  1
31
  7
SLDTEXTSTYLE1
 73
     1
 44
1.0
  0
MTEXT
  5
1B5
330
1F
100
AcDbEntity
  8
TITLE
100
AcDbMText
 10
10.391183426
 20
95.7486662779
 30
0.0
 40
0.125
 41
0.0
 71
     2
 72
     1
  1
31
  7
SLDTEXTSTYLE1
 73
     1
 44
1.0
  0
MTEXT
  5
1B6
330
1F
100
AcDbEntity
  8
TITLE
100
AcDbMText
 10
12.359687363
 20
0.4140206086
 30
0.0
 40
0.125
 41
0.0
 71
     2
 72
     1
  1
30
  7
SLDTEXTSTYLE1
 73
     1
 44
1.0
  0
MTEXT
  5
1B7
330
1F
100
AcDbEntity
  8
TITLE
100
AcDbMText
 10
12.359687363
 20
95.7486662779
 30
0.0
 40
0.125
 41
0.0
 71
     2
 72
     1
  1
30
  7
SLDTEXTSTYLE1
 73
     1
 44
1.0
  0
MTEXT
  5
1B8
330
1F
100
AcDbEntity
  8
TITLE
100
AcDbMText
 10
14.3281913
 20
0.4140206086
 30
0.0
 40
0.125
 41
0.0
 71
     2
 72
     1
  1
29
  7
SLDTEXTSTYLE1
 73
     1
 44
1.0
  0
MTEXT
  5
1B9
330
1F
100
AcDbEntity
  8
TITLE
100
AcDbMText
 10
14.3281913
 20
95.7486662779
 30
0.0
 40
0.125
 41
0.0
 71
     2
 72
     1
  1
29
  7
SLDTEXTSTYLE1
 73
     1
 44
1.0
  0
MTEXT
  5
1BA
330
1F
100
AcDbEntity
  8
TITLE
100
AcDbMText
 10
16.2966952371
 20
0.4140206086
 30
0.0
 40
0.125
 41
0.0
 71
     2
 72
     1
  1
28
  7
SLDTEXTSTYLE1
 73
     1
 44
1.0
  0
MTEXT
  5
1BB
330
1F
100
AcDbEntity
  8
TITLE
100
AcDbMText
 10
16.2966952371
 20
95.7486662779
 30
0.0
 40
0.125
 41
0.0
 71
     2
 72
     1
  1
28
  7
SLDTEXTSTYLE1
 73
     1
 44
1.0
  0
MTEXT
  5
1BC
330
1F
100
AcDbEntity
  8
TITLE
100
AcDbMText
 10
18.2651991741
 20
0.4140206086
 30
0.0
 40
0.125
 41
0.0
 71
     2
 72
     1
  1
27
  7
SLDTEXTSTYLE1
 73
     1
 44
1.0
  0
MTEXT
  5
1BD
330
1F
100
AcDbEntity
  8
TITLE
100
AcDbMText
 10
18.2651991741
 20
95.7486662779
 30
0.0
 40
0.125
 41
0.0
 71
     2
 72
     1
  1
27
  7
SLDTEXTSTYLE1
 73
     1
 44
1.0
  0
MTEXT
  5
1BE
330
1F
100
AcDbEntity
  8
TITLE
100
AcDbMText
 10
20.2337031111
 20
0.4140206086
 30
0.0
 40
0.125
 41
0.0
 71
     2
 72
     1
  1
26
  7
SLDTEXTSTYLE1
 73
     1
 44
1.0
  0
MTEXT
  5
1BF
330
1F
100
AcDbEntity
  8
TITLE
100
AcDbMText
 10
20.2337031111
 20
95.7486662779
 30
0.0
 40
0.125
 41
0.0
 71
     2
 72
     1
  1
26
  7
SLDTEXTSTYLE1
 73
     1
 44
1.0
  0
MTEXT
  5
1C0
330
1F
100
AcDbEntity
  8
TITLE
100
AcDbMText
 10
22.2022070481
 20
0.4140206086
 30
0.0
 40
0.125
 41
0.0
 71
     2
 72
     1
  1
25
  7
SLDTEXTSTYLE1
 73
     1
 44
1.0
  0
MTEXT
  5
1C1
330
1F
100
AcDbEntity
  8
TITLE
100
AcDbMText
 10
22.2022070481
 20
95.7486662779
 30
0.0
 40
0.125
 41
0.0
 71
     2
 72
     1
  1
25
  7
SLDTEXTSTYLE1
 73
     1
 44
1.0
  0
MTEXT
  5
1C2
330
1F
100
AcDbEntity
  8
TITLE
100
AcDbMText
 10
24.1707109851
 20
0.4140206086
 30
0.0
 40
0.125
 41
0.0
 71
     2
 72
     1
  1
24
  7
SLDTEXTSTYLE1
 73
     1
 44
1.0
  0
MTEXT
  5
1C3
330
1F
100
AcDbEntity
  8
TITLE
100
AcDbMText
 10
24.1707109851
 20
95.7486662779
 30
0.0
 40
0.125
 41
0.0
 71
     2
 72
     1
  1
24
  7
SLDTEXTSTYLE1
 73
     1
 44
1.0
  0
MTEXT
  5
1C4
330
1F
100
AcDbEntity
  8
TITLE
100
AcDbMText
 10
26.1392149221
 20
0.4140206086
 30
0.0
 40
0.125
 41
0.0
 71
     2
 72
     1
  1
23
  7
SLDTEXTSTYLE1
 73
     1
 44
1.0
  0
MTEXT
  5
1C5
330
1F
100
AcDbEntity
  8
TITLE
100
AcDbMText
 10
26.1392149221
 20
95.7486662779
 30
0.0
 40
0.125
 41
0.0
 71
     2
 72
     1
  1
23
  7
SLDTEXTSTYLE1
 73
     1
 44
1.0
  0
MTEXT
  5
1C6
330
1F
100
AcDbEntity
  8
TITLE
100
AcDbMText
 10
28.1077188591
 20
0.4140206086
 30
0.0
 40
0.125
 41
0.0
 71
     2
 72
     1
  1
22
  7
SLDTEXTSTYLE1
 73
     1
 44
1.0
  0
MTEXT
  5
1C7
330
1F
100
AcDbEntity
  8
TITLE
100
AcDbMText
 10
28.1077188591
 20
95.7486662779
 30
0.0
 40
0.125
 41
0.0
 71
     2
 72
     1
  1
22
  7
SLDTEXTSTYLE1
 73
     1
 44
1.0
  0
MTEXT
  5
1C8
330
1F
100
AcDbEntity
  8
TITLE
100
AcDbMText
 10
30.0762227961
 20
0.4140206086
 30
0.0
 40
0.125
 41
0.0
 71
     2
 72
     1
  1
21
  7
SLDTEXTSTYLE1
 73
     1
 44
1.0
  0
MTEXT
  5
1C9
330
1F
100
AcDbEntity
  8
TITLE
100
AcDbMText
 10
30.0762227961
 20
95.7486662779
 30
0.0
 40
0.125
 41
0.0
 71
     2
 72
     1
  1
21
  7
SLDTEXTSTYLE1
 73
     1
 44
1.0
  0
MTEXT
  5
1CA
330
1F
100
AcDbEntity
  8
TITLE
100
AcDbMText
 10
32.0447267331
 20
0.4140206086
 30
0.0
 40
0.125
 41
0.0
 71
     2
 72
     1
  1
20
  7
SLDTEXTSTYLE1
 73
     1
 44
1.0
  0
MTEXT
  5
1CB
330
1F
100
AcDbEntity
  8
TITLE
100
AcDbMText
 10
32.0447267331
 20
95.7486662779
 30
0.0
 40
0.125
 41
0.0
 71
     2
 72
     1
  1
20
  7
SLDTEXTSTYLE1
 73
     1
 44
1.0
  0
MTEXT
  5
1CC
330
1F
100
AcDbEntity
  8
TITLE
100
AcDbMText
 10
34.0132306701
 20
0.4140206086
 30
0.0
 40
0.125
 41
0.0
 71
     2
 72
     1
  1
19
  7
SLDTEXTSTYLE1
 73
     1
 44
1.0
  0
MTEXT
  5
1CD
330
1F
100
AcDbEntity
  8
TITLE
100
AcDbMText
 10
34.0132306701
 20
95.7486662779
 30
0.0
 40
0.125
 41
0.0
 71
     2
 72
     1
  1
19
  7
SLDTEXTSTYLE1
 73
     1
 44
1.0
  0
MTEXT
  5
1CE
330
1F
100
AcDbEntity
  8
TITLE
100
AcDbMText
 10
35.9817346071
 20
0.4140206086
 30
0.0
 40
0.125
 41
0.0
 71
     2
 72
     1
  1
18
  7
SLDTEXTSTYLE1
 73
     1
 44
1.0
  0
MTEXT
  5
1CF
330
1F
100
AcDbEntity
  8
TITLE
100
AcDbMText
 10
35.9817346071
 20
95.7486662779
 30
0.0
 40
0.125
 41
0.0
 71
     2
 72
     1
  1
18
  7
SLDTEXTSTYLE1
 73
     1
 44
1.0
  0
MTEXT
  5
1D0
330
1F
100
AcDbEntity
  8
TITLE
100
AcDbMText
 10
37.9502385441
 20
0.4140206086
 30
0.0
 40
0.125
 41
0.0
 71
     2
 72
     1
  1
17
  7
SLDTEXTSTYLE1
 73
     1
 44
1.0
  0
MTEXT
  5
1D1
330
1F
100
AcDbEntity
  8
TITLE
100
AcDbMText
 10
37.9502385441
 20
95.7486662779
 30
0.0
 40
0.125
 41
0.0
 71
     2
 72
     1
  1
17
  7
SLDTEXTSTYLE1
 73
     1
 44
1.0
  0
MTEXT
  5
1D2
330
1F
100
AcDbEntity
  8
TITLE
100
AcDbMText
 10
39.9187424811
 20
0.4140206086
 30
0.0
 40
0.125
 41
0.0
 71
     2
 72
     1
  1
16
  7
SLDTEXTSTYLE1
 73
     1
 44
1.0
  0
MTEXT
  5
1D3
330
1F
100
AcDbEntity
  8
TITLE
100
AcDbMText
 10
39.9187424811
 20
95.7486662779
 30
0.0
 40
0.125
 41
0.0
 71
     2
 72
     1
  1
16
  7
SLDTEXTSTYLE1
 73
     1
 44
1.0
  0
MTEXT
  5
1D4
330
1F
100
AcDbEntity
  8
TITLE
100
AcDbMText
 10
41.8872464182
 20
0.4140206086
 30
0.0
 40
0.125
 41
0.0
 71
     2
 72
     1
  1
15
  7
SLDTEXTSTYLE1
 73
     1
 44
1.0
  0
MTEXT
  5
1D5
330
1F
100
AcDbEntity
  8
TITLE
100
AcDbMText
 10
41.8872464182
 20
95.7486662779
 30
0.0
 40
0.125
 41
0.0
 71
     2
 72
     1
  1
15
  7
SLDTEXTSTYLE1
 73
     1
 44
1.0
  0
MTEXT
  5
1D6
330
1F
100
AcDbEntity
  8
TITLE
100
AcDbMText
 10
43.8557503552
 20
0.4140206086
 30
0.0
 40
0.125
 41
0.0
 71
     2
 72
     1
  1
14
  7
SLDTEXTSTYLE1
 73
     1
 44
1.0
  0
MTEXT
  5
1D7
330
1F
100
AcDbEntity
  8
TITLE
100
AcDbMText
 10
43.8557503552
 20
95.7486662779
 30
0.0
 40
0.125
 41
0.0
 71
     2
 72
     1
  1
14
  7
SLDTEXTSTYLE1
 73
     1
 44
1.0
  0
MTEXT
  5
1D8
330
1F
100
AcDbEntity
  8
TITLE
100
AcDbMText
 10
45.8242542922
 20
0.4140206086
 30
0.0
 40
0.125
 41
0.0
 71
     2
 72
     1
  1
13
  7
SLDTEXTSTYLE1
 73
     1
 44
1.0
  0
MTEXT
  5
1D9
330
1F
100
AcDbEntity
  8
TITLE
100
AcDbMText
 10
45.8242542922
 20
95.7486662779
 30
0.0
 40
0.125
 41
0.0
 71
     2
 72
     1
  1
13
  7
SLDTEXTSTYLE1
 73
     1
 44
1.0
  0
MTEXT
  5
1DA
330
1F
100
AcDbEntity
  8
TITLE
100
AcDbMText
 10
47.7927582292
 20
0.4140206086
 30
0.0
 40
0.125
 41
0.0
 71
     2
 72
     1
  1
12
  7
SLDTEXTSTYLE1
 73
     1
 44
1.0
  0
MTEXT
  5
1DB
330
1F
100
AcDbEntity
  8
TITLE
100
AcDbMText
 10
47.7927582292
 20
95.7486662779
 30
0.0
 40
0.125
 41
0.0
 71
     2
 72
     1
  1
12
  7
SLDTEXTSTYLE1
 73
     1
 44
1.0
  0
MTEXT
  5
1DC
330
1F
100
AcDbEntity
  8
TITLE
100
AcDbMText
 10
49.7612621662
 20
0.4140206086
 30
0.0
 40
0.125
 41
0.0
 71
     2
 72
     1
  1
11
  7
SLDTEXTSTYLE1
 73
     1
 44
1.0
  0
MTEXT
  5
1DD
330
1F
100
AcDbEntity
  8
TITLE
100
AcDbMText
 10
49.7612621662
 20
95.7486662779
 30
0.0
 40
0.125
 41
0.0
 71
     2
 72
     1
  1
11
  7
SLDTEXTSTYLE1
 73
     1
 44
1.0
  0
MTEXT
  5
1DE
330
1F
100
AcDbEntity
  8
TITLE
100
AcDbMText
 10
51.7297661032
 20
0.4140206086
 30
0.0
 40
0.125
 41
0.0
 71
     2
 72
     1
  1
10
  7
SLDTEXTSTYLE1
 73
     1
 44
1.0
  0
MTEXT
  5
1DF
330
1F
100
AcDbEntity
  8
TITLE
100
AcDbMText
 10
51.7297661032
 20
95.7486662779
 30
0.0
 40
0.125
 41
0.0
 71
     2
 72
     1
  1
10
  7
SLDTEXTSTYLE1
 73
     1
 44
1.0
  0
MTEXT
  5
1E0
330
1F
100
AcDbEntity
  8
TITLE
100
AcDbMText
 10
53.6995287209
 20
0.4140206086
 30
0.0
 40
0.125
 41
0.0
 71
     2
 72
     1
  1
9
  7
SLDTEXTSTYLE1
 73
     1
 44
1.0
  0
MTEXT
  5
1E1
330
1F
100
AcDbEntity
  8
TITLE
100
AcDbMText
 10
53.6995287209
 20
95.7486662779
 30
0.0
 40
0.125
 41
0.0
 71
     2
 72
     1
  1
9
  7
SLDTEXTSTYLE1
 73
     1
 44
1.0
  0
MTEXT
  5
1E2
330
1F
100
AcDbEntity
  8
TITLE
100
AcDbMText
 10
55.6680326579
 20
0.4140206086
 30
0.0
 40
0.125
 41
0.0
 71
     2
 72
     1
  1
8
  7
SLDTEXTSTYLE1
 73
     1
 44
1.0
  0
MTEXT
  5
1E3
330
1F
100
AcDbEntity
  8
TITLE
100
AcDbMText
 10
55.6680326579
 20
95.7486662779
 30
0.0
 40
0.125
 41
0.0
 71
     2
 72
     1
  1
8
  7
SLDTEXTSTYLE1
 73
     1
 44
1.0
  0
MTEXT
  5
1E4
330
1F
100
AcDbEntity
  8
TITLE
100
AcDbMText
 10
57.6365365949
 20
0.4140206086
 30
0.0
 40
0.125
 41
0.0
 71
     2
 72
     1
  1
7
  7
SLDTEXTSTYLE1
 73
     1
 44
1.0
  0
MTEXT
  5
1E5
330
1F
100
AcDbEntity
  8
TITLE
100
AcDbMText
 10
57.6365365949
 20
95.7486662779
 30
0.0
 40
0.125
 41
0.0
 71
     2
 72
     1
  1
7
  7
SLDTEXTSTYLE1
 73
     1
 44
1.0
  0
MTEXT
  5
1E6
330
1F
100
AcDbEntity
  8
TITLE
100
AcDbMText
 10
59.6050405319
 20
0.4140206086
 30
0.0
 40
0.125
 41
0.0
 71
     2
 72
     1
  1
6
  7
SLDTEXTSTYLE1
 73
     1
 44
1.0
  0
MTEXT
  5
1E7
330
1F
100
AcDbEntity
  8
TITLE
100
AcDbMText
 10
59.6050405319
 20
95.7486662779
 30
0.0
 40
0.125
 41
0.0
 71
     2
 72
     1
  1
6
  7
SLDTEXTSTYLE1
 73
     1
 44
1.0
  0
MTEXT
  5
1E8
330
1F
100
AcDbEntity
  8
TITLE
100
AcDbMText
 10
61.5735444689
 20
0.4140206086
 30
0.0
 40
0.125
 41
0.0
 71
     2
 72
     1
  1
5
  7
SLDTEXTSTYLE1
 73
     1
 44
1.0
  0
MTEXT
  5
1E9
330
1F
100
AcDbEntity
  8
TITLE
100
AcDbMText
 10
61.5735444689
 20
95.7486662779
 30
0.0
 40
0.125
 41
0.0
 71
     2
 72
     1
  1
5
  7
SLDTEXTSTYLE1
 73
     1
 44
1.0
  0
MTEXT
  5
1EA
330
1F
100
AcDbEntity
  8
TITLE
100
AcDbMText
 10
63.5420484059
 20
0.4140206086
 30
0.0
 40
0.125
 41
0.0
 71
     2
 72
     1
  1
4
  7
SLDTEXTSTYLE1
 73
     1
 44
1.0
  0
MTEXT
  5
1EB
330
1F
100
AcDbEntity
  8
TITLE
100
AcDbMText
 10
63.5420484059
 20
95.7486662779
 30
0.0
 40
0.125
 41
0.0
 71
     2
 72
     1
  1
4
  7
SLDTEXTSTYLE1
 73
     1
 44
1.0
  0
MTEXT
  5
1EC
330
1F
100
AcDbEntity
  8
TITLE
100
AcDbMText
 10
65.5105523429
 20
0.4140206086
 30
0.0
 40
0.125
 41
0.0
 71
     2
 72
     1
  1
3
  7
SLDTEXTSTYLE1
 73
     1
 44
1.0
  0
MTEXT
  5
1ED
330
1F
100
AcDbEntity
  8
TITLE
100
AcDbMText
 10
65.5105523429
 20
95.7486662779
 30
0.0
 40
0.125
 41
0.0
 71
     2
 72
     1
  1
3
  7
SLDTEXTSTYLE1
 73
     1
 44
1.0
  0
MTEXT
  5
1EE
330
1F
100
AcDbEntity
  8
TITLE
100
AcDbMText
 10
67.4790562799
 20
0.4140206086
 30
0.0
 40
0.125
 41
0.0
 71
     2
 72
     1
  1
2
  7
SLDTEXTSTYLE1
 73
     1
 44
1.0
  0
MTEXT
  5
1EF
330
1F
100
AcDbEntity
  8
TITLE
100
AcDbMText
 10
67.4790562799
 20
95.7486662779
 30
0.0
 40
0.125
 41
0.0
 71
     2
 72
     1
  1
2
  7
SLDTEXTSTYLE1
 73
     1
 44
1.0
  0
MTEXT
  5
1F0
330
1F
100
AcDbEntity
  8
TITLE
100
AcDbMText
 10
68.9810247839
 20
0.4140206086
 30
0.0
 40
0.125
 41
0.0
 71
     2
 72
     1
  1
1
  7
SLDTEXTSTYLE1
 73
     1
 44
1.0
  0
MTEXT
  5
1F1
330
1F
100
AcDbEntity
  8
TITLE
100
AcDbMText
 10
68.9810247839
 20
95.7486662779
 30
0.0
 40
0.125
 41
0.0
 71
     2
 72
     1
  1
1
  7
SLDTEXTSTYLE1
 73
     1
 44
1.0
  0
LINE
  5
1F2
330
1F
100
AcDbEntity
  8
0
  6
Continuous
 62
     7
370
    25
100
AcDbLine
 10
5.8179819373
 20
58.7223646523
 30
0.0
 11
5.7959819373
 21
58.7223646523
 31
0.0
  0
LINE
  5
1F3
330
1F
100
AcDbEntity
  8
0
  6
Continuous
 62
     7
370
    25
100
AcDbLine
 10
5.7959819373
 20
58.4683646523
 30
0.0
 11
5.8179819373
 21
58.4683646523
 31
0.0
  0
LINE
  5
1F4
330
1F
100
AcDbEntity
  8
0
  6
Continuous
 62
     7
370
    25
100
AcDbLine
 10
5.7959819373
 20
58.7223646523
 30
0.0
 11
5.7809819373
 21
58.673301863
 31
0.0
  0
LINE
  5
1F5
330
1F
100
AcDbEntity
  8
0
  6
Continuous
 62
     7
370
    25
100
AcDbLine
 10
5.7809819373
 20
58.5174274416
 30
0.0
 11
5.7959819373
 21
58.4683646523
 31
0.0
  0
LINE
  5
1F6
330
1F
100
AcDbEntity
  8
0
  6
Continuous
 62
     7
370
    25
100
AcDbLine
 10
11.3918569373
 20
58.9489462523
 30
0.0
 11
11.4068569373
 21
58.9980090416
 31
0.0
  0
LINE
  5
1F7
330
1F
100
AcDbEntity
  8
0
  6
Continuous
 62
     7
370
    25
100
AcDbLine
 10
11.4068569373
 20
59.153883463
 30
0.0
 11
11.3918569373
 21
59.2029462523
 31
0.0
  0
LINE
  5
1F8
330
1F
100
AcDbEntity
  8
0
  6
Continuous
 62
     7
370
    25
100
AcDbLine
 10
11.3698569373
 20
58.9489462523
 30
0.0
 11
11.3918569373
 21
58.9489462523
 31
0.0
  0
LINE
  5
1F9
330
1F
100
AcDbEntity
  8
0
  6
Continuous
 62
     7
370
    25
100
AcDbLine
 10
11.3918569373
 20
59.2029462523
 30
0.0
 11
11.3698569373
 21
59.2029462523
 31
0.0
  0
LINE
  5
1FA
330
1F
100
AcDbEntity
  8
0
  6
Continuous
 62
     7
370
    25
100
AcDbLine
 10
5.7711069373
 20
59.2029462523
 30
0.0
 11
5.7491069373
 21
59.2029462523
 31
0.0
  0
LINE
  5
1FB
330
1F
100
AcDbEntity
  8
0
  6
Continuous
 62
     7
370
    25
100
AcDbLine
 10
5.7491069373
 20
58.9489462523
 30
0.0
 11
5.7711069373
 21
58.9489462523
 31
0.0
  0
LINE
  5
1FC
330
1F
100
AcDbEntity
  8
0
  6
Continuous
 62
     7
370
    25
100
AcDbLine
 10
5.7491069373
 20
59.2029462523
 30
0.0
 11
5.7341069373
 21
59.153883463
 31
0.0
  0
LINE
  5
1FD
330
1F
100
AcDbEntity
  8
0
  6
Continuous
 62
     7
370
    25
100
AcDbLine
 10
5.7341069373
 20
58.9980090416
 30
0.0
 11
5.7491069373
 21
58.9489462523
 31
0.0
  0
LINE
  5
1FE
330
1F
100
AcDbEntity
  8
0
  6
Continuous
 62
     7
370
    25
100
AcDbLine
 10
11.3449819373
 20
58.4683646523
 30
0.0
 11
11.3599819373
 21
58.5174274416
 31
0.0
  0
LINE
  5
1FF
330
1F
100
AcDbEntity
  8
0
  6
Continuous
 62
     7
370
    25
100
AcDbLine
 10
11.3599819373
 20
58.673301863
 30
0.0
 11
11.3449819373
 21
58.7223646523
 31
0.0
  0
LINE
  5
200
330
1F
100
AcDbEntity
  8
0
  6
Continuous
 62
     7
370
    25
100
AcDbLine
 10
11.3229819373
 20
58.4683646523
 30
0.0
 11
11.3449819373
 21
58.4683646523
 31
0.0
  0
LINE
  5
201
330
1F
100
AcDbEntity
  8
0
  6
Continuous
 62
     7
370
    25
100
AcDbLine
 10
11.3449819373
 20
58.7223646523
 30
0.0
 11
11.3229819373
 21
58.7223646523
 31
0.0
  0
LINE
  5
202
330
1F
100
AcDbEntity
  8
0
  6
Continuous
 62
     7
370
    25
100
AcDbLine
 10
11.3229819373
 20
58.9119462523
 30
0.0
 11
11.3698569373
 21
58.9119462523
 31
0.0
  0
LINE
  5
203
330
1F
100
AcDbEntity
  8
0
  6
Continuous
 62
     7
370
    25
100
AcDbLine
 10
11.3698569373
 20
59.2399462523
 30
0.0
 11
11.3229819373
 21
59.2399462523
 31
0.0
  0
LINE
  5
204
330
1F
100
AcDbEntity
  8
0
  6
Continuous
 62
     7
370
    25
100
AcDbLine
 10
5.8179819373
 20
59.2399462523
 30
0.0
 11
5.7711069373
 21
59.2399462523
 31
0.0
  0
LINE
  5
205
330
1F
100
AcDbEntity
  8
0
  6
Continuous
 62
     7
370
    25
100
AcDbLine
 10
5.7711069373
 20
58.9119462523
 30
0.0
 11
5.8179819373
 21
58.9119462523
 31
0.0
  0
LINE
  5
206
330
1F
100
AcDbEntity
  8
0
  6
Continuous
 62
     7
370
    25
100
AcDbLine
 10
5.865971589
 20
73.9999646523
 30
0.0
 11
5.865971589
 21
73.9699646523
 31
0.0
  0
LINE
  5
207
330
1F
100
AcDbEntity
  8
0
  6
Continuous
 62
     7
370
    25
100
AcDbLine
 10
11.2749922857
 20
73.9699646523
 30
0.0
 11
11.2749922857
 21
73.9999646523
 31
0.0
  0
LINE
  5
208
330
1F
100
AcDbEntity
  8
0
  6
Continuous
 62
     7
370
    25
100
AcDbLine
 10
5.8704819373
 20
57.1662855221
 30
0.0
 11
5.9004819373
 21
57.1662855221
 31
0.0
  0
LINE
  5
209
330
1F
100
AcDbEntity
  8
0
  6
Continuous
 62
     7
370
    25
100
AcDbLine
 10
11.2404819373
 20
57.1662855221
 30
0.0
 11
11.2704819373
 21
57.1662855221
 31
0.0
  0
LINE
  5
20A
330
1F
100
AcDbEntity
  8
0
  6
Continuous
 62
     7
370
    25
100
AcDbLine
 10
6.0054819373
 20
57.0761744521
 30
0.0
 11
8.0360981478
 21
57.0761744521
 31
0.0
  0
LINE
  5
20B
330
1F
100
AcDbEntity
  8
0
  6
Continuous
 62
     7
370
    25
100
AcDbLine
 10
9.1048657269
 20
57.0761744521
 30
0.0
 11
11.1354819373
 21
57.0761744521
 31
0.0
  0
LINE
  5
20C
330
1F
100
AcDbEntity
  8
0
  6
Continuous
 62
     7
370
    25
100
AcDbLine
 10
5.7959819373
 20
58.7223646523
 30
0.0
 11
5.7959819373
 21
58.4683646523
 31
0.0
  0
LINE
  5
20D
330
1F
100
AcDbEntity
  8
0
  6
Continuous
 62
     7
370
    25
100
AcDbLine
 10
5.7809819373
 20
58.5174274416
 30
0.0
 11
5.7809819373
 21
58.673301863
 31
0.0
  0
LINE
  5
20E
330
1F
100
AcDbEntity
  8
0
  6
Continuous
 62
     7
370
    25
100
AcDbLine
 10
11.4068569373
 20
58.9980383071
 30
0.0
 11
11.4068569373
 21
58.9980090416
 31
0.0
  0
LINE
  5
20F
330
1F
100
AcDbEntity
  8
0
  6
Continuous
 62
     7
370
    25
100
AcDbLine
 10
11.4068569373
 20
59.153883463
 30
0.0
 11
11.4068569373
 21
58.9980383071
 31
0.0
  0
LINE
  5
210
330
1F
100
AcDbEntity
  8
0
  6
Continuous
 62
     7
370
    25
100
AcDbLine
 10
11.3918569373
 20
58.9489462523
 30
0.0
 11
11.3918569373
 21
59.2029462523
 31
0.0
  0
LINE
  5
211
330
1F
100
AcDbEntity
  8
0
  6
Continuous
 62
     7
370
    25
100
AcDbLine
 10
5.7491069373
 20
59.0713889936
 30
0.0
 11
5.7491069373
 21
58.9489462523
 31
0.0
  0
LINE
  5
212
330
1F
100
AcDbEntity
  8
0
  6
Continuous
 62
     7
370
    25
100
AcDbLine
 10
5.7491069373
 20
59.2029462523
 30
0.0
 11
5.7491069373
 21
59.0713889936
 31
0.0
  0
LINE
  5
213
330
1F
100
AcDbEntity
  8
0
  6
Continuous
 62
     7
370
    25
100
AcDbLine
 10
5.7341069373
 20
59.0731495591
 30
0.0
 11
5.7341069373
 21
59.153883463
 31
0.0
  0
LINE
  5
214
330
1F
100
AcDbEntity
  8
0
  6
Continuous
 62
     7
370
    25
100
AcDbLine
 10
5.7341069373
 20
58.9980090416
 30
0.0
 11
5.7341069373
 21
59.0731495591
 31
0.0
  0
LINE
  5
215
330
1F
100
AcDbEntity
  8
0
  6
Continuous
 62
     7
370
    25
100
AcDbLine
 10
11.3599819373
 20
58.673301863
 30
0.0
 11
11.3599819373
 21
58.5174274416
 31
0.0
  0
LINE
  5
216
330
1F
100
AcDbEntity
  8
0
  6
Continuous
 62
     7
370
    25
100
AcDbLine
 10
11.3449819373
 20
58.4683646523
 30
0.0
 11
11.3449819373
 21
58.7223646523
 31
0.0
  0
LINE
  5
217
330
1F
100
AcDbEntity
  8
0
  6
Continuous
 62
     7
370
    25
100
AcDbLine
 10
11.3698569373
 20
59.223843497
 30
0.0
 11
11.3698569373
 21
58.9119462523
 31
0.0
  0
LINE
  5
218
330
1F
100
AcDbEntity
  8
0
  6
Continuous
 62
     7
370
    25
100
AcDbLine
 10
11.3698569373
 20
59.2399462523
 30
0.0
 11
11.3698569373
 21
59.223843497
 31
0.0
  0
LINE
  5
219
330
1F
100
AcDbEntity
  8
0
  6
Continuous
 62
     7
370
    25
100
AcDbLine
 10
5.7711069373
 20
58.9119462523
 30
0.0
 11
5.7711069373
 21
59.2399462523
 31
0.0
  0
LINE
  5
21A
330
1F
100
AcDbEntity
  8
0
  6
Continuous
 62
     7
370
    25
100
AcDbLine
 10
8.4704819373
 20
72.9755690385
 30
0.0
 11
8.5504819373
 21
72.9755690385
 31
0.0
  0
LINE
  5
21B
330
1F
100
AcDbEntity
  8
0
  6
Continuous
 62
     7
370
    25
100
AcDbLine
 10
8.5504819373
 20
72.9755690385
 30
0.0
 11
8.5504819373
 21
73.1165814791
 31
0.0
  0
ARC
  5
21C
330
1F
100
AcDbEntity
  8
0
  6
Continuous
 62
     7
370
    25
100
AcDbCircle
 10
8.5104819373
 20
73.0249646523
 30
0.0
 40
0.0999682097606036
100
AcDbArc
 50
113.5861306915
 51
66.4138693085
  0
LINE
  5
21D
330
1F
100
AcDbEntity
  8
0
  6
Continuous
 62
     7
370
    25
100
AcDbLine
 10
8.4704819373
 20
73.1165814791
 30
0.0
 11
8.4704819373
 21
72.9755690385
 31
0.0
  0
CIRCLE
  5
21E
330
1F
100
AcDbEntity
  8
0
  6
Continuous
 62
     7
370
    25
100
AcDbCircle
 10
8.5104819373
 20
73.0249646523
 30
0.0
 40
0.4075000000000131
  0
CIRCLE
  5
21F
330
1F
100
AcDbEntity
  8
0
  6
Continuous
 62
     7
370
    25
100
AcDbCircle
 10
8.5104819373
 20
73.0249646523
 30
0.0
 40
0.3400000000000034
  0
CIRCLE
  5
220
330
1F
100
AcDbEntity
  8
0
  6
Continuous
 62
     7
370
    25
100
AcDbCircle
 10
8.5104819373
 20
73.0249646523
 30
0.0
 40
0.4275000000000091
  0
CIRCLE
  5
221
330
1F
100
AcDbEntity
  8
0
  6
Continuous
 62
     7
370
    25
100
AcDbCircle
 10
8.5104819373
 20
73.0249646523
 30
0.0
 40
0.3150000000000119
  0
CIRCLE
  5
222
330
1F
100
AcDbEntity
  8
0
  6
Continuous
 62
     7
370
    25
100
AcDbCircle
 10
8.5104819373
 20
73.0249646523
 30
0.0
 40
0.3250000000000171
  0
LINE
  5
223
330
1F
100
AcDbEntity
  8
0
  6
Continuous
 62
     7
370
    25
100
AcDbLine
 10
8.5504819373
 20
73.2755690385
 30
0.0
 11
8.4704819373
 21
73.2755690385
 31
0.0
  0
LINE
  5
224
330
1F
100
AcDbEntity
  8
0
  6
Continuous
 62
     7
370
    25
100
AcDbLine
 10
8.4704819373
 20
73.2755690385
 30
0.0
 11
8.4704819373
 21
73.1165814791
 31
0.0
  0
LINE
  5
225
330
1F
100
AcDbEntity
  8
0
  6
Continuous
 62
     7
370
    25
100
AcDbLine
 10
8.5504819373
 20
73.1165814791
 30
0.0
 11
8.5504819373
 21
73.2755690385
 31
0.0
  0
CIRCLE
  5
226
330
1F
100
AcDbEntity
  8
0
  6
Continuous
 62
     7
370
    25
100
AcDbCircle
 10
8.5104819373
 20
73.0249646523
 30
0.0
 40
0.3300000000000125
  0
ARC
  5
227
330
1F
100
AcDbEntity
  8
0
  6
Continuous
 62
     7
370
    25
100
AcDbCircle
 10
4.1954819373
 20
61.6003646523
 30
0.0
 40
4.625000000000012
100
AcDbArc
 50
345.2061559961
 51
14.7938440039
  0
ARC
  5
228
330
1F
100
AcDbEntity
  8
0
  6
Continuous
 62
     7
370
    25
100
AcDbCircle
 10
8.5704819373
 20
62.7557866531
 30
0.0
 40
0.1000000000000075
100
AcDbArc
 50
14.7938440039
 51
165.2061559961
  0
ARC
  5
229
330
1F
100
AcDbEntity
  8
0
  6
Continuous
 62
     7
370
    25
100
AcDbCircle
 10
12.9454819373
 20
61.6003646523
 30
0.0
 40
4.624999999999999
100
AcDbArc
 50
165.2061559961
 51
194.7938440039
  0
ARC
  5
22A
330
1F
100
AcDbEntity
  8
0
  6
Continuous
 62
     7
370
    25
100
AcDbCircle
 10
8.5704819373
 20
60.4449426515
 30
0.0
 40
0.1000000000000023
100
AcDbArc
 50
194.7938440039
 51
345.2061559961
  0
ARC
  5
22B
330
1F
100
AcDbEntity
  8
0
  6
Continuous
 62
     7
370
    25
100
AcDbCircle
 10
7.5486807637
 20
58.7253646523
 30
0.0
 40
0.3800000000000008
100
AcDbArc
 50
270.0
 51
314.7300204194
  0
LINE
  5
22C
330
1F
100
AcDbEntity
  8
0
  6
Continuous
 62
     7
370
    25
100
AcDbLine
 10
6.0979819373
 20
58.3453646523
 30
0.0
 11
6.0979819373
 21
73.9299646523
 31
0.0
  0
LINE
  5
22D
330
1F
100
AcDbEntity
  8
0
  6
Continuous
 62
     7
370
    25
100
AcDbLine
 10
11.0429819373
 20
73.9299646523
 30
0.0
 11
6.0979819373
 21
73.9299646523
 31
0.0
  0
LINE
  5
22E
330
1F
100
AcDbEntity
  8
0
  6
Continuous
 62
     7
370
    25
100
AcDbLine
 10
11.0429819373
 20
58.3453646523
 30
0.0
 11
11.0429819373
 21
73.9299646523
 31
0.0
  0
LINE
  5
22F
330
1F
100
AcDbEntity
  8
0
  6
Continuous
 62
     7
370
    25
100
AcDbLine
 10
11.0429819373
 20
58.3453646523
 30
0.0
 11
9.5922831109
 21
58.3453646523
 31
0.0
  0
ARC
  5
230
330
1F
100
AcDbEntity
  8
0
  6
Continuous
 62
     7
370
    25
100
AcDbCircle
 10
9.5922831109
 20
58.7253646523
 30
0.0
 40
0.3800000000000026
100
AcDbArc
 50
225.2699795806
 51
270.0
  0
LINE
  5
231
330
1F
100
AcDbEntity
  8
0
  6
Continuous
 62
     7
370
    25
100
AcDbLine
 10
9.3248516383
 20
58.4554009373
 30
0.0
 11
8.9716291463
 21
58.8053102248
 31
0.0
  0
ARC
  5
232
330
1F
100
AcDbEntity
  8
0
  6
Continuous
 62
     7
370
    25
100
AcDbCircle
 10
8.5704819373
 20
58.4003646523
 30
0.0
 40
0.5700000000000063
100
AcDbArc
 50
45.2699795806
 51
134.7300204194
  0
LINE
  5
233
330
1F
100
AcDbEntity
  8
0
  6
Continuous
 62
     7
370
    25
100
AcDbLine
 10
7.8161122364
 20
58.4554009373
 30
0.0
 11
8.1693347283
 21
58.8053102248
 31
0.0
  0
LINE
  5
234
330
1F
100
AcDbEntity
  8
0
  6
Continuous
 62
     7
370
    25
100
AcDbLine
 10
6.0979819373
 20
58.3453646523
 30
0.0
 11
7.5486807637
 21
58.3453646523
 31
0.0
  0
LINE
  5
235
330
1F
100
AcDbEntity
  8
0
  6
Continuous
 62
     7
370
    25
100
AcDbLine
 10
5.8179819373
 20
73.9299646523
 30
0.0
 11
6.0979819373
 21
73.9299646523
 31
0.0
  0
LINE
  5
236
330
1F
100
AcDbEntity
  8
0
  6
Continuous
 62
     7
370
    25
100
AcDbLine
 10
5.8179819373
 20
73.9299646523
 30
0.0
 11
5.8179819373
 21
58.3453646523
 31
0.0
  0
LINE
  5
237
330
1F
100
AcDbEntity
  8
0
  6
Continuous
 62
     7
370
    25
100
AcDbLine
 10
5.8179819373
 20
58.3453646523
 30
0.0
 11
6.0979819373
 21
58.3453646523
 31
0.0
  0
LINE
  5
238
330
1F
100
AcDbEntity
  8
0
  6
Continuous
 62
     7
370
    25
100
AcDbLine
 10
11.3229819373
 20
58.3453646523
 30
0.0
 11
11.0429819373
 21
58.3453646523
 31
0.0
  0
LINE
  5
239
330
1F
100
AcDbEntity
  8
0
  6
Continuous
 62
     7
370
    25
100
AcDbLine
 10
11.3229819373
 20
73.9299646523
 30
0.0
 11
11.0429819373
 21
73.9299646523
 31
0.0
  0
LINE
  5
23A
330
1F
100
AcDbEntity
  8
0
  6
Continuous
 62
     7
370
    25
100
AcDbLine
 10
11.3229819373
 20
73.9299646523
 30
0.0
 11
11.3229819373
 21
58.3453646523
 31
0.0
  0
LINE
  5
23B
330
1F
100
AcDbEntity
  8
0
  6
Continuous
 62
     7
370
    25
100
AcDbLine
 10
6.0979819373
 20
73.9999646523
 30
0.0
 11
6.0979819373
 21
73.9299646523
 31
0.0
  0
LINE
  5
23C
330
1F
100
AcDbEntity
  8
0
  6
Continuous
 62
     7
370
    25
100
AcDbLine
 10
6.0979819373
 20
73.9999646523
 30
0.0
 11
11.0429819373
 21
73.9999646523
 31
0.0
  0
LINE
  5
23D
330
1F
100
AcDbEntity
  8
0
  6
Continuous
 62
     7
370
    25
100
AcDbLine
 10
11.0429819373
 20
73.9999646523
 30
0.0
 11
11.0429819373
 21
73.9299646523
 31
0.0
  0
LINE
  5
23E
330
1F
100
AcDbEntity
  8
0
  6
Continuous
 62
     7
370
    25
100
AcDbLine
 10
6.0652101982
 20
73.9699646523
 30
0.0
 11
6.0652101982
 21
73.9999646523
 31
0.0
  0
LINE
  5
23F
330
1F
100
AcDbEntity
  8
0
  6
Continuous
 62
     7
370
    25
100
AcDbLine
 10
6.0829819373
 20
73.9999646523
 30
0.0
 11
6.0829819373
 21
73.9699646523
 31
0.0
  0
LINE
  5
240
330
1F
100
AcDbEntity
  8
0
  6
Continuous
 62
     7
370
    25
100
AcDbLine
 10
6.0829819373
 20
73.9699646523
 30
0.0
 11
6.0652101982
 21
73.9699646523
 31
0.0
  0
LINE
  5
241
330
1F
100
AcDbEntity
  8
0
  6
Continuous
 62
     7
370
    25
100
AcDbLine
 10
6.0652101982
 20
73.9999646523
 30
0.0
 11
6.0829819373
 21
73.9999646523
 31
0.0
  0
LINE
  5
242
330
1F
100
AcDbEntity
  8
0
  6
Continuous
 62
     7
370
    25
100
AcDbLine
 10
11.0579819373
 20
73.9699646523
 30
0.0
 11
11.0579819373
 21
73.9999646523
 31
0.0
  0
LINE
  5
243
330
1F
100
AcDbEntity
  8
0
  6
Continuous
 62
     7
370
    25
100
AcDbLine
 10
11.0757536765
 20
73.9999646523
 30
0.0
 11
11.0757536765
 21
73.9699646523
 31
0.0
  0
LINE
  5
244
330
1F
100
AcDbEntity
  8
0
  6
Continuous
 62
     7
370
    25
100
AcDbLine
 10
11.0757536765
 20
73.9699646523
 30
0.0
 11
11.0579819373
 21
73.9699646523
 31
0.0
  0
LINE
  5
245
330
1F
100
AcDbEntity
  8
0
  6
Continuous
 62
     7
370
    25
100
AcDbLine
 10
11.0579819373
 20
73.9999646523
 30
0.0
 11
11.0757536765
 21
73.9999646523
 31
0.0
  0
LINE
  5
246
330
1F
100
AcDbEntity
  8
0
  6
Continuous
 62
     7
370
    25
100
AcDbLine
 10
5.8660035228
 20
73.9999646523
 30
0.0
 11
5.8660035228
 21
73.9699646523
 31
0.0
  0
LINE
  5
247
330
1F
100
AcDbEntity
  8
0
  6
Continuous
 62
     7
370
    25
100
AcDbLine
 10
6.0652101982
 20
73.9699646523
 30
0.0
 11
5.8660035228
 21
73.9699646523
 31
0.0
  0
LINE
  5
248
330
1F
100
AcDbEntity
  8
0
  6
Continuous
 62
     7
370
    25
100
AcDbLine
 10
6.0652101982
 20
73.9999646523
 30
0.0
 11
5.8660035228
 21
73.9999646523
 31
0.0
  0
LINE
  5
249
330
1F
100
AcDbEntity
  8
0
  6
Continuous
 62
     7
370
    25
100
AcDbLine
 10
11.2749603519
 20
73.9699646523
 30
0.0
 11
11.2749603519
 21
73.9999646523
 31
0.0
  0
LINE
  5
24A
330
1F
100
AcDbEntity
  8
0
  6
Continuous
 62
     7
370
    25
100
AcDbLine
 10
11.0757536765
 20
73.9699646523
 30
0.0
 11
11.2749603519
 21
73.9699646523
 31
0.0
  0
LINE
  5
24B
330
1F
100
AcDbEntity
  8
0
  6
Continuous
 62
     7
370
    25
100
AcDbLine
 10
11.0757536765
 20
73.9999646523
 30
0.0
 11
11.2749603519
 21
73.9999646523
 31
0.0
  0
LINE
  5
24C
330
1F
100
AcDbEntity
  8
0
  6
Continuous
 62
     7
370
    25
100
AcDbLine
 10
6.0979819373
 20
73.9699646523
 30
0.0
 11
6.0829819373
 21
73.9699646523
 31
0.0
  0
LINE
  5
24D
330
1F
100
AcDbEntity
  8
0
  6
Continuous
 62
     7
370
    25
100
AcDbLine
 10
6.0979819373
 20
73.9999646523
 30
0.0
 11
6.0829819373
 21
73.9999646523
 31
0.0
  0
LINE
  5
24E
330
1F
100
AcDbEntity
  8
0
  6
Continuous
 62
     7
370
    25
100
AcDbLine
 10
11.0429819373
 20
73.9699646523
 30
0.0
 11
11.0579819373
 21
73.9699646523
 31
0.0
  0
LINE
  5
24F
330
1F
100
AcDbEntity
  8
0
  6
Continuous
 62
     7
370
    25
100
AcDbLine
 10
11.0429819373
 20
73.9999646523
 30
0.0
 11
11.0579819373
 21
73.9999646523
 31
0.0
  0
LINE
  5
250
330
1F
100
AcDbEntity
  8
0
  6
Continuous
 62
     7
370
    25
100
AcDbLine
 10
5.8660035228
 20
73.9699646523
 30
0.0
 11
5.865971589
 21
73.9699646523
 31
0.0
  0
LINE
  5
251
330
1F
100
AcDbEntity
  8
0
  6
Continuous
 62
     7
370
    25
100
AcDbLine
 10
5.865971589
 20
73.9999646523
 30
0.0
 11
5.8660035228
 21
73.9999646523
 31
0.0
  0
LINE
  5
252
330
1F
100
AcDbEntity
  8
0
  6
Continuous
 62
     7
370
    25
100
AcDbLine
 10
11.2749922857
 20
73.9699646523
 30
0.0
 11
11.2749603519
 21
73.9699646523
 31
0.0
  0
LINE
  5
253
330
1F
100
AcDbEntity
  8
0
  6
Continuous
 62
     7
370
    25
100
AcDbLine
 10
11.2749603519
 20
73.9999646523
 30
0.0
 11
11.2749922857
 21
73.9999646523
 31
0.0
  0
ARC
  5
254
330
1F
100
AcDbEntity
  8
0
  6
Continuous
 62
     7
370
    25
100
AcDbCircle
 10
5.9229819373
 20
73.9299646523
 30
0.0
 40
0.0400000000000205
100
AcDbArc
 50
90.0
 51
180.0
  0
ARC
  5
255
330
1F
100
AcDbEntity
  8
0
  6
Continuous
 62
     7
370
    25
100
AcDbCircle
 10
5.9229819373
 20
73.9299646523
 30
0.0
 40
0.0700000000000046
100
AcDbArc
 50
144.5313908342
 51
180.0
  0
ARC
  5
256
330
1F
100
AcDbEntity
  8
0
  6
Continuous
 62
     7
370
    25
100
AcDbCircle
 10
11.2179819373
 20
73.9299646523
 30
0.0
 40
0.0700000000000023
100
AcDbArc
 50
0.0
 51
35.4686091658
  0
ARC
  5
257
330
1F
100
AcDbEntity
  8
0
  6
Continuous
 62
     7
370
    25
100
AcDbCircle
 10
11.2179819373
 20
73.9299646523
 30
0.0
 40
0.0399999999999991
100
AcDbArc
 50
0.0
 51
90.0
  0
LINE
  5
258
330
1F
100
AcDbEntity
  8
0
  6
Continuous
 62
     7
370
    25
100
AcDbLine
 10
11.1654819373
 20
57.0855526738
 30
0.0
 11
11.1654819373
 21
57.6278454144
 31
0.0
  0
LINE
  5
259
330
1F
100
AcDbEntity
  8
0
  6
Continuous
 62
     7
370
    25
100
AcDbLine
 10
11.1654819373
 20
57.0855526738
 30
0.0
 11
11.1354819373
 21
57.0855526738
 31
0.0
  0
LINE
  5
25A
330
1F
100
AcDbEntity
  8
0
  6
Continuous
 62
     7
370
    25
100
AcDbLine
 10
11.1354819373
 20
57.0855526738
 30
0.0
 11
9.1143533861
 21
57.0855526738
 31
0.0
  0
LINE
  5
25B
330
1F
100
AcDbEntity
  8
0
  6
Continuous
 62
     7
370
    25
100
AcDbLine
 10
9.4343184525
 20
57.5287726204
 30
0.0
 11
9.1143533861
 21
57.0855526738
 31
0.0
  0
ARC
  5
25C
330
1F
100
AcDbEntity
  8
0
  6
Continuous
 62
     7
370
    25
100
AcDbCircle
 10
9.6848593397
 20
57.2665701128
 30
0.0
 40
0.3626580912702309
100
AcDbArc
 50
84.9949882626
 51
133.6971134802
  0
LINE
  5
25D
330
1F
100
AcDbEntity
  8
0
  6
Continuous
 62
     7
370
    25
100
AcDbLine
 10
11.1654819373
 20
57.6278454144
 30
0.0
 11
9.7164986764
 21
57.6278454144
 31
0.0
  0
ARC
  5
25E
330
1F
100
AcDbEntity
  8
0
  6
Continuous
 62
     7
370
    25
100
AcDbCircle
 10
11.1698569373
 20
57.6935190075
 30
0.0
 40
0.0658191572289762
100
AcDbArc
 50
266.1887389505
 51
355.5980503477
  0
LINE
  5
25F
330
1F
100
AcDbEntity
  8
0
  6
Continuous
 62
     7
370
    25
100
AcDbLine
 10
11.2354819373
 20
57.6884671927
 30
0.0
 11
11.2354819373
 21
57.1461744521
 31
0.0
  0
ARC
  5
260
330
1F
100
AcDbEntity
  8
0
  6
Continuous
 62
     7
370
    25
100
AcDbCircle
 10
11.1698569373
 20
57.1512262669
 30
0.0
 40
0.0658191572289907
100
AcDbArc
 50
266.1887389505
 51
355.5980503477
  0
LINE
  5
261
330
1F
100
AcDbEntity
  8
0
  6
Continuous
 62
     7
370
    25
100
AcDbLine
 10
7.4244651983
 20
57.6538261765
 30
0.0
 11
7.4244651983
 21
57.6278454144
 31
0.0
  0
ARC
  5
262
330
1F
100
AcDbEntity
  8
0
  6
Continuous
 62
     7
370
    25
100
AcDbCircle
 10
7.4561045349
 20
57.2925508749
 30
0.0
 40
0.3626580912702718
100
AcDbArc
 50
46.3028865198
 51
95.0050117374
  0
LINE
  5
263
330
1F
100
AcDbEntity
  8
0
  6
Continuous
 62
     7
370
    25
100
AcDbLine
 10
7.7066454222
 20
57.5287726204
 30
0.0
 11
7.7066454222
 21
57.5547533825
 31
0.0
  0
ARC
  5
264
330
1F
100
AcDbEntity
  8
0
  6
Continuous
 62
     7
370
    25
100
AcDbCircle
 10
7.4561045349
 20
57.2665701128
 30
0.0
 40
0.3626580912702515
100
AcDbArc
 50
46.3028865198
 51
95.0050117374
  0
LINE
  5
265
330
1F
100
AcDbEntity
  8
0
  6
Continuous
 62
     7
370
    25
100
AcDbLine
 10
9.4343184525
 20
57.5287726204
 30
0.0
 11
9.4343184525
 21
57.5547533825
 31
0.0
  0
ARC
  5
266
330
1F
100
AcDbEntity
  8
0
  6
Continuous
 62
     7
370
    25
100
AcDbCircle
 10
9.6848593397
 20
57.2925508749
 30
0.0
 40
0.3626580912702719
100
AcDbArc
 50
84.9949882626
 51
133.6971134802
  0
LINE
  5
267
330
1F
100
AcDbEntity
  8
0
  6
Continuous
 62
     7
370
    25
100
AcDbLine
 10
9.7164986764
 20
57.6538261765
 30
0.0
 11
9.7164986764
 21
57.6278454144
 31
0.0
  0
ARC
  5
268
330
1F
100
AcDbEntity
  8
0
  6
Continuous
 62
     7
370
    25
100
AcDbCircle
 10
5.9729819373
 20
57.691353944
 30
0.0
 40
0.0376109469879808
100
AcDbArc
 50
184.4019496523
 51
273.8112610495
  0
LINE
  5
269
330
1F
100
AcDbEntity
  8
0
  6
Continuous
 62
     7
370
    25
100
AcDbLine
 10
5.9754819373
 20
57.6538261765
 30
0.0
 11
5.9754819373
 21
57.6278454144
 31
0.0
  0
ARC
  5
26A
330
1F
100
AcDbEntity
  8
0
  6
Continuous
 62
     7
370
    25
100
AcDbCircle
 10
5.9711069373
 20
57.6935190075
 30
0.0
 40
0.0658191572289762
100
AcDbArc
 50
184.4019496523
 51
273.8112610495
  0
LINE
  5
26B
330
1F
100
AcDbEntity
  8
0
  6
Continuous
 62
     7
370
    25
100
AcDbLine
 10
5.9354819373
 20
57.6884671927
 30
0.0
 11
5.9054819373
 21
57.6884671927
 31
0.0
  0
LINE
  5
26C
330
1F
100
AcDbEntity
  8
0
  6
Continuous
 62
     7
370
    25
100
AcDbLine
 10
11.1654819373
 20
57.6538261765
 30
0.0
 11
11.1654819373
 21
57.6278454144
 31
0.0
  0
ARC
  5
26D
330
1F
100
AcDbEntity
  8
0
  6
Continuous
 62
     7
370
    25
100
AcDbCircle
 10
11.1679819373
 20
57.691353944
 30
0.0
 40
0.0376109469879835
100
AcDbArc
 50
266.1887389505
 51
355.5980503477
  0
LINE
  5
26E
330
1F
100
AcDbEntity
  8
0
  6
Continuous
 62
     7
370
    25
100
AcDbLine
 10
11.2054819373
 20
57.6884671927
 30
0.0
 11
11.2354819373
 21
57.6884671927
 31
0.0
  0
ARC
  5
26F
330
1F
100
AcDbEntity
  8
0
  6
Continuous
 62
     7
370
    25
100
AcDbCircle
 10
5.9711069373
 20
57.1512262669
 30
0.0
 40
0.0658191572289906
100
AcDbArc
 50
184.4019496523
 51
273.8112610495
  0
LINE
  5
270
330
1F
100
AcDbEntity
  8
0
  6
Continuous
 62
     7
370
    25
100
AcDbLine
 10
5.9054819373
 20
57.6884671927
 30
0.0
 11
5.9054819373
 21
57.1461744521
 31
0.0
  0
LINE
  5
271
330
1F
100
AcDbEntity
  8
0
  6
Continuous
 62
     7
370
    25
100
AcDbLine
 10
5.9754819373
 20
57.0855526738
 30
0.0
 11
5.9754819373
 21
57.6278454144
 31
0.0
  0
LINE
  5
272
330
1F
100
AcDbEntity
  8
0
  6
Continuous
 62
     7
370
    25
100
AcDbLine
 10
7.7066454222
 20
57.5287726204
 30
0.0
 11
8.0266104886
 21
57.0855526738
 31
0.0
  0
LINE
  5
273
330
1F
100
AcDbEntity
  8
0
  6
Continuous
 62
     7
370
    25
100
AcDbLine
 10
6.0054819373
 20
57.0855526738
 30
0.0
 11
8.0266104886
 21
57.0855526738
 31
0.0
  0
LINE
  5
274
330
1F
100
AcDbEntity
  8
0
  6
Continuous
 62
     7
370
    25
100
AcDbLine
 10
5.9754819373
 20
57.0855526738
 30
0.0
 11
6.0054819373
 21
57.0855526738
 31
0.0
  0
LINE
  5
275
330
1F
100
AcDbEntity
  8
0
  6
Continuous
 62
     7
370
    25
100
AcDbLine
 10
5.9754819373
 20
57.6278454144
 30
0.0
 11
7.4244651983
 21
57.6278454144
 31
0.0
  0
LINE
  5
276
330
1F
100
AcDbEntity
  8
0
  6
Continuous
 62
     7
370
    25
100
AcDbLine
 10
11.1654819373
 20
57.6538261765
 30
0.0
 11
9.7164986764
 21
57.6538261765
 31
0.0
  0
LINE
  5
277
330
1F
100
AcDbEntity
  8
0
  6
Continuous
 62
     7
370
    25
100
AcDbLine
 10
5.9754819373
 20
57.6538261765
 30
0.0
 11
7.4244651983
 21
57.6538261765
 31
0.0
  0
LINE
  5
278
330
1F
100
AcDbEntity
  8
0
  6
Continuous
 62
     7
370
    25
100
AcDbLine
 10
5.9054819373
 20
57.7365646103
 30
0.0
 11
5.9354819373
 21
57.7365646103
 31
0.0
  0
LINE
  5
279
330
1F
100
AcDbEntity
  8
0
  6
Continuous
 62
     7
370
    25
100
AcDbLine
 10
5.9054819373
 20
57.7365646103
 30
0.0
 11
5.9054819373
 21
57.6884671927
 31
0.0
  0
LINE
  5
27A
330
1F
100
AcDbEntity
  8
0
  6
Continuous
 62
     7
370
    25
100
AcDbLine
 10
5.9354819373
 20
57.7365646103
 30
0.0
 11
5.9354819373
 21
57.6884671927
 31
0.0
  0
LINE
  5
27B
330
1F
100
AcDbEntity
  8
0
  6
Continuous
 62
     7
370
    25
100
AcDbLine
 10
11.2054819373
 20
57.7365646103
 30
0.0
 11
11.2054819373
 21
57.6884671927
 31
0.0
  0
LINE
  5
27C
330
1F
100
AcDbEntity
  8
0
  6
Continuous
 62
     7
370
    25
100
AcDbLine
 10
11.2354819373
 20
57.7365646103
 30
0.0
 11
11.2054819373
 21
57.7365646103
 31
0.0
  0
LINE
  5
27D
330
1F
100
AcDbEntity
  8
0
  6
Continuous
 62
     7
370
    25
100
AcDbLine
 10
11.2354819373
 20
57.7365646103
 30
0.0
 11
11.2354819373
 21
57.6884671927
 31
0.0
  0
LINE
  5
27E
330
1F
100
AcDbEntity
  8
0
  6
Continuous
 62
     7
370
    25
100
AcDbLine
 10
11.2054819373
 20
57.8015646103
 30
0.0
 11
11.2354819373
 21
57.8015646103
 31
0.0
  0
LINE
  5
27F
330
1F
100
AcDbEntity
  8
0
  6
Continuous
 62
     7
370
    25
100
AcDbLine
 10
11.2354819373
 20
57.8015646103
 30
0.0
 11
11.2354819373
 21
57.7365646103
 31
0.0
  0
LINE
  5
280
330
1F
100
AcDbEntity
  8
0
  6
Continuous
 62
     7
370
    25
100
AcDbLine
 10
11.2054819373
 20
57.7365646103
 30
0.0
 11
11.2054819373
 21
57.8015646103
 31
0.0
  0
LINE
  5
281
330
1F
100
AcDbEntity
  8
0
  6
Continuous
 62
     7
370
    25
100
AcDbLine
 10
5.9354819373
 20
57.8015646103
 30
0.0
 11
5.9054819373
 21
57.8015646103
 31
0.0
  0
LINE
  5
282
330
1F
100
AcDbEntity
  8
0
  6
Continuous
 62
     7
370
    25
100
AcDbLine
 10
5.9054819373
 20
57.8015646103
 30
0.0
 11
5.9054819373
 21
57.7365646103
 31
0.0
  0
LINE
  5
283
330
1F
100
AcDbEntity
  8
0
  6
Continuous
 62
     7
370
    25
100
AcDbLine
 10
5.9354819373
 20
57.7365646103
 30
0.0
 11
5.9354819373
 21
57.8015646103
 31
0.0
  0
LINE
  5
284
330
1F
100
AcDbEntity
  8
0
  6
Continuous
 62
     7
370
    25
100
AcDbLine
 10
5.8704819373
 20
57.6234671927
 30
0.0
 11
5.9004819373
 21
57.6234671927
 31
0.0
  0
LINE
  5
285
330
1F
100
AcDbEntity
  8
0
  6
Continuous
 62
     7
370
    25
100
AcDbLine
 10
5.8704819373
 20
57.7969204627
 30
0.0
 11
5.8704819373
 21
57.6234671927
 31
0.0
  0
LINE
  5
286
330
1F
100
AcDbEntity
  8
0
  6
Continuous
 62
     7
370
    25
100
AcDbLine
 10
5.8704819373
 20
57.7969204627
 30
0.0
 11
5.9004819373
 21
57.7969204627
 31
0.0
  0
LINE
  5
287
330
1F
100
AcDbEntity
  8
0
  6
Continuous
 62
     7
370
    25
100
AcDbLine
 10
5.9004819373
 20
57.6234671927
 30
0.0
 11
5.9004819373
 21
57.7969204627
 31
0.0
  0
LINE
  5
288
330
1F
100
AcDbEntity
  8
0
  6
Continuous
 62
     7
370
    25
100
AcDbLine
 10
11.2704819373
 20
57.7969204627
 30
0.0
 11
11.2404819373
 21
57.7969204627
 31
0.0
  0
LINE
  5
289
330
1F
100
AcDbEntity
  8
0
  6
Continuous
 62
     7
370
    25
100
AcDbLine
 10
11.2704819373
 20
57.6234671927
 30
0.0
 11
11.2404819373
 21
57.6234671927
 31
0.0
  0
LINE
  5
28A
330
1F
100
AcDbEntity
  8
0
  6
Continuous
 62
     7
370
    25
100
AcDbLine
 10
11.2404819373
 20
57.6234671927
 30
0.0
 11
11.2404819373
 21
57.7969204627
 31
0.0
  0
LINE
  5
28B
330
1F
100
AcDbEntity
  8
0
  6
Continuous
 62
     7
370
    25
100
AcDbLine
 10
11.2704819373
 20
57.7969204627
 30
0.0
 11
11.2704819373
 21
57.6234671927
 31
0.0
  0
LINE
  5
28C
330
1F
100
AcDbEntity
  8
0
  6
Continuous
 62
     7
370
    25
100
AcDbLine
 10
5.9004819373
 20
57.8539004741
 30
0.0
 11
5.8704819373
 21
57.8539004741
 31
0.0
  0
LINE
  5
28D
330
1F
100
AcDbEntity
  8
0
  6
Continuous
 62
     7
370
    25
100
AcDbLine
 10
5.8704819373
 20
57.8539004741
 30
0.0
 11
5.8704819373
 21
57.7969204627
 31
0.0
  0
LINE
  5
28E
330
1F
100
AcDbEntity
  8
0
  6
Continuous
 62
     7
370
    25
100
AcDbLine
 10
5.9004819373
 20
57.7969204627
 30
0.0
 11
5.9004819373
 21
57.8539004741
 31
0.0
  0
LINE
  5
28F
330
1F
100
AcDbEntity
  8
0
  6
Continuous
 62
     7
370
    25
100
AcDbLine
 10
11.2404819373
 20
57.8539004741
 30
0.0
 11
11.2704819373
 21
57.8539004741
 31
0.0
  0
LINE
  5
290
330
1F
100
AcDbEntity
  8
0
  6
Continuous
 62
     7
370
    25
100
AcDbLine
 10
11.2404819373
 20
57.7969204627
 30
0.0
 11
11.2404819373
 21
57.8539004741
 31
0.0
  0
LINE
  5
291
330
1F
100
AcDbEntity
  8
0
  6
Continuous
 62
     7
370
    25
100
AcDbLine
 10
11.2704819373
 20
57.8539004741
 30
0.0
 11
11.2704819373
 21
57.7969204627
 31
0.0
  0
LINE
  5
292
330
1F
100
AcDbEntity
  8
0
  6
Continuous
 62
     7
370
    25
100
AcDbLine
 10
11.2404819373
 20
57.1837022196
 30
0.0
 11
11.2704819373
 21
57.1837022196
 31
0.0
  0
LINE
  5
293
330
1F
100
AcDbEntity
  8
0
  6
Continuous
 62
     7
370
    25
100
AcDbLine
 10
11.2404819373
 20
57.6234671927
 30
0.0
 11
11.2404819373
 21
57.1837022196
 31
0.0
  0
LINE
  5
294
330
1F
100
AcDbEntity
  8
0
  6
Continuous
 62
     7
370
    25
100
AcDbLine
 10
11.2704819373
 20
57.6234671927
 30
0.0
 11
11.2704819373
 21
57.1837022196
 31
0.0
  0
LINE
  5
295
330
1F
100
AcDbEntity
  8
0
  6
Continuous
 62
     7
370
    25
100
AcDbLine
 10
5.9004819373
 20
57.1837022196
 30
0.0
 11
5.8704819373
 21
57.1837022196
 31
0.0
  0
LINE
  5
296
330
1F
100
AcDbEntity
  8
0
  6
Continuous
 62
     7
370
    25
100
AcDbLine
 10
5.8704819373
 20
57.6234671927
 30
0.0
 11
5.8704819373
 21
57.1837022196
 31
0.0
  0
LINE
  5
297
330
1F
100
AcDbEntity
  8
0
  6
Continuous
 62
     7
370
    25
100
AcDbLine
 10
5.9004819373
 20
57.6234671927
 30
0.0
 11
5.9004819373
 21
57.1837022196
 31
0.0
  0
LINE
  5
298
330
1F
100
AcDbEntity
  8
0
  6
Continuous
 62
     7
370
    25
100
AcDbLine
 10
8.0266104886
 20
57.0855526738
 30
0.0
 11
8.0266104886
 21
57.1115334359
 31
0.0
  0
LINE
  5
299
330
1F
100
AcDbEntity
  8
0
  6
Continuous
 62
     7
370
    25
100
AcDbLine
 10
7.7066454222
 20
57.5547533825
 30
0.0
 11
8.0266104886
 21
57.1115334359
 31
0.0
  0
LINE
  5
29A
330
1F
100
AcDbEntity
  8
0
  6
Continuous
 62
     7
370
    25
100
AcDbLine
 10
9.1143533861
 20
57.0855526738
 30
0.0
 11
9.1143533861
 21
57.1115334359
 31
0.0
  0
LINE
  5
29B
330
1F
100
AcDbEntity
  8
0
  6
Continuous
 62
     7
370
    25
100
AcDbLine
 10
9.4343184525
 20
57.5547533825
 30
0.0
 11
9.1143533861
 21
57.1115334359
 31
0.0
  0
LINE
  5
29C
330
1F
100
AcDbEntity
  8
0
  6
Continuous
 62
     7
370
    25
100
AcDbLine
 10
11.2404819373
 20
57.8578393066
 30
0.0
 11
11.2704819373
 21
57.8578393066
 31
0.0
  0
LINE
  5
29D
330
1F
100
AcDbEntity
  8
0
  6
Continuous
 62
     7
370
    25
100
AcDbLine
 10
11.2404819373
 20
57.8578393066
 30
0.0
 11
11.2404819373
 21
57.8539004741
 31
0.0
  0
LINE
  5
29E
330
1F
100
AcDbEntity
  8
0
  6
Continuous
 62
     7
370
    25
100
AcDbLine
 10
11.2704819373
 20
57.8539004741
 30
0.0
 11
11.2704819373
 21
57.8578393066
 31
0.0
  0
LINE
  5
29F
330
1F
100
AcDbEntity
  8
0
  6
Continuous
 62
     7
370
    25
100
AcDbLine
 10
5.9004819373
 20
57.8578393066
 30
0.0
 11
5.8704819373
 21
57.8578393066
 31
0.0
  0
LINE
  5
2A0
330
1F
100
AcDbEntity
  8
0
  6
Continuous
 62
     7
370
    25
100
AcDbLine
 10
5.8704819373
 20
57.8539004741
 30
0.0
 11
5.8704819373
 21
57.8578393066
 31
0.0
  0
LINE
  5
2A1
330
1F
100
AcDbEntity
  8
0
  6
Continuous
 62
     7
370
    25
100
AcDbLine
 10
5.9004819373
 20
57.8578393066
 30
0.0
 11
5.9004819373
 21
57.8539004741
 31
0.0
  0
LINE
  5
2A2
330
1F
100
AcDbEntity
  8
0
  6
Continuous
 62
     7
370
    25
100
AcDbLine
 10
11.2404819373
 20
57.8750473403
 30
0.0
 11
11.2704819373
 21
57.8750473403
 31
0.0
  0
LINE
  5
2A3
330
1F
100
AcDbEntity
  8
0
  6
Continuous
 62
     7
370
    25
100
AcDbLine
 10
11.2404819373
 20
57.8750473403
 30
0.0
 11
11.2404819373
 21
57.8578393066
 31
0.0
  0
LINE
  5
2A4
330
1F
100
AcDbEntity
  8
0
  6
Continuous
 62
     7
370
    25
100
AcDbLine
 10
11.2704819373
 20
57.8578393066
 30
0.0
 11
11.2704819373
 21
57.8750473403
 31
0.0
  0
LINE
  5
2A5
330
1F
100
AcDbEntity
  8
0
  6
Continuous
 62
     7
370
    25
100
AcDbLine
 10
5.9004819373
 20
57.8750473403
 30
0.0
 11
5.8704819373
 21
57.8750473403
 31
0.0
  0
LINE
  5
2A6
330
1F
100
AcDbEntity
  8
0
  6
Continuous
 62
     7
370
    25
100
AcDbLine
 10
5.8704819373
 20
57.8578393066
 30
0.0
 11
5.8704819373
 21
57.8750473403
 31
0.0
  0
LINE
  5
2A7
330
1F
100
AcDbEntity
  8
0
  6
Continuous
 62
     7
370
    25
100
AcDbLine
 10
5.9004819373
 20
57.8750473403
 30
0.0
 11
5.9004819373
 21
57.8578393066
 31
0.0
  0
ARC
  5
2A8
330
1F
100
AcDbEntity
  8
0
  6
Continuous
 62
     7
370
    25
100
AcDbCircle
 10
6.3705178524
 20
58.448637314
 30
0.0
 40
0.2031744325534098
100
AcDbArc
 50
210.5503643238
 51
271.7443325654
  0
ARC
  5
2A9
330
1F
100
AcDbEntity
  8
0
  6
Continuous
 62
     7
370
    25
100
AcDbCircle
 10
6.7788641741
 20
58.448637314
 30
0.0
 40
0.2031744325534106
100
AcDbArc
 50
268.2556674346
 51
329.4496356762
  0
LINE
  5
2AA
330
1F
100
AcDbEntity
  8
0
  6
Continuous
 62
     7
370
    25
100
AcDbLine
 10
6.3767024098
 20
58.2455570312
 30
0.0
 11
6.7726796167
 21
58.2455570312
 31
0.0
  0
ARC
  5
2AB
330
1F
100
AcDbEntity
  8
0
  6
Continuous
 62
     7
370
    25
100
AcDbCircle
 10
10.3620997006
 20
58.448637314
 30
0.0
 40
0.2031744325533869
100
AcDbArc
 50
210.5503643238
 51
271.7443325654
  0
ARC
  5
2AC
330
1F
100
AcDbEntity
  8
0
  6
Continuous
 62
     7
370
    25
100
AcDbCircle
 10
10.7704460222
 20
58.448637314
 30
0.0
 40
0.2031744325534066
100
AcDbArc
 50
268.2556674346
 51
329.4496356762
  0
LINE
  5
2AD
330
1F
100
AcDbEntity
  8
0
  6
Continuous
 62
     7
370
    25
100
AcDbLine
 10
10.7642614649
 20
58.2455570312
 30
0.0
 11
10.3682842579
 21
58.2455570312
 31
0.0
  0
LINE
  5
2AE
330
1F
100
AcDbEntity
  8
0
  6
Continuous
 62
     7
370
    25
100
AcDbLine
 10
5.8704819373
 20
57.1837022196
 30
0.0
 11
5.8704819373
 21
57.1662855221
 31
0.0
  0
LINE
  5
2AF
330
1F
100
AcDbEntity
  8
0
  6
Continuous
 62
     7
370
    25
100
AcDbLine
 10
5.9004819373
 20
57.1662855221
 30
0.0
 11
5.9004819373
 21
57.1837022196
 31
0.0
  0
LINE
  5
2B0
330
1F
100
AcDbEntity
  8
0
  6
Continuous
 62
     7
370
    25
100
AcDbLine
 10
11.2404819373
 20
57.1662855221
 30
0.0
 11
11.2404819373
 21
57.1837022196
 31
0.0
  0
LINE
  5
2B1
330
1F
100
AcDbEntity
  8
0
  6
Continuous
 62
     7
370
    25
100
AcDbLine
 10
11.2704819373
 20
57.1837022196
 30
0.0
 11
11.2704819373
 21
57.1662855221
 31
0.0
  0
LINE
  5
2B2
330
1F
100
AcDbEntity
  8
0
  6
Continuous
 62
     7
370
    25
100
AcDbLine
 10
11.2404819373
 20
58.0250048568
 30
0.0
 11
11.2704819373
 21
58.0250048568
 31
0.0
  0
LINE
  5
2B3
330
1F
100
AcDbEntity
  8
0
  6
Continuous
 62
     7
370
    25
100
AcDbLine
 10
11.2404819373
 20
58.0250048568
 30
0.0
 11
11.2404819373
 21
57.8750473403
 31
0.0
  0
LINE
  5
2B4
330
1F
100
AcDbEntity
  8
0
  6
Continuous
 62
     7
370
    25
100
AcDbLine
 10
11.2704819373
 20
57.8750473403
 30
0.0
 11
11.2704819373
 21
58.0250048568
 31
0.0
  0
LINE
  5
2B5
330
1F
100
AcDbEntity
  8
0
  6
Continuous
 62
     7
370
    25
100
AcDbLine
 10
5.9004819373
 20
58.0250048568
 30
0.0
 11
5.8704819373
 21
58.0250048568
 31
0.0
  0
LINE
  5
2B6
330
1F
100
AcDbEntity
  8
0
  6
Continuous
 62
     7
370
    25
100
AcDbLine
 10
5.8704819373
 20
57.8750473403
 30
0.0
 11
5.8704819373
 21
58.0250048568
 31
0.0
  0
LINE
  5
2B7
330
1F
100
AcDbEntity
  8
0
  6
Continuous
 62
     7
370
    25
100
AcDbLine
 10
5.9004819373
 20
58.0250048568
 30
0.0
 11
5.9004819373
 21
57.8750473403
 31
0.0
  0
LWPOLYLINE
  5
2B8
330
1F
100
AcDbEntity
  8
0
  6
Continuous
 62
     7
370
    25
100
AcDbPolyline
 90
        4
 70
   128
 43
0.0
 10
9.1143533861
 20
57.0855526738
 10
9.1080384747
 20
57.0772446099
 10
9.1017222314
 20
57.0772251149
 10
9.095378219
 20
57.0855526738
  0
LINE
  5
2B9
330
1F
100
AcDbEntity
  8
0
  6
Continuous
 62
     7
370
    25
100
AcDbLine
 10
9.095378219
 20
57.1115334359
 30
0.0
 11
9.095378219
 21
57.0855526738
 31
0.0
  0
LWPOLYLINE
  5
2BA
330
1F
100
AcDbEntity
  8
0
  6
Continuous
 62
     7
370
    25
100
AcDbPolyline
 90
        4
 70
   128
 43
0.0
 10
9.1143533861
 20
57.1115334359
 10
9.1078947375
 20
57.1067319358
 10
9.1011794094
 20
57.1069993322
 10
9.095378219
 20
57.1115334359
  0
LINE
  5
2BB
330
1F
100
AcDbEntity
  8
0
  6
Continuous
 62
     7
370
    25
100
AcDbLine
 10
6.0054819373
 20
57.0855526738
 30
0.0
 11
6.0054819373
 21
57.0761744521
 31
0.0
  0
LWPOLYLINE
  5
2BC
330
1F
100
AcDbEntity
  8
0
  6
Continuous
 62
     7
370
    25
100
AcDbPolyline
 90
        4
 70
   128
 43
0.0
 10
8.0266104886
 20
57.0855526738
 10
8.0329254
 20
57.0772446099
 10
8.0392416432
 20
57.0772251149
 10
8.0455856556
 20
57.0855526738
  0
LWPOLYLINE
  5
2BD
330
1F
100
AcDbEntity
  8
0
  6
Continuous
 62
     7
370
    25
100
AcDbPolyline
 90
        4
 70
   128
 43
0.0
 10
8.0266104886
 20
57.1115334359
 10
8.0330691372
 20
57.1067319358
 10
8.0397844653
 20
57.1069993322
 10
8.0455856556
 20
57.1115334359
  0
LINE
  5
2BE
330
1F
100
AcDbEntity
  8
0
  6
Continuous
 62
     7
370
    25
100
AcDbLine
 10
8.0455856556
 20
57.1115334359
 30
0.0
 11
8.0455856556
 21
57.0855526738
 31
0.0
  0
LINE
  5
2BF
330
1F
100
AcDbEntity
  8
0
  6
Continuous
 62
     7
370
    25
100
AcDbLine
 10
11.1354819373
 20
57.0855526738
 30
0.0
 11
11.1354819373
 21
57.0761744521
 31
0.0
  0
LINE
  5
2C0
330
1F
100
AcDbEntity
  8
0
  6
Continuous
 62
     7
370
    25
100
AcDbLine
 10
9.095378219
 20
57.1115334359
 30
0.0
 11
9.060039009
 21
57.1604857886
 31
0.0
  0
ARC
  5
2C1
330
1F
100
AcDbEntity
  8
0
  6
Continuous
 62
     7
370
    25
100
AcDbCircle
 10
8.8094981218
 20
56.898283281
 30
0.0
 40
0.3626580912702247
100
AcDbArc
 50
46.3028865198
 51
95.0050117374
  0
LINE
  5
2C2
330
1F
100
AcDbEntity
  8
0
  6
Continuous
 62
     7
370
    25
100
AcDbLine
 10
8.3631050895
 20
57.2595585826
 30
0.0
 11
8.7778587851
 21
57.2595585826
 31
0.0
  0
ARC
  5
2C3
330
1F
100
AcDbEntity
  8
0
  6
Continuous
 62
     7
370
    25
100
AcDbCircle
 10
8.3314657529
 20
56.898283281
 30
0.0
 40
0.3626580912702247
100
AcDbArc
 50
84.9949882626
 51
133.6971134802
  0
LINE
  5
2C4
330
1F
100
AcDbEntity
  8
0
  6
Continuous
 62
     7
370
    25
100
AcDbLine
 10
8.0455856556
 20
57.1115334359
 30
0.0
 11
8.0809248656
 21
57.1604857886
 31
0.0
  0
LWPOLYLINE
  5
2C5
330
1F
100
AcDbEntity
  8
0
  6
Continuous
 62
     7
370
    25
100
AcDbPolyline
 90
        8
 70
   128
 43
0.0
 10
5.9054819373
 20
57.1230526738
 10
5.9069230413
 20
57.1157367867
 10
5.9111909724
 20
57.1087020451
 10
5.9181217164
 20
57.1022187901
 10
5.9274489287
 20
57.0965361695
 10
5.9388141698
 20
57.0918725634
 10
5.9517806799
 20
57.0884071914
 10
5.9615152312
 20
57.0867716042
  0
LINE
  5
2C6
330
1F
100
AcDbEntity
  8
0
  6
Continuous
 62
     7
370
    25
100
AcDbLine
 10
5.9054819373
 20
57.1461744521
 30
0.0
 11
5.9054819373
 21
57.1230526738
 31
0.0
  0
LINE
  5
2C7
330
1F
100
AcDbEntity
  8
0
  6
Continuous
 62
     7
370
    25
100
AcDbLine
 10
11.2354819373
 20
57.1461744521
 30
0.0
 11
11.2354819373
 21
57.1230526738
 31
0.0
  0
LWPOLYLINE
  5
2C8
330
1F
100
AcDbEntity
  8
0
  6
Continuous
 62
     7
370
    25
100
AcDbPolyline
 90
        8
 70
   128
 43
0.0
 10
11.2354819373
 20
57.1230526738
 10
11.2340408334
 20
57.1157367867
 10
11.2297729023
 20
57.1087020451
 10
11.2228421582
 20
57.1022187901
 10
11.2135149459
 20
57.0965361695
 10
11.2021497048
 20
57.0918725634
 10
11.1891831947
 20
57.0884071914
 10
11.1794486434
 20
57.0867716042
  0
LINE
  5
2C9
330
1F
100
AcDbEntity
  8
0
  6
Continuous
 62
     7
370
    25
100
AcDbLine
 10
9.095378219
 20
57.0855526738
 30
0.0
 11
9.060039009
 21
57.1345050265
 31
0.0
  0
LINE
  5
2CA
330
1F
100
AcDbEntity
  8
0
  6
Continuous
 62
     7
370
    25
100
AcDbLine
 10
9.060039009
 20
57.1604857886
 30
0.0
 11
9.060039009
 21
57.1345050265
 31
0.0
  0
LINE
  5
2CB
330
1F
100
AcDbEntity
  8
0
  6
Continuous
 62
     7
370
    25
100
AcDbLine
 10
8.0809248656
 20
57.1604857886
 30
0.0
 11
8.0809248656
 21
57.1345050265
 31
0.0
  0
LINE
  5
2CC
330
1F
100
AcDbEntity
  8
0
  6
Continuous
 62
     7
370
    25
100
AcDbLine
 10
8.0455856556
 20
57.0855526738
 30
0.0
 11
8.0809248656
 21
57.1345050265
 31
0.0
  0
LINE
  5
2CD
330
1F
100
AcDbEntity
  8
0
  6
Continuous
 62
     7
370
    25
100
AcDbLine
 10
5.8704819373
 20
58.3167408701
 30
0.0
 11
5.9004819373
 21
58.3167408701
 31
0.0
  0
LINE
  5
2CE
330
1F
100
AcDbEntity
  8
0
  6
Continuous
 62
     7
370
    25
100
AcDbLine
 10
5.8704819373
 20
58.3453646523
 30
0.0
 11
5.8704819373
 21
58.3167408701
 31
0.0
  0
LINE
  5
2CF
330
1F
100
AcDbEntity
  8
0
  6
Continuous
 62
     7
370
    25
100
AcDbLine
 10
5.9004819373
 20
58.3167408701
 30
0.0
 11
5.9004819373
 21
58.3453646523
 31
0.0
  0
LINE
  5
2D0
330
1F
100
AcDbEntity
  8
0
  6
Continuous
 62
     7
370
    25
100
AcDbLine
 10
11.2704819373
 20
58.3167408701
 30
0.0
 11
11.2404819373
 21
58.3167408701
 31
0.0
  0
LINE
  5
2D1
330
1F
100
AcDbEntity
  8
0
  6
Continuous
 62
     7
370
    25
100
AcDbLine
 10
11.2404819373
 20
58.3167408701
 30
0.0
 11
11.2404819373
 21
58.3453646523
 31
0.0
  0
LINE
  5
2D2
330
1F
100
AcDbEntity
  8
0
  6
Continuous
 62
     7
370
    25
100
AcDbLine
 10
11.2704819373
 20
58.3453646523
 30
0.0
 11
11.2704819373
 21
58.3167408701
 31
0.0
  0
LINE
  5
2D3
330
1F
100
AcDbEntity
  8
0
  6
Continuous
 62
     7
370
    25
100
AcDbLine
 10
5.8704819373
 20
58.0250048568
 30
0.0
 11
5.8704819373
 21
58.3167408701
 31
0.0
  0
LINE
  5
2D4
330
1F
100
AcDbEntity
  8
0
  6
Continuous
 62
     7
370
    25
100
AcDbLine
 10
5.9004819373
 20
58.0250048568
 30
0.0
 11
5.9004819373
 21
58.3167408701
 31
0.0
  0
LINE
  5
2D5
330
1F
100
AcDbEntity
  8
0
  6
Continuous
 62
     7
370
    25
100
AcDbLine
 10
11.2404819373
 20
58.0250048568
 30
0.0
 11
11.2404819373
 21
58.3167408701
 31
0.0
  0
LINE
  5
2D6
330
1F
100
AcDbEntity
  8
0
  6
Continuous
 62
     7
370
    25
100
AcDbLine
 10
11.2704819373
 20
58.0250048568
 30
0.0
 11
11.2704819373
 21
58.3167408701
 31
0.0
  0
LINE
  5
2D7
330
1F
100
AcDbEntity
  8
0
  6
Continuous
 62
     7
370
    25
100
AcDbLine
 10
8.7778587851
 20
57.2335778205
 30
0.0
 11
8.7778587851
 21
57.2595585826
 31
0.0
  0
ARC
  5
2D8
330
1F
100
AcDbEntity
  8
0
  6
Continuous
 62
     7
370
    25
100
AcDbCircle
 10
8.8094981218
 20
56.8723025189
 30
0.0
 40
0.3626580912702719
100
AcDbArc
 50
46.3028865198
 51
95.0050117374
  0
LINE
  5
2D9
330
1F
100
AcDbEntity
  8
0
  6
Continuous
 62
     7
370
    25
100
AcDbLine
 10
8.3631050895
 20
57.2335778205
 30
0.0
 11
8.3631050895
 21
57.2595585826
 31
0.0
  0
ARC
  5
2DA
330
1F
100
AcDbEntity
  8
0
  6
Continuous
 62
     7
370
    25
100
AcDbCircle
 10
8.3314657529
 20
56.8723025189
 30
0.0
 40
0.3626580912702727
100
AcDbArc
 50
84.9949882626
 51
133.6971134802
  0
LINE
  5
2DB
330
1F
100
AcDbEntity
  8
0
  6
Continuous
 62
     7
370
    25
100
AcDbLine
 10
8.3631050895
 20
57.2335778205
 30
0.0
 11
8.7778587851
 21
57.2335778205
 31
0.0
  0
LINE
  5
2DC
330
1F
100
AcDbEntity
  8
0
  6
Continuous
 62
     7
370
    25
100
AcDbLine
 10
5.9054819373
 20
57.4720996792
 30
0.0
 11
5.9004819373
 21
57.4720996792
 31
0.0
  0
LINE
  5
2DD
330
1F
100
AcDbEntity
  8
0
  6
Continuous
 62
     7
370
    25
100
AcDbLine
 10
11.2354819373
 20
57.4720996792
 30
0.0
 11
11.2404819373
 21
57.4720996792
 31
0.0
  0
LINE
  5
2DE
330
1F
100
AcDbEntity
  8
0
  6
Continuous
 62
     8
370
    25
100
AcDbLine
 10
8.0266104886
 20
57.1115334359
 30
0.0
 11
8.0455856556
 21
57.1115334359
 31
0.0
  0
LINE
  5
2DF
330
1F
100
AcDbEntity
  8
0
  6
Continuous
 62
     8
370
    25
100
AcDbLine
 10
9.1143533861
 20
57.1115334359
 30
0.0
 11
9.095378219
 21
57.1115334359
 31
0.0
  0
LINE
  5
2E0
330
1F
100
AcDbEntity
  8
0
  6
Continuous
 62
     8
370
    25
100
AcDbLine
 10
7.791321694
 20
57.4374586631
 30
0.0
 11
9.3496421806
 21
57.4374586631
 31
0.0
  0
LINE
  5
2E1
330
1F
100
AcDbEntity
  8
0
  6
Continuous
 62
     8
370
    25
100
AcDbLine
 10
5.9404819373
 20
58.3453646523
 30
0.0
 11
5.9404819373
 21
57.6716966828
 31
0.0
  0
LINE
  5
2E2
330
1F
100
AcDbEntity
  8
0
  6
Continuous
 62
     8
370
    25
100
AcDbLine
 10
11.2004819373
 20
58.3453646523
 30
0.0
 11
11.2004819373
 21
57.6716966828
 31
0.0
  0
LINE
  5
2E3
330
1F
100
AcDbEntity
  8
0
  6
Continuous
 62
     8
370
    25
100
AcDbLine
 10
9.3746498887
 20
57.4720996792
 30
0.0
 11
7.766313986
 21
57.4720996792
 31
0.0
  0
LINE
  5
2E4
330
1F
100
AcDbEntity
  8
DIMS
100
AcDbLine
 10
2.441439164
 20
9.6278454144
 30
0.0
 11
47.1885290295
 21
9.6278454144
 31
0.0
  0
DIMENSION
  5
2E5
330
1F
100
AcDbEntity
  8
DIMS
100
AcDbDimension
  2
_D
 10
3.543235191
 20
9.6278454144
 30
0.0
 11
3.543235191
 21
12.4828709015
 31
0.0
 70
   160
  1
                                                                                                   48" (1220mm) Max. height above floor for barrier free installation
 71
     2
 42
-1.0
  3
SLDDIMSTYLE0
100
AcDbAlignedDimension
 13
5.9754819373
 23
57.6278454144
 33
0.0
 14
2.441439164
 24
9.6278454144
 34
0.0
 50
90.0
100
AcDbRotatedDimension
  0
DIMENSION
  5
2F7
330
1F
100
AcDbEntity
  8
DIMS
100
AcDbDimension
  2
_D_1
 10
11.3229819373
 20
55.691501673
 30
0.0
 11
8.692551704
 21
55.691501673
 31
0.0
 70
   160
  1
<>
 71
     2
 42
-1.0
  3
SLDDIMSTYLE1
100
AcDbAlignedDimension
 13
5.8179819373
 23
58.3453646523
 33
0.0
 14
11.3229819373
 24
58.3453646523
 34
0.0
100
AcDbRotatedDimension
  0
DIMENSION
  5
307
330
1F
100
AcDbEntity
  8
DIMS
100
AcDbDimension
  2
_D_2
 10
13.6040509925
 20
57.0761744521
 30
0.0
 11
13.6040509925
 21
64.9737868833
 31
0.0
 70
   160
  1
<>
 71
     2
 42
-1.0
  3
SLDDIMSTYLE1
100
AcDbAlignedDimension
 13
11.2749603519
 23
73.9999646523
 33
0.0
 14
11.1354819373
 24
57.0761744521
 34
0.0
 50
90.0
100
AcDbRotatedDimension
  0
MTEXT
  5
316
330
1F
100
AcDbEntity
  8
NOTES
100
AcDbMText
 10
6.693931737
 20
54.6968651503
 30
0.0
 40
0.5
 41
0.0
 71
     1
 72
     1
  1
Front view
  7
SLDTEXTSTYLE0
 73
     1
 44
1.0
  0
MTEXT
  5
317
330
1F
100
AcDbEntity
  8
NOTES
100
AcDbMText
 10
11.3765430721
 20
75.5515513577
 30
0.0
 40
0.5
 41
0.0
 71
     1
 72
     1
  1
Lock
  7
SLDTEXTSTYLE0
 73
     1
 44
1.0
  0
LEADER
  5
319
330
1F
100
AcDbEntity
  8
NOTES
100
AcDbLeader
  3
SLDDIMSTYLE2
 76
     3
 10
8.6126202182
 20
73.4194567581
 30
0.0
 10
10.8538932633
 20
75.29879504
 30
0.0
 10
11.3538932633
 20
75.29879504
 30
0.0
  0
MTEXT
  5
31A
330
1F
100
AcDbEntity
  8
DIMS
100
AcDbMText
 10
4.0213453376
 20
10.3855021259
 30
0.0
 40
0.5
 41
0.0
 71
     1
 72
     1
  1
Floor
  7
SLDTEXTSTYLE0
 73
     1
 44
1.0
  0
LINE
  5
31B
330
1F
100
AcDbEntity
  8
0
  6
Continuous
 62
     7
370
    25
100
AcDbLine
 10
17.1365173061
 20
73.4524646523
 30
0.0
 11
17.0065173061
 21
73.4524646523
 31
0.0
  0
LINE
  5
31C
330
1F
100
AcDbEntity
  8
0
  6
Continuous
 62
     7
370
    25
100
AcDbLine
 10
17.0065173061
 20
72.5974646523
 30
0.0
 11
17.1365173061
 21
72.5974646523
 31
0.0
  0
ARC
  5
31D
330
1F
100
AcDbEntity
  8
0
  6
Continuous
 62
     7
370
    25
100
AcDbCircle
 10
17.0065173061
 20
72.6174646523
 30
0.0
 40
0.0200000000000102
100
AcDbArc
 50
180.0
 51
270.0
  0
ARC
  5
31E
330
1F
100
AcDbEntity
  8
0
  6
Continuous
 62
     7
370
    25
100
AcDbCircle
 10
17.0065173061
 20
73.4324646523
 30
0.0
 40
0.0200000000000102
100
AcDbArc
 50
90.0
 51
180.0
  0
LINE
  5
31F
330
1F
100
AcDbEntity
  8
0
  6
Continuous
 62
     7
370
    25
100
AcDbLine
 10
17.1754780396
 20
73.9999646523
 30
0.0
 11
17.1754780396
 21
73.9699646523
 31
0.0
  0
CIRCLE
  5
320
330
1F
100
AcDbEntity
  8
0
  6
Continuous
 62
     7
370
    25
100
AcDbCircle
 10
17.8940173061
 20
59.0759462523
 30
0.0
 40
0.0779372107227303
  0
CIRCLE
  5
321
330
1F
100
AcDbEntity
  8
0
  6
Continuous
 62
     7
370
    25
100
AcDbCircle
 10
17.8940173061
 20
59.0759462523
 30
0.0
 40
0.1269999999999952
  0
CIRCLE
  5
322
330
1F
100
AcDbEntity
  8
0
  6
Continuous
 62
     7
370
    25
100
AcDbCircle
 10
17.8940173061
 20
59.0759462523
 30
0.0
 40
0.0312500000000013
  0
CIRCLE
  5
323
330
1F
100
AcDbEntity
  8
0
  6
Continuous
 62
     7
370
    25
100
AcDbCircle
 10
17.8940173061
 20
58.5953646523
 30
0.0
 40
0.0779372107227374
  0
CIRCLE
  5
324
330
1F
100
AcDbEntity
  8
0
  6
Continuous
 62
     7
370
    25
100
AcDbCircle
 10
17.8940173061
 20
58.5953646523
 30
0.0
 40
0.1270000000000024
  0
CIRCLE
  5
325
330
1F
100
AcDbEntity
  8
0
  6
Continuous
 62
     7
370
    25
100
AcDbCircle
 10
17.8940173061
 20
58.5953646523
 30
0.0
 40
0.03125
  0
CIRCLE
  5
326
330
1F
100
AcDbEntity
  8
0
  6
Continuous
 62
     7
370
    25
100
AcDbCircle
 10
17.8940173061
 20
59.0759462523
 30
0.0
 40
0.1639999999999985
  0
LINE
  5
327
330
1F
100
AcDbEntity
  8
0
  6
Continuous
 62
     7
370
    25
100
AcDbLine
 10
16.9865173061
 20
72.6174646531
 30
0.0
 11
16.9865173061
 21
73.4324646523
 31
0.0
  0
LINE
  5
328
330
1F
100
AcDbEntity
  8
0
  6
Continuous
 62
     7
370
    25
100
AcDbLine
 10
17.4165173061
 20
58.3453646523
 30
0.0
 11
17.1365173061
 21
58.3453646523
 31
0.0
  0
LINE
  5
329
330
1F
100
AcDbEntity
  8
0
  6
Continuous
 62
     7
370
    25
100
AcDbLine
 10
17.1365173061
 20
58.3453646523
 30
0.0
 11
17.1365173061
 21
73.9299646523
 31
0.0
  0
LINE
  5
32A
330
1F
100
AcDbEntity
  8
0
  6
Continuous
 62
     7
370
    25
100
AcDbLine
 10
17.4165173061
 20
73.9299646523
 30
0.0
 11
17.1365173061
 21
73.9299646523
 31
0.0
  0
LINE
  5
32B
330
1F
100
AcDbEntity
  8
0
  6
Continuous
 62
     7
370
    25
100
AcDbLine
 10
17.4165173061
 20
73.9299646523
 30
0.0
 11
17.4165173061
 21
58.3453646523
 31
0.0
  0
LINE
  5
32C
330
1F
100
AcDbEntity
  8
0
  6
Continuous
 62
     7
370
    25
100
AcDbLine
 10
17.4165173061
 20
73.9299646523
 30
0.0
 11
18.4890173061
 21
73.9299646523
 31
0.0
  0
LINE
  5
32D
330
1F
100
AcDbEntity
  8
0
  6
Continuous
 62
     7
370
    25
100
AcDbLine
 10
18.4890173061
 20
73.9299646523
 30
0.0
 11
18.4890173061
 21
58.5953646523
 31
0.0
  0
ARC
  5
32E
330
1F
100
AcDbEntity
  8
0
  6
Continuous
 62
     7
370
    25
100
AcDbCircle
 10
18.2390173061
 20
58.5953646523
 30
0.0
 40
0.2500000000000036
100
AcDbArc
 50
270.0
 51
0.0
  0
LINE
  5
32F
330
1F
100
AcDbEntity
  8
0
  6
Continuous
 62
     7
370
    25
100
AcDbLine
 10
18.2390173061
 20
58.3453646523
 30
0.0
 11
17.4165173061
 21
58.3453646523
 31
0.0
  0
ARC
  5
330
330
1F
100
AcDbEntity
  8
0
  6
Continuous
 62
     7
370
    25
100
AcDbCircle
 10
17.8940173061
 20
58.5953646523
 30
0.0
 40
0.5995816000000125
100
AcDbArc
 50
30.0
 51
77.9324973341
  0
ARC
  5
331
330
1F
100
AcDbEntity
  8
0
  6
Continuous
 62
     7
370
    25
100
AcDbCircle
 10
17.8940173061
 20
58.5953646523
 30
0.0
 40
0.3615816000000047
100
AcDbArc
 50
30.0
 51
74.4413989552
  0
ARC
  5
332
330
1F
100
AcDbEntity
  8
0
  6
Continuous
 62
     7
370
    25
100
AcDbCircle
 10
18.3102131803
 20
58.8356554523
 30
0.0
 40
0.1190000000000057
100
AcDbArc
 50
210.0
 51
30.0
  0
LINE
  5
333
330
1F
100
AcDbEntity
  8
0
  6
Continuous
 62
     7
370
    25
100
AcDbLine
 10
17.432141204
 20
73.9299646523
 30
0.0
 11
17.432141204
 21
73.9999646523
 31
0.0
  0
LINE
  5
334
330
1F
100
AcDbEntity
  8
0
  6
Continuous
 62
     7
370
    25
100
AcDbLine
 10
17.432141204
 20
73.9999646523
 30
0.0
 11
18.4890173061
 21
73.9999646523
 31
0.0
  0
LINE
  5
335
330
1F
100
AcDbEntity
  8
0
  6
Continuous
 62
     7
370
    25
100
AcDbLine
 10
18.4890173061
 20
73.9999646523
 30
0.0
 11
18.4890173061
 21
73.9299646523
 31
0.0
  0
LINE
  5
336
330
1F
100
AcDbEntity
  8
0
  6
Continuous
 62
     7
370
    25
100
AcDbLine
 10
17.4005390452
 20
73.9699646523
 30
0.0
 11
17.4005390452
 21
73.9999646523
 31
0.0
  0
LINE
  5
337
330
1F
100
AcDbEntity
  8
0
  6
Continuous
 62
     7
370
    25
100
AcDbLine
 10
17.4005390452
 20
73.9999646523
 30
0.0
 11
17.4165173061
 21
73.9999646523
 31
0.0
  0
LINE
  5
338
330
1F
100
AcDbEntity
  8
0
  6
Continuous
 62
     7
370
    25
100
AcDbLine
 10
17.4165173061
 20
73.9999646523
 30
0.0
 11
17.4165173061
 21
73.9699646523
 31
0.0
  0
LINE
  5
339
330
1F
100
AcDbEntity
  8
0
  6
Continuous
 62
     7
370
    25
100
AcDbLine
 10
17.4165173061
 20
73.9699646523
 30
0.0
 11
17.4005390452
 21
73.9699646523
 31
0.0
  0
LINE
  5
33A
330
1F
100
AcDbEntity
  8
0
  6
Continuous
 62
     7
370
    25
100
AcDbLine
 10
17.1757363483
 20
73.9999646523
 30
0.0
 11
17.1757363483
 21
73.9699646523
 31
0.0
  0
LINE
  5
33B
330
1F
100
AcDbEntity
  8
0
  6
Continuous
 62
     7
370
    25
100
AcDbLine
 10
17.1757363483
 20
73.9999646523
 30
0.0
 11
17.4005390452
 21
73.9999646523
 31
0.0
  0
LINE
  5
33C
330
1F
100
AcDbEntity
  8
0
  6
Continuous
 62
     7
370
    25
100
AcDbLine
 10
17.1757363483
 20
73.9699646523
 30
0.0
 11
17.4005390452
 21
73.9699646523
 31
0.0
  0
LINE
  5
33D
330
1F
100
AcDbEntity
  8
0
  6
Continuous
 62
     7
370
    25
100
AcDbLine
 10
17.4165173061
 20
73.9999646523
 30
0.0
 11
17.432141204
 21
73.9999646523
 31
0.0
  0
LINE
  5
33E
330
1F
100
AcDbEntity
  8
0
  6
Continuous
 62
     7
370
    25
100
AcDbLine
 10
17.4165173061
 20
73.9699646523
 30
0.0
 11
17.432141204
 21
73.9699646523
 31
0.0
  0
LINE
  5
33F
330
1F
100
AcDbEntity
  8
0
  6
Continuous
 62
     7
370
    25
100
AcDbLine
 10
17.1754780396
 20
73.9999646523
 30
0.0
 11
17.1757363483
 21
73.9999646523
 31
0.0
  0
LINE
  5
340
330
1F
100
AcDbEntity
  8
0
  6
Continuous
 62
     7
370
    25
100
AcDbLine
 10
17.1757363483
 20
73.9699646523
 30
0.0
 11
17.1754780396
 21
73.9699646523
 31
0.0
  0
ARC
  5
341
330
1F
100
AcDbEntity
  8
0
  6
Continuous
 62
     7
370
    25
100
AcDbCircle
 10
17.2065173061
 20
73.9299646523
 30
0.0
 40
0.069999999999999
100
AcDbArc
 50
116.3221731456
 51
180.0
  0
ARC
  5
342
330
1F
100
AcDbEntity
  8
0
  6
Continuous
 62
     7
370
    25
100
AcDbCircle
 10
17.2065173061
 20
73.9299646523
 30
0.0
 40
0.0400000000000063
100
AcDbArc
 50
90.0
 51
180.0
  0
ARC
  5
343
330
1F
100
AcDbEntity
  8
0
  6
Continuous
 62
     7
370
    25
100
AcDbCircle
 10
17.9292887123
 20
58.3167408701
 30
0.0
 40
0.0500000000000007
100
AcDbArc
 50
0.0
 51
34.9230409403
  0
LINE
  5
344
330
1F
100
AcDbEntity
  8
0
  6
Continuous
 62
     7
370
    25
100
AcDbLine
 10
18.4440173061
 20
57.4720996792
 30
0.0
 11
17.9444982533
 21
57.1837022196
 31
0.0
  0
ARC
  5
345
330
1F
100
AcDbEntity
  8
0
  6
Continuous
 62
     7
370
    25
100
AcDbCircle
 10
17.8794982533
 20
57.2962855221
 30
0.0
 40
0.1300000000000007
100
AcDbArc
 50
240.0
 51
300.0
  0
LINE
  5
346
330
1F
100
AcDbEntity
  8
0
  6
Continuous
 62
     7
370
    25
100
AcDbLine
 10
17.0528029765
 20
57.6234671927
 30
0.0
 11
17.8144982533
 21
57.1837022196
 31
0.0
  0
ARC
  5
347
330
1F
100
AcDbEntity
  8
0
  6
Continuous
 62
     7
370
    25
100
AcDbCircle
 10
17.1178029765
 20
57.7360504952
 30
0.0
 40
0.1299999999999998
100
AcDbArc
 50
152.0805030793
 51
240.0
  0
ARC
  5
348
330
1F
100
AcDbEntity
  8
0
  6
Continuous
 62
     7
370
    25
100
AcDbCircle
 10
17.113083502
 20
57.7278761256
 30
0.0
 40
0.1300000000000003
100
AcDbArc
 50
104.2063714568
 51
147.9194969207
  0
ARC
  5
349
330
1F
100
AcDbEntity
  8
0
  6
Continuous
 62
     7
370
    25
100
AcDbCircle
 10
17.113083502
 20
57.7278761256
 30
0.0
 40
0.1300000000000041
100
AcDbArc
 50
91.3636797696
 51
104.2063714568
  0
LINE
  5
34A
330
1F
100
AcDbEntity
  8
0
  6
Continuous
 62
     7
370
    25
100
AcDbLine
 10
17.1099897029
 20
57.8578393066
 30
0.0
 11
17.8328584806
 21
57.8750473403
 31
0.0
  0
ARC
  5
34B
330
1F
100
AcDbEntity
  8
0
  6
Continuous
 62
     7
370
    25
100
AcDbCircle
 10
17.8292887123
 20
58.0250048568
 30
0.0
 40
0.1499999999999986
100
AcDbArc
 50
271.3636797696
 51
0.0
  0
LINE
  5
34C
330
1F
100
AcDbEntity
  8
0
  6
Continuous
 62
     7
370
    25
100
AcDbLine
 10
17.9792887123
 20
58.0250048568
 30
0.0
 11
17.9792887123
 21
58.3167408701
 31
0.0
  0
LINE
  5
34D
330
1F
100
AcDbEntity
  8
0
  6
Continuous
 62
     7
370
    25
100
AcDbLine
 10
18.5140173061
 20
57.4720996792
 30
0.0
 11
18.4440173061
 21
57.4720996792
 31
0.0
  0
LINE
  5
34E
330
1F
100
AcDbEntity
  8
0
  6
Continuous
 62
     7
370
    25
100
AcDbLine
 10
18.4890173061
 20
73.3003646523
 30
0.0
 11
18.5140173061
 21
73.3003646523
 31
0.0
  0
LINE
  5
34F
330
1F
100
AcDbEntity
  8
0
  6
Continuous
 62
     7
370
    25
100
AcDbLine
 10
18.5140173061
 20
73.3003646523
 30
0.0
 11
18.5140173061
 21
57.4720996792
 31
0.0
  0
LINE
  5
350
330
1F
100
AcDbEntity
  8
0
  6
Continuous
 62
     7
370
    25
100
AcDbLine
 10
16.967988731
 20
57.7365646103
 30
0.0
 11
16.940219674
 21
57.6884671927
 31
0.0
  0
ARC
  5
351
330
1F
100
AcDbEntity
  8
0
  6
Continuous
 62
     7
370
    25
100
AcDbCircle
 10
17.0805720335
 20
57.6715646103
 30
0.0
 40
0.1300000000000025
100
AcDbArc
 50
133.3579347407
 51
150.0
  0
LINE
  5
352
330
1F
100
AcDbEntity
  8
0
  6
Continuous
 62
     7
370
    25
100
AcDbLine
 10
17.8794982533
 20
57.1461744521
 30
0.0
 11
17.8914259755
 21
57.166833873
 31
0.0
  0
LINE
  5
353
330
1F
100
AcDbEntity
  8
0
  6
Continuous
 62
     7
370
    25
100
AcDbLine
 10
18.4640173061
 20
57.4374586631
 30
0.0
 11
18.4790173061
 21
57.4114779009
 31
0.0
  0
LINE
  5
354
330
1F
100
AcDbEntity
  8
0
  6
Continuous
 62
     7
370
    25
100
AcDbLine
 10
18.4790173061
 20
57.4114779009
 30
0.0
 11
18.4240741537
 21
57.3797564571
 31
0.0
  0
LINE
  5
355
330
1F
100
AcDbEntity
  8
0
  6
Continuous
 62
     7
370
    25
100
AcDbLine
 10
18.4240741537
 20
57.3797564571
 30
0.0
 11
18.4090741537
 21
57.4057372192
 31
0.0
  0
LINE
  5
356
330
1F
100
AcDbEntity
  8
0
  6
Continuous
 62
     7
370
    25
100
AcDbLine
 10
18.4090741537
 20
57.4057372192
 30
0.0
 11
18.4640173061
 21
57.4374586631
 31
0.0
  0
LINE
  5
357
330
1F
100
AcDbEntity
  8
0
  6
Continuous
 62
     7
370
    25
100
AcDbLine
 10
17.9644501585
 20
57.1490334359
 30
0.0
 11
17.9794501585
 21
57.1230526738
 31
0.0
  0
LINE
  5
358
330
1F
100
AcDbEntity
  8
0
  6
Continuous
 62
     7
370
    25
100
AcDbLine
 10
18.4240741537
 20
57.3797564571
 30
0.0
 11
17.9794501585
 21
57.1230526738
 31
0.0
  0
LINE
  5
359
330
1F
100
AcDbEntity
  8
0
  6
Continuous
 62
     7
370
    25
100
AcDbLine
 10
18.4090741537
 20
57.4057372192
 30
0.0
 11
17.9644501585
 21
57.1490334359
 31
0.0
  0
LINE
  5
35A
330
1F
100
AcDbEntity
  8
0
  6
Continuous
 62
     7
370
    25
100
AcDbLine
 10
17.9144982533
 20
57.0855526738
 30
0.0
 11
17.8994982533
 21
57.1115334359
 31
0.0
  0
LINE
  5
35B
330
1F
100
AcDbEntity
  8
0
  6
Continuous
 62
     7
370
    25
100
AcDbLine
 10
17.9794501585
 20
57.1230526738
 30
0.0
 11
17.9144982533
 21
57.0855526738
 31
0.0
  0
LINE
  5
35C
330
1F
100
AcDbEntity
  8
0
  6
Continuous
 62
     7
370
    25
100
AcDbLine
 10
17.8994982533
 20
57.1115334359
 30
0.0
 11
17.9644501585
 21
57.1490334359
 31
0.0
  0
LINE
  5
35D
330
1F
100
AcDbEntity
  8
0
  6
Continuous
 62
     7
370
    25
100
AcDbLine
 10
16.905219674
 20
57.6278454144
 30
0.0
 11
16.940219674
 21
57.6884671927
 31
0.0
  0
LINE
  5
35E
330
1F
100
AcDbEntity
  8
0
  6
Continuous
 62
     7
370
    25
100
AcDbLine
 10
17.8794982533
 20
57.1461744521
 30
0.0
 11
17.8444982533
 21
57.0855526738
 31
0.0
  0
LINE
  5
35F
330
1F
100
AcDbEntity
  8
0
  6
Continuous
 62
     7
370
    25
100
AcDbLine
 10
17.8444982533
 20
57.0855526738
 30
0.0
 11
16.905219674
 21
57.6278454144
 31
0.0
  0
ARC
  5
360
330
1F
100
AcDbEntity
  8
0
  6
Continuous
 62
     7
370
    25
100
AcDbCircle
 10
18.4440173061
 20
57.4720996792
 30
0.0
 40
0.0700000000000038
100
AcDbArc
 50
300.0
 51
0.0
  0
ARC
  5
361
330
1F
100
AcDbEntity
  8
0
  6
Continuous
 62
     7
370
    25
100
AcDbCircle
 10
18.4440173061
 20
57.4720996792
 30
0.0
 40
0.0400000000000063
100
AcDbArc
 50
300.0
 51
0.0
  0
ARC
  5
362
330
1F
100
AcDbEntity
  8
0
  6
Continuous
 62
     7
370
    25
100
AcDbCircle
 10
17.8794982533
 20
57.1461744521
 30
0.0
 40
0.0400000000000045
100
AcDbArc
 50
240.0
 51
300.0
  0
ARC
  5
363
330
1F
100
AcDbEntity
  8
0
  6
Continuous
 62
     7
370
    25
100
AcDbCircle
 10
17.8794982533
 20
57.1461744521
 30
0.0
 40
0.0700000000000079
100
AcDbArc
 50
240.0
 51
300.0
  0
ARC
  5
364
330
1F
100
AcDbEntity
  8
0
  6
Continuous
 62
     7
370
    25
100
AcDbCircle
 10
18.4440173061
 20
73.6753646523
 30
0.0
 40
0.0700000000000003
100
AcDbArc
 50
0.0
 51
49.994799115
  0
LINE
  5
365
330
1F
100
AcDbEntity
  8
0
  6
Continuous
 62
     7
370
    25
100
AcDbLine
 10
18.5140173061
 20
73.6753646523
 30
0.0
 11
18.5140173061
 21
73.3003646523
 31
0.0
  0
LINE
  5
366
330
1F
100
AcDbEntity
  8
0
  6
Continuous
 62
     7
370
    25
100
AcDbLine
 10
17.6349980682
 20
58.2605570312
 30
0.0
 11
17.6090173061
 21
58.2455570312
 31
0.0
  0
LINE
  5
367
330
1F
100
AcDbEntity
  8
0
  6
Continuous
 62
     7
370
    25
100
AcDbLine
 10
17.6090173061
 20
58.2455570312
 30
0.0
 11
17.5513933492
 21
58.3453646523
 31
0.0
  0
LINE
  5
368
330
1F
100
AcDbEntity
  8
0
  6
Continuous
 62
     7
370
    25
100
AcDbLine
 10
17.5860343653
 20
58.3453646523
 30
0.0
 11
17.6349980682
 21
58.2605570312
 31
0.0
  0
LINE
  5
369
330
1F
100
AcDbEntity
  8
0
  6
Continuous
 62
     8
370
    25
100
AcDbLine
 10
17.0065173061
 20
73.4524646523
 30
0.0
 11
17.0065173061
 21
72.5974646523
 31
0.0
  0
LINE
  5
36A
330
1F
100
AcDbEntity
  8
0
  6
Continuous
 62
     8
370
    25
100
AcDbLine
 10
18.4440173061
 20
58.4522737721
 30
0.0
 11
18.4440173061
 21
57.4720996792
 31
0.0
  0
LINE
  5
36B
330
1F
100
AcDbEntity
  8
0
  6
Continuous
 62
     8
370
    25
100
AcDbLine
 10
16.940219674
 20
57.6884671927
 30
0.0
 11
17.0528029765
 21
57.6234671927
 31
0.0
  0
LINE
  5
36C
330
1F
100
AcDbEntity
  8
0
  6
Continuous
 62
     8
370
    25
100
AcDbLine
 10
17.8144982533
 20
57.1837022196
 30
0.0
 11
17.8794982533
 21
57.1461744521
 31
0.0
  0
DIMENSION
  5
36D
330
1F
100
AcDbEntity
  8
DIMS
100
AcDbDimension
  2
_D_3
 10
16.905219674
 20
55.7402879896
 30
0.0
 11
17.6384937024
 21
55.7402879896
 31
0.0
 70
   160
  1
<>
 71
     2
 42
-1.0
  3
SLDDIMSTYLE3
100
AcDbAlignedDimension
 13
18.5140173061
 23
57.4720996792
 33
0.0
 14
16.905219674
 24
57.6278454144
 34
0.0
100
AcDbRotatedDimension
  0
MTEXT
  5
37D
330
1F
100
AcDbEntity
  8
NOTES
100
AcDbMText
 10
15.8903333091
 20
54.6636994419
 30
0.0
 40
0.5
 41
0.0
 71
     1
 72
     1
  1
Side view
  7
SLDTEXTSTYLE0
 73
     1
 44
1.0
  0
LINE
  5
37E
330
1F
100
AcDbEntity
  8
0
  6
Continuous
 62
     7
370
    25
100
AcDbLine
 10
53.338242377
 20
58.4683646523
 30
0.0
 11
53.353242377
 21
58.5174274416
 31
0.0
  0
LINE
  5
37F
330
1F
100
AcDbEntity
  8
0
  6
Continuous
 62
     7
370
    25
100
AcDbLine
 10
53.353242377
 20
58.673301863
 30
0.0
 11
53.338242377
 21
58.7223646523
 31
0.0
  0
LINE
  5
380
330
1F
100
AcDbEntity
  8
0
  6
Continuous
 62
     7
370
    25
100
AcDbLine
 10
53.316242377
 20
58.4683646523
 30
0.0
 11
53.338242377
 21
58.4683646523
 31
0.0
  0
LINE
  5
381
330
1F
100
AcDbEntity
  8
0
  6
Continuous
 62
     7
370
    25
100
AcDbLine
 10
53.338242377
 20
58.7223646523
 30
0.0
 11
53.316242377
 21
58.7223646523
 31
0.0
  0
LINE
  5
382
330
1F
100
AcDbEntity
  8
0
  6
Continuous
 62
     7
370
    25
100
AcDbLine
 10
53.286242377
 20
58.6578646523
 30
0.0
 11
53.263742377
 21
58.6578646523
 31
0.0
  0
LINE
  5
383
330
1F
100
AcDbEntity
  8
0
  6
Continuous
 62
     7
370
    25
100
AcDbLine
 10
53.263742377
 20
58.5328646523
 30
0.0
 11
53.286242377
 21
58.5328646523
 31
0.0
  0
LINE
  5
384
330
1F
100
AcDbEntity
  8
0
  6
Continuous
 62
     7
370
    25
100
AcDbLine
 10
47.764367377
 20
59.2029462523
 30
0.0
 11
47.742367377
 21
59.2029462523
 31
0.0
  0
LINE
  5
385
330
1F
100
AcDbEntity
  8
0
  6
Continuous
 62
     7
370
    25
100
AcDbLine
 10
47.742367377
 20
58.9489462523
 30
0.0
 11
47.764367377
 21
58.9489462523
 31
0.0
  0
LINE
  5
386
330
1F
100
AcDbEntity
  8
0
  6
Continuous
 62
     7
370
    25
100
AcDbLine
 10
47.742367377
 20
59.2029462523
 30
0.0
 11
47.727367377
 21
59.153883463
 31
0.0
  0
LINE
  5
387
330
1F
100
AcDbEntity
  8
0
  6
Continuous
 62
     7
370
    25
100
AcDbLine
 10
47.727367377
 20
58.9980090416
 30
0.0
 11
47.742367377
 21
58.9489462523
 31
0.0
  0
LINE
  5
388
330
1F
100
AcDbEntity
  8
0
  6
Continuous
 62
     7
370
    25
100
AcDbLine
 10
47.858117377
 20
58.9919462523
 30
0.0
 11
47.863742377
 21
58.9919462523
 31
0.0
  0
LINE
  5
389
330
1F
100
AcDbEntity
  8
0
  6
Continuous
 62
     7
370
    25
100
AcDbLine
 10
47.863742377
 20
59.1599462523
 30
0.0
 11
47.858117377
 21
59.1599462523
 31
0.0
  0
LINE
  5
38A
330
1F
100
AcDbEntity
  8
0
  6
Continuous
 62
     7
370
    25
100
AcDbLine
 10
53.385117377
 20
58.9489462523
 30
0.0
 11
53.400117377
 21
58.9980090416
 31
0.0
  0
LINE
  5
38B
330
1F
100
AcDbEntity
  8
0
  6
Continuous
 62
     7
370
    25
100
AcDbLine
 10
53.400117377
 20
59.153883463
 30
0.0
 11
53.385117377
 21
59.2029462523
 31
0.0
  0
LINE
  5
38C
330
1F
100
AcDbEntity
  8
0
  6
Continuous
 62
     7
370
    25
100
AcDbLine
 10
53.363117377
 20
58.9489462523
 30
0.0
 11
53.385117377
 21
58.9489462523
 31
0.0
  0
LINE
  5
38D
330
1F
100
AcDbEntity
  8
0
  6
Continuous
 62
     7
370
    25
100
AcDbLine
 10
53.385117377
 20
59.2029462523
 30
0.0
 11
53.363117377
 21
59.2029462523
 31
0.0
  0
LINE
  5
38E
330
1F
100
AcDbEntity
  8
0
  6
Continuous
 62
     7
370
    25
100
AcDbLine
 10
53.269367377
 20
59.1599462523
 30
0.0
 11
53.263742377
 21
59.1599462523
 31
0.0
  0
LINE
  5
38F
330
1F
100
AcDbEntity
  8
0
  6
Continuous
 62
     7
370
    25
100
AcDbLine
 10
53.263742377
 20
58.9919462523
 30
0.0
 11
53.269367377
 21
58.9919462523
 31
0.0
  0
LINE
  5
390
330
1F
100
AcDbEntity
  8
0
  6
Continuous
 62
     7
370
    25
100
AcDbLine
 10
47.811242377
 20
58.7223646523
 30
0.0
 11
47.789242377
 21
58.7223646523
 31
0.0
  0
LINE
  5
391
330
1F
100
AcDbEntity
  8
0
  6
Continuous
 62
     7
370
    25
100
AcDbLine
 10
47.789242377
 20
58.4683646523
 30
0.0
 11
47.811242377
 21
58.4683646523
 31
0.0
  0
LINE
  5
392
330
1F
100
AcDbEntity
  8
0
  6
Continuous
 62
     7
370
    25
100
AcDbLine
 10
47.789242377
 20
58.7223646523
 30
0.0
 11
47.774242377
 21
58.673301863
 31
0.0
  0
LINE
  5
393
330
1F
100
AcDbEntity
  8
0
  6
Continuous
 62
     7
370
    25
100
AcDbLine
 10
47.774242377
 20
58.5174274416
 30
0.0
 11
47.789242377
 21
58.4683646523
 31
0.0
  0
LINE
  5
394
330
1F
100
AcDbEntity
  8
0
  6
Continuous
 62
     7
370
    25
100
AcDbLine
 10
47.841242377
 20
58.5328646523
 30
0.0
 11
47.863742377
 21
58.5328646523
 31
0.0
  0
LINE
  5
395
330
1F
100
AcDbEntity
  8
0
  6
Continuous
 62
     7
370
    25
100
AcDbLine
 10
47.863742377
 20
58.6578646523
 30
0.0
 11
47.841242377
 21
58.6578646523
 31
0.0
  0
LINE
  5
396
330
1F
100
AcDbEntity
  8
0
  6
Continuous
 62
     7
370
    25
100
AcDbLine
 10
47.811242377
 20
59.2399462523
 30
0.0
 11
47.764367377
 21
59.2399462523
 31
0.0
  0
LINE
  5
397
330
1F
100
AcDbEntity
  8
0
  6
Continuous
 62
     7
370
    25
100
AcDbLine
 10
47.764367377
 20
58.9119462523
 30
0.0
 11
47.811242377
 21
58.9119462523
 31
0.0
  0
LINE
  5
398
330
1F
100
AcDbEntity
  8
0
  6
Continuous
 62
     7
370
    25
100
AcDbLine
 10
47.858117377
 20
59.1849462523
 30
0.0
 11
47.841242377
 21
59.1849462523
 31
0.0
  0
LINE
  5
399
330
1F
100
AcDbEntity
  8
0
  6
Continuous
 62
     7
370
    25
100
AcDbLine
 10
47.841242377
 20
58.9669462523
 30
0.0
 11
47.858117377
 21
58.9669462523
 31
0.0
  0
LINE
  5
39A
330
1F
100
AcDbEntity
  8
0
  6
Continuous
 62
     7
370
    25
100
AcDbLine
 10
53.316242377
 20
58.9119462523
 30
0.0
 11
53.363117377
 21
58.9119462523
 31
0.0
  0
LINE
  5
39B
330
1F
100
AcDbEntity
  8
0
  6
Continuous
 62
     7
370
    25
100
AcDbLine
 10
53.363117377
 20
59.2399462523
 30
0.0
 11
53.316242377
 21
59.2399462523
 31
0.0
  0
LINE
  5
39C
330
1F
100
AcDbEntity
  8
0
  6
Continuous
 62
     7
370
    25
100
AcDbLine
 10
53.269367377
 20
58.9669462523
 30
0.0
 11
53.286242377
 21
58.9669462523
 31
0.0
  0
LINE
  5
39D
330
1F
100
AcDbEntity
  8
0
  6
Continuous
 62
     7
370
    25
100
AcDbLine
 10
53.286242377
 20
59.1849462523
 30
0.0
 11
53.269367377
 21
59.1849462523
 31
0.0
  0
LINE
  5
39E
330
1F
100
AcDbEntity
  8
0
  6
Continuous
 62
     7
370
    25
100
AcDbLine
 10
53.2682527253
 20
73.9705826308
 30
0.0
 11
53.2682527253
 21
73.9999646523
 31
0.0
  0
LINE
  5
39F
330
1F
100
AcDbEntity
  8
0
  6
Continuous
 62
     7
370
    25
100
AcDbLine
 10
47.8592320286
 20
73.9999646523
 30
0.0
 11
47.8592320286
 21
73.9705826308
 31
0.0
  0
LINE
  5
3A0
330
1F
100
AcDbEntity
  8
0
  6
Continuous
 62
     7
370
    25
100
AcDbLine
 10
53.233742377
 20
57.1662855221
 30
0.0
 11
53.263742377
 21
57.1662855221
 31
0.0
  0
LINE
  5
3A1
330
1F
100
AcDbEntity
  8
0
  6
Continuous
 62
     7
370
    25
100
AcDbLine
 10
47.863742377
 20
57.1662855221
 30
0.0
 11
47.893742377
 21
57.1662855221
 31
0.0
  0
LINE
  5
3A2
330
1F
100
AcDbEntity
  8
0
  6
Continuous
 62
     7
370
    25
100
AcDbLine
 10
51.0981261665
 20
57.0761744521
 30
0.0
 11
53.128742377
 21
57.0761744521
 31
0.0
  0
LINE
  5
3A3
330
1F
100
AcDbEntity
  8
0
  6
Continuous
 62
     7
370
    25
100
AcDbLine
 10
47.998742377
 20
57.0761744521
 30
0.0
 11
50.0293585874
 21
57.0761744521
 31
0.0
  0
LINE
  5
3A4
330
1F
100
AcDbEntity
  8
0
  6
Continuous
 62
     7
370
    25
100
AcDbLine
 10
53.353242377
 20
58.5558376737
 30
0.0
 11
53.353242377
 21
58.5174274416
 31
0.0
  0
LINE
  5
3A5
330
1F
100
AcDbEntity
  8
0
  6
Continuous
 62
     7
370
    25
100
AcDbLine
 10
53.353242377
 20
58.673301863
 30
0.0
 11
53.353242377
 21
58.5558376737
 31
0.0
  0
LINE
  5
3A6
330
1F
100
AcDbEntity
  8
0
  6
Continuous
 62
     7
370
    25
100
AcDbLine
 10
53.338242377
 20
58.5309547736
 30
0.0
 11
53.338242377
 21
58.7223646523
 31
0.0
  0
LINE
  5
3A7
330
1F
100
AcDbEntity
  8
0
  6
Continuous
 62
     7
370
    25
100
AcDbLine
 10
53.338242377
 20
58.4683646523
 30
0.0
 11
53.338242377
 21
58.5309547736
 31
0.0
  0
LINE
  5
3A8
330
1F
100
AcDbEntity
  8
0
  6
Continuous
 62
     7
370
    25
100
AcDbLine
 10
47.742367377
 20
59.2029462523
 30
0.0
 11
47.742367377
 21
58.9489462523
 31
0.0
  0
LINE
  5
3A9
330
1F
100
AcDbEntity
  8
0
  6
Continuous
 62
     7
370
    25
100
AcDbLine
 10
47.727367377
 20
58.9980090416
 30
0.0
 11
47.727367377
 21
59.153883463
 31
0.0
  0
LINE
  5
3AA
330
1F
100
AcDbEntity
  8
0
  6
Continuous
 62
     7
370
    25
100
AcDbLine
 10
53.400117377
 20
59.153883463
 30
0.0
 11
53.400117377
 21
58.9980090416
 31
0.0
  0
LINE
  5
3AB
330
1F
100
AcDbEntity
  8
0
  6
Continuous
 62
     7
370
    25
100
AcDbLine
 10
53.385117377
 20
58.9489462523
 30
0.0
 11
53.385117377
 21
59.2029462523
 31
0.0
  0
LINE
  5
3AC
330
1F
100
AcDbEntity
  8
0
  6
Continuous
 62
     7
370
    25
100
AcDbLine
 10
47.789242377
 20
58.5953646523
 30
0.0
 11
47.789242377
 21
58.4683646523
 31
0.0
  0
LINE
  5
3AD
330
1F
100
AcDbEntity
  8
0
  6
Continuous
 62
     7
370
    25
100
AcDbLine
 10
47.789242377
 20
58.7223646523
 30
0.0
 11
47.789242377
 21
58.5953646523
 31
0.0
  0
LINE
  5
3AE
330
1F
100
AcDbEntity
  8
0
  6
Continuous
 62
     7
370
    25
100
AcDbLine
 10
47.774242377
 20
58.5953646523
 30
0.0
 11
47.774242377
 21
58.673301863
 31
0.0
  0
LINE
  5
3AF
330
1F
100
AcDbEntity
  8
0
  6
Continuous
 62
     7
370
    25
100
AcDbLine
 10
47.774242377
 20
58.5174274416
 30
0.0
 11
47.774242377
 21
58.5953646523
 31
0.0
  0
LINE
  5
3B0
330
1F
100
AcDbEntity
  8
0
  6
Continuous
 62
     7
370
    25
100
AcDbLine
 10
47.764367377
 20
58.9119462523
 30
0.0
 11
47.764367377
 21
59.2399462523
 31
0.0
  0
LINE
  5
3B1
330
1F
100
AcDbEntity
  8
0
  6
Continuous
 62
     7
370
    25
100
AcDbLine
 10
47.858117377
 20
58.9669462523
 30
0.0
 11
47.858117377
 21
59.1849462523
 31
0.0
  0
LINE
  5
3B2
330
1F
100
AcDbEntity
  8
0
  6
Continuous
 62
     7
370
    25
100
AcDbLine
 10
53.363117377
 20
58.9546517812
 30
0.0
 11
53.363117377
 21
58.9119462523
 31
0.0
  0
LINE
  5
3B3
330
1F
100
AcDbEntity
  8
0
  6
Continuous
 62
     7
370
    25
100
AcDbLine
 10
53.363117377
 20
59.2399462523
 30
0.0
 11
53.363117377
 21
58.9546517812
 31
0.0
  0
LINE
  5
3B4
330
1F
100
AcDbEntity
  8
0
  6
Continuous
 62
     7
370
    25
100
AcDbLine
 10
53.269367377
 20
58.995329805
 30
0.0
 11
53.269367377
 21
58.9669462523
 31
0.0
  0
LINE
  5
3B5
330
1F
100
AcDbEntity
  8
0
  6
Continuous
 62
     7
370
    25
100
AcDbLine
 10
53.269367377
 20
59.1849462523
 30
0.0
 11
53.269367377
 21
58.995329805
 31
0.0
  0
ARC
  5
3B6
330
1F
100
AcDbEntity
  8
0
  6
Continuous
 62
     7
370
    25
100
AcDbCircle
 10
50.643742377
 20
73.5969646523
 30
0.0
 40
0.2800000000000296
100
AcDbArc
 50
32.0054548278
 51
90.0
  0
ARC
  5
3B7
330
1F
100
AcDbEntity
  8
0
  6
Continuous
 62
     7
370
    25
100
AcDbCircle
 10
50.603742377
 20
73.5969646523
 30
0.0
 40
0.2800000000000078
100
AcDbArc
 50
90.0
 51
147.9945451722
  0
LINE
  5
3B8
330
1F
100
AcDbEntity
  8
0
  6
Continuous
 62
     7
370
    25
100
AcDbLine
 10
50.603742377
 20
73.8769646523
 30
0.0
 11
50.643742377
 21
73.8769646523
 31
0.0
  0
LINE
  5
3B9
330
1F
100
AcDbEntity
  8
0
  6
Continuous
 62
     7
370
    25
100
AcDbLine
 10
50.643742377
 20
72.6969646523
 30
0.0
 11
50.6629877239
 21
72.6976268342
 31
0.0
  0
LINE
  5
3BA
330
1F
100
AcDbEntity
  8
0
  6
Continuous
 62
     7
370
    25
100
AcDbLine
 10
50.603742377
 20
72.6969646523
 30
0.0
 11
50.643742377
 21
72.6969646523
 31
0.0
  0
ARC
  5
3BB
330
1F
100
AcDbEntity
  8
0
  6
Continuous
 62
     7
370
    25
100
AcDbCircle
 10
50.603742377
 20
72.9769646523
 30
0.0
 40
0.2800000000000011
100
AcDbArc
 50
242.3376980733
 51
270.0
  0
ARC
  5
3BC
330
1F
100
AcDbEntity
  8
0
  6
Continuous
 62
     7
370
    25
100
AcDbCircle
 10
50.623742377
 20
73.0249646523
 30
0.0
 40
0.3750000000000083
100
AcDbArc
 50
244.7439644913
 51
275.2169774261
  0
LINE
  5
3BD
330
1F
100
AcDbEntity
  8
0
  6
Continuous
 62
     7
370
    25
100
AcDbLine
 10
53.316242377
 20
58.5953646523
 30
0.0
 11
53.286242377
 21
58.5953646523
 31
0.0
  0
LINE
  5
3BE
330
1F
100
AcDbEntity
  8
0
  6
Continuous
 62
     7
370
    25
100
AcDbLine
 10
53.286242377
 20
73.9299646523
 30
0.0
 11
53.286242377
 21
58.5953646523
 31
0.0
  0
LINE
  5
3BF
330
1F
100
AcDbEntity
  8
0
  6
Continuous
 62
     7
370
    25
100
AcDbLine
 10
53.316242377
 20
73.9299646523
 30
0.0
 11
53.316242377
 21
58.5953646523
 31
0.0
  0
LINE
  5
3C0
330
1F
100
AcDbEntity
  8
0
  6
Continuous
 62
     7
370
    25
100
AcDbLine
 10
53.316242377
 20
73.9299646523
 30
0.0
 11
53.286242377
 21
73.9299646523
 31
0.0
  0
LINE
  5
3C1
330
1F
100
AcDbEntity
  8
0
  6
Continuous
 62
     7
370
    25
100
AcDbLine
 10
47.916242377
 20
73.9699646523
 30
0.0
 11
47.916242377
 21
73.9999646523
 31
0.0
  0
LINE
  5
3C2
330
1F
100
AcDbEntity
  8
0
  6
Continuous
 62
     7
370
    25
100
AcDbLine
 10
47.916242377
 20
73.9999646523
 30
0.0
 11
53.211242377
 21
73.9999646523
 31
0.0
  0
LINE
  5
3C3
330
1F
100
AcDbEntity
  8
0
  6
Continuous
 62
     7
370
    25
100
AcDbLine
 10
53.211242377
 20
73.9699646523
 30
0.0
 11
53.211242377
 21
73.9999646523
 31
0.0
  0
LINE
  5
3C4
330
1F
100
AcDbEntity
  8
0
  6
Continuous
 62
     7
370
    25
100
AcDbLine
 10
47.916242377
 20
73.9699646523
 30
0.0
 11
53.211242377
 21
73.9699646523
 31
0.0
  0
ARC
  5
3C5
330
1F
100
AcDbEntity
  8
0
  6
Continuous
 62
     7
370
    25
100
AcDbCircle
 10
53.211242377
 20
73.9299646523
 30
0.0
 40
0.0700000000000003
100
AcDbArc
 50
0.0
 51
90.0
  0
LINE
  5
3C6
330
1F
100
AcDbEntity
  8
0
  6
Continuous
 62
     7
370
    25
100
AcDbLine
 10
53.251242377
 20
73.9299646523
 30
0.0
 11
53.281242377
 21
73.9299646523
 31
0.0
  0
ARC
  5
3C7
330
1F
100
AcDbEntity
  8
0
  6
Continuous
 62
     7
370
    25
100
AcDbCircle
 10
53.211242377
 20
73.9299646523
 30
0.0
 40
0.0400000000000063
100
AcDbArc
 50
0.0
 51
90.0
  0
LINE
  5
3C8
330
1F
100
AcDbEntity
  8
0
  6
Continuous
 62
     7
370
    25
100
AcDbLine
 10
53.281242377
 20
73.6349646523
 30
0.0
 11
53.281242377
 21
73.9299646523
 31
0.0
  0
LINE
  5
3C9
330
1F
100
AcDbEntity
  8
0
  6
Continuous
 62
     7
370
    25
100
AcDbLine
 10
53.251242377
 20
73.6349646523
 30
0.0
 11
53.281242377
 21
73.6349646523
 31
0.0
  0
LINE
  5
3CA
330
1F
100
AcDbEntity
  8
0
  6
Continuous
 62
     7
370
    25
100
AcDbLine
 10
53.251242377
 20
73.6349646523
 30
0.0
 11
53.251242377
 21
73.9299646523
 31
0.0
  0
LINE
  5
3CB
330
1F
100
AcDbEntity
  8
0
  6
Continuous
 62
     7
370
    25
100
AcDbLine
 10
53.281242377
 20
73.4349646523
 30
0.0
 11
53.251242377
 21
73.4349646523
 31
0.0
  0
LINE
  5
3CC
330
1F
100
AcDbEntity
  8
0
  6
Continuous
 62
     7
370
    25
100
AcDbLine
 10
53.281242377
 20
73.6349646523
 30
0.0
 11
53.281242377
 21
73.4349646523
 31
0.0
  0
LINE
  5
3CD
330
1F
100
AcDbEntity
  8
0
  6
Continuous
 62
     7
370
    25
100
AcDbLine
 10
53.251242377
 20
73.4349646523
 30
0.0
 11
53.251242377
 21
73.6349646523
 31
0.0
  0
LINE
  5
3CE
330
1F
100
AcDbEntity
  8
0
  6
Continuous
 62
     7
370
    25
100
AcDbLine
 10
47.876242377
 20
73.9299646523
 30
0.0
 11
47.846242377
 21
73.9299646523
 31
0.0
  0
LINE
  5
3CF
330
1F
100
AcDbEntity
  8
0
  6
Continuous
 62
     7
370
    25
100
AcDbLine
 10
47.876242377
 20
73.9299646523
 30
0.0
 11
47.876242377
 21
73.6349646523
 31
0.0
  0
LINE
  5
3D0
330
1F
100
AcDbEntity
  8
0
  6
Continuous
 62
     7
370
    25
100
AcDbLine
 10
47.846242377
 20
73.6349646523
 30
0.0
 11
47.876242377
 21
73.6349646523
 31
0.0
  0
LINE
  5
3D1
330
1F
100
AcDbEntity
  8
0
  6
Continuous
 62
     7
370
    25
100
AcDbLine
 10
47.846242377
 20
73.9299646523
 30
0.0
 11
47.846242377
 21
73.6349646523
 31
0.0
  0
LINE
  5
3D2
330
1F
100
AcDbEntity
  8
0
  6
Continuous
 62
     7
370
    25
100
AcDbLine
 10
47.876242377
 20
73.6349646523
 30
0.0
 11
47.876242377
 21
73.4349646523
 31
0.0
  0
LINE
  5
3D3
330
1F
100
AcDbEntity
  8
0
  6
Continuous
 62
     7
370
    25
100
AcDbLine
 10
47.876242377
 20
73.4349646523
 30
0.0
 11
47.846242377
 21
73.4349646523
 31
0.0
  0
LINE
  5
3D4
330
1F
100
AcDbEntity
  8
0
  6
Continuous
 62
     7
370
    25
100
AcDbLine
 10
47.846242377
 20
73.4349646523
 30
0.0
 11
47.846242377
 21
73.6349646523
 31
0.0
  0
LINE
  5
3D5
330
1F
100
AcDbEntity
  8
0
  6
Continuous
 62
     7
370
    25
100
AcDbLine
 10
47.811242377
 20
73.9299646523
 30
0.0
 11
47.841242377
 21
73.9299646523
 31
0.0
  0
LINE
  5
3D6
330
1F
100
AcDbEntity
  8
0
  6
Continuous
 62
     7
370
    25
100
AcDbLine
 10
47.841242377
 20
73.9299646523
 30
0.0
 11
47.841242377
 21
58.5953646523
 31
0.0
  0
LINE
  5
3D7
330
1F
100
AcDbEntity
  8
0
  6
Continuous
 62
     7
370
    25
100
AcDbLine
 10
47.811242377
 20
58.5953646523
 30
0.0
 11
47.841242377
 21
58.5953646523
 31
0.0
  0
LINE
  5
3D8
330
1F
100
AcDbEntity
  8
0
  6
Continuous
 62
     7
370
    25
100
AcDbLine
 10
47.811242377
 20
73.9299646523
 30
0.0
 11
47.811242377
 21
58.5953646523
 31
0.0
  0
ARC
  5
3D9
330
1F
100
AcDbEntity
  8
0
  6
Continuous
 62
     7
370
    25
100
AcDbCircle
 10
47.916242377
 20
73.9299646523
 30
0.0
 40
0.0400000000000063
100
AcDbArc
 50
90.0
 51
180.0
  0
ARC
  5
3DA
330
1F
100
AcDbEntity
  8
0
  6
Continuous
 62
     7
370
    25
100
AcDbCircle
 10
47.916242377
 20
73.9299646523
 30
0.0
 40
0.0700000000000074
100
AcDbArc
 50
90.0
 51
180.0
  0
LINE
  5
3DB
330
1F
100
AcDbEntity
  8
0
  6
Continuous
 62
     7
370
    25
100
AcDbLine
 10
53.286242377
 20
58.3453646523
 30
0.0
 11
53.316242377
 21
58.3453646523
 31
0.0
  0
LINE
  5
3DC
330
1F
100
AcDbEntity
  8
0
  6
Continuous
 62
     7
370
    25
100
AcDbLine
 10
53.286242377
 20
58.5953646523
 30
0.0
 11
53.286242377
 21
58.3453646523
 31
0.0
  0
LINE
  5
3DD
330
1F
100
AcDbEntity
  8
0
  6
Continuous
 62
     7
370
    25
100
AcDbLine
 10
53.316242377
 20
58.3453646523
 30
0.0
 11
53.316242377
 21
58.5953646523
 31
0.0
  0
LINE
  5
3DE
330
1F
100
AcDbEntity
  8
0
  6
Continuous
 62
     7
370
    25
100
AcDbLine
 10
47.841242377
 20
58.3453646523
 30
0.0
 11
47.811242377
 21
58.3453646523
 31
0.0
  0
LINE
  5
3DF
330
1F
100
AcDbEntity
  8
0
  6
Continuous
 62
     7
370
    25
100
AcDbLine
 10
47.811242377
 20
58.3453646523
 30
0.0
 11
47.811242377
 21
58.5953646523
 31
0.0
  0
LINE
  5
3E0
330
1F
100
AcDbEntity
  8
0
  6
Continuous
 62
     7
370
    25
100
AcDbLine
 10
47.841242377
 20
58.5953646523
 30
0.0
 11
47.841242377
 21
58.3453646523
 31
0.0
  0
LINE
  5
3E1
330
1F
100
AcDbEntity
  8
0
  6
Continuous
 62
     7
370
    25
100
AcDbLine
 10
53.211242377
 20
73.9999646523
 30
0.0
 11
53.2532527253
 21
73.9999646523
 31
0.0
  0
LINE
  5
3E2
330
1F
100
AcDbEntity
  8
0
  6
Continuous
 62
     7
370
    25
100
AcDbLine
 10
53.2532527253
 20
73.9999646523
 30
0.0
 11
53.2682527253
 21
73.9999646523
 31
0.0
  0
LINE
  5
3E3
330
1F
100
AcDbEntity
  8
0
  6
Continuous
 62
     7
370
    25
100
AcDbLine
 10
53.286242377
 20
58.3453646523
 30
0.0
 11
53.263742377
 21
58.3453646523
 31
0.0
  0
LINE
  5
3E4
330
1F
100
AcDbEntity
  8
0
  6
Continuous
 62
     7
370
    25
100
AcDbLine
 10
53.286242377
 20
73.9299646523
 30
0.0
 11
53.281242377
 21
73.9299646523
 31
0.0
  0
LINE
  5
3E5
330
1F
100
AcDbEntity
  8
0
  6
Continuous
 62
     7
370
    25
100
AcDbLine
 10
53.251242377
 20
73.9299646523
 30
0.0
 11
53.036242377
 21
73.9299646523
 31
0.0
  0
LINE
  5
3E6
330
1F
100
AcDbEntity
  8
0
  6
Continuous
 62
     7
370
    25
100
AcDbLine
 10
47.916242377
 20
73.9999646523
 30
0.0
 11
47.8742320286
 21
73.9999646523
 31
0.0
  0
LINE
  5
3E7
330
1F
100
AcDbEntity
  8
0
  6
Continuous
 62
     7
370
    25
100
AcDbLine
 10
47.841242377
 20
58.3453646523
 30
0.0
 11
47.863742377
 21
58.3453646523
 31
0.0
  0
LINE
  5
3E8
330
1F
100
AcDbEntity
  8
0
  6
Continuous
 62
     7
370
    25
100
AcDbLine
 10
47.841242377
 20
73.9299646523
 30
0.0
 11
47.846242377
 21
73.9299646523
 31
0.0
  0
LINE
  5
3E9
330
1F
100
AcDbEntity
  8
0
  6
Continuous
 62
     7
370
    25
100
AcDbLine
 10
47.876242377
 20
73.9299646523
 30
0.0
 11
48.091242377
 21
73.9299646523
 31
0.0
  0
LINE
  5
3EA
330
1F
100
AcDbEntity
  8
0
  6
Continuous
 62
     7
370
    25
100
AcDbLine
 10
47.8592320286
 20
73.9999646523
 30
0.0
 11
47.8742320286
 21
73.9999646523
 31
0.0
  0
LINE
  5
3EB
330
1F
100
AcDbEntity
  8
0
  6
Continuous
 62
     7
370
    25
100
AcDbLine
 10
48.091242377
 20
73.9699646523
 30
0.0
 11
48.091242377
 21
73.9299646523
 31
0.0
  0
LINE
  5
3EC
330
1F
100
AcDbEntity
  8
0
  6
Continuous
 62
     7
370
    25
100
AcDbLine
 10
53.036242377
 20
73.9699646523
 30
0.0
 11
53.036242377
 21
73.9299646523
 31
0.0
  0
LINE
  5
3ED
330
1F
100
AcDbEntity
  8
0
  6
Continuous
 62
     7
370
    25
100
AcDbLine
 10
48.091242377
 20
73.9299646523
 30
0.0
 11
53.036242377
 21
73.9299646523
 31
0.0
  0
LINE
  5
3EE
330
1F
100
AcDbEntity
  8
0
  6
Continuous
 62
     7
370
    25
100
AcDbLine
 10
53.263742377
 20
73.3003646523
 30
0.0
 11
53.193742377
 21
73.3003646523
 31
0.0
  0
LINE
  5
3EF
330
1F
100
AcDbEntity
  8
0
  6
Continuous
 62
     7
370
    25
100
AcDbLine
 10
53.263742377
 20
73.3003646523
 30
0.0
 11
53.263742377
 21
57.4720996792
 31
0.0
  0
LINE
  5
3F0
330
1F
100
AcDbEntity
  8
0
  6
Continuous
 62
     7
370
    25
100
AcDbLine
 10
53.193742377
 20
57.4720996792
 30
0.0
 11
53.263742377
 21
57.4720996792
 31
0.0
  0
LINE
  5
3F1
330
1F
100
AcDbEntity
  8
0
  6
Continuous
 62
     7
370
    25
100
AcDbLine
 10
53.193742377
 20
73.3003646523
 30
0.0
 11
53.193742377
 21
57.4720996792
 31
0.0
  0
CIRCLE
  5
3F2
330
1F
100
AcDbEntity
  8
0
  6
Continuous
 62
     7
370
    25
100
AcDbCircle
 10
51.943742377
 20
72.6853646523
 30
0.0
 40
0.1000000000000014
  0
ARC
  5
3F3
330
1F
100
AcDbEntity
  8
0
  6
Continuous
 62
     7
370
    25
100
AcDbCircle
 10
51.943742377
 20
63.5761744521
 30
0.0
 40
0.1000000000000014
100
AcDbArc
 50
0.0
 51
180.0
  0
LINE
  5
3F4
330
1F
100
AcDbEntity
  8
0
  6
Continuous
 62
     7
370
    25
100
AcDbLine
 10
51.843742377
 20
63.3493795328
 30
0.0
 11
51.843742377
 21
63.5761744521
 31
0.0
  0
ARC
  5
3F5
330
1F
100
AcDbEntity
  8
0
  6
Continuous
 62
     7
370
    25
100
AcDbCircle
 10
51.943742377
 20
63.1761744521
 30
0.0
 40
0.2000000000000061
100
AcDbArc
 50
120.0
 51
60.0
  0
LINE
  5
3F6
330
1F
100
AcDbEntity
  8
0
  6
Continuous
 62
     7
370
    25
100
AcDbLine
 10
52.043742377
 20
63.5761744521
 30
0.0
 11
52.043742377
 21
63.3493795328
 31
0.0
  0
LINE
  5
3F7
330
1F
100
AcDbEntity
  8
0
  6
Continuous
 62
     7
370
    25
100
AcDbLine
 10
50.463742377
 20
63.5761744521
 30
0.0
 11
50.463742377
 21
63.3493795328
 31
0.0
  0
ARC
  5
3F8
330
1F
100
AcDbEntity
  8
0
  6
Continuous
 62
     7
370
    25
100
AcDbCircle
 10
50.563742377
 20
63.1761744521
 30
0.0
 40
0.1999999999999999
100
AcDbArc
 50
120.0
 51
60.0
  0
LINE
  5
3F9
330
1F
100
AcDbEntity
  8
0
  6
Continuous
 62
     7
370
    25
100
AcDbLine
 10
50.663742377
 20
63.5761744521
 30
0.0
 11
50.663742377
 21
63.3493795328
 31
0.0
  0
ARC
  5
3FA
330
1F
100
AcDbEntity
  8
0
  6
Continuous
 62
     7
370
    25
100
AcDbCircle
 10
50.563742377
 20
63.5761744521
 30
0.0
 40
0.1000000000000014
100
AcDbArc
 50
0.0
 51
180.0
  0
CIRCLE
  5
3FB
330
1F
100
AcDbEntity
  8
0
  6
Continuous
 62
     7
370
    25
100
AcDbCircle
 10
49.183742377
 20
72.6853646523
 30
0.0
 40
0.1000000000000014
  0
ARC
  5
3FC
330
1F
100
AcDbEntity
  8
0
  6
Continuous
 62
     7
370
    25
100
AcDbCircle
 10
49.183742377
 20
63.1761744521
 30
0.0
 40
0.2000000000000061
100
AcDbArc
 50
120.0
 51
60.0
  0
LINE
  5
3FD
330
1F
100
AcDbEntity
  8
0
  6
Continuous
 62
     7
370
    25
100
AcDbLine
 10
49.283742377
 20
63.3493795328
 30
0.0
 11
49.283742377
 21
63.5761744521
 31
0.0
  0
ARC
  5
3FE
330
1F
100
AcDbEntity
  8
0
  6
Continuous
 62
     7
370
    25
100
AcDbCircle
 10
49.183742377
 20
63.5761744521
 30
0.0
 40
0.1000000000000014
100
AcDbArc
 50
0.0
 51
180.0
  0
LINE
  5
3FF
330
1F
100
AcDbEntity
  8
0
  6
Continuous
 62
     7
370
    25
100
AcDbLine
 10
49.083742377
 20
63.5761744521
 30
0.0
 11
49.083742377
 21
63.3493795328
 31
0.0
  0
LINE
  5
400
330
1F
100
AcDbEntity
  8
0
  6
Continuous
 62
     7
370
    25
100
AcDbLine
 10
47.933742377
 20
73.3003646523
 30
0.0
 11
47.933742377
 21
57.4720996792
 31
0.0
  0
LINE
  5
401
330
1F
100
AcDbEntity
  8
0
  6
Continuous
 62
     7
370
    25
100
AcDbLine
 10
47.933742377
 20
73.3003646523
 30
0.0
 11
48.063742377
 21
73.3003646523
 31
0.0
  0
LINE
  5
402
330
1F
100
AcDbEntity
  8
0
  6
Continuous
 62
     7
370
    25
100
AcDbLine
 10
48.063742377
 20
73.6753646523
 30
0.0
 11
48.063742377
 21
73.3003646523
 31
0.0
  0
LINE
  5
403
330
1F
100
AcDbEntity
  8
0
  6
Continuous
 62
     7
370
    25
100
AcDbLine
 10
53.063742377
 20
73.6753646523
 30
0.0
 11
48.063742377
 21
73.6753646523
 31
0.0
  0
LINE
  5
404
330
1F
100
AcDbEntity
  8
0
  6
Continuous
 62
     7
370
    25
100
AcDbLine
 10
53.063742377
 20
73.6753646523
 30
0.0
 11
53.063742377
 21
73.3003646523
 31
0.0
  0
LINE
  5
405
330
1F
100
AcDbEntity
  8
0
  6
Continuous
 62
     7
370
    25
100
AcDbLine
 10
53.063742377
 20
73.3003646523
 30
0.0
 11
53.193742377
 21
73.3003646523
 31
0.0
  0
LINE
  5
406
330
1F
100
AcDbEntity
  8
0
  6
Continuous
 62
     7
370
    25
100
AcDbLine
 10
47.933742377
 20
57.4720996792
 30
0.0
 11
53.193742377
 21
57.4720996792
 31
0.0
  0
CIRCLE
  5
407
330
1F
100
AcDbEntity
  8
0
  6
Continuous
 62
     7
370
    25
100
AcDbCircle
 10
50.563742377
 20
72.6853646523
 30
0.0
 40
0.1000000000000014
  0
LINE
  5
408
330
1F
100
AcDbEntity
  8
0
  6
Continuous
 62
     7
370
    25
100
AcDbLine
 10
53.193742377
 20
57.4114779009
 30
0.0
 11
53.193742377
 21
57.4720996792
 31
0.0
  0
LINE
  5
409
330
1F
100
AcDbEntity
  8
0
  6
Continuous
 62
     7
370
    25
100
AcDbLine
 10
47.933742377
 20
57.4114779009
 30
0.0
 11
53.193742377
 21
57.4114779009
 31
0.0
  0
LINE
  5
40A
330
1F
100
AcDbEntity
  8
0
  6
Continuous
 62
     7
370
    25
100
AcDbLine
 10
47.933742377
 20
57.4114779009
 30
0.0
 11
47.933742377
 21
57.4720996792
 31
0.0
  0
LINE
  5
40B
330
1F
100
AcDbEntity
  8
0
  6
Continuous
 62
     7
370
    25
100
AcDbLine
 10
48.063742377
 20
73.6753646523
 30
0.0
 11
48.063742377
 21
73.7453646523
 31
0.0
  0
LINE
  5
40C
330
1F
100
AcDbEntity
  8
0
  6
Continuous
 62
     7
370
    25
100
AcDbLine
 10
48.063742377
 20
73.7453646523
 30
0.0
 11
53.063742377
 21
73.7453646523
 31
0.0
  0
LINE
  5
40D
330
1F
100
AcDbEntity
  8
0
  6
Continuous
 62
     7
370
    25
100
AcDbLine
 10
53.063742377
 20
73.7453646523
 30
0.0
 11
53.063742377
 21
73.6753646523
 31
0.0
  0
LINE
  5
40E
330
1F
100
AcDbEntity
  8
0
  6
Continuous
 62
     7
370
    25
100
AcDbLine
 10
47.933742377
 20
57.4720996792
 30
0.0
 11
47.863742377
 21
57.4720996792
 31
0.0
  0
LINE
  5
40F
330
1F
100
AcDbEntity
  8
0
  6
Continuous
 62
     7
370
    25
100
AcDbLine
 10
47.863742377
 20
73.3003646523
 30
0.0
 11
47.863742377
 21
57.4720996792
 31
0.0
  0
LINE
  5
410
330
1F
100
AcDbEntity
  8
0
  6
Continuous
 62
     7
370
    25
100
AcDbLine
 10
47.863742377
 20
73.3003646523
 30
0.0
 11
47.933742377
 21
73.3003646523
 31
0.0
  0
ARC
  5
411
330
1F
100
AcDbEntity
  8
0
  6
Continuous
 62
     7
370
    25
100
AcDbCircle
 10
53.1881621098
 20
57.3701514607
 30
0.0
 40
0.0417014872789218
100
AcDbArc
 50
13.3163496116
 51
82.3099213345
  0
LINE
  5
412
330
1F
100
AcDbEntity
  8
0
  6
Continuous
 62
     7
370
    25
100
AcDbLine
 10
53.228742377
 20
57.3797564571
 30
0.0
 11
53.228742377
 21
57.1230526738
 31
0.0
  0
LWPOLYLINE
  5
413
330
1F
100
AcDbEntity
  8
0
  6
Continuous
 62
     7
370
    25
100
AcDbPolyline
 90
        9
 70
   128
 43
0.0
 10
53.228742377
 20
57.1230526738
 10
53.227301273
 20
57.1157367867
 10
53.2230333419
 20
57.1087020451
 10
53.2161025979
 20
57.1022187901
 10
53.2067753856
 20
57.0965361695
 10
53.1954101444
 20
57.0918725634
 10
53.1824436344
 20
57.0884071914
 10
53.1683741511
 20
57.0862732258
 10
53.153742377
 20
57.0855526738
  0
LINE
  5
414
330
1F
100
AcDbEntity
  8
0
  6
Continuous
 62
     7
370
    25
100
AcDbLine
 10
53.153742377
 20
57.0855526738
 30
0.0
 11
53.128742377
 21
57.0855526738
 31
0.0
  0
LINE
  5
415
330
1F
100
AcDbEntity
  8
0
  6
Continuous
 62
     7
370
    25
100
AcDbLine
 10
53.128742377
 20
57.0855526738
 30
0.0
 11
51.0886386587
 21
57.0855526738
 31
0.0
  0
LINE
  5
416
330
1F
100
AcDbEntity
  8
0
  6
Continuous
 62
     7
370
    25
100
AcDbLine
 10
51.0886386587
 20
57.0855526738
 30
0.0
 11
51.0532994487
 21
57.1345050265
 31
0.0
  0
ARC
  5
417
330
1F
100
AcDbEntity
  8
0
  6
Continuous
 62
     7
370
    25
100
AcDbCircle
 10
50.8027585614
 20
56.8723025189
 30
0.0
 40
0.3626580912702485
100
AcDbArc
 50
46.3028865198
 51
95.0050117374
  0
LINE
  5
418
330
1F
100
AcDbEntity
  8
0
  6
Continuous
 62
     7
370
    25
100
AcDbLine
 10
50.7711192248
 20
57.2335778205
 30
0.0
 11
50.3563655292
 21
57.2335778205
 31
0.0
  0
ARC
  5
419
330
1F
100
AcDbEntity
  8
0
  6
Continuous
 62
     7
370
    25
100
AcDbCircle
 10
50.3247261925
 20
56.8723025189
 30
0.0
 40
0.3626580912702521
100
AcDbArc
 50
84.9949882626
 51
133.6971134802
  0
LINE
  5
41A
330
1F
100
AcDbEntity
  8
0
  6
Continuous
 62
     7
370
    25
100
AcDbLine
 10
50.0388460953
 20
57.0855526738
 30
0.0
 11
50.0741853053
 21
57.1345050265
 31
0.0
  0
LINE
  5
41B
330
1F
100
AcDbEntity
  8
0
  6
Continuous
 62
     7
370
    25
100
AcDbLine
 10
47.998742377
 20
57.0855526738
 30
0.0
 11
50.0388460953
 21
57.0855526738
 31
0.0
  0
LINE
  5
41C
330
1F
100
AcDbEntity
  8
0
  6
Continuous
 62
     7
370
    25
100
AcDbLine
 10
47.973742377
 20
57.0855526738
 30
0.0
 11
47.998742377
 21
57.0855526738
 31
0.0
  0
LWPOLYLINE
  5
41D
330
1F
100
AcDbEntity
  8
0
  6
Continuous
 62
     7
370
    25
100
AcDbPolyline
 90
        9
 70
   128
 43
0.0
 10
47.898742377
 20
57.1230526738
 10
47.9001834809
 20
57.1157367867
 10
47.904451412
 20
57.1087020451
 10
47.911382156
 20
57.1022187901
 10
47.9207093684
 20
57.0965361695
 10
47.9320746095
 20
57.0918725634
 10
47.9450411195
 20
57.0884071914
 10
47.9591106028
 20
57.0862732258
 10
47.973742377
 20
57.0855526738
  0
LINE
  5
41E
330
1F
100
AcDbEntity
  8
0
  6
Continuous
 62
     7
370
    25
100
AcDbLine
 10
47.898742377
 20
57.3797564571
 30
0.0
 11
47.898742377
 21
57.1230526738
 31
0.0
  0
ARC
  5
41F
330
1F
100
AcDbEntity
  8
0
  6
Continuous
 62
     7
370
    25
100
AcDbCircle
 10
47.9393226442
 20
57.3701514607
 30
0.0
 40
0.0417014872789218
100
AcDbArc
 50
97.6900786655
 51
166.6836503884
  0
LINE
  5
420
330
1F
100
AcDbEntity
  8
0
  6
Continuous
 62
     7
370
    25
100
AcDbLine
 10
53.228742377
 20
57.3797564571
 30
0.0
 11
53.228742377
 21
57.4057372192
 31
0.0
  0
ARC
  5
421
330
1F
100
AcDbEntity
  8
0
  6
Continuous
 62
     7
370
    25
100
AcDbCircle
 10
53.1881621098
 20
57.3961322229
 30
0.0
 40
0.0417014872789289
100
AcDbArc
 50
13.3163496116
 51
82.3099213345
  0
LINE
  5
422
330
1F
100
AcDbEntity
  8
0
  6
Continuous
 62
     7
370
    25
100
AcDbLine
 10
47.898742377
 20
57.3797564571
 30
0.0
 11
47.898742377
 21
57.4057372192
 31
0.0
  0
ARC
  5
423
330
1F
100
AcDbEntity
  8
0
  6
Continuous
 62
     7
370
    25
100
AcDbCircle
 10
47.9393226442
 20
57.3961322229
 30
0.0
 40
0.0417014872789289
100
AcDbArc
 50
97.6900786655
 51
166.6836503884
  0
LINE
  5
424
330
1F
100
AcDbEntity
  8
0
  6
Continuous
 62
     7
370
    25
100
AcDbLine
 10
53.263742377
 20
57.1837022196
 30
0.0
 11
53.233742377
 21
57.1837022196
 31
0.0
  0
LINE
  5
425
330
1F
100
AcDbEntity
  8
0
  6
Continuous
 62
     7
370
    25
100
AcDbLine
 10
53.233742377
 20
57.4720996792
 30
0.0
 11
53.233742377
 21
57.1837022196
 31
0.0
  0
LINE
  5
426
330
1F
100
AcDbEntity
  8
0
  6
Continuous
 62
     7
370
    25
100
AcDbLine
 10
53.263742377
 20
57.4720996792
 30
0.0
 11
53.263742377
 21
57.1837022196
 31
0.0
  0
LINE
  5
427
330
1F
100
AcDbEntity
  8
0
  6
Continuous
 62
     7
370
    25
100
AcDbLine
 10
47.863742377
 20
57.1837022196
 30
0.0
 11
47.893742377
 21
57.1837022196
 31
0.0
  0
LINE
  5
428
330
1F
100
AcDbEntity
  8
0
  6
Continuous
 62
     7
370
    25
100
AcDbLine
 10
47.863742377
 20
57.4720996792
 30
0.0
 11
47.863742377
 21
57.1837022196
 31
0.0
  0
LINE
  5
429
330
1F
100
AcDbEntity
  8
0
  6
Continuous
 62
     7
370
    25
100
AcDbLine
 10
47.893742377
 20
57.4720996792
 30
0.0
 11
47.893742377
 21
57.1837022196
 31
0.0
  0
LINE
  5
42A
330
1F
100
AcDbEntity
  8
0
  6
Continuous
 62
     7
370
    25
100
AcDbLine
 10
53.198742377
 20
57.4720996792
 30
0.0
 11
53.198742377
 21
57.4357372192
 31
0.0
  0
LINE
  5
42B
330
1F
100
AcDbEntity
  8
0
  6
Continuous
 62
     7
370
    25
100
AcDbLine
 10
53.228742377
 20
57.4057372192
 30
0.0
 11
53.228742377
 21
57.4720996792
 31
0.0
  0
LINE
  5
42C
330
1F
100
AcDbEntity
  8
0
  6
Continuous
 62
     7
370
    25
100
AcDbLine
 10
47.898742377
 20
57.4057372192
 30
0.0
 11
47.898742377
 21
57.4720996792
 31
0.0
  0
LINE
  5
42D
330
1F
100
AcDbEntity
  8
0
  6
Continuous
 62
     7
370
    25
100
AcDbLine
 10
47.928742377
 20
57.4720996792
 30
0.0
 11
47.928742377
 21
57.4357372192
 31
0.0
  0
LINE
  5
42E
330
1F
100
AcDbEntity
  8
0
  6
Continuous
 62
     7
370
    25
100
AcDbLine
 10
53.233742377
 20
57.1837022196
 30
0.0
 11
53.233742377
 21
57.1662855221
 31
0.0
  0
LINE
  5
42F
330
1F
100
AcDbEntity
  8
0
  6
Continuous
 62
     7
370
    25
100
AcDbLine
 10
53.263742377
 20
57.1662855221
 30
0.0
 11
53.263742377
 21
57.1837022196
 31
0.0
  0
LINE
  5
430
330
1F
100
AcDbEntity
  8
0
  6
Continuous
 62
     7
370
    25
100
AcDbLine
 10
47.863742377
 20
57.1662855221
 30
0.0
 11
47.863742377
 21
57.1837022196
 31
0.0
  0
LINE
  5
431
330
1F
100
AcDbEntity
  8
0
  6
Continuous
 62
     7
370
    25
100
AcDbLine
 10
47.893742377
 20
57.1837022196
 30
0.0
 11
47.893742377
 21
57.1662855221
 31
0.0
  0
LWPOLYLINE
  5
432
330
1F
100
AcDbEntity
  8
0
  6
Continuous
 62
     7
370
    25
100
AcDbPolyline
 90
        3
 70
   128
 43
0.0
 10
51.0981261665
 20
57.0772348172
 10
51.094982671
 20
57.0772251149
 10
51.0886386587
 20
57.0855526738
  0
LINE
  5
433
330
1F
100
AcDbEntity
  8
0
  6
Continuous
 62
     7
370
    25
100
AcDbLine
 10
53.128742377
 20
57.0761744521
 30
0.0
 11
53.128742377
 21
57.0855526738
 31
0.0
  0
LWPOLYLINE
  5
434
330
1F
100
AcDbEntity
  8
0
  6
Continuous
 62
     7
370
    25
100
AcDbPolyline
 90
        3
 70
   128
 43
0.0
 10
50.0293585874
 20
57.0772348172
 10
50.0325020829
 20
57.0772251149
 10
50.0388460953
 20
57.0855526738
  0
LINE
  5
435
330
1F
100
AcDbEntity
  8
0
  6
Continuous
 62
     7
370
    25
100
AcDbLine
 10
47.998742377
 20
57.0761744521
 30
0.0
 11
47.998742377
 21
57.0855526738
 31
0.0
  0
LINE
  5
436
330
1F
100
AcDbEntity
  8
0
  6
Continuous
 62
     7
370
    25
100
AcDbLine
 10
52.063742377
 20
63.3361744521
 30
0.0
 11
52.063742377
 21
63.0161744521
 31
0.0
  0
LINE
  5
437
330
1F
100
AcDbEntity
  8
0
  6
Continuous
 62
     7
370
    25
100
AcDbLine
 10
49.063742377
 20
63.3361744521
 30
0.0
 11
49.063742377
 21
63.0161744521
 31
0.0
  0
LINE
  5
438
330
1F
100
AcDbEntity
  8
0
  6
Continuous
 62
     8
370
    25
100
AcDbLine
 10
53.2532527253
 20
73.9859568895
 30
0.0
 11
53.2532527253
 21
73.9999646523
 31
0.0
  0
LINE
  5
439
330
1F
100
AcDbEntity
  8
0
  6
Continuous
 62
     8
370
    25
100
AcDbLine
 10
53.036242377
 20
73.7453646523
 30
0.0
 11
53.036242377
 21
73.9299646523
 31
0.0
  0
LINE
  5
43A
330
1F
100
AcDbEntity
  8
0
  6
Continuous
 62
     8
370
    25
100
AcDbLine
 10
47.8742320286
 20
73.9999646523
 30
0.0
 11
47.8742320286
 21
73.9859568895
 31
0.0
  0
LINE
  5
43B
330
1F
100
AcDbEntity
  8
0
  6
Continuous
 62
     8
370
    25
100
AcDbLine
 10
48.091242377
 20
73.7453646523
 30
0.0
 11
48.091242377
 21
73.9299646523
 31
0.0
  0
LINE
  5
43C
330
1F
100
AcDbEntity
  8
DIMS
100
AcDbLine
 10
53.804093698
 20
9.6278454144
 30
0.0
 11
47.1885290295
 21
9.6278454144
 31
0.0
  0
DIMENSION
  5
43D
330
1F
100
AcDbEntity
  8
DIMS
100
AcDbDimension
  2
_D_4
 10
44.8117874375
 20
9.6278454144
 30
0.0
 11
44.8117874375
 21
12.5012828933
 31
0.0
 70
   160
  1
<>
 71
     2
 42
-1.0
  3
SLDDIMSTYLE1
100
AcDbAlignedDimension
 13
49.183742377
 23
63.5761744521
 33
0.0
 14
47.1885290295
 24
9.6278454144
 34
0.0
 50
90.0
100
AcDbRotatedDimension
  0
DIMENSION
  5
44C
330
1F
100
AcDbEntity
  8
DIMS
100
AcDbDimension
  2
_D_5
 10
55.2937450288
 20
73.9999646523
 30
0.0
 11
55.2937450288
 21
65.625133817
 31
0.0
 70
   160
  1
<>
 71
     2
 42
-1.0
  3
SLDDIMSTYLE1
100
AcDbAlignedDimension
 13
50.0293585117
 23
57.0761744521
 33
0.0
 14
53.211242377
 24
73.9999646523
 34
0.0
 50
90.0
100
AcDbRotatedDimension
  0
DIMENSION
  5
45B
330
1F
100
AcDbEntity
  8
DIMS
100
AcDbDimension
  2
_D_6
 10
46.0521530323
 20
63.5761744521
 30
0.0
 11
46.0521530323
 21
68.3627996142
 31
0.0
 70
   160
  1
<>
 71
     2
 42
-1.0
  3
SLDDIMSTYLE1
100
AcDbAlignedDimension
 13
49.183742377
 23
72.6853646523
 33
0.0
 14
49.183742377
 24
63.5761744521
 34
0.0
 50
90.0
100
AcDbRotatedDimension
  0
DIMENSION
  5
46A
330
1F
100
AcDbEntity
  8
DIMS
100
AcDbDimension
  2
_D_7
 10
46.0521530323
 20
57.0761744521
 30
0.0
 11
46.0521530323
 21
60.5528676186
 31
0.0
 70
   160
  1
<>
 71
     2
 42
-1.0
  3
SLDDIMSTYLE1
100
AcDbAlignedDimension
 13
49.183742377
 23
63.5761744521
 33
0.0
 14
47.998742377
 24
57.0761744521
 34
0.0
 50
90.0
100
AcDbRotatedDimension
  0
DIMENSION
  5
479
330
1F
100
AcDbEntity
  8
DIMS
100
AcDbDimension
  2
_D_8
 10
46.0321530323
 20
72.6853646523
 30
0.0
 11
46.0321530323
 21
74.6871389541
 31
0.0
 70
   160
  1
<>
 71
     2
 42
-1.0
  3
SLDDIMSTYLE1
100
AcDbAlignedDimension
 13
47.916242377
 23
73.9999646523
 33
0.0
 14
49.183742377
 24
72.6853646523
 34
0.0
 50
90.0
100
AcDbRotatedDimension
  0
DIMENSION
  5
489
330
1F
100
AcDbEntity
  8
DIMS
100
AcDbDimension
  2
_D_9
 10
51.943742377
 20
55.6587628366
 30
0.0
 11
50.6026867959
 21
55.6587628366
 31
0.0
 70
   160
  1
<>
 71
     2
 42
-1.0
  3
SLDDIMSTYLE1
100
AcDbAlignedDimension
 13
49.183742377
 23
63.5761744521
 33
0.0
 14
51.943742377
 24
63.5761744521
 34
0.0
100
AcDbRotatedDimension
  0
DIMENSION
  5
498
330
1F
100
AcDbEntity
  8
DIMS
100
AcDbDimension
  2
_D_10
 10
49.133742377
 20
72.5987621119
 30
0.0
 11
55.2420987763
 21
75.4796895005
 31
0.0
 70
   163
  1
  mounting holes (6) <>
 71
     1
 42
-1.0
  3
SLDDIMSTYLE4
100
AcDbDiametricDimension
 15
49.233742377
 25
72.7719671927
 35
0.0
 40
0.0
  0
MTEXT
  5
4A6
330
1F
100
AcDbEntity
  8
NOTES
100
AcDbMText
 10
49.1277711185
 20
54.1528919446
 30
0.0
 40
0.5
 41
0.0
 71
     1
 72
     1
  1
back view
  7
SLDTEXTSTYLE0
 73
     1
 44
1.0
  0
LINE
  5
4A7
330
1F
100
AcDbEntity
  8
0
  6
Continuous
 62
     7
370
    25
100
AcDbLine
 10
66.5947246271
 20
59.0300548926
 30
0.0
 11
66.6102809762
 21
59.0210744033
 31
0.0
  0
LINE
  5
4A8
330
1F
100
AcDbEntity
  8
0
  6
Continuous
 62
     7
370
    25
100
AcDbLine
 10
66.7372706553
 20
59.2410508144
 30
0.0
 11
66.7217143061
 21
59.2500313036
 31
0.0
  0
LINE
  5
4A9
330
1F
100
AcDbEntity
  8
0
  6
Continuous
 62
     7
370
    25
100
AcDbLine
 10
66.5615789967
 20
58.6567749678
 30
0.0
 11
66.5771353459
 21
58.6477944786
 31
0.0
  0
LINE
  5
4AA
330
1F
100
AcDbEntity
  8
0
  6
Continuous
 62
     7
370
    25
100
AcDbLine
 10
66.7041250249
 20
58.8677708897
 30
0.0
 11
66.6885686757
 21
58.8767513789
 31
0.0
  0
LINE
  5
4AB
330
1F
100
AcDbEntity
  8
0
  6
Continuous
 62
     7
370
    25
100
AcDbLine
 10
66.5430805001
 20
59.0171456498
 30
0.0
 11
66.5762261305
 21
58.9980110847
 31
0.0
  0
LINE
  5
4AC
330
1F
100
AcDbEntity
  8
0
  6
Continuous
 62
     7
370
    25
100
AcDbLine
 10
66.7402128027
 20
59.2820751115
 30
0.0
 11
66.7070671723
 21
59.3012096766
 31
0.0
  0
LINE
  5
4AD
330
1F
100
AcDbEntity
  8
0
  6
Continuous
 62
     7
370
    25
100
AcDbLine
 10
63.8869699983
 20
71.7582156961
 30
0.0
 11
63.7950461167
 21
71.7051491688
 31
0.0
  0
LINE
  5
4AE
330
1F
100
AcDbEntity
  8
0
  6
Continuous
 62
     7
370
    25
100
AcDbLine
 10
64.2225113749
 20
70.9646773915
 30
0.0
 11
64.3144352565
 21
71.0177439188
 31
0.0
  0
LINE
  5
4AF
330
1F
100
AcDbEntity
  8
0
  6
Continuous
 62
     7
370
    25
100
AcDbLine
 10
63.7718979741
 20
71.4634975578
 30
0.0
 11
63.7718979741
 21
71.4553334767
 31
0.0
  0
LINE
  5
4B0
330
1F
100
AcDbEntity
  8
0
  6
Continuous
 62
     7
370
    25
100
AcDbLine
 10
63.9946004089
 20
71.0695597453
 30
0.0
 11
64.0016703275
 21
71.0654770413
 31
0.0
  0
LINE
  5
4B1
330
1F
100
AcDbEntity
  8
0
  6
Continuous
 62
     7
370
    25
100
AcDbLine
 10
64.1641944721
 20
71.0493653593
 30
0.0
 11
64.1783366077
 21
71.0575294405
 31
0.0
  0
LINE
  5
4B2
330
1F
100
AcDbEntity
  8
0
  6
Continuous
 62
     7
370
    25
100
AcDbLine
 10
63.8533630196
 20
71.620461201
 30
0.0
 11
63.839220884
 21
71.6122971199
 31
0.0
  0
LINE
  5
4B3
330
1F
100
AcDbEntity
  8
0
  6
Continuous
 62
     7
370
    25
100
AcDbLine
 10
65.9358197547
 20
71.160111196
 30
0.0
 11
65.9358197547
 21
71.1356149717
 31
0.0
  0
LINE
  5
4B4
330
1F
100
AcDbEntity
  8
0
  6
Continuous
 62
     7
370
    25
100
AcDbLine
 10
66.2472833367
 20
71.1454236735
 30
0.0
 11
66.2472833367
 21
71.1699198979
 31
0.0
  0
LINE
  5
4B5
330
1F
100
AcDbEntity
  8
0
  6
Continuous
 62
     7
370
    25
100
AcDbLine
 10
62.3127974165
 20
73.2260386627
 30
0.0
 11
62.3127974165
 21
60.5005767258
 31
0.0
  0
LINE
  5
4B6
330
1F
100
AcDbEntity
  8
0
  6
Continuous
 62
     7
370
    25
100
AcDbLine
 10
62.3566362513
 20
73.2780939689
 30
0.0
 11
62.3566362513
 21
73.2535977445
 31
0.0
  0
LINE
  5
4B7
330
1F
100
AcDbEntity
  8
0
  6
Continuous
 62
     7
370
    25
100
AcDbLine
 10
63.192428597
 20
73.7958966429
 30
0.0
 11
62.4485535607
 21
73.3664667251
 31
0.0
  0
LINE
  5
4B8
330
1F
100
AcDbEntity
  8
0
  6
Continuous
 62
     7
370
    25
100
AcDbLine
 10
66.8058499438
 20
59.0799105067
 30
0.0
 11
66.7846367404
 21
59.0921566284
 31
0.0
  0
LINE
  5
4B9
330
1F
100
AcDbEntity
  8
0
  6
Continuous
 62
     7
370
    25
100
AcDbLine
 10
66.9973619852
 20
58.1240887079
 30
0.0
 11
66.9973619852
 21
58.8412934964
 31
0.0
  0
LINE
  5
4BA
330
1F
100
AcDbEntity
  8
0
  6
Continuous
 62
     7
370
    25
100
AcDbLine
 10
65.952876393
 20
57.6693347387
 30
0.0
 11
65.9740895965
 21
57.6570886171
 31
0.0
  0
LINE
  5
4BB
330
1F
100
AcDbEntity
  8
0
  6
Continuous
 62
     7
370
    25
100
AcDbLine
 10
65.8330335615
 20
57.6314706223
 30
0.0
 11
66.4972038143
 21
57.5720837934
 31
0.0
  0
LINE
  5
4BC
330
1F
100
AcDbEntity
  8
0
  6
Continuous
 62
     7
370
    25
100
AcDbLine
 10
64.7045650657
 20
58.3483119222
 30
0.0
 11
64.693958464
 21
58.3209745088
 31
0.0
  0
LINE
  5
4BD
330
1F
100
AcDbEntity
  8
0
  6
Continuous
 62
     7
370
    25
100
AcDbLine
 10
62.8357986819
 20
59.7522297394
 30
0.0
 11
62.8464052836
 21
59.7371384477
 31
0.0
  0
LWPOLYLINE
  5
4BE
330
1F
100
AcDbEntity
  8
0
  6
Continuous
 62
     7
370
    25
100
AcDbPolyline
 90
       17
 70
   128
 43
0.0
 10
66.6828723034
 20
59.0604527609
 10
66.704068992
 20
59.076864421
 10
66.7222685782
 20
59.1005950835
 10
66.7347003398
 20
59.1280319699
 10
66.7394716539
 20
59.1549980632
 10
66.7358561311
 20
59.17738802
 10
66.724404202
 20
59.1917931724
 10
66.7068593191
 20
59.1960204665
 10
66.6858925316
 20
59.1894263352
 10
66.6646958429
 20
59.173014675
 10
66.6464962568
 20
59.1492840126
 10
66.6340644952
 20
59.1218471261
 10
66.6292931811
 20
59.0948810328
 10
66.6329087039
 20
59.072491076
 10
66.644360633
 20
59.0580859236
 10
66.6619055159
 20
59.0538586295
 10
66.6828723034
 20
59.0604527609
  0
LWPOLYLINE
  5
4BF
330
1F
100
AcDbEntity
  8
0
  6
Continuous
 62
     7
370
    25
100
AcDbPolyline
 90
       19
 70
   128
 43
0.0
 10
66.6713150594
 20
59.025980301
 10
66.6407607095
 20
59.0155650996
 10
66.6141884688
 20
59.0190806024
 10
66.5948033415
 20
59.0361027879
 10
66.5849434601
 20
59.0645785292
 10
66.5857980718
 20
59.1010732317
 10
66.5972640979
 20
59.1411850957
 10
66.6179585663
 20
59.1800760384
 10
66.6453854188
 20
59.2130552381
 10
66.6762365722
 20
59.2361449167
 10
66.706790922
 20
59.2465601181
 10
66.7333631628
 20
59.2430446153
 10
66.7527482901
 20
59.2260224299
 10
66.7626081715
 20
59.1975466886
 10
66.7617535598
 20
59.161051986
 10
66.7502875337
 20
59.120940122
 10
66.7295930652
 20
59.0820491793
 10
66.7021662127
 20
59.0490699796
 10
66.6713150594
 20
59.025980301
  0
LWPOLYLINE
  5
4C0
330
1F
100
AcDbEntity
  8
0
  6
Continuous
 62
     7
370
    25
100
AcDbPolyline
 90
       11
 70
   128
 43
0.0
 10
66.7217143061
 20
59.2500313036
 10
66.7178068136
 20
59.2520251045
 10
66.6912345728
 20
59.2555406073
 10
66.660680223
 20
59.2451254059
 10
66.6298290696
 20
59.2220357273
 10
66.6024022171
 20
59.1890565276
 10
66.5817077487
 20
59.1501655849
 10
66.5702417226
 20
59.1100537209
 10
66.5693871109
 20
59.0735590184
 10
66.5792469923
 20
59.0450832771
 10
66.5947246271
 20
59.0300548926
  0
LWPOLYLINE
  5
4C1
330
1F
100
AcDbEntity
  8
0
  6
Continuous
 62
     7
370
    25
100
AcDbPolyline
 90
       17
 70
   128
 43
0.0
 10
66.6837769164
 20
59.0990826809
 10
66.6753699937
 20
59.096438673
 10
66.6683351308
 20
59.0981336649
 10
66.6637433218
 20
59.1039096095
 10
66.6622936281
 20
59.1128871716
 10
66.6642067523
 20
59.1236995988
 10
66.6691914386
 20
59.134700797
 10
66.6764888138
 20
59.1442159335
 10
66.6849879186
 20
59.1507964151
 10
66.6933948413
 20
59.1534404231
 10
66.7004297042
 20
59.1517454312
 10
66.7050215132
 20
59.1459694865
 10
66.7064712069
 20
59.1369919244
 10
66.7045580827
 20
59.1261794973
 10
66.6995733964
 20
59.1151782991
 10
66.6922760212
 20
59.1056631625
 10
66.6837769164
 20
59.0990826809
  0
LWPOLYLINE
  5
4C2
330
1F
100
AcDbEntity
  8
0
  6
Continuous
 62
     7
370
    25
100
AcDbPolyline
 90
       17
 70
   128
 43
0.0
 10
66.7063467173
 20
58.7834739088
 10
66.7021517237
 20
58.8054057483
 10
66.6902053925
 20
58.8191552275
 10
66.6723264444
 20
58.8226291128
 10
66.6512367871
 20
58.8152985366
 10
66.6301471299
 20
58.7982795128
 10
66.6122681818
 20
58.7741630334
 10
66.6003218506
 20
58.7466206138
 10
66.5961268569
 20
58.7198453378
 10
66.6003218506
 20
58.6979134983
 10
66.6122681818
 20
58.6841640191
 10
66.6301471299
 20
58.6806901338
 10
66.6512367871
 20
58.68802071
 10
66.6723264444
 20
58.7050397338
 10
66.6902053925
 20
58.7291562132
 10
66.7021517237
 20
58.7566986328
 10
66.7063467173
 20
58.7834739088
  0
LWPOLYLINE
  5
4C3
330
1F
100
AcDbEntity
  8
0
  6
Continuous
 62
     7
370
    25
100
AcDbPolyline
 90
       19
 70
   128
 43
0.0
 10
66.7304327466
 20
58.8096245992
 10
66.7250169895
 20
58.7710304267
 10
66.7094229384
 20
58.7308383809
 10
66.685531466
 20
58.6938962157
 10
66.6562242365
 20
58.6646597015
 10
66.6250361343
 20
58.6466551933
 10
66.5957289048
 20
58.6420543006
 10
66.5718374324
 20
58.6514119589
 10
66.5562433813
 20
58.6735994966
 10
66.5508276242
 20
58.705940769
 10
66.5562433813
 20
58.7445349416
 10
66.5718374324
 20
58.7847269874
 10
66.5957289048
 20
58.8216691525
 10
66.6250361343
 20
58.8509056668
 10
66.6562242365
 20
58.8689101749
 10
66.685531466
 20
58.8735110676
 10
66.7094229384
 20
58.8641534093
 10
66.7250169895
 20
58.8419658717
 10
66.7304327466
 20
58.8096245992
  0
LWPOLYLINE
  5
4C4
330
1F
100
AcDbEntity
  8
0
  6
Continuous
 62
     7
370
    25
100
AcDbPolyline
 90
       11
 70
   128
 43
0.0
 10
66.6885686757
 20
58.8767513789
 10
66.6699751168
 20
58.8824915569
 10
66.6406678873
 20
58.8778906642
 10
66.6094797851
 20
58.859886156
 10
66.5801725556
 20
58.8306496418
 10
66.5562810832
 20
58.7937074766
 10
66.5406870321
 20
58.7535154308
 10
66.535271275
 20
58.7149212583
 10
66.5406870321
 20
58.6825799858
 10
66.5562810832
 20
58.6603924482
 10
66.5615789967
 20
58.6567749678
  0
LWPOLYLINE
  5
4C5
330
1F
100
AcDbEntity
  8
0
  6
Continuous
 62
     7
370
    25
100
AcDbPolyline
 90
       17
 70
   128
 43
0.0
 10
66.673333874
 20
58.764416
 10
66.6716518334
 20
58.7536800837
 10
66.6668617871
 20
58.7426365705
 10
66.6596929762
 20
58.7329667353
 10
66.6512367871
 20
58.7261427229
 10
66.6427805981
 20
58.7232034273
 10
66.6356117871
 20
58.7245963295
 10
66.6308217408
 20
58.7301093729
 10
66.6291397002
 20
58.7389032465
 10
66.6308217408
 20
58.7496391629
 10
66.6356117871
 20
58.7606826761
 10
66.6427805981
 20
58.7703525112
 10
66.6512367871
 20
58.7771765237
 10
66.6596929762
 20
58.7801158193
 10
66.6668617871
 20
58.7787229171
 10
66.6716518334
 20
58.7732098737
 10
66.673333874
 20
58.764416
  0
LWPOLYLINE
  5
4C6
330
1F
100
AcDbEntity
  8
0
  6
Continuous
 62
     7
370
    25
100
AcDbPolyline
 90
       22
 70
   128
 43
0.0
 10
66.6081075668
 20
59.2318782504
 10
66.5795086539
 20
59.1929465302
 10
66.5579035421
 20
59.149314108
 10
66.5452119404
 20
59.1048579158
 10
66.5425615534
 20
59.0635280815
 10
66.5501878795
 20
59.0289969422
 10
66.5674132862
 20
59.0043327411
 10
66.5927072205
 20
58.9917270008
 10
66.6238222054
 20
58.9922997967
 10
66.6579935379
 20
59.0060002332
 10
66.6921849451
 20
59.0316109665
 10
66.7233583706
 20
59.0668563706
 10
66.7487439185
 20
59.1086047365
 10
66.7660859717
 20
59.1531465389
 10
66.7738436125
 20
59.196524043
 10
66.7713275405
 20
59.2348829673
 10
66.7587613198
 20
59.2648149531
 10
66.7372615142
 20
59.2836604119
 10
66.7087384758
 20
59.2897448422
 10
66.6757266018
 20
59.2825276156
 10
66.6411591419
 20
59.2626500142
 10
66.6081075668
 20
59.2318782504
  0
LWPOLYLINE
  5
4C7
330
1F
100
AcDbEntity
  8
0
  6
Continuous
 62
     7
370
    25
100
AcDbPolyline
 90
        8
 70
   128
 43
0.0
 10
66.5749619364
 20
59.2510128155
 10
66.5463630235
 20
59.2120810954
 10
66.5247579117
 20
59.1684486731
 10
66.51206631
 20
59.1239924809
 10
66.509415923
 20
59.0826626466
 10
66.5170422491
 20
59.0481315073
 10
66.5342676558
 20
59.0234673062
 10
66.5430805001
 20
59.0171456498
  0
LWPOLYLINE
  5
4C8
330
1F
100
AcDbEntity
  8
0
  6
Continuous
 62
     7
370
    25
100
AcDbPolyline
 90
        6
 70
   128
 43
0.0
 10
66.7070671723
 20
59.3012096766
 10
66.7041158838
 20
59.302794977
 10
66.6755928454
 20
59.3088794073
 10
66.6425809714
 20
59.3016621807
 10
66.6080135115
 20
59.2817845794
 10
66.5749619364
 20
59.2510128155
  0
ARC
  5
4C9
330
1F
100
AcDbEntity
  8
0
  6
Continuous
 62
     7
370
    25
100
AcDbCircle
 10
63.6835461153
 20
71.1510339413
 30
0.0
 40
0.5963767084054563
100
AcDbArc
 50
355.3286911718
 51
56.9629957817
  0
ARC
  5
4CA
330
1F
100
AcDbEntity
  8
0
  6
Continuous
 62
     7
370
    25
100
AcDbCircle
 10
64.1004392919
 20
71.1362158362
 30
0.0
 40
0.2105398571917354
100
AcDbArc
 50
305.4368356014
 51
2.4917451662
  0
ARC
  5
4CB
330
1F
100
AcDbEntity
  8
0
  6
Continuous
 62
     7
370
    25
100
AcDbCircle
 10
63.8798366606
 20
71.5309198398
 30
0.0
 40
0.1937660843017748
100
AcDbArc
 50
66.8643395119
 51
115.9503601511
  0
ARC
  5
4CC
330
1F
100
AcDbEntity
  8
0
  6
Continuous
 62
     7
370
    25
100
AcDbCircle
 10
63.9763770711
 20
71.5713203803
 30
0.0
 40
0.2071798343340914
100
AcDbArc
 50
53.123998747
 51
115.5655428239
  0
LWPOLYLINE
  5
4CD
330
1F
100
AcDbEntity
  8
0
  6
Continuous
 62
     7
370
    25
100
AcDbPolyline
 90
       14
 70
   128
 43
0.0
 10
64.3144352565
 20
71.0177439188
 10
64.3419337779
 20
71.0383576346
 10
64.3712998817
 20
71.0761729161
 10
64.3914511207
 20
71.1246064074
 10
64.4017012684
 20
71.182008764
 10
64.4017012684
 20
71.2464252173
 10
64.3914511207
 20
71.3156621425
 10
64.3712998817
 20
71.387361759
 10
64.3419337779
 20
71.4590824224
 10
64.3043528365
 20
71.5283817716
 10
64.2598368314
 20
71.5928999002
 10
64.209901702
 20
71.6504397209
 10
64.156247929
 20
71.699041784
 10
64.1007026274
 20
71.7370510045
  0
LWPOLYLINE
  5
4CE
330
1F
100
AcDbEntity
  8
0
  6
Continuous
 62
     7
370
    25
100
AcDbPolyline
 90
       32
 70
   128
 43
0.0
 10
63.9946366102
 20
71.6043730751
 10
64.0430320567
 20
71.5707520015
 10
64.089446188
 20
71.5271414244
 10
64.131978804
 20
71.4753267661
 10
64.1688886144
 20
71.4174293248
 10
64.1986645274
 20
71.3558194284
 10
64.2200875134
 20
71.2930193934
 10
64.2322805129
 20
71.2316002607
 10
64.2347443432
 20
71.1740765367
 10
64.2273781347
 20
71.1228032494
 10
64.2104834608
 20
71.0798795332
 10
64.1847519914
 20
71.0470626902
 10
64.1512371761
 20
71.0256962457
 10
64.1113111151
 20
71.0166549445
 10
64.0666083863
 20
71.0203089385
 10
64.0189591244
 20
71.0365086328
 10
63.970314096
 20
71.0645908099
 10
63.9226648341
 20
71.1034057824
 10
63.8779621053
 20
71.1513644605
 10
63.8380360443
 20
71.2065034104
 10
63.804521229
 20
71.2665652371
 10
63.7787897596
 20
71.3290910022
 10
63.7618950857
 20
71.3915208937
 10
63.7545288772
 20
71.4512990243
 10
63.7569927075
 20
71.5059780705
 10
63.769185707
 20
71.5533194656
 10
63.790608693
 20
71.5913850474
 10
63.820384606
 20
71.6186164065
 10
63.8572944164
 20
71.6338986877
 10
63.8998270324
 20
71.6366062329
 10
63.9462411637
 20
71.6266281947
 10
63.9946366102
 20
71.6043730751
  0
LWPOLYLINE
  5
4CF
330
1F
100
AcDbEntity
  8
0
  6
Continuous
 62
     7
370
    25
100
AcDbPolyline
 90
       24
 70
   128
 43
0.0
 10
64.001707678
 20
71.6002897075
 10
63.9531924751
 20
71.622408624
 10
63.9067976193
 20
71.6317842097
 10
63.8645507885
 20
71.6280067064
 10
63.828298372
 20
71.6112412092
 10
63.7996247742
 20
71.5822204508
 10
63.7797831691
 20
71.5422127775
 10
63.7696407299
 20
71.4929667167
 10
63.7696407299
 20
71.4366345576
 10
63.7797831691
 20
71.3756782858
 10
63.7996247742
 20
71.3127619828
 10
63.828298372
 20
71.2506353931
 10
63.8645507885
 20
71.1920137467
 10
63.9067976193
 20
71.1394590909
 10
63.9531924751
 20
71.0952683162
 10
64.001707678
 20
71.0613727717
 10
64.0502228809
 20
71.0392538552
 10
64.0966177367
 20
71.0298782696
 10
64.1388645675
 20
71.0336557729
 10
64.175116984
 20
71.0504212701
 10
64.2037905818
 20
71.0794420285
 10
64.223632187
 20
71.1194497017
 10
64.2337746262
 20
71.1686957625
 10
64.2349800645
 20
71.189433215
  0
LWPOLYLINE
  5
4D0
330
1F
100
AcDbEntity
  8
0
  6
Continuous
 62
     7
370
    25
100
AcDbPolyline
 90
       30
 70
   128
 43
0.0
 10
63.9946366102
 20
71.5839595548
 10
63.9467543876
 20
71.6055879384
 10
63.9011110844
 20
71.6141781324
 10
63.8598409309
 20
71.609328469
 10
63.8248736736
 20
71.591265713
 10
63.7978443425
 20
71.5608344587
 10
63.7800167991
 20
71.5194576379
 10
63.7722246395
 20
71.4690699847
 10
63.7748322165
 20
71.4120275697
 10
63.7877176027
 20
71.3509976329
 10
63.8102782917
 20
71.2888338663
 10
63.8414593707
 20
71.2284429784
 10
63.8798028472
 20
71.1726487803
 10
63.9235158229
 20
71.1240601464
 10
63.9705543275
 20
71.0849490273
 10
64.0187188929
 20
71.0571442156
 10
64.0657573975
 20
71.0419458332
 10
64.1094703732
 20
71.0400645397
 10
64.1478138497
 20
71.0515883022
 10
64.1789949287
 20
71.0759782824
 10
64.2015556177
 20
71.112094032
 10
64.2144410039
 20
71.1582468186
 10
64.2170485809
 20
71.2122785893
 10
64.2092564213
 20
71.2716628785
 10
64.1914288779
 20
71.3336229427
 10
64.1643995468
 20
71.3952615984
 10
64.1294322895
 20
71.4536966904
 10
64.088162136
 20
71.5061958588
 10
64.0425188329
 20
71.5503043009
 10
63.9946366102
 20
71.5839595548
  0
LWPOLYLINE
  5
4D1
330
1F
100
AcDbEntity
  8
0
  6
Continuous
 62
     7
370
    25
100
AcDbPolyline
 90
       17
 70
   128
 43
0.0
 10
64.001707678
 20
71.5962070035
 10
64.0494878021
 20
71.5628250278
 10
64.0951797055
 20
71.5193038104
 10
64.1367864328
 20
71.4675454372
 10
64.1724895703
 20
71.4098119975
 10
64.2007287196
 20
71.3486267198
 10
64.2202696944
 20
71.2866636942
 10
64.2302584603
 20
71.2266310022
 10
64.2302584603
 20
71.1711523606
 10
64.2202696944
 20
71.1226524523
 10
64.2007287196
 20
71.0832509559
 10
64.1724895703
 20
71.054669906
 10
64.1367864328
 20
71.0381584315
 10
64.0951797055
 20
71.0344381631
 10
64.0494878021
 20
71.0436716944
 10
64.001707678
 20
71.0654554758
 10
64.0016703275
 20
71.0654770413
  0
LWPOLYLINE
  5
4D2
330
1F
100
AcDbEntity
  8
0
  6
Continuous
 62
     7
370
    25
100
AcDbPolyline
 90
        9
 70
   128
 43
0.0
 10
63.7718979741
 20
71.4634975578
 10
63.7731568957
 20
71.4905101186
 10
63.7831456616
 20
71.5390100269
 10
63.8026866364
 20
71.5784115233
 10
63.8309257857
 20
71.6069925733
 10
63.8666289232
 20
71.6235040478
 10
63.9082356505
 20
71.6272243162
 10
63.9539275539
 20
71.6179907849
 10
64.001707678
 20
71.5962070035
  0
LWPOLYLINE
  5
4D3
330
1F
100
AcDbEntity
  8
0
  6
Continuous
 62
     7
370
    25
100
AcDbPolyline
 90
        3
 70
   128
 43
0.0
 10
63.8439437028
 20
71.6204468878
 10
63.8424405076
 20
71.6194052903
 10
63.8188195813
 20
71.5971027185
  0
LWPOLYLINE
  5
4D4
330
1F
100
AcDbEntity
  8
0
  6
Continuous
 62
     7
370
    25
100
AcDbPolyline
 90
        3
 70
   128
 43
0.0
 10
64.1408341379
 20
71.0392967057
 10
64.1530067031
 20
71.041819854
 10
64.1736137889
 20
71.0493796726
  0
LINE
  5
4D5
330
1F
100
AcDbEntity
  8
0
  6
Continuous
 62
     7
370
    25
100
AcDbLine
 10
63.8767233594
 20
71.6305298559
 30
0.0
 11
63.8533630196
 21
71.620461201
 31
0.0
  0
LWPOLYLINE
  5
4D6
330
1F
100
AcDbEntity
  8
0
  6
Continuous
 62
     7
370
    25
100
AcDbPolyline
 90
        3
 70
   128
 43
0.0
 10
64.1783366077
 20
71.0575294405
 10
64.1866317059
 20
71.0628339871
 10
64.1987379142
 20
71.0727238462
  0
LWPOLYLINE
  5
4D7
330
1F
100
AcDbEntity
  8
0
  6
Continuous
 62
     7
370
    25
100
AcDbPolyline
 90
       15
 70
   128
 43
0.0
 10
64.0229208814
 20
71.385229915
 10
64.0454262468
 20
71.3542033286
 10
64.0603042766
 20
71.3190538171
 10
64.065320662
 20
71.28505996
 10
64.0597220672
 20
71.257326786
 10
64.0443492614
 20
71.2400191255
 10
64.0215108563
 20
71.2357361571
 10
63.9946366102
 20
71.2451210759
 10
63.9677623641
 20
71.2667645012
 10
63.944923959
 20
71.2974161308
 10
63.9295511532
 20
71.3324728551
 10
63.9239525584
 20
71.3666700291
 10
63.9289689438
 20
71.3948720909
 10
63.9438469736
 20
71.4128437948
 10
63.966352339
 20
71.4178862395
  0
LINE
  5
4D8
330
1F
100
AcDbEntity
  8
0
  6
Continuous
 62
     7
370
    25
100
AcDbLine
 10
64.0229208814
 20
71.385229915
 30
0.0
 11
64.0229208814
 21
71.5150497458
 31
0.0
  0
LINE
  5
4D9
330
1F
100
AcDbEntity
  8
0
  6
Continuous
 62
     7
370
    25
100
AcDbLine
 10
64.0229208814
 20
71.5150497458
 30
0.0
 11
63.966352339
 21
71.5477060703
 31
0.0
  0
LINE
  5
4DA
330
1F
100
AcDbEntity
  8
0
  6
Continuous
 62
     7
370
    25
100
AcDbLine
 10
63.966352339
 20
71.5477060703
 30
0.0
 11
63.966352339
 21
71.4178862395
 31
0.0
  0
LINE
  5
4DB
330
1F
100
AcDbEntity
  8
0
  6
Continuous
 62
     7
370
    25
100
AcDbLine
 10
64.0370630171
 20
71.3675477702
 30
0.0
 11
64.0370630171
 21
71.3435642323
 31
0.0
  0
LINE
  5
4DC
330
1F
100
AcDbEntity
  8
0
  6
Continuous
 62
     7
370
    25
100
AcDbLine
 10
64.0370630171
 20
71.3435642323
 30
0.0
 11
63.9920965358
 21
71.3176056352
 31
0.0
  0
LWPOLYLINE
  5
4DD
330
1F
100
AcDbEntity
  8
0
  6
Continuous
 62
     7
370
    25
100
AcDbPolyline
 90
        7
 70
   128
 43
0.0
 10
63.966352339
 20
71.4178862395
 10
63.9930545673
 20
71.3973919051
 10
64.006517848
 20
71.3795132584
 10
64.008734244
 20
71.368833056
 10
64.0072490523
 20
71.3558826984
 10
63.9985565449
 20
71.3315333908
 10
63.9920965358
 20
71.3176056352
  0
ARC
  5
4DE
330
1F
100
AcDbEntity
  8
0
  6
Continuous
 62
     7
370
    25
100
AcDbCircle
 10
63.9968198111
 20
71.2604642087
 30
0.0
 40
0.0573363056847709
100
AcDbArc
 50
25.2800849246
 51
94.7252916081
  0
LWPOLYLINE
  5
4DF
330
1F
100
AcDbEntity
  8
0
  6
Continuous
 62
     7
370
    25
100
AcDbPolyline
 90
        3
 70
   128
 43
0.0
 10
64.0486650783
 20
71.2849493107
 10
64.0551250874
 20
71.2988770663
 10
64.0610551213
 20
71.3154881789
  0
LINE
  5
4E0
330
1F
100
AcDbEntity
  8
0
  6
Continuous
 62
     7
370
    25
100
AcDbLine
 10
64.0370630171
 20
71.3435642323
 30
0.0
 11
64.0556057975
 21
71.332859713
 31
0.0
  0
ARC
  5
4E1
330
1F
100
AcDbEntity
  8
0
  6
Continuous
 62
     7
370
    25
100
AcDbCircle
 10
66.0894404495
 20
58.7498296375
 30
0.0
 40
0.4303661342152452
100
AcDbArc
 50
242.6096722366
 51
297.3903277634
  0
LINE
  5
4E2
330
1F
100
AcDbEntity
  8
0
  6
Continuous
 62
     7
370
    25
100
AcDbLine
 10
65.8914505507
 20
58.3677105337
 30
0.0
 11
65.8914505507
 21
71.0931724706
 31
0.0
  0
ARC
  5
4E3
330
1F
100
AcDbEntity
  8
0
  6
Continuous
 62
     7
370
    25
100
AcDbCircle
 10
66.0894404495
 20
71.4752915744
 30
0.0
 40
0.4303661342152706
100
AcDbArc
 50
242.6096722366
 51
297.3903277634
  0
LINE
  5
4E4
330
1F
100
AcDbEntity
  8
0
  6
Continuous
 62
     7
370
    25
100
AcDbLine
 10
66.2874303482
 20
71.0931724706
 30
0.0
 11
66.2874303482
 21
58.3677105337
 31
0.0
  0
LINE
  5
4E5
330
1F
100
AcDbEntity
  8
0
  6
Continuous
 62
     7
370
    25
100
AcDbLine
 10
65.9126637542
 20
71.1054185923
 30
0.0
 11
65.8914505507
 21
71.0931724706
 31
0.0
  0
ARC
  5
4E6
330
1F
100
AcDbEntity
  8
0
  6
Continuous
 62
     7
370
    25
100
AcDbCircle
 10
66.0894404495
 20
71.4465963635
 30
0.0
 40
0.3842554769779115
100
AcDbArc
 50
242.6096722366
 51
297.3903277634
  0
LINE
  5
4E7
330
1F
100
AcDbEntity
  8
0
  6
Continuous
 62
     7
370
    25
100
AcDbLine
 10
66.2874303482
 20
71.0931724706
 30
0.0
 11
66.2662171448
 21
71.1054185923
 31
0.0
  0
LWPOLYLINE
  5
4E8
330
1F
100
AcDbEntity
  8
0
  6
Continuous
 62
     7
370
    25
100
AcDbPolyline
 90
        9
 70
   128
 43
0.0
 10
66.2421756229
 20
71.1634105425
 10
66.2442594151
 20
71.1647059464
 10
66.2458440712
 20
71.1662186562
 10
66.2468635464
 20
71.1678856254
 10
66.2472753511
 20
71.1696373785
 10
66.2470623223
 20
71.1714009064
 10
66.2462333385
 20
71.1731027091
 10
66.2448229499
 20
71.1746718595
 10
66.2428899384
 20
71.1760429587
  0
ARC
  5
4E9
330
1F
100
AcDbEntity
  8
0
  6
Continuous
 62
     7
370
    25
100
AcDbCircle
 10
66.0797799429
 20
71.5164679982
 30
0.0
 40
0.3886153932739791
100
AcDbArc
 50
249.2907862811
 51
294.7009903806
  0
LWPOLYLINE
  5
4EA
330
1F
100
AcDbEntity
  8
0
  6
Continuous
 62
     7
370
    25
100
AcDbPolyline
 90
        9
 70
   128
 43
0.0
 10
65.940213153
 20
71.1662342569
 10
65.9381574938
 20
71.1647535064
 10
65.936709906
 20
71.1630498212
 10
65.9359399062
 20
71.1612050165
 10
65.9358844715
 20
71.1593076839
 10
65.9365462641
 20
71.1574489378
 10
65.9378935032
 20
71.1557180396
 10
65.939861491
 20
71.1541981111
 10
65.9423557204
 20
71.1529621427
  0
LINE
  5
4EB
330
1F
100
AcDbEntity
  8
0
  6
Continuous
 62
     7
370
    25
100
AcDbLine
 10
65.9518428699
 20
71.1729479495
 30
0.0
 11
65.940213153
 21
71.1662342569
 31
0.0
  0
LINE
  5
4EC
330
1F
100
AcDbEntity
  8
0
  6
Continuous
 62
     7
370
    25
100
AcDbLine
 10
65.9412362681
 20
71.1790710103
 30
0.0
 11
65.9518428699
 21
71.1729479495
 31
0.0
  0
LINE
  5
4ED
330
1F
100
AcDbEntity
  8
0
  6
Continuous
 62
     7
370
    25
100
AcDbLine
 10
65.9409480254
 20
71.1789046114
 30
0.0
 11
65.9412362681
 21
71.1790710103
 31
0.0
  0
LINE
  5
4EE
330
1F
100
AcDbEntity
  8
0
  6
Continuous
 62
     7
370
    25
100
AcDbLine
 10
62.4443049925
 20
73.1974736678
 30
0.0
 11
65.9409480254
 21
71.1789046114
 31
0.0
  0
LINE
  5
4EF
330
1F
100
AcDbEntity
  8
0
  6
Continuous
 62
     7
370
    25
100
AcDbLine
 10
62.4443049925
 20
73.1974736678
 30
0.0
 11
62.4445932352
 21
73.1976400668
 31
0.0
  0
LINE
  5
4F0
330
1F
100
AcDbEntity
  8
0
  6
Continuous
 62
     7
370
    25
100
AcDbLine
 10
62.4445932352
 20
73.1976400668
 30
0.0
 11
62.4339866335
 21
73.2037631277
 31
0.0
  0
LINE
  5
4F1
330
1F
100
AcDbEntity
  8
0
  6
Continuous
 62
     7
370
    25
100
AcDbLine
 10
62.4339866335
 20
73.2037631277
 30
0.0
 11
62.4223569166
 21
73.197049435
 31
0.0
  0
ARC
  5
4F2
330
1F
100
AcDbEntity
  8
0
  6
Continuous
 62
     7
370
    25
100
AcDbCircle
 10
62.411881242
 20
73.2166189269
 30
0.0
 40
0.0221969540535632
100
AcDbArc
 50
235.6805290981
 51
298.1604291121
  0
ARC
  5
4F3
330
1F
100
AcDbEntity
  8
0
  6
Continuous
 62
     7
370
    25
100
AcDbCircle
 10
62.4591974448
 20
73.2795173004
 30
0.0
 40
0.1008871713358579
100
AcDbArc
 50
114.4342647096
 51
233.6263544236
  0
ARC
  5
4F4
330
1F
100
AcDbEntity
  8
0
  6
Continuous
 62
     7
370
    25
100
AcDbCircle
 10
62.4287836361
 20
73.3515751481
 30
0.0
 40
0.0228009138491972
100
AcDbArc
 50
62.397962675
 51
119.7612205777
  0
LINE
  5
4F5
330
1F
100
AcDbEntity
  8
0
  6
Continuous
 62
     7
370
    25
100
AcDbLine
 10
62.4690537298
 20
73.3546322294
 30
0.0
 11
62.4393479276
 21
73.371781024
 31
0.0
  0
LINE
  5
4F6
330
1F
100
AcDbEntity
  8
0
  6
Continuous
 62
     7
370
    25
100
AcDbLine
 10
62.480101494
 20
73.3610099679
 30
0.0
 11
62.4690537298
 21
73.3546322294
 31
0.0
  0
LINE
  5
4F7
330
1F
100
AcDbEntity
  8
0
  6
Continuous
 62
     7
370
    25
100
AcDbLine
 10
63.2274257526
 20
73.7924310793
 30
0.0
 11
62.480101494
 21
73.3610099679
 31
0.0
  0
LINE
  5
4F8
330
1F
100
AcDbEntity
  8
0
  6
Continuous
 62
     7
370
    25
100
AcDbLine
 10
66.971556159
 20
71.6309906033
 30
0.0
 11
63.2274257526
 21
73.7924310793
 31
0.0
  0
LINE
  5
4F9
330
1F
100
AcDbEntity
  8
0
  6
Continuous
 62
     7
370
    25
100
AcDbLine
 10
66.2242319003
 20
71.1995694918
 30
0.0
 11
66.971556159
 21
71.6309906033
 31
0.0
  0
LINE
  5
4FA
330
1F
100
AcDbEntity
  8
0
  6
Continuous
 62
     7
370
    25
100
AcDbLine
 10
66.2131841362
 20
71.1931917533
 30
0.0
 11
66.2242319003
 21
71.1995694918
 31
0.0
  0
LINE
  5
4FB
330
1F
100
AcDbEntity
  8
0
  6
Continuous
 62
     7
370
    25
100
AcDbLine
 10
66.2131841362
 20
71.1931917533
 30
0.0
 11
66.2428899384
 21
71.1760429587
 31
0.0
  0
LINE
  5
4FC
330
1F
100
AcDbEntity
  8
0
  6
Continuous
 62
     7
370
    25
100
AcDbLine
 10
66.2421756229
 20
71.1389143181
 30
0.0
 11
66.2421756229
 21
71.1634105425
 31
0.0
  0
ARC
  5
4FD
330
1F
100
AcDbEntity
  8
0
  6
Continuous
 62
     7
370
    25
100
AcDbCircle
 10
66.0797799429
 20
71.4919717738
 30
0.0
 40
0.3886153932741166
100
AcDbArc
 50
249.2907862811
 51
294.7009903806
  0
LINE
  5
4FE
330
1F
100
AcDbEntity
  8
0
  6
Continuous
 62
     7
370
    25
100
AcDbLine
 10
65.9423557204
 20
71.1529621427
 30
0.0
 11
65.9423557204
 21
71.1284659184
 31
0.0
  0
ARC
  5
4FF
330
1F
100
AcDbEntity
  8
0
  6
Continuous
 62
     7
370
    25
100
AcDbCircle
 10
62.5022726449
 20
73.1068512674
 30
0.0
 40
0.1075763365301267
100
AcDbArc
 50
122.60547834
 51
177.3945215143
  0
ARC
  5
500
330
1F
100
AcDbEntity
  8
0
  6
Continuous
 62
     7
370
    25
100
AcDbCircle
 10
65.9989156778
 20
71.088282211
 30
0.0
 40
0.1075763365300764
100
AcDbArc
 50
122.60547834
 51
177.3945215143
  0
LINE
  5
501
330
1F
100
AcDbEntity
  8
0
  6
Continuous
 62
     7
370
    25
100
AcDbLine
 10
65.8914505507
 20
71.0931724706
 30
0.0
 11
62.3948075178
 21
73.1117415271
 31
0.0
  0
ARC
  5
502
330
1F
100
AcDbEntity
  8
0
  6
Continuous
 62
     7
370
    25
100
AcDbCircle
 10
65.975187697
 20
71.1022281457
 30
0.0
 40
0.0626052903269685
100
AcDbArc
 50
128.9636870381
 51
177.0788676714
  0
ARC
  5
503
330
1F
100
AcDbEntity
  8
0
  6
Continuous
 62
     7
370
    25
100
AcDbCircle
 10
65.9441628525
 20
71.1366803289
 30
0.0
 40
0.0084108421925695
100
AcDbArc
 50
187.2769027968
 51
257.5928355518
  0
ARC
  5
504
330
1F
100
AcDbEntity
  8
0
  6
Continuous
 62
     7
370
    25
100
AcDbCircle
 10
66.2395039544
 20
71.1462693232
 30
0.0
 40
0.0078252100125292
100
AcDbArc
 50
289.9632970594
 51
353.7960816047
  0
ARC
  5
505
330
1F
100
AcDbEntity
  8
0
  6
Continuous
 62
     7
370
    25
100
AcDbCircle
 10
66.9135885066
 20
71.5403682029
 30
0.0
 40
0.1075763365300918
100
AcDbArc
 50
2.6054784857
 51
57.39452166
  0
LINE
  5
506
330
1F
100
AcDbEntity
  8
0
  6
Continuous
 62
     7
370
    25
100
AcDbLine
 10
66.273729375
 20
71.1138373511
 30
0.0
 11
67.0210536337
 21
71.5452584625
 31
0.0
  0
ARC
  5
507
330
1F
100
AcDbEntity
  8
0
  6
Continuous
 62
     7
370
    25
100
AcDbCircle
 10
66.1662642479
 20
71.1089470914
 30
0.0
 40
0.107576336530056
100
AcDbArc
 50
2.6054784857
 51
57.39452166
  0
LINE
  5
508
330
1F
100
AcDbEntity
  8
0
  6
Continuous
 62
     7
370
    25
100
AcDbLine
 10
66.2242319003
 20
71.1868140148
 30
0.0
 11
66.2242319003
 21
71.1995694918
 31
0.0
  0
LINE
  5
509
330
1F
100
AcDbEntity
  8
0
  6
Continuous
 62
     7
370
    25
100
AcDbLine
 10
66.2525161716
 20
71.1260834727
 30
0.0
 11
66.273729375
 21
71.1138373511
 31
0.0
  0
ARC
  5
50A
330
1F
100
AcDbEntity
  8
0
  6
Continuous
 62
     7
370
    25
100
AcDbCircle
 10
66.1969361454
 20
71.1244292502
 30
0.0
 40
0.0556046380170406
100
AcDbArc
 50
1.7047850761
 51
25.1161095961
  0
LINE
  5
50B
330
1F
100
AcDbEntity
  8
0
  6
Continuous
 62
     7
370
    25
100
AcDbLine
 10
65.9412362681
 20
71.1668248887
 30
0.0
 11
65.9412362681
 21
71.1790710103
 31
0.0
  0
LINE
  5
50C
330
1F
100
AcDbEntity
  8
0
  6
Continuous
 62
     7
370
    25
100
AcDbLine
 10
66.2874303482
 20
71.0931724706
 30
0.0
 11
67.045802371
 21
71.5309713206
 31
0.0
  0
LINE
  5
50D
330
1F
100
AcDbEntity
  8
0
  6
Continuous
 62
     7
370
    25
100
AcDbLine
 10
67.045802371
 20
71.5309713206
 30
0.0
 11
67.045802371
 21
59.0096445866
 31
0.0
  0
ARC
  5
50E
330
1F
100
AcDbEntity
  8
0
  6
Continuous
 62
     7
370
    25
100
AcDbCircle
 10
66.6619983457
 20
59.0271097997
 30
0.0
 40
0.3842012018929701
100
AcDbArc
 50
302.60547834
 51
357.3945215144
  0
LINE
  5
50F
330
1F
100
AcDbEntity
  8
0
  6
Continuous
 62
     7
370
    25
100
AcDbLine
 10
66.8690256757
 20
58.7034583697
 30
0.0
 11
66.2874303482
 21
58.3677105337
 31
0.0
  0
ARC
  5
510
330
1F
100
AcDbEntity
  8
0
  6
Continuous
 62
     7
370
    25
100
AcDbCircle
 10
66.8044651895
 20
59.0752920233
 30
0.0
 40
0.2392280381477937
100
AcDbArc
 50
38.2863259468
 51
112.1007358678
  0
ARC
  5
511
330
1F
100
AcDbEntity
  8
0
  6
Continuous
 62
     7
370
    25
100
AcDbCircle
 10
66.7416029672
 20
58.9689151553
 30
0.0
 40
0.1279644124121474
100
AcDbArc
 50
34.944409045
 51
91.3128154902
  0
LWPOLYLINE
  5
512
330
1F
100
AcDbEntity
  8
0
  6
Continuous
 62
     7
370
    25
100
AcDbPolyline
 90
       10
 70
   128
 43
0.0
 10
66.8464964413
 20
59.0422107891
 10
66.8652809433
 20
59.0272037499
 10
66.8905892344
 20
59.0249408073
 10
66.9193687612
 20
59.0356949056
 10
66.9481482879
 20
59.0581689417
 10
66.973456579
 20
59.0896522152
 10
66.992241081
 20
59.1263473787
 10
67.0022361058
 20
59.1638284539
 10
67.0022361058
 20
59.19757467
 10
66.992241081
 20
59.2235157353
  0
LWPOLYLINE
  5
513
330
1F
100
AcDbEntity
  8
0
  6
Continuous
 62
     7
370
    25
100
AcDbPolyline
 90
       10
 70
   128
 43
0.0
 10
64.211495712
 20
61.0310692365
 10
64.2541801342
 20
61.2174053146
 10
64.2863169888
 20
61.4123098107
 10
64.3078005026
 20
61.6151412283
 10
64.3185599661
 20
61.8252319802
 10
64.3185599661
 20
62.0418905866
 10
64.3078005026
 20
62.2644039505
 10
64.2863169888
 20
62.4920397051
 10
64.2541801342
 20
62.7240486239
 10
64.211495712
 20
62.9596670868
  0
LWPOLYLINE
  5
514
330
1F
100
AcDbEntity
  8
0
  6
Continuous
 62
     7
370
    25
100
AcDbPolyline
 90
        9
 70
   128
 43
0.0
 10
64.211495712
 20
62.9596670868
 10
64.202028613
 20
62.989463818
 10
64.1862758221
 20
63.0180675191
 10
64.1659184581
 20
63.0424256376
 10
64.1431290343
 20
63.0599387044
 10
64.1203396104
 20
63.0687377463
 10
64.0999822464
 20
63.06788374
 10
64.0842294555
 20
63.0574678242
 10
64.0747623565
 20
63.0386015727
  0
LWPOLYLINE
  5
515
330
1F
100
AcDbEntity
  8
0
  6
Continuous
 62
     7
370
    25
100
AcDbPolyline
 90
       10
 70
   128
 43
0.0
 10
64.0747623565
 20
61.1100037225
 10
64.0320779343
 20
61.3456221854
 10
63.9999410797
 20
61.5776311041
 10
63.9784575659
 20
61.8052668587
 10
63.9676981024
 20
62.0277802227
 10
63.9676981024
 20
62.2444388291
 10
63.9784575659
 20
62.454529581
 10
63.9999410797
 20
62.6573609985
 10
64.0320779343
 20
62.8522654947
 10
64.0747623565
 20
63.0386015727
  0
LWPOLYLINE
  5
516
330
1F
100
AcDbEntity
  8
0
  6
Continuous
 62
     7
370
    25
100
AcDbPolyline
 90
        9
 70
   128
 43
0.0
 10
64.0747623565
 20
61.1100037225
 10
64.0842294555
 20
61.0802069912
 10
64.0999822464
 20
61.0516032901
 10
64.1203396104
 20
61.0272451716
 10
64.1431290343
 20
61.0097321048
 10
64.1659184581
 20
61.000933063
 10
64.1862758221
 20
61.0017870692
 10
64.202028613
 20
61.0122029851
 10
64.211495712
 20
61.0310692365
  0
ARC
  5
517
330
1F
100
AcDbEntity
  8
0
  6
Continuous
 62
     7
370
    25
100
AcDbCircle
 10
63.532079107
 20
59.9500855818
 30
0.0
 40
0.1917240983934416
100
AcDbArc
 50
234.4493781097
 51
293.8851577811
  0
LINE
  5
518
330
1F
100
AcDbEntity
  8
0
  6
Continuous
 62
     7
370
    25
100
AcDbLine
 10
62.3948075178
 20
60.3862795902
 30
0.0
 11
63.4206064954
 21
59.7940984453
 31
0.0
  0
LINE
  5
519
330
1F
100
AcDbEntity
  8
0
  6
Continuous
 62
     7
370
    25
100
AcDbLine
 10
62.3948075178
 20
60.3862795902
 30
0.0
 11
62.3948075178
 21
73.1117415271
 31
0.0
  0
LINE
  5
51A
330
1F
100
AcDbEntity
  8
0
  6
Continuous
 62
     7
370
    25
100
AcDbLine
 10
65.8914505507
 20
58.3677105337
 30
0.0
 11
64.8656515731
 21
58.9598916785
 31
0.0
  0
ARC
  5
51B
330
1F
100
AcDbEntity
  8
0
  6
Continuous
 62
     7
370
    25
100
AcDbCircle
 10
65.155234466
 20
59.42439973
 30
0.0
 40
0.5473810205894939
100
AcDbArc
 50
209.013971826
 51
238.0598249775
  0
LINE
  5
51C
330
1F
100
AcDbEntity
  8
0
  6
Continuous
 62
     7
370
    25
100
AcDbLine
 10
64.6765489653
 20
59.1589074078
 30
0.0
 11
64.426782946
 21
59.5888094754
 31
0.0
  0
LWPOLYLINE
  5
51D
330
1F
100
AcDbEntity
  8
0
  6
Continuous
 62
     7
370
    25
100
AcDbPolyline
 90
       11
 70
   128
 43
0.0
 10
64.426782946
 20
59.5888094754
 10
64.3788055276
 20
59.6634196231
 10
64.3250942543
 20
59.7321538731
 10
64.2669558861
 20
59.7933399661
 10
64.2058048915
 20
59.8454892844
 10
64.1431290343
 20
59.8873330694
 10
64.080453177
 20
59.9178532889
 10
64.0193021824
 20
59.936307406
 10
63.9611638142
 20
59.9422464442
 10
63.9074525409
 20
59.9355259104
 10
63.8594751225
 20
59.9163093109
  0
LINE
  5
51E
330
1F
100
AcDbEntity
  8
0
  6
Continuous
 62
     7
370
    25
100
AcDbLine
 10
63.6097091032
 20
59.774780951
 30
0.0
 11
63.8594751225
 21
59.9163093109
 31
0.0
  0
LINE
  5
51F
330
1F
100
AcDbEntity
  8
0
  6
Continuous
 62
     7
370
    25
100
AcDbLine
 10
66.2662171448
 20
71.1054185923
 30
0.0
 11
67.0245891676
 21
71.5432174423
 31
0.0
  0
LINE
  5
520
330
1F
100
AcDbEntity
  8
0
  6
Continuous
 62
     7
370
    25
100
AcDbLine
 10
67.045802371
 20
71.5309713206
 30
0.0
 11
67.0245891676
 21
71.5432174423
 31
0.0
  0
LINE
  5
521
330
1F
100
AcDbEntity
  8
0
  6
Continuous
 62
     7
370
    25
100
AcDbLine
 10
66.2525161716
 20
71.0980795881
 30
0.0
 11
66.2525161716
 21
71.1260834727
 31
0.0
  0
LINE
  5
522
330
1F
100
AcDbEntity
  8
0
  6
Continuous
 62
     7
370
    25
100
AcDbLine
 10
66.273729375
 20
71.1097553105
 30
0.0
 11
66.273729375
 21
71.1138373511
 31
0.0
  0
LINE
  5
523
330
1F
100
AcDbEntity
  8
0
  6
Continuous
 62
     7
370
    25
100
AcDbLine
 10
67.0210536337
 20
71.5452584625
 30
0.0
 11
67.0210536337
 21
71.541176422
 31
0.0
  0
LINE
  5
524
330
1F
100
AcDbEntity
  8
0
  6
Continuous
 62
     7
370
    25
100
AcDbLine
 10
62.3993664495
 20
73.1737900885
 30
0.0
 11
62.3993664495
 21
73.1982863129
 31
0.0
  0
ARC
  5
525
330
1F
100
AcDbEntity
  8
0
  6
Continuous
 62
     7
370
    25
100
AcDbCircle
 10
62.4116084306
 20
73.1912751984
 30
0.0
 40
0.0213446754445175
100
AcDbArc
 50
235.002692828
 51
280.772764271
  0
LINE
  5
526
330
1F
100
AcDbEntity
  8
0
  6
Continuous
 62
     7
370
    25
100
AcDbLine
 10
62.4339866335
 20
73.1902612705
 30
0.0
 11
62.4339866335
 21
73.2037631277
 31
0.0
  0
LWPOLYLINE
  5
527
330
1F
100
AcDbEntity
  8
0
  6
Continuous
 62
     7
370
    25
100
AcDbPolyline
 90
        9
 70
   128
 43
0.0
 10
62.3697560099
 20
73.3237564915
 10
62.3599859251
 20
73.315841346
 10
62.3341111474
 20
73.2878958268
 10
62.318177538
 20
73.2575731715
 10
62.3127974165
 20
73.2260386627
 10
62.318177538
 20
73.194504154
 10
62.3341111474
 20
73.1641814987
 10
62.3599859251
 20
73.1362359795
 10
62.3948075178
 20
73.1117415271
  0
ARC
  5
528
330
1F
100
AcDbEntity
  8
0
  6
Continuous
 62
     7
370
    25
100
AcDbCircle
 10
62.452925394
 20
60.5145505114
 30
0.0
 40
0.1408229979782626
100
AcDbArc
 50
185.6947992512
 51
245.6253417064
  0
ARC
  5
529
330
1F
100
AcDbEntity
  8
0
  6
Continuous
 62
     7
370
    25
100
AcDbCircle
 10
62.448354092
 20
73.225761445
 30
0.0
 40
0.1033471873322422
100
AcDbArc
 50
152.5574057047
 51
241.1099820366
  0
ARC
  5
52A
330
1F
100
AcDbEntity
  8
0
  6
Continuous
 62
     7
370
    25
100
AcDbCircle
 10
62.4619566614
 20
73.2586448305
 30
0.0
 40
0.1054412720869658
100
AcDbArc
 50
182.7435866327
 51
233.5869223342
  0
ARC
  5
52B
330
1F
100
AcDbEntity
  8
0
  6
Continuous
 62
     7
370
    25
100
AcDbCircle
 10
62.458975504
 20
73.3306517296
 30
0.0
 40
0.0369855388601834
100
AcDbArc
 50
55.1663349123
 51
105.7552147084
  0
ARC
  5
52C
330
1F
100
AcDbEntity
  8
0
  6
Continuous
 62
     7
370
    25
100
AcDbCircle
 10
63.2069213488
 20
73.7638093863
 30
0.0
 40
0.0352084065130903
100
AcDbArc
 50
54.3824225248
 51
114.3071190461
  0
LINE
  5
52D
330
1F
100
AcDbEntity
  8
0
  6
Continuous
 62
     7
370
    25
100
AcDbLine
 10
62.4443130378
 20
73.3689147268
 30
0.0
 11
63.1531795406
 21
73.7781346484
 31
0.0
  0
LINE
  5
52E
330
1F
100
AcDbEntity
  8
0
  6
Continuous
 62
     7
370
    25
100
AcDbLine
 10
63.1531795406
 20
73.7781346484
 30
0.0
 11
63.1574200634
 21
73.7756866466
 31
0.0
  0
LINE
  5
52F
330
1F
100
AcDbEntity
  8
0
  6
Continuous
 62
     7
370
    25
100
AcDbLine
 10
64.0959755599
 20
63.0508476944
 30
0.0
 11
64.0747623565
 21
63.0386015727
 31
0.0
  0
LINE
  5
530
330
1F
100
AcDbEntity
  8
0
  6
Continuous
 62
     7
370
    25
100
AcDbLine
 10
64.1048773691
 20
63.069041855
 30
0.0
 11
64.0959755599
 21
63.0508476944
 31
0.0
  0
LINE
  5
531
330
1F
100
AcDbEntity
  8
0
  6
Continuous
 62
     7
370
    25
100
AcDbLine
 10
64.0959755599
 20
61.1222498442
 30
0.0
 11
64.0747623565
 21
61.1100037225
 31
0.0
  0
LWPOLYLINE
  5
532
330
1F
100
AcDbEntity
  8
0
  6
Continuous
 62
     7
370
    25
100
AcDbPolyline
 90
       10
 70
   128
 43
0.0
 10
64.0959755599
 20
61.1222498442
 10
64.0532911377
 20
61.3578683071
 10
64.0211542831
 20
61.5898772258
 10
63.9996707693
 20
61.8175129804
 10
63.9889113059
 20
62.0400263444
 10
63.9889113059
 20
62.2566849508
 10
63.9996707693
 20
62.4667757027
 10
64.0211542831
 20
62.6696071202
 10
64.0532911377
 20
62.8645116164
 10
64.0959755599
 20
63.0508476944
  0
LINE
  5
533
330
1F
100
AcDbEntity
  8
0
  6
Continuous
 62
     7
370
    25
100
AcDbLine
 10
66.9710278776
 20
59.235761857
 30
0.0
 11
66.992241081
 21
59.2235157353
 31
0.0
  0
LWPOLYLINE
  5
534
330
1F
100
AcDbEntity
  8
0
  6
Continuous
 62
     7
370
    25
100
AcDbPolyline
 90
        3
 70
   128
 43
0.0
 10
66.9710278776
 20
59.235761857
 10
66.9402172325
 20
59.2712229802
 10
66.9140460275
 20
59.2918281529
  0
LWPOLYLINE
  5
535
330
1F
100
AcDbEntity
  8
0
  6
Continuous
 62
     7
370
    25
100
AcDbPolyline
 90
        3
 70
   128
 43
0.0
 10
66.7846367404
 20
59.0921566284
 10
66.7595068077
 20
59.1030964253
 10
66.7439499815
 20
59.1068644401
  0
LWPOLYLINE
  5
536
330
1F
100
AcDbEntity
  8
0
  6
Continuous
 62
     7
370
    25
100
AcDbPolyline
 90
        9
 70
   128
 43
0.0
 10
66.8502197716
 20
59.037576945
 10
66.869376031
 20
59.037186929
 10
66.8981555577
 20
59.0479410272
 10
66.9269350845
 20
59.0704150633
 10
66.9522433756
 20
59.1018983368
 10
66.9710278776
 20
59.1385935004
 10
66.9810229023
 20
59.1760745756
 10
66.9810229023
 20
59.2098207917
 10
66.9710278776
 20
59.235761857
  0
ARC
  5
537
330
1F
100
AcDbEntity
  8
0
  6
Continuous
 62
     7
370
    25
100
AcDbCircle
 10
64.2168257099
 20
61.133401294
 30
0.0
 40
0.1213635594621949
100
AcDbArc
 50
185.2720396973
 51
263.2656639938
  0
LINE
  5
538
330
1F
100
AcDbEntity
  8
0
  6
Continuous
 62
     7
370
    25
100
AcDbLine
 10
66.2524481091
 20
71.1283872682
 30
0.0
 11
66.145895279
 21
71.0668756287
 31
0.0
  0
LINE
  5
539
330
1F
100
AcDbEntity
  8
0
  6
Continuous
 62
     7
370
    25
100
AcDbLine
 10
66.9768594599
 20
58.095514424
 30
0.0
 11
66.6236461503
 21
57.6561204248
 31
0.0
  0
ARC
  5
53A
330
1F
100
AcDbEntity
  8
0
  6
Continuous
 62
     7
370
    25
100
AcDbCircle
 10
66.5246239853
 20
57.7215001242
 30
0.0
 40
0.1186587301488812
100
AcDbArc
 50
273.4295381122
 51
326.5650853551
  0
LINE
  5
53B
330
1F
100
AcDbEntity
  8
0
  6
Continuous
 62
     7
370
    25
100
AcDbLine
 10
65.9931223733
 20
57.6512128443
 30
0.0
 11
66.5317222687
 21
57.6030538975
 31
0.0
  0
LWPOLYLINE
  5
53C
330
1F
100
AcDbEntity
  8
0
  6
Continuous
 62
     7
370
    25
100
AcDbPolyline
 90
        9
 70
   128
 43
0.0
 10
65.9578597887
 20
57.7724878615
 10
65.9511440938
 20
57.7498186827
 10
65.9476539265
 20
57.7278778055
 10
65.9475173015
 20
57.7074699914
 10
65.9507392299
 20
57.6893437712
 10
65.9572015358
 20
57.6741639901
 10
65.9666671906
 20
57.6624874218
 10
65.9787890071
 20
57.654742347
 10
65.9931223733
 20
57.6512128443
  0
ARC
  5
53D
330
1F
100
AcDbEntity
  8
0
  6
Continuous
 62
     7
370
    25
100
AcDbCircle
 10
66.1556601885
 20
57.6917556497
 30
0.0
 40
0.2136414944598035
100
AcDbArc
 50
131.8264726182
 51
157.7971782936
  0
ARC
  5
53E
330
1F
100
AcDbEntity
  8
0
  6
Continuous
 62
     7
370
    25
100
AcDbCircle
 10
66.1105589742
 20
57.7398494799
 30
0.0
 40
0.1477345361869989
100
AcDbArc
 50
121.4128880127
 51
131.231020408
  0
LINE
  5
53F
330
1F
100
AcDbEntity
  8
0
  6
Continuous
 62
     7
370
    25
100
AcDbLine
 10
66.0335594953
 20
57.8659310942
 30
0.0
 11
66.54470491
 21
58.1750601229
 31
0.0
  0
ARC
  5
540
330
1F
100
AcDbEntity
  8
0
  6
Continuous
 62
     7
370
    25
100
AcDbCircle
 10
66.4171827095
 20
58.3680488096
 30
0.0
 40
0.231314817473269
100
AcDbArc
 50
303.4557518316
 51
357.3316358295
  0
LINE
  5
541
330
1F
100
AcDbEntity
  8
0
  6
Continuous
 62
     7
370
    25
100
AcDbLine
 10
66.6482467198
 20
58.3572799697
 30
0.0
 11
66.6482467198
 21
58.5760053913
 31
0.0
  0
LINE
  5
542
330
1F
100
AcDbEntity
  8
0
  6
Continuous
 62
     7
370
    25
100
AcDbLine
 10
66.2525161716
 20
71.1039303355
 30
0.0
 11
66.2166630574
 21
71.0832327732
 31
0.0
  0
ARC
  5
543
330
1F
100
AcDbEntity
  8
0
  6
Continuous
 62
     7
370
    25
100
AcDbCircle
 10
66.9623299908
 20
58.1275821543
 30
0.0
 40
0.035205749494609
100
AcDbArc
 50
294.3746582936
 51
354.3052007488
  0
LINE
  5
544
330
1F
100
AcDbEntity
  8
0
  6
Continuous
 62
     7
370
    25
100
AcDbLine
 10
62.9851090153
 20
60.0455057893
 30
0.0
 11
62.8390734526
 21
59.8638389376
 31
0.0
  0
LWPOLYLINE
  5
545
330
1F
100
AcDbEntity
  8
0
  6
Continuous
 62
     7
370
    25
100
AcDbPolyline
 90
        3
 70
   128
 43
0.0
 10
62.1508368285
 20
59.9234649343
 10
62.1539806788
 20
59.9418744629
 10
62.1606963737
 20
59.9645436417
  0
ARC
  5
546
330
1F
100
AcDbEntity
  8
0
  6
Continuous
 62
     7
370
    25
100
AcDbCircle
 10
62.3584967735
 20
59.88381143
 30
0.0
 40
0.2136414944594639
100
AcDbArc
 50
131.8264726182
 51
157.7971782936
  0
ARC
  5
547
330
1F
100
AcDbEntity
  8
0
  6
Continuous
 62
     7
370
    25
100
AcDbCircle
 10
62.3133955592
 20
59.9319052602
 30
0.0
 40
0.1477345361852763
100
AcDbArc
 50
121.4128880127
 51
131.2310204081
  0
LINE
  5
548
330
1F
100
AcDbEntity
  8
0
  6
Continuous
 62
     7
370
    25
100
AcDbLine
 10
62.5914880319
 20
60.2727383462
 30
0.0
 11
62.2363960804
 21
60.0579868744
 31
0.0
  0
LINE
  5
549
330
1F
100
AcDbEntity
  8
0
  6
Continuous
 62
     7
370
    25
100
AcDbLine
 10
65.9578597887
 20
57.7724878615
 30
0.0
 11
65.9366465853
 21
57.7847339832
 31
0.0
  0
LINE
  5
54A
330
1F
100
AcDbEntity
  8
0
  6
Continuous
 62
     7
370
    25
100
AcDbLine
 10
65.9919744214
 20
57.8632005678
 30
0.0
 11
66.0131876249
 21
57.8509544462
 31
0.0
  0
ARC
  5
54B
330
1F
100
AcDbEntity
  8
0
  6
Continuous
 62
     7
370
    25
100
AcDbCircle
 10
66.134446985
 20
57.7040017714
 30
0.0
 40
0.2136414944595524
100
AcDbArc
 50
131.8264726182
 51
157.7971782936
  0
LINE
  5
54C
330
1F
100
AcDbEntity
  8
0
  6
Continuous
 62
     7
370
    25
100
AcDbLine
 10
65.9084009079
 20
57.7232271245
 30
0.0
 11
65.8887652193
 21
57.6726181783
 31
0.0
  0
ARC
  5
54D
330
1F
100
AcDbEntity
  8
0
  6
Continuous
 62
     7
370
    25
100
AcDbCircle
 10
66.1157566159
 20
57.6423844825
 30
0.0
 40
0.2225576833815036
100
AcDbArc
 50
146.1164332274
 51
158.7004725826
  0
LWPOLYLINE
  5
54E
330
1F
100
AcDbEntity
  8
0
  6
Continuous
 62
     7
370
    25
100
AcDbPolyline
 90
        8
 70
   128
 43
0.0
 10
65.952876393
 20
57.6693347387
 10
65.9454539872
 20
57.6747335435
 10
65.9359883324
 20
57.6864101118
 10
65.9295260264
 20
57.7015898929
 10
65.926304098
 20
57.7197161131
 10
65.9264407231
 20
57.7401239272
 10
65.9299308903
 20
57.7620648044
 10
65.9366465853
 20
57.7847339832
  0
LINE
  5
54F
330
1F
100
AcDbEntity
  8
0
  6
Continuous
 62
     7
370
    25
100
AcDbLine
 10
65.9084009079
 20
57.7232271245
 30
0.0
 11
65.8871877044
 21
57.7354732462
 31
0.0
  0
ARC
  5
550
330
1F
100
AcDbEntity
  8
0
  6
Continuous
 62
     7
370
    25
100
AcDbCircle
 10
66.0757432217
 20
57.6657047441
 30
0.0
 40
0.2010493148286871
100
AcDbArc
 50
123.7547497575
 51
159.6947349786
  0
LINE
  5
551
330
1F
100
AcDbEntity
  8
0
  6
Continuous
 62
     7
370
    25
100
AcDbLine
 10
66.0123462919
 20
57.8781772158
 30
0.0
 11
66.0335594953
 21
57.8659310942
 31
0.0
  0
ARC
  5
552
330
1F
100
AcDbEntity
  8
0
  6
Continuous
 62
     7
370
    25
100
AcDbCircle
 10
66.0893457707
 20
57.7520956016
 30
0.0
 40
0.1477345361849184
100
AcDbArc
 50
121.4128880127
 51
131.231020408
  0
LINE
  5
553
330
1F
100
AcDbEntity
  8
0
  6
Continuous
 62
     7
370
    25
100
AcDbLine
 10
66.5234917065
 20
58.1873062446
 30
0.0
 11
66.54470491
 21
58.1750601229
 31
0.0
  0
LINE
  5
554
330
1F
100
AcDbEntity
  8
0
  6
Continuous
 62
     7
370
    25
100
AcDbLine
 10
66.5234917065
 20
58.1873062446
 30
0.0
 11
66.0123462919
 21
57.8781772158
 31
0.0
  0
LINE
  5
555
330
1F
100
AcDbEntity
  8
0
  6
Continuous
 62
     7
370
    25
100
AcDbLine
 10
65.8675520159
 20
57.6848643
 30
0.0
 11
65.8887652193
 21
57.6726181783
 31
0.0
  0
LINE
  5
556
330
1F
100
AcDbEntity
  8
0
  6
Continuous
 62
     7
370
    25
100
AcDbLine
 10
65.8871877044
 20
57.7354732462
 30
0.0
 11
65.8675520159
 21
57.6848643
 31
0.0
  0
ARC
  5
557
330
1F
100
AcDbEntity
  8
0
  6
Continuous
 62
     7
370
    25
100
AcDbCircle
 10
65.837192585
 20
57.685478326
 30
0.0
 40
0.0531518579748531
100
AcDbArc
 50
244.7492173826
 51
345.9982786492
  0
LINE
  5
558
330
1F
100
AcDbEntity
  8
0
  6
Continuous
 62
     7
370
    25
100
AcDbLine
 10
65.825125609
 20
57.6647425777
 30
0.0
 11
65.8145190073
 21
57.6374051643
 31
0.0
  0
ARC
  5
559
330
1F
100
AcDbEntity
  8
0
  6
Continuous
 62
     7
370
    25
100
AcDbCircle
 10
65.8380819391
 20
57.6922129558
 30
0.0
 40
0.0303724902713529
100
AcDbArc
 50
244.7492173826
 51
345.9982786491
  0
ARC
  5
55A
330
1F
100
AcDbEntity
  8
0
  6
Continuous
 62
     7
370
    25
100
AcDbCircle
 10
66.4992658729
 20
57.6262199151
 30
0.0
 40
0.0541753797165652
100
AcDbArc
 50
267.8186438138
 51
335.8409398857
  0
LINE
  5
55B
330
1F
100
AcDbEntity
  8
0
  6
Continuous
 62
     7
370
    25
100
AcDbLine
 10
65.8145190073
 20
57.6374051643
 30
0.0
 11
64.7899331177
 21
58.2288860083
 31
0.0
  0
LINE
  5
55C
330
1F
100
AcDbEntity
  8
0
  6
Continuous
 62
     7
370
    25
100
AcDbLine
 10
64.8005397194
 20
58.2562234217
 30
0.0
 11
64.7899331177
 21
58.2288860083
 31
0.0
  0
LINE
  5
55D
330
1F
100
AcDbEntity
  8
0
  6
Continuous
 62
     7
370
    25
100
AcDbLine
 10
65.825125609
 20
57.6647425777
 30
0.0
 11
64.8005397194
 21
58.2562234217
 31
0.0
  0
LWPOLYLINE
  5
55E
330
1F
100
AcDbEntity
  8
0
  6
Continuous
 62
     7
370
    25
100
AcDbPolyline
 90
        9
 70
   128
 43
0.0
 10
64.7223470659
 20
58.3605610078
 10
64.7100447382
 20
58.3551663133
 10
64.7041529354
 20
58.3470744602
 10
64.7048093985
 20
58.3364746234
 10
64.7119987805
 20
58.3236146107
 10
64.7255530048
 20
58.308795069
 10
64.7451551948
 20
58.2923624561
 10
64.770347082
 20
58.2747009408
 10
64.8005397194
 20
58.2562234217
  0
LINE
  5
55F
330
1F
100
AcDbEntity
  8
0
  6
Continuous
 62
     7
370
    25
100
AcDbLine
 10
64.7223470659
 20
58.3605610078
 30
0.0
 11
65.0389289542
 21
58.4426347425
 31
0.0
  0
LINE
  5
560
330
1F
100
AcDbEntity
  8
0
  6
Continuous
 62
     7
370
    25
100
AcDbLine
 10
66.6270335164
 20
58.3695260914
 30
0.0
 11
66.6482467198
 21
58.3572799697
 31
0.0
  0
LINE
  5
561
330
1F
100
AcDbEntity
  8
0
  6
Continuous
 62
     7
370
    25
100
AcDbLine
 10
66.6270335164
 20
58.3695260914
 30
0.0
 11
66.6270335164
 21
58.5637592697
 31
0.0
  0
ARC
  5
562
330
1F
100
AcDbEntity
  8
0
  6
Continuous
 62
     7
370
    25
100
AcDbCircle
 10
66.395969506
 20
58.3802949312
 30
0.0
 40
0.2313148174733241
100
AcDbArc
 50
303.4557518316
 51
357.3316358295
  0
LINE
  5
563
330
1F
100
AcDbEntity
  8
0
  6
Continuous
 62
     7
370
    25
100
AcDbLine
 10
65.0537957561
 20
58.4667086449
 30
0.0
 11
65.088761304
 21
58.5557166375
 31
0.0
  0
ARC
  5
564
330
1F
100
AcDbEntity
  8
0
  6
Continuous
 62
     7
370
    25
100
AcDbCircle
 10
64.9014027394
 20
58.645221179
 30
0.0
 40
0.2076398195461393
100
AcDbArc
 50
334.4653584587
 51
58.2814882532
  0
LINE
  5
565
330
1F
100
AcDbEntity
  8
0
  6
Continuous
 62
     7
370
    25
100
AcDbLine
 10
64.7172934998
 20
58.9911523237
 30
0.0
 11
65.0105686505
 21
58.8218481829
 31
0.0
  0
ARC
  5
566
330
1F
100
AcDbEntity
  8
0
  6
Continuous
 62
     7
370
    25
100
AcDbCircle
 10
64.5855555827
 20
58.7157566861
 30
0.0
 40
0.3052828786625041
100
AcDbArc
 50
64.4354701288
 51
128.2819706634
  0
LINE
  5
567
330
1F
100
AcDbEntity
  8
0
  6
Continuous
 62
     7
370
    25
100
AcDbLine
 10
64.3114803157
 20
58.8952382271
 30
0.0
 11
64.3964230536
 21
58.9553950021
 31
0.0
  0
LINE
  5
568
330
1F
100
AcDbEntity
  8
0
  6
Continuous
 62
     7
370
    25
100
AcDbLine
 10
62.8689091422
 20
59.7280168394
 30
0.0
 11
64.3114803157
 21
58.8952382271
 31
0.0
  0
LINE
  5
569
330
1F
100
AcDbEntity
  8
0
  6
Continuous
 62
     7
370
    25
100
AcDbLine
 10
62.8512314726
 20
59.7382219408
 30
0.0
 11
62.8689091422
 21
59.7280168394
 31
0.0
  0
ARC
  5
56A
330
1F
100
AcDbEntity
  8
0
  6
Continuous
 62
     7
370
    25
100
AcDbCircle
 10
62.8836810303
 20
59.7850116474
 30
0.0
 40
0.056940762493546
100
AcDbArc
 50
134.0003584891
 51
235.2579508551
  0
LINE
  5
56B
330
1F
100
AcDbEntity
  8
0
  6
Continuous
 62
     7
370
    25
100
AcDbLine
 10
63.0093522063
 20
60.031510493
 30
0.0
 11
62.8441263967
 21
59.8259711566
 31
0.0
  0
LINE
  5
56C
330
1F
100
AcDbEntity
  8
0
  6
Continuous
 62
     7
370
    25
100
AcDbLine
 10
66.9380087842
 20
58.0262586807
 30
0.0
 11
66.6236121422
 21
57.6351522469
 31
0.0
  0
ARC
  5
56D
330
1F
100
AcDbEntity
  8
0
  6
Continuous
 62
     7
370
    25
100
AcDbCircle
 10
66.5546599193
 20
57.6878785983
 30
0.0
 40
0.0868013661878955
100
AcDbArc
 50
265.0654889339
 51
322.59559717
  0
LWPOLYLINE
  5
56E
330
1F
100
AcDbEntity
  8
0
  6
Continuous
 62
     7
370
    25
100
AcDbPolyline
 90
        8
 70
   128
 43
0.0
 10
64.7899331177
 20
58.2288860083
 10
64.7597404803
 20
58.2473635274
 10
64.7345485931
 20
58.2650250427
 10
64.714946403
 20
58.2814576556
 10
64.7013921787
 20
58.2962771973
 10
64.6942027968
 20
58.30913721
 10
64.6935463337
 20
58.3197370467
 10
64.693958464
 20
58.3209745088
  0
ARC
  5
56F
330
1F
100
AcDbEntity
  8
0
  6
Continuous
 62
     7
370
    25
100
AcDbCircle
 10
65.012558899
 20
58.4755469669
 30
0.0
 40
0.0421733840359483
100
AcDbArc
 50
308.7025355148
 51
347.9027818967
  0
ARC
  5
570
330
1F
100
AcDbEntity
  8
0
  6
Continuous
 62
     7
370
    25
100
AcDbCircle
 10
66.8820402235
 20
58.0734366972
 30
0.0
 40
0.073200034325944
100
AcDbArc
 50
319.8711939835
 51
356.0583991153
  0
ARC
  5
571
330
1F
100
AcDbEntity
  8
0
  6
Continuous
 62
     7
370
    25
100
AcDbCircle
 10
63.8022412089
 20
60.3049511557
 30
0.0
 40
1.275309283545729
100
AcDbArc
 50
240.787546608
 51
256.3230474807
  0
LINE
  5
572
330
1F
100
AcDbEntity
  8
0
  6
Continuous
 62
     7
370
    25
100
AcDbLine
 10
62.1552414147
 20
59.7833216279
 30
0.0
 11
63.1798273043
 21
59.1918407838
 31
0.0
  0
LINE
  5
573
330
1F
100
AcDbEntity
  8
0
  6
Continuous
 62
     7
370
    25
100
AcDbLine
 10
62.8194116675
 20
59.7239347989
 30
0.0
 11
62.1552414147
 21
59.7833216279
 31
0.0
  0
LINE
  5
574
330
1F
100
AcDbEntity
  8
0
  6
Continuous
 62
     7
370
    25
100
AcDbLine
 10
62.8194116675
 20
59.7239347989
 30
0.0
 11
62.8406248709
 21
59.7116886772
 31
0.0
  0
LINE
  5
575
330
1F
100
AcDbEntity
  8
0
  6
Continuous
 62
     7
370
    25
100
AcDbLine
 10
64.2697785752
 20
58.8866558051
 30
0.0
 11
62.8406248709
 21
59.7116886772
 31
0.0
  0
LINE
  5
576
330
1F
100
AcDbEntity
  8
0
  6
Continuous
 62
     7
370
    25
100
AcDbLine
 10
63.5006977505
 20
59.0658041461
 30
0.0
 11
64.2697785752
 21
58.8866558051
 31
0.0
  0
LINE
  5
577
330
1F
100
AcDbEntity
  8
0
  6
Continuous
 62
     7
370
    25
100
AcDbLine
 10
63.4900911488
 20
59.0384667327
 30
0.0
 11
63.5006977505
 21
59.0658041461
 31
0.0
  0
LINE
  5
578
330
1F
100
AcDbEntity
  8
0
  6
Continuous
 62
     7
370
    25
100
AcDbLine
 10
64.2591719734
 20
58.8593183916
 30
0.0
 11
64.2697785752
 21
58.8866558051
 31
0.0
  0
LINE
  5
579
330
1F
100
AcDbEntity
  8
0
  6
Continuous
 62
     7
370
    25
100
AcDbLine
 10
63.4900911488
 20
59.0384667327
 30
0.0
 11
64.2591719734
 21
58.8593183916
 31
0.0
  0
LINE
  5
57A
330
1F
100
AcDbEntity
  8
0
  6
Continuous
 62
     7
370
    25
100
AcDbLine
 10
63.1798273043
 20
59.1918407838
 30
0.0
 11
63.1692207026
 21
59.1645033704
 31
0.0
  0
ARC
  5
57B
330
1F
100
AcDbEntity
  8
0
  6
Continuous
 62
     7
370
    25
100
AcDbCircle
 10
63.7916346072
 20
60.2776137423
 30
0.0
 40
1.275309283545808
100
AcDbArc
 50
240.787546608
 51
256.3230474807
  0
LINE
  5
57C
330
1F
100
AcDbEntity
  8
0
  6
Continuous
 62
     7
370
    25
100
AcDbLine
 10
65.0211752522
 20
58.8067568912
 30
0.0
 11
65.0105686505
 21
58.8218481829
 31
0.0
  0
ARC
  5
57D
330
1F
100
AcDbEntity
  8
0
  6
Continuous
 62
     7
370
    25
100
AcDbCircle
 10
64.9258804448
 20
58.6396776557
 30
0.0
 40
0.19234492783109
100
AcDbArc
 50
38.0163334779
 51
60.3014246542
  0
LINE
  5
57E
330
1F
100
AcDbEntity
  8
0
  6
Continuous
 62
     7
370
    25
100
AcDbLine
 10
62.1552414147
 20
59.7833216279
 30
0.0
 11
62.1446348129
 21
59.7559842144
 31
0.0
  0
LINE
  5
57F
330
1F
100
AcDbEntity
  8
0
  6
Continuous
 62
     7
370
    25
100
AcDbLine
 10
62.1446348129
 20
59.7559842144
 30
0.0
 11
63.1692207026
 21
59.1645033704
 31
0.0
  0
LINE
  5
580
330
1F
100
AcDbEntity
  8
0
  6
Continuous
 62
     7
370
    25
100
AcDbLine
 10
64.7279001015
 20
58.9760610319
 30
0.0
 11
64.7172934998
 21
58.9911523237
 31
0.0
  0
LINE
  5
581
330
1F
100
AcDbEntity
  8
0
  6
Continuous
 62
     7
370
    25
100
AcDbLine
 10
64.7279001015
 20
58.9760610319
 30
0.0
 11
65.0211752522
 21
58.8067568912
 31
0.0
  0
LINE
  5
582
330
1F
100
AcDbEntity
  8
0
  6
Continuous
 62
     7
370
    25
100
AcDbLine
 10
64.3964230536
 20
58.9553950021
 30
0.0
 11
64.4070296553
 21
58.9403037103
 31
0.0
  0
ARC
  5
583
330
1F
100
AcDbEntity
  8
0
  6
Continuous
 62
     7
370
    25
100
AcDbCircle
 10
64.5961621844
 20
58.7006653944
 30
0.0
 40
0.3052828786624574
100
AcDbArc
 50
64.4354701288
 51
128.2819706634
  0
LINE
  5
584
330
1F
100
AcDbEntity
  8
0
  6
Continuous
 62
     7
370
    25
100
AcDbLine
 10
64.3114803157
 20
58.8952382271
 30
0.0
 11
64.3220869174
 21
58.8801469354
 31
0.0
  0
LINE
  5
585
330
1F
100
AcDbEntity
  8
0
  6
Continuous
 62
     7
370
    25
100
AcDbLine
 10
64.3220869174
 20
58.8801469354
 30
0.0
 11
64.4070296553
 21
58.9403037103
 31
0.0
  0
ARC
  5
586
330
1F
100
AcDbEntity
  8
0
  6
Continuous
 62
     7
370
    25
100
AcDbCircle
 10
64.280364341
 20
58.9408248615
 30
0.0
 40
0.0551937053879025
100
AcDbArc
 50
258.9425604099
 51
304.3161917489
  0
ARC
  5
587
330
1F
100
AcDbEntity
  8
0
  6
Continuous
 62
     7
370
    25
100
AcDbCircle
 10
64.2681595208
 20
58.9376055817
 30
0.0
 40
0.078801396779414
100
AcDbArc
 50
263.4509848938
 51
313.1841714082
  0
ARC
  5
588
330
1F
100
AcDbEntity
  8
0
  6
Continuous
 62
     7
370
    25
100
AcDbCircle
 10
62.8384407837
 20
59.74813367
 30
0.0
 40
0.0365103785072982
100
AcDbArc
 50
273.4295381121
 51
326.5650853551
  0
LWPOLYLINE
  5
589
330
1F
100
AcDbEntity
  8
0
  6
Continuous
 62
     7
370
    25
100
AcDbPolyline
 90
        3
 70
   128
 43
0.0
 10
62.921273831
 20
60.0823570567
 10
62.9210094381
 20
60.0812962646
 10
62.9095677821
 20
60.0455307444
  0
LINE
  5
58A
330
1F
100
AcDbEntity
  8
0
  6
Continuous
 62
     7
370
    25
100
AcDbLine
 10
62.8052695319
 20
59.7767128457
 30
0.0
 11
62.9095677821
 21
60.0455307444
 31
0.0
  0
LINE
  5
58B
330
1F
100
AcDbEntity
  8
0
  6
Continuous
 62
     7
370
    25
100
AcDbLine
 10
62.141099279
 20
59.8360996747
 30
0.0
 11
62.8052695319
 21
59.7767128457
 31
0.0
  0
LINE
  5
58C
330
1F
100
AcDbEntity
  8
0
  6
Continuous
 62
     7
370
    25
100
AcDbLine
 10
62.1607349676
 20
59.8867086208
 30
0.0
 11
62.141099279
 21
59.8360996747
 31
0.0
  0
ARC
  5
58D
330
1F
100
AcDbEntity
  8
0
  6
Continuous
 62
     7
370
    25
100
AcDbCircle
 10
62.3479500679
 20
59.8177262704
 30
0.0
 40
0.1995195690768548
100
AcDbArc
 50
122.6379705891
 51
159.7728862144
  0
LINE
  5
58E
330
1F
100
AcDbEntity
  8
0
  6
Continuous
 62
     7
370
    25
100
AcDbLine
 10
62.6644898643
 20
60.2305952854
 30
0.0
 11
62.2403433842
 21
59.9857407343
 31
0.0
  0
LINE
  5
58F
330
1F
100
AcDbEntity
  8
0
  6
Continuous
 62
     7
370
    25
100
AcDbLine
 10
62.2403433842
 20
59.9857407343
 30
0.0
 11
62.2191301808
 21
59.997986856
 31
0.0
  0
LINE
  5
590
330
1F
100
AcDbEntity
  8
0
  6
Continuous
 62
     7
370
    25
100
AcDbLine
 10
62.1395217641
 20
59.8989547425
 30
0.0
 11
62.1607349676
 21
59.8867086208
 31
0.0
  0
ARC
  5
591
330
1F
100
AcDbEntity
  8
0
  6
Continuous
 62
     7
370
    25
100
AcDbCircle
 10
62.3267368644
 20
59.8299723921
 30
0.0
 40
0.199519569076807
100
AcDbArc
 50
122.6379705891
 51
159.7728862144
  0
ARC
  5
592
330
1F
100
AcDbEntity
  8
0
  6
Continuous
 62
     7
370
    25
100
AcDbCircle
 10
62.180785448
 20
59.818450027
 30
0.0
 40
0.0434338815596285
100
AcDbArc
 50
156.0238287383
 51
233.9767802099
  0
ARC
  5
593
330
1F
100
AcDbEntity
  8
0
  6
Continuous
 62
     7
370
    25
100
AcDbCircle
 10
62.1893368713
 20
59.817458913
 30
0.0
 40
0.0760092927293336
100
AcDbArc
 50
156.0238287383
 51
233.9767802099
  0
LINE
  5
594
330
1F
100
AcDbEntity
  8
0
  6
Continuous
 62
     7
370
    25
100
AcDbLine
 10
62.141099279
 20
59.8360996747
 30
0.0
 11
62.1198860756
 21
59.8483457963
 31
0.0
  0
LINE
  5
595
330
1F
100
AcDbEntity
  8
0
  6
Continuous
 62
     7
370
    25
100
AcDbLine
 10
62.1394831703
 20
59.9767897634
 30
0.0
 11
62.1606963737
 21
59.9645436417
 31
0.0
  0
LINE
  5
596
330
1F
100
AcDbEntity
  8
0
  6
Continuous
 62
     7
370
    25
100
AcDbLine
 10
62.2160242099
 20
60.0430102264
 30
0.0
 11
62.1948110065
 21
60.0552563481
 31
0.0
  0
ARC
  5
597
330
1F
100
AcDbEntity
  8
0
  6
Continuous
 62
     7
370
    25
100
AcDbCircle
 10
62.33728357
 20
59.8960575517
 30
0.0
 40
0.2136414944598304
100
AcDbArc
 50
131.8264726182
 51
157.7971782936
  0
ARC
  5
598
330
1F
100
AcDbEntity
  8
0
  6
Continuous
 62
     7
370
    25
100
AcDbCircle
 10
62.8449557008
 20
59.7590631981
 30
0.0
 40
0.0434338815596354
100
AcDbArc
 50
156.0238287383
 51
233.9767802099
  0
LINE
  5
599
330
1F
100
AcDbEntity
  8
0
  6
Continuous
 62
     7
370
    25
100
AcDbLine
 10
62.1395217641
 20
59.8989547425
 30
0.0
 11
62.1198860756
 21
59.8483457963
 31
0.0
  0
ARC
  5
59A
330
1F
100
AcDbEntity
  8
0
  6
Continuous
 62
     7
370
    25
100
AcDbCircle
 10
62.2543326562
 20
59.9256060373
 30
0.0
 40
0.125738531159417
100
AcDbArc
 50
155.9794189677
 51
198.0258857878
  0
LINE
  5
59B
330
1F
100
AcDbEntity
  8
0
  6
Continuous
 62
     7
370
    25
100
AcDbLine
 10
62.2363960804
 20
60.0579868744
 30
0.0
 11
62.2151828769
 21
60.0702329961
 31
0.0
  0
ARC
  5
59C
330
1F
100
AcDbEntity
  8
0
  6
Continuous
 62
     7
370
    25
100
AcDbCircle
 10
62.2921823558
 20
59.9441513819
 30
0.0
 40
0.1477345361851696
100
AcDbArc
 50
121.4128880127
 51
131.231020408
  0
LINE
  5
59D
330
1F
100
AcDbEntity
  8
0
  6
Continuous
 62
     7
370
    25
100
AcDbLine
 10
62.2151828769
 20
60.0702329961
 30
0.0
 11
62.5702748284
 21
60.2849844679
 31
0.0
  0
LINE
  5
59E
330
1F
100
AcDbEntity
  8
0
  6
Continuous
 62
     7
370
    25
100
AcDbLine
 10
62.6432766608
 20
60.2428414071
 30
0.0
 11
62.2191301808
 21
59.997986856
 31
0.0
  0
LINE
  5
59F
330
1F
100
AcDbEntity
  8
0
  6
Continuous
 62
     7
370
    25
100
AcDbLine
 10
62.8618380744
 20
59.7231306491
 30
0.0
 11
62.8512314726
 21
59.7382219408
 31
0.0
  0
LWPOLYLINE
  5
5A0
330
1F
100
AcDbEntity
  8
0
  6
Continuous
 62
     7
370
    25
100
AcDbPolyline
 90
        3
 70
   128
 43
0.0
 10
62.8464052836
 20
59.7371384477
 10
62.85237434
 20
59.7302012107
 10
62.8618380744
 20
59.7231306491
  0
LINE
  5
5A1
330
1F
100
AcDbEntity
  8
0
  6
Continuous
 62
     7
370
    25
100
AcDbLine
 10
62.8618380744
 20
59.7231306491
 30
0.0
 11
62.8635372697
 21
59.7221497245
 31
0.0
  0
LWPOLYLINE
  5
5A2
330
1F
100
AcDbEntity
  8
0
  6
Continuous
 62
     8
370
    25
100
AcDbPolyline
 90
       27
 70
   128
 43
0.0
 10
64.0086791109
 20
71.6509876527
 10
63.9946366102
 20
71.6594895799
 10
63.9416899192
 20
71.6843895167
 10
63.8905462642
 20
71.6971104415
 10
63.8429472812
 20
71.6972191583
 10
63.8005138963
 20
71.684711965
 10
63.7646911276
 20
71.660014779
 10
63.7366988765
 20
71.6239686335
 10
63.7174903856
 20
71.5778010365
 10
63.707719777
 20
71.5230841703
 10
63.707719777
 20
71.4616813522
 10
63.7174903856
 20
71.3956835814
 10
63.7366988765
 20
71.3273383329
 10
63.7646911276
 20
71.2589730222
 10
63.8005138963
 20
71.1929157479
 10
63.8429472812
 20
71.1314160112
 10
63.8905462642
 20
71.076568112
 10
63.9416899192
 20
71.0302398296
 10
63.9946366102
 20
70.9940088182
 10
64.0475833012
 20
70.9691088814
 10
64.0987269562
 20
70.9563879567
 10
64.1463259392
 20
70.9562792398
 10
64.1887593241
 20
70.9687864331
 10
64.2245820928
 20
70.9934836191
 10
64.2525743439
 20
71.0295297647
 10
64.2717828348
 20
71.0756973616
 10
64.277941835
 20
71.102465364
  0
ARC
  5
5A3
330
1F
100
AcDbEntity
  8
0
  6
Continuous
 62
     8
370
    25
100
AcDbCircle
 10
63.6858799627
 20
71.1455851671
 30
0.0
 40
0.6249001573646251
100
AcDbArc
 50
359.9801939604
 51
64.3919896103
  0
LINE
  5
5A4
330
1F
100
AcDbEntity
  8
0
  6
Continuous
 62
     8
370
    25
100
AcDbLine
 10
65.9409480254
 20
71.1666584897
 30
0.0
 11
65.9409480254
 21
71.1789046114
 31
0.0
  0
LINE
  5
5A5
330
1F
100
AcDbEntity
  8
0
  6
Continuous
 62
     8
370
    25
100
AcDbLine
 10
62.4223569166
 20
73.197049435
 30
0.0
 11
62.4223569166
 21
73.1788768951
 31
0.0
  0
LINE
  5
5A6
330
1F
100
AcDbEntity
  8
0
  6
Continuous
 62
     8
370
    25
100
AcDbLine
 10
66.9768594599
 20
59.224920369
 30
0.0
 11
66.9768594599
 21
59.1561679899
 31
0.0
  0
LINE
  5
5A7
330
1F
100
AcDbEntity
  8
0
  6
Continuous
 62
     8
370
    25
100
AcDbLine
 10
66.9768594599
 20
58.8080876678
 30
0.0
 11
66.9768594599
 21
58.095514424
 31
0.0
  0
LINE
  5
5A8
330
1F
100
AcDbEntity
  8
0
  6
Continuous
 62
     8
370
    25
100
AcDbLine
 10
66.6227493432
 20
58.3325941675
 30
0.0
 11
66.424674885
 21
58.4469401183
 31
0.0
  0
LINE
  5
5A9
330
1F
100
AcDbEntity
  8
0
  6
Continuous
 62
     8
370
    25
100
AcDbLine
 10
64.4163739426
 20
59.6063075745
 30
0.0
 11
63.8698841259
 21
59.9217894305
 31
0.0
  0
LINE
  5
5AA
330
1F
100
AcDbEntity
  8
0
  6
Continuous
 62
     8
370
    25
100
AcDbLine
 10
65.8887652193
 20
57.6726181783
 30
0.0
 11
65.9578962798
 21
57.6664368198
 31
0.0
  0
LINE
  5
5AB
330
1F
100
AcDbEntity
  8
0
  6
Continuous
 62
     8
370
    25
100
AcDbLine
 10
65.8467189028
 20
57.6628118118
 30
0.0
 11
65.825125609
 21
57.6647425777
 31
0.0
  0
LINE
  5
5AC
330
1F
100
AcDbEntity
  8
0
  6
Continuous
 62
     8
370
    25
100
AcDbLine
 10
65.0389289542
 20
58.4426347425
 30
0.0
 11
66.0144744823
 21
57.8794642966
 31
0.0
  0
LINE
  5
5AD
330
1F
100
AcDbEntity
  8
0
  6
Continuous
 62
     8
370
    25
100
AcDbLine
 10
66.0421009921
 20
57.8961721764
 30
0.0
 11
65.0537957561
 21
58.4667086449
 31
0.0
  0
LINE
  5
5AE
330
1F
100
AcDbEntity
  8
0
  6
Continuous
 62
     8
370
    25
100
AcDbLine
 10
63.8305180943
 20
59.8999009911
 30
0.0
 11
64.4557399742
 21
59.5389680825
 31
0.0
  0
LINE
  5
5AF
330
1F
100
AcDbEntity
  8
0
  6
Continuous
 62
     8
370
    25
100
AcDbLine
 10
66.3860338705
 20
58.4246331355
 30
0.0
 11
66.610747793
 21
58.2949085493
 31
0.0
  0
LINE
  5
5B0
330
1F
100
AcDbEntity
  8
0
  6
Continuous
 62
     8
370
    25
100
AcDbLine
 10
66.6155395998
 20
57.6466380267
 30
0.0
 11
66.6236121422
 21
57.6351522469
 31
0.0
  0
LINE
  5
5B1
330
1F
100
AcDbEntity
  8
0
  6
Continuous
 62
     8
370
    25
100
AcDbLine
 10
66.9380087842
 20
58.0262586807
 30
0.0
 11
66.9301620072
 21
58.0374232368
 31
0.0
  0
MTEXT
  5
5B2
330
1F
100
AcDbEntity
  8
NOTES
100
AcDbMText
 10
62.6833394306
 20
57.0057097721
 30
0.0
 40
0.5
 41
0.0
 71
     1
 72
     1
  1
3D view 613
  7
SLDTEXTSTYLE0
 73
     1
 44
1.0
  0
ARC
  5
5B3
330
1F
100
AcDbEntity
  8
0
  6
Continuous
 62
     7
370
    25
100
AcDbCircle
 10
23.9898448852
 20
64.8378171064
 30
0.0
 40
0.0199999999999978
100
AcDbArc
 50
240.0
 51
330.0
  0
ARC
  5
5B4
330
1F
100
AcDbEntity
  8
0
  6
Continuous
 62
     7
370
    25
100
AcDbCircle
 10
23.2840341811
 20
65.2453171064
 30
0.0
 40
0.0200000000000019
100
AcDbArc
 50
150.0
 51
240.0
  0
LINE
  5
5B5
330
1F
100
AcDbEntity
  8
0
  6
Continuous
 62
     7
370
    25
100
AcDbLine
 10
23.331713673
 20
65.3679004089
 30
0.0
 11
23.266713673
 21
65.2553171064
 31
0.0
  0
LINE
  5
5B6
330
1F
100
AcDbEntity
  8
0
  6
Continuous
 62
     7
370
    25
100
AcDbLine
 10
24.0071653933
 20
64.8278171064
 30
0.0
 11
24.0721653933
 21
64.9404004089
 31
0.0
  0
LINE
  5
5B7
330
1F
100
AcDbEntity
  8
0
  6
Continuous
 62
     7
370
    25
100
AcDbLine
 10
22.8770451312
 20
65.6753913939
 30
0.0
 11
22.9030258933
 21
65.6603913939
 31
0.0
  0
CIRCLE
  5
5B8
330
1F
100
AcDbEntity
  8
0
  6
Continuous
 62
     7
370
    25
100
AcDbCircle
 10
36.5770896996
 20
58.5953646523
 30
0.0
 40
0.0779372107227374
  0
CIRCLE
  5
5B9
330
1F
100
AcDbEntity
  8
0
  6
Continuous
 62
     7
370
    25
100
AcDbCircle
 10
36.5770896996
 20
58.5953646523
 30
0.0
 40
0.1270000000000024
  0
CIRCLE
  5
5BA
330
1F
100
AcDbEntity
  8
0
  6
Continuous
 62
     7
370
    25
100
AcDbCircle
 10
36.5770896996
 20
58.5953646523
 30
0.0
 40
0.03125
  0
CIRCLE
  5
5BB
330
1F
100
AcDbEntity
  8
0
  6
Continuous
 62
     7
370
    25
100
AcDbCircle
 10
36.5770896996
 20
59.0759462523
 30
0.0
 40
0.0779372107227302
  0
CIRCLE
  5
5BC
330
1F
100
AcDbEntity
  8
0
  6
Continuous
 62
     7
370
    25
100
AcDbCircle
 10
36.5770896996
 20
59.0759462523
 30
0.0
 40
0.1269999999999951
  0
CIRCLE
  5
5BD
330
1F
100
AcDbEntity
  8
0
  6
Continuous
 62
     7
370
    25
100
AcDbCircle
 10
36.5770896996
 20
59.0759462523
 30
0.0
 40
0.0312500000000013
  0
CIRCLE
  5
5BE
330
1F
100
AcDbEntity
  8
0
  6
Continuous
 62
     7
370
    25
100
AcDbCircle
 10
36.5770896996
 20
59.0759462523
 30
0.0
 40
0.1639999999999985
  0
LINE
  5
5BF
330
1F
100
AcDbEntity
  8
0
  6
Continuous
 62
     7
370
    25
100
AcDbLine
 10
23.9798448845
 20
64.8204965988
 30
0.0
 11
23.2740341811
 21
65.2279965984
 31
0.0
  0
LINE
  5
5C0
330
1F
100
AcDbEntity
  8
0
  6
Continuous
 62
     7
370
    25
100
AcDbLine
 10
36.5548460505
 20
58.056837522
 30
0.0
 11
36.4489691221
 21
57.8734533026
 31
0.0
  0
LINE
  5
5C1
330
1F
100
AcDbEntity
  8
0
  6
Continuous
 62
     7
370
    25
100
AcDbLine
 10
36.3178818033
 20
57.8703327431
 30
0.0
 11
22.9181865427
 21
65.6066504089
 31
0.0
  0
LINE
  5
5C2
330
1F
100
AcDbEntity
  8
0
  6
Continuous
 62
     7
370
    25
100
AcDbLine
 10
23.0581865427
 20
65.849137522
 30
0.0
 11
22.9181865427
 21
65.6066504089
 31
0.0
  0
LINE
  5
5C3
330
1F
100
AcDbEntity
  8
0
  6
Continuous
 62
     7
370
    25
100
AcDbLine
 10
23.0581865427
 20
65.849137522
 30
0.0
 11
36.5548460505
 21
58.056837522
 31
0.0
  0
LINE
  5
5C4
330
1F
100
AcDbEntity
  8
0
  6
Continuous
 62
     7
370
    25
100
AcDbLine
 10
23.0581865427
 20
65.849137522
 30
0.0
 11
23.5944365427
 21
66.7779497675
 31
0.0
  0
LINE
  5
5C5
330
1F
100
AcDbEntity
  8
0
  6
Continuous
 62
     7
370
    25
100
AcDbLine
 10
23.5944365427
 20
66.7779497675
 30
0.0
 11
36.8745896996
 21
59.1106497675
 31
0.0
  0
ARC
  5
5C6
330
1F
100
AcDbEntity
  8
0
  6
Continuous
 62
     7
370
    25
100
AcDbCircle
 10
36.7495896996
 20
58.8941434166
 30
0.0
 40
0.2500000000000021
100
AcDbArc
 50
330.0
 51
60.0
  0
LINE
  5
5C7
330
1F
100
AcDbEntity
  8
0
  6
Continuous
 62
     7
370
    25
100
AcDbLine
 10
36.9660960505
 20
58.7691434166
 30
0.0
 11
36.5548460505
 21
58.056837522
 31
0.0
  0
ARC
  5
5C8
330
1F
100
AcDbEntity
  8
0
  6
Continuous
 62
     7
370
    25
100
AcDbCircle
 10
36.5770896996
 20
58.5953646523
 30
0.0
 40
0.5995815999999997
100
AcDbArc
 50
102.0675026659
 51
150.0
  0
ARC
  5
5C9
330
1F
100
AcDbEntity
  8
0
  6
Continuous
 62
     7
370
    25
100
AcDbCircle
 10
36.1608938254
 20
58.8356554523
 30
0.0
 40
0.118999999999999
100
AcDbArc
 50
150.0
 51
330.0
  0
ARC
  5
5CA
330
1F
100
AcDbEntity
  8
0
  6
Continuous
 62
     7
370
    25
100
AcDbCircle
 10
36.5770896996
 20
58.5953646523
 30
0.0
 40
0.3615815999999947
100
AcDbArc
 50
105.5586010448
 51
150.0
  0
LINE
  5
5CB
330
1F
100
AcDbEntity
  8
0
  6
Continuous
 62
     7
370
    25
100
AcDbLine
 10
23.5338147645
 20
66.8129497675
 30
0.0
 11
23.5944365427
 21
66.7779497675
 31
0.0
  0
LINE
  5
5CC
330
1F
100
AcDbEntity
  8
0
  6
Continuous
 62
     7
370
    25
100
AcDbLine
 10
23.0659984917
 20
65.8626682145
 30
0.0
 11
23.0053767134
 21
65.8976682145
 31
0.0
  0
LINE
  5
5CD
330
1F
100
AcDbEntity
  8
0
  6
Continuous
 62
     7
370
    25
100
AcDbLine
 10
23.0053767134
 20
65.8976682145
 30
0.0
 11
23.5338147645
 21
66.8129497675
 31
0.0
  0
LINE
  5
5CE
330
1F
100
AcDbEntity
  8
0
  6
Continuous
 62
     7
370
    25
100
AcDbLine
 10
23.0155563961
 20
65.8552999422
 30
0.0
 11
22.989575634
 21
65.8702999422
 31
0.0
  0
LINE
  5
5CF
330
1F
100
AcDbEntity
  8
0
  6
Continuous
 62
     7
370
    25
100
AcDbLine
 10
22.9975647645
 20
65.884137522
 30
0.0
 11
23.0235455266
 21
65.869137522
 31
0.0
  0
LINE
  5
5D0
330
1F
100
AcDbEntity
  8
0
  6
Continuous
 62
     7
370
    25
100
AcDbLine
 10
22.989575634
 20
65.8702999422
 30
0.0
 11
22.9975647645
 21
65.884137522
 31
0.0
  0
LINE
  5
5D1
330
1F
100
AcDbEntity
  8
0
  6
Continuous
 62
     7
370
    25
100
AcDbLine
 10
23.0235455266
 20
65.869137522
 30
0.0
 11
23.0155563961
 21
65.8552999422
 31
0.0
  0
LINE
  5
5D2
330
1F
100
AcDbEntity
  8
0
  6
Continuous
 62
     7
370
    25
100
AcDbLine
 10
22.8771742856
 20
65.6756150958
 30
0.0
 11
22.9031550477
 21
65.6606150958
 31
0.0
  0
LINE
  5
5D3
330
1F
100
AcDbEntity
  8
0
  6
Continuous
 62
     7
370
    25
100
AcDbLine
 10
22.8771742856
 20
65.6756150958
 30
0.0
 11
22.989575634
 21
65.8702999422
 31
0.0
  0
LINE
  5
5D4
330
1F
100
AcDbEntity
  8
0
  6
Continuous
 62
     7
370
    25
100
AcDbLine
 10
22.9031550477
 20
65.6606150958
 30
0.0
 11
23.0155563961
 21
65.8552999422
 31
0.0
  0
LINE
  5
5D5
330
1F
100
AcDbEntity
  8
0
  6
Continuous
 62
     7
370
    25
100
AcDbLine
 10
22.9975647645
 20
65.884137522
 30
0.0
 11
23.0053767134
 21
65.8976682145
 31
0.0
  0
LINE
  5
5D6
330
1F
100
AcDbEntity
  8
0
  6
Continuous
 62
     7
370
    25
100
AcDbLine
 10
23.0235455266
 20
65.869137522
 30
0.0
 11
23.0313574755
 21
65.8826682145
 31
0.0
  0
LINE
  5
5D7
330
1F
100
AcDbEntity
  8
0
  6
Continuous
 62
     7
370
    25
100
AcDbLine
 10
22.8770451312
 20
65.6753913939
 30
0.0
 11
22.8771742856
 21
65.6756150958
 31
0.0
  0
LINE
  5
5D8
330
1F
100
AcDbEntity
  8
0
  6
Continuous
 62
     7
370
    25
100
AcDbLine
 10
22.9031550477
 20
65.6606150958
 30
0.0
 11
22.9030258933
 21
65.6603913939
 31
0.0
  0
ARC
  5
5D9
330
1F
100
AcDbEntity
  8
0
  6
Continuous
 62
     7
370
    25
100
AcDbCircle
 10
22.9531865427
 20
65.6672721872
 30
0.0
 40
0.0699999999999966
100
AcDbArc
 50
176.3221731456
 51
240.0
  0
ARC
  5
5DA
330
1F
100
AcDbEntity
  8
0
  6
Continuous
 62
     7
370
    25
100
AcDbCircle
 10
22.9531865427
 20
65.6672721872
 30
0.0
 40
0.0399999999999905
100
AcDbArc
 50
150.0
 51
240.0
  0
LINE
  5
5DB
330
1F
100
AcDbEntity
  8
0
  6
Continuous
 62
     7
370
    25
100
AcDbLine
 10
36.4670896996
 20
72.4253646523
 30
0.0
 11
36.1420896996
 21
72.4253646523
 31
0.0
  0
ARC
  5
5DC
330
1F
100
AcDbEntity
  8
0
  6
Continuous
 62
     7
370
    25
100
AcDbCircle
 10
36.4670896996
 20
72.6253646523
 30
0.0
 40
0.2000000000000028
100
AcDbArc
 50
270.0
 51
0.0
  0
LINE
  5
5DD
330
1F
100
AcDbEntity
  8
0
  6
Continuous
 62
     7
370
    25
100
AcDbLine
 10
36.6670896996
 20
72.6253646523
 30
0.0
 11
36.6670896996
 21
73.1003646523
 31
0.0
  0
ARC
  5
5DE
330
1F
100
AcDbEntity
  8
0
  6
Continuous
 62
     7
370
    25
100
AcDbCircle
 10
36.8670896996
 20
73.1003646523
 30
0.0
 40
0.2000000000000028
100
AcDbArc
 50
90.0
 51
180.0
  0
LINE
  5
5DF
330
1F
100
AcDbEntity
  8
0
  6
Continuous
 62
     7
370
    25
100
AcDbLine
 10
37.1270896996
 20
73.3003646523
 30
0.0
 11
36.8670896996
 21
73.3003646523
 31
0.0
  0
LINE
  5
5E0
330
1F
100
AcDbEntity
  8
0
  6
Continuous
 62
     7
370
    25
100
AcDbLine
 10
37.1270896996
 20
73.3003646523
 30
0.0
 11
37.1270896996
 21
57.4720996792
 31
0.0
  0
LINE
  5
5E1
330
1F
100
AcDbEntity
  8
0
  6
Continuous
 62
     7
370
    25
100
AcDbLine
 10
37.1270896996
 20
57.4720996792
 30
0.0
 11
36.6275706468
 21
57.1837022196
 31
0.0
  0
ARC
  5
5E2
330
1F
100
AcDbEntity
  8
0
  6
Continuous
 62
     7
370
    25
100
AcDbCircle
 10
36.5625706468
 20
57.2962855221
 30
0.0
 40
0.1300000000000025
100
AcDbArc
 50
240.0
 51
300.0
  0
LINE
  5
5E3
330
1F
100
AcDbEntity
  8
0
  6
Continuous
 62
     7
370
    25
100
AcDbLine
 10
35.73587537
 20
57.6234671927
 30
0.0
 11
36.4975706468
 21
57.1837022196
 31
0.0
  0
ARC
  5
5E4
330
1F
100
AcDbEntity
  8
0
  6
Continuous
 62
     7
370
    25
100
AcDbCircle
 10
35.80087537
 20
57.7360504952
 30
0.0
 40
0.1300000000000029
100
AcDbArc
 50
152.0805030793
 51
240.0
  0
ARC
  5
5E5
330
1F
100
AcDbEntity
  8
0
  6
Continuous
 62
     7
370
    25
100
AcDbCircle
 10
35.7961558955
 20
57.7278761256
 30
0.0
 40
0.1300000000000033
100
AcDbArc
 50
104.2063714568
 51
147.9194969207
  0
ARC
  5
5E6
330
1F
100
AcDbEntity
  8
0
  6
Continuous
 62
     7
370
    25
100
AcDbCircle
 10
35.7961558955
 20
57.7278761256
 30
0.0
 40
0.1300000000000042
100
AcDbArc
 50
91.3636797696
 51
104.2063714568
  0
LINE
  5
5E7
330
1F
100
AcDbEntity
  8
0
  6
Continuous
 62
     7
370
    25
100
AcDbLine
 10
35.7930620964
 20
57.8578393066
 30
0.0
 11
36.5159308741
 21
57.8750473403
 31
0.0
  0
ARC
  5
5E8
330
1F
100
AcDbEntity
  8
0
  6
Continuous
 62
     7
370
    25
100
AcDbCircle
 10
36.5123611058
 20
58.0250048568
 30
0.0
 40
0.1499999999999986
100
AcDbArc
 50
271.3636797696
 51
0.0
  0
LINE
  5
5E9
330
1F
100
AcDbEntity
  8
0
  6
Continuous
 62
     7
370
    25
100
AcDbLine
 10
36.6623611058
 20
58.0250048568
 30
0.0
 11
36.6623611058
 21
58.2430590603
 31
0.0
  0
LINE
  5
5EA
330
1F
100
AcDbEntity
  8
0
  6
Continuous
 62
     7
370
    25
100
AcDbLine
 10
37.1970896996
 20
57.4720996792
 30
0.0
 11
37.1270896996
 21
57.4720996792
 31
0.0
  0
LINE
  5
5EB
330
1F
100
AcDbEntity
  8
0
  6
Continuous
 62
     7
370
    25
100
AcDbLine
 10
37.1270896996
 20
73.3003646523
 30
0.0
 11
37.1970896996
 21
73.3003646523
 31
0.0
  0
LINE
  5
5EC
330
1F
100
AcDbEntity
  8
0
  6
Continuous
 62
     7
370
    25
100
AcDbLine
 10
37.1970896996
 20
73.3003646523
 30
0.0
 11
37.1970896996
 21
57.4720996792
 31
0.0
  0
LINE
  5
5ED
330
1F
100
AcDbEntity
  8
0
  6
Continuous
 62
     7
370
    25
100
AcDbLine
 10
36.0720896996
 20
72.4253646523
 30
0.0
 11
36.0720896996
 21
59.5739733586
 31
0.0
  0
LINE
  5
5EE
330
1F
100
AcDbEntity
  8
0
  6
Continuous
 62
     7
370
    25
100
AcDbLine
 10
36.0720896996
 20
58.9185876327
 30
0.0
 11
36.0720896996
 21
58.7564416452
 31
0.0
  0
LINE
  5
5EF
330
1F
100
AcDbEntity
  8
0
  6
Continuous
 62
     7
370
    25
100
AcDbLine
 10
36.0720896996
 20
72.4253646523
 30
0.0
 11
36.1420896996
 21
72.4253646523
 31
0.0
  0
LINE
  5
5F0
330
1F
100
AcDbEntity
  8
0
  6
Continuous
 62
     7
370
    25
100
AcDbLine
 10
37.1470896996
 20
57.4374586631
 30
0.0
 11
37.1620896996
 21
57.4114779009
 31
0.0
  0
LINE
  5
5F1
330
1F
100
AcDbEntity
  8
0
  6
Continuous
 62
     7
370
    25
100
AcDbLine
 10
37.1620896996
 20
57.4114779009
 30
0.0
 11
37.1071465471
 21
57.3797564571
 31
0.0
  0
LINE
  5
5F2
330
1F
100
AcDbEntity
  8
0
  6
Continuous
 62
     7
370
    25
100
AcDbLine
 10
37.1071465471
 20
57.3797564571
 30
0.0
 11
37.0921465471
 21
57.4057372192
 31
0.0
  0
LINE
  5
5F3
330
1F
100
AcDbEntity
  8
0
  6
Continuous
 62
     7
370
    25
100
AcDbLine
 10
37.0921465471
 20
57.4057372192
 30
0.0
 11
37.1470896996
 21
57.4374586631
 31
0.0
  0
LINE
  5
5F4
330
1F
100
AcDbEntity
  8
0
  6
Continuous
 62
     7
370
    25
100
AcDbLine
 10
35.6510611245
 20
57.7365646103
 30
0.0
 11
35.6232920675
 21
57.6884671927
 31
0.0
  0
ARC
  5
5F5
330
1F
100
AcDbEntity
  8
0
  6
Continuous
 62
     7
370
    25
100
AcDbCircle
 10
35.763644427
 20
57.6715646103
 30
0.0
 40
0.1300000000000025
100
AcDbArc
 50
133.3579347407
 51
150.0
  0
LINE
  5
5F6
330
1F
100
AcDbEntity
  8
0
  6
Continuous
 62
     7
370
    25
100
AcDbLine
 10
36.5625706468
 20
57.1461744521
 30
0.0
 11
36.574498369
 21
57.166833873
 31
0.0
  0
LINE
  5
5F7
330
1F
100
AcDbEntity
  8
0
  6
Continuous
 62
     7
370
    25
100
AcDbLine
 10
36.647522552
 20
57.1490334359
 30
0.0
 11
36.662522552
 21
57.1230526738
 31
0.0
  0
LINE
  5
5F8
330
1F
100
AcDbEntity
  8
0
  6
Continuous
 62
     7
370
    25
100
AcDbLine
 10
37.0921465471
 20
57.4057372192
 30
0.0
 11
36.647522552
 21
57.1490334359
 31
0.0
  0
LINE
  5
5F9
330
1F
100
AcDbEntity
  8
0
  6
Continuous
 62
     7
370
    25
100
AcDbLine
 10
37.1071465471
 20
57.3797564571
 30
0.0
 11
36.662522552
 21
57.1230526738
 31
0.0
  0
LINE
  5
5FA
330
1F
100
AcDbEntity
  8
0
  6
Continuous
 62
     7
370
    25
100
AcDbLine
 10
36.5975706468
 20
57.0855526738
 30
0.0
 11
36.5825706468
 21
57.1115334359
 31
0.0
  0
LINE
  5
5FB
330
1F
100
AcDbEntity
  8
0
  6
Continuous
 62
     7
370
    25
100
AcDbLine
 10
36.5825706468
 20
57.1115334359
 30
0.0
 11
36.647522552
 21
57.1490334359
 31
0.0
  0
LINE
  5
5FC
330
1F
100
AcDbEntity
  8
0
  6
Continuous
 62
     7
370
    25
100
AcDbLine
 10
36.662522552
 20
57.1230526738
 30
0.0
 11
36.5975706468
 21
57.0855526738
 31
0.0
  0
LINE
  5
5FD
330
1F
100
AcDbEntity
  8
0
  6
Continuous
 62
     7
370
    25
100
AcDbLine
 10
35.5882920675
 20
57.6278454144
 30
0.0
 11
35.6232920675
 21
57.6884671927
 31
0.0
  0
LINE
  5
5FE
330
1F
100
AcDbEntity
  8
0
  6
Continuous
 62
     7
370
    25
100
AcDbLine
 10
36.5625706468
 20
57.1461744521
 30
0.0
 11
36.5275706468
 21
57.0855526738
 31
0.0
  0
LINE
  5
5FF
330
1F
100
AcDbEntity
  8
0
  6
Continuous
 62
     7
370
    25
100
AcDbLine
 10
36.5275706468
 20
57.0855526738
 30
0.0
 11
35.5882920675
 21
57.6278454144
 31
0.0
  0
ARC
  5
600
330
1F
100
AcDbEntity
  8
0
  6
Continuous
 62
     7
370
    25
100
AcDbCircle
 10
37.1270896996
 20
57.4720996792
 30
0.0
 40
0.0400000000000063
100
AcDbArc
 50
300.0
 51
0.0
  0
ARC
  5
601
330
1F
100
AcDbEntity
  8
0
  6
Continuous
 62
     7
370
    25
100
AcDbCircle
 10
37.1270896996
 20
57.4720996792
 30
0.0
 40
0.070000000000001
100
AcDbArc
 50
300.0
 51
0.0
  0
ARC
  5
602
330
1F
100
AcDbEntity
  8
0
  6
Continuous
 62
     7
370
    25
100
AcDbCircle
 10
36.5625706468
 20
57.1461744521
 30
0.0
 40
0.0700000000000071
100
AcDbArc
 50
240.0
 51
300.0
  0
ARC
  5
603
330
1F
100
AcDbEntity
  8
0
  6
Continuous
 62
     7
370
    25
100
AcDbCircle
 10
36.5625706468
 20
57.1461744521
 30
0.0
 40
0.0400000000000063
100
AcDbArc
 50
240.0
 51
300.0
  0
ARC
  5
604
330
1F
100
AcDbEntity
  8
0
  6
Continuous
 62
     7
370
    25
100
AcDbCircle
 10
37.1270896996
 20
73.6753646523
 30
0.0
 40
0.0700000000000003
100
AcDbArc
 50
0.0
 51
90.0
  0
ARC
  5
605
330
1F
100
AcDbEntity
  8
0
  6
Continuous
 62
     7
370
    25
100
AcDbCircle
 10
37.1270896996
 20
73.6753646523
 30
0.0
 40
0.0400000000000063
100
AcDbArc
 50
0.0
 51
90.0
  0
LINE
  5
606
330
1F
100
AcDbEntity
  8
0
  6
Continuous
 62
     7
370
    25
100
AcDbLine
 10
37.1270896996
 20
73.7153646523
 30
0.0
 11
37.1270896996
 21
73.7453646523
 31
0.0
  0
LINE
  5
607
330
1F
100
AcDbEntity
  8
0
  6
Continuous
 62
     7
370
    25
100
AcDbLine
 10
37.1670896996
 20
73.6753646523
 30
0.0
 11
37.1670896996
 21
73.3003646523
 31
0.0
  0
LINE
  5
608
330
1F
100
AcDbEntity
  8
0
  6
Continuous
 62
     7
370
    25
100
AcDbLine
 10
37.1970896996
 20
73.6753646523
 30
0.0
 11
37.1970896996
 21
73.3003646523
 31
0.0
  0
LINE
  5
609
330
1F
100
AcDbEntity
  8
0
  6
Continuous
 62
     7
370
    25
100
AcDbLine
 10
36.0970162696
 20
73.7453646523
 30
0.0
 11
36.0970162696
 21
73.7153646523
 31
0.0
  0
LINE
  5
60A
330
1F
100
AcDbEntity
  8
0
  6
Continuous
 62
     7
370
    25
100
AcDbLine
 10
37.1270896996
 20
73.7153646523
 30
0.0
 11
36.0970162696
 21
73.7153646523
 31
0.0
  0
LINE
  5
60B
330
1F
100
AcDbEntity
  8
0
  6
Continuous
 62
     7
370
    25
100
AcDbLine
 10
37.1270896996
 20
73.7453646523
 30
0.0
 11
36.0970162696
 21
73.7453646523
 31
0.0
  0
LINE
  5
60C
330
1F
100
AcDbEntity
  8
0
  6
Continuous
 62
     7
370
    25
100
AcDbLine
 10
35.8470162696
 20
73.7153646523
 30
0.0
 11
35.8470162696
 21
73.7453646523
 31
0.0
  0
LINE
  5
60D
330
1F
100
AcDbEntity
  8
0
  6
Continuous
 62
     7
370
    25
100
AcDbLine
 10
36.0970162696
 20
73.7153646523
 30
0.0
 11
35.8470162696
 21
73.7153646523
 31
0.0
  0
LINE
  5
60E
330
1F
100
AcDbEntity
  8
0
  6
Continuous
 62
     7
370
    25
100
AcDbLine
 10
35.8470162696
 20
73.7453646523
 30
0.0
 11
36.0970162696
 21
73.7453646523
 31
0.0
  0
LINE
  5
60F
330
1F
100
AcDbEntity
  8
0
  6
Continuous
 62
     8
370
    25
100
AcDbLine
 10
23.266713673
 20
65.2553171064
 30
0.0
 11
24.0071653933
 21
64.8278171064
 31
0.0
  0
LINE
  5
610
330
1F
100
AcDbEntity
  8
0
  6
Continuous
 62
     8
370
    25
100
AcDbLine
 10
36.1420896996
 20
72.4253646523
 30
0.0
 11
36.1420896996
 21
59.5335588397
 31
0.0
  0
LINE
  5
611
330
1F
100
AcDbEntity
  8
0
  6
Continuous
 62
     8
370
    25
100
AcDbLine
 10
36.1420896996
 20
59.0080062584
 30
0.0
 11
36.1420896996
 21
58.7181505381
 31
0.0
  0
LINE
  5
612
330
1F
100
AcDbEntity
  8
0
  6
Continuous
 62
     8
370
    25
100
AcDbLine
 10
35.6232920675
 20
57.6884671927
 30
0.0
 11
35.73587537
 21
57.6234671927
 31
0.0
  0
LINE
  5
613
330
1F
100
AcDbEntity
  8
0
  6
Continuous
 62
     8
370
    25
100
AcDbLine
 10
36.4975706468
 20
57.1837022196
 30
0.0
 11
36.5625706468
 21
57.1461744521
 31
0.0
  0
DIMENSION
  5
614
330
1F
100
AcDbEntity
  8
DIMS
100
AcDbDimension
  2
_D_11
 10
37.1970896996
 20
74.6568605046
 30
0.0
 11
29.4231683222
 21
74.6568605046
 31
0.0
 70
   160
  1
<>
 71
     2
 42
-1.0
  3
SLDDIMSTYLE1
100
AcDbAlignedDimension
 13
22.8771742856
 23
65.6756150958
 33
0.0
 14
37.1970896996
 24
73.6753646523
 34
0.0
100
AcDbRotatedDimension
  0
INSERT
  5
628
330
1F
100
AcDbEntity
  8
NOTES
100
AcDbBlockReference
  2
SW_NOTE_0_2
 10
35.242421438
 20
55.4509347791
 30
0.0
  0
LWPOLYLINE
  5
629
330
1F
100
AcDbEntity
  8
NOTES
100
AcDbPolyline
 90
      554
 70
   128
 43
0.0
 10
31.7644953472
 20
62.0904131623
 10
31.769331197
 20
62.0999560781
 10
31.7741867826
 20
62.1094821187
 10
31.7790619626
 20
62.1189912623
 10
31.7839565955
 20
62.1284834873
 10
31.7888705406
 20
62.1379587721
 10
31.7941032474
 20
62.1479897813
 10
31.7993573535
 20
62.1580016854
 10
31.8046326923
 20
62.1679944591
 10
31.809929098
 20
62.1779680773
 10
31.8152464054
 20
62.1879225154
 10
31.8205844496
 20
62.1978577485
 10
31.8259430664
 20
62.2077737523
 10
31.8313220921
 20
62.2176705024
 10
31.8367213636
 20
62.2275479746
 10
31.8421407183
 20
62.2374061451
 10
31.847579994
 20
62.2472449899
 10
31.8530390294
 20
62.2570644856
 10
31.8582682116
 20
62.266419569
 10
31.8635151117
 20
62.2757569807
 10
31.8687795905
 20
62.2850767005
 10
31.8740615094
 20
62.2943787085
 10
31.8793607302
 20
62.3036629849
 10
31.8846771151
 20
62.3129295099
 10
31.8900105269
 20
62.3221782641
 10
31.8953608286
 20
62.3314092281
 10
31.9009838736
 20
62.3410606598
 10
31.9066251494
 20
62.3506925236
 10
31.9122845004
 20
62.3603047977
 10
31.9179617712
 20
62.3698974605
 10
31.9236568072
 20
62.3794704906
 10
31.9293694543
 20
62.3890238669
 10
31.9356213378
 20
62.3994232918
 10
31.9418937985
 20
62.4097992748
 10
31.9481866385
 20
62.4201517889
 10
31.9544996606
 20
62.4304808074
 10
31.9608326685
 20
62.4407863041
 10
31.9671854666
 20
62.4510682527
 10
31.9735578601
 20
62.4613266273
 10
31.9799496548
 20
62.4715614024
 10
31.9863606575
 20
62.4817725525
 10
31.9927906757
 20
62.4919600524
 10
31.9992395176
 20
62.5021238773
 10
32.0057069921
 20
62.5122640025
 10
32.0121929092
 20
62.5223804036
 10
32.0186970793
 20
62.5324730563
 10
32.0250886932
 20
62.5423407923
 10
32.0314974791
 20
62.5521856752
 10
32.037923261
 20
62.5620076829
 10
32.0443658634
 20
62.5718067936
 10
32.0509427053
 20
62.5817605223
 10
32.05753662
 20
62.5916904688
 10
32.0641474246
 20
62.6015966108
 10
32.0707749368
 20
62.6114789263
 10
32.0774189752
 20
62.6213373933
 10
32.0835370708
 20
62.630373045
 10
32.0896688218
 20
62.6393885349
 10
32.0958140892
 20
62.6483838466
 10
32.1019727347
 20
62.6573589639
 10
32.1081446203
 20
62.6663138708
 10
32.1143296087
 20
62.6752485514
 10
32.1210916518
 20
62.6849723893
 10
32.1278689486
 20
62.6946721174
 10
32.1346613231
 20
62.7043477158
 10
32.1414685999
 20
62.713999165
 10
32.1482906045
 20
62.7236264455
 10
32.155127163
 20
62.7332295382
 10
32.1619781025
 20
62.7428084241
 10
32.1688432507
 20
62.7523630847
 10
32.175722436
 20
62.7618935015
 10
32.1826154878
 20
62.7713996564
 10
32.1895222361
 20
62.7808815314
 10
32.1964425117
 20
62.7903391089
 10
32.2033761461
 20
62.7997723714
 10
32.2103229718
 20
62.8091813018
 10
32.2171434982
 20
62.8183784303
 10
32.2239763768
 20
62.8275521582
 10
32.2308214519
 20
62.83670247
 10
32.2376785687
 20
62.8458293506
 10
32.2446725728
 20
62.8550980848
 10
32.2516787385
 20
62.8643424967
 10
32.2586969043
 20
62.873562571
 10
32.2657269099
 20
62.8827582925
 10
32.2727685954
 20
62.8919296464
 10
32.2798372367
 20
62.9010965919
 10
32.2869172901
 20
62.910239034
 10
32.2940085971
 20
62.9193569582
 10
32.3011109998
 20
62.9284503507
 10
32.3082243414
 20
62.9375191976
 10
32.3153484655
 20
62.9465634855
 10
32.3224832167
 20
62.9555832012
 10
32.3294854343
 20
62.9643986699
 10
32.3364975648
 20
62.9731905149
 10
32.343519464
 20
62.9819587244
 10
32.3505509884
 20
62.9907032867
 10
32.3577201006
 20
62.9995825335
 10
32.3648988933
 20
63.0084372419
 10
32.3720872173
 20
63.0172674006
 10
32.3792849244
 20
63.0260729982
 10
32.3864918667
 20
63.0348540239
 10
32.393578961
 20
63.0434543173
 10
32.4006746836
 20
63.0520308882
 10
32.4077788968
 20
63.0605837267
 10
32.4148914637
 20
63.0691128234
 10
32.4221417917
 20
63.0777725917
 10
32.4294004955
 20
63.0864077278
 10
32.4366674326
 20
63.0950182225
 10
32.4439424613
 20
63.1036040666
 10
32.4512254409
 20
63.1121652514
 10
32.4585162313
 20
63.1207017682
 10
32.465814693
 20
63.1292136087
 10
32.4731206877
 20
63.137700765
 10
32.4804340774
 20
63.146163229
 10
32.4877547251
 20
63.1546009932
 10
32.4955268277
 20
63.1635231384
 10
32.5033067798
 20
63.1724174824
 10
32.5110944207
 20
63.181284017
 10
32.5188895906
 20
63.1901227345
 10
32.5266921308
 20
63.1989336273
 10
32.5345018835
 20
63.2077166882
 10
32.5426268997
 20
63.2168163889
 10
32.5507593636
 20
63.2258860059
 10
32.5588991014
 20
63.2349255319
 10
32.5670459401
 20
63.2439349603
 10
32.5751997082
 20
63.2529142848
 10
32.5826180942
 20
63.2610511788
 10
32.5900419387
 20
63.2691631842
 10
32.5974711151
 20
63.2772502972
 10
32.6049054976
 20
63.285312514
 10
32.6123449613
 20
63.2933498311
 10
32.6197893818
 20
63.3013622452
 10
32.6272386357
 20
63.3093497533
 10
32.6346926003
 20
63.3173123527
 10
32.6421511536
 20
63.3252500409
 10
32.6496141745
 20
63.3331628155
 10
32.6570815425
 20
63.3410506746
 10
32.664553138
 20
63.3489136164
 10
32.6720288421
 20
63.3567516393
 10
32.6795085367
 20
63.3645647421
 10
32.6868423959
 20
63.3721974044
 10
32.6941798651
 20
63.3798061317
 10
32.7015208354
 20
63.3873909233
 10
32.7088651984
 20
63.3949517792
 10
32.7163464699
 20
63.4026255125
 10
32.7238310342
 20
63.4102744317
 10
32.7313187793
 20
63.4178985374
 10
32.7388095938
 20
63.42549783
 10
32.7463033673
 20
63.4330723107
 10
32.753816385
 20
63.4406384612
 10
32.7613321546
 20
63.4481796936
 10
32.768850567
 20
63.4556960096
 10
32.7763715142
 20
63.4631874109
 10
32.7838948887
 20
63.4706538998
 10
32.7914205837
 20
63.4780954787
 10
32.7989484935
 20
63.4855121501
 10
32.8063278924
 20
63.4927563257
 10
32.8137092191
 20
63.499976586
 10
32.8210923761
 20
63.507172934
 10
32.8284772665
 20
63.5143453731
 10
32.8359981093
 20
63.5216236592
 10
32.8435205488
 20
63.528877167
 10
32.8510444851
 20
63.5361059008
 10
32.858569819
 20
63.543309865
 10
32.8660964521
 20
63.5504890647
 10
32.8734898511
 20
63.5575159639
 10
32.8808843173
 20
63.5645189849
 10
32.8882797596
 20
63.5714981329
 10
32.8956760876
 20
63.5784534133
 10
32.9032077117
 20
63.5855106368
 10
32.9107400671
 20
63.5925431291
 10
32.9182730606
 20
63.5995508967
 10
32.9258066001
 20
63.6065339463
 10
32.9333405937
 20
63.6134922848
 10
32.9408749506
 20
63.6204259196
 10
32.9484095808
 20
63.627334858
 10
32.9559443949
 20
63.6342191077
 10
32.9634793043
 20
63.6410786768
 10
32.9710142212
 20
63.6479135733
 10
32.9790057108
 20
63.6551357547
 10
32.9869970081
 20
63.6623302023
 10
32.9949880109
 20
63.6694969266
 10
33.0029786184
 20
63.6766359387
 10
33.0109687304
 20
63.68374725
 10
33.0189582479
 20
63.6908308719
 10
33.0265070583
 20
63.6974988866
 10
33.0340551682
 20
63.7041421991
 10
33.0416024965
 20
63.7107608202
 10
33.0491489626
 20
63.7173547606
 10
33.0566944869
 20
63.7239240313
 10
33.0642389906
 20
63.7304686436
 10
33.0717823953
 20
63.7369886091
 10
33.0791737912
 20
63.7433542743
 10
33.0865639854
 20
63.7496962913
 10
33.0939529063
 20
63.7560146716
 10
33.1013404833
 20
63.7623094271
 10
33.1088609267
 20
63.7686943719
 10
33.1163798311
 20
63.7750548504
 10
33.1238971243
 20
63.7813908755
 10
33.1314127346
 20
63.7877024608
 10
33.1389265911
 20
63.7939896198
 10
33.1463044967
 20
63.8001407457
 10
33.1536805773
 20
63.8062683367
 10
33.1610547679
 20
63.8123724064
 10
33.1684270043
 20
63.8184529686
 10
33.1759312079
 20
63.8246199486
 10
33.1834332532
 20
63.8307625883
 10
33.1909330748
 20
63.8368809029
 10
33.1984306079
 20
63.842974908
 10
33.2059257883
 20
63.8490446195
 10
33.2134185528
 20
63.8550900533
 10
33.2209088388
 20
63.8611112259
 10
33.2283965846
 20
63.8671081537
 10
33.2358817292
 20
63.8730808536
 10
33.2433642122
 20
63.8790293426
 10
33.2512972044
 20
63.885311909
 10
33.2592270658
 20
63.8915672812
 10
33.2671537273
 20
63.8977954805
 10
33.2750771208
 20
63.9039965285
 10
33.282997179
 20
63.9101704469
 10
33.2909138359
 20
63.916317258
 10
33.2982417317
 20
63.9219851765
 10
33.3055666038
 20
63.9276298874
 10
33.3128884019
 20
63.9332514091
 10
33.3202070761
 20
63.9388497599
 10
33.3276555572
 20
63.9445261117
 10
33.3351006982
 20
63.950178482
 10
33.3425424492
 20
63.9558068911
 10
33.3499807606
 20
63.9614113594
 10
33.3574155838
 20
63.9669919077
 10
33.3648468711
 20
63.9725485571
 10
33.3722745753
 20
63.9780813288
 10
33.3796986501
 20
63.9835902443
 10
33.3871190498
 20
63.9890753253
 10
33.3945357298
 20
63.9945365939
 10
33.4023977915
 20
64.0003028523
 10
33.4102555677
 20
64.0060423762
 10
33.4181090077
 20
64.0117551928
 10
33.4259580618
 20
64.0174413296
 10
33.4338026813
 20
64.0231008142
 10
33.4416428183
 20
64.0287336747
 10
33.4490307999
 20
64.0340202976
 10
33.4564147166
 20
64.0392833014
 10
33.4637945308
 20
64.0445227106
 10
33.4711702054
 20
64.0497385495
 10
33.4785417045
 20
64.054930843
 10
33.4863553586
 20
64.0604121196
 10
33.4941642345
 20
64.0658669686
 10
33.5019682917
 20
64.0712954203
 10
33.509767491
 20
64.0766975057
 10
33.5175617938
 20
64.0820732556
 10
33.5253511627
 20
64.0874227015
 10
33.5331355612
 20
64.092745875
 10
33.5409149538
 20
64.0980428082
 10
33.5486893059
 20
64.1033135333
 10
33.5564585839
 20
64.108558083
 10
33.5642227551
 20
64.1137764901
 10
33.5719817879
 20
64.1189687879
 10
33.5793833157
 20
64.1239007468
 10
33.5867801077
 20
64.128808976
 10
33.5941721387
 20
64.1336935051
 10
33.6015593845
 20
64.1385543642
 10
33.6089418215
 20
64.1433915834
 10
33.6163194271
 20
64.1482051931
 10
33.6236921793
 20
64.152995224
 10
33.631060057
 20
64.1577617072
 10
33.6390774188
 20
64.1629252166
 10
33.6470889515
 20
64.1680608828
 10
33.6550946313
 20
64.1731687466
 10
33.6630944352
 20
64.1782488494
 10
33.6710883415
 20
64.1833012331
 10
33.6783503938
 20
64.1878702907
 10
33.6856075403
 20
64.1924165065
 10
33.6928597669
 20
64.1969399128
 10
33.7001070605
 20
64.2014405417
 10
33.7073494087
 20
64.2059184261
 10
33.7145867999
 20
64.2103735986
 10
33.7218192232
 20
64.2148060926
 10
33.7290466685
 20
64.2192159412
 10
33.7362691264
 20
64.2236031782
 10
33.7434865884
 20
64.2279678374
 10
33.7506990467
 20
64.2323099529
 10
33.7579064942
 20
64.236629559
 10
33.7651089246
 20
64.2409266904
 10
33.7723063326
 20
64.2452013818
 10
33.779354915
 20
64.249368842
 10
33.7863986654
 20
64.2535148179
 10
33.793437581
 20
64.2576393428
 10
33.8004716592
 20
64.2617424506
 10
33.8076286581
 20
64.2658981906
 10
33.8147806396
 20
64.2700317988
 10
33.8219276035
 20
64.2741433115
 10
33.8290695504
 20
64.2782327653
 10
33.8362064816
 20
64.2823001968
 10
33.84454475
 20
64.2870280321
 10
33.8528761692
 20
64.2917258718
 10
33.8612007452
 20
64.2963937759
 10
33.8695184856
 20
64.3010318052
 10
33.8778293992
 20
64.3056400204
 10
33.8861334965
 20
64.3102184831
 10
33.8931036791
 20
64.3140414442
 10
33.900069068
 20
64.3178434926
 10
33.9070296718
 20
64.3216246654
 10
33.9139854997
 20
64.325385
 10
33.9210629003
 20
64.3291923331
 10
33.9281353711
 20
64.3329781424
 10
33.9352029241
 20
64.336742468
 10
33.9422655718
 20
64.3404853502
 10
33.9493233279
 20
64.3442068299
 10
33.9571945289
 20
64.3483350442
 10
33.9650596753
 20
64.3524367072
 10
33.9729187893
 20
64.3565118768
 10
33.9807718939
 20
64.3605606108
 10
33.9886190138
 20
64.3645829678
 10
33.9964601744
 20
64.3685790063
 10
34.0042954026
 20
64.3725487857
 10
34.0121247263
 20
64.3764923654
 10
34.019134809
 20
64.3800036077
 10
34.0261401966
 20
64.3834939079
 10
34.0331409117
 20
64.3869633096
 10
34.0401369776
 20
64.3904118567
 10
34.0471284184
 20
64.3938395933
 10
34.0545385564
 20
64.3974523802
 10
34.0619435502
 20
64.4010418606
 10
34.0693434311
 20
64.4046080881
 10
34.0767382317
 20
64.4081511165
 10
34.0841279855
 20
64.4116709998
 10
34.0915127267
 20
64.4151677924
 10
34.0996479379
 20
64.418995982
 10
34.107777149
 20
64.4227962499
 10
34.1159004104
 20
64.4265686703
 10
34.1240177736
 20
64.4303133179
 10
34.1321292914
 20
64.4340302678
 10
34.1402350184
 20
64.4377195955
 10
34.1479669526
 20
64.4412155291
 10
34.155693711
 20
64.4446864304
 10
34.1634153446
 20
64.4481323663
 10
34.1711319056
 20
64.4515534041
 10
34.1788434471
 20
64.4549496114
 10
34.1865500239
 20
64.4583210564
 10
34.1942516914
 20
64.4616678073
 10
34.2019485065
 20
64.4649899329
 10
34.2096405274
 20
64.4682875026
 10
34.2173278131
 20
64.4715605857
 10
34.2250104241
 20
64.4748092523
 10
34.232688422
 20
64.4780335726
 10
34.2403618694
 20
64.4812336173
 10
34.2480308304
 20
64.4844094575
 10
34.2556953701
 20
64.4875611647
 10
34.2633555547
 20
64.4906888105
 10
34.2719298744
 20
64.4941632976
 10
34.2804989124
 20
64.4976077947
 10
34.289062767
 20
64.5010224046
 10
34.2976215385
 20
64.5044072304
 10
34.3063308071
 20
64.5078231045
 10
34.3150350217
 20
64.5112083194
 10
34.3237342941
 20
64.5145629859
 10
34.3324287381
 20
64.5178872155
 10
34.3411184694
 20
64.5211811203
 10
34.3498225916
 20
64.5244519164
 10
34.3585222194
 20
64.5276924822
 10
34.3672174753
 20
64.5309029327
 10
34.3759084838
 20
64.5340833832
 10
34.3845953716
 20
64.5372339497
 10
34.3932782672
 20
64.5403547491
 10
34.4019573012
 20
64.5434458986
 10
34.4104591359
 20
64.5464465726
 10
34.418957516
 20
64.5494189958
 10
34.4274525701
 20
64.5523632807
 10
34.4359444287
 20
64.5552795399
 10
34.4445875381
 20
64.5582201448
 10
34.4532276133
 20
64.5611319337
 10
34.4618647981
 20
64.5640150278
 10
34.4704992379
 20
64.5668695486
 10
34.4791310804
 20
64.5696956185
 10
34.4876063993
 20
64.5724436484
 10
34.4960795008
 20
64.5751644702
 10
34.5045505301
 20
64.5778582014
 10
34.5130196346
 20
64.5805249604
 10
34.5216408994
 20
64.5832126166
 10
34.5302604829
 20
64.5858725601
 10
34.5388785464
 20
64.5885049177
 10
34.5474952533
 20
64.5911098169
 10
34.5561107691
 20
64.5936873856
 10
34.5647252612
 20
64.5962377526
 10
34.573338899
 20
64.5987610471
 10
34.5819518538
 20
64.6012573991
 10
34.5905642991
 20
64.6037269392
 10
34.5991764103
 20
64.6061697986
 10
34.6083103002
 20
64.6087317019
 10
34.6174442279
 20
64.611263899
 10
34.62657841
 20
64.6137665488
 10
34.6357130656
 20
64.6162398111
 10
34.6448484164
 20
64.6186838463
 10
34.6539846865
 20
64.6210988159
 10
34.6634822411
 20
64.6235783287
 10
34.6729812913
 20
64.626026798
 10
34.6824820976
 20
64.6284444078
 10
34.6919849235
 20
64.6308313429
 10
34.7014900351
 20
64.6331877893
 10
34.7101332558
 20
64.6353037132
 10
34.7187787926
 20
64.6373947353
 10
34.7274268518
 20
64.6394609972
 10
34.736077642
 20
64.6415026413
 10
34.7447313736
 20
64.6435198104
 10
34.753388259
 20
64.6455126482
 10
34.7620485128
 20
64.6474812991
 10
34.7707123514
 20
64.6494259079
 10
34.7793799935
 20
64.6513466201
 10
34.7880516594
 20
64.6532435821
 10
34.7967275719
 20
64.6551169405
 10
34.8054079553
 20
64.656966843
 10
34.8140930364
 20
64.6587934377
 10
34.8227830436
 20
64.6605968733
 10
34.8313042523
 20
64.6623419154
 10
34.8398306324
 20
64.6640650003
 10
34.8483624048
 20
64.6657662699
 10
34.8568997921
 20
64.6674458665
 10
34.8655984056
 20
64.6691338817
 10
34.8743033117
 20
64.6707997285
 10
34.8830147513
 20
64.6724435594
 10
34.8917329674
 20
64.6740655272
 10
34.9004582048
 20
64.6756657855
 10
34.9106691416
 20
64.6775095115
 10
34.9208904129
 20
64.6793240173
 10
34.9311224206
 20
64.6811095518
 10
34.9413655701
 20
64.6828663648
 10
34.9516202709
 20
64.6845947076
 10
34.961886936
 20
64.6862948323
 10
34.9705204855
 20
64.6877013157
 10
34.9791630201
 20
64.6890882183
 10
34.9878147907
 20
64.6904556916
 10
34.9964760501
 20
64.6918038877
 10
35.0053047993
 20
64.6931569483
 10
35.0141439202
 20
64.6944903444
 10
35.0229936856
 20
64.6958042386
 10
35.0318543703
 20
64.697098794
 10
35.0407262509
 20
64.6983741743
 10
35.0494508726
 20
64.6996082745
 10
35.0581868288
 20
64.7008241932
 10
35.0669343874
 20
64.7020220874
 10
35.0756938179
 20
64.7032021146
 10
35.0846249892
 20
64.7043854031
 10
35.0935690382
 20
64.7055505004
 10
35.1025262554
 20
64.7066975747
 10
35.1114969335
 20
64.7078267949
 10
35.1204813669
 20
64.7089383305
 10
35.1294798523
 20
64.7100323514
 10
35.1384926883
 20
64.7111090286
 10
35.1475201753
 20
64.7121685333
 10
35.156562616
 20
64.7132110375
 10
35.1656203148
 20
64.7142367141
 10
35.1752439802
 20
64.7153063576
 10
35.1848855223
 20
64.7163574743
 10
35.1945453118
 20
64.7173902726
 10
35.204223722
 20
64.7184049616
 10
35.2139211287
 20
64.7194017513
 10
35.22363791
 20
64.7203808526
 10
35.232837626
 20
64.7212899608
 10
35.2420553045
 20
64.7221836436
 10
35.2512912709
 20
64.7230620808
 10
35.2605458525
 20
64.7239254529
 10
35.2698193787
 20
64.724773941
 10
35.2791121809
 20
64.7256077269
 10
35.2884245926
 20
64.726426993
 10
35.2975701045
 20
64.7272159632
 10
35.306735089
 20
64.7279913373
 10
35.3159198656
 20
64.7287532888
 10
35.3251247556
 20
64.7295019918
 10
35.3345180067
 20
64.7302508761
 10
35.3439327873
 20
64.730986392
 10
35.3533694425
 20
64.7317087251
 10
35.3628283195
 20
64.7324180616
 10
35.3723097673
 20
64.7331145885
 10
35.3816442131
 20
64.7337863905
 10
35.3910011039
 20
64.7344461956
 10
35.400380776
 20
64.7350941827
 10
35.4097835677
 20
64.7357305312
 10
35.4193814246
 20
64.7363666782
 10
35.4290039628
 20
64.736991137
 10
35.4386515453
 20
64.7376040991
 10
35.4483245369
 20
64.7382057566
 10
35.4580233046
 20
64.738796302
 10
35.4677482172
 20
64.7393759288
 10
35.4774996456
 20
64.7399448308
 10
35.4872779627
 20
64.7405032026
 10
35.4970835434
 20
64.7410512394
 10
35.5069167645
 20
64.7415891372
 10
35.5158803608
 20
64.7420695022
 10
35.5248673996
 20
64.7425417982
 10
35.5338781684
 20
64.7430061739
 10
35.542912956
 20
64.7434627781
 10
35.5519720525
 20
64.7439117604
 10
35.5610557496
 20
64.7443532705
 10
35.5701643401
 20
64.7447874588
 10
35.5780570461
 20
64.7451569386
 10
35.5859687579
 20
64.7455211593
 10
35.5938996669
 20
64.7458802186
 10
35.6018499656
 20
64.7462342145
 10
35.6098198469
 20
64.7465832454
 10
35.6182943664
 20
64.7469481141
 10
35.6267913644
 20
64.7473076264
 10
35.6353110741
 20
64.7476619005
 10
35.6438537296
 20
64.7480110549
 10
35.6524195661
 20
64.7483552085
 10
35.6610088196
 20
64.7486944802
 10
35.669621727
 20
64.7490289896
 10
35.6782585265
 20
64.7493588564
 10
35.6869194568
 20
64.7496842006
 10
35.695604758
 20
64.7500051425
 10
35.7043146709
 20
64.7503218028
 10
35.7130494373
 20
64.7506343025
 10
35.7214105766
 20
64.7509288278
 10
35.7297947945
 20
64.7512197783
 10
35.7382023039
 20
64.75150726
 10
35.7466333183
 20
64.7517913792
 10
35.7550880521
 20
64.7520722424
 10
35.7635667205
 20
64.7523499563
 10
35.7720695394
 20
64.7526246279
 10
35.7805967257
 20
64.7528963646
 10
35.7895563411
 20
64.7531780103
 10
35.7985431897
 20
64.7534566769
 10
35.8075575236
 20
64.7537324885
 10
35.8165995958
 20
64.7540055696
 10
35.8256696603
 20
64.7542760453
 10
35.834767972
 20
64.7545440405
 10
35.8424325706
 20
64.7547673315
 10
35.8501174332
 20
64.7549890354
 10
35.8578227125
 20
64.755209227
 10
35.8655485617
 20
64.755427981
 10
35.873436174
 20
64.7556493129
 10
35.8813454329
 20
64.7558693116
 10
35.8892765017
 20
64.7560880566
 10
35.8972295442
 20
64.7563056276
 10
35.9052047244
 20
64.7565221044
 10
35.9130591985
 20
64.7567337278
 10
35.9209353423
 20
64.7569444489
 10
35.9288333129
 20
64.7571543436
 10
35.9367532678
 20
64.7573634884
 10
35.9448399727
 20
64.7575757441
 10
35.9529497998
 20
64.7577873823
 10
35.9610829167
 20
64.7579984839
 10
35.9692394918
 20
64.75820913
 10
35.977419694
 20
64.758419402
 10
35.9856236925
 20
64.7586293814
 10
35.9938516574
 20
64.7588391497
 10
36.0021037589
 20
64.7590487888
 10
36.0103801679
 20
64.7592583806
 10
36.0186810559
 20
64.7594680072
 10
36.027511969
 20
64.7596904683
 10
36.0363708172
 20
64.7599131596
 10
36.045257807
 20
64.7601361796
 10
36.0541731454
 20
64.7603596272
 10
36.0631170402
 20
64.7605836014
 10
36.0720896996
 20
64.7608082014
  0
SOLID
  5
62A
330
1F
100
AcDbEntity
  8
NOTES
100
AcDbTrace
 10
36.0720896996
 20
64.7608082014
 30
0.0
 11
35.769681267
 21
64.8532697605
 31
0.0
 12
35.7746860181
 22
64.6533323891
 32
0.0
 13
35.7746860181
 23
64.6533323891
 33
0.0
  0
ENDSEC
  0
SECTION
  2
OBJECTS
  0
DICTIONARY
  5
C
330
0
100
AcDbDictionary
281
     1
  3
ACAD_DETAILVIEWSTYLE
350
634
  3
ACAD_GROUP
350
D
  3
ACAD_LAYOUT
350
1A
  3
ACAD_MATERIAL
350
43
  3
ACAD_MLEADERSTYLE
350
6B
  3
ACAD_MLINESTYLE
350
17
  3
ACAD_PLOTSETTINGS
350
19
  3
ACAD_PLOTSTYLENAME
350
E
  3
ACAD_SCALELIST
350
47
  3
ACAD_SECTIONVIEWSTYLE
350
635
  3
ACAD_TABLESTYLE
350
69
  3
ACDB_RECOMPOSE_DATA
350
631
  3
AcDbVariableDictionary
350
62B
  0
DICTIONARY
  5
634
102
{ACAD_REACTORS
330
C
102
}
330
C
100
AcDbDictionary
281
     1
  0
DICTIONARY
  5
D
102
{ACAD_REACTORS
330
C
102
}
330
C
100
AcDbDictionary
281
     1
  0
DICTIONARY
  5
1A
102
{ACAD_REACTORS
330
C
102
}
330
C
100
AcDbDictionary
281
     1
  3
Layout1
350
1E
  3
Layout2
350
26
  3
Model
350
22
  0
DICTIONARY
  5
43
102
{ACAD_REACTORS
330
C
102
}
330
C
100
AcDbDictionary
281
     1
  3
ByBlock
350
45
  3
ByLayer
350
44
  3
Global
350
46
  0
DICTIONARY
  5
6B
102
{ACAD_REACTORS
330
C
102
}
330
C
100
AcDbDictionary
281
     1
  3
Standard
350
6C
  0
DICTIONARY
  5
17
102
{ACAD_REACTORS
330
C
102
}
330
C
100
AcDbDictionary
281
     1
  3
Standard
350
18
  0
DICTIONARY
  5
19
102
{ACAD_REACTORS
330
C
102
}
330
C
100
AcDbDictionary
281
     1
  0
ACDBDICTIONARYWDFLT
  5
E
102
{ACAD_REACTORS
330
C
102
}
330
C
100
AcDbDictionary
281
     1
  3
Normal
350
F
100
AcDbDictionaryWithDefault
340
F
  0
DICTIONARY
  5
47
102
{ACAD_REACTORS
330
C
102
}
330
C
100
AcDbDictionary
281
     1
  3
A0
350
48
  3
A1
350
49
  3
A2
350
4A
  3
A3
350
4B
  3
A4
350
4C
  3
A5
350
4D
  3
A6
350
4E
  3
A7
350
4F
  3
A8
350
50
  3
A9
350
51
  3
B0
350
52
  3
B1
350
53
  3
B2
350
54
  3
B3
350
55
  3
B4
350
56
  3
B5
350
57
  3
B6
350
58
  3
B7
350
59
  3
B8
350
5A
  3
B9
350
5B
  3
C0
350
5C
  3
C1
350
5D
  3
C2
350
5E
  3
C3
350
5F
  3
C4
350
60
  3
C5
350
61
  3
C6
350
62
  3
C7
350
63
  3
C8
350
64
  3
C9
350
65
  3
D0
350
66
  3
D1
350
67
  3
D2
350
68
  0
DICTIONARY
  5
635
102
{ACAD_REACTORS
330
C
102
}
330
C
100
AcDbDictionary
281
     1
  0
DICTIONARY
  5
69
102
{ACAD_REACTORS
330
C
102
}
330
C
100
AcDbDictionary
281
     1
  3
Standard
350
6A
  0
XRECORD
  5
631
102
{ACAD_REACTORS
330
C
102
}
330
C
100
AcDbXrecord
280
     1
 90
        1
330
6A
  0
DICTIONARY
  5
62B
102
{ACAD_REACTORS
330
C
102
}
330
C
100
AcDbDictionary
281
     1
  3
CANNOSCALE
350
62C
  3
CMLEADERSTYLE
350
633
  3
CTABLESTYLE
350
632
  0
LAYOUT
  5
1E
102
{ACAD_REACTORS
330
1A
102
}
330
1A
100
AcDbPlotSettings
  1

  2
none_device
  4

  6

 40
0.0
 41
0.0
 42
0.0
 43
0.0
 44
0.0
 45
0.0
 46
0.0
 47
0.0
 48
0.0
 49
0.0
140
0.0
141
0.0
142
1.0
143
1.0
 70
   688
 72
     0
 73
     0
 74
     5
  7

 75
    16
 76
     0
 77
     2
 78
   300
147
1.0
148
0.0
149
0.0
100
AcDbLayout
  1
Layout1
 70
     1
 71
     1
 10
0.0
 20
0.0
 11
12.0
 21
9.0
 12
0.0
 22
0.0
 32
0.0
 14
1.0000000000E+20
 24
1.0000000000E+20
 34
1.0000000000E+20
 15
-1.0000000000E+20
 25
-1.0000000000E+20
 35
-1.0000000000E+20
146
0.0
 13
0.0
 23
0.0
 33
0.0
 16
1.0
 26
0.0
 36
0.0
 17
0.0
 27
1.0
 37
0.0
 76
     0
330
1B
  0
LAYOUT
  5
26
102
{ACAD_REACTORS
330
1A
102
}
330
1A
100
AcDbPlotSettings
  1

  2
none_device
  4

  6

 40
0.0
 41
0.0
 42
0.0
 43
0.0
 44
0.0
 45
0.0
 46
0.0
 47
0.0
 48
0.0
 49
0.0
140
0.0
141
0.0
142
1.0
143
1.0
 70
   688
 72
     0
 73
     0
 74
     5
  7

 75
    16
 76
     0
 77
     2
 78
   300
147
1.0
148
0.0
149
0.0
100
AcDbLayout
  1
Layout2
 70
     1
 71
     2
 10
0.0
 20
0.0
 11
0.0
 21
0.0
 12
0.0
 22
0.0
 32
0.0
 14
0.0
 24
0.0
 34
0.0
 15
0.0
 25
0.0
 35
0.0
146
0.0
 13
0.0
 23
0.0
 33
0.0
 16
1.0
 26
0.0
 36
0.0
 17
0.0
 27
1.0
 37
0.0
 76
     0
330
23
  0
LAYOUT
  5
22
102
{ACAD_REACTORS
330
1A
102
}
330
1A
100
AcDbPlotSettings
  1

  2
none_device
  4
Letter_(8.50_x_11.00_Inches)
  6

 40
6.35
 41
6.35
 42
6.35000508
 43
6.35000508
 44
215.9
 45
279.4
 46
0.0
 47
0.0
 48
0.0
 49
0.0
140
0.0
141
0.0
142
1.0
143
1.0
 70
  1712
 72
     0
 73
     0
 74
     0
  7

 75
     0
 76
     0
 77
     2
 78
   300
147
1.0
148
0.0
149
0.0
100
AcDbLayout
  1
Model
 70
     1
 71
     0
 10
0.0
 20
0.0
 11
70.0
 21
96.0
 12
0.0
 22
0.0
 32
0.0
 14
0.0
 24
0.0
 34
0.0
 15
70.0
 25
96.0
 35
0.0
146
0.0
 13
0.0
 23
0.0
 33
0.0
 16
1.0
 26
0.0
 36
0.0
 17
0.0
 27
1.0
 37
0.0
 76
     0
330
1F
331
29
  0
MATERIAL
  5
45
102
{ACAD_REACTORS
330
43
102
}
330
43
100
AcDbMaterial
  1
ByBlock
  0
MATERIAL
  5
44
102
{ACAD_REACTORS
330
43
102
}
330
43
100
AcDbMaterial
  1
ByLayer
  0
MATERIAL
  5
46
102
{ACAD_REACTORS
330
43
102
}
330
43
100
AcDbMaterial
  1
Global
  0
MLEADERSTYLE
  5
6C
102
{ACAD_REACTORS
330
6B
102
}
330
6B
100
AcDbMLeaderStyle
170
     2
171
     1
172
     0
 90
        2
 40
0.0
 41
0.0
173
     1
 91
-1056964608
340
14
 92
       -2
290
     1
 42
0.09
291
     1
 43
0.36
  3
Standard
341
0
 44
0.18
300

342
11
174
     1
178
     6
175
     1
176
     0
 93
-1056964608
 45
0.18
292
     0
297
     0
 46
0.18
343
0
 94
-1056964608
 47
1.0
 49
1.0
140
1.0
293
     1
141
0.0
294
     1
177
     0
142
1.0
295
     0
296
     0
143
0.125
1001
ACAD_MLEADERVER
1070
     2
  0
MLINESTYLE
  5
18
102
{ACAD_REACTORS
330
17
102
}
330
17
100
AcDbMlineStyle
  2
Standard
 70
     0
  3

 62
   256
 51
90.0
 52
90.0
 71
     2
 49
0.5
 62
   256
  6
BYLAYER
 49
-0.5
 62
   256
  6
BYLAYER
  0
ACDBPLACEHOLDER
  5
F
102
{ACAD_REACTORS
330
E
102
}
330
E
  0
SCALE
  5
48
102
{ACAD_REACTORS
330
47
102
}
330
47
100
AcDbScale
 70
     0
300
1:1
140
1.0
141
1.0
290
     1
  0
SCALE
  5
49
102
{ACAD_REACTORS
330
47
102
}
330
47
100
AcDbScale
 70
     0
300
1:2
140
1.0
141
2.0
290
     0
  0
SCALE
  5
4A
102
{ACAD_REACTORS
330
47
102
}
330
47
100
AcDbScale
 70
     0
300
1:4
140
1.0
141
4.0
290
     0
  0
SCALE
  5
4B
102
{ACAD_REACTORS
330
47
102
}
330
47
100
AcDbScale
 70
     0
300
1:5
140
1.0
141
5.0
290
     0
  0
SCALE
  5
4C
102
{ACAD_REACTORS
330
47
102
}
330
47
100
AcDbScale
 70
     0
300
1:8
140
1.0
141
8.0
290
     0
  0
SCALE
  5
4D
102
{ACAD_REACTORS
330
47
102
}
330
47
100
AcDbScale
 70
     0
300
1:10
140
1.0
141
10.0
290
     0
  0
SCALE
  5
4E
102
{ACAD_REACTORS
330
47
102
}
330
47
100
AcDbScale
 70
     0
300
1:16
140
1.0
141
16.0
290
     0
  0
SCALE
  5
4F
102
{ACAD_REACTORS
330
47
102
}
330
47
100
AcDbScale
 70
     0
300
1:20
140
1.0
141
20.0
290
     0
  0
SCALE
  5
50
102
{ACAD_REACTORS
330
47
102
}
330
47
100
AcDbScale
 70
     0
300
1:30
140
1.0
141
30.0
290
     0
  0
SCALE
  5
51
102
{ACAD_REACTORS
330
47
102
}
330
47
100
AcDbScale
 70
     0
300
1:40
140
1.0
141
40.0
290
     0
  0
SCALE
  5
52
102
{ACAD_REACTORS
330
47
102
}
330
47
100
AcDbScale
 70
     0
300
1:50
140
1.0
141
50.0
290
     0
  0
SCALE
  5
53
102
{ACAD_REACTORS
330
47
102
}
330
47
100
AcDbScale
 70
     0
300
1:100
140
1.0
141
100.0
290
     0
  0
SCALE
  5
54
102
{ACAD_REACTORS
330
47
102
}
330
47
100
AcDbScale
 70
     0
300
2:1
140
2.0
141
1.0
290
     0
  0
SCALE
  5
55
102
{ACAD_REACTORS
330
47
102
}
330
47
100
AcDbScale
 70
     0
300
4:1
140
4.0
141
1.0
290
     0
  0
SCALE
  5
56
102
{ACAD_REACTORS
330
47
102
}
330
47
100
AcDbScale
 70
     0
300
8:1
140
8.0
141
1.0
290
     0
  0
SCALE
  5
57
102
{ACAD_REACTORS
330
47
102
}
330
47
100
AcDbScale
 70
     0
300
10:1
140
10.0
141
1.0
290
     0
  0
SCALE
  5
58
102
{ACAD_REACTORS
330
47
102
}
330
47
100
AcDbScale
 70
     0
300
100:1
140
100.0
141
1.0
290
     0
  0
SCALE
  5
59
102
{ACAD_REACTORS
330
47
102
}
330
47
100
AcDbScale
 70
     0
300
1/128" = 1'-0"
140
0.0078125
141
12.0
290
     0
  0
SCALE
  5
5A
102
{ACAD_REACTORS
330
47
102
}
330
47
100
AcDbScale
 70
     0
300
1/64" = 1'-0"
140
0.015625
141
12.0
290
     0
  0
SCALE
  5
5B
102
{ACAD_REACTORS
330
47
102
}
330
47
100
AcDbScale
 70
     0
300
1/32" = 1'-0"
140
0.03125
141
12.0
290
     0
  0
SCALE
  5
5C
102
{ACAD_REACTORS
330
47
102
}
330
47
100
AcDbScale
 70
     0
300
1/16" = 1'-0"
140
0.0625
141
12.0
290
     0
  0
SCALE
  5
5D
102
{ACAD_REACTORS
330
47
102
}
330
47
100
AcDbScale
 70
     0
300
3/32" = 1'-0"
140
0.09375
141
12.0
290
     0
  0
SCALE
  5
5E
102
{ACAD_REACTORS
330
47
102
}
330
47
100
AcDbScale
 70
     0
300
1/8" = 1'-0"
140
0.125
141
12.0
290
     0
  0
SCALE
  5
5F
102
{ACAD_REACTORS
330
47
102
}
330
47
100
AcDbScale
 70
     0
300
3/16" = 1'-0"
140
0.1875
141
12.0
290
     0
  0
SCALE
  5
60
102
{ACAD_REACTORS
330
47
102
}
330
47
100
AcDbScale
 70
     0
300
1/4" = 1'-0"
140
0.25
141
12.0
290
     0
  0
SCALE
  5
61
102
{ACAD_REACTORS
330
47
102
}
330
47
100
AcDbScale
 70
     0
300
3/8" = 1'-0"
140
0.375
141
12.0
290
     0
  0
SCALE
  5
62
102
{ACAD_REACTORS
330
47
102
}
330
47
100
AcDbScale
 70
     0
300
1/2" = 1'-0"
140
0.5
141
12.0
290
     0
  0
SCALE
  5
63
102
{ACAD_REACTORS
330
47
102
}
330
47
100
AcDbScale
 70
     0
300
3/4" = 1'-0"
140
0.75
141
12.0
290
     0
  0
SCALE
  5
64
102
{ACAD_REACTORS
330
47
102
}
330
47
100
AcDbScale
 70
     0
300
1" = 1'-0"
140
1.0
141
12.0
290
     0
  0
SCALE
  5
65
102
{ACAD_REACTORS
330
47
102
}
330
47
100
AcDbScale
 70
     0
300
1-1/2" = 1'-0"
140
1.5
141
12.0
290
     0
  0
SCALE
  5
66
102
{ACAD_REACTORS
330
47
102
}
330
47
100
AcDbScale
 70
     0
300
3" = 1'-0"
140
3.0
141
12.0
290
     0
  0
SCALE
  5
67
102
{ACAD_REACTORS
330
47
102
}
330
47
100
AcDbScale
 70
     0
300
6" = 1'-0"
140
6.0
141
12.0
290
     0
  0
SCALE
  5
68
102
{ACAD_REACTORS
330
47
102
}
330
47
100
AcDbScale
 70
     0
300
1'-0" = 1'-0"
140
12.0
141
12.0
290
     0
  0
TABLESTYLE
  5
6A
102
{ACAD_REACTORS
330
69
102
}
102
{ACAD_XDICTIONARY
360
62D
102
}
330
69
100
AcDbTableStyle
  3
Standard
 70
     0
 71
     0
 40
0.06
 41
0.06
280
     0
281
     0
  7
Standard
140
0.18
170
     2
 62
     0
 63
   257
283
     0
274
    -2
284
     1
 64
     0
275
    -2
285
     1
 65
     0
276
    -2
286
     1
 66
     0
277
    -2
287
     1
 67
     0
278
    -2
288
     1
 68
     0
279
    -2
289
     1
 69
     0
  7
Standard
140
0.25
170
     5
 62
     0
 63
   257
283
     0
274
    -2
284
     1
 64
     0
275
    -2
285
     1
 65
     0
276
    -2
286
     1
 66
     0
277
    -2
287
     1
 67
     0
278
    -2
288
     1
 68
     0
279
    -2
289
     1
 69
     0
  7
Standard
140
0.18
170
     5
 62
     0
 63
   257
283
     0
274
    -2
284
     1
 64
     0
275
    -2
285
     1
 65
     0
276
    -2
286
     1
 66
     0
277
    -2
287
     1
 67
     0
278
    -2
288
     1
 68
     0
279
    -2
289
     1
 69
     0
  0
DICTIONARYVAR
  5
62C
102
{ACAD_REACTORS
330
62B
102
}
330
62B
100
DictionaryVariables
280
     0
  1
1:1
  0
DICTIONARYVAR
  5
633
102
{ACAD_REACTORS
330
62B
102
}
330
62B
100
DictionaryVariables
280
     0
  1
Standard
  0
DICTIONARYVAR
  5
632
102
{ACAD_REACTORS
330
62B
102
}
330
62B
100
DictionaryVariables
280
     0
  1
Standard
  0
DICTIONARY
  5
62D
330
6A
100
AcDbDictionary
280
     1
281
     1
  3
ACAD_ROUNDTRIP_2008_TABLESTYLE_CELLSTYLEMAP
360
62F
  3
ACAD_XREC_ROUNDTRIP
360
62E
  0
CELLSTYLEMAP
  5
62F
102
{ACAD_REACTORS
330
62D
102
}
330
62D
100
AcDbCellStyleMap
 90
        3
300
CELLSTYLE
  1
TABLEFORMAT_BEGIN
 90
        5
170
     1
 91
        0
 92
    32768
 62
   257
 93
        1
300
CONTENTFORMAT
  1
CONTENTFORMAT_BEGIN
 90
        0
 91
        0
 92
        4
 93
        0
300

 40
0.0
140
1.0
 94
        5
 62
     0
340
11
144
0.25
309
CONTENTFORMAT_END
171
     1
301
MARGIN
  1
CELLMARGIN_BEGIN
 40
0.06
 40
0.06
 40
0.06
 40
0.06
 40
0.06
 40
0.06
309
CELLMARGIN_END
 94
        6
 95
        1
302
GRIDFORMAT
  1
GRIDFORMAT_BEGIN
 90
        0
 91
        1
 62
     0
 92
       -2
340
14
 93
        0
 40
0.045
309
GRIDFORMAT_END
 95
        2
302
GRIDFORMAT
  1
GRIDFORMAT_BEGIN
 90
        0
 91
        1
 62
     0
 92
       -2
340
14
 93
        0
 40
0.045
309
GRIDFORMAT_END
 95
        4
302
GRIDFORMAT
  1
GRIDFORMAT_BEGIN
 90
        0
 91
        1
 62
     0
 92
       -2
340
14
 93
        0
 40
0.045
309
GRIDFORMAT_END
 95
        8
302
GRIDFORMAT
  1
GRIDFORMAT_BEGIN
 90
        0
 91
        1
 62
     0
 92
       -2
340
14
 93
        0
 40
0.045
309
GRIDFORMAT_END
 95
       16
302
GRIDFORMAT
  1
GRIDFORMAT_BEGIN
 90
        0
 91
        1
 62
     0
 92
       -2
340
14
 93
        0
 40
0.045
309
GRIDFORMAT_END
 95
       32
302
GRIDFORMAT
  1
GRIDFORMAT_BEGIN
 90
        0
 91
        1
 62
     0
 92
       -2
340
14
 93
        0
 40
0.045
309
GRIDFORMAT_END
309
TABLEFORMAT_END
  1
CELLSTYLE_BEGIN
 90
        1
 91
        1
300
_TITLE
309
CELLSTYLE_END
300
CELLSTYLE
  1
TABLEFORMAT_BEGIN
 90
        5
170
     1
 91
        0
 92
        0
 62
   257
 93
        1
300
CONTENTFORMAT
  1
CONTENTFORMAT_BEGIN
 90
        0
 91
        0
 92
        4
 93
        0
300

 40
0.0
140
1.0
 94
        5
 62
     0
340
11
144
0.18
309
CONTENTFORMAT_END
171
     1
301
MARGIN
  1
CELLMARGIN_BEGIN
 40
0.06
 40
0.06
 40
0.06
 40
0.06
 40
0.06
 40
0.06
309
CELLMARGIN_END
 94
        6
 95
        1
302
GRIDFORMAT
  1
GRIDFORMAT_BEGIN
 90
        0
 91
        1
 62
     0
 92
       -2
340
14
 93
        0
 40
0.045
309
GRIDFORMAT_END
 95
        2
302
GRIDFORMAT
  1
GRIDFORMAT_BEGIN
 90
        0
 91
        1
 62
     0
 92
       -2
340
14
 93
        0
 40
0.045
309
GRIDFORMAT_END
 95
        4
302
GRIDFORMAT
  1
GRIDFORMAT_BEGIN
 90
        0
 91
        1
 62
     0
 92
       -2
340
14
 93
        0
 40
0.045
309
GRIDFORMAT_END
 95
        8
302
GRIDFORMAT
  1
GRIDFORMAT_BEGIN
 90
        0
 91
        1
 62
     0
 92
       -2
340
14
 93
        0
 40
0.045
309
GRIDFORMAT_END
 95
       16
302
GRIDFORMAT
  1
GRIDFORMAT_BEGIN
 90
        0
 91
        1
 62
     0
 92
       -2
340
14
 93
        0
 40
0.045
309
GRIDFORMAT_END
 95
       32
302
GRIDFORMAT
  1
GRIDFORMAT_BEGIN
 90
        0
 91
        1
 62
     0
 92
       -2
340
14
 93
        0
 40
0.045
309
GRIDFORMAT_END
309
TABLEFORMAT_END
  1
CELLSTYLE_BEGIN
 90
        2
 91
        1
300
_HEADER
309
CELLSTYLE_END
300
CELLSTYLE
  1
TABLEFORMAT_BEGIN
 90
        5
170
     1
 91
        0
 92
        0
 62
   257
 93
        1
300
CONTENTFORMAT
  1
CONTENTFORMAT_BEGIN
 90
        0
 91
        0
 92
        4
 93
        0
300

 40
0.0
140
1.0
 94
        2
 62
     0
340
11
144
0.18
309
CONTENTFORMAT_END
171
     1
301
MARGIN
  1
CELLMARGIN_BEGIN
 40
0.06
 40
0.06
 40
0.06
 40
0.06
 40
0.06
 40
0.06
309
CELLMARGIN_END
 94
        6
 95
        1
302
GRIDFORMAT
  1
GRIDFORMAT_BEGIN
 90
        0
 91
        1
 62
     0
 92
       -2
340
14
 93
        0
 40
0.045
309
GRIDFORMAT_END
 95
        2
302
GRIDFORMAT
  1
GRIDFORMAT_BEGIN
 90
        0
 91
        1
 62
     0
 92
       -2
340
14
 93
        0
 40
0.045
309
GRIDFORMAT_END
 95
        4
302
GRIDFORMAT
  1
GRIDFORMAT_BEGIN
 90
        0
 91
        1
 62
     0
 92
       -2
340
14
 93
        0
 40
0.045
309
GRIDFORMAT_END
 95
        8
302
GRIDFORMAT
  1
GRIDFORMAT_BEGIN
 90
        0
 91
        1
 62
     0
 92
       -2
340
14
 93
        0
 40
0.045
309
GRIDFORMAT_END
 95
       16
302
GRIDFORMAT
  1
GRIDFORMAT_BEGIN
 90
        0
 91
        1
 62
     0
 92
       -2
340
14
 93
        0
 40
0.045
309
GRIDFORMAT_END
 95
       32
302
GRIDFORMAT
  1
GRIDFORMAT_BEGIN
 90
        0
 91
        1
 62
     0
 92
       -2
340
14
 93
        0
 40
0.045
309
GRIDFORMAT_END
309
TABLEFORMAT_END
  1
CELLSTYLE_BEGIN
 90
        3
 91
        2
300
_DATA
309
CELLSTYLE_END
  0
XRECORD
  5
62E
102
{ACAD_REACTORS
330
62D
102
}
330
62D
100
AcDbXrecord
280
     1
102
ACAD_ROUNDTRIP_PRE2007_TABLESTYLE
 90
        4
 91
        0
  1

 92
        4
 93
        0
  2

 94
        4
 95
        0
  3

  0
ENDSEC
  0
EOF
