  0
SECTION
  2
HEADER
  9
$ACADVER
  1
AC1018
  9
$ACADMAINTVER
 70
     0
  9
$DWGCODEPAGE
  3
ANSI_1252
  9
$LASTSAVEDBY
  1
carl
  9
$INSBASE
 10
0.0
 20
0.0
 30
0.0
  9
$EXTMIN
 10
0.0
 20
0.0
 30
0.0
  9
$EXTMAX
 10
60.0
 20
46.3636363636
 30
0.0
  9
$LIMMIN
 10
0.0
 20
0.0
  9
$LIMMAX
 10
60.0
 20
46.3636363636
  9
$ORTHOMODE
 70
     0
  9
$REGENMODE
 70
     1
  9
$FILLMODE
 70
     1
  9
$QTEXTMODE
 70
     0
  9
$MIRRTEXT
 70
     1
  9
$LTSCALE
 40
1.0
  9
$ATTMODE
 70
     1
  9
$TEXTSIZE
 40
0.5
  9
$TRACEWID
 40
0.05
  9
$TEXTSTYLE
  7
Standard
  9
$CLAYER
  8
0
  9
$CELTYPE
  6
ByLayer
  9
$CECOLOR
 62
   256
  9
$CELTSCALE
 40
1.0
  9
$DISPSILH
 70
     0
  9
$DIMSCALE
 40
1.0
  9
$DIMASZ
 40
0.3
  9
$DIMEXO
 40
0.1666666667
  9
$DIMDLI
 40
0.38
  9
$DIMRND
 40
0.0
  9
$DIMDLE
 40
0.0
  9
$DIMEXE
 40
0.375
  9
$DIMTP
 40
0.0
  9
$DIMTM
 40
0.0
  9
$DIMTXT
 40
0.5
  9
$DIMCEN
 40
0.09
  9
$DIMTSZ
 40
0.0
  9
$DIMTOL
 70
     0
  9
$DIMLIM
 70
     0
  9
$DIMTIH
 70
     1
  9
$DIMTOH
 70
     1
  9
$DIMSE1
 70
     0
  9
$DIMSE2
 70
     0
  9
$DIMTAD
 70
     0
  9
$DIMZIN
 70
     1
  9
$DIMBLK
  1

  9
$DIMASO
 70
     1
  9
$DIMSHO
 70
     1
  9
$DIMPOST
  1

  9
$DIMAPOST
  1

  9
$DIMALT
 70
     0
  9
$DIMALTD
 70
     2
  9
$DIMALTF
 40
25.4
  9
$DIMLFAC
 40
1.0
  9
$DIMTOFL
 70
     0
  9
$DIMTVP
 40
0.0
  9
$DIMTIX
 70
     0
  9
$DIMSOXD
 70
     0
  9
$DIMSAH
 70
     0
  9
$DIMBLK1
  1

  9
$DIMBLK2
  1

  9
$DIMSTYLE
  2
Standard
  9
$DIMCLRD
 70
     0
  9
$DIMCLRE
 70
     0
  9
$DIMCLRT
 70
     0
  9
$DIMTFAC
 40
1.0
  9
$DIMGAP
 40
0.125
  9
$DIMJUST
 70
     0
  9
$DIMSD1
 70
     0
  9
$DIMSD2
 70
     0
  9
$DIMTOLJ
 70
     1
  9
$DIMTZIN
 70
     1
  9
$DIMALTZ
 70
     0
  9
$DIMALTTZ
 70
     0
  9
$DIMUPT
 70
     0
  9
$DIMDEC
 70
     2
  9
$DIMTDEC
 70
     2
  9
$DIMALTU
 70
     2
  9
$DIMALTTD
 70
     2
  9
$DIMTXSTY
  7
Standard
  9
$DIMAUNIT
 70
     0
  9
$DIMADEC
 70
     2
  9
$DIMALTRND
 40
0.0
  9
$DIMAZIN
 70
     0
  9
$DIMDSEP
 70
    46
  9
$DIMATFIT
 70
     3
  9
$DIMFRAC
 70
     0
  9
$DIMLDRBLK
  1

  9
$DIMLUNIT
 70
     2
  9
$DIMLWD
 70
    -2
  9
$DIMLWE
 70
    -2
  9
$DIMTMOVE
 70
     0
  9
$LUNITS
 70
     2
  9
$LUPREC
 70
     4
  9
$SKETCHINC
 40
0.1
  9
$FILLETRAD
 40
0.5
  9
$AUNITS
 70
     0
  9
$AUPREC
 70
     2
  9
$MENU
  1
.
  9
$ELEVATION
 40
0.0
  9
$PELEVATION
 40
0.0
  9
$THICKNESS
 40
0.0
  9
$LIMCHECK
 70
     0
  9
$CHAMFERA
 40
0.0
  9
$CHAMFERB
 40
0.0
  9
$CHAMFERC
 40
0.0
  9
$CHAMFERD
 40
0.0
  9
$SKPOLY
 70
     0
  9
$TDCREATE
 40
2459969.467747095
  9
$TDUCREATE
 40
2459969.676080428
  9
$TDUPDATE
 40
2459969.467753252
  9
$TDUUPDATE
 40
2459969.676086586
  9
$TDINDWG
 40
0.0000000116
  9
$TDUSRTIMER
 40
0.0000000116
  9
$USRTIMER
 70
     1
  9
$ANGBASE
 50
0.0
  9
$ANGDIR
 70
     0
  9
$PDMODE
 70
     0
  9
$PDSIZE
 40
-1.0
  9
$PLINEWID
 40
0.0
  9
$SPLFRAME
 70
     0
  9
$SPLINETYPE
 70
     6
  9
$SPLINESEGS
 70
     8
  9
$HANDSEED
  5
29A
  9
$SURFTAB1
 70
     6
  9
$SURFTAB2
 70
     6
  9
$SURFTYPE
 70
     6
  9
$SURFU
 70
     6
  9
$SURFV
 70
     6
  9
$UCSBASE
  2

  9
$UCSNAME
  2

  9
$UCSORG
 10
0.0
 20
0.0
 30
0.0
  9
$UCSXDIR
 10
1.0
 20
0.0
 30
0.0
  9
$UCSYDIR
 10
0.0
 20
1.0
 30
0.0
  9
$UCSORTHOREF
  2

  9
$UCSORTHOVIEW
 70
     0
  9
$UCSORGTOP
 10
0.0
 20
0.0
 30
0.0
  9
$UCSORGBOTTOM
 10
0.0
 20
0.0
 30
0.0
  9
$UCSORGLEFT
 10
0.0
 20
0.0
 30
0.0
  9
$UCSORGRIGHT
 10
0.0
 20
0.0
 30
0.0
  9
$UCSORGFRONT
 10
0.0
 20
0.0
 30
0.0
  9
$UCSORGBACK
 10
0.0
 20
0.0
 30
0.0
  9
$PUCSBASE
  2

  9
$PUCSNAME
  2

  9
$PUCSORG
 10
0.0
 20
0.0
 30
0.0
  9
$PUCSXDIR
 10
1.0
 20
0.0
 30
0.0
  9
$PUCSYDIR
 10
0.0
 20
1.0
 30
0.0
  9
$PUCSORTHOREF
  2

  9
$PUCSORTHOVIEW
 70
     0
  9
$PUCSORGTOP
 10
0.0
 20
0.0
 30
0.0
  9
$PUCSORGBOTTOM
 10
0.0
 20
0.0
 30
0.0
  9
$PUCSORGLEFT
 10
0.0
 20
0.0
 30
0.0
  9
$PUCSORGRIGHT
 10
0.0
 20
0.0
 30
0.0
  9
$PUCSORGFRONT
 10
0.0
 20
0.0
 30
0.0
  9
$PUCSORGBACK
 10
0.0
 20
0.0
 30
0.0
  9
$USERI1
 70
     0
  9
$USERI2
 70
     0
  9
$USERI3
 70
     0
  9
$USERI4
 70
     0
  9
$USERI5
 70
     0
  9
$USERR1
 40
0.0
  9
$USERR2
 40
0.0
  9
$USERR3
 40
0.0
  9
$USERR4
 40
0.0
  9
$USERR5
 40
0.0
  9
$WORLDVIEW
 70
     1
  9
$SHADEDGE
 70
     3
  9
$SHADEDIF
 70
    70
  9
$TILEMODE
 70
     1
  9
$MAXACTVP
 70
    64
  9
$PINSBASE
 10
0.0
 20
0.0
 30
0.0
  9
$PLIMCHECK
 70
     0
  9
$PEXTMIN
 10
1.0000000000E+20
 20
1.0000000000E+20
 30
1.0000000000E+20
  9
$PEXTMAX
 10
-1.0000000000E+20
 20
-1.0000000000E+20
 30
-1.0000000000E+20
  9
$PLIMMIN
 10
0.0
 20
0.0
  9
$PLIMMAX
 10
12.0
 20
9.0
  9
$UNITMODE
 70
     0
  9
$VISRETAIN
 70
     1
  9
$PLINEGEN
 70
     0
  9
$PSLTSCALE
 70
     1
  9
$TREEDEPTH
 70
  3020
  9
$CMLSTYLE
  2
Standard
  9
$CMLJUST
 70
     0
  9
$CMLSCALE
 40
1.0
  9
$PROXYGRAPHICS
 70
     1
  9
$MEASUREMENT
 70
     0
  9
$CELWEIGHT
370
    -1
  9
$ENDCAPS
280
     0
  9
$JOINSTYLE
280
     0
  9
$LWDISPLAY
290
     1
  9
$INSUNITS
 70
     1
  9
$HYPERLINKBASE
  1

  9
$STYLESHEET
  1

  9
$XEDIT
290
     1
  9
$CEPSNTYPE
380
     0
  9
$PSTYLEMODE
290
     1
  9
$FINGERPRINTGUID
  2
{76715d68-e3fd-45db-a37f-39e1ed803707}
  9
$VERSIONGUID
  2
{FAEB1C32-E019-11D5-929B-00C0DF256EC4}
  9
$EXTNAMES
290
     1
  9
$PSVPSCALE
 40
0.0
  9
$OLESTARTUP
290
     0
  9
$SORTENTS
280
   127
  9
$INDEXCTL
280
     0
  9
$HIDETEXT
280
     1
  9
$XCLIPFRAME
290
     0
  9
$HALOGAP
280
     0
  9
$OBSCOLOR
 70
   257
  9
$OBSLTYPE
280
     0
  9
$INTERSECTIONDISPLAY
280
     0
  9
$INTERSECTIONCOLOR
 70
   257
  9
$DIMASSOC
280
     2
  9
$PROJECTNAME
  1

  0
ENDSEC
  0
SECTION
  2
CLASSES
  0
CLASS
  1
ACDBDICTIONARYWDFLT
  2
AcDbDictionaryWithDefault
  3
ObjectDBX Classes
 90
        0
 91
        3
280
     0
281
     0
  0
CLASS
  1
VISUALSTYLE
  2
AcDbVisualStyle
  3
ObjectDBX Classes
 90
     4095
 91
        3
280
     0
281
     0
  0
CLASS
  1
MATERIAL
  2
AcDbMaterial
  3
ObjectDBX Classes
 90
     1153
 91
        3
280
     0
281
     0
  0
CLASS
  1
SCALE
  2
AcDbScale
  3
ObjectDBX Classes
 90
     1153
 91
        3
280
     0
281
     0
  0
CLASS
  1
TABLESTYLE
  2
AcDbTableStyle
  3
ObjectDBX Classes
 90
     4095
 91
        3
280
     0
281
     0
  0
CLASS
  1
MLEADERSTYLE
  2
AcDbMLeaderStyle
  3
ACDB_MLEADERSTYLE_CLASS
 90
     4095
 91
        3
280
     0
281
     0
  0
CLASS
  1
SUN
  2
AcDbSun
  3
SCENEOE
 90
     1153
 91
        3
280
     0
281
     0
  0
CLASS
  1
DICTIONARYVAR
  2
AcDbDictionaryVar
  3
ObjectDBX Classes
 90
        0
 91
        3
280
     0
281
     0
  0
CLASS
  1
CELLSTYLEMAP
  2
AcDbCellStyleMap
  3
ObjectDBX Classes
 90
     1152
 91
        3
280
     0
281
     0
  0
ENDSEC
  0
SECTION
  2
TABLES
  0
TABLE
  2
VPORT
  5
8
330
0
100
AcDbSymbolTable
 70
     1
  0
VPORT
  5
29
330
8
100
AcDbSymbolTableRecord
100
AcDbViewportTableRecord
  2
*Active
 70
     0
 10
0.0
 20
0.0
 11
1.0
 21
1.0
 12
30.0
 22
23.1818181818
 13
0.0
 23
0.0
 14
0.5
 24
0.5
 15
0.5
 25
0.5
 16
0.0
 26
0.0
 36
1.0
 17
0.0
 27
0.0
 37
0.0
 40
46.3636363636
 41
1.2941176471
 42
50.0
 43
0.0
 44
0.0
 50
0.0
 51
0.0
 71
     0
 72
  2000
 73
     1
 74
     3
 75
     0
 76
     0
 77
     0
 78
     0
281
     0
 65
     1
110
0.0
120
0.0
130
0.0
111
1.0
121
0.0
131
0.0
112
0.0
122
1.0
132
0.0
 79
     0
146
0.0
  0
ENDTAB
  0
TABLE
  2
LTYPE
  5
5
330
0
100
AcDbSymbolTable
 70
     6
  0
LTYPE
  5
14
330
5
100
AcDbSymbolTableRecord
100
AcDbLinetypeTableRecord
  2
ByBlock
 70
     0
  3

 72
    65
 73
     0
 40
0.0
  0
LTYPE
  5
15
330
5
100
AcDbSymbolTableRecord
100
AcDbLinetypeTableRecord
  2
ByLayer
 70
     0
  3

 72
    65
 73
     0
 40
0.0
  0
LTYPE
  5
16
330
5
100
AcDbSymbolTableRecord
100
AcDbLinetypeTableRecord
  2
Continuous
 70
     0
  3
Solid line
 72
    65
 73
     0
 40
0.0
  0
LTYPE
  5
6E
330
5
100
AcDbSymbolTableRecord
100
AcDbLinetypeTableRecord
  2
HIDDEN
 70
     0
  3
Hidden __ __ __ __ __ __ __ __ __ __ __ __ __ __
 72
    65
 73
     2
 40
0.075
 49
0.05
 74
     0
 49
-0.025
 74
     0
  0
LTYPE
  5
6F
330
5
100
AcDbSymbolTableRecord
100
AcDbLinetypeTableRecord
  2
PHANTOM
 70
     0
  3
Phantom ______  __  __  ______  __  __  ______
 72
    65
 73
     6
 40
0.5
 49
0.25
 74
     0
 49
-0.05
 74
     0
 49
0.05
 74
     0
 49
-0.05
 74
     0
 49
0.05
 74
     0
 49
-0.05
 74
     0
  0
LTYPE
  5
70
330
5
100
AcDbSymbolTableRecord
100
AcDbLinetypeTableRecord
  2
CENTER
 70
     0
  3
Center ____ _ ____ _ ____ _ ____ _ ____ _ ____
 72
    65
 73
     4
 40
0.4
 49
0.25
 74
     0
 49
-0.05
 74
     0
 49
0.05
 74
     0
 49
-0.05
 74
     0
  0
LTYPE
  5
71
330
5
100
AcDbSymbolTableRecord
100
AcDbLinetypeTableRecord
  2
CENTERX2
 70
     0
  3
Center (2x) ________  __  ________  __  _____
 72
    65
 73
     4
 40
0.8
 49
0.5
 74
     0
 49
-0.1
 74
     0
 49
0.1
 74
     0
 49
-0.1
 74
     0
  0
LTYPE
  5
72
330
5
100
AcDbSymbolTableRecord
100
AcDbLinetypeTableRecord
  2
DOT2
 70
     0
  3
Dot (.5x) ........................................
 72
    65
 73
     2
 40
0.025
 49
0.0
 74
     0
 49
-0.025
 74
     0
  0
ENDTAB
  0
TABLE
  2
LAYER
  5
2
330
0
100
AcDbSymbolTable
 70
     6
  0
LAYER
  5
10
330
2
100
AcDbSymbolTableRecord
100
AcDbLayerTableRecord
  2
0
 70
     0
 62
     7
  6
Continuous
370
    -3
390
F
  0
LAYER
  5
73
330
2
100
AcDbSymbolTableRecord
100
AcDbLayerTableRecord
  2
FORMAT
 70
     0
 62
     7
  6
Continuous
370
    -3
390
F
  0
LAYER
  5
74
330
2
100
AcDbSymbolTableRecord
100
AcDbLayerTableRecord
  2
NOTES
 70
     0
 62
     1
  6
Continuous
370
    -3
390
F
  0
LAYER
  5
75
330
2
100
AcDbSymbolTableRecord
100
AcDbLayerTableRecord
  2
OBJECT
 70
     0
 62
     7
  6
Continuous
370
    25
390
F
  0
LAYER
  5
76
330
2
100
AcDbSymbolTableRecord
100
AcDbLayerTableRecord
  2
DIMS
 70
     0
 62
     5
  6
Continuous
370
    -3
390
F
  0
LAYER
  5
77
330
2
100
AcDbSymbolTableRecord
100
AcDbLayerTableRecord
  2
TITLE
 70
     0
 62
     8
  6
Continuous
370
    -3
390
F
  0
ENDTAB
  0
TABLE
  2
STYLE
  5
3
330
0
100
AcDbSymbolTable
 70
     5
  0
STYLE
  5
11
330
3
100
AcDbSymbolTableRecord
100
AcDbTextStyleTableRecord
  2
Standard
 70
     0
 40
0.0
 41
1.0
 50
0.0
 71
     0
 42
0.5
  3
txt
  4

  0
STYLE
  5
F3
330
3
100
AcDbSymbolTableRecord
100
AcDbTextStyleTableRecord
  2
SLDTEXTSTYLE0
 70
     0
 40
0.0
 41
0.605
 50
0.0
 71
     0
 42
0.5
  3
TXT
  4

  0
STYLE
  5
F7
330
3
100
AcDbSymbolTableRecord
100
AcDbTextStyleTableRecord
  2
SLDTEXTSTYLE1
 70
     0
 40
0.0
 41
0.75
 50
0.0
 71
     0
 42
0.5
  3
TXT
  4

  0
STYLE
  5
FA
330
3
100
AcDbSymbolTableRecord
100
AcDbTextStyleTableRecord
  2
SLDTEXTSTYLE2
 70
     0
 40
0.0
 41
0.6607142857
 50
0.0
 71
     0
 42
0.5
  3
TXT
  4

  0
STYLE
  5
FD
330
3
100
AcDbSymbolTableRecord
100
AcDbTextStyleTableRecord
  2
SLDTEXTSTYLE3
 70
     0
 40
0.0
 41
0.6805555556
 50
0.0
 71
     0
 42
0.5
  3
TXT
  4

  0
ENDTAB
  0
TABLE
  2
VIEW
  5
6
330
0
100
AcDbSymbolTable
 70
     0
  0
ENDTAB
  0
TABLE
  2
UCS
  5
7
330
0
100
AcDbSymbolTable
 70
     0
  0
ENDTAB
  0
TABLE
  2
APPID
  5
9
330
0
100
AcDbSymbolTable
 70
     2
  0
APPID
  5
12
330
9
100
AcDbSymbolTableRecord
100
AcDbRegAppTableRecord
  2
ACAD
 70
     0
  0
APPID
  5
294
330
9
100
AcDbSymbolTableRecord
100
AcDbRegAppTableRecord
  2
ACAD_MLEADERVER
 70
     0
  0
ENDTAB
  0
TABLE
  2
DIMSTYLE
  5
A
330
0
100
AcDbSymbolTable
 70
     4
100
AcDbDimStyleTable
  0
DIMSTYLE
105
27
330
A
100
AcDbSymbolTableRecord
100
AcDbDimStyleTableRecord
  2
Standard
 70
     0
178
     0
340
11
  0
DIMSTYLE
105
1AF
102
{ACAD_REACTORS
330
1AE
330
1EE
330
21E
102
}
330
A
100
AcDbSymbolTableRecord
100
AcDbDimStyleTableRecord
  2
SLDDIMSTYLE0
 70
     0
 41
0.3
 44
0.0
 45
0.000000001
 78
    12
 79
     3
140
0.5
147
0.125
173
     1
178
     0
271
     2
272
     2
276
     2
277
     5
284
    12
340
F7
341
1B0
343
1B0
344
1B0
  0
DIMSTYLE
105
1C1
102
{ACAD_REACTORS
330
1C0
330
1D0
330
1DF
330
229
102
}
330
A
100
AcDbSymbolTableRecord
100
AcDbDimStyleTableRecord
  2
SLDDIMSTYLE1
 70
     0
 41
0.3
 44
0.0
 45
0.000000001
 78
    12
 79
     3
140
0.5
147
0.125
173
     1
178
     0
271
     6
272
     2
276
     2
277
     5
284
    12
340
F7
341
1B0
343
1B0
344
1B0
  0
DIMSTYLE
105
1FA
102
{ACAD_REACTORS
330
1F9
102
}
330
A
100
AcDbSymbolTableRecord
100
AcDbDimStyleTableRecord
  2
SLDDIMSTYLE2
 70
     0
 41
0.3
 44
0.0
 45
0.000000001
 78
    12
 79
     3
140
0.5
141
0.0
147
0.125
173
     1
178
     0
271
     2
272
     2
276
     2
277
     5
284
    12
340
F7
341
1B0
343
1B0
344
1B0
  0
ENDTAB
  0
TABLE
  2
BLOCK_RECORD
  5
1
330
0
100
AcDbSymbolTable
 70
    13
  0
BLOCK_RECORD
  5
1F
330
1
100
AcDbSymbolTableRecord
100
AcDbBlockTableRecord
  2
*Model_Space
340
22
  0
BLOCK_RECORD
  5
1B
330
1
100
AcDbSymbolTableRecord
100
AcDbBlockTableRecord
  2
*Paper_Space
340
1E
  0
BLOCK_RECORD
  5
23
330
1
100
AcDbSymbolTableRecord
100
AcDbBlockTableRecord
  2
*Paper_Space0
340
26
  0
BLOCK_RECORD
  5
FF
330
1
100
AcDbSymbolTableRecord
100
AcDbBlockTableRecord
  2
SW_NOTE_0
340
0
102
{BLKREFS
331
104
102
}
  0
BLOCK_RECORD
  5
105
330
1
100
AcDbSymbolTableRecord
100
AcDbBlockTableRecord
  2
SW_NOTE_0_1
340
0
102
{BLKREFS
331
10C
102
}
  0
BLOCK_RECORD
  5
1B0
330
1
100
AcDbSymbolTableRecord
100
AcDbBlockTableRecord
  2
_Open90
340
0
102
{BLKREFS
331
1B9
331
1BA
331
1C5
331
1C6
331
1D4
331
1D5
331
1E3
331
1E4
331
1F2
331
1F3
331
1FE
331
222
331
223
331
22D
331
22E
102
}
  0
BLOCK_RECORD
  5
1B6
330
1
100
AcDbSymbolTableRecord
100
AcDbBlockTableRecord
  2
_D
340
0
  0
BLOCK_RECORD
  5
1C2
330
1
100
AcDbSymbolTableRecord
100
AcDbBlockTableRecord
  2
_D_1
340
0
  0
BLOCK_RECORD
  5
1D1
330
1
100
AcDbSymbolTableRecord
100
AcDbBlockTableRecord
  2
_D_2
340
0
  0
BLOCK_RECORD
  5
1E0
330
1
100
AcDbSymbolTableRecord
100
AcDbBlockTableRecord
  2
_D_3
340
0
  0
BLOCK_RECORD
  5
1EF
330
1
100
AcDbSymbolTableRecord
100
AcDbBlockTableRecord
  2
_D_4
340
0
  0
BLOCK_RECORD
  5
1FB
330
1
100
AcDbSymbolTableRecord
100
AcDbBlockTableRecord
  2
_D_5
340
0
  0
BLOCK_RECORD
  5
21F
330
1
100
AcDbSymbolTableRecord
100
AcDbBlockTableRecord
  2
_D_6
340
0
  0
BLOCK_RECORD
  5
22A
330
1
100
AcDbSymbolTableRecord
100
AcDbBlockTableRecord
  2
_D_7
340
0
  0
BLOCK_RECORD
  5
289
330
1
100
AcDbSymbolTableRecord
100
AcDbBlockTableRecord
  2
SW_NOTE_0_2
340
0
102
{BLKREFS
331
28E
102
}
  0
ENDTAB
  0
ENDSEC
  0
SECTION
  2
BLOCKS
  0
BLOCK
  5
20
330
1F
100
AcDbEntity
  8
0
100
AcDbBlockBegin
  2
*Model_Space
 70
     0
 10
0.0
 20
0.0
 30
0.0
  3
*Model_Space
  1

  0
ENDBLK
  5
21
330
1F
100
AcDbEntity
  8
0
100
AcDbBlockEnd
  0
BLOCK
  5
1C
330
1B
100
AcDbEntity
 67
     1
  8
0
100
AcDbBlockBegin
  2
*Paper_Space
 70
     0
 10
0.0
 20
0.0
 30
0.0
  3
*Paper_Space
  1

  0
ENDBLK
  5
1D
330
1B
100
AcDbEntity
 67
     1
  8
0
100
AcDbBlockEnd
  0
BLOCK
  5
24
330
23
100
AcDbEntity
  8
0
100
AcDbBlockBegin
  2
*Paper_Space0
 70
     0
 10
0.0
 20
0.0
 30
0.0
  3
*Paper_Space0
  1

  0
ENDBLK
  5
25
330
23
100
AcDbEntity
  8
0
100
AcDbBlockEnd
  0
BLOCK
  5
100
330
FF
100
AcDbEntity
  8
0
100
AcDbBlockBegin
  2
SW_NOTE_0
 70
     0
 10
0.0
 20
0.0
 30
0.0
  3
SW_NOTE_0
  1

  0
MTEXT
  5
102
330
FF
100
AcDbEntity
  8
NOTES
 62
     0
100
AcDbMText
 10
0.0
 20
0.3759780908
 30
0.0
 40
0.2916666667
 41
0.0
 71
     1
 72
     1
  1
FROST PRODUCTS LTD.
  7
SLDTEXTSTYLE0
 73
     1
 44
1.0
  0
MTEXT
  5
103
330
FF
100
AcDbEntity
  8
NOTES
 62
     0
100
AcDbMText
 10
0.0
 20
-0.0495142709
 30
0.0
 40
0.2291666667
 41
0.0
 71
     1
 72
     1
  1
5280 JOHN LUCAS DRIVE, BURLINGTON, ON, L7L 5Z9
  7
SLDTEXTSTYLE0
 73
     1
 44
1.0
  0
ENDBLK
  5
101
330
FF
100
AcDbEntity
  8
0
100
AcDbBlockEnd
  0
BLOCK
  5
106
330
105
100
AcDbEntity
  8
0
100
AcDbBlockBegin
  2
SW_NOTE_0_1
 70
     0
 10
0.0
 20
0.0
 30
0.0
  3
SW_NOTE_0_1
  1

  0
MTEXT
  5
108
330
105
100
AcDbEntity
  8
NOTES
 62
     0
100
AcDbMText
 10
0.0
 20
0.2381282771
 30
0.0
 40
0.184729064
 41
0.0
 71
     1
 72
     1
  1
PROPRIETARY AND CONFIDENTIAL
  7
SLDTEXTSTYLE0
 73
     1
 44
1.0
  0
MTEXT
  5
109
330
105
100
AcDbEntity
  8
NOTES
 62
     0
100
AcDbMText
 10
0.0
 20
-0.0504364796
 30
0.0
 40
0.25
 41
0.0
 71
     1
 72
     1
  1
THE INFORMATION CONTAINED IN THIS DRAWING IS THE SOLE PROPERTY OF
  7
SLDTEXTSTYLE0
 73
     1
 44
1.0
  0
MTEXT
  5
10A
330
105
100
AcDbEntity
  8
NOTES
 62
     0
100
AcDbMText
 10
0.0
 20
-0.4231398941
 30
0.0
 40
0.25
 41
0.0
 71
     1
 72
     1
  1
FROST PRODUCTS LTD.  ANY REPRODUCTION IN PART OR AS A WHOLE WITHOUT
  7
SLDTEXTSTYLE0
 73
     1
 44
1.0
  0
MTEXT
  5
10B
330
105
100
AcDbEntity
  8
NOTES
 62
     0
100
AcDbMText
 10
0.0
 20
-0.7958433086
 30
0.0
 40
0.25
 41
0.0
 71
     1
 72
     1
  1
THE WRITTEN PERMISSION OF FROST PRODUCTS LTD. IS PROHIBITED.
  7
SLDTEXTSTYLE0
 73
     1
 44
1.0
  0
ENDBLK
  5
107
330
105
100
AcDbEntity
  8
0
100
AcDbBlockEnd
  0
BLOCK
  5
1B1
330
1B0
100
AcDbEntity
  8
0
100
AcDbBlockBegin
  2
_Open90
 70
     0
 10
0.0
 20
0.0
 30
0.0
  3
_Open90
  1

  0
LINE
  5
1B3
330
1B0
100
AcDbEntity
  8
0
  6
ByBlock
 62
     0
370
    -2
100
AcDbLine
 10
-0.5
 20
0.5
 30
0.0
 11
0.0
 21
0.0
 31
0.0
  0
LINE
  5
1B4
330
1B0
100
AcDbEntity
  8
0
  6
ByBlock
 62
     0
370
    -2
100
AcDbLine
 10
0.0
 20
0.0
 30
0.0
 11
-0.5
 21
-0.5
 31
0.0
  0
LINE
  5
1B5
330
1B0
100
AcDbEntity
  8
0
  6
ByBlock
 62
     0
370
    -2
100
AcDbLine
 10
0.0
 20
0.0
 30
0.0
 11
-1.0
 21
0.0
 31
0.0
  0
ENDBLK
  5
1B2
330
1B0
100
AcDbEntity
  8
0
100
AcDbBlockEnd
  0
BLOCK
  5
1B7
330
1B6
100
AcDbEntity
  8
0
100
AcDbBlockBegin
  2
_D
 70
     0
 10
0.0
 20
0.0
 30
0.0
  3
_D
  1

  0
INSERT
  5
1B9
330
1B6
100
AcDbEntity
  8
DIMS
100
AcDbBlockReference
  2
_Open90
 10
23.6012903607
 20
27.4199396981
 30
-0.1207993974
 41
0.3
 42
0.3
 50
0.0
  0
INSERT
  5
1BA
330
1B6
100
AcDbEntity
  8
DIMS
100
AcDbBlockReference
  2
_Open90
 10
5.6012903607
 20
27.4199396981
 30
-0.1207993974
 41
0.3
 42
0.3
 50
180.0
  0
LINE
  5
1BB
330
1B6
100
AcDbEntity
  8
DIMS
100
AcDbLine
 10
23.6012903607
 20
25.2893622703
 30
0.0
 11
23.6012903607
 21
27.7949396981
 31
0.0
  0
LINE
  5
1BC
330
1B6
100
AcDbEntity
  8
DIMS
100
AcDbLine
 10
5.6012903607
 20
25.2893622703
 30
0.0
 11
5.6012903607
 21
27.7949396981
 31
0.0
  0
LINE
  5
1BD
330
1B6
100
AcDbEntity
  8
DIMS
100
AcDbLine
 10
23.6012903607
 20
27.4199396981
 30
0.0
 11
15.0738597882
 21
27.4199396981
 31
0.0
  0
LINE
  5
1BE
330
1B6
100
AcDbEntity
  8
DIMS
100
AcDbLine
 10
5.6012903607
 20
27.4199396981
 30
0.0
 11
14.1287209332
 21
27.4199396981
 31
0.0
  0
MTEXT
  5
1BF
330
1B6
100
AcDbEntity
  8
DIMS
100
AcDbMText
 10
14.1287209332
 20
27.6675986111
 30
0.0
 40
0.5
 41
0.0
 71
     1
 72
     1
  1
18"
  7
SLDTEXTSTYLE1
 73
     1
 44
1.0
  0
ENDBLK
  5
1B8
330
1B6
100
AcDbEntity
  8
0
100
AcDbBlockEnd
  0
BLOCK
  5
1C3
330
1C2
100
AcDbEntity
  8
0
100
AcDbBlockBegin
  2
_D_1
 70
     0
 10
0.0
 20
0.0
 30
0.0
  3
_D_1
  1

  0
INSERT
  5
1C5
330
1C2
100
AcDbEntity
  8
DIMS
100
AcDbBlockReference
  2
_Open90
 10
6.7262903607
 20
20.7287145668
 30
-0.1207993974
 41
0.3
 42
0.3
 50
180.0
  0
INSERT
  5
1C6
330
1C2
100
AcDbEntity
  8
DIMS
100
AcDbBlockReference
  2
_Open90
 10
11.9762903607
 20
20.7287145668
 30
-0.1207993974
 41
0.3
 42
0.3
 50
0.0
  0
LINE
  5
1C7
330
1C2
100
AcDbEntity
  8
DIMS
100
AcDbLine
 10
9.17490144
 20
20.7799992652
 30
0.0
 11
9.6908736894
 21
20.7799992652
 31
0.0
  0
LINE
  5
1C8
330
1C2
100
AcDbEntity
  8
DIMS
100
AcDbLine
 10
6.7262903607
 20
23.456028937
 30
0.0
 11
6.7262903607
 21
20.3537145668
 31
0.0
  0
LINE
  5
1C9
330
1C2
100
AcDbEntity
  8
DIMS
100
AcDbLine
 10
11.9762903607
 20
23.456028937
 30
0.0
 11
11.9762903607
 21
20.3537145668
 31
0.0
  0
LINE
  5
1CA
330
1C2
100
AcDbEntity
  8
DIMS
100
AcDbLine
 10
6.7262903607
 20
20.7287145668
 30
0.0
 11
8.7321930925
 21
20.7287145668
 31
0.0
  0
LINE
  5
1CB
330
1C2
100
AcDbEntity
  8
DIMS
100
AcDbLine
 10
11.9762903607
 20
20.7287145668
 30
0.0
 11
9.9703876288
 21
20.7287145668
 31
0.0
  0
MTEXT
  5
1CC
330
1C2
100
AcDbEntity
  8
DIMS
100
AcDbMText
 10
8.7321930925
 20
21.0152623206
 30
0.0
 40
0.5
 41
0.0
 71
     1
 72
     1
  1
5
  7
SLDTEXTSTYLE1
 73
     1
 44
1.0
  0
MTEXT
  5
1CD
330
1C2
100
AcDbEntity
  8
DIMS
100
AcDbMText
 10
9.248165342
 20
21.3805748196
 30
0.0
 40
0.5
 41
0.0
 71
     1
 72
     1
  1
1
  7
SLDTEXTSTYLE1
 73
     1
 44
1.0
  0
MTEXT
  5
1CE
330
1C2
100
AcDbEntity
  8
DIMS
100
AcDbMText
 10
9.248165342
 20
20.719394241
 30
0.0
 40
0.5
 41
0.0
 71
     1
 72
     1
  1
4
  7
SLDTEXTSTYLE1
 73
     1
 44
1.0
  0
MTEXT
  5
1CF
330
1C2
100
AcDbEntity
  8
DIMS
100
AcDbMText
 10
9.7641375914
 20
21.0152623206
 30
0.0
 40
0.5
 41
0.0
 71
     1
 72
     1
  1
"
  7
SLDTEXTSTYLE1
 73
     1
 44
1.0
  0
ENDBLK
  5
1C4
330
1C2
100
AcDbEntity
  8
0
100
AcDbBlockEnd
  0
BLOCK
  5
1D2
330
1D1
100
AcDbEntity
  8
0
100
AcDbBlockBegin
  2
_D_2
 70
     0
 10
0.0
 20
0.0
 30
0.0
  3
_D_2
  1

  0
INSERT
  5
1D4
330
1D1
100
AcDbEntity
  8
DIMS
100
AcDbBlockReference
  2
_Open90
 10
11.9762903607
 20
20.7287145668
 30
-0.1207993974
 41
0.3
 42
0.3
 50
180.0
  0
INSERT
  5
1D5
330
1D1
100
AcDbEntity
  8
DIMS
100
AcDbBlockReference
  2
_Open90
 10
17.2262903607
 20
20.7287145668
 30
-0.1207993974
 41
0.3
 42
0.3
 50
0.0
  0
LINE
  5
1D6
330
1D1
100
AcDbEntity
  8
DIMS
100
AcDbLine
 10
14.42490144
 20
20.7799992652
 30
0.0
 11
14.9408736894
 21
20.7799992652
 31
0.0
  0
LINE
  5
1D7
330
1D1
100
AcDbEntity
  8
DIMS
100
AcDbLine
 10
11.9762903607
 20
23.456028937
 30
0.0
 11
11.9762903607
 21
20.3537145668
 31
0.0
  0
LINE
  5
1D8
330
1D1
100
AcDbEntity
  8
DIMS
100
AcDbLine
 10
17.2262903607
 20
23.456028937
 30
0.0
 11
17.2262903607
 21
20.3537145668
 31
0.0
  0
LINE
  5
1D9
330
1D1
100
AcDbEntity
  8
DIMS
100
AcDbLine
 10
11.9762903607
 20
20.7287145668
 30
0.0
 11
13.9821930925
 21
20.7287145668
 31
0.0
  0
LINE
  5
1DA
330
1D1
100
AcDbEntity
  8
DIMS
100
AcDbLine
 10
17.2262903607
 20
20.7287145668
 30
0.0
 11
15.2203876288
 21
20.7287145668
 31
0.0
  0
MTEXT
  5
1DB
330
1D1
100
AcDbEntity
  8
DIMS
100
AcDbMText
 10
13.9821930925
 20
21.0152623206
 30
0.0
 40
0.5
 41
0.0
 71
     1
 72
     1
  1
5
  7
SLDTEXTSTYLE1
 73
     1
 44
1.0
  0
MTEXT
  5
1DC
330
1D1
100
AcDbEntity
  8
DIMS
100
AcDbMText
 10
14.498165342
 20
21.3805748196
 30
0.0
 40
0.5
 41
0.0
 71
     1
 72
     1
  1
1
  7
SLDTEXTSTYLE1
 73
     1
 44
1.0
  0
MTEXT
  5
1DD
330
1D1
100
AcDbEntity
  8
DIMS
100
AcDbMText
 10
14.498165342
 20
20.719394241
 30
0.0
 40
0.5
 41
0.0
 71
     1
 72
     1
  1
4
  7
SLDTEXTSTYLE1
 73
     1
 44
1.0
  0
MTEXT
  5
1DE
330
1D1
100
AcDbEntity
  8
DIMS
100
AcDbMText
 10
15.0141375914
 20
21.0152623206
 30
0.0
 40
0.5
 41
0.0
 71
     1
 72
     1
  1
"
  7
SLDTEXTSTYLE1
 73
     1
 44
1.0
  0
ENDBLK
  5
1D3
330
1D1
100
AcDbEntity
  8
0
100
AcDbBlockEnd
  0
BLOCK
  5
1E1
330
1E0
100
AcDbEntity
  8
0
100
AcDbBlockBegin
  2
_D_3
 70
     0
 10
0.0
 20
0.0
 30
0.0
  3
_D_3
  1

  0
INSERT
  5
1E3
330
1E0
100
AcDbEntity
  8
DIMS
100
AcDbBlockReference
  2
_Open90
 10
22.4762903607
 20
20.7287145668
 30
-0.1207993974
 41
0.3
 42
0.3
 50
0.0
  0
INSERT
  5
1E4
330
1E0
100
AcDbEntity
  8
DIMS
100
AcDbBlockReference
  2
_Open90
 10
17.2262903607
 20
20.7287145668
 30
-0.1207993974
 41
0.3
 42
0.3
 50
180.0
  0
LINE
  5
1E5
330
1E0
100
AcDbEntity
  8
DIMS
100
AcDbLine
 10
19.67490144
 20
20.7799992652
 30
0.0
 11
20.1908736894
 21
20.7799992652
 31
0.0
  0
LINE
  5
1E6
330
1E0
100
AcDbEntity
  8
DIMS
100
AcDbLine
 10
22.4762903607
 20
23.456028937
 30
0.0
 11
22.4762903607
 21
20.3537145668
 31
0.0
  0
LINE
  5
1E7
330
1E0
100
AcDbEntity
  8
DIMS
100
AcDbLine
 10
17.2262903607
 20
23.456028937
 30
0.0
 11
17.2262903607
 21
20.3537145668
 31
0.0
  0
LINE
  5
1E8
330
1E0
100
AcDbEntity
  8
DIMS
100
AcDbLine
 10
22.4762903607
 20
20.7287145668
 30
0.0
 11
20.4703876288
 21
20.7287145668
 31
0.0
  0
LINE
  5
1E9
330
1E0
100
AcDbEntity
  8
DIMS
100
AcDbLine
 10
17.2262903607
 20
20.7287145668
 30
0.0
 11
19.2321930925
 21
20.7287145668
 31
0.0
  0
MTEXT
  5
1EA
330
1E0
100
AcDbEntity
  8
DIMS
100
AcDbMText
 10
19.2321930925
 20
21.0152623206
 30
0.0
 40
0.5
 41
0.0
 71
     1
 72
     1
  1
5
  7
SLDTEXTSTYLE1
 73
     1
 44
1.0
  0
MTEXT
  5
1EB
330
1E0
100
AcDbEntity
  8
DIMS
100
AcDbMText
 10
19.748165342
 20
21.3805748196
 30
0.0
 40
0.5
 41
0.0
 71
     1
 72
     1
  1
1
  7
SLDTEXTSTYLE1
 73
     1
 44
1.0
  0
MTEXT
  5
1EC
330
1E0
100
AcDbEntity
  8
DIMS
100
AcDbMText
 10
19.748165342
 20
20.719394241
 30
0.0
 40
0.5
 41
0.0
 71
     1
 72
     1
  1
4
  7
SLDTEXTSTYLE1
 73
     1
 44
1.0
  0
MTEXT
  5
1ED
330
1E0
100
AcDbEntity
  8
DIMS
100
AcDbMText
 10
20.2641375914
 20
21.0152623206
 30
0.0
 40
0.5
 41
0.0
 71
     1
 72
     1
  1
"
  7
SLDTEXTSTYLE1
 73
     1
 44
1.0
  0
ENDBLK
  5
1E2
330
1E0
100
AcDbEntity
  8
0
100
AcDbBlockEnd
  0
BLOCK
  5
1F0
330
1EF
100
AcDbEntity
  8
0
100
AcDbBlockBegin
  2
_D_4
 70
     0
 10
0.0
 20
0.0
 30
0.0
  3
_D_4
  1

  0
INSERT
  5
1F2
330
1EF
100
AcDbEntity
  8
DIMS
100
AcDbBlockReference
  2
_Open90
 10
24.2174320929
 20
25.6226956036
 30
-0.1207993974
 41
0.3
 42
0.3
 50
90.0
  0
INSERT
  5
1F3
330
1EF
100
AcDbEntity
  8
DIMS
100
AcDbBlockReference
  2
_Open90
 10
24.2174320929
 20
23.6226956036
 30
-0.1207993974
 41
0.3
 42
0.3
 50
270.0
  0
LINE
  5
1F4
330
1EF
100
AcDbEntity
  8
DIMS
100
AcDbLine
 10
23.2679570273
 20
25.6226956036
 30
0.0
 11
24.5924320929
 21
25.6226956036
 31
0.0
  0
LINE
  5
1F5
330
1EF
100
AcDbEntity
  8
DIMS
100
AcDbLine
 10
22.6429570273
 20
23.6226956036
 30
0.0
 11
24.5924320929
 21
23.6226956036
 31
0.0
  0
LINE
  5
1F6
330
1EF
100
AcDbEntity
  8
DIMS
100
AcDbLine
 10
24.2174320929
 20
25.6226956036
 30
0.0
 11
24.2174320929
 21
25.0377016429
 31
0.0
  0
LINE
  5
1F7
330
1EF
100
AcDbEntity
  8
DIMS
100
AcDbLine
 10
24.2174320929
 20
23.6226956036
 30
0.0
 11
24.2174320929
 21
24.2439516191
 31
0.0
  0
MTEXT
  5
1F8
330
1EF
100
AcDbEntity
  8
DIMS
100
AcDbMText
 10
23.9295848698
 20
24.8884855439
 30
0.0
 40
0.5
 41
0.0
 71
     1
 72
     1
  1
2"
  7
SLDTEXTSTYLE1
 73
     1
 44
1.0
  0
ENDBLK
  5
1F1
330
1EF
100
AcDbEntity
  8
0
100
AcDbBlockEnd
  0
BLOCK
  5
1FC
330
1FB
100
AcDbEntity
  8
0
100
AcDbBlockBegin
  2
_D_5
 70
     0
 10
0.0
 20
0.0
 30
0.0
  3
_D_5
  1

  0
INSERT
  5
1FE
330
1FB
100
AcDbEntity
  8
DIMS
100
AcDbBlockReference
  2
_Open90
 10
6.7762903607
 20
23.709298144
 30
-0.1207993974
 41
0.3
 42
0.3
 50
240.0
  0
LINE
  5
1FF
330
1FB
100
AcDbEntity
  8
DIMS
100
AcDbLine
 10
9.4676703071
 20
26.4696030777
 30
0.0
 11
10.353087002
 21
26.4696030777
 31
0.0
  0
LINE
  5
200
330
1FB
100
AcDbEntity
  8
DIMS
100
AcDbLine
 10
6.7762903607
 20
23.709298144
 30
0.0
 11
8.3403439228
 21
26.4183183793
 31
0.0
  0
LINE
  5
201
330
1FB
100
AcDbEntity
  8
DIMS
100
AcDbLine
 10
8.3403439228
 20
26.4183183793
 30
0.0
 11
8.6403439228
 21
26.4183183793
 31
0.0
  0
MTEXT
  5
202
330
1FB
100
AcDbEntity
  8
DIMS
100
AcDbMText
 10
8.6403439228
 20
26.6972272438
 30
0.0
 40
0.5
 41
0.0
 71
     1
 72
     1
  1
%%c
  7
SLDTEXTSTYLE1
 73
     1
 44
1.0
  0
MTEXT
  5
203
330
1FB
100
AcDbEntity
  8
DIMS
100
AcDbMText
 10
9.7256564318
 20
27.0701786321
 30
0.0
 40
0.5
 41
0.0
 71
     1
 72
     1
  1
3
  7
SLDTEXTSTYLE1
 73
     1
 44
1.0
  0
MTEXT
  5
204
330
1FB
100
AcDbEntity
  8
DIMS
100
AcDbMText
 10
9.5409342091
 20
26.4089980535
 30
0.0
 40
0.5
 41
0.0
 71
     1
 72
     1
  1
16
  7
SLDTEXTSTYLE1
 73
     1
 44
1.0
  0
MTEXT
  5
205
330
1FB
100
AcDbEntity
  8
DIMS
100
AcDbMText
 10
10.426350904
 20
26.7048661331
 30
0.0
 40
0.5
 41
0.0
 71
     1
 72
     1
  1
"
  7
SLDTEXTSTYLE1
 73
     1
 44
1.0
  0
MTEXT
  5
206
330
1FB
100
AcDbEntity
  8
DIMS
100
AcDbMText
 10
10.820100868
 20
26.7048661331
 30
0.0
 40
0.5
 41
0.0
 71
     1
 72
     1
  1
mounting hole (4)
  7
SLDTEXTSTYLE1
 73
     1
 44
1.0
  0
ENDBLK
  5
1FD
330
1FB
100
AcDbEntity
  8
0
100
AcDbBlockEnd
  0
BLOCK
  5
220
330
21F
100
AcDbEntity
  8
0
100
AcDbBlockBegin
  2
_D_6
 70
     0
 10
0.0
 20
0.0
 30
0.0
  3
_D_6
  1

  0
INSERT
  5
222
330
21F
100
AcDbEntity
  8
DIMS
100
AcDbBlockReference
  2
_Open90
 10
35.1389756259
 20
25.6226956036
 30
0.330975701
 41
0.3
 42
0.3
 50
90.0
  0
INSERT
  5
223
330
21F
100
AcDbEntity
  8
DIMS
100
AcDbBlockReference
  2
_Open90
 10
35.1389756259
 20
21.5948562991
 30
0.330975701
 41
0.3
 42
0.3
 50
270.0
  0
LINE
  5
224
330
21F
100
AcDbEntity
  8
DIMS
100
AcDbLine
 10
34.1926700128
 20
25.6226956036
 30
0.0
 11
35.5139756259
 21
25.6226956036
 31
0.0
  0
LINE
  5
225
330
21F
100
AcDbEntity
  8
DIMS
100
AcDbLine
 10
33.7472595431
 20
21.5948562991
 30
0.0
 11
35.5139756259
 21
21.5948562991
 31
0.0
  0
LINE
  5
226
330
21F
100
AcDbEntity
  8
DIMS
100
AcDbLine
 10
35.1389756259
 20
25.6226956036
 30
0.0
 11
35.1389756259
 21
24.0792509727
 31
0.0
  0
LINE
  5
227
330
21F
100
AcDbEntity
  8
DIMS
100
AcDbLine
 10
35.1389756259
 20
21.5948562991
 30
0.0
 11
35.1389756259
 21
23.2855009488
 31
0.0
  0
MTEXT
  5
228
330
21F
100
AcDbEntity
  8
DIMS
100
AcDbMText
 10
34.8511284028
 20
23.9300348737
 30
0.0
 40
0.5
 41
0.0
 71
     1
 72
     1
  1
4"
  7
SLDTEXTSTYLE1
 73
     1
 44
1.0
  0
ENDBLK
  5
221
330
21F
100
AcDbEntity
  8
0
100
AcDbBlockEnd
  0
BLOCK
  5
22B
330
22A
100
AcDbEntity
  8
0
100
AcDbBlockBegin
  2
_D_7
 70
     0
 10
0.0
 20
0.0
 30
0.0
  3
_D_7
  1

  0
INSERT
  5
22D
330
22A
100
AcDbEntity
  8
DIMS
100
AcDbBlockReference
  2
_Open90
 10
30.0642348422
 20
26.4888373359
 30
0.330975701
 41
0.3
 42
0.3
 50
180.0
  0
INSERT
  5
22E
330
22A
100
AcDbEntity
  8
DIMS
100
AcDbBlockReference
  2
_Open90
 10
34.0260033461
 20
26.4888373359
 30
0.330975701
 41
0.3
 42
0.3
 50
0.0
  0
LINE
  5
22F
330
22A
100
AcDbEntity
  8
DIMS
100
AcDbLine
 10
31.6840079874
 20
26.5401220343
 30
0.0
 11
32.5694246823
 21
26.5401220343
 31
0.0
  0
LINE
  5
230
330
22A
100
AcDbEntity
  8
DIMS
100
AcDbLine
 10
30.0642348422
 20
24.6593622703
 30
0.0
 11
30.0642348422
 21
26.8638373359
 31
0.0
  0
LINE
  5
231
330
22A
100
AcDbEntity
  8
DIMS
100
AcDbLine
 10
34.0260033461
 20
25.7893622703
 30
0.0
 11
34.0260033461
 21
26.8638373359
 31
0.0
  0
LINE
  5
232
330
22A
100
AcDbEntity
  8
DIMS
100
AcDbLine
 10
30.0642348422
 20
26.4888373359
 30
0.0
 11
31.2412996399
 21
26.4888373359
 31
0.0
  0
LINE
  5
233
330
22A
100
AcDbEntity
  8
DIMS
100
AcDbLine
 10
34.0260033461
 20
26.4888373359
 30
0.0
 11
32.8489385484
 21
26.4888373359
 31
0.0
  0
MTEXT
  5
234
330
22A
100
AcDbEntity
  8
DIMS
100
AcDbMText
 10
31.2412996399
 20
26.7753850896
 30
0.0
 40
0.5
 41
0.0
 71
     1
 72
     1
  1
3
  7
SLDTEXTSTYLE1
 73
     1
 44
1.0
  0
MTEXT
  5
235
330
22A
100
AcDbEntity
  8
DIMS
100
AcDbMText
 10
31.7572718894
 20
27.1406975887
 30
0.0
 40
0.5
 41
0.0
 71
     1
 72
     1
  1
15
  7
SLDTEXTSTYLE1
 73
     1
 44
1.0
  0
MTEXT
  5
236
330
22A
100
AcDbEntity
  8
DIMS
100
AcDbMText
 10
31.7572718894
 20
26.4795170101
 30
0.0
 40
0.5
 41
0.0
 71
     1
 72
     1
  1
16
  7
SLDTEXTSTYLE1
 73
     1
 44
1.0
  0
MTEXT
  5
237
330
22A
100
AcDbEntity
  8
DIMS
100
AcDbMText
 10
32.6426885843
 20
26.7753850896
 30
0.0
 40
0.5
 41
0.0
 71
     1
 72
     1
  1
"
  7
SLDTEXTSTYLE1
 73
     1
 44
1.0
  0
ENDBLK
  5
22C
330
22A
100
AcDbEntity
  8
0
100
AcDbBlockEnd
  0
BLOCK
  5
28A
330
289
100
AcDbEntity
  8
0
100
AcDbBlockBegin
  2
SW_NOTE_0_2
 70
     0
 10
0.0
 20
0.0
 30
0.0
  3
SW_NOTE_0_2
  1

  0
MTEXT
  5
28C
330
289
100
AcDbEntity
  8
NOTES
 62
     0
100
AcDbMText
 10
0.0
 20
0.6445338699
 30
0.0
 40
0.5
 41
0.0
 71
     1
 72
     1
  1
3d view
  7
SLDTEXTSTYLE1
 73
     1
 44
1.0
  0
MTEXT
  5
28D
330
289
100
AcDbEntity
  8
NOTES
 62
     0
100
AcDbMText
 10
0.0
 20
-0.3554661914
 30
0.0
 40
0.5
 41
0.0
 71
     1
 72
     1
  1
code 950-4x18
  7
SLDTEXTSTYLE1
 73
     1
 44
1.0
  0
ENDBLK
  5
28B
330
289
100
AcDbEntity
  8
0
100
AcDbBlockEnd
  0
ENDSEC
  0
SECTION
  2
ENTITIES
  0
LINE
  5
78
330
1F
100
AcDbEntity
  8
TITLE
370
    50
100
AcDbLine
 10
42.518223024
 20
1.4876117645
 30
0.0
 11
59.4999864512
 21
1.4876117645
 31
0.0
  0
LINE
  5
79
330
1F
100
AcDbEntity
  8
TITLE
370
    50
100
AcDbLine
 10
59.4999317442
 20
5.4753603936
 30
0.0
 11
49.3105350723
 21
5.4753603936
 31
0.0
  0
LINE
  5
7A
330
1F
100
AcDbEntity
  8
TITLE
  6
Continuous
370
    18
100
AcDbLine
 10
0.5
 20
0.5
 30
0.0
 11
0.5
 21
45.8636363636
 31
0.0
  0
LINE
  5
7B
330
1F
100
AcDbEntity
  8
TITLE
  6
Continuous
370
    18
100
AcDbLine
 10
0.5
 20
45.8636363636
 30
0.0
 11
59.5
 21
45.8636363636
 31
0.0
  0
LINE
  5
7C
330
1F
100
AcDbEntity
  8
TITLE
370
    50
100
AcDbLine
 10
42.518223024
 20
2.5427877231
 30
0.0
 11
35.5059791203
 21
2.5427877231
 31
0.0
  0
LINE
  5
7D
330
1F
100
AcDbEntity
  8
TITLE
370
    50
100
AcDbLine
 10
42.518223024
 20
1.4876117645
 30
0.0
 11
35.5059791203
 21
1.4876117645
 31
0.0
  0
LINE
  5
7E
330
1F
100
AcDbEntity
  8
TITLE
  6
Continuous
370
    18
100
AcDbLine
 10
59.5
 20
45.8636363636
 30
0.0
 11
59.5
 21
0.5
 31
0.0
  0
LINE
  5
7F
330
1F
100
AcDbEntity
  8
TITLE
  6
Continuous
370
    18
100
AcDbLine
 10
59.5
 20
0.5
 30
0.0
 11
0.5
 21
0.5
 31
0.0
  0
LINE
  5
80
330
1F
100
AcDbEntity
  8
TITLE
370
    50
100
AcDbLine
 10
42.518223024
 20
1.4876117645
 30
0.0
 11
42.518223024
 21
3.5979636817
 31
0.0
  0
LINE
  5
81
330
1F
100
AcDbEntity
  8
TITLE
370
    50
100
AcDbLine
 10
35.5059791203
 20
3.5979636817
 30
0.0
 11
35.5059791203
 21
0.5
 31
0.0
  0
LINE
  5
82
330
1F
100
AcDbEntity
  8
TITLE
370
    50
100
AcDbLine
 10
35.5059791203
 20
0.5
 30
0.0
 11
59.5
 21
0.5
 31
0.0
  0
LINE
  5
83
330
1F
100
AcDbEntity
  8
TITLE
370
    50
100
AcDbLine
 10
59.4999317442
 20
5.4753603936
 30
0.0
 11
59.5
 21
0.5
 31
0.0
  0
LINE
  5
84
330
1F
100
AcDbEntity
  8
TITLE
  6
Continuous
370
    18
100
AcDbLine
 10
0.4999606299
 20
23.1818181818
 30
0.0
 11
0.5000393701
 21
23.1818181818
 31
0.0
  0
LINE
  5
85
330
1F
100
AcDbEntity
  8
TITLE
370
    50
100
AcDbLine
 10
42.518223024
 20
3.5979636817
 30
0.0
 11
35.5059791203
 21
3.5979636817
 31
0.0
  0
LINE
  5
86
330
1F
100
AcDbEntity
  8
TITLE
370
    50
100
AcDbLine
 10
42.518223024
 20
3.5979636817
 30
0.0
 11
59.4997615643
 21
3.5979648343
 31
0.0
  0
LINE
  5
87
330
1F
100
AcDbEntity
  8
TITLE
370
    50
100
AcDbLine
 10
49.3105350723
 20
5.4753603936
 30
0.0
 11
49.3105350723
 21
0.4636772425
 31
0.0
  0
LINE
  5
88
330
1F
100
AcDbEntity
  8
TITLE
  6
Continuous
370
    18
100
AcDbLine
 10
30.0
 20
45.8636757337
 30
0.0
 11
30.0
 21
45.8635969936
 31
0.0
  0
LINE
  5
89
330
1F
100
AcDbEntity
  8
TITLE
  6
Continuous
370
    18
100
AcDbLine
 10
59.5000393701
 20
23.1818181818
 30
0.0
 11
59.4999606299
 21
23.1818181818
 31
0.0
  0
LINE
  5
8A
330
1F
100
AcDbEntity
  8
TITLE
  6
Continuous
370
    18
100
AcDbLine
 10
30.0
 20
0.4999606299
 30
0.0
 11
30.0
 21
0.5000393701
 31
0.0
  0
LINE
  5
8B
330
1F
100
AcDbEntity
  8
TITLE
  6
Continuous
370
    18
100
AcDbLine
 10
0.5
 20
1.5282748747
 30
0.0
 11
0.1653543307
 21
1.5282748747
 31
0.0
  0
LINE
  5
8C
330
1F
100
AcDbEntity
  8
TITLE
  6
Continuous
370
    18
100
AcDbLine
 10
59.5
 20
1.5282748747
 30
0.0
 11
59.8346456693
 21
1.5282748747
 31
0.0
  0
LINE
  5
8D
330
1F
100
AcDbEntity
  8
TITLE
  6
Continuous
370
    18
100
AcDbLine
 10
0.5
 20
3.4967788117
 30
0.0
 11
0.1653543307
 21
3.4967788117
 31
0.0
  0
LINE
  5
8E
330
1F
100
AcDbEntity
  8
TITLE
  6
Continuous
370
    18
100
AcDbLine
 10
59.5
 20
3.4967788117
 30
0.0
 11
59.8346456693
 21
3.4967788117
 31
0.0
  0
LINE
  5
8F
330
1F
100
AcDbEntity
  8
TITLE
  6
Continuous
370
    18
100
AcDbLine
 10
0.5
 20
5.4652827487
 30
0.0
 11
0.1653543307
 21
5.4652827487
 31
0.0
  0
LINE
  5
90
330
1F
100
AcDbEntity
  8
TITLE
  6
Continuous
370
    18
100
AcDbLine
 10
59.5
 20
5.4652827487
 30
0.0
 11
59.8346456693
 21
5.4652827487
 31
0.0
  0
LINE
  5
91
330
1F
100
AcDbEntity
  8
TITLE
  6
Continuous
370
    18
100
AcDbLine
 10
0.5
 20
7.4337866858
 30
0.0
 11
0.1653543307
 21
7.4337866858
 31
0.0
  0
LINE
  5
92
330
1F
100
AcDbEntity
  8
TITLE
  6
Continuous
370
    18
100
AcDbLine
 10
59.5
 20
7.4337866858
 30
0.0
 11
59.8346456693
 21
7.4337866858
 31
0.0
  0
LINE
  5
93
330
1F
100
AcDbEntity
  8
TITLE
  6
Continuous
370
    18
100
AcDbLine
 10
0.5
 20
9.4022906228
 30
0.0
 11
0.1653543307
 21
9.4022906228
 31
0.0
  0
LINE
  5
94
330
1F
100
AcDbEntity
  8
TITLE
  6
Continuous
370
    18
100
AcDbLine
 10
59.5
 20
9.4022906228
 30
0.0
 11
59.8346456693
 21
9.4022906228
 31
0.0
  0
LINE
  5
95
330
1F
100
AcDbEntity
  8
TITLE
  6
Continuous
370
    18
100
AcDbLine
 10
0.5
 20
11.3707945598
 30
0.0
 11
0.1653543307
 21
11.3707945598
 31
0.0
  0
LINE
  5
96
330
1F
100
AcDbEntity
  8
TITLE
  6
Continuous
370
    18
100
AcDbLine
 10
59.5
 20
11.3707945598
 30
0.0
 11
59.8346456693
 21
11.3707945598
 31
0.0
  0
LINE
  5
97
330
1F
100
AcDbEntity
  8
TITLE
  6
Continuous
370
    18
100
AcDbLine
 10
0.5
 20
13.3392984968
 30
0.0
 11
0.1653543307
 21
13.3392984968
 31
0.0
  0
LINE
  5
98
330
1F
100
AcDbEntity
  8
TITLE
  6
Continuous
370
    18
100
AcDbLine
 10
59.5
 20
13.3392984968
 30
0.0
 11
59.8346456693
 21
13.3392984968
 31
0.0
  0
LINE
  5
99
330
1F
100
AcDbEntity
  8
TITLE
  6
Continuous
370
    18
100
AcDbLine
 10
0.5
 20
15.3078024338
 30
0.0
 11
0.1653543307
 21
15.3078024338
 31
0.0
  0
LINE
  5
9A
330
1F
100
AcDbEntity
  8
TITLE
  6
Continuous
370
    18
100
AcDbLine
 10
59.5
 20
15.3078024338
 30
0.0
 11
59.8346456693
 21
15.3078024338
 31
0.0
  0
LINE
  5
9B
330
1F
100
AcDbEntity
  8
TITLE
  6
Continuous
370
    18
100
AcDbLine
 10
0.5
 20
17.2763063708
 30
0.0
 11
0.1653543307
 21
17.2763063708
 31
0.0
  0
LINE
  5
9C
330
1F
100
AcDbEntity
  8
TITLE
  6
Continuous
370
    18
100
AcDbLine
 10
59.5
 20
17.2763063708
 30
0.0
 11
59.8346456693
 21
17.2763063708
 31
0.0
  0
LINE
  5
9D
330
1F
100
AcDbEntity
  8
TITLE
  6
Continuous
370
    18
100
AcDbLine
 10
0.5
 20
19.2448103078
 30
0.0
 11
0.1653543307
 21
19.2448103078
 31
0.0
  0
LINE
  5
9E
330
1F
100
AcDbEntity
  8
TITLE
  6
Continuous
370
    18
100
AcDbLine
 10
59.5
 20
19.2448103078
 30
0.0
 11
59.8346456693
 21
19.2448103078
 31
0.0
  0
LINE
  5
9F
330
1F
100
AcDbEntity
  8
TITLE
  6
Continuous
370
    18
100
AcDbLine
 10
0.5
 20
21.2133142448
 30
0.0
 11
0.1653543307
 21
21.2133142448
 31
0.0
  0
LINE
  5
A0
330
1F
100
AcDbEntity
  8
TITLE
  6
Continuous
370
    18
100
AcDbLine
 10
59.5
 20
21.2133142448
 30
0.0
 11
59.8346456693
 21
21.2133142448
 31
0.0
  0
LINE
  5
A1
330
1F
100
AcDbEntity
  8
TITLE
  6
Continuous
370
    18
100
AcDbLine
 10
0.5
 20
23.1818181818
 30
0.0
 11
0.1653543307
 21
23.1818181818
 31
0.0
  0
LINE
  5
A2
330
1F
100
AcDbEntity
  8
TITLE
  6
Continuous
370
    18
100
AcDbLine
 10
59.5
 20
23.1818181818
 30
0.0
 11
59.8346456693
 21
23.1818181818
 31
0.0
  0
LINE
  5
A3
330
1F
100
AcDbEntity
  8
TITLE
  6
Continuous
370
    18
100
AcDbLine
 10
0.5
 20
25.1503221188
 30
0.0
 11
0.1653543307
 21
25.1503221188
 31
0.0
  0
LINE
  5
A4
330
1F
100
AcDbEntity
  8
TITLE
  6
Continuous
370
    18
100
AcDbLine
 10
59.5
 20
25.1503221188
 30
0.0
 11
59.8346456693
 21
25.1503221188
 31
0.0
  0
LINE
  5
A5
330
1F
100
AcDbEntity
  8
TITLE
  6
Continuous
370
    18
100
AcDbLine
 10
0.5
 20
27.1188260558
 30
0.0
 11
0.1653543307
 21
27.1188260558
 31
0.0
  0
LINE
  5
A6
330
1F
100
AcDbEntity
  8
TITLE
  6
Continuous
370
    18
100
AcDbLine
 10
59.5
 20
27.1188260558
 30
0.0
 11
59.8346456693
 21
27.1188260558
 31
0.0
  0
LINE
  5
A7
330
1F
100
AcDbEntity
  8
TITLE
  6
Continuous
370
    18
100
AcDbLine
 10
0.5
 20
29.0873299928
 30
0.0
 11
0.1653543307
 21
29.0873299928
 31
0.0
  0
LINE
  5
A8
330
1F
100
AcDbEntity
  8
TITLE
  6
Continuous
370
    18
100
AcDbLine
 10
59.5
 20
29.0873299928
 30
0.0
 11
59.8346456693
 21
29.0873299928
 31
0.0
  0
LINE
  5
A9
330
1F
100
AcDbEntity
  8
TITLE
  6
Continuous
370
    18
100
AcDbLine
 10
0.5
 20
31.0558339298
 30
0.0
 11
0.1653543307
 21
31.0558339298
 31
0.0
  0
LINE
  5
AA
330
1F
100
AcDbEntity
  8
TITLE
  6
Continuous
370
    18
100
AcDbLine
 10
59.5
 20
31.0558339298
 30
0.0
 11
59.8346456693
 21
31.0558339298
 31
0.0
  0
LINE
  5
AB
330
1F
100
AcDbEntity
  8
TITLE
  6
Continuous
370
    18
100
AcDbLine
 10
0.5
 20
33.0243378669
 30
0.0
 11
0.1653543307
 21
33.0243378669
 31
0.0
  0
LINE
  5
AC
330
1F
100
AcDbEntity
  8
TITLE
  6
Continuous
370
    18
100
AcDbLine
 10
59.5
 20
33.0243378669
 30
0.0
 11
59.8346456693
 21
33.0243378669
 31
0.0
  0
LINE
  5
AD
330
1F
100
AcDbEntity
  8
TITLE
  6
Continuous
370
    18
100
AcDbLine
 10
0.5
 20
34.9928418039
 30
0.0
 11
0.1653543307
 21
34.9928418039
 31
0.0
  0
LINE
  5
AE
330
1F
100
AcDbEntity
  8
TITLE
  6
Continuous
370
    18
100
AcDbLine
 10
59.5
 20
34.9928418039
 30
0.0
 11
59.8346456693
 21
34.9928418039
 31
0.0
  0
LINE
  5
AF
330
1F
100
AcDbEntity
  8
TITLE
  6
Continuous
370
    18
100
AcDbLine
 10
0.5
 20
36.9613457409
 30
0.0
 11
0.1653543307
 21
36.9613457409
 31
0.0
  0
LINE
  5
B0
330
1F
100
AcDbEntity
  8
TITLE
  6
Continuous
370
    18
100
AcDbLine
 10
59.5
 20
36.9613457409
 30
0.0
 11
59.8346456693
 21
36.9613457409
 31
0.0
  0
LINE
  5
B1
330
1F
100
AcDbEntity
  8
TITLE
  6
Continuous
370
    18
100
AcDbLine
 10
0.5
 20
38.9298496779
 30
0.0
 11
0.1653543307
 21
38.9298496779
 31
0.0
  0
LINE
  5
B2
330
1F
100
AcDbEntity
  8
TITLE
  6
Continuous
370
    18
100
AcDbLine
 10
59.5
 20
38.9298496779
 30
0.0
 11
59.8346456693
 21
38.9298496779
 31
0.0
  0
LINE
  5
B3
330
1F
100
AcDbEntity
  8
TITLE
  6
Continuous
370
    18
100
AcDbLine
 10
0.5
 20
40.8983536149
 30
0.0
 11
0.1653543307
 21
40.8983536149
 31
0.0
  0
LINE
  5
B4
330
1F
100
AcDbEntity
  8
TITLE
  6
Continuous
370
    18
100
AcDbLine
 10
59.5
 20
40.8983536149
 30
0.0
 11
59.8346456693
 21
40.8983536149
 31
0.0
  0
LINE
  5
B5
330
1F
100
AcDbEntity
  8
TITLE
  6
Continuous
370
    18
100
AcDbLine
 10
0.5
 20
42.8668575519
 30
0.0
 11
0.1653543307
 21
42.8668575519
 31
0.0
  0
LINE
  5
B6
330
1F
100
AcDbEntity
  8
TITLE
  6
Continuous
370
    18
100
AcDbLine
 10
59.5
 20
42.8668575519
 30
0.0
 11
59.8346456693
 21
42.8668575519
 31
0.0
  0
LINE
  5
B7
330
1F
100
AcDbEntity
  8
TITLE
  6
Continuous
370
    18
100
AcDbLine
 10
0.5
 20
44.8353614889
 30
0.0
 11
0.1653543307
 21
44.8353614889
 31
0.0
  0
LINE
  5
B8
330
1F
100
AcDbEntity
  8
TITLE
  6
Continuous
370
    18
100
AcDbLine
 10
59.5
 20
44.8353614889
 30
0.0
 11
59.8346456693
 21
44.8353614889
 31
0.0
  0
LINE
  5
B9
330
1F
100
AcDbEntity
  8
TITLE
  6
Continuous
370
    18
100
AcDbLine
 10
2.4409448819
 20
45.8636363636
 30
0.0
 11
2.4409448819
 21
46.1982820329
 31
0.0
  0
LINE
  5
BA
330
1F
100
AcDbEntity
  8
TITLE
  6
Continuous
370
    18
100
AcDbLine
 10
2.4409448819
 20
0.5
 30
0.0
 11
2.4409448819
 21
0.1653543307
 31
0.0
  0
LINE
  5
BB
330
1F
100
AcDbEntity
  8
TITLE
  6
Continuous
370
    18
100
AcDbLine
 10
4.4094488189
 20
45.8636363636
 30
0.0
 11
4.4094488189
 21
46.1982820329
 31
0.0
  0
LINE
  5
BC
330
1F
100
AcDbEntity
  8
TITLE
  6
Continuous
370
    18
100
AcDbLine
 10
4.4094488189
 20
0.5
 30
0.0
 11
4.4094488189
 21
0.1653543307
 31
0.0
  0
LINE
  5
BD
330
1F
100
AcDbEntity
  8
TITLE
  6
Continuous
370
    18
100
AcDbLine
 10
6.3779527559
 20
45.8636363636
 30
0.0
 11
6.3779527559
 21
46.1982820329
 31
0.0
  0
LINE
  5
BE
330
1F
100
AcDbEntity
  8
TITLE
  6
Continuous
370
    18
100
AcDbLine
 10
6.3779527559
 20
0.5
 30
0.0
 11
6.3779527559
 21
0.1653543307
 31
0.0
  0
LINE
  5
BF
330
1F
100
AcDbEntity
  8
TITLE
  6
Continuous
370
    18
100
AcDbLine
 10
8.3464566929
 20
45.8636363636
 30
0.0
 11
8.3464566929
 21
46.1982820329
 31
0.0
  0
LINE
  5
C0
330
1F
100
AcDbEntity
  8
TITLE
  6
Continuous
370
    18
100
AcDbLine
 10
8.3464566929
 20
0.5
 30
0.0
 11
8.3464566929
 21
0.1653543307
 31
0.0
  0
LINE
  5
C1
330
1F
100
AcDbEntity
  8
TITLE
  6
Continuous
370
    18
100
AcDbLine
 10
10.3149606299
 20
45.8636363636
 30
0.0
 11
10.3149606299
 21
46.1982820329
 31
0.0
  0
LINE
  5
C2
330
1F
100
AcDbEntity
  8
TITLE
  6
Continuous
370
    18
100
AcDbLine
 10
10.3149606299
 20
0.5
 30
0.0
 11
10.3149606299
 21
0.1653543307
 31
0.0
  0
LINE
  5
C3
330
1F
100
AcDbEntity
  8
TITLE
  6
Continuous
370
    18
100
AcDbLine
 10
12.2834645669
 20
45.8636363636
 30
0.0
 11
12.2834645669
 21
46.1982820329
 31
0.0
  0
LINE
  5
C4
330
1F
100
AcDbEntity
  8
TITLE
  6
Continuous
370
    18
100
AcDbLine
 10
12.2834645669
 20
0.5
 30
0.0
 11
12.2834645669
 21
0.1653543307
 31
0.0
  0
LINE
  5
C5
330
1F
100
AcDbEntity
  8
TITLE
  6
Continuous
370
    18
100
AcDbLine
 10
14.2519685039
 20
45.8636363636
 30
0.0
 11
14.2519685039
 21
46.1982820329
 31
0.0
  0
LINE
  5
C6
330
1F
100
AcDbEntity
  8
TITLE
  6
Continuous
370
    18
100
AcDbLine
 10
14.2519685039
 20
0.5
 30
0.0
 11
14.2519685039
 21
0.1653543307
 31
0.0
  0
LINE
  5
C7
330
1F
100
AcDbEntity
  8
TITLE
  6
Continuous
370
    18
100
AcDbLine
 10
16.2204724409
 20
45.8636363636
 30
0.0
 11
16.2204724409
 21
46.1982820329
 31
0.0
  0
LINE
  5
C8
330
1F
100
AcDbEntity
  8
TITLE
  6
Continuous
370
    18
100
AcDbLine
 10
16.2204724409
 20
0.5
 30
0.0
 11
16.2204724409
 21
0.1653543307
 31
0.0
  0
LINE
  5
C9
330
1F
100
AcDbEntity
  8
TITLE
  6
Continuous
370
    18
100
AcDbLine
 10
18.188976378
 20
45.8636363636
 30
0.0
 11
18.188976378
 21
46.1982820329
 31
0.0
  0
LINE
  5
CA
330
1F
100
AcDbEntity
  8
TITLE
  6
Continuous
370
    18
100
AcDbLine
 10
18.188976378
 20
0.5
 30
0.0
 11
18.188976378
 21
0.1653543307
 31
0.0
  0
LINE
  5
CB
330
1F
100
AcDbEntity
  8
TITLE
  6
Continuous
370
    18
100
AcDbLine
 10
20.157480315
 20
45.8636363636
 30
0.0
 11
20.157480315
 21
46.1982820329
 31
0.0
  0
LINE
  5
CC
330
1F
100
AcDbEntity
  8
TITLE
  6
Continuous
370
    18
100
AcDbLine
 10
20.157480315
 20
0.5
 30
0.0
 11
20.157480315
 21
0.1653543307
 31
0.0
  0
LINE
  5
CD
330
1F
100
AcDbEntity
  8
TITLE
  6
Continuous
370
    18
100
AcDbLine
 10
22.125984252
 20
45.8636363636
 30
0.0
 11
22.125984252
 21
46.1982820329
 31
0.0
  0
LINE
  5
CE
330
1F
100
AcDbEntity
  8
TITLE
  6
Continuous
370
    18
100
AcDbLine
 10
22.125984252
 20
0.5
 30
0.0
 11
22.125984252
 21
0.1653543307
 31
0.0
  0
LINE
  5
CF
330
1F
100
AcDbEntity
  8
TITLE
  6
Continuous
370
    18
100
AcDbLine
 10
24.094488189
 20
45.8636363636
 30
0.0
 11
24.094488189
 21
46.1982820329
 31
0.0
  0
LINE
  5
D0
330
1F
100
AcDbEntity
  8
TITLE
  6
Continuous
370
    18
100
AcDbLine
 10
24.094488189
 20
0.5
 30
0.0
 11
24.094488189
 21
0.1653543307
 31
0.0
  0
LINE
  5
D1
330
1F
100
AcDbEntity
  8
TITLE
  6
Continuous
370
    18
100
AcDbLine
 10
26.062992126
 20
45.8636363636
 30
0.0
 11
26.062992126
 21
46.1982820329
 31
0.0
  0
LINE
  5
D2
330
1F
100
AcDbEntity
  8
TITLE
  6
Continuous
370
    18
100
AcDbLine
 10
26.062992126
 20
0.5
 30
0.0
 11
26.062992126
 21
0.1653543307
 31
0.0
  0
LINE
  5
D3
330
1F
100
AcDbEntity
  8
TITLE
  6
Continuous
370
    18
100
AcDbLine
 10
28.031496063
 20
45.8636363636
 30
0.0
 11
28.031496063
 21
46.1982820329
 31
0.0
  0
LINE
  5
D4
330
1F
100
AcDbEntity
  8
TITLE
  6
Continuous
370
    18
100
AcDbLine
 10
28.031496063
 20
0.5
 30
0.0
 11
28.031496063
 21
0.1653543307
 31
0.0
  0
LINE
  5
D5
330
1F
100
AcDbEntity
  8
TITLE
  6
Continuous
370
    18
100
AcDbLine
 10
30.0
 20
45.8636363636
 30
0.0
 11
30.0
 21
46.1982820329
 31
0.0
  0
LINE
  5
D6
330
1F
100
AcDbEntity
  8
TITLE
  6
Continuous
370
    18
100
AcDbLine
 10
30.0
 20
0.5
 30
0.0
 11
30.0
 21
0.1653543307
 31
0.0
  0
LINE
  5
D7
330
1F
100
AcDbEntity
  8
TITLE
  6
Continuous
370
    18
100
AcDbLine
 10
31.968503937
 20
45.8636363636
 30
0.0
 11
31.968503937
 21
46.1982820329
 31
0.0
  0
LINE
  5
D8
330
1F
100
AcDbEntity
  8
TITLE
  6
Continuous
370
    18
100
AcDbLine
 10
31.968503937
 20
0.5
 30
0.0
 11
31.968503937
 21
0.1653543307
 31
0.0
  0
LINE
  5
D9
330
1F
100
AcDbEntity
  8
TITLE
  6
Continuous
370
    18
100
AcDbLine
 10
33.937007874
 20
45.8636363636
 30
0.0
 11
33.937007874
 21
46.1982820329
 31
0.0
  0
LINE
  5
DA
330
1F
100
AcDbEntity
  8
TITLE
  6
Continuous
370
    18
100
AcDbLine
 10
33.937007874
 20
0.5
 30
0.0
 11
33.937007874
 21
0.1653543307
 31
0.0
  0
LINE
  5
DB
330
1F
100
AcDbEntity
  8
TITLE
  6
Continuous
370
    18
100
AcDbLine
 10
35.905511811
 20
45.8636363636
 30
0.0
 11
35.905511811
 21
46.1982820329
 31
0.0
  0
LINE
  5
DC
330
1F
100
AcDbEntity
  8
TITLE
  6
Continuous
370
    18
100
AcDbLine
 10
35.905511811
 20
0.5
 30
0.0
 11
35.905511811
 21
0.1653543307
 31
0.0
  0
LINE
  5
DD
330
1F
100
AcDbEntity
  8
TITLE
  6
Continuous
370
    18
100
AcDbLine
 10
37.874015748
 20
45.8636363636
 30
0.0
 11
37.874015748
 21
46.1982820329
 31
0.0
  0
LINE
  5
DE
330
1F
100
AcDbEntity
  8
TITLE
  6
Continuous
370
    18
100
AcDbLine
 10
37.874015748
 20
0.5
 30
0.0
 11
37.874015748
 21
0.1653543307
 31
0.0
  0
LINE
  5
DF
330
1F
100
AcDbEntity
  8
TITLE
  6
Continuous
370
    18
100
AcDbLine
 10
39.842519685
 20
45.8636363636
 30
0.0
 11
39.842519685
 21
46.1982820329
 31
0.0
  0
LINE
  5
E0
330
1F
100
AcDbEntity
  8
TITLE
  6
Continuous
370
    18
100
AcDbLine
 10
39.842519685
 20
0.5
 30
0.0
 11
39.842519685
 21
0.1653543307
 31
0.0
  0
LINE
  5
E1
330
1F
100
AcDbEntity
  8
TITLE
  6
Continuous
370
    18
100
AcDbLine
 10
41.811023622
 20
45.8636363636
 30
0.0
 11
41.811023622
 21
46.1982820329
 31
0.0
  0
LINE
  5
E2
330
1F
100
AcDbEntity
  8
TITLE
  6
Continuous
370
    18
100
AcDbLine
 10
41.811023622
 20
0.5
 30
0.0
 11
41.811023622
 21
0.1653543307
 31
0.0
  0
LINE
  5
E3
330
1F
100
AcDbEntity
  8
TITLE
  6
Continuous
370
    18
100
AcDbLine
 10
43.7795275591
 20
45.8636363636
 30
0.0
 11
43.7795275591
 21
46.1982820329
 31
0.0
  0
LINE
  5
E4
330
1F
100
AcDbEntity
  8
TITLE
  6
Continuous
370
    18
100
AcDbLine
 10
43.7795275591
 20
0.5
 30
0.0
 11
43.7795275591
 21
0.1653543307
 31
0.0
  0
LINE
  5
E5
330
1F
100
AcDbEntity
  8
TITLE
  6
Continuous
370
    18
100
AcDbLine
 10
45.7480314961
 20
45.8636363636
 30
0.0
 11
45.7480314961
 21
46.1982820329
 31
0.0
  0
LINE
  5
E6
330
1F
100
AcDbEntity
  8
TITLE
  6
Continuous
370
    18
100
AcDbLine
 10
45.7480314961
 20
0.5
 30
0.0
 11
45.7480314961
 21
0.1653543307
 31
0.0
  0
LINE
  5
E7
330
1F
100
AcDbEntity
  8
TITLE
  6
Continuous
370
    18
100
AcDbLine
 10
47.7165354331
 20
45.8636363636
 30
0.0
 11
47.7165354331
 21
46.1982820329
 31
0.0
  0
LINE
  5
E8
330
1F
100
AcDbEntity
  8
TITLE
  6
Continuous
370
    18
100
AcDbLine
 10
47.7165354331
 20
0.5
 30
0.0
 11
47.7165354331
 21
0.1653543307
 31
0.0
  0
LINE
  5
E9
330
1F
100
AcDbEntity
  8
TITLE
  6
Continuous
370
    18
100
AcDbLine
 10
49.6850393701
 20
45.8636363636
 30
0.0
 11
49.6850393701
 21
46.1982820329
 31
0.0
  0
LINE
  5
EA
330
1F
100
AcDbEntity
  8
TITLE
  6
Continuous
370
    18
100
AcDbLine
 10
49.6850393701
 20
0.5
 30
0.0
 11
49.6850393701
 21
0.1653543307
 31
0.0
  0
LINE
  5
EB
330
1F
100
AcDbEntity
  8
TITLE
  6
Continuous
370
    18
100
AcDbLine
 10
51.6535433071
 20
45.8636363636
 30
0.0
 11
51.6535433071
 21
46.1982820329
 31
0.0
  0
LINE
  5
EC
330
1F
100
AcDbEntity
  8
TITLE
  6
Continuous
370
    18
100
AcDbLine
 10
51.6535433071
 20
0.5
 30
0.0
 11
51.6535433071
 21
0.1653543307
 31
0.0
  0
LINE
  5
ED
330
1F
100
AcDbEntity
  8
TITLE
  6
Continuous
370
    18
100
AcDbLine
 10
53.6220472441
 20
45.8636363636
 30
0.0
 11
53.6220472441
 21
46.1982820329
 31
0.0
  0
LINE
  5
EE
330
1F
100
AcDbEntity
  8
TITLE
  6
Continuous
370
    18
100
AcDbLine
 10
53.6220472441
 20
0.5
 30
0.0
 11
53.6220472441
 21
0.1653543307
 31
0.0
  0
LINE
  5
EF
330
1F
100
AcDbEntity
  8
TITLE
  6
Continuous
370
    18
100
AcDbLine
 10
55.5905511811
 20
45.8636363636
 30
0.0
 11
55.5905511811
 21
46.1982820329
 31
0.0
  0
LINE
  5
F0
330
1F
100
AcDbEntity
  8
TITLE
  6
Continuous
370
    18
100
AcDbLine
 10
55.5905511811
 20
0.5
 30
0.0
 11
55.5905511811
 21
0.1653543307
 31
0.0
  0
LINE
  5
F1
330
1F
100
AcDbEntity
  8
TITLE
  6
Continuous
370
    18
100
AcDbLine
 10
57.5590551181
 20
45.8636363636
 30
0.0
 11
57.5590551181
 21
46.1982820329
 31
0.0
  0
LINE
  5
F2
330
1F
100
AcDbEntity
  8
TITLE
  6
Continuous
370
    18
100
AcDbLine
 10
57.5590551181
 20
0.5
 30
0.0
 11
57.5590551181
 21
0.1653543307
 31
0.0
  0
MTEXT
  5
F4
330
1F
100
AcDbEntity
  8
NOTES
100
AcDbMText
 10
36.408297803
 20
1.0702903347
 30
0.0
 40
0.25
 41
0.0
 71
     1
 72
     1
  1
UNLESS OTHERWISE SPECIFIED DIMENSIONS ARE IN INCHES.
  7
SLDTEXTSTYLE0
 73
     1
 44
1.0
  0
MTEXT
  5
F5
330
1F
100
AcDbEntity
  8
NOTES
100
AcDbMText
 10
36.4300699279
 20
3.0830627776
 30
0.0
 40
0.25
 41
0.0
 71
     1
 72
     1
  1
DATE:
  7
SLDTEXTSTYLE0
 73
     1
 44
1.0
  0
MTEXT
  5
F6
330
1F
100
AcDbEntity
  8
NOTES
100
AcDbMText
 10
38.538701188
 20
2.1930329637
 30
0.0
 40
0.25
 41
0.0
 71
     2
 72
     1
  1
DO NOT SCALE DRAWING
  7
SLDTEXTSTYLE0
 73
     1
 44
1.0
  0
MTEXT
  5
F8
330
1F
100
AcDbEntity
  8
NOTES
100
AcDbMText
 10
42.8307373075
 20
3.2712065527
 30
0.0
 40
0.25
 41
0.0
 71
     1
 72
     1
  1
TITLE:
  7
SLDTEXTSTYLE1
 73
     1
 44
1.0
  0
MTEXT
  5
F9
330
1F
100
AcDbEntity
  8
NOTES
100
AcDbMText
 10
50.1561831052
 20
3.2712065527
 30
0.0
 40
0.25
 41
0.0
 71
     1
 72
     1
  1
DWG NO.
  7
SLDTEXTSTYLE1
 73
     1
 44
1.0
  0
MTEXT
  5
FB
330
1F
100
AcDbEntity
  8
NOTES
100
AcDbMText
 10
50.1831753203
 20
1.0675125551
 30
0.0
 40
0.25
 41
0.0
 71
     1
 72
     1
  1
SCALE:     1:1
  7
SLDTEXTSTYLE2
 73
     1
 44
1.0
  0
MTEXT
  5
FC
330
1F
100
AcDbEntity
  8
NOTES
100
AcDbMText
 10
54.1764017519
 20
2.6539654269
 30
0.0
 40
0.25
 41
0.0
 71
     2
 72
     1
  1
950 4x18 CAD
  7
SLDTEXTSTYLE1
 73
     1
 44
1.0
  0
MTEXT
  5
FE
330
1F
100
AcDbEntity
  8
NOTES
100
AcDbMText
 10
46.443951786
 20
2.6539654269
 30
0.0
 40
0.25
 41
0.0
 71
     2
 72
     1
  1
950 - 4 x 18 Shelf
  7
SLDTEXTSTYLE3
 73
     1
 44
1.0
  0
INSERT
  5
104
330
1F
100
AcDbEntity
  8
NOTES
100
AcDbBlockReference
  2
SW_NOTE_0
 10
50.266131557
 20
4.6105227838
 30
0.0
  0
INSERT
  5
10C
330
1F
100
AcDbEntity
  8
NOTES
100
AcDbBlockReference
  2
SW_NOTE_0_1
 10
36.6159726246
 20
5.1481526848
 30
0.0
  0
MTEXT
  5
10D
330
1F
100
AcDbEntity
  8
NOTES
100
AcDbMText
 10
39.5018113106
 20
3.0894043242
 30
0.0
 40
0.25
 41
0.0
 71
     2
 72
     1
  1
January 24, 2023
  7
SLDTEXTSTYLE1
 73
     1
 44
1.0
  0
MTEXT
  5
10E
330
1F
100
AcDbEntity
  8
TITLE
100
AcDbMText
 10
0.3276279776
 20
1.0954808806
 30
0.0
 40
0.125
 41
0.0
 71
     2
 72
     1
  1
A
  7
SLDTEXTSTYLE1
 73
     1
 44
1.0
  0
MTEXT
  5
10F
330
1F
100
AcDbEntity
  8
TITLE
100
AcDbMText
 10
59.6622736469
 20
1.0954808806
 30
0.0
 40
0.125
 41
0.0
 71
     2
 72
     1
  1
A
  7
SLDTEXTSTYLE1
 73
     1
 44
1.0
  0
MTEXT
  5
110
330
1F
100
AcDbEntity
  8
TITLE
100
AcDbMText
 10
0.3317512413
 20
2.5938702865
 30
0.0
 40
0.125
 41
0.0
 71
     2
 72
     1
  1
B
  7
SLDTEXTSTYLE1
 73
     1
 44
1.0
  0
MTEXT
  5
111
330
1F
100
AcDbEntity
  8
TITLE
100
AcDbMText
 10
59.6663969106
 20
2.5938702865
 30
0.0
 40
0.125
 41
0.0
 71
     2
 72
     1
  1
B
  7
SLDTEXTSTYLE1
 73
     1
 44
1.0
  0
MTEXT
  5
112
330
1F
100
AcDbEntity
  8
TITLE
100
AcDbMText
 10
0.3313750817
 20
4.5623742235
 30
0.0
 40
0.125
 41
0.0
 71
     2
 72
     1
  1
C
  7
SLDTEXTSTYLE1
 73
     1
 44
1.0
  0
MTEXT
  5
113
330
1F
100
AcDbEntity
  8
TITLE
100
AcDbMText
 10
59.666020751
 20
4.5623742235
 30
0.0
 40
0.125
 41
0.0
 71
     2
 72
     1
  1
C
  7
SLDTEXTSTYLE1
 73
     1
 44
1.0
  0
MTEXT
  5
114
330
1F
100
AcDbEntity
  8
TITLE
100
AcDbMText
 10
0.3311870028
 20
6.5308781605
 30
0.0
 40
0.125
 41
0.0
 71
     2
 72
     1
  1
D
  7
SLDTEXTSTYLE1
 73
     1
 44
1.0
  0
MTEXT
  5
115
330
1F
100
AcDbEntity
  8
TITLE
100
AcDbMText
 10
59.6658326721
 20
6.5308781605
 30
0.0
 40
0.125
 41
0.0
 71
     2
 72
     1
  1
D
  7
SLDTEXTSTYLE1
 73
     1
 44
1.0
  0
MTEXT
  5
116
330
1F
100
AcDbEntity
  8
TITLE
100
AcDbMText
 10
0.332923116
 20
8.4993820975
 30
0.0
 40
0.125
 41
0.0
 71
     2
 72
     1
  1
E
  7
SLDTEXTSTYLE1
 73
     1
 44
1.0
  0
MTEXT
  5
117
330
1F
100
AcDbEntity
  8
TITLE
100
AcDbMText
 10
59.6675687853
 20
8.4993820975
 30
0.0
 40
0.125
 41
0.0
 71
     2
 72
     1
  1
E
  7
SLDTEXTSTYLE1
 73
     1
 44
1.0
  0
MTEXT
  5
118
330
1F
100
AcDbEntity
  8
TITLE
100
AcDbMText
 10
0.3313461474
 20
10.4678860345
 30
0.0
 40
0.125
 41
0.0
 71
     2
 72
     1
  1
F
  7
SLDTEXTSTYLE1
 73
     1
 44
1.0
  0
MTEXT
  5
119
330
1F
100
AcDbEntity
  8
TITLE
100
AcDbMText
 10
59.6659918167
 20
10.4678860345
 30
0.0
 40
0.125
 41
0.0
 71
     2
 72
     1
  1
F
  7
SLDTEXTSTYLE1
 73
     1
 44
1.0
  0
MTEXT
  5
11A
330
1F
100
AcDbEntity
  8
TITLE
100
AcDbMText
 10
0.3322576054
 20
12.4363899715
 30
0.0
 40
0.125
 41
0.0
 71
     2
 72
     1
  1
G
  7
SLDTEXTSTYLE1
 73
     1
 44
1.0
  0
MTEXT
  5
11B
330
1F
100
AcDbEntity
  8
TITLE
100
AcDbMText
 10
59.6669032747
 20
12.4363899715
 30
0.0
 40
0.125
 41
0.0
 71
     2
 72
     1
  1
G
  7
SLDTEXTSTYLE1
 73
     1
 44
1.0
  0
MTEXT
  5
11C
330
1F
100
AcDbEntity
  8
TITLE
100
AcDbMText
 10
0.3323733457
 20
14.4048939085
 30
0.0
 40
0.125
 41
0.0
 71
     2
 72
     1
  1
H
  7
SLDTEXTSTYLE1
 73
     1
 44
1.0
  0
MTEXT
  5
11D
330
1F
100
AcDbEntity
  8
TITLE
100
AcDbMText
 10
59.667019015
 20
14.4048939085
 30
0.0
 40
0.125
 41
0.0
 71
     2
 72
     1
  1
H
  7
SLDTEXTSTYLE1
 73
     1
 44
1.0
  0
MTEXT
  5
11E
330
1F
100
AcDbEntity
  8
TITLE
100
AcDbMText
 10
0.3315776306
 20
16.3733978455
 30
0.0
 40
0.125
 41
0.0
 71
     2
 72
     1
  1
J
  7
SLDTEXTSTYLE1
 73
     1
 44
1.0
  0
MTEXT
  5
11F
330
1F
100
AcDbEntity
  8
TITLE
100
AcDbMText
 10
59.6662232999
 20
16.3733978455
 30
0.0
 40
0.125
 41
0.0
 71
     2
 72
     1
  1
J
  7
SLDTEXTSTYLE1
 73
     1
 44
1.0
  0
MTEXT
  5
120
330
1F
100
AcDbEntity
  8
TITLE
100
AcDbMText
 10
0.3323154765
 20
18.3419017825
 30
0.0
 40
0.125
 41
0.0
 71
     2
 72
     1
  1
K
  7
SLDTEXTSTYLE1
 73
     1
 44
1.0
  0
MTEXT
  5
121
330
1F
100
AcDbEntity
  8
TITLE
100
AcDbMText
 10
59.6669611458
 20
18.3419017825
 30
0.0
 40
0.125
 41
0.0
 71
     2
 72
     1
  1
K
  7
SLDTEXTSTYLE1
 73
     1
 44
1.0
  0
MTEXT
  5
122
330
1F
100
AcDbEntity
  8
TITLE
100
AcDbMText
 10
0.3312448739
 20
20.3104057195
 30
0.0
 40
0.125
 41
0.0
 71
     2
 72
     1
  1
L
  7
SLDTEXTSTYLE1
 73
     1
 44
1.0
  0
MTEXT
  5
123
330
1F
100
AcDbEntity
  8
TITLE
100
AcDbMText
 10
59.6658905432
 20
20.3104057195
 30
0.0
 40
0.125
 41
0.0
 71
     2
 72
     1
  1
L
  7
SLDTEXTSTYLE1
 73
     1
 44
1.0
  0
MTEXT
  5
124
330
1F
100
AcDbEntity
  8
TITLE
100
AcDbMText
 10
0.3283224192
 20
22.2789096566
 30
0.0
 40
0.125
 41
0.0
 71
     2
 72
     1
  1
M
  7
SLDTEXTSTYLE1
 73
     1
 44
1.0
  0
MTEXT
  5
125
330
1F
100
AcDbEntity
  8
TITLE
100
AcDbMText
 10
59.6629680885
 20
22.2789096566
 30
0.0
 40
0.125
 41
0.0
 71
     2
 72
     1
  1
M
  7
SLDTEXTSTYLE1
 73
     1
 44
1.0
  0
MTEXT
  5
126
330
1F
100
AcDbEntity
  8
TITLE
100
AcDbMText
 10
0.3315342276
 20
24.2474135936
 30
0.0
 40
0.125
 41
0.0
 71
     2
 72
     1
  1
N
  7
SLDTEXTSTYLE1
 73
     1
 44
1.0
  0
MTEXT
  5
127
330
1F
100
AcDbEntity
  8
TITLE
100
AcDbMText
 10
59.6661798969
 20
24.2474135936
 30
0.0
 40
0.125
 41
0.0
 71
     2
 72
     1
  1
N
  7
SLDTEXTSTYLE1
 73
     1
 44
1.0
  0
MTEXT
  5
128
330
1F
100
AcDbEntity
  8
TITLE
100
AcDbMText
 10
0.3321997349
 20
26.2159175306
 30
0.0
 40
0.125
 41
0.0
 71
     2
 72
     1
  1
P
  7
SLDTEXTSTYLE1
 73
     1
 44
1.0
  0
MTEXT
  5
129
330
1F
100
AcDbEntity
  8
TITLE
100
AcDbMText
 10
59.6668454042
 20
26.2159175306
 30
0.0
 40
0.125
 41
0.0
 71
     2
 72
     1
  1
P
  7
SLDTEXTSTYLE1
 73
     1
 44
1.0
  0
MTEXT
  5
12A
330
1F
100
AcDbEntity
  8
TITLE
100
AcDbMText
 10
0.3309265867
 20
28.1844214676
 30
0.0
 40
0.125
 41
0.0
 71
     2
 72
     1
  1
R
  7
SLDTEXTSTYLE1
 73
     1
 44
1.0
  0
MTEXT
  5
12B
330
1F
100
AcDbEntity
  8
TITLE
100
AcDbMText
 10
59.665572256
 20
28.1844214676
 30
0.0
 40
0.125
 41
0.0
 71
     2
 72
     1
  1
R
  7
SLDTEXTSTYLE1
 73
     1
 44
1.0
  0
MTEXT
  5
12C
330
1F
100
AcDbEntity
  8
TITLE
100
AcDbMText
 10
0.3323010071
 20
30.1529254046
 30
0.0
 40
0.125
 41
0.0
 71
     2
 72
     1
  1
T
  7
SLDTEXTSTYLE1
 73
     1
 44
1.0
  0
MTEXT
  5
12D
330
1F
100
AcDbEntity
  8
TITLE
100
AcDbMText
 10
59.6669466764
 20
30.1529254046
 30
0.0
 40
0.125
 41
0.0
 71
     2
 72
     1
  1
T
  7
SLDTEXTSTYLE1
 73
     1
 44
1.0
  0
MTEXT
  5
12E
330
1F
100
AcDbEntity
  8
TITLE
100
AcDbMText
 10
0.3328507755
 20
32.1214293416
 30
0.0
 40
0.125
 41
0.0
 71
     2
 72
     1
  1
U
  7
SLDTEXTSTYLE1
 73
     1
 44
1.0
  0
MTEXT
  5
12F
330
1F
100
AcDbEntity
  8
TITLE
100
AcDbMText
 10
59.6674964448
 20
32.1214293416
 30
0.0
 40
0.125
 41
0.0
 71
     2
 72
     1
  1
U
  7
SLDTEXTSTYLE1
 73
     1
 44
1.0
  0
MTEXT
  5
130
330
1F
100
AcDbEntity
  8
TITLE
100
AcDbMText
 10
0.3307529773
 20
34.0899332786
 30
0.0
 40
0.125
 41
0.0
 71
     2
 72
     1
  1
V
  7
SLDTEXTSTYLE1
 73
     1
 44
1.0
  0
MTEXT
  5
131
330
1F
100
AcDbEntity
  8
TITLE
100
AcDbMText
 10
59.6653986466
 20
34.0899332786
 30
0.0
 40
0.125
 41
0.0
 71
     2
 72
     1
  1
V
  7
SLDTEXTSTYLE1
 73
     1
 44
1.0
  0
MTEXT
  5
132
330
1F
100
AcDbEntity
  8
TITLE
100
AcDbMText
 10
0.3327784409
 20
36.0584372156
 30
0.0
 40
0.125
 41
0.0
 71
     2
 72
     1
  1
W
  7
SLDTEXTSTYLE1
 73
     1
 44
1.0
  0
MTEXT
  5
133
330
1F
100
AcDbEntity
  8
TITLE
100
AcDbMText
 10
59.6674241102
 20
36.0584372156
 30
0.0
 40
0.125
 41
0.0
 71
     2
 72
     1
  1
W
  7
SLDTEXTSTYLE1
 73
     1
 44
1.0
  0
MTEXT
  5
134
330
1F
100
AcDbEntity
  8
TITLE
100
AcDbMText
 10
0.3321997349
 20
38.0269411526
 30
0.0
 40
0.125
 41
0.0
 71
     2
 72
     1
  1
Y
  7
SLDTEXTSTYLE1
 73
     1
 44
1.0
  0
MTEXT
  5
135
330
1F
100
AcDbEntity
  8
TITLE
100
AcDbMText
 10
59.6668454042
 20
38.0269411526
 30
0.0
 40
0.125
 41
0.0
 71
     2
 72
     1
  1
Y
  7
SLDTEXTSTYLE1
 73
     1
 44
1.0
  0
MTEXT
  5
136
330
1F
100
AcDbEntity
  8
TITLE
100
AcDbMText
 10
0.3225787898
 20
39.9954450896
 30
0.0
 40
0.125
 41
0.0
 71
     2
 72
     1
  1
AA
  7
SLDTEXTSTYLE1
 73
     1
 44
1.0
  0
MTEXT
  5
137
330
1F
100
AcDbEntity
  8
TITLE
100
AcDbMText
 10
59.6572244591
 20
39.9954450896
 30
0.0
 40
0.125
 41
0.0
 71
     2
 72
     1
  1
AA
  7
SLDTEXTSTYLE1
 73
     1
 44
1.0
  0
MTEXT
  5
138
330
1F
100
AcDbEntity
  8
TITLE
100
AcDbMText
 10
0.3267020535
 20
41.9639490266
 30
0.0
 40
0.125
 41
0.0
 71
     2
 72
     1
  1
AB
  7
SLDTEXTSTYLE1
 73
     1
 44
1.0
  0
MTEXT
  5
139
330
1F
100
AcDbEntity
  8
TITLE
100
AcDbMText
 10
59.6613477228
 20
41.9639490266
 30
0.0
 40
0.125
 41
0.0
 71
     2
 72
     1
  1
AB
  7
SLDTEXTSTYLE1
 73
     1
 44
1.0
  0
MTEXT
  5
13A
330
1F
100
AcDbEntity
  8
TITLE
100
AcDbMText
 10
0.3263258985
 20
43.9324529636
 30
0.0
 40
0.125
 41
0.0
 71
     2
 72
     1
  1
AC
  7
SLDTEXTSTYLE1
 73
     1
 44
1.0
  0
MTEXT
  5
13B
330
1F
100
AcDbEntity
  8
TITLE
100
AcDbMText
 10
59.6609715678
 20
43.9324529636
 30
0.0
 40
0.125
 41
0.0
 71
     2
 72
     1
  1
AC
  7
SLDTEXTSTYLE1
 73
     1
 44
1.0
  0
MTEXT
  5
13C
330
1F
100
AcDbEntity
  8
TITLE
100
AcDbMText
 10
0.3261378197
 20
45.4308423695
 30
0.0
 40
0.125
 41
0.0
 71
     2
 72
     1
  1
AD
  7
SLDTEXTSTYLE1
 73
     1
 44
1.0
  0
MTEXT
  5
13D
330
1F
100
AcDbEntity
  8
TITLE
100
AcDbMText
 10
59.6607834889
 20
45.4308423695
 30
0.0
 40
0.125
 41
0.0
 71
     2
 72
     1
  1
AD
  7
SLDTEXTSTYLE1
 73
     1
 44
1.0
  0
MTEXT
  5
13E
330
1F
100
AcDbEntity
  8
TITLE
100
AcDbMText
 10
1.4679550796
 20
0.4140206086
 30
0.0
 40
0.125
 41
0.0
 71
     2
 72
     1
  1
30
  7
SLDTEXTSTYLE1
 73
     1
 44
1.0
  0
MTEXT
  5
13F
330
1F
100
AcDbEntity
  8
TITLE
100
AcDbMText
 10
1.4679550796
 20
46.1123026415
 30
0.0
 40
0.125
 41
0.0
 71
     2
 72
     1
  1
30
  7
SLDTEXTSTYLE1
 73
     1
 44
1.0
  0
MTEXT
  5
140
330
1F
100
AcDbEntity
  8
TITLE
100
AcDbMText
 10
3.422679489
 20
0.4140206086
 30
0.0
 40
0.125
 41
0.0
 71
     2
 72
     1
  1
29
  7
SLDTEXTSTYLE1
 73
     1
 44
1.0
  0
MTEXT
  5
141
330
1F
100
AcDbEntity
  8
TITLE
100
AcDbMText
 10
3.422679489
 20
46.1123026415
 30
0.0
 40
0.125
 41
0.0
 71
     2
 72
     1
  1
29
  7
SLDTEXTSTYLE1
 73
     1
 44
1.0
  0
MTEXT
  5
142
330
1F
100
AcDbEntity
  8
TITLE
100
AcDbMText
 10
5.391183426
 20
0.4140206086
 30
0.0
 40
0.125
 41
0.0
 71
     2
 72
     1
  1
28
  7
SLDTEXTSTYLE1
 73
     1
 44
1.0
  0
MTEXT
  5
143
330
1F
100
AcDbEntity
  8
TITLE
100
AcDbMText
 10
5.391183426
 20
46.1123026415
 30
0.0
 40
0.125
 41
0.0
 71
     2
 72
     1
  1
28
  7
SLDTEXTSTYLE1
 73
     1
 44
1.0
  0
MTEXT
  5
144
330
1F
100
AcDbEntity
  8
TITLE
100
AcDbMText
 10
7.359687363
 20
0.4140206086
 30
0.0
 40
0.125
 41
0.0
 71
     2
 72
     1
  1
27
  7
SLDTEXTSTYLE1
 73
     1
 44
1.0
  0
MTEXT
  5
145
330
1F
100
AcDbEntity
  8
TITLE
100
AcDbMText
 10
7.359687363
 20
46.1123026415
 30
0.0
 40
0.125
 41
0.0
 71
     2
 72
     1
  1
27
  7
SLDTEXTSTYLE1
 73
     1
 44
1.0
  0
MTEXT
  5
146
330
1F
100
AcDbEntity
  8
TITLE
100
AcDbMText
 10
9.3281913
 20
0.4140206086
 30
0.0
 40
0.125
 41
0.0
 71
     2
 72
     1
  1
26
  7
SLDTEXTSTYLE1
 73
     1
 44
1.0
  0
MTEXT
  5
147
330
1F
100
AcDbEntity
  8
TITLE
100
AcDbMText
 10
9.3281913
 20
46.1123026415
 30
0.0
 40
0.125
 41
0.0
 71
     2
 72
     1
  1
26
  7
SLDTEXTSTYLE1
 73
     1
 44
1.0
  0
MTEXT
  5
148
330
1F
100
AcDbEntity
  8
TITLE
100
AcDbMText
 10
11.2966952371
 20
0.4140206086
 30
0.0
 40
0.125
 41
0.0
 71
     2
 72
     1
  1
25
  7
SLDTEXTSTYLE1
 73
     1
 44
1.0
  0
MTEXT
  5
149
330
1F
100
AcDbEntity
  8
TITLE
100
AcDbMText
 10
11.2966952371
 20
46.1123026415
 30
0.0
 40
0.125
 41
0.0
 71
     2
 72
     1
  1
25
  7
SLDTEXTSTYLE1
 73
     1
 44
1.0
  0
MTEXT
  5
14A
330
1F
100
AcDbEntity
  8
TITLE
100
AcDbMText
 10
13.2651991741
 20
0.4140206086
 30
0.0
 40
0.125
 41
0.0
 71
     2
 72
     1
  1
24
  7
SLDTEXTSTYLE1
 73
     1
 44
1.0
  0
MTEXT
  5
14B
330
1F
100
AcDbEntity
  8
TITLE
100
AcDbMText
 10
13.2651991741
 20
46.1123026415
 30
0.0
 40
0.125
 41
0.0
 71
     2
 72
     1
  1
24
  7
SLDTEXTSTYLE1
 73
     1
 44
1.0
  0
MTEXT
  5
14C
330
1F
100
AcDbEntity
  8
TITLE
100
AcDbMText
 10
15.2337031111
 20
0.4140206086
 30
0.0
 40
0.125
 41
0.0
 71
     2
 72
     1
  1
23
  7
SLDTEXTSTYLE1
 73
     1
 44
1.0
  0
MTEXT
  5
14D
330
1F
100
AcDbEntity
  8
TITLE
100
AcDbMText
 10
15.2337031111
 20
46.1123026415
 30
0.0
 40
0.125
 41
0.0
 71
     2
 72
     1
  1
23
  7
SLDTEXTSTYLE1
 73
     1
 44
1.0
  0
MTEXT
  5
14E
330
1F
100
AcDbEntity
  8
TITLE
100
AcDbMText
 10
17.2022070481
 20
0.4140206086
 30
0.0
 40
0.125
 41
0.0
 71
     2
 72
     1
  1
22
  7
SLDTEXTSTYLE1
 73
     1
 44
1.0
  0
MTEXT
  5
14F
330
1F
100
AcDbEntity
  8
TITLE
100
AcDbMText
 10
17.2022070481
 20
46.1123026415
 30
0.0
 40
0.125
 41
0.0
 71
     2
 72
     1
  1
22
  7
SLDTEXTSTYLE1
 73
     1
 44
1.0
  0
MTEXT
  5
150
330
1F
100
AcDbEntity
  8
TITLE
100
AcDbMText
 10
19.1707109851
 20
0.4140206086
 30
0.0
 40
0.125
 41
0.0
 71
     2
 72
     1
  1
21
  7
SLDTEXTSTYLE1
 73
     1
 44
1.0
  0
MTEXT
  5
151
330
1F
100
AcDbEntity
  8
TITLE
100
AcDbMText
 10
19.1707109851
 20
46.1123026415
 30
0.0
 40
0.125
 41
0.0
 71
     2
 72
     1
  1
21
  7
SLDTEXTSTYLE1
 73
     1
 44
1.0
  0
MTEXT
  5
152
330
1F
100
AcDbEntity
  8
TITLE
100
AcDbMText
 10
21.1392149221
 20
0.4140206086
 30
0.0
 40
0.125
 41
0.0
 71
     2
 72
     1
  1
20
  7
SLDTEXTSTYLE1
 73
     1
 44
1.0
  0
MTEXT
  5
153
330
1F
100
AcDbEntity
  8
TITLE
100
AcDbMText
 10
21.1392149221
 20
46.1123026415
 30
0.0
 40
0.125
 41
0.0
 71
     2
 72
     1
  1
20
  7
SLDTEXTSTYLE1
 73
     1
 44
1.0
  0
MTEXT
  5
154
330
1F
100
AcDbEntity
  8
TITLE
100
AcDbMText
 10
23.1077188591
 20
0.4140206086
 30
0.0
 40
0.125
 41
0.0
 71
     2
 72
     1
  1
19
  7
SLDTEXTSTYLE1
 73
     1
 44
1.0
  0
MTEXT
  5
155
330
1F
100
AcDbEntity
  8
TITLE
100
AcDbMText
 10
23.1077188591
 20
46.1123026415
 30
0.0
 40
0.125
 41
0.0
 71
     2
 72
     1
  1
19
  7
SLDTEXTSTYLE1
 73
     1
 44
1.0
  0
MTEXT
  5
156
330
1F
100
AcDbEntity
  8
TITLE
100
AcDbMText
 10
25.0762227961
 20
0.4140206086
 30
0.0
 40
0.125
 41
0.0
 71
     2
 72
     1
  1
18
  7
SLDTEXTSTYLE1
 73
     1
 44
1.0
  0
MTEXT
  5
157
330
1F
100
AcDbEntity
  8
TITLE
100
AcDbMText
 10
25.0762227961
 20
46.1123026415
 30
0.0
 40
0.125
 41
0.0
 71
     2
 72
     1
  1
18
  7
SLDTEXTSTYLE1
 73
     1
 44
1.0
  0
MTEXT
  5
158
330
1F
100
AcDbEntity
  8
TITLE
100
AcDbMText
 10
27.0447267331
 20
0.4140206086
 30
0.0
 40
0.125
 41
0.0
 71
     2
 72
     1
  1
17
  7
SLDTEXTSTYLE1
 73
     1
 44
1.0
  0
MTEXT
  5
159
330
1F
100
AcDbEntity
  8
TITLE
100
AcDbMText
 10
27.0447267331
 20
46.1123026415
 30
0.0
 40
0.125
 41
0.0
 71
     2
 72
     1
  1
17
  7
SLDTEXTSTYLE1
 73
     1
 44
1.0
  0
MTEXT
  5
15A
330
1F
100
AcDbEntity
  8
TITLE
100
AcDbMText
 10
29.0132306701
 20
0.4140206086
 30
0.0
 40
0.125
 41
0.0
 71
     2
 72
     1
  1
16
  7
SLDTEXTSTYLE1
 73
     1
 44
1.0
  0
MTEXT
  5
15B
330
1F
100
AcDbEntity
  8
TITLE
100
AcDbMText
 10
29.0132306701
 20
46.1123026415
 30
0.0
 40
0.125
 41
0.0
 71
     2
 72
     1
  1
16
  7
SLDTEXTSTYLE1
 73
     1
 44
1.0
  0
MTEXT
  5
15C
330
1F
100
AcDbEntity
  8
TITLE
100
AcDbMText
 10
30.9817346071
 20
0.4140206086
 30
0.0
 40
0.125
 41
0.0
 71
     2
 72
     1
  1
15
  7
SLDTEXTSTYLE1
 73
     1
 44
1.0
  0
MTEXT
  5
15D
330
1F
100
AcDbEntity
  8
TITLE
100
AcDbMText
 10
30.9817346071
 20
46.1123026415
 30
0.0
 40
0.125
 41
0.0
 71
     2
 72
     1
  1
15
  7
SLDTEXTSTYLE1
 73
     1
 44
1.0
  0
MTEXT
  5
15E
330
1F
100
AcDbEntity
  8
TITLE
100
AcDbMText
 10
32.9502385441
 20
0.4140206086
 30
0.0
 40
0.125
 41
0.0
 71
     2
 72
     1
  1
14
  7
SLDTEXTSTYLE1
 73
     1
 44
1.0
  0
MTEXT
  5
15F
330
1F
100
AcDbEntity
  8
TITLE
100
AcDbMText
 10
32.9502385441
 20
46.1123026415
 30
0.0
 40
0.125
 41
0.0
 71
     2
 72
     1
  1
14
  7
SLDTEXTSTYLE1
 73
     1
 44
1.0
  0
MTEXT
  5
160
330
1F
100
AcDbEntity
  8
TITLE
100
AcDbMText
 10
34.9187424811
 20
0.4140206086
 30
0.0
 40
0.125
 41
0.0
 71
     2
 72
     1
  1
13
  7
SLDTEXTSTYLE1
 73
     1
 44
1.0
  0
MTEXT
  5
161
330
1F
100
AcDbEntity
  8
TITLE
100
AcDbMText
 10
34.9187424811
 20
46.1123026415
 30
0.0
 40
0.125
 41
0.0
 71
     2
 72
     1
  1
13
  7
SLDTEXTSTYLE1
 73
     1
 44
1.0
  0
MTEXT
  5
162
330
1F
100
AcDbEntity
  8
TITLE
100
AcDbMText
 10
36.8872464182
 20
0.4140206086
 30
0.0
 40
0.125
 41
0.0
 71
     2
 72
     1
  1
12
  7
SLDTEXTSTYLE1
 73
     1
 44
1.0
  0
MTEXT
  5
163
330
1F
100
AcDbEntity
  8
TITLE
100
AcDbMText
 10
36.8872464182
 20
46.1123026415
 30
0.0
 40
0.125
 41
0.0
 71
     2
 72
     1
  1
12
  7
SLDTEXTSTYLE1
 73
     1
 44
1.0
  0
MTEXT
  5
164
330
1F
100
AcDbEntity
  8
TITLE
100
AcDbMText
 10
38.8557503552
 20
0.4140206086
 30
0.0
 40
0.125
 41
0.0
 71
     2
 72
     1
  1
11
  7
SLDTEXTSTYLE1
 73
     1
 44
1.0
  0
MTEXT
  5
165
330
1F
100
AcDbEntity
  8
TITLE
100
AcDbMText
 10
38.8557503552
 20
46.1123026415
 30
0.0
 40
0.125
 41
0.0
 71
     2
 72
     1
  1
11
  7
SLDTEXTSTYLE1
 73
     1
 44
1.0
  0
MTEXT
  5
166
330
1F
100
AcDbEntity
  8
TITLE
100
AcDbMText
 10
40.8242542922
 20
0.4140206086
 30
0.0
 40
0.125
 41
0.0
 71
     2
 72
     1
  1
10
  7
SLDTEXTSTYLE1
 73
     1
 44
1.0
  0
MTEXT
  5
167
330
1F
100
AcDbEntity
  8
TITLE
100
AcDbMText
 10
40.8242542922
 20
46.1123026415
 30
0.0
 40
0.125
 41
0.0
 71
     2
 72
     1
  1
10
  7
SLDTEXTSTYLE1
 73
     1
 44
1.0
  0
MTEXT
  5
168
330
1F
100
AcDbEntity
  8
TITLE
100
AcDbMText
 10
42.7940169099
 20
0.4140206086
 30
0.0
 40
0.125
 41
0.0
 71
     2
 72
     1
  1
9
  7
SLDTEXTSTYLE1
 73
     1
 44
1.0
  0
MTEXT
  5
169
330
1F
100
AcDbEntity
  8
TITLE
100
AcDbMText
 10
42.7940169099
 20
46.1123026415
 30
0.0
 40
0.125
 41
0.0
 71
     2
 72
     1
  1
9
  7
SLDTEXTSTYLE1
 73
     1
 44
1.0
  0
MTEXT
  5
16A
330
1F
100
AcDbEntity
  8
TITLE
100
AcDbMText
 10
44.7625208469
 20
0.4140206086
 30
0.0
 40
0.125
 41
0.0
 71
     2
 72
     1
  1
8
  7
SLDTEXTSTYLE1
 73
     1
 44
1.0
  0
MTEXT
  5
16B
330
1F
100
AcDbEntity
  8
TITLE
100
AcDbMText
 10
44.7625208469
 20
46.1123026415
 30
0.0
 40
0.125
 41
0.0
 71
     2
 72
     1
  1
8
  7
SLDTEXTSTYLE1
 73
     1
 44
1.0
  0
MTEXT
  5
16C
330
1F
100
AcDbEntity
  8
TITLE
100
AcDbMText
 10
46.7310247839
 20
0.4140206086
 30
0.0
 40
0.125
 41
0.0
 71
     2
 72
     1
  1
7
  7
SLDTEXTSTYLE1
 73
     1
 44
1.0
  0
MTEXT
  5
16D
330
1F
100
AcDbEntity
  8
TITLE
100
AcDbMText
 10
46.7310247839
 20
46.1123026415
 30
0.0
 40
0.125
 41
0.0
 71
     2
 72
     1
  1
7
  7
SLDTEXTSTYLE1
 73
     1
 44
1.0
  0
MTEXT
  5
16E
330
1F
100
AcDbEntity
  8
TITLE
100
AcDbMText
 10
48.6995287209
 20
0.4140206086
 30
0.0
 40
0.125
 41
0.0
 71
     2
 72
     1
  1
6
  7
SLDTEXTSTYLE1
 73
     1
 44
1.0
  0
MTEXT
  5
16F
330
1F
100
AcDbEntity
  8
TITLE
100
AcDbMText
 10
48.6995287209
 20
46.1123026415
 30
0.0
 40
0.125
 41
0.0
 71
     2
 72
     1
  1
6
  7
SLDTEXTSTYLE1
 73
     1
 44
1.0
  0
MTEXT
  5
170
330
1F
100
AcDbEntity
  8
TITLE
100
AcDbMText
 10
50.6680326579
 20
0.4140206086
 30
0.0
 40
0.125
 41
0.0
 71
     2
 72
     1
  1
5
  7
SLDTEXTSTYLE1
 73
     1
 44
1.0
  0
MTEXT
  5
171
330
1F
100
AcDbEntity
  8
TITLE
100
AcDbMText
 10
50.6680326579
 20
46.1123026415
 30
0.0
 40
0.125
 41
0.0
 71
     2
 72
     1
  1
5
  7
SLDTEXTSTYLE1
 73
     1
 44
1.0
  0
MTEXT
  5
172
330
1F
100
AcDbEntity
  8
TITLE
100
AcDbMText
 10
52.6365365949
 20
0.4140206086
 30
0.0
 40
0.125
 41
0.0
 71
     2
 72
     1
  1
4
  7
SLDTEXTSTYLE1
 73
     1
 44
1.0
  0
MTEXT
  5
173
330
1F
100
AcDbEntity
  8
TITLE
100
AcDbMText
 10
52.6365365949
 20
46.1123026415
 30
0.0
 40
0.125
 41
0.0
 71
     2
 72
     1
  1
4
  7
SLDTEXTSTYLE1
 73
     1
 44
1.0
  0
MTEXT
  5
174
330
1F
100
AcDbEntity
  8
TITLE
100
AcDbMText
 10
54.6050405319
 20
0.4140206086
 30
0.0
 40
0.125
 41
0.0
 71
     2
 72
     1
  1
3
  7
SLDTEXTSTYLE1
 73
     1
 44
1.0
  0
MTEXT
  5
175
330
1F
100
AcDbEntity
  8
TITLE
100
AcDbMText
 10
54.6050405319
 20
46.1123026415
 30
0.0
 40
0.125
 41
0.0
 71
     2
 72
     1
  1
3
  7
SLDTEXTSTYLE1
 73
     1
 44
1.0
  0
MTEXT
  5
176
330
1F
100
AcDbEntity
  8
TITLE
100
AcDbMText
 10
56.5735444689
 20
0.4140206086
 30
0.0
 40
0.125
 41
0.0
 71
     2
 72
     1
  1
2
  7
SLDTEXTSTYLE1
 73
     1
 44
1.0
  0
MTEXT
  5
177
330
1F
100
AcDbEntity
  8
TITLE
100
AcDbMText
 10
56.5735444689
 20
46.1123026415
 30
0.0
 40
0.125
 41
0.0
 71
     2
 72
     1
  1
2
  7
SLDTEXTSTYLE1
 73
     1
 44
1.0
  0
MTEXT
  5
178
330
1F
100
AcDbEntity
  8
TITLE
100
AcDbMText
 10
58.5282688784
 20
0.4140206086
 30
0.0
 40
0.125
 41
0.0
 71
     2
 72
     1
  1
1
  7
SLDTEXTSTYLE1
 73
     1
 44
1.0
  0
MTEXT
  5
179
330
1F
100
AcDbEntity
  8
TITLE
100
AcDbMText
 10
58.5282688784
 20
46.1123026415
 30
0.0
 40
0.125
 41
0.0
 71
     2
 72
     1
  1
1
  7
SLDTEXTSTYLE1
 73
     1
 44
1.0
  0
LWPOLYLINE
  5
17A
330
1F
100
AcDbEntity
  8
0
  6
Continuous
 62
     7
370
    25
100
AcDbPolyline
 90
        2
 70
   128
 43
0.0
 10
5.6331588646
 20
23.5784948694
 10
5.6331588646
 20
23.5784948694
  0
LWPOLYLINE
  5
17B
330
1F
100
AcDbEntity
  8
0
  6
Continuous
 62
     7
370
    25
100
AcDbPolyline
 90
        2
 70
   128
 43
0.0
 10
23.5694218567
 20
23.5784948694
 10
23.5694218567
 20
23.5784948694
  0
ELLIPSE
  5
17C
330
1F
100
AcDbEntity
  8
0
  6
Continuous
 62
     7
370
    25
100
AcDbEllipse
 10
22.3512903607
 20
25.1976456036
 30
0.0
 11
0.9999999999999964
 21
0.0
 31
0.0
210
0.0
220
0.0
230
1.0
 40
0.298273145
 41
0.0
 42
6.283185307179586
  0
CIRCLE
  5
17D
330
1F
100
AcDbEntity
  8
0
  6
Continuous
 62
     7
370
    25
100
AcDbCircle
 10
22.4762903607
 20
23.6226956036
 30
0.0
 40
0.0999999999999979
  0
CIRCLE
  5
17E
330
1F
100
AcDbEntity
  8
0
  6
Continuous
 62
     7
370
    25
100
AcDbCircle
 10
17.2262903607
 20
23.6226956036
 30
0.0
 40
0.1000000000000014
  0
LINE
  5
17F
330
1F
100
AcDbEntity
  8
0
  6
Continuous
 62
     7
370
    25
100
AcDbLine
 10
23.6012903607
 20
25.1226956036
 30
0.0
 11
23.6012903607
 21
24.4926956036
 31
0.0
  0
LINE
  5
180
330
1F
100
AcDbEntity
  8
0
  6
Continuous
 62
     7
370
    25
100
AcDbLine
 10
5.6012903607
 20
25.1226956036
 30
0.0
 11
5.6012903607
 21
24.4926956036
 31
0.0
  0
ARC
  5
181
330
1F
100
AcDbEntity
  8
0
  6
Continuous
 62
     7
370
    25
100
AcDbCircle
 10
6.1012903607
 20
25.1226956036
 30
0.0
 40
0.5
100
AcDbArc
 50
90.0
 51
180.0
  0
CIRCLE
  5
182
330
1F
100
AcDbEntity
  8
0
  6
Continuous
 62
     7
370
    25
100
AcDbCircle
 10
6.7262903607
 20
23.6226956036
 30
0.0
 40
0.1000000000000005
  0
CIRCLE
  5
183
330
1F
100
AcDbEntity
  8
0
  6
Continuous
 62
     7
370
    25
100
AcDbCircle
 10
11.9762903607
 20
23.6226956036
 30
0.0
 40
0.0999999999999996
  0
LINE
  5
184
330
1F
100
AcDbEntity
  8
0
  6
Continuous
 62
     7
370
    25
100
AcDbLine
 10
23.1012903607
 20
25.6226956036
 30
0.0
 11
6.1012903607
 21
25.6226956036
 31
0.0
  0
ARC
  5
185
330
1F
100
AcDbEntity
  8
0
  6
Continuous
 62
     7
370
    25
100
AcDbCircle
 10
23.1012903607
 20
25.1226956036
 30
0.0
 40
0.5000000000000036
100
AcDbArc
 50
0.0
 51
90.0
  0
LINE
  5
186
330
1F
100
AcDbEntity
  8
0
  6
Continuous
 62
     7
370
    25
100
AcDbLine
 10
5.9001903607
 20
21.6226956036
 30
0.0
 11
23.3023903607
 21
21.6226956036
 31
0.0
  0
LINE
  5
187
330
1F
100
AcDbEntity
  8
0
  6
Continuous
 62
     7
370
    25
100
AcDbLine
 10
23.5375533528
 20
24.4926956036
 30
0.0
 11
23.5375533528
 21
23.5842941353
 31
0.0
  0
LINE
  5
188
330
1F
100
AcDbEntity
  8
0
  6
Continuous
 62
     7
370
    25
100
AcDbLine
 10
23.6012903607
 20
24.4926956036
 30
0.0
 11
23.6012903607
 21
23.5726956036
 31
0.0
  0
LINE
  5
189
330
1F
100
AcDbEntity
  8
0
  6
Continuous
 62
     7
370
    25
100
AcDbLine
 10
23.5375533528
 20
24.4926956036
 30
0.0
 11
23.6012903607
 21
24.4926956036
 31
0.0
  0
LINE
  5
18A
330
1F
100
AcDbEntity
  8
0
  6
Continuous
 62
     7
370
    25
100
AcDbLine
 10
5.6650273685
 20
24.4926956036
 30
0.0
 11
5.6650273685
 21
23.5842941353
 31
0.0
  0
LINE
  5
18B
330
1F
100
AcDbEntity
  8
0
  6
Continuous
 62
     7
370
    25
100
AcDbLine
 10
5.6012903607
 20
24.4926956036
 30
0.0
 11
5.6012903607
 21
23.5726956036
 31
0.0
  0
LINE
  5
18C
330
1F
100
AcDbEntity
  8
0
  6
Continuous
 62
     7
370
    25
100
AcDbLine
 10
5.6650273685
 20
24.4926956036
 30
0.0
 11
5.6012903607
 21
24.4926956036
 31
0.0
  0
LINE
  5
18D
330
1F
100
AcDbEntity
  8
0
  6
Continuous
 62
     7
370
    25
100
AcDbLine
 10
5.8811903607
 20
24.7088585957
 30
0.0
 11
23.3213903607
 21
24.7088585957
 31
0.0
  0
LINE
  5
18E
330
1F
100
AcDbEntity
  8
0
  6
Continuous
 62
     7
370
    25
100
AcDbLine
 10
5.8811903607
 20
24.7725956036
 30
0.0
 11
23.3213903607
 21
24.7725956036
 31
0.0
  0
LINE
  5
18F
330
1F
100
AcDbEntity
  8
0
  6
Continuous
 62
     7
370
    25
100
AcDbLine
 10
23.3213903607
 20
24.7725956036
 30
0.0
 11
23.3213903607
 21
24.7088585957
 31
0.0
  0
LINE
  5
190
330
1F
100
AcDbEntity
  8
0
  6
Continuous
 62
     7
370
    25
100
AcDbLine
 10
5.8811903607
 20
24.7725956036
 30
0.0
 11
5.8811903607
 21
24.7088585957
 31
0.0
  0
LWPOLYLINE
  5
191
330
1F
100
AcDbEntity
  8
0
  6
Continuous
 62
     7
370
    25
100
AcDbPolyline
 90
        9
 70
   128
 43
0.0
 10
23.5375533528
 20
23.5670505732
 10
23.5399791982
 20
23.5571025614
 10
23.5468874215
 20
23.5487764698
 10
23.5572263082
 20
23.543447296
 10
23.5694218567
 20
23.5420337839
 10
23.5816174052
 20
23.5448585536
 10
23.591956292
 20
23.551598985
 10
23.5988645152
 20
23.5613363342
 10
23.6012903607
 20
23.5726956036
  0
LWPOLYLINE
  5
192
330
1F
100
AcDbEntity
  8
0
  6
Continuous
 62
     7
370
    25
100
AcDbPolyline
 90
        9
 70
   128
 43
0.0
 10
5.6650273685
 20
23.5670505732
 10
5.6626015231
 20
23.5571025614
 10
5.6556932998
 20
23.5487764698
 10
5.6453544131
 20
23.543447296
 10
5.6331588646
 20
23.5420337839
 10
5.6209633161
 20
23.5448585536
 10
5.6106244294
 20
23.551598985
 10
5.6037162061
 20
23.5613363342
 10
5.6012903607
 20
23.5726956036
  0
LINE
  5
193
330
1F
100
AcDbEntity
  8
0
  6
Continuous
 62
     7
370
    25
100
AcDbLine
 10
5.6650273685
 20
23.5670505732
 30
0.0
 11
5.6650273685
 21
21.6226956036
 31
0.0
  0
ARC
  5
194
330
1F
100
AcDbEntity
  8
0
  6
Continuous
 62
     7
370
    25
100
AcDbCircle
 10
5.6331588646
 20
21.6261726938
 30
0.0
 40
0.0320576309021605
100
AcDbArc
 50
186.2267637666
 51
353.7732362334
  0
LINE
  5
195
330
1F
100
AcDbEntity
  8
0
  6
Continuous
 62
     7
370
    25
100
AcDbLine
 10
5.6012903607
 20
23.5726956036
 30
0.0
 11
5.6012903607
 21
21.6226956036
 31
0.0
  0
ARC
  5
196
330
1F
100
AcDbEntity
  8
0
  6
Continuous
 62
     7
370
    25
100
AcDbCircle
 10
23.5694218567
 20
21.6261726938
 30
0.0
 40
0.0320576309021614
100
AcDbArc
 50
186.2267637666
 51
353.7732362334
  0
LINE
  5
197
330
1F
100
AcDbEntity
  8
0
  6
Continuous
 62
     7
370
    25
100
AcDbLine
 10
23.5375533528
 20
23.5670505732
 30
0.0
 11
23.5375533528
 21
21.6226956036
 31
0.0
  0
LINE
  5
198
330
1F
100
AcDbEntity
  8
0
  6
Continuous
 62
     7
370
    25
100
AcDbLine
 10
23.6012903607
 20
23.5726956036
 30
0.0
 11
23.6012903607
 21
21.6226956036
 31
0.0
  0
ARC
  5
199
330
1F
100
AcDbEntity
  8
0
  6
Continuous
 62
     7
370
    25
100
AcDbCircle
 10
23.3213903607
 20
24.4926956036
 30
0.0
 40
0.2799000000000014
100
AcDbArc
 50
360.0
 51
90.0
  0
ARC
  5
19A
330
1F
100
AcDbEntity
  8
0
  6
Continuous
 62
     7
370
    25
100
AcDbCircle
 10
23.3213903607
 20
24.4926956036
 30
0.0
 40
0.25
100
AcDbArc
 50
360.0
 51
90.0
  0
ARC
  5
19B
330
1F
100
AcDbEntity
  8
0
  6
Continuous
 62
     7
370
    25
100
AcDbCircle
 10
5.8811903607
 20
24.4926956036
 30
0.0
 40
0.2798999999999996
100
AcDbArc
 50
90.0
 51
180.0
  0
ARC
  5
19C
330
1F
100
AcDbEntity
  8
0
  6
Continuous
 62
     7
370
    25
100
AcDbCircle
 10
5.8811903607
 20
24.4926956036
 30
0.0
 40
0.25
100
AcDbArc
 50
90.0
 51
180.0
  0
LINE
  5
19D
330
1F
100
AcDbEntity
  8
0
  6
Continuous
 62
     7
370
    25
100
AcDbLine
 10
5.6650273685
 20
23.5670505732
 30
0.0
 11
5.6650273685
 21
23.5842941353
 31
0.0
  0
LINE
  5
19E
330
1F
100
AcDbEntity
  8
0
  6
Continuous
 62
     7
370
    25
100
AcDbLine
 10
23.5375533528
 20
23.5670505732
 30
0.0
 11
23.5375533528
 21
23.5842941353
 31
0.0
  0
LINE
  5
19F
330
1F
100
AcDbEntity
  8
0
  6
Continuous
 62
     7
370
    25
100
AcDbLine
 10
5.9008630065
 20
24.200786847
 30
0.0
 11
5.6650273685
 21
24.200786847
 31
0.0
  0
LINE
  5
1A0
330
1F
100
AcDbEntity
  8
0
  6
Continuous
 62
     7
370
    25
100
AcDbLine
 10
5.9008630065
 20
24.200786847
 30
0.0
 11
6.1001903607
 21
24.0014594929
 31
0.0
  0
LINE
  5
1A1
330
1F
100
AcDbEntity
  8
0
  6
Continuous
 62
     7
370
    25
100
AcDbLine
 10
6.1001903607
 20
21.8226956036
 30
0.0
 11
6.1001903607
 21
24.0014594929
 31
0.0
  0
LINE
  5
1A2
330
1F
100
AcDbEntity
  8
0
  6
Continuous
 62
     7
370
    25
100
AcDbLine
 10
5.6650273685
 20
21.6226956036
 30
0.0
 11
5.9001903607
 21
21.6226956036
 31
0.0
  0
ARC
  5
1A3
330
1F
100
AcDbEntity
  8
0
  6
Continuous
 62
     7
370
    25
100
AcDbCircle
 10
5.9001903607
 20
21.8226956036
 30
0.0
 40
0.2000000000000002
100
AcDbArc
 50
270.0
 51
0.0
  0
ARC
  5
1A4
330
1F
100
AcDbEntity
  8
0
  6
Continuous
 62
     7
370
    25
100
AcDbCircle
 10
23.3023903607
 20
21.8226956036
 30
0.0
 40
0.2000000000000028
100
AcDbArc
 50
180.0
 51
270.0
  0
LINE
  5
1A5
330
1F
100
AcDbEntity
  8
0
  6
Continuous
 62
     7
370
    25
100
AcDbLine
 10
23.1023903607
 20
21.8226956036
 30
0.0
 11
23.1023903607
 21
24.0014594929
 31
0.0
  0
LINE
  5
1A6
330
1F
100
AcDbEntity
  8
0
  6
Continuous
 62
     7
370
    25
100
AcDbLine
 10
23.3017177148
 20
24.200786847
 30
0.0
 11
23.1023903607
 21
24.0014594929
 31
0.0
  0
LINE
  5
1A7
330
1F
100
AcDbEntity
  8
0
  6
Continuous
 62
     7
370
    25
100
AcDbLine
 10
23.3017177148
 20
24.200786847
 30
0.0
 11
23.5375533528
 21
24.200786847
 31
0.0
  0
LINE
  5
1A8
330
1F
100
AcDbEntity
  8
0
  6
Continuous
 62
     7
370
    25
100
AcDbLine
 10
23.5375533528
 20
21.6226956036
 30
0.0
 11
23.3023903607
 21
21.6226956036
 31
0.0
  0
LINE
  5
1A9
330
1F
100
AcDbEntity
  8
0
  6
Continuous
 62
     7
370
    25
100
AcDbLine
 10
22.8301542499
 20
24.2736956036
 30
0.0
 11
23.029481604
 21
24.4730229578
 31
0.0
  0
LINE
  5
1AA
330
1F
100
AcDbEntity
  8
0
  6
Continuous
 62
     7
370
    25
100
AcDbLine
 10
22.8301542499
 20
24.2736956036
 30
0.0
 11
6.3724264714
 21
24.2736956036
 31
0.0
  0
LINE
  5
1AB
330
1F
100
AcDbEntity
  8
0
  6
Continuous
 62
     7
370
    25
100
AcDbLine
 10
6.3724264714
 20
24.2736956036
 30
0.0
 11
6.1730991173
 21
24.4730229578
 31
0.0
  0
LINE
  5
1AC
330
1F
100
AcDbEntity
  8
0
  6
Continuous
 62
     7
370
    25
100
AcDbLine
 10
6.1730991173
 20
24.4730229578
 30
0.0
 11
6.1730991173
 21
24.7088585957
 31
0.0
  0
LINE
  5
1AD
330
1F
100
AcDbEntity
  8
0
  6
Continuous
 62
     7
370
    25
100
AcDbLine
 10
23.029481604
 20
24.4730229578
 30
0.0
 11
23.029481604
 21
24.7088585957
 31
0.0
  0
DIMENSION
  5
1AE
330
1F
100
AcDbEntity
  8
DIMS
100
AcDbDimension
  2
_D
 10
5.6012903607
 20
27.4199396981
 30
0.0
 11
14.6012903607
 21
27.4199396981
 31
0.0
 70
   160
  1
<>
 71
     2
 42
-1.0
  3
SLDDIMSTYLE0
100
AcDbAlignedDimension
 13
23.6012903607
 23
25.1226956036
 33
0.0
 14
5.6012903607
 24
25.1226956036
 34
0.0
100
AcDbRotatedDimension
  0
DIMENSION
  5
1C0
330
1F
100
AcDbEntity
  8
DIMS
100
AcDbDimension
  2
_D_1
 10
11.9762903607
 20
20.7287145668
 30
0.0
 11
9.3512903607
 21
20.7287145668
 31
0.0
 70
   160
  1
<>
 71
     2
 42
-1.0
  3
SLDDIMSTYLE1
100
AcDbAlignedDimension
 13
6.7262903607
 23
23.6226956036
 33
0.0
 14
11.9762903607
 24
23.6226956036
 34
0.0
 50
0.0
100
AcDbRotatedDimension
  0
DIMENSION
  5
1D0
330
1F
100
AcDbEntity
  8
DIMS
100
AcDbDimension
  2
_D_2
 10
17.2262903607
 20
20.7287145668
 30
0.0
 11
14.6012903607
 21
20.7287145668
 31
0.0
 70
   160
  1
<>
 71
     2
 42
-1.0
  3
SLDDIMSTYLE1
100
AcDbAlignedDimension
 13
11.9762903607
 23
23.6226956036
 33
0.0
 14
17.2262903607
 24
23.6226956036
 34
0.0
100
AcDbRotatedDimension
  0
DIMENSION
  5
1DF
330
1F
100
AcDbEntity
  8
DIMS
100
AcDbDimension
  2
_D_3
 10
17.2262903607
 20
20.7287145668
 30
0.0
 11
19.8512903607
 21
20.7287145668
 31
0.0
 70
   160
  1
<>
 71
     2
 42
-1.0
  3
SLDDIMSTYLE1
100
AcDbAlignedDimension
 13
22.4762903607
 23
23.6226956036
 33
0.0
 14
17.2262903607
 24
23.6226956036
 34
0.0
 50
0.0
100
AcDbRotatedDimension
  0
DIMENSION
  5
1EE
330
1F
100
AcDbEntity
  8
DIMS
100
AcDbDimension
  2
_D_4
 10
24.2174320929
 20
23.6226956036
 30
0.0
 11
24.2174320929
 21
24.640826631
 31
0.0
 70
   160
  1
<>
 71
     2
 42
-1.0
  3
SLDDIMSTYLE0
100
AcDbAlignedDimension
 13
23.1012903607
 23
25.6226956036
 33
0.0
 14
22.4762903607
 24
23.6226956036
 34
0.0
 50
90.0
100
AcDbRotatedDimension
  0
DIMENSION
  5
1F9
330
1F
100
AcDbEntity
  8
DIMS
100
AcDbDimension
  2
_D_5
 10
6.6762903607
 20
23.5360930632
 30
0.0
 11
12.5927223446
 21
26.4183183793
 31
0.0
 70
   163
  1
<> mounting hole (4)
 71
     1
 42
-1.0
  3
SLDDIMSTYLE2
100
AcDbDiametricDimension
 15
6.7762903607
 25
23.709298144
 35
0.0
 40
0.0
  0
MTEXT
  5
207
330
1F
100
AcDbEntity
  8
NOTES
100
AcDbMText
 10
6.6992038779
 20
20.1576158512
 30
0.0
 40
0.5
 41
0.0
 71
     1
 72
     1
  1
Front view
  7
SLDTEXTSTYLE1
 73
     1
 44
1.0
  0
ARC
  5
208
330
1F
100
AcDbEntity
  8
0
  6
Continuous
 62
     7
370
    25
100
AcDbCircle
 10
34.0033523536
 20
25.4719927609
 30
0.0
 40
0.0250000000000044
100
AcDbArc
 50
107.3456001342
 51
159.9806016069
  0
ARC
  5
209
330
1F
100
AcDbEntity
  8
0
  6
Continuous
 62
     7
370
    25
100
AcDbCircle
 10
34.0033523532
 20
24.9232984298
 30
0.0
 40
0.024999999999996
100
AcDbArc
 50
201.123043372
 51
252.2895371294
  0
ARC
  5
20A
330
1F
100
AcDbEntity
  8
0
  6
Continuous
 62
     7
370
    25
100
AcDbCircle
 10
34.6974939214
 20
25.1976456036
 30
0.0
 40
0.7713905752349212
100
AcDbArc
 50
158.4874397901
 51
201.5561561264
  0
LINE
  5
20B
330
1F
100
AcDbEntity
  8
0
  6
Continuous
 62
     7
370
    25
100
AcDbLine
 10
30.0856589294
 20
23.5420337839
 30
0.0
 11
33.5805928765
 21
21.5948562991
 31
0.0
  0
LINE
  5
20C
330
1F
100
AcDbEntity
  8
0
  6
Continuous
 62
     7
370
    25
100
AcDbLine
 10
30.0642348422
 20
24.4926956036
 30
0.0
 11
30.0642348422
 21
23.5784948694
 31
0.0
  0
LINE
  5
20D
330
1F
100
AcDbEntity
  8
0
  6
Continuous
 62
     7
370
    25
100
AcDbLine
 10
34.0260033461
 20
25.6226956036
 30
0.0
 11
33.9961033461
 21
25.6226956036
 31
0.0
  0
LINE
  5
20E
330
1F
100
AcDbEntity
  8
0
  6
Continuous
 62
     7
370
    25
100
AcDbLine
 10
33.9961033461
 20
25.6226956036
 30
0.0
 11
33.9961033461
 21
25.1226956036
 31
0.0
  0
LINE
  5
20F
330
1F
100
AcDbEntity
  8
0
  6
Continuous
 62
     7
370
    25
100
AcDbLine
 10
34.0260033461
 20
25.1226956036
 30
0.0
 11
34.0260033461
 21
25.6226956036
 31
0.0
  0
LINE
  5
210
330
1F
100
AcDbEntity
  8
0
  6
Continuous
 62
     7
370
    25
100
AcDbLine
 10
33.9961033461
 20
21.6226956036
 30
0.0
 11
34.0260033461
 21
21.6226956036
 31
0.0
  0
LINE
  5
211
330
1F
100
AcDbEntity
  8
0
  6
Continuous
 62
     7
370
    25
100
AcDbLine
 10
33.9961033461
 20
25.1226956036
 30
0.0
 11
33.9961033461
 21
21.6226956036
 31
0.0
  0
LINE
  5
212
330
1F
100
AcDbEntity
  8
0
  6
Continuous
 62
     7
370
    25
100
AcDbLine
 10
34.0260033461
 20
25.1226956036
 30
0.0
 11
34.0260033461
 21
21.6226956036
 31
0.0
  0
LINE
  5
213
330
1F
100
AcDbEntity
  8
0
  6
Continuous
 62
     7
370
    25
100
AcDbLine
 10
33.9961033461
 20
24.230786847
 30
0.0
 11
33.9961033461
 21
24.4926956036
 31
0.0
  0
LINE
  5
214
330
1F
100
AcDbEntity
  8
0
  6
Continuous
 62
     7
370
    25
100
AcDbLine
 10
33.5961033461
 20
21.6226956036
 30
0.0
 11
33.9372033461
 21
21.6226956036
 31
0.0
  0
ARC
  5
215
330
1F
100
AcDbEntity
  8
0
  6
Continuous
 62
     7
370
    25
100
AcDbCircle
 10
30.183760702
 20
23.5257268822
 30
0.0
 40
0.0994478397751702
100
AcDbArc
 50
151.8166240314
 51
170.5623384079
  0
LINE
  5
216
330
1F
100
AcDbEntity
  8
0
  6
Continuous
 62
     7
370
    25
100
AcDbLine
 10
33.5961033461
 20
21.6226956036
 30
0.0
 11
33.5805928765
 21
21.5948562991
 31
0.0
  0
LINE
  5
217
330
1F
100
AcDbEntity
  8
0
  6
Continuous
 62
     7
370
    25
100
AcDbLine
 10
33.9372033461
 20
21.6226956036
 30
0.0
 11
33.9961033461
 21
21.6226956036
 31
0.0
  0
LINE
  5
218
330
1F
100
AcDbEntity
  8
0
  6
Continuous
 62
     7
370
    25
100
AcDbLine
 10
30.0961033461
 20
24.7725956036
 30
0.0
 11
30.0961033461
 21
24.4926956036
 31
0.0
  0
LINE
  5
219
330
1F
100
AcDbEntity
  8
0
  6
Continuous
 62
     7
370
    25
100
AcDbLine
 10
30.0961033461
 20
24.7725956036
 30
0.0
 11
33.9961033461
 21
24.7725956036
 31
0.0
  0
ARC
  5
21A
330
1F
100
AcDbEntity
  8
0
  6
Continuous
 62
     7
370
    25
100
AcDbCircle
 10
30.0977359995
 20
23.6721300407
 30
0.0
 40
0.0994478397755922
100
AcDbArc
 50
250.3136080974
 51
269.0593224737
  0
LINE
  5
21B
330
1F
100
AcDbEntity
  8
0
  6
Continuous
 62
     7
370
    25
100
AcDbLine
 10
30.0642348422
 20
24.4926956036
 30
0.0
 11
30.0961033461
 21
24.4926956036
 31
0.0
  0
ARC
  5
21C
330
1F
100
AcDbEntity
  8
0
  6
Continuous
 62
     7
370
    25
100
AcDbCircle
 10
30.0961033461
 20
24.7407270997
 30
0.0
 40
0.0019685039370074
100
AcDbArc
 50
90.0
 51
270.0
  0
ARC
  5
21D
330
1F
100
AcDbEntity
  8
0
  6
Continuous
 62
     7
370
    25
100
AcDbCircle
 10
30.0961033461
 20
24.7407270997
 30
0.0
 40
0.0318685039370123
100
AcDbArc
 50
90.0
 51
270.0
  0
DIMENSION
  5
21E
330
1F
100
AcDbEntity
  8
DIMS
100
AcDbDimension
  2
_D_6
 10
35.1389756259
 20
21.5948562991
 30
0.0
 11
35.1389756259
 21
23.6823759608
 31
0.0
 70
   160
  1
<>
 71
     2
 42
-1.0
  3
SLDDIMSTYLE0
100
AcDbAlignedDimension
 13
34.0260033461
 23
25.6226956036
 33
0.0
 14
33.5805928765
 24
21.5948562991
 34
0.0
 50
90.0
100
AcDbRotatedDimension
  0
DIMENSION
  5
229
330
1F
100
AcDbEntity
  8
DIMS
100
AcDbDimension
  2
_D_7
 10
34.0260033461
 20
26.4888373359
 30
0.0
 11
32.0451190942
 21
26.4888373359
 31
0.0
 70
   160
  1
<>
 71
     2
 42
-1.0
  3
SLDDIMSTYLE1
100
AcDbAlignedDimension
 13
30.0642348422
 23
24.4926956036
 33
0.0
 14
34.0260033461
 24
25.6226956036
 34
0.0
100
AcDbRotatedDimension
  0
MTEXT
  5
238
330
1F
100
AcDbEntity
  8
NOTES
100
AcDbMText
 10
30.4539411573
 20
21.2794867345
 30
0.0
 40
0.5
 41
0.0
 71
     1
 72
     1
  1
Side view
  7
SLDTEXTSTYLE1
 73
     1
 44
1.0
  0
LINE
  5
239
330
1F
100
AcDbEntity
  8
0
  6
Continuous
 62
     7
370
    25
100
AcDbLine
 10
42.9885136461
 20
28.6901270097
 30
0.0
 11
42.9673711534
 21
28.6779217085
 31
0.0
  0
LINE
  5
23A
330
1F
100
AcDbEntity
  8
0
  6
Continuous
 62
     7
370
    25
100
AcDbLine
 10
52.7796001215
 20
19.0079186218
 30
0.0
 11
52.7796001215
 21
18.2638040807
 31
0.0
  0
LINE
  5
23B
330
1F
100
AcDbEntity
  8
0
  6
Continuous
 62
     7
370
    25
100
AcDbLine
 10
40.2880672303
 20
26.403254618
 30
0.0
 11
52.6201509156
 21
19.2840942421
 31
0.0
  0
LINE
  5
23C
330
1F
100
AcDbEntity
  8
0
  6
Continuous
 62
     7
370
    25
100
AcDbLine
 10
52.8121074581
 20
18.2247208539
 30
0.0
 11
55.2842410622
 21
18.061361535
 31
0.0
  0
LINE
  5
23D
330
1F
100
AcDbEntity
  8
0
  6
Continuous
 62
     7
370
    25
100
AcDbLine
 10
55.5673223285
 20
18.2434334572
 30
0.0
 11
55.5673223285
 21
20.3485501742
 31
0.0
  0
LINE
  5
23E
330
1F
100
AcDbEntity
  8
0
  6
Continuous
 62
     7
370
    25
100
AcDbLine
 10
55.1751886752
 20
21.0277428195
 30
0.0
 11
43.2559263125
 21
27.9085865186
 31
0.0
  0
LINE
  5
23F
330
1F
100
AcDbEntity
  8
0
  6
Continuous
 62
     7
370
    25
100
AcDbLine
 10
42.9217780074
 20
28.0627293551
 30
0.0
 11
40.1640615607
 21
26.470733537
 31
0.0
  0
LINE
  5
240
330
1F
100
AcDbEntity
  8
0
  6
Continuous
 62
     7
370
    25
100
AcDbLine
 10
40.0967469306
 20
26.3295739231
 30
0.0
 11
40.0967469306
 21
25.5807240448
 31
0.0
  0
LINE
  5
241
330
1F
100
AcDbEntity
  8
0
  6
Continuous
 62
     7
370
    25
100
AcDbLine
 10
40.1309384879
 20
25.5462648614
 30
0.0
 11
41.9847814056
 21
25.4237623737
 31
0.0
  0
LWPOLYLINE
  5
242
330
1F
100
AcDbEntity
  8
0
  6
Continuous
 62
     7
370
    25
100
AcDbPolyline
 90
       25
 70
   128
 43
0.0
 10
54.0051878908
 20
22.0683680793
 10
54.007661954
 20
22.0484365038
 10
54.0115987651
 20
22.0347531323
 10
54.0170200517
 20
22.0207371435
 10
54.0267693613
 20
22.0005710538
 10
54.0381696846
 20
21.980749408
 10
54.0604957645
 20
21.947571926
 10
54.0849178437
 20
21.9159220365
 10
54.1079335513
 20
21.8887702436
 10
54.1316547234
 20
21.8626709601
 10
54.1807480368
 20
21.8129335564
 10
54.2300256991
 20
21.767156668
 10
54.2801417255
 20
21.7237242934
 10
54.3305213033
 20
21.6825761532
 10
54.3813151536
 20
21.643215566
 10
54.4325240316
 20
21.6054058644
 10
54.483967597
 20
21.5691140943
 10
54.5867306453
 20
21.5011707158
 10
54.6900078549
 20
21.4385015241
 10
54.7931316591
 20
21.3813217947
 10
54.896322485
 20
21.329656142
 10
54.9477154148
 20
21.3061558367
 10
54.9990022394
 20
21.2843356152
 10
55.0502199099
 20
21.2643479666
 10
55.1012170915
 20
21.2464888865
  0
ELLIPSE
  5
243
330
1F
100
AcDbEntity
  8
0
  6
Continuous
 62
     7
370
    25
100
AcDbEllipse
 10
54.7078360308
 20
21.6727811026
 30
0.0
 11
0.698276383504151
 21
-0.4414766190748161
 31
0.0
210
0.0
220
0.0
230
1.0
 40
0.2523363384
 41
0.1582033314706864
 42
3.402888610208821
  0
ELLIPSE
  5
244
330
1F
100
AcDbEntity
  8
0
  6
Continuous
 62
     7
370
    25
100
AcDbEllipse
 10
54.7078360308
 20
21.6727811026
 30
0.0
 11
0.698276383504151
 21
-0.4414766190748161
 31
0.0
210
0.0
220
0.0
230
1.0
 40
0.2523363384
 41
5.29434814650689
 42
6.441388638650301
  0
ARC
  5
245
330
1F
100
AcDbEntity
  8
0
  6
Continuous
 62
     7
370
    25
100
AcDbCircle
 10
54.8273556573
 20
21.0682689129
 30
0.0
 40
0.7650783527670234
100
AcDbArc
 50
2.4763980378
 51
57.5236021078
  0
LINE
  5
246
330
1F
100
AcDbEntity
  8
0
  6
Continuous
 62
     7
370
    25
100
AcDbLine
 10
55.5917195073
 20
21.1013262988
 30
0.0
 11
55.5917195073
 21
18.2434334572
 31
0.0
  0
LINE
  5
247
330
1F
100
AcDbEntity
  8
0
  6
Continuous
 62
     7
370
    25
100
AcDbLine
 10
55.5673223285
 20
18.2575176488
 30
0.0
 11
55.5917195073
 21
18.2434334572
 31
0.0
  0
LINE
  5
248
330
1F
100
AcDbEntity
  8
0
  6
Continuous
 62
     7
370
    25
100
AcDbLine
 10
42.8637974459
 20
28.4489993052
 30
0.0
 11
42.8637974459
 21
28.0292578894
 31
0.0
  0
LWPOLYLINE
  5
249
330
1F
100
AcDbEntity
  8
0
  6
Continuous
 62
     7
370
    25
100
AcDbPolyline
 90
       10
 70
   128
 43
0.0
 10
43.2173508365
 20
28.6531676832
 10
43.1559569345
 20
28.6824070836
 10
43.0964284552
 20
28.6983529699
 10
43.0405741412
 20
28.7005208344
 10
42.9900910977
 20
28.6888448077
 10
42.9465132263
 20
28.66367966
 10
42.9111646187
 20
28.6257900214
 10
42.8851193243
 20
28.5763271496
 10
42.8691687164
 20
28.5167939488
 10
42.8637974459
 20
28.4489993052
  0
LINE
  5
24A
330
1F
100
AcDbEntity
  8
0
  6
Continuous
 62
     7
370
    25
100
AcDbLine
 10
55.2381661167
 20
21.7136987327
 30
0.0
 11
43.2173508365
 21
28.6531676832
 31
0.0
  0
ARC
  5
24B
330
1F
100
AcDbEntity
  8
0
  6
Continuous
 62
     7
370
    25
100
AcDbCircle
 10
54.8485005107
 20
21.080475577
 30
0.0
 40
0.7650759354637112
100
AcDbArc
 50
2.476303705
 51
57.5236964406
  0
LINE
  5
24C
330
1F
100
AcDbEntity
  8
0
  6
Continuous
 62
     7
370
    25
100
AcDbLine
 10
55.5917195073
 20
18.2434334572
 30
0.0
 11
55.612862
 21
18.2556387585
 31
0.0
  0
LINE
  5
24D
330
1F
100
AcDbEntity
  8
0
  6
Continuous
 62
     7
370
    25
100
AcDbLine
 10
55.612862
 20
21.1135316001
 30
0.0
 11
55.612862
 21
18.2556387585
 31
0.0
  0
LINE
  5
24E
330
1F
100
AcDbEntity
  8
0
  6
Continuous
 62
     7
370
    25
100
AcDbLine
 10
43.2384933293
 20
28.6653729845
 30
0.0
 11
43.2173508365
 21
28.6531676832
 31
0.0
  0
LINE
  5
24F
330
1F
100
AcDbEntity
  8
0
  6
Continuous
 62
     7
370
    25
100
AcDbLine
 10
55.2593086095
 20
21.725904034
 30
0.0
 11
43.2384933293
 21
28.6653729845
 31
0.0
  0
ARC
  5
250
330
1F
100
AcDbEntity
  8
0
  6
Continuous
 62
     7
370
    25
100
AcDbCircle
 10
43.0920690773
 20
28.4612936001
 30
0.0
 40
0.2511741561229565
100
AcDbArc
 50
54.3410619984
 51
114.3484795725
  0
LINE
  5
251
330
1F
100
AcDbEntity
  8
0
  6
Continuous
 62
     7
370
    25
100
AcDbLine
 10
52.6360838726
 20
19.3133012875
 30
0.0
 11
52.6360838726
 21
19.3377158578
 31
0.0
  0
ARC
  5
252
330
1F
100
AcDbEntity
  8
0
  6
Continuous
 62
     7
370
    25
100
AcDbCircle
 10
52.4042960739
 20
18.9753557167
 30
0.0
 40
0.4301516656394281
100
AcDbArc
 50
2.6054784857
 51
57.39452166
  0
LINE
  5
253
330
1F
100
AcDbEntity
  8
0
  6
Continuous
 62
     7
370
    25
100
AcDbLine
 10
52.8128605679
 20
19.0071150705
 30
0.0
 11
52.8340030607
 21
18.9949097693
 31
0.0
  0
ARC
  5
254
330
1F
100
AcDbEntity
  8
0
  6
Continuous
 62
     7
370
    25
100
AcDbCircle
 10
52.4290565426
 20
18.9896498575
 30
0.0
 40
0.3842012018930139
100
AcDbArc
 50
2.6054784857
 51
57.39452166
  0
ARC
  5
255
330
1F
100
AcDbEntity
  8
0
  6
Continuous
 62
     7
370
    25
100
AcDbCircle
 10
55.1620125205
 20
20.5673515348
 30
0.0
 40
0.4301516656394038
100
AcDbArc
 50
2.6054784857
 51
57.39452166
  0
LINE
  5
256
330
1F
100
AcDbEntity
  8
0
  6
Continuous
 62
     7
370
    25
100
AcDbLine
 10
52.8340030607
 20
18.9949097693
 30
0.0
 11
55.5917195073
 21
20.5869055873
 31
0.0
  0
LWPOLYLINE
  5
257
330
1F
100
AcDbEntity
  8
0
  6
Continuous
 62
     7
370
    25
100
AcDbPolyline
 90
        7
 70
   128
 43
0.0
 10
52.8340030607
 20
18.2436922223
 10
52.8236641739
 20
18.2408880242
 10
52.8114686254
 20
18.2406714478
 10
52.799273077
 20
18.2432556928
 10
52.7889341902
 20
18.2484275596
 10
52.7820259669
 20
18.2555799062
 10
52.7796001215
 20
18.2638040807
  0
LWPOLYLINE
  5
258
330
1F
100
AcDbEntity
  8
0
  6
Continuous
 62
     7
370
    25
100
AcDbPolyline
 90
        9
 70
   128
 43
0.0
 10
52.7889341902
 20
19.0209274744
 10
52.7820259669
 20
19.0149589621
 10
52.7796001215
 20
19.0079186218
 10
52.7820259669
 20
19.0008782816
 10
52.7889341902
 20
18.9949097693
 10
52.799273077
 20
18.9909217369
 10
52.8114686254
 20
18.9895213261
 10
52.8236641739
 20
18.9909217369
 10
52.8340030607
 20
18.9949097693
  0
LWPOLYLINE
  5
259
330
1F
100
AcDbEntity
  8
0
  6
Continuous
 62
     7
370
    25
100
AcDbPolyline
 90
        9
 70
   128
 43
0.0
 10
52.8100766829
 20
19.0087221731
 10
52.8096499649
 20
19.0083535007
 10
52.8095001215
 20
19.0079186218
 10
52.8096499649
 20
19.007483743
 10
52.8100766829
 20
19.0071150705
 10
52.8107153116
 20
19.0068687315
 10
52.8114686254
 20
19.0067822287
 10
52.8122219393
 20
19.0068687315
 10
52.8128605679
 20
19.0071150705
  0
LWPOLYLINE
  5
25A
330
1F
100
AcDbEntity
  8
0
  6
Continuous
 62
     7
370
    25
100
AcDbPolyline
 90
        9
 70
   128
 43
0.0
 10
52.6360838726
 20
19.3377158578
 10
52.6274603176
 20
19.3307567836
 10
52.6201496206
 20
19.3208955619
 10
52.6152647691
 20
19.3096334741
 10
52.6135494374
 20
19.2986850711
 10
52.6152647691
 20
19.289717148
 10
52.6201496206
 20
19.2840949898
 10
52.6274603176
 20
19.2826745191
 10
52.6360838726
 20
19.2856719896
  0
LWPOLYLINE
  5
25B
330
1F
100
AcDbEntity
  8
0
  6
Continuous
 62
     7
370
    25
100
AcDbPolyline
 90
        9
 70
   128
 43
0.0
 10
52.6360838726
 20
19.3133012875
 10
52.6355511993
 20
19.3128714284
 10
52.6350996206
 20
19.312262305
 10
52.6347978854
 20
19.3115666506
 10
52.6346919301
 20
19.3108903724
 10
52.6347978854
 20
19.3103364276
 10
52.6350996206
 20
19.3099891493
 10
52.6355511993
 20
19.3099014074
 10
52.6360838726
 20
19.3100865599
  0
LWPOLYLINE
  5
25C
330
1F
100
AcDbEntity
  8
0
  6
Continuous
 62
     7
370
    25
100
AcDbPolyline
 90
        8
 70
   128
 43
0.0
 10
40.3040001874
 20
26.4568762337
 10
40.2953766323
 20
26.4499171595
 10
40.2880659354
 20
26.4400559378
 10
40.2831810839
 20
26.42879385
 10
40.2814657521
 20
26.417845447
 10
40.2831810839
 20
26.4088775239
 10
40.2880659354
 20
26.4032553657
 10
40.2880672303
 20
26.403254618
  0
LINE
  5
25D
330
1F
100
AcDbEntity
  8
0
  6
Continuous
 62
     7
370
    25
100
AcDbLine
 10
55.3088767948
 20
18.0801518349
 30
0.0
 11
55.5500709179
 21
18.2193902383
 31
0.0
  0
LINE
  5
25E
330
1F
100
AcDbEntity
  8
0
  6
Continuous
 62
     7
370
    25
100
AcDbLine
 10
55.5917195073
 20
20.3730463986
 30
0.0
 11
55.5917195073
 21
20.5869055873
 31
0.0
  0
LINE
  5
25F
330
1F
100
AcDbEntity
  8
0
  6
Continuous
 62
     7
370
    25
100
AcDbLine
 10
55.5917195073
 20
20.3730463986
 30
0.0
 11
55.5500709179
 21
20.3490031797
 31
0.0
  0
LINE
  5
260
330
1F
100
AcDbEntity
  8
0
  6
Continuous
 62
     7
370
    25
100
AcDbLine
 10
55.5500709179
 20
20.3245069553
 30
0.0
 11
55.5500709179
 21
20.3490031797
 31
0.0
  0
LINE
  5
261
330
1F
100
AcDbEntity
  8
0
  6
Continuous
 62
     7
370
    25
100
AcDbLine
 10
55.3938003192
 20
20.9297116758
 30
0.0
 11
55.2086028614
 21
21.0366238926
 31
0.0
  0
LINE
  5
262
330
1F
100
AcDbEntity
  8
0
  6
Continuous
 62
     7
370
    25
100
AcDbLine
 10
43.061716634
 20
28.0488720517
 30
0.0
 11
43.2469140918
 21
27.941959835
 31
0.0
  0
LINE
  5
263
330
1F
100
AcDbEntity
  8
0
  6
Continuous
 62
     7
370
    25
100
AcDbLine
 10
43.2052655024
 20
27.9179166161
 30
0.0
 11
43.2469140918
 21
27.941959835
 31
0.0
  0
LINE
  5
264
330
1F
100
AcDbEntity
  8
0
  6
Continuous
 62
     7
370
    25
100
AcDbLine
 10
43.2052655024
 20
27.9179166161
 30
0.0
 11
43.2264787059
 21
27.9056704944
 31
0.0
  0
LINE
  5
265
330
1F
100
AcDbEntity
  8
0
  6
Continuous
 62
     7
370
    25
100
AcDbLine
 10
55.166954272
 20
21.0125806737
 30
0.0
 11
55.1457410685
 21
21.0248267953
 31
0.0
  0
LINE
  5
266
330
1F
100
AcDbEntity
  8
0
  6
Continuous
 62
     7
370
    25
100
AcDbLine
 10
55.166954272
 20
21.0125806737
 30
0.0
 11
55.2086028614
 21
21.0366238926
 31
0.0
  0
LINE
  5
267
330
1F
100
AcDbEntity
  8
0
  6
Continuous
 62
     7
370
    25
100
AcDbLine
 10
52.8128389917
 20
19.01031682
 30
0.0
 11
52.8100766829
 21
19.0087221731
 31
0.0
  0
LINE
  5
268
330
1F
100
AcDbEntity
  8
0
  6
Continuous
 62
     7
370
    25
100
AcDbLine
 10
52.8114245373
 20
19.0339108754
 30
0.0
 11
52.7889341902
 21
19.0209274744
 31
0.0
  0
LINE
  5
269
330
1F
100
AcDbEntity
  8
0
  6
Continuous
 62
     7
370
    25
100
AcDbLine
 10
52.6360838726
 20
19.3100865599
 30
0.0
 11
52.6388466166
 21
19.311681458
 31
0.0
  0
LINE
  5
26A
330
1F
100
AcDbEntity
  8
0
  6
Continuous
 62
     7
370
    25
100
AcDbLine
 10
52.6360838726
 20
19.2856719896
 30
0.0
 11
52.6585770441
 21
19.2986570211
 31
0.0
  0
ARC
  5
26B
330
1F
100
AcDbEntity
  8
0
  6
Continuous
 62
     7
370
    25
100
AcDbCircle
 10
55.2844734602
 20
18.0866017949
 30
0.0
 40
0.0252413297109716
100
AcDbArc
 50
269.4724678871
 51
345.1949065587
  0
LWPOLYLINE
  5
26C
330
1F
100
AcDbEntity
  8
0
  6
Continuous
 62
     7
370
    25
100
AcDbPolyline
 90
        8
 70
   128
 43
0.0
 10
52.7931048363
 20
18.246341259
 10
52.7931524992
 20
18.2449937471
 10
52.7971901683
 20
18.2345324049
 10
52.8040833075
 20
18.2274009945
 10
52.8126461581
 20
18.2246942179
 10
52.8214387628
 20
18.2268331669
 10
52.8289861862
 20
18.2335012152
 10
52.8340030607
 20
18.2436922223
  0
ARC
  5
26D
330
1F
100
AcDbEntity
  8
0
  6
Continuous
 62
     7
370
    25
100
AcDbCircle
 10
55.5410330383
 20
20.3486336517
 30
0.0
 40
0.0257639427232489
100
AcDbArc
 50
290.5359896391
 51
20.6184492865
  0
ARC
  5
26E
330
1F
100
AcDbEntity
  8
0
  6
Continuous
 62
     7
370
    25
100
AcDbCircle
 10
55.5378454075
 20
18.2463729428
 30
0.0
 40
0.0296231235032759
100
AcDbArc
 50
294.3746582936
 51
354.3052007488
  0
ARC
  5
26F
330
1F
100
AcDbEntity
  8
0
  6
Continuous
 62
     7
370
    25
100
AcDbCircle
 10
55.1621155361
 20
21.0049297583
 30
0.0
 40
0.0257684937558204
100
AcDbArc
 50
39.3933252715
 51
129.4530174473
  0
ARC
  5
270
330
1F
100
AcDbEntity
  8
0
  6
Continuous
 62
     7
370
    25
100
AcDbCircle
 10
43.2437316971
 20
27.8815873842
 30
0.0
 40
0.0296253591946116
100
AcDbArc
 50
65.6928809539
 51
125.6175774752
  0
LINE
  5
271
330
1F
100
AcDbEntity
  8
0
  6
Continuous
 62
     7
370
    25
100
AcDbLine
 10
40.1272234921
 20
26.3303774744
 30
0.0
 11
40.1060809993
 21
26.3425827757
 31
0.0
  0
ARC
  5
272
330
1F
100
AcDbEntity
  8
0
  6
Continuous
 62
     7
370
    25
100
AcDbCircle
 10
40.2267387147
 20
26.3621553981
 30
0.0
 40
0.1222349043602283
100
AcDbArc
 50
50.7967147643
 51
189.2140369905
  0
LWPOLYLINE
  5
273
330
1F
100
AcDbEntity
  8
0
  6
Continuous
 62
     7
370
    25
100
AcDbPolyline
 90
        9
 70
   128
 43
0.0
 10
40.2884205686
 20
26.4406612626
 10
40.269512765
 20
26.4484484279
 10
40.2363506748
 20
26.4559760286
 10
40.2057883176
 20
26.4547551841
 10
40.1790001874
 20
26.4448328107
 10
40.1570157371
 20
26.4265902197
 10
40.1406798168
 20
26.4007284637
 10
40.1306202067
 20
26.3682413953
 10
40.1272234921
 20
26.3303774744
  0
ARC
  5
274
330
1F
100
AcDbEntity
  8
0
  6
Continuous
 62
     7
370
    25
100
AcDbCircle
 10
42.9797283106
 20
27.9344261677
 30
0.0
 40
0.1407833283289344
100
AcDbArc
 50
54.3824225248
 51
114.3071190461
  0
LWPOLYLINE
  5
275
330
1F
100
AcDbEntity
  8
0
  6
Continuous
 62
     7
370
    25
100
AcDbPolyline
 90
        9
 70
   128
 43
0.0
 10
40.1511498698
 20
26.3165650706
 10
40.140810983
 20
26.3125770381
 10
40.1286154345
 20
26.3111766274
 10
40.1164198861
 20
26.3125770381
 10
40.1060809993
 20
26.3165650706
 10
40.099172776
 20
26.3225335828
 10
40.0967469306
 20
26.3295739231
 10
40.099172776
 20
26.3366142634
 10
40.1060809993
 20
26.3425827757
  0
LWPOLYLINE
  5
276
330
1F
100
AcDbEntity
  8
0
  6
Continuous
 62
     7
370
    25
100
AcDbPolyline
 90
        7
 70
   128
 43
0.0
 10
40.0967469306
 20
25.5807240448
 10
40.099172776
 20
25.5748675388
 10
40.1060809993
 20
25.5700828608
 10
40.1164198861
 20
25.5672786627
 10
40.1286154345
 20
25.5670620863
 10
40.140810983
 20
25.5696463314
 10
40.1511498698
 20
25.5748181981
  0
LWPOLYLINE
  5
277
330
1F
100
AcDbEntity
  8
0
  6
Continuous
 62
     7
370
    25
100
AcDbPolyline
 90
        9
 70
   128
 43
0.0
 10
40.130007377
 20
26.3287703718
 10
40.1293687484
 20
26.3285240328
 10
40.1286154345
 20
26.32843753
 10
40.1278621207
 20
26.3285240328
 10
40.1272234921
 20
26.3287703718
 10
40.126796774
 20
26.3291390443
 10
40.1266469306
 20
26.3295739231
 10
40.126796774
 20
26.3300088019
 10
40.1272234921
 20
26.3303774744
  0
LINE
  5
278
330
1F
100
AcDbEntity
  8
0
  6
Continuous
 62
     7
370
    25
100
AcDbLine
 10
40.2815105509
 20
26.4162312924
 30
0.0
 11
40.130007377
 21
26.3287703718
 31
0.0
  0
LINE
  5
279
330
1F
100
AcDbEntity
  8
0
  6
Continuous
 62
     7
370
    25
100
AcDbLine
 10
40.2946920359
 20
26.3994301992
 30
0.0
 11
40.1511498698
 21
26.3165650706
 31
0.0
  0
LINE
  5
27A
330
1F
100
AcDbEntity
  8
0
  6
Continuous
 62
     7
370
    25
100
AcDbLine
 10
40.3937804775
 20
25.8795167137
 30
0.0
 11
40.1511498698
 21
25.5748181981
 31
0.0
  0
LINE
  5
27B
330
1F
100
AcDbEntity
  8
0
  6
Continuous
 62
     7
370
    25
100
AcDbLine
 10
40.3937804775
 20
25.8795167137
 30
0.0
 11
40.3937804775
 21
26.3422276594
 31
0.0
  0
LINE
  5
27C
330
1F
100
AcDbEntity
  8
0
  6
Continuous
 62
     7
370
    25
100
AcDbLine
 10
40.1583143505
 20
25.5648740926
 30
0.0
 11
40.4009449582
 21
25.8695726083
 31
0.0
  0
LINE
  5
27D
330
1F
100
AcDbEntity
  8
0
  6
Continuous
 62
     7
370
    25
100
AcDbLine
 10
41.3174400426
 20
25.8090103424
 30
0.0
 11
40.4009449582
 21
25.8695726083
 31
0.0
  0
LINE
  5
27E
330
1F
100
AcDbEntity
  8
0
  6
Continuous
 62
     7
370
    25
100
AcDbLine
 10
40.3906119987
 20
25.8755376989
 30
0.0
 11
40.4009449582
 21
25.8695726083
 31
0.0
  0
ARC
  5
27F
330
1F
100
AcDbEntity
  8
0
  6
Continuous
 62
     7
370
    25
100
AcDbCircle
 10
40.1328123954
 20
25.573336371
 30
0.0
 40
0.0268693109247096
100
AcDbArc
 50
186.9908439688
 51
341.6426789112
  0
LINE
  5
280
330
1F
100
AcDbEntity
  8
0
  6
Continuous
 62
     7
370
    25
100
AcDbLine
 10
41.2962975498
 20
25.8212156436
 30
0.0
 11
40.3937804775
 21
25.8808542384
 31
0.0
  0
LINE
  5
281
330
1F
100
AcDbEntity
  8
0
  6
Continuous
 62
     7
370
    25
100
AcDbLine
 10
43.2469140918
 20
27.941959835
 30
0.0
 11
43.2469140918
 21
27.9175452647
 31
0.0
  0
LINE
  5
282
330
1F
100
AcDbEntity
  8
0
  6
Continuous
 62
     7
370
    25
100
AcDbLine
 10
43.2264114317
 20
27.905709331
 30
0.0
 11
43.2469140918
 21
27.9175452647
 31
0.0
  0
LWPOLYLINE
  5
283
330
1F
100
AcDbEntity
  8
0
  6
Continuous
 62
     8
370
    25
100
AcDbPolyline
 90
       35
 70
   128
 43
0.0
 10
55.3930870217
 20
21.2671509654
 10
55.3906225874
 20
21.286506013
 10
55.3868517039
 20
21.2993120079
 10
55.3816925109
 20
21.3124092215
 10
55.3769197834
 20
21.3226226366
 10
55.3601575628
 20
21.3521901775
 10
55.3405897659
 20
21.3808579619
 10
55.320239454
 20
21.407289747
 10
55.2989188043
 20
21.4326798654
 10
55.2550969974
 20
21.4801035319
 10
55.2096825128
 20
21.5247456408
 10
55.1639423066
 20
21.5664920673
 10
55.117580776
 20
21.6062956612
 10
55.0706257456
 20
21.6445205509
 10
55.0233509098
 20
21.6812078982
 10
54.9290215524
 20
21.7498486039
 10
54.8340256114
 20
21.8136832016
 10
54.7390860884
 20
21.8727492773
 10
54.6439514539
 20
21.9274337271
 10
54.5490930388
 20
21.9774520477
 10
54.4543788968
 20
22.0226201201
 10
54.3603128117
 20
22.0621249015
 10
54.3134929266
 20
22.0794514263
 10
54.2669581477
 20
22.0948324811
 10
54.2210094714
 20
22.1078687759
 10
54.1756131101
 20
22.1181163798
 10
54.1311007813
 20
22.1247541072
 10
54.0879256063
 20
22.1263693328
 10
54.0673773954
 20
22.1245165287
 10
54.047785104
 20
22.1201476019
 10
54.0321629358
 20
22.1136106093
 10
54.0183977704
 20
22.1032630558
 10
54.012369261
 20
22.0955451929
 10
54.0077995523
 20
22.0857375905
 10
54.0051878908
 20
22.0683680793
  0
LWPOLYLINE
  5
284
330
1F
100
AcDbEntity
  8
0
  6
Continuous
 62
     8
370
    25
100
AcDbPolyline
 90
       14
 70
   128
 43
0.0
 10
55.1012170915
 20
21.2464888865
 10
55.1516760154
 20
21.2311900016
 10
55.2016754609
 20
21.2189138451
 10
55.2508972274
 20
21.2105399291
 10
55.2751338796
 20
21.2082415647
 10
55.2989341101
 20
21.2075792695
 10
55.3219640845
 20
21.2089727363
 10
55.3440775242
 20
21.2130873358
 10
55.3617380688
 20
21.2195812785
 10
55.3775207492
 20
21.2301763586
 10
55.3843819822
 20
21.2379861973
 10
55.3897263468
 20
21.2479767613
 10
55.3921909548
 20
21.2568114055
 10
55.3930870217
 20
21.2671509654
  0
LINE
  5
285
330
1F
100
AcDbEntity
  8
0
  6
Continuous
 62
     8
370
    25
100
AcDbLine
 10
52.8100766829
 20
19.0087221731
 30
0.0
 11
52.8100766829
 21
19.0071150705
 31
0.0
  0
LINE
  5
286
330
1F
100
AcDbEntity
  8
0
  6
Continuous
 62
     8
370
    25
100
AcDbLine
 10
52.6346919301
 20
19.3108901112
 30
0.0
 11
52.6360838726
 21
19.3100865599
 31
0.0
  0
LINE
  5
287
330
1F
100
AcDbEntity
  8
0
  6
Continuous
 62
     8
370
    25
100
AcDbLine
 10
40.2815070235
 20
26.4194434613
 30
0.0
 11
40.1272234921
 21
26.3303774744
 31
0.0
  0
LINE
  5
288
330
1F
100
AcDbEntity
  8
0
  6
Continuous
 62
     8
370
    25
100
AcDbLine
 10
40.1272234921
 20
26.3303774744
 30
0.0
 11
40.1272234921
 21
26.3287703718
 31
0.0
  0
INSERT
  5
28E
330
1F
100
AcDbEntity
  8
NOTES
100
AcDbBlockReference
  2
SW_NOTE_0_2
 10
46.6525847442
 20
18.2247884407
 30
0.0
  0
ENDSEC
  0
SECTION
  2
OBJECTS
  0
DICTIONARY
  5
C
330
0
100
AcDbDictionary
281
     1
  3
ACAD_DETAILVIEWSTYLE
350
298
  3
ACAD_GROUP
350
D
  3
ACAD_LAYOUT
350
1A
  3
ACAD_MATERIAL
350
43
  3
ACAD_MLEADERSTYLE
350
6B
  3
ACAD_MLINESTYLE
350
17
  3
ACAD_PLOTSETTINGS
350
19
  3
ACAD_PLOTSTYLENAME
350
E
  3
ACAD_SCALELIST
350
47
  3
ACAD_SECTIONVIEWSTYLE
350
299
  3
ACAD_TABLESTYLE
350
69
  3
ACDB_RECOMPOSE_DATA
350
295
  3
AcDbVariableDictionary
350
28F
  0
DICTIONARY
  5
298
102
{ACAD_REACTORS
330
C
102
}
330
C
100
AcDbDictionary
281
     1
  0
DICTIONARY
  5
D
102
{ACAD_REACTORS
330
C
102
}
330
C
100
AcDbDictionary
281
     1
  0
DICTIONARY
  5
1A
102
{ACAD_REACTORS
330
C
102
}
330
C
100
AcDbDictionary
281
     1
  3
Layout1
350
1E
  3
Layout2
350
26
  3
Model
350
22
  0
DICTIONARY
  5
43
102
{ACAD_REACTORS
330
C
102
}
330
C
100
AcDbDictionary
281
     1
  3
ByBlock
350
45
  3
ByLayer
350
44
  3
Global
350
46
  0
DICTIONARY
  5
6B
102
{ACAD_REACTORS
330
C
102
}
330
C
100
AcDbDictionary
281
     1
  3
Standard
350
6C
  0
DICTIONARY
  5
17
102
{ACAD_REACTORS
330
C
102
}
330
C
100
AcDbDictionary
281
     1
  3
Standard
350
18
  0
DICTIONARY
  5
19
102
{ACAD_REACTORS
330
C
102
}
330
C
100
AcDbDictionary
281
     1
  0
ACDBDICTIONARYWDFLT
  5
E
102
{ACAD_REACTORS
330
C
102
}
330
C
100
AcDbDictionary
281
     1
  3
Normal
350
F
100
AcDbDictionaryWithDefault
340
F
  0
DICTIONARY
  5
47
102
{ACAD_REACTORS
330
C
102
}
330
C
100
AcDbDictionary
281
     1
  3
A0
350
48
  3
A1
350
49
  3
A2
350
4A
  3
A3
350
4B
  3
A4
350
4C
  3
A5
350
4D
  3
A6
350
4E
  3
A7
350
4F
  3
A8
350
50
  3
A9
350
51
  3
B0
350
52
  3
B1
350
53
  3
B2
350
54
  3
B3
350
55
  3
B4
350
56
  3
B5
350
57
  3
B6
350
58
  3
B7
350
59
  3
B8
350
5A
  3
B9
350
5B
  3
C0
350
5C
  3
C1
350
5D
  3
C2
350
5E
  3
C3
350
5F
  3
C4
350
60
  3
C5
350
61
  3
C6
350
62
  3
C7
350
63
  3
C8
350
64
  3
C9
350
65
  3
D0
350
66
  3
D1
350
67
  3
D2
350
68
  0
DICTIONARY
  5
299
102
{ACAD_REACTORS
330
C
102
}
330
C
100
AcDbDictionary
281
     1
  0
DICTIONARY
  5
69
102
{ACAD_REACTORS
330
C
102
}
330
C
100
AcDbDictionary
281
     1
  3
Standard
350
6A
  0
XRECORD
  5
295
102
{ACAD_REACTORS
330
C
102
}
330
C
100
AcDbXrecord
280
     1
 90
        1
330
6A
  0
DICTIONARY
  5
28F
102
{ACAD_REACTORS
330
C
102
}
330
C
100
AcDbDictionary
281
     1
  3
CANNOSCALE
350
290
  3
CMLEADERSTYLE
350
297
  3
CTABLESTYLE
350
296
  0
LAYOUT
  5
1E
102
{ACAD_REACTORS
330
1A
102
}
330
1A
100
AcDbPlotSettings
  1

  2
none_device
  4

  6

 40
0.0
 41
0.0
 42
0.0
 43
0.0
 44
0.0
 45
0.0
 46
0.0
 47
0.0
 48
0.0
 49
0.0
140
0.0
141
0.0
142
1.0
143
1.0
 70
   688
 72
     0
 73
     0
 74
     5
  7

 75
    16
 76
     0
 77
     2
 78
   300
147
1.0
148
0.0
149
0.0
100
AcDbLayout
  1
Layout1
 70
     1
 71
     1
 10
0.0
 20
0.0
 11
12.0
 21
9.0
 12
0.0
 22
0.0
 32
0.0
 14
1.0000000000E+20
 24
1.0000000000E+20
 34
1.0000000000E+20
 15
-1.0000000000E+20
 25
-1.0000000000E+20
 35
-1.0000000000E+20
146
0.0
 13
0.0
 23
0.0
 33
0.0
 16
1.0
 26
0.0
 36
0.0
 17
0.0
 27
1.0
 37
0.0
 76
     0
330
1B
  0
LAYOUT
  5
26
102
{ACAD_REACTORS
330
1A
102
}
330
1A
100
AcDbPlotSettings
  1

  2
none_device
  4

  6

 40
0.0
 41
0.0
 42
0.0
 43
0.0
 44
0.0
 45
0.0
 46
0.0
 47
0.0
 48
0.0
 49
0.0
140
0.0
141
0.0
142
1.0
143
1.0
 70
   688
 72
     0
 73
     0
 74
     5
  7

 75
    16
 76
     0
 77
     2
 78
   300
147
1.0
148
0.0
149
0.0
100
AcDbLayout
  1
Layout2
 70
     1
 71
     2
 10
0.0
 20
0.0
 11
0.0
 21
0.0
 12
0.0
 22
0.0
 32
0.0
 14
0.0
 24
0.0
 34
0.0
 15
0.0
 25
0.0
 35
0.0
146
0.0
 13
0.0
 23
0.0
 33
0.0
 16
1.0
 26
0.0
 36
0.0
 17
0.0
 27
1.0
 37
0.0
 76
     0
330
23
  0
LAYOUT
  5
22
102
{ACAD_REACTORS
330
1A
102
}
330
1A
100
AcDbPlotSettings
  1

  2
none_device
  4
Letter_(8.50_x_11.00_Inches)
  6

 40
6.35
 41
6.35
 42
6.35000508
 43
6.35000508
 44
215.9
 45
279.4
 46
0.0
 47
0.0
 48
0.0
 49
0.0
140
0.0
141
0.0
142
1.0
143
1.0
 70
  1712
 72
     0
 73
     0
 74
     0
  7

 75
     0
 76
     0
 77
     2
 78
   300
147
1.0
148
0.0
149
0.0
100
AcDbLayout
  1
Model
 70
     1
 71
     0
 10
0.0
 20
0.0
 11
60.0
 21
46.3636363636
 12
0.0
 22
0.0
 32
0.0
 14
0.0
 24
0.0
 34
0.0
 15
60.0
 25
46.3636363636
 35
0.0
146
0.0
 13
0.0
 23
0.0
 33
0.0
 16
1.0
 26
0.0
 36
0.0
 17
0.0
 27
1.0
 37
0.0
 76
     0
330
1F
331
29
  0
MATERIAL
  5
45
102
{ACAD_REACTORS
330
43
102
}
330
43
100
AcDbMaterial
  1
ByBlock
  0
MATERIAL
  5
44
102
{ACAD_REACTORS
330
43
102
}
330
43
100
AcDbMaterial
  1
ByLayer
  0
MATERIAL
  5
46
102
{ACAD_REACTORS
330
43
102
}
330
43
100
AcDbMaterial
  1
Global
  0
MLEADERSTYLE
  5
6C
102
{ACAD_REACTORS
330
6B
102
}
330
6B
100
AcDbMLeaderStyle
170
     2
171
     1
172
     0
 90
        2
 40
0.0
 41
0.0
173
     1
 91
-1056964608
340
14
 92
       -2
290
     1
 42
0.09
291
     1
 43
0.36
  3
Standard
341
0
 44
0.18
300

342
11
174
     1
178
     6
175
     1
176
     0
 93
-1056964608
 45
0.18
292
     0
297
     0
 46
0.18
343
0
 94
-1056964608
 47
1.0
 49
1.0
140
1.0
293
     1
141
0.0
294
     1
177
     0
142
1.0
295
     0
296
     0
143
0.125
1001
ACAD_MLEADERVER
1070
     2
  0
MLINESTYLE
  5
18
102
{ACAD_REACTORS
330
17
102
}
330
17
100
AcDbMlineStyle
  2
Standard
 70
     0
  3

 62
   256
 51
90.0
 52
90.0
 71
     2
 49
0.5
 62
   256
  6
BYLAYER
 49
-0.5
 62
   256
  6
BYLAYER
  0
ACDBPLACEHOLDER
  5
F
102
{ACAD_REACTORS
330
E
102
}
330
E
  0
SCALE
  5
48
102
{ACAD_REACTORS
330
47
102
}
330
47
100
AcDbScale
 70
     0
300
1:1
140
1.0
141
1.0
290
     1
  0
SCALE
  5
49
102
{ACAD_REACTORS
330
47
102
}
330
47
100
AcDbScale
 70
     0
300
1:2
140
1.0
141
2.0
290
     0
  0
SCALE
  5
4A
102
{ACAD_REACTORS
330
47
102
}
330
47
100
AcDbScale
 70
     0
300
1:4
140
1.0
141
4.0
290
     0
  0
SCALE
  5
4B
102
{ACAD_REACTORS
330
47
102
}
330
47
100
AcDbScale
 70
     0
300
1:5
140
1.0
141
5.0
290
     0
  0
SCALE
  5
4C
102
{ACAD_REACTORS
330
47
102
}
330
47
100
AcDbScale
 70
     0
300
1:8
140
1.0
141
8.0
290
     0
  0
SCALE
  5
4D
102
{ACAD_REACTORS
330
47
102
}
330
47
100
AcDbScale
 70
     0
300
1:10
140
1.0
141
10.0
290
     0
  0
SCALE
  5
4E
102
{ACAD_REACTORS
330
47
102
}
330
47
100
AcDbScale
 70
     0
300
1:16
140
1.0
141
16.0
290
     0
  0
SCALE
  5
4F
102
{ACAD_REACTORS
330
47
102
}
330
47
100
AcDbScale
 70
     0
300
1:20
140
1.0
141
20.0
290
     0
  0
SCALE
  5
50
102
{ACAD_REACTORS
330
47
102
}
330
47
100
AcDbScale
 70
     0
300
1:30
140
1.0
141
30.0
290
     0
  0
SCALE
  5
51
102
{ACAD_REACTORS
330
47
102
}
330
47
100
AcDbScale
 70
     0
300
1:40
140
1.0
141
40.0
290
     0
  0
SCALE
  5
52
102
{ACAD_REACTORS
330
47
102
}
330
47
100
AcDbScale
 70
     0
300
1:50
140
1.0
141
50.0
290
     0
  0
SCALE
  5
53
102
{ACAD_REACTORS
330
47
102
}
330
47
100
AcDbScale
 70
     0
300
1:100
140
1.0
141
100.0
290
     0
  0
SCALE
  5
54
102
{ACAD_REACTORS
330
47
102
}
330
47
100
AcDbScale
 70
     0
300
2:1
140
2.0
141
1.0
290
     0
  0
SCALE
  5
55
102
{ACAD_REACTORS
330
47
102
}
330
47
100
AcDbScale
 70
     0
300
4:1
140
4.0
141
1.0
290
     0
  0
SCALE
  5
56
102
{ACAD_REACTORS
330
47
102
}
330
47
100
AcDbScale
 70
     0
300
8:1
140
8.0
141
1.0
290
     0
  0
SCALE
  5
57
102
{ACAD_REACTORS
330
47
102
}
330
47
100
AcDbScale
 70
     0
300
10:1
140
10.0
141
1.0
290
     0
  0
SCALE
  5
58
102
{ACAD_REACTORS
330
47
102
}
330
47
100
AcDbScale
 70
     0
300
100:1
140
100.0
141
1.0
290
     0
  0
SCALE
  5
59
102
{ACAD_REACTORS
330
47
102
}
330
47
100
AcDbScale
 70
     0
300
1/128" = 1'-0"
140
0.0078125
141
12.0
290
     0
  0
SCALE
  5
5A
102
{ACAD_REACTORS
330
47
102
}
330
47
100
AcDbScale
 70
     0
300
1/64" = 1'-0"
140
0.015625
141
12.0
290
     0
  0
SCALE
  5
5B
102
{ACAD_REACTORS
330
47
102
}
330
47
100
AcDbScale
 70
     0
300
1/32" = 1'-0"
140
0.03125
141
12.0
290
     0
  0
SCALE
  5
5C
102
{ACAD_REACTORS
330
47
102
}
330
47
100
AcDbScale
 70
     0
300
1/16" = 1'-0"
140
0.0625
141
12.0
290
     0
  0
SCALE
  5
5D
102
{ACAD_REACTORS
330
47
102
}
330
47
100
AcDbScale
 70
     0
300
3/32" = 1'-0"
140
0.09375
141
12.0
290
     0
  0
SCALE
  5
5E
102
{ACAD_REACTORS
330
47
102
}
330
47
100
AcDbScale
 70
     0
300
1/8" = 1'-0"
140
0.125
141
12.0
290
     0
  0
SCALE
  5
5F
102
{ACAD_REACTORS
330
47
102
}
330
47
100
AcDbScale
 70
     0
300
3/16" = 1'-0"
140
0.1875
141
12.0
290
     0
  0
SCALE
  5
60
102
{ACAD_REACTORS
330
47
102
}
330
47
100
AcDbScale
 70
     0
300
1/4" = 1'-0"
140
0.25
141
12.0
290
     0
  0
SCALE
  5
61
102
{ACAD_REACTORS
330
47
102
}
330
47
100
AcDbScale
 70
     0
300
3/8" = 1'-0"
140
0.375
141
12.0
290
     0
  0
SCALE
  5
62
102
{ACAD_REACTORS
330
47
102
}
330
47
100
AcDbScale
 70
     0
300
1/2" = 1'-0"
140
0.5
141
12.0
290
     0
  0
SCALE
  5
63
102
{ACAD_REACTORS
330
47
102
}
330
47
100
AcDbScale
 70
     0
300
3/4" = 1'-0"
140
0.75
141
12.0
290
     0
  0
SCALE
  5
64
102
{ACAD_REACTORS
330
47
102
}
330
47
100
AcDbScale
 70
     0
300
1" = 1'-0"
140
1.0
141
12.0
290
     0
  0
SCALE
  5
65
102
{ACAD_REACTORS
330
47
102
}
330
47
100
AcDbScale
 70
     0
300
1-1/2" = 1'-0"
140
1.5
141
12.0
290
     0
  0
SCALE
  5
66
102
{ACAD_REACTORS
330
47
102
}
330
47
100
AcDbScale
 70
     0
300
3" = 1'-0"
140
3.0
141
12.0
290
     0
  0
SCALE
  5
67
102
{ACAD_REACTORS
330
47
102
}
330
47
100
AcDbScale
 70
     0
300
6" = 1'-0"
140
6.0
141
12.0
290
     0
  0
SCALE
  5
68
102
{ACAD_REACTORS
330
47
102
}
330
47
100
AcDbScale
 70
     0
300
1'-0" = 1'-0"
140
12.0
141
12.0
290
     0
  0
TABLESTYLE
  5
6A
102
{ACAD_REACTORS
330
69
102
}
102
{ACAD_XDICTIONARY
360
291
102
}
330
69
100
AcDbTableStyle
  3
Standard
 70
     0
 71
     0
 40
0.06
 41
0.06
280
     0
281
     0
  7
Standard
140
0.18
170
     2
 62
     0
 63
   257
283
     0
274
    -2
284
     1
 64
     0
275
    -2
285
     1
 65
     0
276
    -2
286
     1
 66
     0
277
    -2
287
     1
 67
     0
278
    -2
288
     1
 68
     0
279
    -2
289
     1
 69
     0
  7
Standard
140
0.25
170
     5
 62
     0
 63
   257
283
     0
274
    -2
284
     1
 64
     0
275
    -2
285
     1
 65
     0
276
    -2
286
     1
 66
     0
277
    -2
287
     1
 67
     0
278
    -2
288
     1
 68
     0
279
    -2
289
     1
 69
     0
  7
Standard
140
0.18
170
     5
 62
     0
 63
   257
283
     0
274
    -2
284
     1
 64
     0
275
    -2
285
     1
 65
     0
276
    -2
286
     1
 66
     0
277
    -2
287
     1
 67
     0
278
    -2
288
     1
 68
     0
279
    -2
289
     1
 69
     0
  0
DICTIONARYVAR
  5
290
102
{ACAD_REACTORS
330
28F
102
}
330
28F
100
DictionaryVariables
280
     0
  1
1:1
  0
DICTIONARYVAR
  5
297
102
{ACAD_REACTORS
330
28F
102
}
330
28F
100
DictionaryVariables
280
     0
  1
Standard
  0
DICTIONARYVAR
  5
296
102
{ACAD_REACTORS
330
28F
102
}
330
28F
100
DictionaryVariables
280
     0
  1
Standard
  0
DICTIONARY
  5
291
330
6A
100
AcDbDictionary
280
     1
281
     1
  3
ACAD_ROUNDTRIP_2008_TABLESTYLE_CELLSTYLEMAP
360
293
  3
ACAD_XREC_ROUNDTRIP
360
292
  0
CELLSTYLEMAP
  5
293
102
{ACAD_REACTORS
330
291
102
}
330
291
100
AcDbCellStyleMap
 90
        3
300
CELLSTYLE
  1
TABLEFORMAT_BEGIN
 90
        5
170
     1
 91
        0
 92
    32768
 62
   257
 93
        1
300
CONTENTFORMAT
  1
CONTENTFORMAT_BEGIN
 90
        0
 91
        0
 92
        4
 93
        0
300

 40
0.0
140
1.0
 94
        5
 62
     0
340
11
144
0.25
309
CONTENTFORMAT_END
171
     1
301
MARGIN
  1
CELLMARGIN_BEGIN
 40
0.06
 40
0.06
 40
0.06
 40
0.06
 40
0.06
 40
0.06
309
CELLMARGIN_END
 94
        6
 95
        1
302
GRIDFORMAT
  1
GRIDFORMAT_BEGIN
 90
        0
 91
        1
 62
     0
 92
       -2
340
14
 93
        0
 40
0.045
309
GRIDFORMAT_END
 95
        2
302
GRIDFORMAT
  1
GRIDFORMAT_BEGIN
 90
        0
 91
        1
 62
     0
 92
       -2
340
14
 93
        0
 40
0.045
309
GRIDFORMAT_END
 95
        4
302
GRIDFORMAT
  1
GRIDFORMAT_BEGIN
 90
        0
 91
        1
 62
     0
 92
       -2
340
14
 93
        0
 40
0.045
309
GRIDFORMAT_END
 95
        8
302
GRIDFORMAT
  1
GRIDFORMAT_BEGIN
 90
        0
 91
        1
 62
     0
 92
       -2
340
14
 93
        0
 40
0.045
309
GRIDFORMAT_END
 95
       16
302
GRIDFORMAT
  1
GRIDFORMAT_BEGIN
 90
        0
 91
        1
 62
     0
 92
       -2
340
14
 93
        0
 40
0.045
309
GRIDFORMAT_END
 95
       32
302
GRIDFORMAT
  1
GRIDFORMAT_BEGIN
 90
        0
 91
        1
 62
     0
 92
       -2
340
14
 93
        0
 40
0.045
309
GRIDFORMAT_END
309
TABLEFORMAT_END
  1
CELLSTYLE_BEGIN
 90
        1
 91
        1
300
_TITLE
309
CELLSTYLE_END
300
CELLSTYLE
  1
TABLEFORMAT_BEGIN
 90
        5
170
     1
 91
        0
 92
        0
 62
   257
 93
        1
300
CONTENTFORMAT
  1
CONTENTFORMAT_BEGIN
 90
        0
 91
        0
 92
        4
 93
        0
300

 40
0.0
140
1.0
 94
        5
 62
     0
340
11
144
0.18
309
CONTENTFORMAT_END
171
     1
301
MARGIN
  1
CELLMARGIN_BEGIN
 40
0.06
 40
0.06
 40
0.06
 40
0.06
 40
0.06
 40
0.06
309
CELLMARGIN_END
 94
        6
 95
        1
302
GRIDFORMAT
  1
GRIDFORMAT_BEGIN
 90
        0
 91
        1
 62
     0
 92
       -2
340
14
 93
        0
 40
0.045
309
GRIDFORMAT_END
 95
        2
302
GRIDFORMAT
  1
GRIDFORMAT_BEGIN
 90
        0
 91
        1
 62
     0
 92
       -2
340
14
 93
        0
 40
0.045
309
GRIDFORMAT_END
 95
        4
302
GRIDFORMAT
  1
GRIDFORMAT_BEGIN
 90
        0
 91
        1
 62
     0
 92
       -2
340
14
 93
        0
 40
0.045
309
GRIDFORMAT_END
 95
        8
302
GRIDFORMAT
  1
GRIDFORMAT_BEGIN
 90
        0
 91
        1
 62
     0
 92
       -2
340
14
 93
        0
 40
0.045
309
GRIDFORMAT_END
 95
       16
302
GRIDFORMAT
  1
GRIDFORMAT_BEGIN
 90
        0
 91
        1
 62
     0
 92
       -2
340
14
 93
        0
 40
0.045
309
GRIDFORMAT_END
 95
       32
302
GRIDFORMAT
  1
GRIDFORMAT_BEGIN
 90
        0
 91
        1
 62
     0
 92
       -2
340
14
 93
        0
 40
0.045
309
GRIDFORMAT_END
309
TABLEFORMAT_END
  1
CELLSTYLE_BEGIN
 90
        2
 91
        1
300
_HEADER
309
CELLSTYLE_END
300
CELLSTYLE
  1
TABLEFORMAT_BEGIN
 90
        5
170
     1
 91
        0
 92
        0
 62
   257
 93
        1
300
CONTENTFORMAT
  1
CONTENTFORMAT_BEGIN
 90
        0
 91
        0
 92
        4
 93
        0
300

 40
0.0
140
1.0
 94
        2
 62
     0
340
11
144
0.18
309
CONTENTFORMAT_END
171
     1
301
MARGIN
  1
CELLMARGIN_BEGIN
 40
0.06
 40
0.06
 40
0.06
 40
0.06
 40
0.06
 40
0.06
309
CELLMARGIN_END
 94
        6
 95
        1
302
GRIDFORMAT
  1
GRIDFORMAT_BEGIN
 90
        0
 91
        1
 62
     0
 92
       -2
340
14
 93
        0
 40
0.045
309
GRIDFORMAT_END
 95
        2
302
GRIDFORMAT
  1
GRIDFORMAT_BEGIN
 90
        0
 91
        1
 62
     0
 92
       -2
340
14
 93
        0
 40
0.045
309
GRIDFORMAT_END
 95
        4
302
GRIDFORMAT
  1
GRIDFORMAT_BEGIN
 90
        0
 91
        1
 62
     0
 92
       -2
340
14
 93
        0
 40
0.045
309
GRIDFORMAT_END
 95
        8
302
GRIDFORMAT
  1
GRIDFORMAT_BEGIN
 90
        0
 91
        1
 62
     0
 92
       -2
340
14
 93
        0
 40
0.045
309
GRIDFORMAT_END
 95
       16
302
GRIDFORMAT
  1
GRIDFORMAT_BEGIN
 90
        0
 91
        1
 62
     0
 92
       -2
340
14
 93
        0
 40
0.045
309
GRIDFORMAT_END
 95
       32
302
GRIDFORMAT
  1
GRIDFORMAT_BEGIN
 90
        0
 91
        1
 62
     0
 92
       -2
340
14
 93
        0
 40
0.045
309
GRIDFORMAT_END
309
TABLEFORMAT_END
  1
CELLSTYLE_BEGIN
 90
        3
 91
        2
300
_DATA
309
CELLSTYLE_END
  0
XRECORD
  5
292
102
{ACAD_REACTORS
330
291
102
}
330
291
100
AcDbXrecord
280
     1
102
ACAD_ROUNDTRIP_PRE2007_TABLESTYLE
 90
        4
 91
        0
  1

 92
        4
 93
        0
  2

 94
        4
 95
        0
  3

  0
ENDSEC
  0
EOF
