  0
SECTION
  2
HEADER
  9
$ACADVER
  1
AC1024
  9
$ACADMAINTVER
 70
     6
  9
$DWGCODEPAGE
  3
ANSI_1252
  9
$LASTSAVEDBY
  1
carl
  9
$INSBASE
 10
0.0
 20
0.0
 30
0.0
  9
$EXTMIN
 10
0.0
 20
0.0
 30
0.0
  9
$EXTMAX
 10
60.375
 20
45.0
 30
0.0
  9
$LIMMIN
 10
0.0
 20
0.0
  9
$LIMMAX
 10
60.375
 20
45.0
  9
$ORTHOMODE
 70
     0
  9
$REGENMODE
 70
     1
  9
$FILLMODE
 70
     1
  9
$QTEXTMODE
 70
     0
  9
$MIRRTEXT
 70
     1
  9
$LTSCALE
 40
1.0
  9
$ATTMODE
 70
     1
  9
$TEXTSIZE
 40
0.75
  9
$TRACEWID
 40
0.05
  9
$TEXTSTYLE
  7
Standard
  9
$CLAYER
  8
0
  9
$CELTYPE
  6
ByLayer
  9
$CECOLOR
 62
   256
  9
$CELTSCALE
 40
1.0
  9
$DISPSILH
 70
     0
  9
$DIMSCALE
 40
1.0
  9
$DIMASZ
 40
0.75
  9
$DIMEXO
 40
0.1666666667
  9
$DIMDLI
 40
0.38
  9
$DIMRND
 40
0.0
  9
$DIMDLE
 40
0.0
  9
$DIMEXE
 40
0.375
  9
$DIMTP
 40
0.0
  9
$DIMTM
 40
0.0
  9
$DIMTXT
 40
0.75
  9
$DIMCEN
 40
0.09
  9
$DIMTSZ
 40
0.0
  9
$DIMTOL
 70
     0
  9
$DIMLIM
 70
     0
  9
$DIMTIH
 70
     1
  9
$DIMTOH
 70
     1
  9
$DIMSE1
 70
     0
  9
$DIMSE2
 70
     0
  9
$DIMTAD
 70
     0
  9
$DIMZIN
 70
     1
  9
$DIMBLK
  1

  9
$DIMASO
 70
     1
  9
$DIMSHO
 70
     1
  9
$DIMPOST
  1

  9
$DIMAPOST
  1

  9
$DIMALT
 70
     0
  9
$DIMALTD
 70
     2
  9
$DIMALTF
 40
25.4
  9
$DIMLFAC
 40
1.0
  9
$DIMTOFL
 70
     0
  9
$DIMTVP
 40
0.0
  9
$DIMTIX
 70
     0
  9
$DIMSOXD
 70
     0
  9
$DIMSAH
 70
     0
  9
$DIMBLK1
  1

  9
$DIMBLK2
  1

  9
$DIMSTYLE
  2
Standard
  9
$DIMCLRD
 70
     0
  9
$DIMCLRE
 70
     0
  9
$DIMCLRT
 70
     0
  9
$DIMTFAC
 40
1.0
  9
$DIMGAP
 40
0.125
  9
$DIMJUST
 70
     0
  9
$DIMSD1
 70
     0
  9
$DIMSD2
 70
     0
  9
$DIMTOLJ
 70
     1
  9
$DIMTZIN
 70
     1
  9
$DIMALTZ
 70
     0
  9
$DIMALTTZ
 70
     0
  9
$DIMUPT
 70
     0
  9
$DIMDEC
 70
     2
  9
$DIMTDEC
 70
     2
  9
$DIMALTU
 70
     2
  9
$DIMALTTD
 70
     2
  9
$DIMTXSTY
  7
Standard
  9
$DIMAUNIT
 70
     0
  9
$DIMADEC
 70
     2
  9
$DIMALTRND
 40
0.0
  9
$DIMAZIN
 70
     0
  9
$DIMDSEP
 70
    46
  9
$DIMATFIT
 70
     3
  9
$DIMFRAC
 70
     0
  9
$DIMLDRBLK
  1

  9
$DIMLUNIT
 70
     2
  9
$DIMLWD
 70
    -2
  9
$DIMLWE
 70
    -2
  9
$DIMTMOVE
 70
     0
  9
$DIMFXL
 40
1.0
  9
$DIMFXLON
 70
     0
  9
$DIMJOGANG
 40
0.7853981634
  9
$DIMTFILL
 70
     0
  9
$DIMTFILLCLR
 70
     0
  9
$DIMARCSYM
 70
     0
  9
$DIMLTYPE
  6

  9
$DIMLTEX1
  6

  9
$DIMLTEX2
  6

  9
$DIMTXTDIRECTION
 70
     0
  9
$LUNITS
 70
     2
  9
$LUPREC
 70
     4
  9
$SKETCHINC
 40
0.1
  9
$FILLETRAD
 40
0.5
  9
$AUNITS
 70
     0
  9
$AUPREC
 70
     2
  9
$MENU
  1
.
  9
$ELEVATION
 40
0.0
  9
$PELEVATION
 40
0.0
  9
$THICKNESS
 40
0.0
  9
$LIMCHECK
 70
     0
  9
$CHAMFERA
 40
0.0
  9
$CHAMFERB
 40
0.0
  9
$CHAMFERC
 40
0.0
  9
$CHAMFERD
 40
0.0
  9
$SKPOLY
 70
     0
  9
$TDCREATE
 40
2459797.356170197
  9
$TDUCREATE
 40
2459797.522836864
  9
$TDUPDATE
 40
2459797.356172905
  9
$TDUUPDATE
 40
2459797.522839572
  9
$TDINDWG
 40
0.0000000116
  9
$TDUSRTIMER
 40
0.0000000116
  9
$USRTIMER
 70
     1
  9
$ANGBASE
 50
0.0
  9
$ANGDIR
 70
     0
  9
$PDMODE
 70
     0
  9
$PDSIZE
 40
-1.0
  9
$PLINEWID
 40
0.0
  9
$SPLFRAME
 70
     0
  9
$SPLINETYPE
 70
     6
  9
$SPLINESEGS
 70
     8
  9
$HANDSEED
  5
4B5
  9
$SURFTAB1
 70
     6
  9
$SURFTAB2
 70
     6
  9
$SURFTYPE
 70
     6
  9
$SURFU
 70
     6
  9
$SURFV
 70
     6
  9
$UCSBASE
  2

  9
$UCSNAME
  2

  9
$UCSORG
 10
0.0
 20
0.0
 30
0.0
  9
$UCSXDIR
 10
1.0
 20
0.0
 30
0.0
  9
$UCSYDIR
 10
0.0
 20
1.0
 30
0.0
  9
$UCSORTHOREF
  2

  9
$UCSORTHOVIEW
 70
     0
  9
$UCSORGTOP
 10
0.0
 20
0.0
 30
0.0
  9
$UCSORGBOTTOM
 10
0.0
 20
0.0
 30
0.0
  9
$UCSORGLEFT
 10
0.0
 20
0.0
 30
0.0
  9
$UCSORGRIGHT
 10
0.0
 20
0.0
 30
0.0
  9
$UCSORGFRONT
 10
0.0
 20
0.0
 30
0.0
  9
$UCSORGBACK
 10
0.0
 20
0.0
 30
0.0
  9
$PUCSBASE
  2

  9
$PUCSNAME
  2

  9
$PUCSORG
 10
0.0
 20
0.0
 30
0.0
  9
$PUCSXDIR
 10
1.0
 20
0.0
 30
0.0
  9
$PUCSYDIR
 10
0.0
 20
1.0
 30
0.0
  9
$PUCSORTHOREF
  2

  9
$PUCSORTHOVIEW
 70
     0
  9
$PUCSORGTOP
 10
0.0
 20
0.0
 30
0.0
  9
$PUCSORGBOTTOM
 10
0.0
 20
0.0
 30
0.0
  9
$PUCSORGLEFT
 10
0.0
 20
0.0
 30
0.0
  9
$PUCSORGRIGHT
 10
0.0
 20
0.0
 30
0.0
  9
$PUCSORGFRONT
 10
0.0
 20
0.0
 30
0.0
  9
$PUCSORGBACK
 10
0.0
 20
0.0
 30
0.0
  9
$USERI1
 70
     0
  9
$USERI2
 70
     0
  9
$USERI3
 70
     0
  9
$USERI4
 70
     0
  9
$USERI5
 70
     0
  9
$USERR1
 40
0.0
  9
$USERR2
 40
0.0
  9
$USERR3
 40
0.0
  9
$USERR4
 40
0.0
  9
$USERR5
 40
0.0
  9
$WORLDVIEW
 70
     1
  9
$SHADEDGE
 70
     3
  9
$SHADEDIF
 70
    70
  9
$TILEMODE
 70
     1
  9
$MAXACTVP
 70
    64
  9
$PINSBASE
 10
0.0
 20
0.0
 30
0.0
  9
$PLIMCHECK
 70
     0
  9
$PEXTMIN
 10
1.0000000000E+20
 20
1.0000000000E+20
 30
1.0000000000E+20
  9
$PEXTMAX
 10
-1.0000000000E+20
 20
-1.0000000000E+20
 30
-1.0000000000E+20
  9
$PLIMMIN
 10
0.0
 20
0.0
  9
$PLIMMAX
 10
12.0
 20
9.0
  9
$UNITMODE
 70
     0
  9
$VISRETAIN
 70
     1
  9
$PLINEGEN
 70
     0
  9
$PSLTSCALE
 70
     1
  9
$TREEDEPTH
 70
  3020
  9
$CMLSTYLE
  2
Standard
  9
$CMLJUST
 70
     0
  9
$CMLSCALE
 40
1.0
  9
$PROXYGRAPHICS
 70
     1
  9
$MEASUREMENT
 70
     0
  9
$CELWEIGHT
370
    -1
  9
$ENDCAPS
280
     0
  9
$JOINSTYLE
280
     0
  9
$LWDISPLAY
290
     1
  9
$INSUNITS
 70
     1
  9
$HYPERLINKBASE
  1

  9
$STYLESHEET
  1

  9
$XEDIT
290
     1
  9
$CEPSNTYPE
380
     0
  9
$PSTYLEMODE
290
     1
  9
$FINGERPRINTGUID
  2
{e8d101e2-d7ec-4809-9dca-fc9ad5dffa7f}
  9
$VERSIONGUID
  2
{FAEB1C32-E019-11D5-929B-00C0DF256EC4}
  9
$EXTNAMES
290
     1
  9
$PSVPSCALE
 40
0.0
  9
$OLESTARTUP
290
     0
  9
$SORTENTS
280
   127
  9
$INDEXCTL
280
     0
  9
$HIDETEXT
280
     1
  9
$XCLIPFRAME
280
     2
  9
$HALOGAP
280
     0
  9
$OBSCOLOR
 70
   257
  9
$OBSLTYPE
280
     0
  9
$INTERSECTIONDISPLAY
280
     0
  9
$INTERSECTIONCOLOR
 70
   257
  9
$DIMASSOC
280
     2
  9
$PROJECTNAME
  1

  9
$CAMERADISPLAY
290
     0
  9
$LENSLENGTH
 40
50.0
  9
$CAMERAHEIGHT
 40
0.0
  9
$STEPSPERSEC
 40
2.0
  9
$STEPSIZE
 40
6.0
  9
$3DDWFPREC
 40
2.0
  9
$PSOLWIDTH
 40
0.25
  9
$PSOLHEIGHT
 40
4.0
  9
$LOFTANG1
 40
1.5707963268
  9
$LOFTANG2
 40
1.5707963268
  9
$LOFTMAG1
 40
0.0
  9
$LOFTMAG2
 40
0.0
  9
$LOFTPARAM
 70
     7
  9
$LOFTNORMALS
280
     1
  9
$LATITUDE
 40
37.795
  9
$LONGITUDE
 40
-122.394
  9
$NORTHDIRECTION
 40
0.0
  9
$TIMEZONE
 70
 -8000
  9
$LIGHTGLYPHDISPLAY
280
     1
  9
$TILEMODELIGHTSYNCH
280
     1
  9
$CMATERIAL
347
44
  9
$SOLIDHIST
280
     0
  9
$SHOWHIST
280
     1
  9
$DWFFRAME
280
     2
  9
$DGNFRAME
280
     2
  9
$REALWORLDSCALE
290
     1
  9
$INTERFERECOLOR
 62
   256
  9
$CSHADOW
280
     0
  9
$SHADOWPLANELOCATION
 40
0.0
  0
ENDSEC
  0
SECTION
  2
CLASSES
  0
CLASS
  1
ACDBDICTIONARYWDFLT
  2
AcDbDictionaryWithDefault
  3
ObjectDBX Classes
 90
        0
 91
        3
280
     0
281
     0
  0
CLASS
  1
VISUALSTYLE
  2
AcDbVisualStyle
  3
ObjectDBX Classes
 90
     4095
 91
        3
280
     0
281
     0
  0
CLASS
  1
MATERIAL
  2
AcDbMaterial
  3
ObjectDBX Classes
 90
     1153
 91
        3
280
     0
281
     0
  0
CLASS
  1
SCALE
  2
AcDbScale
  3
ObjectDBX Classes
 90
     1153
 91
        3
280
     0
281
     0
  0
CLASS
  1
TABLESTYLE
  2
AcDbTableStyle
  3
ObjectDBX Classes
 90
     4095
 91
        3
280
     0
281
     0
  0
CLASS
  1
MLEADERSTYLE
  2
AcDbMLeaderStyle
  3
ACDB_MLEADERSTYLE_CLASS
 90
     4095
 91
        3
280
     0
281
     0
  0
CLASS
  1
SUN
  2
AcDbSun
  3
SCENEOE
 90
     1153
 91
        3
280
     0
281
     0
  0
CLASS
  1
DICTIONARYVAR
  2
AcDbDictionaryVar
  3
ObjectDBX Classes
 90
        0
 91
        3
280
     0
281
     0
  0
CLASS
  1
CELLSTYLEMAP
  2
AcDbCellStyleMap
  3
ObjectDBX Classes
 90
     1152
 91
        3
280
     0
281
     0
  0
ENDSEC
  0
SECTION
  2
TABLES
  0
TABLE
  2
VPORT
  5
8
330
0
100
AcDbSymbolTable
 70
     1
  0
VPORT
  5
29
330
8
100
AcDbSymbolTableRecord
100
AcDbViewportTableRecord
  2
*Active
 70
     0
 10
0.0
 20
0.0
 11
1.0
 21
1.0
 12
30.1875
 22
22.5
 13
0.0
 23
0.0
 14
0.5
 24
0.5
 15
0.5
 25
0.5
 16
0.0
 26
0.0
 36
1.0
 17
0.0
 27
0.0
 37
0.0
 40
45.0
 41
1.3416666667
 42
50.0
 43
0.0
 44
0.0
 50
0.0
 51
0.0
 71
     0
 72
  2000
 73
     1
 74
     3
 75
     0
 76
     0
 77
     0
 78
     0
281
     0
 65
     1
110
0.0
120
0.0
130
0.0
111
1.0
121
0.0
131
0.0
112
0.0
122
1.0
132
0.0
 79
     0
146
0.0
348
2F
 60
     3
 61
     5
292
     1
282
     1
141
0.0
142
0.0
 63
   250
361
6D
  0
ENDTAB
  0
TABLE
  2
LTYPE
  5
5
330
0
100
AcDbSymbolTable
 70
     6
  0
LTYPE
  5
14
330
5
100
AcDbSymbolTableRecord
100
AcDbLinetypeTableRecord
  2
ByBlock
 70
     0
  3

 72
    65
 73
     0
 40
0.0
  0
LTYPE
  5
15
330
5
100
AcDbSymbolTableRecord
100
AcDbLinetypeTableRecord
  2
ByLayer
 70
     0
  3

 72
    65
 73
     0
 40
0.0
  0
LTYPE
  5
16
330
5
100
AcDbSymbolTableRecord
100
AcDbLinetypeTableRecord
  2
Continuous
 70
     0
  3
Solid line
 72
    65
 73
     0
 40
0.0
  0
LTYPE
  5
6E
330
5
100
AcDbSymbolTableRecord
100
AcDbLinetypeTableRecord
  2
HIDDEN
 70
     0
  3
Hidden __ __ __ __ __ __ __ __ __ __ __ __ __ __
 72
    65
 73
     2
 40
0.075
 49
0.05
 74
     0
 49
-0.025
 74
     0
  0
LTYPE
  5
6F
330
5
100
AcDbSymbolTableRecord
100
AcDbLinetypeTableRecord
  2
PHANTOM
 70
     0
  3
Phantom ______  __  __  ______  __  __  ______
 72
    65
 73
     6
 40
0.5
 49
0.25
 74
     0
 49
-0.05
 74
     0
 49
0.05
 74
     0
 49
-0.05
 74
     0
 49
0.05
 74
     0
 49
-0.05
 74
     0
  0
LTYPE
  5
70
330
5
100
AcDbSymbolTableRecord
100
AcDbLinetypeTableRecord
  2
CENTER
 70
     0
  3
Center ____ _ ____ _ ____ _ ____ _ ____ _ ____
 72
    65
 73
     4
 40
0.4
 49
0.25
 74
     0
 49
-0.05
 74
     0
 49
0.05
 74
     0
 49
-0.05
 74
     0
  0
LTYPE
  5
71
330
5
100
AcDbSymbolTableRecord
100
AcDbLinetypeTableRecord
  2
CENTERX2
 70
     0
  3
Center (2x) ________  __  ________  __  _____
 72
    65
 73
     4
 40
0.8
 49
0.5
 74
     0
 49
-0.1
 74
     0
 49
0.1
 74
     0
 49
-0.1
 74
     0
  0
LTYPE
  5
72
330
5
100
AcDbSymbolTableRecord
100
AcDbLinetypeTableRecord
  2
DOT2
 70
     0
  3
Dot (.5x) ........................................
 72
    65
 73
     2
 40
0.025
 49
0.0
 74
     0
 49
-0.025
 74
     0
  0
ENDTAB
  0
TABLE
  2
LAYER
  5
2
330
0
100
AcDbSymbolTable
 70
     6
  0
LAYER
  5
10
330
2
100
AcDbSymbolTableRecord
100
AcDbLayerTableRecord
  2
0
 70
     0
 62
     7
  6
Continuous
370
    -3
390
F
347
46
  0
LAYER
  5
73
330
2
100
AcDbSymbolTableRecord
100
AcDbLayerTableRecord
  2
FORMAT
 70
     0
 62
     7
  6
Continuous
370
    -3
390
F
347
46
  0
LAYER
  5
74
330
2
100
AcDbSymbolTableRecord
100
AcDbLayerTableRecord
  2
NOTES
 70
     0
 62
     1
  6
Continuous
370
    -3
390
F
347
46
  0
LAYER
  5
75
330
2
100
AcDbSymbolTableRecord
100
AcDbLayerTableRecord
  2
OBJECT
 70
     0
 62
     7
  6
Continuous
370
    -3
390
F
347
46
  0
LAYER
  5
76
330
2
100
AcDbSymbolTableRecord
100
AcDbLayerTableRecord
  2
DIMS
 70
     0
 62
     5
  6
Continuous
370
    -3
390
F
347
46
  0
LAYER
  5
77
330
2
100
AcDbSymbolTableRecord
100
AcDbLayerTableRecord
  2
TITLE
 70
     0
 62
     8
  6
Continuous
370
    -3
390
F
347
46
  0
ENDTAB
  0
TABLE
  2
STYLE
  5
3
330
0
100
AcDbSymbolTable
 70
     4
  0
STYLE
  5
11
330
3
100
AcDbSymbolTableRecord
100
AcDbTextStyleTableRecord
  2
Standard
 70
     0
 40
0.0
 41
1.0
 50
0.0
 71
     0
 42
0.75
  3
txt
  4

  0
STYLE
  5
83
330
3
100
AcDbSymbolTableRecord
100
AcDbTextStyleTableRecord
  2
SLDTEXTSTYLE0
 70
     0
 40
0.0
 41
0.605
 50
0.0
 71
     0
 42
0.75
  3
TXT
  4

  0
STYLE
  5
87
330
3
100
AcDbSymbolTableRecord
100
AcDbTextStyleTableRecord
  2
SLDTEXTSTYLE1
 70
     0
 40
0.0
 41
0.75
 50
0.0
 71
     0
 42
0.75
  3
TXT
  4

  0
STYLE
  5
8A
330
3
100
AcDbSymbolTableRecord
100
AcDbTextStyleTableRecord
  2
SLDTEXTSTYLE2
 70
     0
 40
0.0
 41
0.6607142857
 50
0.0
 71
     0
 42
0.75
  3
TXT
  4

  0
ENDTAB
  0
TABLE
  2
VIEW
  5
6
330
0
100
AcDbSymbolTable
 70
     0
  0
ENDTAB
  0
TABLE
  2
UCS
  5
7
330
0
100
AcDbSymbolTable
 70
     0
  0
ENDTAB
  0
TABLE
  2
APPID
  5
9
330
0
100
AcDbSymbolTable
 70
     1
  0
APPID
  5
12
330
9
100
AcDbSymbolTableRecord
100
AcDbRegAppTableRecord
  2
ACAD
 70
     0
  0
ENDTAB
  0
TABLE
  2
DIMSTYLE
  5
A
330
0
100
AcDbSymbolTable
 70
     4
100
AcDbDimStyleTable
  0
DIMSTYLE
105
27
330
A
100
AcDbSymbolTableRecord
100
AcDbDimStyleTableRecord
  2
Standard
 70
     0
178
     0
340
11
  0
DIMSTYLE
105
12E
102
{ACAD_REACTORS
330
12D
330
363
102
}
330
A
100
AcDbSymbolTableRecord
100
AcDbDimStyleTableRecord
  2
SLDDIMSTYLE0
 70
     0
 41
0.75
 44
0.0
 45
0.000000001
 78
    12
 79
     3
140
0.75
147
0.1875
173
     1
178
     0
271
     2
272
     2
276
     2
277
     5
284
    12
340
87
341
12F
343
12F
344
12F
  0
DIMSTYLE
105
141
102
{ACAD_REACTORS
330
140
330
354
330
36E
330
43C
330
49D
102
}
330
A
100
AcDbSymbolTableRecord
100
AcDbDimStyleTableRecord
  2
SLDDIMSTYLE1
 70
     0
 41
0.75
 44
0.0
 45
0.000000001
 78
    12
 79
     3
140
0.75
147
0.1875
173
     1
178
     0
271
     6
272
     2
276
     2
277
     5
284
    12
340
87
341
12F
343
12F
344
12F
  0
DIMSTYLE
105
153
330
A
100
AcDbSymbolTableRecord
100
AcDbDimStyleTableRecord
  2
SLDDIMSTYLE2
 70
     0
 41
0.75
 44
0.0
 45
0.000000001
146
0.75
147
0.0
173
     1
178
     0
271
     0
272
     0
276
     2
277
     5
340
11
341
12F
343
12F
344
12F
  0
ENDTAB
  0
TABLE
  2
BLOCK_RECORD
  5
1
330
0
100
AcDbSymbolTable
 70
    13
  0
BLOCK_RECORD
  5
1F
330
1
100
AcDbSymbolTableRecord
100
AcDbBlockTableRecord
  2
*Model_Space
340
22
 70
     0
280
     1
281
     0
  0
BLOCK_RECORD
  5
1B
330
1
100
AcDbSymbolTableRecord
100
AcDbBlockTableRecord
  2
*Paper_Space
340
1E
 70
     0
280
     1
281
     0
  0
BLOCK_RECORD
  5
23
330
1
100
AcDbSymbolTableRecord
100
AcDbBlockTableRecord
  2
*Paper_Space0
340
26
 70
     0
280
     1
281
     0
  0
BLOCK_RECORD
  5
8E
330
1
100
AcDbSymbolTableRecord
100
AcDbBlockTableRecord
  2
SW_NOTE_0
340
0
102
{BLKREFS
331
93
102
}
 70
     0
280
     1
281
     0
  0
BLOCK_RECORD
  5
94
330
1
100
AcDbSymbolTableRecord
100
AcDbBlockTableRecord
  2
SW_NOTE_0_1
340
0
102
{BLKREFS
331
9B
102
}
 70
     0
280
     1
281
     0
  0
BLOCK_RECORD
  5
12F
330
1
100
AcDbSymbolTableRecord
100
AcDbBlockTableRecord
  2
_Open90
340
0
102
{BLKREFS
331
138
331
139
331
145
331
146
331
358
331
359
331
367
331
368
331
372
331
373
331
440
331
441
331
4A1
331
4A2
102
}
 70
     0
280
     1
281
     0
  0
BLOCK_RECORD
  5
135
330
1
100
AcDbSymbolTableRecord
100
AcDbBlockTableRecord
  2
_D
340
0
 70
     0
280
     1
281
     0
  0
BLOCK_RECORD
  5
142
330
1
100
AcDbSymbolTableRecord
100
AcDbBlockTableRecord
  2
_D_1
340
0
 70
     0
280
     1
281
     0
  0
BLOCK_RECORD
  5
1B5
330
1
100
AcDbSymbolTableRecord
100
AcDbBlockTableRecord
  2
SW_NOTE_0_2
340
0
102
{BLKREFS
331
1BA
102
}
 70
     0
280
     1
281
     0
  0
BLOCK_RECORD
  5
2A1
330
1
100
AcDbSymbolTableRecord
100
AcDbBlockTableRecord
  2
SW_NOTE_0_3
340
0
102
{BLKREFS
331
2A6
102
}
 70
     0
280
     1
281
     0
  0
BLOCK_RECORD
  5
355
330
1
100
AcDbSymbolTableRecord
100
AcDbBlockTableRecord
  2
_D_2
340
0
 70
     0
280
     1
281
     0
  0
BLOCK_RECORD
  5
364
330
1
100
AcDbSymbolTableRecord
100
AcDbBlockTableRecord
  2
_D_3
340
0
 70
     0
280
     1
281
     0
  0
BLOCK_RECORD
  5
36F
330
1
100
AcDbSymbolTableRecord
100
AcDbBlockTableRecord
  2
_D_4
340
0
 70
     0
280
     1
281
     0
  0
BLOCK_RECORD
  5
43D
330
1
100
AcDbSymbolTableRecord
100
AcDbBlockTableRecord
  2
_D_5
340
0
 70
     0
280
     1
281
     0
  0
BLOCK_RECORD
  5
49E
330
1
100
AcDbSymbolTableRecord
100
AcDbBlockTableRecord
  2
_D_6
340
0
 70
     0
280
     1
281
     0
  0
ENDTAB
  0
ENDSEC
  0
SECTION
  2
BLOCKS
  0
BLOCK
  5
20
330
1F
100
AcDbEntity
  8
0
100
AcDbBlockBegin
  2
*Model_Space
 70
     0
 10
0.0
 20
0.0
 30
0.0
  3
*Model_Space
  1

  0
ENDBLK
  5
21
330
1F
100
AcDbEntity
  8
0
100
AcDbBlockEnd
  0
BLOCK
  5
1C
330
1B
100
AcDbEntity
 67
     1
  8
0
100
AcDbBlockBegin
  2
*Paper_Space
 70
     0
 10
0.0
 20
0.0
 30
0.0
  3
*Paper_Space
  1

  0
ENDBLK
  5
1D
330
1B
100
AcDbEntity
 67
     1
  8
0
100
AcDbBlockEnd
  0
BLOCK
  5
24
330
23
100
AcDbEntity
  8
0
100
AcDbBlockBegin
  2
*Paper_Space0
 70
     0
 10
0.0
 20
0.0
 30
0.0
  3
*Paper_Space0
  1

  0
ENDBLK
  5
25
330
23
100
AcDbEntity
  8
0
100
AcDbBlockEnd
  0
BLOCK
  5
8F
330
8E
100
AcDbEntity
  8
0
100
AcDbBlockBegin
  2
SW_NOTE_0
 70
     0
 10
0.0
 20
0.0
 30
0.0
  3
SW_NOTE_0
  1

  0
MTEXT
  5
91
330
8E
100
AcDbEntity
  8
NOTES
 62
     0
100
AcDbMText
 10
0.0
 20
0.3759780908
 30
0.0
 40
0.2916666667
 41
0.0
 46
0.0
 71
     1
 72
     1
  1
FROST PRODUCTS LTD.
  7
SLDTEXTSTYLE0
 73
     1
 44
1.0
  0
MTEXT
  5
92
330
8E
100
AcDbEntity
  8
NOTES
 62
     0
100
AcDbMText
 10
0.0
 20
-0.0495142709
 30
0.0
 40
0.2291666667
 41
0.0
 46
0.0
 71
     1
 72
     1
  1
5280 JOHN LUCAS DRIVE, BURLINGTON, ON, L7L 5Z9
  7
SLDTEXTSTYLE0
 73
     1
 44
1.0
  0
ENDBLK
  5
90
330
8E
100
AcDbEntity
  8
0
100
AcDbBlockEnd
  0
BLOCK
  5
95
330
94
100
AcDbEntity
  8
0
100
AcDbBlockBegin
  2
SW_NOTE_0_1
 70
     0
 10
0.0
 20
0.0
 30
0.0
  3
SW_NOTE_0_1
  1

  0
MTEXT
  5
97
330
94
100
AcDbEntity
  8
NOTES
 62
     0
100
AcDbMText
 10
0.0
 20
0.2381282771
 30
0.0
 40
0.184729064
 41
0.0
 46
0.0
 71
     1
 72
     1
  1
PROPRIETARY AND CONFIDENTIAL
  7
SLDTEXTSTYLE0
 73
     1
 44
1.0
  0
MTEXT
  5
98
330
94
100
AcDbEntity
  8
NOTES
 62
     0
100
AcDbMText
 10
0.0
 20
-0.0504364796
 30
0.0
 40
0.25
 41
0.0
 46
0.0
 71
     1
 72
     1
  1
THE INFORMATION CONTAINED IN THIS DRAWING IS THE SOLE PROPERTY OF
  7
SLDTEXTSTYLE0
 73
     1
 44
1.0
  0
MTEXT
  5
99
330
94
100
AcDbEntity
  8
NOTES
 62
     0
100
AcDbMText
 10
0.0
 20
-0.4231398941
 30
0.0
 40
0.25
 41
0.0
 46
0.0
 71
     1
 72
     1
  1
FROST PRODUCTS LTD.  ANY REPRODUCTION IN PART OR AS A WHOLE WITHOUT
  7
SLDTEXTSTYLE0
 73
     1
 44
1.0
  0
MTEXT
  5
9A
330
94
100
AcDbEntity
  8
NOTES
 62
     0
100
AcDbMText
 10
0.0
 20
-0.7958433086
 30
0.0
 40
0.25
 41
0.0
 46
0.0
 71
     1
 72
     1
  1
THE WRITTEN PERMISSION OF FROST PRODUCTS LTD. IS PROHIBITED.
  7
SLDTEXTSTYLE0
 73
     1
 44
1.0
  0
ENDBLK
  5
96
330
94
100
AcDbEntity
  8
0
100
AcDbBlockEnd
  0
BLOCK
  5
130
330
12F
100
AcDbEntity
  8
0
100
AcDbBlockBegin
  2
_Open90
 70
     0
 10
0.0
 20
0.0
 30
0.0
  3
_Open90
  1

  0
LINE
  5
132
330
12F
100
AcDbEntity
  8
0
  6
ByBlock
 62
     0
370
    -2
100
AcDbLine
 10
-0.5
 20
0.5
 30
0.0
 11
0.0
 21
0.0
 31
0.0
  0
LINE
  5
133
330
12F
100
AcDbEntity
  8
0
  6
ByBlock
 62
     0
370
    -2
100
AcDbLine
 10
0.0
 20
0.0
 30
0.0
 11
-0.5
 21
-0.5
 31
0.0
  0
LINE
  5
134
330
12F
100
AcDbEntity
  8
0
  6
ByBlock
 62
     0
370
    -2
100
AcDbLine
 10
0.0
 20
0.0
 30
0.0
 11
-1.0
 21
0.0
 31
0.0
  0
ENDBLK
  5
131
330
12F
100
AcDbEntity
  8
0
100
AcDbBlockEnd
  0
BLOCK
  5
136
330
135
100
AcDbEntity
  8
0
100
AcDbBlockBegin
  2
_D
 70
     0
 10
0.0
 20
0.0
 30
0.0
  3
_D
  1

  0
INSERT
  5
138
330
135
100
AcDbEntity
  8
DIMS
100
AcDbBlockReference
  2
_Open90
 10
3.1182996275
 20
7.2542807999
 30
0.0
 41
0.75
 42
0.75
 50
270.0
  0
INSERT
  5
139
330
135
100
AcDbEntity
  8
DIMS
100
AcDbBlockReference
  2
_Open90
 10
3.1182996275
 20
14.677177745
 30
0.0
 41
0.75
 42
0.75
 50
90.0
  0
LINE
  5
13A
330
135
100
AcDbEntity
  8
DIMS
100
AcDbLine
 10
4.7721861105
 20
14.677177745
 30
0.0
 11
2.7432996275
 21
14.677177745
 31
0.0
  0
LINE
  5
13B
330
135
100
AcDbEntity
  8
DIMS
100
AcDbLine
 10
3.1182996275
 20
7.2542807999
 30
0.0
 11
3.1182996275
 21
8.954232409
 31
0.0
  0
LINE
  5
13C
330
135
100
AcDbEntity
  8
DIMS
100
AcDbLine
 10
3.1182996275
 20
14.677177745
 30
0.0
 11
3.1182996275
 21
12.5261073331
 31
0.0
  0
MTEXT
  5
13D
330
135
100
AcDbEntity
  8
DIMS
100
AcDbMText
 10
2.6073596784
 20
12.3022831388
 30
0.0
 40
0.75
 41
0.0
 46
0.0
 71
     1
 72
     1
  1
48"(1220mm)
  7
SLDTEXTSTYLE1
 73
     1
 44
1.0
  0
MTEXT
  5
13E
330
135
100
AcDbEntity
  8
DIMS
100
AcDbMText
 10
2.6073596784
 20
11.1116581396
 30
0.0
 40
0.75
 41
0.0
 46
0.0
 71
     1
 72
     1
  1
Max height to bottom of unit
  7
SLDTEXTSTYLE1
 73
     1
 44
1.0
  0
MTEXT
  5
13F
330
135
100
AcDbEntity
  8
DIMS
100
AcDbMText
 10
2.6073596784
 20
9.9210331405
 30
0.0
 40
0.75
 41
0.0
 46
0.0
 71
     1
 72
     1
  1
for unrestricted access
  7
SLDTEXTSTYLE1
 73
     1
 44
1.0
  0
ENDBLK
  5
137
330
135
100
AcDbEntity
  8
0
100
AcDbBlockEnd
  0
BLOCK
  5
143
330
142
100
AcDbEntity
  8
0
100
AcDbBlockBegin
  2
_D_1
 70
     0
 10
0.0
 20
0.0
 30
0.0
  3
_D_1
  1

  0
INSERT
  5
145
330
142
100
AcDbEntity
  8
DIMS
100
AcDbBlockReference
  2
_Open90
 10
3.1182996275
 20
30.737177745
 30
-0.110630303
 41
0.75
 42
0.75
 50
90.0
  0
INSERT
  5
146
330
142
100
AcDbEntity
  8
DIMS
100
AcDbBlockReference
  2
_Open90
 10
3.1182996275
 20
14.677177745
 30
-0.110630303
 41
0.75
 42
0.75
 50
270.0
  0
LINE
  5
147
330
142
100
AcDbEntity
  8
DIMS
100
AcDbLine
 10
2.853716164
 20
23.0346057198
 30
0.0
 11
4.1818412614
 21
23.0346057198
 31
0.0
  0
LINE
  5
148
330
142
100
AcDbEntity
  8
DIMS
100
AcDbLine
 10
6.7486861105
 20
30.737177745
 30
0.0
 11
2.7432996275
 21
30.737177745
 31
0.0
  0
LINE
  5
149
330
142
100
AcDbEntity
  8
DIMS
100
AcDbLine
 10
4.7721861105
 20
14.677177745
 30
0.0
 11
2.7432996275
 21
14.677177745
 31
0.0
  0
LINE
  5
14A
330
142
100
AcDbEntity
  8
DIMS
100
AcDbLine
 10
3.1182996275
 20
30.737177745
 30
0.0
 11
3.1182996275
 21
23.9384599067
 31
0.0
  0
LINE
  5
14B
330
142
100
AcDbEntity
  8
DIMS
100
AcDbLine
 10
3.1182996275
 20
14.677177745
 30
0.0
 11
3.1182996275
 21
21.9768973002
 31
0.0
  0
MTEXT
  5
14C
330
142
100
AcDbEntity
  8
DIMS
100
AcDbMText
 10
1.6354869838
 20
23.3875002982
 30
0.0
 40
0.75
 41
0.0
 46
0.0
 71
     1
 72
     1
  1
16
  7
SLDTEXTSTYLE1
 73
     1
 44
1.0
  0
MTEXT
  5
14D
330
142
100
AcDbEntity
  8
DIMS
100
AcDbMText
 10
3.2406953786
 20
23.935469033
 30
0.0
 40
0.75
 41
0.0
 46
0.0
 71
     1
 72
     1
  1
1
  7
SLDTEXTSTYLE1
 73
     1
 44
1.0
  0
MTEXT
  5
14E
330
142
100
AcDbEntity
  8
DIMS
100
AcDbMText
 10
2.9636120445
 20
22.9436981669
 30
0.0
 40
0.75
 41
0.0
 46
0.0
 71
     1
 72
     1
  1
16
  7
SLDTEXTSTYLE1
 73
     1
 44
1.0
  0
MTEXT
  5
14F
330
142
100
AcDbEntity
  8
DIMS
100
AcDbMText
 10
4.2917371786
 20
23.3875002982
 30
0.0
 40
0.75
 41
0.0
 46
0.0
 71
     1
 72
     1
  1
"
  7
SLDTEXTSTYLE1
 73
     1
 44
1.0
  0
ENDBLK
  5
144
330
142
100
AcDbEntity
  8
0
100
AcDbBlockEnd
  0
BLOCK
  5
1B6
330
1B5
100
AcDbEntity
  8
0
100
AcDbBlockBegin
  2
SW_NOTE_0_2
 70
     0
 10
0.0
 20
0.0
 30
0.0
  3
SW_NOTE_0_2
  1

  0
MTEXT
  5
1B8
330
1B5
100
AcDbEntity
  8
NOTES
 62
     0
100
AcDbMText
 10
0.0
 20
0.9668008048
 30
0.0
 40
0.75
 41
0.0
 46
0.0
 71
     1
 72
     1
  1
Side view
  7
SLDTEXTSTYLE1
 73
     1
 44
1.0
  0
MTEXT
  5
1B9
330
1B5
100
AcDbEntity
  8
NOTES
 62
     0
100
AcDbMText
 10
0.0
 20
-0.2831992351
 30
0.0
 40
0.75
 41
0.0
 46
0.0
 71
     1
 72
     1
  1
open
  7
SLDTEXTSTYLE1
 73
     1
 44
1.0
  0
ENDBLK
  5
1B7
330
1B5
100
AcDbEntity
  8
0
100
AcDbBlockEnd
  0
BLOCK
  5
2A2
330
2A1
100
AcDbEntity
  8
0
100
AcDbBlockBegin
  2
SW_NOTE_0_3
 70
     0
 10
0.0
 20
0.0
 30
0.0
  3
SW_NOTE_0_3
  1

  0
MTEXT
  5
2A4
330
2A1
100
AcDbEntity
  8
NOTES
 62
     0
100
AcDbMText
 10
0.0
 20
0.9668008048
 30
0.0
 40
0.75
 41
0.0
 46
0.0
 71
     1
 72
     1
  1
3D view
  7
SLDTEXTSTYLE1
 73
     1
 44
1.0
  0
MTEXT
  5
2A5
330
2A1
100
AcDbEntity
  8
NOTES
 62
     0
100
AcDbMText
 10
0.0
 20
-0.2831992534
 30
0.0
 40
0.75
 41
0.0
 46
0.0
 71
     1
 72
     1
  1
614-S-S
  7
SLDTEXTSTYLE1
 73
     1
 44
1.0
  0
ENDBLK
  5
2A3
330
2A1
100
AcDbEntity
  8
0
100
AcDbBlockEnd
  0
BLOCK
  5
356
330
355
100
AcDbEntity
  8
0
100
AcDbBlockBegin
  2
_D_2
 70
     0
 10
0.0
 20
0.0
 30
0.0
  3
_D_2
  1

  0
INSERT
  5
358
330
355
100
AcDbEntity
  8
DIMS
100
AcDbBlockReference
  2
_Open90
 10
43.2421461647
 20
32.0001464586
 30
0.110630303
 41
0.75
 42
0.75
 50
180.0
  0
INSERT
  5
359
330
355
100
AcDbEntity
  8
DIMS
100
AcDbBlockReference
  2
_Open90
 10
46.7421461647
 20
32.0001464586
 30
0.110630303
 41
0.75
 42
0.75
 50
0.0
  0
LINE
  5
35A
330
355
100
AcDbEntity
  8
DIMS
100
AcDbLine
 10
44.7275628112
 20
32.077073575
 30
0.0
 11
45.5015212037
 21
32.077073575
 31
0.0
  0
LINE
  5
35B
330
355
100
AcDbEntity
  8
DIMS
100
AcDbLine
 10
43.2421461647
 20
29.7463928288
 30
0.0
 11
43.2421461647
 21
32.3751464586
 31
0.0
  0
LINE
  5
35C
330
355
100
AcDbEntity
  8
DIMS
100
AcDbLine
 10
46.7421461647
 20
29.7463928288
 30
0.0
 11
46.7421461647
 21
32.3751464586
 31
0.0
  0
LINE
  5
35D
330
355
100
AcDbEntity
  8
DIMS
100
AcDbLine
 10
43.2421461647
 20
32.0001464586
 30
0.0
 11
44.0635002992
 21
32.0001464586
 31
0.0
  0
LINE
  5
35E
330
355
100
AcDbEntity
  8
DIMS
100
AcDbLine
 10
46.7421461647
 20
32.0001464586
 30
0.0
 11
45.9207920302
 21
32.0001464586
 31
0.0
  0
MTEXT
  5
35F
330
355
100
AcDbEntity
  8
DIMS
100
AcDbMText
 10
44.0635002992
 20
32.4299681534
 30
0.0
 40
0.75
 41
0.0
 46
0.0
 71
     1
 72
     1
  1
3
  7
SLDTEXTSTYLE1
 73
     1
 44
1.0
  0
MTEXT
  5
360
330
355
100
AcDbEntity
  8
DIMS
100
AcDbMText
 10
44.8374586733
 20
32.9779368882
 30
0.0
 40
0.75
 41
0.0
 46
0.0
 71
     1
 72
     1
  1
1
  7
SLDTEXTSTYLE1
 73
     1
 44
1.0
  0
MTEXT
  5
361
330
355
100
AcDbEntity
  8
DIMS
100
AcDbMText
 10
44.8374586733
 20
31.9861660221
 30
0.0
 40
0.75
 41
0.0
 46
0.0
 71
     1
 72
     1
  1
2
  7
SLDTEXTSTYLE1
 73
     1
 44
1.0
  0
MTEXT
  5
362
330
355
100
AcDbEntity
  8
DIMS
100
AcDbMText
 10
45.6114170842
 20
32.4299681534
 30
0.0
 40
0.75
 41
0.0
 46
0.0
 71
     1
 72
     1
  1
"
  7
SLDTEXTSTYLE1
 73
     1
 44
1.0
  0
ENDBLK
  5
357
330
355
100
AcDbEntity
  8
0
100
AcDbBlockEnd
  0
BLOCK
  5
365
330
364
100
AcDbEntity
  8
0
100
AcDbBlockBegin
  2
_D_3
 70
     0
 10
0.0
 20
0.0
 30
0.0
  3
_D_3
  1

  0
INSERT
  5
367
330
364
100
AcDbEntity
  8
DIMS
100
AcDbBlockReference
  2
_Open90
 10
41.24903396
 20
29.5797261621
 30
0.110630303
 41
0.75
 42
0.75
 50
90.0
  0
INSERT
  5
368
330
364
100
AcDbEntity
  8
DIMS
100
AcDbBlockReference
  2
_Open90
 10
41.24903396
 20
17.5797261621
 30
0.110630303
 41
0.75
 42
0.75
 50
270.0
  0
LINE
  5
369
330
364
100
AcDbEntity
  8
DIMS
100
AcDbLine
 10
43.075479498
 20
29.5797261621
 30
0.0
 11
40.87403396
 21
29.5797261621
 31
0.0
  0
LINE
  5
36A
330
364
100
AcDbEntity
  8
DIMS
100
AcDbLine
 10
43.075479498
 20
17.5797261621
 30
0.0
 11
40.87403396
 21
17.5797261621
 31
0.0
  0
LINE
  5
36B
330
364
100
AcDbEntity
  8
DIMS
100
AcDbLine
 10
41.24903396
 20
29.5797261621
 30
0.0
 11
41.24903396
 21
24.0692631541
 31
0.0
  0
LINE
  5
36C
330
364
100
AcDbEntity
  8
DIMS
100
AcDbLine
 10
41.24903396
 20
17.5797261621
 30
0.0
 11
41.24903396
 21
22.878638155
 31
0.0
  0
MTEXT
  5
36D
330
364
100
AcDbEntity
  8
DIMS
100
AcDbMText
 10
40.5401797821
 20
23.8454389598
 30
0.0
 40
0.75
 41
0.0
 46
0.0
 71
     1
 72
     1
  1
12"
  7
SLDTEXTSTYLE1
 73
     1
 44
1.0
  0
ENDBLK
  5
366
330
364
100
AcDbEntity
  8
0
100
AcDbBlockEnd
  0
BLOCK
  5
370
330
36F
100
AcDbEntity
  8
0
100
AcDbBlockBegin
  2
_D_4
 70
     0
 10
0.0
 20
0.0
 30
0.0
  3
_D_4
  1

  0
INSERT
  5
372
330
36F
100
AcDbEntity
  8
DIMS
100
AcDbBlockReference
  2
_Open90
 10
41.24903396
 20
17.5797261621
 30
0.110630303
 41
0.75
 42
0.75
 50
90.0
  0
INSERT
  5
373
330
36F
100
AcDbEntity
  8
DIMS
100
AcDbBlockReference
  2
_Open90
 10
41.24903396
 20
14.8297261621
 30
0.110630303
 41
0.75
 42
0.75
 50
270.0
  0
LINE
  5
374
330
36F
100
AcDbEntity
  8
DIMS
100
AcDbLine
 10
40.9844506065
 20
16.2816532784
 30
0.0
 11
41.758408999
 21
16.2816532784
 31
0.0
  0
LINE
  5
375
330
36F
100
AcDbEntity
  8
DIMS
100
AcDbLine
 10
43.075479498
 20
17.5797261621
 30
0.0
 11
40.87403396
 21
17.5797261621
 31
0.0
  0
LINE
  5
376
330
36F
100
AcDbEntity
  8
DIMS
100
AcDbLine
 10
42.400479498
 20
14.8297261621
 30
0.0
 11
40.87403396
 21
14.8297261621
 31
0.0
  0
LINE
  5
377
330
36F
100
AcDbEntity
  8
DIMS
100
AcDbLine
 10
41.24903396
 20
17.5797261621
 30
0.0
 11
41.24903396
 21
17.1855074654
 31
0.0
  0
LINE
  5
378
330
36F
100
AcDbEntity
  8
DIMS
100
AcDbLine
 10
41.24903396
 20
14.8297261621
 30
0.0
 11
41.24903396
 21
15.2239448588
 31
0.0
  0
MTEXT
  5
379
330
36F
100
AcDbEntity
  8
DIMS
100
AcDbMText
 10
40.3203880944
 20
16.6345478568
 30
0.0
 40
0.75
 41
0.0
 46
0.0
 71
     1
 72
     1
  1
2
  7
SLDTEXTSTYLE1
 73
     1
 44
1.0
  0
MTEXT
  5
37A
330
36F
100
AcDbEntity
  8
DIMS
100
AcDbMText
 10
41.0943464686
 20
17.1825165916
 30
0.0
 40
0.75
 41
0.0
 46
0.0
 71
     1
 72
     1
  1
3
  7
SLDTEXTSTYLE1
 73
     1
 44
1.0
  0
MTEXT
  5
37B
330
36F
100
AcDbEntity
  8
DIMS
100
AcDbMText
 10
41.0943464686
 20
16.1907457255
 30
0.0
 40
0.75
 41
0.0
 46
0.0
 71
     1
 72
     1
  1
4
  7
SLDTEXTSTYLE1
 73
     1
 44
1.0
  0
MTEXT
  5
37C
330
36F
100
AcDbEntity
  8
DIMS
100
AcDbMText
 10
41.8683048794
 20
16.6345478568
 30
0.0
 40
0.75
 41
0.0
 46
0.0
 71
     1
 72
     1
  1
"
  7
SLDTEXTSTYLE1
 73
     1
 44
1.0
  0
ENDBLK
  5
371
330
36F
100
AcDbEntity
  8
0
100
AcDbBlockEnd
  0
BLOCK
  5
43E
330
43D
100
AcDbEntity
  8
0
100
AcDbBlockBegin
  2
_D_5
 70
     0
 10
0.0
 20
0.0
 30
0.0
  3
_D_5
  1

  0
INSERT
  5
440
330
43D
100
AcDbEntity
  8
DIMS
100
AcDbBlockReference
  2
_Open90
 10
4.7838527772
 20
35.6886109228
 30
-2.05498863
 41
0.75
 42
0.75
 50
180.0
  0
INSERT
  5
441
330
43D
100
AcDbEntity
  8
DIMS
100
AcDbBlockReference
  2
_Open90
 10
9.8838527772
 20
35.6886109228
 30
-2.05498863
 41
0.75
 42
0.75
 50
0.0
  0
LINE
  5
442
330
43D
100
AcDbEntity
  8
DIMS
100
AcDbLine
 10
7.2239718966
 20
35.7655380391
 30
0.0
 11
7.9979302891
 21
35.7655380391
 31
0.0
  0
LINE
  5
443
330
43D
100
AcDbEntity
  8
DIMS
100
AcDbLine
 10
4.7838527772
 20
38.5568497679
 30
0.0
 11
4.7838527772
 21
35.3136109228
 31
0.0
  0
LINE
  5
444
330
43D
100
AcDbEntity
  8
DIMS
100
AcDbLine
 10
9.8838527772
 20
38.5568497679
 30
0.0
 11
9.8838527772
 21
35.3136109228
 31
0.0
  0
LINE
  5
445
330
43D
100
AcDbEntity
  8
DIMS
100
AcDbLine
 10
4.7838527772
 20
35.6886109228
 30
0.0
 11
6.5599093846
 21
35.6886109228
 31
0.0
  0
LINE
  5
446
330
43D
100
AcDbEntity
  8
DIMS
100
AcDbLine
 10
9.8838527772
 20
35.6886109228
 30
0.0
 11
8.4172011157
 21
35.6886109228
 31
0.0
  0
MTEXT
  5
447
330
43D
100
AcDbEntity
  8
DIMS
100
AcDbMText
 10
6.5599093846
 20
36.1184326175
 30
0.0
 40
0.75
 41
0.0
 46
0.0
 71
     1
 72
     1
  1
5
  7
SLDTEXTSTYLE1
 73
     1
 44
1.0
  0
MTEXT
  5
448
330
43D
100
AcDbEntity
  8
DIMS
100
AcDbMText
 10
7.3338677588
 20
36.6664013523
 30
0.0
 40
0.75
 41
0.0
 46
0.0
 71
     1
 72
     1
  1
1
  7
SLDTEXTSTYLE1
 73
     1
 44
1.0
  0
MTEXT
  5
449
330
43D
100
AcDbEntity
  8
DIMS
100
AcDbMText
 10
7.3338677588
 20
35.6746304862
 30
0.0
 40
0.75
 41
0.0
 46
0.0
 71
     1
 72
     1
  1
8
  7
SLDTEXTSTYLE1
 73
     1
 44
1.0
  0
MTEXT
  5
44A
330
43D
100
AcDbEntity
  8
DIMS
100
AcDbMText
 10
8.1078261696
 20
36.1184326175
 30
0.0
 40
0.75
 41
0.0
 46
0.0
 71
     1
 72
     1
  1
"
  7
SLDTEXTSTYLE1
 73
     1
 44
1.0
  0
ENDBLK
  5
43F
330
43D
100
AcDbEntity
  8
0
100
AcDbBlockEnd
  0
BLOCK
  5
49F
330
49E
100
AcDbEntity
  8
0
100
AcDbBlockBegin
  2
_D_6
 70
     0
 10
0.0
 20
0.0
 30
0.0
  3
_D_6
  1

  0
INSERT
  5
4A1
330
49E
100
AcDbEntity
  8
DIMS
100
AcDbBlockReference
  2
_Open90
 10
12.9275864709
 20
31.6802539308
 30
1.6990999887
 41
0.75
 42
0.75
 50
180.0
  0
INSERT
  5
4A2
330
49E
100
AcDbEntity
  8
DIMS
100
AcDbBlockReference
  2
_Open90
 10
17.1327409909
 20
31.6802539308
 30
1.6990999887
 41
0.75
 42
0.75
 50
0.0
  0
LINE
  5
4A3
330
49E
100
AcDbEntity
  8
DIMS
100
AcDbLine
 10
14.4922235787
 20
31.7571810471
 30
0.0
 11
15.8203486761
 21
31.7571810471
 31
0.0
  0
LINE
  5
4A4
330
49E
100
AcDbEntity
  8
DIMS
100
AcDbLine
 10
12.9275864709
 20
30.7545516303
 30
0.0
 11
12.9275864709
 21
32.0552539308
 31
0.0
  0
LINE
  5
4A5
330
49E
100
AcDbEntity
  8
DIMS
100
AcDbLine
 10
17.1327409909
 20
30.5688444117
 30
0.0
 11
17.1327409909
 21
32.0552539308
 31
0.0
  0
LINE
  5
4A6
330
49E
100
AcDbEntity
  8
DIMS
100
AcDbLine
 10
12.9275864709
 20
31.6802539308
 30
0.0
 11
13.8281610667
 21
31.6802539308
 31
0.0
  0
LINE
  5
4A7
330
49E
100
AcDbEntity
  8
DIMS
100
AcDbLine
 10
17.1327409909
 20
31.6802539308
 30
0.0
 11
16.2396195026
 21
31.6802539308
 31
0.0
  0
MTEXT
  5
4A8
330
49E
100
AcDbEntity
  8
DIMS
100
AcDbMText
 10
13.8281610667
 20
32.1100756255
 30
0.0
 40
0.75
 41
0.0
 46
0.0
 71
     1
 72
     1
  1
4
  7
SLDTEXTSTYLE1
 73
     1
 44
1.0
  0
MTEXT
  5
4A9
330
49E
100
AcDbEntity
  8
DIMS
100
AcDbMText
 10
14.8792027933
 20
32.6580443604
 30
0.0
 40
0.75
 41
0.0
 46
0.0
 71
     1
 72
     1
  1
3
  7
SLDTEXTSTYLE1
 73
     1
 44
1.0
  0
MTEXT
  5
4AA
330
49E
100
AcDbEntity
  8
DIMS
100
AcDbMText
 10
14.6021194592
 20
31.6662734943
 30
0.0
 40
0.75
 41
0.0
 46
0.0
 71
     1
 72
     1
  1
16
  7
SLDTEXTSTYLE1
 73
     1
 44
1.0
  0
MTEXT
  5
4AB
330
49E
100
AcDbEntity
  8
DIMS
100
AcDbMText
 10
15.9302445565
 20
32.1100756255
 30
0.0
 40
0.75
 41
0.0
 46
0.0
 71
     1
 72
     1
  1
"
  7
SLDTEXTSTYLE1
 73
     1
 44
1.0
  0
ENDBLK
  5
4A0
330
49E
100
AcDbEntity
  8
0
100
AcDbBlockEnd
  0
ENDSEC
  0
SECTION
  2
ENTITIES
  0
LINE
  5
78
330
1F
100
AcDbEntity
  8
TITLE
370
    50
100
AcDbLine
 10
43.018223024
 20
1.3813118861
 30
0.0
 11
59.9999864512
 21
1.3813118861
 31
0.0
  0
LINE
  5
79
330
1F
100
AcDbEntity
  8
TITLE
370
    50
100
AcDbLine
 10
59.9999317442
 20
5.3690605151
 30
0.0
 11
49.8105350723
 21
5.3690605151
 31
0.0
  0
LINE
  5
7A
330
1F
100
AcDbEntity
  8
TITLE
370
    50
100
AcDbLine
 10
43.018223024
 20
2.4364878447
 30
0.0
 11
36.0059791203
 21
2.4364878447
 31
0.0
  0
LINE
  5
7B
330
1F
100
AcDbEntity
  8
TITLE
370
    50
100
AcDbLine
 10
43.018223024
 20
1.3813118861
 30
0.0
 11
36.0059791203
 21
1.3813118861
 31
0.0
  0
LINE
  5
7C
330
1F
100
AcDbEntity
  8
TITLE
370
    50
100
AcDbLine
 10
43.018223024
 20
1.3813118861
 30
0.0
 11
43.018223024
 21
3.4916638033
 31
0.0
  0
LINE
  5
7D
330
1F
100
AcDbEntity
  8
TITLE
370
    50
100
AcDbLine
 10
36.0059791203
 20
3.4916638033
 30
0.0
 11
36.0059791203
 21
0.3937001216
 31
0.0
  0
LINE
  5
7E
330
1F
100
AcDbEntity
  8
TITLE
370
    50
100
AcDbLine
 10
36.0059791203
 20
0.3937001216
 30
0.0
 11
60.0
 21
0.3937001216
 31
0.0
  0
LINE
  5
7F
330
1F
100
AcDbEntity
  8
TITLE
370
    50
100
AcDbLine
 10
59.9999317442
 20
5.3690605151
 30
0.0
 11
60.0
 21
0.3937001216
 31
0.0
  0
LINE
  5
80
330
1F
100
AcDbEntity
  8
TITLE
370
    50
100
AcDbLine
 10
43.018223024
 20
3.4916638033
 30
0.0
 11
36.0059791203
 21
3.4916638033
 31
0.0
  0
LINE
  5
81
330
1F
100
AcDbEntity
  8
TITLE
370
    50
100
AcDbLine
 10
43.018223024
 20
3.4916638033
 30
0.0
 11
59.9997615643
 21
3.4916649559
 31
0.0
  0
LINE
  5
82
330
1F
100
AcDbEntity
  8
TITLE
370
    50
100
AcDbLine
 10
49.8105350723
 20
5.3690605151
 30
0.0
 11
49.8105350723
 21
0.3573773641
 31
0.0
  0
MTEXT
  5
84
330
1F
100
AcDbEntity
  8
NOTES
100
AcDbMText
 10
36.908297803
 20
0.9639904563
 30
0.0
 40
0.25
 41
0.0
 46
0.0
 71
     1
 72
     1
  1
UNLESS OTHERWISE SPECIFIED DIMENSIONS ARE IN INCHES.
  7
SLDTEXTSTYLE0
 73
     1
 44
1.0
  0
MTEXT
  5
85
330
1F
100
AcDbEntity
  8
NOTES
100
AcDbMText
 10
36.9300699279
 20
2.9767628992
 30
0.0
 40
0.25
 41
0.0
 46
0.0
 71
     1
 72
     1
  1
DATE:
  7
SLDTEXTSTYLE0
 73
     1
 44
1.0
  0
MTEXT
  5
86
330
1F
100
AcDbEntity
  8
NOTES
100
AcDbMText
 10
39.038701188
 20
2.0867330853
 30
0.0
 40
0.25
 41
0.0
 46
0.0
 71
     2
 72
     1
  1
DO NOT SCALE DRAWING
  7
SLDTEXTSTYLE0
 73
     1
 44
1.0
  0
MTEXT
  5
88
330
1F
100
AcDbEntity
  8
NOTES
100
AcDbMText
 10
43.3307373075
 20
3.1649066743
 30
0.0
 40
0.25
 41
0.0
 46
0.0
 71
     1
 72
     1
  1
TITLE:
  7
SLDTEXTSTYLE1
 73
     1
 44
1.0
  0
MTEXT
  5
89
330
1F
100
AcDbEntity
  8
NOTES
100
AcDbMText
 10
50.6561831052
 20
3.1649066743
 30
0.0
 40
0.25
 41
0.0
 46
0.0
 71
     1
 72
     1
  1
DWG NO.
  7
SLDTEXTSTYLE1
 73
     1
 44
1.0
  0
MTEXT
  5
8B
330
1F
100
AcDbEntity
  8
NOTES
100
AcDbMText
 10
50.6831753203
 20
0.9612126767
 30
0.0
 40
0.25
 41
0.0
 46
0.0
 71
     1
 72
     1
  1
SCALE:     1:1
  7
SLDTEXTSTYLE2
 73
     1
 44
1.0
  0
MTEXT
  5
8C
330
1F
100
AcDbEntity
  8
NOTES
100
AcDbMText
 10
54.6819861958
 20
2.5476655485
 30
0.0
 40
0.25
 41
0.0
 46
0.0
 71
     2
 72
     1
  1
614-S CAD
  7
SLDTEXTSTYLE1
 73
     1
 44
1.0
  0
MTEXT
  5
8D
330
1F
100
AcDbEntity
  8
NOTES
100
AcDbMText
 10
46.9385988065
 20
2.5476655485
 30
0.0
 40
0.25
 41
0.0
 46
0.0
 71
     2
 72
     1
  1
614-S
  7
SLDTEXTSTYLE1
 73
     1
 44
1.0
  0
INSERT
  5
93
330
1F
100
AcDbEntity
  8
NOTES
100
AcDbBlockReference
  2
SW_NOTE_0
 10
50.766131557
 20
4.5042229054
 30
0.0
  0
INSERT
  5
9B
330
1F
100
AcDbEntity
  8
NOTES
100
AcDbBlockReference
  2
SW_NOTE_0_1
 10
37.1159726246
 20
5.0418528064
 30
0.0
  0
MTEXT
  5
9C
330
1F
100
AcDbEntity
  8
NOTES
100
AcDbMText
 10
39.9863020735
 20
2.9831044458
 30
0.0
 40
0.25
 41
0.0
 46
0.0
 71
     2
 72
     1
  1
August 5, 2022
  7
SLDTEXTSTYLE1
 73
     1
 44
1.0
  0
LINE
  5
9D
330
1F
100
AcDbEntity
  8
0
  6
Continuous
 62
     7
370
    25
100
AcDbLine
 10
4.7769777772
 20
18.0439826715
 30
0.0
 11
4.7301027772
 21
18.0439826715
 31
0.0
  0
LINE
  5
9E
330
1F
100
AcDbEntity
  8
0
  6
Continuous
 62
     7
370
    25
100
AcDbLine
 10
4.7301027772
 20
17.7159826715
 30
0.0
 11
4.7769777772
 21
17.7159826715
 31
0.0
  0
LINE
  5
9F
330
1F
100
AcDbEntity
  8
0
  6
Continuous
 62
     7
370
    25
100
AcDbLine
 10
4.7838527772
 20
17.9889826715
 30
0.0
 11
4.7769777772
 21
17.9889826715
 31
0.0
  0
LINE
  5
A0
330
1F
100
AcDbEntity
  8
0
  6
Continuous
 62
     7
370
    25
100
AcDbLine
 10
4.7769777772
 20
17.7709826715
 30
0.0
 11
4.7838527772
 21
17.7709826715
 31
0.0
  0
LINE
  5
A1
330
1F
100
AcDbEntity
  8
0
  6
Continuous
 62
     7
370
    25
100
AcDbLine
 10
9.8907277772
 20
17.7159826715
 30
0.0
 11
9.9376027772
 21
17.7159826715
 31
0.0
  0
LINE
  5
A2
330
1F
100
AcDbEntity
  8
0
  6
Continuous
 62
     7
370
    25
100
AcDbLine
 10
9.9376027772
 20
18.0439826715
 30
0.0
 11
9.8907277772
 21
18.0439826715
 31
0.0
  0
LINE
  5
A3
330
1F
100
AcDbEntity
  8
0
  6
Continuous
 62
     7
370
    25
100
AcDbLine
 10
9.8838527772
 20
17.7709826715
 30
0.0
 11
9.8907277772
 21
17.7709826715
 31
0.0
  0
LINE
  5
A4
330
1F
100
AcDbEntity
  8
0
  6
Continuous
 62
     7
370
    25
100
AcDbLine
 10
9.8907277772
 20
17.9889826715
 30
0.0
 11
9.8838527772
 21
17.9889826715
 31
0.0
  0
LINE
  5
A5
330
1F
100
AcDbEntity
  8
0
  6
Continuous
 62
     7
370
    25
100
AcDbLine
 10
7.7773527772
 20
30.6168849637
 30
0.0
 11
7.7773527772
 21
30.712177745
 31
0.0
  0
LINE
  5
A6
330
1F
100
AcDbEntity
  8
0
  6
Continuous
 62
     7
370
    25
100
AcDbLine
 10
6.8903527772
 20
30.712177745
 30
0.0
 11
6.8903527772
 21
30.6168849637
 31
0.0
  0
ARC
  5
A7
330
1F
100
AcDbEntity
  8
0
  6
Continuous
 62
     7
370
    25
100
AcDbCircle
 10
6.9153527772
 20
30.712177745
 30
0.0
 40
0.0250000000000021
100
AcDbArc
 50
90.0
 51
180.0
  0
ARC
  5
A8
330
1F
100
AcDbEntity
  8
0
  6
Continuous
 62
     7
370
    25
100
AcDbCircle
 10
7.7523527772
 20
30.712177745
 30
0.0
 40
0.025000000000003
100
AcDbArc
 50
0.0
 51
90.0
  0
LINE
  5
A9
330
1F
100
AcDbEntity
  8
0
  6
Continuous
 62
     7
370
    25
100
AcDbLine
 10
4.7301027772
 20
18.0069826715
 30
0.0
 11
4.7081027772
 21
18.0069826715
 31
0.0
  0
LINE
  5
AA
330
1F
100
AcDbEntity
  8
0
  6
Continuous
 62
     7
370
    25
100
AcDbLine
 10
4.7081027772
 20
17.7529826715
 30
0.0
 11
4.7301027772
 21
17.7529826715
 31
0.0
  0
LINE
  5
AB
330
1F
100
AcDbEntity
  8
0
  6
Continuous
 62
     7
370
    25
100
AcDbLine
 10
4.7081027772
 20
18.0069826715
 30
0.0
 11
4.6931027772
 21
17.9579198822
 31
0.0
  0
LINE
  5
AC
330
1F
100
AcDbEntity
  8
0
  6
Continuous
 62
     7
370
    25
100
AcDbLine
 10
4.6931027772
 20
17.8020454608
 30
0.0
 11
4.7081027772
 21
17.7529826715
 31
0.0
  0
LINE
  5
AD
330
1F
100
AcDbEntity
  8
0
  6
Continuous
 62
     7
370
    25
100
AcDbLine
 10
4.7618527772
 20
15.320177745
 30
0.0
 11
4.7468527772
 21
15.2711149558
 31
0.0
  0
LINE
  5
AE
330
1F
100
AcDbEntity
  8
0
  6
Continuous
 62
     7
370
    25
100
AcDbLine
 10
4.7468527772
 20
15.1152405343
 30
0.0
 11
4.7618527772
 21
15.066177745
 31
0.0
  0
LINE
  5
AF
330
1F
100
AcDbEntity
  8
0
  6
Continuous
 62
     7
370
    25
100
AcDbLine
 10
4.7838527772
 20
15.320177745
 30
0.0
 11
4.7618527772
 21
15.320177745
 31
0.0
  0
LINE
  5
B0
330
1F
100
AcDbEntity
  8
0
  6
Continuous
 62
     7
370
    25
100
AcDbLine
 10
4.7618527772
 20
15.066177745
 30
0.0
 11
4.7838527772
 21
15.066177745
 31
0.0
  0
LINE
  5
B1
330
1F
100
AcDbEntity
  8
0
  6
Continuous
 62
     7
370
    25
100
AcDbLine
 10
9.9596027772
 20
17.7529826715
 30
0.0
 11
9.9746027772
 21
17.8020454608
 31
0.0
  0
LINE
  5
B2
330
1F
100
AcDbEntity
  8
0
  6
Continuous
 62
     7
370
    25
100
AcDbLine
 10
9.9746027772
 20
17.9579198822
 30
0.0
 11
9.9596027772
 21
18.0069826715
 31
0.0
  0
LINE
  5
B3
330
1F
100
AcDbEntity
  8
0
  6
Continuous
 62
     7
370
    25
100
AcDbLine
 10
9.9376027772
 20
17.7529826715
 30
0.0
 11
9.9596027772
 21
17.7529826715
 31
0.0
  0
LINE
  5
B4
330
1F
100
AcDbEntity
  8
0
  6
Continuous
 62
     7
370
    25
100
AcDbLine
 10
9.9596027772
 20
18.0069826715
 30
0.0
 11
9.9376027772
 21
18.0069826715
 31
0.0
  0
LINE
  5
B5
330
1F
100
AcDbEntity
  8
0
  6
Continuous
 62
     7
370
    25
100
AcDbLine
 10
9.8838527772
 20
15.066177745
 30
0.0
 11
9.9058527772
 21
15.066177745
 31
0.0
  0
LINE
  5
B6
330
1F
100
AcDbEntity
  8
0
  6
Continuous
 62
     7
370
    25
100
AcDbLine
 10
9.9058527772
 20
15.320177745
 30
0.0
 11
9.8838527772
 21
15.320177745
 31
0.0
  0
LINE
  5
B7
330
1F
100
AcDbEntity
  8
0
  6
Continuous
 62
     7
370
    25
100
AcDbLine
 10
9.9058527772
 20
15.066177745
 30
0.0
 11
9.9208527772
 21
15.1152405343
 31
0.0
  0
LINE
  5
B8
330
1F
100
AcDbEntity
  8
0
  6
Continuous
 62
     7
370
    25
100
AcDbLine
 10
9.9208527772
 20
15.2711149558
 30
0.0
 11
9.9058527772
 21
15.320177745
 31
0.0
  0
LINE
  5
B9
330
1F
100
AcDbEntity
  8
0
  6
Continuous
 62
     7
370
    25
100
AcDbLine
 10
4.7769777772
 20
18.0315555047
 30
0.0
 11
4.7769777772
 21
18.0439826715
 31
0.0
  0
LINE
  5
BA
330
1F
100
AcDbEntity
  8
0
  6
Continuous
 62
     7
370
    25
100
AcDbLine
 10
4.7769777772
 20
17.7159826715
 30
0.0
 11
4.7769777772
 21
18.0315555047
 31
0.0
  0
LINE
  5
BB
330
1F
100
AcDbEntity
  8
0
  6
Continuous
 62
     7
370
    25
100
AcDbLine
 10
4.7301027772
 20
18.0315555047
 30
0.0
 11
4.7301027772
 21
18.0439826715
 31
0.0
  0
LINE
  5
BC
330
1F
100
AcDbEntity
  8
0
  6
Continuous
 62
     7
370
    25
100
AcDbLine
 10
4.7301027772
 20
17.7159826715
 30
0.0
 11
4.7301027772
 21
18.0315555047
 31
0.0
  0
LINE
  5
BD
330
1F
100
AcDbEntity
  8
0
  6
Continuous
 62
     7
370
    25
100
AcDbLine
 10
9.8907277772
 20
18.0439826715
 30
0.0
 11
9.8907277772
 21
17.7159826715
 31
0.0
  0
LINE
  5
BE
330
1F
100
AcDbEntity
  8
0
  6
Continuous
 62
     7
370
    25
100
AcDbLine
 10
9.9376027772
 20
18.0439826715
 30
0.0
 11
9.9376027772
 21
17.7159826715
 31
0.0
  0
LINE
  5
BF
330
1F
100
AcDbEntity
  8
0
  6
Continuous
 62
     7
370
    25
100
AcDbLine
 10
6.9153527772
 20
30.737177745
 30
0.0
 11
7.7523527772
 21
30.737177745
 31
0.0
  0
LINE
  5
C0
330
1F
100
AcDbEntity
  8
0
  6
Continuous
 62
     7
370
    25
100
AcDbLine
 10
4.7081027772
 20
17.7649443381
 30
0.0
 11
4.7081027772
 21
17.7529826715
 31
0.0
  0
LINE
  5
C1
330
1F
100
AcDbEntity
  8
0
  6
Continuous
 62
     7
370
    25
100
AcDbLine
 10
4.7081027772
 20
18.0069826715
 30
0.0
 11
4.7081027772
 21
17.7649443381
 31
0.0
  0
LINE
  5
C2
330
1F
100
AcDbEntity
  8
0
  6
Continuous
 62
     7
370
    25
100
AcDbLine
 10
4.6931027772
 20
17.8093860823
 30
0.0
 11
4.6931027772
 21
17.9579198822
 31
0.0
  0
LINE
  5
C3
330
1F
100
AcDbEntity
  8
0
  6
Continuous
 62
     7
370
    25
100
AcDbLine
 10
4.6931027772
 20
17.8020454608
 30
0.0
 11
4.6931027772
 21
17.8093860823
 31
0.0
  0
LINE
  5
C4
330
1F
100
AcDbEntity
  8
0
  6
Continuous
 62
     7
370
    25
100
AcDbLine
 10
4.7468527772
 20
15.1226631113
 30
0.0
 11
4.7468527772
 21
15.2711149558
 31
0.0
  0
LINE
  5
C5
330
1F
100
AcDbEntity
  8
0
  6
Continuous
 62
     7
370
    25
100
AcDbLine
 10
4.7468527772
 20
15.1152405343
 30
0.0
 11
4.7468527772
 21
15.1226631113
 31
0.0
  0
LINE
  5
C6
330
1F
100
AcDbEntity
  8
0
  6
Continuous
 62
     7
370
    25
100
AcDbLine
 10
4.7618527772
 20
15.0782729596
 30
0.0
 11
4.7618527772
 21
15.066177745
 31
0.0
  0
LINE
  5
C7
330
1F
100
AcDbEntity
  8
0
  6
Continuous
 62
     7
370
    25
100
AcDbLine
 10
4.7618527772
 20
15.320177745
 30
0.0
 11
4.7618527772
 21
15.0782729596
 31
0.0
  0
LINE
  5
C8
330
1F
100
AcDbEntity
  8
0
  6
Continuous
 62
     7
370
    25
100
AcDbLine
 10
9.9746027772
 20
17.9579198822
 30
0.0
 11
9.9746027772
 21
17.8020454608
 31
0.0
  0
LINE
  5
C9
330
1F
100
AcDbEntity
  8
0
  6
Continuous
 62
     7
370
    25
100
AcDbLine
 10
9.9596027772
 20
17.7529826715
 30
0.0
 11
9.9596027772
 21
18.0069826715
 31
0.0
  0
LINE
  5
CA
330
1F
100
AcDbEntity
  8
0
  6
Continuous
 62
     7
370
    25
100
AcDbLine
 10
9.9058527772
 20
15.066177745
 30
0.0
 11
9.9058527772
 21
15.320177745
 31
0.0
  0
LINE
  5
CB
330
1F
100
AcDbEntity
  8
0
  6
Continuous
 62
     7
370
    25
100
AcDbLine
 10
9.9208527772
 20
15.2711149558
 30
0.0
 11
9.9208527772
 21
15.1152405343
 31
0.0
  0
LINE
  5
CC
330
1F
100
AcDbEntity
  8
0
  6
Continuous
 62
     7
370
    25
100
AcDbLine
 10
5.0628527772
 20
14.9578849637
 30
0.0
 11
6.3120516036
 21
14.9578849637
 31
0.0
  0
LINE
  5
CD
330
1F
100
AcDbEntity
  8
0
  6
Continuous
 62
     7
370
    25
100
AcDbLine
 10
9.6048527772
 20
14.9578849637
 30
0.0
 11
8.3556539508
 21
14.9578849637
 31
0.0
  0
ARC
  5
CE
330
1F
100
AcDbEntity
  8
0
  6
Continuous
 62
     7
370
    25
100
AcDbCircle
 10
8.3556539508
 20
15.3378849637
 30
0.0
 40
0.3800000000000033
100
AcDbArc
 50
225.2699795806
 51
270.0
  0
ARC
  5
CF
330
1F
100
AcDbEntity
  8
0
  6
Continuous
 62
     7
370
    25
100
AcDbCircle
 10
7.3338527772
 20
15.0128849637
 30
0.0
 40
0.5700000000000013
100
AcDbArc
 50
45.2699795806
 51
134.7300204194
  0
ARC
  5
D0
330
1F
100
AcDbEntity
  8
0
  6
Continuous
 62
     7
370
    25
100
AcDbCircle
 10
7.3338527772
 20
17.0574629628
 30
0.0
 40
0.1000000000000034
100
AcDbArc
 50
194.7938440039
 51
345.2061559961
  0
ARC
  5
D1
330
1F
100
AcDbEntity
  8
0
  6
Continuous
 62
     7
370
    25
100
AcDbCircle
 10
2.9588527772
 20
18.2128849637
 30
0.0
 40
4.625000000000005
100
AcDbArc
 50
345.2061559961
 51
14.7938440039
  0
ARC
  5
D2
330
1F
100
AcDbEntity
  8
0
  6
Continuous
 62
     7
370
    25
100
AcDbCircle
 10
7.3338527772
 20
19.3683069645
 30
0.0
 40
0.100000000000006
100
AcDbArc
 50
14.7938440039
 51
165.2061559961
  0
ARC
  5
D3
330
1F
100
AcDbEntity
  8
0
  6
Continuous
 62
     7
370
    25
100
AcDbCircle
 10
11.7088527772
 20
18.2128849637
 30
0.0
 40
4.625000000000001
100
AcDbArc
 50
165.2061559961
 51
194.7938440039
  0
LINE
  5
D4
330
1F
100
AcDbEntity
  8
0
  6
Continuous
 62
     7
370
    25
100
AcDbLine
 10
6.5794830762
 20
15.0679212486
 30
0.0
 11
6.9327055682
 21
15.4178305362
 31
0.0
  0
LINE
  5
D5
330
1F
100
AcDbEntity
  8
0
  6
Continuous
 62
     7
370
    25
100
AcDbLine
 10
8.0882224781
 20
15.0679212486
 30
0.0
 11
7.7349999861
 21
15.4178305362
 31
0.0
  0
ARC
  5
D6
330
1F
100
AcDbEntity
  8
0
  6
Continuous
 62
     7
370
    25
100
AcDbCircle
 10
6.3120516036
 20
15.3378849637
 30
0.0
 40
0.3800000000000008
100
AcDbArc
 50
270.0
 51
314.7300204194
  0
LINE
  5
D7
330
1F
100
AcDbEntity
  8
0
  6
Continuous
 62
     7
370
    25
100
AcDbLine
 10
5.0628527772
 20
30.5878849637
 30
0.0
 11
5.0628527772
 21
30.6168849637
 31
0.0
  0
LINE
  5
D8
330
1F
100
AcDbEntity
  8
0
  6
Continuous
 62
     7
370
    25
100
AcDbLine
 10
9.6048527772
 20
30.6168849637
 30
0.0
 11
5.0628527772
 21
30.6168849637
 31
0.0
  0
LINE
  5
D9
330
1F
100
AcDbEntity
  8
0
  6
Continuous
 62
     7
370
    25
100
AcDbLine
 10
9.6048527772
 20
30.5878849637
 30
0.0
 11
9.6048527772
 21
30.6168849637
 31
0.0
  0
LINE
  5
DA
330
1F
100
AcDbEntity
  8
0
  6
Continuous
 62
     7
370
    25
100
AcDbLine
 10
5.0628527772
 20
14.9578849637
 30
0.0
 11
4.7838527772
 21
14.9578849637
 31
0.0
  0
LINE
  5
DB
330
1F
100
AcDbEntity
  8
0
  6
Continuous
 62
     7
370
    25
100
AcDbLine
 10
4.7838527772
 20
30.5878849637
 30
0.0
 11
4.7838527772
 21
14.9578849637
 31
0.0
  0
LINE
  5
DC
330
1F
100
AcDbEntity
  8
0
  6
Continuous
 62
     7
370
    25
100
AcDbLine
 10
4.7838527772
 20
30.5878849637
 30
0.0
 11
5.0628527772
 21
30.5878849637
 31
0.0
  0
LINE
  5
DD
330
1F
100
AcDbEntity
  8
0
  6
Continuous
 62
     7
370
    25
100
AcDbLine
 10
5.0628527772
 20
30.5878849637
 30
0.0
 11
5.0628527772
 21
30.5378849637
 31
0.0
  0
LINE
  5
DE
330
1F
100
AcDbEntity
  8
0
  6
Continuous
 62
     7
370
    25
100
AcDbLine
 10
9.8838527772
 20
30.5878849637
 30
0.0
 11
9.6048527772
 21
30.5878849637
 31
0.0
  0
LINE
  5
DF
330
1F
100
AcDbEntity
  8
0
  6
Continuous
 62
     7
370
    25
100
AcDbLine
 10
9.8838527772
 20
30.5878849637
 30
0.0
 11
9.8838527772
 21
14.9578849637
 31
0.0
  0
LINE
  5
E0
330
1F
100
AcDbEntity
  8
0
  6
Continuous
 62
     7
370
    25
100
AcDbLine
 10
9.6048527772
 20
14.9578849637
 30
0.0
 11
9.8838527772
 21
14.9578849637
 31
0.0
  0
LINE
  5
E1
330
1F
100
AcDbEntity
  8
0
  6
Continuous
 62
     7
370
    25
100
AcDbLine
 10
9.6048527772
 20
30.5878849637
 30
0.0
 11
9.6048527772
 21
30.5378849637
 31
0.0
  0
LINE
  5
E2
330
1F
100
AcDbEntity
  8
0
  6
Continuous
 62
     7
370
    25
100
AcDbLine
 10
5.0328527772
 20
30.6168849637
 30
0.0
 11
5.0628527772
 21
30.6168849637
 31
0.0
  0
LINE
  5
E3
330
1F
100
AcDbEntity
  8
0
  6
Continuous
 62
     7
370
    25
100
AcDbLine
 10
9.8248527772
 20
30.5878849637
 30
0.0
 11
9.8248527772
 21
30.6168849637
 31
0.0
  0
LINE
  5
E4
330
1F
100
AcDbEntity
  8
0
  6
Continuous
 62
     7
370
    25
100
AcDbLine
 10
9.8248527772
 20
30.6168849637
 30
0.0
 11
9.6348527772
 21
30.6168849637
 31
0.0
  0
LINE
  5
E5
330
1F
100
AcDbEntity
  8
0
  6
Continuous
 62
     7
370
    25
100
AcDbLine
 10
9.6348527772
 20
30.6168849637
 30
0.0
 11
9.6048527772
 21
30.6168849637
 31
0.0
  0
LINE
  5
E6
330
1F
100
AcDbEntity
  8
0
  6
Continuous
 62
     7
370
    25
100
AcDbLine
 10
4.8428527772
 20
30.5878849637
 30
0.0
 11
4.8428527772
 21
30.6168849637
 31
0.0
  0
LINE
  5
E7
330
1F
100
AcDbEntity
  8
0
  6
Continuous
 62
     7
370
    25
100
AcDbLine
 10
4.8428527772
 20
30.6168849637
 30
0.0
 11
5.0328527772
 21
30.6168849637
 31
0.0
  0
LINE
  5
E8
330
1F
100
AcDbEntity
  8
0
  6
Continuous
 62
     7
370
    25
100
AcDbLine
 10
4.7838527772
 20
14.9152426073
 30
0.0
 11
4.7838527772
 21
14.9578849637
 31
0.0
  0
LINE
  5
E9
330
1F
100
AcDbEntity
  8
0
  6
Continuous
 62
     7
370
    25
100
AcDbLine
 10
4.8128527772
 20
14.9578849637
 30
0.0
 11
4.8128527772
 21
14.9152426073
 31
0.0
  0
LINE
  5
EA
330
1F
100
AcDbEntity
  8
0
  6
Continuous
 62
     7
370
    25
100
AcDbLine
 10
9.8838527772
 20
14.9152426073
 30
0.0
 11
9.8838527772
 21
14.9578849637
 31
0.0
  0
LINE
  5
EB
330
1F
100
AcDbEntity
  8
0
  6
Continuous
 62
     7
370
    25
100
AcDbLine
 10
9.8548527772
 20
14.9578849637
 30
0.0
 11
9.8548527772
 21
14.9152426073
 31
0.0
  0
LINE
  5
EC
330
1F
100
AcDbEntity
  8
0
  6
Continuous
 62
     7
370
    25
100
AcDbLine
 10
4.7838527772
 20
14.8144989232
 30
0.0
 11
4.7838527772
 21
14.9152426073
 31
0.0
  0
LINE
  5
ED
330
1F
100
AcDbEntity
  8
0
  6
Continuous
 62
     7
370
    25
100
AcDbLine
 10
4.8128527772
 20
14.8144989232
 30
0.0
 11
4.8128527772
 21
14.9152426073
 31
0.0
  0
LINE
  5
EE
330
1F
100
AcDbEntity
  8
0
  6
Continuous
 62
     7
370
    25
100
AcDbLine
 10
9.8838527772
 20
14.8144989232
 30
0.0
 11
9.8838527772
 21
14.9152426073
 31
0.0
  0
LINE
  5
EF
330
1F
100
AcDbEntity
  8
0
  6
Continuous
 62
     7
370
    25
100
AcDbLine
 10
9.8548527772
 20
14.8144989232
 30
0.0
 11
9.8548527772
 21
14.9152426073
 31
0.0
  0
LWPOLYLINE
  5
F0
330
1F
100
AcDbEntity
  8
0
  6
Continuous
 62
     7
370
    25
100
AcDbPolyline
 90
        3
 70
   128
 43
0.0
 10
9.8248527772
 20
30.5982173762
 10
9.8297142129
 20
30.5937463994
 10
9.8350164919
 20
30.5878849637
  0
LWPOLYLINE
  5
F1
330
1F
100
AcDbEntity
  8
0
  6
Continuous
 62
     7
370
    25
100
AcDbPolyline
 90
        3
 70
   128
 43
0.0
 10
4.8428527772
 20
30.5982173762
 10
4.8379913414
 20
30.5937463994
 10
4.8326890624
 20
30.5878849637
  0
LINE
  5
F2
330
1F
100
AcDbEntity
  8
0
  6
Continuous
 62
     7
370
    25
100
AcDbLine
 10
9.8548527772
 20
14.793177745
 30
0.0
 11
9.8838527772
 21
14.793177745
 31
0.0
  0
LINE
  5
F3
330
1F
100
AcDbEntity
  8
0
  6
Continuous
 62
     7
370
    25
100
AcDbLine
 10
9.8838527772
 20
14.793177745
 30
0.0
 11
9.8838527772
 21
14.8144989232
 31
0.0
  0
LINE
  5
F4
330
1F
100
AcDbEntity
  8
0
  6
Continuous
 62
     7
370
    25
100
AcDbLine
 10
9.8548527772
 20
14.8144989232
 30
0.0
 11
9.8548527772
 21
14.793177745
 31
0.0
  0
LINE
  5
F5
330
1F
100
AcDbEntity
  8
0
  6
Continuous
 62
     7
370
    25
100
AcDbLine
 10
4.8128527772
 20
14.793177745
 30
0.0
 11
4.7838527772
 21
14.793177745
 31
0.0
  0
LINE
  5
F6
330
1F
100
AcDbEntity
  8
0
  6
Continuous
 62
     7
370
    25
100
AcDbLine
 10
4.7838527772
 20
14.793177745
 30
0.0
 11
4.7838527772
 21
14.8144989232
 31
0.0
  0
LINE
  5
F7
330
1F
100
AcDbEntity
  8
0
  6
Continuous
 62
     7
370
    25
100
AcDbLine
 10
4.8128527772
 20
14.8144989232
 30
0.0
 11
4.8128527772
 21
14.793177745
 31
0.0
  0
ARC
  5
F8
330
1F
100
AcDbEntity
  8
0
  6
Continuous
 62
     7
370
    25
100
AcDbCircle
 10
4.9388527772
 20
14.752177745
 30
0.0
 40
0.04
100
AcDbArc
 50
180.0
 51
270.0
  0
ARC
  5
F9
330
1F
100
AcDbEntity
  8
0
  6
Continuous
 62
     7
370
    25
100
AcDbCircle
 10
4.9388527772
 20
14.752177745
 30
0.0
 40
0.0750000000000011
100
AcDbArc
 50
180.0
 51
270.0
  0
LINE
  5
FA
330
1F
100
AcDbEntity
  8
0
  6
Continuous
 62
     7
370
    25
100
AcDbLine
 10
4.8638527772
 20
14.9578849637
 30
0.0
 11
4.8638527772
 21
14.752177745
 31
0.0
  0
LINE
  5
FB
330
1F
100
AcDbEntity
  8
0
  6
Continuous
 62
     7
370
    25
100
AcDbLine
 10
4.8988527772
 20
14.9578849637
 30
0.0
 11
4.8988527772
 21
14.752177745
 31
0.0
  0
ARC
  5
FC
330
1F
100
AcDbEntity
  8
0
  6
Continuous
 62
     7
370
    25
100
AcDbCircle
 10
9.7288527772
 20
14.752177745
 30
0.0
 40
0.0750000000000011
100
AcDbArc
 50
270.0
 51
0.0
  0
ARC
  5
FD
330
1F
100
AcDbEntity
  8
0
  6
Continuous
 62
     7
370
    25
100
AcDbCircle
 10
9.7288527772
 20
14.752177745
 30
0.0
 40
0.0400000000000009
100
AcDbArc
 50
270.0
 51
0.0
  0
LINE
  5
FE
330
1F
100
AcDbEntity
  8
0
  6
Continuous
 62
     7
370
    25
100
AcDbLine
 10
9.7688527772
 20
14.9578849637
 30
0.0
 11
9.7688527772
 21
14.752177745
 31
0.0
  0
LINE
  5
FF
330
1F
100
AcDbEntity
  8
0
  6
Continuous
 62
     7
370
    25
100
AcDbLine
 10
9.8038527772
 20
14.9578849637
 30
0.0
 11
9.8038527772
 21
14.752177745
 31
0.0
  0
LINE
  5
100
330
1F
100
AcDbEntity
  8
0
  6
Continuous
 62
     7
370
    25
100
AcDbLine
 10
4.9388527772
 20
14.712177745
 30
0.0
 11
6.5081739883
 21
14.712177745
 31
0.0
  0
LINE
  5
101
330
1F
100
AcDbEntity
  8
0
  6
Continuous
 62
     7
370
    25
100
AcDbLine
 10
4.9388527772
 20
14.677177745
 30
0.0
 11
6.5081739883
 21
14.677177745
 31
0.0
  0
LINE
  5
102
330
1F
100
AcDbEntity
  8
0
  6
Continuous
 62
     7
370
    25
100
AcDbLine
 10
4.8238527772
 20
14.9578849637
 30
0.0
 11
4.8238527772
 21
14.8895665331
 31
0.0
  0
LINE
  5
103
330
1F
100
AcDbEntity
  8
0
  6
Continuous
 62
     7
370
    25
100
AcDbLine
 10
4.8588527772
 20
14.9578849637
 30
0.0
 11
4.8588527772
 21
14.8895665331
 31
0.0
  0
LINE
  5
104
330
1F
100
AcDbEntity
  8
0
  6
Continuous
 62
     7
370
    25
100
AcDbLine
 10
4.8588527772
 20
14.8322088894
 30
0.0
 11
4.8588527772
 21
14.8895665331
 31
0.0
  0
LINE
  5
105
330
1F
100
AcDbEntity
  8
0
  6
Continuous
 62
     7
370
    25
100
AcDbLine
 10
4.8238527772
 20
14.8895665331
 30
0.0
 11
4.8238527772
 21
14.8322088894
 31
0.0
  0
LINE
  5
106
330
1F
100
AcDbEntity
  8
0
  6
Continuous
 62
     7
370
    25
100
AcDbLine
 10
6.5888191496
 20
14.712177745
 30
0.0
 11
6.5081739883
 21
14.712177745
 31
0.0
  0
LINE
  5
107
330
1F
100
AcDbEntity
  8
0
  6
Continuous
 62
     7
370
    25
100
AcDbLine
 10
6.5081739883
 20
14.677177745
 30
0.0
 11
6.5888191496
 21
14.677177745
 31
0.0
  0
LINE
  5
108
330
1F
100
AcDbEntity
  8
0
  6
Continuous
 62
     7
370
    25
100
AcDbLine
 10
9.7288527772
 20
14.712177745
 30
0.0
 11
8.159531566
 21
14.712177745
 31
0.0
  0
LINE
  5
109
330
1F
100
AcDbEntity
  8
0
  6
Continuous
 62
     7
370
    25
100
AcDbLine
 10
9.7288527772
 20
14.677177745
 30
0.0
 11
8.159531566
 21
14.677177745
 31
0.0
  0
LINE
  5
10A
330
1F
100
AcDbEntity
  8
0
  6
Continuous
 62
     7
370
    25
100
AcDbLine
 10
8.0788864047
 20
14.712177745
 30
0.0
 11
8.159531566
 21
14.712177745
 31
0.0
  0
LINE
  5
10B
330
1F
100
AcDbEntity
  8
0
  6
Continuous
 62
     7
370
    25
100
AcDbLine
 10
8.159531566
 20
14.677177745
 30
0.0
 11
8.0788864047
 21
14.677177745
 31
0.0
  0
LINE
  5
10C
330
1F
100
AcDbEntity
  8
0
  6
Continuous
 62
     7
370
    25
100
AcDbLine
 10
9.8438527772
 20
14.9578849637
 30
0.0
 11
9.8438527772
 21
14.8895665331
 31
0.0
  0
LINE
  5
10D
330
1F
100
AcDbEntity
  8
0
  6
Continuous
 62
     7
370
    25
100
AcDbLine
 10
9.8088527772
 20
14.9578849637
 30
0.0
 11
9.8088527772
 21
14.8895665331
 31
0.0
  0
LINE
  5
10E
330
1F
100
AcDbEntity
  8
0
  6
Continuous
 62
     7
370
    25
100
AcDbLine
 10
9.8088527772
 20
14.8322088894
 30
0.0
 11
9.8088527772
 21
14.8895665331
 31
0.0
  0
LINE
  5
10F
330
1F
100
AcDbEntity
  8
0
  6
Continuous
 62
     7
370
    25
100
AcDbLine
 10
9.8438527772
 20
14.8895665331
 30
0.0
 11
9.8438527772
 21
14.8322088894
 31
0.0
  0
LINE
  5
110
330
1F
100
AcDbEntity
  8
0
  6
Continuous
 62
     7
370
    25
100
AcDbLine
 10
4.8238527772
 20
14.7948201014
 30
0.0
 11
4.8238527772
 21
14.8322088894
 31
0.0
  0
LINE
  5
111
330
1F
100
AcDbEntity
  8
0
  6
Continuous
 62
     7
370
    25
100
AcDbLine
 10
4.8588527772
 20
14.7948201014
 30
0.0
 11
4.8588527772
 21
14.8322088894
 31
0.0
  0
LINE
  5
112
330
1F
100
AcDbEntity
  8
0
  6
Continuous
 62
     7
370
    25
100
AcDbLine
 10
9.8438527772
 20
14.7948201014
 30
0.0
 11
9.8438527772
 21
14.8322088894
 31
0.0
  0
LINE
  5
113
330
1F
100
AcDbEntity
  8
0
  6
Continuous
 62
     7
370
    25
100
AcDbLine
 10
9.8088527772
 20
14.7948201014
 30
0.0
 11
9.8088527772
 21
14.8322088894
 31
0.0
  0
LINE
  5
114
330
1F
100
AcDbEntity
  8
0
  6
Continuous
 62
     7
370
    25
100
AcDbLine
 10
6.5888191496
 20
14.712177745
 30
0.0
 11
6.8298205191
 21
14.712177745
 31
0.0
  0
LINE
  5
115
330
1F
100
AcDbEntity
  8
0
  6
Continuous
 62
     7
370
    25
100
AcDbLine
 10
6.5888191496
 20
14.677177745
 30
0.0
 11
6.8298205191
 21
14.677177745
 31
0.0
  0
LINE
  5
116
330
1F
100
AcDbEntity
  8
0
  6
Continuous
 62
     7
370
    25
100
AcDbLine
 10
8.0788864047
 20
14.712177745
 30
0.0
 11
7.8378850352
 21
14.712177745
 31
0.0
  0
LINE
  5
117
330
1F
100
AcDbEntity
  8
0
  6
Continuous
 62
     7
370
    25
100
AcDbLine
 10
8.0788864047
 20
14.677177745
 30
0.0
 11
7.8378850352
 21
14.677177745
 31
0.0
  0
LINE
  5
118
330
1F
100
AcDbEntity
  8
0
  6
Continuous
 62
     7
370
    25
100
AcDbLine
 10
4.8238527772
 20
14.752177745
 30
0.0
 11
4.8588527772
 21
14.752177745
 31
0.0
  0
LINE
  5
119
330
1F
100
AcDbEntity
  8
0
  6
Continuous
 62
     7
370
    25
100
AcDbLine
 10
4.8238527772
 20
14.7948201014
 30
0.0
 11
4.8238527772
 21
14.752177745
 31
0.0
  0
LINE
  5
11A
330
1F
100
AcDbEntity
  8
0
  6
Continuous
 62
     7
370
    25
100
AcDbLine
 10
4.8588527772
 20
14.752177745
 30
0.0
 11
4.8588527772
 21
14.7948201014
 31
0.0
  0
LINE
  5
11B
330
1F
100
AcDbEntity
  8
0
  6
Continuous
 62
     7
370
    25
100
AcDbLine
 10
9.8438527772
 20
14.752177745
 30
0.0
 11
9.8088527772
 21
14.752177745
 31
0.0
  0
LINE
  5
11C
330
1F
100
AcDbEntity
  8
0
  6
Continuous
 62
     7
370
    25
100
AcDbLine
 10
9.8438527772
 20
14.7948201014
 30
0.0
 11
9.8438527772
 21
14.752177745
 31
0.0
  0
LINE
  5
11D
330
1F
100
AcDbEntity
  8
0
  6
Continuous
 62
     7
370
    25
100
AcDbLine
 10
9.8088527772
 20
14.752177745
 30
0.0
 11
9.8088527772
 21
14.7948201014
 31
0.0
  0
LINE
  5
11E
330
1F
100
AcDbEntity
  8
0
  6
Continuous
 62
     7
370
    25
100
AcDbLine
 10
7.8378850352
 20
14.712177745
 30
0.0
 11
6.8298205191
 21
14.712177745
 31
0.0
  0
LINE
  5
11F
330
1F
100
AcDbEntity
  8
0
  6
Continuous
 62
     7
370
    25
100
AcDbLine
 10
7.8378850352
 20
14.677177745
 30
0.0
 11
6.8298205191
 21
14.677177745
 31
0.0
  0
LINE
  5
120
330
1F
100
AcDbEntity
  8
0
  6
Continuous
 62
     7
370
    25
100
AcDbLine
 10
4.9088527772
 20
14.677177745
 30
0.0
 11
4.9088527772
 21
14.6834391096
 31
0.0
  0
LINE
  5
121
330
1F
100
AcDbEntity
  8
0
  6
Continuous
 62
     7
370
    25
100
AcDbLine
 10
4.9338527772
 20
14.677177745
 30
0.0
 11
4.9088527772
 21
14.677177745
 31
0.0
  0
LINE
  5
122
330
1F
100
AcDbEntity
  8
0
  6
Continuous
 62
     7
370
    25
100
AcDbLine
 10
4.9388527772
 20
14.677177745
 30
0.0
 11
4.9338527772
 21
14.677177745
 31
0.0
  0
LINE
  5
123
330
1F
100
AcDbEntity
  8
0
  6
Continuous
 62
     7
370
    25
100
AcDbLine
 10
9.7588527772
 20
14.6834391096
 30
0.0
 11
9.7588527772
 21
14.677177745
 31
0.0
  0
LINE
  5
124
330
1F
100
AcDbEntity
  8
0
  6
Continuous
 62
     7
370
    25
100
AcDbLine
 10
9.7588527772
 20
14.677177745
 30
0.0
 11
9.7338527772
 21
14.677177745
 31
0.0
  0
LINE
  5
125
330
1F
100
AcDbEntity
  8
0
  6
Continuous
 62
     7
370
    25
100
AcDbLine
 10
9.7288527772
 20
14.677177745
 30
0.0
 11
9.7338527772
 21
14.677177745
 31
0.0
  0
LINE
  5
126
330
1F
100
AcDbEntity
  8
0
  6
Continuous
 62
     7
370
    25
100
AcDbLine
 10
4.9088527772
 20
14.752177745
 30
0.0
 11
4.8988527772
 21
14.752177745
 31
0.0
  0
LINE
  5
127
330
1F
100
AcDbEntity
  8
0
  6
Continuous
 62
     7
370
    25
100
AcDbLine
 10
4.8638527772
 20
14.752177745
 30
0.0
 11
4.8588527772
 21
14.752177745
 31
0.0
  0
LINE
  5
128
330
1F
100
AcDbEntity
  8
0
  6
Continuous
 62
     7
370
    25
100
AcDbLine
 10
9.7588527772
 20
14.752177745
 30
0.0
 11
9.7688527772
 21
14.752177745
 31
0.0
  0
LINE
  5
129
330
1F
100
AcDbEntity
  8
0
  6
Continuous
 62
     7
370
    25
100
AcDbLine
 10
9.8038527772
 20
14.752177745
 30
0.0
 11
9.8088527772
 21
14.752177745
 31
0.0
  0
LINE
  5
12A
330
1F
100
AcDbEntity
  8
0
  6
Continuous
 62
     7
370
    25
100
AcDbLine
 10
9.7588527772
 20
14.7257202319
 30
0.0
 11
9.7588527772
 21
14.752177745
 31
0.0
  0
LINE
  5
12B
330
1F
100
AcDbEntity
  8
0
  6
Continuous
 62
     7
370
    25
100
AcDbLine
 10
4.9088527772
 20
14.7257202319
 30
0.0
 11
4.9088527772
 21
14.752177745
 31
0.0
  0
LINE
  5
12C
330
1F
100
AcDbEntity
  8
NOTES
100
AcDbLine
 10
2.4542059334
 20
7.2542807999
 30
0.0
 11
51.2864454541
 21
7.2542807999
 31
0.0
  0
DIMENSION
  5
12D
330
1F
100
AcDbEntity
  8
DIMS
100
AcDbDimension
280
     0
  2
_D
 10
3.1182996275
 20
14.677177745
 30
0.0
 11
3.1182996275
 21
10.740169871
 31
0.0
 70
   160
  1
                                              48"(1220mm)\P                                              Max height to bottom of unit \P                                              for unrestricted access
 71
     1
 42
-1.0
 73
     0
 74
     0
 75
     0
  3
SLDDIMSTYLE0
100
AcDbAlignedDimension
 13
2.4542059334
 23
7.2542807999
 33
0.0
 14
4.9388527772
 24
14.677177745
 34
0.0
 50
90.0
100
AcDbRotatedDimension
  0
DIMENSION
  5
140
330
1F
100
AcDbEntity
  8
DIMS
100
AcDbDimension
280
     0
  2
_D_1
 10
3.1182996275
 20
14.677177745
 30
0.0
 11
3.1182996275
 21
22.9576786035
 31
0.0
 70
   160
  1
<>
 71
     2
 42
-1.0
 73
     0
 74
     0
 75
     0
  3
SLDDIMSTYLE1
100
AcDbAlignedDimension
 13
6.9153527772
 23
30.737177745
 33
0.0
 14
4.9388527772
 24
14.677177745
 34
0.0
 50
90.0
100
AcDbRotatedDimension
  0
MTEXT
  5
150
330
1F
100
AcDbEntity
  8
NOTES
100
AcDbMText
 10
4.8416117947
 20
14.2445566544
 30
0.0
 40
0.75
 41
0.0
 46
0.0
 71
     1
 72
     1
  1
Front view
  7
SLDTEXTSTYLE1
 73
     1
 44
1.0
  0
MTEXT
  5
151
330
1F
100
AcDbEntity
  8
NOTES
100
AcDbMText
 10
3.7038616903
 20
8.2680655663
 30
0.0
 40
0.75
 41
0.0
 46
0.0
 71
     1
 72
     1
  1
Floor
  7
SLDTEXTSTYLE1
 73
     1
 44
1.0
  0
MTEXT
  5
152
330
1F
100
AcDbEntity
  8
NOTES
100
AcDbMText
 10
11.736915437
 20
34.0628098109
 30
0.0
 40
0.75
 41
0.0
 46
0.0
 71
     1
 72
     1
  1
refill indicator window
  7
SLDTEXTSTYLE1
 73
     1
 44
1.0
  0
LEADER
  5
154
330
1F
100
AcDbEntity
  8
NOTES
100
AcDbLeader
  3
SLDDIMSTYLE2
 76
     3
 10
7.3521900312
 20
19.4666113139
 30
0.0
 10
11.2167740396
 20
33.686083269
 30
0.0
 10
11.7167740396
 20
33.686083269
 30
0.0
  0
ARC
  5
155
330
1F
100
AcDbEntity
  8
0
  6
Continuous
 62
     7
370
    25
100
AcDbCircle
 10
35.5649073844
 20
30.712177745
 30
0.0
 40
0.0250000000000057
100
AcDbArc
 50
90.0
 51
180.0
  0
ARC
  5
156
330
1F
100
AcDbEntity
  8
0
  6
Continuous
 62
     7
370
    25
100
AcDbCircle
 10
36.4019073844
 20
30.712177745
 30
0.0
 40
0.0250000000000021
100
AcDbArc
 50
0.0
 51
90.0
  0
LINE
  5
157
330
1F
100
AcDbEntity
  8
0
  6
Continuous
 62
     7
370
    25
100
AcDbLine
 10
36.4269073844
 20
30.487177745
 30
0.0
 11
36.4269073844
 21
30.712177745
 31
0.0
  0
LINE
  5
158
330
1F
100
AcDbEntity
  8
0
  6
Continuous
 62
     7
370
    25
100
AcDbLine
 10
35.5399073844
 20
30.712177745
 30
0.0
 11
35.5399073844
 21
30.487177745
 31
0.0
  0
CIRCLE
  5
159
330
1F
100
AcDbEntity
  8
0
  6
Continuous
 62
     7
370
    25
100
AcDbCircle
 10
34.8056458744
 20
17.8799826715
 30
0.0
 40
0.1640000000000018
  0
LINE
  5
15A
330
1F
100
AcDbEntity
  8
0
  6
Continuous
 62
     7
370
    25
100
AcDbLine
 10
36.4006951867
 20
30.737177745
 30
0.0
 11
36.4019073844
 21
30.737177745
 31
0.0
  0
LINE
  5
15B
330
1F
100
AcDbEntity
  8
0
  6
Continuous
 62
     7
370
    25
100
AcDbLine
 10
35.5649073844
 20
30.737177745
 30
0.0
 11
36.4006951867
 21
30.737177745
 31
0.0
  0
CIRCLE
  5
15C
330
1F
100
AcDbEntity
  8
0
  6
Continuous
 62
     7
370
    25
100
AcDbCircle
 10
34.8056458744
 20
17.8799826715
 30
0.0
 40
0.0779372107227374
  0
CIRCLE
  5
15D
330
1F
100
AcDbEntity
  8
0
  6
Continuous
 62
     7
370
    25
100
AcDbCircle
 10
34.8056458744
 20
17.8799826715
 30
0.0
 40
0.1270000000000024
  0
CIRCLE
  5
15E
330
1F
100
AcDbEntity
  8
0
  6
Continuous
 62
     7
370
    25
100
AcDbCircle
 10
34.8056458744
 20
17.8799826715
 30
0.0
 40
0.03125
  0
CIRCLE
  5
15F
330
1F
100
AcDbEntity
  8
0
  6
Continuous
 62
     7
370
    25
100
AcDbCircle
 10
35.0722528644
 20
15.193177745
 30
0.0
 40
0.0779372107227373
  0
CIRCLE
  5
160
330
1F
100
AcDbEntity
  8
0
  6
Continuous
 62
     7
370
    25
100
AcDbCircle
 10
35.0722528644
 20
15.193177745
 30
0.0
 40
0.1270000000000029
  0
CIRCLE
  5
161
330
1F
100
AcDbEntity
  8
0
  6
Continuous
 62
     7
370
    25
100
AcDbCircle
 10
35.0722528644
 20
15.193177745
 30
0.0
 40
0.0312499999999978
  0
ARC
  5
162
330
1F
100
AcDbEntity
  8
0
  6
Continuous
 62
     7
370
    25
100
AcDbCircle
 10
35.3918560559
 20
14.6855008516
 30
0.0
 40
0.0500000000000053
100
AcDbArc
 50
301.5
 51
356.5
  0
LINE
  5
163
330
1F
100
AcDbEntity
  8
0
  6
Continuous
 62
     7
370
    25
100
AcDbLine
 10
35.4179809841
 20
14.6428688434
 30
0.0
 11
35.3131187525
 21
14.5786091853
 31
0.0
  0
ARC
  5
164
330
1F
100
AcDbEntity
  8
0
  6
Continuous
 62
     7
370
    25
100
AcDbCircle
 10
35.365368609
 20
14.4933451688
 30
0.0
 40
0.1000000000000036
100
AcDbArc
 50
121.5
 51
176.5
  0
LINE
  5
165
330
1F
100
AcDbEntity
  8
0
  6
Continuous
 62
     7
370
    25
100
AcDbLine
 10
35.2655551292
 20
14.4994500228
 30
0.0
 11
35.2643727996
 21
14.4801191055
 31
0.0
  0
LINE
  5
166
330
1F
100
AcDbEntity
  8
0
  6
Continuous
 62
     7
370
    25
100
AcDbLine
 10
19.6635259003
 20
15.4343077784
 30
0.0
 11
19.7245744398
 21
16.4324425768
 31
0.0
  0
ARC
  5
167
330
1F
100
AcDbEntity
  8
0
  6
Continuous
 62
     7
370
    25
100
AcDbCircle
 10
19.8742946596
 20
16.4232852959
 30
0.0
 40
0.1499999999999978
100
AcDbArc
 50
86.5
 51
176.5
  0
LINE
  5
168
330
1F
100
AcDbEntity
  8
0
  6
Continuous
 62
     7
370
    25
100
AcDbLine
 10
19.8834519405
 20
16.5730055157
 30
0.0
 11
29.0021796148
 21
16.0152802387
 31
0.0
  0
ARC
  5
169
330
1F
100
AcDbEntity
  8
0
  6
Continuous
 62
     7
370
    25
100
AcDbCircle
 10
29.0937524241
 20
17.5124824363
 30
0.0
 40
1.499999999999997
100
AcDbArc
 50
266.5
 51
306.5
  0
LINE
  5
16A
330
1F
100
AcDbEntity
  8
0
  6
Continuous
 62
     7
370
    25
100
AcDbLine
 10
29.9859866042
 20
16.3066971454
 30
0.0
 11
32.5792016727
 21
18.2255753552
 31
0.0
  0
ARC
  5
16B
330
1F
100
AcDbEntity
  8
0
  6
Continuous
 62
     7
370
    25
100
AcDbCircle
 10
33.1740244595
 20
17.4217184946
 30
0.0
 40
1.000000000000006
100
AcDbArc
 50
86.5
 51
126.5
  0
LINE
  5
16C
330
1F
100
AcDbEntity
  8
0
  6
Continuous
 62
     7
370
    25
100
AcDbLine
 10
33.235072999
 20
18.419853293
 30
0.0
 11
35.501139806
 21
18.2812547097
 31
0.0
  0
ARC
  5
16D
330
1F
100
AcDbEntity
  8
0
  6
Continuous
 62
     7
370
    25
100
AcDbCircle
 10
35.3715269644
 20
18.0387149989
 30
0.0
 40
0.274999999999998
100
AcDbArc
 50
356.5
 51
61.8800226713
  0
LINE
  5
16E
330
1F
100
AcDbEntity
  8
0
  6
Continuous
 62
     7
370
    25
100
AcDbLine
 10
35.646014034
 20
18.0219266505
 30
0.0
 11
35.4417627958
 21
14.6824484247
 31
0.0
  0
ARC
  5
16F
330
1F
100
AcDbEntity
  8
0
  6
Continuous
 62
     7
370
    25
100
AcDbCircle
 10
32.3800041751
 20
15.0714321298
 30
0.0
 40
0.1199999999999996
100
AcDbArc
 50
269.0220936188
 51
2.589196532
  0
ARC
  5
170
330
1F
100
AcDbEntity
  8
0
  6
Continuous
 62
     7
370
    25
100
AcDbCircle
 10
35.0722528644
 20
15.193177745
 30
0.0
 40
2.575
100
AcDbArc
 50
97.973890644
 51
182.589196532
  0
ARC
  5
171
330
1F
100
AcDbEntity
  8
0
  6
Continuous
 62
     7
370
    25
100
AcDbCircle
 10
35.0722528644
 20
15.193177745
 30
0.0
 40
2.825000000000004
100
AcDbArc
 50
97.869429973
 51
182.5759924907
  0
ARC
  5
172
330
1F
100
AcDbEntity
  8
0
  6
Continuous
 62
     7
370
    25
100
AcDbCircle
 10
32.3699862949
 20
15.0716031284
 30
0.0
 40
0.1200000000000032
100
AcDbArc
 50
182.5759924908
 51
269.0220936188
  0
LINE
  5
173
330
1F
100
AcDbEntity
  8
0
  6
Continuous
 62
     7
370
    25
100
AcDbLine
 10
32.3779561522
 20
14.9514496077
 30
0.0
 11
32.367938272
 21
14.9516206063
 31
0.0
  0
LINE
  5
174
330
1F
100
AcDbEntity
  8
0
  6
Continuous
 62
     7
370
    25
100
AcDbLine
 10
19.6635259003
 20
15.4343077784
 30
0.0
 11
19.6464933577
 21
15.1558281697
 31
0.0
  0
LINE
  5
175
330
1F
100
AcDbEntity
  8
0
  6
Continuous
 62
     7
370
    25
100
AcDbLine
 10
19.6964000977
 20
15.1527757427
 30
0.0
 11
35.2473402571
 21
14.2016394967
 31
0.0
  0
LINE
  5
176
330
1F
100
AcDbEntity
  8
0
  6
Continuous
 62
     7
370
    25
100
AcDbLine
 10
19.6464933577
 20
15.1558281697
 30
0.0
 11
19.6964000977
 21
15.1527757427
 31
0.0
  0
LINE
  5
177
330
1F
100
AcDbEntity
  8
0
  6
Continuous
 62
     7
370
    25
100
AcDbLine
 10
35.2473402571
 20
14.2016394967
 30
0.0
 11
35.2643727996
 21
14.4801191055
 31
0.0
  0
LINE
  5
178
330
1F
100
AcDbEntity
  8
0
  6
Continuous
 62
     7
370
    25
100
AcDbLine
 10
19.6447433281
 20
15.6022472776
 30
0.0
 11
19.6736892373
 21
15.6004768699
 31
0.0
  0
LINE
  5
179
330
1F
100
AcDbEntity
  8
0
  6
Continuous
 62
     7
370
    25
100
AcDbLine
 10
19.6925761037
 20
16.3843062446
 30
0.0
 11
19.6447433281
 21
15.6022472776
 31
0.0
  0
LINE
  5
17A
330
1F
100
AcDbEntity
  8
0
  6
Continuous
 62
     7
370
    25
100
AcDbLine
 10
19.7215220128
 20
16.3825358369
 30
0.0
 11
19.6925761037
 21
16.3843062446
 31
0.0
  0
LINE
  5
17B
330
1F
100
AcDbEntity
  8
0
  6
Continuous
 62
     7
370
    25
100
AcDbLine
 10
19.6426859924
 20
15.5686101349
 30
0.0
 11
19.6345799911
 21
15.4360781861
 31
0.0
  0
LINE
  5
17C
330
1F
100
AcDbEntity
  8
0
  6
Continuous
 62
     7
370
    25
100
AcDbLine
 10
19.6442122059
 20
15.5935635048
 30
0.0
 11
19.673158115
 21
15.5917930972
 31
0.0
  0
LINE
  5
17D
330
1F
100
AcDbEntity
  8
0
  6
Continuous
 62
     7
370
    25
100
AcDbLine
 10
19.6426859924
 20
15.5686101349
 30
0.0
 11
19.6442122059
 21
15.5935635048
 31
0.0
  0
LINE
  5
17E
330
1F
100
AcDbEntity
  8
0
  6
Continuous
 62
     7
370
    25
100
AcDbLine
 10
19.6519266778
 20
15.2446621667
 30
0.0
 11
19.6229807686
 21
15.2464325744
 31
0.0
  0
LINE
  5
17F
330
1F
100
AcDbEntity
  8
0
  6
Continuous
 62
     7
370
    25
100
AcDbLine
 10
19.6345799911
 20
15.4360781861
 30
0.0
 11
19.6229807686
 21
15.2464325744
 31
0.0
  0
LINE
  5
180
330
1F
100
AcDbEntity
  8
0
  6
Continuous
 62
     7
370
    25
100
AcDbLine
 10
19.6442122059
 20
15.5935635048
 30
0.0
 11
19.6447433281
 21
15.6022472776
 31
0.0
  0
ARC
  5
181
330
1F
100
AcDbEntity
  8
0
  6
Continuous
 62
     7
370
    25
100
AcDbCircle
 10
19.7012229323
 20
15.2316283918
 30
0.0
 40
0.0790000000000169
100
AcDbArc
 50
176.5
 51
227.2347520861
  0
LINE
  5
182
330
1F
100
AcDbEntity
  8
0
  6
Continuous
 62
     7
370
    25
100
AcDbLine
 10
19.6229807686
 20
15.2464325744
 30
0.0
 11
19.6223702832
 21
15.2364512264
 31
0.0
  0
LINE
  5
183
330
1F
100
AcDbEntity
  8
0
  6
Continuous
 62
     7
370
    25
100
AcDbLine
 10
34.5134073844
 20
18.6418061215
 30
0.0
 11
34.5134073844
 21
18.3416670126
 31
0.0
  0
LINE
  5
184
330
1F
100
AcDbEntity
  8
0
  6
Continuous
 62
     7
370
    25
100
AcDbLine
 10
34.5134073844
 20
17.9623503163
 30
0.0
 11
34.5134073844
 21
17.7068039562
 31
0.0
  0
ARC
  5
185
330
1F
100
AcDbEntity
  8
0
  6
Continuous
 62
     7
370
    25
100
AcDbCircle
 10
34.7134073844
 20
18.6418061215
 30
0.0
 40
0.2000000000000028
100
AcDbArc
 50
150.0
 51
180.0
  0
LINE
  5
186
330
1F
100
AcDbEntity
  8
0
  6
Continuous
 62
     7
370
    25
100
AcDbLine
 10
35.3366124651
 20
20.1212289849
 30
0.0
 11
34.5402023036
 21
18.7418061215
 31
0.0
  0
ARC
  5
187
330
1F
100
AcDbEntity
  8
0
  6
Continuous
 62
     7
370
    25
100
AcDbCircle
 10
35.1634073844
 20
20.2212289849
 30
0.0
 40
0.2000000000000025
100
AcDbArc
 50
330.0
 51
0.0
  0
LINE
  5
188
330
1F
100
AcDbEntity
  8
0
  6
Continuous
 62
     7
370
    25
100
AcDbLine
 10
35.3634073844
 20
30.302177745
 30
0.0
 11
35.3634073844
 21
20.2212289849
 31
0.0
  0
ARC
  5
189
330
1F
100
AcDbEntity
  8
0
  6
Continuous
 62
     7
370
    25
100
AcDbCircle
 10
35.4634073844
 20
30.302177745
 30
0.0
 40
0.1000000000000014
100
AcDbArc
 50
90.0
 51
180.0
  0
LINE
  5
18A
330
1F
100
AcDbEntity
  8
0
  6
Continuous
 62
     7
370
    25
100
AcDbLine
 10
38.2134073844
 20
30.402177745
 30
0.0
 11
35.4634073844
 21
30.402177745
 31
0.0
  0
LINE
  5
18B
330
1F
100
AcDbEntity
  8
0
  6
Continuous
 62
     7
370
    25
100
AcDbLine
 10
35.4460276237
 20
14.752177745
 30
0.0
 11
38.2134073844
 21
14.752177745
 31
0.0
  0
LINE
  5
18C
330
1F
100
AcDbEntity
  8
0
  6
Continuous
 62
     7
370
    25
100
AcDbLine
 10
38.2984073844
 20
14.752177745
 30
0.0
 11
38.2134073844
 21
14.752177745
 31
0.0
  0
LINE
  5
18D
330
1F
100
AcDbEntity
  8
0
  6
Continuous
 62
     7
370
    25
100
AcDbLine
 10
38.2134073844
 20
30.402177745
 30
0.0
 11
38.2984073844
 21
30.402177745
 31
0.0
  0
LINE
  5
18E
330
1F
100
AcDbEntity
  8
0
  6
Continuous
 62
     7
370
    25
100
AcDbLine
 10
38.2984073844
 20
30.402177745
 30
0.0
 11
38.2984073844
 21
14.752177745
 31
0.0
  0
ARC
  5
18F
330
1F
100
AcDbEntity
  8
0
  6
Continuous
 62
     7
370
    25
100
AcDbCircle
 10
34.7734073844
 20
29.952177745
 30
0.0
 40
0.1000000000000014
100
AcDbArc
 50
180.0
 51
270.0
  0
LINE
  5
190
330
1F
100
AcDbEntity
  8
0
  6
Continuous
 62
     7
370
    25
100
AcDbLine
 10
34.6734073844
 20
30.412177745
 30
0.0
 11
34.6734073844
 21
29.952177745
 31
0.0
  0
LINE
  5
191
330
1F
100
AcDbEntity
  8
0
  6
Continuous
 62
     7
370
    25
100
AcDbLine
 10
37.9634073844
 20
30.402177745
 30
0.0
 11
37.9634073844
 21
30.412177745
 31
0.0
  0
LINE
  5
192
330
1F
100
AcDbEntity
  8
0
  6
Continuous
 62
     7
370
    25
100
AcDbLine
 10
34.7734073844
 20
29.852177745
 30
0.0
 11
35.3634073844
 21
29.852177745
 31
0.0
  0
LINE
  5
193
330
1F
100
AcDbEntity
  8
0
  6
Continuous
 62
     7
370
    25
100
AcDbLine
 10
37.9634073844
 20
30.487177745
 30
0.0
 11
37.9634073844
 21
30.412177745
 31
0.0
  0
LINE
  5
194
330
1F
100
AcDbEntity
  8
0
  6
Continuous
 62
     7
370
    25
100
AcDbLine
 10
34.6734073844
 20
30.412177745
 30
0.0
 11
34.6734073844
 21
30.487177745
 31
0.0
  0
LINE
  5
195
330
1F
100
AcDbEntity
  8
0
  6
Continuous
 62
     7
370
    25
100
AcDbLine
 10
34.6734073844
 20
30.487177745
 30
0.0
 11
37.9634073844
 21
30.487177745
 31
0.0
  0
LINE
  5
196
330
1F
100
AcDbEntity
  8
0
  6
Continuous
 62
     7
370
    25
100
AcDbLine
 10
38.0134073844
 20
14.752177745
 30
0.0
 11
38.0134073844
 21
14.677177745
 31
0.0
  0
LINE
  5
197
330
1F
100
AcDbEntity
  8
0
  6
Continuous
 62
     7
370
    25
100
AcDbLine
 10
38.0134073844
 20
14.677177745
 30
0.0
 11
35.4411584483
 21
14.677177745
 31
0.0
  0
ARC
  5
198
330
1F
100
AcDbEntity
  8
0
  6
Continuous
 62
     7
370
    25
100
AcDbCircle
 10
38.2234073844
 20
14.752177745
 30
0.0
 40
0.0750000000000028
100
AcDbArc
 50
270.0
 51
0.0
  0
ARC
  5
199
330
1F
100
AcDbEntity
  8
0
  6
Continuous
 62
     7
370
    25
100
AcDbCircle
 10
38.2234073844
 20
14.752177745
 30
0.0
 40
0.0400000000000009
100
AcDbArc
 50
270.0
 51
0.0
  0
ARC
  5
19A
330
1F
100
AcDbEntity
  8
0
  6
Continuous
 62
     7
370
    25
100
AcDbCircle
 10
38.2134073844
 20
30.402177745
 30
0.0
 40
0.0499999999999972
100
AcDbArc
 50
0.0
 51
90.0
  0
ARC
  5
19B
330
1F
100
AcDbEntity
  8
0
  6
Continuous
 62
     7
370
    25
100
AcDbCircle
 10
38.2134073844
 20
30.402177745
 30
0.0
 40
0.0850000000000009
100
AcDbArc
 50
0.0
 51
90.0
  0
LINE
  5
19C
330
1F
100
AcDbEntity
  8
0
  6
Continuous
 62
     7
370
    25
100
AcDbLine
 10
38.2234073844
 20
14.677177745
 30
0.0
 11
38.0489073844
 21
14.677177745
 31
0.0
  0
LINE
  5
19D
330
1F
100
AcDbEntity
  8
0
  6
Continuous
 62
     7
370
    25
100
AcDbLine
 10
38.2234073844
 20
14.712177745
 30
0.0
 11
38.0489073844
 21
14.712177745
 31
0.0
  0
LINE
  5
19E
330
1F
100
AcDbEntity
  8
0
  6
Continuous
 62
     7
370
    25
100
AcDbLine
 10
37.9989073844
 20
30.452177745
 30
0.0
 11
38.2134073844
 21
30.452177745
 31
0.0
  0
LINE
  5
19F
330
1F
100
AcDbEntity
  8
0
  6
Continuous
 62
     7
370
    25
100
AcDbLine
 10
37.9989073844
 20
30.487177745
 30
0.0
 11
38.2134073844
 21
30.487177745
 31
0.0
  0
LINE
  5
1A0
330
1F
100
AcDbEntity
  8
0
  6
Continuous
 62
     7
370
    25
100
AcDbLine
 10
38.0239073844
 20
14.677177745
 30
0.0
 11
38.0239073844
 21
14.712177745
 31
0.0
  0
LINE
  5
1A1
330
1F
100
AcDbEntity
  8
0
  6
Continuous
 62
     7
370
    25
100
AcDbLine
 10
38.0489073844
 20
14.677177745
 30
0.0
 11
38.0239073844
 21
14.677177745
 31
0.0
  0
LINE
  5
1A2
330
1F
100
AcDbEntity
  8
0
  6
Continuous
 62
     7
370
    25
100
AcDbLine
 10
38.0239073844
 20
14.712177745
 30
0.0
 11
38.0489073844
 21
14.712177745
 31
0.0
  0
LINE
  5
1A3
330
1F
100
AcDbEntity
  8
0
  6
Continuous
 62
     7
370
    25
100
AcDbLine
 10
37.9739073844
 20
30.452177745
 30
0.0
 11
37.9739073844
 21
30.487177745
 31
0.0
  0
LINE
  5
1A4
330
1F
100
AcDbEntity
  8
0
  6
Continuous
 62
     7
370
    25
100
AcDbLine
 10
37.9989073844
 20
30.452177745
 30
0.0
 11
37.9739073844
 21
30.452177745
 31
0.0
  0
LINE
  5
1A5
330
1F
100
AcDbEntity
  8
0
  6
Continuous
 62
     7
370
    25
100
AcDbLine
 10
37.9739073844
 20
30.487177745
 30
0.0
 11
37.9989073844
 21
30.487177745
 31
0.0
  0
LINE
  5
1A6
330
1F
100
AcDbEntity
  8
0
  6
Continuous
 62
     7
370
    25
100
AcDbLine
 10
37.9634073844
 20
30.452177745
 30
0.0
 11
37.9739073844
 21
30.452177745
 31
0.0
  0
LINE
  5
1A7
330
1F
100
AcDbEntity
  8
0
  6
Continuous
 62
     7
370
    25
100
AcDbLine
 10
37.9739073844
 20
30.487177745
 30
0.0
 11
37.9634073844
 21
30.487177745
 31
0.0
  0
LINE
  5
1A8
330
1F
100
AcDbEntity
  8
0
  6
Continuous
 62
     7
370
    25
100
AcDbLine
 10
38.0134073844
 20
14.677177745
 30
0.0
 11
38.0239073844
 21
14.677177745
 31
0.0
  0
LINE
  5
1A9
330
1F
100
AcDbEntity
  8
0
  6
Continuous
 62
     7
370
    25
100
AcDbLine
 10
38.0239073844
 20
14.712177745
 30
0.0
 11
38.0134073844
 21
14.712177745
 31
0.0
  0
LINE
  5
1AA
330
1F
100
AcDbEntity
  8
0
  6
Continuous
 62
     7
370
    25
100
AcDbLine
 10
34.3634073844
 20
30.452177745
 30
0.0
 11
34.3634073844
 21
30.487177745
 31
0.0
  0
LINE
  5
1AB
330
1F
100
AcDbEntity
  8
0
  6
Continuous
 62
     7
370
    25
100
AcDbLine
 10
34.6629073844
 20
30.452177745
 30
0.0
 11
34.6629073844
 21
30.487177745
 31
0.0
  0
LINE
  5
1AC
330
1F
100
AcDbEntity
  8
0
  6
Continuous
 62
     7
370
    25
100
AcDbLine
 10
34.3634073844
 20
30.452177745
 30
0.0
 11
34.6629073844
 21
30.452177745
 31
0.0
  0
LINE
  5
1AD
330
1F
100
AcDbEntity
  8
0
  6
Continuous
 62
     7
370
    25
100
AcDbLine
 10
34.6629073844
 20
30.487177745
 30
0.0
 11
34.3634073844
 21
30.487177745
 31
0.0
  0
LINE
  5
1AE
330
1F
100
AcDbEntity
  8
0
  6
Continuous
 62
     7
370
    25
100
AcDbLine
 10
34.6629073844
 20
30.452177745
 30
0.0
 11
34.6734073844
 21
30.452177745
 31
0.0
  0
LINE
  5
1AF
330
1F
100
AcDbEntity
  8
0
  6
Continuous
 62
     7
370
    25
100
AcDbLine
 10
34.6734073844
 20
30.487177745
 30
0.0
 11
34.6629073844
 21
30.487177745
 31
0.0
  0
LINE
  5
1B0
330
1F
100
AcDbEntity
  8
0
  6
Continuous
 62
     7
370
    25
100
AcDbLine
 10
34.1409345064
 20
30.452177745
 30
0.0
 11
34.3634073844
 21
30.452177745
 31
0.0
  0
LINE
  5
1B1
330
1F
100
AcDbEntity
  8
0
  6
Continuous
 62
     7
370
    25
100
AcDbLine
 10
34.1409345064
 20
30.487177745
 30
0.0
 11
34.3634073844
 21
30.487177745
 31
0.0
  0
LINE
  5
1B2
330
1F
100
AcDbEntity
  8
0
  6
Continuous
 62
     7
370
    25
100
AcDbLine
 10
34.1275370468
 20
30.452177745
 30
0.0
 11
34.1275370468
 21
30.487177745
 31
0.0
  0
LINE
  5
1B3
330
1F
100
AcDbEntity
  8
0
  6
Continuous
 62
     7
370
    25
100
AcDbLine
 10
34.1409345064
 20
30.452177745
 30
0.0
 11
34.1275370468
 21
30.452177745
 31
0.0
  0
LINE
  5
1B4
330
1F
100
AcDbEntity
  8
0
  6
Continuous
 62
     7
370
    25
100
AcDbLine
 10
34.1275370468
 20
30.487177745
 30
0.0
 11
34.1409345064
 21
30.487177745
 31
0.0
  0
INSERT
  5
1BA
330
1F
100
AcDbEntity
  8
NOTES
100
AcDbBlockReference
  2
SW_NOTE_0_2
 10
34.0566723719
 20
12.96055009
 30
0.0
  0
LINE
  5
1BB
330
1F
100
AcDbEntity
  8
0
  6
Continuous
 62
     7
370
    25
100
AcDbLine
 10
55.3731835634
 20
28.823380857
 30
0.0
 11
55.4063291938
 21
28.8042462919
 31
0.0
  0
LINE
  5
1BC
330
1F
100
AcDbEntity
  8
0
  6
Continuous
 62
     7
370
    25
100
AcDbLine
 10
55.5703158659
 20
29.0883103188
 30
0.0
 11
55.5371702356
 21
29.1074448839
 31
0.0
  0
ARC
  5
1BD
330
1F
100
AcDbEntity
  8
0
  6
Continuous
 62
     7
370
    25
100
AcDbCircle
 10
54.70748664
 20
40.9579710116
 30
0.0
 40
0.2148982485806278
100
AcDbArc
 50
4.1500362677
 51
61.0450526157
  0
LWPOLYLINE
  5
1BE
330
1F
100
AcDbEntity
  8
0
  6
Continuous
 62
     7
370
    25
100
AcDbPolyline
 90
       16
 70
   128
 43
0.0
 10
54.8115235545
 20
41.1460071189
 10
54.7839151648
 20
41.1629658659
 10
54.7254551412
 20
41.1905775871
 10
54.6601815298
 20
41.2118644305
 10
54.5899645091
 20
41.2263186472
 10
54.5167545375
 20
41.2336100956
 10
54.4425531119
 20
41.233576078
 10
54.3693763639
 20
41.2262195759
 10
54.29922852
 20
41.2117105371
 10
54.2340039054
 20
41.1903664864
 10
54.1754741795
 20
41.1626266285
 10
54.1252816459
 20
41.1290281867
 10
54.0849928268
 20
41.0902419729
 10
54.0561672951
 20
41.0473204981
 10
54.0400265551
 20
41.0019147873
 10
54.0379317516
 20
40.9710053975
  0
LINE
  5
1BF
330
1F
100
AcDbEntity
  8
0
  6
Continuous
 62
     7
370
    25
100
AcDbLine
 10
54.9234963987
 20
40.7841959422
 30
0.0
 11
54.9234963987
 21
40.9679176248
 31
0.0
  0
LINE
  5
1C0
330
1F
100
AcDbEntity
  8
0
  6
Continuous
 62
     7
370
    25
100
AcDbLine
 10
54.0364963987
 20
40.9679176248
 30
0.0
 11
54.0364963987
 21
40.7841959422
 31
0.0
  0
LINE
  5
1C1
330
1F
100
AcDbEntity
  8
0
  6
Continuous
 62
     7
370
    25
100
AcDbLine
 10
54.1649963987
 20
40.9883311451
 30
0.0
 11
54.1649963987
 21
40.978124385
 31
0.0
  0
LINE
  5
1C2
330
1F
100
AcDbEntity
  8
0
  6
Continuous
 62
     7
370
    25
100
AcDbLine
 10
54.7949963987
 20
40.978124385
 30
0.0
 11
54.7949963987
 21
40.9883311451
 31
0.0
  0
LINE
  5
1C3
330
1F
100
AcDbEntity
  8
0
  6
Continuous
 62
     7
370
    25
100
AcDbLine
 10
55.4248276903
 20
28.8362900998
 30
0.0
 11
55.4403840395
 21
28.8273096106
 31
0.0
  0
LINE
  5
1C4
330
1F
100
AcDbEntity
  8
0
  6
Continuous
 62
     7
370
    25
100
AcDbLine
 10
55.5673737186
 20
29.0472860216
 30
0.0
 11
55.5518173694
 21
29.0562665109
 31
0.0
  0
LINE
  5
1C5
330
1F
100
AcDbEntity
  8
0
  6
Continuous
 62
     7
370
    25
100
AcDbLine
 10
55.5753403114
 20
26.7731752465
 30
0.0
 11
55.5908966606
 21
26.7641947572
 31
0.0
  0
LINE
  5
1C6
330
1F
100
AcDbEntity
  8
0
  6
Continuous
 62
     7
370
    25
100
AcDbLine
 10
55.7178863396
 20
26.9841711683
 30
0.0
 11
55.7023299904
 21
26.9931516575
 31
0.0
  0
LINE
  5
1C7
330
1F
100
AcDbEntity
  8
0
  6
Continuous
 62
     7
370
    25
100
AcDbLine
 10
55.2033527968
 20
39.2563176597
 30
0.0
 11
55.2033527968
 21
39.2799973433
 31
0.0
  0
LINE
  5
1C8
330
1F
100
AcDbEntity
  8
0
  6
Continuous
 62
     7
370
    25
100
AcDbLine
 10
55.9259610902
 20
39.5834576074
 30
0.0
 11
55.9054549936
 21
39.595295525
 31
0.0
  0
LINE
  5
1C9
330
1F
100
AcDbEntity
  8
0
  6
Continuous
 62
     7
370
    25
100
AcDbLine
 10
54.8385864623
 20
40.1103243324
 30
0.0
 11
53.1496682451
 21
41.0853160658
 31
0.0
  0
LINE
  5
1CA
330
1F
100
AcDbEntity
  8
0
  6
Continuous
 62
     7
370
    25
100
AcDbLine
 10
51.455898612
 20
41.1357790974
 30
0.0
 11
51.455898612
 21
28.3732462077
 31
0.0
  0
LINE
  5
1CB
330
1F
100
AcDbEntity
  8
0
  6
Continuous
 62
     7
370
    25
100
AcDbLine
 10
51.5236854086
 20
41.1717049026
 30
0.0
 11
51.5236854086
 21
41.1480252191
 31
0.0
  0
LINE
  5
1CC
330
1F
100
AcDbEntity
  8
0
  6
Continuous
 62
     7
370
    25
100
AcDbLine
 10
53.1474542487
 20
41.0899377819
 30
0.0
 11
53.1474542487
 21
41.1136174655
 31
0.0
  0
LINE
  5
1CD
330
1F
100
AcDbEntity
  8
0
  6
Continuous
 62
     7
370
    25
100
AcDbLine
 10
52.2476522182
 20
41.6201502555
 30
0.0
 11
51.7031782594
 21
41.3058321296
 31
0.0
  0
LINE
  5
1CE
330
1F
100
AcDbEntity
  8
0
  6
Continuous
 62
     7
370
    25
100
AcDbLine
 10
52.3402226028
 20
41.6534603749
 30
0.0
 11
52.3197165062
 21
41.6652982925
 31
0.0
  0
LINE
  5
1CF
330
1F
100
AcDbEntity
  8
0
  6
Continuous
 62
     7
370
    25
100
AcDbLine
 10
56.9262305192
 20
29.1132392726
 30
0.0
 11
56.9057244225
 21
29.1250771902
 31
0.0
  0
LINE
  5
1D0
330
1F
100
AcDbEntity
  8
0
  6
Continuous
 62
     7
370
    25
100
AcDbLine
 10
55.2488154636
 20
26.3670250069
 30
0.0
 11
55.2693215602
 21
26.3551870893
 31
0.0
  0
LINE
  5
1D1
330
1F
100
AcDbEntity
  8
0
  6
Continuous
 62
     7
370
    25
100
AcDbLine
 10
57.8565784651
 20
27.8563264762
 30
0.0
 11
57.8565784651
 21
40.6351901822
 31
0.0
  0
LINE
  5
1D2
330
1F
100
AcDbEntity
  8
0
  6
Continuous
 62
     7
370
    25
100
AcDbLine
 10
57.8140750113
 20
40.7088043355
 30
0.0
 11
54.3846071225
 21
42.6885940067
 31
0.0
  0
LINE
  5
1D3
330
1F
100
AcDbEntity
  8
0
  6
Continuous
 62
     7
370
    25
100
AcDbLine
 10
54.149050132
 20
42.5738017906
 30
0.0
 11
52.388736108
 21
41.5575941351
 31
0.0
  0
LINE
  5
1D4
330
1F
100
AcDbEntity
  8
0
  6
Continuous
 62
     7
370
    25
100
AcDbLine
 10
54.1831138413
 20
42.586620951
 30
0.0
 11
54.1831138413
 21
42.5719421918
 31
0.0
  0
LINE
  5
1D5
330
1F
100
AcDbEntity
  8
0
  6
Continuous
 62
     7
370
    25
100
AcDbLine
 10
55.229865448
 20
26.372117613
 30
0.0
 11
55.2546141854
 21
26.3578304711
 31
0.0
  0
LINE
  5
1D6
330
1F
100
AcDbEntity
  8
0
  6
Continuous
 62
     7
370
    25
100
AcDbLine
 10
55.1715671238
 20
26.2932639264
 30
0.0
 11
55.2752269157
 21
26.3531054505
 31
0.0
  0
LWPOLYLINE
  5
1D7
330
1F
100
AcDbEntity
  8
0
  6
Continuous
 62
     7
370
    25
100
AcDbPolyline
 90
       13
 70
   128
 43
0.0
 10
55.5371702356
 20
29.1074448839
 10
55.5366109917
 20
29.107763355
 10
55.5086575182
 20
29.1151084051
 10
55.475952057
 20
29.10915235
 10
55.441400632
 20
29.0904244114
 10
55.4080732887
 20
29.0605886488
 10
55.378931308
 20
29.0222961006
 10
55.3565640827
 20
28.9789492278
 10
55.3429590389
 20
28.9343995902
 10
55.3393250445
 20
28.8926056187
 10
55.3459849958
 20
28.857280891
 10
55.362347127
 20
28.8315641642
 10
55.3731835634
 20
28.823380857
  0
LWPOLYLINE
  5
1D8
330
1F
100
AcDbEntity
  8
0
  6
Continuous
 62
     7
370
    25
100
AcDbPolyline
 90
       22
 70
   128
 43
0.0
 10
55.6036454494
 20
28.9987749152
 10
55.6021153813
 20
29.0377698055
 10
55.5904743191
 20
29.0686352745
 10
55.569756622
 20
29.0886287899
 10
55.5418031486
 20
29.09597384
 10
55.5090976874
 20
29.0900177849
 10
55.4745462623
 20
29.0712898463
 10
55.4412189191
 20
29.0414540837
 10
55.4120769384
 20
29.0031615355
 10
55.3897097131
 20
28.9598146627
 10
55.3761046693
 20
28.9152650251
 10
55.3724706749
 20
28.8734710535
 10
55.3791306262
 20
28.8381463259
 10
55.3954927573
 20
28.8124295991
 10
55.4201032211
 20
28.7986059172
 10
55.4507752699
 20
28.7979035751
 10
55.4847835575
 20
28.8103849789
 10
55.5191062983
 20
28.8349411011
 10
55.5506937662
 20
28.8693900225
 10
55.576739276
 20
28.9106708053
 10
55.59492857
 20
28.9551154707
 10
55.6036454494
 20
28.9987749152
  0
LINE
  5
1D9
330
1F
100
AcDbEntity
  8
0
  6
Continuous
 62
     7
370
    25
100
AcDbLine
 10
54.9234058545
 20
40.9730908602
 30
0.0
 11
54.9234963987
 21
40.9679176248
 31
0.0
  0
LWPOLYLINE
  5
1DA
330
1F
100
AcDbEntity
  8
0
  6
Continuous
 62
     7
370
    25
100
AcDbPolyline
 90
       20
 70
   128
 43
0.0
 10
54.0364963987
 20
40.7841959422
 10
54.0379486792
 20
40.7634934061
 10
54.051455927
 20
40.7182603996
 10
54.0787368183
 20
40.6751466156
 10
54.1189145225
 20
40.6355377667
 10
54.1706976954
 20
40.6007069139
 10
54.2324219831
 20
40.5717735494
 10
54.3021035162
 20
40.5496676155
 10
54.377502673
 20
40.5350996149
 10
54.4561960624
 20
40.5285377752
 10
54.5356544142
 20
40.5301929994
 10
54.6133238716
 20
40.5400120871
 10
54.6867080743
 20
40.5576794449
 10
54.7534483937
 20
40.5826272292
 10
54.8113997409
 20
40.6140535979
 10
54.8586995121
 20
40.6509484814
 10
54.8938274536
 20
40.6921260481
 10
54.9156545245
 20
40.7362628168
 10
54.9234791847
 20
40.7819401957
 10
54.9234963987
 20
40.7841959422
  0
ARC
  5
1DB
330
1F
100
AcDbEntity
  8
0
  6
Continuous
 62
     7
370
    25
100
AcDbCircle
 10
54.3021684996
 20
40.9673563245
 30
0.0
 40
0.1479058768572298
100
AcDbArc
 50
125.5385219494
 51
173.8398601967
  0
ARC
  5
1DC
330
1F
100
AcDbEntity
  8
0
  6
Continuous
 62
     7
370
    25
100
AcDbCircle
 10
54.6606947566
 20
40.9690344118
 30
0.0
 40
0.1448783077459348
100
AcDbArc
 50
5.6221371715
 51
54.9994806821
  0
ARC
  5
1DD
330
1F
100
AcDbEntity
  8
0
  6
Continuous
 62
     7
370
    25
100
AcDbCircle
 10
54.2990090077
 20
40.9842895509
 30
0.0
 40
0.1341543463700161
100
AcDbArc
 50
182.6339991858
 51
231.8822064475
  0
ARC
  5
1DE
330
1F
100
AcDbEntity
  8
0
  6
Continuous
 62
     7
370
    25
100
AcDbCircle
 10
54.661527739
 20
40.9840093012
 30
0.0
 40
0.1335983358749308
100
AcDbArc
 50
308.0084515191
 51
357.4753428238
  0
LWPOLYLINE
  5
1DF
330
1F
100
AcDbEntity
  8
0
  6
Continuous
 62
     7
370
    25
100
AcDbPolyline
 90
       30
 70
   128
 43
0.0
 10
54.7190307014
 20
41.1067632383
 10
54.6693404608
 20
41.1336584694
 10
54.6107967023
 20
41.1537583563
 10
54.5461368669
 20
41.1661230507
 10
54.4783843768
 20
41.1701743932
 10
54.410707263
 20
41.1657229476
 10
54.3462700322
 20
41.1529768584
 10
54.2880856977
 20
41.1325321186
 10
54.2388748942
 20
41.1053447016
 10
54.2009386643
 20
41.0726858607
 10
54.176050864
 20
41.0360826871
 10
54.165375219
 20
40.9972467045
 10
54.1694109107
 20
40.9579938402
 10
54.1879692346
 20
40.9201595146
 10
54.2201824242
 20
40.8855128186
 10
54.2645442264
 20
40.8556737933
 10
54.3189803328
 20
40.8320376784
 10
54.3809453714
 20
40.8157096723
 10
54.447541926
 20
40.8074532543
 10
54.5156560157
 20
40.8076544855
 10
54.5821027013
 20
40.8163039566
 10
54.6437750097
 20
40.8329972277
 10
54.6977892123
 20
40.8569537402
 10
54.7416196649
 20
40.8870533141
 10
54.7732169044
 20
40.9218885269
 10
54.7911034789
 20
40.9598305226
 10
54.7944430322
 20
40.9991051758
 10
54.7830794103
 20
41.0378760472
 10
54.7575439637
 20
41.0743302541
 10
54.7190307014
 20
41.1067632383
  0
LINE
  5
1E0
330
1F
100
AcDbEntity
  8
0
  6
Continuous
 62
     7
370
    25
100
AcDbLine
 10
54.3829223854
 20
40.9744685939
 30
0.0
 11
54.2227529686
 21
40.8951109491
 31
0.0
  0
LINE
  5
1E1
330
1F
100
AcDbEntity
  8
0
  6
Continuous
 62
     7
370
    25
100
AcDbLine
 10
54.2227529686
 20
40.8951109491
 30
0.0
 11
54.2813680062
 21
40.8556847875
 31
0.0
  0
LINE
  5
1E2
330
1F
100
AcDbEntity
  8
0
  6
Continuous
 62
     7
370
    25
100
AcDbLine
 10
54.2813680062
 20
40.8556847875
 30
0.0
 11
54.4415374229
 21
40.9350424322
 31
0.0
  0
LWPOLYLINE
  5
1E3
330
1F
100
AcDbEntity
  8
0
  6
Continuous
 62
     7
370
    25
100
AcDbPolyline
 90
       15
 70
   128
 43
0.0
 10
54.4415374229
 20
40.9350424322
 10
54.4787319154
 20
40.9306069893
 10
54.5161088049
 20
40.9344980395
 10
54.5482766151
 20
40.9461543135
 10
54.57059526
 20
40.9638944374
 10
54.5798453586
 20
40.9851594648
 10
54.5746926189
 20
41.0068819952
 10
54.5558803043
 20
41.025928635
 10
54.5261220207
 20
41.0395519778
 10
54.489710289
 20
41.0457869074
 10
54.4518973649
 20
41.0437340586
 10
54.4181376212
 20
41.0336895472
 10
54.3933007744
 20
41.0171022562
 10
54.3809694465
 20
40.9963648402
 10
54.3829223854
 20
40.9744685939
  0
LWPOLYLINE
  5
1E4
330
1F
100
AcDbEntity
  8
0
  6
Continuous
 62
     7
370
    25
100
AcDbPolyline
 90
       17
 70
   128
 43
0.0
 10
55.569595411
 20
28.9629890408
 10
55.5654004173
 20
28.9849208803
 10
55.5534540861
 20
28.9986703595
 10
55.535575138
 20
29.0021442448
 10
55.5144854808
 20
28.9948136686
 10
55.4933958235
 20
28.9777946448
 10
55.4755168754
 20
28.9536781654
 10
55.4635705442
 20
28.9261357458
 10
55.4593755506
 20
28.8993604698
 10
55.4635705442
 20
28.8774286303
 10
55.4755168754
 20
28.8636791511
 10
55.4933958235
 20
28.8602052658
 10
55.5144854808
 20
28.867535842
 10
55.535575138
 20
28.8845548658
 10
55.5534540861
 20
28.9086713452
 10
55.5654004173
 20
28.9362137647
 10
55.569595411
 20
28.9629890408
  0
LWPOLYLINE
  5
1E5
330
1F
100
AcDbEntity
  8
0
  6
Continuous
 62
     7
370
    25
100
AcDbPolyline
 90
       19
 70
   128
 43
0.0
 10
55.5936814403
 20
28.9891397312
 10
55.5882656832
 20
28.9505455587
 10
55.5726716321
 20
28.9103535129
 10
55.5487801597
 20
28.8734113477
 10
55.5194729302
 20
28.8441748335
 10
55.488284828
 20
28.8261703253
 10
55.4589775985
 20
28.8215694326
 10
55.4350861261
 20
28.8309270909
 10
55.419492075
 20
28.8531146286
 10
55.4140763178
 20
28.885455901
 10
55.419492075
 20
28.9240500736
 10
55.4350861261
 20
28.9642421194
 10
55.4589775985
 20
29.0011842845
 10
55.488284828
 20
29.0304207988
 10
55.5194729302
 20
29.0484253069
 10
55.5487801597
 20
29.0530261996
 10
55.5726716321
 20
29.0436685413
 10
55.5882656832
 20
29.0214810037
 10
55.5936814403
 20
28.9891397312
  0
LWPOLYLINE
  5
1E6
330
1F
100
AcDbEntity
  8
0
  6
Continuous
 62
     7
370
    25
100
AcDbPolyline
 90
       11
 70
   128
 43
0.0
 10
55.5518173694
 20
29.0562665109
 10
55.5332238105
 20
29.0620066889
 10
55.503916581
 20
29.0574057962
 10
55.4727284788
 20
29.039401288
 10
55.4434212493
 20
29.0101647738
 10
55.4195297769
 20
28.9732226086
 10
55.4039357258
 20
28.9330305628
 10
55.3985199687
 20
28.8944363903
 10
55.4039357258
 20
28.8620951178
 10
55.4195297769
 20
28.8399075802
 10
55.4248276903
 20
28.8362900998
  0
LWPOLYLINE
  5
1E7
330
1F
100
AcDbEntity
  8
0
  6
Continuous
 62
     7
370
    25
100
AcDbPolyline
 90
       17
 70
   128
 43
0.0
 10
55.5365825677
 20
28.943931132
 10
55.5349005271
 20
28.9331952157
 10
55.5301104808
 20
28.9221517025
 10
55.5229416698
 20
28.9124818673
 10
55.5144854808
 20
28.9056578549
 10
55.5060292917
 20
28.9027185593
 10
55.4988604808
 20
28.9041114615
 10
55.4940704344
 20
28.9096245049
 10
55.4923883939
 20
28.9184183785
 10
55.4940704344
 20
28.9291542949
 10
55.4988604808
 20
28.9401978081
 10
55.5060292917
 20
28.9498676432
 10
55.5144854808
 20
28.9566916557
 10
55.5229416698
 20
28.9596309513
 10
55.5301104808
 20
28.9582380491
 10
55.5349005271
 20
28.9527250057
 10
55.5365825677
 20
28.943931132
  0
LWPOLYLINE
  5
1E8
330
1F
100
AcDbEntity
  8
0
  6
Continuous
 62
     7
370
    25
100
AcDbPolyline
 90
       17
 70
   128
 43
0.0
 10
55.7021183398
 20
26.9365261375
 10
55.683704815
 20
26.9387195001
 10
55.6624433626
 20
26.9301555794
 10
55.6415708462
 20
26.9121381547
 10
55.6242649171
 20
26.8874102156
 10
55.6131602461
 20
26.8597363666
 10
55.6099474187
 20
26.8333297005
 10
55.6151155588
 20
26.8122103926
 10
55.6278778639
 20
26.7995936663
 10
55.6462913887
 20
26.7974003037
 10
55.667552841
 20
26.8059642244
 10
55.6884253575
 20
26.8239816491
 10
55.7057312866
 20
26.8487095882
 10
55.7168359576
 20
26.8763834372
 10
55.720048785
 20
26.9027901034
 10
55.7148806449
 20
26.9239094112
 10
55.7021183398
 20
26.9365261375
  0
LWPOLYLINE
  5
1E9
330
1F
100
AcDbEntity
  8
0
  6
Continuous
 62
     7
370
    25
100
AcDbPolyline
 90
       19
 70
   128
 43
0.0
 10
55.7148795542
 20
26.9857498489
 10
55.7339334061
 20
26.9682370786
 10
55.7433933302
 20
26.9393799939
 10
55.7421183201
 20
26.902659185
 10
55.7302621607
 20
26.8625037234
 10
55.70925488
 20
26.8237569504
 10
55.681630266
 20
26.7910922988
 10
55.6507202547
 20
26.7684496075
 10
55.6202530499
 20
26.7585599193
 10
55.593903446
 20
26.7626160766
 10
55.5748495941
 20
26.7801288469
 10
55.56538967
 20
26.8089859316
 10
55.5666646801
 20
26.8457067405
 10
55.5785208395
 20
26.8858622021
 10
55.5995281202
 20
26.924608975
 10
55.6271527343
 20
26.9572736267
 10
55.6580627455
 20
26.979916318
 10
55.6885299503
 20
26.9898060062
 10
55.7148795542
 20
26.9857498489
  0
LWPOLYLINE
  5
1EA
330
1F
100
AcDbEntity
  8
0
  6
Continuous
 62
     7
370
    25
100
AcDbPolyline
 90
       11
 70
   128
 43
0.0
 10
55.7023299904
 20
26.9931516575
 10
55.6993232051
 20
26.9947303381
 10
55.6729736011
 20
26.9987864954
 10
55.6425063963
 20
26.9888968072
 10
55.6115963851
 20
26.9662541159
 10
55.583971771
 20
26.9335894643
 10
55.5629644903
 20
26.8948426913
 10
55.5511083309
 20
26.8546872298
 10
55.5498333208
 20
26.8179664208
 10
55.5592932449
 20
26.7891093361
 10
55.5753403114
 20
26.7731752465
  0
LWPOLYLINE
  5
1EB
330
1F
100
AcDbEntity
  8
0
  6
Continuous
 62
     7
370
    25
100
AcDbPolyline
 90
       17
 70
   128
 43
0.0
 10
55.6798819734
 20
26.8955123837
 10
55.6849991957
 20
26.8904535332
 10
55.6870714328
 20
26.8819854554
 10
55.6857832053
 20
26.8713973382
 10
55.6813306343
 20
26.8603011267
 10
55.6743915832
 20
26.8503861183
 10
55.6660224598
 20
26.8431617832
 10
55.6574973871
 20
26.8397279611
 10
55.6501142302
 20
26.8406074201
 10
55.6449970079
 20
26.8456662706
 10
55.6429247708
 20
26.8541343484
 10
55.6442129983
 20
26.8647224656
 10
55.6486655694
 20
26.8758186772
 10
55.6556046204
 20
26.8857336855
 10
55.6639737439
 20
26.8929580206
 10
55.6724988166
 20
26.8963918427
 10
55.6798819734
 20
26.8955123837
  0
ARC
  5
1EC
330
1F
100
AcDbEntity
  8
0
  6
Continuous
 62
     7
370
    25
100
AcDbCircle
 10
54.9465776121
 20
39.5485817366
 30
0.0
 40
0.4288291123073897
100
AcDbArc
 50
242.6096722366
 51
297.3903277634
  0
LINE
  5
1ED
330
1F
100
AcDbEntity
  8
0
  6
Continuous
 62
     7
370
    25
100
AcDbLine
 10
55.1438604041
 20
39.1678273439
 30
0.0
 11
55.1438604041
 21
26.4052944541
 31
0.0
  0
ARC
  5
1EE
330
1F
100
AcDbEntity
  8
0
  6
Continuous
 62
     7
370
    25
100
AcDbCircle
 10
54.9465776121
 20
26.7860488468
 30
0.0
 40
0.428829112307393
100
AcDbArc
 50
242.6096722366
 51
297.3903277634
  0
LINE
  5
1EF
330
1F
100
AcDbEntity
  8
0
  6
Continuous
 62
     7
370
    25
100
AcDbLine
 10
54.7492948202
 20
39.1678273439
 30
0.0
 11
54.7492948202
 21
39.1270003033
 31
0.0
  0
LINE
  5
1F0
330
1F
100
AcDbEntity
  8
0
  6
Continuous
 62
     7
370
    25
100
AcDbLine
 10
54.7619069785
 20
39.1751081879
 30
0.0
 11
54.7492948202
 21
39.1678273439
 31
0.0
  0
LINE
  5
1F1
330
1F
100
AcDbEntity
  8
0
  6
Continuous
 62
     7
370
    25
100
AcDbLine
 10
54.7698009168
 20
39.1796652615
 30
0.0
 11
54.7619069785
 21
39.1751081879
 31
0.0
  0
ARC
  5
1F2
330
1F
100
AcDbEntity
  8
0
  6
Continuous
 62
     7
370
    25
100
AcDbCircle
 10
54.9465776121
 20
39.5208430327
 30
0.0
 40
0.3842554769780246
100
AcDbArc
 50
242.6096722366
 51
297.3903277634
  0
LINE
  5
1F3
330
1F
100
AcDbEntity
  8
0
  6
Continuous
 62
     7
370
    25
100
AcDbLine
 10
55.17764569
 20
39.3079185007
 30
0.0
 11
55.183797519
 21
39.3043671254
 31
0.0
  0
LINE
  5
1F4
330
1F
100
AcDbEntity
  8
0
  6
Continuous
 62
     7
370
    25
100
AcDbLine
 10
55.171493861
 20
39.3043671254
 30
0.0
 11
55.17764569
 21
39.3079185007
 31
0.0
  0
LINE
  5
1F5
330
1F
100
AcDbEntity
  8
0
  6
Continuous
 62
     7
370
    25
100
AcDbLine
 10
55.1960304663
 20
39.2902024447
 30
0.0
 11
55.171493861
 21
39.3043671254
 31
0.0
  0
ARC
  5
1F6
330
1F
100
AcDbEntity
  8
0
  6
Continuous
 62
     7
370
    25
100
AcDbCircle
 10
55.1921572906
 20
39.2799973433
 30
0.0
 40
0.0109153829208474
100
AcDbArc
 50
290.7834207994
 51
69.2165792006
  0
LINE
  5
1F7
330
1F
100
AcDbEntity
  8
0
  6
Continuous
 62
     7
370
    25
100
AcDbLine
 10
55.1960304663
 20
39.2697922419
 30
0.0
 11
55.102141104
 21
39.2155910667
 31
0.0
  0
ARC
  5
1F8
330
1F
100
AcDbEntity
  8
0
  6
Continuous
 62
     7
370
    25
100
AcDbCircle
 10
54.9677908156
 20
39.4748861729
 30
0.0
 40
0.2920341625032438
100
AcDbArc
 50
242.6096722366
 51
297.3903277634
  0
LINE
  5
1F9
330
1F
100
AcDbEntity
  8
0
  6
Continuous
 62
     7
370
    25
100
AcDbLine
 10
54.8334405272
 20
39.2155910667
 30
0.0
 11
54.8122273237
 21
39.2278371884
 31
0.0
  0
LINE
  5
1FA
330
1F
100
AcDbEntity
  8
0
  6
Continuous
 62
     7
370
    25
100
AcDbLine
 10
54.8122273237
 20
39.2278371884
 30
0.0
 11
54.8051562559
 21
39.2237551478
 31
0.0
  0
LINE
  5
1FB
330
1F
100
AcDbEntity
  8
0
  6
Continuous
 62
     7
370
    25
100
AcDbLine
 10
51.6005483236
 20
41.0819000103
 30
0.0
 11
51.5934772558
 21
41.0778179698
 31
0.0
  0
LINE
  5
1FC
330
1F
100
AcDbEntity
  8
0
  6
Continuous
 62
     7
370
    25
100
AcDbLine
 10
51.5793351201
 20
41.094146132
 30
0.0
 11
51.6005483236
 21
41.0819000103
 31
0.0
  0
ARC
  5
1FD
330
1F
100
AcDbEntity
  8
0
  6
Continuous
 62
     7
370
    25
100
AcDbCircle
 10
51.6087712552
 20
41.1717049026
 30
0.0
 40
0.0829569101985146
100
AcDbArc
 50
110.7834207995
 51
249.2165792005
  0
LINE
  5
1FE
330
1F
100
AcDbEntity
  8
0
  6
Continuous
 62
     7
370
    25
100
AcDbLine
 10
51.6732244824
 20
41.3034648484
 30
0.0
 11
51.5793351201
 21
41.2492636733
 31
0.0
  0
ARC
  5
1FF
330
1F
100
AcDbEntity
  8
0
  6
Continuous
 62
     7
370
    25
100
AcDbCircle
 10
51.690902152
 20
41.2693470713
 30
0.0
 40
0.0384255476978742
100
AcDbArc
 50
62.6096722366
 51
117.3903277633
  0
LINE
  5
200
330
1F
100
AcDbEntity
  8
0
  6
Continuous
 62
     7
370
    25
100
AcDbLine
 10
51.7085798215
 20
41.3034648484
 30
0.0
 11
51.7331164268
 21
41.2893001677
 31
0.0
  0
LINE
  5
201
330
1F
100
AcDbEntity
  8
0
  6
Continuous
 62
     7
370
    25
100
AcDbLine
 10
51.7331164268
 20
41.2893001677
 30
0.0
 11
51.7392682558
 21
41.292851543
 31
0.0
  0
LINE
  5
202
330
1F
100
AcDbEntity
  8
0
  6
Continuous
 62
     7
370
    25
100
AcDbLine
 10
51.7392682558
 20
41.292851543
 30
0.0
 11
51.7331164268
 21
41.2964029183
 31
0.0
  0
LINE
  5
203
330
1F
100
AcDbEntity
  8
0
  6
Continuous
 62
     7
370
    25
100
AcDbLine
 10
53.1401319182
 20
41.1238225669
 30
0.0
 11
52.2871490081
 21
41.6162391195
 31
0.0
  0
ARC
  5
204
330
1F
100
AcDbEntity
  8
0
  6
Continuous
 62
     7
370
    25
100
AcDbCircle
 10
53.1362587426
 20
41.1136174655
 30
0.0
 40
0.010915382920855
100
AcDbArc
 50
290.7834207995
 51
69.2165792005
  0
LINE
  5
205
330
1F
100
AcDbEntity
  8
0
  6
Continuous
 62
     7
370
    25
100
AcDbLine
 10
53.1401319182
 20
41.1034123641
 30
0.0
 11
53.1028673909
 21
41.0819000103
 31
0.0
  0
LINE
  5
206
330
1F
100
AcDbEntity
  8
0
  6
Continuous
 62
     7
370
    25
100
AcDbLine
 10
53.1028673909
 20
41.0819000103
 30
0.0
 11
53.1090192199
 21
41.0783486351
 31
0.0
  0
LINE
  5
207
330
1F
100
AcDbEntity
  8
0
  6
Continuous
 62
     7
370
    25
100
AcDbLine
 10
53.1090192199
 20
41.0783486351
 30
0.0
 11
53.1151710489
 21
41.0819000103
 31
0.0
  0
LINE
  5
208
330
1F
100
AcDbEntity
  8
0
  6
Continuous
 62
     7
370
    25
100
AcDbLine
 10
54.8060754947
 20
40.0986589009
 30
0.0
 11
54.8122273237
 21
40.1022102762
 31
0.0
  0
LINE
  5
209
330
1F
100
AcDbEntity
  8
0
  6
Continuous
 62
     7
370
    25
100
AcDbLine
 10
54.8122273237
 20
40.0951075256
 30
0.0
 11
54.8060754947
 21
40.0986589009
 31
0.0
  0
LINE
  5
20A
330
1F
100
AcDbEntity
  8
0
  6
Continuous
 62
     7
370
    25
100
AcDbLine
 10
54.8494918511
 20
40.1166198793
 30
0.0
 11
54.8122273237
 21
40.0951075256
 31
0.0
  0
ARC
  5
20B
330
1F
100
AcDbEntity
  8
0
  6
Continuous
 62
     7
370
    25
100
AcDbCircle
 10
54.8671695206
 20
40.0825021022
 30
0.0
 40
0.0384255476977824
100
AcDbArc
 50
62.6096722366
 51
117.3903277634
  0
LINE
  5
20C
330
1F
100
AcDbEntity
  8
0
  6
Continuous
 62
     7
370
    25
100
AcDbLine
 10
54.8848471901
 20
40.1166198793
 30
0.0
 11
55.7378301003
 21
39.6242033267
 31
0.0
  0
ARC
  5
20D
330
1F
100
AcDbEntity
  8
0
  6
Continuous
 62
     7
370
    25
100
AcDbCircle
 10
54.9677908156
 20
39.4512064893
 30
0.0
 40
0.2920341625032596
100
AcDbArc
 50
242.6096722366
 51
297.3903277634
  0
ARC
  5
20E
330
1F
100
AcDbEntity
  8
0
  6
Continuous
 62
     7
370
    25
100
AcDbCircle
 10
51.6476884519
 20
40.9779132069
 30
0.0
 40
0.1101176928183892
100
AcDbArc
 50
152.2585798708
 51
178.3608297511
  0
ARC
  5
20F
330
1F
100
AcDbEntity
  8
0
  6
Continuous
 62
     7
370
    25
100
AcDbCircle
 10
51.6560470668
 20
40.9786419375
 30
0.0
 40
0.1172640893042493
100
AcDbArc
 50
122.2476837753
 51
154.4753228804
  0
ARC
  5
210
330
1F
100
AcDbEntity
  8
0
  6
Continuous
 62
     7
370
    25
100
AcDbCircle
 10
54.8677260669
 20
39.1245791155
 30
0.0
 40
0.1172640893043952
100
AcDbArc
 50
122.2476837753
 51
154.4753228804
  0
LINE
  5
211
330
1F
100
AcDbEntity
  8
0
  6
Continuous
 62
     7
370
    25
100
AcDbLine
 10
54.7492948202
 20
39.1270003033
 30
0.0
 11
51.53761582
 21
40.9810631252
 31
0.0
  0
LINE
  5
212
330
1F
100
AcDbEntity
  8
0
  6
Continuous
 62
     7
370
    25
100
AcDbLine
 10
54.8051562559
 20
39.2000754643
 30
0.0
 11
54.8051562559
 21
39.2237551478
 31
0.0
  0
ARC
  5
213
330
1F
100
AcDbEntity
  8
0
  6
Continuous
 62
     7
370
    25
100
AcDbCircle
 10
54.8432790715
 20
39.1389404959
 30
0.0
 40
0.0720474387210989
100
AcDbArc
 50
121.9470233286
 51
150.9343164867
  0
LINE
  5
214
330
1F
100
AcDbEntity
  8
0
  6
Continuous
 62
     7
370
    25
100
AcDbLine
 10
55.1438604041
 20
39.1678273439
 30
0.0
 11
55.8509671853
 21
39.5760313998
 31
0.0
  0
LINE
  5
215
330
1F
100
AcDbEntity
  8
0
  6
Continuous
 62
     7
370
    25
100
AcDbLine
 10
55.1233543074
 20
39.1796652615
 30
0.0
 11
55.8304610886
 21
39.5878693174
 31
0.0
  0
ARC
  5
216
330
1F
100
AcDbEntity
  8
0
  6
Continuous
 62
     7
370
    25
100
AcDbCircle
 10
55.2802577981
 20
26.3755790817
 30
0.0
 40
0.022775786614876
100
AcDbArc
 50
229.1418198624
 51
308.1263876335
  0
LINE
  5
217
330
1F
100
AcDbEntity
  8
0
  6
Continuous
 62
     7
370
    25
100
AcDbLine
 10
55.2653581303
 20
26.3583530446
 30
0.0
 11
55.2154777665
 21
26.4118190531
 31
0.0
  0
ARC
  5
218
330
1F
100
AcDbEntity
  8
0
  6
Continuous
 62
     7
370
    25
100
AcDbCircle
 10
55.1856784308
 20
26.3773669789
 30
0.0
 40
0.045551573229752
100
AcDbArc
 50
49.1418198624
 51
128.1263876335
  0
LINE
  5
219
330
1F
100
AcDbEntity
  8
0
  6
Continuous
 62
     7
370
    25
100
AcDbLine
 10
55.1575549699
 20
26.4132001587
 30
0.0
 11
55.1438604041
 21
26.4052944541
 31
0.0
  0
ARC
  5
21A
330
1F
100
AcDbEntity
  8
0
  6
Continuous
 62
     7
370
    25
100
AcDbCircle
 10
55.8923720473
 20
39.5252699659
 30
0.0
 40
0.065506379614277
100
AcDbArc
 50
350.7859630095
 51
129.2032852357
  0
LINE
  5
21B
330
1F
100
AcDbEntity
  8
0
  6
Continuous
 62
     7
370
    25
100
AcDbLine
 10
55.9570332025
 20
39.5147808864
 30
0.0
 11
55.9570332025
 21
32.0550536929
 31
0.0
  0
LWPOLYLINE
  5
21C
330
1F
100
AcDbEntity
  8
0
  6
Continuous
 62
     7
370
    25
100
AcDbPolyline
 90
        9
 70
   128
 43
0.0
 10
55.9570332025
 20
32.0550536929
 10
55.9610693346
 20
31.950634371
 10
55.9731470138
 20
31.8516697622
 10
55.9931743214
 20
31.7589130469
 10
56.0209988377
 20
31.6730701598
 10
56.0564088012
 20
31.5947944171
 10
56.0991347207
 20
31.5246815443
 10
56.1488514262
 20
31.4632651429
 10
56.2051805436
 20
31.4110126287
  0
LINE
  5
21D
330
1F
100
AcDbEntity
  8
0
  6
Continuous
 62
     7
370
    25
100
AcDbLine
 10
56.2051805436
 20
31.4110126287
 30
0.0
 11
57.6714450195
 21
30.2396060952
 31
0.0
  0
ARC
  5
21E
330
1F
100
AcDbEntity
  8
0
  6
Continuous
 62
     7
370
    25
100
AcDbCircle
 10
57.3036158073
 20
29.8513319307
 30
0.0
 40
0.5348412438551923
100
AcDbArc
 50
355.5941932492
 51
46.5488941687
  0
LINE
  5
21F
330
1F
100
AcDbEntity
  8
0
  6
Continuous
 62
     7
370
    25
100
AcDbLine
 10
57.8368765802
 20
29.8102453857
 30
0.0
 11
57.8368765802
 21
27.9564516563
 31
0.0
  0
ARC
  5
220
330
1F
100
AcDbEntity
  8
0
  6
Continuous
 62
     7
370
    25
100
AcDbCircle
 10
57.4286556381
 20
28.0825260437
 30
0.0
 40
0.4272459347855346
100
AcDbArc
 50
302.8002578502
 51
342.8372925
  0
LINE
  5
221
330
1F
100
AcDbEntity
  8
0
  6
Continuous
 62
     7
370
    25
100
AcDbLine
 10
57.6600998849
 20
27.723398421
 30
0.0
 11
55.2943195286
 21
26.3576624918
 31
0.0
  0
LWPOLYLINE
  5
222
330
1F
100
AcDbEntity
  8
0
  6
Continuous
 62
     7
370
    25
100
AcDbPolyline
 90
       20
 70
   128
 43
0.0
 10
57.4365723074
 20
28.2545669046
 10
57.4094968487
 20
28.39536396
 10
57.3722293017
 20
28.527456653
 10
57.3249841819
 20
28.6500846463
 10
57.2680334364
 20
28.762542082
 10
57.2017048788
 20
28.864181645
 10
57.1263803023
 20
28.9544182889
 10
57.0424932819
 20
29.0327326033
 10
56.9505266789
 20
29.0986738041
 10
56.8510098613
 20
29.1518623278
 10
56.7445156569
 20
29.1919920164
 10
56.6316570558
 20
29.2188318798
 10
56.5130836825
 20
29.2322274253
 10
56.3894780559
 20
29.232101547
 10
56.2615516611
 20
29.2184549695
 10
56.130040854
 20
29.1913662437
 10
55.9957026226
 20
29.1509912947
 10
55.8593102299
 20
29.0975625243
 10
55.7216487628
 20
29.0313874734
 10
55.5965898729
 20
28.960802364
  0
LWPOLYLINE
  5
223
330
1F
100
AcDbEntity
  8
0
  6
Continuous
 62
     7
370
    25
100
AcDbPolyline
 90
        9
 70
   128
 43
0.0
 10
57.4365723074
 20
28.2545669046
 10
57.4406452062
 20
28.2388550053
 10
57.447610401
 20
28.2260323835
 10
57.4572151425
 20
28.2165643394
 10
57.4691108993
 20
28.210794444
 10
57.4828660048
 20
28.2089320723
 10
57.4979813214
 20
28.2110448048
 10
57.5139083528
 20
28.2170559759
 10
57.5300691478
 20
28.2267474556
  0
LINE
  5
224
330
1F
100
AcDbEntity
  8
0
  6
Continuous
 62
     7
370
    25
100
AcDbLine
 10
57.5371006288
 20
28.2317428107
 30
0.0
 11
57.5300691478
 21
28.2267474556
 31
0.0
  0
ARC
  5
225
330
1F
100
AcDbEntity
  8
0
  6
Continuous
 62
     7
370
    25
100
AcDbCircle
 10
57.431546247
 20
28.3774111239
 30
0.0
 40
0.1798915923108967
100
AcDbArc
 50
305.9278919959
 51
3.1728162311
  0
LWPOLYLINE
  5
226
330
1F
100
AcDbEntity
  8
0
  6
Continuous
 62
     7
370
    25
100
AcDbPolyline
 90
       22
 70
   128
 43
0.0
 10
55.515905135
 20
29.1145531882
 10
55.5713782982
 20
29.1496335982
 10
55.7157119632
 20
29.2325624066
 10
55.8596442756
 20
29.3032256499
 10
56.0024238044
 20
29.3612544148
 10
56.1433051369
 20
29.4063457491
 10
56.2815527705
 20
29.4382642435
 10
56.4164449523
 20
29.4568432601
 10
56.5472774476
 20
29.4619858031
 10
56.6733672157
 20
29.4536650247
 10
56.7940559768
 20
29.4319243654
 10
56.908713648
 20
29.3968773271
 10
57.0167416333
 20
29.3487068809
 10
57.1175759482
 20
29.2876645113
 10
57.2106901646
 20
29.2140689037
 10
57.2955981588
 20
29.1283042806
 10
57.3718566495
 20
29.0308183954
 10
57.4390675121
 20
28.9221201951
 10
57.4968798573
 20
28.8027771631
 10
57.5449918627
 20
28.6734123564
 10
57.5831523487
 20
28.5347011532
 10
57.61116209
 20
28.3873677264
  0
LINE
  5
227
330
1F
100
AcDbEntity
  8
0
  6
Continuous
 62
     7
370
    25
100
AcDbLine
 10
54.8122273237
 20
39.2041575049
 30
0.0
 11
54.8122273237
 21
39.2278371884
 31
0.0
  0
LINE
  5
228
330
1F
100
AcDbEntity
  8
0
  6
Continuous
 62
     7
370
    25
100
AcDbLine
 10
54.8334405272
 20
39.1919113832
 30
0.0
 11
54.8122273237
 21
39.2041575049
 31
0.0
  0
LINE
  5
229
330
1F
100
AcDbEntity
  8
0
  6
Continuous
 62
     7
370
    25
100
AcDbLine
 10
55.1960304663
 20
39.2461125583
 30
0.0
 11
55.102141104
 21
39.1919113832
 31
0.0
  0
LINE
  5
22A
330
1F
100
AcDbEntity
  8
0
  6
Continuous
 62
     7
370
    25
100
AcDbLine
 10
52.6100353891
 20
27.7301117541
 30
0.0
 11
52.8598014084
 21
27.871640114
 31
0.0
  0
ARC
  5
22B
330
1F
100
AcDbEntity
  8
0
  6
Continuous
 62
     7
370
    25
100
AcDbCircle
 10
52.5324053929
 20
27.905416385
 30
0.0
 40
0.1917240983934242
100
AcDbArc
 50
234.4493781096
 51
293.8851577811
  0
LINE
  5
22C
330
1F
100
AcDbEntity
  8
0
  6
Continuous
 62
     7
370
    25
100
AcDbLine
 10
51.53761582
 20
28.2593572761
 30
0.0
 11
52.4209327812
 21
27.7494292485
 31
0.0
  0
LINE
  5
22D
330
1F
100
AcDbEntity
  8
0
  6
Continuous
 62
     7
370
    25
100
AcDbLine
 10
54.7492948202
 20
26.4052944541
 30
0.0
 11
53.865977859
 21
26.9152224817
 31
0.0
  0
ARC
  5
22E
330
1F
100
AcDbEntity
  8
0
  6
Continuous
 62
     7
370
    25
100
AcDbCircle
 10
54.1555607519
 20
27.3797305331
 30
0.0
 40
0.5473810205898283
100
AcDbArc
 50
209.013971826
 51
238.0598249775
  0
LINE
  5
22F
330
1F
100
AcDbEntity
  8
0
  6
Continuous
 62
     7
370
    25
100
AcDbLine
 10
53.6768752512
 20
27.114238211
 30
0.0
 11
53.4271092318
 21
27.5441402786
 31
0.0
  0
LWPOLYLINE
  5
230
330
1F
100
AcDbEntity
  8
0
  6
Continuous
 62
     7
370
    25
100
AcDbPolyline
 90
       11
 70
   128
 43
0.0
 10
53.4271092318
 20
27.5441402786
 10
53.3791318135
 20
27.6187504262
 10
53.3254205401
 20
27.6874846762
 10
53.2672821719
 20
27.7486707692
 10
53.2061311773
 20
27.8008200876
 10
53.1434553201
 20
27.8426638725
 10
53.0807794629
 20
27.873184092
 10
53.0196284683
 20
27.8916382092
 10
52.9614901001
 20
27.8975772473
 10
52.9077788267
 20
27.8908567135
 10
52.8598014084
 20
27.871640114
  0
LWPOLYLINE
  5
231
330
1F
100
AcDbEntity
  8
0
  6
Continuous
 62
     7
370
    25
100
AcDbPolyline
 90
        9
 70
   128
 43
0.0
 10
53.2118219979
 20
28.9864000397
 10
53.2023548989
 20
28.9675337882
 10
53.186602108
 20
28.9571178724
 10
53.166244744
 20
28.9562638661
 10
53.1434553201
 20
28.9650629079
 10
53.1206658963
 20
28.9825759748
 10
53.1003085322
 20
29.0069340933
 10
53.0845557413
 20
29.0355377944
 10
53.0750886424
 20
29.0653345256
  0
LWPOLYLINE
  5
232
330
1F
100
AcDbEntity
  8
0
  6
Continuous
 62
     7
370
    25
100
AcDbPolyline
 90
       10
 70
   128
 43
0.0
 10
53.2118219979
 20
30.9149978899
 10
53.2545064201
 20
30.679379427
 10
53.2866432747
 20
30.4473705082
 10
53.3081267885
 20
30.2197347537
 10
53.3188862519
 20
29.9972213897
 10
53.3188862519
 20
29.7805627833
 10
53.3081267885
 20
29.5704720314
 10
53.2866432747
 20
29.3676406139
 10
53.2545064201
 20
29.1727361177
 10
53.2118219979
 20
28.9864000397
  0
LWPOLYLINE
  5
233
330
1F
100
AcDbEntity
  8
0
  6
Continuous
 62
     7
370
    25
100
AcDbPolyline
 90
        9
 70
   128
 43
0.0
 10
53.0750886424
 20
30.9939323759
 10
53.0845557413
 20
31.0127986273
 10
53.1003085322
 20
31.0232145432
 10
53.1206658963
 20
31.0240685494
 10
53.1434553201
 20
31.0152695076
 10
53.166244744
 20
30.9977564407
 10
53.186602108
 20
30.9733983223
 10
53.2023548989
 20
30.9447946212
 10
53.2118219979
 20
30.9149978899
  0
LWPOLYLINE
  5
234
330
1F
100
AcDbEntity
  8
0
  6
Continuous
 62
     7
370
    25
100
AcDbPolyline
 90
       10
 70
   128
 43
0.0
 10
53.0750886424
 20
30.9939323759
 10
53.0324042202
 20
30.8075962978
 10
53.0002673655
 20
30.6126918016
 10
52.9787838517
 20
30.4098603841
 10
52.9680243883
 20
30.1997696322
 10
52.9680243883
 20
29.9831110258
 10
52.9787838517
 20
29.7605976619
 10
53.0002673655
 20
29.5329619073
 10
53.0324042202
 20
29.3009529885
 10
53.0750886424
 20
29.0653345256
  0
LINE
  5
235
330
1F
100
AcDbEntity
  8
0
  6
Continuous
 62
     7
370
    25
100
AcDbLine
 10
54.8122273237
 20
39.2041575049
 30
0.0
 11
54.8051562559
 21
39.2000754643
 31
0.0
  0
ARC
  5
236
330
1F
100
AcDbEntity
  8
0
  6
Continuous
 62
     7
370
    25
100
AcDbCircle
 10
55.1908413702
 20
39.2575653191
 30
0.0
 40
0.0125734819623277
100
AcDbArc
 50
294.3746582935
 51
354.3052007488
  0
ARC
  5
237
330
1F
100
AcDbEntity
  8
0
  6
Continuous
 62
     7
370
    25
100
AcDbCircle
 10
55.1370648417
 20
39.2128596022
 30
0.0
 40
0.0828654894015267
100
AcDbArc
 50
14.6777830278
 51
36.8750098415
  0
ARC
  5
238
330
1F
100
AcDbEntity
  8
0
  6
Continuous
 62
     7
370
    25
100
AcDbCircle
 10
55.1181283798
 20
39.2019946898
 30
0.0
 40
0.1216246332517575
100
AcDbArc
 50
19.5994418399
 51
57.3209298214
  0
ARC
  5
239
330
1F
100
AcDbEntity
  8
0
  6
Continuous
 62
     7
370
    25
100
AcDbCircle
 10
55.6721609611
 20
39.5218308911
 30
0.0
 40
0.1216246332521481
100
AcDbArc
 50
19.59944184
 51
57.3209298214
  0
LINE
  5
23A
330
1F
100
AcDbEntity
  8
0
  6
Continuous
 62
     7
370
    25
100
AcDbLine
 10
55.17764569
 20
39.3008157501
 30
0.0
 11
55.17764569
 21
39.3079185007
 31
0.0
  0
ARC
  5
23B
330
1F
100
AcDbEntity
  8
0
  6
Continuous
 62
     7
370
    25
100
AcDbCircle
 10
55.8743990969
 20
39.526537118
 30
0.0
 40
0.0754465853852926
100
AcDbArc
 50
65.6928809539
 51
125.6175774752
  0
ARC
  5
23C
330
1F
100
AcDbEntity
  8
0
  6
Continuous
 62
     7
370
    25
100
AcDbCircle
 10
54.8348175017
 20
40.0668646445
 30
0.0
 40
0.0419479418325366
100
AcDbArc
 50
88.4643529779
 51
122.5835492007
  0
ARC
  5
23D
330
1F
100
AcDbEntity
  8
0
  6
Continuous
 62
     7
370
    25
100
AcDbCircle
 10
53.1353825327
 20
41.0536871986
 30
0.0
 40
0.0347054292772616
100
AcDbArc
 50
65.6928809539
 51
125.6175774752
  0
LINE
  5
23E
330
1F
100
AcDbEntity
  8
0
  6
Continuous
 62
     7
370
    25
100
AcDbLine
 10
51.5502279783
 20
41.0291710098
 30
0.0
 11
51.53761582
 21
41.0218901658
 31
0.0
  0
LINE
  5
23F
330
1F
100
AcDbEntity
  8
0
  6
Continuous
 62
     7
370
    25
100
AcDbLine
 10
51.53761582
 20
41.0218901658
 30
0.0
 11
51.53761582
 21
40.9810631252
 31
0.0
  0
ARC
  5
240
330
1F
100
AcDbEntity
  8
0
  6
Continuous
 62
     7
370
    25
100
AcDbCircle
 10
51.5955261324
 20
28.3871700868
 30
0.0
 40
0.1403200586997735
100
AcDbArc
 50
185.6947992512
 51
245.6253417064
  0
ARC
  5
241
330
1F
100
AcDbEntity
  8
0
  6
Continuous
 62
     7
370
    25
100
AcDbCircle
 10
51.5808404605
 20
41.1357790974
 30
0.0
 40
0.1218156733967652
100
AcDbArc
 50
110.7834207995
 51
249.2165792005
  0
ARC
  5
242
330
1F
100
AcDbEntity
  8
0
  6
Continuous
 62
     7
370
    25
100
AcDbCircle
 10
51.5961778701
 20
41.1361771739
 30
0.0
 40
0.1085429651720167
100
AcDbArc
 50
110.5244633624
 51
247.1345557678
  0
LINE
  5
243
330
1F
100
AcDbEntity
  8
0
  6
Continuous
 62
     7
370
    25
100
AcDbLine
 10
51.5793351201
 20
41.0704664485
 30
0.0
 11
51.5813674942
 21
41.0692931839
 31
0.0
  0
ARC
  5
244
330
1F
100
AcDbEntity
  8
0
  6
Continuous
 62
     7
370
    25
100
AcDbCircle
 10
51.6187722504
 20
41.1575074307
 30
0.0
 40
0.0955584629138681
100
AcDbArc
 50
185.6947992512
 51
245.6253417064
  0
LWPOLYLINE
  5
245
330
1F
100
AcDbEntity
  8
0
  6
Continuous
 62
     7
370
    25
100
AcDbPolyline
 90
        3
 70
   128
 43
0.0
 10
53.1474542487
 20
41.0899377819
 10
53.1469738807
 20
41.0871222008
 10
53.146820437
 20
41.0867086393
  0
LINE
  5
246
330
1F
100
AcDbEntity
  8
0
  6
Continuous
 62
     7
370
    25
100
AcDbLine
 10
51.5581219167
 20
41.2378301114
 30
0.0
 11
52.2652286979
 21
41.6460341673
 31
0.0
  0
ARC
  5
247
330
1F
100
AcDbEntity
  8
0
  6
Continuous
 62
     7
370
    25
100
AcDbCircle
 10
52.3066335599
 20
41.5952727335
 30
0.0
 40
0.0655063796142856
100
AcDbArc
 50
350.7859630096
 51
129.2032852357
  0
LINE
  5
248
330
1F
100
AcDbEntity
  8
0
  6
Continuous
 62
     7
370
    25
100
AcDbLine
 10
52.3712947151
 20
41.5847836539
 30
0.0
 11
52.3712947151
 21
41.5676628369
 31
0.0
  0
LINE
  5
249
330
1F
100
AcDbEntity
  8
0
  6
Continuous
 62
     7
370
    25
100
AcDbLine
 10
51.53761582
 20
41.249668029
 30
0.0
 11
52.2447226012
 21
41.6578720849
 31
0.0
  0
ARC
  5
24A
330
1F
100
AcDbEntity
  8
0
  6
Continuous
 62
     7
370
    25
100
AcDbCircle
 10
51.7069099598
 20
41.2550958609
 30
0.0
 40
0.0489188297067114
100
AcDbArc
 50
57.6077023105
 51
89.2128925609
  0
ARC
  5
24B
330
1F
100
AcDbEntity
  8
0
  6
Continuous
 62
     7
370
    25
100
AcDbCircle
 10
52.2640083238
 20
41.5839374945
 30
0.0
 40
0.0397352016362573
100
AcDbArc
 50
54.3824225248
 51
114.3071190461
  0
ARC
  5
24C
330
1F
100
AcDbEntity
  8
0
  6
Continuous
 62
     7
370
    25
100
AcDbCircle
 10
52.2886606095
 20
41.5965398856
 30
0.0
 40
0.0754465853852224
100
AcDbArc
 50
65.6928809539
 51
125.6175774752
  0
LINE
  5
24D
330
1F
100
AcDbEntity
  8
0
  6
Continuous
 62
     7
370
    25
100
AcDbLine
 10
57.61116209
 20
28.3873677264
 30
0.0
 11
57.5906559934
 21
28.399205644
 31
0.0
  0
LWPOLYLINE
  5
24E
330
1F
100
AcDbEntity
  8
0
  6
Continuous
 62
     7
370
    25
100
AcDbPolyline
 90
       10
 70
   128
 43
0.0
 10
57.5906559934
 20
28.399205644
 10
57.562646252
 20
28.5465390708
 10
57.524485766
 20
28.6852502741
 10
57.4763737606
 20
28.8146150807
 10
57.4185614155
 20
28.9339581127
 10
57.3513505528
 20
29.042656313
 10
57.2750920621
 20
29.1401421982
 10
57.190184068
 20
29.2259068213
 10
57.0970698516
 20
29.2995024289
 10
57.0409301087
 20
29.3356060011
  0
LWPOLYLINE
  5
24F
330
1F
100
AcDbEntity
  8
0
  6
Continuous
 62
     7
370
    25
100
AcDbPolyline
 90
       12
 70
   128
 43
0.0
 10
55.6024393987
 20
28.9883409932
 10
55.7011426661
 20
29.043225391
 10
55.8388041332
 20
29.1094004419
 10
55.9751965259
 20
29.1628292123
 10
56.1095347573
 20
29.2032041613
 10
56.2410455644
 20
29.2302928871
 10
56.3689719592
 20
29.2439394647
 10
56.4925775859
 20
29.2440653429
 10
56.6111509592
 20
29.2306697974
 10
56.7240095602
 20
29.203829934
 10
56.8305037646
 20
29.1637002454
 10
56.9057244225
 20
29.1250771902
  0
LINE
  5
250
330
1F
100
AcDbEntity
  8
0
  6
Continuous
 62
     7
370
    25
100
AcDbLine
 10
53.095594739
 20
31.0057702935
 30
0.0
 11
53.0750886424
 21
30.9939323759
 31
0.0
  0
LINE
  5
251
330
1F
100
AcDbEntity
  8
0
  6
Continuous
 62
     7
370
    25
100
AcDbLine
 10
53.1047747108
 20
31.0242991508
 30
0.0
 11
53.095594739
 21
31.0057702935
 31
0.0
  0
LINE
  5
252
330
1F
100
AcDbEntity
  8
0
  6
Continuous
 62
     7
370
    25
100
AcDbLine
 10
53.0750886424
 20
29.0653345256
 30
0.0
 11
53.095594739
 21
29.0771724432
 31
0.0
  0
LWPOLYLINE
  5
253
330
1F
100
AcDbEntity
  8
0
  6
Continuous
 62
     7
370
    25
100
AcDbPolyline
 90
       10
 70
   128
 43
0.0
 10
53.095594739
 20
31.0057702935
 10
53.0529103168
 20
30.8194342154
 10
53.0207734622
 20
30.6245297193
 10
52.9992899484
 20
30.4216983017
 10
52.988530485
 20
30.2116075498
 10
52.988530485
 20
29.9949489434
 10
52.9992899484
 20
29.7724355795
 10
53.0207734622
 20
29.5447998249
 10
53.0529103168
 20
29.3127909062
 10
53.095594739
 20
29.0771724432
  0
ARC
  5
254
330
1F
100
AcDbEntity
  8
0
  6
Continuous
 62
     7
370
    25
100
AcDbCircle
 10
53.2161167343
 20
29.0881385471
 30
0.0
 40
0.1210198610931411
100
AcDbArc
 50
185.1989358518
 51
263.6072634982
  0
LINE
  5
255
330
1F
100
AcDbEntity
  8
0
  6
Continuous
 62
     7
370
    25
100
AcDbLine
 10
55.2653581303
 20
26.3583530446
 30
0.0
 11
55.2448520336
 21
26.3701909622
 31
0.0
  0
LINE
  5
256
330
1F
100
AcDbEntity
  8
0
  6
Continuous
 62
     7
370
    25
100
AcDbLine
 10
55.2448520336
 20
26.3701909622
 30
0.0
 11
55.1963166177
 21
26.4222153414
 31
0.0
  0
LWPOLYLINE
  5
257
330
1F
100
AcDbEntity
  8
0
  6
Continuous
 62
     7
370
    25
100
AcDbPolyline
 90
        3
 70
   128
 43
0.0
 10
55.2448520336
 20
26.3701909622
 10
55.2474877449
 20
26.3678775894
 10
55.2488154636
 20
26.3670250069
  0
LINE
  5
258
330
1F
100
AcDbEntity
  8
0
  6
Continuous
 62
     7
370
    25
100
AcDbLine
 10
57.5300691478
 20
28.2267474556
 30
0.0
 11
57.5095630512
 21
28.2385853732
 31
0.0
  0
ARC
  5
259
330
1F
100
AcDbEntity
  8
0
  6
Continuous
 62
     7
370
    25
100
AcDbCircle
 10
57.4617083438
 20
28.2958577599
 30
0.0
 40
0.0746337677987583
100
AcDbArc
 50
261.7387864668
 51
309.8808940404
  0
LINE
  5
25A
330
1F
100
AcDbEntity
  8
0
  6
Continuous
 62
     7
370
    25
100
AcDbLine
 10
57.5165945322
 20
28.2435807283
 30
0.0
 11
57.5371006288
 21
28.2317428107
 31
0.0
  0
ARC
  5
25B
330
1F
100
AcDbEntity
  8
0
  6
Continuous
 62
     7
370
    25
100
AcDbCircle
 10
57.4110401504
 20
28.3892490415
 30
0.0
 40
0.1798915923109518
100
AcDbArc
 50
305.927891996
 51
3.1728162311
  0
LINE
  5
25C
330
1F
100
AcDbEntity
  8
0
  6
Continuous
 62
     7
370
    25
100
AcDbLine
 10
57.5095630512
 20
28.2385853732
 30
0.0
 11
57.5165945322
 21
28.2435807283
 31
0.0
  0
LINE
  5
25D
330
1F
100
AcDbEntity
  8
0
  6
Continuous
 62
     7
370
    25
100
AcDbLine
 10
57.5735885664
 20
40.6233635441
 30
0.0
 11
57.5661639452
 21
40.6190774015
 31
0.0
  0
LINE
  5
25E
330
1F
100
AcDbEntity
  8
0
  6
Continuous
 62
     7
370
    25
100
AcDbLine
 10
57.5661639452
 20
40.6190774015
 30
0.0
 11
57.5735885664
 21
40.614791259
 31
0.0
  0
LINE
  5
25F
330
1F
100
AcDbEntity
  8
0
  6
Continuous
 62
     7
370
    25
100
AcDbLine
 10
54.1939717057
 20
42.5658025442
 30
0.0
 11
54.1865470845
 21
42.5700886868
 31
0.0
  0
LINE
  5
260
330
1F
100
AcDbEntity
  8
0
  6
Continuous
 62
     7
370
    25
100
AcDbLine
 10
54.2013963269
 20
42.5700886868
 30
0.0
 11
54.1939717057
 21
42.5658025442
 31
0.0
  0
LINE
  5
261
330
1F
100
AcDbEntity
  8
0
  6
Continuous
 62
     7
370
    25
100
AcDbLine
 10
54.1904361718
 20
42.5764158496
 30
0.0
 11
54.2013963269
 21
42.5700886868
 31
0.0
  0
ARC
  5
262
330
1F
100
AcDbEntity
  8
0
  6
Continuous
 62
     7
370
    25
100
AcDbCircle
 10
54.1943093475
 20
42.586620951
 30
0.0
 40
0.0109153829208575
100
AcDbArc
 50
110.7834207995
 51
249.2165792005
  0
LINE
  5
263
330
1F
100
AcDbEntity
  8
0
  6
Continuous
 62
     7
370
    25
100
AcDbLine
 10
54.1904361718
 20
42.5968260524
 30
0.0
 11
54.3421105764
 21
42.6843858224
 31
0.0
  0
LINE
  5
264
330
1F
100
AcDbEntity
  8
0
  6
Continuous
 62
     7
370
    25
100
AcDbLine
 10
57.6199040606
 20
40.6170363813
 30
0.0
 11
57.7715784651
 21
40.7045961513
 31
0.0
  0
ARC
  5
265
330
1F
100
AcDbEntity
  8
0
  6
Continuous
 62
     7
370
    25
100
AcDbCircle
 10
57.602226391
 20
40.6511541584
 30
0.0
 40
0.0384255476977887
100
AcDbArc
 50
242.6096722366
 51
297.3903277634
  0
LINE
  5
266
330
1F
100
AcDbEntity
  8
0
  6
Continuous
 62
     7
370
    25
100
AcDbLine
 10
57.5845487215
 20
40.6170363813
 30
0.0
 11
57.5735885664
 21
40.6233635441
 31
0.0
  0
LINE
  5
267
330
1F
100
AcDbEntity
  8
0
  6
Continuous
 62
     7
370
    25
100
AcDbLine
 10
55.1910215744
 20
39.2432209866
 30
0.0
 11
55.2141715316
 21
39.2432209866
 31
0.0
  0
LINE
  5
268
330
1F
100
AcDbEntity
  8
0
  6
Continuous
 62
     7
370
    25
100
AcDbLine
 10
55.304610122
 20
26.3627812761
 30
0.0
 11
57.8316825415
 21
27.8216291315
 31
0.0
  0
ARC
  5
269
330
1F
100
AcDbEntity
  8
0
  6
Continuous
 62
     7
370
    25
100
AcDbCircle
 10
55.2726439081
 20
26.3891006013
 30
0.0
 40
0.0359952632651139
100
AcDbArc
 50
223.8537115337
 51
274.4093202196
  0
LWPOLYLINE
  5
26A
330
1F
100
AcDbEntity
  8
0
  6
Continuous
 62
     7
370
    25
100
AcDbPolyline
 90
        3
 70
   128
 43
0.0
 10
55.2946029477
 20
26.3578261062
 10
55.2961457954
 20
26.3584820444
 10
55.304610122
 20
26.3627812761
  0
LINE
  5
26B
330
1F
100
AcDbEntity
  8
0
  6
Continuous
 62
     7
370
    25
100
AcDbLine
 10
55.2466873255
 20
26.3641623817
 30
0.0
 11
55.2281753327
 21
26.3840051071
 31
0.0
  0
ARC
  5
26C
330
1F
100
AcDbEntity
  8
0
  6
Continuous
 62
     7
370
    25
100
AcDbCircle
 10
55.2599582184
 20
26.4129174072
 30
0.0
 40
0.0429659506749837
100
AcDbArc
 50
202.3121461006
 51
222.2922075051
  0
LINE
  5
26D
330
1F
100
AcDbEntity
  8
0
  6
Continuous
 62
     7
370
    25
100
AcDbLine
 10
57.8316825415
 20
40.6004928375
 30
0.0
 11
55.9569898899
 21
39.5182558058
 31
0.0
  0
ARC
  5
26E
330
1F
100
AcDbEntity
  8
0
  6
Continuous
 62
     7
370
    25
100
AcDbCircle
 10
57.5114803674
 20
40.5176958299
 30
0.0
 40
0.1152603605679257
100
AcDbArc
 50
2.6054784857
 51
57.39452166
  0
LINE
  5
26F
330
1F
100
AcDbEntity
  8
0
  6
Continuous
 62
     7
370
    25
100
AcDbLine
 10
57.626621575
 20
40.5106879452
 30
0.0
 11
57.626621575
 21
40.5229353939
 31
0.0
  0
LINE
  5
270
330
1F
100
AcDbEntity
  8
0
  6
Continuous
 62
     7
370
    25
100
AcDbLine
 10
57.8069338042
 20
40.6147799794
 30
0.0
 11
55.9533318155
 21
39.5447183283
 31
0.0
  0
ARC
  5
271
330
1F
100
AcDbEntity
  8
0
  6
Continuous
 62
     7
370
    25
100
AcDbCircle
 10
57.6032934714
 20
40.6194128933
 30
0.0
 40
0.035130484798175
100
AcDbArc
 50
273.2638024204
 51
298.217862852
  0
LINE
  5
272
330
1F
100
AcDbEntity
  8
0
  6
Continuous
 62
     7
370
    25
100
AcDbLine
 10
57.6199040606
 20
40.5884574528
 30
0.0
 11
57.7715784651
 21
40.6760172228
 31
0.0
  0
LINE
  5
273
330
1F
100
AcDbEntity
  8
0
  6
Continuous
 62
     7
370
    25
100
AcDbLine
 10
57.5735885664
 20
40.614791259
 30
0.0
 11
57.5735885664
 21
40.6233635441
 31
0.0
  0
ARC
  5
274
330
1F
100
AcDbEntity
  8
0
  6
Continuous
 62
     7
370
    25
100
AcDbCircle
 10
57.8140396148
 20
27.8605685183
 30
0.0
 40
0.0427498386719532
100
AcDbArc
 50
294.3746582936
 51
354.3052007488
  0
ARC
  5
275
330
1F
100
AcDbEntity
  8
0
  6
Continuous
 62
     7
370
    25
100
AcDbCircle
 10
57.8185137442
 20
40.6351901822
 30
0.0
 40
0.0371123019309092
100
AcDbArc
 50
290.7834207995
 51
69.2165792006
  0
LINE
  5
276
330
1F
100
AcDbEntity
  8
0
  6
Continuous
 62
     7
370
    25
100
AcDbLine
 10
57.8069338042
 20
40.655600385
 30
0.0
 11
57.8316825415
 21
40.669887527
 31
0.0
  0
ARC
  5
277
330
1F
100
AcDbEntity
  8
0
  6
Continuous
 62
     7
370
    25
100
AcDbCircle
 10
57.7991874528
 20
40.6351901822
 30
0.0
 40
0.0218307658417217
100
AcDbArc
 50
290.7834207995
 51
69.2165792005
  0
ARC
  5
278
330
1F
100
AcDbEntity
  8
0
  6
Continuous
 62
     7
370
    25
100
AcDbCircle
 10
57.7950412203
 20
40.6758313387
 30
0.0
 40
0.0371202817814169
100
AcDbArc
 50
350.7859630095
 51
129.2032852357
  0
ARC
  5
279
330
1F
100
AcDbEntity
  8
0
  6
Continuous
 62
     7
370
    25
100
AcDbCircle
 10
54.367008781
 20
42.6496309094
 30
0.0
 40
0.0427530650516965
100
AcDbArc
 50
65.6928809539
 51
125.6175774752
  0
ARC
  5
27A
330
1F
100
AcDbEntity
  8
0
  6
Continuous
 62
     7
370
    25
100
AcDbCircle
 10
57.7853800858
 20
40.6590967449
 30
0.0
 40
0.0218354598714242
100
AcDbArc
 50
350.7859630095
 51
129.2032852357
  0
ARC
  5
27B
330
1F
100
AcDbEntity
  8
0
  6
Continuous
 62
     7
370
    25
100
AcDbCircle
 10
54.1645780804
 20
42.5394225871
 30
0.0
 40
0.0377232926926447
100
AcDbArc
 50
54.3824225248
 51
114.3071190461
  0
LINE
  5
27C
330
1F
100
AcDbEntity
  8
0
  6
Continuous
 62
     7
370
    25
100
AcDbLine
 10
54.1898583147
 20
42.5964811831
 30
0.0
 11
54.1547594006
 21
42.5762190113
 31
0.0
  0
LINE
  5
27D
330
1F
100
AcDbEntity
  8
0
  6
Continuous
 62
     7
370
    25
100
AcDbLine
 10
55.1871031799
 20
26.4227870066
 30
0.0
 11
55.1871031799
 21
26.3276022868
 31
0.0
  0
ARC
  5
27E
330
1F
100
AcDbEntity
  8
0
  6
Continuous
 62
     7
370
    25
100
AcDbCircle
 10
55.1547726023
 20
26.3223577471
 30
0.0
 40
0.032753189807135
100
AcDbArc
 50
230.7967147643
 51
9.2140369905
  0
LINE
  5
27F
330
1F
100
AcDbEntity
  8
0
  6
Continuous
 62
     7
370
    25
100
AcDbLine
 10
55.1340701713
 20
26.3255559586
 30
0.0
 11
55.1340701713
 21
26.2969770301
 31
0.0
  0
ARC
  5
280
330
1F
100
AcDbEntity
  8
0
  6
Continuous
 62
     7
370
    25
100
AcDbCircle
 10
55.1451114678
 20
26.3390923409
 30
0.0
 40
0.017468367897143
100
AcDbArc
 50
230.7967147644
 51
9.2140369904
  0
LINE
  5
281
330
1F
100
AcDbEntity
  8
0
  6
Continuous
 62
     7
370
    25
100
AcDbLine
 10
55.1623544425
 20
26.4157825285
 30
0.0
 11
55.1623544425
 21
26.3418894288
 31
0.0
  0
LINE
  5
282
330
1F
100
AcDbEntity
  8
0
  6
Continuous
 62
     7
370
    25
100
AcDbLine
 10
55.2281753327
 20
26.3840051071
 30
0.0
 11
55.2034265954
 21
26.3982922491
 31
0.0
  0
ARC
  5
283
330
1F
100
AcDbEntity
  8
0
  6
Continuous
 62
     7
370
    25
100
AcDbCircle
 10
55.2405774679
 20
26.4306089247
 30
0.0
 40
0.0492397690239245
100
AcDbArc
 50
189.1912269665
 51
221.0192453678
  0
LINE
  5
284
330
1F
100
AcDbEntity
  8
0
  6
Continuous
 62
     7
370
    25
100
AcDbLine
 10
55.2219385881
 20
26.3784495237
 30
0.0
 11
55.2466873255
 21
26.3641623817
 31
0.0
  0
LINE
  5
285
330
1F
100
AcDbEntity
  8
0
  6
Continuous
 62
     7
370
    25
100
AcDbLine
 10
55.2219385881
 20
26.3784495237
 30
0.0
 11
55.2034265954
 21
26.3982922491
 31
0.0
  0
LWPOLYLINE
  5
286
330
1F
100
AcDbEntity
  8
0
  6
Continuous
 62
     7
370
    25
100
AcDbPolyline
 90
        3
 70
   128
 43
0.0
 10
55.229865448
 20
26.372117613
 10
55.2272100106
 20
26.3738227781
 10
55.2219385881
 20
26.3784495237
  0
LINE
  5
287
330
1F
100
AcDbEntity
  8
0
  6
Continuous
 62
     7
370
    25
100
AcDbLine
 10
55.1340701713
 20
26.3255559586
 30
0.0
 11
55.0555147484
 21
26.3709050389
 31
0.0
  0
LINE
  5
288
330
1F
100
AcDbEntity
  8
0
  6
Continuous
 62
     7
370
    25
100
AcDbLine
 10
52.9426305479
 20
27.6240137171
 30
0.0
 11
53.3454649922
 21
27.6598096188
 31
0.0
  0
ARC
  5
289
330
1F
100
AcDbEntity
  8
0
  6
Continuous
 62
     7
370
    25
100
AcDbCircle
 10
52.9263772855
 20
27.773477078
 30
0.0
 40
0.1503444870575843
100
AcDbArc
 50
242.3927231514
 51
276.2061927533
  0
LINE
  5
28A
330
1F
100
AcDbEntity
  8
0
  6
Continuous
 62
     7
370
    25
100
AcDbLine
 10
52.6559633749
 20
27.7561365614
 30
0.0
 11
52.8567063597
 21
27.640250103
 31
0.0
  0
LINE
  5
28B
330
1F
100
AcDbEntity
  8
0
  6
Continuous
 62
     7
370
    25
100
AcDbLine
 10
55.1340701713
 20
26.2969770301
 30
0.0
 11
55.0186784394
 21
26.363591259
 31
0.0
  0
LINE
  5
28C
330
1F
100
AcDbEntity
  8
0
  6
Continuous
 62
     7
370
    25
100
AcDbLine
 10
53.3454649922
 20
27.6598096188
 30
0.0
 11
53.3454649922
 21
27.6312306904
 31
0.0
  0
LINE
  5
28D
330
1F
100
AcDbEntity
  8
0
  6
Continuous
 62
     7
370
    25
100
AcDbLine
 10
53.3687924178
 20
27.6330446802
 30
0.0
 11
53.3454649922
 21
27.6312306904
 31
0.0
  0
LINE
  5
28E
330
1F
100
AcDbEntity
  8
0
  6
Continuous
 62
     7
370
    25
100
AcDbLine
 10
52.9426305479
 20
27.5954347887
 30
0.0
 11
52.9426305479
 21
27.6240137171
 31
0.0
  0
LINE
  5
28F
330
1F
100
AcDbEntity
  8
0
  6
Continuous
 62
     7
370
    25
100
AcDbLine
 10
52.9426305479
 20
27.5954347887
 30
0.0
 11
53.3454649922
 21
27.6312306904
 31
0.0
  0
LINE
  5
290
330
1F
100
AcDbEntity
  8
0
  6
Continuous
 62
     7
370
    25
100
AcDbLine
 10
52.8567063597
 20
27.640250103
 30
0.0
 11
52.8567063597
 21
27.6116711746
 31
0.0
  0
ARC
  5
291
330
1F
100
AcDbEntity
  8
0
  6
Continuous
 62
     7
370
    25
100
AcDbCircle
 10
52.9263772855
 20
27.7448981496
 30
0.0
 40
0.1503444870576823
100
AcDbArc
 50
242.3927231514
 51
276.2061927533
  0
LINE
  5
292
330
1F
100
AcDbEntity
  8
0
  6
Continuous
 62
     7
370
    25
100
AcDbLine
 10
52.6309802979
 20
27.7419800563
 30
0.0
 11
52.8567063597
 21
27.6116711746
 31
0.0
  0
LINE
  5
293
330
1F
100
AcDbEntity
  8
0
  6
Continuous
 62
     7
370
    25
100
AcDbLine
 10
53.316481137
 20
29.7094598107
 30
0.0
 11
53.0214374121
 21
29.5391346938
 31
0.0
  0
LINE
  5
294
330
1F
100
AcDbEntity
  8
0
  6
Continuous
 62
     7
370
    25
100
AcDbLine
 10
53.31761909
 20
29.7386910209
 30
0.0
 11
53.0183516769
 21
29.5659276207
 31
0.0
  0
LWPOLYLINE
  5
295
330
1F
100
AcDbEntity
  8
0
  6
Continuous
 62
     8
370
    25
100
AcDbPolyline
 90
       20
 70
   128
 43
0.0
 10
54.9234963987
 20
40.9679176248
 10
54.9234791847
 20
40.9656618783
 10
54.9156545245
 20
40.9199844995
 10
54.8938274536
 20
40.8758477307
 10
54.8586995121
 20
40.8346701641
 10
54.8113997409
 20
40.7977752805
 10
54.7534483937
 20
40.7663489119
 10
54.6867080743
 20
40.7414011275
 10
54.6133238716
 20
40.7237337698
 10
54.5356544142
 20
40.713914682
 10
54.4561960624
 20
40.7122594579
 10
54.377502673
 20
40.7188212975
 10
54.3021035162
 20
40.7333892981
 10
54.2324219831
 20
40.7554952321
 10
54.1706976954
 20
40.7844285966
 10
54.1189145225
 20
40.8192594494
 10
54.0787368183
 20
40.8588682983
 10
54.051455927
 20
40.9019820822
 10
54.0379486792
 20
40.9472150888
 10
54.0365213532
 20
40.9706335818
  0
LINE
  5
296
330
1F
100
AcDbEntity
  8
0
  6
Continuous
 62
     8
370
    25
100
AcDbLine
 10
55.183797519
 20
39.2972643748
 30
0.0
 11
55.183797519
 21
39.3043671254
 31
0.0
  0
LINE
  5
297
330
1F
100
AcDbEntity
  8
0
  6
Continuous
 62
     8
370
    25
100
AcDbLine
 10
54.8122273237
 20
40.0951075256
 30
0.0
 11
54.8122273237
 21
40.1022102762
 31
0.0
  0
LINE
  5
298
330
1F
100
AcDbEntity
  8
0
  6
Continuous
 62
     8
370
    25
100
AcDbLine
 10
53.1401319182
 20
41.0883782884
 30
0.0
 11
53.1401319182
 21
41.1034123641
 31
0.0
  0
LINE
  5
299
330
1F
100
AcDbEntity
  8
0
  6
Continuous
 62
     8
370
    25
100
AcDbLine
 10
51.7331164268
 20
41.2893001677
 30
0.0
 11
51.7331164268
 21
41.2964029183
 31
0.0
  0
LINE
  5
29A
330
1F
100
AcDbEntity
  8
0
  6
Continuous
 62
     8
370
    25
100
AcDbLine
 10
55.1981035341
 20
26.4218489839
 30
0.0
 11
55.2154777665
 21
26.4118190531
 31
0.0
  0
LINE
  5
29B
330
1F
100
AcDbEntity
  8
0
  6
Continuous
 62
     8
370
    25
100
AcDbLine
 10
57.8069338042
 20
40.655600385
 30
0.0
 11
57.7715784651
 21
40.6760172228
 31
0.0
  0
LINE
  5
29C
330
1F
100
AcDbEntity
  8
0
  6
Continuous
 62
     8
370
    25
100
AcDbLine
 10
54.1904361718
 20
42.5764158496
 30
0.0
 11
54.1904361718
 21
42.5678435645
 31
0.0
  0
LINE
  5
29D
330
1F
100
AcDbEntity
  8
0
  6
Continuous
 62
     8
370
    25
100
AcDbLine
 10
55.2470398949
 20
26.3622030159
 30
0.0
 11
55.1871031799
 21
26.3276022868
 31
0.0
  0
LINE
  5
29E
330
1F
100
AcDbEntity
  8
0
  6
Continuous
 62
     8
370
    25
100
AcDbLine
 10
55.1623544425
 20
26.3418894288
 30
0.0
 11
55.1340701713
 21
26.3255559586
 31
0.0
  0
LINE
  5
29F
330
1F
100
AcDbEntity
  8
0
  6
Continuous
 62
     8
370
    25
100
AcDbLine
 10
53.2496038507
 20
29.1482715634
 30
0.0
 11
53.099658768
 21
29.0617101097
 31
0.0
  0
LINE
  5
2A0
330
1F
100
AcDbEntity
  8
0
  6
Continuous
 62
     8
370
    25
100
AcDbLine
 10
53.0871415957
 20
29.1198020569
 30
0.0
 11
53.2637248517
 21
29.2217414008
 31
0.0
  0
INSERT
  5
2A6
330
1F
100
AcDbEntity
  8
NOTES
100
AcDbBlockReference
  2
SW_NOTE_0_3
 10
52.7813440829
 20
24.2954453389
 30
0.0
  0
LINE
  5
2A7
330
1F
100
AcDbEntity
  8
0
  6
Continuous
 62
     7
370
    25
100
AcDbLine
 10
47.5490211647
 20
17.8685310886
 30
0.0
 11
47.5958961647
 21
17.8685310886
 31
0.0
  0
LINE
  5
2A8
330
1F
100
AcDbEntity
  8
0
  6
Continuous
 62
     7
370
    25
100
AcDbLine
 10
47.5958961647
 20
18.1965310886
 30
0.0
 11
47.5490211647
 21
18.1965310886
 31
0.0
  0
LINE
  5
2A9
330
1F
100
AcDbEntity
  8
0
  6
Continuous
 62
     7
370
    25
100
AcDbLine
 10
47.5021461647
 20
17.9235310886
 30
0.0
 11
47.5131461647
 21
17.9235310886
 31
0.0
  0
LINE
  5
2AA
330
1F
100
AcDbEntity
  8
0
  6
Continuous
 62
     7
370
    25
100
AcDbLine
 10
47.5421461647
 20
17.9235310886
 30
0.0
 11
47.5490211647
 21
17.9235310886
 31
0.0
  0
LINE
  5
2AB
330
1F
100
AcDbEntity
  8
0
  6
Continuous
 62
     7
370
    25
100
AcDbLine
 10
47.5490211647
 20
18.1415310886
 30
0.0
 11
47.5421461647
 21
18.1415310886
 31
0.0
  0
LINE
  5
2AC
330
1F
100
AcDbEntity
  8
0
  6
Continuous
 62
     7
370
    25
100
AcDbLine
 10
47.5131461647
 20
18.1415310886
 30
0.0
 11
47.5021461647
 21
18.1415310886
 31
0.0
  0
LINE
  5
2AD
330
1F
100
AcDbEntity
  8
0
  6
Continuous
 62
     7
370
    25
100
AcDbLine
 10
42.4352711647
 20
18.1965310886
 30
0.0
 11
42.3883961647
 21
18.1965310886
 31
0.0
  0
LINE
  5
2AE
330
1F
100
AcDbEntity
  8
0
  6
Continuous
 62
     7
370
    25
100
AcDbLine
 10
42.3883961647
 20
17.8685310886
 30
0.0
 11
42.4352711647
 21
17.8685310886
 31
0.0
  0
LINE
  5
2AF
330
1F
100
AcDbEntity
  8
0
  6
Continuous
 62
     7
370
    25
100
AcDbLine
 10
42.4821461647
 20
18.1415310886
 30
0.0
 11
42.4711461647
 21
18.1415310886
 31
0.0
  0
LINE
  5
2B0
330
1F
100
AcDbEntity
  8
0
  6
Continuous
 62
     7
370
    25
100
AcDbLine
 10
42.4421461647
 20
18.1415310886
 30
0.0
 11
42.4352711647
 21
18.1415310886
 31
0.0
  0
LINE
  5
2B1
330
1F
100
AcDbEntity
  8
0
  6
Continuous
 62
     7
370
    25
100
AcDbLine
 10
42.4352711647
 20
17.9235310886
 30
0.0
 11
42.4421461647
 21
17.9235310886
 31
0.0
  0
LINE
  5
2B2
330
1F
100
AcDbEntity
  8
0
  6
Continuous
 62
     7
370
    25
100
AcDbLine
 10
42.4711461647
 20
17.9235310886
 30
0.0
 11
42.4821461647
 21
17.9235310886
 31
0.0
  0
ARC
  5
2B3
330
1F
100
AcDbEntity
  8
0
  6
Continuous
 62
     7
370
    25
100
AcDbCircle
 10
44.5736461647
 20
30.8647261621
 30
0.0
 40
0.0249999999999986
100
AcDbArc
 50
90.0
 51
180.0
  0
ARC
  5
2B4
330
1F
100
AcDbEntity
  8
0
  6
Continuous
 62
     7
370
    25
100
AcDbCircle
 10
45.4106461647
 20
30.8647261621
 30
0.0
 40
0.0249999999999986
100
AcDbArc
 50
0.0
 51
90.0
  0
LINE
  5
2B5
330
1F
100
AcDbEntity
  8
0
  6
Continuous
 62
     7
370
    25
100
AcDbLine
 10
45.4356461647
 20
30.6397261621
 30
0.0
 11
45.4356461647
 21
30.8647261621
 31
0.0
  0
LINE
  5
2B6
330
1F
100
AcDbEntity
  8
0
  6
Continuous
 62
     7
370
    25
100
AcDbLine
 10
44.5486461647
 20
30.8647261621
 30
0.0
 11
44.5486461647
 21
30.6397261621
 31
0.0
  0
LINE
  5
2B7
330
1F
100
AcDbEntity
  8
0
  6
Continuous
 62
     7
370
    25
100
AcDbLine
 10
47.6178961647
 20
17.9055310886
 30
0.0
 11
47.6328961647
 21
17.9545938778
 31
0.0
  0
LINE
  5
2B8
330
1F
100
AcDbEntity
  8
0
  6
Continuous
 62
     7
370
    25
100
AcDbLine
 10
47.6328961647
 20
18.1104682993
 30
0.0
 11
47.6178961647
 21
18.1595310886
 31
0.0
  0
LINE
  5
2B9
330
1F
100
AcDbEntity
  8
0
  6
Continuous
 62
     7
370
    25
100
AcDbLine
 10
47.5958961647
 20
17.9055310886
 30
0.0
 11
47.6178961647
 21
17.9055310886
 31
0.0
  0
LINE
  5
2BA
330
1F
100
AcDbEntity
  8
0
  6
Continuous
 62
     7
370
    25
100
AcDbLine
 10
47.6178961647
 20
18.1595310886
 30
0.0
 11
47.5958961647
 21
18.1595310886
 31
0.0
  0
LINE
  5
2BB
330
1F
100
AcDbEntity
  8
0
  6
Continuous
 62
     7
370
    25
100
AcDbLine
 10
47.5421461647
 20
15.2187261621
 30
0.0
 11
47.5641461647
 21
15.2187261621
 31
0.0
  0
LINE
  5
2BC
330
1F
100
AcDbEntity
  8
0
  6
Continuous
 62
     7
370
    25
100
AcDbLine
 10
47.5641461647
 20
15.4727261621
 30
0.0
 11
47.5421461647
 21
15.4727261621
 31
0.0
  0
LINE
  5
2BD
330
1F
100
AcDbEntity
  8
0
  6
Continuous
 62
     7
370
    25
100
AcDbLine
 10
47.5641461647
 20
15.2187261621
 30
0.0
 11
47.5791461647
 21
15.2677889514
 31
0.0
  0
LINE
  5
2BE
330
1F
100
AcDbEntity
  8
0
  6
Continuous
 62
     7
370
    25
100
AcDbLine
 10
47.5791461647
 20
15.4236633728
 30
0.0
 11
47.5641461647
 21
15.4727261621
 31
0.0
  0
LINE
  5
2BF
330
1F
100
AcDbEntity
  8
0
  6
Continuous
 62
     7
370
    25
100
AcDbLine
 10
47.5131461647
 20
15.4082261621
 30
0.0
 11
47.5021461647
 21
15.4082261621
 31
0.0
  0
LINE
  5
2C0
330
1F
100
AcDbEntity
  8
0
  6
Continuous
 62
     7
370
    25
100
AcDbLine
 10
47.5021461647
 20
15.2832261621
 30
0.0
 11
47.5131461647
 21
15.2832261621
 31
0.0
  0
LINE
  5
2C1
330
1F
100
AcDbEntity
  8
0
  6
Continuous
 62
     7
370
    25
100
AcDbLine
 10
42.3883961647
 20
18.1595310886
 30
0.0
 11
42.3663961647
 21
18.1595310886
 31
0.0
  0
LINE
  5
2C2
330
1F
100
AcDbEntity
  8
0
  6
Continuous
 62
     7
370
    25
100
AcDbLine
 10
42.3663961647
 20
17.9055310886
 30
0.0
 11
42.3883961647
 21
17.9055310886
 31
0.0
  0
LINE
  5
2C3
330
1F
100
AcDbEntity
  8
0
  6
Continuous
 62
     7
370
    25
100
AcDbLine
 10
42.3663961647
 20
18.1595310886
 30
0.0
 11
42.3513961647
 21
18.1104682993
 31
0.0
  0
LINE
  5
2C4
330
1F
100
AcDbEntity
  8
0
  6
Continuous
 62
     7
370
    25
100
AcDbLine
 10
42.3513961647
 20
17.9545938778
 30
0.0
 11
42.3663961647
 21
17.9055310886
 31
0.0
  0
LINE
  5
2C5
330
1F
100
AcDbEntity
  8
0
  6
Continuous
 62
     7
370
    25
100
AcDbLine
 10
42.4421461647
 20
15.4727261621
 30
0.0
 11
42.4201461647
 21
15.4727261621
 31
0.0
  0
LINE
  5
2C6
330
1F
100
AcDbEntity
  8
0
  6
Continuous
 62
     7
370
    25
100
AcDbLine
 10
42.4201461647
 20
15.2187261621
 30
0.0
 11
42.4421461647
 21
15.2187261621
 31
0.0
  0
LINE
  5
2C7
330
1F
100
AcDbEntity
  8
0
  6
Continuous
 62
     7
370
    25
100
AcDbLine
 10
42.4201461647
 20
15.4727261621
 30
0.0
 11
42.4051461647
 21
15.4236633728
 31
0.0
  0
LINE
  5
2C8
330
1F
100
AcDbEntity
  8
0
  6
Continuous
 62
     7
370
    25
100
AcDbLine
 10
42.4051461647
 20
15.2677889514
 30
0.0
 11
42.4201461647
 21
15.2187261621
 31
0.0
  0
LINE
  5
2C9
330
1F
100
AcDbEntity
  8
0
  6
Continuous
 62
     7
370
    25
100
AcDbLine
 10
42.4711461647
 20
15.2832261621
 30
0.0
 11
42.4821461647
 21
15.2832261621
 31
0.0
  0
LINE
  5
2CA
330
1F
100
AcDbEntity
  8
0
  6
Continuous
 62
     7
370
    25
100
AcDbLine
 10
42.4821461647
 20
15.4082261621
 30
0.0
 11
42.4711461647
 21
15.4082261621
 31
0.0
  0
LINE
  5
2CB
330
1F
100
AcDbEntity
  8
0
  6
Continuous
 62
     7
370
    25
100
AcDbLine
 10
47.5490211647
 20
18.1965310886
 30
0.0
 11
47.5490211647
 21
17.8685310886
 31
0.0
  0
LINE
  5
2CC
330
1F
100
AcDbEntity
  8
0
  6
Continuous
 62
     7
370
    25
100
AcDbLine
 10
47.5958961647
 20
18.1965310886
 30
0.0
 11
47.5958961647
 21
17.8685310886
 31
0.0
  0
LINE
  5
2CD
330
1F
100
AcDbEntity
  8
0
  6
Continuous
 62
     7
370
    25
100
AcDbLine
 10
42.3883961647
 20
18.0152901934
 30
0.0
 11
42.3883961647
 21
18.1965310886
 31
0.0
  0
LINE
  5
2CE
330
1F
100
AcDbEntity
  8
0
  6
Continuous
 62
     7
370
    25
100
AcDbLine
 10
42.3883961647
 20
17.8685310886
 30
0.0
 11
42.3883961647
 21
18.0152901934
 31
0.0
  0
LINE
  5
2CF
330
1F
100
AcDbEntity
  8
0
  6
Continuous
 62
     7
370
    25
100
AcDbLine
 10
42.4352711647
 20
18.0152901934
 30
0.0
 11
42.4352711647
 21
18.1965310886
 31
0.0
  0
LINE
  5
2D0
330
1F
100
AcDbEntity
  8
0
  6
Continuous
 62
     7
370
    25
100
AcDbLine
 10
42.4352711647
 20
17.8685310886
 30
0.0
 11
42.4352711647
 21
18.0152901934
 31
0.0
  0
LINE
  5
2D1
330
1F
100
AcDbEntity
  8
0
  6
Continuous
 62
     7
370
    25
100
AcDbLine
 10
44.9603163041
 20
30.8897261621
 30
0.0
 11
45.4106461647
 21
30.8897261621
 31
0.0
  0
LINE
  5
2D2
330
1F
100
AcDbEntity
  8
0
  6
Continuous
 62
     7
370
    25
100
AcDbLine
 10
44.5736461647
 20
30.8897261621
 30
0.0
 11
44.9603163041
 21
30.8897261621
 31
0.0
  0
LINE
  5
2D3
330
1F
100
AcDbEntity
  8
0
  6
Continuous
 62
     7
370
    25
100
AcDbLine
 10
47.6328961647
 20
18.1104682993
 30
0.0
 11
47.6328961647
 21
17.9545938778
 31
0.0
  0
LINE
  5
2D4
330
1F
100
AcDbEntity
  8
0
  6
Continuous
 62
     7
370
    25
100
AcDbLine
 10
47.6178961647
 20
17.9055310886
 30
0.0
 11
47.6178961647
 21
18.1595310886
 31
0.0
  0
LINE
  5
2D5
330
1F
100
AcDbEntity
  8
0
  6
Continuous
 62
     7
370
    25
100
AcDbLine
 10
47.5641461647
 20
15.2187261621
 30
0.0
 11
47.5641461647
 21
15.4727261621
 31
0.0
  0
LINE
  5
2D6
330
1F
100
AcDbEntity
  8
0
  6
Continuous
 62
     7
370
    25
100
AcDbLine
 10
47.5791461647
 20
15.4236633728
 30
0.0
 11
47.5791461647
 21
15.2677889514
 31
0.0
  0
LINE
  5
2D7
330
1F
100
AcDbEntity
  8
0
  6
Continuous
 62
     7
370
    25
100
AcDbLine
 10
42.3663961647
 20
18.0325310886
 30
0.0
 11
42.3663961647
 21
17.9055310886
 31
0.0
  0
LINE
  5
2D8
330
1F
100
AcDbEntity
  8
0
  6
Continuous
 62
     7
370
    25
100
AcDbLine
 10
42.3663961647
 20
18.1595310886
 30
0.0
 11
42.3663961647
 21
18.0325310886
 31
0.0
  0
LINE
  5
2D9
330
1F
100
AcDbEntity
  8
0
  6
Continuous
 62
     7
370
    25
100
AcDbLine
 10
42.3513961647
 20
18.0325310886
 30
0.0
 11
42.3513961647
 21
18.1104682993
 31
0.0
  0
LINE
  5
2DA
330
1F
100
AcDbEntity
  8
0
  6
Continuous
 62
     7
370
    25
100
AcDbLine
 10
42.3513961647
 20
17.9545938778
 30
0.0
 11
42.3513961647
 21
18.0325310886
 31
0.0
  0
LINE
  5
2DB
330
1F
100
AcDbEntity
  8
0
  6
Continuous
 62
     7
370
    25
100
AcDbLine
 10
42.4201461647
 20
15.4395951698
 30
0.0
 11
42.4201461647
 21
15.2187261621
 31
0.0
  0
LINE
  5
2DC
330
1F
100
AcDbEntity
  8
0
  6
Continuous
 62
     7
370
    25
100
AcDbLine
 10
42.4201461647
 20
15.4727261621
 30
0.0
 11
42.4201461647
 21
15.4395951698
 31
0.0
  0
LINE
  5
2DD
330
1F
100
AcDbEntity
  8
0
  6
Continuous
 62
     7
370
    25
100
AcDbLine
 10
42.4051461647
 20
15.4033315844
 30
0.0
 11
42.4051461647
 21
15.4236633728
 31
0.0
  0
LINE
  5
2DE
330
1F
100
AcDbEntity
  8
0
  6
Continuous
 62
     7
370
    25
100
AcDbLine
 10
42.4051461647
 20
15.2677889514
 30
0.0
 11
42.4051461647
 21
15.4033315844
 31
0.0
  0
LINE
  5
2DF
330
1F
100
AcDbEntity
  8
0
  6
Continuous
 62
     7
370
    25
100
AcDbLine
 10
47.5421461647
 20
17.3764631465
 30
0.0
 11
47.5421461647
 21
15.1061617697
 31
0.0
  0
LINE
  5
2E0
330
1F
100
AcDbEntity
  8
0
  6
Continuous
 62
     7
370
    25
100
AcDbLine
 10
47.5131461647
 20
15.1061617697
 30
0.0
 11
47.5421461647
 21
15.1061617697
 31
0.0
  0
LINE
  5
2E1
330
1F
100
AcDbEntity
  8
0
  6
Continuous
 62
     7
370
    25
100
AcDbLine
 10
47.5131461647
 20
17.3764631465
 30
0.0
 11
47.5131461647
 21
15.1061617697
 31
0.0
  0
LINE
  5
2E2
330
1F
100
AcDbEntity
  8
0
  6
Continuous
 62
     7
370
    25
100
AcDbLine
 10
47.5131461647
 20
17.3764631465
 30
0.0
 11
47.5131461647
 21
18.0192507561
 31
0.0
  0
LINE
  5
2E3
330
1F
100
AcDbEntity
  8
0
  6
Continuous
 62
     7
370
    25
100
AcDbLine
 10
47.5421461647
 20
18.0192507561
 30
0.0
 11
47.5421461647
 21
17.3764631465
 31
0.0
  0
LINE
  5
2E4
330
1F
100
AcDbEntity
  8
0
  6
Continuous
 62
     7
370
    25
100
AcDbLine
 10
47.5421461647
 20
14.9457261621
 30
0.0
 11
47.5131461647
 21
14.9457261621
 31
0.0
  0
LINE
  5
2E5
330
1F
100
AcDbEntity
  8
0
  6
Continuous
 62
     7
370
    25
100
AcDbLine
 10
47.5131461647
 20
14.9457261621
 30
0.0
 11
47.5131461647
 21
15.1061617697
 31
0.0
  0
LINE
  5
2E6
330
1F
100
AcDbEntity
  8
0
  6
Continuous
 62
     7
370
    25
100
AcDbLine
 10
47.5421461647
 20
15.1061617697
 30
0.0
 11
47.5421461647
 21
14.9457261621
 31
0.0
  0
LINE
  5
2E7
330
1F
100
AcDbEntity
  8
0
  6
Continuous
 62
     7
370
    25
100
AcDbLine
 10
42.4421461647
 20
18.0192507561
 30
0.0
 11
42.4421461647
 21
17.3764631465
 31
0.0
  0
LINE
  5
2E8
330
1F
100
AcDbEntity
  8
0
  6
Continuous
 62
     7
370
    25
100
AcDbLine
 10
42.4711461647
 20
17.3764631465
 30
0.0
 11
42.4711461647
 21
18.0192507561
 31
0.0
  0
LINE
  5
2E9
330
1F
100
AcDbEntity
  8
0
  6
Continuous
 62
     7
370
    25
100
AcDbLine
 10
42.4711461647
 20
15.1061617697
 30
0.0
 11
42.4421461647
 21
15.1061617697
 31
0.0
  0
LINE
  5
2EA
330
1F
100
AcDbEntity
  8
0
  6
Continuous
 62
     7
370
    25
100
AcDbLine
 10
42.4421461647
 20
17.3764631465
 30
0.0
 11
42.4421461647
 21
15.1061617697
 31
0.0
  0
LINE
  5
2EB
330
1F
100
AcDbEntity
  8
0
  6
Continuous
 62
     7
370
    25
100
AcDbLine
 10
42.4711461647
 20
17.3764631465
 30
0.0
 11
42.4711461647
 21
15.1061617697
 31
0.0
  0
LINE
  5
2EC
330
1F
100
AcDbEntity
  8
0
  6
Continuous
 62
     7
370
    25
100
AcDbLine
 10
42.4421461647
 20
14.9457261621
 30
0.0
 11
42.4711461647
 21
14.9457261621
 31
0.0
  0
LINE
  5
2ED
330
1F
100
AcDbEntity
  8
0
  6
Continuous
 62
     7
370
    25
100
AcDbLine
 10
42.4421461647
 20
15.1061617697
 30
0.0
 11
42.4421461647
 21
14.9457261621
 31
0.0
  0
LINE
  5
2EE
330
1F
100
AcDbEntity
  8
0
  6
Continuous
 62
     7
370
    25
100
AcDbLine
 10
42.4711461647
 20
14.9457261621
 30
0.0
 11
42.4711461647
 21
15.1061617697
 31
0.0
  0
LINE
  5
2EF
330
1F
100
AcDbEntity
  8
0
  6
Continuous
 62
     7
370
    25
100
AcDbLine
 10
47.5131461647
 20
20.4904842435
 30
0.0
 11
47.5131461647
 21
18.0192507561
 31
0.0
  0
LINE
  5
2F0
330
1F
100
AcDbEntity
  8
0
  6
Continuous
 62
     7
370
    25
100
AcDbLine
 10
47.5421461647
 20
20.4904842435
 30
0.0
 11
47.5421461647
 21
18.0192507561
 31
0.0
  0
LINE
  5
2F1
330
1F
100
AcDbEntity
  8
0
  6
Continuous
 62
     7
370
    25
100
AcDbLine
 10
42.4421461647
 20
20.4904842435
 30
0.0
 11
42.4421461647
 21
18.0192507561
 31
0.0
  0
LINE
  5
2F2
330
1F
100
AcDbEntity
  8
0
  6
Continuous
 62
     7
370
    25
100
AcDbLine
 10
42.4711461647
 20
20.4904842435
 30
0.0
 11
42.4711461647
 21
18.0192507561
 31
0.0
  0
LINE
  5
2F3
330
1F
100
AcDbEntity
  8
0
  6
Continuous
 62
     7
370
    25
100
AcDbLine
 10
47.5131461647
 20
20.4904842435
 30
0.0
 11
47.5131461647
 21
21.454665658
 31
0.0
  0
LINE
  5
2F4
330
1F
100
AcDbEntity
  8
0
  6
Continuous
 62
     7
370
    25
100
AcDbLine
 10
47.5421461647
 20
21.454665658
 30
0.0
 11
47.5421461647
 21
20.4904842435
 31
0.0
  0
LINE
  5
2F5
330
1F
100
AcDbEntity
  8
0
  6
Continuous
 62
     7
370
    25
100
AcDbLine
 10
42.4421461647
 20
21.454665658
 30
0.0
 11
42.4421461647
 21
20.4904842435
 31
0.0
  0
LINE
  5
2F6
330
1F
100
AcDbEntity
  8
0
  6
Continuous
 62
     7
370
    25
100
AcDbLine
 10
42.4711461647
 20
20.4904842435
 30
0.0
 11
42.4711461647
 21
21.454665658
 31
0.0
  0
LINE
  5
2F7
330
1F
100
AcDbEntity
  8
0
  6
Continuous
 62
     7
370
    25
100
AcDbLine
 10
47.5131461647
 20
30.5904333807
 30
0.0
 11
47.5131461647
 21
21.454665658
 31
0.0
  0
LINE
  5
2F8
330
1F
100
AcDbEntity
  8
0
  6
Continuous
 62
     7
370
    25
100
AcDbLine
 10
47.5421461647
 20
30.5904333807
 30
0.0
 11
47.5421461647
 21
21.454665658
 31
0.0
  0
LINE
  5
2F9
330
1F
100
AcDbEntity
  8
0
  6
Continuous
 62
     7
370
    25
100
AcDbLine
 10
47.5131461647
 20
30.7404333807
 30
0.0
 11
47.5421461647
 21
30.7404333807
 31
0.0
  0
LINE
  5
2FA
330
1F
100
AcDbEntity
  8
0
  6
Continuous
 62
     7
370
    25
100
AcDbLine
 10
47.5131461647
 20
30.5904333807
 30
0.0
 11
47.5131461647
 21
30.7404333807
 31
0.0
  0
LINE
  5
2FB
330
1F
100
AcDbEntity
  8
0
  6
Continuous
 62
     7
370
    25
100
AcDbLine
 10
47.5421461647
 20
30.7404333807
 30
0.0
 11
47.5421461647
 21
30.5904333807
 31
0.0
  0
LINE
  5
2FC
330
1F
100
AcDbEntity
  8
0
  6
Continuous
 62
     7
370
    25
100
AcDbLine
 10
42.4421461647
 20
30.5904333807
 30
0.0
 11
42.4421461647
 21
21.454665658
 31
0.0
  0
LINE
  5
2FD
330
1F
100
AcDbEntity
  8
0
  6
Continuous
 62
     7
370
    25
100
AcDbLine
 10
42.4711461647
 20
30.5904333807
 30
0.0
 11
42.4711461647
 21
21.454665658
 31
0.0
  0
LINE
  5
2FE
330
1F
100
AcDbEntity
  8
0
  6
Continuous
 62
     7
370
    25
100
AcDbLine
 10
42.4711461647
 20
30.7404333807
 30
0.0
 11
42.4421461647
 21
30.7404333807
 31
0.0
  0
LINE
  5
2FF
330
1F
100
AcDbEntity
  8
0
  6
Continuous
 62
     7
370
    25
100
AcDbLine
 10
42.4421461647
 20
30.7404333807
 30
0.0
 11
42.4421461647
 21
30.5904333807
 31
0.0
  0
LINE
  5
300
330
1F
100
AcDbEntity
  8
0
  6
Continuous
 62
     7
370
    25
100
AcDbLine
 10
42.4711461647
 20
30.5904333807
 30
0.0
 11
42.4711461647
 21
30.7404333807
 31
0.0
  0
LINE
  5
301
330
1F
100
AcDbEntity
  8
0
  6
Continuous
 62
     7
370
    25
100
AcDbLine
 10
47.5111461647
 20
30.2126236887
 30
0.0
 11
47.5021461647
 21
30.2126236887
 31
0.0
  0
LINE
  5
302
330
1F
100
AcDbEntity
  8
0
  6
Continuous
 62
     7
370
    25
100
AcDbLine
 10
47.5111461647
 20
30.2376236887
 30
0.0
 11
47.5111461647
 21
30.2126236887
 31
0.0
  0
LINE
  5
303
330
1F
100
AcDbEntity
  8
0
  6
Continuous
 62
     7
370
    25
100
AcDbLine
 10
47.4821461647
 20
30.6904333807
 30
0.0
 11
47.4821461647
 21
30.5547261621
 31
0.0
  0
LINE
  5
304
330
1F
100
AcDbEntity
  8
0
  6
Continuous
 62
     7
370
    25
100
AcDbLine
 10
47.5111461647
 20
30.6904333807
 30
0.0
 11
47.5111461647
 21
30.2376236887
 31
0.0
  0
LINE
  5
305
330
1F
100
AcDbEntity
  8
0
  6
Continuous
 62
     7
370
    25
100
AcDbLine
 10
46.2258461647
 20
30.7694333807
 30
0.0
 11
47.4321461647
 21
30.7694333807
 31
0.0
  0
LINE
  5
306
330
1F
100
AcDbEntity
  8
0
  6
Continuous
 62
     7
370
    25
100
AcDbLine
 10
46.2258461647
 20
30.7404333807
 30
0.0
 11
47.4321461647
 21
30.7404333807
 31
0.0
  0
ARC
  5
307
330
1F
100
AcDbEntity
  8
0
  6
Continuous
 62
     7
370
    25
100
AcDbCircle
 10
47.4321461647
 20
30.6904333807
 30
0.0
 40
0.0790000000000077
100
AcDbArc
 50
0.0
 51
90.0
  0
ARC
  5
308
330
1F
100
AcDbEntity
  8
0
  6
Continuous
 62
     7
370
    25
100
AcDbCircle
 10
47.4321461647
 20
30.6904333807
 30
0.0
 40
0.0500000000000043
100
AcDbArc
 50
0.0
 51
90.0
  0
LINE
  5
309
330
1F
100
AcDbEntity
  8
0
  6
Continuous
 62
     7
370
    25
100
AcDbLine
 10
43.7921461647
 20
30.6397261621
 30
0.0
 11
43.7921461647
 21
30.7004333807
 31
0.0
  0
LINE
  5
30A
330
1F
100
AcDbEntity
  8
0
  6
Continuous
 62
     7
370
    25
100
AcDbLine
 10
46.1921461647
 20
30.6397261621
 30
0.0
 11
46.1921461647
 21
30.7004333807
 31
0.0
  0
LINE
  5
30B
330
1F
100
AcDbEntity
  8
0
  6
Continuous
 62
     7
370
    25
100
AcDbLine
 10
46.2008461647
 20
30.7404333807
 30
0.0
 11
46.2008461647
 21
30.7694333807
 31
0.0
  0
LINE
  5
30C
330
1F
100
AcDbEntity
  8
0
  6
Continuous
 62
     7
370
    25
100
AcDbLine
 10
46.2008461647
 20
30.7694333807
 30
0.0
 11
46.2258461647
 21
30.7694333807
 31
0.0
  0
LINE
  5
30D
330
1F
100
AcDbEntity
  8
0
  6
Continuous
 62
     7
370
    25
100
AcDbLine
 10
46.2258461647
 20
30.7404333807
 30
0.0
 11
46.2008461647
 21
30.7404333807
 31
0.0
  0
LINE
  5
30E
330
1F
100
AcDbEntity
  8
0
  6
Continuous
 62
     7
370
    25
100
AcDbLine
 10
43.7921461647
 20
30.7694333807
 30
0.0
 11
43.7921461647
 21
30.7004333807
 31
0.0
  0
LINE
  5
30F
330
1F
100
AcDbEntity
  8
0
  6
Continuous
 62
     7
370
    25
100
AcDbLine
 10
46.1921461647
 20
30.7694333807
 30
0.0
 11
46.1921461647
 21
30.7004333807
 31
0.0
  0
LINE
  5
310
330
1F
100
AcDbEntity
  8
0
  6
Continuous
 62
     7
370
    25
100
AcDbLine
 10
43.7921461647
 20
30.7694333807
 30
0.0
 11
44.5486461647
 21
30.7694333807
 31
0.0
  0
LINE
  5
311
330
1F
100
AcDbEntity
  8
0
  6
Continuous
 62
     7
370
    25
100
AcDbLine
 10
45.4356461647
 20
30.7694333807
 30
0.0
 11
46.1921461647
 21
30.7694333807
 31
0.0
  0
LINE
  5
312
330
1F
100
AcDbEntity
  8
0
  6
Continuous
 62
     7
370
    25
100
AcDbLine
 10
43.7584461647
 20
30.7694333807
 30
0.0
 11
42.5521461647
 21
30.7694333807
 31
0.0
  0
LINE
  5
313
330
1F
100
AcDbEntity
  8
0
  6
Continuous
 62
     7
370
    25
100
AcDbLine
 10
43.7584461647
 20
30.7404333807
 30
0.0
 11
42.5521461647
 21
30.7404333807
 31
0.0
  0
LINE
  5
314
330
1F
100
AcDbEntity
  8
0
  6
Continuous
 62
     7
370
    25
100
AcDbLine
 10
43.7834461647
 20
30.7694333807
 30
0.0
 11
43.7834461647
 21
30.7404333807
 31
0.0
  0
LINE
  5
315
330
1F
100
AcDbEntity
  8
0
  6
Continuous
 62
     7
370
    25
100
AcDbLine
 10
43.7584461647
 20
30.7694333807
 30
0.0
 11
43.7834461647
 21
30.7694333807
 31
0.0
  0
LINE
  5
316
330
1F
100
AcDbEntity
  8
0
  6
Continuous
 62
     7
370
    25
100
AcDbLine
 10
43.7834461647
 20
30.7404333807
 30
0.0
 11
43.7584461647
 21
30.7404333807
 31
0.0
  0
ARC
  5
317
330
1F
100
AcDbEntity
  8
0
  6
Continuous
 62
     7
370
    25
100
AcDbCircle
 10
42.5521461647
 20
30.6904333807
 30
0.0
 40
0.0790000000000006
100
AcDbArc
 50
90.0
 51
180.0
  0
ARC
  5
318
330
1F
100
AcDbEntity
  8
0
  6
Continuous
 62
     7
370
    25
100
AcDbCircle
 10
42.5521461647
 20
30.6904333807
 30
0.0
 40
0.0500000000000043
100
AcDbArc
 50
90.0
 51
180.0
  0
LINE
  5
319
330
1F
100
AcDbEntity
  8
0
  6
Continuous
 62
     7
370
    25
100
AcDbLine
 10
42.4821461647
 20
30.2126236887
 30
0.0
 11
42.4731461647
 21
30.2126236887
 31
0.0
  0
LINE
  5
31A
330
1F
100
AcDbEntity
  8
0
  6
Continuous
 62
     7
370
    25
100
AcDbLine
 10
42.4731461647
 20
30.2126236887
 30
0.0
 11
42.4731461647
 21
30.2376236887
 31
0.0
  0
LINE
  5
31B
330
1F
100
AcDbEntity
  8
0
  6
Continuous
 62
     7
370
    25
100
AcDbLine
 10
42.5021461647
 20
30.6904333807
 30
0.0
 11
42.5021461647
 21
30.5547261621
 31
0.0
  0
LINE
  5
31C
330
1F
100
AcDbEntity
  8
0
  6
Continuous
 62
     7
370
    25
100
AcDbLine
 10
42.4731461647
 20
30.6904333807
 30
0.0
 11
42.4731461647
 21
30.2376236887
 31
0.0
  0
LINE
  5
31D
330
1F
100
AcDbEntity
  8
0
  6
Continuous
 62
     7
370
    25
100
AcDbLine
 10
46.2008461647
 20
30.7694333807
 30
0.0
 11
46.1921461647
 21
30.7694333807
 31
0.0
  0
LINE
  5
31E
330
1F
100
AcDbEntity
  8
0
  6
Continuous
 62
     7
370
    25
100
AcDbLine
 10
46.1921461647
 20
30.7404333807
 30
0.0
 11
46.2008461647
 21
30.7404333807
 31
0.0
  0
LINE
  5
31F
330
1F
100
AcDbEntity
  8
0
  6
Continuous
 62
     7
370
    25
100
AcDbLine
 10
43.7834461647
 20
30.7694333807
 30
0.0
 11
43.7921461647
 21
30.7694333807
 31
0.0
  0
LINE
  5
320
330
1F
100
AcDbEntity
  8
0
  6
Continuous
 62
     7
370
    25
100
AcDbLine
 10
43.7921461647
 20
30.7404333807
 30
0.0
 11
43.7834461647
 21
30.7404333807
 31
0.0
  0
LINE
  5
321
330
1F
100
AcDbEntity
  8
0
  6
Continuous
 62
     7
370
    25
100
AcDbLine
 10
47.4831461647
 20
30.7694333807
 30
0.0
 11
47.4831461647
 21
30.7507657932
 31
0.0
  0
LINE
  5
322
330
1F
100
AcDbEntity
  8
0
  6
Continuous
 62
     7
370
    25
100
AcDbLine
 10
47.4581461647
 20
30.7694333807
 30
0.0
 11
47.4831461647
 21
30.7694333807
 31
0.0
  0
LINE
  5
323
330
1F
100
AcDbEntity
  8
0
  6
Continuous
 62
     7
370
    25
100
AcDbLine
 10
47.4581461647
 20
30.7694333807
 30
0.0
 11
47.4321461647
 21
30.7694333807
 31
0.0
  0
LINE
  5
324
330
1F
100
AcDbEntity
  8
0
  6
Continuous
 62
     7
370
    25
100
AcDbLine
 10
42.5261461647
 20
30.7694333807
 30
0.0
 11
42.5521461647
 21
30.7694333807
 31
0.0
  0
LINE
  5
325
330
1F
100
AcDbEntity
  8
0
  6
Continuous
 62
     7
370
    25
100
AcDbLine
 10
42.5011461647
 20
30.7507657932
 30
0.0
 11
42.5011461647
 21
30.7694333807
 31
0.0
  0
LINE
  5
326
330
1F
100
AcDbEntity
  8
0
  6
Continuous
 62
     7
370
    25
100
AcDbLine
 10
42.5011461647
 20
30.7694333807
 30
0.0
 11
42.5261461647
 21
30.7694333807
 31
0.0
  0
LINE
  5
327
330
1F
100
AcDbEntity
  8
0
  6
Continuous
 62
     7
370
    25
100
AcDbLine
 10
47.5021461647
 20
15.1104333807
 30
0.0
 11
47.5131461647
 21
15.1104333807
 31
0.0
  0
LINE
  5
328
330
1F
100
AcDbEntity
  8
0
  6
Continuous
 62
     7
370
    25
100
AcDbLine
 10
47.5131461647
 20
30.7404333807
 30
0.0
 11
47.4933098794
 21
30.7404333807
 31
0.0
  0
LINE
  5
329
330
1F
100
AcDbEntity
  8
0
  6
Continuous
 62
     7
370
    25
100
AcDbLine
 10
42.4821461647
 20
15.1104333807
 30
0.0
 11
42.4711461647
 21
15.1104333807
 31
0.0
  0
LINE
  5
32A
330
1F
100
AcDbEntity
  8
0
  6
Continuous
 62
     7
370
    25
100
AcDbLine
 10
42.4711461647
 20
30.7404333807
 30
0.0
 11
42.49098245
 21
30.7404333807
 31
0.0
  0
LINE
  5
32B
330
1F
100
AcDbEntity
  8
0
  6
Continuous
 62
     7
370
    25
100
AcDbLine
 10
42.7211461647
 20
30.6904333807
 30
0.0
 11
42.7211461647
 21
30.7404333807
 31
0.0
  0
LINE
  5
32C
330
1F
100
AcDbEntity
  8
0
  6
Continuous
 62
     7
370
    25
100
AcDbLine
 10
47.2631461647
 20
30.6904333807
 30
0.0
 11
47.2631461647
 21
30.7404333807
 31
0.0
  0
LINE
  5
32D
330
1F
100
AcDbEntity
  8
0
  6
Continuous
 62
     7
370
    25
100
AcDbLine
 10
47.4171461647
 20
14.8297261621
 30
0.0
 11
47.4171461647
 21
14.9047261621
 31
0.0
  0
LINE
  5
32E
330
1F
100
AcDbEntity
  8
0
  6
Continuous
 62
     7
370
    25
100
AcDbLine
 10
42.5671461647
 20
14.8297261621
 30
0.0
 11
47.4171461647
 21
14.8297261621
 31
0.0
  0
LINE
  5
32F
330
1F
100
AcDbEntity
  8
0
  6
Continuous
 62
     7
370
    25
100
AcDbLine
 10
42.5671461647
 20
14.8297261621
 30
0.0
 11
42.5671461647
 21
14.9047261621
 31
0.0
  0
CIRCLE
  5
330
330
1F
100
AcDbEntity
  8
0
  6
Continuous
 62
     7
370
    25
100
AcDbCircle
 10
46.7421461647
 20
29.5797261621
 30
0.0
 40
0.1000000000000085
  0
ARC
  5
331
330
1F
100
AcDbEntity
  8
0
  6
Continuous
 62
     7
370
    25
100
AcDbCircle
 10
46.7421461647
 20
17.1797261621
 30
0.0
 40
0.1999999999999999
100
AcDbArc
 50
120.0
 51
60.0
  0
LINE
  5
332
330
1F
100
AcDbEntity
  8
0
  6
Continuous
 62
     7
370
    25
100
AcDbLine
 10
46.8421461647
 20
17.5797261621
 30
0.0
 11
46.8421461647
 21
17.3529312429
 31
0.0
  0
ARC
  5
333
330
1F
100
AcDbEntity
  8
0
  6
Continuous
 62
     7
370
    25
100
AcDbCircle
 10
46.7421461647
 20
17.5797261621
 30
0.0
 40
0.1000000000000014
100
AcDbArc
 50
0.0
 51
180.0
  0
LINE
  5
334
330
1F
100
AcDbEntity
  8
0
  6
Continuous
 62
     7
370
    25
100
AcDbLine
 10
46.6421461647
 20
17.3529312429
 30
0.0
 11
46.6421461647
 21
17.5797261621
 31
0.0
  0
CIRCLE
  5
335
330
1F
100
AcDbEntity
  8
0
  6
Continuous
 62
     7
370
    25
100
AcDbCircle
 10
43.2421461647
 20
29.5797261621
 30
0.0
 40
0.1000000000000014
  0
ARC
  5
336
330
1F
100
AcDbEntity
  8
0
  6
Continuous
 62
     7
370
    25
100
AcDbCircle
 10
43.2421461647
 20
17.5797261621
 30
0.0
 40
0.1000000000000014
100
AcDbArc
 50
0.0
 51
180.0
  0
LINE
  5
337
330
1F
100
AcDbEntity
  8
0
  6
Continuous
 62
     7
370
    25
100
AcDbLine
 10
43.1421461647
 20
17.5797261621
 30
0.0
 11
43.1421461647
 21
17.3529312429
 31
0.0
  0
ARC
  5
338
330
1F
100
AcDbEntity
  8
0
  6
Continuous
 62
     7
370
    25
100
AcDbCircle
 10
43.2421461647
 20
17.1797261621
 30
0.0
 40
0.1999999999999999
100
AcDbArc
 50
120.0
 51
60.0
  0
LINE
  5
339
330
1F
100
AcDbEntity
  8
0
  6
Continuous
 62
     7
370
    25
100
AcDbLine
 10
43.3421461647
 20
17.3529312429
 30
0.0
 11
43.3421461647
 21
17.5797261621
 31
0.0
  0
CIRCLE
  5
33A
330
1F
100
AcDbEntity
  8
0
  6
Continuous
 62
     7
370
    25
100
AcDbCircle
 10
44.9921461647
 20
29.5797261621
 30
0.0
 40
0.0999999999999943
  0
LINE
  5
33B
330
1F
100
AcDbEntity
  8
0
  6
Continuous
 62
     7
370
    25
100
AcDbLine
 10
44.8921461647
 20
17.5797261621
 30
0.0
 11
44.8921461647
 21
17.3529312429
 31
0.0
  0
ARC
  5
33C
330
1F
100
AcDbEntity
  8
0
  6
Continuous
 62
     7
370
    25
100
AcDbCircle
 10
44.9921461647
 20
17.1797261621
 30
0.0
 40
0.1999999999999994
100
AcDbArc
 50
120.0
 51
60.0
  0
LINE
  5
33D
330
1F
100
AcDbEntity
  8
0
  6
Continuous
 62
     7
370
    25
100
AcDbLine
 10
45.0921461647
 20
17.5797261621
 30
0.0
 11
45.0921461647
 21
17.3529312429
 31
0.0
  0
ARC
  5
33E
330
1F
100
AcDbEntity
  8
0
  6
Continuous
 62
     7
370
    25
100
AcDbCircle
 10
44.9921461647
 20
17.5797261621
 30
0.0
 40
0.0999999999999979
100
AcDbArc
 50
0.0
 51
180.0
  0
LINE
  5
33F
330
1F
100
AcDbEntity
  8
0
  6
Continuous
 62
     7
370
    25
100
AcDbLine
 10
42.5671461647
 20
30.5547261621
 30
0.0
 11
42.5671461647
 21
30.6397261621
 31
0.0
  0
LINE
  5
340
330
1F
100
AcDbEntity
  8
0
  6
Continuous
 62
     7
370
    25
100
AcDbLine
 10
47.4171461647
 20
30.6397261621
 30
0.0
 11
42.5671461647
 21
30.6397261621
 31
0.0
  0
LINE
  5
341
330
1F
100
AcDbEntity
  8
0
  6
Continuous
 62
     7
370
    25
100
AcDbLine
 10
47.4171461647
 20
30.5547261621
 30
0.0
 11
47.4171461647
 21
30.6397261621
 31
0.0
  0
LINE
  5
342
330
1F
100
AcDbEntity
  8
0
  6
Continuous
 62
     7
370
    25
100
AcDbLine
 10
47.5021461647
 20
30.5547261621
 30
0.0
 11
47.5021461647
 21
14.9047261621
 31
0.0
  0
LINE
  5
343
330
1F
100
AcDbEntity
  8
0
  6
Continuous
 62
     7
370
    25
100
AcDbLine
 10
47.5021461647
 20
30.5547261621
 30
0.0
 11
47.4171461647
 21
30.5547261621
 31
0.0
  0
LINE
  5
344
330
1F
100
AcDbEntity
  8
0
  6
Continuous
 62
     7
370
    25
100
AcDbLine
 10
47.4171461647
 20
14.9047261621
 30
0.0
 11
47.5021461647
 21
14.9047261621
 31
0.0
  0
LINE
  5
345
330
1F
100
AcDbEntity
  8
0
  6
Continuous
 62
     7
370
    25
100
AcDbLine
 10
42.5671461647
 20
14.9047261621
 30
0.0
 11
42.4821461647
 21
14.9047261621
 31
0.0
  0
LINE
  5
346
330
1F
100
AcDbEntity
  8
0
  6
Continuous
 62
     7
370
    25
100
AcDbLine
 10
42.4821461647
 20
30.5547261621
 30
0.0
 11
42.4821461647
 21
14.9047261621
 31
0.0
  0
LINE
  5
347
330
1F
100
AcDbEntity
  8
0
  6
Continuous
 62
     7
370
    25
100
AcDbLine
 10
42.4821461647
 20
30.5547261621
 30
0.0
 11
42.5671461647
 21
30.5547261621
 31
0.0
  0
ARC
  5
348
330
1F
100
AcDbEntity
  8
0
  6
Continuous
 62
     7
370
    25
100
AcDbCircle
 10
47.3871461647
 20
14.9047261621
 30
0.0
 40
0.0750000000000028
100
AcDbArc
 50
293.5781784782
 51
0.0
  0
ARC
  5
349
330
1F
100
AcDbEntity
  8
0
  6
Continuous
 62
     7
370
    25
100
AcDbCircle
 10
47.3871461647
 20
14.9047261621
 30
0.0
 40
0.0400000000000063
100
AcDbArc
 50
318.5903778907
 51
0.0
  0
ARC
  5
34A
330
1F
100
AcDbEntity
  8
0
  6
Continuous
 62
     7
370
    25
100
AcDbCircle
 10
42.5971461647
 20
14.9047261621
 30
0.0
 40
0.074999999999997
100
AcDbArc
 50
180.0
 51
246.4218215218
  0
ARC
  5
34B
330
1F
100
AcDbEntity
  8
0
  6
Continuous
 62
     7
370
    25
100
AcDbCircle
 10
42.5971461647
 20
14.9047261621
 30
0.0
 40
0.0399999999999957
100
AcDbArc
 50
180.0
 51
221.4096221093
  0
ARC
  5
34C
330
1F
100
AcDbEntity
  8
0
  6
Continuous
 62
     7
370
    25
100
AcDbCircle
 10
47.3871461647
 20
30.5647261621
 30
0.0
 40
0.0400000000000063
100
AcDbArc
 50
0.0
 51
41.4096221093
  0
ARC
  5
34D
330
1F
100
AcDbEntity
  8
0
  6
Continuous
 62
     7
370
    25
100
AcDbCircle
 10
47.3871461647
 20
30.5647261621
 30
0.0
 40
0.0750000000000043
100
AcDbArc
 50
0.0
 51
66.4218215218
  0
LINE
  5
34E
330
1F
100
AcDbEntity
  8
0
  6
Continuous
 62
     7
370
    25
100
AcDbLine
 10
47.4271461647
 20
30.5547261621
 30
0.0
 11
47.4271461647
 21
30.5647261621
 31
0.0
  0
LINE
  5
34F
330
1F
100
AcDbEntity
  8
0
  6
Continuous
 62
     7
370
    25
100
AcDbLine
 10
47.4621461647
 20
30.5547261621
 30
0.0
 11
47.4621461647
 21
30.5647261621
 31
0.0
  0
ARC
  5
350
330
1F
100
AcDbEntity
  8
0
  6
Continuous
 62
     7
370
    25
100
AcDbCircle
 10
42.5971461647
 20
30.5647261621
 30
0.0
 40
0.0749999999999986
100
AcDbArc
 50
113.5781784782
 51
180.0
  0
ARC
  5
351
330
1F
100
AcDbEntity
  8
0
  6
Continuous
 62
     7
370
    25
100
AcDbCircle
 10
42.5971461647
 20
30.5647261621
 30
0.0
 40
0.0399999999999957
100
AcDbArc
 50
138.5903778907
 51
180.0
  0
LINE
  5
352
330
1F
100
AcDbEntity
  8
0
  6
Continuous
 62
     7
370
    25
100
AcDbLine
 10
42.5571461647
 20
30.5547261621
 30
0.0
 11
42.5571461647
 21
30.5647261621
 31
0.0
  0
LINE
  5
353
330
1F
100
AcDbEntity
  8
0
  6
Continuous
 62
     7
370
    25
100
AcDbLine
 10
42.5221461647
 20
30.5547261621
 30
0.0
 11
42.5221461647
 21
30.5647261621
 31
0.0
  0
DIMENSION
  5
354
330
1F
100
AcDbEntity
  8
DIMS
100
AcDbDimension
280
     0
  2
_D_2
 10
46.7421461647
 20
32.0001464586
 30
0.0
 11
44.9921461647
 21
32.0001464586
 31
0.0
 70
   160
  1
<>
 71
     2
 42
-1.0
 73
     0
 74
     0
 75
     0
  3
SLDDIMSTYLE1
100
AcDbAlignedDimension
 13
43.2421461647
 23
29.5797261621
 33
0.0
 14
46.7421461647
 24
29.5797261621
 34
0.0
100
AcDbRotatedDimension
  0
DIMENSION
  5
363
330
1F
100
AcDbEntity
  8
DIMS
100
AcDbDimension
280
     0
  2
_D_3
 10
41.24903396
 20
17.5797261621
 30
0.0
 11
41.24903396
 21
23.4739506546
 31
0.0
 70
   160
  1
<>
 71
     2
 42
-1.0
 73
     0
 74
     0
 75
     0
  3
SLDDIMSTYLE0
100
AcDbAlignedDimension
 13
43.2421461647
 23
29.5797261621
 33
0.0
 14
43.2421461647
 24
17.5797261621
 34
0.0
 50
90.0
100
AcDbRotatedDimension
  0
DIMENSION
  5
36E
330
1F
100
AcDbEntity
  8
DIMS
100
AcDbDimension
280
     0
  2
_D_4
 10
41.24903396
 20
14.8297261621
 30
0.0
 11
41.24903396
 21
16.2047261621
 31
0.0
 70
   160
  1
<>
 71
     2
 42
-1.0
 73
     0
 74
     0
 75
     0
  3
SLDDIMSTYLE1
100
AcDbAlignedDimension
 13
43.2421461647
 23
17.5797261621
 33
0.0
 14
42.5671461647
 24
14.8297261621
 34
0.0
 50
90.0
100
AcDbRotatedDimension
  0
MTEXT
  5
37D
330
1F
100
AcDbEntity
  8
NOTES
100
AcDbMText
 10
42.6852343395
 20
13.9631618548
 30
0.0
 40
0.75
 41
0.0
 46
0.0
 71
     1
 72
     1
  1
Back view
  7
SLDTEXTSTYLE1
 73
     1
 44
1.0
  0
MTEXT
  5
37E
330
1F
100
AcDbEntity
  8
NOTES
100
AcDbMText
 10
30.0745809368
 20
33.6715964022
 30
0.0
 40
0.75
 41
0.0
 46
0.0
 71
     1
 72
     1
  1
mounting hole (6)
  7
SLDTEXTSTYLE1
 73
     1
 44
1.0
  0
LEADER
  5
37F
330
1F
100
AcDbEntity
  8
NOTES
100
AcDbLeader
  3
SLDDIMSTYLE2
 76
     3
 10
43.1442001546
 20
29.5998899688
 30
0.0
 10
39.1857165053
 20
33.2983476451
 30
0.0
 10
38.6857165053
 20
33.2983476451
 30
0.0
  0
LINE
  5
380
330
1F
100
AcDbEntity
  8
0
  6
Continuous
 62
     7
370
    25
100
AcDbLine
 10
4.7769777772
 20
39.3209094446
 30
0.0
 11
4.7301027772
 21
39.3209094446
 31
0.0
  0
LINE
  5
381
330
1F
100
AcDbEntity
  8
0
  6
Continuous
 62
     7
370
    25
100
AcDbLine
 10
4.7301027772
 20
38.9929094446
 30
0.0
 11
4.7769777772
 21
38.9929094446
 31
0.0
  0
LINE
  5
382
330
1F
100
AcDbEntity
  8
0
  6
Continuous
 62
     7
370
    25
100
AcDbLine
 10
4.8148527772
 20
39.2659094446
 30
0.0
 11
4.8128527772
 21
39.2659094446
 31
0.0
  0
LINE
  5
383
330
1F
100
AcDbEntity
  8
0
  6
Continuous
 62
     7
370
    25
100
AcDbLine
 10
4.7838527772
 20
39.2659094446
 30
0.0
 11
4.7769777772
 21
39.2659094446
 31
0.0
  0
LINE
  5
384
330
1F
100
AcDbEntity
  8
0
  6
Continuous
 62
     7
370
    25
100
AcDbLine
 10
4.7769777772
 20
39.0479094446
 30
0.0
 11
4.7838527772
 21
39.0479094446
 31
0.0
  0
LINE
  5
385
330
1F
100
AcDbEntity
  8
0
  6
Continuous
 62
     7
370
    25
100
AcDbLine
 10
4.8128527772
 20
39.0479094446
 30
0.0
 11
4.8148527772
 21
39.0479094446
 31
0.0
  0
LINE
  5
386
330
1F
100
AcDbEntity
  8
0
  6
Continuous
 62
     7
370
    25
100
AcDbLine
 10
9.8907277772
 20
38.9929094446
 30
0.0
 11
9.9376027772
 21
38.9929094446
 31
0.0
  0
LINE
  5
387
330
1F
100
AcDbEntity
  8
0
  6
Continuous
 62
     7
370
    25
100
AcDbLine
 10
9.9376027772
 20
39.3209094446
 30
0.0
 11
9.8907277772
 21
39.3209094446
 31
0.0
  0
LINE
  5
388
330
1F
100
AcDbEntity
  8
0
  6
Continuous
 62
     7
370
    25
100
AcDbLine
 10
9.8528527772
 20
39.0479094446
 30
0.0
 11
9.8548527772
 21
39.0479094446
 31
0.0
  0
LINE
  5
389
330
1F
100
AcDbEntity
  8
0
  6
Continuous
 62
     7
370
    25
100
AcDbLine
 10
9.8838527772
 20
39.0479094446
 30
0.0
 11
9.8907277772
 21
39.0479094446
 31
0.0
  0
LINE
  5
38A
330
1F
100
AcDbEntity
  8
0
  6
Continuous
 62
     7
370
    25
100
AcDbLine
 10
9.8907277772
 20
39.2659094446
 30
0.0
 11
9.8838527772
 21
39.2659094446
 31
0.0
  0
LINE
  5
38B
330
1F
100
AcDbEntity
  8
0
  6
Continuous
 62
     7
370
    25
100
AcDbLine
 10
9.8548527772
 20
39.2659094446
 30
0.0
 11
9.8528527772
 21
39.2659094446
 31
0.0
  0
LINE
  5
38C
330
1F
100
AcDbEntity
  8
0
  6
Continuous
 62
     7
370
    25
100
AcDbLine
 10
4.7301027772
 20
39.2839094446
 30
0.0
 11
4.7081027772
 21
39.2839094446
 31
0.0
  0
LINE
  5
38D
330
1F
100
AcDbEntity
  8
0
  6
Continuous
 62
     7
370
    25
100
AcDbLine
 10
4.7081027772
 20
39.0299094446
 30
0.0
 11
4.7301027772
 21
39.0299094446
 31
0.0
  0
LINE
  5
38E
330
1F
100
AcDbEntity
  8
0
  6
Continuous
 62
     7
370
    25
100
AcDbLine
 10
4.7081027772
 20
39.2839094446
 30
0.0
 11
4.6931027772
 21
39.2348466553
 31
0.0
  0
LINE
  5
38F
330
1F
100
AcDbEntity
  8
0
  6
Continuous
 62
     7
370
    25
100
AcDbLine
 10
4.6931027772
 20
39.0789722339
 30
0.0
 11
4.7081027772
 21
39.0299094446
 31
0.0
  0
LINE
  5
390
330
1F
100
AcDbEntity
  8
0
  6
Continuous
 62
     7
370
    25
100
AcDbLine
 10
4.7618527772
 20
39.5505164346
 30
0.0
 11
4.7468527772
 21
39.5014536453
 31
0.0
  0
LINE
  5
391
330
1F
100
AcDbEntity
  8
0
  6
Continuous
 62
     7
370
    25
100
AcDbLine
 10
4.7468527772
 20
39.3455792239
 30
0.0
 11
4.7543950856
 21
39.3209094446
 31
0.0
  0
LINE
  5
392
330
1F
100
AcDbEntity
  8
0
  6
Continuous
 62
     7
370
    25
100
AcDbLine
 10
4.7838527772
 20
39.5505164346
 30
0.0
 11
4.7618527772
 21
39.5505164346
 31
0.0
  0
LINE
  5
393
330
1F
100
AcDbEntity
  8
0
  6
Continuous
 62
     7
370
    25
100
AcDbLine
 10
4.7769777772
 20
39.2965164346
 30
0.0
 11
4.7838527772
 21
39.2965164346
 31
0.0
  0
LINE
  5
394
330
1F
100
AcDbEntity
  8
0
  6
Continuous
 62
     7
370
    25
100
AcDbLine
 10
4.8128527772
 20
39.3610164346
 30
0.0
 11
4.8148527772
 21
39.3610164346
 31
0.0
  0
LINE
  5
395
330
1F
100
AcDbEntity
  8
0
  6
Continuous
 62
     7
370
    25
100
AcDbLine
 10
4.8148527772
 20
39.4860164346
 30
0.0
 11
4.8128527772
 21
39.4860164346
 31
0.0
  0
LINE
  5
396
330
1F
100
AcDbEntity
  8
0
  6
Continuous
 62
     7
370
    25
100
AcDbLine
 10
9.9376027772
 20
39.0299094446
 30
0.0
 11
9.9596027772
 21
39.0299094446
 31
0.0
  0
LINE
  5
397
330
1F
100
AcDbEntity
  8
0
  6
Continuous
 62
     7
370
    25
100
AcDbLine
 10
9.9596027772
 20
39.2839094446
 30
0.0
 11
9.9376027772
 21
39.2839094446
 31
0.0
  0
LINE
  5
398
330
1F
100
AcDbEntity
  8
0
  6
Continuous
 62
     7
370
    25
100
AcDbLine
 10
9.9596027772
 20
39.0299094446
 30
0.0
 11
9.9746027772
 21
39.0789722339
 31
0.0
  0
LINE
  5
399
330
1F
100
AcDbEntity
  8
0
  6
Continuous
 62
     7
370
    25
100
AcDbLine
 10
9.9746027772
 20
39.2348466553
 30
0.0
 11
9.9596027772
 21
39.2839094446
 31
0.0
  0
LINE
  5
39A
330
1F
100
AcDbEntity
  8
0
  6
Continuous
 62
     7
370
    25
100
AcDbLine
 10
9.8838527772
 20
39.2965164346
 30
0.0
 11
9.8907277772
 21
39.2965164346
 31
0.0
  0
LINE
  5
39B
330
1F
100
AcDbEntity
  8
0
  6
Continuous
 62
     7
370
    25
100
AcDbLine
 10
9.9058527772
 20
39.5505164346
 30
0.0
 11
9.8838527772
 21
39.5505164346
 31
0.0
  0
LINE
  5
39C
330
1F
100
AcDbEntity
  8
0
  6
Continuous
 62
     7
370
    25
100
AcDbLine
 10
9.9133104687
 20
39.3209094446
 30
0.0
 11
9.9208527772
 21
39.3455792239
 31
0.0
  0
LINE
  5
39D
330
1F
100
AcDbEntity
  8
0
  6
Continuous
 62
     7
370
    25
100
AcDbLine
 10
9.9208527772
 20
39.5014536453
 30
0.0
 11
9.9058527772
 21
39.5505164346
 31
0.0
  0
LINE
  5
39E
330
1F
100
AcDbEntity
  8
0
  6
Continuous
 62
     7
370
    25
100
AcDbLine
 10
9.8548527772
 20
39.4860164346
 30
0.0
 11
9.8528527772
 21
39.4860164346
 31
0.0
  0
LINE
  5
39F
330
1F
100
AcDbEntity
  8
0
  6
Continuous
 62
     7
370
    25
100
AcDbLine
 10
9.8528527772
 20
39.3610164346
 30
0.0
 11
9.8548527772
 21
39.3610164346
 31
0.0
  0
LINE
  5
3A0
330
1F
100
AcDbEntity
  8
0
  6
Continuous
 62
     7
370
    25
100
AcDbLine
 10
4.7301027772
 20
39.0942861563
 30
0.0
 11
4.7301027772
 21
39.3209094446
 31
0.0
  0
LINE
  5
3A1
330
1F
100
AcDbEntity
  8
0
  6
Continuous
 62
     7
370
    25
100
AcDbLine
 10
4.7301027772
 20
38.9929094446
 30
0.0
 11
4.7301027772
 21
39.0942861563
 31
0.0
  0
LINE
  5
3A2
330
1F
100
AcDbEntity
  8
0
  6
Continuous
 62
     7
370
    25
100
AcDbLine
 10
4.7769777772
 20
39.0942861563
 30
0.0
 11
4.7769777772
 21
39.3209094446
 31
0.0
  0
LINE
  5
3A3
330
1F
100
AcDbEntity
  8
0
  6
Continuous
 62
     7
370
    25
100
AcDbLine
 10
4.7769777772
 20
38.9929094446
 30
0.0
 11
4.7769777772
 21
39.0942861563
 31
0.0
  0
LINE
  5
3A4
330
1F
100
AcDbEntity
  8
0
  6
Continuous
 62
     7
370
    25
100
AcDbLine
 10
9.9376027772
 20
39.3209094446
 30
0.0
 11
9.9376027772
 21
38.9929094446
 31
0.0
  0
LINE
  5
3A5
330
1F
100
AcDbEntity
  8
0
  6
Continuous
 62
     7
370
    25
100
AcDbLine
 10
9.8907277772
 20
39.3209094446
 30
0.0
 11
9.8907277772
 21
38.9929094446
 31
0.0
  0
LINE
  5
3A6
330
1F
100
AcDbEntity
  8
0
  6
Continuous
 62
     7
370
    25
100
AcDbLine
 10
7.5857971024
 20
39.6735164346
 30
0.0
 11
7.5874107259
 21
39.6946709546
 31
0.0
  0
LINE
  5
3A7
330
1F
100
AcDbEntity
  8
0
  6
Continuous
 62
     7
370
    25
100
AcDbLine
 10
7.4088936459
 20
39.6946709546
 30
0.0
 11
7.4072800223
 21
39.6735164346
 31
0.0
  0
LINE
  5
3A8
330
1F
100
AcDbEntity
  8
0
  6
Continuous
 62
     7
370
    25
100
AcDbLine
 10
7.3843982251
 20
40.4056577218
 30
0.0
 11
7.2946589128
 21
40.4125028532
 31
0.0
  0
ARC
  5
3A9
330
1F
100
AcDbEntity
  8
0
  6
Continuous
 62
     7
370
    25
100
AcDbCircle
 10
7.3338527772
 20
40.3346709546
 30
0.0
 40
0.0999999999999978
100
AcDbArc
 50
292.3817256812
 51
238.8943577804
  0
LINE
  5
3AA
330
1F
100
AcDbEntity
  8
0
  6
Continuous
 62
     7
370
    25
100
AcDbLine
 10
7.3719303247
 20
40.2422042018
 30
0.0
 11
7.3843982251
 21
40.4056577218
 31
0.0
  0
LINE
  5
3AB
330
1F
100
AcDbEntity
  8
0
  6
Continuous
 62
     7
370
    25
100
AcDbLine
 10
7.2946589128
 20
40.4125028532
 30
0.0
 11
7.2821910124
 21
40.2490493331
 31
0.0
  0
LINE
  5
3AC
330
1F
100
AcDbEntity
  8
0
  6
Continuous
 62
     7
370
    25
100
AcDbLine
 10
7.2661375323
 20
40.0385890518
 30
0.0
 11
7.3558768446
 21
40.0317439205
 31
0.0
  0
CIRCLE
  5
3AD
330
1F
100
AcDbEntity
  8
0
  6
Continuous
 62
     7
370
    25
100
AcDbCircle
 10
7.3338527772
 20
40.3346709546
 30
0.0
 40
0.3150000000000053
  0
LINE
  5
3AE
330
1F
100
AcDbEntity
  8
0
  6
Continuous
 62
     7
370
    25
100
AcDbLine
 10
7.3558768446
 20
40.0317439205
 30
0.0
 11
7.3719303247
 21
40.2422042018
 31
0.0
  0
LINE
  5
3AF
330
1F
100
AcDbEntity
  8
0
  6
Continuous
 62
     7
370
    25
100
AcDbLine
 10
7.2821910124
 20
40.2490493331
 30
0.0
 11
7.2661375323
 21
40.0385890518
 31
0.0
  0
CIRCLE
  5
3B0
330
1F
100
AcDbEntity
  8
0
  6
Continuous
 62
     7
370
    25
100
AcDbCircle
 10
7.3338527772
 20
40.3346709546
 30
0.0
 40
0.325000000000008
  0
CIRCLE
  5
3B1
330
1F
100
AcDbEntity
  8
0
  6
Continuous
 62
     7
370
    25
100
AcDbCircle
 10
7.3338527772
 20
40.3346709546
 30
0.0
 40
0.4434999999999954
  0
LINE
  5
3B2
330
1F
100
AcDbEntity
  8
0
  6
Continuous
 62
     7
370
    25
100
AcDbLine
 10
4.7081027772
 20
39.2839094446
 30
0.0
 11
4.7081027772
 21
39.0299094446
 31
0.0
  0
LINE
  5
3B3
330
1F
100
AcDbEntity
  8
0
  6
Continuous
 62
     7
370
    25
100
AcDbLine
 10
4.6931027772
 20
39.0789722339
 30
0.0
 11
4.6931027772
 21
39.2348466553
 31
0.0
  0
LINE
  5
3B4
330
1F
100
AcDbEntity
  8
0
  6
Continuous
 62
     7
370
    25
100
AcDbLine
 10
4.7468527772
 20
39.3455792239
 30
0.0
 11
4.7468527772
 21
39.5014536453
 31
0.0
  0
LINE
  5
3B5
330
1F
100
AcDbEntity
  8
0
  6
Continuous
 62
     7
370
    25
100
AcDbLine
 10
4.7618527772
 20
39.5505164346
 30
0.0
 11
4.7618527772
 21
39.3209094446
 31
0.0
  0
LINE
  5
3B6
330
1F
100
AcDbEntity
  8
0
  6
Continuous
 62
     7
370
    25
100
AcDbLine
 10
9.9596027772
 20
39.0299094446
 30
0.0
 11
9.9596027772
 21
39.2839094446
 31
0.0
  0
LINE
  5
3B7
330
1F
100
AcDbEntity
  8
0
  6
Continuous
 62
     7
370
    25
100
AcDbLine
 10
9.9746027772
 20
39.2348466553
 30
0.0
 11
9.9746027772
 21
39.0789722339
 31
0.0
  0
LINE
  5
3B8
330
1F
100
AcDbEntity
  8
0
  6
Continuous
 62
     7
370
    25
100
AcDbLine
 10
9.9058527772
 20
39.5090594611
 30
0.0
 11
9.9058527772
 21
39.5505164346
 31
0.0
  0
LINE
  5
3B9
330
1F
100
AcDbEntity
  8
0
  6
Continuous
 62
     7
370
    25
100
AcDbLine
 10
9.9058527772
 20
39.3209094446
 30
0.0
 11
9.9058527772
 21
39.5090594611
 31
0.0
  0
LINE
  5
3BA
330
1F
100
AcDbEntity
  8
0
  6
Continuous
 62
     7
370
    25
100
AcDbLine
 10
9.9208527772
 20
39.4760123785
 30
0.0
 11
9.9208527772
 21
39.3455792239
 31
0.0
  0
LINE
  5
3BB
330
1F
100
AcDbEntity
  8
0
  6
Continuous
 62
     7
370
    25
100
AcDbLine
 10
9.9208527772
 20
39.5014536453
 30
0.0
 11
9.9208527772
 21
39.4760123785
 31
0.0
  0
LINE
  5
3BC
330
1F
100
AcDbEntity
  8
0
  6
Continuous
 62
     7
370
    25
100
AcDbLine
 10
4.8938527772
 20
38.8899960441
 30
0.0
 11
4.8148527772
 21
38.8899960441
 31
0.0
  0
LINE
  5
3BD
330
1F
100
AcDbEntity
  8
0
  6
Continuous
 62
     7
370
    25
100
AcDbLine
 10
4.8148527772
 20
39.6735164346
 30
0.0
 11
4.8148527772
 21
38.8899960441
 31
0.0
  0
LINE
  5
3BE
330
1F
100
AcDbEntity
  8
0
  6
Continuous
 62
     7
370
    25
100
AcDbLine
 10
4.8148527772
 20
39.6735164346
 30
0.0
 11
4.8938527772
 21
39.6735164346
 31
0.0
  0
LINE
  5
3BF
330
1F
100
AcDbEntity
  8
0
  6
Continuous
 62
     7
370
    25
100
AcDbLine
 10
9.8528527772
 20
39.6735164346
 30
0.0
 11
9.8528527772
 21
38.8899960441
 31
0.0
  0
LINE
  5
3C0
330
1F
100
AcDbEntity
  8
0
  6
Continuous
 62
     7
370
    25
100
AcDbLine
 10
9.7738527772
 20
38.8899960441
 30
0.0
 11
9.8528527772
 21
38.8899960441
 31
0.0
  0
LINE
  5
3C1
330
1F
100
AcDbEntity
  8
0
  6
Continuous
 62
     7
370
    25
100
AcDbLine
 10
9.8528527772
 20
39.6735164346
 30
0.0
 11
9.7738527772
 21
39.6735164346
 31
0.0
  0
LINE
  5
3C2
330
1F
100
AcDbEntity
  8
0
  6
Continuous
 62
     7
370
    25
100
AcDbLine
 10
9.7651527772
 20
38.8899960441
 30
0.0
 11
9.7738527772
 21
38.8899960441
 31
0.0
  0
LINE
  5
3C3
330
1F
100
AcDbEntity
  8
0
  6
Continuous
 62
     7
370
    25
100
AcDbLine
 10
9.7651527772
 20
38.8812960441
 30
0.0
 11
9.7651527772
 21
38.8899960441
 31
0.0
  0
LINE
  5
3C4
330
1F
100
AcDbEntity
  8
0
  6
Continuous
 62
     7
370
    25
100
AcDbLine
 10
9.7998527772
 20
38.8812960441
 30
0.0
 11
9.7651527772
 21
38.8812960441
 31
0.0
  0
ARC
  5
3C5
330
1F
100
AcDbEntity
  8
0
  6
Continuous
 62
     7
370
    25
100
AcDbCircle
 10
9.7998527772
 20
38.8562960441
 30
0.0
 40
0.0249999999999986
100
AcDbArc
 50
0.0
 51
90.0
  0
LINE
  5
3C6
330
1F
100
AcDbEntity
  8
0
  6
Continuous
 62
     7
370
    25
100
AcDbLine
 10
9.8248527772
 20
38.8562960441
 30
0.0
 11
9.8248527772
 21
38.7235164346
 31
0.0
  0
ARC
  5
3C7
330
1F
100
AcDbEntity
  8
0
  6
Continuous
 62
     7
370
    25
100
AcDbCircle
 10
9.6348527772
 20
38.7235164346
 30
0.0
 40
0.1900000000000048
100
AcDbArc
 50
270.0
 51
360.0
  0
LINE
  5
3C8
330
1F
100
AcDbEntity
  8
0
  6
Continuous
 62
     7
370
    25
100
AcDbLine
 10
9.6348527772
 20
38.5335164346
 30
0.0
 11
9.6048527772
 21
38.5335164346
 31
0.0
  0
LINE
  5
3C9
330
1F
100
AcDbEntity
  8
0
  6
Continuous
 62
     7
370
    25
100
AcDbLine
 10
9.6048527772
 20
38.5335164346
 30
0.0
 11
9.6048527772
 21
38.5235164346
 31
0.0
  0
LINE
  5
3CA
330
1F
100
AcDbEntity
  8
0
  6
Continuous
 62
     7
370
    25
100
AcDbLine
 10
5.0628527772
 20
38.5335164346
 30
0.0
 11
5.0628527772
 21
38.5235164346
 31
0.0
  0
LINE
  5
3CB
330
1F
100
AcDbEntity
  8
0
  6
Continuous
 62
     7
370
    25
100
AcDbLine
 10
5.0328527772
 20
38.5335164346
 30
0.0
 11
5.0628527772
 21
38.5335164346
 31
0.0
  0
ARC
  5
3CC
330
1F
100
AcDbEntity
  8
0
  6
Continuous
 62
     7
370
    25
100
AcDbCircle
 10
5.0328527772
 20
38.7235164346
 30
0.0
 40
0.1900000000000057
100
AcDbArc
 50
180.0
 51
270.0
  0
LINE
  5
3CD
330
1F
100
AcDbEntity
  8
0
  6
Continuous
 62
     7
370
    25
100
AcDbLine
 10
4.8428527772
 20
38.8562960441
 30
0.0
 11
4.8428527772
 21
38.7235164346
 31
0.0
  0
ARC
  5
3CE
330
1F
100
AcDbEntity
  8
0
  6
Continuous
 62
     7
370
    25
100
AcDbCircle
 10
4.8678527772
 20
38.8562960441
 30
0.0
 40
0.0250000000000057
100
AcDbArc
 50
90.0
 51
180.0
  0
LINE
  5
3CF
330
1F
100
AcDbEntity
  8
0
  6
Continuous
 62
     7
370
    25
100
AcDbLine
 10
4.8678527772
 20
38.8812960441
 30
0.0
 11
4.9025527772
 21
38.8812960441
 31
0.0
  0
LINE
  5
3D0
330
1F
100
AcDbEntity
  8
0
  6
Continuous
 62
     7
370
    25
100
AcDbLine
 10
4.9025527772
 20
38.8812960441
 30
0.0
 11
4.9025527772
 21
38.8899960441
 31
0.0
  0
LINE
  5
3D1
330
1F
100
AcDbEntity
  8
0
  6
Continuous
 62
     7
370
    25
100
AcDbLine
 10
4.9025527772
 20
38.8899960441
 30
0.0
 11
4.8938527772
 21
38.8899960441
 31
0.0
  0
LINE
  5
3D2
330
1F
100
AcDbEntity
  8
0
  6
Continuous
 62
     7
370
    25
100
AcDbLine
 10
6.1251527772
 20
39.6485164346
 30
0.0
 11
6.1251527772
 21
39.5958164346
 31
0.0
  0
LINE
  5
3D3
330
1F
100
AcDbEntity
  8
0
  6
Continuous
 62
     7
370
    25
100
AcDbLine
 10
6.1251527772
 20
39.5958164346
 30
0.0
 11
6.1338527772
 21
39.5958164346
 31
0.0
  0
LINE
  5
3D4
330
1F
100
AcDbEntity
  8
0
  6
Continuous
 62
     7
370
    25
100
AcDbLine
 10
6.1338527772
 20
39.5958164346
 30
0.0
 11
6.1338527772
 21
39.6045164346
 31
0.0
  0
LINE
  5
3D5
330
1F
100
AcDbEntity
  8
0
  6
Continuous
 62
     7
370
    25
100
AcDbLine
 10
8.5425527772
 20
39.6485164346
 30
0.0
 11
8.5425527772
 21
39.5958164346
 31
0.0
  0
LINE
  5
3D6
330
1F
100
AcDbEntity
  8
0
  6
Continuous
 62
     7
370
    25
100
AcDbLine
 10
8.5425527772
 20
39.5958164346
 30
0.0
 11
8.5338527772
 21
39.5958164346
 31
0.0
  0
LINE
  5
3D7
330
1F
100
AcDbEntity
  8
0
  6
Continuous
 62
     7
370
    25
100
AcDbLine
 10
6.1001527772
 20
39.6735164346
 30
0.0
 11
4.8938527772
 21
39.6735164346
 31
0.0
  0
LINE
  5
3D8
330
1F
100
AcDbEntity
  8
0
  6
Continuous
 62
     7
370
    25
100
AcDbLine
 10
8.5675527772
 20
39.6735164346
 30
0.0
 11
9.7738527772
 21
39.6735164346
 31
0.0
  0
LINE
  5
3D9
330
1F
100
AcDbEntity
  8
0
  6
Continuous
 62
     7
370
    25
100
AcDbLine
 10
8.5338527772
 20
39.5958164346
 30
0.0
 11
8.5338527772
 21
39.6045164346
 31
0.0
  0
ARC
  5
3DA
330
1F
100
AcDbEntity
  8
0
  6
Continuous
 62
     7
370
    25
100
AcDbCircle
 10
8.5675527772
 20
39.6485164346
 30
0.0
 40
0.0250000000000004
100
AcDbArc
 50
90.0
 51
180.0
  0
ARC
  5
3DB
330
1F
100
AcDbEntity
  8
0
  6
Continuous
 62
     7
370
    25
100
AcDbCircle
 10
6.1001527772
 20
39.6485164346
 30
0.0
 40
0.0250000000000066
100
AcDbArc
 50
0.0
 51
90.0
  0
LINE
  5
3DC
330
1F
100
AcDbEntity
  8
0
  6
Continuous
 62
     7
370
    25
100
AcDbLine
 10
5.0628527772
 20
38.4623527198
 30
0.0
 11
5.0628527772
 21
38.5235164346
 31
0.0
  0
LINE
  5
3DD
330
1F
100
AcDbEntity
  8
0
  6
Continuous
 62
     7
370
    25
100
AcDbLine
 10
9.6048527772
 20
38.4623527198
 30
0.0
 11
9.6048527772
 21
38.5235164346
 31
0.0
  0
LINE
  5
3DE
330
1F
100
AcDbEntity
  8
0
  6
Continuous
 62
     7
370
    25
100
AcDbLine
 10
9.6048527772
 20
38.4445164346
 30
0.0
 11
5.0628527772
 21
38.4445164346
 31
0.0
  0
LINE
  5
3DF
330
1F
100
AcDbEntity
  8
0
  6
Continuous
 62
     7
370
    25
100
AcDbLine
 10
8.5338527772
 20
39.6735164346
 30
0.0
 11
6.1338527772
 21
39.6735164346
 31
0.0
  0
LINE
  5
3E0
330
1F
100
AcDbEntity
  8
0
  6
Continuous
 62
     7
370
    25
100
AcDbLine
 10
8.5338527772
 20
39.6045164346
 30
0.0
 11
8.5338527772
 21
39.6735164346
 31
0.0
  0
LINE
  5
3E1
330
1F
100
AcDbEntity
  8
0
  6
Continuous
 62
     7
370
    25
100
AcDbLine
 10
6.1338527772
 20
39.6045164346
 30
0.0
 11
6.1338527772
 21
39.6735164346
 31
0.0
  0
LINE
  5
3E2
330
1F
100
AcDbEntity
  8
0
  6
Continuous
 62
     7
370
    25
100
AcDbLine
 10
4.7838527772
 20
39.8735164346
 30
0.0
 11
4.8128527772
 21
39.8735164346
 31
0.0
  0
LINE
  5
3E3
330
1F
100
AcDbEntity
  8
0
  6
Continuous
 62
     7
370
    25
100
AcDbLine
 10
4.8128527772
 20
39.8735164346
 30
0.0
 11
4.8128527772
 21
39.7235164346
 31
0.0
  0
LINE
  5
3E4
330
1F
100
AcDbEntity
  8
0
  6
Continuous
 62
     7
370
    25
100
AcDbLine
 10
4.7838527772
 20
39.7235164346
 30
0.0
 11
4.7838527772
 21
39.8735164346
 31
0.0
  0
LINE
  5
3E5
330
1F
100
AcDbEntity
  8
0
  6
Continuous
 62
     7
370
    25
100
AcDbLine
 10
4.8128527772
 20
38.7235164346
 30
0.0
 11
4.8128527772
 21
39.7235164346
 31
0.0
  0
LINE
  5
3E6
330
1F
100
AcDbEntity
  8
0
  6
Continuous
 62
     7
370
    25
100
AcDbLine
 10
4.7838527772
 20
38.7235164346
 30
0.0
 11
4.7838527772
 21
39.7235164346
 31
0.0
  0
LINE
  5
3E7
330
1F
100
AcDbEntity
  8
0
  6
Continuous
 62
     7
370
    25
100
AcDbLine
 10
9.8838527772
 20
38.7235164346
 30
0.0
 11
9.8838527772
 21
39.7235164346
 31
0.0
  0
LINE
  5
3E8
330
1F
100
AcDbEntity
  8
0
  6
Continuous
 62
     7
370
    25
100
AcDbLine
 10
9.8548527772
 20
38.7235164346
 30
0.0
 11
9.8548527772
 21
39.7235164346
 31
0.0
  0
LINE
  5
3E9
330
1F
100
AcDbEntity
  8
0
  6
Continuous
 62
     7
370
    25
100
AcDbLine
 10
5.0628527772
 20
38.4623527198
 30
0.0
 11
5.0628527772
 21
38.4445164346
 31
0.0
  0
ARC
  5
3EA
330
1F
100
AcDbEntity
  8
0
  6
Continuous
 62
     7
370
    25
100
AcDbCircle
 10
5.0628527772
 20
38.7235164346
 30
0.0
 40
0.2790000000000035
100
AcDbArc
 50
180.0
 51
270.0
  0
ARC
  5
3EB
330
1F
100
AcDbEntity
  8
0
  6
Continuous
 62
     7
370
    25
100
AcDbCircle
 10
5.0628527772
 20
38.7235164346
 30
0.0
 40
0.25
100
AcDbArc
 50
180.0
 51
270.0
  0
LINE
  5
3EC
330
1F
100
AcDbEntity
  8
0
  6
Continuous
 62
     7
370
    25
100
AcDbLine
 10
9.6048527772
 20
38.4623527198
 30
0.0
 11
9.6048527772
 21
38.4445164346
 31
0.0
  0
ARC
  5
3ED
330
1F
100
AcDbEntity
  8
0
  6
Continuous
 62
     7
370
    25
100
AcDbCircle
 10
9.6048527772
 20
38.7235164346
 30
0.0
 40
0.2500000000000071
100
AcDbArc
 50
270.0
 51
360.0
  0
ARC
  5
3EE
330
1F
100
AcDbEntity
  8
0
  6
Continuous
 62
     7
370
    25
100
AcDbCircle
 10
9.6048527772
 20
38.7235164346
 30
0.0
 40
0.2790000000000106
100
AcDbArc
 50
270.0
 51
0.0
  0
LINE
  5
3EF
330
1F
100
AcDbEntity
  8
0
  6
Continuous
 62
     7
370
    25
100
AcDbLine
 10
9.8838527772
 20
39.8735164346
 30
0.0
 11
9.8548527772
 21
39.8735164346
 31
0.0
  0
LINE
  5
3F0
330
1F
100
AcDbEntity
  8
0
  6
Continuous
 62
     7
370
    25
100
AcDbLine
 10
9.8838527772
 20
39.7235164346
 30
0.0
 11
9.8838527772
 21
39.8735164346
 31
0.0
  0
LINE
  5
3F1
330
1F
100
AcDbEntity
  8
0
  6
Continuous
 62
     7
370
    25
100
AcDbLine
 10
9.8548527772
 20
39.8735164346
 30
0.0
 11
9.8548527772
 21
39.7235164346
 31
0.0
  0
LINE
  5
3F2
330
1F
100
AcDbEntity
  8
0
  6
Continuous
 62
     7
370
    25
100
AcDbLine
 10
9.8838527772
 20
39.8735164346
 30
0.0
 11
9.8838527772
 21
40.2244497699
 31
0.0
  0
LINE
  5
3F3
330
1F
100
AcDbEntity
  8
0
  6
Continuous
 62
     7
370
    25
100
AcDbLine
 10
9.8548527772
 20
40.2244497699
 30
0.0
 11
9.8548527772
 21
39.8735164346
 31
0.0
  0
LINE
  5
3F4
330
1F
100
AcDbEntity
  8
0
  6
Continuous
 62
     7
370
    25
100
AcDbLine
 10
4.8128527772
 20
40.2244497699
 30
0.0
 11
4.8128527772
 21
39.8735164346
 31
0.0
  0
LINE
  5
3F5
330
1F
100
AcDbEntity
  8
0
  6
Continuous
 62
     7
370
    25
100
AcDbLine
 10
4.7838527772
 20
39.8735164346
 30
0.0
 11
4.7838527772
 21
40.2244497699
 31
0.0
  0
LINE
  5
3F6
330
1F
100
AcDbEntity
  8
0
  6
Continuous
 62
     7
370
    25
100
AcDbLine
 10
9.8838527772
 20
40.2244497699
 30
0.0
 11
9.8838527772
 21
42.2980608777
 31
0.0
  0
LINE
  5
3F7
330
1F
100
AcDbEntity
  8
0
  6
Continuous
 62
     7
370
    25
100
AcDbLine
 10
9.8548527772
 20
40.2244497699
 30
0.0
 11
9.8548527772
 21
42.2980608777
 31
0.0
  0
LINE
  5
3F8
330
1F
100
AcDbEntity
  8
0
  6
Continuous
 62
     7
370
    25
100
AcDbLine
 10
4.8128527772
 20
40.2244497699
 30
0.0
 11
4.8128527772
 21
42.2980608777
 31
0.0
  0
LINE
  5
3F9
330
1F
100
AcDbEntity
  8
0
  6
Continuous
 62
     7
370
    25
100
AcDbLine
 10
4.7838527772
 20
40.2244497699
 30
0.0
 11
4.7838527772
 21
42.2980608777
 31
0.0
  0
LINE
  5
3FA
330
1F
100
AcDbEntity
  8
0
  6
Continuous
 62
     7
370
    25
100
AcDbLine
 10
4.7838527772
 20
42.5320164346
 30
0.0
 11
4.8128527772
 21
42.5320164346
 31
0.0
  0
LINE
  5
3FB
330
1F
100
AcDbEntity
  8
0
  6
Continuous
 62
     7
370
    25
100
AcDbLine
 10
4.8128527772
 20
42.5320164346
 30
0.0
 11
4.8128527772
 21
42.2980608777
 31
0.0
  0
LINE
  5
3FC
330
1F
100
AcDbEntity
  8
0
  6
Continuous
 62
     7
370
    25
100
AcDbLine
 10
4.7838527772
 20
42.2980608777
 30
0.0
 11
4.7838527772
 21
42.5320164346
 31
0.0
  0
LINE
  5
3FD
330
1F
100
AcDbEntity
  8
0
  6
Continuous
 62
     7
370
    25
100
AcDbLine
 10
9.8838527772
 20
42.5320164346
 30
0.0
 11
9.8548527772
 21
42.5320164346
 31
0.0
  0
LINE
  5
3FE
330
1F
100
AcDbEntity
  8
0
  6
Continuous
 62
     7
370
    25
100
AcDbLine
 10
9.8838527772
 20
42.2980608777
 30
0.0
 11
9.8838527772
 21
42.5320164346
 31
0.0
  0
LINE
  5
3FF
330
1F
100
AcDbEntity
  8
0
  6
Continuous
 62
     7
370
    25
100
AcDbLine
 10
9.8548527772
 20
42.5320164346
 30
0.0
 11
9.8548527772
 21
42.2980608777
 31
0.0
  0
LINE
  5
400
330
1F
100
AcDbEntity
  8
0
  6
Continuous
 62
     7
370
    25
100
AcDbLine
 10
9.7183527772
 20
42.3251709546
 30
0.0
 11
9.7183527772
 21
42.3146709546
 31
0.0
  0
LINE
  5
401
330
1F
100
AcDbEntity
  8
0
  6
Continuous
 62
     7
370
    25
100
AcDbLine
 10
9.7183527772
 20
42.3146709546
 30
0.0
 11
9.7288527772
 21
42.3146709546
 31
0.0
  0
ARC
  5
402
330
1F
100
AcDbEntity
  8
0
  6
Continuous
 62
     7
370
    25
100
AcDbCircle
 10
8.5638527772
 20
39.6446709546
 30
0.0
 40
0.0499999999999948
100
AcDbArc
 50
35.2334726274
 51
90.0
  0
LINE
  5
403
330
1F
100
AcDbEntity
  8
0
  6
Continuous
 62
     7
370
    25
100
AcDbLine
 10
8.5638527772
 20
39.6946709546
 30
0.0
 11
6.1038527772
 21
39.6946709546
 31
0.0
  0
ARC
  5
404
330
1F
100
AcDbEntity
  8
0
  6
Continuous
 62
     7
370
    25
100
AcDbCircle
 10
6.1038527772
 20
39.6446709546
 30
0.0
 40
0.0499999999999934
100
AcDbArc
 50
90.0
 51
144.7665273726
  0
LINE
  5
405
330
1F
100
AcDbEntity
  8
0
  6
Continuous
 62
     7
370
    25
100
AcDbLine
 10
4.9493527772
 20
42.3146709546
 30
0.0
 11
4.9388527772
 21
42.3146709546
 31
0.0
  0
LINE
  5
406
330
1F
100
AcDbEntity
  8
0
  6
Continuous
 62
     7
370
    25
100
AcDbLine
 10
4.9493527772
 20
42.3251709546
 30
0.0
 11
4.9493527772
 21
42.3146709546
 31
0.0
  0
LINE
  5
407
330
1F
100
AcDbEntity
  8
0
  6
Continuous
 62
     7
370
    25
100
AcDbLine
 10
4.9338527772
 20
42.3251709546
 30
0.0
 11
4.9493527772
 21
42.3251709546
 31
0.0
  0
ARC
  5
408
330
1F
100
AcDbEntity
  8
0
  6
Continuous
 62
     7
370
    25
100
AcDbCircle
 10
4.9338527772
 20
42.3501709546
 30
0.0
 40
0.0250000000000004
100
AcDbArc
 50
180.0
 51
270.0
  0
LINE
  5
409
330
1F
100
AcDbEntity
  8
0
  6
Continuous
 62
     7
370
    25
100
AcDbLine
 10
4.9088527772
 20
42.3501709546
 30
0.0
 11
4.9088527772
 21
42.5646709546
 31
0.0
  0
LINE
  5
40A
330
1F
100
AcDbEntity
  8
0
  6
Continuous
 62
     7
370
    25
100
AcDbLine
 10
9.7588527772
 20
42.3501709546
 30
0.0
 11
9.7588527772
 21
42.5646709546
 31
0.0
  0
ARC
  5
40B
330
1F
100
AcDbEntity
  8
0
  6
Continuous
 62
     7
370
    25
100
AcDbCircle
 10
9.7338527772
 20
42.3501709546
 30
0.0
 40
0.0250000000000004
100
AcDbArc
 50
270.0
 51
0.0
  0
LINE
  5
40C
330
1F
100
AcDbEntity
  8
0
  6
Continuous
 62
     7
370
    25
100
AcDbLine
 10
9.7338527772
 20
42.3251709546
 30
0.0
 11
9.7183527772
 21
42.3251709546
 31
0.0
  0
LINE
  5
40D
330
1F
100
AcDbEntity
  8
0
  6
Continuous
 62
     7
370
    25
100
AcDbLine
 10
4.8638527772
 20
39.6735164346
 30
0.0
 11
4.8638527772
 21
42.3146709546
 31
0.0
  0
LINE
  5
40E
330
1F
100
AcDbEntity
  8
0
  6
Continuous
 62
     7
370
    25
100
AcDbLine
 10
4.9388527772
 20
42.3146709546
 30
0.0
 11
4.8638527772
 21
42.3146709546
 31
0.0
  0
LINE
  5
40F
330
1F
100
AcDbEntity
  8
0
  6
Continuous
 62
     7
370
    25
100
AcDbLine
 10
9.7288527772
 20
42.3146709546
 30
0.0
 11
9.8038527772
 21
42.3146709546
 31
0.0
  0
LINE
  5
410
330
1F
100
AcDbEntity
  8
0
  6
Continuous
 62
     7
370
    25
100
AcDbLine
 10
9.8038527772
 20
39.6735164346
 30
0.0
 11
9.8038527772
 21
42.3146709546
 31
0.0
  0
LINE
  5
411
330
1F
100
AcDbEntity
  8
0
  6
Continuous
 62
     7
370
    25
100
AcDbLine
 10
4.9088527772
 20
42.6496709546
 30
0.0
 11
4.9088527772
 21
42.5646709546
 31
0.0
  0
LINE
  5
412
330
1F
100
AcDbEntity
  8
0
  6
Continuous
 62
     7
370
    25
100
AcDbLine
 10
9.7588527772
 20
42.6496709546
 30
0.0
 11
4.9088527772
 21
42.6496709546
 31
0.0
  0
LINE
  5
413
330
1F
100
AcDbEntity
  8
0
  6
Continuous
 62
     7
370
    25
100
AcDbLine
 10
9.7588527772
 20
42.6496709546
 30
0.0
 11
9.7588527772
 21
42.5646709546
 31
0.0
  0
LINE
  5
414
330
1F
100
AcDbEntity
  8
0
  6
Continuous
 62
     7
370
    25
100
AcDbLine
 10
4.8238527772
 20
42.5646709546
 30
0.0
 11
4.8238527772
 21
39.8146709546
 31
0.0
  0
LINE
  5
415
330
1F
100
AcDbEntity
  8
0
  6
Continuous
 62
     7
370
    25
100
AcDbLine
 10
4.8588527772
 20
42.5646709546
 30
0.0
 11
4.8588527772
 21
39.8146709546
 31
0.0
  0
LINE
  5
416
330
1F
100
AcDbEntity
  8
0
  6
Continuous
 62
     7
370
    25
100
AcDbLine
 10
9.8438527772
 20
42.5646709546
 30
0.0
 11
9.8438527772
 21
39.8146709546
 31
0.0
  0
LINE
  5
417
330
1F
100
AcDbEntity
  8
0
  6
Continuous
 62
     7
370
    25
100
AcDbLine
 10
9.8088527772
 20
42.5646709546
 30
0.0
 11
9.8088527772
 21
39.8146709546
 31
0.0
  0
ARC
  5
418
330
1F
100
AcDbEntity
  8
0
  6
Continuous
 62
     7
370
    25
100
AcDbCircle
 10
9.7588527772
 20
42.5646709546
 30
0.0
 40
0.0850000000000009
100
AcDbArc
 50
0.0
 51
90.0
  0
ARC
  5
419
330
1F
100
AcDbEntity
  8
0
  6
Continuous
 62
     7
370
    25
100
AcDbCircle
 10
9.7588527772
 20
42.5646709546
 30
0.0
 40
0.0499999999999989
100
AcDbArc
 50
0.0
 51
90.0
  0
ARC
  5
41A
330
1F
100
AcDbEntity
  8
0
  6
Continuous
 62
     7
370
    25
100
AcDbCircle
 10
4.9088527772
 20
42.5646709546
 30
0.0
 40
0.0850000000000009
100
AcDbArc
 50
90.0
 51
180.0
  0
ARC
  5
41B
330
1F
100
AcDbEntity
  8
0
  6
Continuous
 62
     7
370
    25
100
AcDbCircle
 10
4.9088527772
 20
42.5646709546
 30
0.0
 40
0.0499999999999998
100
AcDbArc
 50
90.0
 51
180.0
  0
LINE
  5
41C
330
1F
100
AcDbEntity
  8
0
  6
Continuous
 62
     7
370
    25
100
AcDbLine
 10
4.8238527772
 20
39.7146709546
 30
0.0
 11
4.8588527772
 21
39.7146709546
 31
0.0
  0
LINE
  5
41D
330
1F
100
AcDbEntity
  8
0
  6
Continuous
 62
     7
370
    25
100
AcDbLine
 10
4.8588527772
 20
39.7146709546
 30
0.0
 11
4.8588527772
 21
39.8146709546
 31
0.0
  0
LINE
  5
41E
330
1F
100
AcDbEntity
  8
0
  6
Continuous
 62
     7
370
    25
100
AcDbLine
 10
4.8238527772
 20
39.8146709546
 30
0.0
 11
4.8238527772
 21
39.7146709546
 31
0.0
  0
LINE
  5
41F
330
1F
100
AcDbEntity
  8
0
  6
Continuous
 62
     7
370
    25
100
AcDbLine
 10
9.8438527772
 20
39.7146709546
 30
0.0
 11
9.8088527772
 21
39.7146709546
 31
0.0
  0
LINE
  5
420
330
1F
100
AcDbEntity
  8
0
  6
Continuous
 62
     7
370
    25
100
AcDbLine
 10
9.8438527772
 20
39.8146709546
 30
0.0
 11
9.8438527772
 21
39.7146709546
 31
0.0
  0
LINE
  5
421
330
1F
100
AcDbEntity
  8
0
  6
Continuous
 62
     7
370
    25
100
AcDbLine
 10
9.8088527772
 20
39.7146709546
 30
0.0
 11
9.8088527772
 21
39.8146709546
 31
0.0
  0
LINE
  5
422
330
1F
100
AcDbEntity
  8
0
  6
Continuous
 62
     7
370
    25
100
AcDbLine
 10
4.8588527772
 20
39.6878760353
 30
0.0
 11
4.8588527772
 21
39.7146709546
 31
0.0
  0
LINE
  5
423
330
1F
100
AcDbEntity
  8
0
  6
Continuous
 62
     7
370
    25
100
AcDbLine
 10
4.8238527772
 20
39.7146709546
 30
0.0
 11
4.8238527772
 21
39.6878760353
 31
0.0
  0
LINE
  5
424
330
1F
100
AcDbEntity
  8
0
  6
Continuous
 62
     7
370
    25
100
AcDbLine
 10
9.8438527772
 20
39.7146709546
 30
0.0
 11
9.8438527772
 21
39.6878760353
 31
0.0
  0
LINE
  5
425
330
1F
100
AcDbEntity
  8
0
  6
Continuous
 62
     7
370
    25
100
AcDbLine
 10
9.8088527772
 20
39.6878760353
 30
0.0
 11
9.8088527772
 21
39.7146709546
 31
0.0
  0
LINE
  5
426
330
1F
100
AcDbEntity
  8
0
  6
Continuous
 62
     7
370
    25
100
AcDbLine
 10
4.8588527772
 20
39.6878760353
 30
0.0
 11
4.8588527772
 21
39.6735164346
 31
0.0
  0
LINE
  5
427
330
1F
100
AcDbEntity
  8
0
  6
Continuous
 62
     7
370
    25
100
AcDbLine
 10
4.8238527772
 20
39.6878760353
 30
0.0
 11
4.8238527772
 21
39.6735164346
 31
0.0
  0
LINE
  5
428
330
1F
100
AcDbEntity
  8
0
  6
Continuous
 62
     7
370
    25
100
AcDbLine
 10
9.8438527772
 20
39.6878760353
 30
0.0
 11
9.8438527772
 21
39.6735164346
 31
0.0
  0
LINE
  5
429
330
1F
100
AcDbEntity
  8
0
  6
Continuous
 62
     7
370
    25
100
AcDbLine
 10
9.8088527772
 20
39.6878760353
 30
0.0
 11
9.8088527772
 21
39.6735164346
 31
0.0
  0
LINE
  5
42A
330
1F
100
AcDbEntity
  8
0
  6
Continuous
 62
     7
370
    25
100
AcDbLine
 10
4.8238527772
 20
38.8646709546
 30
0.0
 11
4.8442972921
 21
38.8646709546
 31
0.0
  0
LINE
  5
42B
330
1F
100
AcDbEntity
  8
0
  6
Continuous
 62
     7
370
    25
100
AcDbLine
 10
4.8588527772
 20
38.8796198517
 30
0.0
 11
4.8588527772
 21
38.8914658738
 31
0.0
  0
LINE
  5
42C
330
1F
100
AcDbEntity
  8
0
  6
Continuous
 62
     7
370
    25
100
AcDbLine
 10
4.8238527772
 20
38.8914658738
 30
0.0
 11
4.8238527772
 21
38.8646709546
 31
0.0
  0
LINE
  5
42D
330
1F
100
AcDbEntity
  8
0
  6
Continuous
 62
     7
370
    25
100
AcDbLine
 10
9.8438527772
 20
38.8646709546
 30
0.0
 11
9.8234082622
 21
38.8646709546
 31
0.0
  0
LINE
  5
42E
330
1F
100
AcDbEntity
  8
0
  6
Continuous
 62
     7
370
    25
100
AcDbLine
 10
9.8438527772
 20
38.8914658738
 30
0.0
 11
9.8438527772
 21
38.8646709546
 31
0.0
  0
LINE
  5
42F
330
1F
100
AcDbEntity
  8
0
  6
Continuous
 62
     7
370
    25
100
AcDbLine
 10
9.8088527772
 20
38.8796198517
 30
0.0
 11
9.8088527772
 21
38.8914658738
 31
0.0
  0
LINE
  5
430
330
1F
100
AcDbEntity
  8
0
  6
Continuous
 62
     7
370
    25
100
AcDbLine
 10
9.8038527772
 20
42.3646709546
 30
0.0
 11
9.7688527772
 21
42.3646709546
 31
0.0
  0
LINE
  5
431
330
1F
100
AcDbEntity
  8
0
  6
Continuous
 62
     7
370
    25
100
AcDbLine
 10
9.8038527772
 20
42.3646709546
 30
0.0
 11
9.8038527772
 21
42.3146709546
 31
0.0
  0
LINE
  5
432
330
1F
100
AcDbEntity
  8
0
  6
Continuous
 62
     7
370
    25
100
AcDbLine
 10
9.7688527772
 20
42.3646709546
 30
0.0
 11
9.7688527772
 21
42.3146709546
 31
0.0
  0
LINE
  5
433
330
1F
100
AcDbEntity
  8
0
  6
Continuous
 62
     7
370
    25
100
AcDbLine
 10
4.8638527772
 20
42.3646709546
 30
0.0
 11
4.8988527772
 21
42.3646709546
 31
0.0
  0
LINE
  5
434
330
1F
100
AcDbEntity
  8
0
  6
Continuous
 62
     7
370
    25
100
AcDbLine
 10
4.8988527772
 20
42.3646709546
 30
0.0
 11
4.8988527772
 21
42.3146709546
 31
0.0
  0
LINE
  5
435
330
1F
100
AcDbEntity
  8
0
  6
Continuous
 62
     7
370
    25
100
AcDbLine
 10
4.8638527772
 20
42.3646709546
 30
0.0
 11
4.8638527772
 21
42.3146709546
 31
0.0
  0
LINE
  5
436
330
1F
100
AcDbEntity
  8
0
  6
Continuous
 62
     7
370
    25
100
AcDbLine
 10
4.8988527772
 20
38.8812960441
 30
0.0
 11
4.8988527772
 21
38.8899960441
 31
0.0
  0
LINE
  5
437
330
1F
100
AcDbEntity
  8
0
  6
Continuous
 62
     7
370
    25
100
AcDbLine
 10
4.8638527772
 20
38.8899960441
 30
0.0
 11
4.8638527772
 21
38.8809739695
 31
0.0
  0
LINE
  5
438
330
1F
100
AcDbEntity
  8
0
  6
Continuous
 62
     7
370
    25
100
AcDbLine
 10
9.8038527772
 20
38.8899960441
 30
0.0
 11
9.8038527772
 21
38.8809739695
 31
0.0
  0
LINE
  5
439
330
1F
100
AcDbEntity
  8
0
  6
Continuous
 62
     7
370
    25
100
AcDbLine
 10
9.7688527772
 20
38.8812960441
 30
0.0
 11
9.7688527772
 21
38.8899960441
 31
0.0
  0
LINE
  5
43A
330
1F
100
AcDbEntity
  8
0
  6
Continuous
 62
     7
370
    25
100
AcDbLine
 10
9.7688527772
 20
42.3646709546
 30
0.0
 11
9.7588527772
 21
42.3646709546
 31
0.0
  0
LINE
  5
43B
330
1F
100
AcDbEntity
  8
0
  6
Continuous
 62
     7
370
    25
100
AcDbLine
 10
4.8988527772
 20
42.3646709546
 30
0.0
 11
4.9088527772
 21
42.3646709546
 31
0.0
  0
DIMENSION
  5
43C
330
1F
100
AcDbEntity
  8
DIMS
100
AcDbDimension
280
     0
  2
_D_5
 10
9.8838527772
 20
35.6886109228
 30
0.0
 11
7.4885552502
 21
35.6886109228
 31
0.0
 70
   160
  1
<>
 71
     2
 42
-1.0
 73
     0
 74
     0
 75
     0
  3
SLDDIMSTYLE1
100
AcDbAlignedDimension
 13
4.7838527772
 23
38.7235164346
 33
0.0
 14
9.8838527772
 24
38.7235164346
 34
0.0
 50
0.0
100
AcDbRotatedDimension
  0
MTEXT
  5
44B
330
1F
100
AcDbEntity
  8
NOTES
100
AcDbMText
 10
5.3864616027
 20
37.7754746053
 30
0.0
 40
0.75
 41
0.0
 46
0.0
 71
     1
 72
     1
  1
Top view
  7
SLDTEXTSTYLE1
 73
     1
 44
1.0
  0
MTEXT
  5
44C
330
1F
100
AcDbEntity
  8
NOTES
100
AcDbMText
 10
11.3592651454
 20
38.3519365365
 30
0.0
 40
0.75
 41
0.0
 46
0.0
 71
     1
 72
     1
  1
lock
  7
SLDTEXTSTYLE1
 73
     1
 44
1.0
  0
LEADER
  5
44D
330
1F
100
AcDbEntity
  8
NOTES
100
AcDbLeader
  3
SLDDIMSTYLE2
 76
     3
 10
7.6733433545
 20
40.0899498932
 30
0.0
 10
10.8389803547
 20
37.9760299803
 30
0.0
 10
11.3389803547
 20
37.9760299803
 30
0.0
  0
LINE
  5
44E
330
1F
100
AcDbEntity
  8
0
  6
Continuous
 62
     7
370
    25
100
AcDbLine
 10
15.2612409909
 20
30.487177745
 30
0.0
 11
15.2612409909
 21
30.712177745
 31
0.0
  0
LINE
  5
44F
330
1F
100
AcDbEntity
  8
0
  6
Continuous
 62
     7
370
    25
100
AcDbLine
 10
14.3742409909
 20
30.712177745
 30
0.0
 11
14.3742409909
 21
30.487177745
 31
0.0
  0
ARC
  5
450
330
1F
100
AcDbEntity
  8
0
  6
Continuous
 62
     7
370
    25
100
AcDbCircle
 10
14.3992409909
 20
30.712177745
 30
0.0
 40
0.0249999999999986
100
AcDbArc
 50
90.0
 51
180.0
  0
ARC
  5
451
330
1F
100
AcDbEntity
  8
0
  6
Continuous
 62
     7
370
    25
100
AcDbCircle
 10
15.2362409909
 20
30.712177745
 30
0.0
 40
0.0250000000000039
100
AcDbArc
 50
0.0
 51
90.0
  0
CIRCLE
  5
452
330
1F
100
AcDbEntity
  8
0
  6
Continuous
 62
     7
370
    25
100
AcDbCircle
 10
13.6399794809
 20
17.8799826715
 30
0.0
 40
0.1639999999999982
  0
LINE
  5
453
330
1F
100
AcDbEntity
  8
0
  6
Continuous
 62
     7
370
    25
100
AcDbLine
 10
15.2350287932
 20
30.737177745
 30
0.0
 11
15.2362409909
 21
30.737177745
 31
0.0
  0
LINE
  5
454
330
1F
100
AcDbEntity
  8
0
  6
Continuous
 62
     7
370
    25
100
AcDbLine
 10
14.3992409909
 20
30.737177745
 30
0.0
 11
15.2350287932
 21
30.737177745
 31
0.0
  0
CIRCLE
  5
455
330
1F
100
AcDbEntity
  8
0
  6
Continuous
 62
     7
370
    25
100
AcDbCircle
 10
13.6399794809
 20
17.8799826715
 30
0.0
 40
0.0779372107227374
  0
CIRCLE
  5
456
330
1F
100
AcDbEntity
  8
0
  6
Continuous
 62
     7
370
    25
100
AcDbCircle
 10
13.6399794809
 20
17.8799826715
 30
0.0
 40
0.1269999999999989
  0
CIRCLE
  5
457
330
1F
100
AcDbEntity
  8
0
  6
Continuous
 62
     7
370
    25
100
AcDbCircle
 10
13.6399794809
 20
17.8799826715
 30
0.0
 40
0.0312499999999982
  0
CIRCLE
  5
458
330
1F
100
AcDbEntity
  8
0
  6
Continuous
 62
     7
370
    25
100
AcDbCircle
 10
13.9065864709
 20
15.193177745
 30
0.0
 40
0.0779372107227385
  0
CIRCLE
  5
459
330
1F
100
AcDbEntity
  8
0
  6
Continuous
 62
     7
370
    25
100
AcDbCircle
 10
13.9065864709
 20
15.193177745
 30
0.0
 40
0.1270000000000017
  0
CIRCLE
  5
45A
330
1F
100
AcDbEntity
  8
0
  6
Continuous
 62
     7
370
    25
100
AcDbCircle
 10
13.9065864709
 20
15.193177745
 30
0.0
 40
0.031249999999999
  0
ARC
  5
45B
330
1F
100
AcDbEntity
  8
0
  6
Continuous
 62
     7
370
    25
100
AcDbCircle
 10
13.4193678053
 20
14.843177745
 30
0.0
 40
0.0500000000000008
100
AcDbArc
 50
215.0
 51
270.0
  0
LINE
  5
45C
330
1F
100
AcDbEntity
  8
0
  6
Continuous
 62
     7
370
    25
100
AcDbLine
 10
13.3784102031
 20
14.8144989232
 30
0.0
 11
13.3078687161
 21
14.9152426073
 31
0.0
  0
ARC
  5
45D
330
1F
100
AcDbEntity
  8
0
  6
Continuous
 62
     7
370
    25
100
AcDbCircle
 10
13.2259535116
 20
14.8578849637
 30
0.0
 40
0.0999999999999996
100
AcDbArc
 50
35.0
 51
90.0
  0
LINE
  5
45E
330
1F
100
AcDbEntity
  8
0
  6
Continuous
 62
     7
370
    25
100
AcDbLine
 10
13.2259535116
 20
14.9578849637
 30
0.0
 11
13.2065864709
 21
14.9578849637
 31
0.0
  0
LINE
  5
45F
330
1F
100
AcDbEntity
  8
0
  6
Continuous
 62
     7
370
    25
100
AcDbLine
 10
13.2065864709
 20
30.5878849637
 30
0.0
 11
14.2065864709
 21
30.5878849637
 31
0.0
  0
ARC
  5
460
330
1F
100
AcDbEntity
  8
0
  6
Continuous
 62
     7
370
    25
100
AcDbCircle
 10
14.2065864709
 20
30.4378849637
 30
0.0
 40
0.1499999999999986
100
AcDbArc
 50
360.0
 51
90.0
  0
LINE
  5
461
330
1F
100
AcDbEntity
  8
0
  6
Continuous
 62
     7
370
    25
100
AcDbLine
 10
14.3565864709
 20
30.4378849637
 30
0.0
 11
14.3565864709
 21
21.302117241
 31
0.0
  0
ARC
  5
462
330
1F
100
AcDbEntity
  8
0
  6
Continuous
 62
     7
370
    25
100
AcDbCircle
 10
15.8565864709
 20
21.302117241
 30
0.0
 40
1.5
100
AcDbArc
 50
180.0
 51
220.0
  0
LINE
  5
463
330
1F
100
AcDbEntity
  8
0
  6
Continuous
 62
     7
370
    25
100
AcDbLine
 10
14.7075198062
 20
20.3379358265
 30
0.0
 11
16.781130914
 21
17.8667023391
 31
0.0
  0
LINE
  5
464
330
1F
100
AcDbEntity
  8
0
  6
Continuous
 62
     7
370
    25
100
AcDbLine
 10
17.0150864709
 20
17.2239147294
 30
0.0
 11
17.0150864709
 21
14.9536133527
 31
0.0
  0
ARC
  5
465
330
1F
100
AcDbEntity
  8
0
  6
Continuous
 62
     7
370
    25
100
AcDbCircle
 10
16.7650864709
 20
15.068177745
 30
0.0
 40
0.2749999999999986
100
AcDbArc
 50
270.0
 51
335.3800226713
  0
LINE
  5
466
330
1F
100
AcDbEntity
  8
0
  6
Continuous
 62
     7
370
    25
100
AcDbLine
 10
16.7650864709
 20
14.793177745
 30
0.0
 11
13.4193678053
 21
14.793177745
 31
0.0
  0
ARC
  5
467
330
1F
100
AcDbEntity
  8
0
  6
Continuous
 62
     7
370
    25
100
AcDbCircle
 10
13.9065864709
 20
15.193177745
 30
0.0
 40
2.575000000000002
100
AcDbArc
 50
9.1289757583
 51
93.359730175
  0
ARC
  5
468
330
1F
100
AcDbEntity
  8
0
  6
Continuous
 62
     7
370
    25
100
AcDbCircle
 10
16.5674507827
 20
15.6207594496
 30
0.0
 40
0.1199999999999996
100
AcDbArc
 50
189.1289757583
 51
276.576928443
  0
LINE
  5
469
330
1F
100
AcDbEntity
  8
0
  6
Continuous
 62
     7
370
    25
100
AcDbLine
 10
16.5911392548
 20
15.5026956778
 30
0.0
 11
16.5811952389
 21
15.5015491735
 31
0.0
  0
ARC
  5
46A
330
1F
100
AcDbEntity
  8
0
  6
Continuous
 62
     7
370
    25
100
AcDbCircle
 10
16.5773947985
 20
15.6219059538
 30
0.0
 40
0.119999999999998
100
AcDbArc
 50
276.576928443
 51
9.119534993
  0
ARC
  5
46B
330
1F
100
AcDbEntity
  8
0
  6
Continuous
 62
     7
370
    25
100
AcDbCircle
 10
13.9065864709
 20
15.193177745
 30
0.0
 40
2.825000000000002
100
AcDbArc
 50
9.119534993
 51
93.4641908461
  0
ARC
  5
46C
330
1F
100
AcDbEntity
  8
0
  6
Continuous
 62
     7
370
    25
100
AcDbCircle
 10
16.0150864709
 20
17.2239147294
 30
0.0
 40
1.000000000000004
100
AcDbArc
 50
0.0
 51
40.0
  0
LINE
  5
46D
330
1F
100
AcDbEntity
  8
0
  6
Continuous
 62
     7
370
    25
100
AcDbLine
 10
12.9275864709
 20
30.5378849637
 30
0.0
 11
12.9275864709
 21
14.9578849637
 31
0.0
  0
LINE
  5
46E
330
1F
100
AcDbEntity
  8
0
  6
Continuous
 62
     7
370
    25
100
AcDbLine
 10
12.9275864709
 20
30.5878849637
 30
0.0
 11
12.9275864709
 21
30.5378849637
 31
0.0
  0
LINE
  5
46F
330
1F
100
AcDbEntity
  8
0
  6
Continuous
 62
     7
370
    25
100
AcDbLine
 10
12.9275864709
 20
14.9578849637
 30
0.0
 11
13.2065864709
 21
14.9578849637
 31
0.0
  0
LINE
  5
470
330
1F
100
AcDbEntity
  8
0
  6
Continuous
 62
     7
370
    25
100
AcDbLine
 10
13.2065864709
 20
30.5878849637
 30
0.0
 11
12.9275864709
 21
30.5878849637
 31
0.0
  0
LINE
  5
471
330
1F
100
AcDbEntity
  8
0
  6
Continuous
 62
     7
370
    25
100
AcDbLine
 10
14.1565864709
 20
30.5878849637
 30
0.0
 11
14.1565864709
 21
30.6168849637
 31
0.0
  0
LINE
  5
472
330
1F
100
AcDbEntity
  8
0
  6
Continuous
 62
     7
370
    25
100
AcDbLine
 10
13.3730660804
 20
30.6168849637
 30
0.0
 11
13.3730660804
 21
30.5878849637
 31
0.0
  0
LINE
  5
473
330
1F
100
AcDbEntity
  8
0
  6
Continuous
 62
     7
370
    25
100
AcDbLine
 10
14.1565864709
 20
30.6168849637
 30
0.0
 11
13.3730660804
 21
30.6168849637
 31
0.0
  0
LINE
  5
474
330
1F
100
AcDbEntity
  8
0
  6
Continuous
 62
     7
370
    25
100
AcDbLine
 10
13.3643660804
 20
30.6168849637
 30
0.0
 11
13.3643660804
 21
30.5878849637
 31
0.0
  0
LINE
  5
475
330
1F
100
AcDbEntity
  8
0
  6
Continuous
 62
     7
370
    25
100
AcDbLine
 10
13.3393660804
 20
30.6168849637
 30
0.0
 11
13.3643660804
 21
30.6168849637
 31
0.0
  0
LINE
  5
476
330
1F
100
AcDbEntity
  8
0
  6
Continuous
 62
     7
370
    25
100
AcDbLine
 10
13.3393660804
 20
30.6168849637
 30
0.0
 11
13.2065864709
 21
30.6168849637
 31
0.0
  0
LINE
  5
477
330
1F
100
AcDbEntity
  8
0
  6
Continuous
 62
     7
370
    25
100
AcDbLine
 10
13.0165864709
 20
30.5878849637
 30
0.0
 11
13.0165864709
 21
30.6168849637
 31
0.0
  0
LINE
  5
478
330
1F
100
AcDbEntity
  8
0
  6
Continuous
 62
     7
370
    25
100
AcDbLine
 10
13.2065864709
 20
30.6168849637
 30
0.0
 11
13.0165864709
 21
30.6168849637
 31
0.0
  0
LINE
  5
479
330
1F
100
AcDbEntity
  8
0
  6
Continuous
 62
     7
370
    25
100
AcDbLine
 10
13.3643660804
 20
30.6168849637
 30
0.0
 11
13.3730660804
 21
30.6168849637
 31
0.0
  0
ARC
  5
47A
330
1F
100
AcDbEntity
  8
0
  6
Continuous
 62
     7
370
    25
100
AcDbCircle
 10
13.0065864709
 20
30.5378849637
 30
0.0
 40
0.0790000000000148
100
AcDbArc
 50
90.0
 51
140.7347520861
  0
LINE
  5
47B
330
1F
100
AcDbEntity
  8
0
  6
Continuous
 62
     7
370
    25
100
AcDbLine
 10
13.0165864709
 20
30.6168849637
 30
0.0
 11
13.0065864709
 21
30.6168849637
 31
0.0
  0
ARC
  5
47C
330
1F
100
AcDbEntity
  8
0
  6
Continuous
 62
     7
370
    25
100
AcDbCircle
 10
13.4739209021
 20
14.852177745
 30
0.0
 40
0.100000000000002
100
AcDbArc
 50
215.0
 51
270.0
  0
LINE
  5
47D
330
1F
100
AcDbEntity
  8
0
  6
Continuous
 62
     7
370
    25
100
AcDbLine
 10
13.3920056977
 20
14.7948201014
 30
0.0
 11
13.3658257865
 21
14.8322088894
 31
0.0
  0
LINE
  5
47E
330
1F
100
AcDbEntity
  8
0
  6
Continuous
 62
     7
370
    25
100
AcDbLine
 10
13.3628031128
 20
14.8367881582
 30
0.0
 11
13.3658257865
 21
14.8322088894
 31
0.0
  0
LINE
  5
47F
330
1F
100
AcDbEntity
  8
0
  6
Continuous
 62
     7
370
    25
100
AcDbLine
 10
17.0477409909
 20
30.402177745
 30
0.0
 11
14.3565864709
 21
30.402177745
 31
0.0
  0
LINE
  5
480
330
1F
100
AcDbEntity
  8
0
  6
Continuous
 62
     7
370
    25
100
AcDbLine
 10
13.4739209021
 20
14.752177745
 30
0.0
 11
17.0477409909
 21
14.752177745
 31
0.0
  0
LINE
  5
481
330
1F
100
AcDbEntity
  8
0
  6
Continuous
 62
     7
370
    25
100
AcDbLine
 10
17.0477409909
 20
30.402177745
 30
0.0
 11
17.1327409909
 21
30.402177745
 31
0.0
  0
LINE
  5
482
330
1F
100
AcDbEntity
  8
0
  6
Continuous
 62
     7
370
    25
100
AcDbLine
 10
17.1327409909
 20
30.402177745
 30
0.0
 11
17.1327409909
 21
14.752177745
 31
0.0
  0
LINE
  5
483
330
1F
100
AcDbEntity
  8
0
  6
Continuous
 62
     7
370
    25
100
AcDbLine
 10
17.1327409909
 20
14.752177745
 30
0.0
 11
17.0477409909
 21
14.752177745
 31
0.0
  0
LINE
  5
484
330
1F
100
AcDbEntity
  8
0
  6
Continuous
 62
     7
370
    25
100
AcDbLine
 10
16.7977409909
 20
30.402177745
 30
0.0
 11
16.7977409909
 21
30.412177745
 31
0.0
  0
LINE
  5
485
330
1F
100
AcDbEntity
  8
0
  6
Continuous
 62
     7
370
    25
100
AcDbLine
 10
13.3477409909
 20
14.8582990975
 30
0.0
 11
13.3477409909
 21
14.752177745
 31
0.0
  0
LINE
  5
486
330
1F
100
AcDbEntity
  8
0
  6
Continuous
 62
     7
370
    25
100
AcDbLine
 10
16.7977409909
 20
30.487177745
 30
0.0
 11
16.7977409909
 21
30.412177745
 31
0.0
  0
LINE
  5
487
330
1F
100
AcDbEntity
  8
0
  6
Continuous
 62
     7
370
    25
100
AcDbLine
 10
14.3482558808
 20
30.487177745
 30
0.0
 11
16.7977409909
 21
30.487177745
 31
0.0
  0
LINE
  5
488
330
1F
100
AcDbEntity
  8
0
  6
Continuous
 62
     7
370
    25
100
AcDbLine
 10
13.3477409909
 20
14.677177745
 30
0.0
 11
13.3477409909
 21
14.752177745
 31
0.0
  0
LINE
  5
489
330
1F
100
AcDbEntity
  8
0
  6
Continuous
 62
     7
370
    25
100
AcDbLine
 10
16.8477409909
 20
14.752177745
 30
0.0
 11
16.8477409909
 21
14.677177745
 31
0.0
  0
LINE
  5
48A
330
1F
100
AcDbEntity
  8
0
  6
Continuous
 62
     7
370
    25
100
AcDbLine
 10
16.8477409909
 20
14.677177745
 30
0.0
 11
13.3477409909
 21
14.677177745
 31
0.0
  0
ARC
  5
48B
330
1F
100
AcDbEntity
  8
0
  6
Continuous
 62
     7
370
    25
100
AcDbCircle
 10
17.0577409909
 20
14.752177745
 30
0.0
 40
0.0750000000000028
100
AcDbArc
 50
270.0
 51
0.0
  0
ARC
  5
48C
330
1F
100
AcDbEntity
  8
0
  6
Continuous
 62
     7
370
    25
100
AcDbCircle
 10
17.0577409909
 20
14.752177745
 30
0.0
 40
0.0400000000000009
100
AcDbArc
 50
270.0
 51
0.0
  0
ARC
  5
48D
330
1F
100
AcDbEntity
  8
0
  6
Continuous
 62
     7
370
    25
100
AcDbCircle
 10
17.0477409909
 20
30.402177745
 30
0.0
 40
0.0499999999999972
100
AcDbArc
 50
0.0
 51
90.0
  0
ARC
  5
48E
330
1F
100
AcDbEntity
  8
0
  6
Continuous
 62
     7
370
    25
100
AcDbCircle
 10
17.0477409909
 20
30.402177745
 30
0.0
 40
0.0850000000000009
100
AcDbArc
 50
0.0
 51
90.0
  0
LINE
  5
48F
330
1F
100
AcDbEntity
  8
0
  6
Continuous
 62
     7
370
    25
100
AcDbLine
 10
17.0577409909
 20
14.677177745
 30
0.0
 11
16.8832409909
 21
14.677177745
 31
0.0
  0
LINE
  5
490
330
1F
100
AcDbEntity
  8
0
  6
Continuous
 62
     7
370
    25
100
AcDbLine
 10
17.0577409909
 20
14.712177745
 30
0.0
 11
16.8832409909
 21
14.712177745
 31
0.0
  0
LINE
  5
491
330
1F
100
AcDbEntity
  8
0
  6
Continuous
 62
     7
370
    25
100
AcDbLine
 10
16.8332409909
 20
30.487177745
 30
0.0
 11
17.0477409909
 21
30.487177745
 31
0.0
  0
LINE
  5
492
330
1F
100
AcDbEntity
  8
0
  6
Continuous
 62
     7
370
    25
100
AcDbLine
 10
16.8332409909
 20
30.452177745
 30
0.0
 11
17.0477409909
 21
30.452177745
 31
0.0
  0
LINE
  5
493
330
1F
100
AcDbEntity
  8
0
  6
Continuous
 62
     7
370
    25
100
AcDbLine
 10
16.8582409909
 20
14.677177745
 30
0.0
 11
16.8582409909
 21
14.712177745
 31
0.0
  0
LINE
  5
494
330
1F
100
AcDbEntity
  8
0
  6
Continuous
 62
     7
370
    25
100
AcDbLine
 10
16.8832409909
 20
14.677177745
 30
0.0
 11
16.8582409909
 21
14.677177745
 31
0.0
  0
LINE
  5
495
330
1F
100
AcDbEntity
  8
0
  6
Continuous
 62
     7
370
    25
100
AcDbLine
 10
16.8582409909
 20
14.712177745
 30
0.0
 11
16.8832409909
 21
14.712177745
 31
0.0
  0
LINE
  5
496
330
1F
100
AcDbEntity
  8
0
  6
Continuous
 62
     7
370
    25
100
AcDbLine
 10
16.8082409909
 20
30.452177745
 30
0.0
 11
16.8082409909
 21
30.487177745
 31
0.0
  0
LINE
  5
497
330
1F
100
AcDbEntity
  8
0
  6
Continuous
 62
     7
370
    25
100
AcDbLine
 10
16.8082409909
 20
30.487177745
 30
0.0
 11
16.8332409909
 21
30.487177745
 31
0.0
  0
LINE
  5
498
330
1F
100
AcDbEntity
  8
0
  6
Continuous
 62
     7
370
    25
100
AcDbLine
 10
16.8332409909
 20
30.452177745
 30
0.0
 11
16.8082409909
 21
30.452177745
 31
0.0
  0
LINE
  5
499
330
1F
100
AcDbEntity
  8
0
  6
Continuous
 62
     7
370
    25
100
AcDbLine
 10
16.8082409909
 20
30.487177745
 30
0.0
 11
16.7977409909
 21
30.487177745
 31
0.0
  0
LINE
  5
49A
330
1F
100
AcDbEntity
  8
0
  6
Continuous
 62
     7
370
    25
100
AcDbLine
 10
16.7977409909
 20
30.452177745
 30
0.0
 11
16.8082409909
 21
30.452177745
 31
0.0
  0
LINE
  5
49B
330
1F
100
AcDbEntity
  8
0
  6
Continuous
 62
     7
370
    25
100
AcDbLine
 10
16.8477409909
 20
14.677177745
 30
0.0
 11
16.8582409909
 21
14.677177745
 31
0.0
  0
LINE
  5
49C
330
1F
100
AcDbEntity
  8
0
  6
Continuous
 62
     7
370
    25
100
AcDbLine
 10
16.8582409909
 20
14.712177745
 30
0.0
 11
16.8477409909
 21
14.712177745
 31
0.0
  0
DIMENSION
  5
49D
330
1F
100
AcDbEntity
  8
DIMS
100
AcDbDimension
280
     0
  2
_D_6
 10
17.1327409909
 20
31.6802539308
 30
0.0
 11
15.0338902846
 21
31.6802539308
 31
0.0
 70
   160
  1
<>
 71
     2
 42
-1.0
 73
     0
 74
     0
 75
     0
  3
SLDDIMSTYLE1
100
AcDbAlignedDimension
 13
12.9275864709
 23
30.5878849637
 33
0.0
 14
17.1327409909
 24
30.402177745
 34
0.0
100
AcDbRotatedDimension
  0
ENDSEC
  0
SECTION
  2
OBJECTS
  0
DICTIONARY
  5
C
330
0
100
AcDbDictionary
281
     1
  3
ACAD_DETAILVIEWSTYLE
350
4B3
  3
ACAD_GROUP
350
D
  3
ACAD_LAYOUT
350
1A
  3
ACAD_MATERIAL
350
43
  3
ACAD_MLEADERSTYLE
350
6B
  3
ACAD_MLINESTYLE
350
17
  3
ACAD_PLOTSETTINGS
350
19
  3
ACAD_PLOTSTYLENAME
350
E
  3
ACAD_SCALELIST
350
47
  3
ACAD_SECTIONVIEWSTYLE
350
4B4
  3
ACAD_TABLESTYLE
350
69
  3
ACAD_VISUALSTYLE
350
2A
  3
ACDB_RECOMPOSE_DATA
350
4B0
  3
AcDbVariableDictionary
350
4AC
  0
SUN
  5
6D
330
29
100
AcDbSun
 90
        1
290
     0
 63
     7
421
 16777215
 40
1.0
291
     1
 91
  2455826
 92
 54000000
292
     0
 70
     2
 71
   256
280
     1
  0
DICTIONARY
  5
4B3
102
{ACAD_REACTORS
330
C
102
}
330
C
100
AcDbDictionary
281
     1
  0
DICTIONARY
  5
D
102
{ACAD_REACTORS
330
C
102
}
330
C
100
AcDbDictionary
281
     1
  0
DICTIONARY
  5
1A
102
{ACAD_REACTORS
330
C
102
}
330
C
100
AcDbDictionary
281
     1
  3
Layout1
350
1E
  3
Layout2
350
26
  3
Model
350
22
  0
DICTIONARY
  5
43
102
{ACAD_REACTORS
330
C
102
}
330
C
100
AcDbDictionary
281
     1
  3
ByBlock
350
45
  3
ByLayer
350
44
  3
Global
350
46
  0
DICTIONARY
  5
6B
102
{ACAD_REACTORS
330
C
102
}
330
C
100
AcDbDictionary
281
     1
  3
Standard
350
6C
  0
DICTIONARY
  5
17
102
{ACAD_REACTORS
330
C
102
}
330
C
100
AcDbDictionary
281
     1
  3
Standard
350
18
  0
DICTIONARY
  5
19
102
{ACAD_REACTORS
330
C
102
}
330
C
100
AcDbDictionary
281
     1
  0
ACDBDICTIONARYWDFLT
  5
E
102
{ACAD_REACTORS
330
C
102
}
330
C
100
AcDbDictionary
281
     1
  3
Normal
350
F
100
AcDbDictionaryWithDefault
340
F
  0
DICTIONARY
  5
47
102
{ACAD_REACTORS
330
C
102
}
330
C
100
AcDbDictionary
281
     1
  3
A0
350
48
  3
A1
350
49
  3
A2
350
4A
  3
A3
350
4B
  3
A4
350
4C
  3
A5
350
4D
  3
A6
350
4E
  3
A7
350
4F
  3
A8
350
50
  3
A9
350
51
  3
B0
350
52
  3
B1
350
53
  3
B2
350
54
  3
B3
350
55
  3
B4
350
56
  3
B5
350
57
  3
B6
350
58
  3
B7
350
59
  3
B8
350
5A
  3
B9
350
5B
  3
C0
350
5C
  3
C1
350
5D
  3
C2
350
5E
  3
C3
350
5F
  3
C4
350
60
  3
C5
350
61
  3
C6
350
62
  3
C7
350
63
  3
C8
350
64
  3
C9
350
65
  3
D0
350
66
  3
D1
350
67
  3
D2
350
68
  0
DICTIONARY
  5
4B4
102
{ACAD_REACTORS
330
C
102
}
330
C
100
AcDbDictionary
281
     1
  0
DICTIONARY
  5
69
102
{ACAD_REACTORS
330
C
102
}
330
C
100
AcDbDictionary
281
     1
  3
Standard
350
6A
  0
DICTIONARY
  5
2A
102
{ACAD_REACTORS
330
C
102
}
330
C
100
AcDbDictionary
281
     1
  3
2dWireframe
350
2F
  3
Basic
350
32
  3
Brighten
350
36
  3
ColorChange
350
3A
  3
Conceptual
350
34
  3
Dim
350
35
  3
EdgeColorOff
350
3D
  3
Facepattern
350
39
  3
Flat
350
2B
  3
FlatWithEdges
350
2C
  3
Gouraud
350
2D
  3
GouraudWithEdges
350
2E
  3
Hidden
350
31
  3
JitterOff
350
3B
  3
Linepattern
350
38
  3
OverhangOff
350
3C
  3
Realistic
350
33
  3
Shaded
350
42
  3
Shaded with edges
350
41
  3
Shades of Gray
350
3E
  3
Sketchy
350
3F
  3
Thicken
350
37
  3
Wireframe
350
30
  3
X-Ray
350
40
  0
XRECORD
  5
4B0
102
{ACAD_REACTORS
330
C
102
}
330
C
100
AcDbXrecord
280
     1
 90
        1
330
6A
  0
DICTIONARY
  5
4AC
102
{ACAD_REACTORS
330
C
102
}
330
C
100
AcDbDictionary
281
     1
  3
CANNOSCALE
350
4AD
  3
CMLEADERSTYLE
350
4B2
  3
CTABLESTYLE
350
4B1
  0
LAYOUT
  5
1E
102
{ACAD_REACTORS
330
1A
102
}
330
1A
100
AcDbPlotSettings
  1

  2
none_device
  4

  6

 40
0.0
 41
0.0
 42
0.0
 43
0.0
 44
0.0
 45
0.0
 46
0.0
 47
0.0
 48
0.0
 49
0.0
140
0.0
141
0.0
142
1.0
143
1.0
 70
   688
 72
     0
 73
     0
 74
     5
  7

 75
    16
 76
     0
 77
     2
 78
   300
147
1.0
148
0.0
149
0.0
100
AcDbLayout
  1
Layout1
 70
     1
 71
     1
 10
0.0
 20
0.0
 11
12.0
 21
9.0
 12
0.0
 22
0.0
 32
0.0
 14
1.0000000000E+20
 24
1.0000000000E+20
 34
1.0000000000E+20
 15
-1.0000000000E+20
 25
-1.0000000000E+20
 35
-1.0000000000E+20
146
0.0
 13
0.0
 23
0.0
 33
0.0
 16
1.0
 26
0.0
 36
0.0
 17
0.0
 27
1.0
 37
0.0
 76
     0
330
1B
  0
LAYOUT
  5
26
102
{ACAD_REACTORS
330
1A
102
}
330
1A
100
AcDbPlotSettings
  1

  2
none_device
  4

  6

 40
0.0
 41
0.0
 42
0.0
 43
0.0
 44
0.0
 45
0.0
 46
0.0
 47
0.0
 48
0.0
 49
0.0
140
0.0
141
0.0
142
1.0
143
1.0
 70
   688
 72
     0
 73
     0
 74
     5
  7

 75
    16
 76
     0
 77
     2
 78
   300
147
1.0
148
0.0
149
0.0
100
AcDbLayout
  1
Layout2
 70
     1
 71
     2
 10
0.0
 20
0.0
 11
0.0
 21
0.0
 12
0.0
 22
0.0
 32
0.0
 14
0.0
 24
0.0
 34
0.0
 15
0.0
 25
0.0
 35
0.0
146
0.0
 13
0.0
 23
0.0
 33
0.0
 16
1.0
 26
0.0
 36
0.0
 17
0.0
 27
1.0
 37
0.0
 76
     0
330
23
  0
LAYOUT
  5
22
102
{ACAD_REACTORS
330
1A
102
}
330
1A
100
AcDbPlotSettings
  1

  2
none_device
  4
Letter_(8.50_x_11.00_Inches)
  6

 40
6.35
 41
6.35
 42
6.35000508
 43
6.35000508
 44
215.9
 45
279.4
 46
0.0
 47
0.0
 48
0.0
 49
0.0
140
0.0
141
0.0
142
1.0
143
1.0
 70
  1712
 72
     0
 73
     0
 74
     0
  7

 75
     0
 76
     0
 77
     2
 78
   300
147
1.0
148
0.0
149
0.0
100
AcDbLayout
  1
Model
 70
     1
 71
     0
 10
0.0
 20
0.0
 11
60.375
 21
45.0
 12
0.0
 22
0.0
 32
0.0
 14
0.0
 24
0.0
 34
0.0
 15
60.375
 25
45.0
 35
0.0
146
0.0
 13
0.0
 23
0.0
 33
0.0
 16
1.0
 26
0.0
 36
0.0
 17
0.0
 27
1.0
 37
0.0
 76
     0
330
1F
331
29
  0
MATERIAL
  5
45
102
{ACAD_REACTORS
330
43
102
}
330
43
100
AcDbMaterial
  1
ByBlock
 72
     1
 94
      127
  0
MATERIAL
  5
44
102
{ACAD_REACTORS
330
43
102
}
330
43
100
AcDbMaterial
  1
ByLayer
 72
     1
 94
      127
  0
MATERIAL
  5
46
102
{ACAD_REACTORS
330
43
102
}
330
43
100
AcDbMaterial
  1
Global
 72
     1
 94
      127
  0
MLEADERSTYLE
  5
6C
102
{ACAD_REACTORS
330
6B
102
}
330
6B
100
AcDbMLeaderStyle
179
     2
170
     2
171
     1
172
     0
 90
        2
 40
0.0
 41
0.0
173
     1
 91
-1056964608
340
14
 92
       -2
290
     1
 42
0.09
291
     1
 43
0.36
  3
Standard
341
0
 44
0.18
300

342
11
174
     1
178
     6
175
     1
176
     0
 93
-1056964608
 45
0.18
292
     0
297
     0
 46
0.18
343
0
 94
-1056964608
 47
1.0
 49
1.0
140
1.0
293
     1
141
0.0
294
     1
177
     0
142
1.0
295
     0
296
     0
143
0.125
271
     0
272
     9
273
     9
  0
MLINESTYLE
  5
18
102
{ACAD_REACTORS
330
17
102
}
330
17
100
AcDbMlineStyle
  2
Standard
 70
     0
  3

 62
   256
 51
90.0
 52
90.0
 71
     2
 49
0.5
 62
   256
  6
BYLAYER
 49
-0.5
 62
   256
  6
BYLAYER
  0
ACDBPLACEHOLDER
  5
F
102
{ACAD_REACTORS
330
E
102
}
330
E
  0
SCALE
  5
48
102
{ACAD_REACTORS
330
47
102
}
330
47
100
AcDbScale
 70
     0
300
1:1
140
1.0
141
1.0
290
     1
  0
SCALE
  5
49
102
{ACAD_REACTORS
330
47
102
}
330
47
100
AcDbScale
 70
     0
300
1:2
140
1.0
141
2.0
290
     0
  0
SCALE
  5
4A
102
{ACAD_REACTORS
330
47
102
}
330
47
100
AcDbScale
 70
     0
300
1:4
140
1.0
141
4.0
290
     0
  0
SCALE
  5
4B
102
{ACAD_REACTORS
330
47
102
}
330
47
100
AcDbScale
 70
     0
300
1:5
140
1.0
141
5.0
290
     0
  0
SCALE
  5
4C
102
{ACAD_REACTORS
330
47
102
}
330
47
100
AcDbScale
 70
     0
300
1:8
140
1.0
141
8.0
290
     0
  0
SCALE
  5
4D
102
{ACAD_REACTORS
330
47
102
}
330
47
100
AcDbScale
 70
     0
300
1:10
140
1.0
141
10.0
290
     0
  0
SCALE
  5
4E
102
{ACAD_REACTORS
330
47
102
}
330
47
100
AcDbScale
 70
     0
300
1:16
140
1.0
141
16.0
290
     0
  0
SCALE
  5
4F
102
{ACAD_REACTORS
330
47
102
}
330
47
100
AcDbScale
 70
     0
300
1:20
140
1.0
141
20.0
290
     0
  0
SCALE
  5
50
102
{ACAD_REACTORS
330
47
102
}
330
47
100
AcDbScale
 70
     0
300
1:30
140
1.0
141
30.0
290
     0
  0
SCALE
  5
51
102
{ACAD_REACTORS
330
47
102
}
330
47
100
AcDbScale
 70
     0
300
1:40
140
1.0
141
40.0
290
     0
  0
SCALE
  5
52
102
{ACAD_REACTORS
330
47
102
}
330
47
100
AcDbScale
 70
     0
300
1:50
140
1.0
141
50.0
290
     0
  0
SCALE
  5
53
102
{ACAD_REACTORS
330
47
102
}
330
47
100
AcDbScale
 70
     0
300
1:100
140
1.0
141
100.0
290
     0
  0
SCALE
  5
54
102
{ACAD_REACTORS
330
47
102
}
330
47
100
AcDbScale
 70
     0
300
2:1
140
2.0
141
1.0
290
     0
  0
SCALE
  5
55
102
{ACAD_REACTORS
330
47
102
}
330
47
100
AcDbScale
 70
     0
300
4:1
140
4.0
141
1.0
290
     0
  0
SCALE
  5
56
102
{ACAD_REACTORS
330
47
102
}
330
47
100
AcDbScale
 70
     0
300
8:1
140
8.0
141
1.0
290
     0
  0
SCALE
  5
57
102
{ACAD_REACTORS
330
47
102
}
330
47
100
AcDbScale
 70
     0
300
10:1
140
10.0
141
1.0
290
     0
  0
SCALE
  5
58
102
{ACAD_REACTORS
330
47
102
}
330
47
100
AcDbScale
 70
     0
300
100:1
140
100.0
141
1.0
290
     0
  0
SCALE
  5
59
102
{ACAD_REACTORS
330
47
102
}
330
47
100
AcDbScale
 70
     0
300
1/128" = 1'-0"
140
0.0078125
141
12.0
290
     0
  0
SCALE
  5
5A
102
{ACAD_REACTORS
330
47
102
}
330
47
100
AcDbScale
 70
     0
300
1/64" = 1'-0"
140
0.015625
141
12.0
290
     0
  0
SCALE
  5
5B
102
{ACAD_REACTORS
330
47
102
}
330
47
100
AcDbScale
 70
     0
300
1/32" = 1'-0"
140
0.03125
141
12.0
290
     0
  0
SCALE
  5
5C
102
{ACAD_REACTORS
330
47
102
}
330
47
100
AcDbScale
 70
     0
300
1/16" = 1'-0"
140
0.0625
141
12.0
290
     0
  0
SCALE
  5
5D
102
{ACAD_REACTORS
330
47
102
}
330
47
100
AcDbScale
 70
     0
300
3/32" = 1'-0"
140
0.09375
141
12.0
290
     0
  0
SCALE
  5
5E
102
{ACAD_REACTORS
330
47
102
}
330
47
100
AcDbScale
 70
     0
300
1/8" = 1'-0"
140
0.125
141
12.0
290
     0
  0
SCALE
  5
5F
102
{ACAD_REACTORS
330
47
102
}
330
47
100
AcDbScale
 70
     0
300
3/16" = 1'-0"
140
0.1875
141
12.0
290
     0
  0
SCALE
  5
60
102
{ACAD_REACTORS
330
47
102
}
330
47
100
AcDbScale
 70
     0
300
1/4" = 1'-0"
140
0.25
141
12.0
290
     0
  0
SCALE
  5
61
102
{ACAD_REACTORS
330
47
102
}
330
47
100
AcDbScale
 70
     0
300
3/8" = 1'-0"
140
0.375
141
12.0
290
     0
  0
SCALE
  5
62
102
{ACAD_REACTORS
330
47
102
}
330
47
100
AcDbScale
 70
     0
300
1/2" = 1'-0"
140
0.5
141
12.0
290
     0
  0
SCALE
  5
63
102
{ACAD_REACTORS
330
47
102
}
330
47
100
AcDbScale
 70
     0
300
3/4" = 1'-0"
140
0.75
141
12.0
290
     0
  0
SCALE
  5
64
102
{ACAD_REACTORS
330
47
102
}
330
47
100
AcDbScale
 70
     0
300
1" = 1'-0"
140
1.0
141
12.0
290
     0
  0
SCALE
  5
65
102
{ACAD_REACTORS
330
47
102
}
330
47
100
AcDbScale
 70
     0
300
1-1/2" = 1'-0"
140
1.5
141
12.0
290
     0
  0
SCALE
  5
66
102
{ACAD_REACTORS
330
47
102
}
330
47
100
AcDbScale
 70
     0
300
3" = 1'-0"
140
3.0
141
12.0
290
     0
  0
SCALE
  5
67
102
{ACAD_REACTORS
330
47
102
}
330
47
100
AcDbScale
 70
     0
300
6" = 1'-0"
140
6.0
141
12.0
290
     0
  0
SCALE
  5
68
102
{ACAD_REACTORS
330
47
102
}
330
47
100
AcDbScale
 70
     0
300
1'-0" = 1'-0"
140
12.0
141
12.0
290
     0
  0
TABLESTYLE
  5
6A
102
{ACAD_REACTORS
330
69
102
}
102
{ACAD_XDICTIONARY
360
4AE
102
}
330
69
100
AcDbTableStyle
  3
Standard
 70
     0
 71
     0
 40
0.06
 41
0.06
280
     0
281
     0
  7
Standard
140
0.18
170
     2
 62
     0
 63
   257
283
     0
 90
        4
 91
        0
  1

274
    -2
284
     1
 64
     0
275
    -2
285
     1
 65
     0
276
    -2
286
     1
 66
     0
277
    -2
287
     1
 67
     0
278
    -2
288
     1
 68
     0
279
    -2
289
     1
 69
     0
  7
Standard
140
0.25
170
     5
 62
     0
 63
   257
283
     0
 90
        4
 91
        0
  1

274
    -2
284
     1
 64
     0
275
    -2
285
     1
 65
     0
276
    -2
286
     1
 66
     0
277
    -2
287
     1
 67
     0
278
    -2
288
     1
 68
     0
279
    -2
289
     1
 69
     0
  7
Standard
140
0.18
170
     5
 62
     0
 63
   257
283
     0
 90
        4
 91
        0
  1

274
    -2
284
     1
 64
     0
275
    -2
285
     1
 65
     0
276
    -2
286
     1
 66
     0
277
    -2
287
     1
 67
     0
278
    -2
288
     1
 68
     0
279
    -2
289
     1
 69
     0
  0
VISUALSTYLE
  5
2F
102
{ACAD_REACTORS
330
2A
102
}
330
2A
100
AcDbVisualStyle
  2
2dWireframe
 70
     4
177
     2
291
     0
 71
     0
176
     1
 72
     2
176
     1
 73
     0
176
     1
 90
        0
176
     1
 40
0.6
176
     1
 41
30.0
176
     1
 62
     5
 63
     7
421
 16777215
176
     1
 74
     1
176
     1
 91
        4
176
     1
 64
     7
176
     1
 65
   257
176
     1
 75
     1
176
     1
175
     1
176
     1
 42
1.0
176
     1
 92
        0
176
     1
 66
   257
176
     1
 43
1.0
176
     1
 76
     1
176
     1
 77
     6
176
     1
 78
     2
176
     1
 67
     7
176
     1
 79
     5
176
     1
170
     0
176
     1
171
     0
176
     1
290
     0
176
     1
 93
        1
176
     1
 44
0.0
176
     1
173
     0
176
     1
  0
VISUALSTYLE
  5
32
102
{ACAD_REACTORS
330
2A
102
}
330
2A
100
AcDbVisualStyle
  2
Basic
 70
     7
177
     2
291
     1
 71
     1
176
     1
 72
     0
176
     1
 73
     1
176
     1
 90
        0
176
     1
 40
0.6
176
     1
 41
30.0
176
     1
 62
     5
 63
     7
421
 16777215
176
     1
 74
     0
176
     1
 91
        4
176
     1
 64
     7
176
     1
 65
   257
176
     1
 75
     1
176
     1
175
     1
176
     1
 42
1.0
176
     1
 92
        8
176
     1
 66
     7
176
     1
 43
1.0
176
     1
 76
     1
176
     1
 77
     6
176
     1
 78
     2
176
     1
 67
     7
176
     1
 79
     5
176
     1
170
     0
176
     1
171
     0
176
     1
290
     0
176
     1
 93
        1
176
     1
 44
0.0
176
     1
173
     0
176
     1
  0
VISUALSTYLE
  5
36
102
{ACAD_REACTORS
330
2A
102
}
330
2A
100
AcDbVisualStyle
  2
Brighten
 70
    12
177
     2
291
     1
 71
     2
176
     1
 72
     2
176
     1
 73
     0
176
     1
 90
        0
176
     1
 40
0.6
176
     1
 41
30.0
176
     1
 62
     5
 63
     7
421
 16777215
176
     1
 74
     1
176
     1
 91
        4
176
     1
 64
     7
176
     1
 65
   257
176
     1
 75
     1
176
     1
175
     1
176
     1
 42
1.0
176
     1
 92
        8
176
     1
 66
     7
176
     1
 43
1.0
176
     1
 76
     1
176
     1
 77
     6
176
     1
 78
     2
176
     1
 67
     7
176
     1
 79
     5
176
     1
170
     0
176
     1
171
     0
176
     1
290
     0
176
     1
 93
        1
176
     1
 44
50.0
176
     1
173
     0
176
     1
  0
VISUALSTYLE
  5
3A
102
{ACAD_REACTORS
330
2A
102
}
330
2A
100
AcDbVisualStyle
  2
ColorChange
 70
    16
177
     2
291
     1
 71
     2
176
     1
 72
     2
176
     1
 73
     3
176
     1
 90
        0
176
     1
 40
0.6
176
     1
 41
30.0
176
     1
 62
     5
 63
     8
421
  8421504
176
     1
 74
     1
176
     1
 91
        4
176
     1
 64
     7
176
     1
 65
   257
176
     1
 75
     1
176
     1
175
     1
176
     1
 42
1.0
176
     1
 92
        8
176
     1
 66
     8
424
  8421504
176
     1
 43
1.0
176
     1
 76
     1
176
     1
 77
     6
176
     1
 78
     2
176
     1
 67
     7
176
     1
 79
     5
176
     1
170
     0
176
     1
171
     0
176
     1
290
     0
176
     1
 93
        1
176
     1
 44
0.0
176
     1
173
     0
176
     1
  0
VISUALSTYLE
  5
34
102
{ACAD_REACTORS
330
2A
102
}
330
2A
100
AcDbVisualStyle
  2
Conceptual
 70
     9
177
     2
291
     0
 71
     3
176
     1
 72
     2
176
     1
 73
     0
176
     1
 90
        0
176
     1
 40
0.6
176
     1
 41
30.0
176
     1
 62
     5
 63
     7
421
 16777215
176
     1
 74
     2
176
     1
 91
        2
176
     1
 64
     7
176
     1
 65
   257
176
     1
 75
     1
176
     1
175
     1
176
     1
 42
179.0
176
     1
 92
        8
176
     1
 66
     7
176
     1
 43
1.0
176
     1
 76
     1
176
     1
 77
     6
176
     1
 78
     2
176
     1
 67
     7
176
     1
 79
     3
176
     1
170
     0
176
     1
171
     0
176
     1
290
     0
176
     1
 93
        1
176
     1
 44
0.0
176
     1
173
     0
176
     1
  0
VISUALSTYLE
  5
35
102
{ACAD_REACTORS
330
2A
102
}
330
2A
100
AcDbVisualStyle
  2
Dim
 70
    11
177
     2
291
     1
 71
     2
176
     1
 72
     2
176
     1
 73
     0
176
     1
 90
        0
176
     1
 40
0.6
176
     1
 41
30.0
176
     1
 62
     5
 63
     7
421
 16777215
176
     1
 74
     1
176
     1
 91
        4
176
     1
 64
     7
176
     1
 65
   257
176
     1
 75
     1
176
     1
175
     1
176
     1
 42
1.0
176
     1
 92
        8
176
     1
 66
     7
176
     1
 43
1.0
176
     1
 76
     1
176
     1
 77
     6
176
     1
 78
     2
176
     1
 67
     7
176
     1
 79
     5
176
     1
170
     0
176
     1
171
     0
176
     1
290
     0
176
     1
 93
        1
176
     1
 44
-50.0
176
     1
173
     0
176
     1
  0
VISUALSTYLE
  5
3D
102
{ACAD_REACTORS
330
2A
102
}
330
2A
100
AcDbVisualStyle
  2
EdgeColorOff
 70
    22
177
     2
291
     1
 71
     2
176
     0
 72
     2
176
     0
 73
     0
176
     0
 90
        0
176
     0
 40
0.6
176
     0
 41
30.0
176
     0
 62
     5
 63
     7
421
 16777215
176
     0
 74
     1
176
     0
 91
        4
176
     0
 64
     7
176
     0
 65
   257
176
     0
 75
     1
176
     0
175
     1
176
     0
 42
1.0
176
     0
 92
        8
176
     2
 66
     7
176
     0
 43
1.0
176
     0
 76
     1
176
     0
 77
     6
176
     0
 78
     2
176
     0
 67
     7
176
     0
 79
     5
176
     0
170
     0
176
     0
171
     0
176
     0
290
     0
176
     0
 93
        1
176
     0
 44
0.0
176
     0
173
     0
176
     0
  0
VISUALSTYLE
  5
39
102
{ACAD_REACTORS
330
2A
102
}
330
2A
100
AcDbVisualStyle
  2
Facepattern
 70
    15
177
     2
291
     1
 71
     2
176
     1
 72
     2
176
     1
 73
     0
176
     1
 90
        0
176
     1
 40
0.6
176
     1
 41
30.0
176
     1
 62
     5
 63
     7
421
 16777215
176
     1
 74
     1
176
     1
 91
        4
176
     1
 64
     7
176
     1
 65
   257
176
     1
 75
     1
176
     1
175
     1
176
     1
 42
1.0
176
     1
 92
        8
176
     1
 66
     7
176
     1
 43
1.0
176
     1
 76
     1
176
     1
 77
     6
176
     1
 78
     2
176
     1
 67
     7
176
     1
 79
     5
176
     1
170
     0
176
     1
171
     0
176
     1
290
     0
176
     1
 93
        1
176
     1
 44
0.0
176
     1
173
     0
176
     1
  0
VISUALSTYLE
  5
2B
102
{ACAD_REACTORS
330
2A
102
}
330
2A
100
AcDbVisualStyle
  2
Flat
 70
     0
177
     2
291
     1
 71
     2
176
     1
 72
     1
176
     1
 73
     1
176
     1
 90
        2
176
     1
 40
0.6
176
     1
 41
30.0
176
     1
 62
     5
 63
     7
421
 16777215
176
     1
 74
     0
176
     1
 91
        0
176
     1
 64
     7
176
     1
 65
   257
176
     1
 75
     1
176
     1
175
     1
176
     1
 42
1.0
176
     1
 92
        8
176
     1
 66
     7
176
     1
 43
1.0
176
     1
 76
     1
176
     1
 77
     6
176
     1
 78
     2
176
     1
 67
     7
176
     1
 79
     5
176
     1
170
     0
176
     1
171
     0
176
     1
290
     0
176
     1
 93
       13
176
     1
 44
0.0
176
     1
173
     0
176
     1
  0
VISUALSTYLE
  5
2C
102
{ACAD_REACTORS
330
2A
102
}
330
2A
100
AcDbVisualStyle
  2
FlatWithEdges
 70
     1
177
     2
291
     1
 71
     2
176
     1
 72
     1
176
     1
 73
     1
176
     1
 90
        2
176
     1
 40
0.6
176
     1
 41
30.0
176
     1
 62
     5
 63
     7
421
 16777215
176
     1
 74
     1
176
     1
 91
        0
176
     1
 64
     7
176
     1
 65
   257
176
     1
 75
     1
176
     1
175
     1
176
     1
 42
1.0
176
     1
 92
        0
176
     1
 66
   257
176
     1
 43
1.0
176
     1
 76
     1
176
     1
 77
     6
176
     1
 78
     2
176
     1
 67
     7
176
     1
 79
     5
176
     1
170
     0
176
     1
171
     0
176
     1
290
     0
176
     1
 93
       13
176
     1
 44
0.0
176
     1
173
     0
176
     1
  0
VISUALSTYLE
  5
2D
102
{ACAD_REACTORS
330
2A
102
}
330
2A
100
AcDbVisualStyle
  2
Gouraud
 70
     2
177
     2
291
     1
 71
     2
176
     1
 72
     2
176
     1
 73
     1
176
     1
 90
        2
176
     1
 40
0.6
176
     1
 41
30.0
176
     1
 62
     5
 63
     7
421
 16777215
176
     1
 74
     0
176
     1
 91
        0
176
     1
 64
     7
176
     1
 65
   257
176
     1
 75
     1
176
     1
175
     1
176
     1
 42
1.0
176
     1
 92
        0
176
     1
 66
     7
176
     1
 43
1.0
176
     1
 76
     1
176
     1
 77
     6
176
     1
 78
     2
176
     1
 67
     7
176
     1
 79
     5
176
     1
170
     0
176
     1
171
     0
176
     1
290
     0
176
     1
 93
       13
176
     1
 44
0.0
176
     1
173
     0
176
     1
  0
VISUALSTYLE
  5
2E
102
{ACAD_REACTORS
330
2A
102
}
330
2A
100
AcDbVisualStyle
  2
GouraudWithEdges
 70
     3
177
     2
291
     1
 71
     2
176
     1
 72
     2
176
     1
 73
     1
176
     1
 90
        2
176
     1
 40
0.6
176
     1
 41
30.0
176
     1
 62
     5
 63
     7
421
 16777215
176
     1
 74
     1
176
     1
 91
        0
176
     1
 64
     7
176
     1
 65
   257
176
     1
 75
     1
176
     1
175
     1
176
     1
 42
1.0
176
     1
 92
        0
176
     1
 66
   257
176
     1
 43
1.0
176
     1
 76
     1
176
     1
 77
     6
176
     1
 78
     2
176
     1
 67
     7
176
     1
 79
     5
176
     1
170
     0
176
     1
171
     0
176
     1
290
     0
176
     1
 93
       13
176
     1
 44
0.0
176
     1
173
     0
176
     1
  0
VISUALSTYLE
  5
31
102
{ACAD_REACTORS
330
2A
102
}
330
2A
100
AcDbVisualStyle
  2
Hidden
 70
     6
177
     2
291
     0
 71
     1
176
     1
 72
     2
176
     1
 73
     2
176
     1
 90
        0
176
     1
 40
0.6
176
     1
 41
30.0
176
     1
 62
     5
 63
     7
421
 16777215
176
     1
 74
     2
176
     1
 91
        2
176
     1
 64
     7
176
     1
 65
   257
176
     1
 75
     2
176
     1
175
     1
176
     1
 42
40.0
176
     1
 92
        0
176
     1
 66
   257
176
     1
 43
1.0
176
     1
 76
     1
176
     1
 77
     6
176
     1
 78
     2
176
     1
 67
     7
176
     1
 79
     3
176
     1
170
     0
176
     1
171
     0
176
     1
290
     0
176
     1
 93
        1
176
     1
 44
0.0
176
     1
173
     0
176
     1
  0
VISUALSTYLE
  5
3B
102
{ACAD_REACTORS
330
2A
102
}
330
2A
100
AcDbVisualStyle
  2
JitterOff
 70
    20
177
     2
291
     1
 71
     2
176
     0
 72
     2
176
     0
 73
     0
176
     0
 90
        0
176
     0
 40
0.6
176
     0
 41
30.0
176
     0
 62
     5
 63
     7
421
 16777215
176
     0
 74
     1
176
     0
 91
        4
176
     0
 64
     7
176
     0
 65
   257
176
     0
 75
     1
176
     0
175
     1
176
     0
 42
1.0
176
     0
 92
       10
176
     2
 66
     7
176
     0
 43
1.0
176
     0
 76
     1
176
     0
 77
     6
176
     0
 78
     2
176
     0
 67
     7
176
     0
 79
     5
176
     0
170
     0
176
     0
171
     0
176
     0
290
     0
176
     0
 93
        1
176
     0
 44
0.0
176
     0
173
     0
176
     0
  0
VISUALSTYLE
  5
38
102
{ACAD_REACTORS
330
2A
102
}
330
2A
100
AcDbVisualStyle
  2
Linepattern
 70
    14
177
     2
291
     1
 71
     2
176
     1
 72
     2
176
     1
 73
     0
176
     1
 90
        0
176
     1
 40
0.6
176
     1
 41
30.0
176
     1
 62
     5
 63
     7
421
 16777215
176
     1
 74
     1
176
     1
 91
        4
176
     1
 64
     7
176
     1
 65
   257
176
     1
 75
     7
176
     1
175
     7
176
     1
 42
1.0
176
     1
 92
        8
176
     1
 66
     7
176
     1
 43
1.0
176
     1
 76
     1
176
     1
 77
     6
176
     1
 78
     2
176
     1
 67
     7
176
     1
 79
     5
176
     1
170
     0
176
     1
171
     0
176
     1
290
     0
176
     1
 93
        1
176
     1
 44
0.0
176
     1
173
     0
176
     1
  0
VISUALSTYLE
  5
3C
102
{ACAD_REACTORS
330
2A
102
}
330
2A
100
AcDbVisualStyle
  2
OverhangOff
 70
    21
177
     2
291
     1
 71
     2
176
     0
 72
     2
176
     0
 73
     0
176
     0
 90
        0
176
     0
 40
0.6
176
     0
 41
30.0
176
     0
 62
     5
 63
     7
421
 16777215
176
     0
 74
     1
176
     0
 91
        4
176
     0
 64
     7
176
     0
 65
   257
176
     0
 75
     1
176
     0
175
     1
176
     0
 42
1.0
176
     0
 92
        9
176
     2
 66
     7
176
     0
 43
1.0
176
     0
 76
     1
176
     0
 77
     6
176
     0
 78
     2
176
     0
 67
     7
176
     0
 79
     5
176
     0
170
     0
176
     0
171
     0
176
     0
290
     0
176
     0
 93
        1
176
     0
 44
0.0
176
     0
173
     0
176
     0
  0
VISUALSTYLE
  5
33
102
{ACAD_REACTORS
330
2A
102
}
330
2A
100
AcDbVisualStyle
  2
Realistic
 70
     8
177
     2
291
     0
 71
     2
176
     1
 72
     3
176
     1
 73
     0
176
     1
 90
        2
176
     1
 40
0.6
176
     1
 41
30.0
176
     1
 62
     5
 63
     7
421
 16777215
176
     1
 74
     0
176
     1
 91
        0
176
     1
 64
     7
176
     1
 65
   257
176
     1
 75
     1
176
     1
175
     1
176
     1
 42
1.0
176
     1
 92
        8
176
     1
 66
   257
176
     1
 43
1.0
176
     1
 76
     1
176
     1
 77
     6
176
     1
 78
     2
176
     1
 67
     7
176
     1
 79
     3
176
     1
170
     0
176
     1
171
     0
176
     1
290
     0
176
     1
 93
       13
176
     1
 44
0.0
176
     1
173
     0
176
     1
  0
VISUALSTYLE
  5
42
102
{ACAD_REACTORS
330
2A
102
}
330
2A
100
AcDbVisualStyle
  2
Shaded
 70
    27
177
     2
291
     0
 71
     2
176
     1
 72
     2
176
     1
 73
     1
176
     1
 90
        2
176
     1
 40
0.6
176
     1
 41
30.0
176
     1
 62
     5
 63
     7
421
 16777215
176
     1
 74
     0
176
     1
 91
        4
176
     1
 64
     7
176
     1
 65
   257
176
     1
 75
     1
176
     1
175
     1
176
     1
 42
1.0
176
     1
 92
        8
176
     1
 66
   257
176
     1
 43
1.0
176
     1
 76
     1
176
     1
 77
     6
176
     1
 78
     2
176
     1
 67
     8
425
  7895160
176
     1
 79
     3
176
     1
170
     0
176
     1
171
     0
176
     1
290
     0
176
     1
 93
        5
176
     1
 44
0.0
176
     1
173
     0
176
     1
  0
VISUALSTYLE
  5
41
102
{ACAD_REACTORS
330
2A
102
}
330
2A
100
AcDbVisualStyle
  2
Shaded with edges
 70
    26
177
     2
291
     0
 71
     2
176
     1
 72
     2
176
     1
 73
     1
176
     1
 90
        2
176
     1
 40
0.6
176
     1
 41
30.0
176
     1
 62
     5
 63
     7
421
 16777215
176
     1
 74
     1
176
     1
 91
       10
176
     1
 64
     7
176
     1
 65
   257
176
     1
 75
     2
176
     1
175
     1
176
     1
 42
1.0
176
     1
 92
        8
176
     1
 66
   257
176
     1
 43
1.0
176
     1
 76
     1
176
     1
 77
     6
176
     1
 78
     2
176
     1
 67
     7
176
     1
 79
     3
176
     1
170
     0
176
     1
171
     0
176
     1
290
     0
176
     1
 93
        5
176
     1
 44
0.0
176
     1
173
     0
176
     1
  0
VISUALSTYLE
  5
3E
102
{ACAD_REACTORS
330
2A
102
}
330
2A
100
AcDbVisualStyle
  2
Shades of Gray
 70
    23
177
     2
291
     0
 71
     2
176
     1
 72
     2
176
     1
 73
     3
176
     1
 90
        0
176
     1
 40
0.6
176
     1
 41
30.0
176
     1
 62
     5
 63
     7
421
 16777215
176
     1
 74
     2
176
     1
 91
        2
176
     1
 64
     7
176
     1
 65
     7
176
     1
 75
     1
176
     1
175
     1
176
     1
 42
40.0
176
     1
 92
        8
176
     1
 66
     7
176
     1
 43
1.0
176
     1
 76
     1
176
     1
 77
     6
176
     1
 78
     2
176
     1
 67
     7
176
     1
 79
     3
176
     1
170
     0
176
     1
171
     0
176
     1
290
     0
176
     1
 93
        1
176
     1
 44
0.0
176
     1
173
     0
176
     1
  0
VISUALSTYLE
  5
3F
102
{ACAD_REACTORS
330
2A
102
}
330
2A
100
AcDbVisualStyle
  2
Sketchy
 70
    24
177
     2
291
     0
 71
     1
176
     1
 72
     2
176
     1
 73
     2
176
     1
 90
        0
176
     1
 40
0.6
176
     1
 41
30.0
176
     1
 62
     5
 63
     7
421
 16777215
176
     1
 74
     2
176
     1
 91
        2
176
     1
 64
     7
176
     1
 65
     7
176
     1
 75
     1
176
     1
175
     1
176
     1
 42
40.0
176
     1
 92
       11
176
     1
 66
     7
176
     1
 43
1.0
176
     1
 76
     1
176
     1
 77
     6
176
     1
 78
     2
176
     1
 67
     7
176
     1
 79
     6
176
     1
170
     0
176
     1
171
     0
176
     1
290
     0
176
     1
 93
        1
176
     1
 44
0.0
176
     1
173
     0
176
     1
  0
VISUALSTYLE
  5
37
102
{ACAD_REACTORS
330
2A
102
}
330
2A
100
AcDbVisualStyle
  2
Thicken
 70
    13
177
     2
291
     1
 71
     2
176
     1
 72
     2
176
     1
 73
     0
176
     1
 90
        0
176
     1
 40
0.6
176
     1
 41
30.0
176
     1
 62
     5
 63
     7
421
 16777215
176
     1
 74
     1
176
     1
 91
        4
176
     1
 64
     7
176
     1
 65
   257
176
     1
 75
     1
176
     1
175
     1
176
     1
 42
1.0
176
     1
 92
       12
176
     1
 66
     7
176
     1
 43
1.0
176
     1
 76
     1
176
     1
 77
     6
176
     1
 78
     2
176
     1
 67
     7
176
     1
 79
     5
176
     1
170
     0
176
     1
171
     0
176
     1
290
     0
176
     1
 93
        1
176
     1
 44
0.0
176
     1
173
     0
176
     1
  0
VISUALSTYLE
  5
30
102
{ACAD_REACTORS
330
2A
102
}
330
2A
100
AcDbVisualStyle
  2
Wireframe
 70
     5
177
     2
291
     0
 71
     0
176
     1
 72
     2
176
     1
 73
     0
176
     1
 90
        0
176
     1
 40
0.6
176
     1
 41
30.0
176
     1
 62
     5
 63
     7
421
 16777215
176
     1
 74
     1
176
     1
 91
        4
176
     1
 64
     7
176
     1
 65
   257
176
     1
 75
     1
176
     1
175
     1
176
     1
 42
1.0
176
     1
 92
        0
176
     1
 66
   257
176
     1
 43
1.0
176
     1
 76
     1
176
     1
 77
     6
176
     1
 78
     2
176
     1
 67
     7
176
     1
 79
     3
176
     1
170
     0
176
     1
171
     0
176
     1
290
     0
176
     1
 93
        1
176
     1
 44
0.0
176
     1
173
     0
176
     1
  0
VISUALSTYLE
  5
40
102
{ACAD_REACTORS
330
2A
102
}
330
2A
100
AcDbVisualStyle
  2
X-Ray
 70
    25
177
     2
291
     0
 71
     2
176
     1
 72
     2
176
     1
 73
     1
176
     1
 90
        1
176
     1
 40
0.5
176
     1
 41
30.0
176
     1
 62
     5
 63
     7
421
 16777215
176
     1
 74
     1
176
     1
 91
        0
176
     1
 64
     7
176
     1
 65
   257
176
     1
 75
     1
176
     1
175
     1
176
     1
 42
1.0
176
     1
 92
        8
176
     1
 66
     7
176
     1
 43
1.0
176
     1
 76
     1
176
     1
 77
     6
176
     1
 78
     2
176
     1
 67
     7
176
     1
 79
     3
176
     1
170
     0
176
     1
171
     0
176
     1
290
     0
176
     1
 93
       13
176
     1
 44
0.0
176
     1
173
     0
176
     1
  0
DICTIONARYVAR
  5
4AD
102
{ACAD_REACTORS
330
4AC
102
}
330
4AC
100
DictionaryVariables
280
     0
  1
1:1
  0
DICTIONARYVAR
  5
4B2
102
{ACAD_REACTORS
330
4AC
102
}
330
4AC
100
DictionaryVariables
280
     0
  1
Standard
  0
DICTIONARYVAR
  5
4B1
102
{ACAD_REACTORS
330
4AC
102
}
330
4AC
100
DictionaryVariables
280
     0
  1
Standard
  0
DICTIONARY
  5
4AE
330
6A
100
AcDbDictionary
280
     1
281
     1
  3
ACAD_ROUNDTRIP_2008_TABLESTYLE_CELLSTYLEMAP
360
4AF
  0
CELLSTYLEMAP
  5
4AF
102
{ACAD_REACTORS
330
4AE
102
}
330
4AE
100
AcDbCellStyleMap
 90
        3
300
CELLSTYLE
  1
TABLEFORMAT_BEGIN
 90
        5
170
     1
 91
        0
 92
    32768
 62
   257
 93
        1
300
CONTENTFORMAT
  1
CONTENTFORMAT_BEGIN
 90
        0
 91
        0
 92
        4
 93
        0
300

 40
0.0
140
1.0
 94
        5
 62
     0
340
11
144
0.25
309
CONTENTFORMAT_END
171
     1
301
MARGIN
  1
CELLMARGIN_BEGIN
 40
0.06
 40
0.06
 40
0.06
 40
0.06
 40
0.06
 40
0.06
309
CELLMARGIN_END
 94
        6
 95
        1
302
GRIDFORMAT
  1
GRIDFORMAT_BEGIN
 90
        0
 91
        1
 62
     0
 92
       -2
340
14
 93
        0
 40
0.045
309
GRIDFORMAT_END
 95
        2
302
GRIDFORMAT
  1
GRIDFORMAT_BEGIN
 90
        0
 91
        1
 62
     0
 92
       -2
340
14
 93
        0
 40
0.045
309
GRIDFORMAT_END
 95
        4
302
GRIDFORMAT
  1
GRIDFORMAT_BEGIN
 90
        0
 91
        1
 62
     0
 92
       -2
340
14
 93
        0
 40
0.045
309
GRIDFORMAT_END
 95
        8
302
GRIDFORMAT
  1
GRIDFORMAT_BEGIN
 90
        0
 91
        1
 62
     0
 92
       -2
340
14
 93
        0
 40
0.045
309
GRIDFORMAT_END
 95
       16
302
GRIDFORMAT
  1
GRIDFORMAT_BEGIN
 90
        0
 91
        1
 62
     0
 92
       -2
340
14
 93
        0
 40
0.045
309
GRIDFORMAT_END
 95
       32
302
GRIDFORMAT
  1
GRIDFORMAT_BEGIN
 90
        0
 91
        1
 62
     0
 92
       -2
340
14
 93
        0
 40
0.045
309
GRIDFORMAT_END
309
TABLEFORMAT_END
  1
CELLSTYLE_BEGIN
 90
        1
 91
        1
300
_TITLE
309
CELLSTYLE_END
300
CELLSTYLE
  1
TABLEFORMAT_BEGIN
 90
        5
170
     1
 91
        0
 92
        0
 62
   257
 93
        1
300
CONTENTFORMAT
  1
CONTENTFORMAT_BEGIN
 90
        0
 91
        0
 92
        4
 93
        0
300

 40
0.0
140
1.0
 94
        5
 62
     0
340
11
144
0.18
309
CONTENTFORMAT_END
171
     1
301
MARGIN
  1
CELLMARGIN_BEGIN
 40
0.06
 40
0.06
 40
0.06
 40
0.06
 40
0.06
 40
0.06
309
CELLMARGIN_END
 94
        6
 95
        1
302
GRIDFORMAT
  1
GRIDFORMAT_BEGIN
 90
        0
 91
        1
 62
     0
 92
       -2
340
14
 93
        0
 40
0.045
309
GRIDFORMAT_END
 95
        2
302
GRIDFORMAT
  1
GRIDFORMAT_BEGIN
 90
        0
 91
        1
 62
     0
 92
       -2
340
14
 93
        0
 40
0.045
309
GRIDFORMAT_END
 95
        4
302
GRIDFORMAT
  1
GRIDFORMAT_BEGIN
 90
        0
 91
        1
 62
     0
 92
       -2
340
14
 93
        0
 40
0.045
309
GRIDFORMAT_END
 95
        8
302
GRIDFORMAT
  1
GRIDFORMAT_BEGIN
 90
        0
 91
        1
 62
     0
 92
       -2
340
14
 93
        0
 40
0.045
309
GRIDFORMAT_END
 95
       16
302
GRIDFORMAT
  1
GRIDFORMAT_BEGIN
 90
        0
 91
        1
 62
     0
 92
       -2
340
14
 93
        0
 40
0.045
309
GRIDFORMAT_END
 95
       32
302
GRIDFORMAT
  1
GRIDFORMAT_BEGIN
 90
        0
 91
        1
 62
     0
 92
       -2
340
14
 93
        0
 40
0.045
309
GRIDFORMAT_END
309
TABLEFORMAT_END
  1
CELLSTYLE_BEGIN
 90
        2
 91
        1
300
_HEADER
309
CELLSTYLE_END
300
CELLSTYLE
  1
TABLEFORMAT_BEGIN
 90
        5
170
     1
 91
        0
 92
        0
 62
   257
 93
        1
300
CONTENTFORMAT
  1
CONTENTFORMAT_BEGIN
 90
        0
 91
        0
 92
        4
 93
        0
300

 40
0.0
140
1.0
 94
        2
 62
     0
340
11
144
0.18
309
CONTENTFORMAT_END
171
     1
301
MARGIN
  1
CELLMARGIN_BEGIN
 40
0.06
 40
0.06
 40
0.06
 40
0.06
 40
0.06
 40
0.06
309
CELLMARGIN_END
 94
        6
 95
        1
302
GRIDFORMAT
  1
GRIDFORMAT_BEGIN
 90
        0
 91
        1
 62
     0
 92
       -2
340
14
 93
        0
 40
0.045
309
GRIDFORMAT_END
 95
        2
302
GRIDFORMAT
  1
GRIDFORMAT_BEGIN
 90
        0
 91
        1
 62
     0
 92
       -2
340
14
 93
        0
 40
0.045
309
GRIDFORMAT_END
 95
        4
302
GRIDFORMAT
  1
GRIDFORMAT_BEGIN
 90
        0
 91
        1
 62
     0
 92
       -2
340
14
 93
        0
 40
0.045
309
GRIDFORMAT_END
 95
        8
302
GRIDFORMAT
  1
GRIDFORMAT_BEGIN
 90
        0
 91
        1
 62
     0
 92
       -2
340
14
 93
        0
 40
0.045
309
GRIDFORMAT_END
 95
       16
302
GRIDFORMAT
  1
GRIDFORMAT_BEGIN
 90
        0
 91
        1
 62
     0
 92
       -2
340
14
 93
        0
 40
0.045
309
GRIDFORMAT_END
 95
       32
302
GRIDFORMAT
  1
GRIDFORMAT_BEGIN
 90
        0
 91
        1
 62
     0
 92
       -2
340
14
 93
        0
 40
0.045
309
GRIDFORMAT_END
309
TABLEFORMAT_END
  1
CELLSTYLE_BEGIN
 90
        3
 91
        2
300
_DATA
309
CELLSTYLE_END
  0
ENDSEC
  0
EOF
