  0
SECTION
  2
HEADER
  9
$ACADVER
  1
AC1018
  9
$ACADMAINTVER
 70
    39
  9
$DWGCODEPAGE
  3
ANSI_1252
  9
$LASTSAVEDBY
  1
fottrem
  9
$INSBASE
 10
0.0
 20
0.0
 30
0.0
  9
$EXTMIN
 10
21.47759370646601
 20
0.3573773641115478
 30
-0.8193735972071386
  9
$EXTMAX
 10
46.41568767877938
 20
20.14136992977929
 30
0.0
  9
$LIMMIN
 10
0.0
 20
0.0
  9
$LIMMAX
 10
46.81102362204724
 20
33.11023622047244
  9
$ORTHOMODE
 70
     0
  9
$REGENMODE
 70
     1
  9
$FILLMODE
 70
     1
  9
$QTEXTMODE
 70
     0
  9
$MIRRTEXT
 70
     1
  9
$LTSCALE
 40
1.0
  9
$ATTMODE
 70
     1
  9
$TEXTSIZE
 40
0.5
  9
$TRACEWID
 40
0.05
  9
$TEXTSTYLE
  7
Standard
  9
$CLAYER
  8
0
  9
$CELTYPE
  6
ByLayer
  9
$CECOLOR
 62
   256
  9
$CELTSCALE
 40
1.0
  9
$DISPSILH
 70
     0
  9
$DIMSCALE
 40
1.0
  9
$DIMASZ
 40
0.5
  9
$DIMEXO
 40
0.1666666666666667
  9
$DIMDLI
 40
0.38
  9
$DIMRND
 40
0.0
  9
$DIMDLE
 40
0.0
  9
$DIMEXE
 40
0.3750000000000001
  9
$DIMTP
 40
0.0
  9
$DIMTM
 40
0.0
  9
$DIMTXT
 40
0.5
  9
$DIMCEN
 40
0.09
  9
$DIMTSZ
 40
0.0
  9
$DIMTOL
 70
     0
  9
$DIMLIM
 70
     0
  9
$DIMTIH
 70
     1
  9
$DIMTOH
 70
     1
  9
$DIMSE1
 70
     0
  9
$DIMSE2
 70
     0
  9
$DIMTAD
 70
     0
  9
$DIMZIN
 70
     1
  9
$DIMBLK
  1

  9
$DIMASO
 70
     1
  9
$DIMSHO
 70
     1
  9
$DIMPOST
  1

  9
$DIMAPOST
  1

  9
$DIMALT
 70
     0
  9
$DIMALTD
 70
     2
  9
$DIMALTF
 40
25.4
  9
$DIMLFAC
 40
1.0
  9
$DIMTOFL
 70
     0
  9
$DIMTVP
 40
0.0
  9
$DIMTIX
 70
     0
  9
$DIMSOXD
 70
     0
  9
$DIMSAH
 70
     0
  9
$DIMBLK1
  1

  9
$DIMBLK2
  1

  9
$DIMSTYLE
  2
Standard
  9
$DIMCLRD
 70
     0
  9
$DIMCLRE
 70
     0
  9
$DIMCLRT
 70
     0
  9
$DIMTFAC
 40
1.0
  9
$DIMGAP
 40
0.125
  9
$DIMJUST
 70
     0
  9
$DIMSD1
 70
     0
  9
$DIMSD2
 70
     0
  9
$DIMTOLJ
 70
     1
  9
$DIMTZIN
 70
     1
  9
$DIMALTZ
 70
     0
  9
$DIMALTTZ
 70
     0
  9
$DIMUPT
 70
     0
  9
$DIMDEC
 70
     2
  9
$DIMTDEC
 70
     2
  9
$DIMALTU
 70
     2
  9
$DIMALTTD
 70
     2
  9
$DIMTXSTY
  7
Standard
  9
$DIMAUNIT
 70
     0
  9
$DIMADEC
 70
     2
  9
$DIMALTRND
 40
0.0
  9
$DIMAZIN
 70
     0
  9
$DIMDSEP
 70
    46
  9
$DIMATFIT
 70
     3
  9
$DIMFRAC
 70
     0
  9
$DIMLDRBLK
  1

  9
$DIMLUNIT
 70
     2
  9
$DIMLWD
 70
    -2
  9
$DIMLWE
 70
    -2
  9
$DIMTMOVE
 70
     0
  9
$LUNITS
 70
     2
  9
$LUPREC
 70
     2
  9
$SKETCHINC
 40
0.1
  9
$FILLETRAD
 40
0.5
  9
$AUNITS
 70
     0
  9
$AUPREC
 70
     2
  9
$MENU
  1
.
  9
$ELEVATION
 40
0.0
  9
$PELEVATION
 40
0.0
  9
$THICKNESS
 40
0.0
  9
$LIMCHECK
 70
     0
  9
$CHAMFERA
 40
0.0
  9
$CHAMFERB
 40
0.0
  9
$CHAMFERC
 40
0.0
  9
$CHAMFERD
 40
0.0
  9
$SKPOLY
 70
     0
  9
$TDCREATE
 40
2453353.550459155
  9
$TDUCREATE
 40
2453353.717125822
  9
$TDUPDATE
 40
2459488.456225324
  9
$TDUUPDATE
 40
2459488.622891991
  9
$TDINDWG
 40
0.0427893634
  9
$TDUSRTIMER
 40
0.0427893634
  9
$USRTIMER
 70
     1
  9
$ANGBASE
 50
0.0
  9
$ANGDIR
 70
     0
  9
$PDMODE
 70
     0
  9
$PDSIZE
 40
-1.0
  9
$PLINEWID
 40
0.0
  9
$SPLFRAME
 70
     0
  9
$SPLINETYPE
 70
     6
  9
$SPLINESEGS
 70
     8
  9
$HANDSEED
  5
19F
  9
$SURFTAB1
 70
     6
  9
$SURFTAB2
 70
     6
  9
$SURFTYPE
 70
     6
  9
$SURFU
 70
     6
  9
$SURFV
 70
     6
  9
$UCSBASE
  2

  9
$UCSNAME
  2

  9
$UCSORG
 10
0.0
 20
0.0
 30
0.0
  9
$UCSXDIR
 10
1.0
 20
0.0
 30
0.0
  9
$UCSYDIR
 10
0.0
 20
1.0
 30
0.0
  9
$UCSORTHOREF
  2

  9
$UCSORTHOVIEW
 70
     0
  9
$UCSORGTOP
 10
0.0
 20
0.0
 30
0.0
  9
$UCSORGBOTTOM
 10
0.0
 20
0.0
 30
0.0
  9
$UCSORGLEFT
 10
0.0
 20
0.0
 30
0.0
  9
$UCSORGRIGHT
 10
0.0
 20
0.0
 30
0.0
  9
$UCSORGFRONT
 10
0.0
 20
0.0
 30
0.0
  9
$UCSORGBACK
 10
0.0
 20
0.0
 30
0.0
  9
$PUCSBASE
  2

  9
$PUCSNAME
  2

  9
$PUCSORG
 10
0.0
 20
0.0
 30
0.0
  9
$PUCSXDIR
 10
1.0
 20
0.0
 30
0.0
  9
$PUCSYDIR
 10
0.0
 20
1.0
 30
0.0
  9
$PUCSORTHOREF
  2

  9
$PUCSORTHOVIEW
 70
     0
  9
$PUCSORGTOP
 10
0.0
 20
0.0
 30
0.0
  9
$PUCSORGBOTTOM
 10
0.0
 20
0.0
 30
0.0
  9
$PUCSORGLEFT
 10
0.0
 20
0.0
 30
0.0
  9
$PUCSORGRIGHT
 10
0.0
 20
0.0
 30
0.0
  9
$PUCSORGFRONT
 10
0.0
 20
0.0
 30
0.0
  9
$PUCSORGBACK
 10
0.0
 20
0.0
 30
0.0
  9
$USERI1
 70
     0
  9
$USERI2
 70
     0
  9
$USERI3
 70
     0
  9
$USERI4
 70
     0
  9
$USERI5
 70
     0
  9
$USERR1
 40
0.0
  9
$USERR2
 40
0.0
  9
$USERR3
 40
0.0
  9
$USERR4
 40
0.0
  9
$USERR5
 40
0.0
  9
$WORLDVIEW
 70
     1
  9
$SHADEDGE
 70
     3
  9
$SHADEDIF
 70
    70
  9
$TILEMODE
 70
     1
  9
$MAXACTVP
 70
    64
  9
$PINSBASE
 10
0.0
 20
0.0
 30
0.0
  9
$PLIMCHECK
 70
     0
  9
$PEXTMIN
 10
1.000000000000000E+20
 20
1.000000000000000E+20
 30
1.000000000000000E+20
  9
$PEXTMAX
 10
-1.000000000000000E+20
 20
-1.000000000000000E+20
 30
-1.000000000000000E+20
  9
$PLIMMIN
 10
0.0
 20
0.0
  9
$PLIMMAX
 10
12.0
 20
9.0
  9
$UNITMODE
 70
     0
  9
$VISRETAIN
 70
     1
  9
$PLINEGEN
 70
     0
  9
$PSLTSCALE
 70
     1
  9
$TREEDEPTH
 70
  3020
  9
$CMLSTYLE
  2
Standard
  9
$CMLJUST
 70
     0
  9
$CMLSCALE
 40
1.0
  9
$PROXYGRAPHICS
 70
     1
  9
$MEASUREMENT
 70
     0
  9
$CELWEIGHT
370
    -1
  9
$ENDCAPS
280
     0
  9
$JOINSTYLE
280
     0
  9
$LWDISPLAY
290
     1
  9
$INSUNITS
 70
     1
  9
$HYPERLINKBASE
  1

  9
$STYLESHEET
  1

  9
$XEDIT
290
     0
  9
$CEPSNTYPE
380
     0
  9
$PSTYLEMODE
290
     1
  9
$FINGERPRINTGUID
  2
{582199da-b455-4422-85bb-0031ec775759}
  9
$VERSIONGUID
  2
{FAEB1C32-E019-11D5-929B-00C0DF256EC4}
  9
$EXTNAMES
290
     1
  9
$PSVPSCALE
 40
0.0
  9
$OLESTARTUP
290
     0
  9
$SORTENTS
280
   127
  9
$INDEXCTL
280
     0
  9
$HIDETEXT
280
     1
  9
$XCLIPFRAME
290
     0
  9
$HALOGAP
280
     0
  9
$OBSCOLOR
 70
   257
  9
$OBSLTYPE
280
     0
  9
$INTERSECTIONDISPLAY
280
     0
  9
$INTERSECTIONCOLOR
 70
   257
  9
$DIMASSOC
280
     2
  9
$PROJECTNAME
  1

  0
ENDSEC
  0
SECTION
  2
CLASSES
  0
CLASS
  1
ACDBDICTIONARYWDFLT
  2
AcDbDictionaryWithDefault
  3
ObjectDBX Classes
 90
        0
 91
        3
280
     0
281
     0
  0
CLASS
  1
ACDBPLACEHOLDER
  2
AcDbPlaceHolder
  3
ObjectDBX Classes
 90
        0
 91
        1
280
     0
281
     0
  0
CLASS
  1
LAYOUT
  2
AcDbLayout
  3
ObjectDBX Classes
 90
        0
 91
        1
280
     0
281
     0
  0
CLASS
  1
DICTIONARYVAR
  2
AcDbDictionaryVar
  3
ObjectDBX Classes
 90
        0
 91
        3
280
     0
281
     0
  0
CLASS
  1
TABLESTYLE
  2
AcDbTableStyle
  3
ObjectDBX Classes
 90
     2047
 91
        3
280
     0
281
     0
  0
CLASS
  1
SCALE
  2
AcDbScale
  3
ObjectDBX Classes
 90
     1153
 91
       67
280
     1
281
     0
  0
ENDSEC
  0
SECTION
  2
TABLES
  0
TABLE
  2
VPORT
  5
8
330
0
100
AcDbSymbolTable
 70
     2
  0
VPORT
  5
97
330
8
100
AcDbSymbolTableRecord
100
AcDbViewportTableRecord
  2
*Active
 70
     0
 10
0.0
 20
0.0
 11
1.0
 21
1.0
 12
29.92058862571783
 22
8.950474555145796
 13
0.0
 23
0.0
 14
0.5
 24
0.5
 15
0.5
 25
0.5
 16
0.0
 26
0.0
 36
1.0
 17
0.0
 27
0.0
 37
0.0
 40
23.56721214216846
 41
1.413793103448276
 42
50.0
 43
0.0
 44
0.0
 50
0.0
 51
0.0
 71
    16
 72
  2000
 73
     1
 74
     1
 75
     0
 76
     0
 77
     0
 78
     0
281
     0
 65
     0
110
0.0
120
0.0
130
0.0
111
1.0
121
0.0
131
0.0
112
0.0
122
1.0
132
0.0
 79
     0
146
0.0
  0
ENDTAB
  0
TABLE
  2
LTYPE
  5
5
330
0
100
AcDbSymbolTable
 70
     8
  0
LTYPE
  5
14
330
5
100
AcDbSymbolTableRecord
100
AcDbLinetypeTableRecord
  2
ByBlock
 70
     0
  3

 72
    65
 73
     0
 40
0.0
  0
LTYPE
  5
15
330
5
100
AcDbSymbolTableRecord
100
AcDbLinetypeTableRecord
  2
ByLayer
 70
     0
  3

 72
    65
 73
     0
 40
0.0
  0
LTYPE
  5
16
330
5
100
AcDbSymbolTableRecord
100
AcDbLinetypeTableRecord
  2
Continuous
 70
     0
  3
Solid line
 72
    65
 73
     0
 40
0.0
  0
LTYPE
  5
175
330
5
100
AcDbSymbolTableRecord
100
AcDbLinetypeTableRecord
  2
SLD-Solid
 70
     0
  3
SolidWorks Line Style
 72
    65
 73
     0
 40
0.0
  0
LTYPE
  5
176
330
5
100
AcDbSymbolTableRecord
100
AcDbLinetypeTableRecord
  2
SLD-Dashed
 70
     0
  3
SolidWorks Line Style
 72
    65
 73
     2
 40
0.075
 49
0.05
 74
     4
 75
     0
340
0
 46
1.0
 50
0.0
 44
0.0
 45
0.0
 49
-0.025
 74
     4
 75
     0
340
0
 46
1.0
 50
0.0
 44
0.0
 45
0.0
  0
LTYPE
  5
177
330
5
100
AcDbSymbolTableRecord
100
AcDbLinetypeTableRecord
  2
SLD-Phantom
 70
     0
  3
SolidWorks Line Style
 72
    65
 73
     6
 40
0.4999999999999999
 49
0.25
 74
     4
 75
     0
340
0
 46
1.0
 50
0.0
 44
0.0
 45
0.0
 49
-0.05
 74
     4
 75
     0
340
0
 46
1.0
 50
0.0
 44
0.0
 45
0.0
 49
0.05
 74
     4
 75
     0
340
0
 46
1.0
 50
0.0
 44
0.0
 45
0.0
 49
-0.05
 74
     4
 75
     0
340
0
 46
1.0
 50
0.0
 44
0.0
 45
0.0
 49
0.05
 74
     4
 75
     0
340
0
 46
1.0
 50
0.0
 44
0.0
 45
0.0
 49
-0.05
 74
     4
 75
     0
340
0
 46
1.0
 50
0.0
 44
0.0
 45
0.0
  0
LTYPE
  5
178
330
5
100
AcDbSymbolTableRecord
100
AcDbLinetypeTableRecord
  2
SLD-Chain
 70
     0
  3
SolidWorks Line Style
 72
    65
 73
     4
 40
0.4
 49
0.25
 74
     4
 75
     0
340
0
 46
1.0
 50
0.0
 44
0.0
 45
0.0
 49
-0.05
 74
     4
 75
     0
340
0
 46
1.0
 50
0.0
 44
0.0
 45
0.0
 49
0.05
 74
     4
 75
     0
340
0
 46
1.0
 50
0.0
 44
0.0
 45
0.0
 49
-0.05
 74
     4
 75
     0
340
0
 46
1.0
 50
0.0
 44
0.0
 45
0.0
  0
LTYPE
  5
179
330
5
100
AcDbSymbolTableRecord
100
AcDbLinetypeTableRecord
  2
SLD-Center
 70
     0
  3
SolidWorks Line Style
 72
    65
 73
     4
 40
0.7500000000000002
 49
0.6000000000000001
 74
     4
 75
     0
340
0
 46
1.0
 50
0.0
 44
0.0
 45
0.0
 49
-0.05
 74
     4
 75
     0
340
0
 46
1.0
 50
0.0
 44
0.0
 45
0.0
 49
0.05
 74
     4
 75
     0
340
0
 46
1.0
 50
0.0
 44
0.0
 45
0.0
 49
-0.05
 74
     4
 75
     0
340
0
 46
1.0
 50
0.0
 44
0.0
 45
0.0
  0
LTYPE
  5
17A
330
5
100
AcDbSymbolTableRecord
100
AcDbLinetypeTableRecord
  2
SLD-Stitch
 70
     0
  3
SolidWorks Line Style
 72
    65
 73
     2
 40
0.025
 49
0.0
 74
     4
 75
     0
340
0
 46
1.0
 50
0.0
 44
0.0
 45
0.0
 49
-0.025
 74
     4
 75
     0
340
0
 46
1.0
 50
0.0
 44
0.0
 45
0.0
  0
LTYPE
  5
17B
330
5
100
AcDbSymbolTableRecord
100
AcDbLinetypeTableRecord
  2
SLD-Thin-Thick-Chain
 70
     0
  3
SolidWorks Line Style
 72
    65
 73
     4
 40
0.4
 49
0.25
 74
     4
 75
     0
340
0
 46
1.0
 50
0.0
 44
0.0
 45
0.0
 49
-0.05
 74
     4
 75
     0
340
0
 46
1.0
 50
0.0
 44
0.0
 45
0.0
 49
0.05
 74
     4
 75
     0
340
0
 46
1.0
 50
0.0
 44
0.0
 45
0.0
 49
-0.05
 74
     4
 75
     0
340
0
 46
1.0
 50
0.0
 44
0.0
 45
0.0
  0
ENDTAB
  0
TABLE
  2
LAYER
  5
2
330
0
100
AcDbSymbolTable
 70
     7
  0
LAYER
  5
10
330
2
100
AcDbSymbolTableRecord
100
AcDbLayerTableRecord
  2
0
 70
     0
 62
     7
  6
Continuous
370
    -3
390
F
  0
LAYER
  5
17C
330
2
100
AcDbSymbolTableRecord
100
AcDbLayerTableRecord
  2
FORMAT
 70
     0
 62
     7
  6
SLD-Solid
370
    -3
390
F
  0
LAYER
  5
17D
330
2
100
AcDbSymbolTableRecord
100
AcDbLayerTableRecord
  2
NOTES
 70
     0
 62
     1
  6
SLD-Solid
370
    -3
390
F
  0
LAYER
  5
77
330
2
100
AcDbSymbolTableRecord
100
AcDbLayerTableRecord
  2
OBJECT
 70
     0
 62
     7
  6
SLD-Solid
370
    -3
390
F
  0
LAYER
  5
78
330
2
100
AcDbSymbolTableRecord
100
AcDbLayerTableRecord
  2
DIMS
 70
     0
 62
     5
  6
SLD-Solid
370
    -3
390
F
  0
LAYER
  5
79
330
2
100
AcDbSymbolTableRecord
100
AcDbLayerTableRecord
  2
TITLE
 70
     0
 62
     8
  6
SLD-Solid
370
    -3
390
F
  0
LAYER
  5
7A
330
2
100
AcDbSymbolTableRecord
100
AcDbLayerTableRecord
  2
NOT_SHOWN
 70
     0
 62
     7
  6
SLD-Solid
290
     0
370
    -3
390
F
  0
ENDTAB
  0
TABLE
  2
STYLE
  5
3
330
0
100
AcDbSymbolTable
 70
     5
  0
STYLE
  5
11
330
3
100
AcDbSymbolTableRecord
100
AcDbTextStyleTableRecord
  2
Standard
 70
     0
 40
0.0
 41
1.0
 50
0.0
 71
     0
 42
0.5
  3
GOTHIC.TTF
  4

1001
ACAD
1000
CENTURY GOTHIC
1071
       34
  0
STYLE
  5
86
330
3
100
AcDbSymbolTableRecord
100
AcDbTextStyleTableRecord
  2
SLDTEXTSTYLE0
 70
     0
 40
0.0
 41
0.948
 50
0.0
 71
     0
 42
0.5
  3
ARIAL.TTF
  4

1001
ACAD
1000
Arial
1071
      290
  0
STYLE
  5
8A
330
3
100
AcDbSymbolTableRecord
100
AcDbTextStyleTableRecord
  2
SLDTEXTSTYLE1
 70
     0
 40
0.0
 41
0.913
 50
0.0
 71
     0
 42
0.5
  3
GOTHIC.TTF
  4

1001
ACAD
1000
Century Gothic
1071
      290
  0
STYLE
  5
174
330
3
100
AcDbSymbolTableRecord
100
AcDbTextStyleTableRecord
  2
SLDTEXTSTYLE2
 70
     0
 40
0.0
 41
0.87
 50
0.0
 71
     0
 42
0.5
  3
ARIALNB.TTF
  4

1001
ACAD
1000
Arial Narrow
1071
 33554722
  0
STYLE
  5
9A
330
3
100
AcDbSymbolTableRecord
100
AcDbTextStyleTableRecord
  2
SLDTEXTSTYLE3
 70
     0
 40
0.0
 41
0.87
 50
0.0
 71
     0
 42
0.5
  3
ARIALN.TTF
  4

1001
ACAD
1000
Arial Narrow
1071
      290
  0
ENDTAB
  0
TABLE
  2
VIEW
  5
6
330
0
100
AcDbSymbolTable
 70
     0
  0
ENDTAB
  0
TABLE
  2
UCS
  5
7
330
0
100
AcDbSymbolTable
 70
     0
  0
ENDTAB
  0
TABLE
  2
APPID
  5
9
330
0
100
AcDbSymbolTable
 70
     1
  0
APPID
  5
12
330
9
100
AcDbSymbolTableRecord
100
AcDbRegAppTableRecord
  2
ACAD
 70
     0
  0
ENDTAB
  0
TABLE
  2
DIMSTYLE
  5
A
330
0
100
AcDbSymbolTable
 70
     6
100
AcDbDimStyleTable
  0
DIMSTYLE
105
27
330
A
100
AcDbSymbolTableRecord
100
AcDbDimStyleTableRecord
  2
Standard
 70
     0
340
11
  0
DIMSTYLE
105
B9
102
{ACAD_REACTORS
330
B8
102
}
330
A
100
AcDbSymbolTableRecord
100
AcDbDimStyleTableRecord
  2
SLDDIMSTYLE0
 70
     0
 41
0.5
 44
0.0
 45
0.000000001
 78
    12
 79
     3
140
0.5
147
0.125
172
     1
173
     1
271
     2
272
     2
276
     2
277
     5
284
    12
289
     0
340
8A
341
17E
343
17E
344
17E
  0
DIMSTYLE
105
CB
102
{ACAD_REACTORS
330
CA
330
112
330
121
102
}
330
A
100
AcDbSymbolTableRecord
100
AcDbDimStyleTableRecord
  2
SLDDIMSTYLE1
 70
     0
 41
0.5
 44
0.0
 45
0.000000001
 78
    12
 79
     3
140
0.5
147
0.125
172
     1
173
     1
271
     6
272
     2
276
     2
277
     5
284
    12
289
     0
340
8A
341
17E
343
17E
344
17E
  0
DIMSTYLE
105
DB
102
{ACAD_REACTORS
330
DA
102
}
330
A
100
AcDbSymbolTableRecord
100
AcDbDimStyleTableRecord
  2
SLDDIMSTYLE2
 70
     0
 41
0.5
 44
0.0
 45
0.000000001
 78
    12
 79
     3
140
0.5
141
0.0
147
0.125
173
     1
271
     2
272
     2
276
     2
277
     5
284
    12
340
8A
341
17E
343
17E
344
17E
  0
DIMSTYLE
105
EF
330
A
100
AcDbSymbolTableRecord
100
AcDbDimStyleTableRecord
  2
SLDDIMSTYLE3
 70
     0
 41
0.5
 44
0.0
 45
0.000000001
146
0.5
147
0.0
173
     1
271
     0
272
     0
276
     2
277
     5
340
11
341
17E
343
17E
344
17E
  0
DIMSTYLE
105
103
102
{ACAD_REACTORS
330
102
330
130
102
}
330
A
100
AcDbSymbolTableRecord
100
AcDbDimStyleTableRecord
  2
SLDDIMSTYLE4
 70
     0
 41
0.5
 44
0.0
 45
0.000000001
 78
    12
 79
     3
140
0.5
147
0.125
173
     1
271
     6
272
     2
276
     2
277
     5
284
    12
340
8A
341
17E
343
17E
344
17E
  0
ENDTAB
  0
TABLE
  2
BLOCK_RECORD
  5
1
330
0
100
AcDbSymbolTable
 70
    12
  0
BLOCK_RECORD
  5
1F
330
1
100
AcDbSymbolTableRecord
100
AcDbBlockTableRecord
  2
*Model_Space
340
22
  0
BLOCK_RECORD
  5
73
330
1
100
AcDbSymbolTableRecord
100
AcDbBlockTableRecord
  2
*Paper_Space
340
74
  0
BLOCK_RECORD
  5
17E
330
1
100
AcDbSymbolTableRecord
100
AcDbBlockTableRecord
  2
_Open90
340
0
102
{BLKREFS
331
C3
331
C4
331
CF
331
D0
331
DF
331
107
331
108
331
116
331
117
331
125
331
126
331
134
331
135
102
}
  0
BLOCK_RECORD
  5
23
330
1
100
AcDbSymbolTableRecord
100
AcDbBlockTableRecord
  2
*Paper_Space1
340
26
  0
BLOCK_RECORD
  5
8F
330
1
100
AcDbSymbolTableRecord
100
AcDbBlockTableRecord
  2
SW_NOTE_0
340
0
  0
BLOCK_RECORD
  5
95
330
1
100
AcDbSymbolTableRecord
100
AcDbBlockTableRecord
  2
SW_NOTE_0_1
340
0
102
{BLKREFS
331
9E
102
}
  0
BLOCK_RECORD
  5
C0
330
1
100
AcDbSymbolTableRecord
100
AcDbBlockTableRecord
  2
_D
340
0
  0
BLOCK_RECORD
  5
CC
330
1
100
AcDbSymbolTableRecord
100
AcDbBlockTableRecord
  2
_D_1
340
0
  0
BLOCK_RECORD
  5
DC
330
1
100
AcDbSymbolTableRecord
100
AcDbBlockTableRecord
  2
_D_2
340
0
  0
BLOCK_RECORD
  5
E8
330
1
100
AcDbSymbolTableRecord
100
AcDbBlockTableRecord
  2
SW_NOTE_0_2
340
0
102
{BLKREFS
331
EE
102
}
  0
BLOCK_RECORD
  5
104
330
1
100
AcDbSymbolTableRecord
100
AcDbBlockTableRecord
  2
_D_3
340
0
  0
BLOCK_RECORD
  5
113
330
1
100
AcDbSymbolTableRecord
100
AcDbBlockTableRecord
  2
_D_4
340
0
  0
BLOCK_RECORD
  5
122
330
1
100
AcDbSymbolTableRecord
100
AcDbBlockTableRecord
  2
_D_5
340
0
  0
BLOCK_RECORD
  5
131
330
1
100
AcDbSymbolTableRecord
100
AcDbBlockTableRecord
  2
_D_6
340
0
  0
ENDTAB
  0
ENDSEC
  0
SECTION
  2
BLOCKS
  0
BLOCK
  5
20
330
1F
100
AcDbEntity
  8
0
100
AcDbBlockBegin
  2
*Model_Space
 70
     0
 71
     0
 10
0.0
 20
0.0
 30
0.0
  3
*Model_Space
  1

  0
ENDBLK
  5
21
330
1F
100
AcDbEntity
  8
0
100
AcDbBlockEnd
  0
BLOCK
  5
75
330
73
100
AcDbEntity
 67
     1
  8
0
100
AcDbBlockBegin
  2
*Paper_Space
 70
     0
 71
     0
 10
0.0
 20
0.0
 30
0.0
  3
*Paper_Space
  1

  0
ENDBLK
  5
76
330
73
100
AcDbEntity
 67
     1
  8
0
100
AcDbBlockEnd
  0
BLOCK
  5
17F
330
17E
100
AcDbEntity
  8
0
100
AcDbBlockBegin
  2
_Open90
 70
     0
 71
     0
 10
0.0
 20
0.0
 30
0.0
  3
_Open90
  1

  0
LINE
  5
BD
330
17E
100
AcDbEntity
  8
0
  6
ByBlock
 62
     0
370
    -2
100
AcDbLine
 10
-0.5
 20
0.5
 30
0.0
 11
0.0
 21
0.0
 31
0.0
  0
LINE
  5
BE
330
17E
100
AcDbEntity
  8
0
  6
ByBlock
 62
     0
370
    -2
100
AcDbLine
 10
0.0
 20
0.0
 30
0.0
 11
-0.5
 21
-0.5
 31
0.0
  0
LINE
  5
BF
330
17E
100
AcDbEntity
  8
0
  6
ByBlock
 62
     0
370
    -2
100
AcDbLine
 10
0.0
 20
0.0
 30
0.0
 11
-1.0
 21
0.0
 31
0.0
  0
ENDBLK
  5
180
330
17E
100
AcDbEntity
  8
0
100
AcDbBlockEnd
  0
BLOCK
  5
187
330
23
100
AcDbEntity
  8
0
100
AcDbBlockBegin
  2
*Paper_Space1
 70
     0
 71
     0
 10
0.0
 20
0.0
 30
0.0
  3
*Paper_Space1
  1

  0
ENDBLK
  5
188
330
23
100
AcDbEntity
  8
0
100
AcDbBlockEnd
  0
BLOCK
  5
189
330
8F
100
AcDbEntity
  8
0
100
AcDbBlockBegin
  2
SW_NOTE_0
 70
     0
 71
     0
 10
0.0
 20
0.0
 30
0.0
  3
SW_NOTE_0
  1

  0
MTEXT
  5
19D
330
8F
100
AcDbEntity
  8
OBJECT
 62
     0
100
AcDbMText
 10
0.0
 20
0.3759780907668229
 30
0.0
 40
0.2916666666666666
 41
0.0
 71
     1
 72
     1
  1
FROST PRODUCTS LTD.
  7
SLDTEXTSTYLE0
 73
     1
 44
1.0
  0
MTEXT
  5
19E
330
8F
100
AcDbEntity
  8
OBJECT
 62
     0
100
AcDbMText
 10
0.0
 20
-0.0495142708586375
 30
0.0
 40
0.2291666666666666
 41
0.0
 71
     1
 72
     1
  1
5280 JOHN LUCUS DRIVE, BURLINGTON, ON, L7L 5Z9
  7
SLDTEXTSTYLE0
 73
     1
 44
1.0
  0
ENDBLK
  5
18A
330
8F
100
AcDbEntity
  8
0
100
AcDbBlockEnd
  0
BLOCK
  5
18B
330
95
100
AcDbEntity
  8
0
100
AcDbBlockBegin
  2
SW_NOTE_0_1
 70
     0
 71
     0
 10
0.0
 20
0.0
 30
0.0
  3
SW_NOTE_0_1
  1

  0
MTEXT
  5
99
330
95
100
AcDbEntity
  8
OBJECT
 62
     0
100
AcDbMText
 10
0.0
 20
0.2381282770514712
 30
0.0
 40
0.1847290640394089
 41
0.0
 71
     1
 72
     1
  1
PROPRIETARY AND CONFIDENTIAL
  7
SLDTEXTSTYLE2
 73
     1
 44
1.0
  0
MTEXT
  5
9B
330
95
100
AcDbEntity
  8
OBJECT
 62
     0
100
AcDbMText
 10
0.0
 20
-0.0504364795553608
 30
0.0
 40
0.25
 41
0.0
 71
     1
 72
     1
  1
THE INFORMATION CONTAINED IN THIS DRAWING IS THE SOLE PROPERTY OF 
  7
SLDTEXTSTYLE3
 73
     1
 44
1.0
  0
MTEXT
  5
9C
330
95
100
AcDbEntity
  8
OBJECT
 62
     0
100
AcDbMText
 10
0.0
 20
-0.4231398940537119
 30
0.0
 40
0.25
 41
0.0
 71
     1
 72
     1
  1
FROST PRODUCTS LTD.  ANY REPRODUCTION IN PART OR AS A WHOLE WITHOUT 
  7
SLDTEXTSTYLE3
 73
     1
 44
1.0
  0
MTEXT
  5
9D
330
95
100
AcDbEntity
  8
OBJECT
 62
     0
100
AcDbMText
 10
0.0
 20
-0.7958433085520636
 30
0.0
 40
0.25
 41
0.0
 71
     1
 72
     1
  1
THE WRITTEN PERMISSION OF FROST PRODUCTS LTD. IS PROHIBITED.
  7
SLDTEXTSTYLE3
 73
     1
 44
1.0
  0
ENDBLK
  5
18C
330
95
100
AcDbEntity
  8
0
100
AcDbBlockEnd
  0
BLOCK
  5
18D
330
C0
100
AcDbEntity
  8
0
100
AcDbBlockBegin
  2
_D
 70
     0
 71
     0
 10
0.0
 20
0.0
 30
0.0
  3
_D
  1

  0
INSERT
  5
C3
330
C0
100
AcDbEntity
  8
DIMS
100
AcDbBlockReference
  2
_Open90
 10
28.83773201987123
 20
8.23429627685529
 30
-0.8193735972071384
 41
0.5
 42
0.5
 50
0.0000000000004071
  0
INSERT
  5
C4
330
C0
100
AcDbEntity
  8
DIMS
100
AcDbBlockReference
  2
_Open90
 10
29.83773201987123
 20
8.23429627685529
 30
-0.8193735972071384
 41
0.5
 42
0.5
 50
180.0000000000004
  0
LINE
  5
C5
330
C0
100
AcDbEntity
  8
DIMS
100
AcDbLine
 10
28.83773201987123
 20
8.461330397590197
 30
0.0
 11
28.83773201987123
 21
7.859296276855289
 31
0.0
  0
LINE
  5
C6
330
C0
100
AcDbEntity
  8
DIMS
100
AcDbLine
 10
29.83773201987123
 20
8.461330397590197
 30
0.0
 11
29.83773201987123
 21
7.859296276855289
 31
0.0
  0
LINE
  5
C7
330
C0
100
AcDbEntity
  8
DIMS
100
AcDbLine
 10
28.83773201987123
 20
8.23429627685529
 30
0.0
 11
27.78699656580351
 21
8.23429627685529
 31
0.0
  0
LINE
  5
C8
330
C0
100
AcDbEntity
  8
DIMS
100
AcDbLine
 10
29.83773201987123
 20
8.23429627685529
 30
0.0
 11
30.79927048140969
 21
8.23429627685529
 31
0.0
  0
MTEXT
  5
C9
330
C0
100
AcDbEntity
  8
DIMS
100
AcDbMText
 10
27.21130211960822
 20
8.476093194921992
 30
0.0
 40
0.5
 41
0.0
 71
     1
 72
     1
  1
1"
  7
SLDTEXTSTYLE1
 73
     1
 44
1.0
  0
ENDBLK
  5
18E
330
C0
100
AcDbEntity
  8
0
100
AcDbBlockEnd
  0
BLOCK
  5
18F
330
CC
100
AcDbEntity
  8
0
100
AcDbBlockBegin
  2
_D_1
 70
     0
 71
     0
 10
0.0
 20
0.0
 30
0.0
  3
_D_1
  1

  0
INSERT
  5
CF
330
CC
100
AcDbEntity
  8
DIMS
100
AcDbBlockReference
  2
_Open90
 10
27.73536981514691
 20
12.52257339859613
 30
-0.8193735972071384
 41
0.5
 42
0.5
 50
270.0000000000004
  0
INSERT
  5
D0
330
CC
100
AcDbEntity
  8
DIMS
100
AcDbBlockReference
  2
_Open90
 10
27.73536981514691
 20
10.02257339859613
 30
-0.8193735972071384
 41
0.5
 42
0.5
 50
90.00000000000041
  0
LINE
  5
D1
330
CC
100
AcDbEntity
  8
DIMS
100
AcDbLine
 10
27.55898089447344
 20
11.38338739947042
 30
0.0
 11
28.07495314391798
 21
11.38338739947042
 31
0.0
  0
LINE
  5
D2
330
CC
100
AcDbEntity
  8
DIMS
100
AcDbLine
 10
29.17106535320465
 20
12.52257339859613
 30
0.0
 11
27.36036981514691
 21
12.52257339859613
 31
0.0
  0
LINE
  5
D3
330
CC
100
AcDbEntity
  8
DIMS
100
AcDbLine
 10
29.17106535320465
 20
10.02257339859613
 30
0.0
 11
27.36036981514691
 21
10.02257339859613
 31
0.0
  0
LINE
  5
D4
330
CC
100
AcDbEntity
  8
DIMS
100
AcDbLine
 10
27.73536981514691
 20
12.52257339859613
 30
0.0
 11
27.73536981514691
 21
13.48411186013459
 31
0.0
  0
LINE
  5
D5
330
CC
100
AcDbEntity
  8
DIMS
100
AcDbLine
 10
27.73536981514691
 20
10.02257339859613
 30
0.0
 11
27.73536981514691
 21
9.061034937057672
 31
0.0
  0
MTEXT
  5
D6
330
CC
100
AcDbEntity
  8
DIMS
100
AcDbMText
 10
27.11627254701138
 20
11.6127884599018
 30
0.0
 40
0.5
 41
0.0
 71
     1
 72
     1
  1
2
  7
SLDTEXTSTYLE1
 73
     1
 44
1.0
  0
MTEXT
  5
D7
330
CC
100
AcDbEntity
  8
DIMS
100
AcDbMText
 10
27.63224479645593
 20
11.9781009589473
 30
0.0
 40
0.5
 41
0.0
 71
     1
 72
     1
  1
1
  7
SLDTEXTSTYLE1
 73
     1
 44
1.0
  0
MTEXT
  5
D8
330
CC
100
AcDbEntity
  8
DIMS
100
AcDbMText
 10
27.63224479645593
 20
11.31692038039927
 30
0.0
 40
0.5
 41
0.0
 71
     1
 72
     1
  1
2
  7
SLDTEXTSTYLE1
 73
     1
 44
1.0
  0
MTEXT
  5
D9
330
CC
100
AcDbEntity
  8
DIMS
100
AcDbMText
 10
28.14821704590047
 20
11.6127884599018
 30
0.0
 40
0.5
 41
0.0
 71
     1
 72
     1
  1
"
  7
SLDTEXTSTYLE1
 73
     1
 44
1.0
  0
ENDBLK
  5
190
330
CC
100
AcDbEntity
  8
0
100
AcDbBlockEnd
  0
BLOCK
  5
191
330
DC
100
AcDbEntity
  8
0
100
AcDbBlockBegin
  2
_D_2
 70
     0
 71
     0
 10
0.0
 20
0.0
 30
0.0
  3
_D_2
  1

  0
INSERT
  5
DF
330
DC
100
AcDbEntity
  8
DIMS
100
AcDbBlockReference
  2
_Open90
 10
29.26878910870563
 20
12.59151630976182
 30
-0.8193735972071386
 41
0.5
 42
0.5
 50
315.0000000000004
  0
LINE
  5
E0
330
DC
100
AcDbEntity
  8
DIMS
100
AcDbLine
 10
26.11394284813792
 20
14.38271670776154
 30
0.0
 11
26.99935954306204
 21
14.38271670776154
 31
0.0
  0
LINE
  5
E1
330
DC
100
AcDbEntity
  8
DIMS
100
AcDbLine
 10
29.26878910870563
 20
12.59151630976182
 30
0.0
 11
27.528873409094
 21
14.33143200937342
 31
0.0
  0
LINE
  5
E2
330
DC
100
AcDbEntity
  8
DIMS
100
AcDbLine
 10
27.528873409094
 20
14.33143200937342
 30
0.0
 11
27.27887340909401
 21
14.33143200937342
 31
0.0
  0
MTEXT
  5
E3
330
DC
100
AcDbEntity
  8
DIMS
100
AcDbMText
 10
25.28661646381624
 20
14.60447887893802
 30
0.0
 40
0.5
 41
0.0
 71
     1
 72
     1
  1
%%c
  7
SLDTEXTSTYLE1
 73
     1
 44
1.0
  0
MTEXT
  5
E4
330
DC
100
AcDbEntity
  8
DIMS
100
AcDbMText
 10
26.37192897286019
 20
14.97743026723842
 30
0.0
 40
0.5
 41
0.0
 71
     1
 72
     1
  1
3
  7
SLDTEXTSTYLE1
 73
     1
 44
1.0
  0
MTEXT
  5
E5
330
DC
100
AcDbEntity
  8
DIMS
100
AcDbMText
 10
26.18720675012041
 20
14.31624968869039
 30
0.0
 40
0.5
 41
0.0
 71
     1
 72
     1
  1
16
  7
SLDTEXTSTYLE1
 73
     1
 44
1.0
  0
MTEXT
  5
E6
330
DC
100
AcDbEntity
  8
DIMS
100
AcDbMText
 10
27.07262344504452
 20
14.61211776819292
 30
0.0
 40
0.5
 41
0.0
 71
     1
 72
     1
  1
"
  7
SLDTEXTSTYLE1
 73
     1
 44
1.0
  0
ENDBLK
  5
192
330
DC
100
AcDbEntity
  8
0
100
AcDbBlockEnd
  0
BLOCK
  5
193
330
E8
100
AcDbEntity
  8
0
100
AcDbBlockBegin
  2
SW_NOTE_0_2
 70
     0
 71
     0
 10
0.0
 20
0.0
 30
0.0
  3
SW_NOTE_0_2
  1

  0
MTEXT
  5
EB
330
E8
100
AcDbEntity
  8
NOTES
 62
     0
100
AcDbMText
 10
-4.435589934696238
 20
1.536825122854133
 30
0.0
 40
0.5
 41
0.0
 71
     1
 72
     1
  1
12 gauge (.1") 
  7
SLDTEXTSTYLE1
 73
     1
 44
1.0
  0
MTEXT
  5
EC
330
E8
100
AcDbEntity
  8
NOTES
 62
     0
100
AcDbMText
 10
-4.435589934696238
 20
0.890297324931758
 30
0.0
 40
0.5
 41
0.0
 71
     1
 72
     1
  1
thick solid 
  7
SLDTEXTSTYLE1
 73
     1
 44
1.0
  0
MTEXT
  5
ED
330
E8
100
AcDbEntity
  8
NOTES
 62
     0
100
AcDbMText
 10
-4.435589934696238
 20
0.2437695270093832
 30
0.0
 40
0.5
 41
0.0
 71
     1
 72
     1
  1
stainless steel.
  7
SLDTEXTSTYLE1
 73
     1
 44
1.0
  0
ENDBLK
  5
194
330
E8
100
AcDbEntity
  8
0
100
AcDbBlockEnd
  0
BLOCK
  5
195
330
104
100
AcDbEntity
  8
0
100
AcDbBlockBegin
  2
_D_3
 70
     0
 71
     0
 10
0.0
 20
0.0
 30
0.0
  3
_D_3
  1

  0
INSERT
  5
107
330
104
100
AcDbEntity
  8
DIMS
100
AcDbBlockReference
  2
_Open90
 10
36.49531997168773
 20
8.627997064256878
 30
0.0
 41
0.5
 42
0.5
 50
270.0000000000004
  0
INSERT
  5
108
330
104
100
AcDbEntity
  8
DIMS
100
AcDbBlockReference
  2
_Open90
 10
36.49531997168773
 20
16.25577769015169
 30
0.0
 41
0.5
 42
0.5
 50
90.00000000000041
  0
LINE
  5
109
330
104
100
AcDbEntity
  8
DIMS
100
AcDbLine
 10
36.31893105101426
 20
12.34517639635928
 30
0.0
 11
36.83490330045881
 21
12.34517639635928
 31
0.0
  0
LINE
  5
10A
330
104
100
AcDbEntity
  8
DIMS
100
AcDbLine
 10
40.10708553880538
 20
8.627997064256878
 30
0.0
 11
36.12031997168773
 21
8.627997064256878
 31
0.0
  0
LINE
  5
10B
330
104
100
AcDbEntity
  8
DIMS
100
AcDbLine
 10
38.93896912309481
 20
16.25577769015169
 30
0.0
 11
36.12031997168773
 21
16.25577769015169
 31
0.0
  0
LINE
  5
10C
330
104
100
AcDbEntity
  8
DIMS
100
AcDbLine
 10
36.49531997168773
 20
8.627997064256878
 30
0.0
 11
36.49531997168773
 21
11.64003754468346
 31
0.0
  0
LINE
  5
10D
330
104
100
AcDbEntity
  8
DIMS
100
AcDbLine
 10
36.49531997168773
 20
16.25577769015169
 30
0.0
 11
36.49531997168773
 21
12.94774585125885
 31
0.0
  0
MTEXT
  5
10E
330
104
100
AcDbEntity
  8
DIMS
100
AcDbMText
 10
35.8762227035522
 20
12.57457745679066
 30
0.0
 40
0.5
 41
0.0
 71
     1
 72
     1
  1
7
  7
SLDTEXTSTYLE1
 73
     1
 44
1.0
  0
MTEXT
  5
10F
330
104
100
AcDbEntity
  8
DIMS
100
AcDbMText
 10
36.39219495299675
 20
12.93988995583616
 30
0.0
 40
0.5
 41
0.0
 71
     1
 72
     1
  1
5
  7
SLDTEXTSTYLE1
 73
     1
 44
1.0
  0
MTEXT
  5
110
330
104
100
AcDbEntity
  8
DIMS
100
AcDbMText
 10
36.39219495299675
 20
12.27870937728813
 30
0.0
 40
0.5
 41
0.0
 71
     1
 72
     1
  1
8
  7
SLDTEXTSTYLE1
 73
     1
 44
1.0
  0
MTEXT
  5
111
330
104
100
AcDbEntity
  8
DIMS
100
AcDbMText
 10
36.90816720244129
 20
12.57457745679066
 30
0.0
 40
0.5
 41
0.0
 71
     1
 72
     1
  1
"
  7
SLDTEXTSTYLE1
 73
     1
 44
1.0
  0
ENDBLK
  5
196
330
104
100
AcDbEntity
  8
0
100
AcDbBlockEnd
  0
BLOCK
  5
197
330
113
100
AcDbEntity
  8
0
100
AcDbBlockBegin
  2
_D_4
 70
     0
 71
     0
 10
0.0
 20
0.0
 30
0.0
  3
_D_4
  1

  0
INSERT
  5
116
330
113
100
AcDbEntity
  8
DIMS
100
AcDbBlockReference
  2
_Open90
 10
38.62130422365623
 20
9.434098794809529
 30
0.0
 41
0.5
 42
0.5
 50
270.0000000000004
  0
INSERT
  5
117
330
113
100
AcDbEntity
  8
DIMS
100
AcDbBlockReference
  2
_Open90
 10
38.62130422365623
 20
8.627997064256878
 30
0.0
 41
0.5
 42
0.5
 50
90.00000000000041
  0
LINE
  5
118
330
113
100
AcDbEntity
  8
DIMS
100
AcDbLine
 10
37.20637358936767
 20
10.38653162918386
 30
0.0
 11
38.09179028429178
 21
10.38653162918386
 31
0.0
  0
LINE
  5
119
330
113
100
AcDbEntity
  8
DIMS
100
AcDbLine
 10
39.29743041765946
 20
9.434098794809529
 30
0.0
 11
38.24630422365623
 21
9.434098794809529
 31
0.0
  0
LINE
  5
11A
330
113
100
AcDbEntity
  8
DIMS
100
AcDbLine
 10
40.10708553880538
 20
8.627997064256878
 30
0.0
 11
38.24630422365623
 21
8.627997064256878
 31
0.0
  0
LINE
  5
11B
330
113
100
AcDbEntity
  8
DIMS
100
AcDbLine
 10
38.37130422365623
 20
10.33524693079574
 30
0.0
 11
38.62130422365623
 21
10.33524693079574
 31
0.0
  0
LINE
  5
11C
330
113
100
AcDbEntity
  8
DIMS
100
AcDbLine
 10
38.62130422365623
 20
10.33524693079574
 30
0.0
 11
38.62130422365623
 21
9.434098794809529
 31
0.0
  0
LINE
  5
11D
330
113
100
AcDbEntity
  8
DIMS
100
AcDbLine
 10
38.62130422365623
 20
8.627997064256878
 30
0.0
 11
38.62130422365623
 21
7.666458602718416
 31
0.0
  0
MTEXT
  5
11E
330
113
100
AcDbEntity
  8
DIMS
100
AcDbMText
 10
37.27963749135015
 20
10.98124518866074
 30
0.0
 40
0.5
 41
0.0
 71
     1
 72
     1
  1
13
  7
SLDTEXTSTYLE1
 73
     1
 44
1.0
  0
MTEXT
  5
11F
330
113
100
AcDbEntity
  8
DIMS
100
AcDbMText
 10
37.27963749135015
 20
10.3200646101127
 30
0.0
 40
0.5
 41
0.0
 71
     1
 72
     1
  1
16
  7
SLDTEXTSTYLE1
 73
     1
 44
1.0
  0
MTEXT
  5
120
330
113
100
AcDbEntity
  8
DIMS
100
AcDbMText
 10
38.16505418627427
 20
10.61593268961523
 30
0.0
 40
0.5
 41
0.0
 71
     1
 72
     1
  1
"
  7
SLDTEXTSTYLE1
 73
     1
 44
1.0
  0
ENDBLK
  5
198
330
113
100
AcDbEntity
  8
0
100
AcDbBlockEnd
  0
BLOCK
  5
199
330
122
100
AcDbEntity
  8
0
100
AcDbBlockBegin
  2
_D_5
 70
     0
 71
     0
 10
0.0
 20
0.0
 30
0.0
  3
_D_5
  1

  0
INSERT
  5
125
330
122
100
AcDbEntity
  8
DIMS
100
AcDbBlockReference
  2
_Open90
 10
39.01500501105781
 20
16.64947847755341
 30
-0.0000000000000031
 41
0.5
 42
0.5
 50
0.0000000000004071
  0
INSERT
  5
126
330
122
100
AcDbEntity
  8
DIMS
100
AcDbBlockReference
  2
_Open90
 10
40.62375220547202
 20
16.64947847755341
 30
-0.0000000000000031
 41
0.5
 42
0.5
 50
180.0000000000004
  0
LINE
  5
127
330
122
100
AcDbEntity
  8
DIMS
100
AcDbLine
 10
39.71946775546986
 20
16.70076317594152
 30
0.0
 11
40.23544000491441
 21
16.70076317594152
 31
0.0
  0
LINE
  5
128
330
122
100
AcDbEntity
  8
DIMS
100
AcDbLine
 10
39.01500501105781
 20
16.38018253064438
 30
0.0
 11
39.01500501105781
 21
17.02447847755341
 31
0.0
  0
LINE
  5
129
330
122
100
AcDbEntity
  8
DIMS
100
AcDbLine
 10
40.62375220547202
 20
13.0892400652628
 30
0.0
 11
40.62375220547202
 21
17.02447847755341
 31
0.0
  0
LINE
  5
12A
330
122
100
AcDbEntity
  8
DIMS
100
AcDbLine
 10
39.01500501105781
 20
16.64947847755341
 30
0.0
 11
38.05346654951935
 21
16.64947847755341
 31
0.0
  0
LINE
  5
12B
330
122
100
AcDbEntity
  8
DIMS
100
AcDbLine
 10
40.62375220547202
 20
16.64947847755341
 30
0.0
 11
41.58529066701048
 21
16.64947847755341
 31
0.0
  0
MTEXT
  5
12C
330
122
100
AcDbEntity
  8
DIMS
100
AcDbMText
 10
39.27675940800781
 20
16.9301642363729
 30
0.0
 40
0.5
 41
0.0
 71
     1
 72
     1
  1
1
  7
SLDTEXTSTYLE1
 73
     1
 44
1.0
  0
MTEXT
  5
12D
330
122
100
AcDbEntity
  8
DIMS
100
AcDbMText
 10
39.79273165745235
 20
17.2954767354184
 30
0.0
 40
0.5
 41
0.0
 71
     1
 72
     1
  1
5
  7
SLDTEXTSTYLE1
 73
     1
 44
1.0
  0
MTEXT
  5
12E
330
122
100
AcDbEntity
  8
DIMS
100
AcDbMText
 10
39.79273165745235
 20
16.63429615687037
 30
0.0
 40
0.5
 41
0.0
 71
     1
 72
     1
  1
8
  7
SLDTEXTSTYLE1
 73
     1
 44
1.0
  0
MTEXT
  5
12F
330
122
100
AcDbEntity
  8
DIMS
100
AcDbMText
 10
40.30870390689689
 20
16.9301642363729
 30
0.0
 40
0.5
 41
0.0
 71
     1
 72
     1
  1
"
  7
SLDTEXTSTYLE1
 73
     1
 44
1.0
  0
ENDBLK
  5
19A
330
122
100
AcDbEntity
  8
0
100
AcDbBlockEnd
  0
BLOCK
  5
19B
330
131
100
AcDbEntity
  8
0
100
AcDbBlockBegin
  2
_D_6
 70
     0
 71
     0
 10
0.0
 20
0.0
 30
0.0
  3
_D_6
  1

  0
INSERT
  5
134
330
131
100
AcDbEntity
  8
DIMS
100
AcDbBlockReference
  2
_Open90
 10
39.3933864062075
 20
8.23429627685529
 30
-0.0000000000000031
 41
0.5
 42
0.5
 50
180.0000000000004
  0
INSERT
  5
135
330
131
100
AcDbEntity
  8
DIMS
100
AcDbBlockReference
  2
_Open90
 10
40.62375220547202
 20
8.23429627685529
 30
-0.0000000000000031
 41
0.5
 42
0.5
 50
0.0000000000004071
  0
LINE
  5
136
330
131
100
AcDbEntity
  8
DIMS
100
AcDbLine
 10
41.54025793446887
 20
8.28558097524341
 30
0.0
 11
42.05623018391341
 21
8.28558097524341
 31
0.0
  0
LINE
  5
137
330
131
100
AcDbEntity
  8
DIMS
100
AcDbLine
 10
39.3933864062075
 20
9.196721450024206
 30
0.0
 11
39.3933864062075
 21
7.859296276855289
 31
0.0
  0
LINE
  5
138
330
131
100
AcDbEntity
  8
DIMS
100
AcDbLine
 10
40.62375220547202
 20
8.811330397590197
 30
0.0
 11
40.62375220547202
 21
7.859296276855289
 31
0.0
  0
LINE
  5
139
330
131
100
AcDbEntity
  8
DIMS
100
AcDbLine
 10
39.3933864062075
 20
8.23429627685529
 30
0.0
 11
40.62375220547202
 21
8.23429627685529
 31
0.0
  0
LINE
  5
13A
330
131
100
AcDbEntity
  8
DIMS
100
AcDbLine
 10
40.62375220547202
 20
8.23429627685529
 30
0.0
 11
41.0975495870068
 21
8.23429627685529
 31
0.0
  0
MTEXT
  5
13B
330
131
100
AcDbEntity
  8
DIMS
100
AcDbMText
 10
41.0975495870068
 20
8.514982035674786
 30
0.0
 40
0.5
 41
0.0
 71
     1
 72
     1
  1
1
  7
SLDTEXTSTYLE1
 73
     1
 44
1.0
  0
MTEXT
  5
13C
330
131
100
AcDbEntity
  8
DIMS
100
AcDbMText
 10
41.61352183645135
 20
8.88029453472029
 30
0.0
 40
0.5
 41
0.0
 71
     1
 72
     1
  1
1
  7
SLDTEXTSTYLE1
 73
     1
 44
1.0
  0
MTEXT
  5
13D
330
131
100
AcDbEntity
  8
DIMS
100
AcDbMText
 10
41.61352183645135
 20
8.219113956172254
 30
0.0
 40
0.5
 41
0.0
 71
     1
 72
     1
  1
4
  7
SLDTEXTSTYLE1
 73
     1
 44
1.0
  0
MTEXT
  5
13E
330
131
100
AcDbEntity
  8
DIMS
100
AcDbMText
 10
42.1294940858959
 20
8.514982035674786
 30
0.0
 40
0.5
 41
0.0
 71
     1
 72
     1
  1
"
  7
SLDTEXTSTYLE1
 73
     1
 44
1.0
  0
ENDBLK
  5
19C
330
131
100
AcDbEntity
  8
0
100
AcDbBlockEnd
  0
ENDSEC
  0
SECTION
  2
ENTITIES
  0
LINE
  5
7B
330
1F
100
AcDbEntity
  8
TITLE
370
    50
100
AcDbLine
 10
29.43391070279198
 20
1.381311886050946
 30
0.0
 11
46.41567412997442
 21
1.381311886050946
 31
0.0
  0
LINE
  5
7C
330
1F
100
AcDbEntity
  8
TITLE
370
    50
100
AcDbLine
 10
46.4156194230234
 20
5.369060515145104
 30
0.0
 11
36.22622275109721
 21
5.369060515145103
 31
0.0
  0
LINE
  5
7D
330
1F
100
AcDbEntity
  8
TITLE
370
    50
100
AcDbLine
 10
29.43391070279198
 20
2.436487844692758
 30
0.0
 11
22.42166679904371
 21
2.436487844692757
 31
0.0
  0
LINE
  5
7E
330
1F
100
AcDbEntity
  8
TITLE
370
    50
100
AcDbLine
 10
29.43391070279198
 20
1.381311886050946
 30
0.0
 11
22.42166679904371
 21
1.381311886050945
 31
0.0
  0
LINE
  5
7F
330
1F
100
AcDbEntity
  8
TITLE
370
    50
100
AcDbLine
 10
29.43391070279198
 20
1.381311886050946
 30
0.0
 11
29.43391070279198
 21
3.491663803334569
 31
0.0
  0
LINE
  5
80
330
1F
100
AcDbEntity
  8
TITLE
370
    50
100
AcDbLine
 10
22.42166679904371
 20
3.491663803334568
 30
0.0
 11
22.42166679904371
 21
0.3937001215893171
 31
0.0
  0
LINE
  5
81
330
1F
100
AcDbEntity
  8
TITLE
370
    50
100
AcDbLine
 10
22.42166679904371
 20
0.3937001215893171
 30
0.0
 11
46.41568767877938
 21
0.3937001215893171
 31
0.0
  0
LINE
  5
82
330
1F
100
AcDbEntity
  8
TITLE
370
    50
100
AcDbLine
 10
46.4156194230234
 20
5.369060515145104
 30
0.0
 11
46.41568767877938
 21
0.3937001215893171
 31
0.0
  0
LINE
  5
83
330
1F
100
AcDbEntity
  8
TITLE
370
    50
100
AcDbLine
 10
29.43391070279198
 20
3.491663803334569
 30
0.0
 11
22.42166679904371
 21
3.491663803334568
 31
0.0
  0
LINE
  5
84
330
1F
100
AcDbEntity
  8
TITLE
370
    50
100
AcDbLine
 10
29.43391070279198
 20
3.491663803334569
 30
0.0
 11
46.41544924304012
 21
3.491664955913943
 31
0.0
  0
LINE
  5
85
330
1F
100
AcDbEntity
  8
TITLE
370
    50
100
AcDbLine
 10
36.22622275109721
 20
5.369060515145103
 30
0.0
 11
36.22622275109721
 21
0.3573773641115478
 31
0.0
  0
MTEXT
  5
87
330
1F
100
AcDbEntity
  8
OBJECT
100
AcDbMText
 10
23.32398548181345
 20
0.9639904562836571
 30
0.0
 40
0.25
 41
0.0
 71
     1
 72
     1
  1
UNLESS OTHERWISE SPECIFIED DIMENSIONS ARE IN INCHES.
  7
SLDTEXTSTYLE0
 73
     1
 44
1.0
  0
MTEXT
  5
88
330
1F
100
AcDbEntity
  8
OBJECT
100
AcDbMText
 10
23.34575760666969
 20
2.976762899169739
 30
0.0
 40
0.25
 41
0.0
 71
     1
 72
     1
  1
DATE:
  7
SLDTEXTSTYLE0
 73
     1
 44
1.0
  0
MTEXT
  5
89
330
1F
100
AcDbEntity
  8
OBJECT
100
AcDbMText
 10
25.4543888667847
 20
2.086733085252027
 30
0.0
 40
0.25
 41
0.0
 71
     2
 72
     1
  1
DO NOT SCALE DRAWING
  7
SLDTEXTSTYLE0
 73
     1
 44
1.0
  0
MTEXT
  5
8B
330
1F
100
AcDbEntity
  8
OBJECT
100
AcDbMText
 10
29.74642498628476
 20
3.161975676886921
 30
0.0
 40
0.25
 41
0.0
 71
     1
 72
     1
  1
TITLE:
  7
SLDTEXTSTYLE1
 73
     1
 44
1.0
  0
MTEXT
  5
8C
330
1F
100
AcDbEntity
  8
OBJECT
100
AcDbMText
 10
37.07187078394034
 20
3.161975676886921
 30
0.0
 40
0.25
 41
0.0
 71
     1
 72
     1
  1
DWG NO.
  7
SLDTEXTSTYLE1
 73
     1
 44
1.0
  0
MTEXT
  5
8D
330
1F
100
AcDbEntity
  8
OBJECT
100
AcDbMText
 10
37.09886299906432
 20
0.9582816792631479
 30
0.0
 40
0.25
 41
0.0
 71
     1
 72
     1
  1
SCALE:     1:1
  7
SLDTEXTSTYLE1
 73
     1
 44
1.0
  0
MTEXT
  5
8E
330
1F
100
AcDbEntity
  8
OBJECT
100
AcDbMText
 10
41.14711620214982
 20
2.701206582691213
 30
0.0
 40
0.5
 41
0.0
 71
     2
 72
     1
  1
Code 1146 Coat hook
  7
SLDTEXTSTYLE1
 73
     1
 44
1.0
  0
INSERT
  5
9E
330
1F
100
AcDbEntity
  8
OBJECT
100
AcDbBlockReference
  2
SW_NOTE_0_1
 10
23.53166030337019
 20
5.041852806368022
 30
0.0
  0
LINE
  5
9F
330
1F
100
AcDbEntity
  8
OBJECT
  6
SLD-Solid
370
    25
100
AcDbLine
 10
28.83773201987132
 20
8.627997064256864
 30
0.0
 11
29.83773201987131
 21
8.627997064256864
 31
0.0
  0
LINE
  5
A0
330
1F
100
AcDbEntity
  8
OBJECT
  6
SLD-Solid
370
    25
100
AcDbLine
 10
28.83773201987132
 20
13.02822796403133
 30
0.0
 11
28.83773201987122
 21
15.76036197045944
 31
0.0
  0
LWPOLYLINE
  5
A1
330
1F
100
AcDbEntity
  8
OBJECT
  6
SLD-Solid
370
    25
100
AcDbPolyline
 90
       16
 70
   128
 43
0.0
 10
29.33773201987122
 20
16.21351586397772
 10
29.28546778823739
 20
16.21103343953475
 10
29.23377617446235
 20
16.20361336416752
 10
29.18322352268376
 20
16.19133693377452
 10
29.13436369833333
 20
16.17433865149612
 10
29.08773201987124
 20
16.15280475407009
 10
29.043839393725
 20
16.1269711713829
 10
29.00316671669182
 20
16.09712094157248
 10
28.96615960713255
 20
16.0635811100032
 10
28.93322352268378
 20
16.02671914608839
 10
28.90471931797903
 20
15.98693891721857
 10
28.88095929104995
 20
15.94467626390579
 10
28.86220376172368
 20
15.90039422462376
 10
28.84865821950436
 20
15.85457796266147
 10
28.84047107218712
 20
15.80772945057265
 10
28.83773201987122
 20
15.76036197045944
  0
LWPOLYLINE
  5
A2
330
1F
100
AcDbEntity
  8
OBJECT
  6
SLD-Solid
370
    25
100
AcDbPolyline
 90
       16
 70
   128
 43
0.0
 10
29.83773201987122
 20
15.76036197045939
 10
29.83499296755536
 20
15.80772945057262
 10
29.82680582023813
 20
15.85457796266144
 10
29.81326027801881
 20
15.90039422462374
 10
29.79450474869253
 20
15.94467626390578
 10
29.77074472176345
 20
15.98693891721857
 10
29.74224051705871
 20
16.0267191460884
 10
29.70930443260993
 20
16.06358111000321
 10
29.67229732305066
 20
16.09712094157249
 10
29.63162464601747
 20
16.12697117138292
 10
29.58773201987123
 20
16.15280475407012
 10
29.54110034140913
 20
16.17433865149615
 10
29.4922405170587
 20
16.19133693377455
 10
29.44168786528011
 20
16.20361336416756
 10
29.38999625150505
 20
16.21103343953478
 10
29.33773201987122
 20
16.21351586397772
  0
LINE
  5
A3
330
1F
100
AcDbEntity
  8
OBJECT
  6
SLD-Solid
370
    25
100
AcDbLine
 10
29.83773201987122
 20
15.76036197045939
 30
0.0
 11
29.83773201987131
 21
13.02822796403128
 31
0.0
  0
LINE
  5
A4
330
1F
100
AcDbEntity
  8
OBJECT
  6
SLD-Solid
370
    25
100
AcDbLine
 10
28.83773201987122
 20
15.76036197045944
 30
0.0
 11
28.83773201987132
 21
15.80262379663351
 31
0.0
  0
LWPOLYLINE
  5
A5
330
1F
100
AcDbEntity
  8
OBJECT
  6
SLD-Solid
370
    25
100
AcDbPolyline
 90
       16
 70
   128
 43
0.0
 10
28.83773201987132
 20
15.80262379663351
 10
28.84047107218718
 20
15.84999127674673
 10
28.84865821950441
 20
15.89683978883554
 10
28.86220376172373
 20
15.94265605079783
 10
28.88095929105001
 20
15.98693809007986
 10
28.90471931797908
 20
16.02920074339264
 10
28.93322352268382
 20
16.06898097226246
 10
28.96615960713259
 20
16.10584293617726
 10
29.00316671669185
 20
16.13938276774655
 10
29.04383939372503
 20
16.16923299755697
 10
29.08773201987126
 20
16.19506658024417
 10
29.13436369833335
 20
16.2166004776702
 10
29.18322352268377
 20
16.2335987599486
 10
29.23377617446236
 20
16.24587519034161
 10
29.2854677882374
 20
16.25329526570885
 10
29.33773201987122
 20
16.25577769015168
  0
LINE
  5
A6
330
1F
100
AcDbEntity
  8
OBJECT
  6
SLD-Solid
370
    25
100
AcDbLine
 10
29.83773201987131
 20
15.80262379663346
 30
0.0
 11
29.83773201987122
 21
15.76036197045939
 31
0.0
  0
LWPOLYLINE
  5
A7
330
1F
100
AcDbEntity
  8
OBJECT
  6
SLD-Solid
370
    25
100
AcDbPolyline
 90
       16
 70
   128
 43
0.0
 10
29.33773201987122
 20
16.25577769015168
 10
29.38999625150504
 20
16.25329526570873
 10
29.44168786528009
 20
16.24587519034151
 10
29.49224051705868
 20
16.23359875994851
 10
29.54110034140911
 20
16.21660047767012
 10
29.5877320198712
 20
16.1950665802441
 10
29.63162464601744
 20
16.16923299755691
 10
29.67229732305063
 20
16.13938276774649
 10
29.70930443260989
 20
16.10584293617722
 10
29.74224051705867
 20
16.06898097226241
 10
29.77074472176341
 20
16.0292007433926
 10
29.79450474869249
 20
15.98693809007981
 10
29.81326027801877
 20
15.94265605079779
 10
29.82680582023809
 20
15.8968397888355
 10
29.83499296755532
 20
15.84999127674669
 10
29.83773201987131
 20
15.80262379663346
  0
LINE
  5
A8
330
1F
100
AcDbEntity
  8
OBJECT
  6
SLD-Solid
370
    25
100
AcDbLine
 10
29.83773201987131
 20
8.73050969084157
 30
0.0
 11
29.83773201987131
 21
9.0098347260976
 31
0.0
  0
LINE
  5
A9
330
1F
100
AcDbEntity
  8
OBJECT
  6
SLD-Solid
370
    25
100
AcDbLine
 10
28.83773201987132
 20
9.009834726097601
 30
0.0
 11
28.83773201987132
 21
8.730509690841572
 31
0.0
  0
LWPOLYLINE
  5
AA
330
1F
100
AcDbEntity
  8
OBJECT
  6
SLD-Solid
370
    25
100
AcDbPolyline
 90
       16
 70
   128
 43
0.0
 10
29.33773201987132
 20
9.363388116690873
 10
29.28546778823749
 20
9.361451314224302
 10
29.23377617446244
 20
9.355662126837712
 10
29.18322352268385
 20
9.346083982079579
 10
29.13436369833342
 20
9.332821820108226
 10
29.08773201987133
 20
9.316020943945498
 10
29.04383939372509
 20
9.295865427506444
 10
29.0031667166919
 20
9.272576098846983
 10
28.96615960713263
 20
9.246408120725512
 10
28.93322352268386
 20
9.217648194986332
 10
28.90471931797911
 20
9.186611421394243
 10
28.88095929105003
 20
9.153637845335583
 10
28.86220376172376
 20
9.119088732209812
 10
28.84865821950443
 20
9.083342609330208
 10
28.84047107218719
 20
9.046791118699392
 10
28.83773201987132
 20
9.009834726097601
  0
LWPOLYLINE
  5
AB
330
1F
100
AcDbEntity
  8
OBJECT
  6
SLD-Solid
370
    25
100
AcDbPolyline
 90
       16
 70
   128
 43
0.0
 10
29.83773201987131
 20
9.0098347260976
 10
29.83499296755545
 20
9.046791118699382
 10
29.82680582023822
 20
9.083342609330197
 10
29.81326027801889
 20
9.119088732209802
 10
29.79450474869261
 20
9.15363784533557
 10
29.77074472176353
 20
9.18661142139423
 10
29.74224051705879
 20
9.217648194986321
 10
29.70930443261001
 20
9.246408120725501
 10
29.67229732305075
 20
9.272576098846972
 10
29.63162464601755
 20
9.295865427506435
 10
29.58773201987132
 20
9.316020943945489
 10
29.54110034140922
 20
9.332821820108217
 10
29.49224051705879
 20
9.34608398207957
 10
29.44168786528019
 20
9.355662126837704
 10
29.38999625150515
 20
9.361451314224293
 10
29.33773201987132
 20
9.363388116690873
  0
LINE
  5
AC
330
1F
100
AcDbEntity
  8
OBJECT
  6
SLD-Solid
370
    25
100
AcDbLine
 10
28.83773201987132
 20
9.009834726097601
 30
0.0
 11
28.83773201987132
 21
9.080545404216256
 31
0.0
  0
LWPOLYLINE
  5
AD
330
1F
100
AcDbEntity
  8
OBJECT
  6
SLD-Solid
370
    25
100
AcDbPolyline
 90
       16
 70
   128
 43
0.0
 10
28.83773201987132
 20
9.080545404216256
 10
28.84047107218718
 20
9.11750179681804
 10
28.84865821950442
 20
9.154053287448853
 10
28.86220376172374
 20
9.18979941032846
 10
28.88095929105002
 20
9.224348523454228
 10
28.9047193179791
 20
9.257322099512889
 10
28.93322352268384
 20
9.288358873104977
 10
28.96615960713262
 20
9.317118798844158
 10
29.00316671669189
 20
9.343286776965629
 10
29.04383939372508
 20
9.366576105625091
 10
29.08773201987131
 20
9.386731622064145
 10
29.13436369833342
 20
9.403532498226873
 10
29.18322352268384
 20
9.416794660198226
 10
29.23377617446244
 20
9.42637280495636
 10
29.28546778823749
 20
9.432161992342948
 10
29.33773201987132
 20
9.434098794809529
  0
LWPOLYLINE
  5
AE
330
1F
100
AcDbEntity
  8
OBJECT
  6
SLD-Solid
370
    25
100
AcDbPolyline
 90
       16
 70
   128
 43
0.0
 10
29.33773201987132
 20
9.434098794809529
 10
29.38999625150515
 20
9.432161992342957
 10
29.4416878652802
 20
9.426372804956367
 10
29.49224051705879
 20
9.416794660198233
 10
29.54110034140922
 20
9.403532498226879
 10
29.58773201987132
 20
9.38673162206415
 10
29.63162464601755
 20
9.366576105625095
 10
29.67229732305075
 20
9.343286776965632
 10
29.70930443261001
 20
9.31711879884416
 10
29.74224051705879
 20
9.288358873104977
 10
29.77074472176353
 20
9.257322099512887
 10
29.79450474869261
 20
9.224348523454223
 10
29.81326027801889
 20
9.189799410328453
 10
29.82680582023821
 20
9.154053287448848
 10
29.83499296755545
 20
9.117501796818031
 10
29.83773201987131
 20
9.080545404216254
  0
LINE
  5
AF
330
1F
100
AcDbEntity
  8
OBJECT
  6
SLD-Solid
370
    25
100
AcDbLine
 10
29.83773201987131
 20
9.080545404216254
 30
0.0
 11
29.83773201987131
 21
9.0098347260976
 31
0.0
  0
LINE
  5
B0
330
1F
100
AcDbEntity
  8
OBJECT
  6
SLD-Solid
370
    25
100
AcDbLine
 10
28.83773201987122
 20
8.627997064256864
 30
0.0
 11
28.83773201987132
 21
8.730509690841572
 31
0.0
  0
LINE
  5
B1
330
1F
100
AcDbEntity
  8
OBJECT
  6
SLD-Solid
370
    25
100
AcDbLine
 10
29.83773201987131
 20
8.73050969084157
 30
0.0
 11
29.83773201987122
 21
8.627997064256864
 31
0.0
  0
LINE
  5
B2
330
1F
100
AcDbEntity
  8
OBJECT
  6
SLD-Solid
370
    25
100
AcDbLine
 10
28.83773201987132
 20
13.02822796403133
 30
0.0
 11
28.83773201987132
 21
12.92257339859618
 31
0.0
  0
LINE
  5
B3
330
1F
100
AcDbEntity
  8
OBJECT
  6
SLD-Solid
370
    25
100
AcDbLine
 10
29.83773201987131
 20
12.92257339859613
 30
0.0
 11
29.83773201987131
 21
13.02822796403128
 31
0.0
  0
LINE
  5
B4
330
1F
100
AcDbEntity
  8
OBJECT
  6
SLD-Solid
370
    25
100
AcDbLine
 10
29.83773201987131
 20
12.92257339859613
 30
0.0
 11
29.83773201987122
 21
9.080545404216256
 31
0.0
  0
CIRCLE
  5
B5
330
1F
100
AcDbEntity
  8
OBJECT
  6
SLD-Solid
370
    25
100
AcDbCircle
 10
29.33773201987132
 20
12.52257339859613
 30
0.0
 40
0.0975000000000001
  0
CIRCLE
  5
B6
330
1F
100
AcDbEntity
  8
OBJECT
  6
SLD-Solid
370
    25
100
AcDbCircle
 10
29.33773201987132
 20
10.02257339859613
 30
0.0
 40
0.0975000000000001
  0
LINE
  5
B7
330
1F
100
AcDbEntity
  8
OBJECT
  6
SLD-Solid
370
    25
100
AcDbLine
 10
28.83773201987122
 20
9.080545404216256
 30
0.0
 11
28.83773201987132
 21
12.92257339859618
 31
0.0
  0
DIMENSION
  5
B8
330
1F
100
AcDbEntity
  8
DIMS
100
AcDbDimension
  2
_D
 10
29.83773201987123
 20
8.23429627685529
 30
0.0
 11
27.49914934270586
 21
8.23429627685529
 31
0.0
 70
    32
  1
<>
 71
     2
 42
-1.0
  3
SLDDIMSTYLE0
100
AcDbAlignedDimension
 13
28.83773201987123
 23
8.627997064256864
 33
0.0
 14
29.83773201987123
 24
8.627997064256864
 34
0.0
100
AcDbRotatedDimension
  0
DIMENSION
  5
CA
330
1F
100
AcDbEntity
  8
DIMS
100
AcDbDimension
  2
_D_1
 10
27.73536981514691
 20
10.02257339859613
 30
0.0
 11
27.73536981514691
 21
11.33210270108229
 31
0.0
 70
    32
  1
<>
 71
     2
 42
-1.0
  3
SLDDIMSTYLE1
100
AcDbAlignedDimension
 13
29.33773201987132
 23
12.52257339859613
 33
0.0
 14
29.33773201987132
 24
10.02257339859613
 34
0.0
 50
90.0000000000002
100
AcDbRotatedDimension
  0
DIMENSION
  5
DA
330
1F
100
AcDbEntity
  8
DIMS
100
AcDbDimension
  2
_D_2
 10
29.40667493103701
 20
12.45363048743044
 30
0.0
 11
26.28274493645512
 21
14.33143200937341
 31
0.0
 70
    35
  1
<>
 71
     1
 42
-1.0
  3
SLDDIMSTYLE2
100
AcDbDiametricDimension
 15
29.26878910870563
 25
12.59151630976182
 35
0.0
 40
0.0
  0
MTEXT
  5
E7
330
1F
100
AcDbEntity
  8
NOTES
100
AcDbMText
 10
28.10603479443145
 20
7.626335132883198
 30
0.0
 40
0.5
 41
0.0
 71
     1
 72
     1
  1
Front view
  7
SLDTEXTSTYLE1
 73
     1
 44
1.0
  0
INSERT
  5
EE
102
{ACAD_REACTORS
330
F0
102
}
330
1F
100
AcDbEntity
  8
NOTES
100
AcDbBlockReference
  2
SW_NOTE_0_2
 10
25.89673598650555
 20
16.12983739590303
 30
0.0
  0
LEADER
  5
F0
330
1F
100
AcDbEntity
  8
NOTES
100
AcDbLeader
  3
SLDDIMSTYLE3
 73
     2
 76
     3
 10
28.83773201987129
 20
14.09411374104979
 30
0.0
 10
26.39673598650555
 20
16.12983739590303
 30
0.0
 10
25.89673598650555
 20
16.12983739590303
 30
0.0
340
EE
1001
ACAD
1000
DSTYLE
1002
{
1070
   176
1070
     0
1070
    77
1070
     0
1070
    40
1040
1.0
1070
   147
1040
0.0
1002
}
  0
LINE
  5
F1
330
1F
100
AcDbEntity
  8
OBJECT
  6
SLD-Solid
370
    25
100
AcDbLine
 10
39.22631414192819
 20
15.76036197045939
 30
0.0
 11
39.01500501105782
 21
16.21351586397772
 31
0.0
  0
LINE
  5
F2
330
1F
100
AcDbEntity
  8
OBJECT
  6
SLD-Solid
370
    25
100
AcDbLine
 10
39.10563578976149
 20
16.25577769015168
 30
0.0
 11
39.01500501105782
 21
16.21351586397772
 31
0.0
  0
LINE
  5
F3
330
1F
100
AcDbEntity
  8
OBJECT
  6
SLD-Solid
370
    25
100
AcDbLine
 10
39.10563578976149
 20
16.25577769015168
 30
0.0
 11
39.31694492063182
 21
15.80262379663346
 31
0.0
  0
LINE
  5
F4
330
1F
100
AcDbEntity
  8
OBJECT
  6
SLD-Solid
370
    25
100
AcDbLine
 10
39.31694492063182
 20
15.80262379663346
 30
0.0
 11
40.59095993093485
 21
13.07048979020535
 31
0.0
  0
LINE
  5
F5
330
1F
100
AcDbEntity
  8
OBJECT
  6
SLD-Solid
370
    25
100
AcDbLine
 10
39.22631414192819
 20
15.76036197045939
 30
0.0
 11
40.50032915223119
 21
13.02822796403128
 31
0.0
  0
LINE
  5
F6
330
1F
100
AcDbEntity
  8
OBJECT
  6
SLD-Solid
370
    25
100
AcDbLine
 10
39.3933864062075
 20
9.363388116690873
 30
0.0
 11
39.46409708432613
 21
9.434098794809529
 31
0.0
  0
LINE
  5
F7
330
1F
100
AcDbEntity
  8
OBJECT
  6
SLD-Solid
370
    25
100
AcDbLine
 10
39.46409708432613
 20
9.434098794809529
 30
0.0
 11
39.81765047491941
 21
9.080545404216254
 31
0.0
  0
LINE
  5
F8
330
1F
100
AcDbEntity
  8
OBJECT
  6
SLD-Solid
370
    25
100
AcDbLine
 10
39.74693979680075
 20
9.0098347260976
 30
0.0
 11
39.3933864062075
 21
9.363388116690873
 31
0.0
  0
LINE
  5
F9
330
1F
100
AcDbEntity
  8
OBJECT
  6
SLD-Solid
370
    25
100
AcDbLine
 10
40.0969755101754
 20
8.801220368960227
 30
0.0
 11
39.81765047491941
 21
9.080545404216254
 31
0.0
  0
LINE
  5
FA
330
1F
100
AcDbEntity
  8
OBJECT
  6
SLD-Solid
370
    25
100
AcDbLine
 10
40.02626483205676
 20
8.73050969084157
 30
0.0
 11
39.74693979680075
 21
9.0098347260976
 31
0.0
  0
ARC
  5
FB
330
1F
100
AcDbEntity
  8
OBJECT
  6
SLD-Solid
370
    25
100
AcDbCircle
 10
40.27375220547204
 20
8.977997064256865
 30
0.0
 40
0.249999999999997
100
AcDbArc
 50
225.000000000002
 51
0.0000000000002544
  0
ARC
  5
FC
330
1F
100
AcDbEntity
  8
OBJECT
  6
SLD-Solid
370
    25
100
AcDbCircle
 10
40.27375220547204
 20
8.977997064256865
 30
0.0
 40
0.3499999999999905
100
AcDbArc
 50
225.0000000000031
 51
0.0000000000161027
  0
ARC
  5
FD
330
1F
100
AcDbEntity
  8
OBJECT
  6
SLD-Solid
370
    25
100
AcDbCircle
 10
40.27375220547204
 20
12.9225733985961
 30
0.0
 40
0.349999999999988
100
AcDbArc
 50
0.0000000000165077
 51
25.00000000000063
  0
ARC
  5
FE
330
1F
100
AcDbEntity
  8
OBJECT
  6
SLD-Solid
370
    25
100
AcDbCircle
 10
40.27375220547204
 20
12.9225733985961
 30
0.0
 40
0.2499999999999905
100
AcDbArc
 50
0.0000000000231107
 51
25.00000000000073
  0
LINE
  5
FF
330
1F
100
AcDbEntity
  8
OBJECT
  6
SLD-Solid
370
    25
100
AcDbLine
 10
40.62375220547202
 20
12.92257339859613
 30
0.0
 11
40.62375220547202
 21
8.977997064256865
 31
0.0
  0
LINE
  5
100
330
1F
100
AcDbEntity
  8
OBJECT
  6
SLD-Solid
370
    25
100
AcDbLine
 10
40.52375220547202
 20
12.92257339859613
 30
0.0
 11
40.52375220547202
 21
8.977997064256865
 31
0.0
  0
POINT
  5
101
330
1F
100
AcDbEntity
  8
NOT_SHOWN
100
AcDbPoint
 10
40.27375220547204
 20
8.627997064256878
 30
0.0
  0
DIMENSION
  5
102
330
1F
100
AcDbEntity
  8
DIMS
100
AcDbDimension
  2
_D_3
 10
36.49531997168773
 20
16.25577769015169
 30
0.0
 11
36.49531997168773
 21
12.29389169797116
 31
0.0
 70
    32
  1
<>
 71
     2
 42
-1.0
  3
SLDDIMSTYLE4
100
AcDbAlignedDimension
 13
40.27375220547204
 23
8.627997064256878
 33
0.0
 14
39.10563578976148
 24
16.25577769015169
 34
0.0
 50
90.0000000000002
100
AcDbRotatedDimension
  0
DIMENSION
  5
112
330
1F
100
AcDbEntity
  8
DIMS
100
AcDbDimension
  2
_D_4
 10
38.62130422365623
 20
8.627997064256878
 30
0.0
 11
38.62130422365623
 21
10.33524693079574
 31
0.0
 70
    32
  1
<>
 71
     2
 42
-1.0
  3
SLDDIMSTYLE1
100
AcDbAlignedDimension
 13
39.46409708432613
 23
9.434098794809529
 33
0.0
 14
40.27375220547204
 24
8.627997064256878
 34
0.0
 50
90.0000000000002
100
AcDbRotatedDimension
  0
DIMENSION
  5
121
330
1F
100
AcDbEntity
  8
DIMS
100
AcDbDimension
  2
_D_5
 10
40.62375220547202
 20
16.64947847755341
 30
0.0
 11
39.89585667614334
 21
16.64947847755341
 31
0.0
 70
    32
  1
<>
 71
     2
 42
-1.0
  3
SLDDIMSTYLE1
100
AcDbAlignedDimension
 13
39.01500501105781
 23
16.21351586397772
 33
0.0
 14
40.62375220547202
 24
12.92257339859613
 34
0.0
100
AcDbRotatedDimension
  0
DIMENSION
  5
130
330
1F
100
AcDbEntity
  8
DIMS
100
AcDbDimension
  2
_D_6
 10
40.62375220547202
 20
8.23429627685529
 30
0.0
 11
41.71664685514234
 21
8.23429627685529
 31
0.0
 70
    32
  1
<>
 71
     2
 42
-1.0
  3
SLDDIMSTYLE4
100
AcDbAlignedDimension
 13
39.3933864062075
 23
9.363388116690874
 33
0.0
 14
40.62375220547202
 24
8.977997064256865
 34
0.0
100
AcDbRotatedDimension
  0
MTEXT
  5
13F
330
1F
100
AcDbEntity
  8
NOTES
100
AcDbMText
 10
38.98498050842474
 20
7.280030997672469
 30
0.0
 40
0.5
 41
0.0
 71
     1
 72
     1
  1
Side view
  7
SLDTEXTSTYLE1
 73
     1
 44
1.0
  0
LINE
  5
140
330
1F
100
AcDbEntity
  8
OBJECT
  6
SLD-Solid
370
    25
100
AcDbLine
 10
28.83773201987132
 20
20.10857765524212
 30
0.0
 11
28.83773201987132
 21
18.8345626449391
 31
0.0
  0
LINE
  5
141
330
1F
100
AcDbEntity
  8
OBJECT
  6
SLD-Solid
370
    25
100
AcDbLine
 10
29.83773201987131
 20
18.83456264493909
 30
0.0
 11
29.83773201987131
 21
20.10857765524212
 31
0.0
  0
LWPOLYLINE
  5
142
330
1F
100
AcDbEntity
  8
OBJECT
  6
SLD-Solid
370
    25
100
AcDbPolyline
 90
       16
 70
   128
 43
0.0
 10
29.33773201987122
 20
18.62325351406875
 10
29.38999625150504
 20
18.62441108759729
 10
29.44168786528009
 20
18.62787112556511
 10
29.49224051705868
 20
18.63359571907218
 10
29.54110034140911
 20
18.64152214827407
 10
29.5877320198712
 20
18.65156356955375
 10
29.63162464601744
 20
18.66360996699837
 10
29.67229732305063
 20
18.67752935775666
 10
29.70930443260989
 20
18.69316923807065
 10
29.74224051705867
 20
18.71035825413875
 10
29.77074472176341
 20
18.72890807950391
 10
29.79450474869249
 20
18.74861547839762
 10
29.81326027801877
 20
18.76926453243356
 10
29.82680582023809
 20
18.79062900625461
 10
29.83499296755532
 20
18.8124748262148
 10
29.83773201987131
 20
18.83456264493909
  0
LWPOLYLINE
  5
143
330
1F
100
AcDbEntity
  8
OBJECT
  6
SLD-Solid
370
    25
100
AcDbPolyline
 90
       16
 70
   128
 43
0.0
 10
28.83773201987132
 20
18.8345626449391
 10
28.84047107218718
 20
18.8124748262148
 10
28.84865821950441
 20
18.79062900625462
 10
28.86220376172373
 20
18.76926453243357
 10
28.88095929105001
 20
18.74861547839763
 10
28.90471931797908
 20
18.72890807950393
 10
28.93322352268382
 20
18.71035825413878
 10
28.96615960713259
 20
18.69316923807067
 10
29.00316671669185
 20
18.67752935775668
 10
29.04383939372503
 20
18.66360996699839
 10
29.08773201987126
 20
18.65156356955377
 10
29.13436369833335
 20
18.64152214827409
 10
29.18322352268377
 20
18.63359571907219
 10
29.23377617446236
 20
18.62787112556511
 10
29.2854677882374
 20
18.62441108759728
 10
29.33773201987122
 20
18.62325351406875
  0
LINE
  5
144
330
1F
100
AcDbEntity
  8
OBJECT
  6
SLD-Solid
370
    25
100
AcDbLine
 10
29.83773201987131
 20
18.83456264493909
 30
0.0
 11
29.83773201987122
 21
18.74393186623546
 31
0.0
  0
LWPOLYLINE
  5
145
330
1F
100
AcDbEntity
  8
OBJECT
  6
SLD-Solid
370
    25
100
AcDbPolyline
 90
       16
 70
   128
 43
0.0
 10
29.83773201987122
 20
18.74393186623546
 10
29.83499296755536
 20
18.72184404751115
 10
29.82680582023813
 20
18.69999822755096
 10
29.81326027801881
 20
18.67863375372991
 10
29.79450474869253
 20
18.65798469969398
 10
29.77074472176345
 20
18.63827730080027
 10
29.74224051705871
 20
18.61972747543511
 10
29.70930443260993
 20
18.602538459367
 10
29.67229732305066
 20
18.58689857905301
 10
29.63162464601747
 20
18.57297918829472
 10
29.58773201987123
 20
18.5609327908501
 10
29.54110034140913
 20
18.55089136957041
 10
29.4922405170587
 20
18.54296494036851
 10
29.44168786528011
 20
18.53724034686145
 10
29.38999625150505
 20
18.53378030889361
 10
29.33773201987122
 20
18.53262273536508
  0
LWPOLYLINE
  5
146
330
1F
100
AcDbEntity
  8
OBJECT
  6
SLD-Solid
370
    25
100
AcDbPolyline
 90
       16
 70
   128
 43
0.0
 10
29.33773201987122
 20
18.53262273536508
 10
29.28546778823739
 20
18.53378030889363
 10
29.23377617446235
 20
18.53724034686146
 10
29.18322352268376
 20
18.54296494036852
 10
29.13436369833333
 20
18.55089136957042
 10
29.08773201987124
 20
18.5609327908501
 10
29.043839393725
 20
18.57297918829472
 10
29.00316671669182
 20
18.586898579053
 10
28.96615960713255
 20
18.60253845936699
 10
28.93322352268378
 20
18.61972747543509
 10
28.90471931797903
 20
18.63827730080025
 10
28.88095929104995
 20
18.65798469969396
 10
28.86220376172368
 20
18.67863375372988
 10
28.84865821950436
 20
18.69999822755094
 10
28.84047107218712
 20
18.72184404751112
 10
28.83773201987122
 20
18.74393186623543
  0
LINE
  5
147
330
1F
100
AcDbEntity
  8
OBJECT
  6
SLD-Solid
370
    25
100
AcDbLine
 10
28.83773201987122
 20
18.74393186623543
 30
0.0
 11
28.83773201987132
 21
18.8345626449391
 31
0.0
  0
LINE
  5
148
330
1F
100
AcDbEntity
  8
OBJECT
  6
SLD-Solid
370
    25
100
AcDbLine
 10
29.83773201987131
 20
20.14136992977929
 30
0.0
 11
29.83773201987131
 21
20.10857765524212
 31
0.0
  0
LINE
  5
149
330
1F
100
AcDbEntity
  8
OBJECT
  6
SLD-Solid
370
    25
100
AcDbLine
 10
28.83773201987132
 20
20.10857765524212
 30
0.0
 11
28.83773201987132
 21
20.14136992977929
 31
0.0
  0
LINE
  5
14A
330
1F
100
AcDbEntity
  8
OBJECT
  6
SLD-Solid
370
    25
100
AcDbLine
 10
28.83773201987132
 20
20.14136992977929
 30
0.0
 11
29.83773201987131
 21
20.14136992977929
 31
0.0
  0
MTEXT
  5
14B
330
1F
100
AcDbEntity
  8
NOTES
100
AcDbMText
 10
28.23784706477453
 20
18.22079416602196
 30
0.0
 40
0.5
 41
0.0
 71
     1
 72
     1
  1
Top view
  7
SLDTEXTSTYLE1
 73
     1
 44
1.0
  0
LINE
  5
14C
330
1F
100
AcDbEntity
  8
OBJECT
  6
SLD-Solid
370
    25
100
AcDbLine
 10
43.11544794289751
 20
15.27424182492389
 30
0.0
 11
43.05136230469192
 21
15.20273746761069
 31
0.0
  0
LINE
  5
14D
330
1F
100
AcDbEntity
  8
OBJECT
  6
SLD-Solid
370
    25
100
AcDbLine
 10
43.40882845566342
 20
9.906070704148645
 30
0.0
 11
43.35882845566345
 21
9.819468164024403
 31
0.0
  0
LINE
  5
14E
330
1F
100
AcDbEntity
  8
OBJECT
  6
SLD-Solid
370
    25
100
AcDbLine
 10
43.84134225501669
 20
14.73642998566915
 30
0.0
 11
43.77725661681108
 21
14.66492562835601
 31
0.0
  0
ARC
  5
14F
330
1F
100
AcDbEntity
  8
OBJECT
  6
SLD-Solid
370
    25
100
AcDbCircle
 10
42.53240160735299
 20
13.88472558668503
 30
0.0
 40
1.469141279658397
100
AcDbArc
 50
32.0770049031181
 51
59.67013178414808
  0
ARC
  5
150
330
1F
100
AcDbEntity
  8
OBJECT
  6
SLD-Solid
370
    25
100
AcDbCircle
 10
42.61203502925226
 20
13.97225920901585
 30
0.0
 40
1.447464414487473
100
AcDbArc
 50
31.86620715148731
 51
59.88092953578535
  0
LINE
  5
151
330
1F
100
AcDbEntity
  8
OBJECT
  6
SLD-Solid
370
    25
100
AcDbLine
 10
44.67812126992985
 20
12.95408480306414
 30
0.0
 11
43.97101448874329
 21
13.36228885897552
 31
0.0
  0
LINE
  5
152
330
1F
100
AcDbEntity
  8
OBJECT
  6
SLD-Solid
370
    25
100
AcDbLine
 10
43.97101448874329
 20
13.36228885897552
 30
0.0
 11
43.07014983562451
 21
15.07312968426739
 31
0.0
  0
LWPOLYLINE
  5
153
330
1F
100
AcDbEntity
  8
OBJECT
  6
SLD-Solid
370
    25
100
AcDbPolyline
 90
       16
 70
   128
 43
0.0
 10
43.27428510685272
 20
15.15278906016194
 10
43.23814724234271
 20
15.17256905683322
 10
43.2040423680221
 20
15.18902339040026
 10
43.17234414403089
 20
15.20197178374122
 10
43.14339986274437
 20
15.21127237154902
 10
43.11752664376532
 20
15.21682325463738
 10
43.0950079594952
 20
15.21856361636956
 10
43.07609052935118
 20
15.21647438897825
 10
43.06098161665668
 20
15.21057846247595
 10
43.0498467578209
 20
15.2009404338672
 10
43.04280794868738
 20
15.18766589941035
 10
43.03994230792194
 20
15.17090029768276
 10
43.04128123208448
 20
15.15082731612541
 10
43.04681005164169
 20
15.12766687852476
 10
43.05646819168953
 20
15.10167273548181
 10
43.07014983562451
 20
15.07312968426739
  0
LINE
  5
154
330
1F
100
AcDbEntity
  8
OBJECT
  6
SLD-Solid
370
    25
100
AcDbLine
 10
43.77725661681108
 20
14.66492562835601
 30
0.0
 11
44.67812126992985
 21
12.95408480306414
 31
0.0
  0
LWPOLYLINE
  5
155
330
1F
100
AcDbEntity
  8
OBJECT
  6
SLD-Solid
370
    25
100
AcDbPolyline
 90
       10
 70
   128
 43
0.0
 10
43.1154479428975
 20
15.27424182492387
 10
43.12506725486229
 20
15.28208281978913
 10
43.1401761675568
 20
15.28797874629144
 10
43.1590935977008
 20
15.29006797368275
 10
43.18161228197092
 20
15.28832761195056
 10
43.20748550094996
 20
15.28277672886222
 10
43.23642978223647
 20
15.27347614105442
 10
43.26812800622768
 20
15.26052774771347
 10
43.30223288054828
 20
15.24407341414643
 10
43.33837074505831
 20
15.22429341747505
  0
LINE
  5
156
330
1F
100
AcDbEntity
  8
OBJECT
  6
SLD-Solid
370
    25
100
AcDbLine
 10
43.84134225501669
 20
14.73642998566915
 30
0.0
 11
44.74220690813542
 21
13.02558916037732
 31
0.0
  0
ARC
  5
157
330
1F
100
AcDbEntity
  8
OBJECT
  6
SLD-Solid
370
    25
100
AcDbCircle
 10
44.534393686121
 20
12.9245195849562
 30
0.0
 40
0.2310874170521173
100
AcDbArc
 50
358.4317692118781
 51
25.93588576581316
  0
ARC
  5
158
330
1F
100
AcDbEntity
  8
OBJECT
  6
SLD-Solid
370
    25
100
AcDbCircle
 10
44.52968325420517
 20
12.8818922491919
 30
0.0
 40
0.165062440751596
100
AcDbArc
 50
358.4317692118817
 51
25.9358857658015
  0
ARC
  5
159
330
1F
100
AcDbEntity
  8
OBJECT
  6
SLD-Solid
370
    25
100
AcDbCircle
 10
43.82257647301881
 20
13.29009630510333
 30
0.0
 40
0.1650624407514052
100
AcDbArc
 50
358.4317692118663
 51
25.93588576581788
  0
LINE
  5
15A
330
1F
100
AcDbEntity
  8
OBJECT
  6
SLD-Solid
370
    25
100
AcDbLine
 10
44.69468386971246
 20
9.656467361172357
 30
0.0
 11
43.98757708852591
 21
10.06467141708371
 31
0.0
  0
LINE
  5
15B
330
1F
100
AcDbEntity
  8
OBJECT
  6
SLD-Solid
370
    25
100
AcDbLine
 10
43.98757708852591
 20
10.06467141708371
 30
0.0
 11
43.98757708852598
 21
13.28557897967041
 31
0.0
  0
LINE
  5
15C
330
1F
100
AcDbEntity
  8
OBJECT
  6
SLD-Solid
370
    25
100
AcDbLine
 10
44.69468386971253
 20
12.87737492375902
 30
0.0
 11
44.69468386971246
 21
9.656467361172357
 31
0.0
  0
LWPOLYLINE
  5
15D
330
1F
100
AcDbEntity
  8
OBJECT
  6
SLD-Solid
370
    25
100
AcDbPolyline
 90
       27
 70
   128
 43
0.0
 10
44.41007339028495
 20
12.71506073150904
 10
44.40807003458511
 20
12.73526981730189
 10
44.40217639523699
 20
12.75661744974239
 10
44.39273498913698
 20
12.7778629820286
 10
44.3802945164895
 20
12.7977717010484
 10
44.36557797234555
 20
12.81518658441761
 10
44.3494406287583
 20
12.82909554241535
 10
44.33282032948021
 20
12.83869023695978
 10
44.31668298589296
 20
12.84341305927928
 10
44.30196644174901
 20
12.8429895361074
 10
44.28952596910153
 20
12.83744428107145
 10
44.28008456300152
 20
12.82709956423794
 10
44.2741909236534
 20
12.8125565829477
 10
44.27218756795357
 20
12.79466052241175
 10
44.2741909236534
 20
12.7744514366189
 10
44.28008456300152
 20
12.7531038041784
 10
44.28952596910153
 20
12.73185827189219
 10
44.30196644174901
 20
12.71194955287239
 10
44.31668298589296
 20
12.69453466950318
 10
44.33282032948021
 20
12.68062571150544
 10
44.3494406287583
 20
12.67103101696101
 10
44.36557797234555
 20
12.66630819464151
 10
44.38029451648951
 20
12.66673171781339
 10
44.39273498913698
 20
12.67227697284934
 10
44.40217639523699
 20
12.68262168968286
 10
44.40807003458511
 20
12.69716467097309
 10
44.41007339028495
 20
12.71506073150904
  0
LWPOLYLINE
  5
15E
330
1F
100
AcDbEntity
  8
OBJECT
  6
SLD-Solid
370
    25
100
AcDbPolyline
 90
       27
 70
   128
 43
0.0
 10
44.41007339028495
 20
10.67370870179466
 10
44.40807003458511
 20
10.69391778758751
 10
44.40217639523699
 20
10.71526542002802
 10
44.39273498913698
 20
10.73651095231422
 10
44.38029451648951
 20
10.75641967133402
 10
44.36557797234555
 20
10.77383455470324
 10
44.3494406287583
 20
10.78774351270097
 10
44.33282032948021
 20
10.7973382072454
 10
44.31668298589296
 20
10.80206102956491
 10
44.30196644174901
 20
10.80163750639303
 10
44.28952596910153
 20
10.79609225135708
 10
44.28008456300152
 20
10.78574753452356
 10
44.2741909236534
 20
10.77120455323332
 10
44.27218756795357
 20
10.75330849269738
 10
44.2741909236534
 20
10.73309940690453
 10
44.28008456300152
 20
10.71175177446403
 10
44.28952596910153
 20
10.69050624217782
 10
44.30196644174901
 20
10.67059752315802
 10
44.31668298589296
 20
10.6531826397888
 10
44.33282032948021
 20
10.63927368179107
 10
44.3494406287583
 20
10.62967898724664
 10
44.36557797234555
 20
10.62495616492714
 10
44.38029451648951
 20
10.62537968809902
 10
44.39273498913698
 20
10.63092494313497
 10
44.40217639523699
 20
10.64126965996848
 10
44.40807003458511
 20
10.65581264125872
 10
44.41007339028495
 20
10.67370870179466
  0
LINE
  5
15F
330
1F
100
AcDbEntity
  8
OBJECT
  6
SLD-Solid
370
    25
100
AcDbLine
 10
44.76539454783119
 20
12.91819532935016
 30
0.0
 11
44.76539454783119
 21
9.697287766763456
 31
0.0
  0
ARC
  5
160
330
1F
100
AcDbEntity
  8
OBJECT
  6
SLD-Solid
370
    25
100
AcDbCircle
 10
44.49147626173047
 20
12.84165339982573
 30
0.0
 40
0.1487834339766713
100
AcDbArc
 50
183.1750686329864
 51
236.8195548343142
  0
LWPOLYLINE
  5
161
330
1F
100
AcDbEntity
  8
OBJECT
  6
SLD-Solid
370
    25
100
AcDbPolyline
 90
       16
 70
   128
 43
0.0
 10
43.59184115723794
 20
9.800439548176968
 10
43.63016707599765
 20
9.778314209208787
 10
43.67081214028709
 20
9.75484954481204
 10
43.71333103427637
 20
9.730302638760152
 10
43.75725791206526
 20
9.704942432092603
 10
43.80211150158846
 20
9.679046776540604
 10
43.84740037753293
 20
9.652899390325397
 10
43.8926283454965
 20
9.626786749682047
 10
43.93729987839761
 20
9.600994950165868
 10
43.98092554557366
 20
9.575806572129636
 10
44.02302737508584
 20
9.551497584714125
 10
44.06314409047961
 20
9.528334322272443
 10
44.10083616462618
 20
9.506570566355123
 10
44.13569063527361
 20
9.486444765226354
 10
44.16732562954773
 20
9.4681774213749
 10
44.19539454783122
 20
9.45196867564269
  0
LWPOLYLINE
  5
162
330
1F
100
AcDbEntity
  8
OBJECT
  6
SLD-Solid
370
    25
100
AcDbPolyline
 90
       16
 70
   128
 43
0.0
 10
44.14539454783122
 20
9.365366135518412
 10
44.11732562954773
 20
9.381574881250629
 10
44.08569063527361
 20
9.399842225102082
 10
44.05083616462618
 20
9.41996802623085
 10
44.01314409047962
 20
9.441731782148167
 10
43.97302737508584
 20
9.46489504458985
 10
43.93092554557366
 20
9.48920403200536
 10
43.88729987839761
 20
9.514392410041589
 10
43.8426283454965
 20
9.540184209557768
 10
43.79740037753292
 20
9.566296850201116
 10
43.75211150158847
 20
9.592444236416323
 10
43.70725791206527
 20
9.618339891968322
 10
43.66333103427636
 20
9.64370009863587
 10
43.62081214028709
 20
9.668247004687757
 10
43.58016707599766
 20
9.691711669084505
 10
43.54184115723796
 20
9.713837008052701
  0
LINE
  5
163
330
1F
100
AcDbEntity
  8
OBJECT
  6
SLD-Solid
370
    25
100
AcDbLine
 10
44.34290717441592
 20
9.251307456759525
 30
0.0
 11
44.14539454783122
 21
9.365366135518412
 31
0.0
  0
LINE
  5
164
330
1F
100
AcDbEntity
  8
OBJECT
  6
SLD-Solid
370
    25
100
AcDbLine
 10
44.34290717441592
 20
9.251307456759525
 30
0.0
 11
43.63580039322937
 21
9.659511512670878
 31
0.0
  0
LINE
  5
165
330
1F
100
AcDbEntity
  8
OBJECT
  6
SLD-Solid
370
    25
100
AcDbLine
 10
43.43828776664466
 20
9.77357019142976
 30
0.0
 11
43.63580039322937
 21
9.659511512670878
 31
0.0
  0
LWPOLYLINE
  5
166
330
1F
100
AcDbEntity
  8
OBJECT
  6
SLD-Solid
370
    25
100
AcDbPolyline
 90
       16
 70
   128
 43
0.0
 10
43.54184115723796
 20
9.713837008052701
 10
43.5062542907941
 20
9.734380611748556
 10
43.47379637382191
 20
9.753117400150968
 10
43.44482302205197
 20
9.769842089085273
 10
43.41965167358934
 20
9.784371439359644
 10
43.39855811099521
 20
9.79654626437201
 10
43.3817734397555
 20
9.80623317419179
 10
43.36948155624071
 20
9.813326037007885
 10
43.36181713289886
 20
9.817747141931003
 10
43.358864142756
 20
9.819448050410431
 10
43.36065493939006
 20
9.818410126936929
 10
43.36716990245838
 20
9.814644743217276
 10
43.37833765266224
 20
9.808193153583456
 10
43.3940358337934
 20
9.799126043001582
 10
43.41409245329433
 20
9.787542752632605
 10
43.43828776664466
 20
9.77357019142976
  0
LWPOLYLINE
  5
167
330
1F
100
AcDbEntity
  8
OBJECT
  6
SLD-Solid
370
    25
100
AcDbPolyline
 90
       11
 70
   128
 43
0.0
 10
43.40882845566342
 20
9.906070704148643
 10
43.40886414275597
 20
9.906050590534695
 10
43.41181713289883
 20
9.904349682055265
 10
43.41948155624068
 20
9.899928577132147
 10
43.43177343975547
 20
9.892835714316051
 10
43.44855811099518
 20
9.883148804496269
 10
43.4696516735893
 20
9.870973979483901
 10
43.49482302205194
 20
9.85644462920953
 10
43.52379637382187
 20
9.839719940275224
 10
43.55625429079408
 20
9.820983151872811
 10
43.59184115723794
 20
9.800439548176968
  0
LINE
  5
168
330
1F
100
AcDbEntity
  8
OBJECT
  6
SLD-Solid
370
    25
100
AcDbLine
 10
44.39290717441591
 20
9.337909996883798
 30
0.0
 11
44.34290717441592
 21
9.251307456759525
 31
0.0
  0
LINE
  5
169
330
1F
100
AcDbEntity
  8
OBJECT
  6
SLD-Solid
370
    25
100
AcDbLine
 10
44.39290717441591
 20
9.337909996883798
 30
0.0
 11
44.19539454783122
 21
9.45196867564269
 31
0.0
  0
ARC
  5
16A
330
1F
100
AcDbEntity
  8
OBJECT
  6
SLD-Solid
370
    25
100
AcDbCircle
 10
44.49147626173044
 20
10.80030137011135
 30
0.0
 40
0.1487834339766419
100
AcDbArc
 50
183.1750686329802
 51
236.8195548343261
  0
LWPOLYLINE
  5
16B
330
1F
100
AcDbEntity
  8
OBJECT
  6
SLD-Solid
370
    25
100
AcDbPolyline
 90
       20
 70
   128
 43
0.0
 10
44.34290717441592
 20
9.251307456759525
 10
44.36589728343407
 20
9.241135003733145
 10
44.39122208812617
 20
9.23577418890073
 10
44.41849262885561
 20
9.235307348162381
 10
44.44729006173625
 20
9.23974165165055
 10
44.47717209158895
 20
9.249008993605118
 10
44.5076797650826
 20
9.262967038398907
 10
44.53834451972519
 20
9.281401406647872
 10
44.5686953804404
 20
9.304028967829884
 10
44.59826619319868
 20
9.330502188841258
 10
44.62660278460265
 20
9.360414471702274
 10
44.6532699374639
 20
9.393306398430703
 10
44.67785807523435
 20
9.428672787169333
 10
44.69998955262716
 20
9.465970451193549
 10
44.71932445581043
 20
9.504626541629616
 10
44.73556582308961
 20
9.544047345749169
 10
44.74846420589471
 20
9.583627405708336
 10
44.75782150002122
 20
9.622758817678195
 10
44.76349398828086
 20
9.66084056854275
 10
44.76539454783119
 20
9.697287766763456
  0
LWPOLYLINE
  5
16C
330
1F
100
AcDbEntity
  8
OBJECT
  6
SLD-Solid
370
    25
100
AcDbPolyline
 90
       17
 70
   128
 43
0.0
 10
44.39290717441591
 20
9.337909996883798
 10
44.41260141997724
 20
9.329661696678153
 10
44.43457521710619
 20
9.326278655912974
 10
44.45835289945425
 20
9.327834107204282
 10
44.48341975200552
 20
9.334294379728973
 10
44.50923315310239
 20
9.34551962809646
 10
44.53523432056577
 20
9.361266859579038
 10
44.56086040764175
 20
9.381195194170648
 10
44.58555668693414
 20
9.40487324360954
 10
44.60878855857727
 20
9.43178844963141
 10
44.63005312270867
 20
9.46135817930791
 10
44.64889006573241
 20
9.492942337290039
 10
44.66489162471825
 20
9.525857221939422
 10
44.67771141423772
 20
9.559390325404031
 10
44.68707192456261
 20
9.59281575726147
 10
44.69277052891243
 20
9.62540995785447
 10
44.69468386971246
 20
9.656467361172357
  0
LWPOLYLINE
  5
16D
330
1F
100
AcDbEntity
  8
OBJECT
  6
SLD-Solid
370
    25
100
AcDbPolyline
 90
       17
 70
   128
 43
0.0
 10
43.98757708852591
 20
10.06467141708371
 10
43.98566374772592
 20
10.0336140137658
 10
43.97996514337607
 20
10.0010198131728
 10
43.97060463305119
 20
9.967594381315372
 10
43.95778484353171
 20
9.934061277850768
 10
43.94178328454586
 20
9.901146393201392
 10
43.92294634152211
 20
9.869562235219268
 10
43.90168177739069
 20
9.839992505542778
 10
43.87844990574756
 20
9.813077299520915
 10
43.85375362645517
 20
9.789399250082027
 10
43.82812753937917
 20
9.769470915490427
 10
43.8021263719158
 20
9.753723684007852
 10
43.77631297081893
 20
9.742498435640371
 10
43.75124611826765
 20
9.736038163115683
 10
43.72746843591958
 20
9.734482711824377
 10
43.70549463879062
 20
9.737865752589558
 10
43.68883431234573
 20
9.744445081211973
  0
MTEXT
  5
171
330
1F
100
AcDbEntity
  8
OBJECT
 62
     0
100
AcDbMText
 10
37.18181923579608
 20
4.88020099615648
 30
0.0
 40
0.2916666666666666
 41
0.0
 71
     1
 72
     1
  1
FROST PRODUCTS LTD.
  7
SLDTEXTSTYLE0
 73
     1
 44
1.0
  0
MTEXT
  5
172
330
1F
100
AcDbEntity
  8
OBJECT
 62
     0
100
AcDbMText
 10
37.18181923579608
 20
4.454708634531021
 30
0.0
 40
0.2291666666666666
 41
0.0
 71
     1
 72
     1
  1
5280 JOHN LUCAS DRIVE, BURLINGTON, ON, L7L 5Z9
  7
SLDTEXTSTYLE0
 73
     1
 44
1.0
  0
ENDSEC
  0
SECTION
  2
OBJECTS
  0
DICTIONARY
  5
C
330
0
100
AcDbDictionary
281
     1
  3
ACAD_COLOR
350
6C
  3
ACAD_GROUP
350
D
  3
ACAD_LAYOUT
350
1A
  3
ACAD_MATERIAL
350
6B
  3
ACAD_MLINESTYLE
350
17
  3
ACAD_PLOTSETTINGS
350
19
  3
ACAD_PLOTSTYLENAME
350
E
  3
ACAD_SCALELIST
350
47
  3
ACAD_TABLESTYLE
350
92
  3
AcDbVariableDictionary
350
59
  0
DICTIONARY
  5
6C
102
{ACAD_REACTORS
330
C
102
}
330
C
100
AcDbDictionary
281
     1
  0
DICTIONARY
  5
D
102
{ACAD_REACTORS
330
C
102
}
330
C
100
AcDbDictionary
281
     1
  0
DICTIONARY
  5
1A
102
{ACAD_REACTORS
330
C
102
}
330
C
100
AcDbDictionary
281
     1
  3
Layout1
350
74
  3
Layout2
350
26
  3
Model
350
22
  0
DICTIONARY
  5
6B
102
{ACAD_REACTORS
330
C
102
}
330
C
100
AcDbDictionary
281
     1
  0
DICTIONARY
  5
17
102
{ACAD_REACTORS
330
C
102
}
330
C
100
AcDbDictionary
281
     1
  3
Standard
350
18
  0
DICTIONARY
  5
19
102
{ACAD_REACTORS
330
C
102
}
330
C
100
AcDbDictionary
281
     1
  0
ACDBDICTIONARYWDFLT
  5
E
102
{ACAD_REACTORS
330
C
102
}
330
C
100
AcDbDictionary
281
     1
  3
Normal
350
F
100
AcDbDictionaryWithDefault
340
F
  0
DICTIONARY
  5
47
102
{ACAD_REACTORS
330
C
102
}
330
C
100
AcDbDictionary
281
     1
  3
A0
350
48
  3
A1
350
49
  3
A2
350
4A
  3
A3
350
4B
  3
A4
350
4C
  3
A5
350
4D
  3
A6
350
4E
  3
A7
350
4F
  3
A8
350
50
  3
A9
350
51
  3
B0
350
52
  3
B1
350
53
  3
B2
350
54
  3
B3
350
55
  3
B4
350
56
  3
B5
350
57
  3
B6
350
58
  3
B7
350
184
  3
B8
350
185
  3
B9
350
5B
  3
C0
350
5C
  3
C1
350
5D
  3
C2
350
186
  3
C3
350
5F
  3
C4
350
60
  3
C5
350
61
  3
C6
350
62
  3
C7
350
63
  3
C8
350
64
  3
C9
350
65
  3
D0
350
66
  3
D1
350
67
  3
D2
350
68
  0
DICTIONARY
  5
92
102
{ACAD_REACTORS
330
C
102
}
330
C
100
AcDbDictionary
281
     1
  3
Standard
350
93
  0
DICTIONARY
  5
59
102
{ACAD_REACTORS
330
C
102
}
330
C
100
AcDbDictionary
281
     1
  3
CTABLESTYLE
350
98
  3
HIDETEXT
350
170
  0
LAYOUT
  5
74
102
{ACAD_REACTORS
330
1A
102
}
330
1A
100
AcDbPlotSettings
  1

  2
none_device
  4

  6

 40
0.0
 41
0.0
 42
0.0
 43
0.0
 44
0.0
 45
0.0
 46
0.0
 47
0.0
 48
0.0
 49
0.0
140
0.0
141
0.0
142
1.0
143
1.0
 70
   688
 72
     0
 73
     0
 74
     5
  7

 75
    16
 76
     0
 77
     2
 78
   300
147
1.0
148
0.0
149
0.0
100
AcDbLayout
  1
Layout1
 70
     1
 71
     1
 10
0.0
 20
0.0
 11
12.0
 21
9.0
 12
0.0
 22
0.0
 32
0.0
 14
1.000000000000000E+20
 24
1.000000000000000E+20
 34
1.000000000000000E+20
 15
-1.000000000000000E+20
 25
-1.000000000000000E+20
 35
-1.000000000000000E+20
146
0.0
 13
0.0
 23
0.0
 33
0.0
 16
1.0
 26
0.0
 36
0.0
 17
0.0
 27
1.0
 37
0.0
 76
     0
330
73
  0
LAYOUT
  5
26
102
{ACAD_REACTORS
330
1A
102
}
330
1A
100
AcDbPlotSettings
  1

  2
none_device
  4

  6

 40
0.0
 41
0.0
 42
0.0
 43
0.0
 44
0.0
 45
0.0
 46
0.0
 47
0.0
 48
0.0
 49
0.0
140
0.0
141
0.0
142
1.0
143
1.0
 70
   688
 72
     0
 73
     0
 74
     5
  7

 75
    16
 76
     0
 77
     2
 78
   300
147
1.0
148
0.0
149
0.0
100
AcDbLayout
  1
Layout2
 70
     1
 71
     2
 10
0.0
 20
0.0
 11
0.0
 21
0.0
 12
0.0
 22
0.0
 32
0.0
 14
0.0
 24
0.0
 34
0.0
 15
0.0
 25
0.0
 35
0.0
146
0.0
 13
0.0
 23
0.0
 33
0.0
 16
1.0
 26
0.0
 36
0.0
 17
0.0
 27
1.0
 37
0.0
 76
     0
330
23
  0
LAYOUT
  5
22
102
{ACAD_REACTORS
330
1A
102
}
330
1A
100
AcDbPlotSettings
  1

  2
none_device
  4
Letter_(8.50_x_11.00_Inches)
  6

 40
6.35
 41
6.35
 42
6.35000508
 43
6.35000508
 44
215.9
 45
279.4
 46
0.0
 47
0.0
 48
0.0
 49
0.0
140
0.0
141
0.0
142
1.0
143
1.0
 70
 11952
 72
     0
 73
     0
 74
     0
  7

 75
     0
 76
     0
 77
     2
 78
   300
147
1.0
148
0.0
149
0.0
100
AcDbLayout
  1
Model
 70
     1
 71
     0
 10
0.0
 20
0.0
 11
46.81102362204724
 21
33.11023622047244
 12
0.0
 22
0.0
 32
0.0
 14
21.47759370646601
 24
0.3573773641115478
 34
-0.8193735972071386
 15
46.41568767877938
 25
20.14136992977929
 35
0.0
146
0.0
 13
0.0
 23
0.0
 33
0.0
 16
1.0
 26
0.0
 36
0.0
 17
0.0
 27
1.0
 37
0.0
 76
     0
330
1F
  0
MLINESTYLE
  5
18
102
{ACAD_REACTORS
330
17
102
}
330
17
100
AcDbMlineStyle
  2
Standard
 70
     0
  3

 62
   256
 51
90.0
 52
90.0
 71
     2
 49
0.5
 62
   256
  6
BYLAYER
 49
-0.5
 62
   256
  6
BYLAYER
  0
ACDBPLACEHOLDER
  5
F
102
{ACAD_REACTORS
330
E
102
}
330
E
  0
ACAD_PROXY_OBJECT
  5
48
102
{ACAD_REACTORS
330
47
102
}
330
47
100
AcDbProxyObject
 90
      499
 91
      505
 95
   393239
 70
     0
 93
       41
310
903313A31580
  0
ACAD_PROXY_OBJECT
  5
49
102
{ACAD_REACTORS
330
47
102
}
330
47
100
AcDbProxyObject
 90
      499
 91
      505
 95
   393239
 70
     0
 93
      105
310
903313A324000000000000004000
  0
ACAD_PROXY_OBJECT
  5
4A
102
{ACAD_REACTORS
330
47
102
}
330
47
100
AcDbProxyObject
 90
      499
 91
      505
 95
   393239
 70
     0
 93
      105
310
903313A344000000000000104000
  0
ACAD_PROXY_OBJECT
  5
4B
102
{ACAD_REACTORS
330
47
102
}
330
47
100
AcDbProxyObject
 90
      499
 91
      505
 95
   393239
 70
     0
 93
      105
310
903313A354000000000000144000
  0
ACAD_PROXY_OBJECT
  5
4C
102
{ACAD_REACTORS
330
47
102
}
330
47
100
AcDbProxyObject
 90
      499
 91
      505
 95
   393239
 70
     0
 93
      105
310
903313A384000000000000204000
  0
ACAD_PROXY_OBJECT
  5
4D
102
{ACAD_REACTORS
330
47
102
}
330
47
100
AcDbProxyObject
 90
      499
 91
      505
 95
   393239
 70
     0
 93
      113
310
904313A31304000000000000244000
  0
ACAD_PROXY_OBJECT
  5
4E
102
{ACAD_REACTORS
330
47
102
}
330
47
100
AcDbProxyObject
 90
      499
 91
      505
 95
   393239
 70
     0
 93
      113
310
904313A31364000000000000304000
  0
ACAD_PROXY_OBJECT
  5
4F
102
{ACAD_REACTORS
330
47
102
}
330
47
100
AcDbProxyObject
 90
      499
 91
      505
 95
   393239
 70
     0
 93
      113
310
904313A32304000000000000344000
  0
ACAD_PROXY_OBJECT
  5
50
102
{ACAD_REACTORS
330
47
102
}
330
47
100
AcDbProxyObject
 90
      499
 91
      505
 95
   393239
 70
     0
 93
      113
310
904313A333040000000000003E4000
  0
ACAD_PROXY_OBJECT
  5
51
102
{ACAD_REACTORS
330
47
102
}
330
47
100
AcDbProxyObject
 90
      499
 91
      505
 95
   393239
 70
     0
 93
      113
310
904313A34304000000000000444000
  0
ACAD_PROXY_OBJECT
  5
52
102
{ACAD_REACTORS
330
47
102
}
330
47
100
AcDbProxyObject
 90
      499
 91
      505
 95
   393239
 70
     0
 93
      113
310
904313A35304000000000000494000
  0
ACAD_PROXY_OBJECT
  5
53
102
{ACAD_REACTORS
330
47
102
}
330
47
100
AcDbProxyObject
 90
      499
 91
      505
 95
   393239
 70
     0
 93
      121
310
905313A3130304000000000000594000
  0
ACAD_PROXY_OBJECT
  5
54
102
{ACAD_REACTORS
330
47
102
}
330
47
100
AcDbProxyObject
 90
      499
 91
      505
 95
   393239
 70
     0
 93
      105
310
903323A310000000000000010100
  0
ACAD_PROXY_OBJECT
  5
55
102
{ACAD_REACTORS
330
47
102
}
330
47
100
AcDbProxyObject
 90
      499
 91
      505
 95
   393239
 70
     0
 93
      105
310
903343A310000000000000410100
  0
ACAD_PROXY_OBJECT
  5
56
102
{ACAD_REACTORS
330
47
102
}
330
47
100
AcDbProxyObject
 90
      499
 91
      505
 95
   393239
 70
     0
 93
      105
310
903383A310000000000000810100
  0
ACAD_PROXY_OBJECT
  5
57
102
{ACAD_REACTORS
330
47
102
}
330
47
100
AcDbProxyObject
 90
      499
 91
      505
 95
   393239
 70
     0
 93
      113
310
90431303A310000000000000910100
  0
ACAD_PROXY_OBJECT
  5
58
102
{ACAD_REACTORS
330
47
102
}
330
47
100
AcDbProxyObject
 90
      499
 91
      505
 95
   393239
 70
     0
 93
      121
310
9053130303A310000000000001650100
  0
ACAD_PROXY_OBJECT
  5
184
102
{ACAD_REACTORS
330
47
102
}
330
47
100
AcDbProxyObject
 90
      499
 91
      505
 95
   393239
 70
     0
 93
      257
310
90E312F31323822203D2031272D3022000000000000200FC000000000000284000
  0
ACAD_PROXY_OBJECT
  5
185
102
{ACAD_REACTORS
330
47
102
}
330
47
100
AcDbProxyObject
 90
      499
 91
      505
 95
   393239
 70
     0
 93
      249
310
90D312F363422203D2031272D3022000000000000240FC000000000000284000
  0
ACAD_PROXY_OBJECT
  5
5B
102
{ACAD_REACTORS
330
47
102
}
330
47
100
AcDbProxyObject
 90
      499
 91
      505
 95
   393239
 70
     0
 93
      249
310
90D312F333222203D2031272D3022000000000000280FC000000000000284000
  0
ACAD_PROXY_OBJECT
  5
5C
102
{ACAD_REACTORS
330
47
102
}
330
47
100
AcDbProxyObject
 90
      499
 91
      505
 95
   393239
 70
     0
 93
      249
310
90D312F313622203D2031272D30220000000000002C0FC000000000000284000
  0
ACAD_PROXY_OBJECT
  5
5D
102
{ACAD_REACTORS
330
47
102
}
330
47
100
AcDbProxyObject
 90
      499
 91
      505
 95
   393239
 70
     0
 93
      249
310
90D332F333222203D2031272D30220000000000002E0FC000000000000284000
  0
ACAD_PROXY_OBJECT
  5
186
102
{ACAD_REACTORS
330
47
102
}
330
47
100
AcDbProxyObject
 90
      499
 91
      505
 95
   393239
 70
     0
 93
      241
310
90C312F3822203D2031272D3022000000000000300FC000000000000284000
  0
ACAD_PROXY_OBJECT
  5
5F
102
{ACAD_REACTORS
330
47
102
}
330
47
100
AcDbProxyObject
 90
      499
 91
      505
 95
   393239
 70
     0
 93
      249
310
90D332F313622203D2031272D3022000000000000320FC000000000000284000
  0
ACAD_PROXY_OBJECT
  5
60
102
{ACAD_REACTORS
330
47
102
}
330
47
100
AcDbProxyObject
 90
      499
 91
      505
 95
   393239
 70
     0
 93
      241
310
90C312F3422203D2031272D3022000000000000340FC000000000000284000
  0
ACAD_PROXY_OBJECT
  5
61
102
{ACAD_REACTORS
330
47
102
}
330
47
100
AcDbProxyObject
 90
      499
 91
      505
 95
   393239
 70
     0
 93
      241
310
90C332F3822203D2031272D3022000000000000360FC000000000000284000
  0
ACAD_PROXY_OBJECT
  5
62
102
{ACAD_REACTORS
330
47
102
}
330
47
100
AcDbProxyObject
 90
      499
 91
      505
 95
   393239
 70
     0
 93
      241
310
90C312F3222203D2031272D3022000000000000380FC000000000000284000
  0
ACAD_PROXY_OBJECT
  5
63
102
{ACAD_REACTORS
330
47
102
}
330
47
100
AcDbProxyObject
 90
      499
 91
      505
 95
   393239
 70
     0
 93
      241
310
90C332F3422203D2031272D30220000000000003A0FC000000000000284000
  0
ACAD_PROXY_OBJECT
  5
64
102
{ACAD_REACTORS
330
47
102
}
330
47
100
AcDbProxyObject
 90
      499
 91
      505
 95
   393239
 70
     0
 93
      161
310
90A3122203D2031272D30224000000000000284000
  0
ACAD_PROXY_OBJECT
  5
65
102
{ACAD_REACTORS
330
47
102
}
330
47
100
AcDbProxyObject
 90
      499
 91
      505
 95
   393239
 70
     0
 93
      257
310
90E312D312F3222203D2031272D30220000000000003E0FC000000000000284000
  0
ACAD_PROXY_OBJECT
  5
66
102
{ACAD_REACTORS
330
47
102
}
330
47
100
AcDbProxyObject
 90
      499
 91
      505
 95
   393239
 70
     0
 93
      225
310
90A3322203D2031272D302200000000000002100000000000000284000
  0
ACAD_PROXY_OBJECT
  5
67
102
{ACAD_REACTORS
330
47
102
}
330
47
100
AcDbProxyObject
 90
      499
 91
      505
 95
   393239
 70
     0
 93
      225
310
90A3622203D2031272D302200000000000006100000000000000284000
  0
ACAD_PROXY_OBJECT
  5
68
102
{ACAD_REACTORS
330
47
102
}
330
47
100
AcDbProxyObject
 90
      499
 91
      505
 95
   393239
 70
     0
 93
      249
310
90D31272D3022203D2031272D30220000000000000A100000000000000284000
  0
TABLESTYLE
  5
93
102
{ACAD_REACTORS
330
92
102
}
330
92
100
AcDbTableStyle
  3
Standard
 70
     0
 71
     0
 40
0.06
 41
0.06
280
     0
281
     0
  7
Standard
140
0.18
170
     2
 62
     0
 63
     7
283
     0
274
    -2
284
     1
 64
     0
275
    -2
285
     1
 65
     0
276
    -2
286
     1
 66
     0
277
    -2
287
     1
 67
     0
278
    -2
288
     1
 68
     0
279
    -2
289
     1
 69
     0
  7
Standard
140
0.25
170
     5
 62
     0
 63
     7
283
     0
274
    -2
284
     1
 64
     0
275
    -2
285
     1
 65
     0
276
    -2
286
     1
 66
     0
277
    -2
287
     1
 67
     0
278
    -2
288
     1
 68
     0
279
    -2
289
     1
 69
     0
  7
Standard
140
0.18
170
     5
 62
     0
 63
     7
283
     0
274
    -2
284
     1
 64
     0
275
    -2
285
     1
 65
     0
276
    -2
286
     1
 66
     0
277
    -2
287
     1
 67
     0
278
    -2
288
     1
 68
     0
279
    -2
289
     1
 69
     0
  0
DICTIONARYVAR
  5
98
102
{ACAD_REACTORS
330
59
102
}
330
59
100
DictionaryVariables
280
     0
  1
STANDARD
  0
DICTIONARYVAR
  5
170
102
{ACAD_REACTORS
330
59
102
}
330
59
100
DictionaryVariables
280
     0
  1
2
  0
ENDSEC
  0
EOF
