  0
SECTION
  2
HEADER
  9
$ACADVER
  1
AC1015
  9
$ACADMAINTVER
 70
     6
  9
$DWGCODEPAGE
  3
ANSI_1252
  9
$INSBASE
 10
0.0
 20
0.0
 30
0.0
  9
$EXTMIN
 10
0.0
 20
0.0
 30
0.0
  9
$EXTMAX
 10
46.811023622
 20
33.1102362205
 30
0.0
  9
$LIMMIN
 10
0.0
 20
0.0
  9
$LIMMAX
 10
46.811023622
 20
33.1102362205
  9
$ORTHOMODE
 70
     0
  9
$REGENMODE
 70
     1
  9
$FILLMODE
 70
     1
  9
$QTEXTMODE
 70
     0
  9
$MIRRTEXT
 70
     1
  9
$LTSCALE
 40
1.0
  9
$ATTMODE
 70
     1
  9
$TEXTSIZE
 40
0.5
  9
$TRACEWID
 40
0.05
  9
$TEXTSTYLE
  7
STANDARD
  9
$CLAYER
  8
0
  9
$CELTYPE
  6
ByLayer
  9
$CECOLOR
 62
   256
  9
$CELTSCALE
 40
1.0
  9
$DISPSILH
 70
     0
  9
$DIMSCALE
 40
1.0
  9
$DIMASZ
 40
0.5
  9
$DIMEXO
 40
0.1666666667
  9
$DIMDLI
 40
0.38
  9
$DIMRND
 40
0.0
  9
$DIMDLE
 40
0.0
  9
$DIMEXE
 40
0.375
  9
$DIMTP
 40
0.0
  9
$DIMTM
 40
0.0
  9
$DIMTXT
 40
0.5
  9
$DIMCEN
 40
0.09
  9
$DIMTSZ
 40
0.0
  9
$DIMTOL
 70
     0
  9
$DIMLIM
 70
     0
  9
$DIMTIH
 70
     1
  9
$DIMTOH
 70
     1
  9
$DIMSE1
 70
     0
  9
$DIMSE2
 70
     0
  9
$DIMTAD
 70
     0
  9
$DIMZIN
 70
     1
  9
$DIMBLK
  1

  9
$DIMASO
 70
     1
  9
$DIMSHO
 70
     1
  9
$DIMPOST
  1

  9
$DIMAPOST
  1

  9
$DIMALT
 70
     0
  9
$DIMALTD
 70
     2
  9
$DIMALTF
 40
25.4
  9
$DIMLFAC
 40
1.0
  9
$DIMTOFL
 70
     0
  9
$DIMTVP
 40
0.0
  9
$DIMTIX
 70
     0
  9
$DIMSOXD
 70
     0
  9
$DIMSAH
 70
     0
  9
$DIMBLK1
  1

  9
$DIMBLK2
  1

  9
$DIMSTYLE
  2
Standard
  9
$DIMCLRD
 70
     0
  9
$DIMCLRE
 70
     0
  9
$DIMCLRT
 70
     0
  9
$DIMTFAC
 40
1.0
  9
$DIMGAP
 40
0.125
  9
$DIMJUST
 70
     0
  9
$DIMSD1
 70
     0
  9
$DIMSD2
 70
     0
  9
$DIMTOLJ
 70
     1
  9
$DIMTZIN
 70
     1
  9
$DIMALTZ
 70
     0
  9
$DIMALTTZ
 70
     0
  9
$DIMUPT
 70
     0
  9
$DIMDEC
 70
     2
  9
$DIMTDEC
 70
     2
  9
$DIMALTU
 70
     2
  9
$DIMALTTD
 70
     2
  9
$DIMTXSTY
  7
STANDARD
  9
$DIMAUNIT
 70
     0
  9
$DIMADEC
 70
     2
  9
$DIMALTRND
 40
0.0
  9
$DIMAZIN
 70
     0
  9
$DIMDSEP
 70
    46
  9
$DIMATFIT
 70
     3
  9
$DIMFRAC
 70
     0
  9
$DIMLDRBLK
  1

  9
$DIMLUNIT
 70
     2
  9
$DIMLWD
 70
    -2
  9
$DIMLWE
 70
    -2
  9
$DIMTMOVE
 70
     0
  9
$LUNITS
 70
     2
  9
$LUPREC
 70
     2
  9
$SKETCHINC
 40
0.1
  9
$FILLETRAD
 40
0.5
  9
$AUNITS
 70
     0
  9
$AUPREC
 70
     2
  9
$MENU
  1
.
  9
$ELEVATION
 40
0.0
  9
$PELEVATION
 40
0.0
  9
$THICKNESS
 40
0.0
  9
$LIMCHECK
 70
     0
  9
$CHAMFERA
 40
0.0
  9
$CHAMFERB
 40
0.0
  9
$CHAMFERC
 40
0.0
  9
$CHAMFERD
 40
0.0
  9
$SKPOLY
 70
     0
  9
$TDCREATE
 40
2459311.465860683
  9
$TDUCREATE
 40
2459311.63252735
  9
$TDUPDATE
 40
2459311.465862998
  9
$TDUUPDATE
 40
2459311.632529664
  9
$TDINDWG
 40
0.0000000116
  9
$TDUSRTIMER
 40
0.0000000116
  9
$USRTIMER
 70
     1
  9
$ANGBASE
 50
0.0
  9
$ANGDIR
 70
     0
  9
$PDMODE
 70
     0
  9
$PDSIZE
 40
-1.0
  9
$PLINEWID
 40
0.0
  9
$SPLFRAME
 70
     0
  9
$SPLINETYPE
 70
     6
  9
$SPLINESEGS
 70
     8
  9
$HANDSEED
  5
16F
  9
$SURFTAB1
 70
     6
  9
$SURFTAB2
 70
     6
  9
$SURFTYPE
 70
     6
  9
$SURFU
 70
     6
  9
$SURFV
 70
     6
  9
$UCSBASE
  2

  9
$UCSNAME
  2

  9
$UCSORG
 10
0.0
 20
0.0
 30
0.0
  9
$UCSXDIR
 10
1.0
 20
0.0
 30
0.0
  9
$UCSYDIR
 10
0.0
 20
1.0
 30
0.0
  9
$UCSORTHOREF
  2

  9
$UCSORTHOVIEW
 70
     0
  9
$UCSORGTOP
 10
0.0
 20
0.0
 30
0.0
  9
$UCSORGBOTTOM
 10
0.0
 20
0.0
 30
0.0
  9
$UCSORGLEFT
 10
0.0
 20
0.0
 30
0.0
  9
$UCSORGRIGHT
 10
0.0
 20
0.0
 30
0.0
  9
$UCSORGFRONT
 10
0.0
 20
0.0
 30
0.0
  9
$UCSORGBACK
 10
0.0
 20
0.0
 30
0.0
  9
$PUCSBASE
  2

  9
$PUCSNAME
  2

  9
$PUCSORG
 10
0.0
 20
0.0
 30
0.0
  9
$PUCSXDIR
 10
1.0
 20
0.0
 30
0.0
  9
$PUCSYDIR
 10
0.0
 20
1.0
 30
0.0
  9
$PUCSORTHOREF
  2

  9
$PUCSORTHOVIEW
 70
     0
  9
$PUCSORGTOP
 10
0.0
 20
0.0
 30
0.0
  9
$PUCSORGBOTTOM
 10
0.0
 20
0.0
 30
0.0
  9
$PUCSORGLEFT
 10
0.0
 20
0.0
 30
0.0
  9
$PUCSORGRIGHT
 10
0.0
 20
0.0
 30
0.0
  9
$PUCSORGFRONT
 10
0.0
 20
0.0
 30
0.0
  9
$PUCSORGBACK
 10
0.0
 20
0.0
 30
0.0
  9
$USERI1
 70
     0
  9
$USERI2
 70
     0
  9
$USERI3
 70
     0
  9
$USERI4
 70
     0
  9
$USERI5
 70
     0
  9
$USERR1
 40
0.0
  9
$USERR2
 40
0.0
  9
$USERR3
 40
0.0
  9
$USERR4
 40
0.0
  9
$USERR5
 40
0.0
  9
$WORLDVIEW
 70
     1
  9
$SHADEDGE
 70
     3
  9
$SHADEDIF
 70
    70
  9
$TILEMODE
 70
     1
  9
$MAXACTVP
 70
    64
  9
$PINSBASE
 10
0.0
 20
0.0
 30
0.0
  9
$PLIMCHECK
 70
     0
  9
$PEXTMIN
 10
1.0000000000E+20
 20
1.0000000000E+20
 30
1.0000000000E+20
  9
$PEXTMAX
 10
-1.0000000000E+20
 20
-1.0000000000E+20
 30
-1.0000000000E+20
  9
$PLIMMIN
 10
0.0
 20
0.0
  9
$PLIMMAX
 10
12.0
 20
9.0
  9
$UNITMODE
 70
     0
  9
$VISRETAIN
 70
     1
  9
$PLINEGEN
 70
     0
  9
$PSLTSCALE
 70
     1
  9
$TREEDEPTH
 70
  3020
  9
$CMLSTYLE
  2
Standard
  9
$CMLJUST
 70
     0
  9
$CMLSCALE
 40
1.0
  9
$PROXYGRAPHICS
 70
     1
  9
$MEASUREMENT
 70
     0
  9
$CELWEIGHT
370
    -1
  9
$ENDCAPS
280
     0
  9
$JOINSTYLE
280
     0
  9
$LWDISPLAY
290
     1
  9
$INSUNITS
 70
     1
  9
$HYPERLINKBASE
  1

  9
$STYLESHEET
  1

  9
$XEDIT
290
     1
  9
$CEPSNTYPE
380
     0
  9
$PSTYLEMODE
290
     1
  9
$FINGERPRINTGUID
  2
{376d1db5-482a-4f01-b38a-4f8178ddb8af}
  9
$VERSIONGUID
  2
{FAEB1C32-E019-11D5-929B-00C0DF256EC4}
  9
$EXTNAMES
290
     1
  9
$PSVPSCALE
 40
0.0
  9
$OLESTARTUP
290
     0
  0
ENDSEC
  0
SECTION
  2
CLASSES
  0
CLASS
  1
ACDBDICTIONARYWDFLT
  2
AcDbDictionaryWithDefault
  3
ObjectDBX Classes
 90
        0
280
     0
281
     0
  0
CLASS
  1
VISUALSTYLE
  2
AcDbVisualStyle
  3
ObjectDBX Classes
 90
     4095
280
     0
281
     0
  0
CLASS
  1
MATERIAL
  2
AcDbMaterial
  3
ObjectDBX Classes
 90
     1153
280
     0
281
     0
  0
CLASS
  1
SCALE
  2
AcDbScale
  3
ObjectDBX Classes
 90
     1153
280
     0
281
     0
  0
CLASS
  1
TABLESTYLE
  2
AcDbTableStyle
  3
ObjectDBX Classes
 90
     4095
280
     0
281
     0
  0
CLASS
  1
MLEADERSTYLE
  2
AcDbMLeaderStyle
  3
ACDB_MLEADERSTYLE_CLASS
 90
     4095
280
     0
281
     0
  0
CLASS
  1
SUN
  2
AcDbSun
  3
SCENEOE
 90
     1153
280
     0
281
     0
  0
CLASS
  1
ACDBPLACEHOLDER
  2
AcDbPlaceHolder
  3
ObjectDBX Classes
 90
        0
280
     0
281
     0
  0
CLASS
  1
LAYOUT
  2
AcDbLayout
  3
ObjectDBX Classes
 90
        0
280
     0
281
     0
  0
ENDSEC
  0
SECTION
  2
TABLES
  0
TABLE
  2
VPORT
  5
8
330
0
100
AcDbSymbolTable
 70
     1
  0
VPORT
  5
29
330
8
100
AcDbSymbolTableRecord
100
AcDbViewportTableRecord
  2
*Active
 70
     0
 10
0.0
 20
0.0
 11
1.0
 21
1.0
 12
23.405511811
 22
16.5551181102
 13
0.0
 23
0.0
 14
0.5
 24
0.5
 15
0.5
 25
0.5
 16
0.0
 26
0.0
 36
1.0
 17
0.0
 27
0.0
 37
0.0
 40
33.1102362205
 41
1.4137931034
 42
50.0
 43
0.0
 44
0.0
 50
0.0
 51
0.0
 71
     0
 72
  2000
 73
     1
 74
     3
 75
     0
 76
     0
 77
     0
 78
     0
281
     0
 65
     1
110
0.0
120
0.0
130
0.0
111
1.0
121
0.0
131
0.0
112
0.0
122
1.0
132
0.0
 79
     0
146
0.0
  0
ENDTAB
  0
TABLE
  2
LTYPE
  5
5
330
0
100
AcDbSymbolTable
 70
     8
  0
LTYPE
  5
14
330
5
100
AcDbSymbolTableRecord
100
AcDbLinetypeTableRecord
  2
ByBlock
 70
     0
  3

 72
    65
 73
     0
 40
0.0
  0
LTYPE
  5
15
330
5
100
AcDbSymbolTableRecord
100
AcDbLinetypeTableRecord
  2
ByLayer
 70
     0
  3

 72
    65
 73
     0
 40
0.0
  0
LTYPE
  5
16
330
5
100
AcDbSymbolTableRecord
100
AcDbLinetypeTableRecord
  2
Continuous
 70
     0
  3
Solid line
 72
    65
 73
     0
 40
0.0
  0
LTYPE
  5
6E
330
5
100
AcDbSymbolTableRecord
100
AcDbLinetypeTableRecord
  2
SLD-Solid
 70
     0
  3
SolidWorks Line Style
 72
    65
 73
     0
 40
0.0
  0
LTYPE
  5
6F
330
5
100
AcDbSymbolTableRecord
100
AcDbLinetypeTableRecord
  2
SLD-Dashed
 70
     0
  3
SolidWorks Line Style
 72
    65
 73
     2
 40
0.075
 49
0.05
 74
     0
 49
-0.025
 74
     0
  0
LTYPE
  5
70
330
5
100
AcDbSymbolTableRecord
100
AcDbLinetypeTableRecord
  2
SLD-Phantom
 70
     0
  3
SolidWorks Line Style
 72
    65
 73
     6
 40
0.5
 49
0.25
 74
     0
 49
-0.05
 74
     0
 49
0.05
 74
     0
 49
-0.05
 74
     0
 49
0.05
 74
     0
 49
-0.05
 74
     0
  0
LTYPE
  5
71
330
5
100
AcDbSymbolTableRecord
100
AcDbLinetypeTableRecord
  2
SLD-Chain
 70
     0
  3
SolidWorks Line Style
 72
    65
 73
     4
 40
0.4
 49
0.25
 74
     0
 49
-0.05
 74
     0
 49
0.05
 74
     0
 49
-0.05
 74
     0
  0
LTYPE
  5
72
330
5
100
AcDbSymbolTableRecord
100
AcDbLinetypeTableRecord
  2
SLD-Center
 70
     0
  3
SolidWorks Line Style
 72
    65
 73
     4
 40
0.75
 49
0.6
 74
     0
 49
-0.05
 74
     0
 49
0.05
 74
     0
 49
-0.05
 74
     0
  0
LTYPE
  5
73
330
5
100
AcDbSymbolTableRecord
100
AcDbLinetypeTableRecord
  2
SLD-Stitch
 70
     0
  3
SolidWorks Line Style
 72
    65
 73
     2
 40
0.025
 49
0.0
 74
     0
 49
-0.025
 74
     0
  0
LTYPE
  5
74
330
5
100
AcDbSymbolTableRecord
100
AcDbLinetypeTableRecord
  2
SLD-Thin-Thick-Chain
 70
     0
  3
SolidWorks Line Style
 72
    65
 73
     4
 40
0.4
 49
0.25
 74
     0
 49
-0.05
 74
     0
 49
0.05
 74
     0
 49
-0.05
 74
     0
  0
ENDTAB
  0
TABLE
  2
LAYER
  5
2
330
0
100
AcDbSymbolTable
 70
     7
  0
LAYER
  5
10
330
2
100
AcDbSymbolTableRecord
100
AcDbLayerTableRecord
  2
0
 70
     0
 62
     7
  6
Continuous
370
    -3
390
F
  0
LAYER
  5
75
330
2
100
AcDbSymbolTableRecord
100
AcDbLayerTableRecord
  2
FORMAT
 70
     0
 62
     7
  6
SLD-Solid
370
    -3
390
F
  0
LAYER
  5
76
330
2
100
AcDbSymbolTableRecord
100
AcDbLayerTableRecord
  2
NOTES
 70
     0
 62
     1
  6
SLD-Solid
370
    -3
390
F
  0
LAYER
  5
77
330
2
100
AcDbSymbolTableRecord
100
AcDbLayerTableRecord
  2
OBJECT
 70
     0
 62
     7
  6
SLD-Solid
370
    -3
390
F
  0
LAYER
  5
78
330
2
100
AcDbSymbolTableRecord
100
AcDbLayerTableRecord
  2
DIMS
 70
     0
 62
     5
  6
SLD-Solid
370
    -3
390
F
  0
LAYER
  5
79
330
2
100
AcDbSymbolTableRecord
100
AcDbLayerTableRecord
  2
TITLE
 70
     0
 62
     8
  6
SLD-Solid
370
    -3
390
F
  0
LAYER
  5
7A
330
2
100
AcDbSymbolTableRecord
100
AcDbLayerTableRecord
  2
NOT_SHOWN
 70
     0
 62
     7
  6
SLD-Solid
290
     0
370
    -3
390
F
  0
ENDTAB
  0
TABLE
  2
STYLE
  5
3
330
0
100
AcDbSymbolTable
 70
     5
  0
STYLE
  5
11
330
3
100
AcDbSymbolTableRecord
100
AcDbTextStyleTableRecord
  2
STANDARD
 70
     0
 40
0.0
 41
1.0
 50
0.0
 71
     0
 42
0.5
  3
GOTHIC.TTF
  4

1001
ACAD
1000
CENTURY GOTHIC
1071
       34
  0
STYLE
  5
86
330
3
100
AcDbSymbolTableRecord
100
AcDbTextStyleTableRecord
  2
SLDTEXTSTYLE0
 70
     0
 40
0.0
 41
0.948
 50
0.0
 71
     0
 42
0.5
  3
ARIAL.TTF
  4

1001
ACAD
1000
Arial
1071
      290
  0
STYLE
  5
8A
330
3
100
AcDbSymbolTableRecord
100
AcDbTextStyleTableRecord
  2
SLDTEXTSTYLE1
 70
     0
 40
0.0
 41
0.913
 50
0.0
 71
     0
 42
0.5
  3
GOTHIC.TTF
  4

1001
ACAD
1000
Century Gothic
1071
      290
  0
STYLE
  5
98
330
3
100
AcDbSymbolTableRecord
100
AcDbTextStyleTableRecord
  2
SLDTEXTSTYLE2
 70
     0
 40
0.0
 41
0.87
 50
0.0
 71
     0
 42
0.5
  3
ARIALNB.TTF
  4

1001
ACAD
1000
Arial Narrow
1071
 33554722
  0
STYLE
  5
9A
330
3
100
AcDbSymbolTableRecord
100
AcDbTextStyleTableRecord
  2
SLDTEXTSTYLE3
 70
     0
 40
0.0
 41
0.87
 50
0.0
 71
     0
 42
0.5
  3
ARIALN.TTF
  4

1001
ACAD
1000
Arial Narrow
1071
      290
  0
ENDTAB
  0
TABLE
  2
VIEW
  5
6
330
0
100
AcDbSymbolTable
 70
     0
  0
ENDTAB
  0
TABLE
  2
UCS
  5
7
330
0
100
AcDbSymbolTable
 70
     0
  0
ENDTAB
  0
TABLE
  2
APPID
  5
9
330
0
100
AcDbSymbolTable
 70
     1
  0
APPID
  5
12
330
9
100
AcDbSymbolTableRecord
100
AcDbRegAppTableRecord
  2
ACAD
 70
     0
  0
ENDTAB
  0
TABLE
  2
DIMSTYLE
  5
A
330
0
100
AcDbSymbolTable
 70
     6
100
AcDbDimStyleTable
  0
DIMSTYLE
105
27
330
A
100
AcDbSymbolTableRecord
100
AcDbDimStyleTableRecord
  2
Standard
 70
     0
178
     0
340
11
  0
DIMSTYLE
105
B9
102
{ACAD_REACTORS
330
B8
102
}
330
A
100
AcDbSymbolTableRecord
100
AcDbDimStyleTableRecord
  2
SLDDIMSTYLE0
 70
     0
 41
0.5
 44
0.0
 45
0.000000001
 78
    12
 79
     3
140
0.5
147
0.125
172
     1
173
     1
178
     0
271
     2
272
     2
276
     2
277
     5
284
    12
289
     0
340
8A
341
BA
343
BA
344
BA
  0
DIMSTYLE
105
CB
102
{ACAD_REACTORS
330
CA
330
112
330
121
102
}
330
A
100
AcDbSymbolTableRecord
100
AcDbDimStyleTableRecord
  2
SLDDIMSTYLE1
 70
     0
 41
0.5
 44
0.0
 45
0.000000001
 78
    12
 79
     3
140
0.5
147
0.125
172
     1
173
     1
178
     0
271
     6
272
     2
276
     2
277
     5
284
    12
289
     0
340
8A
341
BA
343
BA
344
BA
  0
DIMSTYLE
105
DB
102
{ACAD_REACTORS
330
DA
102
}
330
A
100
AcDbSymbolTableRecord
100
AcDbDimStyleTableRecord
  2
SLDDIMSTYLE2
 70
     0
 41
0.5
 44
0.0
 45
0.000000001
 78
    12
 79
     3
140
0.5
141
0.0
147
0.125
173
     1
178
     0
271
     2
272
     2
276
     2
277
     5
284
    12
340
8A
341
BA
343
BA
344
BA
  0
DIMSTYLE
105
EF
330
A
100
AcDbSymbolTableRecord
100
AcDbDimStyleTableRecord
  2
SLDDIMSTYLE3
 70
     0
 41
0.5
 44
0.0
 45
0.000000001
146
0.5
147
0.0
173
     1
178
     0
271
     0
272
     0
276
     2
277
     5
340
11
341
BA
343
BA
344
BA
  0
DIMSTYLE
105
103
102
{ACAD_REACTORS
330
102
330
130
102
}
330
A
100
AcDbSymbolTableRecord
100
AcDbDimStyleTableRecord
  2
SLDDIMSTYLE4
 70
     0
 41
0.5
 44
0.0
 45
0.000000001
 78
    12
 79
     3
140
0.5
147
0.125
173
     1
178
     0
271
     6
272
     2
276
     2
277
     5
284
    12
340
8A
341
BA
343
BA
344
BA
  0
ENDTAB
  0
TABLE
  2
BLOCK_RECORD
  5
1
330
0
100
AcDbSymbolTable
 70
    12
  0
BLOCK_RECORD
  5
1F
330
1
100
AcDbSymbolTableRecord
100
AcDbBlockTableRecord
  2
*Model_Space
340
22
  0
BLOCK_RECORD
  5
1B
330
1
100
AcDbSymbolTableRecord
100
AcDbBlockTableRecord
  2
*Paper_Space
340
1E
  0
BLOCK_RECORD
  5
23
330
1
100
AcDbSymbolTableRecord
100
AcDbBlockTableRecord
  2
*Paper_Space0
340
26
  0
BLOCK_RECORD
  5
8F
330
1
100
AcDbSymbolTableRecord
100
AcDbBlockTableRecord
  2
SW_NOTE_0
340
0
102
{BLKREFS
331
94
102
}
  0
BLOCK_RECORD
  5
95
330
1
100
AcDbSymbolTableRecord
100
AcDbBlockTableRecord
  2
SW_NOTE_0_1
340
0
102
{BLKREFS
331
9E
102
}
  0
BLOCK_RECORD
  5
BA
330
1
100
AcDbSymbolTableRecord
100
AcDbBlockTableRecord
  2
_Open90
340
0
102
{BLKREFS
331
C3
331
C4
331
CF
331
D0
331
DF
331
107
331
108
331
116
331
117
331
125
331
126
331
134
331
135
102
}
  0
BLOCK_RECORD
  5
C0
330
1
100
AcDbSymbolTableRecord
100
AcDbBlockTableRecord
  2
_D
340
0
  0
BLOCK_RECORD
  5
CC
330
1
100
AcDbSymbolTableRecord
100
AcDbBlockTableRecord
  2
_D_1
340
0
  0
BLOCK_RECORD
  5
DC
330
1
100
AcDbSymbolTableRecord
100
AcDbBlockTableRecord
  2
_D_2
340
0
  0
BLOCK_RECORD
  5
E8
330
1
100
AcDbSymbolTableRecord
100
AcDbBlockTableRecord
  2
SW_NOTE_0_2
340
0
102
{BLKREFS
331
EE
102
}
  0
BLOCK_RECORD
  5
104
330
1
100
AcDbSymbolTableRecord
100
AcDbBlockTableRecord
  2
_D_3
340
0
  0
BLOCK_RECORD
  5
113
330
1
100
AcDbSymbolTableRecord
100
AcDbBlockTableRecord
  2
_D_4
340
0
  0
BLOCK_RECORD
  5
122
330
1
100
AcDbSymbolTableRecord
100
AcDbBlockTableRecord
  2
_D_5
340
0
  0
BLOCK_RECORD
  5
131
330
1
100
AcDbSymbolTableRecord
100
AcDbBlockTableRecord
  2
_D_6
340
0
  0
ENDTAB
  0
ENDSEC
  0
SECTION
  2
BLOCKS
  0
BLOCK
  5
20
330
1F
100
AcDbEntity
  8
0
100
AcDbBlockBegin
  2
*Model_Space
 70
     0
 10
0.0
 20
0.0
 30
0.0
  3
*Model_Space
  1

  0
ENDBLK
  5
21
330
1F
100
AcDbEntity
  8
0
100
AcDbBlockEnd
  0
BLOCK
  5
1C
330
1B
100
AcDbEntity
 67
     1
  8
0
100
AcDbBlockBegin
  2
*Paper_Space
 70
     0
 10
0.0
 20
0.0
 30
0.0
  3
*Paper_Space
  1

  0
ENDBLK
  5
1D
330
1B
100
AcDbEntity
 67
     1
  8
0
100
AcDbBlockEnd
  0
BLOCK
  5
24
330
23
100
AcDbEntity
  8
0
100
AcDbBlockBegin
  2
*Paper_Space0
 70
     0
 10
0.0
 20
0.0
 30
0.0
  3
*Paper_Space0
  1

  0
ENDBLK
  5
25
330
23
100
AcDbEntity
  8
0
100
AcDbBlockEnd
  0
BLOCK
  5
90
330
8F
100
AcDbEntity
  8
0
100
AcDbBlockBegin
  2
SW_NOTE_0
 70
     0
 10
0.0
 20
0.0
 30
0.0
  3
SW_NOTE_0
  1

  0
MTEXT
  5
92
330
8F
100
AcDbEntity
  8
OBJECT
 62
     0
100
AcDbMText
 10
0.0
 20
0.3759780908
 30
0.0
 40
0.2916666667
 41
0.0
 71
     1
 72
     1
  1
FROST PRODUCTS LTD.
  7
SLDTEXTSTYLE0
 73
     1
 44
1.0
  0
MTEXT
  5
93
330
8F
100
AcDbEntity
  8
OBJECT
 62
     0
100
AcDbMText
 10
0.0
 20
-0.0495142709
 30
0.0
 40
0.2291666667
 41
0.0
 71
     1
 72
     1
  1
5280 JOHN LUCUS DRIVE, BURLINGTON, ON, L7L 5Z9
  7
SLDTEXTSTYLE0
 73
     1
 44
1.0
  0
ENDBLK
  5
91
330
8F
100
AcDbEntity
  8
0
100
AcDbBlockEnd
  0
BLOCK
  5
96
330
95
100
AcDbEntity
  8
0
100
AcDbBlockBegin
  2
SW_NOTE_0_1
 70
     0
 10
0.0
 20
0.0
 30
0.0
  3
SW_NOTE_0_1
  1

  0
MTEXT
  5
99
330
95
100
AcDbEntity
  8
OBJECT
 62
     0
100
AcDbMText
 10
0.0
 20
0.2381282771
 30
0.0
 40
0.184729064
 41
0.0
 71
     1
 72
     1
  1
PROPRIETARY AND CONFIDENTIAL
  7
SLDTEXTSTYLE2
 73
     1
 44
1.0
  0
MTEXT
  5
9B
330
95
100
AcDbEntity
  8
OBJECT
 62
     0
100
AcDbMText
 10
0.0
 20
-0.0504364796
 30
0.0
 40
0.25
 41
0.0
 71
     1
 72
     1
  1
THE INFORMATION CONTAINED IN THIS DRAWING IS THE SOLE PROPERTY OF 
  7
SLDTEXTSTYLE3
 73
     1
 44
1.0
  0
MTEXT
  5
9C
330
95
100
AcDbEntity
  8
OBJECT
 62
     0
100
AcDbMText
 10
0.0
 20
-0.4231398941
 30
0.0
 40
0.25
 41
0.0
 71
     1
 72
     1
  1
FROST PRODUCTS LTD.  ANY REPRODUCTION IN PART OR AS A WHOLE WITHOUT 
  7
SLDTEXTSTYLE3
 73
     1
 44
1.0
  0
MTEXT
  5
9D
330
95
100
AcDbEntity
  8
OBJECT
 62
     0
100
AcDbMText
 10
0.0
 20
-0.7958433086
 30
0.0
 40
0.25
 41
0.0
 71
     1
 72
     1
  1
THE WRITTEN PERMISSION OF FROST PRODUCTS LTD. IS PROHIBITED.
  7
SLDTEXTSTYLE3
 73
     1
 44
1.0
  0
ENDBLK
  5
97
330
95
100
AcDbEntity
  8
0
100
AcDbBlockEnd
  0
BLOCK
  5
BB
330
BA
100
AcDbEntity
  8
0
100
AcDbBlockBegin
  2
_Open90
 70
     0
 10
0.0
 20
0.0
 30
0.0
  3
_Open90
  1

  0
LINE
  5
BD
330
BA
100
AcDbEntity
  8
0
  6
ByBlock
 62
     0
370
    -2
100
AcDbLine
 10
-0.5
 20
0.5
 30
0.0
 11
0.0
 21
0.0
 31
0.0
  0
LINE
  5
BE
330
BA
100
AcDbEntity
  8
0
  6
ByBlock
 62
     0
370
    -2
100
AcDbLine
 10
0.0
 20
0.0
 30
0.0
 11
-0.5
 21
-0.5
 31
0.0
  0
LINE
  5
BF
330
BA
100
AcDbEntity
  8
0
  6
ByBlock
 62
     0
370
    -2
100
AcDbLine
 10
0.0
 20
0.0
 30
0.0
 11
-1.0
 21
0.0
 31
0.0
  0
ENDBLK
  5
BC
330
BA
100
AcDbEntity
  8
0
100
AcDbBlockEnd
  0
BLOCK
  5
C1
330
C0
100
AcDbEntity
  8
0
100
AcDbBlockBegin
  2
_D
 70
     0
 10
0.0
 20
0.0
 30
0.0
  3
_D
  1

  0
INSERT
  5
C3
330
C0
100
AcDbEntity
  8
DIMS
100
AcDbBlockReference
  2
_Open90
 10
28.8377320199
 20
8.2342962769
 30
-0.8193735972
 41
0.5
 42
0.5
 50
0.0
  0
INSERT
  5
C4
330
C0
100
AcDbEntity
  8
DIMS
100
AcDbBlockReference
  2
_Open90
 10
29.8377320199
 20
8.2342962769
 30
-0.8193735972
 41
0.5
 42
0.5
 50
180.0
  0
LINE
  5
C5
330
C0
100
AcDbEntity
  8
DIMS
100
AcDbLine
 10
28.8377320199
 20
8.4613303976
 30
0.0
 11
28.8377320199
 21
7.8592962769
 31
0.0
  0
LINE
  5
C6
330
C0
100
AcDbEntity
  8
DIMS
100
AcDbLine
 10
29.8377320199
 20
8.4613303976
 30
0.0
 11
29.8377320199
 21
7.8592962769
 31
0.0
  0
LINE
  5
C7
330
C0
100
AcDbEntity
  8
DIMS
100
AcDbLine
 10
28.8377320199
 20
8.2342962769
 30
0.0
 11
27.7869965658
 21
8.2342962769
 31
0.0
  0
LINE
  5
C8
330
C0
100
AcDbEntity
  8
DIMS
100
AcDbLine
 10
29.8377320199
 20
8.2342962769
 30
0.0
 11
30.7992704814
 21
8.2342962769
 31
0.0
  0
MTEXT
  5
C9
330
C0
100
AcDbEntity
  8
DIMS
100
AcDbMText
 10
27.2113021196
 20
8.4760931949
 30
0.0
 40
0.5
 41
0.0
 71
     1
 72
     1
  1
1"
  7
SLDTEXTSTYLE1
 73
     1
 44
1.0
  0
ENDBLK
  5
C2
330
C0
100
AcDbEntity
  8
0
100
AcDbBlockEnd
  0
BLOCK
  5
CD
330
CC
100
AcDbEntity
  8
0
100
AcDbBlockBegin
  2
_D_1
 70
     0
 10
0.0
 20
0.0
 30
0.0
  3
_D_1
  1

  0
INSERT
  5
CF
330
CC
100
AcDbEntity
  8
DIMS
100
AcDbBlockReference
  2
_Open90
 10
27.7353698151
 20
12.5225733986
 30
-0.8193735972
 41
0.5
 42
0.5
 50
270.0
  0
INSERT
  5
D0
330
CC
100
AcDbEntity
  8
DIMS
100
AcDbBlockReference
  2
_Open90
 10
27.7353698151
 20
10.0225733986
 30
-0.8193735972
 41
0.5
 42
0.5
 50
90.0
  0
LINE
  5
D1
330
CC
100
AcDbEntity
  8
DIMS
100
AcDbLine
 10
27.5589808945
 20
11.3833873995
 30
0.0
 11
28.0749531439
 21
11.3833873995
 31
0.0
  0
LINE
  5
D2
330
CC
100
AcDbEntity
  8
DIMS
100
AcDbLine
 10
29.1710653532
 20
12.5225733986
 30
0.0
 11
27.3603698151
 21
12.5225733986
 31
0.0
  0
LINE
  5
D3
330
CC
100
AcDbEntity
  8
DIMS
100
AcDbLine
 10
29.1710653532
 20
10.0225733986
 30
0.0
 11
27.3603698151
 21
10.0225733986
 31
0.0
  0
LINE
  5
D4
330
CC
100
AcDbEntity
  8
DIMS
100
AcDbLine
 10
27.7353698151
 20
12.5225733986
 30
0.0
 11
27.7353698151
 21
13.4841118601
 31
0.0
  0
LINE
  5
D5
330
CC
100
AcDbEntity
  8
DIMS
100
AcDbLine
 10
27.7353698151
 20
10.0225733986
 30
0.0
 11
27.7353698151
 21
9.0610349371
 31
0.0
  0
MTEXT
  5
D6
330
CC
100
AcDbEntity
  8
DIMS
100
AcDbMText
 10
27.116272547
 20
11.6127884599
 30
0.0
 40
0.5
 41
0.0
 71
     1
 72
     1
  1
2
  7
SLDTEXTSTYLE1
 73
     1
 44
1.0
  0
MTEXT
  5
D7
330
CC
100
AcDbEntity
  8
DIMS
100
AcDbMText
 10
27.6322447965
 20
11.9781009589
 30
0.0
 40
0.5
 41
0.0
 71
     1
 72
     1
  1
1
  7
SLDTEXTSTYLE1
 73
     1
 44
1.0
  0
MTEXT
  5
D8
330
CC
100
AcDbEntity
  8
DIMS
100
AcDbMText
 10
27.6322447965
 20
11.3169203804
 30
0.0
 40
0.5
 41
0.0
 71
     1
 72
     1
  1
2
  7
SLDTEXTSTYLE1
 73
     1
 44
1.0
  0
MTEXT
  5
D9
330
CC
100
AcDbEntity
  8
DIMS
100
AcDbMText
 10
28.1482170459
 20
11.6127884599
 30
0.0
 40
0.5
 41
0.0
 71
     1
 72
     1
  1
"
  7
SLDTEXTSTYLE1
 73
     1
 44
1.0
  0
ENDBLK
  5
CE
330
CC
100
AcDbEntity
  8
0
100
AcDbBlockEnd
  0
BLOCK
  5
DD
330
DC
100
AcDbEntity
  8
0
100
AcDbBlockBegin
  2
_D_2
 70
     0
 10
0.0
 20
0.0
 30
0.0
  3
_D_2
  1

  0
INSERT
  5
DF
330
DC
100
AcDbEntity
  8
DIMS
100
AcDbBlockReference
  2
_Open90
 10
29.2687891087
 20
12.5915163098
 30
-0.8193735972
 41
0.5
 42
0.5
 50
315.0
  0
LINE
  5
E0
330
DC
100
AcDbEntity
  8
DIMS
100
AcDbLine
 10
26.1139428481
 20
14.3827167078
 30
0.0
 11
26.9993595431
 21
14.3827167078
 31
0.0
  0
LINE
  5
E1
330
DC
100
AcDbEntity
  8
DIMS
100
AcDbLine
 10
29.2687891087
 20
12.5915163098
 30
0.0
 11
27.5288734091
 21
14.3314320094
 31
0.0
  0
LINE
  5
E2
330
DC
100
AcDbEntity
  8
DIMS
100
AcDbLine
 10
27.5288734091
 20
14.3314320094
 30
0.0
 11
27.2788734091
 21
14.3314320094
 31
0.0
  0
MTEXT
  5
E3
330
DC
100
AcDbEntity
  8
DIMS
100
AcDbMText
 10
25.2866164638
 20
14.6044788789
 30
0.0
 40
0.5
 41
0.0
 71
     1
 72
     1
  1
%%c
  7
SLDTEXTSTYLE1
 73
     1
 44
1.0
  0
MTEXT
  5
E4
330
DC
100
AcDbEntity
  8
DIMS
100
AcDbMText
 10
26.3719289729
 20
14.9774302672
 30
0.0
 40
0.5
 41
0.0
 71
     1
 72
     1
  1
3
  7
SLDTEXTSTYLE1
 73
     1
 44
1.0
  0
MTEXT
  5
E5
330
DC
100
AcDbEntity
  8
DIMS
100
AcDbMText
 10
26.1872067501
 20
14.3162496887
 30
0.0
 40
0.5
 41
0.0
 71
     1
 72
     1
  1
16
  7
SLDTEXTSTYLE1
 73
     1
 44
1.0
  0
MTEXT
  5
E6
330
DC
100
AcDbEntity
  8
DIMS
100
AcDbMText
 10
27.072623445
 20
14.6121177682
 30
0.0
 40
0.5
 41
0.0
 71
     1
 72
     1
  1
"
  7
SLDTEXTSTYLE1
 73
     1
 44
1.0
  0
ENDBLK
  5
DE
330
DC
100
AcDbEntity
  8
0
100
AcDbBlockEnd
  0
BLOCK
  5
E9
330
E8
100
AcDbEntity
  8
0
100
AcDbBlockBegin
  2
SW_NOTE_0_2
 70
     0
 10
0.0
 20
0.0
 30
0.0
  3
SW_NOTE_0_2
  1

  0
MTEXT
  5
EB
330
E8
100
AcDbEntity
  8
NOTES
 62
     0
100
AcDbMText
 10
-4.4355899347
 20
1.5368251229
 30
0.0
 40
0.5
 41
0.0
 71
     1
 72
     1
  1
12 gauge (.1") 
  7
SLDTEXTSTYLE1
 73
     1
 44
1.0
  0
MTEXT
  5
EC
330
E8
100
AcDbEntity
  8
NOTES
 62
     0
100
AcDbMText
 10
-4.4355899347
 20
0.8902973249
 30
0.0
 40
0.5
 41
0.0
 71
     1
 72
     1
  1
thick solid 
  7
SLDTEXTSTYLE1
 73
     1
 44
1.0
  0
MTEXT
  5
ED
330
E8
100
AcDbEntity
  8
NOTES
 62
     0
100
AcDbMText
 10
-4.4355899347
 20
0.243769527
 30
0.0
 40
0.5
 41
0.0
 71
     1
 72
     1
  1
stainless steel.
  7
SLDTEXTSTYLE1
 73
     1
 44
1.0
  0
ENDBLK
  5
EA
330
E8
100
AcDbEntity
  8
0
100
AcDbBlockEnd
  0
BLOCK
  5
105
330
104
100
AcDbEntity
  8
0
100
AcDbBlockBegin
  2
_D_3
 70
     0
 10
0.0
 20
0.0
 30
0.0
  3
_D_3
  1

  0
INSERT
  5
107
330
104
100
AcDbEntity
  8
DIMS
100
AcDbBlockReference
  2
_Open90
 10
36.4953199717
 20
8.6279970643
 30
0.0
 41
0.5
 42
0.5
 50
270.0
  0
INSERT
  5
108
330
104
100
AcDbEntity
  8
DIMS
100
AcDbBlockReference
  2
_Open90
 10
36.4953199717
 20
16.2557776902
 30
0.0
 41
0.5
 42
0.5
 50
90.0
  0
LINE
  5
109
330
104
100
AcDbEntity
  8
DIMS
100
AcDbLine
 10
36.318931051
 20
12.3451763964
 30
0.0
 11
36.8349033005
 21
12.3451763964
 31
0.0
  0
LINE
  5
10A
330
104
100
AcDbEntity
  8
DIMS
100
AcDbLine
 10
40.1070855388
 20
8.6279970643
 30
0.0
 11
36.1203199717
 21
8.6279970643
 31
0.0
  0
LINE
  5
10B
330
104
100
AcDbEntity
  8
DIMS
100
AcDbLine
 10
38.9389691231
 20
16.2557776902
 30
0.0
 11
36.1203199717
 21
16.2557776902
 31
0.0
  0
LINE
  5
10C
330
104
100
AcDbEntity
  8
DIMS
100
AcDbLine
 10
36.4953199717
 20
8.6279970643
 30
0.0
 11
36.4953199717
 21
11.6400375447
 31
0.0
  0
LINE
  5
10D
330
104
100
AcDbEntity
  8
DIMS
100
AcDbLine
 10
36.4953199717
 20
16.2557776902
 30
0.0
 11
36.4953199717
 21
12.9477458513
 31
0.0
  0
MTEXT
  5
10E
330
104
100
AcDbEntity
  8
DIMS
100
AcDbMText
 10
35.8762227036
 20
12.5745774568
 30
0.0
 40
0.5
 41
0.0
 71
     1
 72
     1
  1
7
  7
SLDTEXTSTYLE1
 73
     1
 44
1.0
  0
MTEXT
  5
10F
330
104
100
AcDbEntity
  8
DIMS
100
AcDbMText
 10
36.392194953
 20
12.9398899558
 30
0.0
 40
0.5
 41
0.0
 71
     1
 72
     1
  1
5
  7
SLDTEXTSTYLE1
 73
     1
 44
1.0
  0
MTEXT
  5
110
330
104
100
AcDbEntity
  8
DIMS
100
AcDbMText
 10
36.392194953
 20
12.2787093773
 30
0.0
 40
0.5
 41
0.0
 71
     1
 72
     1
  1
8
  7
SLDTEXTSTYLE1
 73
     1
 44
1.0
  0
MTEXT
  5
111
330
104
100
AcDbEntity
  8
DIMS
100
AcDbMText
 10
36.9081672024
 20
12.5745774568
 30
0.0
 40
0.5
 41
0.0
 71
     1
 72
     1
  1
"
  7
SLDTEXTSTYLE1
 73
     1
 44
1.0
  0
ENDBLK
  5
106
330
104
100
AcDbEntity
  8
0
100
AcDbBlockEnd
  0
BLOCK
  5
114
330
113
100
AcDbEntity
  8
0
100
AcDbBlockBegin
  2
_D_4
 70
     0
 10
0.0
 20
0.0
 30
0.0
  3
_D_4
  1

  0
INSERT
  5
116
330
113
100
AcDbEntity
  8
DIMS
100
AcDbBlockReference
  2
_Open90
 10
38.6213042237
 20
9.4340987948
 30
0.0
 41
0.5
 42
0.5
 50
270.0
  0
INSERT
  5
117
330
113
100
AcDbEntity
  8
DIMS
100
AcDbBlockReference
  2
_Open90
 10
38.6213042237
 20
8.6279970643
 30
0.0
 41
0.5
 42
0.5
 50
90.0
  0
LINE
  5
118
330
113
100
AcDbEntity
  8
DIMS
100
AcDbLine
 10
37.2063735894
 20
10.3865316292
 30
0.0
 11
38.0917902843
 21
10.3865316292
 31
0.0
  0
LINE
  5
119
330
113
100
AcDbEntity
  8
DIMS
100
AcDbLine
 10
39.2974304177
 20
9.4340987948
 30
0.0
 11
38.2463042237
 21
9.4340987948
 31
0.0
  0
LINE
  5
11A
330
113
100
AcDbEntity
  8
DIMS
100
AcDbLine
 10
40.1070855388
 20
8.6279970643
 30
0.0
 11
38.2463042237
 21
8.6279970643
 31
0.0
  0
LINE
  5
11B
330
113
100
AcDbEntity
  8
DIMS
100
AcDbLine
 10
38.3713042237
 20
10.3352469308
 30
0.0
 11
38.6213042237
 21
10.3352469308
 31
0.0
  0
LINE
  5
11C
330
113
100
AcDbEntity
  8
DIMS
100
AcDbLine
 10
38.6213042237
 20
10.3352469308
 30
0.0
 11
38.6213042237
 21
9.4340987948
 31
0.0
  0
LINE
  5
11D
330
113
100
AcDbEntity
  8
DIMS
100
AcDbLine
 10
38.6213042237
 20
8.6279970643
 30
0.0
 11
38.6213042237
 21
7.6664586027
 31
0.0
  0
MTEXT
  5
11E
330
113
100
AcDbEntity
  8
DIMS
100
AcDbMText
 10
37.2796374914
 20
10.9812451887
 30
0.0
 40
0.5
 41
0.0
 71
     1
 72
     1
  1
13
  7
SLDTEXTSTYLE1
 73
     1
 44
1.0
  0
MTEXT
  5
11F
330
113
100
AcDbEntity
  8
DIMS
100
AcDbMText
 10
37.2796374914
 20
10.3200646101
 30
0.0
 40
0.5
 41
0.0
 71
     1
 72
     1
  1
16
  7
SLDTEXTSTYLE1
 73
     1
 44
1.0
  0
MTEXT
  5
120
330
113
100
AcDbEntity
  8
DIMS
100
AcDbMText
 10
38.1650541863
 20
10.6159326896
 30
0.0
 40
0.5
 41
0.0
 71
     1
 72
     1
  1
"
  7
SLDTEXTSTYLE1
 73
     1
 44
1.0
  0
ENDBLK
  5
115
330
113
100
AcDbEntity
  8
0
100
AcDbBlockEnd
  0
BLOCK
  5
123
330
122
100
AcDbEntity
  8
0
100
AcDbBlockBegin
  2
_D_5
 70
     0
 10
0.0
 20
0.0
 30
0.0
  3
_D_5
  1

  0
INSERT
  5
125
330
122
100
AcDbEntity
  8
DIMS
100
AcDbBlockReference
  2
_Open90
 10
39.0150050111
 20
16.6494784776
 30
0.0
 41
0.5
 42
0.5
 50
0.0
  0
INSERT
  5
126
330
122
100
AcDbEntity
  8
DIMS
100
AcDbBlockReference
  2
_Open90
 10
40.6237522055
 20
16.6494784776
 30
0.0
 41
0.5
 42
0.5
 50
180.0
  0
LINE
  5
127
330
122
100
AcDbEntity
  8
DIMS
100
AcDbLine
 10
39.7194677555
 20
16.7007631759
 30
0.0
 11
40.2354400049
 21
16.7007631759
 31
0.0
  0
LINE
  5
128
330
122
100
AcDbEntity
  8
DIMS
100
AcDbLine
 10
39.0150050111
 20
16.3801825306
 30
0.0
 11
39.0150050111
 21
17.0244784776
 31
0.0
  0
LINE
  5
129
330
122
100
AcDbEntity
  8
DIMS
100
AcDbLine
 10
40.6237522055
 20
13.0892400653
 30
0.0
 11
40.6237522055
 21
17.0244784776
 31
0.0
  0
LINE
  5
12A
330
122
100
AcDbEntity
  8
DIMS
100
AcDbLine
 10
39.0150050111
 20
16.6494784776
 30
0.0
 11
38.0534665495
 21
16.6494784776
 31
0.0
  0
LINE
  5
12B
330
122
100
AcDbEntity
  8
DIMS
100
AcDbLine
 10
40.6237522055
 20
16.6494784776
 30
0.0
 11
41.585290667
 21
16.6494784776
 31
0.0
  0
MTEXT
  5
12C
330
122
100
AcDbEntity
  8
DIMS
100
AcDbMText
 10
39.276759408
 20
16.9301642364
 30
0.0
 40
0.5
 41
0.0
 71
     1
 72
     1
  1
1
  7
SLDTEXTSTYLE1
 73
     1
 44
1.0
  0
MTEXT
  5
12D
330
122
100
AcDbEntity
  8
DIMS
100
AcDbMText
 10
39.7927316575
 20
17.2954767354
 30
0.0
 40
0.5
 41
0.0
 71
     1
 72
     1
  1
5
  7
SLDTEXTSTYLE1
 73
     1
 44
1.0
  0
MTEXT
  5
12E
330
122
100
AcDbEntity
  8
DIMS
100
AcDbMText
 10
39.7927316575
 20
16.6342961569
 30
0.0
 40
0.5
 41
0.0
 71
     1
 72
     1
  1
8
  7
SLDTEXTSTYLE1
 73
     1
 44
1.0
  0
MTEXT
  5
12F
330
122
100
AcDbEntity
  8
DIMS
100
AcDbMText
 10
40.3087039069
 20
16.9301642364
 30
0.0
 40
0.5
 41
0.0
 71
     1
 72
     1
  1
"
  7
SLDTEXTSTYLE1
 73
     1
 44
1.0
  0
ENDBLK
  5
124
330
122
100
AcDbEntity
  8
0
100
AcDbBlockEnd
  0
BLOCK
  5
132
330
131
100
AcDbEntity
  8
0
100
AcDbBlockBegin
  2
_D_6
 70
     0
 10
0.0
 20
0.0
 30
0.0
  3
_D_6
  1

  0
INSERT
  5
134
330
131
100
AcDbEntity
  8
DIMS
100
AcDbBlockReference
  2
_Open90
 10
39.3933864062
 20
8.2342962769
 30
0.0
 41
0.5
 42
0.5
 50
180.0
  0
INSERT
  5
135
330
131
100
AcDbEntity
  8
DIMS
100
AcDbBlockReference
  2
_Open90
 10
40.6237522055
 20
8.2342962769
 30
0.0
 41
0.5
 42
0.5
 50
0.0
  0
LINE
  5
136
330
131
100
AcDbEntity
  8
DIMS
100
AcDbLine
 10
41.5402579345
 20
8.2855809752
 30
0.0
 11
42.0562301839
 21
8.2855809752
 31
0.0
  0
LINE
  5
137
330
131
100
AcDbEntity
  8
DIMS
100
AcDbLine
 10
39.3933864062
 20
9.19672145
 30
0.0
 11
39.3933864062
 21
7.8592962769
 31
0.0
  0
LINE
  5
138
330
131
100
AcDbEntity
  8
DIMS
100
AcDbLine
 10
40.6237522055
 20
8.8113303976
 30
0.0
 11
40.6237522055
 21
7.8592962769
 31
0.0
  0
LINE
  5
139
330
131
100
AcDbEntity
  8
DIMS
100
AcDbLine
 10
39.3933864062
 20
8.2342962769
 30
0.0
 11
40.6237522055
 21
8.2342962769
 31
0.0
  0
LINE
  5
13A
330
131
100
AcDbEntity
  8
DIMS
100
AcDbLine
 10
40.6237522055
 20
8.2342962769
 30
0.0
 11
41.097549587
 21
8.2342962769
 31
0.0
  0
MTEXT
  5
13B
330
131
100
AcDbEntity
  8
DIMS
100
AcDbMText
 10
41.097549587
 20
8.5149820357
 30
0.0
 40
0.5
 41
0.0
 71
     1
 72
     1
  1
1
  7
SLDTEXTSTYLE1
 73
     1
 44
1.0
  0
MTEXT
  5
13C
330
131
100
AcDbEntity
  8
DIMS
100
AcDbMText
 10
41.6135218365
 20
8.8802945347
 30
0.0
 40
0.5
 41
0.0
 71
     1
 72
     1
  1
1
  7
SLDTEXTSTYLE1
 73
     1
 44
1.0
  0
MTEXT
  5
13D
330
131
100
AcDbEntity
  8
DIMS
100
AcDbMText
 10
41.6135218365
 20
8.2191139562
 30
0.0
 40
0.5
 41
0.0
 71
     1
 72
     1
  1
4
  7
SLDTEXTSTYLE1
 73
     1
 44
1.0
  0
MTEXT
  5
13E
330
131
100
AcDbEntity
  8
DIMS
100
AcDbMText
 10
42.1294940859
 20
8.5149820357
 30
0.0
 40
0.5
 41
0.0
 71
     1
 72
     1
  1
"
  7
SLDTEXTSTYLE1
 73
     1
 44
1.0
  0
ENDBLK
  5
133
330
131
100
AcDbEntity
  8
0
100
AcDbBlockEnd
  0
ENDSEC
  0
SECTION
  2
ENTITIES
  0
LINE
  5
7B
330
1F
100
AcDbEntity
  8
TITLE
370
    50
100
AcDbLine
 10
29.4339107028
 20
1.3813118861
 30
0.0
 11
46.41567413
 21
1.3813118861
 31
0.0
  0
LINE
  5
7C
330
1F
100
AcDbEntity
  8
TITLE
370
    50
100
AcDbLine
 10
46.415619423
 20
5.3690605151
 30
0.0
 11
36.2262227511
 21
5.3690605151
 31
0.0
  0
LINE
  5
7D
330
1F
100
AcDbEntity
  8
TITLE
370
    50
100
AcDbLine
 10
29.4339107028
 20
2.4364878447
 30
0.0
 11
22.421666799
 21
2.4364878447
 31
0.0
  0
LINE
  5
7E
330
1F
100
AcDbEntity
  8
TITLE
370
    50
100
AcDbLine
 10
29.4339107028
 20
1.3813118861
 30
0.0
 11
22.421666799
 21
1.3813118861
 31
0.0
  0
LINE
  5
7F
330
1F
100
AcDbEntity
  8
TITLE
370
    50
100
AcDbLine
 10
29.4339107028
 20
1.3813118861
 30
0.0
 11
29.4339107028
 21
3.4916638033
 31
0.0
  0
LINE
  5
80
330
1F
100
AcDbEntity
  8
TITLE
370
    50
100
AcDbLine
 10
22.421666799
 20
3.4916638033
 30
0.0
 11
22.421666799
 21
0.3937001216
 31
0.0
  0
LINE
  5
81
330
1F
100
AcDbEntity
  8
TITLE
370
    50
100
AcDbLine
 10
22.421666799
 20
0.3937001216
 30
0.0
 11
46.4156876788
 21
0.3937001216
 31
0.0
  0
LINE
  5
82
330
1F
100
AcDbEntity
  8
TITLE
370
    50
100
AcDbLine
 10
46.415619423
 20
5.3690605151
 30
0.0
 11
46.4156876788
 21
0.3937001216
 31
0.0
  0
LINE
  5
83
330
1F
100
AcDbEntity
  8
TITLE
370
    50
100
AcDbLine
 10
29.4339107028
 20
3.4916638033
 30
0.0
 11
22.421666799
 21
3.4916638033
 31
0.0
  0
LINE
  5
84
330
1F
100
AcDbEntity
  8
TITLE
370
    50
100
AcDbLine
 10
29.4339107028
 20
3.4916638033
 30
0.0
 11
46.415449243
 21
3.4916649559
 31
0.0
  0
LINE
  5
85
330
1F
100
AcDbEntity
  8
TITLE
370
    50
100
AcDbLine
 10
36.2262227511
 20
5.3690605151
 30
0.0
 11
36.2262227511
 21
0.3573773641
 31
0.0
  0
MTEXT
  5
87
330
1F
100
AcDbEntity
  8
OBJECT
100
AcDbMText
 10
23.3239854818
 20
0.9639904563
 30
0.0
 40
0.25
 41
0.0
 71
     1
 72
     1
  1
UNLESS OTHERWISE SPECIFIED DIMENSIONS ARE IN INCHES.
  7
SLDTEXTSTYLE0
 73
     1
 44
1.0
  0
MTEXT
  5
88
330
1F
100
AcDbEntity
  8
OBJECT
100
AcDbMText
 10
23.3457576067
 20
2.9767628992
 30
0.0
 40
0.25
 41
0.0
 71
     1
 72
     1
  1
DATE:
  7
SLDTEXTSTYLE0
 73
     1
 44
1.0
  0
MTEXT
  5
89
330
1F
100
AcDbEntity
  8
OBJECT
100
AcDbMText
 10
25.4543888668
 20
2.0867330853
 30
0.0
 40
0.25
 41
0.0
 71
     2
 72
     1
  1
DO NOT SCALE DRAWING
  7
SLDTEXTSTYLE0
 73
     1
 44
1.0
  0
MTEXT
  5
8B
330
1F
100
AcDbEntity
  8
OBJECT
100
AcDbMText
 10
29.7464249863
 20
3.1619756769
 30
0.0
 40
0.25
 41
0.0
 71
     1
 72
     1
  1
TITLE:
  7
SLDTEXTSTYLE1
 73
     1
 44
1.0
  0
MTEXT
  5
8C
330
1F
100
AcDbEntity
  8
OBJECT
100
AcDbMText
 10
37.0718707839
 20
3.1619756769
 30
0.0
 40
0.25
 41
0.0
 71
     1
 72
     1
  1
DWG NO.
  7
SLDTEXTSTYLE1
 73
     1
 44
1.0
  0
MTEXT
  5
8D
330
1F
100
AcDbEntity
  8
OBJECT
100
AcDbMText
 10
37.0988629991
 20
0.9582816793
 30
0.0
 40
0.25
 41
0.0
 71
     1
 72
     1
  1
SCALE:     1:1
  7
SLDTEXTSTYLE1
 73
     1
 44
1.0
  0
MTEXT
  5
8E
330
1F
100
AcDbEntity
  8
OBJECT
100
AcDbMText
 10
41.1471162021
 20
2.7012065827
 30
0.0
 40
0.5
 41
0.0
 71
     2
 72
     1
  1
Code 1146 Coat hook
  7
SLDTEXTSTYLE1
 73
     1
 44
1.0
  0
INSERT
  5
94
330
1F
100
AcDbEntity
  8
OBJECT
100
AcDbBlockReference
  2
SW_NOTE_0
 10
37.1818192358
 20
4.5042229054
 30
0.0
  0
INSERT
  5
9E
330
1F
100
AcDbEntity
  8
OBJECT
100
AcDbBlockReference
  2
SW_NOTE_0_1
 10
23.5316603034
 20
5.0418528064
 30
0.0
  0
LINE
  5
9F
330
1F
100
AcDbEntity
  8
OBJECT
  6
SLD-Solid
370
    25
100
AcDbLine
 10
28.8377320199
 20
8.6279970643
 30
0.0
 11
29.8377320199
 21
8.6279970643
 31
0.0
  0
LINE
  5
A0
330
1F
100
AcDbEntity
  8
OBJECT
  6
SLD-Solid
370
    25
100
AcDbLine
 10
28.8377320199
 20
13.028227964
 30
0.0
 11
28.8377320199
 21
15.7603619705
 31
0.0
  0
LWPOLYLINE
  5
A1
330
1F
100
AcDbEntity
  8
OBJECT
  6
SLD-Solid
370
    25
100
AcDbPolyline
 90
       16
 70
   128
 43
0.0
 10
29.3377320199
 20
16.213515864
 10
29.2854677882
 20
16.2110334395
 10
29.2337761745
 20
16.2036133642
 10
29.1832235227
 20
16.1913369338
 10
29.1343636983
 20
16.1743386515
 10
29.0877320199
 20
16.1528047541
 10
29.0438393937
 20
16.1269711714
 10
29.0031667167
 20
16.0971209416
 10
28.9661596071
 20
16.06358111
 10
28.9332235227
 20
16.0267191461
 10
28.904719318
 20
15.9869389172
 10
28.880959291
 20
15.9446762639
 10
28.8622037617
 20
15.9003942246
 10
28.8486582195
 20
15.8545779627
 10
28.8404710722
 20
15.8077294506
 10
28.8377320199
 20
15.7603619705
  0
LWPOLYLINE
  5
A2
330
1F
100
AcDbEntity
  8
OBJECT
  6
SLD-Solid
370
    25
100
AcDbPolyline
 90
       16
 70
   128
 43
0.0
 10
29.8377320199
 20
15.7603619705
 10
29.8349929676
 20
15.8077294506
 10
29.8268058202
 20
15.8545779627
 10
29.813260278
 20
15.9003942246
 10
29.7945047487
 20
15.9446762639
 10
29.7707447218
 20
15.9869389172
 10
29.7422405171
 20
16.0267191461
 10
29.7093044326
 20
16.06358111
 10
29.6722973231
 20
16.0971209416
 10
29.631624646
 20
16.1269711714
 10
29.5877320199
 20
16.1528047541
 10
29.5411003414
 20
16.1743386515
 10
29.4922405171
 20
16.1913369338
 10
29.4416878653
 20
16.2036133642
 10
29.3899962515
 20
16.2110334395
 10
29.3377320199
 20
16.213515864
  0
LINE
  5
A3
330
1F
100
AcDbEntity
  8
OBJECT
  6
SLD-Solid
370
    25
100
AcDbLine
 10
29.8377320199
 20
15.7603619705
 30
0.0
 11
29.8377320199
 21
13.028227964
 31
0.0
  0
LINE
  5
A4
330
1F
100
AcDbEntity
  8
OBJECT
  6
SLD-Solid
370
    25
100
AcDbLine
 10
28.8377320199
 20
15.7603619705
 30
0.0
 11
28.8377320199
 21
15.8026237966
 31
0.0
  0
LWPOLYLINE
  5
A5
330
1F
100
AcDbEntity
  8
OBJECT
  6
SLD-Solid
370
    25
100
AcDbPolyline
 90
       16
 70
   128
 43
0.0
 10
28.8377320199
 20
15.8026237966
 10
28.8404710722
 20
15.8499912767
 10
28.8486582195
 20
15.8968397888
 10
28.8622037617
 20
15.9426560508
 10
28.8809592911
 20
15.9869380901
 10
28.904719318
 20
16.0292007434
 10
28.9332235227
 20
16.0689809723
 10
28.9661596071
 20
16.1058429362
 10
29.0031667167
 20
16.1393827677
 10
29.0438393937
 20
16.1692329976
 10
29.0877320199
 20
16.1950665802
 10
29.1343636983
 20
16.2166004777
 10
29.1832235227
 20
16.2335987599
 10
29.2337761745
 20
16.2458751903
 10
29.2854677882
 20
16.2532952657
 10
29.3377320199
 20
16.2557776902
  0
LINE
  5
A6
330
1F
100
AcDbEntity
  8
OBJECT
  6
SLD-Solid
370
    25
100
AcDbLine
 10
29.8377320199
 20
15.8026237966
 30
0.0
 11
29.8377320199
 21
15.7603619705
 31
0.0
  0
LWPOLYLINE
  5
A7
330
1F
100
AcDbEntity
  8
OBJECT
  6
SLD-Solid
370
    25
100
AcDbPolyline
 90
       16
 70
   128
 43
0.0
 10
29.3377320199
 20
16.2557776902
 10
29.3899962515
 20
16.2532952657
 10
29.4416878653
 20
16.2458751903
 10
29.4922405171
 20
16.2335987599
 10
29.5411003414
 20
16.2166004777
 10
29.5877320199
 20
16.1950665802
 10
29.631624646
 20
16.1692329976
 10
29.6722973231
 20
16.1393827677
 10
29.7093044326
 20
16.1058429362
 10
29.7422405171
 20
16.0689809723
 10
29.7707447218
 20
16.0292007434
 10
29.7945047487
 20
15.9869380901
 10
29.813260278
 20
15.9426560508
 10
29.8268058202
 20
15.8968397888
 10
29.8349929676
 20
15.8499912767
 10
29.8377320199
 20
15.8026237966
  0
LINE
  5
A8
330
1F
100
AcDbEntity
  8
OBJECT
  6
SLD-Solid
370
    25
100
AcDbLine
 10
29.8377320199
 20
8.7305096908
 30
0.0
 11
29.8377320199
 21
9.0098347261
 31
0.0
  0
LINE
  5
A9
330
1F
100
AcDbEntity
  8
OBJECT
  6
SLD-Solid
370
    25
100
AcDbLine
 10
28.8377320199
 20
9.0098347261
 30
0.0
 11
28.8377320199
 21
8.7305096908
 31
0.0
  0
LWPOLYLINE
  5
AA
330
1F
100
AcDbEntity
  8
OBJECT
  6
SLD-Solid
370
    25
100
AcDbPolyline
 90
       16
 70
   128
 43
0.0
 10
29.3377320199
 20
9.3633881167
 10
29.2854677882
 20
9.3614513142
 10
29.2337761745
 20
9.3556621268
 10
29.1832235227
 20
9.3460839821
 10
29.1343636983
 20
9.3328218201
 10
29.0877320199
 20
9.3160209439
 10
29.0438393937
 20
9.2958654275
 10
29.0031667167
 20
9.2725760988
 10
28.9661596071
 20
9.2464081207
 10
28.9332235227
 20
9.217648195
 10
28.904719318
 20
9.1866114214
 10
28.8809592911
 20
9.1536378453
 10
28.8622037617
 20
9.1190887322
 10
28.8486582195
 20
9.0833426093
 10
28.8404710722
 20
9.0467911187
 10
28.8377320199
 20
9.0098347261
  0
LWPOLYLINE
  5
AB
330
1F
100
AcDbEntity
  8
OBJECT
  6
SLD-Solid
370
    25
100
AcDbPolyline
 90
       16
 70
   128
 43
0.0
 10
29.8377320199
 20
9.0098347261
 10
29.8349929676
 20
9.0467911187
 10
29.8268058202
 20
9.0833426093
 10
29.813260278
 20
9.1190887322
 10
29.7945047487
 20
9.1536378453
 10
29.7707447218
 20
9.1866114214
 10
29.7422405171
 20
9.217648195
 10
29.7093044326
 20
9.2464081207
 10
29.6722973231
 20
9.2725760988
 10
29.631624646
 20
9.2958654275
 10
29.5877320199
 20
9.3160209439
 10
29.5411003414
 20
9.3328218201
 10
29.4922405171
 20
9.3460839821
 10
29.4416878653
 20
9.3556621268
 10
29.3899962515
 20
9.3614513142
 10
29.3377320199
 20
9.3633881167
  0
LINE
  5
AC
330
1F
100
AcDbEntity
  8
OBJECT
  6
SLD-Solid
370
    25
100
AcDbLine
 10
28.8377320199
 20
9.0098347261
 30
0.0
 11
28.8377320199
 21
9.0805454042
 31
0.0
  0
LWPOLYLINE
  5
AD
330
1F
100
AcDbEntity
  8
OBJECT
  6
SLD-Solid
370
    25
100
AcDbPolyline
 90
       16
 70
   128
 43
0.0
 10
28.8377320199
 20
9.0805454042
 10
28.8404710722
 20
9.1175017968
 10
28.8486582195
 20
9.1540532874
 10
28.8622037617
 20
9.1897994103
 10
28.8809592911
 20
9.2243485235
 10
28.904719318
 20
9.2573220995
 10
28.9332235227
 20
9.2883588731
 10
28.9661596071
 20
9.3171187988
 10
29.0031667167
 20
9.343286777
 10
29.0438393937
 20
9.3665761056
 10
29.0877320199
 20
9.3867316221
 10
29.1343636983
 20
9.4035324982
 10
29.1832235227
 20
9.4167946602
 10
29.2337761745
 20
9.426372805
 10
29.2854677882
 20
9.4321619923
 10
29.3377320199
 20
9.4340987948
  0
LWPOLYLINE
  5
AE
330
1F
100
AcDbEntity
  8
OBJECT
  6
SLD-Solid
370
    25
100
AcDbPolyline
 90
       16
 70
   128
 43
0.0
 10
29.3377320199
 20
9.4340987948
 10
29.3899962515
 20
9.4321619923
 10
29.4416878653
 20
9.426372805
 10
29.4922405171
 20
9.4167946602
 10
29.5411003414
 20
9.4035324982
 10
29.5877320199
 20
9.3867316221
 10
29.631624646
 20
9.3665761056
 10
29.6722973231
 20
9.343286777
 10
29.7093044326
 20
9.3171187988
 10
29.7422405171
 20
9.2883588731
 10
29.7707447218
 20
9.2573220995
 10
29.7945047487
 20
9.2243485235
 10
29.813260278
 20
9.1897994103
 10
29.8268058202
 20
9.1540532874
 10
29.8349929676
 20
9.1175017968
 10
29.8377320199
 20
9.0805454042
  0
LINE
  5
AF
330
1F
100
AcDbEntity
  8
OBJECT
  6
SLD-Solid
370
    25
100
AcDbLine
 10
29.8377320199
 20
9.0805454042
 30
0.0
 11
29.8377320199
 21
9.0098347261
 31
0.0
  0
LINE
  5
B0
330
1F
100
AcDbEntity
  8
OBJECT
  6
SLD-Solid
370
    25
100
AcDbLine
 10
28.8377320199
 20
8.6279970643
 30
0.0
 11
28.8377320199
 21
8.7305096908
 31
0.0
  0
LINE
  5
B1
330
1F
100
AcDbEntity
  8
OBJECT
  6
SLD-Solid
370
    25
100
AcDbLine
 10
29.8377320199
 20
8.7305096908
 30
0.0
 11
29.8377320199
 21
8.6279970643
 31
0.0
  0
LINE
  5
B2
330
1F
100
AcDbEntity
  8
OBJECT
  6
SLD-Solid
370
    25
100
AcDbLine
 10
28.8377320199
 20
13.028227964
 30
0.0
 11
28.8377320199
 21
12.9225733986
 31
0.0
  0
LINE
  5
B3
330
1F
100
AcDbEntity
  8
OBJECT
  6
SLD-Solid
370
    25
100
AcDbLine
 10
29.8377320199
 20
12.9225733986
 30
0.0
 11
29.8377320199
 21
13.028227964
 31
0.0
  0
LINE
  5
B4
330
1F
100
AcDbEntity
  8
OBJECT
  6
SLD-Solid
370
    25
100
AcDbLine
 10
29.8377320199
 20
12.9225733986
 30
0.0
 11
29.8377320199
 21
9.0805454042
 31
0.0
  0
CIRCLE
  5
B5
330
1F
100
AcDbEntity
  8
OBJECT
  6
SLD-Solid
370
    25
100
AcDbCircle
 10
29.3377320199
 20
12.5225733986
 30
0.0
 40
0.0975000000000001
  0
CIRCLE
  5
B6
330
1F
100
AcDbEntity
  8
OBJECT
  6
SLD-Solid
370
    25
100
AcDbCircle
 10
29.3377320199
 20
10.0225733986
 30
0.0
 40
0.0975000000000001
  0
LINE
  5
B7
330
1F
100
AcDbEntity
  8
OBJECT
  6
SLD-Solid
370
    25
100
AcDbLine
 10
28.8377320199
 20
9.0805454042
 30
0.0
 11
28.8377320199
 21
12.9225733986
 31
0.0
  0
DIMENSION
  5
B8
330
1F
100
AcDbEntity
  8
DIMS
100
AcDbDimension
  2
_D
 10
29.8377320199
 20
8.2342962769
 30
0.0
 11
27.4991493427
 21
8.2342962769
 31
0.0
 70
   160
  1
<>
 71
     2
 42
-1.0
  3
SLDDIMSTYLE0
100
AcDbAlignedDimension
 13
28.8377320199
 23
8.6279970643
 33
0.0
 14
29.8377320199
 24
8.6279970643
 34
0.0
100
AcDbRotatedDimension
  0
DIMENSION
  5
CA
330
1F
100
AcDbEntity
  8
DIMS
100
AcDbDimension
  2
_D_1
 10
27.7353698151
 20
10.0225733986
 30
0.0
 11
27.7353698151
 21
11.3321027011
 31
0.0
 70
   160
  1
<>
 71
     2
 42
-1.0
  3
SLDDIMSTYLE1
100
AcDbAlignedDimension
 13
29.3377320199
 23
12.5225733986
 33
0.0
 14
29.3377320199
 24
10.0225733986
 34
0.0
 50
90.0
100
AcDbRotatedDimension
  0
DIMENSION
  5
DA
330
1F
100
AcDbEntity
  8
DIMS
100
AcDbDimension
  2
_D_2
 10
29.406674931
 20
12.4536304874
 30
0.0
 11
26.2827449365
 21
14.3314320094
 31
0.0
 70
   163
  1
<>
 71
     1
 42
-1.0
  3
SLDDIMSTYLE2
100
AcDbDiametricDimension
 15
29.2687891087
 25
12.5915163098
 35
0.0
 40
0.0
  0
MTEXT
  5
E7
330
1F
100
AcDbEntity
  8
NOTES
100
AcDbMText
 10
28.1060347944
 20
7.6263351329
 30
0.0
 40
0.5
 41
0.0
 71
     1
 72
     1
  1
Front view
  7
SLDTEXTSTYLE1
 73
     1
 44
1.0
  0
INSERT
  5
EE
102
{ACAD_REACTORS
330
F0
102
}
330
1F
100
AcDbEntity
  8
NOTES
100
AcDbBlockReference
  2
SW_NOTE_0_2
 10
25.8967359865
 20
16.1298373959
 30
0.0
  0
LEADER
  5
F0
330
1F
100
AcDbEntity
  8
NOTES
100
AcDbLeader
  3
SLDDIMSTYLE3
 73
     2
 76
     3
 10
28.8377320199
 20
14.094113741
 30
0.0
 10
26.3967359865
 20
16.1298373959
 30
0.0
 10
25.8967359865
 20
16.1298373959
 30
0.0
340
EE
  0
LINE
  5
F1
330
1F
100
AcDbEntity
  8
OBJECT
  6
SLD-Solid
370
    25
100
AcDbLine
 10
39.2263141419
 20
15.7603619705
 30
0.0
 11
39.0150050111
 21
16.213515864
 31
0.0
  0
LINE
  5
F2
330
1F
100
AcDbEntity
  8
OBJECT
  6
SLD-Solid
370
    25
100
AcDbLine
 10
39.1056357898
 20
16.2557776902
 30
0.0
 11
39.0150050111
 21
16.213515864
 31
0.0
  0
LINE
  5
F3
330
1F
100
AcDbEntity
  8
OBJECT
  6
SLD-Solid
370
    25
100
AcDbLine
 10
39.1056357898
 20
16.2557776902
 30
0.0
 11
39.3169449206
 21
15.8026237966
 31
0.0
  0
LINE
  5
F4
330
1F
100
AcDbEntity
  8
OBJECT
  6
SLD-Solid
370
    25
100
AcDbLine
 10
39.3169449206
 20
15.8026237966
 30
0.0
 11
40.5909599309
 21
13.0704897902
 31
0.0
  0
LINE
  5
F5
330
1F
100
AcDbEntity
  8
OBJECT
  6
SLD-Solid
370
    25
100
AcDbLine
 10
39.2263141419
 20
15.7603619705
 30
0.0
 11
40.5003291522
 21
13.028227964
 31
0.0
  0
LINE
  5
F6
330
1F
100
AcDbEntity
  8
OBJECT
  6
SLD-Solid
370
    25
100
AcDbLine
 10
39.3933864062
 20
9.3633881167
 30
0.0
 11
39.4640970843
 21
9.4340987948
 31
0.0
  0
LINE
  5
F7
330
1F
100
AcDbEntity
  8
OBJECT
  6
SLD-Solid
370
    25
100
AcDbLine
 10
39.4640970843
 20
9.4340987948
 30
0.0
 11
39.8176504749
 21
9.0805454042
 31
0.0
  0
LINE
  5
F8
330
1F
100
AcDbEntity
  8
OBJECT
  6
SLD-Solid
370
    25
100
AcDbLine
 10
39.7469397968
 20
9.0098347261
 30
0.0
 11
39.3933864062
 21
9.3633881167
 31
0.0
  0
LINE
  5
F9
330
1F
100
AcDbEntity
  8
OBJECT
  6
SLD-Solid
370
    25
100
AcDbLine
 10
40.0969755102
 20
8.801220369
 30
0.0
 11
39.8176504749
 21
9.0805454042
 31
0.0
  0
LINE
  5
FA
330
1F
100
AcDbEntity
  8
OBJECT
  6
SLD-Solid
370
    25
100
AcDbLine
 10
40.0262648321
 20
8.7305096908
 30
0.0
 11
39.7469397968
 21
9.0098347261
 31
0.0
  0
ARC
  5
FB
330
1F
100
AcDbEntity
  8
OBJECT
  6
SLD-Solid
370
    25
100
AcDbCircle
 10
40.2737522055
 20
8.9779970643
 30
0.0
 40
0.249999999999997
100
AcDbArc
 50
225.0
 51
0.0
  0
ARC
  5
FC
330
1F
100
AcDbEntity
  8
OBJECT
  6
SLD-Solid
370
    25
100
AcDbCircle
 10
40.2737522055
 20
8.9779970643
 30
0.0
 40
0.3499999999999905
100
AcDbArc
 50
225.0
 51
0.0
  0
ARC
  5
FD
330
1F
100
AcDbEntity
  8
OBJECT
  6
SLD-Solid
370
    25
100
AcDbCircle
 10
40.2737522055
 20
12.9225733986
 30
0.0
 40
0.349999999999988
100
AcDbArc
 50
0.0
 51
25.0
  0
ARC
  5
FE
330
1F
100
AcDbEntity
  8
OBJECT
  6
SLD-Solid
370
    25
100
AcDbCircle
 10
40.2737522055
 20
12.9225733986
 30
0.0
 40
0.2499999999999905
100
AcDbArc
 50
0.0
 51
25.0
  0
LINE
  5
FF
330
1F
100
AcDbEntity
  8
OBJECT
  6
SLD-Solid
370
    25
100
AcDbLine
 10
40.6237522055
 20
12.9225733986
 30
0.0
 11
40.6237522055
 21
8.9779970643
 31
0.0
  0
LINE
  5
100
330
1F
100
AcDbEntity
  8
OBJECT
  6
SLD-Solid
370
    25
100
AcDbLine
 10
40.5237522055
 20
12.9225733986
 30
0.0
 11
40.5237522055
 21
8.9779970643
 31
0.0
  0
POINT
  5
101
330
1F
100
AcDbEntity
  8
NOT_SHOWN
100
AcDbPoint
 10
40.2737522055
 20
8.6279970643
 30
0.0
  0
DIMENSION
  5
102
330
1F
100
AcDbEntity
  8
DIMS
100
AcDbDimension
  2
_D_3
 10
36.4953199717
 20
16.2557776902
 30
0.0
 11
36.4953199717
 21
12.293891698
 31
0.0
 70
   160
  1
<>
 71
     2
 42
-1.0
  3
SLDDIMSTYLE4
100
AcDbAlignedDimension
 13
40.2737522055
 23
8.6279970643
 33
0.0
 14
39.1056357898
 24
16.2557776902
 34
0.0
 50
90.0
100
AcDbRotatedDimension
  0
DIMENSION
  5
112
330
1F
100
AcDbEntity
  8
DIMS
100
AcDbDimension
  2
_D_4
 10
38.6213042237
 20
8.6279970643
 30
0.0
 11
38.6213042237
 21
10.3352469308
 31
0.0
 70
   160
  1
<>
 71
     2
 42
-1.0
  3
SLDDIMSTYLE1
100
AcDbAlignedDimension
 13
39.4640970843
 23
9.4340987948
 33
0.0
 14
40.2737522055
 24
8.6279970643
 34
0.0
 50
90.0
100
AcDbRotatedDimension
  0
DIMENSION
  5
121
330
1F
100
AcDbEntity
  8
DIMS
100
AcDbDimension
  2
_D_5
 10
40.6237522055
 20
16.6494784776
 30
0.0
 11
39.8958566761
 21
16.6494784776
 31
0.0
 70
   160
  1
<>
 71
     2
 42
-1.0
  3
SLDDIMSTYLE1
100
AcDbAlignedDimension
 13
39.0150050111
 23
16.213515864
 33
0.0
 14
40.6237522055
 24
12.9225733986
 34
0.0
100
AcDbRotatedDimension
  0
DIMENSION
  5
130
330
1F
100
AcDbEntity
  8
DIMS
100
AcDbDimension
  2
_D_6
 10
40.6237522055
 20
8.2342962769
 30
0.0
 11
41.7166468551
 21
8.2342962769
 31
0.0
 70
   160
  1
<>
 71
     2
 42
-1.0
  3
SLDDIMSTYLE4
100
AcDbAlignedDimension
 13
39.3933864062
 23
9.3633881167
 33
0.0
 14
40.6237522055
 24
8.9779970643
 34
0.0
100
AcDbRotatedDimension
  0
MTEXT
  5
13F
330
1F
100
AcDbEntity
  8
NOTES
100
AcDbMText
 10
38.9849805084
 20
7.2800309977
 30
0.0
 40
0.5
 41
0.0
 71
     1
 72
     1
  1
Side view
  7
SLDTEXTSTYLE1
 73
     1
 44
1.0
  0
LINE
  5
140
330
1F
100
AcDbEntity
  8
OBJECT
  6
SLD-Solid
370
    25
100
AcDbLine
 10
28.8377320199
 20
20.1085776552
 30
0.0
 11
28.8377320199
 21
18.8345626449
 31
0.0
  0
LINE
  5
141
330
1F
100
AcDbEntity
  8
OBJECT
  6
SLD-Solid
370
    25
100
AcDbLine
 10
29.8377320199
 20
18.8345626449
 30
0.0
 11
29.8377320199
 21
20.1085776552
 31
0.0
  0
LWPOLYLINE
  5
142
330
1F
100
AcDbEntity
  8
OBJECT
  6
SLD-Solid
370
    25
100
AcDbPolyline
 90
       16
 70
   128
 43
0.0
 10
29.3377320199
 20
18.6232535141
 10
29.3899962515
 20
18.6244110876
 10
29.4416878653
 20
18.6278711256
 10
29.4922405171
 20
18.6335957191
 10
29.5411003414
 20
18.6415221483
 10
29.5877320199
 20
18.6515635696
 10
29.631624646
 20
18.663609967
 10
29.6722973231
 20
18.6775293578
 10
29.7093044326
 20
18.6931692381
 10
29.7422405171
 20
18.7103582541
 10
29.7707447218
 20
18.7289080795
 10
29.7945047487
 20
18.7486154784
 10
29.813260278
 20
18.7692645324
 10
29.8268058202
 20
18.7906290063
 10
29.8349929676
 20
18.8124748262
 10
29.8377320199
 20
18.8345626449
  0
LWPOLYLINE
  5
143
330
1F
100
AcDbEntity
  8
OBJECT
  6
SLD-Solid
370
    25
100
AcDbPolyline
 90
       16
 70
   128
 43
0.0
 10
28.8377320199
 20
18.8345626449
 10
28.8404710722
 20
18.8124748262
 10
28.8486582195
 20
18.7906290063
 10
28.8622037617
 20
18.7692645324
 10
28.8809592911
 20
18.7486154784
 10
28.904719318
 20
18.7289080795
 10
28.9332235227
 20
18.7103582541
 10
28.9661596071
 20
18.6931692381
 10
29.0031667167
 20
18.6775293578
 10
29.0438393937
 20
18.663609967
 10
29.0877320199
 20
18.6515635696
 10
29.1343636983
 20
18.6415221483
 10
29.1832235227
 20
18.6335957191
 10
29.2337761745
 20
18.6278711256
 10
29.2854677882
 20
18.6244110876
 10
29.3377320199
 20
18.6232535141
  0
LINE
  5
144
330
1F
100
AcDbEntity
  8
OBJECT
  6
SLD-Solid
370
    25
100
AcDbLine
 10
29.8377320199
 20
18.8345626449
 30
0.0
 11
29.8377320199
 21
18.7439318662
 31
0.0
  0
LWPOLYLINE
  5
145
330
1F
100
AcDbEntity
  8
OBJECT
  6
SLD-Solid
370
    25
100
AcDbPolyline
 90
       16
 70
   128
 43
0.0
 10
29.8377320199
 20
18.7439318662
 10
29.8349929676
 20
18.7218440475
 10
29.8268058202
 20
18.6999982276
 10
29.813260278
 20
18.6786337537
 10
29.7945047487
 20
18.6579846997
 10
29.7707447218
 20
18.6382773008
 10
29.7422405171
 20
18.6197274754
 10
29.7093044326
 20
18.6025384594
 10
29.6722973231
 20
18.5868985791
 10
29.631624646
 20
18.5729791883
 10
29.5877320199
 20
18.5609327909
 10
29.5411003414
 20
18.5508913696
 10
29.4922405171
 20
18.5429649404
 10
29.4416878653
 20
18.5372403469
 10
29.3899962515
 20
18.5337803089
 10
29.3377320199
 20
18.5326227354
  0
LWPOLYLINE
  5
146
330
1F
100
AcDbEntity
  8
OBJECT
  6
SLD-Solid
370
    25
100
AcDbPolyline
 90
       16
 70
   128
 43
0.0
 10
29.3377320199
 20
18.5326227354
 10
29.2854677882
 20
18.5337803089
 10
29.2337761745
 20
18.5372403469
 10
29.1832235227
 20
18.5429649404
 10
29.1343636983
 20
18.5508913696
 10
29.0877320199
 20
18.5609327909
 10
29.0438393937
 20
18.5729791883
 10
29.0031667167
 20
18.5868985791
 10
28.9661596071
 20
18.6025384594
 10
28.9332235227
 20
18.6197274754
 10
28.904719318
 20
18.6382773008
 10
28.880959291
 20
18.6579846997
 10
28.8622037617
 20
18.6786337537
 10
28.8486582195
 20
18.6999982276
 10
28.8404710722
 20
18.7218440475
 10
28.8377320199
 20
18.7439318662
  0
LINE
  5
147
330
1F
100
AcDbEntity
  8
OBJECT
  6
SLD-Solid
370
    25
100
AcDbLine
 10
28.8377320199
 20
18.7439318662
 30
0.0
 11
28.8377320199
 21
18.8345626449
 31
0.0
  0
LINE
  5
148
330
1F
100
AcDbEntity
  8
OBJECT
  6
SLD-Solid
370
    25
100
AcDbLine
 10
29.8377320199
 20
20.1413699298
 30
0.0
 11
29.8377320199
 21
20.1085776552
 31
0.0
  0
LINE
  5
149
330
1F
100
AcDbEntity
  8
OBJECT
  6
SLD-Solid
370
    25
100
AcDbLine
 10
28.8377320199
 20
20.1085776552
 30
0.0
 11
28.8377320199
 21
20.1413699298
 31
0.0
  0
LINE
  5
14A
330
1F
100
AcDbEntity
  8
OBJECT
  6
SLD-Solid
370
    25
100
AcDbLine
 10
28.8377320199
 20
20.1413699298
 30
0.0
 11
29.8377320199
 21
20.1413699298
 31
0.0
  0
MTEXT
  5
14B
330
1F
100
AcDbEntity
  8
NOTES
100
AcDbMText
 10
28.2378470648
 20
18.220794166
 30
0.0
 40
0.5
 41
0.0
 71
     1
 72
     1
  1
Top view
  7
SLDTEXTSTYLE1
 73
     1
 44
1.0
  0
LINE
  5
14C
330
1F
100
AcDbEntity
  8
OBJECT
  6
SLD-Solid
370
    25
100
AcDbLine
 10
43.1154479429
 20
15.2742418249
 30
0.0
 11
43.0513623047
 21
15.2027374676
 31
0.0
  0
LINE
  5
14D
330
1F
100
AcDbEntity
  8
OBJECT
  6
SLD-Solid
370
    25
100
AcDbLine
 10
43.4088284557
 20
9.9060707041
 30
0.0
 11
43.3588284557
 21
9.819468164
 31
0.0
  0
LINE
  5
14E
330
1F
100
AcDbEntity
  8
OBJECT
  6
SLD-Solid
370
    25
100
AcDbLine
 10
43.841342255
 20
14.7364299857
 30
0.0
 11
43.7772566168
 21
14.6649256284
 31
0.0
  0
ARC
  5
14F
330
1F
100
AcDbEntity
  8
OBJECT
  6
SLD-Solid
370
    25
100
AcDbCircle
 10
42.5324016074
 20
13.8847255867
 30
0.0
 40
1.469141279658397
100
AcDbArc
 50
32.0770049031
 51
59.6701317841
  0
ARC
  5
150
330
1F
100
AcDbEntity
  8
OBJECT
  6
SLD-Solid
370
    25
100
AcDbCircle
 10
42.6120350293
 20
13.972259209
 30
0.0
 40
1.447464414487473
100
AcDbArc
 50
31.8662071515
 51
59.8809295358
  0
LINE
  5
151
330
1F
100
AcDbEntity
  8
OBJECT
  6
SLD-Solid
370
    25
100
AcDbLine
 10
44.6781212699
 20
12.9540848031
 30
0.0
 11
43.9710144887
 21
13.362288859
 31
0.0
  0
LINE
  5
152
330
1F
100
AcDbEntity
  8
OBJECT
  6
SLD-Solid
370
    25
100
AcDbLine
 10
43.9710144887
 20
13.362288859
 30
0.0
 11
43.0701498356
 21
15.0731296843
 31
0.0
  0
LWPOLYLINE
  5
153
330
1F
100
AcDbEntity
  8
OBJECT
  6
SLD-Solid
370
    25
100
AcDbPolyline
 90
       16
 70
   128
 43
0.0
 10
43.2742851069
 20
15.1527890602
 10
43.2381472423
 20
15.1725690568
 10
43.204042368
 20
15.1890233904
 10
43.172344144
 20
15.2019717837
 10
43.1433998627
 20
15.2112723715
 10
43.1175266438
 20
15.2168232546
 10
43.0950079595
 20
15.2185636164
 10
43.0760905294
 20
15.216474389
 10
43.0609816167
 20
15.2105784625
 10
43.0498467578
 20
15.2009404339
 10
43.0428079487
 20
15.1876658994
 10
43.0399423079
 20
15.1709002977
 10
43.0412812321
 20
15.1508273161
 10
43.0468100516
 20
15.1276668785
 10
43.0564681917
 20
15.1016727355
 10
43.0701498356
 20
15.0731296843
  0
LINE
  5
154
330
1F
100
AcDbEntity
  8
OBJECT
  6
SLD-Solid
370
    25
100
AcDbLine
 10
43.7772566168
 20
14.6649256284
 30
0.0
 11
44.6781212699
 21
12.9540848031
 31
0.0
  0
LWPOLYLINE
  5
155
330
1F
100
AcDbEntity
  8
OBJECT
  6
SLD-Solid
370
    25
100
AcDbPolyline
 90
       10
 70
   128
 43
0.0
 10
43.1154479429
 20
15.2742418249
 10
43.1250672549
 20
15.2820828198
 10
43.1401761676
 20
15.2879787463
 10
43.1590935977
 20
15.2900679737
 10
43.181612282
 20
15.288327612
 10
43.2074855009
 20
15.2827767289
 10
43.2364297822
 20
15.2734761411
 10
43.2681280062
 20
15.2605277477
 10
43.3022328805
 20
15.2440734141
 10
43.3383707451
 20
15.2242934175
  0
LINE
  5
156
330
1F
100
AcDbEntity
  8
OBJECT
  6
SLD-Solid
370
    25
100
AcDbLine
 10
43.841342255
 20
14.7364299857
 30
0.0
 11
44.7422069081
 21
13.0255891604
 31
0.0
  0
ARC
  5
157
330
1F
100
AcDbEntity
  8
OBJECT
  6
SLD-Solid
370
    25
100
AcDbCircle
 10
44.5343936861
 20
12.924519585
 30
0.0
 40
0.2310874170521173
100
AcDbArc
 50
358.4317692119
 51
25.9358857658
  0
ARC
  5
158
330
1F
100
AcDbEntity
  8
OBJECT
  6
SLD-Solid
370
    25
100
AcDbCircle
 10
44.5296832542
 20
12.8818922492
 30
0.0
 40
0.165062440751596
100
AcDbArc
 50
358.4317692119
 51
25.9358857658
  0
ARC
  5
159
330
1F
100
AcDbEntity
  8
OBJECT
  6
SLD-Solid
370
    25
100
AcDbCircle
 10
43.822576473
 20
13.2900963051
 30
0.0
 40
0.1650624407514052
100
AcDbArc
 50
358.4317692119
 51
25.9358857658
  0
LINE
  5
15A
330
1F
100
AcDbEntity
  8
OBJECT
  6
SLD-Solid
370
    25
100
AcDbLine
 10
44.6946838697
 20
9.6564673612
 30
0.0
 11
43.9875770885
 21
10.0646714171
 31
0.0
  0
LINE
  5
15B
330
1F
100
AcDbEntity
  8
OBJECT
  6
SLD-Solid
370
    25
100
AcDbLine
 10
43.9875770885
 20
10.0646714171
 30
0.0
 11
43.9875770885
 21
13.2855789797
 31
0.0
  0
LINE
  5
15C
330
1F
100
AcDbEntity
  8
OBJECT
  6
SLD-Solid
370
    25
100
AcDbLine
 10
44.6946838697
 20
12.8773749238
 30
0.0
 11
44.6946838697
 21
9.6564673612
 31
0.0
  0
LWPOLYLINE
  5
15D
330
1F
100
AcDbEntity
  8
OBJECT
  6
SLD-Solid
370
    25
100
AcDbPolyline
 90
       27
 70
   128
 43
0.0
 10
44.4100733903
 20
12.7150607315
 10
44.4080700346
 20
12.7352698173
 10
44.4021763952
 20
12.7566174497
 10
44.3927349891
 20
12.777862982
 10
44.3802945165
 20
12.797771701
 10
44.3655779723
 20
12.8151865844
 10
44.3494406288
 20
12.8290955424
 10
44.3328203295
 20
12.838690237
 10
44.3166829859
 20
12.8434130593
 10
44.3019664417
 20
12.8429895361
 10
44.2895259691
 20
12.8374442811
 10
44.280084563
 20
12.8270995642
 10
44.2741909237
 20
12.8125565829
 10
44.272187568
 20
12.7946605224
 10
44.2741909237
 20
12.7744514366
 10
44.280084563
 20
12.7531038042
 10
44.2895259691
 20
12.7318582719
 10
44.3019664417
 20
12.7119495529
 10
44.3166829859
 20
12.6945346695
 10
44.3328203295
 20
12.6806257115
 10
44.3494406288
 20
12.671031017
 10
44.3655779723
 20
12.6663081946
 10
44.3802945165
 20
12.6667317178
 10
44.3927349891
 20
12.6722769728
 10
44.4021763952
 20
12.6826216897
 10
44.4080700346
 20
12.697164671
 10
44.4100733903
 20
12.7150607315
  0
LWPOLYLINE
  5
15E
330
1F
100
AcDbEntity
  8
OBJECT
  6
SLD-Solid
370
    25
100
AcDbPolyline
 90
       27
 70
   128
 43
0.0
 10
44.4100733903
 20
10.6737087018
 10
44.4080700346
 20
10.6939177876
 10
44.4021763952
 20
10.71526542
 10
44.3927349891
 20
10.7365109523
 10
44.3802945165
 20
10.7564196713
 10
44.3655779723
 20
10.7738345547
 10
44.3494406288
 20
10.7877435127
 10
44.3328203295
 20
10.7973382072
 10
44.3166829859
 20
10.8020610296
 10
44.3019664417
 20
10.8016375064
 10
44.2895259691
 20
10.7960922514
 10
44.280084563
 20
10.7857475345
 10
44.2741909237
 20
10.7712045532
 10
44.272187568
 20
10.7533084927
 10
44.2741909237
 20
10.7330994069
 10
44.280084563
 20
10.7117517745
 10
44.2895259691
 20
10.6905062422
 10
44.3019664417
 20
10.6705975232
 10
44.3166829859
 20
10.6531826398
 10
44.3328203295
 20
10.6392736818
 10
44.3494406288
 20
10.6296789872
 10
44.3655779723
 20
10.6249561649
 10
44.3802945165
 20
10.6253796881
 10
44.3927349891
 20
10.6309249431
 10
44.4021763952
 20
10.64126966
 10
44.4080700346
 20
10.6558126413
 10
44.4100733903
 20
10.6737087018
  0
LINE
  5
15F
330
1F
100
AcDbEntity
  8
OBJECT
  6
SLD-Solid
370
    25
100
AcDbLine
 10
44.7653945478
 20
12.9181953294
 30
0.0
 11
44.7653945478
 21
9.6972877668
 31
0.0
  0
ARC
  5
160
330
1F
100
AcDbEntity
  8
OBJECT
  6
SLD-Solid
370
    25
100
AcDbCircle
 10
44.4914762617
 20
12.8416533998
 30
0.0
 40
0.1487834339766713
100
AcDbArc
 50
183.175068633
 51
236.8195548343
  0
LWPOLYLINE
  5
161
330
1F
100
AcDbEntity
  8
OBJECT
  6
SLD-Solid
370
    25
100
AcDbPolyline
 90
       16
 70
   128
 43
0.0
 10
43.5918411572
 20
9.8004395482
 10
43.630167076
 20
9.7783142092
 10
43.6708121403
 20
9.7548495448
 10
43.7133310343
 20
9.7303026388
 10
43.7572579121
 20
9.7049424321
 10
43.8021115016
 20
9.6790467765
 10
43.8474003775
 20
9.6528993903
 10
43.8926283455
 20
9.6267867497
 10
43.9372998784
 20
9.6009949502
 10
43.9809255456
 20
9.5758065721
 10
44.0230273751
 20
9.5514975847
 10
44.0631440905
 20
9.5283343223
 10
44.1008361646
 20
9.5065705664
 10
44.1356906353
 20
9.4864447652
 10
44.1673256295
 20
9.4681774214
 10
44.1953945478
 20
9.4519686756
  0
LWPOLYLINE
  5
162
330
1F
100
AcDbEntity
  8
OBJECT
  6
SLD-Solid
370
    25
100
AcDbPolyline
 90
       16
 70
   128
 43
0.0
 10
44.1453945478
 20
9.3653661355
 10
44.1173256295
 20
9.3815748813
 10
44.0856906353
 20
9.3998422251
 10
44.0508361646
 20
9.4199680262
 10
44.0131440905
 20
9.4417317821
 10
43.9730273751
 20
9.4648950446
 10
43.9309255456
 20
9.489204032
 10
43.8872998784
 20
9.51439241
 10
43.8426283455
 20
9.5401842096
 10
43.7974003775
 20
9.5662968502
 10
43.7521115016
 20
9.5924442364
 10
43.7072579121
 20
9.618339892
 10
43.6633310343
 20
9.6437000986
 10
43.6208121403
 20
9.6682470047
 10
43.580167076
 20
9.6917116691
 10
43.5418411572
 20
9.7138370081
  0
LINE
  5
163
330
1F
100
AcDbEntity
  8
OBJECT
  6
SLD-Solid
370
    25
100
AcDbLine
 10
44.3429071744
 20
9.2513074568
 30
0.0
 11
44.1453945478
 21
9.3653661355
 31
0.0
  0
LINE
  5
164
330
1F
100
AcDbEntity
  8
OBJECT
  6
SLD-Solid
370
    25
100
AcDbLine
 10
44.3429071744
 20
9.2513074568
 30
0.0
 11
43.6358003932
 21
9.6595115127
 31
0.0
  0
LINE
  5
165
330
1F
100
AcDbEntity
  8
OBJECT
  6
SLD-Solid
370
    25
100
AcDbLine
 10
43.4382877666
 20
9.7735701914
 30
0.0
 11
43.6358003932
 21
9.6595115127
 31
0.0
  0
LWPOLYLINE
  5
166
330
1F
100
AcDbEntity
  8
OBJECT
  6
SLD-Solid
370
    25
100
AcDbPolyline
 90
       16
 70
   128
 43
0.0
 10
43.5418411572
 20
9.7138370081
 10
43.5062542908
 20
9.7343806117
 10
43.4737963738
 20
9.7531174002
 10
43.4448230221
 20
9.7698420891
 10
43.4196516736
 20
9.7843714394
 10
43.398558111
 20
9.7965462644
 10
43.3817734398
 20
9.8062331742
 10
43.3694815562
 20
9.813326037
 10
43.3618171329
 20
9.8177471419
 10
43.3588641428
 20
9.8194480504
 10
43.3606549394
 20
9.8184101269
 10
43.3671699025
 20
9.8146447432
 10
43.3783376527
 20
9.8081931536
 10
43.3940358338
 20
9.799126043
 10
43.4140924533
 20
9.7875427526
 10
43.4382877666
 20
9.7735701914
  0
LWPOLYLINE
  5
167
330
1F
100
AcDbEntity
  8
OBJECT
  6
SLD-Solid
370
    25
100
AcDbPolyline
 90
       11
 70
   128
 43
0.0
 10
43.4088284557
 20
9.9060707041
 10
43.4088641428
 20
9.9060505905
 10
43.4118171329
 20
9.9043496821
 10
43.4194815562
 20
9.8999285771
 10
43.4317734398
 20
9.8928357143
 10
43.448558111
 20
9.8831488045
 10
43.4696516736
 20
9.8709739795
 10
43.4948230221
 20
9.8564446292
 10
43.5237963738
 20
9.8397199403
 10
43.5562542908
 20
9.8209831519
 10
43.5918411572
 20
9.8004395482
  0
LINE
  5
168
330
1F
100
AcDbEntity
  8
OBJECT
  6
SLD-Solid
370
    25
100
AcDbLine
 10
44.3929071744
 20
9.3379099969
 30
0.0
 11
44.3429071744
 21
9.2513074568
 31
0.0
  0
LINE
  5
169
330
1F
100
AcDbEntity
  8
OBJECT
  6
SLD-Solid
370
    25
100
AcDbLine
 10
44.3929071744
 20
9.3379099969
 30
0.0
 11
44.1953945478
 21
9.4519686756
 31
0.0
  0
ARC
  5
16A
330
1F
100
AcDbEntity
  8
OBJECT
  6
SLD-Solid
370
    25
100
AcDbCircle
 10
44.4914762617
 20
10.8003013701
 30
0.0
 40
0.1487834339766419
100
AcDbArc
 50
183.175068633
 51
236.8195548343
  0
LWPOLYLINE
  5
16B
330
1F
100
AcDbEntity
  8
OBJECT
  6
SLD-Solid
370
    25
100
AcDbPolyline
 90
       20
 70
   128
 43
0.0
 10
44.3429071744
 20
9.2513074568
 10
44.3658972834
 20
9.2411350037
 10
44.3912220881
 20
9.2357741889
 10
44.4184926289
 20
9.2353073482
 10
44.4472900617
 20
9.2397416517
 10
44.4771720916
 20
9.2490089936
 10
44.5076797651
 20
9.2629670384
 10
44.5383445197
 20
9.2814014066
 10
44.5686953804
 20
9.3040289678
 10
44.5982661932
 20
9.3305021888
 10
44.6266027846
 20
9.3604144717
 10
44.6532699375
 20
9.3933063984
 10
44.6778580752
 20
9.4286727872
 10
44.6999895526
 20
9.4659704512
 10
44.7193244558
 20
9.5046265416
 10
44.7355658231
 20
9.5440473457
 10
44.7484642059
 20
9.5836274057
 10
44.7578215
 20
9.6227588177
 10
44.7634939883
 20
9.6608405685
 10
44.7653945478
 20
9.6972877668
  0
LWPOLYLINE
  5
16C
330
1F
100
AcDbEntity
  8
OBJECT
  6
SLD-Solid
370
    25
100
AcDbPolyline
 90
       17
 70
   128
 43
0.0
 10
44.3929071744
 20
9.3379099969
 10
44.41260142
 20
9.3296616967
 10
44.4345752171
 20
9.3262786559
 10
44.4583528995
 20
9.3278341072
 10
44.483419752
 20
9.3342943797
 10
44.5092331531
 20
9.3455196281
 10
44.5352343206
 20
9.3612668596
 10
44.5608604076
 20
9.3811951942
 10
44.5855566869
 20
9.4048732436
 10
44.6087885586
 20
9.4317884496
 10
44.6300531227
 20
9.4613581793
 10
44.6488900657
 20
9.4929423373
 10
44.6648916247
 20
9.5258572219
 10
44.6777114142
 20
9.5593903254
 10
44.6870719246
 20
9.5928157573
 10
44.6927705289
 20
9.6254099579
 10
44.6946838697
 20
9.6564673612
  0
LWPOLYLINE
  5
16D
330
1F
100
AcDbEntity
  8
OBJECT
  6
SLD-Solid
370
    25
100
AcDbPolyline
 90
       17
 70
   128
 43
0.0
 10
43.9875770885
 20
10.0646714171
 10
43.9856637477
 20
10.0336140138
 10
43.9799651434
 20
10.0010198132
 10
43.9706046331
 20
9.9675943813
 10
43.9577848435
 20
9.9340612779
 10
43.9417832845
 20
9.9011463932
 10
43.9229463415
 20
9.8695622352
 10
43.9016817774
 20
9.8399925055
 10
43.8784499057
 20
9.8130772995
 10
43.8537536265
 20
9.7893992501
 10
43.8281275394
 20
9.7694709155
 10
43.8021263719
 20
9.753723684
 10
43.7763129708
 20
9.7424984356
 10
43.7512461183
 20
9.7360381631
 10
43.7274684359
 20
9.7344827118
 10
43.7054946388
 20
9.7378657526
 10
43.6888343123
 20
9.7444450812
  0
ENDSEC
  0
SECTION
  2
OBJECTS
  0
DICTIONARY
  5
C
330
0
100
AcDbDictionary
281
     1
  3
ACAD_GROUP
350
D
  3
ACAD_LAYOUT
350
1A
  3
ACAD_MLINESTYLE
350
17
  3
ACAD_PLOTSETTINGS
350
19
  3
ACAD_PLOTSTYLENAME
350
E
  3
ACAD_SCALELIST
350
47
  3
DWGPROPS
350
16E
  0
DICTIONARY
  5
D
102
{ACAD_REACTORS
330
C
102
}
330
C
100
AcDbDictionary
281
     1
  0
DICTIONARY
  5
1A
102
{ACAD_REACTORS
330
C
102
}
330
C
100
AcDbDictionary
281
     1
  3
Layout1
350
1E
  3
Layout2
350
26
  3
Model
350
22
  0
DICTIONARY
  5
17
102
{ACAD_REACTORS
330
C
102
}
330
C
100
AcDbDictionary
281
     1
  3
Standard
350
18
  0
DICTIONARY
  5
19
102
{ACAD_REACTORS
330
C
102
}
330
C
100
AcDbDictionary
281
     1
  0
ACDBDICTIONARYWDFLT
  5
E
102
{ACAD_REACTORS
330
C
102
}
330
C
100
AcDbDictionary
281
     1
  3
Normal
350
F
100
AcDbDictionaryWithDefault
340
F
  0
DICTIONARY
  5
47
102
{ACAD_REACTORS
330
C
102
}
330
C
100
AcDbDictionary
281
     1
  3
A0
350
48
  3
A1
350
49
  3
A2
350
4A
  3
A3
350
4B
  3
A4
350
4C
  3
A5
350
4D
  3
A6
350
4E
  3
A7
350
4F
  3
A8
350
50
  3
A9
350
51
  3
B0
350
52
  3
B1
350
53
  3
B2
350
54
  3
B3
350
55
  3
B4
350
56
  3
B5
350
57
  3
B6
350
58
  3
B7
350
59
  3
B8
350
5A
  3
B9
350
5B
  3
C0
350
5C
  3
C1
350
5D
  3
C2
350
5E
  3
C3
350
5F
  3
C4
350
60
  3
C5
350
61
  3
C6
350
62
  3
C7
350
63
  3
C8
350
64
  3
C9
350
65
  3
D0
350
66
  3
D1
350
67
  3
D2
350
68
  0
XRECORD
  5
16E
102
{ACAD_REACTORS
330
C
102
}
330
C
100
AcDbXrecord
280
     1
  1
DWGPROPS COOKIE
  2

  3

  4

  6

  7

  8
carl
  9

300
=
301
=
302
=
303
=
304
=
305
=
306
=
307
=
308
=
309
=
 40
0.0
 41
2459311.63252735
 42
2459311.632529664
  1

 90
        0
  0
LAYOUT
  5
1E
102
{ACAD_REACTORS
330
1A
102
}
330
1A
100
AcDbPlotSettings
  1

  2
none_device
  4

  6

 40
0.0
 41
0.0
 42
0.0
 43
0.0
 44
0.0
 45
0.0
 46
0.0
 47
0.0
 48
0.0
 49
0.0
140
0.0
141
0.0
142
1.0
143
1.0
 70
   688
 72
     0
 73
     0
 74
     5
  7

 75
    16
147
1.0
148
0.0
149
0.0
100
AcDbLayout
  1
Layout1
 70
     1
 71
     1
 10
0.0
 20
0.0
 11
12.0
 21
9.0
 12
0.0
 22
0.0
 32
0.0
 14
1.0000000000E+20
 24
1.0000000000E+20
 34
1.0000000000E+20
 15
-1.0000000000E+20
 25
-1.0000000000E+20
 35
-1.0000000000E+20
146
0.0
 13
0.0
 23
0.0
 33
0.0
 16
1.0
 26
0.0
 36
0.0
 17
0.0
 27
1.0
 37
0.0
 76
     0
330
1B
  0
LAYOUT
  5
26
102
{ACAD_REACTORS
330
1A
102
}
330
1A
100
AcDbPlotSettings
  1

  2
none_device
  4

  6

 40
0.0
 41
0.0
 42
0.0
 43
0.0
 44
0.0
 45
0.0
 46
0.0
 47
0.0
 48
0.0
 49
0.0
140
0.0
141
0.0
142
1.0
143
1.0
 70
   688
 72
     0
 73
     0
 74
     5
  7

 75
    16
147
1.0
148
0.0
149
0.0
100
AcDbLayout
  1
Layout2
 70
     1
 71
     2
 10
0.0
 20
0.0
 11
0.0
 21
0.0
 12
0.0
 22
0.0
 32
0.0
 14
0.0
 24
0.0
 34
0.0
 15
0.0
 25
0.0
 35
0.0
146
0.0
 13
0.0
 23
0.0
 33
0.0
 16
1.0
 26
0.0
 36
0.0
 17
0.0
 27
1.0
 37
0.0
 76
     0
330
23
  0
LAYOUT
  5
22
102
{ACAD_REACTORS
330
1A
102
}
330
1A
100
AcDbPlotSettings
  1

  2
none_device
  4
Letter_(8.50_x_11.00_Inches)
  6

 40
6.35
 41
6.35
 42
6.35000508
 43
6.35000508
 44
215.9
 45
279.4
 46
0.0
 47
0.0
 48
0.0
 49
0.0
140
0.0
141
0.0
142
1.0
143
1.0
 70
  1712
 72
     0
 73
     0
 74
     0
  7

 75
     0
147
1.0
148
0.0
149
0.0
100
AcDbLayout
  1
Model
 70
     1
 71
     0
 10
0.0
 20
0.0
 11
46.811023622
 21
33.1102362205
 12
0.0
 22
0.0
 32
0.0
 14
0.0
 24
0.0
 34
0.0
 15
46.811023622
 25
33.1102362205
 35
0.0
146
0.0
 13
0.0
 23
0.0
 33
0.0
 16
1.0
 26
0.0
 36
0.0
 17
0.0
 27
1.0
 37
0.0
 76
     0
330
1F
331
29
  0
MLINESTYLE
  5
18
102
{ACAD_REACTORS
330
17
102
}
330
17
100
AcDbMlineStyle
  2
Standard
 70
     0
  3

 62
   256
 51
90.0
 52
90.0
 71
     2
 49
0.5
 62
   256
  6
BYLAYER
 49
-0.5
 62
   256
  6
BYLAYER
  0
ACDBPLACEHOLDER
  5
F
102
{ACAD_REACTORS
330
E
102
}
330
E
  0
SCALE
  5
48
102
{ACAD_REACTORS
330
47
102
}
330
47
100
AcDbScale
 70
     0
300
1:1
140
1.0
141
1.0
290
     1
  0
SCALE
  5
49
102
{ACAD_REACTORS
330
47
102
}
330
47
100
AcDbScale
 70
     0
300
1:2
140
1.0
141
2.0
290
     0
  0
SCALE
  5
4A
102
{ACAD_REACTORS
330
47
102
}
330
47
100
AcDbScale
 70
     0
300
1:4
140
1.0
141
4.0
290
     0
  0
SCALE
  5
4B
102
{ACAD_REACTORS
330
47
102
}
330
47
100
AcDbScale
 70
     0
300
1:5
140
1.0
141
5.0
290
     0
  0
SCALE
  5
4C
102
{ACAD_REACTORS
330
47
102
}
330
47
100
AcDbScale
 70
     0
300
1:8
140
1.0
141
8.0
290
     0
  0
SCALE
  5
4D
102
{ACAD_REACTORS
330
47
102
}
330
47
100
AcDbScale
 70
     0
300
1:10
140
1.0
141
10.0
290
     0
  0
SCALE
  5
4E
102
{ACAD_REACTORS
330
47
102
}
330
47
100
AcDbScale
 70
     0
300
1:16
140
1.0
141
16.0
290
     0
  0
SCALE
  5
4F
102
{ACAD_REACTORS
330
47
102
}
330
47
100
AcDbScale
 70
     0
300
1:20
140
1.0
141
20.0
290
     0
  0
SCALE
  5
50
102
{ACAD_REACTORS
330
47
102
}
330
47
100
AcDbScale
 70
     0
300
1:30
140
1.0
141
30.0
290
     0
  0
SCALE
  5
51
102
{ACAD_REACTORS
330
47
102
}
330
47
100
AcDbScale
 70
     0
300
1:40
140
1.0
141
40.0
290
     0
  0
SCALE
  5
52
102
{ACAD_REACTORS
330
47
102
}
330
47
100
AcDbScale
 70
     0
300
1:50
140
1.0
141
50.0
290
     0
  0
SCALE
  5
53
102
{ACAD_REACTORS
330
47
102
}
330
47
100
AcDbScale
 70
     0
300
1:100
140
1.0
141
100.0
290
     0
  0
SCALE
  5
54
102
{ACAD_REACTORS
330
47
102
}
330
47
100
AcDbScale
 70
     0
300
2:1
140
2.0
141
1.0
290
     0
  0
SCALE
  5
55
102
{ACAD_REACTORS
330
47
102
}
330
47
100
AcDbScale
 70
     0
300
4:1
140
4.0
141
1.0
290
     0
  0
SCALE
  5
56
102
{ACAD_REACTORS
330
47
102
}
330
47
100
AcDbScale
 70
     0
300
8:1
140
8.0
141
1.0
290
     0
  0
SCALE
  5
57
102
{ACAD_REACTORS
330
47
102
}
330
47
100
AcDbScale
 70
     0
300
10:1
140
10.0
141
1.0
290
     0
  0
SCALE
  5
58
102
{ACAD_REACTORS
330
47
102
}
330
47
100
AcDbScale
 70
     0
300
100:1
140
100.0
141
1.0
290
     0
  0
SCALE
  5
59
102
{ACAD_REACTORS
330
47
102
}
330
47
100
AcDbScale
 70
     0
300
1/128" = 1'-0"
140
0.0078125
141
12.0
290
     0
  0
SCALE
  5
5A
102
{ACAD_REACTORS
330
47
102
}
330
47
100
AcDbScale
 70
     0
300
1/64" = 1'-0"
140
0.015625
141
12.0
290
     0
  0
SCALE
  5
5B
102
{ACAD_REACTORS
330
47
102
}
330
47
100
AcDbScale
 70
     0
300
1/32" = 1'-0"
140
0.03125
141
12.0
290
     0
  0
SCALE
  5
5C
102
{ACAD_REACTORS
330
47
102
}
330
47
100
AcDbScale
 70
     0
300
1/16" = 1'-0"
140
0.0625
141
12.0
290
     0
  0
SCALE
  5
5D
102
{ACAD_REACTORS
330
47
102
}
330
47
100
AcDbScale
 70
     0
300
3/32" = 1'-0"
140
0.09375
141
12.0
290
     0
  0
SCALE
  5
5E
102
{ACAD_REACTORS
330
47
102
}
330
47
100
AcDbScale
 70
     0
300
1/8" = 1'-0"
140
0.125
141
12.0
290
     0
  0
SCALE
  5
5F
102
{ACAD_REACTORS
330
47
102
}
330
47
100
AcDbScale
 70
     0
300
3/16" = 1'-0"
140
0.1875
141
12.0
290
     0
  0
SCALE
  5
60
102
{ACAD_REACTORS
330
47
102
}
330
47
100
AcDbScale
 70
     0
300
1/4" = 1'-0"
140
0.25
141
12.0
290
     0
  0
SCALE
  5
61
102
{ACAD_REACTORS
330
47
102
}
330
47
100
AcDbScale
 70
     0
300
3/8" = 1'-0"
140
0.375
141
12.0
290
     0
  0
SCALE
  5
62
102
{ACAD_REACTORS
330
47
102
}
330
47
100
AcDbScale
 70
     0
300
1/2" = 1'-0"
140
0.5
141
12.0
290
     0
  0
SCALE
  5
63
102
{ACAD_REACTORS
330
47
102
}
330
47
100
AcDbScale
 70
     0
300
3/4" = 1'-0"
140
0.75
141
12.0
290
     0
  0
SCALE
  5
64
102
{ACAD_REACTORS
330
47
102
}
330
47
100
AcDbScale
 70
     0
300
1" = 1'-0"
140
1.0
141
12.0
290
     0
  0
SCALE
  5
65
102
{ACAD_REACTORS
330
47
102
}
330
47
100
AcDbScale
 70
     0
300
1-1/2" = 1'-0"
140
1.5
141
12.0
290
     0
  0
SCALE
  5
66
102
{ACAD_REACTORS
330
47
102
}
330
47
100
AcDbScale
 70
     0
300
3" = 1'-0"
140
3.0
141
12.0
290
     0
  0
SCALE
  5
67
102
{ACAD_REACTORS
330
47
102
}
330
47
100
AcDbScale
 70
     0
300
6" = 1'-0"
140
6.0
141
12.0
290
     0
  0
SCALE
  5
68
102
{ACAD_REACTORS
330
47
102
}
330
47
100
AcDbScale
 70
     0
300
1'-0" = 1'-0"
140
12.0
141
12.0
290
     0
  0
ENDSEC
  0
EOF
