  0
SECTION
  2
HEADER
  9
$ACADVER
  1
AC1018
  9
$ACADMAINTVER
 70
    39
  9
$DWGCODEPAGE
  3
ANSI_1252
  9
$LASTSAVEDBY
  1
fottrem
  9
$INSBASE
 10
0.0
 20
0.0
 30
0.0
  9
$EXTMIN
 10
0.4376842629731451
 20
0.3573773641115478
 30
-7.695827986068138
  9
$EXTMAX
 10
46.41568767877938
 20
25.75027715453793
 30
7.695827986068139
  9
$LIMMIN
 10
0.0
 20
0.0
  9
$LIMMAX
 10
46.81102362204724
 20
33.11023622047244
  9
$ORTHOMODE
 70
     0
  9
$REGENMODE
 70
     1
  9
$FILLMODE
 70
     1
  9
$QTEXTMODE
 70
     0
  9
$MIRRTEXT
 70
     1
  9
$LTSCALE
 40
1.0
  9
$ATTMODE
 70
     1
  9
$TEXTSIZE
 40
0.5
  9
$TRACEWID
 40
0.05
  9
$TEXTSTYLE
  7
Standard
  9
$CLAYER
  8
0
  9
$CELTYPE
  6
ByLayer
  9
$CECOLOR
 62
   256
  9
$CELTSCALE
 40
1.0
  9
$DISPSILH
 70
     0
  9
$DIMSCALE
 40
1.0
  9
$DIMASZ
 40
0.5
  9
$DIMEXO
 40
0.1666666666666667
  9
$DIMDLI
 40
0.38
  9
$DIMRND
 40
0.0
  9
$DIMDLE
 40
0.0
  9
$DIMEXE
 40
0.3750000000000001
  9
$DIMTP
 40
0.0
  9
$DIMTM
 40
0.0
  9
$DIMTXT
 40
0.5
  9
$DIMCEN
 40
0.09
  9
$DIMTSZ
 40
0.0
  9
$DIMTOL
 70
     0
  9
$DIMLIM
 70
     0
  9
$DIMTIH
 70
     1
  9
$DIMTOH
 70
     1
  9
$DIMSE1
 70
     0
  9
$DIMSE2
 70
     0
  9
$DIMTAD
 70
     0
  9
$DIMZIN
 70
     1
  9
$DIMBLK
  1

  9
$DIMASO
 70
     1
  9
$DIMSHO
 70
     1
  9
$DIMPOST
  1

  9
$DIMAPOST
  1

  9
$DIMALT
 70
     0
  9
$DIMALTD
 70
     2
  9
$DIMALTF
 40
25.4
  9
$DIMLFAC
 40
1.0
  9
$DIMTOFL
 70
     0
  9
$DIMTVP
 40
0.0
  9
$DIMTIX
 70
     0
  9
$DIMSOXD
 70
     0
  9
$DIMSAH
 70
     0
  9
$DIMBLK1
  1

  9
$DIMBLK2
  1

  9
$DIMSTYLE
  2
Standard
  9
$DIMCLRD
 70
     0
  9
$DIMCLRE
 70
     0
  9
$DIMCLRT
 70
     0
  9
$DIMTFAC
 40
1.0
  9
$DIMGAP
 40
0.125
  9
$DIMJUST
 70
     0
  9
$DIMSD1
 70
     0
  9
$DIMSD2
 70
     0
  9
$DIMTOLJ
 70
     1
  9
$DIMTZIN
 70
     1
  9
$DIMALTZ
 70
     0
  9
$DIMALTTZ
 70
     0
  9
$DIMUPT
 70
     0
  9
$DIMDEC
 70
     2
  9
$DIMTDEC
 70
     2
  9
$DIMALTU
 70
     2
  9
$DIMALTTD
 70
     2
  9
$DIMTXSTY
  7
Standard
  9
$DIMAUNIT
 70
     0
  9
$DIMADEC
 70
     2
  9
$DIMALTRND
 40
0.0
  9
$DIMAZIN
 70
     0
  9
$DIMDSEP
 70
    46
  9
$DIMATFIT
 70
     3
  9
$DIMFRAC
 70
     0
  9
$DIMLDRBLK
  1

  9
$DIMLUNIT
 70
     2
  9
$DIMLWD
 70
    -2
  9
$DIMLWE
 70
    -2
  9
$DIMTMOVE
 70
     0
  9
$LUNITS
 70
     2
  9
$LUPREC
 70
     2
  9
$SKETCHINC
 40
0.1
  9
$FILLETRAD
 40
0.5
  9
$AUNITS
 70
     0
  9
$AUPREC
 70
     2
  9
$MENU
  1
.
  9
$ELEVATION
 40
0.0
  9
$PELEVATION
 40
0.0
  9
$THICKNESS
 40
0.0
  9
$LIMCHECK
 70
     0
  9
$CHAMFERA
 40
0.0
  9
$CHAMFERB
 40
0.0
  9
$CHAMFERC
 40
0.0
  9
$CHAMFERD
 40
0.0
  9
$SKPOLY
 70
     0
  9
$TDCREATE
 40
2453353.550459155
  9
$TDUCREATE
 40
2453353.717125822
  9
$TDUPDATE
 40
2459488.465985683
  9
$TDUUPDATE
 40
2459488.632652349
  9
$TDINDWG
 40
0.0430092708
  9
$TDUSRTIMER
 40
0.0430092708
  9
$USRTIMER
 70
     1
  9
$ANGBASE
 50
0.0
  9
$ANGDIR
 70
     0
  9
$PDMODE
 70
     0
  9
$PDSIZE
 40
-1.0
  9
$PLINEWID
 40
0.0
  9
$SPLFRAME
 70
     0
  9
$SPLINETYPE
 70
     6
  9
$SPLINESEGS
 70
     8
  9
$HANDSEED
  5
5C5
  9
$SURFTAB1
 70
     6
  9
$SURFTAB2
 70
     6
  9
$SURFTYPE
 70
     6
  9
$SURFU
 70
     6
  9
$SURFV
 70
     6
  9
$UCSBASE
  2

  9
$UCSNAME
  2

  9
$UCSORG
 10
0.0
 20
0.0
 30
0.0
  9
$UCSXDIR
 10
1.0
 20
0.0
 30
0.0
  9
$UCSYDIR
 10
0.0
 20
1.0
 30
0.0
  9
$UCSORTHOREF
  2

  9
$UCSORTHOVIEW
 70
     0
  9
$UCSORGTOP
 10
0.0
 20
0.0
 30
0.0
  9
$UCSORGBOTTOM
 10
0.0
 20
0.0
 30
0.0
  9
$UCSORGLEFT
 10
0.0
 20
0.0
 30
0.0
  9
$UCSORGRIGHT
 10
0.0
 20
0.0
 30
0.0
  9
$UCSORGFRONT
 10
0.0
 20
0.0
 30
0.0
  9
$UCSORGBACK
 10
0.0
 20
0.0
 30
0.0
  9
$PUCSBASE
  2

  9
$PUCSNAME
  2

  9
$PUCSORG
 10
0.0
 20
0.0
 30
0.0
  9
$PUCSXDIR
 10
1.0
 20
0.0
 30
0.0
  9
$PUCSYDIR
 10
0.0
 20
1.0
 30
0.0
  9
$PUCSORTHOREF
  2

  9
$PUCSORTHOVIEW
 70
     0
  9
$PUCSORGTOP
 10
0.0
 20
0.0
 30
0.0
  9
$PUCSORGBOTTOM
 10
0.0
 20
0.0
 30
0.0
  9
$PUCSORGLEFT
 10
0.0
 20
0.0
 30
0.0
  9
$PUCSORGRIGHT
 10
0.0
 20
0.0
 30
0.0
  9
$PUCSORGFRONT
 10
0.0
 20
0.0
 30
0.0
  9
$PUCSORGBACK
 10
0.0
 20
0.0
 30
0.0
  9
$USERI1
 70
     0
  9
$USERI2
 70
     0
  9
$USERI3
 70
     0
  9
$USERI4
 70
     0
  9
$USERI5
 70
     0
  9
$USERR1
 40
0.0
  9
$USERR2
 40
0.0
  9
$USERR3
 40
0.0
  9
$USERR4
 40
0.0
  9
$USERR5
 40
0.0
  9
$WORLDVIEW
 70
     1
  9
$SHADEDGE
 70
     3
  9
$SHADEDIF
 70
    70
  9
$TILEMODE
 70
     1
  9
$MAXACTVP
 70
    64
  9
$PINSBASE
 10
0.0
 20
0.0
 30
0.0
  9
$PLIMCHECK
 70
     0
  9
$PEXTMIN
 10
1.000000000000000E+20
 20
1.000000000000000E+20
 30
1.000000000000000E+20
  9
$PEXTMAX
 10
-1.000000000000000E+20
 20
-1.000000000000000E+20
 30
-1.000000000000000E+20
  9
$PLIMMIN
 10
0.0
 20
0.0
  9
$PLIMMAX
 10
12.0
 20
9.0
  9
$UNITMODE
 70
     0
  9
$VISRETAIN
 70
     1
  9
$PLINEGEN
 70
     0
  9
$PSLTSCALE
 70
     1
  9
$TREEDEPTH
 70
  3020
  9
$CMLSTYLE
  2
Standard
  9
$CMLJUST
 70
     0
  9
$CMLSCALE
 40
1.0
  9
$PROXYGRAPHICS
 70
     1
  9
$MEASUREMENT
 70
     0
  9
$CELWEIGHT
370
    -1
  9
$ENDCAPS
280
     0
  9
$JOINSTYLE
280
     0
  9
$LWDISPLAY
290
     1
  9
$INSUNITS
 70
     1
  9
$HYPERLINKBASE
  1

  9
$STYLESHEET
  1

  9
$XEDIT
290
     0
  9
$CEPSNTYPE
380
     0
  9
$PSTYLEMODE
290
     1
  9
$FINGERPRINTGUID
  2
{8a49cbd6-d4ae-4f66-837a-3fca78e48cfd}
  9
$VERSIONGUID
  2
{FAEB1C32-E019-11D5-929B-00C0DF256EC4}
  9
$EXTNAMES
290
     1
  9
$PSVPSCALE
 40
0.0
  9
$OLESTARTUP
290
     0
  9
$SORTENTS
280
   127
  9
$INDEXCTL
280
     0
  9
$HIDETEXT
280
     1
  9
$XCLIPFRAME
290
     0
  9
$HALOGAP
280
     0
  9
$OBSCOLOR
 70
   257
  9
$OBSLTYPE
280
     0
  9
$INTERSECTIONDISPLAY
280
     0
  9
$INTERSECTIONCOLOR
 70
   257
  9
$DIMASSOC
280
     2
  9
$PROJECTNAME
  1

  0
ENDSEC
  0
SECTION
  2
CLASSES
  0
CLASS
  1
ACDBDICTIONARYWDFLT
  2
AcDbDictionaryWithDefault
  3
ObjectDBX Classes
 90
        0
 91
        3
280
     0
281
     0
  0
CLASS
  1
ACDBPLACEHOLDER
  2
AcDbPlaceHolder
  3
ObjectDBX Classes
 90
        0
 91
        1
280
     0
281
     0
  0
CLASS
  1
LAYOUT
  2
AcDbLayout
  3
ObjectDBX Classes
 90
        0
 91
        1
280
     0
281
     0
  0
CLASS
  1
DICTIONARYVAR
  2
AcDbDictionaryVar
  3
ObjectDBX Classes
 90
        0
 91
        3
280
     0
281
     0
  0
CLASS
  1
TABLESTYLE
  2
AcDbTableStyle
  3
ObjectDBX Classes
 90
     2047
 91
        3
280
     0
281
     0
  0
CLASS
  1
SCALE
  2
AcDbScale
  3
ObjectDBX Classes
 90
     1153
 91
       67
280
     1
281
     0
  0
ENDSEC
  0
SECTION
  2
TABLES
  0
TABLE
  2
VPORT
  5
8
330
0
100
AcDbSymbolTable
 70
     2
  0
VPORT
  5
97
330
8
100
AcDbSymbolTableRecord
100
AcDbViewportTableRecord
  2
*Active
 70
     0
 10
0.0
 20
0.0
 11
1.0
 21
1.0
 12
24.06661465998364
 22
16.11075998137
 13
0.0
 23
0.0
 14
0.5
 24
0.5
 15
0.5
 25
0.5
 16
0.0
 26
0.0
 36
1.0
 17
0.0
 27
0.0
 37
0.0
 40
33.66744591738351
 41
1.413793103448276
 42
50.0
 43
0.0
 44
0.0
 50
0.0
 51
0.0
 71
    16
 72
  2000
 73
     1
 74
     1
 75
     0
 76
     0
 77
     0
 78
     0
281
     0
 65
     0
110
0.0
120
0.0
130
0.0
111
1.0
121
0.0
131
0.0
112
0.0
122
1.0
132
0.0
 79
     0
146
0.0
  0
ENDTAB
  0
TABLE
  2
LTYPE
  5
5
330
0
100
AcDbSymbolTable
 70
     8
  0
LTYPE
  5
14
330
5
100
AcDbSymbolTableRecord
100
AcDbLinetypeTableRecord
  2
ByBlock
 70
     0
  3

 72
    65
 73
     0
 40
0.0
  0
LTYPE
  5
15
330
5
100
AcDbSymbolTableRecord
100
AcDbLinetypeTableRecord
  2
ByLayer
 70
     0
  3

 72
    65
 73
     0
 40
0.0
  0
LTYPE
  5
16
330
5
100
AcDbSymbolTableRecord
100
AcDbLinetypeTableRecord
  2
Continuous
 70
     0
  3
Solid line
 72
    65
 73
     0
 40
0.0
  0
LTYPE
  5
58F
330
5
100
AcDbSymbolTableRecord
100
AcDbLinetypeTableRecord
  2
SLD-Solid
 70
     0
  3
SolidWorks Line Style
 72
    65
 73
     0
 40
0.0
  0
LTYPE
  5
590
330
5
100
AcDbSymbolTableRecord
100
AcDbLinetypeTableRecord
  2
SLD-Dashed
 70
     0
  3
SolidWorks Line Style
 72
    65
 73
     2
 40
0.075
 49
0.05
 74
     4
 75
     0
340
0
 46
1.0
 50
0.0
 44
0.0
 45
0.0
 49
-0.025
 74
     4
 75
     0
340
0
 46
1.0
 50
0.0
 44
0.0
 45
0.0
  0
LTYPE
  5
591
330
5
100
AcDbSymbolTableRecord
100
AcDbLinetypeTableRecord
  2
SLD-Phantom
 70
     0
  3
SolidWorks Line Style
 72
    65
 73
     6
 40
0.4999999999999999
 49
0.25
 74
     4
 75
     0
340
0
 46
1.0
 50
0.0
 44
0.0
 45
0.0
 49
-0.05
 74
     4
 75
     0
340
0
 46
1.0
 50
0.0
 44
0.0
 45
0.0
 49
0.05
 74
     4
 75
     0
340
0
 46
1.0
 50
0.0
 44
0.0
 45
0.0
 49
-0.05
 74
     4
 75
     0
340
0
 46
1.0
 50
0.0
 44
0.0
 45
0.0
 49
0.05
 74
     4
 75
     0
340
0
 46
1.0
 50
0.0
 44
0.0
 45
0.0
 49
-0.05
 74
     4
 75
     0
340
0
 46
1.0
 50
0.0
 44
0.0
 45
0.0
  0
LTYPE
  5
592
330
5
100
AcDbSymbolTableRecord
100
AcDbLinetypeTableRecord
  2
SLD-Chain
 70
     0
  3
SolidWorks Line Style
 72
    65
 73
     4
 40
0.4
 49
0.25
 74
     4
 75
     0
340
0
 46
1.0
 50
0.0
 44
0.0
 45
0.0
 49
-0.05
 74
     4
 75
     0
340
0
 46
1.0
 50
0.0
 44
0.0
 45
0.0
 49
0.05
 74
     4
 75
     0
340
0
 46
1.0
 50
0.0
 44
0.0
 45
0.0
 49
-0.05
 74
     4
 75
     0
340
0
 46
1.0
 50
0.0
 44
0.0
 45
0.0
  0
LTYPE
  5
593
330
5
100
AcDbSymbolTableRecord
100
AcDbLinetypeTableRecord
  2
SLD-Center
 70
     0
  3
SolidWorks Line Style
 72
    65
 73
     4
 40
0.7500000000000002
 49
0.6000000000000001
 74
     4
 75
     0
340
0
 46
1.0
 50
0.0
 44
0.0
 45
0.0
 49
-0.05
 74
     4
 75
     0
340
0
 46
1.0
 50
0.0
 44
0.0
 45
0.0
 49
0.05
 74
     4
 75
     0
340
0
 46
1.0
 50
0.0
 44
0.0
 45
0.0
 49
-0.05
 74
     4
 75
     0
340
0
 46
1.0
 50
0.0
 44
0.0
 45
0.0
  0
LTYPE
  5
594
330
5
100
AcDbSymbolTableRecord
100
AcDbLinetypeTableRecord
  2
SLD-Stitch
 70
     0
  3
SolidWorks Line Style
 72
    65
 73
     2
 40
0.025
 49
0.0
 74
     4
 75
     0
340
0
 46
1.0
 50
0.0
 44
0.0
 45
0.0
 49
-0.025
 74
     4
 75
     0
340
0
 46
1.0
 50
0.0
 44
0.0
 45
0.0
  0
LTYPE
  5
595
330
5
100
AcDbSymbolTableRecord
100
AcDbLinetypeTableRecord
  2
SLD-Thin-Thick-Chain
 70
     0
  3
SolidWorks Line Style
 72
    65
 73
     4
 40
0.4
 49
0.25
 74
     4
 75
     0
340
0
 46
1.0
 50
0.0
 44
0.0
 45
0.0
 49
-0.05
 74
     4
 75
     0
340
0
 46
1.0
 50
0.0
 44
0.0
 45
0.0
 49
0.05
 74
     4
 75
     0
340
0
 46
1.0
 50
0.0
 44
0.0
 45
0.0
 49
-0.05
 74
     4
 75
     0
340
0
 46
1.0
 50
0.0
 44
0.0
 45
0.0
  0
ENDTAB
  0
TABLE
  2
LAYER
  5
2
330
0
100
AcDbSymbolTable
 70
     5
  0
LAYER
  5
10
330
2
100
AcDbSymbolTableRecord
100
AcDbLayerTableRecord
  2
0
 70
     0
 62
     7
  6
Continuous
370
    -3
390
F
  0
LAYER
  5
596
330
2
100
AcDbSymbolTableRecord
100
AcDbLayerTableRecord
  2
DIMS
 70
     0
 62
     5
  6
SLD-Solid
370
    -3
390
F
  0
LAYER
  5
597
330
2
100
AcDbSymbolTableRecord
100
AcDbLayerTableRecord
  2
NOTES
 70
     0
 62
     1
  6
SLD-Solid
370
    -3
390
F
  0
LAYER
  5
77
330
2
100
AcDbSymbolTableRecord
100
AcDbLayerTableRecord
  2
OBJECT
 70
     0
 62
     7
  6
SLD-Solid
370
    -3
390
F
  0
LAYER
  5
78
330
2
100
AcDbSymbolTableRecord
100
AcDbLayerTableRecord
  2
BORDER
 70
     0
 62
     8
  6
SLD-Solid
370
    35
390
F
  0
ENDTAB
  0
TABLE
  2
STYLE
  5
3
330
0
100
AcDbSymbolTable
 70
     5
  0
STYLE
  5
11
330
3
100
AcDbSymbolTableRecord
100
AcDbTextStyleTableRecord
  2
Standard
 70
     0
 40
0.0
 41
1.0
 50
0.0
 71
     0
 42
0.5
  3
GOTHIC.TTF
  4

1001
ACAD
1000
CENTURY GOTHIC
1071
       34
  0
STYLE
  5
84
330
3
100
AcDbSymbolTableRecord
100
AcDbTextStyleTableRecord
  2
SLDTEXTSTYLE0
 70
     0
 40
0.0
 41
0.948
 50
0.0
 71
     0
 42
0.5
  3
ARIAL.TTF
  4

1001
ACAD
1000
Arial
1071
      290
  0
STYLE
  5
88
330
3
100
AcDbSymbolTableRecord
100
AcDbTextStyleTableRecord
  2
SLDTEXTSTYLE1
 70
     0
 40
0.0
 41
0.913
 50
0.0
 71
     0
 42
0.5
  3
GOTHIC.TTF
  4

1001
ACAD
1000
Century Gothic
1071
      290
  0
STYLE
  5
58E
330
3
100
AcDbSymbolTableRecord
100
AcDbTextStyleTableRecord
  2
SLDTEXTSTYLE2
 70
     0
 40
0.0
 41
0.87
 50
0.0
 71
     0
 42
0.5
  3
ARIALNB.TTF
  4

1001
ACAD
1000
Arial Narrow
1071
 33554722
  0
STYLE
  5
99
330
3
100
AcDbSymbolTableRecord
100
AcDbTextStyleTableRecord
  2
SLDTEXTSTYLE3
 70
     0
 40
0.0
 41
0.87
 50
0.0
 71
     0
 42
0.5
  3
ARIALN.TTF
  4

1001
ACAD
1000
Arial Narrow
1071
      290
  0
ENDTAB
  0
TABLE
  2
VIEW
  5
6
330
0
100
AcDbSymbolTable
 70
     0
  0
ENDTAB
  0
TABLE
  2
UCS
  5
7
330
0
100
AcDbSymbolTable
 70
     0
  0
ENDTAB
  0
TABLE
  2
APPID
  5
9
330
0
100
AcDbSymbolTable
 70
     1
  0
APPID
  5
12
330
9
100
AcDbSymbolTableRecord
100
AcDbRegAppTableRecord
  2
ACAD
 70
     0
  0
ENDTAB
  0
TABLE
  2
DIMSTYLE
  5
A
330
0
100
AcDbSymbolTable
 70
     5
100
AcDbDimStyleTable
  0
DIMSTYLE
105
27
330
A
100
AcDbSymbolTableRecord
100
AcDbDimStyleTableRecord
  2
Standard
 70
     0
340
11
  0
DIMSTYLE
105
266
102
{ACAD_REACTORS
330
265
330
286
330
49D
330
4A8
102
}
330
A
100
AcDbSymbolTableRecord
100
AcDbDimStyleTableRecord
  2
SLDDIMSTYLE0
 70
     0
 41
0.5
 44
0.0
 45
0.000000001
 78
    12
 79
     3
140
0.5
147
0.125
173
     1
271
     2
272
     2
276
     2
277
     5
284
    12
340
88
341
598
343
598
344
598
  0
DIMSTYLE
105
277
102
{ACAD_REACTORS
330
276
330
291
330
326
102
}
330
A
100
AcDbSymbolTableRecord
100
AcDbDimStyleTableRecord
  2
SLDDIMSTYLE1
 70
     0
 41
0.5
 44
0.0
 45
0.000000001
 78
    12
 79
     3
140
0.5
147
0.125
173
     1
271
     6
272
     2
276
     2
277
     5
284
    12
340
88
341
598
343
598
344
598
  0
DIMSTYLE
105
2A6
330
A
100
AcDbSymbolTableRecord
100
AcDbDimStyleTableRecord
  2
SLDDIMSTYLE2
 70
     0
 41
0.5
 44
0.0
 45
0.000000001
146
0.5
147
0.0
173
     1
271
     0
272
     0
276
     2
277
     5
340
11
341
598
343
598
344
598
  0
DIMSTYLE
105
4B4
102
{ACAD_REACTORS
330
4B3
102
}
330
A
100
AcDbSymbolTableRecord
100
AcDbDimStyleTableRecord
  2
SLDDIMSTYLE3
 70
     0
 41
0.5
 44
0.0
 45
0.000000001
 78
    12
 79
     3
140
0.5
147
0.125
172
     1
173
     1
271
     6
272
     2
276
     2
277
     5
284
    12
289
     0
340
88
341
598
343
598
344
598
  0
ENDTAB
  0
TABLE
  2
BLOCK_RECORD
  5
1
330
0
100
AcDbSymbolTable
 70
    18
  0
BLOCK_RECORD
  5
1F
330
1
100
AcDbSymbolTableRecord
100
AcDbBlockTableRecord
  2
*Model_Space
340
22
  0
BLOCK_RECORD
  5
73
330
1
100
AcDbSymbolTableRecord
100
AcDbBlockTableRecord
  2
*Paper_Space
340
74
  0
BLOCK_RECORD
  5
598
330
1
100
AcDbSymbolTableRecord
100
AcDbBlockTableRecord
  2
_Open90
340
0
102
{BLKREFS
331
270
331
271
331
27B
331
27C
331
28A
331
28B
331
295
331
296
331
32A
331
32B
331
4A1
331
4A2
331
4AC
331
4AD
331
4B8
331
4B9
102
}
  0
BLOCK_RECORD
  5
23
330
1
100
AcDbSymbolTableRecord
100
AcDbBlockTableRecord
  2
*Paper_Space1
340
26
  0
BLOCK_RECORD
  5
8E
330
1
100
AcDbSymbolTableRecord
100
AcDbBlockTableRecord
  2
SW_NOTE_0
340
0
  0
BLOCK_RECORD
  5
94
330
1
100
AcDbSymbolTableRecord
100
AcDbBlockTableRecord
  2
SW_NOTE_0_1
340
0
102
{BLKREFS
331
9D
102
}
  0
BLOCK_RECORD
  5
26D
330
1
100
AcDbSymbolTableRecord
100
AcDbBlockTableRecord
  2
_D
340
0
  0
BLOCK_RECORD
  5
278
330
1
100
AcDbSymbolTableRecord
100
AcDbBlockTableRecord
  2
_D_1
340
0
  0
BLOCK_RECORD
  5
287
330
1
100
AcDbSymbolTableRecord
100
AcDbBlockTableRecord
  2
_D_2
340
0
  0
BLOCK_RECORD
  5
292
330
1
100
AcDbSymbolTableRecord
100
AcDbBlockTableRecord
  2
_D_3
340
0
  0
BLOCK_RECORD
  5
2A0
330
1
100
AcDbSymbolTableRecord
100
AcDbBlockTableRecord
  2
SW_NOTE_0_2
340
0
102
{BLKREFS
331
2A5
102
}
  0
BLOCK_RECORD
  5
2A8
330
1
100
AcDbSymbolTableRecord
100
AcDbBlockTableRecord
  2
SW_NOTE_0_3
340
0
102
{BLKREFS
331
2AD
102
}
  0
BLOCK_RECORD
  5
2B0
330
1
100
AcDbSymbolTableRecord
100
AcDbBlockTableRecord
  2
SW_NOTE_0_4
340
0
102
{BLKREFS
331
2B5
102
}
  0
BLOCK_RECORD
  5
327
330
1
100
AcDbSymbolTableRecord
100
AcDbBlockTableRecord
  2
_D_4
340
0
  0
BLOCK_RECORD
  5
335
330
1
100
AcDbSymbolTableRecord
100
AcDbBlockTableRecord
  2
SW_NOTE_0_5
340
0
102
{BLKREFS
331
33A
102
}
  0
BLOCK_RECORD
  5
33C
330
1
100
AcDbSymbolTableRecord
100
AcDbBlockTableRecord
  2
SW_NOTE_0_6
340
0
102
{BLKREFS
331
341
102
}
  0
BLOCK_RECORD
  5
49E
330
1
100
AcDbSymbolTableRecord
100
AcDbBlockTableRecord
  2
_D_5
340
0
  0
BLOCK_RECORD
  5
4A9
330
1
100
AcDbSymbolTableRecord
100
AcDbBlockTableRecord
  2
_D_6
340
0
  0
BLOCK_RECORD
  5
4B5
330
1
100
AcDbSymbolTableRecord
100
AcDbBlockTableRecord
  2
_D_7
340
0
  0
BLOCK_RECORD
  5
4C3
330
1
100
AcDbSymbolTableRecord
100
AcDbBlockTableRecord
  2
SW_NOTE_0_7
340
0
102
{BLKREFS
331
4C8
102
}
  0
ENDTAB
  0
ENDSEC
  0
SECTION
  2
BLOCKS
  0
BLOCK
  5
20
330
1F
100
AcDbEntity
  8
0
100
AcDbBlockBegin
  2
*Model_Space
 70
     0
 71
     0
 10
0.0
 20
0.0
 30
0.0
  3
*Model_Space
  1

  0
ENDBLK
  5
21
330
1F
100
AcDbEntity
  8
0
100
AcDbBlockEnd
  0
BLOCK
  5
75
330
73
100
AcDbEntity
 67
     1
  8
0
100
AcDbBlockBegin
  2
*Paper_Space
 70
     0
 71
     0
 10
0.0
 20
0.0
 30
0.0
  3
*Paper_Space
  1

  0
ENDBLK
  5
76
330
73
100
AcDbEntity
 67
     1
  8
0
100
AcDbBlockEnd
  0
BLOCK
  5
599
330
598
100
AcDbEntity
  8
0
100
AcDbBlockBegin
  2
_Open90
 70
     0
 71
     0
 10
0.0
 20
0.0
 30
0.0
  3
_Open90
  1

  0
LINE
  5
26A
330
598
100
AcDbEntity
  8
0
  6
ByBlock
 62
     0
370
    -2
100
AcDbLine
 10
-0.5
 20
0.5
 30
0.0
 11
0.0
 21
0.0
 31
0.0
  0
LINE
  5
26B
330
598
100
AcDbEntity
  8
0
  6
ByBlock
 62
     0
370
    -2
100
AcDbLine
 10
0.0
 20
0.0
 30
0.0
 11
-0.5
 21
-0.5
 31
0.0
  0
LINE
  5
26C
330
598
100
AcDbEntity
  8
0
  6
ByBlock
 62
     0
370
    -2
100
AcDbLine
 10
0.0
 20
0.0
 30
0.0
 11
-1.0
 21
0.0
 31
0.0
  0
ENDBLK
  5
59A
330
598
100
AcDbEntity
  8
0
100
AcDbBlockEnd
  0
BLOCK
  5
5A1
330
23
100
AcDbEntity
  8
0
100
AcDbBlockBegin
  2
*Paper_Space1
 70
     0
 71
     0
 10
0.0
 20
0.0
 30
0.0
  3
*Paper_Space1
  1

  0
ENDBLK
  5
5A2
330
23
100
AcDbEntity
  8
0
100
AcDbBlockEnd
  0
BLOCK
  5
5A3
330
8E
100
AcDbEntity
  8
0
100
AcDbBlockBegin
  2
SW_NOTE_0
 70
     0
 71
     0
 10
0.0
 20
0.0
 30
0.0
  3
SW_NOTE_0
  1

  0
MTEXT
  5
91
330
8E
100
AcDbEntity
  8
NOTES
 62
     0
100
AcDbMText
 10
0.0
 20
0.3759780907668229
 30
0.0
 40
0.2916666666666666
 41
0.0
 71
     1
 72
     1
  1
FROST PRODUCTS LTD.
  7
SLDTEXTSTYLE0
 73
     1
 44
1.0
  0
MTEXT
  5
5C3
330
8E
100
AcDbEntity
  8
NOTES
 62
     0
100
AcDbMText
 10
0.0
 20
-0.0495142708586375
 30
0.0
 40
0.2291666666666666
 41
0.0
 71
     1
 72
     1
  1
5280 JOHN LUCUS DRIVE, BURLINGTON, ON, L7L 5Z9
  7
SLDTEXTSTYLE0
 73
     1
 44
1.0
  0
ENDBLK
  5
5A4
330
8E
100
AcDbEntity
  8
0
100
AcDbBlockEnd
  0
BLOCK
  5
5A5
330
94
100
AcDbEntity
  8
0
100
AcDbBlockBegin
  2
SW_NOTE_0_1
 70
     0
 71
     0
 10
0.0
 20
0.0
 30
0.0
  3
SW_NOTE_0_1
  1

  0
MTEXT
  5
5C4
330
94
100
AcDbEntity
  8
NOTES
 62
     0
100
AcDbMText
 10
0.0
 20
0.2381282770514712
 30
0.0
 40
0.1847290640394089
 41
0.0
 71
     1
 72
     1
  1
PROPRIETARY AND CONFIDENTIAL
  7
SLDTEXTSTYLE2
 73
     1
 44
1.0
  0
MTEXT
  5
9A
330
94
100
AcDbEntity
  8
NOTES
 62
     0
100
AcDbMText
 10
0.0
 20
-0.0504364795553608
 30
0.0
 40
0.25
 41
0.0
 71
     1
 72
     1
  1
THE INFORMATION CONTAINED IN THIS DRAWING IS THE SOLE PROPERTY OF 
  7
SLDTEXTSTYLE3
 73
     1
 44
1.0
  0
MTEXT
  5
9B
330
94
100
AcDbEntity
  8
NOTES
 62
     0
100
AcDbMText
 10
0.0
 20
-0.4231398940537119
 30
0.0
 40
0.25
 41
0.0
 71
     1
 72
     1
  1
FROST PRODUCTS LTD.  ANY REPRODUCTION IN PART OR AS A WHOLE WITHOUT 
  7
SLDTEXTSTYLE3
 73
     1
 44
1.0
  0
MTEXT
  5
9C
330
94
100
AcDbEntity
  8
NOTES
 62
     0
100
AcDbMText
 10
0.0
 20
-0.7958433085520636
 30
0.0
 40
0.25
 41
0.0
 71
     1
 72
     1
  1
THE WRITTEN PERMISSION OF FROST PRODUCTS LTD. IS PROHIBITED.
  7
SLDTEXTSTYLE3
 73
     1
 44
1.0
  0
ENDBLK
  5
5A6
330
94
100
AcDbEntity
  8
0
100
AcDbBlockEnd
  0
BLOCK
  5
5A7
330
26D
100
AcDbEntity
  8
0
100
AcDbBlockBegin
  2
_D
 70
     0
 71
     0
 10
0.0
 20
0.0
 30
0.0
  3
_D
  1

  0
INSERT
  5
270
330
26D
100
AcDbEntity
  8
DIMS
100
AcDbBlockReference
  2
_Open90
 10
1.841927970683164
 20
9.463236659654331
 30
0.0
 41
0.5
 42
0.5
 50
90.00000000000041
  0
INSERT
  5
271
330
26D
100
AcDbEntity
  8
DIMS
100
AcDbBlockReference
  2
_Open90
 10
1.841927970683164
 20
3.463236659654338
 30
0.0
 41
0.5
 42
0.5
 50
270.0000000000004
  0
LINE
  5
272
330
26D
100
AcDbEntity
  8
DIMS
100
AcDbLine
 10
3.288098875353112
 20
9.463236659654331
 30
0.0
 11
1.466927970683164
 21
9.463236659654331
 31
0.0
  0
LINE
  5
273
330
26D
100
AcDbEntity
  8
DIMS
100
AcDbLine
 10
1.841927970683164
 20
9.463236659654331
 30
0.0
 11
1.841927970683164
 21
6.860111671586997
 31
0.0
  0
LINE
  5
274
330
26D
100
AcDbEntity
  8
DIMS
100
AcDbLine
 10
1.841927970683164
 20
3.463236659654338
 30
0.0
 11
1.841927970683164
 21
6.066361647721672
 31
0.0
  0
MTEXT
  5
275
330
26D
100
AcDbEntity
  8
DIMS
100
AcDbMText
 10
-3.238974934292908
 20
6.705033577721038
 30
0.0
 40
0.5
 41
0.0
 71
     1
 72
     1
  1
                         48" Max (120cm) 
  7
SLDTEXTSTYLE1
 73
     1
 44
1.0
  0
ENDBLK
  5
5A8
330
26D
100
AcDbEntity
  8
0
100
AcDbBlockEnd
  0
BLOCK
  5
5A9
330
278
100
AcDbEntity
  8
0
100
AcDbBlockBegin
  2
_D_1
 70
     0
 71
     0
 10
0.0
 20
0.0
 30
0.0
  3
_D_1
  1

  0
INSERT
  5
27B
330
278
100
AcDbEntity
  8
DIMS
100
AcDbBlockReference
  2
_Open90
 10
1.335919042529762
 20
22.23169518899662
 30
-7.695827986068138
 41
0.5
 42
0.5
 50
90.00000000000058
  0
INSERT
  5
27C
330
278
100
AcDbEntity
  8
DIMS
100
AcDbBlockReference
  2
_Open90
 10
1.335919042529806
 20
8.78704060656722
 30
-7.695827986068138
 41
0.5
 42
0.5
 50
270.0000000000006
  0
LINE
  5
27D
330
278
100
AcDbEntity
  8
DIMS
100
AcDbLine
 10
1.159530121856314
 20
15.75676594926596
 30
0.0
 11
2.044946816780432
 21
15.75676594926596
 31
0.0
  0
LINE
  5
27E
330
278
100
AcDbEntity
  8
DIMS
100
AcDbLine
 10
2.446137209890225
 20
22.23169518899662
 30
0.0
 11
0.9609190425297617
 21
22.23169518899662
 31
0.0
  0
LINE
  5
27F
330
278
100
AcDbEntity
  8
DIMS
100
AcDbLine
 10
2.434634990669246
 20
8.787040606567224
 30
0.0
 11
0.960919042529806
 21
8.787040606567219
 31
0.0
  0
LINE
  5
280
330
278
100
AcDbEntity
  8
DIMS
100
AcDbLine
 10
1.335919042529762
 20
22.23169518899662
 30
0.0
 11
1.335919042529781
 21
16.35933540416548
 31
0.0
  0
LINE
  5
281
330
278
100
AcDbEntity
  8
DIMS
100
AcDbLine
 10
1.335919042529806
 20
8.78704060656722
 30
0.0
 11
1.335919042529786
 21
15.05162709759009
 31
0.0
  0
MTEXT
  5
282
330
278
100
AcDbEntity
  8
DIMS
100
AcDbMText
 10
0.3473773289146814
 20
15.98616700969734
 30
0.0
 40
0.5
 41
0.0
 71
     1
 72
     1
  1
13
  7
SLDTEXTSTYLE1
 73
     1
 44
1.0
  0
MTEXT
  5
283
330
278
100
AcDbEntity
  8
DIMS
100
AcDbMText
 10
1.417516246578586
 20
16.35147950874284
 30
0.0
 40
0.5
 41
0.0
 71
     1
 72
     1
  1
7
  7
SLDTEXTSTYLE1
 73
     1
 44
1.0
  0
MTEXT
  5
284
330
278
100
AcDbEntity
  8
DIMS
100
AcDbMText
 10
1.2327940238388
 20
15.69029893019481
 30
0.0
 40
0.5
 41
0.0
 71
     1
 72
     1
  1
16
  7
SLDTEXTSTYLE1
 73
     1
 44
1.0
  0
MTEXT
  5
285
330
278
100
AcDbEntity
  8
DIMS
100
AcDbMText
 10
2.118210792095404
 20
15.98616700969734
 30
0.0
 40
0.5
 41
0.0
 71
     1
 72
     1
  1
"
  7
SLDTEXTSTYLE1
 73
     1
 44
1.0
  0
ENDBLK
  5
5AA
330
278
100
AcDbEntity
  8
0
100
AcDbBlockEnd
  0
BLOCK
  5
5AB
330
287
100
AcDbEntity
  8
0
100
AcDbBlockBegin
  2
_D_2
 70
     0
 71
     0
 10
0.0
 20
0.0
 30
0.0
  3
_D_2
  1

  0
INSERT
  5
28A
330
287
100
AcDbEntity
  8
DIMS
100
AcDbBlockReference
  2
_Open90
 10
13.542699438115
 20
23.69384333967989
 30
-7.695827986068138
 41
0.5
 42
0.5
 50
0.0000000000005852
  0
INSERT
  5
28B
330
287
100
AcDbEntity
  8
DIMS
100
AcDbBlockReference
  2
_Open90
 10
2.519903876556861
 20
23.69384333967985
 30
-7.695827986068138
 41
0.5
 42
0.5
 50
180.0000000000006
  0
LINE
  5
28C
330
287
100
AcDbEntity
  8
DIMS
100
AcDbLine
 10
13.542699438115
 20
22.33252287204764
 30
0.0
 11
13.542699438115
 21
24.06884333967989
 31
0.0
  0
LINE
  5
28D
330
287
100
AcDbEntity
  8
DIMS
100
AcDbLine
 10
2.519903876556866
 20
22.33252287204762
 30
0.0
 11
2.519903876556859
 21
24.06884333967985
 31
0.0
  0
LINE
  5
28E
330
287
100
AcDbEntity
  8
DIMS
100
AcDbLine
 10
13.542699438115
 20
23.69384333967989
 30
0.0
 11
8.747118229391724
 21
23.69384333967987
 31
0.0
  0
LINE
  5
28F
330
287
100
AcDbEntity
  8
DIMS
100
AcDbLine
 10
2.519903876556861
 20
23.69384333967985
 30
0.0
 11
7.801979374383096
 21
23.69384333967987
 31
0.0
  0
MTEXT
  5
290
330
287
100
AcDbEntity
  8
DIMS
100
AcDbMText
 10
7.801979374383096
 20
23.93564025774657
 30
0.0
 40
0.5
 41
0.0
 71
     1
 72
     1
  1
11"
  7
SLDTEXTSTYLE1
 73
     1
 44
1.0
  0
ENDBLK
  5
5AC
330
287
100
AcDbEntity
  8
0
100
AcDbBlockEnd
  0
BLOCK
  5
5AD
330
292
100
AcDbEntity
  8
0
100
AcDbBlockBegin
  2
_D_3
 70
     0
 71
     0
 10
0.0
 20
0.0
 30
0.0
  3
_D_3
  1

  0
INSERT
  5
295
330
292
100
AcDbEntity
  8
DIMS
100
AcDbBlockReference
  2
_Open90
 10
3.288301657335881
 20
7.583223106695831
 30
-7.695827986068138
 41
0.5
 42
0.5
 50
179.999999999999
  0
INSERT
  5
296
330
292
100
AcDbEntity
  8
DIMS
100
AcDbBlockReference
  2
_Open90
 10
12.77430165733588
 20
7.5832231066956
 30
-7.695827986068138
 41
0.5
 42
0.5
 50
359.999999999999
  0
LINE
  5
297
330
292
100
AcDbEntity
  8
DIMS
100
AcDbLine
 10
8.321811216977913
 20
7.634507805083826
 30
0.0
 11
8.837783466422458
 21
7.634507805083826
 31
0.0
  0
LINE
  5
298
330
292
100
AcDbEntity
  8
DIMS
100
AcDbLine
 10
3.288301657335918
 20
9.069147969556385
 30
0.0
 11
3.288301657335873
 21
7.20822310669583
 31
0.0
  0
LINE
  5
299
330
292
100
AcDbEntity
  8
DIMS
100
AcDbLine
 10
12.77430165733591
 20
9.069147969556406
 30
0.0
 11
12.77430165733587
 21
7.2082231066956
 31
0.0
  0
LINE
  5
29A
330
292
100
AcDbEntity
  8
DIMS
100
AcDbLine
 10
3.288301657335881
 20
7.583223106695831
 30
0.0
 11
7.879102869515854
 21
7.583223106695718
 31
0.0
  0
LINE
  5
29B
330
292
100
AcDbEntity
  8
DIMS
100
AcDbLine
 10
12.77430165733588
 20
7.5832231066956
 30
0.0
 11
9.117297405786912
 21
7.583223106695689
 31
0.0
  0
MTEXT
  5
29C
330
292
100
AcDbEntity
  8
DIMS
100
AcDbMText
 10
7.879102869515854
 20
7.8639088655152
 30
0.0
 40
0.5
 41
0.0
 71
     1
 72
     1
  1
9
  7
SLDTEXTSTYLE1
 73
     1
 44
1.0
  0
MTEXT
  5
29D
330
292
100
AcDbEntity
  8
DIMS
100
AcDbMText
 10
8.3950751189604
 20
8.229221364560704
 30
0.0
 40
0.5
 41
0.0
 71
     1
 72
     1
  1
1
  7
SLDTEXTSTYLE1
 73
     1
 44
1.0
  0
MTEXT
  5
29E
330
292
100
AcDbEntity
  8
DIMS
100
AcDbMText
 10
8.3950751189604
 20
7.568040786012668
 30
0.0
 40
0.5
 41
0.0
 71
     1
 72
     1
  1
2
  7
SLDTEXTSTYLE1
 73
     1
 44
1.0
  0
MTEXT
  5
29F
330
292
100
AcDbEntity
  8
DIMS
100
AcDbMText
 10
8.911047368404944
 20
7.8639088655152
 30
0.0
 40
0.5
 41
0.0
 71
     1
 72
     1
  1
"
  7
SLDTEXTSTYLE1
 73
     1
 44
1.0
  0
ENDBLK
  5
5AE
330
292
100
AcDbEntity
  8
0
100
AcDbBlockEnd
  0
BLOCK
  5
5AF
330
2A0
100
AcDbEntity
  8
0
100
AcDbBlockBegin
  2
SW_NOTE_0_2
 70
     0
 71
     0
 10
0.0
 20
0.0
 30
0.0
  3
SW_NOTE_0_2
  1

  0
LINE
  5
2A3
330
2A0
100
AcDbEntity
  8
NOTES
 62
     0
100
AcDbLine
 10
2.71452305823799
 20
0.0
 30
0.0
 11
0.0
 21
0.0
 31
0.0
  0
MTEXT
  5
2A4
330
2A0
100
AcDbEntity
  8
NOTES
 62
     0
100
AcDbMText
 10
0.0156799385809206
 20
0.6411863417355874
 30
0.0
 40
0.5
 41
0.0
 71
     1
 72
     1
  1
opening
  7
SLDTEXTSTYLE1
 73
     1
 44
1.0
  0
ENDBLK
  5
5B0
330
2A0
100
AcDbEntity
  8
0
100
AcDbBlockEnd
  0
BLOCK
  5
5B1
330
2A8
100
AcDbEntity
  8
0
100
AcDbBlockBegin
  2
SW_NOTE_0_3
 70
     0
 71
     0
 10
0.0
 20
0.0
 30
0.0
  3
SW_NOTE_0_3
  1

  0
LINE
  5
2AB
330
2A8
100
AcDbEntity
  8
NOTES
 62
     0
100
AcDbLine
 10
2.641606513909468
 20
0.0
 30
0.0
 11
0.0
 21
0.0
 31
0.0
  0
MTEXT
  5
2AC
330
2A8
100
AcDbEntity
  8
NOTES
 62
     0
100
AcDbMText
 10
0.0153333235181708
 20
0.6422935352246859
 30
0.0
 40
0.5
 41
0.0
 71
     1
 72
     1
  1
key lock
  7
SLDTEXTSTYLE1
 73
     1
 44
1.0
  0
ENDBLK
  5
5B2
330
2A8
100
AcDbEntity
  8
0
100
AcDbBlockEnd
  0
BLOCK
  5
5B3
330
2B0
100
AcDbEntity
  8
0
100
AcDbBlockBegin
  2
SW_NOTE_0_4
 70
     0
 71
     0
 10
0.0
 20
0.0
 30
0.0
  3
SW_NOTE_0_4
  1

  0
MTEXT
  5
2B3
330
2B0
100
AcDbEntity
  8
NOTES
 62
     0
100
AcDbMText
 10
0.0
 20
0.6386718750000004
 30
0.0
 40
0.5
 41
0.0
 71
     1
 72
     1
  1
Front view
  7
SLDTEXTSTYLE1
 73
     1
 44
1.0
  0
MTEXT
  5
2B4
330
2B0
100
AcDbEntity
  8
NOTES
 62
     0
100
AcDbMText
 10
0.0
 20
-0.0078559229223743
 30
0.0
 40
0.5
 41
0.0
 71
     1
 72
     1
  1
105 _ 107
  7
SLDTEXTSTYLE1
 73
     1
 44
1.0
  0
ENDBLK
  5
5B4
330
2B0
100
AcDbEntity
  8
0
100
AcDbBlockEnd
  0
BLOCK
  5
5B5
330
327
100
AcDbEntity
  8
0
100
AcDbBlockBegin
  2
_D_4
 70
     0
 71
     0
 10
0.0
 20
0.0
 30
0.0
  3
_D_4
  1

  0
INSERT
  5
32A
330
327
100
AcDbEntity
  8
DIMS
100
AcDbBlockReference
  2
_Open90
 10
19.48558766982289
 20
23.73969233089217
 30
-0.2236782212101343
 41
0.5
 42
0.5
 50
359.9999999999998
  0
INSERT
  5
32B
330
327
100
AcDbEntity
  8
DIMS
100
AcDbBlockReference
  2
_Open90
 10
15.33294332572192
 20
23.73969233089221
 30
-0.2236782212101343
 41
0.5
 42
0.5
 50
179.9999999999998
  0
LINE
  5
32C
330
327
100
AcDbEntity
  8
DIMS
100
AcDbLine
 10
17.55549203532511
 20
23.79097702928031
 30
0.0
 11
18.07146428476966
 21
23.79097702928031
 31
0.0
  0
LINE
  5
32D
330
327
100
AcDbEntity
  8
DIMS
100
AcDbLine
 10
19.48558766982287
 20
22.476504868895
 30
0.0
 11
19.48558766982289
 21
24.11469233089217
 31
0.0
  0
LINE
  5
32E
330
327
100
AcDbEntity
  8
DIMS
100
AcDbLine
 10
15.33294332572189
 20
21.28899064863063
 30
0.0
 11
15.33294332572192
 21
24.11469233089221
 31
0.0
  0
LINE
  5
32F
330
327
100
AcDbEntity
  8
DIMS
100
AcDbLine
 10
19.48558766982289
 20
23.73969233089217
 30
0.0
 11
18.35097822413411
 21
23.73969233089218
 31
0.0
  0
LINE
  5
330
330
327
100
AcDbEntity
  8
DIMS
100
AcDbLine
 10
15.33294332572192
 20
23.73969233089221
 30
0.0
 11
17.11278368786305
 21
23.73969233089219
 31
0.0
  0
MTEXT
  5
331
330
327
100
AcDbEntity
  8
DIMS
100
AcDbMText
 10
17.11278368786305
 20
24.02037808971169
 30
0.0
 40
0.5
 41
0.0
 71
     1
 72
     1
  1
4
  7
SLDTEXTSTYLE1
 73
     1
 44
1.0
  0
MTEXT
  5
332
330
327
100
AcDbEntity
  8
DIMS
100
AcDbMText
 10
17.6287559373076
 20
24.38569058875719
 30
0.0
 40
0.5
 41
0.0
 71
     1
 72
     1
  1
1
  7
SLDTEXTSTYLE1
 73
     1
 44
1.0
  0
MTEXT
  5
333
330
327
100
AcDbEntity
  8
DIMS
100
AcDbMText
 10
17.6287559373076
 20
23.72451001020915
 30
0.0
 40
0.5
 41
0.0
 71
     1
 72
     1
  1
8
  7
SLDTEXTSTYLE1
 73
     1
 44
1.0
  0
MTEXT
  5
334
330
327
100
AcDbEntity
  8
DIMS
100
AcDbMText
 10
18.14472818675214
 20
24.02037808971169
 30
0.0
 40
0.5
 41
0.0
 71
     1
 72
     1
  1
"
  7
SLDTEXTSTYLE1
 73
     1
 44
1.0
  0
ENDBLK
  5
5B6
330
327
100
AcDbEntity
  8
0
100
AcDbBlockEnd
  0
BLOCK
  5
5B7
330
335
100
AcDbEntity
  8
0
100
AcDbBlockBegin
  2
SW_NOTE_0_5
 70
     0
 71
     0
 10
0.0
 20
0.0
 30
0.0
  3
SW_NOTE_0_5
  1

  0
LINE
  5
338
330
335
100
AcDbEntity
  8
NOTES
 62
     0
100
AcDbLine
 10
2.536745165276713
 20
0.0
 30
0.0
 11
0.0
 21
0.0
 31
0.0
  0
MTEXT
  5
339
330
335
100
AcDbEntity
  8
NOTES
 62
     0
100
AcDbMText
 10
0.0152519989457381
 20
0.642162731948478
 30
0.0
 40
0.5
 41
0.0
 71
     1
 72
     1
  1
window
  7
SLDTEXTSTYLE1
 73
     1
 44
1.0
  0
ENDBLK
  5
5B8
330
335
100
AcDbEntity
  8
0
100
AcDbBlockEnd
  0
BLOCK
  5
5B9
330
33C
100
AcDbEntity
  8
0
100
AcDbBlockBegin
  2
SW_NOTE_0_6
 70
     0
 71
     0
 10
0.0
 20
0.0
 30
0.0
  3
SW_NOTE_0_6
  1

  0
MTEXT
  5
33F
330
33C
100
AcDbEntity
  8
NOTES
 62
     0
100
AcDbMText
 10
0.0
 20
0.6386718750000004
 30
0.0
 40
0.5
 41
0.0
 71
     1
 72
     1
  1
Side view
  7
SLDTEXTSTYLE1
 73
     1
 44
1.0
  0
MTEXT
  5
340
330
33C
100
AcDbEntity
  8
NOTES
 62
     0
100
AcDbMText
 10
0.0
 20
-0.0078559229223743
 30
0.0
 40
0.5
 41
0.0
 71
     1
 72
     1
  1
105 _ 107
  7
SLDTEXTSTYLE1
 73
     1
 44
1.0
  0
ENDBLK
  5
5BA
330
33C
100
AcDbEntity
  8
0
100
AcDbBlockEnd
  0
BLOCK
  5
5BB
330
49E
100
AcDbEntity
  8
0
100
AcDbBlockBegin
  2
_D_5
 70
     0
 71
     0
 10
0.0
 20
0.0
 30
0.0
  3
_D_5
  1

  0
INSERT
  5
4A1
330
49E
100
AcDbEntity
  8
DIMS
100
AcDbBlockReference
  2
_Open90
 10
23.46837831963516
 20
23.77469037000011
 30
7.695827986068139
 41
0.5
 42
0.5
 50
180.0000000000004
  0
INSERT
  5
4A2
330
49E
100
AcDbEntity
  8
DIMS
100
AcDbBlockReference
  2
_Open90
 10
31.46837831963515
 20
23.77469037000011
 30
7.695827986068139
 41
0.5
 42
0.5
 50
0.0000000000004071
  0
LINE
  5
4A3
330
49E
100
AcDbEntity
  8
DIMS
100
AcDbLine
 10
23.46837831963516
 20
19.9766299131451
 30
0.0
 11
23.46837831963516
 21
24.14969037000011
 31
0.0
  0
LINE
  5
4A4
330
49E
100
AcDbEntity
  8
DIMS
100
AcDbLine
 10
31.46837831963515
 20
19.9766299131451
 30
0.0
 11
31.46837831963515
 21
24.14969037000011
 31
0.0
  0
LINE
  5
4A5
330
49E
100
AcDbEntity
  8
DIMS
100
AcDbLine
 10
23.46837831963516
 20
23.77469037000011
 30
0.0
 11
27.42883600156438
 21
23.77469037000011
 31
0.0
  0
LINE
  5
4A6
330
49E
100
AcDbEntity
  8
DIMS
100
AcDbLine
 10
31.46837831963515
 20
23.77469037000011
 30
0.0
 11
28.00453044775968
 21
23.77469037000011
 31
0.0
  0
MTEXT
  5
4A7
330
49E
100
AcDbEntity
  8
DIMS
100
AcDbMText
 10
27.42883600156438
 20
24.01648728806681
 30
0.0
 40
0.5
 41
0.0
 71
     1
 72
     1
  1
8"
  7
SLDTEXTSTYLE1
 73
     1
 44
1.0
  0
ENDBLK
  5
5BC
330
49E
100
AcDbEntity
  8
0
100
AcDbBlockEnd
  0
BLOCK
  5
5BD
330
4A9
100
AcDbEntity
  8
0
100
AcDbBlockBegin
  2
_D_6
 70
     0
 71
     0
 10
0.0
 20
0.0
 30
0.0
  3
_D_6
  1

  0
INSERT
  5
4AC
330
4A9
100
AcDbEntity
  8
DIMS
100
AcDbBlockReference
  2
_Open90
 10
34.16525020961231
 20
19.80996324647843
 30
7.695827986068139
 41
0.5
 42
0.5
 50
90.00000000000036
  0
INSERT
  5
4AD
330
4A9
100
AcDbEntity
  8
DIMS
100
AcDbBlockReference
  2
_Open90
 10
34.1652502096123
 20
11.80996324647844
 30
7.695827986068139
 41
0.5
 42
0.5
 50
270.0000000000003
  0
LINE
  5
4AE
330
4A9
100
AcDbEntity
  8
DIMS
100
AcDbLine
 10
31.63504498630182
 20
19.80996324647844
 30
0.0
 11
34.54025020961231
 21
19.80996324647843
 31
0.0
  0
LINE
  5
4AF
330
4A9
100
AcDbEntity
  8
DIMS
100
AcDbLine
 10
31.63504498630181
 20
11.80996324647844
 30
0.0
 11
34.5402502096123
 21
11.80996324647844
 31
0.0
  0
LINE
  5
4B0
330
4A9
100
AcDbEntity
  8
DIMS
100
AcDbLine
 10
34.16525020961231
 20
19.80996324647843
 30
0.0
 11
34.1652502096123
 21
16.85048834253806
 31
0.0
  0
LINE
  5
4B1
330
4A9
100
AcDbEntity
  8
DIMS
100
AcDbLine
 10
34.1652502096123
 20
11.80996324647844
 30
0.0
 11
34.1652502096123
 21
16.05673831867274
 31
0.0
  0
MTEXT
  5
4B2
330
4A9
100
AcDbEntity
  8
DIMS
100
AcDbMText
 10
33.87740298651465
 20
16.69541024867204
 30
0.0
 40
0.5
 41
0.0
 71
     1
 72
     1
  1
8"
  7
SLDTEXTSTYLE1
 73
     1
 44
1.0
  0
ENDBLK
  5
5BE
330
4A9
100
AcDbEntity
  8
0
100
AcDbBlockEnd
  0
BLOCK
  5
5BF
330
4B5
100
AcDbEntity
  8
0
100
AcDbBlockBegin
  2
_D_7
 70
     0
 71
     0
 10
0.0
 20
0.0
 30
0.0
  3
_D_7
  1

  0
INSERT
  5
4B8
330
4B5
100
AcDbEntity
  8
DIMS
100
AcDbBlockReference
  2
_Open90
 10
34.1652502096123
 20
19.80996324647841
 30
7.695827986068139
 41
0.5
 42
0.5
 50
89.99999999999993
  0
INSERT
  5
4B9
330
4B5
100
AcDbEntity
  8
DIMS
100
AcDbBlockReference
  2
_Open90
 10
34.16525020961231
 20
22.23169518899661
 30
7.695827986068139
 41
0.5
 42
0.5
 50
269.9999999999999
  0
LINE
  5
4BA
330
4B5
100
AcDbEntity
  8
DIMS
100
AcDbLine
 10
33.80413910286529
 20
21.17259448924035
 30
0.0
 11
34.68955579778941
 21
21.17259448924035
 31
0.0
  0
LINE
  5
4BB
330
4B5
100
AcDbEntity
  8
DIMS
100
AcDbLine
 10
31.63504498630182
 20
19.80996324647844
 30
0.0
 11
34.5402502096123
 21
19.80996324647841
 31
0.0
  0
LINE
  5
4BC
330
4B5
100
AcDbEntity
  8
DIMS
100
AcDbLine
 10
33.05354276708095
 20
22.23169518899662
 30
0.0
 11
34.54025020961231
 21
22.2316951889966
 31
0.0
  0
LINE
  5
4BD
330
4B5
100
AcDbEntity
  8
DIMS
100
AcDbLine
 10
34.1652502096123
 20
19.80996324647841
 30
0.0
 11
34.16525020961229
 21
18.84842478493995
 31
0.0
  0
LINE
  5
4BE
330
4B5
100
AcDbEntity
  8
DIMS
100
AcDbLine
 10
34.16525020961231
 20
22.23169518899661
 30
0.0
 11
34.16525020961232
 21
23.19323365053507
 31
0.0
  0
MTEXT
  5
4BF
330
4B5
100
AcDbEntity
  8
DIMS
100
AcDbMText
 10
33.36143075540323
 20
21.40199554967172
 30
0.0
 40
0.5
 41
0.0
 71
     1
 72
     1
  1
2
  7
SLDTEXTSTYLE1
 73
     1
 44
1.0
  0
MTEXT
  5
4C0
330
4B5
100
AcDbEntity
  8
DIMS
100
AcDbMText
 10
34.06212522758756
 20
21.76730804871723
 30
0.0
 40
0.5
 41
0.0
 71
     1
 72
     1
  1
7
  7
SLDTEXTSTYLE1
 73
     1
 44
1.0
  0
MTEXT
  5
4C1
330
4B5
100
AcDbEntity
  8
DIMS
100
AcDbMText
 10
33.87740300484778
 20
21.10612747016919
 30
0.0
 40
0.5
 41
0.0
 71
     1
 72
     1
  1
16
  7
SLDTEXTSTYLE1
 73
     1
 44
1.0
  0
MTEXT
  5
4C2
330
4B5
100
AcDbEntity
  8
DIMS
100
AcDbMText
 10
34.7628196997719
 20
21.40199554967172
 30
0.0
 40
0.5
 41
0.0
 71
     1
 72
     1
  1
"
  7
SLDTEXTSTYLE1
 73
     1
 44
1.0
  0
ENDBLK
  5
5C0
330
4B5
100
AcDbEntity
  8
0
100
AcDbBlockEnd
  0
BLOCK
  5
5C1
330
4C3
100
AcDbEntity
  8
0
100
AcDbBlockBegin
  2
SW_NOTE_0_7
 70
     0
 71
     0
 10
0.0
 20
0.0
 30
0.0
  3
SW_NOTE_0_7
  1

  0
LINE
  5
4C6
330
4C3
100
AcDbEntity
  8
NOTES
 62
     0
100
AcDbLine
 10
4.936050941624978
 20
0.0
 30
0.0
 11
0.0
 21
0.0
 31
0.0
  0
MTEXT
  5
4C7
330
4C3
100
AcDbEntity
  8
NOTES
 62
     0
100
AcDbMText
 10
0.0188962349607968
 20
0.6414434221927
 30
0.0
 40
0.5
 41
0.0
 71
     1
 72
     1
  1
mounting holes
  7
SLDTEXTSTYLE1
 73
     1
 44
1.0
  0
ENDBLK
  5
5C2
330
4C3
100
AcDbEntity
  8
0
100
AcDbBlockEnd
  0
ENDSEC
  0
SECTION
  2
ENTITIES
  0
LINE
  5
79
330
1F
100
AcDbEntity
  8
BORDER
370
    50
100
AcDbLine
 10
29.43391070279198
 20
1.381311886050946
 30
0.0
 11
46.41567412997442
 21
1.381311886050946
 31
0.0
  0
LINE
  5
7A
330
1F
100
AcDbEntity
  8
BORDER
370
    50
100
AcDbLine
 10
46.4156194230234
 20
5.369060515145104
 30
0.0
 11
36.22622275109721
 21
5.369060515145103
 31
0.0
  0
LINE
  5
7B
330
1F
100
AcDbEntity
  8
BORDER
370
    50
100
AcDbLine
 10
29.43391070279198
 20
2.436487844692758
 30
0.0
 11
22.42166679904371
 21
2.436487844692757
 31
0.0
  0
LINE
  5
7C
330
1F
100
AcDbEntity
  8
BORDER
370
    50
100
AcDbLine
 10
29.43391070279198
 20
1.381311886050946
 30
0.0
 11
22.42166679904371
 21
1.381311886050945
 31
0.0
  0
LINE
  5
7D
330
1F
100
AcDbEntity
  8
BORDER
370
    50
100
AcDbLine
 10
29.43391070279198
 20
1.381311886050946
 30
0.0
 11
29.43391070279198
 21
3.491663803334569
 31
0.0
  0
LINE
  5
7E
330
1F
100
AcDbEntity
  8
BORDER
370
    50
100
AcDbLine
 10
22.42166679904371
 20
3.491663803334568
 30
0.0
 11
22.42166679904371
 21
0.3937001215893171
 31
0.0
  0
LINE
  5
7F
330
1F
100
AcDbEntity
  8
BORDER
370
    50
100
AcDbLine
 10
22.42166679904371
 20
0.3937001215893171
 30
0.0
 11
46.41568767877938
 21
0.3937001215893171
 31
0.0
  0
LINE
  5
80
330
1F
100
AcDbEntity
  8
BORDER
370
    50
100
AcDbLine
 10
46.4156194230234
 20
5.369060515145104
 30
0.0
 11
46.41568767877938
 21
0.3937001215893171
 31
0.0
  0
LINE
  5
81
330
1F
100
AcDbEntity
  8
BORDER
370
    50
100
AcDbLine
 10
29.43391070279198
 20
3.491663803334569
 30
0.0
 11
22.42166679904371
 21
3.491663803334568
 31
0.0
  0
LINE
  5
82
330
1F
100
AcDbEntity
  8
BORDER
370
    50
100
AcDbLine
 10
29.43391070279198
 20
3.491663803334569
 30
0.0
 11
46.41544924304012
 21
3.491664955913943
 31
0.0
  0
LINE
  5
83
330
1F
100
AcDbEntity
  8
BORDER
370
    50
100
AcDbLine
 10
36.22622275109721
 20
5.369060515145103
 30
0.0
 11
36.22622275109721
 21
0.3573773641115478
 31
0.0
  0
MTEXT
  5
85
330
1F
100
AcDbEntity
  8
NOTES
100
AcDbMText
 10
23.32398548181345
 20
0.9639904562836571
 30
0.0
 40
0.25
 41
0.0
 71
     1
 72
     1
  1
UNLESS OTHERWISE SPECIFIED DIMENSIONS ARE IN INCHES.
  7
SLDTEXTSTYLE0
 73
     1
 44
1.0
  0
MTEXT
  5
86
330
1F
100
AcDbEntity
  8
NOTES
100
AcDbMText
 10
23.34575760666969
 20
2.976762899169739
 30
0.0
 40
0.25
 41
0.0
 71
     1
 72
     1
  1
DATE:
  7
SLDTEXTSTYLE0
 73
     1
 44
1.0
  0
MTEXT
  5
87
330
1F
100
AcDbEntity
  8
NOTES
100
AcDbMText
 10
25.4543888667847
 20
2.086733085252027
 30
0.0
 40
0.25
 41
0.0
 71
     2
 72
     1
  1
DO NOT SCALE DRAWING
  7
SLDTEXTSTYLE0
 73
     1
 44
1.0
  0
MTEXT
  5
89
330
1F
100
AcDbEntity
  8
NOTES
100
AcDbMText
 10
29.74642498628476
 20
3.161975676886921
 30
0.0
 40
0.25
 41
0.0
 71
     1
 72
     1
  1
TITLE:
  7
SLDTEXTSTYLE1
 73
     1
 44
1.0
  0
MTEXT
  5
8A
330
1F
100
AcDbEntity
  8
NOTES
100
AcDbMText
 10
37.07187078394034
 20
3.161975676886921
 30
0.0
 40
0.25
 41
0.0
 71
     1
 72
     1
  1
DWG NO.
  7
SLDTEXTSTYLE1
 73
     1
 44
1.0
  0
MTEXT
  5
8B
330
1F
100
AcDbEntity
  8
NOTES
100
AcDbMText
 10
37.09886299906432
 20
0.9582816792631479
 30
0.0
 40
0.25
 41
0.0
 71
     1
 72
     1
  1
SCALE:     1:1
  7
SLDTEXTSTYLE1
 73
     1
 44
1.0
  0
MTEXT
  5
8C
330
1F
100
AcDbEntity
  8
NOTES
100
AcDbMText
 10
41.11320432254274
 20
2.701206582691213
 30
0.0
 40
0.5
 41
0.0
 71
     2
 72
     1
  1
Code 105_107
  7
SLDTEXTSTYLE1
 73
     1
 44
1.0
  0
MTEXT
  5
8D
330
1F
100
AcDbEntity
  8
0
  6
Continuous
 62
     1
370
     0
100
AcDbMText
 10
30.55556458389127
 20
2.578344188760076
 30
0.0
 40
0.3749999999999999
 41
0.0
 71
     1
 72
     1
  1
Elevation
  7
SLDTEXTSTYLE1
 73
     1
 44
1.0
  0
INSERT
  5
9D
330
1F
100
AcDbEntity
  8
NOTES
100
AcDbBlockReference
  2
SW_NOTE_0_1
 10
23.53166030337019
 20
5.041852806368022
 30
0.0
  0
ARC
  5
9E
330
1F
100
AcDbEntity
  8
OBJECT
  6
SLD-Solid
370
    25
100
AcDbCircle
 10
2.599301657335909
 20
9.863564240859764
 30
0.0
 40
0.0020000000000015
100
AcDbArc
 50
0.0
 51
146.659496408672
  0
ARC
  5
9F
330
1F
100
AcDbEntity
  8
OBJECT
  6
SLD-Solid
370
    25
100
AcDbCircle
 10
2.756658800193051
 20
9.760040606567213
 30
0.0
 40
0.1903571428571429
100
AcDbArc
 50
146.6594964087109
 51
190.2680168881641
  0
ARC
  5
A0
330
1F
100
AcDbEntity
  8
OBJECT
  6
SLD-Solid
370
    25
100
AcDbCircle
 10
13.46330165733595
 20
9.8635642408598
 30
0.0
 40
0.0020000000000007
100
AcDbArc
 50
33.34050359136299
 51
179.9999999999491
  0
ARC
  5
A1
330
1F
100
AcDbEntity
  8
OBJECT
  6
SLD-Solid
370
    25
100
AcDbCircle
 10
13.30594451447881
 20
9.760040606567255
 30
0.0
 40
0.1903571428571428
100
AcDbArc
 50
349.7319831118293
 51
33.3405035912889
  0
LINE
  5
A2
330
1F
100
AcDbEntity
  8
OBJECT
  6
SLD-Solid
370
    25
100
AcDbLine
 10
8.481301657335873
 20
22.26069518899668
 30
0.0
 11
8.481301657335873
 21
22.43169518899668
 31
0.0
  0
LINE
  5
A3
330
1F
100
AcDbEntity
  8
OBJECT
  6
SLD-Solid
370
    25
100
AcDbLine
 10
7.581301657335874
 20
22.43169518899668
 30
0.0
 11
7.581301657335874
 21
22.23169518899667
 31
0.0
  0
ARC
  5
A4
330
1F
100
AcDbEntity
  8
OBJECT
  6
SLD-Solid
370
    25
100
AcDbCircle
 10
7.631301657335871
 20
22.43169518899668
 30
0.0
 40
0.0500000000000043
100
AcDbArc
 50
90.00000000000917
 51
180.0
  0
ARC
  5
A5
330
1F
100
AcDbEntity
  8
OBJECT
  6
SLD-Solid
370
    25
100
AcDbCircle
 10
8.431301657335876
 20
22.43169518899668
 30
0.0
 40
0.0500000000000043
100
AcDbArc
 50
0.0
 51
89.99999999999186
  0
LINE
  5
A6
330
1F
100
AcDbEntity
  8
OBJECT
  6
SLD-Solid
370
    25
100
AcDbLine
 10
2.494903876556861
 20
9.738252456181348
 30
0.0
 11
2.46490387655686
 21
9.633630022866118
 31
0.0
  0
LINE
  5
A7
330
1F
100
AcDbEntity
  8
OBJECT
  6
SLD-Solid
370
    25
100
AcDbLine
 10
2.46490387655686
 20
9.467874889496573
 30
0.0
 11
2.494903876556861
 21
9.363252456181343
 31
0.0
  0
LINE
  5
A8
330
1F
100
AcDbEntity
  8
OBJECT
  6
SLD-Solid
370
    25
100
AcDbLine
 10
2.519903876556861
 20
9.738252456181346
 30
0.0
 11
2.494903876556861
 21
9.738252456181346
 31
0.0
  0
LINE
  5
A9
330
1F
100
AcDbEntity
  8
OBJECT
  6
SLD-Solid
370
    25
100
AcDbLine
 10
2.494903876556861
 20
9.363252456181346
 30
0.0
 11
2.519903876556861
 21
9.363252456181346
 31
0.0
  0
LINE
  5
AA
330
1F
100
AcDbEntity
  8
OBJECT
  6
SLD-Solid
370
    25
100
AcDbLine
 10
2.549803876556886
 20
9.458752456181346
 30
0.0
 11
2.554301657335921
 21
9.458752456181346
 31
0.0
  0
LINE
  5
AB
330
1F
100
AcDbEntity
  8
OBJECT
  6
SLD-Solid
370
    25
100
AcDbLine
 10
2.554301657335921
 20
9.642752456181345
 30
0.0
 11
2.549803876556882
 21
9.642752456181345
 31
0.0
  0
LINE
  5
AC
330
1F
100
AcDbEntity
  8
OBJECT
  6
SLD-Solid
370
    25
100
AcDbLine
 10
13.56769943811497
 20
9.363252456181351
 30
0.0
 11
13.59769943811498
 21
9.46787488949658
 31
0.0
  0
LINE
  5
AD
330
1F
100
AcDbEntity
  8
OBJECT
  6
SLD-Solid
370
    25
100
AcDbLine
 10
13.59769943811498
 20
9.633630022866127
 30
0.0
 11
13.56769943811497
 21
9.738252456181355
 31
0.0
  0
LINE
  5
AE
330
1F
100
AcDbEntity
  8
OBJECT
  6
SLD-Solid
370
    25
100
AcDbLine
 10
13.54269943811498
 20
9.363252456181353
 30
0.0
 11
13.56769943811497
 21
9.363252456181353
 31
0.0
  0
LINE
  5
AF
330
1F
100
AcDbEntity
  8
OBJECT
  6
SLD-Solid
370
    25
100
AcDbLine
 10
13.56769943811497
 20
9.738252456181353
 30
0.0
 11
13.54269943811498
 21
9.738252456181353
 31
0.0
  0
LINE
  5
B0
330
1F
100
AcDbEntity
  8
OBJECT
  6
SLD-Solid
370
    25
100
AcDbLine
 10
13.51279943811498
 20
9.642752456181354
 30
0.0
 11
13.50830165733592
 21
9.642752456181354
 31
0.0
  0
LINE
  5
B1
330
1F
100
AcDbEntity
  8
OBJECT
  6
SLD-Solid
370
    25
100
AcDbLine
 10
13.50830165733592
 20
9.458752456181353
 30
0.0
 11
13.51279943811498
 21
9.458752456181353
 31
0.0
  0
ARC
  5
B2
330
1F
100
AcDbEntity
  8
OBJECT
  6
SLD-Solid
370
    25
100
AcDbCircle
 10
13.51130165733592
 20
9.322733982080095
 30
0.0
 40
0.0499999999999999
100
AcDbArc
 50
134.9999999999971
 51
180.0
  0
ARC
  5
B3
330
1F
100
AcDbEntity
  8
OBJECT
  6
SLD-Solid
370
    25
100
AcDbCircle
 10
13.51130165733592
 20
9.778770930282604
 30
0.0
 40
0.0499999999999999
100
AcDbArc
 50
179.999999999998
 51
225.0000000000037
  0
ARC
  5
B4
330
1F
100
AcDbEntity
  8
OBJECT
  6
SLD-Solid
370
    25
100
AcDbCircle
 10
2.561301657335918
 20
9.77462879465885
 30
0.0
 40
0.0400000000000009
100
AcDbArc
 50
314.999999999999
 51
0.0000000000050889
  0
ARC
  5
B5
330
1F
100
AcDbEntity
  8
OBJECT
  6
SLD-Solid
370
    25
100
AcDbCircle
 10
2.561301657335921
 20
9.326876117703797
 30
0.0
 40
0.0400000000000009
100
AcDbArc
 50
359.9999999999957
 51
45.0000000000018
  0
LINE
  5
B6
330
1F
100
AcDbEntity
  8
OBJECT
  6
SLD-Solid
370
    25
100
AcDbLine
 10
2.58958592858338
 20
9.746344523411386
 30
0.0
 11
2.566017386088454
 21
9.722775980916458
 31
0.0
  0
LINE
  5
B7
330
1F
100
AcDbEntity
  8
OBJECT
  6
SLD-Solid
370
    25
100
AcDbLine
 10
2.566017386088456
 20
9.378728931446188
 30
0.0
 11
2.589585928583382
 21
9.35516038895126
 31
0.0
  0
LINE
  5
B8
330
1F
100
AcDbEntity
  8
OBJECT
  6
SLD-Solid
370
    25
100
AcDbLine
 10
13.4759463182766
 20
9.358089321139424
 30
0.0
 11
13.49365699639525
 21
9.375799999258078
 31
0.0
  0
LINE
  5
B9
330
1F
100
AcDbEntity
  8
OBJECT
  6
SLD-Solid
370
    25
100
AcDbLine
 10
13.49365699639525
 20
9.725704913104623
 30
0.0
 11
13.4759463182766
 21
9.743415591223277
 31
0.0
  0
ARC
  5
BA
330
1F
100
AcDbEntity
  8
OBJECT
  6
SLD-Solid
370
    25
100
AcDbCircle
 10
13.45830165733592
 20
9.690349574045296
 30
0.0
 40
0.0499999999999989
100
AcDbArc
 50
359.9999999999927
 51
44.9999999999928
  0
ARC
  5
BB
330
1F
100
AcDbEntity
  8
OBJECT
  6
SLD-Solid
370
    25
100
AcDbCircle
 10
13.45830165733592
 20
9.411155338317405
 30
0.0
 40
0.0499999999999989
100
AcDbArc
 50
315.000000000008
 51
0.000000000008241
  0
ARC
  5
BC
330
1F
100
AcDbEntity
  8
OBJECT
  6
SLD-Solid
370
    25
100
AcDbCircle
 10
2.594301657335921
 20
9.407013202693651
 30
0.0
 40
0.0400000000000005
100
AcDbArc
 50
180.0000000000086
 51
225.000000000003
  0
ARC
  5
BD
330
1F
100
AcDbEntity
  8
OBJECT
  6
SLD-Solid
370
    25
100
AcDbCircle
 10
2.594301657335919
 20
9.694491709669004
 30
0.0
 40
0.0400000000000009
100
AcDbArc
 50
135.0
 51
179.9999999999949
  0
SPLINE
  5
BE
330
1F
100
AcDbEntity
  8
OBJECT
  6
SLD-Solid
370
    25
100
AcDbSpline
210
0.0
220
0.0
230
1.0
 70
    12
 71
     3
 72
     9
 73
     5
 74
     0
 42
0.00000001
 43
0.00000001
 40
0.0
 40
0.0
 40
0.0
 40
0.0
 40
0.6550284820525457
 40
1.0
 40
1.0
 40
1.0
 40
1.0
 10
4.04285589371614
 20
9.044073413172166
 30
0.0
 41
1.0
 10
4.054748463997753
 20
9.046108961936403
 30
0.0
 41
1.0
 10
4.072904270359559
 20
9.049216534843557
 30
0.0
 41
1.0
 10
4.092428504833737
 20
9.048925456267746
 30
0.0
 41
1.0
 10
4.099163809637055
 20
9.048825042449607
 30
0.0
 41
1.0
  0
SPLINE
  5
BF
330
1F
100
AcDbEntity
  8
OBJECT
  6
SLD-Solid
370
    25
100
AcDbSpline
210
0.0
220
0.0
230
1.0
 70
    12
 71
     3
 72
     9
 73
     5
 74
     0
 42
0.00000001
 43
0.00000001
 40
0.0
 40
0.0
 40
0.0
 40
0.0
 40
0.5960316812254248
 40
1.0
 40
1.0
 40
1.0
 40
1.0
 10
4.216301657335914
 20
9.025173380588432
 30
0.0
 41
1.0
 10
4.220397549778563
 20
9.022403510450475
 30
0.0
 41
1.0
 10
4.227269487247104
 20
9.017756324360867
 30
0.0
 41
1.0
 10
4.226715392194743
 20
9.018159339450278
 30
0.0
 41
1.0
 10
4.226491555348
 20
9.018322144778388
 30
0.0
 41
1.0
  0
SPLINE
  5
C0
330
1F
100
AcDbEntity
  8
OBJECT
  6
SLD-Solid
370
    25
100
AcDbSpline
210
0.0
220
0.0
230
1.0
 70
    12
 71
     3
 72
    10
 73
     6
 74
     0
 42
0.00000001
 43
0.00000001
 40
0.0
 40
0.0
 40
0.0
 40
0.0
 40
0.3810163878521643
 40
0.8954436795532973
 40
1.0
 40
1.0
 40
1.0
 40
1.0
 10
3.976059679250101
 20
9.018181664790573
 30
0.0
 41
1.0
 10
3.976116280084436
 20
9.018199078566258
 30
0.0
 41
1.0
 10
3.976249300240468
 20
9.018240003460493
 30
0.0
 41
1.0
 10
3.983029309686095
 20
9.02429268076295
 30
0.0
 41
1.0
 10
3.991585157926428
 20
9.027803898373094
 30
0.0
 41
1.0
 10
3.993030378757405
 20
9.028396999686922
 30
0.0
 41
1.0
  0
SPLINE
  5
C1
330
1F
100
AcDbEntity
  8
OBJECT
  6
SLD-Solid
370
    25
100
AcDbSpline
210
0.0
220
0.0
230
1.0
 70
    12
 71
     3
 72
     9
 73
     5
 74
     0
 42
0.00000001
 43
0.00000001
 40
0.0
 40
0.0
 40
0.0
 40
0.0
 40
0.655028482052862
 40
1.0
 40
1.0
 40
1.0
 40
1.0
 10
11.90285589371616
 20
9.04407341317218
 30
0.0
 41
1.0
 10
11.91474846399777
 20
9.046108961936419
 30
0.0
 41
1.0
 10
11.93290427035957
 20
9.04921653484357
 30
0.0
 41
1.0
 10
11.95242850483373
 20
9.048925456267757
 30
0.0
 41
1.0
 10
11.95916380963704
 20
9.048825042449618
 30
0.0
 41
1.0
  0
SPLINE
  5
C2
330
1F
100
AcDbEntity
  8
OBJECT
  6
SLD-Solid
370
    25
100
AcDbSpline
210
0.0
220
0.0
230
1.0
 70
    12
 71
     3
 72
     9
 73
     5
 74
     0
 42
0.00000001
 43
0.00000001
 40
0.0
 40
0.0
 40
0.0
 40
0.0
 40
0.5960316812259229
 40
1.0
 40
1.0
 40
1.0
 40
1.0
 10
12.07630165733591
 20
9.02517338058844
 30
0.0
 41
1.0
 10
12.08039754977856
 20
9.02240351045048
 30
0.0
 41
1.0
 10
12.0872694872471
 20
9.017756324360873
 30
0.0
 41
1.0
 10
12.08671539219473
 20
9.018159339450287
 30
0.0
 41
1.0
 10
12.08649155534799
 20
9.018322144778397
 30
0.0
 41
1.0
  0
SPLINE
  5
C3
330
1F
100
AcDbEntity
  8
OBJECT
  6
SLD-Solid
370
    25
100
AcDbSpline
210
0.0
220
0.0
230
1.0
 70
    12
 71
     3
 72
    10
 73
     6
 74
     0
 42
0.00000001
 43
0.00000001
 40
0.0
 40
0.0
 40
0.0
 40
0.0
 40
0.3810163878525159
 40
0.8954436795537399
 40
1.0
 40
1.0
 40
1.0
 40
1.0
 10
11.83605967925009
 20
9.018181664790582
 30
0.0
 41
1.0
 10
11.83611628008443
 20
9.018199078566267
 30
0.0
 41
1.0
 10
11.83624930024046
 20
9.0182400034605
 30
0.0
 41
1.0
 10
11.84302930968609
 20
9.024292680762967
 30
0.0
 41
1.0
 10
11.85158515792642
 20
9.027803898373103
 30
0.0
 41
1.0
 10
11.85303037875739
 20
9.02839699968693
 30
0.0
 41
1.0
  0
SPLINE
  5
C4
330
1F
100
AcDbEntity
  8
OBJECT
  6
SLD-Solid
370
    25
100
AcDbSpline
210
0.0
220
0.0
230
1.0
 70
    12
 71
     3
 72
    14
 73
    10
 74
     0
 42
0.00000001
 43
0.00000001
 40
0.0
 40
0.0
 40
0.0
 40
0.0
 40
0.0194418972919535
 40
0.1782137323024065
 40
0.353634816824982
 40
0.529910963842397
 40
0.7052097660168103
 40
0.8829830135188008
 40
1.0
 40
1.0
 40
1.0
 40
1.0
 10
4.228912749903015
 20
9.117902295598974
 30
0.0
 41
1.0
 10
4.227924942915758
 20
9.118872874310219
 30
0.0
 41
1.0
 10
4.218870231467063
 20
9.12776966313832
 30
0.0
 41
1.0
 10
4.194414516975224
 20
9.13915249524558
 30
0.0
 41
1.0
 10
4.155845042101043
 20
9.151536205215038
 30
0.0
 41
1.0
 10
4.111077262059377
 20
9.156645178425267
 30
0.0
 41
1.0
 10
4.065823251443969
 20
9.154357997524524
 30
0.0
 41
1.0
 10
4.027106325506258
 20
9.146906282909608
 30
0.0
 41
1.0
 10
4.007290818293586
 20
9.136953245475633
 30
0.0
 41
1.0
 10
3.999425052497031
 20
9.133002387161497
 30
0.0
 41
1.0
  0
SPLINE
  5
C5
330
1F
100
AcDbEntity
  8
OBJECT
  6
SLD-Solid
370
    25
100
AcDbSpline
210
0.0
220
0.0
230
1.0
 70
    12
 71
     3
 72
    14
 73
    10
 74
     0
 42
0.00000001
 43
0.00000001
 40
0.0
 40
0.0
 40
0.0
 40
0.0
 40
0.0458032383958119
 40
0.2215547918670046
 40
0.3981630186519839
 40
0.5737920594120576
 40
0.7519002070108916
 40
0.9370371714806331
 40
1.0
 40
1.0
 40
1.0
 40
1.0
 10
12.0639595268698
 20
9.133053793701224
 30
0.0
 41
1.0
 10
12.06105064505787
 20
9.134762340611394
 30
0.0
 41
1.0
 10
12.0469800961845
 20
9.143026750909346
 30
0.0
 41
1.0
 10
12.01539194730146
 20
9.151112934990154
 30
0.0
 41
1.0
 10
11.97126329092952
 20
9.156689249830283
 30
0.0
 41
1.0
 10
11.92552998465307
 20
9.154602350956791
 30
0.0
 41
1.0
 10
11.88254279666336
 20
9.144775566247477
 30
0.0
 41
1.0
 10
11.85157974343857
 20
9.132704877085176
 30
0.0
 41
1.0
 10
11.8383093685503
 20
9.120964172298484
 30
0.0
 41
1.0
 10
11.83494160943849
 20
9.117984613253816
 30
0.0
 41
1.0
  0
SPLINE
  5
C6
330
1F
100
AcDbEntity
  8
OBJECT
  6
SLD-Solid
370
    25
100
AcDbSpline
210
0.0
220
0.0
230
1.0
 70
    12
 71
     3
 72
     9
 73
     5
 74
     0
 42
0.00000001
 43
0.00000001
 40
0.0
 40
0.0
 40
0.0
 40
0.0
 40
0.6550284820514245
 40
1.0
 40
1.0
 40
1.0
 40
1.0
 10
6.042855893716182
 20
8.912475146831937
 30
0.0
 41
1.0
 10
6.05474846399779
 20
8.914510695596173
 30
0.0
 41
1.0
 10
6.07290427035962
 20
8.917618268503325
 30
0.0
 41
1.0
 10
6.09242850483382
 20
8.917327189927514
 30
0.0
 41
1.0
 10
6.099163809637169
 20
8.917226776109374
 30
0.0
 41
1.0
  0
SPLINE
  5
C7
330
1F
100
AcDbEntity
  8
OBJECT
  6
SLD-Solid
370
    25
100
AcDbSpline
210
0.0
220
0.0
230
1.0
 70
    12
 71
     3
 72
     9
 73
     5
 74
     0
 42
0.00000001
 43
0.00000001
 40
0.0
 40
0.0
 40
0.0
 40
0.0
 40
0.6078874107911402
 40
1.0
 40
1.0
 40
1.0
 40
1.0
 10
6.215812154430806
 20
8.893905633223778
 30
0.0
 41
1.0
 10
6.220134202573698
 20
8.890982753976523
 30
0.0
 41
1.0
 10
6.227244151005213
 20
8.886174496402225
 30
0.0
 41
1.0
 10
6.226703536932008
 20
8.88656913548543
 30
0.0
 41
1.0
 10
6.226491555348
 20
8.886723878438152
 30
0.0
 41
1.0
  0
SPLINE
  5
C8
330
1F
100
AcDbEntity
  8
OBJECT
  6
SLD-Solid
370
    25
100
AcDbSpline
210
0.0
220
0.0
230
1.0
 70
    12
 71
     3
 72
    10
 73
     6
 74
     0
 42
0.00000001
 43
0.00000001
 40
0.0
 40
0.0
 40
0.0
 40
0.0
 40
0.381016387853151
 40
0.8954436795552223
 40
1.0
 40
1.0
 40
1.0
 40
1.0
 10
5.976059679250098
 20
8.886583398450336
 30
0.0
 41
1.0
 10
5.976116280084435
 20
8.886600812226021
 30
0.0
 41
1.0
 10
5.976249300240471
 20
8.886641737120257
 30
0.0
 41
1.0
 10
5.983029309686081
 20
8.892694414422715
 30
0.0
 41
1.0
 10
5.991585157926382
 20
8.896205632032837
 30
0.0
 41
1.0
 10
5.99303037875733
 20
8.896798733346655
 30
0.0
 41
1.0
  0
SPLINE
  5
C9
330
1F
100
AcDbEntity
  8
OBJECT
  6
SLD-Solid
370
    25
100
AcDbSpline
210
0.0
220
0.0
230
1.0
 70
    12
 71
     3
 72
     9
 73
     5
 74
     0
 42
0.00000001
 43
0.00000001
 40
0.0
 40
0.0
 40
0.0
 40
0.0
 40
0.6550284820522925
 40
1.0
 40
1.0
 40
1.0
 40
1.0
 10
9.902855893716108
 20
8.912475146831937
 30
0.0
 41
1.0
 10
9.914748463997727
 20
8.914510695596178
 30
0.0
 41
1.0
 10
9.932904270359549
 20
8.917618268503333
 30
0.0
 41
1.0
 10
9.952428504833744
 20
8.917327189927521
 30
0.0
 41
1.0
 10
9.959163809637072
 20
8.917226776109382
 30
0.0
 41
1.0
  0
SPLINE
  5
CA
330
1F
100
AcDbEntity
  8
OBJECT
  6
SLD-Solid
370
    25
100
AcDbSpline
210
0.0
220
0.0
230
1.0
 70
    12
 71
     3
 72
     9
 73
     5
 74
     0
 42
0.00000001
 43
0.00000001
 40
0.0
 40
0.0
 40
0.0
 40
0.0
 40
0.6078874107908729
 40
1.0
 40
1.0
 40
1.0
 40
1.0
 10
10.07581215443078
 20
8.893905633223794
 30
0.0
 41
1.0
 10
10.08013420257367
 20
8.89098275397654
 30
0.0
 41
1.0
 10
10.0872441510052
 20
8.886174496402239
 30
0.0
 41
1.0
 10
10.086703536932
 20
8.886569135485441
 30
0.0
 41
1.0
 10
10.08649155534799
 20
8.886723878438161
 30
0.0
 41
1.0
  0
SPLINE
  5
CB
330
1F
100
AcDbEntity
  8
OBJECT
  6
SLD-Solid
370
    25
100
AcDbSpline
210
0.0
220
0.0
230
1.0
 70
    12
 71
     3
 72
    10
 73
     6
 74
     0
 42
0.00000001
 43
0.00000001
 40
0.0
 40
0.0
 40
0.0
 40
0.0
 40
0.3810163878525484
 40
0.8954436795542755
 40
0.9999999999999999
 40
0.9999999999999999
 40
0.9999999999999999
 40
0.9999999999999999
 10
9.836059679250088
 20
8.886583398450346
 30
0.0
 41
1.0
 10
9.836116280084424
 20
8.88660081222603
 30
0.0
 41
1.0
 10
9.836249300240457
 20
8.886641737120259
 30
0.0
 41
1.0
 10
9.84302930968607
 20
8.892694414422724
 30
0.0
 41
1.0
 10
9.851585157926385
 20
8.896205632032855
 30
0.0
 41
1.0
 10
9.853030378757346
 20
8.896798733346676
 30
0.0
 41
1.0
  0
SPLINE
  5
CC
330
1F
100
AcDbEntity
  8
OBJECT
  6
SLD-Solid
370
    25
100
AcDbSpline
210
0.0
220
0.0
230
1.0
 70
    12
 71
     3
 72
    14
 73
    10
 74
     0
 42
0.00000001
 43
0.00000001
 40
0.0
 40
0.0
 40
0.0
 40
0.0
 40
0.045803238396029
 40
0.2215547918671644
 40
0.3981630186520861
 40
0.5737920594121062
 40
0.751900207010885
 40
0.9370371714805656
 40
0.9999999999999999
 40
0.9999999999999999
 40
0.9999999999999999
 40
0.9999999999999999
 10
10.06395952686984
 20
9.001455527360967
 30
0.0
 41
1.0
 10
10.0610506450579
 20
9.003164074271146
 30
0.0
 41
1.0
 10
10.04698009618451
 20
9.011428484569107
 30
0.0
 41
1.0
 10
10.01539194730146
 20
9.019514668649924
 30
0.0
 41
1.0
 10
9.971263290929503
 20
9.025090983490042
 30
0.0
 41
1.0
 10
9.92552998465306
 20
9.023004084616554
 30
0.0
 41
1.0
 10
9.882542796663348
 20
9.013177299907234
 30
0.0
 41
1.0
 10
9.85157974343855
 20
9.001106610744928
 30
0.0
 41
1.0
 10
9.838309368550279
 20
8.989365905958229
 30
0.0
 41
1.0
 10
9.834941609438461
 20
8.986386346913555
 30
0.0
 41
1.0
  0
SPLINE
  5
CD
330
1F
100
AcDbEntity
  8
OBJECT
  6
SLD-Solid
370
    25
100
AcDbSpline
210
0.0
220
0.0
230
1.0
 70
    12
 71
     3
 72
    14
 73
    10
 74
     0
 42
0.00000001
 43
0.00000001
 40
0.0
 40
0.0
 40
0.0
 40
0.0
 40
0.0194418972919719
 40
0.1782137323024394
 40
0.3536348168249903
 40
0.5299109638423923
 40
0.7052097660167882
 40
0.882983013518766
 40
1.0
 40
1.0
 40
1.0
 40
1.0
 10
6.228912749903021
 20
8.986304029258731
 30
0.0
 41
1.0
 10
6.22792494291576
 20
8.987274607969976
 30
0.0
 41
1.0
 10
6.218870231467067
 20
8.996171396798088
 30
0.0
 41
1.0
 10
6.194414516975224
 20
9.007554228905338
 30
0.0
 41
1.0
 10
6.155845042101041
 20
9.019937938874799
 30
0.0
 41
1.0
 10
6.111077262059374
 20
9.025046912085028
 30
0.0
 41
1.0
 10
6.065823251443969
 20
9.022759731184284
 30
0.0
 41
1.0
 10
6.027106325506255
 20
9.015308016569373
 30
0.0
 41
1.0
 10
6.007290818293579
 20
9.00535497913539
 30
0.0
 41
1.0
 10
5.999425052497021
 20
9.001404120821253
 30
0.0
 41
1.0
  0
LINE
  5
CE
330
1F
100
AcDbEntity
  8
OBJECT
  6
SLD-Solid
370
    25
100
AcDbLine
 10
8.481301657335873
 20
22.23169518899668
 30
0.0
 11
8.481301657335873
 21
22.26069518899668
 31
0.0
  0
LINE
  5
CF
330
1F
100
AcDbEntity
  8
OBJECT
  6
SLD-Solid
370
    25
100
AcDbLine
 10
7.631301657335873
 20
22.48169518899668
 30
0.0
 11
8.431301657335872
 21
22.48169518899668
 31
0.0
  0
LINE
  5
D0
330
1F
100
AcDbEntity
  8
OBJECT
  6
SLD-Solid
370
    25
100
AcDbLine
 10
3.503158644104388
 20
22.23169518899668
 30
0.0
 11
3.508078352632551
 21
22.23661489752484
 31
0.0
  0
ARC
  5
D1
330
1F
100
AcDbEntity
  8
OBJECT
  6
SLD-Solid
370
    25
100
AcDbCircle
 10
3.684855047929186
 20
22.05983820222821
 30
0.0
 40
0.2500000000000036
100
AcDbArc
 50
89.99999999999775
 51
135.0
  0
LINE
  5
D2
330
1F
100
AcDbEntity
  8
OBJECT
  6
SLD-Solid
370
    25
100
AcDbLine
 10
3.684855047929196
 20
22.30983820222821
 30
0.0
 11
4.531301657335932
 21
22.30983820222821
 31
0.0
  0
ARC
  5
D3
330
1F
100
AcDbEntity
  8
OBJECT
  6
SLD-Solid
370
    25
100
AcDbCircle
 10
4.531301657335918
 20
22.05983820222821
 30
0.0
 40
0.2500000000000013
100
AcDbArc
 50
43.42685186556297
 51
89.99999999999675
  0
ARC
  5
D4
330
1F
100
AcDbEntity
  8
OBJECT
  6
SLD-Solid
370
    25
100
AcDbCircle
 10
11.53130165733594
 20
22.05983820222821
 30
0.0
 40
0.2500000000000005
100
AcDbArc
 50
90.00000000000203
 51
136.5731481344201
  0
LINE
  5
D5
330
1F
100
AcDbEntity
  8
OBJECT
  6
SLD-Solid
370
    25
100
AcDbLine
 10
12.37774826674267
 20
22.30983820222821
 30
0.0
 11
11.53130165733593
 21
22.30983820222821
 31
0.0
  0
ARC
  5
D6
330
1F
100
AcDbEntity
  8
OBJECT
  6
SLD-Solid
370
    25
100
AcDbCircle
 10
12.37774826674267
 20
22.05983820222821
 30
0.0
 40
0.2500000000000036
100
AcDbArc
 50
44.99999999999885
 51
90.0
  0
LINE
  5
D7
330
1F
100
AcDbEntity
  8
OBJECT
  6
SLD-Solid
370
    25
100
AcDbLine
 10
12.55944467056738
 20
22.23169518899678
 30
0.0
 11
12.55452496203931
 21
22.23661489752484
 31
0.0
  0
LINE
  5
D8
330
1F
100
AcDbEntity
  8
OBJECT
  6
SLD-Solid
370
    25
100
AcDbLine
 10
2.464903876556861
 20
9.541185137675292
 30
0.0
 11
2.46490387655686
 21
9.633630022866118
 31
0.0
  0
LINE
  5
D9
330
1F
100
AcDbEntity
  8
OBJECT
  6
SLD-Solid
370
    25
100
AcDbLine
 10
2.46490387655686
 20
9.467874889496573
 30
0.0
 11
2.464903876556861
 21
9.541185137675292
 31
0.0
  0
LINE
  5
DA
330
1F
100
AcDbEntity
  8
OBJECT
  6
SLD-Solid
370
    25
100
AcDbLine
 10
2.494903876556862
 20
9.529107609552245
 30
0.0
 11
2.494903876556861
 21
9.363252456181343
 31
0.0
  0
LINE
  5
DB
330
1F
100
AcDbEntity
  8
OBJECT
  6
SLD-Solid
370
    25
100
AcDbLine
 10
2.494903876556861
 20
9.738252456181348
 30
0.0
 11
2.494903876556862
 21
9.529107609552245
 31
0.0
  0
LINE
  5
DC
330
1F
100
AcDbEntity
  8
OBJECT
  6
SLD-Solid
370
    25
100
AcDbLine
 10
13.59769943811498
 20
9.633630022866127
 30
0.0
 11
13.59769943811498
 21
9.46787488949658
 31
0.0
  0
LINE
  5
DD
330
1F
100
AcDbEntity
  8
OBJECT
  6
SLD-Solid
370
    25
100
AcDbLine
 10
13.56769943811497
 20
9.363252456181351
 30
0.0
 11
13.56769943811497
 21
9.738252456181355
 31
0.0
  0
LWPOLYLINE
  5
DE
330
1F
100
AcDbEntity
  8
OBJECT
  6
SLD-Solid
370
    25
100
AcDbPolyline
 90
       11
 70
   128
 43
0.0
 10
11.79565750805292
 20
8.966675833206764
 10
11.80376470977416
 20
8.992269261780375
 10
11.82729272554719
 20
9.0153574272453
 10
11.86393846925883
 20
9.033680299101125
 10
11.91011480018868
 20
9.045444306987644
 10
11.9613016573359
 20
9.049497907848261
 10
12.01248851448313
 20
9.045444306987644
 10
12.05866484541297
 20
9.033680299101128
 10
12.09531058912462
 20
9.015357427245307
 10
12.11883860489766
 20
8.992269261780384
 10
12.12694580661889
 20
8.966675833206766
  0
LINE
  5
DF
330
1F
100
AcDbEntity
  8
OBJECT
  6
SLD-Solid
370
    25
100
AcDbLine
 10
11.79565750805292
 20
8.794908050940753
 30
0.0
 11
11.79565750805292
 21
8.966675833206764
 31
0.0
  0
LINE
  5
E0
330
1F
100
AcDbEntity
  8
OBJECT
  6
SLD-Solid
370
    25
100
AcDbLine
 10
11.79564385251617
 20
8.794409209359099
 30
0.0
 11
11.79565750805292
 21
8.794908050940753
 31
0.0
  0
LINE
  5
E1
330
1F
100
AcDbEntity
  8
OBJECT
  6
SLD-Solid
370
    25
100
AcDbLine
 10
10.12695946215565
 20
8.79440920935909
 30
0.0
 11
11.79564385251617
 21
8.794409209359099
 31
0.0
  0
LINE
  5
E2
330
1F
100
AcDbEntity
  8
OBJECT
  6
SLD-Solid
370
    25
100
AcDbLine
 10
10.1269458066189
 20
8.79490805094075
 30
0.0
 11
10.12695946215565
 21
8.794409209363582
 31
0.0
  0
LINE
  5
E3
330
1F
100
AcDbEntity
  8
OBJECT
  6
SLD-Solid
370
    25
100
AcDbLine
 10
10.1269458066189
 20
8.835077566866525
 30
0.0
 11
10.1269458066189
 21
8.79490805094075
 31
0.0
  0
LWPOLYLINE
  5
E4
330
1F
100
AcDbEntity
  8
OBJECT
  6
SLD-Solid
370
    25
100
AcDbPolyline
 90
       11
 70
   128
 43
0.0
 10
9.795657508052921
 20
8.835077566866522
 10
9.803764709774148
 20
8.860670995440135
 10
9.827292725547176
 20
8.88375916090506
 10
9.863938469258818
 20
8.902082032760884
 10
9.910114800188662
 20
8.913846040647401
 10
9.961301657335884
 20
8.917899641508022
 10
10.01248851448311
 20
8.913846040647407
 10
10.05866484541296
 20
8.902082032760891
 10
10.09531058912461
 20
8.88375916090507
 10
10.11883860489765
 20
8.860670995440145
 10
10.1269458066189
 20
8.835077566866525
  0
LINE
  5
E5
330
1F
100
AcDbEntity
  8
OBJECT
  6
SLD-Solid
370
    25
100
AcDbLine
 10
9.795657508052921
 20
8.794908050940741
 30
0.0
 11
9.795657508052921
 21
8.835077566866522
 31
0.0
  0
LINE
  5
E6
330
1F
100
AcDbEntity
  8
OBJECT
  6
SLD-Solid
370
    25
100
AcDbLine
 10
9.795643852516168
 20
8.794409209363591
 30
0.0
 11
9.795657508052921
 21
8.794908050940741
 31
0.0
  0
LINE
  5
E7
330
1F
100
AcDbEntity
  8
OBJECT
  6
SLD-Solid
370
    25
100
AcDbLine
 10
9.372829594828959
 20
8.794409209359085
 30
0.0
 11
9.795643852516168
 21
8.794409209359095
 31
0.0
  0
LINE
  5
E8
330
1F
100
AcDbEntity
  8
OBJECT
  6
SLD-Solid
370
    25
100
AcDbLine
 10
9.372704107083962
 20
8.794409209359085
 30
0.0
 11
9.372829594828959
 21
8.794409209359085
 31
0.0
  0
ARC
  5
E9
330
1F
100
AcDbEntity
  8
OBJECT
  6
SLD-Solid
370
    25
100
AcDbCircle
 10
8.788919561896657
 20
9.815330327449317
 30
0.0
 40
1.176046055459631
100
AcDbArc
 50
299.7618456481774
 51
305.2563636536622
  0
ARC
  5
EA
330
1F
100
AcDbEntity
  8
OBJECT
  6
SLD-Solid
370
    25
100
AcDbCircle
 10
9.832043185410642
 20
8.270138008724592
 30
0.0
 40
0.6890222766908849
100
AcDbArc
 50
91.72986111158966
 51
121.9158542399192
  0
LINE
  5
EB
330
1F
100
AcDbEntity
  8
OBJECT
  6
SLD-Solid
370
    25
100
AcDbLine
 10
12.61170017199266
 20
9.14311389123882
 30
0.0
 11
9.811243542228192
 21
8.958846272519773
 31
0.0
  0
LWPOLYLINE
  5
EC
330
1F
100
AcDbEntity
  8
OBJECT
  6
SLD-Solid
370
    25
100
AcDbPolyline
 90
        9
 70
   128
 43
0.0
 10
12.77430165733591
 20
9.235814636223074
 10
12.77128063737318
 20
9.219075946725066
 10
12.76231518776967
 20
9.202878090543884
 10
12.74769498555453
 20
9.187744426469653
 10
12.72789241492831
 20
9.174163928847586
 10
12.70354730435277
 20
9.162575388634046
 10
12.67544625345406
 20
9.15335323589667
 10
12.6444972176946
 20
9.146795441838869
 10
12.61170017199266
 20
9.14311389123882
  0
LINE
  5
ED
330
1F
100
AcDbEntity
  8
OBJECT
  6
SLD-Solid
370
    25
100
AcDbLine
 10
12.77430165733592
 20
9.370302182779888
 30
0.0
 11
12.77430165733591
 21
9.235814636223074
 31
0.0
  0
LWPOLYLINE
  5
EE
330
1F
100
AcDbEntity
  8
OBJECT
  6
SLD-Solid
370
    25
100
AcDbPolyline
 90
        9
 70
   128
 43
0.0
 10
12.60783777265205
 20
9.463236659654351
 10
12.64124674147376
 20
9.459827218241145
 10
12.67286213326431
 20
9.453441230403287
 10
12.70163279310469
 20
9.44429101875164
 10
12.72660214829721
 20
9.43268081136761
 10
12.74694001268732
 20
9.418996626766583
 10
12.76197018886028
 20
9.403693439476509
 10
12.77119295048903
 20
9.387280052953079
 10
12.77430165733592
 20
9.370302182779888
  0
LINE
  5
EF
330
1F
100
AcDbEntity
  8
OBJECT
  6
SLD-Solid
370
    25
100
AcDbLine
 10
9.81765809966774
 20
9.617376042164011
 30
0.0
 11
12.60783777265205
 21
9.463236659654351
 31
0.0
  0
ARC
  5
F0
330
1F
100
AcDbEntity
  8
OBJECT
  6
SLD-Solid
370
    25
100
AcDbCircle
 10
9.83132572612345
 20
10.31544920611927
 30
0.0
 40
0.6982069508730497
100
AcDbArc
 50
238.3388855187542
 51
268.8783449771511
  0
LWPOLYLINE
  5
F1
330
1F
100
AcDbEntity
  8
OBJECT
  6
SLD-Solid
370
    25
100
AcDbPolyline
 90
       12
 70
   128
 43
0.0
 10
8.031301657335908
 20
10.0296287676834
 10
8.179834615381054
 20
10.03640324040503
 10
8.328978852754082
 20
10.03576881021116
 10
8.47725978942497
 20
10.02773174967465
 10
8.623211380765378
 20
10.01237152072561
 10
8.765390612242994
 20
9.989839989016138
 10
8.902391766418685
 20
9.96035992243381
 10
9.032860321189583
 20
9.924222788609104
 10
9.15550634186696
 20
9.881785873192603
 10
9.269117234682275
 20
9.833468747393427
 10
9.37256973562822
 20
9.779749119704158
 10
9.464841016101833
 20
9.721158112825917
  0
LWPOLYLINE
  5
F2
330
1F
100
AcDbEntity
  8
OBJECT
  6
SLD-Solid
370
    25
100
AcDbPolyline
 90
       12
 70
   128
 43
0.0
 10
8.031301657335908
 20
10.0296287676834
 10
7.882768699290763
 20
10.03640324040503
 10
7.733624461917737
 20
10.03576881021116
 10
7.585343525246852
 20
10.02773174967465
 10
7.439391933906444
 20
10.01237152072561
 10
7.297212702428831
 20
9.989839989016131
 10
7.16021154825314
 20
9.960359922433803
 10
7.029742993482243
 20
9.924222788609097
 10
6.907096972804866
 20
9.881785873192596
 10
6.793486079989552
 20
9.833468747393423
 10
6.690033579043608
 20
9.779749119704155
 10
6.597762298569998
 20
9.721158112825913
  0
ARC
  5
F3
330
1F
100
AcDbEntity
  8
OBJECT
  6
SLD-Solid
370
    25
100
AcDbCircle
 10
6.231277588548398
 20
10.31544920611921
 30
0.0
 40
0.6982069508729938
100
AcDbArc
 50
271.1216550228464
 51
301.6611144812485
  0
LINE
  5
F4
330
1F
100
AcDbEntity
  8
OBJECT
  6
SLD-Solid
370
    25
100
AcDbLine
 10
6.244945215004058
 20
9.617376042164008
 30
0.0
 11
3.454765542019779
 21
9.463236659654331
 31
0.0
  0
LWPOLYLINE
  5
F5
330
1F
100
AcDbEntity
  8
OBJECT
  6
SLD-Solid
370
    25
100
AcDbPolyline
 90
        9
 70
   128
 43
0.0
 10
3.454765542019779
 20
9.463236659654331
 10
3.421356573198062
 20
9.459827218241125
 10
3.389741181407517
 20
9.453441230403268
 10
3.360970521567137
 20
9.444291018751619
 10
3.336001166374619
 20
9.43268081136759
 10
3.315663301984501
 20
9.418996626766562
 10
3.300633125811544
 20
9.403693439476486
 10
3.291410364182793
 20
9.387280052953056
 10
3.28830165733592
 20
9.370302182779863
  0
LINE
  5
F6
330
1F
100
AcDbEntity
  8
OBJECT
  6
SLD-Solid
370
    25
100
AcDbLine
 10
3.28830165733592
 20
9.370302182779863
 30
0.0
 11
3.288301657335922
 21
9.23581463622305
 31
0.0
  0
LWPOLYLINE
  5
F7
330
1F
100
AcDbEntity
  8
OBJECT
  6
SLD-Solid
370
    25
100
AcDbPolyline
 90
        9
 70
   128
 43
0.0
 10
3.288301657335922
 20
9.23581463622305
 10
3.291322677298643
 20
9.21907594672504
 10
3.300288126902156
 20
9.202878090543857
 10
3.314908329117294
 20
9.187744426469626
 10
3.334710899743513
 20
9.174163928847557
 10
3.359056010319047
 20
9.162575388634018
 10
3.387157061217764
 20
9.153353235896642
 10
3.418106096977221
 20
9.14679544183884
 10
3.450903142679168
 20
9.143113891238798
  0
LINE
  5
F8
330
1F
100
AcDbEntity
  8
OBJECT
  6
SLD-Solid
370
    25
100
AcDbLine
 10
3.450903142679168
 20
9.143113891238798
 30
0.0
 11
6.25135977244362
 21
8.958846272519772
 31
0.0
  0
ARC
  5
F9
330
1F
100
AcDbEntity
  8
OBJECT
  6
SLD-Solid
370
    25
100
AcDbCircle
 10
6.230560129261133
 20
8.270138008724402
 30
0.0
 40
0.6890222766910744
100
AcDbArc
 50
58.08414576008565
 51
88.27013888840771
  0
ARC
  5
FA
330
1F
100
AcDbEntity
  8
OBJECT
  6
SLD-Solid
370
    25
100
AcDbCircle
 10
7.273683752775951
 20
9.815330327450441
 30
0.0
 40
1.176046055460999
100
AcDbArc
 50
234.7436363463399
 51
240.2381543518175
  0
LINE
  5
FB
330
1F
100
AcDbEntity
  8
OBJECT
  6
SLD-Solid
370
    25
100
AcDbLine
 10
6.689899207587848
 20
8.79440920935909
 30
0.0
 11
6.689773719842851
 21
8.79440920935909
 31
0.0
  0
LINE
  5
FC
330
1F
100
AcDbEntity
  8
OBJECT
  6
SLD-Solid
370
    25
100
AcDbLine
 10
6.689773719842851
 20
8.79440920935909
 30
0.0
 11
6.266959462155642
 21
8.794409209359081
 31
0.0
  0
LINE
  5
FD
330
1F
100
AcDbEntity
  8
OBJECT
  6
SLD-Solid
370
    25
100
AcDbLine
 10
6.26694580661889
 20
8.794908050940732
 30
0.0
 11
6.266959462155642
 21
8.794409209363582
 31
0.0
  0
LINE
  5
FE
330
1F
100
AcDbEntity
  8
OBJECT
  6
SLD-Solid
370
    25
100
AcDbLine
 10
6.266945806618906
 20
8.835077566866513
 30
0.0
 11
6.26694580661889
 21
8.794908050940732
 31
0.0
  0
LWPOLYLINE
  5
FF
330
1F
100
AcDbEntity
  8
OBJECT
  6
SLD-Solid
370
    25
100
AcDbPolyline
 90
       11
 70
   128
 43
0.0
 10
5.935657508052931
 20
8.835077566866516
 10
5.943764709774169
 20
8.860670995440127
 10
5.967292725547205
 20
8.883759160905052
 10
6.003938469258851
 20
8.902082032760875
 10
6.050114800188702
 20
8.91384604064739
 10
6.101301657335925
 20
8.917899641508006
 10
6.152488514483148
 20
8.913846040647387
 10
6.198664845412996
 20
8.90208203276087
 10
6.235310589124638
 20
8.883759160905047
 10
6.258838604897671
 20
8.860670995440122
 10
6.266945806618906
 20
8.835077566866513
  0
LINE
  5
100
330
1F
100
AcDbEntity
  8
OBJECT
  6
SLD-Solid
370
    25
100
AcDbLine
 10
5.935657508052915
 20
8.794908050940741
 30
0.0
 11
5.935657508052931
 21
8.835077566866516
 31
0.0
  0
LINE
  5
101
330
1F
100
AcDbEntity
  8
OBJECT
  6
SLD-Solid
370
    25
100
AcDbLine
 10
5.935643852516162
 20
8.794409209359081
 30
0.0
 11
5.935657508052915
 21
8.794908050940741
 31
0.0
  0
LINE
  5
102
330
1F
100
AcDbEntity
  8
OBJECT
  6
SLD-Solid
370
    25
100
AcDbLine
 10
5.935643852516162
 20
8.794409209359081
 30
0.0
 11
4.266959462155629
 21
8.794409209359081
 31
0.0
  0
LINE
  5
103
330
1F
100
AcDbEntity
  8
OBJECT
  6
SLD-Solid
370
    25
100
AcDbLine
 10
4.266945806618874
 20
8.794908050940732
 30
0.0
 11
4.266959462155629
 21
8.794409209363574
 31
0.0
  0
LINE
  5
104
330
1F
100
AcDbEntity
  8
OBJECT
  6
SLD-Solid
370
    25
100
AcDbLine
 10
4.26694580661889
 20
8.966675833206747
 30
0.0
 11
4.266945806618874
 21
8.794908050940732
 31
0.0
  0
LWPOLYLINE
  5
105
330
1F
100
AcDbEntity
  8
OBJECT
  6
SLD-Solid
370
    25
100
AcDbPolyline
 90
       11
 70
   128
 43
0.0
 10
3.935657508052918
 20
8.966675833206734
 10
3.943764709774146
 20
8.992269261780347
 10
3.967292725547174
 20
9.015357427245275
 10
4.003938469258813
 20
9.033680299101102
 10
4.050114800188658
 20
9.045444306987624
 10
4.101301657335881
 20
9.049497907848249
 10
4.152488514483106
 20
9.045444306987637
 10
4.198664845412957
 20
9.033680299101125
 10
4.235310589124607
 20
9.015357427245307
 10
4.258838604897648
 20
8.992269261780386
 10
4.26694580661889
 20
8.966675833206747
  0
LINE
  5
106
330
1F
100
AcDbEntity
  8
OBJECT
  6
SLD-Solid
370
    25
100
AcDbLine
 10
3.935657508052901
 20
8.794908050940721
 30
0.0
 11
3.935657508052918
 21
8.966675833206734
 31
0.0
  0
LINE
  5
107
330
1F
100
AcDbEntity
  8
OBJECT
  6
SLD-Solid
370
    25
100
AcDbLine
 10
3.935643852516145
 20
8.794409209363563
 30
0.0
 11
3.935657508052901
 21
8.794908050940721
 31
0.0
  0
LINE
  5
108
330
1F
100
AcDbEntity
  8
OBJECT
  6
SLD-Solid
370
    25
100
AcDbLine
 10
3.935643852516145
 20
8.794409209359067
 30
0.0
 11
2.660301657335887
 21
8.794409209359067
 31
0.0
  0
LINE
  5
109
330
1F
100
AcDbEntity
  8
OBJECT
  6
SLD-Solid
370
    25
100
AcDbLine
 10
2.660301657335887
 20
8.794409209359072
 30
0.0
 11
2.660301657335922
 21
9.875923214258854
 31
0.0
  0
LINE
  5
10A
330
1F
100
AcDbEntity
  8
OBJECT
  6
SLD-Solid
370
    25
100
AcDbLine
 10
2.660301657335922
 20
9.875923214258854
 30
0.0
 11
2.675301657335923
 21
9.875923214258854
 31
0.0
  0
LINE
  5
10B
330
1F
100
AcDbEntity
  8
OBJECT
  6
SLD-Solid
370
    25
100
AcDbLine
 10
2.675301657335923
 20
9.875923214258854
 30
0.0
 11
2.675301657335923
 21
9.883423214258858
 31
0.0
  0
LINE
  5
10C
330
1F
100
AcDbEntity
  8
OBJECT
  6
SLD-Solid
370
    25
100
AcDbLine
 10
2.675301657335923
 20
9.883423214258858
 30
0.0
 11
2.601301657335926
 21
9.883423214258853
 31
0.0
  0
LINE
  5
10D
330
1F
100
AcDbEntity
  8
OBJECT
  6
SLD-Solid
370
    25
100
AcDbLine
 10
2.601301657335926
 20
9.883423214258853
 30
0.0
 11
2.601301657335922
 21
9.885471769455775
 31
0.0
  0
LINE
  5
10E
330
1F
100
AcDbEntity
  8
OBJECT
  6
SLD-Solid
370
    25
100
AcDbLine
 10
13.46130165733591
 20
9.883423214258878
 30
0.0
 11
13.46130165733591
 21
9.885471769455838
 31
0.0
  0
LINE
  5
10F
330
1F
100
AcDbEntity
  8
OBJECT
  6
SLD-Solid
370
    25
100
AcDbLine
 10
13.38730165733591
 20
9.883423214258878
 30
0.0
 11
13.46130165733591
 21
9.883423214258878
 31
0.0
  0
LINE
  5
110
330
1F
100
AcDbEntity
  8
OBJECT
  6
SLD-Solid
370
    25
100
AcDbLine
 10
13.38730165733591
 20
9.875923214258881
 30
0.0
 11
13.38730165733591
 21
9.883423214258878
 31
0.0
  0
LINE
  5
111
330
1F
100
AcDbEntity
  8
OBJECT
  6
SLD-Solid
370
    25
100
AcDbLine
 10
13.40230165733591
 20
9.875923214258881
 30
0.0
 11
13.38730165733591
 21
9.875923214258881
 31
0.0
  0
LINE
  5
112
330
1F
100
AcDbEntity
  8
OBJECT
  6
SLD-Solid
370
    25
100
AcDbLine
 10
13.40230165733591
 20
8.794409209359092
 30
0.0
 11
13.40230165733591
 21
9.875923214258881
 31
0.0
  0
LINE
  5
113
330
1F
100
AcDbEntity
  8
OBJECT
  6
SLD-Solid
370
    25
100
AcDbLine
 10
12.12695946215565
 20
8.794409209359092
 30
0.0
 11
13.40230165733591
 21
8.794409209359095
 31
0.0
  0
LINE
  5
114
330
1F
100
AcDbEntity
  8
OBJECT
  6
SLD-Solid
370
    25
100
AcDbLine
 10
12.12694580661889
 20
8.794908050940746
 30
0.0
 11
12.12695946215565
 21
8.794409209363588
 31
0.0
  0
LINE
  5
115
330
1F
100
AcDbEntity
  8
OBJECT
  6
SLD-Solid
370
    25
100
AcDbLine
 10
12.12694580661889
 20
8.966675833206766
 30
0.0
 11
12.12694580661889
 21
8.794908050940746
 31
0.0
  0
LINE
  5
116
330
1F
100
AcDbEntity
  8
OBJECT
  6
SLD-Solid
370
    25
100
AcDbLine
 10
9.795657508052921
 20
9.755323015827443
 30
0.0
 11
9.795657508052923
 21
9.884489683132612
 31
0.0
  0
LWPOLYLINE
  5
117
330
1F
100
AcDbEntity
  8
OBJECT
  6
SLD-Solid
370
    25
100
AcDbPolyline
 90
       11
 70
   128
 43
0.0
 10
10.1269458066189
 20
9.75532301582745
 10
10.11883860489766
 20
9.72972958725384
 10
10.09531058912463
 20
9.706641421788914
 10
10.05866484541298
 20
9.688318549933092
 10
10.01248851448313
 20
9.676554542046576
 10
9.961301657335909
 20
9.672500941185959
 10
9.910114800188683
 20
9.676554542046576
 10
9.863938469258834
 20
9.688318549933093
 10
9.82729272554719
 20
9.706641421788918
 10
9.803764709774155
 20
9.729729587253843
 10
9.795657508052921
 20
9.755323015827443
  0
LINE
  5
118
330
1F
100
AcDbEntity
  8
OBJECT
  6
SLD-Solid
370
    25
100
AcDbLine
 10
10.1269458066189
 20
9.884489683132617
 30
0.0
 11
10.1269458066189
 21
9.75532301582745
 31
0.0
  0
LINE
  5
119
330
1F
100
AcDbEntity
  8
OBJECT
  6
SLD-Solid
370
    25
100
AcDbLine
 10
5.935657508052931
 20
9.755323015827443
 30
0.0
 11
5.935657508052931
 21
9.884489683132585
 31
0.0
  0
LWPOLYLINE
  5
11A
330
1F
100
AcDbEntity
  8
OBJECT
  6
SLD-Solid
370
    25
100
AcDbPolyline
 90
       11
 70
   128
 43
0.0
 10
6.266945806618907
 20
9.755323015827441
 10
6.258838604897672
 20
9.729729587253829
 10
6.235310589124637
 20
9.706641421788904
 10
6.198664845412993
 20
9.688318549933081
 10
6.152488514483143
 20
9.676554542046564
 10
6.101301657335919
 20
9.672500941185946
 10
6.050114800188696
 20
9.676554542046564
 10
6.003938469258847
 20
9.688318549933081
 10
5.967292725547201
 20
9.706641421788904
 10
5.943764709774166
 20
9.729729587253829
 10
5.935657508052931
 20
9.755323015827443
  0
LINE
  5
11B
330
1F
100
AcDbEntity
  8
OBJECT
  6
SLD-Solid
370
    25
100
AcDbLine
 10
6.266945806618909
 20
9.88448968313259
 30
0.0
 11
6.266945806618907
 21
9.755323015827441
 31
0.0
  0
LINE
  5
11C
330
1F
100
AcDbEntity
  8
OBJECT
  6
SLD-Solid
370
    25
100
AcDbLine
 10
3.935657508052904
 20
9.64483595006452
 30
0.0
 11
3.935657508052914
 21
9.88448968313258
 31
0.0
  0
LWPOLYLINE
  5
11D
330
1F
100
AcDbEntity
  8
OBJECT
  6
SLD-Solid
370
    25
100
AcDbPolyline
 90
       11
 70
   128
 43
0.0
 10
4.266945806618875
 20
9.644835950064525
 10
4.258838604897639
 20
9.619242521490914
 10
4.235310589124602
 20
9.59615435602599
 10
4.198664845412956
 20
9.577831484170169
 10
4.152488514483106
 20
9.566067476283651
 10
4.101301657335881
 20
9.562013875423036
 10
4.050114800188658
 20
9.566067476283655
 10
4.003938469258811
 20
9.57783148417017
 10
3.967292725547168
 20
9.596154356025995
 10
3.943764709774136
 20
9.61924252149092
 10
3.935657508052904
 20
9.64483595006452
  0
LINE
  5
11E
330
1F
100
AcDbEntity
  8
OBJECT
  6
SLD-Solid
370
    25
100
AcDbLine
 10
4.266945806618888
 20
9.884489683132582
 30
0.0
 11
4.266945806618875
 21
9.644835950064525
 31
0.0
  0
LINE
  5
11F
330
1F
100
AcDbEntity
  8
OBJECT
  6
SLD-Solid
370
    25
100
AcDbLine
 10
12.1269458066189
 20
9.884489683132633
 30
0.0
 11
12.1269458066189
 21
9.644835950064548
 31
0.0
  0
LINE
  5
120
330
1F
100
AcDbEntity
  8
OBJECT
  6
SLD-Solid
370
    25
100
AcDbLine
 10
11.79565750805292
 20
9.644835950064543
 30
0.0
 11
11.79565750805292
 21
9.88448968313263
 31
0.0
  0
LWPOLYLINE
  5
121
330
1F
100
AcDbEntity
  8
OBJECT
  6
SLD-Solid
370
    25
100
AcDbPolyline
 90
       11
 70
   128
 43
0.0
 10
12.1269458066189
 20
9.644835950064548
 10
12.11883860489766
 20
9.619242521490937
 10
12.09531058912463
 20
9.59615435602601
 10
12.05866484541298
 20
9.577831484170188
 10
12.01248851448313
 20
9.56606747628367
 10
11.96130165733591
 20
9.562013875423052
 10
11.91011480018869
 20
9.566067476283669
 10
11.86393846925884
 20
9.577831484170185
 10
11.82729272554719
 20
9.596154356026007
 10
11.80376470977416
 20
9.61924252149093
 10
11.79565750805292
 20
9.644835950064543
  0
LWPOLYLINE
  5
122
330
1F
100
AcDbEntity
  8
OBJECT
  6
SLD-Solid
370
    25
100
AcDbPolyline
 90
       10
 70
   128
 43
0.0
 10
10.07630165733591
 20
9.841925556205895
 10
10.06936630872629
 20
9.822259397964668
 10
10.0493967682946
 20
9.80496526864892
 10
10.01880165733591
 20
9.792129095488288
 10
9.981271197767608
 20
9.785299110407692
 10
9.941332116904213
 20
9.785299110407692
 10
9.90380165733591
 20
9.792129095488287
 10
9.873206546377226
 20
9.804965268648917
 10
9.85323700594553
 20
9.822259397964668
 10
9.846301657335909
 20
9.841925556205886
  0
LWPOLYLINE
  5
123
330
1F
100
AcDbEntity
  8
OBJECT
  6
SLD-Solid
370
    25
100
AcDbPolyline
 90
       10
 70
   128
 43
0.0
 10
6.216301657335922
 20
9.84192555620588
 10
6.209366308726298
 20
9.822259397964652
 10
6.189396768294597
 20
9.804965268648903
 10
6.158801657335912
 20
9.792129095488276
 10
6.121271197767608
 20
9.78529911040768
 10
6.081332116904212
 20
9.785299110407681
 10
6.043801657335909
 20
9.79212909548828
 10
6.013206546377229
 20
9.80496526864891
 10
5.993237005945534
 20
9.822259397964663
 10
5.986301657335919
 20
9.841925556205886
  0
LINE
  5
124
330
1F
100
AcDbEntity
  8
OBJECT
  6
SLD-Solid
370
    25
100
AcDbLine
 10
5.98030165733592
 20
9.824605048130195
 30
0.0
 11
5.98030165733592
 21
9.884489683132589
 31
0.0
  0
ARC
  5
125
330
1F
100
AcDbEntity
  8
OBJECT
  6
SLD-Solid
370
    25
100
AcDbCircle
 10
5.900533086607665
 20
9.826981565411945
 30
0.0
 40
0.0798039642525304
100
AcDbArc
 50
296.1124179369795
 51
358.2935115450069
  0
ARC
  5
126
330
1F
100
AcDbEntity
  8
OBJECT
  6
SLD-Solid
370
    25
100
AcDbCircle
 10
6.302070228064171
 20
9.826981565411936
 30
0.0
 40
0.0798039642525238
100
AcDbArc
 50
181.7064884549884
 51
243.8875820630216
  0
LINE
  5
127
330
1F
100
AcDbEntity
  8
OBJECT
  6
SLD-Solid
370
    25
100
AcDbLine
 10
6.222301657335922
 20
9.88448968313259
 30
0.0
 11
6.222301657335922
 21
9.824605048130195
 31
0.0
  0
ARC
  5
128
330
1F
100
AcDbEntity
  8
OBJECT
  6
SLD-Solid
370
    25
100
AcDbCircle
 10
10.16207022806417
 20
9.82698156541195
 30
0.0
 40
0.0798039642525319
100
AcDbArc
 50
181.7064884549895
 51
243.8875820630193
  0
LINE
  5
129
330
1F
100
AcDbEntity
  8
OBJECT
  6
SLD-Solid
370
    25
100
AcDbLine
 10
10.08230165733591
 20
9.884489683132614
 30
0.0
 11
10.08230165733591
 21
9.824605048130207
 31
0.0
  0
LINE
  5
12A
330
1F
100
AcDbEntity
  8
OBJECT
  6
SLD-Solid
370
    25
100
AcDbLine
 10
9.840301657335909
 20
9.824605048130195
 30
0.0
 11
9.840301657335909
 21
9.884489683132612
 31
0.0
  0
ARC
  5
12B
330
1F
100
AcDbEntity
  8
OBJECT
  6
SLD-Solid
370
    25
100
AcDbCircle
 10
9.760533086607653
 20
9.826981565411943
 30
0.0
 40
0.0798039642525303
100
AcDbArc
 50
296.1124179369812
 51
358.2935115450082
  0
ARC
  5
12C
330
1F
100
AcDbEntity
  8
OBJECT
  6
SLD-Solid
370
    25
100
AcDbCircle
 10
5.985926657335921
 20
9.836296391081286
 30
0.0
 40
0.0056416420482004
100
AcDbArc
 50
86.18873895055494
 51
175.5980503477102
  0
ARC
  5
12D
330
1F
100
AcDbEntity
  8
OBJECT
  6
SLD-Solid
370
    25
100
AcDbCircle
 10
6.216676657335918
 20
9.836296391081277
 30
0.0
 40
0.0056416420482023
100
AcDbArc
 50
4.401949652287772
 51
93.81126104941687
  0
ARC
  5
12E
330
1F
100
AcDbEntity
  8
OBJECT
  6
SLD-Solid
370
    25
100
AcDbCircle
 10
10.07667665733591
 20
9.83629639108129
 30
0.0
 40
0.0056416420482042
100
AcDbArc
 50
4.401949652304375
 51
93.81126104940668
  0
ARC
  5
12F
330
1F
100
AcDbEntity
  8
OBJECT
  6
SLD-Solid
370
    25
100
AcDbCircle
 10
9.845926657335916
 20
9.836296391081277
 30
0.0
 40
0.0056416420482089
100
AcDbArc
 50
86.18873895061493
 51
175.598050347661
  0
LWPOLYLINE
  5
130
330
1F
100
AcDbEntity
  8
OBJECT
  6
SLD-Solid
370
    25
100
AcDbPolyline
 90
       10
 70
   128
 43
0.0
 10
4.216301657335904
 20
9.73143849044297
 10
4.209366308726281
 20
9.711772332201743
 10
4.189396768294581
 20
9.694478202885994
 10
4.158801657335898
 20
9.681642029725367
 10
4.121271197767594
 20
9.67481204464477
 10
4.081332116904201
 20
9.674812044644773
 10
4.043801657335898
 20
9.68164202972537
 10
4.013206546377218
 20
9.694478202886
 10
3.993237005945523
 20
9.71177233220175
 10
3.986301657335906
 20
9.731438490442963
  0
LWPOLYLINE
  5
131
330
1F
100
AcDbEntity
  8
OBJECT
  6
SLD-Solid
370
    25
100
AcDbPolyline
 90
       10
 70
   128
 43
0.0
 10
12.07630165733591
 20
9.73143849044299
 10
12.06936630872629
 20
9.711772332201763
 10
12.04939676829459
 20
9.694478202886014
 10
12.01880165733591
 20
9.681642029725385
 10
11.98127119776761
 20
9.674812044644789
 10
11.94133211690421
 20
9.674812044644789
 10
11.90380165733591
 20
9.681642029725387
 10
11.87320654637723
 20
9.694478202886016
 10
11.85323700594553
 20
9.711772332201766
 10
11.84630165733591
 20
9.73143849044299
  0
ARC
  5
132
330
1F
100
AcDbEntity
  8
OBJECT
  6
SLD-Solid
370
    25
100
AcDbCircle
 10
4.302070228064193
 20
9.71649449964904
 30
0.0
 40
0.0798039642525651
100
AcDbArc
 50
181.7064884549977
 51
243.8875820629929
  0
LINE
  5
133
330
1F
100
AcDbEntity
  8
OBJECT
  6
SLD-Solid
370
    25
100
AcDbLine
 10
4.222301657335905
 20
9.884489683132582
 30
0.0
 11
4.222301657335903
 21
9.714117982367284
 31
0.0
  0
LINE
  5
134
330
1F
100
AcDbEntity
  8
OBJECT
  6
SLD-Solid
370
    25
100
AcDbLine
 10
3.980301657335906
 20
9.714117982367274
 30
0.0
 11
3.980301657335906
 21
9.884489683132582
 31
0.0
  0
ARC
  5
135
330
1F
100
AcDbEntity
  8
OBJECT
  6
SLD-Solid
370
    25
100
AcDbCircle
 10
3.900533086607633
 20
9.716494499649038
 30
0.0
 40
0.0798039642525485
100
AcDbArc
 50
296.1124179369776
 51
358.2935115449971
  0
LINE
  5
136
330
1F
100
AcDbEntity
  8
OBJECT
  6
SLD-Solid
370
    25
100
AcDbLine
 10
11.84030165733591
 20
9.714117982367304
 30
0.0
 11
11.84030165733591
 21
9.88448968313263
 31
0.0
  0
ARC
  5
137
330
1F
100
AcDbEntity
  8
OBJECT
  6
SLD-Solid
370
    25
100
AcDbCircle
 10
11.76053308660765
 20
9.716494499649043
 30
0.0
 40
0.07980396425253
100
AcDbArc
 50
296.1124179369812
 51
358.2935115450146
  0
ARC
  5
138
330
1F
100
AcDbEntity
  8
OBJECT
  6
SLD-Solid
370
    25
100
AcDbCircle
 10
12.16207022806414
 20
9.716494499649032
 30
0.0
 40
0.0798039642525067
100
AcDbArc
 50
181.7064884549812
 51
243.8875820630291
  0
LINE
  5
139
330
1F
100
AcDbEntity
  8
OBJECT
  6
SLD-Solid
370
    25
100
AcDbLine
 10
12.08230165733591
 20
9.884489683132633
 30
0.0
 11
12.08230165733591
 21
9.714117982367302
 31
0.0
  0
ARC
  5
13A
330
1F
100
AcDbEntity
  8
OBJECT
  6
SLD-Solid
370
    25
100
AcDbCircle
 10
4.216676657335905
 20
9.725809325318373
 30
0.0
 40
0.005641642048197
100
AcDbArc
 50
4.401949652273938
 51
93.81126104947447
  0
ARC
  5
13B
330
1F
100
AcDbEntity
  8
OBJECT
  6
SLD-Solid
370
    25
100
AcDbCircle
 10
3.985926657335907
 20
9.725809325318364
 30
0.0
 40
0.0056416420481995
100
AcDbArc
 50
86.18873895054924
 51
175.5980503477282
  0
ARC
  5
13C
330
1F
100
AcDbEntity
  8
OBJECT
  6
SLD-Solid
370
    25
100
AcDbCircle
 10
11.84592665733591
 20
9.725809325318389
 30
0.0
 40
0.0056416420482006
100
AcDbArc
 50
86.18873895053694
 51
175.5980503476929
  0
ARC
  5
13D
330
1F
100
AcDbEntity
  8
OBJECT
  6
SLD-Solid
370
    25
100
AcDbCircle
 10
12.0766766573359
 20
9.72580932531838
 30
0.0
 40
0.0056416420482088
100
AcDbArc
 50
4.40194965233758
 51
93.81126104936708
  0
ARC
  5
13E
330
1F
100
AcDbEntity
  8
OBJECT
  6
SLD-Solid
370
    25
100
AcDbCircle
 10
2.658875851514503
 20
8.855386665044414
 30
0.0
 40
0.0609941228652241
100
AcDbArc
 50
215.0136497319589
 51
271.3394749202826
  0
ARC
  5
13F
330
1F
100
AcDbEntity
  8
OBJECT
  6
SLD-Solid
370
    25
100
AcDbCircle
 10
2.647225163691359
 20
8.845723475503943
 30
0.0
 40
0.0459240274270693
100
AcDbArc
 50
180.2729397296371
 51
213.479557150165
  0
LINE
  5
140
330
1F
100
AcDbEntity
  8
OBJECT
  6
SLD-Solid
370
    25
100
AcDbLine
 10
2.601301657335886
 20
8.84550470818235
 30
0.0
 11
2.601301657335922
 21
9.883423214258853
 31
0.0
  0
ARC
  5
141
330
1F
100
AcDbEntity
  8
OBJECT
  6
SLD-Solid
370
    25
100
AcDbCircle
 10
2.660053616318421
 20
9.941782853492805
 30
0.0
 40
0.065860106319171
100
AcDbArc
 50
242.3890682953646
 51
270.2157867310002
  0
ARC
  5
142
330
1F
100
AcDbEntity
  8
OBJECT
  6
SLD-Solid
370
    25
100
AcDbCircle
 10
13.40254969835342
 20
9.94178285349279
 30
0.0
 40
0.0658601063191284
100
AcDbArc
 50
269.7842132689948
 51
297.610931704645
  0
LINE
  5
143
330
1F
100
AcDbEntity
  8
OBJECT
  6
SLD-Solid
370
    25
100
AcDbLine
 10
13.46130165733589
 20
8.845504708182375
 30
0.0
 11
13.46130165733591
 21
9.883423214258878
 31
0.0
  0
ARC
  5
144
330
1F
100
AcDbEntity
  8
OBJECT
  6
SLD-Solid
370
    25
100
AcDbCircle
 10
13.41537815098034
 20
8.845723475503993
 30
0.0
 40
0.045924027427153
100
AcDbArc
 50
326.5204428498685
 51
359.7270602703339
  0
ARC
  5
145
330
1F
100
AcDbEntity
  8
OBJECT
  6
SLD-Solid
370
    25
100
AcDbCircle
 10
13.40372746315725
 20
8.85538666504448
 30
0.0
 40
0.0609941228652693
100
AcDbArc
 50
268.6605250797602
 51
324.9863502680249
  0
LWPOLYLINE
  5
146
330
1F
100
AcDbEntity
  8
OBJECT
  6
SLD-Solid
370
    25
100
AcDbPolyline
 90
       10
 70
   128
 43
0.0
 10
6.222301657335922
 20
9.824605048130195
 10
6.215004464451016
 20
9.80391282945899
 10
6.193993034953317
 20
9.785716397744158
 10
6.16180165733592
 20
9.772210511201235
 10
6.122313086833618
 20
9.765024179072954
 10
6.08029022783822
 20
9.765024179072954
 10
6.040801657335917
 20
9.772210511201235
 10
6.008610279718521
 20
9.785716397744158
 10
5.987598850220822
 20
9.803912829458993
 10
5.98030165733592
 20
9.824605048130195
  0
LWPOLYLINE
  5
147
330
1F
100
AcDbEntity
  8
OBJECT
  6
SLD-Solid
370
    25
100
AcDbPolyline
 90
       10
 70
   128
 43
0.0
 10
10.08230165733591
 20
9.824605048130207
 10
10.07500446445101
 20
9.803912829459003
 10
10.05399303495331
 20
9.78571639774417
 10
10.02180165733591
 20
9.772210511201248
 10
9.98231308683361
 20
9.765024179072968
 10
9.940290227838211
 20
9.765024179072968
 10
9.900801657335908
 20
9.772210511201248
 10
9.868610279718514
 20
9.78571639774417
 10
9.847598850220814
 20
9.803912829459003
 10
9.840301657335909
 20
9.824605048130195
  0
LWPOLYLINE
  5
148
330
1F
100
AcDbEntity
  8
OBJECT
  6
SLD-Solid
370
    25
100
AcDbPolyline
 90
       10
 70
   128
 43
0.0
 10
5.98030165733592
 20
9.83672940378318
 10
5.987598850220822
 20
9.816037185111977
 10
6.008610279718519
 20
9.797840753397145
 10
6.040801657335913
 20
9.78433486685422
 10
6.080290227838213
 20
9.777148534725939
 10
6.122313086833611
 20
9.777148534725939
 10
6.161801657335914
 20
9.784334866854218
 10
6.193993034953311
 20
9.79784075339714
 10
6.215004464451013
 20
9.816037185111973
 10
6.222301657335922
 20
9.83672940378317
  0
LWPOLYLINE
  5
149
330
1F
100
AcDbEntity
  8
OBJECT
  6
SLD-Solid
370
    25
100
AcDbPolyline
 90
       10
 70
   128
 43
0.0
 10
9.840301657335909
 20
9.836729403783176
 10
9.847598850220821
 20
9.816037185111973
 10
9.868610279718526
 20
9.797840753397143
 10
9.900801657335927
 20
9.784334866854223
 10
9.940290227838231
 20
9.777148534725947
 10
9.98231308683363
 20
9.777148534725951
 10
10.02180165733593
 20
9.784334866854236
 10
10.05399303495332
 20
9.797840753397162
 10
10.07500446445101
 20
9.816037185111998
 10
10.08230165733591
 20
9.836729403783186
  0
LWPOLYLINE
  5
14A
330
1F
100
AcDbEntity
  8
OBJECT
  6
SLD-Solid
370
    25
100
AcDbPolyline
 90
       10
 70
   128
 43
0.0
 10
4.222301657335903
 20
9.714117982367284
 10
4.215004464450998
 20
9.693425763696082
 10
4.1939930349533
 20
9.675229331981248
 10
4.161801657335904
 20
9.661723445438327
 10
4.122313086833603
 20
9.654537113310045
 10
4.080290227838206
 20
9.654537113310045
 10
4.040801657335905
 20
9.661723445438327
 10
4.00861027971851
 20
9.67522933198125
 10
3.987598850220812
 20
9.693425763696082
 10
3.980301657335906
 20
9.714117982367274
  0
LWPOLYLINE
  5
14B
330
1F
100
AcDbEntity
  8
OBJECT
  6
SLD-Solid
370
    25
100
AcDbPolyline
 90
       10
 70
   128
 43
0.0
 10
12.08230165733591
 20
9.714117982367302
 10
12.075004464451
 20
9.6934257636961
 10
12.0539930349533
 20
9.675229331981265
 10
12.02180165733591
 20
9.661723445438344
 10
11.98231308683361
 20
9.654537113310063
 10
11.94029022783821
 20
9.654537113310063
 10
11.90080165733591
 20
9.661723445438344
 10
11.86861027971851
 20
9.675229331981267
 10
11.84759885022082
 20
9.6934257636961
 10
11.84030165733591
 20
9.714117982367304
  0
LWPOLYLINE
  5
14C
330
1F
100
AcDbEntity
  8
OBJECT
  6
SLD-Solid
370
    25
100
AcDbPolyline
 90
       10
 70
   128
 43
0.0
 10
3.980301657335906
 20
9.726242338020256
 10
3.987598850220817
 20
9.705550119349054
 10
4.008610279718521
 20
9.687353687634223
 10
4.040801657335921
 20
9.673847801091302
 10
4.080290227838225
 20
9.666661468963026
 10
4.122313086833622
 20
9.66666146896303
 10
4.16180165733592
 20
9.673847801091313
 10
4.193993034953312
 20
9.687353687634237
 10
4.215004464451005
 20
9.705550119349072
 10
4.222301657335904
 20
9.726242338020265
  0
LWPOLYLINE
  5
14D
330
1F
100
AcDbEntity
  8
OBJECT
  6
SLD-Solid
370
    25
100
AcDbPolyline
 90
       10
 70
   128
 43
0.0
 10
11.84030165733591
 20
9.726242338020285
 10
11.84759885022081
 20
9.705550119349082
 10
11.86861027971851
 20
9.687353687634248
 10
11.90080165733591
 20
9.673847801091325
 10
11.94029022783821
 20
9.666661468963044
 10
11.9823130868336
 20
9.666661468963044
 10
12.02180165733591
 20
9.673847801091322
 10
12.0539930349533
 20
9.687353687634245
 10
12.075004464451
 20
9.705550119349077
 10
12.08230165733591
 20
9.72624233802028
  0
LINE
  5
14E
330
1F
100
AcDbEntity
  8
OBJECT
  6
SLD-Solid
370
    25
100
AcDbLine
 10
13.50830165733592
 20
9.429857805816082
 30
0.0
 11
13.50830165733592
 21
9.411155338317405
 31
0.0
  0
LINE
  5
14F
330
1F
100
AcDbEntity
  8
OBJECT
  6
SLD-Solid
370
    25
100
AcDbLine
 10
13.50830165733592
 20
9.690349574045294
 30
0.0
 11
13.50830165733592
 21
9.429857805816082
 31
0.0
  0
LINE
  5
150
330
1F
100
AcDbEntity
  8
OBJECT
  6
SLD-Solid
370
    25
100
AcDbLine
 10
2.554301657335921
 20
9.407013202693648
 30
0.0
 11
2.554301657335918
 21
9.694491709669
 31
0.0
  0
LINE
  5
151
330
1F
100
AcDbEntity
  8
OBJECT
  6
SLD-Solid
370
    25
100
AcDbLine
 10
3.450903142679168
 20
9.16909465335233
 30
0.0
 11
3.450903142679168
 21
9.143113891238798
 31
0.0
  0
LWPOLYLINE
  5
152
330
1F
100
AcDbEntity
  8
OBJECT
  6
SLD-Solid
370
    25
100
AcDbPolyline
 90
        9
 70
   128
 43
0.0
 10
3.288301657335922
 20
9.261795398336588
 10
3.291322677298642
 20
9.245056708838577
 10
3.300288126902154
 20
9.228858852657392
 10
3.314908329117292
 20
9.213725188583162
 10
3.33471089974351
 20
9.200144690961094
 10
3.359056010319045
 20
9.188556150747553
 10
3.387157061217763
 20
9.179333998010177
 10
3.41810609697722
 20
9.172776203952376
 10
3.450903142679168
 20
9.16909465335233
  0
LINE
  5
153
330
1F
100
AcDbEntity
  8
OBJECT
  6
SLD-Solid
370
    25
100
AcDbLine
 10
12.61170017199266
 20
9.169094653352357
 30
0.0
 11
12.61170017199266
 21
9.14311389123882
 31
0.0
  0
LWPOLYLINE
  5
154
330
1F
100
AcDbEntity
  8
OBJECT
  6
SLD-Solid
370
    25
100
AcDbPolyline
 90
        9
 70
   128
 43
0.0
 10
12.77430165733589
 20
9.26179539833661
 10
12.77128063737317
 20
9.245056708838602
 10
12.76231518776965
 20
9.228858852657421
 10
12.74769498555452
 20
9.213725188583192
 10
12.7278924149283
 20
9.200144690961125
 10
12.70354730435276
 20
9.188556150747587
 10
12.67544625345405
 20
9.179333998010213
 10
12.6444972176946
 20
9.17277620395241
 10
12.61170017199266
 20
9.169094653352357
  0
LINE
  5
155
330
1F
100
AcDbEntity
  8
OBJECT
  6
SLD-Solid
370
    25
100
AcDbLine
 10
6.25135977244362
 20
8.984827034633309
 30
0.0
 11
6.25135977244362
 21
8.958846272519772
 31
0.0
  0
LINE
  5
156
330
1F
100
AcDbEntity
  8
OBJECT
  6
SLD-Solid
370
    25
100
AcDbLine
 10
6.25135977244362
 20
8.984827034633309
 30
0.0
 11
3.450903142679168
 21
9.16909465335233
 31
0.0
  0
LINE
  5
157
330
1F
100
AcDbEntity
  8
OBJECT
  6
SLD-Solid
370
    25
100
AcDbLine
 10
9.811243542228192
 20
8.98482703463331
 30
0.0
 11
9.811243542228192
 21
8.958846272519773
 31
0.0
  0
LINE
  5
158
330
1F
100
AcDbEntity
  8
OBJECT
  6
SLD-Solid
370
    25
100
AcDbLine
 10
9.811243542228192
 20
8.98482703463331
 30
0.0
 11
12.61170017199266
 21
9.169094653352357
 31
0.0
  0
LINE
  5
159
330
1F
100
AcDbEntity
  8
OBJECT
  6
SLD-Solid
370
    25
100
AcDbLine
 10
4.216301657335902
 20
8.889634218611485
 30
0.0
 11
3.986301657335904
 21
8.889634218611477
 31
0.0
  0
LINE
  5
15A
330
1F
100
AcDbEntity
  8
OBJECT
  6
SLD-Solid
370
    25
100
AcDbLine
 10
11.84630165733591
 20
8.889634218611496
 30
0.0
 11
12.07630165733591
 21
8.889634218611492
 31
0.0
  0
ELLIPSE
  5
15B
330
1F
100
AcDbEntity
  8
OBJECT
  6
SLD-Solid
370
    25
100
AcDbEllipse
 10
4.316301657335901
 20
8.867040606567228
 30
0.0
 11
0.09400000000000031
 21
0.0
 31
0.0
210
0.0
220
0.0
230
1.0
 40
0.9016569453311226
 41
3.141592653589793
 42
4.159600734974921
  0
LINE
  5
15C
330
1F
100
AcDbEntity
  8
OBJECT
  6
SLD-Solid
370
    25
100
AcDbLine
 10
4.222301657335903
 20
9.018166284531983
 30
0.0
 11
4.222301657335902
 21
8.867040606567228
 31
0.0
  0
LINE
  5
15D
330
1F
100
AcDbEntity
  8
OBJECT
  6
SLD-Solid
370
    25
100
AcDbLine
 10
3.980301657335904
 20
8.867040606567214
 30
0.0
 11
3.980301657335905
 21
9.01871670778472
 31
0.0
  0
ELLIPSE
  5
15E
330
1F
100
AcDbEntity
  8
OBJECT
  6
SLD-Solid
370
    25
100
AcDbEllipse
 10
3.886301657335904
 20
8.867040606567215
 30
0.0
 11
0.09400000000000031
 21
0.0
 31
0.0
210
0.0
220
0.0
230
1.0
 40
0.9016569453311226
 41
5.265177225794222
 42
6.283185307179586
  0
LINE
  5
15F
330
1F
100
AcDbEntity
  8
OBJECT
  6
SLD-Solid
370
    25
100
AcDbLine
 10
11.84030165733591
 20
9.018206996177407
 30
0.0
 11
11.84030165733591
 21
8.86704060656724
 31
0.0
  0
ELLIPSE
  5
160
330
1F
100
AcDbEntity
  8
OBJECT
  6
SLD-Solid
370
    25
100
AcDbEllipse
 10
11.74630165733591
 20
8.867040606567235
 30
0.0
 11
0.09400000000000119
 21
0.0
 31
0.0
210
0.0
220
0.0
230
1.0
 40
0.9016569453311141
 41
5.26517722579444
 42
6.283185307179586
  0
ELLIPSE
  5
161
330
1F
100
AcDbEntity
  8
OBJECT
  6
SLD-Solid
370
    25
100
AcDbEllipse
 10
12.17630165733591
 20
8.867040606567237
 30
0.0
 11
0.09399999999999942
 21
0.0
 31
0.0
210
0.0
220
0.0
230
1.0
 40
0.90165694533115
 41
3.141592653589829
 42
4.159600734975003
  0
LINE
  5
162
330
1F
100
AcDbEntity
  8
OBJECT
  6
SLD-Solid
370
    25
100
AcDbLine
 10
12.0823016573359
 20
8.867040606567235
 30
0.0
 11
12.08230165733591
 21
9.018166284531986
 31
0.0
  0
LINE
  5
163
330
1F
100
AcDbEntity
  8
OBJECT
  6
SLD-Solid
370
    25
100
AcDbLine
 10
6.594827763426504
 20
8.880978402267662
 30
0.0
 11
6.594827763426504
 21
8.854997640154128
 31
0.0
  0
ARC
  5
164
330
1F
100
AcDbEntity
  8
OBJECT
  6
SLD-Solid
370
    25
100
AcDbCircle
 10
6.230560129261149
 20
8.296118770838008
 30
0.0
 40
0.6890222766910045
100
AcDbArc
 50
58.08414576008359
 51
88.27013888840888
  0
LINE
  5
165
330
1F
100
AcDbEntity
  8
OBJECT
  6
SLD-Solid
370
    25
100
AcDbLine
 10
9.467775551245323
 20
8.880978402267669
 30
0.0
 11
9.467775551245323
 21
8.854997640154126
 31
0.0
  0
ARC
  5
166
330
1F
100
AcDbEntity
  8
OBJECT
  6
SLD-Solid
370
    25
100
AcDbCircle
 10
9.83204318541067
 20
8.296118770838012
 30
0.0
 40
0.6890222766910034
100
AcDbArc
 50
91.72986111159173
 51
121.9158542399158
  0
ARC
  5
167
330
1F
100
AcDbEntity
  8
OBJECT
  6
SLD-Solid
370
    25
100
AcDbCircle
 10
4.216676657335908
 20
8.884005053486893
 30
0.0
 40
0.0056416420481921
100
AcDbArc
 50
4.401949652241426
 51
93.81126104953206
  0
ARC
  5
168
330
1F
100
AcDbEntity
  8
OBJECT
  6
SLD-Solid
370
    25
100
AcDbCircle
 10
11.8459266573359
 20
8.8840050534869
 30
0.0
 40
0.0056416420481954
100
AcDbArc
 50
86.18873895049734
 51
175.5980503477413
  0
ARC
  5
169
330
1F
100
AcDbEntity
  8
OBJECT
  6
SLD-Solid
370
    25
100
AcDbCircle
 10
3.985926657335902
 20
8.884005053486879
 30
0.0
 40
0.0056416420481971
100
AcDbArc
 50
86.18873895051654
 51
175.5980503477078
  0
ARC
  5
16A
330
1F
100
AcDbEntity
  8
OBJECT
  6
SLD-Solid
370
    25
100
AcDbCircle
 10
12.07667665733591
 20
8.884005053486897
 30
0.0
 40
0.0056416420481953
100
AcDbArc
 50
4.401949652294696
 51
93.81126104948466
  0
LINE
  5
16B
330
1F
100
AcDbEntity
  8
OBJECT
  6
SLD-Solid
370
    25
100
AcDbLine
 10
6.216301657335903
 20
8.889634218611492
 30
0.0
 11
5.986301657335902
 21
8.889634218611489
 31
0.0
  0
LINE
  5
16C
330
1F
100
AcDbEntity
  8
OBJECT
  6
SLD-Solid
370
    25
100
AcDbLine
 10
9.846301657335909
 20
8.889634218611487
 30
0.0
 11
10.07630165733591
 21
8.889634218611501
 31
0.0
  0
LINE
  5
16D
330
1F
100
AcDbEntity
  8
OBJECT
  6
SLD-Solid
370
    25
100
AcDbLine
 10
6.689899207587847
 20
8.820389971472622
 30
0.0
 11
6.689899207587848
 21
8.79440920935909
 31
0.0
  0
ARC
  5
16E
330
1F
100
AcDbEntity
  8
OBJECT
  6
SLD-Solid
370
    25
100
AcDbCircle
 10
7.273683752773226
 20
9.841311089559662
 30
0.0
 40
1.176046055455904
100
AcDbArc
 50
234.7436363463271
 51
240.2381543518285
  0
LINE
  5
16F
330
1F
100
AcDbEntity
  8
OBJECT
  6
SLD-Solid
370
    25
100
AcDbLine
 10
9.372704107083964
 20
8.820389971472618
 30
0.0
 11
9.372704107083962
 21
8.794409209359085
 31
0.0
  0
ARC
  5
170
330
1F
100
AcDbEntity
  8
OBJECT
  6
SLD-Solid
370
    25
100
AcDbCircle
 10
8.788919561899432
 20
9.84131108955834
 30
0.0
 40
1.176046055454339
100
AcDbArc
 50
299.7618456481692
 51
305.2563636536789
  0
LINE
  5
171
330
1F
100
AcDbEntity
  8
OBJECT
  6
SLD-Solid
370
    25
100
AcDbLine
 10
5.980301657335902
 20
8.867040606567228
 30
0.0
 11
5.980301657335917
 21
8.887118441444478
 31
0.0
  0
ELLIPSE
  5
172
330
1F
100
AcDbEntity
  8
OBJECT
  6
SLD-Solid
370
    25
100
AcDbEllipse
 10
5.886301657335903
 20
8.86704060656723
 30
0.0
 11
0.09399999999999942
 21
0.0
 31
0.0
210
0.0
220
0.0
230
1.0
 40
0.9016569453311312
 41
5.265177225794397
 42
6.283185307179586
  0
ELLIPSE
  5
173
330
1F
100
AcDbEntity
  8
OBJECT
  6
SLD-Solid
370
    25
100
AcDbEllipse
 10
10.17630165733591
 20
8.86704060656724
 30
0.0
 11
0.09399999999999942
 21
0.0
 31
0.0
210
0.0
220
0.0
230
1.0
 40
0.9016569453311312
 41
3.141592653589793
 42
4.159600734975029
  0
LINE
  5
174
330
1F
100
AcDbEntity
  8
OBJECT
  6
SLD-Solid
370
    25
100
AcDbLine
 10
10.08230165733591
 20
8.86704060656724
 30
0.0
 11
10.08230165733591
 21
8.886568018191754
 31
0.0
  0
ELLIPSE
  5
175
330
1F
100
AcDbEntity
  8
OBJECT
  6
SLD-Solid
370
    25
100
AcDbEllipse
 10
6.316301657335901
 20
8.867040606567219
 30
0.0
 11
0.09400000000000031
 21
0.0
 31
0.0
210
0.0
220
0.0
230
1.0
 40
0.9016569453311226
 41
3.141592653589751
 42
4.15960073497501
  0
LINE
  5
176
330
1F
100
AcDbEntity
  8
OBJECT
  6
SLD-Solid
370
    25
100
AcDbLine
 10
6.222301657335918
 20
8.886568018191745
 30
0.0
 11
6.222301657335902
 21
8.867040606567222
 31
0.0
  0
LINE
  5
177
330
1F
100
AcDbEntity
  8
OBJECT
  6
SLD-Solid
370
    25
100
AcDbLine
 10
9.840301657335907
 20
8.886608729837166
 30
0.0
 11
9.840301657335909
 21
8.867040606567228
 31
0.0
  0
ELLIPSE
  5
178
330
1F
100
AcDbEntity
  8
OBJECT
  6
SLD-Solid
370
    25
100
AcDbEllipse
 10
9.74630165733591
 20
8.867040606567226
 30
0.0
 11
0.09399999999999942
 21
0.0
 31
0.0
210
0.0
220
0.0
230
1.0
 40
0.9016569453311312
 41
5.265177225794409
 42
6.283185307179586
  0
ARC
  5
179
330
1F
100
AcDbEntity
  8
OBJECT
  6
SLD-Solid
370
    25
100
AcDbCircle
 10
5.985926657335901
 20
8.884005053486892
 30
0.0
 40
0.0056416420481978
100
AcDbArc
 50
86.18873895052553
 51
175.5980503477088
  0
ARC
  5
17A
330
1F
100
AcDbEntity
  8
OBJECT
  6
SLD-Solid
370
    25
100
AcDbCircle
 10
10.07667665733591
 20
8.884005053486904
 30
0.0
 40
0.0056416420481971
100
AcDbArc
 50
4.401949652219977
 51
93.81126104948346
  0
ARC
  5
17B
330
1F
100
AcDbEntity
  8
OBJECT
  6
SLD-Solid
370
    25
100
AcDbCircle
 10
6.216676657335899
 20
8.884005053486893
 30
0.0
 40
0.0056416420482012
100
AcDbArc
 50
4.401949652270477
 51
93.81126104942827
  0
ARC
  5
17C
330
1F
100
AcDbEntity
  8
OBJECT
  6
SLD-Solid
370
    25
100
AcDbCircle
 10
9.845926657335903
 20
8.884005053486895
 30
0.0
 40
0.005641642048193
100
AcDbArc
 50
86.18873895047695
 51
175.5980503477593
  0
SPLINE
  5
17D
330
1F
100
AcDbEntity
  8
OBJECT
  6
SLD-Solid
370
    25
100
AcDbSpline
210
0.0
220
0.0
230
1.0
 70
    12
 71
     3
 72
     9
 73
     5
 74
     0
 42
0.00000001
 43
0.00000001
 40
0.0
 40
0.0
 40
0.0
 40
0.0
 40
0.5350818694413602
 40
1.0
 40
1.0
 40
1.0
 40
1.0
 10
4.266959462155629
 20
8.794409209363574
 30
0.0
 41
1.0
 10
4.267060676347067
 20
8.792146694083996
 30
0.0
 41
1.0
 10
4.267249832805577
 20
8.787918340613635
 30
0.0
 41
1.0
 10
4.26705161650691
 20
8.787319171262048
 30
0.0
 41
1.0
 10
4.266959462155886
 20
8.787040606567222
 30
0.0
 41
1.0
  0
ARC
  5
17E
330
1F
100
AcDbEntity
  8
OBJECT
  6
SLD-Solid
370
    25
100
AcDbCircle
 10
4.316301657335901
 20
8.867040606567228
 30
0.0
 40
0.0940000000000013
100
AcDbArc
 50
180.0
 51
238.3275665735851
  0
ARC
  5
17F
330
1F
100
AcDbEntity
  8
OBJECT
  6
SLD-Solid
370
    25
100
AcDbCircle
 10
5.886301657335903
 20
8.86704060656723
 30
0.0
 40
0.0939999999999994
100
AcDbArc
 50
301.6724334264087
 51
359.9999999999997
  0
SPLINE
  5
180
330
1F
100
AcDbEntity
  8
OBJECT
  6
SLD-Solid
370
    25
100
AcDbSpline
210
0.0
220
0.0
230
1.0
 70
    12
 71
     3
 72
     9
 73
     5
 74
     0
 42
0.00000001
 43
0.00000001
 40
0.0
 40
0.0
 40
0.0
 40
0.0
 40
0.5350818696130502
 40
1.0
 40
1.0
 40
1.0
 40
1.0
 10
5.935643852515903
 20
8.787040606567226
 30
0.0
 41
1.0
 10
5.935542638324531
 20
8.787411360792257
 30
0.0
 41
1.0
 10
5.935353481866203
 20
8.788104253312238
 30
0.0
 41
1.0
 10
5.935551698165077
 20
8.79240821809775
 30
0.0
 41
1.0
 10
5.935643852516162
 20
8.794409209359081
 30
0.0
 41
1.0
  0
ARC
  5
181
330
1F
100
AcDbEntity
  8
OBJECT
  6
SLD-Solid
370
    25
100
AcDbCircle
 10
3.886301657335904
 20
8.867040606567215
 30
0.0
 40
0.0940000000000028
100
AcDbArc
 50
301.672433426416
 51
359.9999999999997
  0
SPLINE
  5
182
330
1F
100
AcDbEntity
  8
OBJECT
  6
SLD-Solid
370
    25
100
AcDbSpline
210
0.0
220
0.0
230
1.0
 70
    12
 71
     3
 72
     9
 73
     5
 74
     0
 42
0.00000001
 43
0.00000001
 40
0.0
 40
0.0
 40
0.0
 40
0.0
 40
0.5350818694465767
 40
1.0
 40
1.0
 40
1.0
 40
1.0
 10
3.935643852515919
 20
8.787040606567206
 30
0.0
 41
1.0
 10
3.935542638324574
 20
8.787411360792241
 30
0.0
 41
1.0
 10
3.935353481866241
 20
8.788104253312444
 30
0.0
 41
1.0
 10
3.935551698165054
 20
8.792408218100384
 30
0.0
 41
1.0
 10
3.935643852516145
 20
8.794409209363563
 30
0.0
 41
1.0
  0
SPLINE
  5
183
330
1F
100
AcDbEntity
  8
OBJECT
  6
SLD-Solid
370
    25
100
AcDbSpline
210
0.0
220
0.0
230
1.0
 70
    12
 71
     3
 72
     9
 73
     5
 74
     0
 42
0.00000001
 43
0.00000001
 40
0.0
 40
0.0
 40
0.0
 40
0.0
 40
0.5350818694412617
 40
1.0
 40
1.0
 40
1.0
 40
1.0
 10
6.266959462155642
 20
8.794409209363582
 30
0.0
 41
1.0
 10
6.267060676347067
 20
8.792146694084
 30
0.0
 41
1.0
 10
6.267249832805557
 20
8.787918340613633
 30
0.0
 41
1.0
 10
6.267051616506892
 20
8.78731917126205
 30
0.0
 41
1.0
 10
6.26695946215587
 20
8.787040606567224
 30
0.0
 41
1.0
  0
ARC
  5
184
330
1F
100
AcDbEntity
  8
OBJECT
  6
SLD-Solid
370
    25
100
AcDbCircle
 10
6.316301657335901
 20
8.867040606567219
 30
0.0
 40
0.0940000000000007
100
AcDbArc
 50
179.9999999999978
 51
238.3275665735753
  0
ARC
  5
185
330
1F
100
AcDbEntity
  8
OBJECT
  6
SLD-Solid
370
    25
100
AcDbCircle
 10
11.74630165733591
 20
8.867040606567235
 30
0.0
 40
0.0940000000000018
100
AcDbArc
 50
301.6724334264253
 51
0.0000000000032482
  0
SPLINE
  5
186
330
1F
100
AcDbEntity
  8
OBJECT
  6
SLD-Solid
370
    25
100
AcDbSpline
210
0.0
220
0.0
230
1.0
 70
    12
 71
     3
 72
     9
 73
     5
 74
     0
 42
0.00000001
 43
0.00000001
 40
0.0
 40
0.0
 40
0.0
 40
0.0
 40
0.5350818696129845
 40
1.0
 40
1.0
 40
1.0
 40
1.0
 10
11.79564385251593
 20
8.787040606567238
 30
0.0
 41
1.0
 10
11.79554263832456
 20
8.78741136079227
 30
0.0
 41
1.0
 10
11.79535348186624
 20
8.788104253312246
 30
0.0
 41
1.0
 10
11.79555169816509
 20
8.792408218097764
 30
0.0
 41
1.0
 10
11.79564385251617
 20
8.794409209359099
 30
0.0
 41
1.0
  0
SPLINE
  5
187
330
1F
100
AcDbEntity
  8
OBJECT
  6
SLD-Solid
370
    25
100
AcDbSpline
210
0.0
220
0.0
230
1.0
 70
    12
 71
     3
 72
     9
 73
     5
 74
     0
 42
0.00000001
 43
0.00000001
 40
0.0
 40
0.0
 40
0.0
 40
0.0
 40
0.5350818694413187
 40
1.0
 40
1.0
 40
1.0
 40
1.0
 10
10.12695946215565
 20
8.794409209363582
 30
0.0
 41
1.0
 10
10.12706067634708
 20
8.792146694084003
 30
0.0
 41
1.0
 10
10.12724983280558
 20
8.787918340613645
 30
0.0
 41
1.0
 10
10.12705161650691
 20
8.78731917126206
 30
0.0
 41
1.0
 10
10.12695946215589
 20
8.787040606567235
 30
0.0
 41
1.0
  0
ARC
  5
188
330
1F
100
AcDbEntity
  8
OBJECT
  6
SLD-Solid
370
    25
100
AcDbCircle
 10
10.17630165733591
 20
8.86704060656724
 30
0.0
 40
0.0940000000000053
100
AcDbArc
 50
180.0
 51
238.3275665735853
  0
ARC
  5
189
330
1F
100
AcDbEntity
  8
OBJECT
  6
SLD-Solid
370
    25
100
AcDbCircle
 10
9.74630165733591
 20
8.867040606567226
 30
0.0
 40
0.0939999999999994
100
AcDbArc
 50
301.6724334264203
 51
0.0000000000010827
  0
SPLINE
  5
18A
330
1F
100
AcDbEntity
  8
OBJECT
  6
SLD-Solid
370
    25
100
AcDbSpline
210
0.0
220
0.0
230
1.0
 70
    12
 71
     3
 72
     9
 73
     5
 74
     0
 42
0.00000001
 43
0.00000001
 40
0.0
 40
0.0
 40
0.0
 40
0.0
 40
0.5350818694466168
 40
1.0
 40
1.0
 40
1.0
 40
1.0
 10
9.795643852515925
 20
8.787040606567233
 30
0.0
 41
1.0
 10
9.79554263832458
 20
8.78741136079227
 30
0.0
 41
1.0
 10
9.795353481866242
 20
8.788104253312472
 30
0.0
 41
1.0
 10
9.79555169816507
 20
8.792408218100414
 30
0.0
 41
1.0
 10
9.795643852516168
 20
8.794409209363591
 30
0.0
 41
1.0
  0
SPLINE
  5
18B
330
1F
100
AcDbEntity
  8
OBJECT
  6
SLD-Solid
370
    25
100
AcDbSpline
210
0.0
220
0.0
230
1.0
 70
    12
 71
     3
 72
     9
 73
     5
 74
     0
 42
0.00000001
 43
0.00000001
 40
0.0
 40
0.0
 40
0.0
 40
0.0
 40
0.5350818694413251
 40
1.0
 40
1.0
 40
1.0
 40
1.0
 10
12.12695946215565
 20
8.794409209363588
 30
0.0
 41
1.0
 10
12.12706067634708
 20
8.792146694084007
 30
0.0
 41
1.0
 10
12.12724983280559
 20
8.787918340613647
 30
0.0
 41
1.0
 10
12.12705161650692
 20
8.78731917126206
 30
0.0
 41
1.0
 10
12.1269594621559
 20
8.787040606567231
 30
0.0
 41
1.0
  0
ARC
  5
18C
330
1F
100
AcDbEntity
  8
OBJECT
  6
SLD-Solid
370
    25
100
AcDbCircle
 10
12.17630165733591
 20
8.867040606567237
 30
0.0
 40
0.094000000000003
100
AcDbArc
 50
180.0000000000019
 51
238.3275665735849
  0
SPLINE
  5
18D
330
1F
100
AcDbEntity
  8
OBJECT
  6
SLD-Solid
370
    25
100
AcDbSpline
210
0.0
220
0.0
230
1.0
 70
    12
 71
     3
 72
    10
 73
     6
 74
     0
 42
0.00000001
 43
0.00000001
 40
0.0
 40
0.0
 40
0.0
 40
0.0
 40
0.0272654359779593
 40
0.4803205239934403
 40
1.0
 40
1.0
 40
1.0
 40
1.0
 10
6.689773719914966
 20
8.820389971474656
 30
0.0
 41
1.0
 10
6.689841373487025
 20
8.820319963355512
 30
0.0
 41
1.0
 10
6.691033190086168
 20
8.819086667966516
 30
0.0
 41
1.0
 10
6.694547960344874
 20
8.817402315248978
 30
0.0
 41
1.0
 10
6.698695145693872
 20
8.817166558597396
 30
0.0
 41
1.0
 10
6.700910762562835
 20
8.817040606567222
 30
0.0
 41
1.0
  0
LINE
  5
18E
330
1F
100
AcDbEntity
  8
OBJECT
  6
SLD-Solid
370
    25
100
AcDbLine
 10
6.700910762562836
 20
8.81704060656722
 30
0.0
 11
6.700910762562836
 21
8.787040606567226
 31
0.0
  0
SPLINE
  5
18F
330
1F
100
AcDbEntity
  8
OBJECT
  6
SLD-Solid
370
    25
100
AcDbSpline
210
0.0
220
0.0
230
1.0
 70
    12
 71
     3
 72
    10
 73
     6
 74
     0
 42
0.00000001
 43
0.00000001
 40
0.0
 40
0.0
 40
0.0
 40
0.0
 40
0.0308920022323136
 40
0.5091306801820279
 40
1.0
 40
1.0
 40
1.0
 40
1.0
 10
6.689773719914966
 20
8.794409209363584
 30
0.0
 41
1.0
 10
6.689841250907329
 20
8.79425542703876
 30
0.0
 41
1.0
 10
6.690954228299225
 20
8.791720942577395
 30
0.0
 41
1.0
 10
6.694189811146035
 20
8.787970478223706
 30
0.0
 41
1.0
 10
6.698651063860152
 20
8.787353245306218
 30
0.0
 41
1.0
 10
6.700910762562835
 20
8.78704060656722
 30
0.0
 41
1.0
  0
SPLINE
  5
190
330
1F
100
AcDbEntity
  8
OBJECT
  6
SLD-Solid
370
    25
100
AcDbSpline
210
0.0
220
0.0
230
1.0
 70
    12
 71
     3
 72
    10
 73
     6
 74
     0
 42
0.00000001
 43
0.00000001
 40
0.0
 40
0.0
 40
0.0
 40
0.0
 40
0.0308920022320734
 40
0.509130680182074
 40
1.0
 40
1.0
 40
1.0
 40
1.0
 10
9.372829594756844
 20
8.79440920936358
 30
0.0
 41
1.0
 10
9.37276206376449
 20
8.794255427038756
 30
0.0
 41
1.0
 10
9.371649086372745
 20
8.791720942577374
 30
0.0
 41
1.0
 10
9.368413503525757
 20
8.78797047822371
 30
0.0
 41
1.0
 10
9.363952250811652
 20
8.787353245306226
 30
0.0
 41
1.0
 10
9.361692552108975
 20
8.787040606567231
 30
0.0
 41
1.0
  0
LINE
  5
191
330
1F
100
AcDbEntity
  8
OBJECT
  6
SLD-Solid
370
    25
100
AcDbLine
 10
9.361692552108973
 20
8.81704060656723
 30
0.0
 11
9.361692552108973
 21
8.787040606567228
 31
0.0
  0
SPLINE
  5
192
330
1F
100
AcDbEntity
  8
OBJECT
  6
SLD-Solid
370
    25
100
AcDbSpline
210
0.0
220
0.0
230
1.0
 70
    12
 71
     3
 72
    10
 73
     6
 74
     0
 42
0.00000001
 43
0.00000001
 40
0.0
 40
0.0
 40
0.0
 40
0.0
 40
0.0272654359783345
 40
0.4803205239935283
 40
1.0
 40
1.0
 40
1.0
 40
1.0
 10
9.372829594756844
 20
8.82038997147466
 30
0.0
 41
1.0
 10
9.372761941184795
 20
8.820319963355516
 30
0.0
 41
1.0
 10
9.37157012458584
 20
8.81908666796649
 30
0.0
 41
1.0
 10
9.36805535432689
 20
8.817402315248984
 30
0.0
 41
1.0
 10
9.363908168977922
 20
8.817166558597403
 30
0.0
 41
1.0
 10
9.361692552108975
 20
8.81704060656723
 30
0.0
 41
1.0
  0
LINE
  5
193
330
1F
100
AcDbEntity
  8
OBJECT
  6
SLD-Solid
370
    25
100
AcDbLine
 10
6.700910762562835
 20
8.787040606567235
 30
0.0
 11
6.26695946215587
 21
8.787040606567233
 31
0.0
  0
LINE
  5
194
330
1F
100
AcDbEntity
  8
OBJECT
  6
SLD-Solid
370
    25
100
AcDbLine
 10
9.361692552108975
 20
8.78704060656723
 30
0.0
 11
9.795643852515925
 21
8.787040606567242
 31
0.0
  0
LINE
  5
195
330
1F
100
AcDbEntity
  8
OBJECT
  6
SLD-Solid
370
    25
100
AcDbLine
 10
5.935643852515903
 20
8.787040606567228
 30
0.0
 11
4.266959462155886
 21
8.787040606567222
 31
0.0
  0
LINE
  5
196
330
1F
100
AcDbEntity
  8
OBJECT
  6
SLD-Solid
370
    25
100
AcDbLine
 10
2.601301657335886
 20
8.794409209359065
 30
0.0
 11
2.601301657335889
 21
8.787040606567226
 31
0.0
  0
LINE
  5
197
330
1F
100
AcDbEntity
  8
OBJECT
  6
SLD-Solid
370
    25
100
AcDbLine
 10
2.601301657335886
 20
8.794409209359065
 30
0.0
 11
2.660301657335887
 21
8.794409209359072
 31
0.0
  0
LINE
  5
198
330
1F
100
AcDbEntity
  8
OBJECT
  6
SLD-Solid
370
    25
100
AcDbLine
 10
3.935643852515919
 20
8.787040606567212
 30
0.0
 11
2.601301657335889
 21
8.787040606567226
 31
0.0
  0
LINE
  5
199
330
1F
100
AcDbEntity
  8
OBJECT
  6
SLD-Solid
370
    25
100
AcDbLine
 10
10.12695946215589
 20
8.787040606567235
 30
0.0
 11
11.79564385251593
 21
8.787040606567246
 31
0.0
  0
LINE
  5
19A
330
1F
100
AcDbEntity
  8
OBJECT
  6
SLD-Solid
370
    25
100
AcDbLine
 10
13.46130165733591
 20
8.794409209359097
 30
0.0
 11
13.40230165733591
 21
8.794409209359092
 31
0.0
  0
LINE
  5
19B
330
1F
100
AcDbEntity
  8
OBJECT
  6
SLD-Solid
370
    25
100
AcDbLine
 10
13.46130165733591
 20
8.794409209359097
 30
0.0
 11
13.46130165733591
 21
8.78704060656725
 31
0.0
  0
LINE
  5
19C
330
1F
100
AcDbEntity
  8
OBJECT
  6
SLD-Solid
370
    25
100
AcDbLine
 10
12.1269594621559
 20
8.787040606567237
 30
0.0
 11
13.46130165733591
 21
8.78704060656725
 31
0.0
  0
LINE
  5
19D
330
1F
100
AcDbEntity
  8
OBJECT
  6
SLD-Solid
370
    25
100
AcDbLine
 10
2.601301657335886
 20
8.820389971472599
 30
0.0
 11
2.601301657335886
 21
8.794409209359065
 31
0.0
  0
LINE
  5
19E
330
1F
100
AcDbEntity
  8
OBJECT
  6
SLD-Solid
370
    25
100
AcDbLine
 10
2.601301657335886
 20
8.820389971472599
 30
0.0
 11
2.608920727021228
 21
8.820389971472599
 31
0.0
  0
LINE
  5
19F
330
1F
100
AcDbEntity
  8
OBJECT
  6
SLD-Solid
370
    25
100
AcDbLine
 10
13.46130165733589
 20
8.820389971472624
 30
0.0
 11
13.46130165733591
 21
8.794409209359097
 31
0.0
  0
LINE
  5
1A0
330
1F
100
AcDbEntity
  8
OBJECT
  6
SLD-Solid
370
    25
100
AcDbLine
 10
13.46130165733589
 20
8.820389971472624
 30
0.0
 11
13.45368258765055
 21
8.820389971472624
 31
0.0
  0
LINE
  5
1A1
330
1F
100
AcDbEntity
  8
OBJECT
  6
SLD-Solid
370
    25
100
AcDbLine
 10
8.031301657335904
 20
8.817040606567227
 30
0.0
 11
8.031301657335904
 21
8.787040606567226
 31
0.0
  0
LINE
  5
1A2
330
1F
100
AcDbEntity
  8
OBJECT
  6
SLD-Solid
370
    25
100
AcDbLine
 10
6.700910762562835
 20
8.787040606567222
 30
0.0
 11
8.031301657335904
 21
8.787040606567226
 31
0.0
  0
LINE
  5
1A3
330
1F
100
AcDbEntity
  8
OBJECT
  6
SLD-Solid
370
    25
100
AcDbLine
 10
8.031301657335904
 20
8.817040606567227
 30
0.0
 11
6.70091076256283
 21
8.817040606567224
 31
0.0
  0
LINE
  5
1A4
330
1F
100
AcDbEntity
  8
OBJECT
  6
SLD-Solid
370
    25
100
AcDbLine
 10
9.361692552108986
 20
8.787040606567237
 30
0.0
 11
8.031301657335904
 21
8.787040606567233
 31
0.0
  0
LINE
  5
1A5
330
1F
100
AcDbEntity
  8
OBJECT
  6
SLD-Solid
370
    25
100
AcDbLine
 10
8.031301657335904
 20
8.817040606567234
 30
0.0
 11
9.36169255210899
 21
8.817040606567238
 31
0.0
  0
LINE
  5
1A6
330
1F
100
AcDbEntity
  8
OBJECT
  6
SLD-Solid
370
    25
100
AcDbLine
 10
4.216301657335897
 20
8.877040606567224
 30
0.0
 11
4.216301657335902
 21
8.889634218611485
 31
0.0
  0
ARC
  5
1A7
330
1F
100
AcDbEntity
  8
OBJECT
  6
SLD-Solid
370
    25
100
AcDbCircle
 10
4.216301657335902
 20
8.87104060656722
 30
0.0
 40
0.0060000000000038
100
AcDbArc
 50
0.0
 51
90.00000000004242
  0
LINE
  5
1A8
330
1F
100
AcDbEntity
  8
OBJECT
  6
SLD-Solid
370
    25
100
AcDbLine
 10
5.986301657335902
 20
8.889634218611489
 30
0.0
 11
5.986301657335902
 21
8.87704060656722
 31
0.0
  0
ARC
  5
1A9
330
1F
100
AcDbEntity
  8
OBJECT
  6
SLD-Solid
370
    25
100
AcDbCircle
 10
5.986301657335902
 20
8.871040606567224
 30
0.0
 40
0.0060000000000002
100
AcDbArc
 50
90.0
 51
180.0
  0
LINE
  5
1AA
330
1F
100
AcDbEntity
  8
OBJECT
  6
SLD-Solid
370
    25
100
AcDbLine
 10
10.07630165733591
 20
8.889634218611501
 30
0.0
 11
10.07630165733591
 21
8.877040606567238
 31
0.0
  0
ARC
  5
1AB
330
1F
100
AcDbEntity
  8
OBJECT
  6
SLD-Solid
370
    25
100
AcDbCircle
 10
10.07630165733591
 20
8.871040606567238
 30
0.0
 40
0.0060000000000002
100
AcDbArc
 50
359.9999999998013
 51
90.00000000005089
  0
LINE
  5
1AC
330
1F
100
AcDbEntity
  8
OBJECT
  6
SLD-Solid
370
    25
100
AcDbLine
 10
3.986301657335904
 20
8.889634218611477
 30
0.0
 11
3.986301657335899
 21
8.877040606567224
 31
0.0
  0
ARC
  5
1AD
330
1F
100
AcDbEntity
  8
OBJECT
  6
SLD-Solid
370
    25
100
AcDbCircle
 10
3.986301657335904
 20
8.871040606567215
 30
0.0
 40
0.0060000000000091
100
AcDbArc
 50
90.00000000004242
 51
180.0
  0
LINE
  5
1AE
330
1F
100
AcDbEntity
  8
OBJECT
  6
SLD-Solid
370
    25
100
AcDbLine
 10
6.2163016573359
 20
8.877040606567231
 30
0.0
 11
6.216301657335903
 21
8.889634218611492
 31
0.0
  0
ARC
  5
1AF
330
1F
100
AcDbEntity
  8
OBJECT
  6
SLD-Solid
370
    25
100
AcDbCircle
 10
6.216301657335903
 20
8.871040606567231
 30
0.0
 40
0.0060000000000002
100
AcDbArc
 50
0.0
 51
90.00000000002544
  0
LINE
  5
1B0
330
1F
100
AcDbEntity
  8
OBJECT
  6
SLD-Solid
370
    25
100
AcDbLine
 10
9.846301657335909
 20
8.877040606567226
 30
0.0
 11
9.846301657335909
 21
8.889634218611487
 31
0.0
  0
ARC
  5
1B1
330
1F
100
AcDbEntity
  8
OBJECT
  6
SLD-Solid
370
    25
100
AcDbCircle
 10
9.846301657335914
 20
8.871040606567226
 30
0.0
 40
0.0060000000000002
100
AcDbArc
 50
90.00000000005089
 51
180.0
  0
LINE
  5
1B2
330
1F
100
AcDbEntity
  8
OBJECT
  6
SLD-Solid
370
    25
100
AcDbLine
 10
11.84630165733591
 20
8.877040606567235
 30
0.0
 11
11.84630165733591
 21
8.889634218611496
 31
0.0
  0
ARC
  5
1B3
330
1F
100
AcDbEntity
  8
OBJECT
  6
SLD-Solid
370
    25
100
AcDbCircle
 10
11.84630165733591
 20
8.871040606567233
 30
0.0
 40
0.006000000000002
100
AcDbArc
 50
89.99999999996608
 51
180.0
  0
LINE
  5
1B4
330
1F
100
AcDbEntity
  8
OBJECT
  6
SLD-Solid
370
    25
100
AcDbLine
 10
12.07630165733591
 20
8.889634218611492
 30
0.0
 11
12.07630165733591
 21
8.877040606567231
 31
0.0
  0
ARC
  5
1B5
330
1F
100
AcDbEntity
  8
OBJECT
  6
SLD-Solid
370
    25
100
AcDbCircle
 10
12.07630165733591
 20
8.87104060656723
 30
0.0
 40
0.006000000000002
100
AcDbArc
 50
0.0
 51
89.99999999996608
  0
LINE
  5
1B6
330
1F
100
AcDbEntity
  8
OBJECT
  6
SLD-Solid
370
    25
100
AcDbLine
 10
2.601671448343148
 20
8.839792970697061
 30
0.0
 11
2.601301657335886
 21
8.839792970697065
 31
0.0
  0
LINE
  5
1B7
330
1F
100
AcDbEntity
  8
OBJECT
  6
SLD-Solid
370
    25
100
AcDbLine
 10
2.601301657335886
 20
8.845504708182343
 30
0.0
 11
2.601301657335886
 21
8.839792970697065
 31
0.0
  0
LINE
  5
1B8
330
1F
100
AcDbEntity
  8
OBJECT
  6
SLD-Solid
370
    25
100
AcDbLine
 10
13.46093186632863
 20
8.839792970697088
 30
0.0
 11
13.46130165733589
 21
8.83979297069709
 31
0.0
  0
LINE
  5
1B9
330
1F
100
AcDbEntity
  8
OBJECT
  6
SLD-Solid
370
    25
100
AcDbLine
 10
13.4613016573359
 20
8.845504708182375
 30
0.0
 11
13.46130165733589
 21
8.83979297069709
 31
0.0
  0
LINE
  5
1BA
330
1F
100
AcDbEntity
  8
OBJECT
  6
SLD-Solid
370
    25
100
AcDbLine
 10
3.986301657335899
 20
8.877040606567224
 30
0.0
 11
4.216301657335897
 21
8.877040606567224
 31
0.0
  0
LINE
  5
1BB
330
1F
100
AcDbEntity
  8
OBJECT
  6
SLD-Solid
370
    25
100
AcDbLine
 10
5.986301657335902
 20
8.87704060656722
 30
0.0
 11
6.2163016573359
 21
8.877040606567231
 31
0.0
  0
LINE
  5
1BC
330
1F
100
AcDbEntity
  8
OBJECT
  6
SLD-Solid
370
    25
100
AcDbLine
 10
10.07630165733591
 20
8.877040606567238
 30
0.0
 11
9.846301657335909
 21
8.877040606567226
 31
0.0
  0
LINE
  5
1BD
330
1F
100
AcDbEntity
  8
OBJECT
  6
SLD-Solid
370
    25
100
AcDbLine
 10
12.07630165733591
 20
8.877040606567231
 30
0.0
 11
11.84630165733591
 21
8.877040606567235
 31
0.0
  0
SPLINE
  5
1BE
330
1F
100
AcDbEntity
  8
OBJECT
  6
SLD-Solid
370
    25
100
AcDbSpline
210
0.0
220
0.0
230
1.0
 70
    28
 71
     3
 72
    17
 73
    13
 74
     0
 42
0.00000001
 43
0.00000001
 40
0.0
 40
0.0
 40
0.0
 40
0.0
 40
0.0211780476771077
 40
0.1102945271829332
 40
0.2195979901740325
 40
0.3506632727327047
 40
0.490428947192359
 40
0.6221877714894629
 40
0.7369029984622937
 40
0.8340681167970702
 40
0.9195128767091905
 40
1.0
 40
1.0
 40
1.0
 40
1.0
 10
4.222301657335886
 20
8.86704060656722
 30
0.0
 41
1.0
 10
4.222232363760658
 20
8.86704060656722
 30
0.0
 41
1.0
 10
4.221871485258871
 20
8.867040606567228
 30
0.0
 41
1.0
 10
4.214381860013007
 20
8.867040606567222
 30
0.0
 41
1.0
 10
4.190351444842707
 20
8.867040606567226
 30
0.0
 41
1.0
 10
4.151762008205422
 20
8.867040606567215
 30
0.0
 41
1.0
 10
4.105488492461799
 20
8.867040606567215
 30
0.0
 41
1.0
 10
4.060838085226218
 20
8.867040606567228
 30
0.0
 41
1.0
 10
4.0244590649452
 20
8.867040606567222
 30
0.0
 41
1.0
 10
3.999036840871419
 20
8.867040606567231
 30
0.0
 41
1.0
 10
3.983247422673323
 20
8.867040606567212
 30
0.0
 41
1.0
 10
3.981263824099214
 20
8.86704060656721
 30
0.0
 41
1.0
 10
3.980301657335888
 20
8.867040606567212
 30
0.0
 41
1.0
  0
SPLINE
  5
1BF
330
1F
100
AcDbEntity
  8
OBJECT
  6
SLD-Solid
370
    25
100
AcDbSpline
210
0.0
220
0.0
230
1.0
 70
    28
 71
     3
 72
    16
 73
    12
 74
     0
 42
0.00000001
 43
0.00000001
 40
0.0
 40
0.0
 40
0.0
 40
0.0
 40
0.0282648967591249
 40
0.1309308710366525
 40
0.2425815708894425
 40
0.3684912467142429
 40
0.510528180281686
 40
0.6639905286439012
 40
0.8162652468729985
 40
0.9529051566295574
 40
1.0
 40
1.0
 40
1.0
 40
1.0
 10
4.260042387302375
 20
8.787040606567224
 30
0.0
 41
1.0
 10
4.259426430125782
 20
8.787040606567224
 30
0.0
 41
1.0
 10
4.256573144994761
 20
8.787040606567224
 30
0.0
 41
1.0
 10
4.236199145415522
 20
8.787040606567222
 30
0.0
 41
1.0
 10
4.201633436678189
 20
8.787040606567217
 30
0.0
 41
1.0
 10
4.152967109473388
 20
8.787040606567222
 30
0.0
 41
1.0
 10
4.094659499329812
 20
8.787040606567222
 30
0.0
 41
1.0
 10
4.032601154827095
 20
8.787040606567228
 30
0.0
 41
1.0
 10
3.980366744240814
 20
8.787040606567217
 30
0.0
 41
1.0
 10
3.94874377210349
 20
8.787040606567215
 30
0.0
 41
1.0
 10
3.943822691221514
 20
8.787040606567212
 30
0.0
 41
1.0
 10
3.942561321070218
 20
8.787040606567212
 30
0.0
 41
1.0
  0
SPLINE
  5
1C0
330
1F
100
AcDbEntity
  8
OBJECT
  6
SLD-Solid
370
    25
100
AcDbSpline
210
0.0
220
0.0
230
1.0
 70
    28
 71
     3
 72
    17
 73
    13
 74
     0
 42
0.00000001
 43
0.00000001
 40
0.0
 40
0.0
 40
0.0
 40
0.0
 40
0.0211780476770942
 40
0.1102945271829067
 40
0.2195979901740324
 40
0.3506632727327053
 40
0.4904289471923591
 40
0.6221877714894593
 40
0.7369029984622169
 40
0.8340681167970024
 40
0.9195128767091832
 40
1.0
 40
1.0
 40
1.0
 40
1.0
 10
11.84030165733591
 20
8.867040606567235
 30
0.0
 41
1.0
 10
11.84037095091113
 20
8.867040606567235
 30
0.0
 41
1.0
 10
11.84073182941293
 20
8.867040606567238
 30
0.0
 41
1.0
 10
11.84822145465879
 20
8.867040606567237
 30
0.0
 41
1.0
 10
11.87225186982908
 20
8.867040606567242
 30
0.0
 41
1.0
 10
11.91084130646639
 20
8.86704060656723
 30
0.0
 41
1.0
 10
11.95711482221001
 20
8.867040606567242
 30
0.0
 41
1.0
 10
12.00176522944558
 20
8.867040606567246
 30
0.0
 41
1.0
 10
12.0381442497266
 20
8.867040606567242
 30
0.0
 41
1.0
 10
12.06356647380038
 20
8.867040606567228
 30
0.0
 41
1.0
 10
12.07935589199847
 20
8.867040606567231
 30
0.0
 41
1.0
 10
12.08133949057258
 20
8.867040606567233
 30
0.0
 41
1.0
 10
12.0823016573359
 20
8.867040606567233
 30
0.0
 41
1.0
  0
SPLINE
  5
1C1
330
1F
100
AcDbEntity
  8
OBJECT
  6
SLD-Solid
370
    25
100
AcDbSpline
210
0.0
220
0.0
230
1.0
 70
    28
 71
     3
 72
    16
 73
    12
 74
     0
 42
0.00000001
 43
0.00000001
 40
0.0
 40
0.0
 40
0.0
 40
0.0
 40
0.0282648967593801
 40
0.1309308710368963
 40
0.2425815708896268
 40
0.3684912467144338
 40
0.510528180281863
 40
0.6639905286440408
 40
0.8162652468731758
 40
0.9529051566297886
 40
0.9999999999999999
 40
0.9999999999999999
 40
0.9999999999999999
 40
0.9999999999999999
 10
12.12004238730238
 20
8.787040606567237
 30
0.0
 41
1.0
 10
12.11942643012578
 20
8.787040606567237
 30
0.0
 41
1.0
 10
12.11657314499476
 20
8.787040606567233
 30
0.0
 41
1.0
 10
12.09619914541552
 20
8.787040606567233
 30
0.0
 41
1.0
 10
12.06163343667819
 20
8.78704060656723
 30
0.0
 41
1.0
 10
12.0129671094734
 20
8.787040606567258
 30
0.0
 41
1.0
 10
11.95465949932983
 20
8.787040606567231
 30
0.0
 41
1.0
 10
11.8926011548271
 20
8.78704060656724
 30
0.0
 41
1.0
 10
11.84036674424084
 20
8.787040606567233
 30
0.0
 41
1.0
 10
11.8087437721035
 20
8.78704060656724
 30
0.0
 41
1.0
 10
11.80382269122153
 20
8.787040606567242
 30
0.0
 41
1.0
 10
11.80256132107024
 20
8.787040606567242
 30
0.0
 41
1.0
  0
SPLINE
  5
1C2
330
1F
100
AcDbEntity
  8
OBJECT
  6
SLD-Solid
370
    25
100
AcDbSpline
210
0.0
220
0.0
230
1.0
 70
    28
 71
     3
 72
    17
 73
    13
 74
     0
 42
0.00000001
 43
0.00000001
 40
0.0
 40
0.0
 40
0.0
 40
0.0
 40
0.0815228533995793
 40
0.1621000862497262
 40
0.2499326840678426
 40
0.3535613667719849
 40
0.4758745048411808
 40
0.6140157602651449
 40
0.7561717989220885
 40
0.8555606574991069
 40
0.9404935440949558
 40
1.0
 40
1.0
 40
1.0
 40
1.0
 10
3.980301657335888
 20
8.871040606567218
 30
0.0
 41
1.0
 10
3.98128585760113
 20
8.871040606567215
 30
0.0
 41
1.0
 10
3.983242841946376
 20
8.871040606567208
 30
0.0
 41
1.0
 10
3.998063594282411
 20
8.871040606567233
 30
0.0
 41
1.0
 10
4.020675839499146
 20
8.871040606567222
 30
0.0
 41
1.0
 10
4.053010389253672
 20
8.871040606567227
 30
0.0
 41
1.0
 10
4.094566109139189
 20
8.871040606567222
 30
0.0
 41
1.0
 10
4.141333238993683
 20
8.871040606567215
 30
0.0
 41
1.0
 10
4.181731548521266
 20
8.87104060656721
 30
0.0
 41
1.0
 10
4.208028754022515
 20
8.871040606567233
 30
0.0
 41
1.0
 10
4.22049307197493
 20
8.871040606567217
 30
0.0
 41
1.0
 10
4.221773955829538
 20
8.871040606567217
 30
0.0
 41
1.0
 10
4.222301657335886
 20
8.871040606567218
 30
0.0
 41
1.0
  0
SPLINE
  5
1C3
330
1F
100
AcDbEntity
  8
OBJECT
  6
SLD-Solid
370
    25
100
AcDbSpline
210
0.0
220
0.0
230
1.0
 70
    28
 71
     3
 72
    17
 73
    13
 74
     0
 42
0.00000001
 43
0.00000001
 40
0.0
 40
0.0
 40
0.0
 40
0.0
 40
0.0815228533995847
 40
0.1621000862497985
 40
0.2499326840679081
 40
0.3535613667719982
 40
0.4758745048411865
 40
0.6140157602651478
 40
0.7561717989221168
 40
0.8555606574990956
 40
0.940493544094956
 40
1.0
 40
1.0
 40
1.0
 40
1.0
 10
12.0823016573359
 20
8.871040606567233
 30
0.0
 41
1.0
 10
12.08131745707066
 20
8.871040606567231
 30
0.0
 41
1.0
 10
12.07936047272541
 20
8.871040606567224
 30
0.0
 41
1.0
 10
12.06453972038939
 20
8.87104060656724
 30
0.0
 41
1.0
 10
12.04192747517265
 20
8.871040606567224
 30
0.0
 41
1.0
 10
12.00959292541813
 20
8.871040606567242
 30
0.0
 41
1.0
 10
11.96803720553262
 20
8.871040606567238
 30
0.0
 41
1.0
 10
11.92127007567812
 20
8.871040606567227
 30
0.0
 41
1.0
 10
11.88087176615054
 20
8.871040606567234
 30
0.0
 41
1.0
 10
11.85457456064927
 20
8.871040606567234
 30
0.0
 41
1.0
 10
11.84211024269687
 20
8.871040606567234
 30
0.0
 41
1.0
 10
11.84082935884226
 20
8.871040606567236
 30
0.0
 41
1.0
 10
11.84030165733591
 20
8.871040606567236
 30
0.0
 41
1.0
  0
SPLINE
  5
1C4
330
1F
100
AcDbEntity
  8
OBJECT
  6
SLD-Solid
370
    25
100
AcDbSpline
210
0.0
220
0.0
230
1.0
 70
    28
 71
     3
 72
    17
 73
    13
 74
     0
 42
0.00000001
 43
0.00000001
 40
0.0
 40
0.0
 40
0.0
 40
0.0
 40
0.021178047677094
 40
0.1102945271828782
 40
0.2195979901740001
 40
0.350663272732682
 40
0.4904289471922885
 40
0.6221877714894268
 40
0.7369029984622156
 40
0.8340681167969934
 40
0.919512876709219
 40
1.0
 40
1.0
 40
1.0
 40
1.0
 10
6.222301657335901
 20
8.867040606567231
 30
0.0
 41
1.0
 10
6.222232363760673
 20
8.867040606567231
 30
0.0
 41
1.0
 10
6.221871485258883
 20
8.867040606567233
 30
0.0
 41
1.0
 10
6.214381860013015
 20
8.867040606567212
 30
0.0
 41
1.0
 10
6.190351444842731
 20
8.867040606567224
 30
0.0
 41
1.0
 10
6.151762008205422
 20
8.86704060656722
 30
0.0
 41
1.0
 10
6.105488492461808
 20
8.86704060656724
 30
0.0
 41
1.0
 10
6.06083808522622
 20
8.867040606567215
 30
0.0
 41
1.0
 10
6.024459064945212
 20
8.867040606567219
 30
0.0
 41
1.0
 10
5.999036840871418
 20
8.86704060656722
 30
0.0
 41
1.0
 10
5.983247422673346
 20
8.867040606567237
 30
0.0
 41
1.0
 10
5.981263824099229
 20
8.867040606567228
 30
0.0
 41
1.0
 10
5.980301657335901
 20
8.867040606567226
 30
0.0
 41
1.0
  0
SPLINE
  5
1C5
330
1F
100
AcDbEntity
  8
OBJECT
  6
SLD-Solid
370
    25
100
AcDbSpline
210
0.0
220
0.0
230
1.0
 70
    28
 71
     3
 72
    16
 73
    12
 74
     0
 42
0.00000001
 43
0.00000001
 40
0.0
 40
0.0
 40
0.0
 40
0.0
 40
0.028264896759144
 40
0.1309308710366667
 40
0.2425815708893952
 40
0.368491246714193
 40
0.5105281802816629
 40
0.6639905286438281
 40
0.8162652468730046
 40
0.9529051566295632
 40
1.0
 40
1.0
 40
1.0
 40
1.0
 10
6.26004238730236
 20
8.787040606567231
 30
0.0
 41
1.0
 10
6.259426430125767
 20
8.787040606567231
 30
0.0
 41
1.0
 10
6.25657314499475
 20
8.787040606567235
 30
0.0
 41
1.0
 10
6.236199145415509
 20
8.787040606567228
 30
0.0
 41
1.0
 10
6.201633436678181
 20
8.787040606567212
 30
0.0
 41
1.0
 10
6.152967109473383
 20
8.787040606567228
 30
0.0
 41
1.0
 10
6.094659499329818
 20
8.787040606567222
 30
0.0
 41
1.0
 10
6.032601154827077
 20
8.787040606567217
 30
0.0
 41
1.0
 10
5.980366744240837
 20
8.787040606567231
 30
0.0
 41
1.0
 10
5.948743772103471
 20
8.787040606567224
 30
0.0
 41
1.0
 10
5.943822691221498
 20
8.787040606567226
 30
0.0
 41
1.0
 10
5.942561321070205
 20
8.787040606567226
 30
0.0
 41
1.0
  0
SPLINE
  5
1C6
330
1F
100
AcDbEntity
  8
OBJECT
  6
SLD-Solid
370
    25
100
AcDbSpline
210
0.0
220
0.0
230
1.0
 70
    28
 71
     3
 72
    17
 73
    13
 74
     0
 42
0.00000001
 43
0.00000001
 40
0.0
 40
0.0
 40
0.0
 40
0.0
 40
0.0211780476770984
 40
0.1102945271829094
 40
0.2195979901740328
 40
0.3506632727327388
 40
0.4904289471924084
 40
0.6221877714894869
 40
0.7369029984623057
 40
0.8340681167970633
 40
0.919512876709258
 40
1.0
 40
1.0
 40
1.0
 40
1.0
 10
9.840301657335907
 20
8.867040606567226
 30
0.0
 41
1.0
 10
9.840370950911135
 20
8.867040606567226
 30
0.0
 41
1.0
 10
9.840731829412924
 20
8.867040606567222
 30
0.0
 41
1.0
 10
9.84822145465879
 20
8.867040606567226
 30
0.0
 41
1.0
 10
9.872251869829078
 20
8.867040606567231
 30
0.0
 41
1.0
 10
9.91084130646639
 20
8.867040606567214
 30
0.0
 41
1.0
 10
9.95711482221001
 20
8.86704060656725
 30
0.0
 41
1.0
 10
10.0017652294456
 20
8.867040606567237
 30
0.0
 41
1.0
 10
10.03814424972659
 20
8.867040606567242
 30
0.0
 41
1.0
 10
10.06356647380039
 20
8.867040606567235
 30
0.0
 41
1.0
 10
10.07935589199846
 20
8.867040606567242
 30
0.0
 41
1.0
 10
10.08133949057258
 20
8.867040606567242
 30
0.0
 41
1.0
 10
10.08230165733591
 20
8.86704060656724
 30
0.0
 41
1.0
  0
SPLINE
  5
1C7
330
1F
100
AcDbEntity
  8
OBJECT
  6
SLD-Solid
370
    25
100
AcDbSpline
210
0.0
220
0.0
230
1.0
 70
    28
 71
     3
 72
    16
 73
    12
 74
     0
 42
0.00000001
 43
0.00000001
 40
0.0
 40
0.0
 40
0.0
 40
0.0
 40
0.0282648967592942
 40
0.130930871036818
 40
0.2425815708895382
 40
0.3684912467143279
 40
0.5105281802817666
 40
0.6639905286439469
 40
0.8162652468730904
 40
0.9529051566296801
 40
1.0
 40
1.0
 40
1.0
 40
1.0
 10
10.12004238730238
 20
8.78704060656724
 30
0.0
 41
1.0
 10
10.11942643012578
 20
8.78704060656724
 30
0.0
 41
1.0
 10
10.11657314499476
 20
8.787040606567244
 30
0.0
 41
1.0
 10
10.09619914541552
 20
8.787040606567238
 30
0.0
 41
1.0
 10
10.06163343667819
 20
8.787040606567244
 30
0.0
 41
1.0
 10
10.01296710947339
 20
8.787040606567235
 30
0.0
 41
1.0
 10
9.954659499329825
 20
8.787040606567237
 30
0.0
 41
1.0
 10
9.892601154827084
 20
8.787040606567235
 30
0.0
 41
1.0
 10
9.840366744240837
 20
8.787040606567224
 30
0.0
 41
1.0
 10
9.808743772103487
 20
8.787040606567222
 30
0.0
 41
1.0
 10
9.803822691221516
 20
8.787040606567224
 30
0.0
 41
1.0
 10
9.802561321070225
 20
8.787040606567228
 30
0.0
 41
1.0
  0
SPLINE
  5
1C8
330
1F
100
AcDbEntity
  8
OBJECT
  6
SLD-Solid
370
    25
100
AcDbSpline
210
0.0
220
0.0
230
1.0
 70
    28
 71
     3
 72
    17
 73
    13
 74
     0
 42
0.00000001
 43
0.00000001
 40
0.0
 40
0.0
 40
0.0
 40
0.0
 40
0.0815228533996215
 40
0.1621000862498296
 40
0.2499326840679137
 40
0.353561366772035
 40
0.4758745048412623
 40
0.6140157602651755
 40
0.7561717989221477
 40
0.8555606574991249
 40
0.9404935440949547
 40
0.9999999999999999
 40
0.9999999999999999
 40
0.9999999999999999
 40
0.9999999999999999
 10
5.980301657335901
 20
8.871040606567231
 30
0.0
 41
1.0
 10
5.981285857601144
 20
8.871040606567227
 30
0.0
 41
1.0
 10
5.983242841946391
 20
8.871040606567218
 30
0.0
 41
1.0
 10
5.99806359428241
 20
8.871040606567218
 30
0.0
 41
1.0
 10
6.02067583949917
 20
8.871040606567238
 30
0.0
 41
1.0
 10
6.053010389253668
 20
8.871040606567213
 30
0.0
 41
1.0
 10
6.094566109139196
 20
8.87104060656723
 30
0.0
 41
1.0
 10
6.141333238993687
 20
8.871040606567213
 30
0.0
 41
1.0
 10
6.181731548521269
 20
8.871040606567217
 30
0.0
 41
1.0
 10
6.208028754022534
 20
8.871040606567215
 30
0.0
 41
1.0
 10
6.220493071974945
 20
8.871040606567233
 30
0.0
 41
1.0
 10
6.221773955829553
 20
8.871040606567231
 30
0.0
 41
1.0
 10
6.222301657335901
 20
8.871040606567231
 30
0.0
 41
1.0
  0
SPLINE
  5
1C9
330
1F
100
AcDbEntity
  8
OBJECT
  6
SLD-Solid
370
    25
100
AcDbSpline
210
0.0
220
0.0
230
1.0
 70
    28
 71
     3
 72
    17
 73
    13
 74
     0
 42
0.00000001
 43
0.00000001
 40
0.0
 40
0.0
 40
0.0
 40
0.0
 40
0.0815228533995202
 40
0.162100086249761
 40
0.2499326840678638
 40
0.3535613667719614
 40
0.4758745048411379
 40
0.6140157602651164
 40
0.7561717989221028
 40
0.8555606574990816
 40
0.9404935440949511
 40
1.0
 40
1.0
 40
1.0
 40
1.0
 10
10.08230165733591
 20
8.871040606567238
 30
0.0
 41
1.0
 10
10.08131745707066
 20
8.871040606567238
 30
0.0
 41
1.0
 10
10.07936047272541
 20
8.871040606567242
 30
0.0
 41
1.0
 10
10.0645397203894
 20
8.871040606567233
 30
0.0
 41
1.0
 10
10.04192747517265
 20
8.871040606567236
 30
0.0
 41
1.0
 10
10.00959292541814
 20
8.871040606567238
 30
0.0
 41
1.0
 10
9.968037205532625
 20
8.871040606567227
 30
0.0
 41
1.0
 10
9.921270075678123
 20
8.871040606567222
 30
0.0
 41
1.0
 10
9.880871766150541
 20
8.871040606567226
 30
0.0
 41
1.0
 10
9.854574560649269
 20
8.871040606567224
 30
0.0
 41
1.0
 10
9.842110242696863
 20
8.871040606567227
 30
0.0
 41
1.0
 10
9.840829358842255
 20
8.871040606567222
 30
0.0
 41
1.0
 10
9.840301657335907
 20
8.871040606567222
 30
0.0
 41
1.0
  0
LINE
  5
1CA
330
1F
100
AcDbEntity
  8
OBJECT
  6
SLD-Solid
370
    25
100
AcDbLine
 10
13.4613016573359
 20
8.83979297069709
 30
0.0
 11
13.4613016573359
 21
8.820389971472624
 31
0.0
  0
LINE
  5
1CB
330
1F
100
AcDbEntity
  8
OBJECT
  6
SLD-Solid
370
    25
100
AcDbLine
 10
2.601301657335918
 20
8.839792970697065
 30
0.0
 11
2.601301657335918
 21
8.820389971472599
 31
0.0
  0
LINE
  5
1CC
330
1F
100
AcDbEntity
  8
OBJECT
  6
SLD-Solid
370
    25
100
AcDbLine
 10
12.17694666791421
 20
9.48704060656726
 30
0.0
 11
3.88565664675736
 21
9.487040606567229
 31
0.0
  0
SPLINE
  5
1CD
330
1F
100
AcDbEntity
  8
OBJECT
  6
SLD-Solid
370
    25
100
AcDbSpline
210
0.0
220
0.0
230
1.0
 70
    12
 71
     3
 72
    14
 73
    10
 74
     0
 42
0.00000001
 43
0.00000001
 40
0.0
 40
0.0
 40
0.0
 40
0.0
 40
0.3350534435247967
 40
0.4703318568983104
 40
0.5876175006873968
 40
0.6918353102143274
 40
0.7899073026603382
 40
0.890044435990284
 40
1.0
 40
1.0
 40
1.0
 40
1.0
 10
2.541645249779066
 20
10.44985263434417
 30
0.0
 41
1.0
 10
2.546234249210391
 20
10.45053537296342
 30
0.0
 41
1.0
 10
2.552676065181997
 20
10.45149376849337
 30
0.0
 41
1.0
 10
2.561915259581398
 20
10.45040793457034
 30
0.0
 41
1.0
 10
2.567471968209295
 20
10.44874686197641
 30
0.0
 41
1.0
 10
2.572091210096266
 20
10.44609926073374
 30
0.0
 41
1.0
 10
2.57559625222079
 20
10.44242961532785
 30
0.0
 41
1.0
 10
2.577960140896656
 20
10.43779887423533
 30
0.0
 41
1.0
 10
2.578514003304642
 20
10.43434304177335
 30
0.0
 41
1.0
 10
2.578803876556901
 20
10.43253437344603
 30
0.0
 41
1.0
  0
LINE
  5
1CE
330
1F
100
AcDbEntity
  8
OBJECT
  6
SLD-Solid
370
    25
100
AcDbLine
 10
2.541645249779066
 20
10.44985263434417
 30
0.0
 11
2.560508457600069
 21
10.44985263434416
 31
0.0
  0
SPLINE
  5
1CF
330
1F
100
AcDbEntity
  8
OBJECT
  6
SLD-Solid
370
    25
100
AcDbSpline
210
0.0
220
0.0
230
1.0
 70
    12
 71
     3
 72
    11
 73
     7
 74
     0
 42
0.00000001
 43
0.00000001
 40
0.0
 40
0.0
 40
0.0
 40
0.0
 40
0.2500003402648997
 40
0.5000006805301122
 40
0.7500010207953173
 40
1.0
 40
1.0
 40
1.0
 40
1.0
 10
2.519903876556893
 20
10.42730545365026
 30
0.0
 41
1.0
 10
2.52018261278287
 20
10.42918438537539
 30
0.0
 41
1.0
 10
2.520740085234825
 20
10.43294224882564
 30
0.0
 41
1.0
 10
2.525234034084128
 20
10.43857904398959
 30
0.0
 41
1.0
 10
2.532021100292369
 20
10.44421582896993
 30
0.0
 41
1.0
 10
2.538437168816951
 20
10.44797368209938
 30
0.0
 41
1.0
 10
2.541645194346572
 20
10.44985260354943
 30
0.0
 41
1.0
  0
LINE
  5
1D0
330
1F
100
AcDbEntity
  8
OBJECT
  6
SLD-Solid
370
    25
100
AcDbLine
 10
2.519903876556847
 20
21.12232398196381
 30
0.0
 11
2.51990387655688
 21
10.42730545365026
 31
0.0
  0
LINE
  5
1D1
330
1F
100
AcDbEntity
  8
OBJECT
  6
SLD-Solid
370
    25
100
AcDbLine
 10
2.578803876556824
 20
21.12232398196381
 30
0.0
 11
2.519903876553477
 21
21.12232398196381
 31
0.0
  0
LINE
  5
1D2
330
1F
100
AcDbEntity
  8
OBJECT
  6
SLD-Solid
370
    25
100
AcDbLine
 10
2.578803876556892
 20
10.43253453073287
 30
0.0
 11
2.578803876556805
 21
21.12232398196381
 31
0.0
  0
LINE
  5
1D3
330
1F
100
AcDbEntity
  8
OBJECT
  6
SLD-Solid
370
    25
100
AcDbLine
 10
13.48379943811489
 20
21.12232398196389
 30
0.0
 11
2.578803876556824
 21
21.12232398196381
 31
0.0
  0
LINE
  5
1D4
330
1F
100
AcDbEntity
  8
OBJECT
  6
SLD-Solid
370
    25
100
AcDbLine
 10
13.48379943811497
 20
10.43253453073294
 30
0.0
 11
13.48379943811491
 21
21.12232398196389
 31
0.0
  0
LINE
  5
1D5
330
1F
100
AcDbEntity
  8
OBJECT
  6
SLD-Solid
370
    25
100
AcDbLine
 10
13.48379943811497
 20
10.43249561398792
 30
0.0
 11
13.48379943811497
 21
10.43253453073294
 31
0.0
  0
LINE
  5
1D6
330
1F
100
AcDbEntity
  8
OBJECT
  6
SLD-Solid
370
    25
100
AcDbLine
 10
2.578803876556909
 20
10.43249561398784
 30
0.0
 11
13.48379943811495
 21
10.43249561398792
 31
0.0
  0
LINE
  5
1D7
330
1F
100
AcDbEntity
  8
OBJECT
  6
SLD-Solid
370
    25
100
AcDbLine
 10
2.578803876556892
 20
10.43249561398784
 30
0.0
 11
2.578803876556892
 21
10.43253453073287
 31
0.0
  0
LINE
  5
1D8
330
1F
100
AcDbEntity
  8
OBJECT
  6
SLD-Solid
370
    25
100
AcDbLine
 10
13.48379943811489
 20
21.12232398196389
 30
0.0
 11
13.54269943811824
 21
21.12232398196389
 31
0.0
  0
LINE
  5
1D9
330
1F
100
AcDbEntity
  8
OBJECT
  6
SLD-Solid
370
    25
100
AcDbLine
 10
13.54269943811487
 20
21.12232398196389
 30
0.0
 11
13.54269943811496
 21
10.42730545365034
 31
0.0
  0
SPLINE
  5
1DA
330
1F
100
AcDbEntity
  8
OBJECT
  6
SLD-Solid
370
    25
100
AcDbSpline
210
0.0
220
0.0
230
1.0
 70
    12
 71
     3
 72
    11
 73
     7
 74
     0
 42
0.00000001
 43
0.00000001
 40
0.0
 40
0.0
 40
0.0
 40
0.0
 40
0.250000340265089
 40
0.500000680530233
 40
0.7500010207953807
 40
1.0
 40
1.0
 40
1.0
 40
1.0
 10
13.54269943811495
 20
10.42730545365034
 30
0.0
 41
1.0
 10
13.54242070188898
 20
10.42918438537546
 30
0.0
 41
1.0
 10
13.54186322943704
 20
10.43294224882571
 30
0.0
 41
1.0
 10
13.53736928058773
 20
10.43857904398966
 30
0.0
 41
1.0
 10
13.5305822143795
 20
10.44421582897001
 30
0.0
 41
1.0
 10
13.5241661458549
 20
10.44797368209946
 30
0.0
 41
1.0
 10
13.52095812032527
 20
10.44985260354951
 30
0.0
 41
1.0
  0
SPLINE
  5
1DB
330
1F
100
AcDbEntity
  8
OBJECT
  6
SLD-Solid
370
    25
100
AcDbSpline
210
0.0
220
0.0
230
1.0
 70
    12
 71
     3
 72
    14
 73
    10
 74
     0
 42
0.00000001
 43
0.00000001
 40
0.0
 40
0.0
 40
0.0
 40
0.0
 40
0.3350534435246604
 40
0.470331856898183
 40
0.5876175006872976
 40
0.6918353102142162
 40
0.7899073026602498
 40
0.8900444359901823
 40
1.0
 40
1.0
 40
1.0
 40
1.0
 10
13.52095806489277
 20
10.44985263434424
 30
0.0
 41
1.0
 10
13.51636906546146
 20
10.4505353729635
 30
0.0
 41
1.0
 10
13.50992724948986
 20
10.45149376849344
 30
0.0
 41
1.0
 10
13.50068805509046
 20
10.45040793457041
 30
0.0
 41
1.0
 10
13.49513134646256
 20
10.44874686197649
 30
0.0
 41
1.0
 10
13.49051210457559
 20
10.44609926073382
 30
0.0
 41
1.0
 10
13.48700706245106
 20
10.44242961532793
 30
0.0
 41
1.0
 10
13.48464317377521
 20
10.4377988742354
 30
0.0
 41
1.0
 10
13.48408931136722
 20
10.43434304177342
 30
0.0
 41
1.0
 10
13.48379943811496
 20
10.4325343734461
 30
0.0
 41
1.0
  0
LINE
  5
1DC
330
1F
100
AcDbEntity
  8
OBJECT
  6
SLD-Solid
370
    25
100
AcDbLine
 10
13.52095806489277
 20
10.44985263434424
 30
0.0
 11
13.50209485707177
 21
10.44985263434426
 31
0.0
  0
LINE
  5
1DD
330
1F
100
AcDbEntity
  8
OBJECT
  6
SLD-Solid
370
    25
100
AcDbLine
 10
2.578803876556824
 20
21.12232398196381
 30
0.0
 11
2.578803876556822
 21
21.16397257137633
 31
0.0
  0
LINE
  5
1DE
330
1F
100
AcDbEntity
  8
OBJECT
  6
SLD-Solid
370
    25
100
AcDbLine
 10
2.578803876556822
 20
21.16397257137633
 30
0.0
 11
13.48379943811489
 21
21.16397257137642
 31
0.0
  0
LINE
  5
1DF
330
1F
100
AcDbEntity
  8
OBJECT
  6
SLD-Solid
370
    25
100
AcDbLine
 10
13.48379943811489
 20
21.16397257137642
 30
0.0
 11
13.48379943811489
 21
21.12232398196389
 31
0.0
  0
LINE
  5
1E0
330
1F
100
AcDbEntity
  8
OBJECT
  6
SLD-Solid
370
    25
100
AcDbLine
 10
13.48379943811495
 20
10.43249561398792
 30
0.0
 11
13.48379943811494
 21
10.38148671770501
 31
0.0
  0
LINE
  5
1E1
330
1F
100
AcDbEntity
  8
OBJECT
  6
SLD-Solid
370
    25
100
AcDbLine
 10
2.578803876556913
 20
10.38148671770494
 30
0.0
 11
13.48379943811494
 21
10.38148671770501
 31
0.0
  0
LINE
  5
1E2
330
1F
100
AcDbEntity
  8
OBJECT
  6
SLD-Solid
370
    25
100
AcDbLine
 10
2.578803876556909
 20
10.43249561398784
 30
0.0
 11
2.578803876556913
 21
10.38148671770494
 31
0.0
  0
SPLINE
  5
1E3
330
1F
100
AcDbEntity
  8
OBJECT
  6
SLD-Solid
370
    25
100
AcDbSpline
210
0.0
220
0.0
230
1.0
 70
    12
 71
     3
 72
     9
 73
     5
 74
     0
 42
0.00000001
 43
0.00000001
 40
0.0
 40
0.0
 40
0.0
 40
0.0
 40
0.4999999999999215
 40
1.0
 40
1.0
 40
1.0
 40
1.0
 10
2.549803876556895
 20
10.42730545365026
 30
0.0
 41
1.0
 10
2.550318093233318
 20
10.43106331709925
 30
0.0
 41
1.0
 10
2.551346526586162
 20
10.43857904399722
 30
0.0
 41
1.0
 10
2.557454480595432
 20
10.44609477089517
 30
0.0
 41
1.0
 10
2.560508457600069
 20
10.44985263434416
 30
0.0
 41
1.0
  0
LINE
  5
1E4
330
1F
100
AcDbEntity
  8
OBJECT
  6
SLD-Solid
370
    25
100
AcDbLine
 10
2.519903876556878
 20
10.42730545365026
 30
0.0
 11
2.549803876556878
 21
10.42730545365026
 31
0.0
  0
SPLINE
  5
1E5
330
1F
100
AcDbEntity
  8
OBJECT
  6
SLD-Solid
370
    25
100
AcDbSpline
210
0.0
220
0.0
230
1.0
 70
    12
 71
     3
 72
     9
 73
     5
 74
     0
 42
0.00000001
 43
0.00000001
 40
0.0
 40
0.0
 40
0.0
 40
0.0
 40
0.4999999999997973
 40
1.0
 40
1.0
 40
1.0
 40
1.0
 10
13.51279943811495
 20
10.42730545365034
 30
0.0
 41
1.0
 10
13.51228522143853
 20
10.43106331709932
 30
0.0
 41
1.0
 10
13.5112567880857
 20
10.43857904399729
 30
0.0
 41
1.0
 10
13.50514883407642
 20
10.44609477089527
 30
0.0
 41
1.0
 10
13.50209485707177
 20
10.44985263434426
 30
0.0
 41
1.0
  0
LINE
  5
1E6
330
1F
100
AcDbEntity
  8
OBJECT
  6
SLD-Solid
370
    25
100
AcDbLine
 10
13.54269943811496
 20
10.42730545365034
 30
0.0
 11
13.51279943811496
 21
10.42730545365034
 31
0.0
  0
LINE
  5
1E7
330
1F
100
AcDbEntity
  8
OBJECT
  6
SLD-Solid
370
    25
100
AcDbLine
 10
2.578803876556822
 20
21.16397257137633
 30
0.0
 11
2.567448537497495
 21
21.17200200862785
 31
0.0
  0
ARC
  5
1E8
330
1F
100
AcDbEntity
  8
OBJECT
  6
SLD-Solid
370
    25
100
AcDbCircle
 10
2.584073045814787
 20
21.19852974201368
 30
0.0
 40
0.0313064676286143
100
AcDbArc
 50
182.7971042546708
 51
237.9252825549753
  0
LINE
  5
1E9
330
1F
100
AcDbEntity
  8
OBJECT
  6
SLD-Solid
370
    25
100
AcDbLine
 10
2.552803876556822
 20
21.19700200862784
 30
0.0
 11
2.552803876556813
 21
22.15737271059671
 31
0.0
  0
ARC
  5
1EA
330
1F
100
AcDbEntity
  8
OBJECT
  6
SLD-Solid
370
    25
100
AcDbCircle
 10
2.584073045814754
 20
22.15584497721089
 30
0.0
 40
0.0313064676285895
100
AcDbArc
 50
122.0747174449691
 51
177.2028957453473
  0
LINE
  5
1EB
330
1F
100
AcDbEntity
  8
OBJECT
  6
SLD-Solid
370
    25
100
AcDbLine
 10
2.5674485374975
 20
22.18237271059672
 30
0.0
 11
2.612803876556826
 21
22.21444377840859
 31
0.0
  0
LINE
  5
1EC
330
1F
100
AcDbEntity
  8
OBJECT
  6
SLD-Solid
370
    25
100
AcDbLine
 10
13.44979943811488
 20
22.2144437784087
 30
0.0
 11
2.612803876556826
 21
22.21444377840859
 31
0.0
  0
LINE
  5
1ED
330
1F
100
AcDbEntity
  8
OBJECT
  6
SLD-Solid
370
    25
100
AcDbLine
 10
13.49515477717424
 20
22.18237271059683
 30
0.0
 11
13.44979943811488
 21
22.2144437784087
 31
0.0
  0
ARC
  5
1EE
330
1F
100
AcDbEntity
  8
OBJECT
  6
SLD-Solid
370
    25
100
AcDbCircle
 10
13.47853026885679
 20
22.15584497721095
 30
0.0
 40
0.0313064676287472
100
AcDbArc
 50
2.797104254703632
 51
57.92528255478108
  0
LINE
  5
1EF
330
1F
100
AcDbEntity
  8
OBJECT
  6
SLD-Solid
370
    25
100
AcDbLine
 10
13.50979943811489
 20
21.19700200862793
 30
0.0
 11
13.50979943811489
 21
22.1573727105968
 31
0.0
  0
ARC
  5
1F0
330
1F
100
AcDbEntity
  8
OBJECT
  6
SLD-Solid
370
    25
100
AcDbCircle
 10
13.47853026885693
 20
21.19852974201376
 30
0.0
 40
0.0313064676286113
100
AcDbArc
 50
302.0747174450215
 51
357.2028957453306
  0
LINE
  5
1F1
330
1F
100
AcDbEntity
  8
OBJECT
  6
SLD-Solid
370
    25
100
AcDbLine
 10
13.48379943811489
 20
21.16397257137642
 30
0.0
 11
13.49515477717422
 21
21.17200200862793
 31
0.0
  0
LINE
  5
1F2
330
1F
100
AcDbEntity
  8
OBJECT
  6
SLD-Solid
370
    25
100
AcDbLine
 10
2.567448537497497
 20
21.15085951587037
 30
0.0
 11
2.567448537497495
 21
21.17200200862785
 31
0.0
  0
LINE
  5
1F3
330
1F
100
AcDbEntity
  8
OBJECT
  6
SLD-Solid
370
    25
100
AcDbLine
 10
2.578803876556824
 20
21.14283007861718
 30
0.0
 11
2.567448537497497
 21
21.15085951587037
 31
0.0
  0
LINE
  5
1F4
330
1F
100
AcDbEntity
  8
OBJECT
  6
SLD-Solid
370
    25
100
AcDbLine
 10
13.49515477717422
 20
21.15085951587045
 30
0.0
 11
13.49515477717422
 21
21.17200200862793
 31
0.0
  0
LINE
  5
1F5
330
1F
100
AcDbEntity
  8
OBJECT
  6
SLD-Solid
370
    25
100
AcDbLine
 10
13.48379943811489
 20
21.14283007861662
 30
0.0
 11
13.49515477717422
 21
21.15085951587045
 31
0.0
  0
ARC
  5
1F6
330
1F
100
AcDbEntity
  8
OBJECT
  6
SLD-Solid
370
    25
100
AcDbCircle
 10
2.584073045814762
 20
21.17738724925618
 30
0.0
 40
0.0313064676285893
100
AcDbArc
 50
182.7971042546535
 51
237.9252825550076
  0
LINE
  5
1F7
330
1F
100
AcDbEntity
  8
OBJECT
  6
SLD-Solid
370
    25
100
AcDbLine
 10
2.552803876556822
 20
21.19700200862784
 30
0.0
 11
2.552803876556822
 21
21.17585951587036
 31
0.0
  0
LINE
  5
1F8
330
1F
100
AcDbEntity
  8
OBJECT
  6
SLD-Solid
370
    25
100
AcDbLine
 10
13.50979943811489
 20
21.19700200862793
 30
0.0
 11
13.50979943811489
 21
21.17585951587046
 31
0.0
  0
ARC
  5
1F9
330
1F
100
AcDbEntity
  8
OBJECT
  6
SLD-Solid
370
    25
100
AcDbCircle
 10
13.47853026885693
 20
21.17738724925628
 30
0.0
 40
0.0313064676286104
100
AcDbArc
 50
302.0747174450188
 51
357.2028957453369
  0
LINE
  5
1FA
330
1F
100
AcDbEntity
  8
OBJECT
  6
SLD-Solid
370
    25
100
AcDbLine
 10
13.48379943811495
 20
10.22635055227786
 30
0.0
 11
13.48379943811494
 21
10.38148671770501
 31
0.0
  0
LINE
  5
1FB
330
1F
100
AcDbEntity
  8
OBJECT
  6
SLD-Solid
370
    25
100
AcDbLine
 10
13.48379943811495
 20
10.22635055227786
 30
0.0
 11
13.44979943811495
 21
10.22635055227786
 31
0.0
  0
LINE
  5
1FC
330
1F
100
AcDbEntity
  8
OBJECT
  6
SLD-Solid
370
    25
100
AcDbLine
 10
13.44979943811495
 20
9.884489683132648
 30
0.0
 11
13.44979943811495
 21
10.22635055227786
 31
0.0
  0
LINE
  5
1FD
330
1F
100
AcDbEntity
  8
OBJECT
  6
SLD-Solid
370
    25
100
AcDbLine
 10
9.531301657335915
 20
9.88448968313261
 30
0.0
 11
13.44979943811495
 21
9.884489683132648
 31
0.0
  0
ARC
  5
1FE
330
1F
100
AcDbEntity
  8
OBJECT
  6
SLD-Solid
370
    25
100
AcDbCircle
 10
8.031301657335959
 20
5.581776570957138
 30
0.0
 40
4.55668082332816
100
AcDbArc
 50
70.78056406233003
 51
109.2194359376707
  0
LINE
  5
1FF
330
1F
100
AcDbEntity
  8
OBJECT
  6
SLD-Solid
370
    25
100
AcDbLine
 10
6.531301657335947
 20
9.88448968313259
 30
0.0
 11
2.612803876556911
 21
9.884489683132573
 31
0.0
  0
LINE
  5
200
330
1F
100
AcDbEntity
  8
OBJECT
  6
SLD-Solid
370
    25
100
AcDbLine
 10
2.612803876556911
 20
9.884489683132573
 30
0.0
 11
2.612803876556911
 21
10.22635055227779
 31
0.0
  0
LINE
  5
201
330
1F
100
AcDbEntity
  8
OBJECT
  6
SLD-Solid
370
    25
100
AcDbLine
 10
2.578803876556915
 20
10.22635055227779
 30
0.0
 11
2.612803876556911
 21
10.22635055227779
 31
0.0
  0
LINE
  5
202
330
1F
100
AcDbEntity
  8
OBJECT
  6
SLD-Solid
370
    25
100
AcDbLine
 10
2.578803876556915
 20
10.22635055227779
 30
0.0
 11
2.578803876556913
 21
10.38148671770494
 31
0.0
  0
LINE
  5
203
330
1F
100
AcDbEntity
  8
OBJECT
  6
SLD-Solid
370
    25
100
AcDbLine
 10
2.549803876556897
 20
8.816795933727423
 30
0.0
 11
2.519903876556898
 21
8.816795933727438
 31
0.0
  0
LINE
  5
204
330
1F
100
AcDbEntity
  8
OBJECT
  6
SLD-Solid
370
    25
100
AcDbLine
 10
2.519903876556869
 20
10.42730545365026
 30
0.0
 11
2.519903876556898
 21
8.81679593372744
 31
0.0
  0
LINE
  5
205
330
1F
100
AcDbEntity
  8
OBJECT
  6
SLD-Solid
370
    25
100
AcDbLine
 10
2.549803876556869
 20
10.42730545365027
 30
0.0
 11
2.549803876556897
 21
8.816795933727423
 31
0.0
  0
LINE
  5
206
330
1F
100
AcDbEntity
  8
OBJECT
  6
SLD-Solid
370
    25
100
AcDbLine
 10
13.54269943811497
 20
10.42730545365034
 30
0.0
 11
13.54269943811499
 21
8.816795933727512
 31
0.0
  0
LINE
  5
207
330
1F
100
AcDbEntity
  8
OBJECT
  6
SLD-Solid
370
    25
100
AcDbLine
 10
13.51279943811498
 20
8.816795933727496
 30
0.0
 11
13.54269943811499
 21
8.816795933727512
 31
0.0
  0
LINE
  5
208
330
1F
100
AcDbEntity
  8
OBJECT
  6
SLD-Solid
370
    25
100
AcDbLine
 10
13.51279943811497
 20
10.42730545365034
 30
0.0
 11
13.51279943811498
 21
8.816795933727498
 31
0.0
  0
LINE
  5
209
330
1F
100
AcDbEntity
  8
OBJECT
  6
SLD-Solid
370
    25
100
AcDbLine
 10
2.519903876556847
 20
21.12994006015714
 30
0.0
 11
2.549803876556847
 21
21.12994006015714
 31
0.0
  0
LINE
  5
20A
330
1F
100
AcDbEntity
  8
OBJECT
  6
SLD-Solid
370
    25
100
AcDbLine
 10
2.519903876556847
 20
21.12994006015714
 30
0.0
 11
2.519903876556847
 21
21.12232398196381
 31
0.0
  0
LINE
  5
20B
330
1F
100
AcDbEntity
  8
OBJECT
  6
SLD-Solid
370
    25
100
AcDbLine
 10
2.549803876556847
 20
21.12994006015714
 30
0.0
 11
2.549803876556847
 21
21.12232398196381
 31
0.0
  0
LINE
  5
20C
330
1F
100
AcDbEntity
  8
OBJECT
  6
SLD-Solid
370
    25
100
AcDbLine
 10
2.549803876556797
 20
21.18650860265206
 30
0.0
 11
2.519903876556797
 21
21.18650860265206
 31
0.0
  0
LINE
  5
20D
330
1F
100
AcDbEntity
  8
OBJECT
  6
SLD-Solid
370
    25
100
AcDbLine
 10
2.519903876556797
 20
21.18650860265206
 30
0.0
 11
2.519903876556847
 21
21.12994006015714
 31
0.0
  0
LINE
  5
20E
330
1F
100
AcDbEntity
  8
OBJECT
  6
SLD-Solid
370
    25
100
AcDbLine
 10
2.549803876556847
 20
21.12994006015714
 30
0.0
 11
2.549803876556797
 21
21.18650860265206
 31
0.0
  0
LINE
  5
20F
330
1F
100
AcDbEntity
  8
OBJECT
  6
SLD-Solid
370
    25
100
AcDbLine
 10
13.54269943811487
 20
21.12994006015721
 30
0.0
 11
13.51279943811487
 21
21.12994006015721
 31
0.0
  0
LINE
  5
210
330
1F
100
AcDbEntity
  8
OBJECT
  6
SLD-Solid
370
    25
100
AcDbLine
 10
13.51279943811492
 20
21.18650860265214
 30
0.0
 11
13.54269943811492
 21
21.18650860265214
 31
0.0
  0
LINE
  5
211
330
1F
100
AcDbEntity
  8
OBJECT
  6
SLD-Solid
370
    25
100
AcDbLine
 10
13.54269943811492
 20
21.18650860265214
 30
0.0
 11
13.54269943811487
 21
21.12994006015721
 31
0.0
  0
LINE
  5
212
330
1F
100
AcDbEntity
  8
OBJECT
  6
SLD-Solid
370
    25
100
AcDbLine
 10
13.51279943811487
 20
21.12994006015721
 30
0.0
 11
13.51279943811492
 21
21.18650860265214
 31
0.0
  0
LINE
  5
213
330
1F
100
AcDbEntity
  8
OBJECT
  6
SLD-Solid
370
    25
100
AcDbLine
 10
13.54269943811487
 20
21.12994006015721
 30
0.0
 11
13.54269943811487
 21
21.12232398196389
 31
0.0
  0
LINE
  5
214
330
1F
100
AcDbEntity
  8
OBJECT
  6
SLD-Solid
370
    25
100
AcDbLine
 10
13.51279943811487
 20
21.12994006015721
 30
0.0
 11
13.51279943811487
 21
21.12232398196389
 31
0.0
  0
LINE
  5
215
330
1F
100
AcDbEntity
  8
OBJECT
  6
SLD-Solid
370
    25
100
AcDbLine
 10
2.519903876556798
 20
22.16585620538105
 30
0.0
 11
2.549803876556798
 21
22.16585620538105
 31
0.0
  0
LINE
  5
216
330
1F
100
AcDbEntity
  8
OBJECT
  6
SLD-Solid
370
    25
100
AcDbLine
 10
2.519903876556798
 20
22.16585620538105
 30
0.0
 11
2.519903876556797
 21
21.18650860265206
 31
0.0
  0
LINE
  5
217
330
1F
100
AcDbEntity
  8
OBJECT
  6
SLD-Solid
370
    25
100
AcDbLine
 10
2.549803876556798
 20
22.16585620538105
 30
0.0
 11
2.549803876556797
 21
21.18650860265206
 31
0.0
  0
LINE
  5
218
330
1F
100
AcDbEntity
  8
OBJECT
  6
SLD-Solid
370
    25
100
AcDbLine
 10
13.54269943811495
 20
22.16585620538113
 30
0.0
 11
13.51279943811495
 21
22.16585620538113
 31
0.0
  0
LINE
  5
219
330
1F
100
AcDbEntity
  8
OBJECT
  6
SLD-Solid
370
    25
100
AcDbLine
 10
13.54269943811495
 20
22.16585620538113
 30
0.0
 11
13.54269943811492
 21
21.18650860265214
 31
0.0
  0
LINE
  5
21A
330
1F
100
AcDbEntity
  8
OBJECT
  6
SLD-Solid
370
    25
100
AcDbLine
 10
13.51279943811495
 20
22.16585620538113
 30
0.0
 11
13.51279943811492
 21
21.18650860265214
 31
0.0
  0
ARC
  5
21B
330
1F
100
AcDbEntity
  8
OBJECT
  6
SLD-Solid
370
    25
100
AcDbCircle
 10
2.609122626556913
 20
9.939749320772387
 30
0.0
 40
0.0553821194398162
100
AcDbArc
 50
184.4019496522952
 51
273.8112610494637
  0
LINE
  5
21C
330
1F
100
AcDbEntity
  8
OBJECT
  6
SLD-Solid
370
    25
100
AcDbLine
 10
2.553903876556912
 20
9.935498579415459
 30
0.0
 11
2.553903876556912
 21
10.27735944856066
 31
0.0
  0
ARC
  5
21D
330
1F
100
AcDbEntity
  8
OBJECT
  6
SLD-Solid
370
    25
100
AcDbCircle
 10
2.603294870340287
 20
10.27861693241542
 30
0.0
 40
0.0494069988215678
100
AcDbArc
 50
181.4584229011041
 51
240.2841544239108
  0
ARC
  5
21E
330
1F
100
AcDbEntity
  8
OBJECT
  6
SLD-Solid
370
    25
100
AcDbCircle
 10
13.45930844433154
 20
10.27861693241551
 30
0.0
 40
0.0494069988216042
100
AcDbArc
 50
299.7158455761111
 51
358.5415770989068
  0
LINE
  5
21F
330
1F
100
AcDbEntity
  8
OBJECT
  6
SLD-Solid
370
    25
100
AcDbLine
 10
13.50869943811495
 20
9.935498579415547
 30
0.0
 11
13.50869943811495
 21
10.27735944856076
 31
0.0
  0
ARC
  5
220
330
1F
100
AcDbEntity
  8
OBJECT
  6
SLD-Solid
370
    25
100
AcDbCircle
 10
13.45348068811495
 20
9.939749320772457
 30
0.0
 40
0.0553821194398108
100
AcDbArc
 50
266.1887389505384
 51
355.5980503477262
  0
LINE
  5
221
330
1F
100
AcDbEntity
  8
OBJECT
  6
SLD-Solid
370
    25
100
AcDbLine
 10
2.553903876556909
 20
10.40311726836072
 30
0.0
 11
2.553903876556912
 21
10.27735944856066
 31
0.0
  0
LINE
  5
222
330
1F
100
AcDbEntity
  8
OBJECT
  6
SLD-Solid
370
    25
100
AcDbLine
 10
13.50869943811495
 20
10.4031172683608
 30
0.0
 11
13.50869943811495
 21
10.27735944856076
 31
0.0
  0
LINE
  5
223
330
1F
100
AcDbEntity
  8
OBJECT
  6
SLD-Solid
370
    25
100
AcDbLine
 10
2.553903876556907
 20
10.4279270032653
 30
0.0
 11
2.553903876556909
 21
10.40311726836072
 31
0.0
  0
LINE
  5
224
330
1F
100
AcDbEntity
  8
OBJECT
  6
SLD-Solid
370
    25
100
AcDbLine
 10
13.50869943811495
 20
10.4279270032654
 30
0.0
 11
13.50869943811495
 21
10.4031172683608
 31
0.0
  0
LINE
  5
225
330
1F
100
AcDbEntity
  8
OBJECT
  6
SLD-Solid
370
    25
100
AcDbLine
 10
2.553903876556907
 20
10.44041816128884
 30
0.0
 11
2.553903876556907
 21
10.4279270032653
 31
0.0
  0
LINE
  5
226
330
1F
100
AcDbEntity
  8
OBJECT
  6
SLD-Solid
370
    25
100
AcDbLine
 10
13.50869943811495
 20
10.4404181612889
 30
0.0
 11
13.50869943811495
 21
10.4279270032654
 31
0.0
  0
LINE
  5
227
330
1F
100
AcDbEntity
  8
OBJECT
  6
SLD-Solid
370
    25
100
AcDbLine
 10
2.549803876556798
 20
22.18928766288606
 30
0.0
 11
2.519903876556798
 21
22.18928766288606
 31
0.0
  0
LINE
  5
228
330
1F
100
AcDbEntity
  8
OBJECT
  6
SLD-Solid
370
    25
100
AcDbLine
 10
2.519903876556798
 20
22.18928766288606
 30
0.0
 11
2.519903876556798
 21
22.16585620538105
 31
0.0
  0
LINE
  5
229
330
1F
100
AcDbEntity
  8
OBJECT
  6
SLD-Solid
370
    25
100
AcDbLine
 10
2.549803876556798
 20
22.16585620538105
 30
0.0
 11
2.549803876556798
 21
22.18928766288606
 31
0.0
  0
LINE
  5
22A
330
1F
100
AcDbEntity
  8
OBJECT
  6
SLD-Solid
370
    25
100
AcDbLine
 10
13.51279943811495
 20
22.18928766288616
 30
0.0
 11
13.54269943811495
 21
22.18928766288614
 31
0.0
  0
LINE
  5
22B
330
1F
100
AcDbEntity
  8
OBJECT
  6
SLD-Solid
370
    25
100
AcDbLine
 10
13.54269943811495
 20
22.18928766288614
 30
0.0
 11
13.54269943811495
 21
22.16585620538113
 31
0.0
  0
LINE
  5
22C
330
1F
100
AcDbEntity
  8
OBJECT
  6
SLD-Solid
370
    25
100
AcDbLine
 10
13.51279943811495
 20
22.16585620538113
 30
0.0
 11
13.51279943811495
 21
22.18928766288616
 31
0.0
  0
LINE
  5
22D
330
1F
100
AcDbEntity
  8
OBJECT
  6
SLD-Solid
370
    25
100
AcDbLine
 10
13.44979943811488
 20
22.23169518899679
 30
0.0
 11
13.44979943811488
 21
22.2144437784087
 31
0.0
  0
LINE
  5
22E
330
1F
100
AcDbEntity
  8
OBJECT
  6
SLD-Solid
370
    25
100
AcDbLine
 10
2.612803876556811
 20
22.23169518899667
 30
0.0
 11
2.612803876556826
 21
22.21444377840858
 31
0.0
  0
LINE
  5
22F
330
1F
100
AcDbEntity
  8
OBJECT
  6
SLD-Solid
370
    25
100
AcDbLine
 10
2.612803876556811
 20
22.23169518899667
 30
0.0
 11
13.44979943811488
 21
22.23169518899679
 31
0.0
  0
SPLINE
  5
230
330
1F
100
AcDbEntity
  8
OBJECT
  6
SLD-Solid
370
    25
100
AcDbSpline
210
0.0
220
0.0
230
1.0
 70
    12
 71
     3
 72
    11
 73
     7
 74
     0
 42
0.00000001
 43
0.00000001
 40
0.0
 40
0.0
 40
0.0
 40
0.0
 40
0.2500000000000327
 40
0.5000000000000857
 40
0.7500000000001323
 40
1.0
 40
1.0
 40
1.0
 40
1.0
 10
2.553903876556821
 20
22.17279518899668
 30
0.0
 41
1.0
 10
2.554789236193995
 20
22.18051327087687
 30
0.0
 41
1.0
 10
2.556559955468343
 20
22.19594943463725
 30
0.0
 41
1.0
 10
2.57018053412125
 20
22.21541853143226
 30
0.0
 41
1.0
 10
2.589649630916257
 20
22.22903911008516
 30
0.0
 41
1.0
 10
2.60508579467663
 20
22.23080982935951
 30
0.0
 41
1.0
 10
2.612803876556813
 20
22.23169518899668
 30
0.0
 41
1.0
  0
SPLINE
  5
231
330
1F
100
AcDbEntity
  8
OBJECT
  6
SLD-Solid
370
    25
100
AcDbSpline
210
0.0
220
0.0
230
1.0
 70
    12
 71
     3
 72
    11
 73
     7
 74
     0
 42
0.00000001
 43
0.00000001
 40
0.0
 40
0.0
 40
0.0
 40
0.0
 40
0.2499999999999099
 40
0.4999999999998499
 40
0.7499999999997838
 40
1.0
 40
1.0
 40
1.0
 40
1.0
 10
13.50869943811492
 20
22.1727951889968
 30
0.0
 41
1.0
 10
13.50781407847775
 20
22.18051327087699
 30
0.0
 41
1.0
 10
13.5060433592034
 20
22.19594943463736
 30
0.0
 41
1.0
 10
13.49242278055049
 20
22.21541853143237
 30
0.0
 41
1.0
 10
13.47295368375547
 20
22.22903911008529
 30
0.0
 41
1.0
 10
13.45751751999508
 20
22.23080982935963
 30
0.0
 41
1.0
 10
13.44979943811488
 20
22.2316951889968
 30
0.0
 41
1.0
  0
LINE
  5
232
330
1F
100
AcDbEntity
  8
OBJECT
  6
SLD-Solid
370
    25
100
AcDbLine
 10
2.553903876556825
 20
22.17279518899667
 30
0.0
 11
2.553903876556824
 21
22.16474800720098
 31
0.0
  0
LINE
  5
233
330
1F
100
AcDbEntity
  8
OBJECT
  6
SLD-Solid
370
    25
100
AcDbLine
 10
13.50869943811492
 20
22.17279518899679
 30
0.0
 11
13.50869943811492
 21
22.16474800720097
 31
0.0
  0
LINE
  5
234
330
1F
100
AcDbEntity
  8
OBJECT
  6
SLD-Solid
370
    25
100
AcDbLine
 10
2.519903876556882
 20
8.74975245618133
 30
0.0
 11
2.549803876556882
 21
8.74975245618133
 31
0.0
  0
LINE
  5
235
330
1F
100
AcDbEntity
  8
OBJECT
  6
SLD-Solid
370
    25
100
AcDbLine
 10
2.519903876556898
 20
8.816795933727438
 30
0.0
 11
2.519903876556882
 21
8.74975245618133
 31
0.0
  0
LINE
  5
236
330
1F
100
AcDbEntity
  8
OBJECT
  6
SLD-Solid
370
    25
100
AcDbLine
 10
2.549803876556882
 20
8.74975245618133
 30
0.0
 11
2.549803876556897
 21
8.816795933727423
 31
0.0
  0
LINE
  5
237
330
1F
100
AcDbEntity
  8
OBJECT
  6
SLD-Solid
370
    25
100
AcDbLine
 10
13.54269943811498
 20
8.749752456181405
 30
0.0
 11
13.51279943811498
 21
8.749752456181405
 31
0.0
  0
LINE
  5
238
330
1F
100
AcDbEntity
  8
OBJECT
  6
SLD-Solid
370
    25
100
AcDbLine
 10
13.54269943811499
 20
8.816795933727512
 30
0.0
 11
13.54269943811498
 21
8.749752456181405
 31
0.0
  0
LINE
  5
239
330
1F
100
AcDbEntity
  8
OBJECT
  6
SLD-Solid
370
    25
100
AcDbLine
 10
13.51279943811498
 20
8.749752456181405
 30
0.0
 11
13.51279943811498
 21
8.816795933727496
 31
0.0
  0
LINE
  5
23A
330
1F
100
AcDbEntity
  8
OBJECT
  6
SLD-Solid
370
    25
100
AcDbLine
 10
2.597630819262341
 20
9.7578898582015
 30
0.0
 11
2.59763081926234
 21
9.864663467920893
 31
0.0
  0
LINE
  5
23B
330
1F
100
AcDbEntity
  8
OBJECT
  6
SLD-Solid
370
    25
100
AcDbLine
 10
13.46497249540952
 20
9.864663467920929
 30
0.0
 11
13.46497249540952
 21
9.75996644264808
 31
0.0
  0
LINE
  5
23C
330
1F
100
AcDbEntity
  8
OBJECT
  6
SLD-Solid
370
    25
100
AcDbLine
 10
8.481301657335873
 20
22.43169518899668
 30
0.0
 11
7.581301657335874
 21
22.43169518899668
 31
0.0
  0
LINE
  5
23D
330
1F
100
AcDbEntity
  8
OBJECT
  6
SLD-Solid
370
    25
100
AcDbLine
 10
10.07630165733591
 20
9.884489683132617
 30
0.0
 11
10.07630165733591
 21
9.841925556205895
 31
0.0
  0
LINE
  5
23E
330
1F
100
AcDbEntity
  8
OBJECT
  6
SLD-Solid
370
    25
100
AcDbLine
 10
9.846301657335909
 20
9.841925556205886
 30
0.0
 11
9.846301657335909
 21
9.884489683132612
 31
0.0
  0
LINE
  5
23F
330
1F
100
AcDbEntity
  8
OBJECT
  6
SLD-Solid
370
    25
100
AcDbLine
 10
6.216301657335922
 20
9.88448968313259
 30
0.0
 11
6.216301657335922
 21
9.84192555620588
 31
0.0
  0
LINE
  5
240
330
1F
100
AcDbEntity
  8
OBJECT
  6
SLD-Solid
370
    25
100
AcDbLine
 10
5.986301657335919
 20
9.841925556205886
 30
0.0
 11
5.986301657335919
 21
9.884489683132589
 31
0.0
  0
LINE
  5
241
330
1F
100
AcDbEntity
  8
OBJECT
  6
SLD-Solid
370
    25
100
AcDbLine
 10
4.216301657335905
 20
9.884489683132582
 30
0.0
 11
4.216301657335904
 21
9.73143849044297
 31
0.0
  0
LINE
  5
242
330
1F
100
AcDbEntity
  8
OBJECT
  6
SLD-Solid
370
    25
100
AcDbLine
 10
3.986301657335906
 20
9.731438490442963
 30
0.0
 11
3.986301657335906
 21
9.884489683132582
 31
0.0
  0
LINE
  5
243
330
1F
100
AcDbEntity
  8
OBJECT
  6
SLD-Solid
370
    25
100
AcDbLine
 10
12.07630165733591
 20
9.884489683132633
 30
0.0
 11
12.07630165733591
 21
9.73143849044299
 31
0.0
  0
LINE
  5
244
330
1F
100
AcDbEntity
  8
OBJECT
  6
SLD-Solid
370
    25
100
AcDbLine
 10
11.84630165733591
 20
9.73143849044299
 30
0.0
 11
11.84630165733591
 21
9.884489683132632
 31
0.0
  0
LINE
  5
245
330
1F
100
AcDbEntity
  8
OBJECT
  6
SLD-Solid
370
    25
100
AcDbLine
 10
2.660301657335922
 20
9.883423214258858
 30
0.0
 11
2.660301657335922
 21
9.875923214258854
 31
0.0
  0
LINE
  5
246
330
1F
100
AcDbEntity
  8
OBJECT
  6
SLD-Solid
370
    25
100
AcDbLine
 10
13.40230165733591
 20
9.883423214258878
 30
0.0
 11
13.40230165733591
 21
9.875923214258881
 31
0.0
  0
LINE
  5
247
330
1F
100
AcDbEntity
  8
OBJECT
  6
SLD-Solid
370
    25
100
AcDbLine
 10
13.4759463182766
 20
9.383901286862288
 30
0.0
 11
13.4759463182766
 21
9.358089321139422
 31
0.0
  0
LINE
  5
248
330
1F
100
AcDbEntity
  8
OBJECT
  6
SLD-Solid
370
    25
100
AcDbLine
 10
13.4759463182766
 20
9.743415591223277
 30
0.0
 11
13.4759463182766
 21
9.383901286862288
 31
0.0
  0
LINE
  5
249
330
1F
100
AcDbEntity
  8
OBJECT
  6
SLD-Solid
370
    25
100
AcDbLine
 10
2.589585928583382
 20
9.355160388951264
 30
0.0
 11
2.58958592858338
 21
9.746344523411391
 31
0.0
  0
LINE
  5
24A
330
1F
100
AcDbEntity
  8
OBJECT
  6
SLD-Solid
370
    25
100
AcDbLine
 10
2.566017386088454
 20
9.722775980916458
 30
0.0
 11
2.566017386088456
 21
9.378728931446188
 31
0.0
  0
LINE
  5
24B
330
1F
100
AcDbEntity
  8
OBJECT
  6
SLD-Solid
370
    25
100
AcDbLine
 10
13.49365699639525
 20
9.399239184031293
 30
0.0
 11
13.49365699639525
 21
9.725704913104623
 31
0.0
  0
LINE
  5
24C
330
1F
100
AcDbEntity
  8
OBJECT
  6
SLD-Solid
370
    25
100
AcDbLine
 10
13.49365699639525
 20
9.375799999258078
 30
0.0
 11
13.49365699639525
 21
9.399239184031293
 31
0.0
  0
ARC
  5
24D
330
1F
100
AcDbEntity
  8
OBJECT
  6
SLD-Solid
370
    25
100
AcDbCircle
 10
4.303338138046161
 20
9.039761942306955
 30
0.0
 40
0.0816454599479964
100
AcDbArc
 50
194.2030922939442
 51
243.5295541664332
  0
ARC
  5
24E
330
1F
100
AcDbEntity
  8
OBJECT
  6
SLD-Solid
370
    25
100
AcDbCircle
 10
3.899272398690113
 20
9.039753839000065
 30
0.0
 40
0.0816349870709452
100
AcDbArc
 50
296.4684434474595
 51
345.86183028403
  0
ARC
  5
24F
330
1F
100
AcDbEntity
  8
OBJECT
  6
SLD-Solid
370
    25
100
AcDbCircle
 10
12.16333813804626
 20
9.03976194230707
 30
0.0
 40
0.0816454599481249
100
AcDbArc
 50
194.2030922939983
 51
243.5295541664047
  0
ARC
  5
250
330
1F
100
AcDbEntity
  8
OBJECT
  6
SLD-Solid
370
    25
100
AcDbCircle
 10
11.75927239869008
 20
9.039753839000108
 30
0.0
 40
0.0816349870709724
100
AcDbArc
 50
296.4684434474777
 51
345.8618302840117
  0
ARC
  5
251
330
1F
100
AcDbEntity
  8
OBJECT
  6
SLD-Solid
370
    25
100
AcDbCircle
 10
4.10124472386572
 20
8.816561159391295
 30
0.0
 40
0.314095398576497
100
AcDbArc
 50
75.9757606669336
 51
96.49506747868415
  0
ARC
  5
252
330
1F
100
AcDbEntity
  8
OBJECT
  6
SLD-Solid
370
    25
100
AcDbCircle
 10
11.96135859080612
 20
8.816561159391245
 30
0.0
 40
0.3140953985765578
100
AcDbArc
 50
83.50493252133295
 51
104.0242393330531
  0
LINE
  5
253
330
1F
100
AcDbEntity
  8
OBJECT
  6
SLD-Solid
370
    25
100
AcDbLine
 10
4.216301657335903
 20
9.025173380588429
 30
0.0
 11
4.216301657335902
 21
8.889634218611485
 31
0.0
  0
LINE
  5
254
330
1F
100
AcDbEntity
  8
OBJECT
  6
SLD-Solid
370
    25
100
AcDbLine
 10
3.986301657335904
 20
8.889634218611477
 30
0.0
 11
3.986301657335904
 21
9.024992405900642
 31
0.0
  0
LINE
  5
255
330
1F
100
AcDbEntity
  8
OBJECT
  6
SLD-Solid
370
    25
100
AcDbLine
 10
11.84630165733591
 20
9.024992405900651
 30
0.0
 11
11.84630165733591
 21
8.889634218611496
 31
0.0
  0
LINE
  5
256
330
1F
100
AcDbEntity
  8
OBJECT
  6
SLD-Solid
370
    25
100
AcDbLine
 10
12.07630165733591
 20
8.889634218611492
 30
0.0
 11
12.07630165733591
 21
9.02517338058844
 31
0.0
  0
ARC
  5
257
330
1F
100
AcDbEntity
  8
OBJECT
  6
SLD-Solid
370
    25
100
AcDbCircle
 10
6.304591330268544
 20
8.90924058377363
 30
0.0
 40
0.0831705388200713
100
AcDbArc
 50
195.9165504754482
 51
243.0874194001352
  0
ARC
  5
258
330
1F
100
AcDbEntity
  8
OBJECT
  6
SLD-Solid
370
    25
100
AcDbCircle
 10
5.898003020657543
 20
8.909251977920261
 30
0.0
 40
0.0831847562728857
100
AcDbArc
 50
296.9145337088944
 51
344.0028726751165
  0
ARC
  5
259
330
1F
100
AcDbEntity
  8
OBJECT
  6
SLD-Solid
370
    25
100
AcDbCircle
 10
10.16459133026856
 20
8.909240583773665
 30
0.0
 40
0.0831705388201022
100
AcDbArc
 50
195.916550475459
 51
243.0874194001256
  0
ARC
  5
25A
330
1F
100
AcDbEntity
  8
OBJECT
  6
SLD-Solid
370
    25
100
AcDbCircle
 10
9.758003020657625
 20
8.90925197792019
 30
0.0
 40
0.0831847562727755
100
AcDbArc
 50
296.9145337088615
 51
344.0028726751572
  0
ARC
  5
25B
330
1F
100
AcDbEntity
  8
OBJECT
  6
SLD-Solid
370
    25
100
AcDbCircle
 10
9.961358590806121
 20
8.68496289305106
 30
0.0
 40
0.3140953985765069
100
AcDbArc
 50
83.50493252132338
 51
104.0242393330618
  0
ARC
  5
25C
330
1F
100
AcDbEntity
  8
OBJECT
  6
SLD-Solid
370
    25
100
AcDbCircle
 10
6.101244723865716
 20
8.68496289305121
 30
0.0
 40
0.3140953985763449
100
AcDbArc
 50
75.97576066692952
 51
96.49506747868307
  0
LINE
  5
25D
330
1F
100
AcDbEntity
  8
OBJECT
  6
SLD-Solid
370
    25
100
AcDbLine
 10
12.71182505313306
 20
9.192040606567248
 30
0.0
 11
3.350778261538784
 21
9.192040606567222
 31
0.0
  0
LINE
  5
25E
330
1F
100
AcDbEntity
  8
OBJECT
  6
SLD-Solid
370
    25
100
AcDbLine
 10
2.578803876556914
 20
10.27735944856068
 30
0.0
 11
2.553903876556912
 21
10.27735944856066
 31
0.0
  0
LINE
  5
25F
330
1F
100
AcDbEntity
  8
OBJECT
  6
SLD-Solid
370
    25
100
AcDbLine
 10
13.48379943811495
 20
10.27735944856075
 30
0.0
 11
13.50869943811495
 21
10.27735944856076
 31
0.0
  0
LINE
  5
260
330
1F
100
AcDbEntity
  8
OBJECT
  6
SLD-Solid
370
    25
100
AcDbLine
 10
2.553903876556909
 20
10.40311726836072
 30
0.0
 11
2.578803876556894
 21
10.40311726836072
 31
0.0
  0
LINE
  5
261
330
1F
100
AcDbEntity
  8
OBJECT
  6
SLD-Solid
370
    25
100
AcDbLine
 10
13.50869943811495
 20
10.4031172683608
 30
0.0
 11
13.48379943811495
 21
10.4031172683608
 31
0.0
  0
LINE
  5
262
330
1F
100
AcDbEntity
  8
OBJECT
  6
SLD-Solid
370
    25
100
AcDbLine
 10
2.578803876556894
 20
10.4279270032653
 30
0.0
 11
2.553903876556907
 21
10.4279270032653
 31
0.0
  0
LINE
  5
263
330
1F
100
AcDbEntity
  8
OBJECT
  6
SLD-Solid
370
    25
100
AcDbLine
 10
13.48379943811495
 20
10.4279270032654
 30
0.0
 11
13.50869943811495
 21
10.4279270032654
 31
0.0
  0
LINE
  5
264
330
1F
100
AcDbEntity
  8
NOTES
100
AcDbLine
 10
0.6642450734338763
 20
3.463236659654338
 30
0.0
 11
12.91570967449731
 21
3.463236659654338
 31
0.0
  0
DIMENSION
  5
265
330
1F
100
AcDbEntity
  8
DIMS
100
AcDbDimension
  2
_D
 10
1.841927970683163
 20
3.463236659654338
 30
0.0
 11
1.841927970683163
 21
6.463236659654336
 31
0.0
 70
    32
  1
                         48" Max (120cm) 
 71
     2
 42
-1.0
  3
SLDDIMSTYLE0
100
AcDbAlignedDimension
 13
3.454765542019779
 23
9.463236659654331
 33
0.0
 14
0.6642450734338763
 24
3.463236659654338
 34
0.0
 50
90.0000000000002
100
AcDbRotatedDimension
  0
DIMENSION
  5
276
330
1F
100
AcDbEntity
  8
DIMS
100
AcDbDimension
  2
_D_1
 10
1.335919042529806
 20
8.78704060656722
 30
0.0
 11
1.335919042529783
 21
15.70548125087784
 31
0.0
 70
    32
  1
<>
 71
     2
 42
-1.0
  3
SLDDIMSTYLE1
100
AcDbAlignedDimension
 13
2.612803876556892
 23
22.23169518899662
 33
0.0
 14
2.601301657335913
 24
8.787040606567224
 34
0.0
 50
90.0000000000002
100
AcDbRotatedDimension
  0
DIMENSION
  5
286
330
1F
100
AcDbEntity
  8
DIMS
100
AcDbDimension
  2
_D_2
 10
2.519903876556861
 20
23.69384333967985
 30
0.0
 11
8.274548801887411
 21
23.69384333967987
 31
0.0
 70
    32
  1
<>
 71
     2
 42
-1.0
  3
SLDDIMSTYLE0
100
AcDbAlignedDimension
 13
13.542699438115
 23
22.16585620538097
 33
0.0
 14
2.519903876556866
 24
22.16585620538095
 34
0.0
 50
0.0000000000001847
100
AcDbRotatedDimension
  0
DIMENSION
  5
291
330
1F
100
AcDbEntity
  8
DIMS
100
AcDbDimension
  2
_D_3
 10
12.77430165733588
 20
7.583223106695602
 30
0.0
 11
8.498200137651382
 21
7.583223106695706
 31
0.0
 70
    32
  1
<>
 71
     2
 42
-1.0
  3
SLDDIMSTYLE1
100
AcDbAlignedDimension
 13
3.288301657335922
 23
9.23581463622305
 33
0.0
 14
12.77430165733592
 24
9.235814636223074
 34
0.0
 50
-0.0000000000013948
100
AcDbRotatedDimension
  0
INSERT
  5
2A5
330
1F
100
AcDbEntity
  8
NOTES
100
AcDbBlockReference
  2
SW_NOTE_0_2
 10
14.01820866141733
 20
7.43418086349495
 30
0.0
  0
LEADER
  5
2A7
330
1F
100
AcDbEntity
  8
NOTES
100
AcDbLeader
  3
SLDDIMSTYLE2
 76
     2
 10
12.77430165733592
 20
9.242438711512042
 30
0.0
 10
14.01820866141733
 20
7.43418086349495
 30
0.0
1001
ACAD
1000
DSTYLE
1002
{
1070
   176
1070
     0
1070
    77
1070
     0
1070
    40
1040
1.0
1070
   147
1040
0.0
1002
}
  0
INSERT
  5
2AD
330
1F
100
AcDbEntity
  8
NOTES
100
AcDbBlockReference
  2
SW_NOTE_0_3
 10
10.95718503937008
 20
24.43221235955794
 30
0.0
  0
LEADER
  5
2AE
330
1F
100
AcDbEntity
  8
NOTES
100
AcDbLeader
  3
SLDDIMSTYLE2
 76
     2
 10
8.431301657335872
 20
22.48169518899667
 30
0.0
 10
10.95718503937008
 20
24.43221235955794
 30
0.0
1001
ACAD
1000
DSTYLE
1002
{
1070
   176
1070
     0
1070
    77
1070
     0
1070
    40
1040
1.0
1070
   147
1040
0.0
1002
}
  0
MTEXT
  5
2AF
330
1F
100
AcDbEntity
  8
NOTES
100
AcDbMText
 10
2.830114996219752
 20
3.438792175184372
 30
0.0
 40
0.5
 41
0.0
 71
     1
 72
     1
  1
Floor
  7
SLDTEXTSTYLE1
 73
     1
 44
1.0
  0
INSERT
  5
2B5
330
1F
100
AcDbEntity
  8
NOTES
100
AcDbBlockReference
  2
SW_NOTE_0_4
 10
7.59960104939363
 20
6.191976814104552
 30
0.0
  0
LINE
  5
2B6
330
1F
100
AcDbEntity
  8
OBJECT
  6
SLD-Solid
370
    25
100
AcDbLine
 10
18.88421735393453
 20
22.2316951889968
 30
0.0
 11
18.88421735393453
 21
22.4316951889968
 31
0.0
  0
LINE
  5
2B7
330
1F
100
AcDbEntity
  8
OBJECT
  6
SLD-Solid
370
    25
100
AcDbLine
 10
17.98421735393453
 20
22.4316951889968
 30
0.0
 11
17.98421735393453
 21
22.2316951889968
 31
0.0
  0
ARC
  5
2B8
330
1F
100
AcDbEntity
  8
OBJECT
  6
SLD-Solid
370
    25
100
AcDbCircle
 10
18.03421735393453
 20
22.43169518899681
 30
0.0
 40
0.0500000000000007
100
AcDbArc
 50
90.00000000000814
 51
179.9999999999998
  0
ARC
  5
2B9
330
1F
100
AcDbEntity
  8
OBJECT
  6
SLD-Solid
370
    25
100
AcDbCircle
 10
18.83421735393454
 20
22.43169518899681
 30
0.0
 40
0.0500000000000007
100
AcDbArc
 50
0.0000000000001957
 51
89.99999999999592
  0
LINE
  5
2BA
330
1F
100
AcDbEntity
  8
OBJECT
  6
SLD-Solid
370
    25
100
AcDbLine
 10
18.43421735393454
 20
22.2316951889968
 30
0.0
 11
18.43421735393454
 21
22.26069518899681
 31
0.0
  0
LINE
  5
2BB
330
1F
100
AcDbEntity
  8
OBJECT
  6
SLD-Solid
370
    25
100
AcDbLine
 10
18.49962571868135
 20
22.26069518899681
 30
0.0
 11
18.49962571868135
 21
22.2316951889968
 31
0.0
  0
LINE
  5
2BC
330
1F
100
AcDbEntity
  8
OBJECT
  6
SLD-Solid
370
    25
100
AcDbLine
 10
18.49962571868135
 20
22.26069518899681
 30
0.0
 11
18.43421735393454
 21
22.26069518899681
 31
0.0
  0
LINE
  5
2BD
330
1F
100
AcDbEntity
  8
OBJECT
  6
SLD-Solid
370
    25
100
AcDbLine
 10
18.03421735611132
 20
22.4816951889968
 30
0.0
 11
18.83421735393454
 21
22.4816951889968
 31
0.0
  0
LINE
  5
2BE
330
1F
100
AcDbEntity
  8
OBJECT
  6
SLD-Solid
370
    25
100
AcDbLine
 10
19.42758766982289
 20
9.309963246478574
 30
0.0
 11
19.42194332572184
 21
9.309963246478574
 31
0.0
  0
LINE
  5
2BF
330
1F
100
AcDbEntity
  8
OBJECT
  6
SLD-Solid
370
    25
100
AcDbLine
 10
19.42194332572197
 20
21.3529579702078
 30
0.0
 11
19.42479697811963
 21
21.35581162260547
 31
0.0
  0
LINE
  5
2C0
330
1F
100
AcDbEntity
  8
OBJECT
  6
SLD-Solid
370
    25
100
AcDbLine
 10
19.42479697811963
 20
21.35581162260547
 30
0.0
 11
19.42758766982289
 21
21.35830307264449
 31
0.0
  0
LINE
  5
2C1
330
1F
100
AcDbEntity
  8
OBJECT
  6
SLD-Solid
370
    25
100
AcDbLine
 10
19.42758766982289
 20
21.35830307264449
 30
0.0
 11
19.42758766982289
 21
9.309963246478574
 31
0.0
  0
SPLINE
  5
2C2
330
1F
100
AcDbEntity
  8
OBJECT
  6
SLD-Solid
370
    25
100
AcDbSpline
210
0.0
220
0.0
230
1.0
 70
    12
 71
     3
 72
    11
 73
     7
 74
     0
 42
0.00000001
 43
0.00000001
 40
0.0
 40
0.0
 40
0.0
 40
0.0
 40
0.2500000000000412
 40
0.5000000000000631
 40
0.7500000000000826
 40
1.0
 40
1.0
 40
1.0
 40
1.0
 10
19.48558766982289
 20
21.41930582854998
 30
0.0
 41
1.0
 10
19.48471583860122
 20
21.41422226555786
 30
0.0
 41
1.0
 10
19.48297217615788
 20
21.40405513957361
 30
0.0
 41
1.0
 10
19.46955972179679
 20
21.38880445059723
 30
0.0
 41
1.0
 10
19.45038811544516
 20
21.37355376162086
 30
0.0
 41
1.0
 10
19.43518781836365
 20
21.36338663563661
 30
0.0
 41
1.0
 10
19.42758766982289
 20
21.35830307264449
 30
0.0
 41
1.0
  0
LINE
  5
2C3
330
1F
100
AcDbEntity
  8
OBJECT
  6
SLD-Solid
370
    25
100
AcDbLine
 10
19.48558766982289
 20
21.41930582854998
 30
0.0
 11
19.48558766982289
 21
9.30996324647857
 31
0.0
  0
LINE
  5
2C4
330
1F
100
AcDbEntity
  8
OBJECT
  6
SLD-Solid
370
    25
100
AcDbLine
 10
19.42758766982289
 20
9.309963246478574
 30
0.0
 11
19.48558766982289
 21
9.30996324647857
 31
0.0
  0
SPLINE
  5
2C5
330
1F
100
AcDbEntity
  8
OBJECT
  6
SLD-Solid
370
    25
100
AcDbSpline
210
0.0
220
0.0
230
1.0
 70
    12
 71
     3
 72
    11
 73
     7
 74
     0
 42
0.00000001
 43
0.00000001
 40
0.0
 40
0.0
 40
0.0
 40
0.0
 40
0.2500000000000369
 40
0.5000000000000708
 40
0.7500000000000857
 40
1.0
 40
1.0
 40
1.0
 40
1.0
 10
19.45658766982289
 20
21.41930582854998
 30
0.0
 41
1.0
 10
19.45615175421205
 20
21.41422226555786
 30
0.0
 41
1.0
 10
19.45527992299038
 20
21.40405513957361
 30
0.0
 41
1.0
 10
19.44857369580983
 20
21.38880445059724
 30
0.0
 41
1.0
 10
19.43898789263402
 20
21.37355376162086
 30
0.0
 41
1.0
 10
19.43138774409327
 20
21.36338663563661
 30
0.0
 41
1.0
 10
19.42758766982289
 20
21.35830307264449
 30
0.0
 41
1.0
  0
LINE
  5
2C6
330
1F
100
AcDbEntity
  8
OBJECT
  6
SLD-Solid
370
    25
100
AcDbLine
 10
19.48558766982289
 20
21.41930582854998
 30
0.0
 11
19.45658766982289
 21
21.41930582854998
 31
0.0
  0
LINE
  5
2C7
330
1F
100
AcDbEntity
  8
OBJECT
  6
SLD-Solid
370
    25
100
AcDbLine
 10
19.45658766982289
 20
21.41930582854998
 30
0.0
 11
19.45658766982289
 21
21.42172264622751
 31
0.0
  0
LINE
  5
2C8
330
1F
100
AcDbEntity
  8
OBJECT
  6
SLD-Solid
370
    25
100
AcDbLine
 10
19.48558766982289
 20
21.42172264622751
 30
0.0
 11
19.45658766982289
 21
21.42172264622751
 31
0.0
  0
LINE
  5
2C9
330
1F
100
AcDbEntity
  8
OBJECT
  6
SLD-Solid
370
    25
100
AcDbLine
 10
19.48558766982289
 20
21.41930582854998
 30
0.0
 11
19.48558766982289
 21
21.42172264622751
 31
0.0
  0
LINE
  5
2CA
330
1F
100
AcDbEntity
  8
OBJECT
  6
SLD-Solid
370
    25
100
AcDbLine
 10
19.48558766982289
 20
22.23661489752497
 30
0.0
 11
19.45658766982289
 21
22.23661489752497
 31
0.0
  0
LINE
  5
2CB
330
1F
100
AcDbEntity
  8
OBJECT
  6
SLD-Solid
370
    25
100
AcDbLine
 10
19.45658766982289
 20
21.42172264622751
 30
0.0
 11
19.45658766982289
 21
22.23661489752497
 31
0.0
  0
LINE
  5
2CC
330
1F
100
AcDbEntity
  8
OBJECT
  6
SLD-Solid
370
    25
100
AcDbLine
 10
19.48558766982289
 20
21.42172264622751
 30
0.0
 11
19.48558766982289
 21
22.23661489752497
 31
0.0
  0
LINE
  5
2CD
330
1F
100
AcDbEntity
  8
OBJECT
  6
SLD-Solid
370
    25
100
AcDbLine
 10
19.48558766982289
 20
22.30983820222834
 30
0.0
 11
19.45658766982289
 21
22.30983820222834
 31
0.0
  0
LINE
  5
2CE
330
1F
100
AcDbEntity
  8
OBJECT
  6
SLD-Solid
370
    25
100
AcDbLine
 10
19.45658766982289
 20
22.23661489752497
 30
0.0
 11
19.45658766982289
 21
22.30983820222834
 31
0.0
  0
LINE
  5
2CF
330
1F
100
AcDbEntity
  8
OBJECT
  6
SLD-Solid
370
    25
100
AcDbLine
 10
19.48558766982289
 20
22.23661489752497
 30
0.0
 11
19.48558766982289
 21
22.30983820222834
 31
0.0
  0
ARC
  5
2D0
330
1F
100
AcDbEntity
  8
OBJECT
  6
SLD-Solid
370
    25
100
AcDbCircle
 10
19.42758766982288
 20
21.38050618959518
 30
0.0
 40
0.029000000000002
100
AcDbArc
 50
33.82422237424047
 51
89.999999999993
  0
LINE
  5
2D1
330
1F
100
AcDbEntity
  8
OBJECT
  6
SLD-Solid
370
    25
100
AcDbLine
 10
19.42758766982288
 20
21.40950618959517
 30
0.0
 11
19.42758766982288
 21
21.43850618959518
 31
0.0
  0
ARC
  5
2D2
330
1F
100
AcDbEntity
  8
OBJECT
  6
SLD-Solid
370
    25
100
AcDbCircle
 10
19.42758766982288
 20
21.38050618959518
 30
0.0
 40
0.058
100
AcDbArc
 50
59.99999999999606
 51
89.99999999999649
  0
LINE
  5
2D3
330
1F
100
AcDbEntity
  8
OBJECT
  6
SLD-Solid
370
    25
100
AcDbLine
 10
19.42758766982288
 20
21.40950618959517
 30
0.0
 11
19.42194332572196
 21
21.40950618959517
 31
0.0
  0
LINE
  5
2D4
330
1F
100
AcDbEntity
  8
OBJECT
  6
SLD-Solid
370
    25
100
AcDbLine
 10
19.42758766982288
 20
21.43850618959518
 30
0.0
 11
19.42194332572196
 21
21.43850618959518
 31
0.0
  0
CIRCLE
  5
2D5
330
1F
100
AcDbEntity
  8
OBJECT
  6
SLD-Solid
370
    25
100
AcDbCircle
 10
17.52194332572185
 20
9.55075245618148
 30
0.0
 40
0.0828775666847754
  0
CIRCLE
  5
2D6
330
1F
100
AcDbEntity
  8
OBJECT
  6
SLD-Solid
370
    25
100
AcDbCircle
 10
17.52194332572185
 20
9.55075245618148
 30
0.0
 40
0.0599999999999981
  0
CIRCLE
  5
2D7
330
1F
100
AcDbEntity
  8
OBJECT
  6
SLD-Solid
370
    25
100
AcDbCircle
 10
17.52194332572185
 20
9.55075245618148
 30
0.0
 40
0.1874999999999974
  0
LINE
  5
2D8
330
1F
100
AcDbEntity
  8
OBJECT
  6
SLD-Solid
370
    25
100
AcDbLine
 10
17.60817949801871
 20
10.95926310549611
 30
0.0
 11
17.5028789648039
 21
10.92621480951998
 31
0.0
  0
LINE
  5
2D9
330
1F
100
AcDbEntity
  8
OBJECT
  6
SLD-Solid
370
    25
100
AcDbLine
 10
16.29842271831232
 20
9.903619982253558
 30
0.0
 11
16.2867621088739
 21
9.883423214259004
 31
0.0
  0
LINE
  5
2DA
330
1F
100
AcDbEntity
  8
OBJECT
  6
SLD-Solid
370
    25
100
AcDbLine
 10
16.2867621088739
 20
9.883423214259004
 30
0.0
 11
16.23864181325916
 21
9.911205479885673
 31
0.0
  0
LINE
  5
2DB
330
1F
100
AcDbEntity
  8
OBJECT
  6
SLD-Solid
370
    25
100
AcDbLine
 10
15.64652141878002
 20
10.25306634903087
 30
0.0
 11
15.63217627857736
 21
10.26134851958843
 31
0.0
  0
ARC
  5
2DC
330
1F
100
AcDbEntity
  8
OBJECT
  6
SLD-Solid
370
    25
100
AcDbCircle
 10
15.66167627857736
 20
10.31244401841172
 30
0.0
 40
0.059000000000003
100
AcDbArc
 50
186.98940569856
 51
240.0000000000019
  0
ARC
  5
2DD
330
1F
100
AcDbEntity
  8
OBJECT
  6
SLD-Solid
370
    25
100
AcDbCircle
 10
19.03075248993069
 20
9.192040606567378
 30
0.0
 40
0.4050000000000027
100
AcDbArc
 50
287.270504874132
 51
348.607392298546
  0
LINE
  5
2DE
330
1F
100
AcDbEntity
  8
OBJECT
  6
SLD-Solid
370
    25
100
AcDbLine
 10
19.40260479336393
 20
9.112040606567394
 30
0.0
 11
19.4277726405528
 21
9.11204060656739
 31
0.0
  0
LINE
  5
2DF
330
1F
100
AcDbEntity
  8
OBJECT
  6
SLD-Solid
370
    25
100
AcDbLine
 10
18.18441928478939
 20
8.814205838693114
 30
0.0
 11
18.17298969551438
 21
8.794409209359223
 31
0.0
  0
ARC
  5
2E0
330
1F
100
AcDbEntity
  8
OBJECT
  6
SLD-Solid
370
    25
100
AcDbCircle
 10
18.20048969551438
 20
8.84204060656737
 30
0.0
 40
0.0550000000000019
100
AcDbArc
 50
240.0000000000021
 51
270.0000000000082
  0
LINE
  5
2E1
330
1F
100
AcDbEntity
  8
OBJECT
  6
SLD-Solid
370
    25
100
AcDbLine
 10
18.20048969551439
 20
8.787040606567377
 30
0.0
 11
18.24051112461399
 21
8.787040606567377
 31
0.0
  0
LINE
  5
2E2
330
1F
100
AcDbEntity
  8
OBJECT
  6
SLD-Solid
370
    25
100
AcDbLine
 10
16.29975248993067
 20
9.875923214259007
 30
0.0
 11
16.31141141431376
 21
9.896117063652113
 31
0.0
  0
LINE
  5
2E3
330
1F
100
AcDbEntity
  8
OBJECT
  6
SLD-Solid
370
    25
100
AcDbLine
 10
18.17298969551439
 20
8.794409209359218
 30
0.0
 11
16.29975248993067
 21
9.875923214259007
 31
0.0
  0
LINE
  5
2E4
330
1F
100
AcDbEntity
  8
OBJECT
  6
SLD-Solid
370
    25
100
AcDbLine
 10
16.29975248993067
 20
9.875923214259007
 30
0.0
 11
16.28676210887391
 21
9.883423214259004
 31
0.0
  0
LINE
  5
2E5
330
1F
100
AcDbEntity
  8
OBJECT
  6
SLD-Solid
370
    25
100
AcDbLine
 10
19.4357524899307
 20
9.19204060656737
 30
0.0
 11
19.43575248993069
 21
9.309963246478574
 31
0.0
  0
ARC
  5
2E6
330
1F
100
AcDbEntity
  8
OBJECT
  6
SLD-Solid
370
    25
100
AcDbCircle
 10
19.03075248993069
 20
9.192040606567376
 30
0.0
 40
0.4050000000000167
100
AcDbArc
 50
348.6073922985464
 51
359.9999999999987
  0
LINE
  5
2E7
330
1F
100
AcDbEntity
  8
OBJECT
  6
SLD-Solid
370
    25
100
AcDbLine
 10
17.64694332572182
 20
11.04975245618155
 30
0.0
 11
17.64694332572185
 21
12.29975245618155
 31
0.0
  0
ARC
  5
2E8
330
1F
100
AcDbEntity
  8
OBJECT
  6
SLD-Solid
370
    25
100
AcDbCircle
 10
17.52194332572185
 20
12.29975245618156
 30
0.0
 40
0.125
100
AcDbArc
 50
359.9999999999997
 51
179.999999999998
  0
LINE
  5
2E9
330
1F
100
AcDbEntity
  8
OBJECT
  6
SLD-Solid
370
    25
100
AcDbLine
 10
17.39694332572185
 20
12.29975245618156
 30
0.0
 11
17.39694332572182
 21
11.04975245618156
 31
0.0
  0
ARC
  5
2EA
330
1F
100
AcDbEntity
  8
OBJECT
  6
SLD-Solid
370
    25
100
AcDbCircle
 10
17.52194332572182
 20
11.04975245618155
 30
0.0
 40
0.1250000000000036
100
AcDbArc
 50
179.9999999999947
 51
0.000000000002731
  0
ARC
  5
2EB
330
1F
100
AcDbEntity
  8
OBJECT
  6
SLD-Solid
370
    25
100
AcDbCircle
 10
16.45119092845093
 20
22.10928766288627
 30
0.0
 40
0.0800000000000405
100
AcDbArc
 50
89.99999999999746
 51
134.9999999999694
  0
LINE
  5
2EC
330
1F
100
AcDbEntity
  8
OBJECT
  6
SLD-Solid
370
    25
100
AcDbLine
 10
19.37194332572198
 20
22.18928766288629
 30
0.0
 11
16.45119092845093
 21
22.18928766288626
 31
0.0
  0
ARC
  5
2ED
330
1F
100
AcDbEntity
  8
OBJECT
  6
SLD-Solid
370
    25
100
AcDbCircle
 10
19.37194332572198
 20
22.13928766288629
 30
0.0
 40
0.0500000000000043
100
AcDbArc
 50
0.0
 51
90.0
  0
LINE
  5
2EE
330
1F
100
AcDbEntity
  8
OBJECT
  6
SLD-Solid
370
    25
100
AcDbLine
 10
19.42194332572198
 20
22.13928766288629
 30
0.0
 11
19.42194332572184
 21
9.24975245618152
 31
0.0
  0
ARC
  5
2EF
330
1F
100
AcDbEntity
  8
OBJECT
  6
SLD-Solid
370
    25
100
AcDbCircle
 10
18.92194332572183
 20
9.249752456181525
 30
0.0
 40
0.5000000000000036
100
AcDbArc
 50
270.0000000000004
 51
0.0000000000002036
  0
LINE
  5
2F0
330
1F
100
AcDbEntity
  8
OBJECT
  6
SLD-Solid
370
    25
100
AcDbLine
 10
18.42997812497725
 20
8.74975245618153
 30
0.0
 11
18.92194332572183
 21
8.749752456181525
 31
0.0
  0
ARC
  5
2F1
330
1F
100
AcDbEntity
  8
OBJECT
  6
SLD-Solid
370
    25
100
AcDbCircle
 10
18.42997812497725
 20
9.24975245618153
 30
0.0
 40
0.5
100
AcDbArc
 50
239.9871271257684
 51
270.0000000000004
  0
LINE
  5
2F2
330
1F
100
AcDbEntity
  8
OBJECT
  6
SLD-Solid
370
    25
100
AcDbLine
 10
15.39184332572193
 20
21.12232398196402
 30
0.0
 11
15.39184332572182
 21
10.42730545365046
 31
0.0
  0
LINE
  5
2F3
330
1F
100
AcDbEntity
  8
OBJECT
  6
SLD-Solid
370
    25
100
AcDbLine
 10
15.39184332572193
 20
21.12994006015734
 30
0.0
 11
15.39184332572193
 21
21.12232398196402
 31
0.0
  0
ARC
  5
2F4
330
1F
100
AcDbEntity
  8
OBJECT
  6
SLD-Solid
370
    25
100
AcDbCircle
 10
15.47184332572197
 20
21.12994006015733
 30
0.0
 40
0.0800000000000392
100
AcDbArc
 50
134.9999999999964
 51
179.9999999999946
  0
LINE
  5
2F5
330
1F
100
AcDbEntity
  8
OBJECT
  6
SLD-Solid
370
    25
100
AcDbLine
 10
16.394622385956
 20
22.16585620538125
 30
0.0
 11
15.41527478322705
 21
21.18650860265226
 31
0.0
  0
LINE
  5
2F6
330
1F
100
AcDbEntity
  8
OBJECT
  6
SLD-Solid
370
    25
100
AcDbLine
 10
15.39184332572182
 20
10.42730545365046
 30
0.0
 11
18.17988084457497
 21
8.816795933727638
 31
0.0
  0
LINE
  5
2F7
330
1F
100
AcDbEntity
  8
OBJECT
  6
SLD-Solid
370
    25
100
AcDbLine
 10
15.33294332572179
 20
10.43253453073307
 30
0.0
 11
15.33294332572191
 21
21.12232398196402
 31
0.0
  0
LINE
  5
2F8
330
1F
100
AcDbEntity
  8
OBJECT
  6
SLD-Solid
370
    25
100
AcDbLine
 10
15.33294332571854
 20
21.12232398196402
 30
0.0
 11
15.39184332572197
 21
21.12232398196402
 31
0.0
  0
SPLINE
  5
2F9
330
1F
100
AcDbEntity
  8
OBJECT
  6
SLD-Solid
370
    25
100
AcDbSpline
210
0.0
220
0.0
230
1.0
 70
    12
 71
     3
 72
    14
 73
    10
 74
     0
 42
0.00000001
 43
0.00000001
 40
0.0
 40
0.0
 40
0.0
 40
0.0
 40
0.3350534435246604
 40
0.470331856898183
 40
0.5876175006872976
 40
0.6918353102142162
 40
0.7899073026602498
 40
0.8900444359901823
 40
1.0
 40
1.0
 40
1.0
 40
1.0
 10
15.3461438021358
 20
10.44985263434437
 30
0.0
 41
1.0
 10
15.34296827788708
 20
10.45053537296362
 30
0.0
 41
1.0
 10
15.33851063017328
 20
10.45149376849357
 30
0.0
 41
1.0
 10
15.33531318946344
 20
10.45040793457054
 30
0.0
 41
1.0
 10
15.33396513893191
 20
10.44874686197662
 30
0.0
 41
1.0
 10
15.33328165015094
 20
10.44609926073394
 30
0.0
 41
1.0
 10
15.3330069944543
 20
10.44242961532806
 30
0.0
 41
1.0
 10
15.33294260505269
 20
10.43779887423553
 30
0.0
 41
1.0
 10
15.3329430781292
 20
10.43434304177355
 30
0.0
 41
1.0
 10
15.33294332572179
 20
10.43253437344623
 30
0.0
 41
1.0
  0
SPLINE
  5
2FA
330
1F
100
AcDbEntity
  8
OBJECT
  6
SLD-Solid
370
    25
100
AcDbSpline
210
0.0
220
0.0
230
1.0
 70
    12
 71
     3
 72
    11
 73
     7
 74
     0
 42
0.00000001
 43
0.00000001
 40
0.0
 40
0.0
 40
0.0
 40
0.0
 40
0.250000340265089
 40
0.500000680530233
 40
0.7500010207953807
 40
1.0
 40
1.0
 40
1.0
 40
1.0
 10
15.39184332572176
 20
10.42730545365046
 30
0.0
 41
1.0
 10
15.38748198155773
 20
10.42918438537559
 30
0.0
 41
1.0
 10
15.37875929322967
 20
10.43294224882584
 30
0.0
 41
1.0
 10
15.36635767837782
 20
10.43857904398979
 30
0.0
 41
1.0
 10
15.35504703213384
 20
10.44421582897014
 30
0.0
 41
1.0
 10
15.34911157013122
 20
10.44797368209958
 30
0.0
 41
1.0
 10
15.34614384720844
 20
10.44985260354963
 30
0.0
 41
1.0
  0
LINE
  5
2FB
330
1F
100
AcDbEntity
  8
OBJECT
  6
SLD-Solid
370
    25
100
AcDbLine
 10
15.33294332572179
 20
10.43253437344623
 30
0.0
 11
15.36284332572179
 21
10.43253437344621
 31
0.0
  0
LINE
  5
2FC
330
1F
100
AcDbEntity
  8
OBJECT
  6
SLD-Solid
370
    25
100
AcDbLine
 10
16.36473736829205
 20
22.13623021783948
 30
0.0
 11
16.34359487553459
 21
22.15737271059693
 31
0.0
  0
LINE
  5
2FD
330
1F
100
AcDbEntity
  8
OBJECT
  6
SLD-Solid
370
    25
100
AcDbLine
 10
15.38322417356572
 20
21.19700200862806
 30
0.0
 11
15.4043666663232
 21
21.17585951587058
 31
0.0
  0
LINE
  5
2FE
330
1F
100
AcDbEntity
  8
OBJECT
  6
SLD-Solid
370
    25
100
AcDbLine
 10
15.4043666663232
 20
21.17585951587058
 30
0.0
 11
16.36473736829205
 21
22.13623021783948
 31
0.0
  0
LINE
  5
2FF
330
1F
100
AcDbEntity
  8
OBJECT
  6
SLD-Solid
370
    25
100
AcDbLine
 10
15.38322417356572
 20
21.19700200862806
 30
0.0
 11
16.34359487553459
 21
22.15737271059693
 31
0.0
  0
LINE
  5
300
330
1F
100
AcDbEntity
  8
OBJECT
  6
SLD-Solid
370
    25
100
AcDbLine
 10
15.3793666663232
 20
21.15085951587058
 30
0.0
 11
15.35822417356573
 21
21.17200200862806
 31
0.0
  0
LINE
  5
301
330
1F
100
AcDbEntity
  8
OBJECT
  6
SLD-Solid
370
    25
100
AcDbLine
 10
15.4043666663232
 20
21.17585951587058
 30
0.0
 11
15.3793666663232
 21
21.15085951587058
 31
0.0
  0
LINE
  5
302
330
1F
100
AcDbEntity
  8
OBJECT
  6
SLD-Solid
370
    25
100
AcDbLine
 10
15.35822417356573
 20
21.17200200862806
 30
0.0
 11
15.38322417356572
 21
21.19700200862806
 31
0.0
  0
LINE
  5
303
330
1F
100
AcDbEntity
  8
OBJECT
  6
SLD-Solid
370
    25
100
AcDbLine
 10
16.36859487553458
 20
22.18237271059696
 30
0.0
 11
16.38973736829207
 21
22.16123021783948
 31
0.0
  0
LINE
  5
304
330
1F
100
AcDbEntity
  8
OBJECT
  6
SLD-Solid
370
    25
100
AcDbLine
 10
16.38973736829207
 20
22.16123021783948
 30
0.0
 11
16.36473736829205
 21
22.13623021783948
 31
0.0
  0
LINE
  5
305
330
1F
100
AcDbEntity
  8
OBJECT
  6
SLD-Solid
370
    25
100
AcDbLine
 10
16.34359487553459
 20
22.15737271059693
 30
0.0
 11
16.36859487553458
 21
22.18237271059696
 31
0.0
  0
LINE
  5
306
330
1F
100
AcDbEntity
  8
OBJECT
  6
SLD-Solid
370
    25
100
AcDbLine
 10
19.42191735393458
 20
22.14089903007172
 30
0.0
 11
19.42191735393458
 21
22.17279518899696
 31
0.0
  0
LINE
  5
307
330
1F
100
AcDbEntity
  8
OBJECT
  6
SLD-Solid
370
    25
100
AcDbLine
 10
19.42191735393458
 20
22.23169518899694
 30
0.0
 11
19.42191735393458
 21
22.17279518899696
 31
0.0
  0
SPLINE
  5
308
330
1F
100
AcDbEntity
  8
OBJECT
  6
SLD-Solid
370
    25
100
AcDbSpline
210
0.0
220
0.0
230
1.0
 70
    12
 71
     3
 72
    11
 73
     7
 74
     0
 42
0.00000001
 43
0.00000001
 40
0.0
 40
0.0
 40
0.0
 40
0.0
 40
0.0820926507191161
 40
0.3880617671459672
 40
0.6940308835728111
 40
1.0
 40
1.0
 40
1.0
 40
1.0
 10
16.46600973469459
 20
22.18928766288626
 30
0.0
 41
1.0
 10
16.46536133404917
 20
22.19132776217099
 30
0.0
 41
1.0
 10
16.46229626673708
 20
22.20097155521031
 30
0.0
 41
1.0
 10
16.45681453275832
 20
22.21531294239349
 30
0.0
 41
1.0
 10
16.44956453275832
 20
22.22906550734517
 30
0.0
 41
1.0
 10
16.44473119942499
 20
22.23081862844634
 30
0.0
 41
1.0
 10
16.44231453275832
 20
22.23169518899693
 30
0.0
 41
1.0
  0
LINE
  5
309
330
1F
100
AcDbEntity
  8
OBJECT
  6
SLD-Solid
370
    25
100
AcDbLine
 10
16.44231453275832
 20
22.23169518899693
 30
0.0
 11
19.42191735393458
 21
22.23169518899692
 31
0.0
  0
SPLINE
  5
30A
330
1F
100
AcDbEntity
  8
OBJECT
  6
SLD-Solid
370
    25
100
AcDbSpline
210
0.0
220
0.0
230
1.0
 70
    12
 71
     3
 72
     9
 73
     5
 74
     0
 42
0.00000001
 43
0.00000001
 40
0.0
 40
0.0
 40
0.0
 40
0.0
 40
0.499999999999968
 40
0.9999999999999999
 40
0.9999999999999999
 40
0.9999999999999999
 40
0.9999999999999999
 10
16.45681453275832
 20
22.19330128565134
 30
0.0
 41
1.0
 10
16.45439786609165
 20
22.19573666526675
 30
0.0
 41
1.0
 10
16.44956453275832
 20
22.20060742449757
 30
0.0
 41
1.0
 10
16.44473119942499
 20
22.20139926749713
 30
0.0
 41
1.0
 10
16.44231453275832
 20
22.20179518899693
 30
0.0
 41
1.0
  0
LINE
  5
30B
330
1F
100
AcDbEntity
  8
OBJECT
  6
SLD-Solid
370
    25
100
AcDbLine
 10
16.44231453275833
 20
22.23169518899691
 30
0.0
 11
16.44231453275833
 21
22.20179518899691
 31
0.0
  0
LINE
  5
30C
330
1F
100
AcDbEntity
  8
OBJECT
  6
SLD-Solid
370
    25
100
AcDbLine
 10
15.636499125425
 20
10.23570722773175
 30
0.0
 11
15.65826507743605
 21
10.27340696248998
 31
0.0
  0
LINE
  5
30D
330
1F
100
AcDbEntity
  8
OBJECT
  6
SLD-Solid
370
    25
100
AcDbLine
 10
16.22321744081221
 20
9.884489683132774
 30
0.0
 11
15.63109704633304
 21
10.22635055227799
 31
0.0
  0
LINE
  5
30E
330
1F
100
AcDbEntity
  8
OBJECT
  6
SLD-Solid
370
    25
100
AcDbLine
 10
16.25030866465148
 20
9.931413059261613
 30
0.0
 11
16.22321744081221
 21
9.884489683132774
 31
0.0
  0
LINE
  5
30F
330
1F
100
AcDbEntity
  8
OBJECT
  6
SLD-Solid
370
    25
100
AcDbLine
 10
16.40066594334644
 20
22.21444377840883
 30
0.0
 11
16.42180843610392
 21
22.19330128565135
 31
0.0
  0
LINE
  5
310
330
1F
100
AcDbEntity
  8
OBJECT
  6
SLD-Solid
370
    25
100
AcDbLine
 10
16.38973736829207
 20
22.16123021783948
 30
0.0
 11
16.42180843610392
 21
22.19330128565135
 31
0.0
  0
LINE
  5
311
330
1F
100
AcDbEntity
  8
OBJECT
  6
SLD-Solid
370
    25
100
AcDbLine
 10
16.36859487553458
 20
22.18237271059696
 30
0.0
 11
16.40066594334644
 21
22.21444377840883
 31
0.0
  0
LINE
  5
312
330
1F
100
AcDbEntity
  8
OBJECT
  6
SLD-Solid
370
    25
100
AcDbLine
 10
15.3713372290658
 20
21.14283007861675
 30
0.0
 11
15.35019473631419
 21
21.16397257137655
 31
0.0
  0
LINE
  5
313
330
1F
100
AcDbEntity
  8
OBJECT
  6
SLD-Solid
370
    25
100
AcDbLine
 10
15.3713372290658
 20
21.14283007861675
 30
0.0
 11
15.3793666663232
 21
21.15085951587058
 31
0.0
  0
LINE
  5
314
330
1F
100
AcDbEntity
  8
OBJECT
  6
SLD-Solid
370
    25
100
AcDbLine
 10
15.35019473631419
 20
21.16397257137655
 30
0.0
 11
15.35822417356573
 21
21.17200200862806
 31
0.0
  0
LINE
  5
315
330
1F
100
AcDbEntity
  8
OBJECT
  6
SLD-Solid
370
    25
100
AcDbLine
 10
15.33294332572179
 20
10.43249561398804
 30
0.0
 11
15.33294332572179
 21
10.43253453073307
 31
0.0
  0
LINE
  5
316
330
1F
100
AcDbEntity
  8
OBJECT
  6
SLD-Solid
370
    25
100
AcDbLine
 10
15.36284332572179
 20
10.43249561398803
 30
0.0
 11
15.36284332572179
 21
10.43253437344621
 31
0.0
  0
LINE
  5
317
330
1F
100
AcDbEntity
  8
OBJECT
  6
SLD-Solid
370
    25
100
AcDbLine
 10
15.36284332572177
 20
10.43249561398803
 30
0.0
 11
15.33294332572178
 21
10.43249561398804
 31
0.0
  0
LINE
  5
318
330
1F
100
AcDbEntity
  8
OBJECT
  6
SLD-Solid
370
    25
100
AcDbLine
 10
15.636499125425
 20
10.23570722773175
 30
0.0
 11
15.63109704633305
 21
10.22635055227799
 31
0.0
  0
LINE
  5
319
330
1F
100
AcDbEntity
  8
OBJECT
  6
SLD-Solid
370
    25
100
AcDbLine
 10
15.37734332572181
 20
10.40738087727829
 30
0.0
 11
15.36239332572181
 21
10.38148671770514
 31
0.0
  0
LINE
  5
31A
330
1F
100
AcDbEntity
  8
OBJECT
  6
SLD-Solid
370
    25
100
AcDbLine
 10
15.64604704633305
 20
10.25224471185115
 30
0.0
 11
15.37734332572181
 21
10.40738087727829
 31
0.0
  0
LINE
  5
31B
330
1F
100
AcDbEntity
  8
OBJECT
  6
SLD-Solid
370
    25
100
AcDbLine
 10
15.63109704633305
 20
10.22635055227799
 30
0.0
 11
15.36239332572181
 21
10.38148671770514
 31
0.0
  0
ARC
  5
31C
330
1F
100
AcDbEntity
  8
OBJECT
  6
SLD-Solid
370
    25
100
AcDbCircle
 10
15.39184332572177
 20
10.43249561398803
 30
0.0
 40
0.0290000000000017
100
AcDbArc
 50
179.9999999999912
 51
240.0000000000502
  0
ARC
  5
31D
330
1F
100
AcDbEntity
  8
OBJECT
  6
SLD-Solid
370
    25
100
AcDbCircle
 10
15.39184332572177
 20
10.43249561398803
 30
0.0
 40
0.0588999999999977
100
AcDbArc
 50
179.9999999999827
 51
240.0000000000256
  0
ARC
  5
31E
330
1F
100
AcDbEntity
  8
OBJECT
  6
SLD-Solid
370
    25
100
AcDbCircle
 10
15.39184332572188
 20
21.12232398196402
 30
0.0
 40
0.0589000000033462
100
AcDbArc
 50
134.9999999966692
 51
180.0
  0
ARC
  5
31F
330
1F
100
AcDbEntity
  8
OBJECT
  6
SLD-Solid
370
    25
100
AcDbCircle
 10
15.39184332572188
 20
21.12232398196402
 30
0.0
 40
0.0290000000000013
100
AcDbArc
 50
135.0000000046829
 51
180.0000000000359
  0
ARC
  5
320
330
1F
100
AcDbEntity
  8
OBJECT
  6
SLD-Solid
370
    25
100
AcDbCircle
 10
16.44231453275833
 20
22.17279518899691
 30
0.0
 40
0.0589000000000239
100
AcDbArc
 50
90.00000000000692
 51
134.999999999978
  0
ARC
  5
321
330
1F
100
AcDbEntity
  8
OBJECT
  6
SLD-Solid
370
    25
100
AcDbCircle
 10
16.44231453275833
 20
22.17279518899691
 30
0.0
 40
0.0290000000000202
100
AcDbArc
 50
90.00000000001404
 51
134.9999999999553
  0
LINE
  5
322
330
1F
100
AcDbEntity
  8
OBJECT
  6
SLD-Solid
370
    25
100
AcDbLine
 10
18.88421735393454
 20
22.43169518899681
 30
0.0
 11
17.98421735393453
 21
22.43169518899681
 31
0.0
  0
LINE
  5
323
330
1F
100
AcDbEntity
  8
OBJECT
  6
SLD-Solid
370
    25
100
AcDbLine
 10
15.64392179802219
 20
10.28169235602817
 30
0.0
 11
15.63217627857736
 21
10.26134851958843
 31
0.0
  0
LINE
  5
324
330
1F
100
AcDbEntity
  8
OBJECT
  6
SLD-Solid
370
    25
100
AcDbLine
 10
18.20048969551438
 20
8.805528345238862
 30
0.0
 11
18.20048969551439
 21
8.787040606567377
 31
0.0
  0
LINE
  5
325
330
1F
100
AcDbEntity
  8
OBJECT
  6
SLD-Solid
370
    25
100
AcDbLine
 10
19.40905458673453
 20
22.17279518899698
 30
0.0
 11
19.42191735393458
 21
22.17279518899698
 31
0.0
  0
DIMENSION
  5
326
330
1F
100
AcDbEntity
  8
DIMS
100
AcDbDimension
  2
_D_4
 10
15.33294332572192
 20
23.73969233089222
 30
0.0
 11
17.73188095599858
 21
23.73969233089219
 31
0.0
 70
    32
  1
<>
 71
     2
 42
-1.0
  3
SLDDIMSTYLE1
100
AcDbAlignedDimension
 13
19.48558766982287
 23
22.30983820222834
 33
0.0
 14
15.33294332572189
 24
21.12232398196397
 34
0.0
 50
-0.0000000000006863
100
AcDbRotatedDimension
  0
INSERT
  5
33A
330
1F
100
AcDbEntity
  8
NOTES
100
AcDbBlockReference
  2
SW_NOTE_0_5
 10
20.92765748031497
 20
7.439102123337507
 30
0.0
  0
LEADER
  5
33B
330
1F
100
AcDbEntity
  8
NOTES
100
AcDbLeader
  3
SLDDIMSTYLE2
 76
     2
 10
17.64694332572182
 20
11.76466668489478
 30
0.0
 10
20.92765748031497
 20
7.439102123337507
 30
0.0
1001
ACAD
1000
DSTYLE
1002
{
1070
   176
1070
     0
1070
    77
1070
     0
1070
    40
1040
1.0
1070
   147
1040
0.0
1002
}
  0
INSERT
  5
341
330
1F
100
AcDbEntity
  8
NOTES
100
AcDbBlockReference
  2
SW_NOTE_0_6
 10
16.0122180876604
 20
6.164044098747225
 30
0.0
  0
ARC
  5
342
330
1F
100
AcDbEntity
  8
OBJECT
  6
SLD-Solid
370
    25
100
AcDbCircle
 10
32.90037831963512
 20
9.863564240859764
 30
0.0
 40
0.0020000000000041
100
AcDbArc
 50
33.34050359127908
 51
180.0
  0
ARC
  5
343
330
1F
100
AcDbEntity
  8
OBJECT
  6
SLD-Solid
370
    25
100
AcDbCircle
 10
32.90037831963512
 20
9.656516972274614
 30
0.0
 40
0.0020000000000032
100
AcDbArc
 50
180.0
 51
326.6594964087643
  0
ARC
  5
344
330
1F
100
AcDbEntity
  8
OBJECT
  6
SLD-Solid
370
    25
100
AcDbCircle
 10
32.74302117677798
 20
9.760040606567213
 30
0.0
 40
0.1903571428571478
100
AcDbArc
 50
326.6594964087053
 51
33.34050359128935
  0
LINE
  5
345
330
1F
100
AcDbEntity
  8
OBJECT
  6
SLD-Solid
370
    25
100
AcDbLine
 10
32.86720097107649
 20
9.69954060656719
 30
0.0
 11
32.86837831963516
 21
9.69954060656719
 31
0.0
  0
LINE
  5
346
330
1F
100
AcDbEntity
  8
OBJECT
  6
SLD-Solid
370
    25
100
AcDbLine
 10
32.86837831963516
 20
9.82054060656719
 30
0.0
 11
32.86720097107649
 21
9.82054060656719
 31
0.0
  0
ARC
  5
347
330
1F
100
AcDbEntity
  8
OBJECT
  6
SLD-Solid
370
    25
100
AcDbCircle
 10
32.90037831963512
 20
10.73856424085977
 30
0.0
 40
0.0020000000000024
100
AcDbArc
 50
33.34050359134845
 51
180.0
  0
ARC
  5
348
330
1F
100
AcDbEntity
  8
OBJECT
  6
SLD-Solid
370
    25
100
AcDbCircle
 10
32.90037831963512
 20
10.53151697227461
 30
0.0
 40
0.0020000000000024
100
AcDbArc
 50
180.0
 51
326.6594964086099
  0
ARC
  5
349
330
1F
100
AcDbEntity
  8
OBJECT
  6
SLD-Solid
370
    25
100
AcDbCircle
 10
32.74302117677798
 20
10.63504060656721
 30
0.0
 40
0.1903571428571458
100
AcDbArc
 50
326.6594964087061
 51
33.34050359129024
  0
LINE
  5
34A
330
1F
100
AcDbEntity
  8
OBJECT
  6
SLD-Solid
370
    25
100
AcDbLine
 10
32.86720097107649
 20
10.57454060656719
 30
0.0
 11
32.86837831963516
 21
10.57454060656719
 31
0.0
  0
LINE
  5
34B
330
1F
100
AcDbEntity
  8
OBJECT
  6
SLD-Solid
370
    25
100
AcDbLine
 10
32.86837831963516
 20
10.69554060656719
 30
0.0
 11
32.86720097107649
 21
10.69554060656719
 31
0.0
  0
ARC
  5
34C
330
1F
100
AcDbEntity
  8
OBJECT
  6
SLD-Solid
370
    25
100
AcDbCircle
 10
22.03637831963508
 20
9.656516972274652
 30
0.0
 40
0.0020000000000012
100
AcDbArc
 50
213.3405035913358
 51
359.9999999999499
  0
ARC
  5
34D
330
1F
100
AcDbEntity
  8
OBJECT
  6
SLD-Solid
370
    25
100
AcDbCircle
 10
22.03637831963508
 20
9.8635642408598
 30
0.0
 40
0.0020000000000012
100
AcDbArc
 50
0.0000000000508889
 51
146.659496408665
  0
ARC
  5
34E
330
1F
100
AcDbEntity
  8
OBJECT
  6
SLD-Solid
370
    25
100
AcDbCircle
 10
22.19373546249222
 20
9.760040606567255
 30
0.0
 40
0.1903571428571497
100
AcDbArc
 50
146.6594964087111
 51
213.3405035912973
  0
LINE
  5
34F
330
1F
100
AcDbEntity
  8
OBJECT
  6
SLD-Solid
370
    25
100
AcDbLine
 10
22.06955566819375
 20
9.820540606567226
 30
0.0
 11
22.06837831963514
 21
9.820540606567226
 31
0.0
  0
LINE
  5
350
330
1F
100
AcDbEntity
  8
OBJECT
  6
SLD-Solid
370
    25
100
AcDbLine
 10
22.06837831963514
 20
9.699540606567226
 30
0.0
 11
22.06955566819375
 21
9.699540606567224
 31
0.0
  0
ARC
  5
351
330
1F
100
AcDbEntity
  8
OBJECT
  6
SLD-Solid
370
    25
100
AcDbCircle
 10
22.03637831963511
 20
10.53151697227471
 30
0.0
 40
0.0020000000000024
100
AcDbArc
 50
213.3405035913493
 51
0.0
  0
ARC
  5
352
330
1F
100
AcDbEntity
  8
OBJECT
  6
SLD-Solid
370
    25
100
AcDbCircle
 10
22.03637831963511
 20
10.73856424085986
 30
0.0
 40
0.0020000000000024
100
AcDbArc
 50
0.0
 51
146.6594964086941
  0
ARC
  5
353
330
1F
100
AcDbEntity
  8
OBJECT
  6
SLD-Solid
370
    25
100
AcDbCircle
 10
22.19373546249225
 20
10.63504060656725
 30
0.0
 40
0.1903571428571487
100
AcDbArc
 50
146.6594964087039
 51
213.3405035912897
  0
LINE
  5
354
330
1F
100
AcDbEntity
  8
OBJECT
  6
SLD-Solid
370
    25
100
AcDbLine
 10
22.06955566819375
 20
10.69554060656728
 30
0.0
 11
22.06837831963512
 21
10.69554060656728
 31
0.0
  0
LINE
  5
355
330
1F
100
AcDbEntity
  8
OBJECT
  6
SLD-Solid
370
    25
100
AcDbLine
 10
22.06837831963512
 20
10.57454060656728
 30
0.0
 11
22.06955566819375
 21
10.57454060656728
 31
0.0
  0
LINE
  5
356
330
1F
100
AcDbEntity
  8
OBJECT
  6
SLD-Solid
370
    25
100
AcDbLine
 10
27.91837831963516
 20
22.23169518899667
 30
0.0
 11
27.91837831963516
 21
22.43169518899668
 31
0.0
  0
LINE
  5
357
330
1F
100
AcDbEntity
  8
OBJECT
  6
SLD-Solid
370
    25
100
AcDbLine
 10
27.01837831963516
 20
22.43169518899668
 30
0.0
 11
27.01837831963516
 21
22.26069518899668
 31
0.0
  0
ARC
  5
358
330
1F
100
AcDbEntity
  8
OBJECT
  6
SLD-Solid
370
    25
100
AcDbCircle
 10
27.06837831963515
 20
22.43169518899668
 30
0.0
 40
0.0500000000000043
100
AcDbArc
 50
90.00000000000406
 51
180.0
  0
ARC
  5
359
330
1F
100
AcDbEntity
  8
OBJECT
  6
SLD-Solid
370
    25
100
AcDbCircle
 10
27.86837831963516
 20
22.43169518899668
 30
0.0
 40
0.0500000000000043
100
AcDbArc
 50
0.0
 51
89.99999999998779
  0
LINE
  5
35A
330
1F
100
AcDbEntity
  8
OBJECT
  6
SLD-Solid
370
    25
100
AcDbLine
 10
27.31837831963515
 20
21.70169518899668
 30
0.0
 11
27.31837831963515
 21
21.60834136948726
 31
0.0
  0
LINE
  5
35B
330
1F
100
AcDbEntity
  8
OBJECT
  6
SLD-Solid
370
    25
100
AcDbLine
 10
27.61837831963516
 20
21.60834136948726
 30
0.0
 11
27.61837831963516
 21
21.70169518899668
 31
0.0
  0
LINE
  5
35C
330
1F
100
AcDbEntity
  8
OBJECT
  6
SLD-Solid
370
    25
100
AcDbLine
 10
33.00477610041417
 20
9.363252456181343
 30
0.0
 11
33.03477610041417
 21
9.467874889496573
 31
0.0
  0
LINE
  5
35D
330
1F
100
AcDbEntity
  8
OBJECT
  6
SLD-Solid
370
    25
100
AcDbLine
 10
33.03477610041417
 20
9.633630022866118
 30
0.0
 11
33.00477610041417
 21
9.738252456181348
 31
0.0
  0
LINE
  5
35E
330
1F
100
AcDbEntity
  8
OBJECT
  6
SLD-Solid
370
    25
100
AcDbLine
 10
32.97977610041417
 20
9.363252456181346
 30
0.0
 11
33.00477610041417
 21
9.363252456181346
 31
0.0
  0
LINE
  5
35F
330
1F
100
AcDbEntity
  8
OBJECT
  6
SLD-Solid
370
    25
100
AcDbLine
 10
33.00477610041417
 20
9.738252456181346
 30
0.0
 11
32.97977610041417
 21
9.738252456181346
 31
0.0
  0
LINE
  5
360
330
1F
100
AcDbEntity
  8
OBJECT
  6
SLD-Solid
370
    25
100
AcDbLine
 10
32.94987610041414
 20
9.642752456181345
 30
0.0
 11
32.94537831963511
 21
9.642752456181345
 31
0.0
  0
LINE
  5
361
330
1F
100
AcDbEntity
  8
OBJECT
  6
SLD-Solid
370
    25
100
AcDbLine
 10
32.86837831963514
 20
9.642752456181345
 30
0.0
 11
32.86720097107648
 21
9.642752456181345
 31
0.0
  0
LINE
  5
362
330
1F
100
AcDbEntity
  8
OBJECT
  6
SLD-Solid
370
    25
100
AcDbLine
 10
32.86720097107648
 20
9.458752456181346
 30
0.0
 11
32.86837831963514
 21
9.458752456181346
 31
0.0
  0
LINE
  5
363
330
1F
100
AcDbEntity
  8
OBJECT
  6
SLD-Solid
370
    25
100
AcDbLine
 10
32.9453783196351
 20
9.458752456181346
 30
0.0
 11
32.94987610041414
 21
9.458752456181346
 31
0.0
  0
LINE
  5
364
330
1F
100
AcDbEntity
  8
OBJECT
  6
SLD-Solid
370
    25
100
AcDbLine
 10
21.93198053885606
 20
9.738252456181355
 30
0.0
 11
21.90198053885605
 21
9.633630022866127
 31
0.0
  0
LINE
  5
365
330
1F
100
AcDbEntity
  8
OBJECT
  6
SLD-Solid
370
    25
100
AcDbLine
 10
21.90198053885605
 20
9.46787488949658
 30
0.0
 11
21.93198053885606
 21
9.363252456181351
 31
0.0
  0
LINE
  5
366
330
1F
100
AcDbEntity
  8
OBJECT
  6
SLD-Solid
370
    25
100
AcDbLine
 10
21.95698053885605
 20
9.738252456181353
 30
0.0
 11
21.93198053885606
 21
9.738252456181353
 31
0.0
  0
LINE
  5
367
330
1F
100
AcDbEntity
  8
OBJECT
  6
SLD-Solid
370
    25
100
AcDbLine
 10
21.93198053885606
 20
9.363252456181353
 30
0.0
 11
21.95698053885605
 21
9.363252456181353
 31
0.0
  0
LINE
  5
368
330
1F
100
AcDbEntity
  8
OBJECT
  6
SLD-Solid
370
    25
100
AcDbLine
 10
21.98688053885605
 20
9.458752456181353
 30
0.0
 11
21.99137831963511
 21
9.458752456181353
 31
0.0
  0
LINE
  5
369
330
1F
100
AcDbEntity
  8
OBJECT
  6
SLD-Solid
370
    25
100
AcDbLine
 10
22.06837831963513
 20
9.458752456181353
 30
0.0
 11
22.06955566819374
 21
9.458752456181353
 31
0.0
  0
LINE
  5
36A
330
1F
100
AcDbEntity
  8
OBJECT
  6
SLD-Solid
370
    25
100
AcDbLine
 10
22.06955566819374
 20
9.642752456181354
 30
0.0
 11
22.06837831963513
 21
9.642752456181354
 31
0.0
  0
LINE
  5
36B
330
1F
100
AcDbEntity
  8
OBJECT
  6
SLD-Solid
370
    25
100
AcDbLine
 10
21.99137831963511
 20
9.642752456181354
 30
0.0
 11
21.98688053885605
 21
9.642752456181354
 31
0.0
  0
ARC
  5
36C
330
1F
100
AcDbEntity
  8
OBJECT
  6
SLD-Solid
370
    25
100
AcDbCircle
 10
21.98837831963511
 20
9.322733982080095
 30
0.0
 40
0.0500000000000024
100
AcDbArc
 50
0.0
 51
45.0
  0
ARC
  5
36D
330
1F
100
AcDbEntity
  8
OBJECT
  6
SLD-Solid
370
    25
100
AcDbCircle
 10
32.93837831963511
 20
9.326876117703797
 30
0.0
 40
0.0399999999999991
100
AcDbArc
 50
134.9999999999946
 51
180.0000000000059
  0
LINE
  5
36E
330
1F
100
AcDbEntity
  8
OBJECT
  6
SLD-Solid
370
    25
100
AcDbLine
 10
32.91009404838765
 20
9.35516038895126
 30
0.0
 11
32.93366259088258
 21
9.378728931446188
 31
0.0
  0
LINE
  5
36F
330
1F
100
AcDbEntity
  8
OBJECT
  6
SLD-Solid
370
    25
100
AcDbLine
 10
32.93366259088258
 20
9.722775980916458
 30
0.0
 11
32.93032969173012
 21
9.726108880068917
 31
0.0
  0
LINE
  5
370
330
1F
100
AcDbEntity
  8
OBJECT
  6
SLD-Solid
370
    25
100
AcDbLine
 10
22.00642694754007
 20
9.726108880068917
 30
0.0
 11
22.00602298057578
 21
9.725704913104623
 31
0.0
  0
LINE
  5
371
330
1F
100
AcDbEntity
  8
OBJECT
  6
SLD-Solid
370
    25
100
AcDbLine
 10
22.00602298057578
 20
9.375799999258078
 30
0.0
 11
22.02373365869444
 21
9.358089321139424
 31
0.0
  0
ARC
  5
372
330
1F
100
AcDbEntity
  8
OBJECT
  6
SLD-Solid
370
    25
100
AcDbCircle
 10
22.0413783196351
 20
9.411155338317405
 30
0.0
 40
0.0499999999999972
100
AcDbArc
 50
179.9999999999918
 51
224.9999999999979
  0
ARC
  5
373
330
1F
100
AcDbEntity
  8
OBJECT
  6
SLD-Solid
370
    25
100
AcDbCircle
 10
22.0413783196351
 20
9.690349574045296
 30
0.0
 40
0.0499999999999972
100
AcDbArc
 50
135.0000000000029
 51
180.000000000009
  0
ARC
  5
374
330
1F
100
AcDbEntity
  8
OBJECT
  6
SLD-Solid
370
    25
100
AcDbCircle
 10
32.90537831963511
 20
9.694491709669004
 30
0.0
 40
0.0399999999999991
100
AcDbArc
 50
0.0000000000050889
 51
45.0000000000036
  0
ARC
  5
375
330
1F
100
AcDbEntity
  8
OBJECT
  6
SLD-Solid
370
    25
100
AcDbCircle
 10
32.9053783196351
 20
9.407013202693651
 30
0.0
 40
0.0400000000000063
100
AcDbArc
 50
315.0000000000026
 51
359.999999999993
  0
LINE
  5
376
330
1F
100
AcDbEntity
  8
OBJECT
  6
SLD-Solid
370
    25
100
AcDbLine
 10
32.94577610041414
 20
10.4674403728224
 30
0.0
 11
32.91587610041415
 21
10.4674403728224
 31
0.0
  0
LINE
  5
377
330
1F
100
AcDbEntity
  8
OBJECT
  6
SLD-Solid
370
    25
100
AcDbLine
 10
22.02088053885608
 20
10.46744037282247
 30
0.0
 11
21.99098053885608
 21
10.46744037282247
 31
0.0
  0
LINE
  5
378
330
1F
100
AcDbEntity
  8
OBJECT
  6
SLD-Solid
370
    25
100
AcDbLine
 10
28.07987270030228
 20
22.15169518899668
 30
0.0
 11
28.07987270030228
 21
22.18169518899668
 31
0.0
  0
LINE
  5
379
330
1F
100
AcDbEntity
  8
OBJECT
  6
SLD-Solid
370
    25
100
AcDbLine
 10
27.55735404358586
 20
22.15169518899668
 30
0.0
 11
27.55735404358586
 21
22.18169518899668
 31
0.0
  0
LINE
  5
37A
330
1F
100
AcDbEntity
  8
OBJECT
  6
SLD-Solid
370
    25
100
AcDbLine
 10
27.55735404358586
 20
22.15169518899668
 30
0.0
 11
28.07987270030228
 21
22.15169518899668
 31
0.0
  0
LINE
  5
37B
330
1F
100
AcDbEntity
  8
OBJECT
  6
SLD-Solid
370
    25
100
AcDbLine
 10
27.55735404358586
 20
22.18169518899668
 30
0.0
 11
28.07987270030228
 21
22.18169518899668
 31
0.0
  0
LINE
  5
37C
330
1F
100
AcDbEntity
  8
OBJECT
  6
SLD-Solid
370
    25
100
AcDbLine
 10
27.23987270030227
 20
22.15169518899668
 30
0.0
 11
27.23987270030227
 21
22.18169518899668
 31
0.0
  0
LINE
  5
37D
330
1F
100
AcDbEntity
  8
OBJECT
  6
SLD-Solid
370
    25
100
AcDbLine
 10
27.23987270030227
 20
22.15169518899668
 30
0.0
 11
27.55735404358586
 21
22.15169518899668
 31
0.0
  0
LINE
  5
37E
330
1F
100
AcDbEntity
  8
OBJECT
  6
SLD-Solid
370
    25
100
AcDbLine
 10
27.23987270030227
 20
22.18169518899668
 30
0.0
 11
27.55735404358586
 21
22.18169518899668
 31
0.0
  0
LINE
  5
37F
330
1F
100
AcDbEntity
  8
OBJECT
  6
SLD-Solid
370
    25
100
AcDbLine
 10
27.10587270030227
 20
22.15169518899668
 30
0.0
 11
27.10587270030227
 21
22.18169518899668
 31
0.0
  0
LINE
  5
380
330
1F
100
AcDbEntity
  8
OBJECT
  6
SLD-Solid
370
    25
100
AcDbLine
 10
27.10587270030227
 20
22.15169518899668
 30
0.0
 11
27.23987270030227
 21
22.15169518899668
 31
0.0
  0
LINE
  5
381
330
1F
100
AcDbEntity
  8
OBJECT
  6
SLD-Solid
370
    25
100
AcDbLine
 10
27.10587270030227
 20
22.18169518899668
 30
0.0
 11
27.23987270030227
 21
22.18169518899668
 31
0.0
  0
LINE
  5
382
330
1F
100
AcDbEntity
  8
OBJECT
  6
SLD-Solid
370
    25
100
AcDbLine
 10
26.96712518295366
 20
22.15169518899668
 30
0.0
 11
26.96712518295366
 21
22.18169518899668
 31
0.0
  0
LINE
  5
383
330
1F
100
AcDbEntity
  8
OBJECT
  6
SLD-Solid
370
    25
100
AcDbLine
 10
26.96712518295366
 20
22.15169518899668
 30
0.0
 11
27.10587270030227
 21
22.15169518899668
 31
0.0
  0
LINE
  5
384
330
1F
100
AcDbEntity
  8
OBJECT
  6
SLD-Solid
370
    25
100
AcDbLine
 10
26.96712518295366
 20
22.18169518899668
 30
0.0
 11
27.10587270030227
 21
22.18169518899668
 31
0.0
  0
LINE
  5
385
330
1F
100
AcDbEntity
  8
OBJECT
  6
SLD-Solid
370
    25
100
AcDbLine
 10
26.93911333399128
 20
22.13020094130465
 30
0.0
 11
26.91664322944519
 21
22.04634136948725
 31
0.0
  0
LINE
  5
386
330
1F
100
AcDbEntity
  8
OBJECT
  6
SLD-Solid
370
    25
100
AcDbLine
 10
26.88314958039129
 20
21.92134136948725
 30
0.0
 11
26.88275612947766
 21
21.9198729906873
 31
0.0
  0
LINE
  5
387
330
1F
100
AcDbEntity
  8
OBJECT
  6
SLD-Solid
370
    25
100
AcDbLine
 10
26.91013555920261
 20
22.13796551265773
 30
0.0
 11
26.88558494403289
 21
22.04634136948725
 31
0.0
  0
LINE
  5
388
330
1F
100
AcDbEntity
  8
OBJECT
  6
SLD-Solid
370
    25
100
AcDbLine
 10
26.93911333399128
 20
22.13020094130465
 30
0.0
 11
26.91013555920261
 21
22.13796551265773
 31
0.0
  0
LINE
  5
389
330
1F
100
AcDbEntity
  8
OBJECT
  6
SLD-Solid
370
    25
100
AcDbLine
 10
26.87727606519148
 20
21.92134136948725
 30
0.0
 11
26.88275612947766
 21
21.9198729906873
 31
0.0
  0
ARC
  5
38A
330
1F
100
AcDbEntity
  8
OBJECT
  6
SLD-Solid
370
    25
100
AcDbCircle
 10
26.96712518295366
 20
22.12269518899668
 30
0.0
 40
0.0289999999999999
100
AcDbArc
 50
90.0
 51
164.9999999999976
  0
ARC
  5
38B
330
1F
100
AcDbEntity
  8
OBJECT
  6
SLD-Solid
370
    25
100
AcDbCircle
 10
26.96712518295366
 20
22.12269518899668
 30
0.0
 40
0.0590000000000011
100
AcDbArc
 50
90.0
 51
164.9999999999993
  0
LINE
  5
38C
330
1F
100
AcDbEntity
  8
OBJECT
  6
SLD-Solid
370
    25
100
AcDbLine
 10
27.7479425467184
 20
21.70169518899668
 30
0.0
 11
27.7479425467184
 21
21.80169518899668
 31
0.0
  0
LINE
  5
38D
330
1F
100
AcDbEntity
  8
OBJECT
  6
SLD-Solid
370
    25
100
AcDbLine
 10
27.46837831963516
 20
21.70169518899668
 30
0.0
 11
27.46837831963516
 21
21.80169518899668
 31
0.0
  0
LINE
  5
38E
330
1F
100
AcDbEntity
  8
OBJECT
  6
SLD-Solid
370
    25
100
AcDbLine
 10
27.7479425467184
 20
21.70169518899668
 30
0.0
 11
27.46837831963516
 21
21.70169518899668
 31
0.0
  0
LINE
  5
38F
330
1F
100
AcDbEntity
  8
OBJECT
  6
SLD-Solid
370
    25
100
AcDbLine
 10
27.7479425467184
 20
21.80169518899668
 30
0.0
 11
27.46837831963516
 21
21.80169518899668
 31
0.0
  0
LINE
  5
390
330
1F
100
AcDbEntity
  8
OBJECT
  6
SLD-Solid
370
    25
100
AcDbLine
 10
27.38684282722764
 20
21.80169518899668
 30
0.0
 11
27.38684282722764
 21
21.70169518899668
 31
0.0
  0
LINE
  5
391
330
1F
100
AcDbEntity
  8
OBJECT
  6
SLD-Solid
370
    25
100
AcDbLine
 10
27.46837831963515
 20
21.70169518899668
 30
0.0
 11
27.38684282722764
 21
21.70169518899668
 31
0.0
  0
LINE
  5
392
330
1F
100
AcDbEntity
  8
OBJECT
  6
SLD-Solid
370
    25
100
AcDbLine
 10
27.46837831963515
 20
21.80169518899668
 30
0.0
 11
27.38684282722764
 21
21.80169518899668
 31
0.0
  0
LINE
  5
393
330
1F
100
AcDbEntity
  8
OBJECT
  6
SLD-Solid
370
    25
100
AcDbLine
 10
27.15330897223437
 20
21.80169518899668
 30
0.0
 11
27.15330897223437
 21
21.70169518899668
 31
0.0
  0
LINE
  5
394
330
1F
100
AcDbEntity
  8
OBJECT
  6
SLD-Solid
370
    25
100
AcDbLine
 10
27.38684282722764
 20
21.70169518899668
 30
0.0
 11
27.15330897223437
 21
21.70169518899668
 31
0.0
  0
LINE
  5
395
330
1F
100
AcDbEntity
  8
OBJECT
  6
SLD-Solid
370
    25
100
AcDbLine
 10
27.38684282722764
 20
21.80169518899668
 30
0.0
 11
27.15330897223437
 21
21.80169518899668
 31
0.0
  0
LINE
  5
396
330
1F
100
AcDbEntity
  8
OBJECT
  6
SLD-Solid
370
    25
100
AcDbLine
 10
27.78837831963515
 20
21.80169518899668
 30
0.0
 11
27.78837831963515
 21
21.70169518899668
 31
0.0
  0
LINE
  5
397
330
1F
100
AcDbEntity
  8
OBJECT
  6
SLD-Solid
370
    25
100
AcDbLine
 10
27.78837831963515
 20
21.70169518899668
 30
0.0
 11
27.7479425467184
 21
21.70169518899668
 31
0.0
  0
LINE
  5
398
330
1F
100
AcDbEntity
  8
OBJECT
  6
SLD-Solid
370
    25
100
AcDbLine
 10
27.7479425467184
 20
21.80169518899668
 30
0.0
 11
27.78837831963515
 21
21.80169518899668
 31
0.0
  0
LINE
  5
399
330
1F
100
AcDbEntity
  8
OBJECT
  6
SLD-Solid
370
    25
100
AcDbLine
 10
27.14837831963516
 20
21.70169518899668
 30
0.0
 11
27.14837831963516
 21
21.80169518899668
 31
0.0
  0
LINE
  5
39A
330
1F
100
AcDbEntity
  8
OBJECT
  6
SLD-Solid
370
    25
100
AcDbLine
 10
27.15330897223437
 20
21.70169518899668
 30
0.0
 11
27.14837831963516
 21
21.70169518899668
 31
0.0
  0
LINE
  5
39B
330
1F
100
AcDbEntity
  8
OBJECT
  6
SLD-Solid
370
    25
100
AcDbLine
 10
27.14837831963516
 20
21.80169518899668
 30
0.0
 11
27.15330897223437
 21
21.80169518899668
 31
0.0
  0
LINE
  5
39C
330
1F
100
AcDbEntity
  8
OBJECT
  6
SLD-Solid
370
    25
100
AcDbLine
 10
27.01837831963516
 20
22.23169518899668
 30
0.0
 11
27.01837831963516
 21
22.26069518899668
 31
0.0
  0
LINE
  5
39D
330
1F
100
AcDbEntity
  8
OBJECT
  6
SLD-Solid
370
    25
100
AcDbLine
 10
27.02315731179619
 20
22.26069518899668
 30
0.0
 11
27.02315731179619
 21
22.23169518899668
 31
0.0
  0
LINE
  5
39E
330
1F
100
AcDbEntity
  8
OBJECT
  6
SLD-Solid
370
    25
100
AcDbLine
 10
27.02315731179619
 20
22.26069518899668
 30
0.0
 11
27.01837831963516
 21
22.26069518899668
 31
0.0
  0
LINE
  5
39F
330
1F
100
AcDbEntity
  8
OBJECT
  6
SLD-Solid
370
    25
100
AcDbLine
 10
27.46837831963516
 20
22.48169518899668
 30
0.0
 11
27.86837831963516
 21
22.48169518899668
 31
0.0
  0
LINE
  5
3A0
330
1F
100
AcDbEntity
  8
OBJECT
  6
SLD-Solid
370
    25
100
AcDbLine
 10
27.06837831963515
 20
22.48169518899668
 30
0.0
 11
27.46837831963516
 21
22.48169518899668
 31
0.0
  0
LINE
  5
3A1
330
1F
100
AcDbEntity
  8
OBJECT
  6
SLD-Solid
370
    25
100
AcDbLine
 10
27.78087831963516
 20
22.04634136948725
 30
0.0
 11
27.78087831963516
 21
22.15169518899668
 31
0.0
  0
LINE
  5
3A2
330
1F
100
AcDbEntity
  8
OBJECT
  6
SLD-Solid
370
    25
100
AcDbLine
 10
27.78087831963516
 20
22.18169518899668
 30
0.0
 11
27.78087831963516
 21
22.20179518899677
 31
0.0
  0
LINE
  5
3A3
330
1F
100
AcDbEntity
  8
OBJECT
  6
SLD-Solid
370
    25
100
AcDbLine
 10
27.15587831963516
 20
22.04634136948725
 30
0.0
 11
27.15587831963516
 21
22.15169518899668
 31
0.0
  0
LINE
  5
3A4
330
1F
100
AcDbEntity
  8
OBJECT
  6
SLD-Solid
370
    25
100
AcDbLine
 10
27.15587831963516
 20
22.18169518899668
 30
0.0
 11
27.15587831963516
 21
22.20179518899677
 31
0.0
  0
LINE
  5
3A5
330
1F
100
AcDbEntity
  8
OBJECT
  6
SLD-Solid
370
    25
100
AcDbLine
 10
27.30187831963515
 20
22.18169518899668
 30
0.0
 11
27.30187831963515
 21
22.20179518899677
 31
0.0
  0
LINE
  5
3A6
330
1F
100
AcDbEntity
  8
OBJECT
  6
SLD-Solid
370
    25
100
AcDbLine
 10
27.63487831963516
 20
22.20179518899677
 30
0.0
 11
27.63487831963516
 21
22.18169518899668
 31
0.0
  0
LINE
  5
3A7
330
1F
100
AcDbEntity
  8
OBJECT
  6
SLD-Solid
370
    25
100
AcDbLine
 10
27.78087831963516
 20
21.80169518899668
 30
0.0
 11
27.78087831963516
 21
21.92134136948725
 31
0.0
  0
LINE
  5
3A8
330
1F
100
AcDbEntity
  8
OBJECT
  6
SLD-Solid
370
    25
100
AcDbLine
 10
27.15587831963516
 20
21.80169518899668
 30
0.0
 11
27.15587831963516
 21
21.92134136948725
 31
0.0
  0
LINE
  5
3A9
330
1F
100
AcDbEntity
  8
OBJECT
  6
SLD-Solid
370
    25
100
AcDbLine
 10
32.80920097107649
 20
21.41930582854985
 30
0.0
 11
32.80920097107649
 21
9.309963246478445
 31
0.0
  0
SPLINE
  5
3AA
330
1F
100
AcDbEntity
  8
OBJECT
  6
SLD-Solid
370
    25
100
AcDbSpline
210
0.0
220
0.0
230
1.0
 70
    12
 71
     3
 72
    11
 73
     7
 74
     0
 42
0.00000001
 43
0.00000001
 40
0.0
 40
0.0
 40
0.0
 40
0.0
 40
0.2500000000000724
 40
0.5000000000001231
 40
0.750000000000167
 40
1.0
 40
1.0
 40
1.0
 40
1.0
 10
32.80920097107649
 20
21.41930582854985
 30
0.0
 41
1.0
 10
32.81680111961725
 20
21.41422226555773
 30
0.0
 41
1.0
 10
32.83200141669877
 20
21.40405513957348
 30
0.0
 41
1.0
 10
32.8511730230504
 20
21.38880445059711
 30
0.0
 41
1.0
 10
32.86458547741149
 20
21.37355376162074
 30
0.0
 41
1.0
 10
32.86632913985483
 20
21.36338663563648
 30
0.0
 41
1.0
 10
32.86720097107649
 20
21.35830307264436
 30
0.0
 41
1.0
  0
LINE
  5
3AB
330
1F
100
AcDbEntity
  8
OBJECT
  6
SLD-Solid
370
    25
100
AcDbLine
 10
32.86720097107649
 20
21.35830307264436
 30
0.0
 11
32.86720097107649
 21
9.309963246478448
 31
0.0
  0
LINE
  5
3AC
330
1F
100
AcDbEntity
  8
OBJECT
  6
SLD-Solid
370
    25
100
AcDbLine
 10
32.86720097107649
 20
9.309963246478448
 30
0.0
 11
32.80920097107649
 21
9.309963246478445
 31
0.0
  0
ARC
  5
3AD
330
1F
100
AcDbEntity
  8
OBJECT
  6
SLD-Solid
370
    25
100
AcDbCircle
 10
31.4683783196351
 20
19.80996324647844
 30
0.0
 40
0.0999999999999979
100
AcDbArc
 50
0.0000000000086511
 51
180.0
  0
LINE
  5
3AE
330
1F
100
AcDbEntity
  8
OBJECT
  6
SLD-Solid
370
    25
100
AcDbLine
 10
31.36837831963511
 20
19.80996324647844
 30
0.0
 11
31.3683783196351
 21
19.59929109724744
 31
0.0
  0
ARC
  5
3AF
330
1F
100
AcDbEntity
  8
OBJECT
  6
SLD-Solid
370
    25
100
AcDbCircle
 10
31.46837831963533
 20
19.45996324647828
 30
0.0
 40
0.171500000000005
100
AcDbArc
 50
125.668198293626
 51
54.33180170656494
  0
LINE
  5
3B0
330
1F
100
AcDbEntity
  8
OBJECT
  6
SLD-Solid
370
    25
100
AcDbLine
 10
31.5683783196351
 20
19.59929109724777
 30
0.0
 11
31.5683783196351
 21
19.80996324647844
 31
0.0
  0
CIRCLE
  5
3B1
330
1F
100
AcDbEntity
  8
OBJECT
  6
SLD-Solid
370
    25
100
AcDbCircle
 10
31.46837831963509
 20
11.80996324647844
 30
0.0
 40
0.1000000000000085
  0
LINE
  5
3B2
330
1F
100
AcDbEntity
  8
OBJECT
  6
SLD-Solid
370
    25
100
AcDbLine
 10
22.13026276363429
 20
21.42172264622738
 30
0.0
 11
22.94515501493172
 21
22.23661489752484
 31
0.0
  0
ARC
  5
3B3
330
1F
100
AcDbEntity
  8
OBJECT
  6
SLD-Solid
370
    25
100
AcDbCircle
 10
23.12193171022836
 20
22.05983820222821
 30
0.0
 40
0.2500000000000036
100
AcDbArc
 50
90.0
 51
135.0000000000011
  0
LINE
  5
3B4
330
1F
100
AcDbEntity
  8
OBJECT
  6
SLD-Solid
370
    25
100
AcDbLine
 10
23.12193171022836
 20
22.30983820222821
 30
0.0
 11
23.9683783196351
 21
22.30983820222821
 31
0.0
  0
ARC
  5
3B5
330
1F
100
AcDbEntity
  8
OBJECT
  6
SLD-Solid
370
    25
100
AcDbCircle
 10
23.96837831963509
 20
22.05983820222821
 30
0.0
 40
0.2500000000000036
100
AcDbArc
 50
0.0000000000016411
 51
89.99999999999837
  0
LINE
  5
3B6
330
1F
100
AcDbEntity
  8
OBJECT
  6
SLD-Solid
370
    25
100
AcDbLine
 10
24.21837831963509
 20
22.05983820222821
 30
0.0
 11
24.21837831963509
 21
21.35983820222822
 31
0.0
  0
LINE
  5
3B7
330
1F
100
AcDbEntity
  8
OBJECT
  6
SLD-Solid
370
    25
100
AcDbLine
 10
24.21837831963509
 20
21.35983820222822
 30
0.0
 11
24.4683783196351
 21
21.35983820222822
 31
0.0
  0
LINE
  5
3B8
330
1F
100
AcDbEntity
  8
OBJECT
  6
SLD-Solid
370
    25
100
AcDbLine
 10
24.4683783196351
 20
21.35983820222822
 30
0.0
 11
24.4683783196351
 21
21.38050618959505
 31
0.0
  0
LINE
  5
3B9
330
1F
100
AcDbEntity
  8
OBJECT
  6
SLD-Solid
370
    25
100
AcDbLine
 10
30.4683783196351
 20
21.38050618959505
 30
0.0
 11
24.4683783196351
 21
21.38050618959505
 31
0.0
  0
LINE
  5
3BA
330
1F
100
AcDbEntity
  8
OBJECT
  6
SLD-Solid
370
    25
100
AcDbLine
 10
30.4683783196351
 20
21.35983820222822
 30
0.0
 11
30.4683783196351
 21
21.38050618959505
 31
0.0
  0
LINE
  5
3BB
330
1F
100
AcDbEntity
  8
OBJECT
  6
SLD-Solid
370
    25
100
AcDbLine
 10
30.71837831963511
 20
21.35983820222822
 30
0.0
 11
30.4683783196351
 21
21.35983820222822
 31
0.0
  0
LINE
  5
3BC
330
1F
100
AcDbEntity
  8
OBJECT
  6
SLD-Solid
370
    25
100
AcDbLine
 10
30.71837831963511
 20
22.05983820222821
 30
0.0
 11
30.71837831963511
 21
21.35983820222822
 31
0.0
  0
ARC
  5
3BD
330
1F
100
AcDbEntity
  8
OBJECT
  6
SLD-Solid
370
    25
100
AcDbCircle
 10
30.96837831963511
 20
22.05983820222821
 30
0.0
 40
0.25
100
AcDbArc
 50
90.00000000000325
 51
179.9999999999984
  0
LINE
  5
3BE
330
1F
100
AcDbEntity
  8
OBJECT
  6
SLD-Solid
370
    25
100
AcDbLine
 10
31.81482492904183
 20
22.30983820222821
 30
0.0
 11
30.9683783196351
 21
22.30983820222821
 31
0.0
  0
ARC
  5
3BF
330
1F
100
AcDbEntity
  8
OBJECT
  6
SLD-Solid
370
    25
100
AcDbCircle
 10
31.81482492904184
 20
22.05983820222821
 30
0.0
 40
0.2500000000000036
100
AcDbArc
 50
45.0
 51
90.00000000000325
  0
LINE
  5
3C0
330
1F
100
AcDbEntity
  8
OBJECT
  6
SLD-Solid
370
    25
100
AcDbLine
 10
32.80649387563595
 20
21.42172264622738
 30
0.0
 11
31.99160162433848
 21
22.23661489752484
 31
0.0
  0
LINE
  5
3C1
330
1F
100
AcDbEntity
  8
OBJECT
  6
SLD-Solid
370
    25
100
AcDbLine
 10
32.80920097107649
 20
21.41930582854985
 30
0.0
 11
32.80649387563595
 21
21.42172264622738
 31
0.0
  0
LINE
  5
3C2
330
1F
100
AcDbEntity
  8
OBJECT
  6
SLD-Solid
370
    25
100
AcDbLine
 10
32.80920097107649
 20
9.309963246478445
 30
0.0
 11
22.12755566819375
 21
9.309963246478445
 31
0.0
  0
LINE
  5
3C3
330
1F
100
AcDbEntity
  8
OBJECT
  6
SLD-Solid
370
    25
100
AcDbLine
 10
22.12755566819375
 20
21.41930582854985
 30
0.0
 11
22.12755566819375
 21
9.309963246478445
 31
0.0
  0
LINE
  5
3C4
330
1F
100
AcDbEntity
  8
OBJECT
  6
SLD-Solid
370
    25
100
AcDbLine
 10
22.12755566819375
 20
21.41930582854985
 30
0.0
 11
22.13026276363429
 21
21.42172264622738
 31
0.0
  0
ARC
  5
3C5
330
1F
100
AcDbEntity
  8
OBJECT
  6
SLD-Solid
370
    25
100
AcDbCircle
 10
23.46837831963487
 20
19.45996324647828
 30
0.0
 40
0.1715000000000008
100
AcDbArc
 50
125.668198293436
 51
54.33180170637591
  0
LINE
  5
3C6
330
1F
100
AcDbEntity
  8
OBJECT
  6
SLD-Solid
370
    25
100
AcDbLine
 10
23.56837831963509
 20
19.80996324647844
 30
0.0
 11
23.56837831963509
 21
19.59929109724744
 31
0.0
  0
ARC
  5
3C7
330
1F
100
AcDbEntity
  8
OBJECT
  6
SLD-Solid
370
    25
100
AcDbCircle
 10
23.4683783196351
 20
19.80996324647844
 30
0.0
 40
0.0999999999999979
100
AcDbArc
 50
0.0000000000086511
 51
180.0
  0
LINE
  5
3C8
330
1F
100
AcDbEntity
  8
OBJECT
  6
SLD-Solid
370
    25
100
AcDbLine
 10
23.3683783196351
 20
19.59929109724777
 30
0.0
 11
23.3683783196351
 21
19.80996324647844
 31
0.0
  0
CIRCLE
  5
3C9
330
1F
100
AcDbEntity
  8
OBJECT
  6
SLD-Solid
370
    25
100
AcDbCircle
 10
23.4683783196351
 20
11.80996324647844
 30
0.0
 40
0.1000000000000014
  0
LINE
  5
3CA
330
1F
100
AcDbEntity
  8
OBJECT
  6
SLD-Solid
370
    25
100
AcDbLine
 10
22.06955566819375
 20
21.35830307264436
 30
0.0
 11
22.06955566819375
 21
9.309963246478448
 31
0.0
  0
SPLINE
  5
3CB
330
1F
100
AcDbEntity
  8
OBJECT
  6
SLD-Solid
370
    25
100
AcDbSpline
210
0.0
220
0.0
230
1.0
 70
    12
 71
     3
 72
    11
 73
     7
 74
     0
 42
0.00000001
 43
0.00000001
 40
0.0
 40
0.0
 40
0.0
 40
0.0
 40
0.2500000000000412
 40
0.5000000000000631
 40
0.7500000000000826
 40
1.0
 40
1.0
 40
1.0
 40
1.0
 10
22.12755566819375
 20
21.41930582854985
 30
0.0
 41
1.0
 10
22.11995551965299
 20
21.41422226555773
 30
0.0
 41
1.0
 10
22.10475522257146
 20
21.40405513957348
 30
0.0
 41
1.0
 10
22.08558361621984
 20
21.38880445059711
 30
0.0
 41
1.0
 10
22.07217116185874
 20
21.37355376162074
 30
0.0
 41
1.0
 10
22.07042749941541
 20
21.36338663563648
 30
0.0
 41
1.0
 10
22.06955566819375
 20
21.35830307264436
 30
0.0
 41
1.0
  0
LINE
  5
3CC
330
1F
100
AcDbEntity
  8
OBJECT
  6
SLD-Solid
370
    25
100
AcDbLine
 10
22.06955566819375
 20
9.309963246478448
 30
0.0
 11
22.12755566819375
 21
9.309963246478445
 31
0.0
  0
LINE
  5
3CD
330
1F
100
AcDbEntity
  8
OBJECT
  6
SLD-Solid
370
    25
100
AcDbLine
 10
30.46837831963511
 20
21.43850618959505
 30
0.0
 11
24.46837831963514
 21
21.43850618959505
 31
0.0
  0
LINE
  5
3CE
330
1F
100
AcDbEntity
  8
OBJECT
  6
SLD-Solid
370
    25
100
AcDbLine
 10
30.46837831963511
 20
21.43850618959505
 30
0.0
 11
30.4683783196351
 21
21.38050618959505
 31
0.0
  0
LINE
  5
3CF
330
1F
100
AcDbEntity
  8
OBJECT
  6
SLD-Solid
370
    25
100
AcDbLine
 10
24.46837831963514
 20
21.43850618959505
 30
0.0
 11
24.4683783196351
 21
21.38050618959505
 31
0.0
  0
LINE
  5
3D0
330
1F
100
AcDbEntity
  8
OBJECT
  6
SLD-Solid
370
    25
100
AcDbLine
 10
24.46837831963512
 20
21.46750618959505
 30
0.0
 11
24.46837831963512
 21
21.43850618959505
 31
0.0
  0
LINE
  5
3D1
330
1F
100
AcDbEntity
  8
OBJECT
  6
SLD-Solid
370
    25
100
AcDbLine
 10
24.46837831963512
 20
21.46750618959505
 30
0.0
 11
30.4683783196351
 21
21.46750618959505
 31
0.0
  0
LINE
  5
3D2
330
1F
100
AcDbEntity
  8
OBJECT
  6
SLD-Solid
370
    25
100
AcDbLine
 10
30.4683783196351
 20
21.46750618959505
 30
0.0
 11
30.4683783196351
 21
21.43850618959505
 31
0.0
  0
LINE
  5
3D3
330
1F
100
AcDbEntity
  8
OBJECT
  6
SLD-Solid
370
    25
100
AcDbLine
 10
28.1863783196351
 20
21.92134136948725
 30
0.0
 11
27.59337831963509
 21
21.92134136948725
 31
0.0
  0
LINE
  5
3D4
330
1F
100
AcDbEntity
  8
OBJECT
  6
SLD-Solid
370
    25
100
AcDbLine
 10
27.59337831963509
 20
21.92134136948725
 30
0.0
 11
27.59337831963509
 21
21.80169518899668
 31
0.0
  0
LINE
  5
3D5
330
1F
100
AcDbEntity
  8
OBJECT
  6
SLD-Solid
370
    25
100
AcDbLine
 10
27.59337831963509
 20
21.70169518899668
 30
0.0
 11
27.5933783196351
 21
21.60834136948726
 31
0.0
  0
LINE
  5
3D6
330
1F
100
AcDbEntity
  8
OBJECT
  6
SLD-Solid
370
    25
100
AcDbLine
 10
27.5933783196351
 20
21.60834136948726
 30
0.0
 11
28.1863783196351
 21
21.60834136948726
 31
0.0
  0
LINE
  5
3D7
330
1F
100
AcDbEntity
  8
OBJECT
  6
SLD-Solid
370
    25
100
AcDbLine
 10
28.1863783196351
 20
21.60834136948726
 30
0.0
 11
28.1863783196351
 21
21.92134136948725
 31
0.0
  0
ARC
  5
3D8
330
1F
100
AcDbEntity
  8
OBJECT
  6
SLD-Solid
370
    25
100
AcDbCircle
 10
24.71837831963512
 20
21.79634136948725
 30
0.0
 40
0.2500000000000036
100
AcDbArc
 50
90.0
 51
179.9999999999997
  0
LINE
  5
3D9
330
1F
100
AcDbEntity
  8
OBJECT
  6
SLD-Solid
370
    25
100
AcDbLine
 10
24.71837831963512
 20
22.04634136948725
 30
0.0
 11
30.21837831963511
 21
22.04634136948725
 31
0.0
  0
LINE
  5
3DA
330
1F
100
AcDbEntity
  8
OBJECT
  6
SLD-Solid
370
    25
100
AcDbLine
 10
30.4683783196351
 20
21.46750618959505
 30
0.0
 11
30.46837831963511
 21
21.79634136948725
 31
0.0
  0
LINE
  5
3DB
330
1F
100
AcDbEntity
  8
OBJECT
  6
SLD-Solid
370
    25
100
AcDbLine
 10
24.46837831963512
 20
21.46750618959505
 30
0.0
 11
24.46837831963512
 21
21.79634136948725
 31
0.0
  0
LINE
  5
3DC
330
1F
100
AcDbEntity
  8
OBJECT
  6
SLD-Solid
370
    25
100
AcDbLine
 10
27.34337831963511
 20
21.60834136948726
 30
0.0
 11
26.75037831963511
 21
21.60834136948726
 31
0.0
  0
LINE
  5
3DD
330
1F
100
AcDbEntity
  8
OBJECT
  6
SLD-Solid
370
    25
100
AcDbLine
 10
27.34337831963512
 20
21.92134136948725
 30
0.0
 11
27.34337831963511
 21
21.80169518899668
 31
0.0
  0
LINE
  5
3DE
330
1F
100
AcDbEntity
  8
OBJECT
  6
SLD-Solid
370
    25
100
AcDbLine
 10
27.34337831963511
 20
21.70169518899668
 30
0.0
 11
27.34337831963511
 21
21.60834136948726
 31
0.0
  0
LINE
  5
3DF
330
1F
100
AcDbEntity
  8
OBJECT
  6
SLD-Solid
370
    25
100
AcDbLine
 10
26.75037831963511
 20
21.92134136948725
 30
0.0
 11
27.34337831963512
 21
21.92134136948725
 31
0.0
  0
LINE
  5
3E0
330
1F
100
AcDbEntity
  8
OBJECT
  6
SLD-Solid
370
    25
100
AcDbLine
 10
26.75037831963511
 20
21.60834136948726
 30
0.0
 11
26.75037831963511
 21
21.92134136948725
 31
0.0
  0
ARC
  5
3E1
330
1F
100
AcDbEntity
  8
OBJECT
  6
SLD-Solid
370
    25
100
AcDbCircle
 10
30.21837831963511
 20
21.79634136948725
 30
0.0
 40
0.2500000000000036
100
AcDbArc
 50
0.0
 51
90.0
  0
LINE
  5
3E2
330
1F
100
AcDbEntity
  8
OBJECT
  6
SLD-Solid
370
    25
100
AcDbLine
 10
33.03477610041417
 20
9.633630022866118
 30
0.0
 11
33.03477610041417
 21
9.467874889496573
 31
0.0
  0
LINE
  5
3E3
330
1F
100
AcDbEntity
  8
OBJECT
  6
SLD-Solid
370
    25
100
AcDbLine
 10
33.00477610041417
 20
9.363252456181343
 30
0.0
 11
33.00477610041417
 21
9.738252456181348
 31
0.0
  0
LINE
  5
3E4
330
1F
100
AcDbEntity
  8
OBJECT
  6
SLD-Solid
370
    25
100
AcDbLine
 10
21.90198053885605
 20
9.560091826198562
 30
0.0
 11
21.90198053885605
 21
9.633630022866127
 31
0.0
  0
LINE
  5
3E5
330
1F
100
AcDbEntity
  8
OBJECT
  6
SLD-Solid
370
    25
100
AcDbLine
 10
21.90198053885605
 20
9.46787488949658
 30
0.0
 11
21.90198053885605
 21
9.560091826198562
 31
0.0
  0
LINE
  5
3E6
330
1F
100
AcDbEntity
  8
OBJECT
  6
SLD-Solid
370
    25
100
AcDbLine
 10
21.93198053885606
 20
9.571881598219115
 30
0.0
 11
21.93198053885606
 21
9.363252456181351
 31
0.0
  0
LINE
  5
3E7
330
1F
100
AcDbEntity
  8
OBJECT
  6
SLD-Solid
370
    25
100
AcDbLine
 10
21.93198053885606
 20
9.738252456181355
 30
0.0
 11
21.93198053885606
 21
9.571881598219115
 31
0.0
  0
LINE
  5
3E8
330
1F
100
AcDbEntity
  8
OBJECT
  6
SLD-Solid
370
    25
100
AcDbLine
 10
32.86837831963516
 20
9.239792970697055
 30
0.0
 11
32.89837831963516
 21
9.239792970697058
 31
0.0
  0
LINE
  5
3E9
330
1F
100
AcDbEntity
  8
OBJECT
  6
SLD-Solid
370
    25
100
AcDbLine
 10
32.86837831963516
 20
10.93979297069706
 30
0.0
 11
32.89837831963516
 21
10.93979297069706
 31
0.0
  0
LINE
  5
3EA
330
1F
100
AcDbEntity
  8
OBJECT
  6
SLD-Solid
370
    25
100
AcDbLine
 10
32.86837831963516
 20
9.239792970697055
 30
0.0
 11
32.86837831963516
 21
10.93979297069706
 31
0.0
  0
LINE
  5
3EB
330
1F
100
AcDbEntity
  8
OBJECT
  6
SLD-Solid
370
    25
100
AcDbLine
 10
32.89837831963516
 20
9.239792970697058
 30
0.0
 11
32.89837831963516
 21
10.93979297069706
 31
0.0
  0
LINE
  5
3EC
330
1F
100
AcDbEntity
  8
OBJECT
  6
SLD-Solid
370
    25
100
AcDbLine
 10
22.06837831963513
 20
9.239792970697083
 30
0.0
 11
22.03837831963514
 21
9.239792970697083
 31
0.0
  0
LINE
  5
3ED
330
1F
100
AcDbEntity
  8
OBJECT
  6
SLD-Solid
370
    25
100
AcDbLine
 10
22.06837831963512
 20
10.93979297069708
 30
0.0
 11
22.03837831963512
 21
10.93979297069708
 31
0.0
  0
LINE
  5
3EE
330
1F
100
AcDbEntity
  8
OBJECT
  6
SLD-Solid
370
    25
100
AcDbLine
 10
22.03837831963514
 20
9.239792970697083
 30
0.0
 11
22.03837831963512
 21
10.93979297069708
 31
0.0
  0
LINE
  5
3EF
330
1F
100
AcDbEntity
  8
OBJECT
  6
SLD-Solid
370
    25
100
AcDbLine
 10
22.06837831963513
 20
9.239792970697083
 30
0.0
 11
22.06837831963512
 21
10.93979297069708
 31
0.0
  0
LINE
  5
3F0
330
1F
100
AcDbEntity
  8
OBJECT
  6
SLD-Solid
370
    25
100
AcDbLine
 10
32.80837831963511
 20
9.19204060656722
 30
0.0
 11
22.12837831963513
 21
9.192040606567243
 31
0.0
  0
LINE
  5
3F1
330
1F
100
AcDbEntity
  8
OBJECT
  6
SLD-Solid
370
    25
100
AcDbLine
 10
22.12837831963513
 20
9.192040606567243
 30
0.0
 11
22.12837831963512
 21
9.309963246478445
 31
0.0
  0
LINE
  5
3F2
330
1F
100
AcDbEntity
  8
OBJECT
  6
SLD-Solid
370
    25
100
AcDbLine
 10
32.80837831963511
 20
9.309963246478445
 30
0.0
 11
32.80837831963511
 21
9.19204060656722
 31
0.0
  0
LINE
  5
3F3
330
1F
100
AcDbEntity
  8
OBJECT
  6
SLD-Solid
370
    25
100
AcDbLine
 10
32.80837831963511
 20
9.112040606567218
 30
0.0
 11
32.89837831963511
 21
9.112040606567222
 31
0.0
  0
LINE
  5
3F4
330
1F
100
AcDbEntity
  8
OBJECT
  6
SLD-Solid
370
    25
100
AcDbLine
 10
32.89837831963511
 20
9.112040606567222
 30
0.0
 11
32.89837831963514
 21
8.787040606567226
 31
0.0
  0
LINE
  5
3F5
330
1F
100
AcDbEntity
  8
OBJECT
  6
SLD-Solid
370
    25
100
AcDbLine
 10
32.89837831963514
 20
8.787040606567226
 30
0.0
 11
22.03837831963514
 21
8.78704060656725
 31
0.0
  0
LINE
  5
3F6
330
1F
100
AcDbEntity
  8
OBJECT
  6
SLD-Solid
370
    25
100
AcDbLine
 10
22.03837831963513
 20
9.112040606567264
 30
0.0
 11
22.03837831963514
 21
8.78704060656725
 31
0.0
  0
LINE
  5
3F7
330
1F
100
AcDbEntity
  8
OBJECT
  6
SLD-Solid
370
    25
100
AcDbLine
 10
22.03837831963513
 20
9.112040606567264
 30
0.0
 11
22.12837831963513
 21
9.11204060656726
 31
0.0
  0
LINE
  5
3F8
330
1F
100
AcDbEntity
  8
OBJECT
  6
SLD-Solid
370
    25
100
AcDbLine
 10
22.12837831963513
 20
9.11204060656726
 30
0.0
 11
22.12837831963513
 21
9.192040606567243
 31
0.0
  0
LINE
  5
3F9
330
1F
100
AcDbEntity
  8
OBJECT
  6
SLD-Solid
370
    25
100
AcDbLine
 10
32.80837831963511
 20
9.19204060656722
 30
0.0
 11
32.80837831963511
 21
9.112040606567218
 31
0.0
  0
LINE
  5
3FA
330
1F
100
AcDbEntity
  8
OBJECT
  6
SLD-Solid
370
    25
100
AcDbLine
 10
32.86837831963512
 20
9.112040606567275
 30
0.0
 11
32.86837831963516
 21
9.239792970697055
 31
0.0
  0
LINE
  5
3FB
330
1F
100
AcDbEntity
  8
OBJECT
  6
SLD-Solid
370
    25
100
AcDbLine
 10
32.89837831963512
 20
9.112040606567275
 30
0.0
 11
32.89837831963516
 21
9.239792970697058
 31
0.0
  0
LINE
  5
3FC
330
1F
100
AcDbEntity
  8
OBJECT
  6
SLD-Solid
370
    25
100
AcDbLine
 10
22.03837831963513
 20
9.112040606567264
 30
0.0
 11
22.03837831963514
 21
9.239792970697083
 31
0.0
  0
LINE
  5
3FD
330
1F
100
AcDbEntity
  8
OBJECT
  6
SLD-Solid
370
    25
100
AcDbLine
 10
22.06837831963512
 20
9.112040606567314
 30
0.0
 11
22.06837831963513
 21
9.239792970697083
 31
0.0
  0
LINE
  5
3FE
330
1F
100
AcDbEntity
  8
OBJECT
  6
SLD-Solid
370
    25
100
AcDbLine
 10
32.89837831963516
 20
11.03979297069706
 30
0.0
 11
32.86837831963516
 21
11.03979297069706
 31
0.0
  0
LINE
  5
3FF
330
1F
100
AcDbEntity
  8
OBJECT
  6
SLD-Solid
370
    25
100
AcDbLine
 10
32.86837831963516
 20
11.03979297069706
 30
0.0
 11
32.86837831963516
 21
10.93979297069706
 31
0.0
  0
LINE
  5
400
330
1F
100
AcDbEntity
  8
OBJECT
  6
SLD-Solid
370
    25
100
AcDbLine
 10
32.89837831963516
 20
10.93979297069706
 30
0.0
 11
32.89837831963516
 21
11.03979297069706
 31
0.0
  0
LINE
  5
401
330
1F
100
AcDbEntity
  8
OBJECT
  6
SLD-Solid
370
    25
100
AcDbLine
 10
22.03837831963512
 20
11.03979297069709
 30
0.0
 11
22.06837831963512
 21
11.03979297069709
 31
0.0
  0
LINE
  5
402
330
1F
100
AcDbEntity
  8
OBJECT
  6
SLD-Solid
370
    25
100
AcDbLine
 10
22.03837831963512
 20
10.93979297069708
 30
0.0
 11
22.03837831963512
 21
11.03979297069709
 31
0.0
  0
LINE
  5
403
330
1F
100
AcDbEntity
  8
OBJECT
  6
SLD-Solid
370
    25
100
AcDbLine
 10
22.06837831963512
 20
11.03979297069709
 30
0.0
 11
22.06837831963512
 21
10.93979297069708
 31
0.0
  0
LWPOLYLINE
  5
404
330
1F
100
AcDbEntity
  8
OBJECT
  6
SLD-Solid
370
    25
100
AcDbPolyline
 90
        3
 70
   128
 43
0.0
 10
32.86720097107647
 20
9.919935278175293
 10
32.8678210927668
 20
9.922119071010082
 10
32.86837831963511
 20
9.927018713082132
  0
LWPOLYLINE
  5
405
330
1F
100
AcDbEntity
  8
OBJECT
  6
SLD-Solid
370
    25
100
AcDbPolyline
 90
        3
 70
   128
 43
0.0
 10
22.06955566819373
 20
9.919935278175416
 10
22.06893554650343
 20
9.922119071010108
 10
22.06837831963512
 20
9.927018713082164
  0
LINE
  5
406
330
1F
100
AcDbEntity
  8
OBJECT
  6
SLD-Solid
370
    25
100
AcDbLine
 10
21.99137831963511
 20
9.411155338317405
 30
0.0
 11
21.99137831963511
 21
9.690349574045294
 31
0.0
  0
LINE
  5
407
330
1F
100
AcDbEntity
  8
OBJECT
  6
SLD-Solid
370
    25
100
AcDbLine
 10
32.94537831963511
 20
9.675234301222662
 30
0.0
 11
32.94537831963511
 21
9.407013202693648
 31
0.0
  0
LINE
  5
408
330
1F
100
AcDbEntity
  8
OBJECT
  6
SLD-Solid
370
    25
100
AcDbLine
 10
32.94537831963511
 20
9.694491709669
 30
0.0
 11
32.94537831963511
 21
9.675234301222662
 31
0.0
  0
LINE
  5
409
330
1F
100
AcDbEntity
  8
OBJECT
  6
SLD-Solid
370
    25
100
AcDbLine
 10
32.89837831963511
 20
11.03979297069706
 30
0.0
 11
32.89837831963511
 21
11.05060982594888
 31
0.0
  0
LINE
  5
40A
330
1F
100
AcDbEntity
  8
OBJECT
  6
SLD-Solid
370
    25
100
AcDbLine
 10
22.03837831963511
 20
11.03979297069709
 30
0.0
 11
22.03837831963513
 21
11.0506098259489
 31
0.0
  0
LINE
  5
40B
330
1F
100
AcDbEntity
  8
OBJECT
  6
SLD-Solid
370
    25
100
AcDbLine
 10
32.86720097107646
 20
11.43880975192962
 30
0.0
 11
32.89837831963511
 21
11.43880975192962
 31
0.0
  0
LINE
  5
40C
330
1F
100
AcDbEntity
  8
OBJECT
  6
SLD-Solid
370
    25
100
AcDbLine
 10
32.89837831963511
 20
11.43880975192962
 30
0.0
 11
32.89837831963511
 21
11.08010982594887
 31
0.0
  0
LINE
  5
40D
330
1F
100
AcDbEntity
  8
OBJECT
  6
SLD-Solid
370
    25
100
AcDbLine
 10
22.03837831963513
 20
11.43880975192964
 30
0.0
 11
22.03837831963513
 21
11.0801098259489
 31
0.0
  0
LINE
  5
40E
330
1F
100
AcDbEntity
  8
OBJECT
  6
SLD-Solid
370
    25
100
AcDbLine
 10
22.06955566819372
 20
11.43880975192964
 30
0.0
 11
22.03837831963513
 21
11.43880975192964
 31
0.0
  0
LINE
  5
40F
330
1F
100
AcDbEntity
  8
OBJECT
  6
SLD-Solid
370
    25
100
AcDbLine
 10
32.89837831963511
 20
11.05060982594888
 30
0.0
 11
32.89837831963511
 21
11.08010982594887
 31
0.0
  0
LINE
  5
410
330
1F
100
AcDbEntity
  8
OBJECT
  6
SLD-Solid
370
    25
100
AcDbLine
 10
22.03837831963513
 20
11.0506098259489
 30
0.0
 11
22.03837831963513
 21
11.0801098259489
 31
0.0
  0
LINE
  5
411
330
1F
100
AcDbEntity
  8
OBJECT
  6
SLD-Solid
370
    25
100
AcDbLine
 10
32.97977610041426
 20
22.18928766288606
 30
0.0
 11
32.94987610041427
 21
22.18928766288606
 31
0.0
  0
LINE
  5
412
330
1F
100
AcDbEntity
  8
OBJECT
  6
SLD-Solid
370
    25
100
AcDbLine
 10
32.97977610041423
 20
22.13928766288609
 30
0.0
 11
32.97977610041426
 21
22.18928766288606
 31
0.0
  0
LINE
  5
413
330
1F
100
AcDbEntity
  8
OBJECT
  6
SLD-Solid
370
    25
100
AcDbLine
 10
32.94987610041423
 20
22.13928766288609
 30
0.0
 11
32.97977610041423
 21
22.13928766288609
 31
0.0
  0
LINE
  5
414
330
1F
100
AcDbEntity
  8
OBJECT
  6
SLD-Solid
370
    25
100
AcDbLine
 10
32.94987610041427
 20
22.18928766288606
 30
0.0
 11
32.94987610041423
 21
22.13928766288609
 31
0.0
  0
LINE
  5
415
330
1F
100
AcDbEntity
  8
OBJECT
  6
SLD-Solid
370
    25
100
AcDbLine
 10
32.97977610041423
 20
22.13928766288609
 30
0.0
 11
32.97977610041415
 21
9.249752456181321
 31
0.0
  0
LINE
  5
416
330
1F
100
AcDbEntity
  8
OBJECT
  6
SLD-Solid
370
    25
100
AcDbLine
 10
32.97977610041415
 20
9.249752456181321
 30
0.0
 11
32.94987610041415
 21
9.249752456181335
 31
0.0
  0
LINE
  5
417
330
1F
100
AcDbEntity
  8
OBJECT
  6
SLD-Solid
370
    25
100
AcDbLine
 10
32.94987610041423
 20
22.13928766288609
 30
0.0
 11
32.94987610041415
 21
9.249752456181335
 31
0.0
  0
LINE
  5
418
330
1F
100
AcDbEntity
  8
OBJECT
  6
SLD-Solid
370
    25
100
AcDbLine
 10
21.98688053885617
 20
22.13928766288617
 30
0.0
 11
21.95698053885616
 21
22.13928766288617
 31
0.0
  0
LINE
  5
419
330
1F
100
AcDbEntity
  8
OBJECT
  6
SLD-Solid
370
    25
100
AcDbLine
 10
21.95698053885616
 20
22.13928766288617
 30
0.0
 11
21.95698053885612
 21
22.18928766288616
 31
0.0
  0
LINE
  5
41A
330
1F
100
AcDbEntity
  8
OBJECT
  6
SLD-Solid
370
    25
100
AcDbLine
 10
21.95698053885612
 20
22.18928766288616
 30
0.0
 11
21.98688053885612
 21
22.18928766288616
 31
0.0
  0
LINE
  5
41B
330
1F
100
AcDbEntity
  8
OBJECT
  6
SLD-Solid
370
    25
100
AcDbLine
 10
21.98688053885612
 20
22.18928766288616
 30
0.0
 11
21.98688053885617
 21
22.13928766288617
 31
0.0
  0
LINE
  5
41C
330
1F
100
AcDbEntity
  8
OBJECT
  6
SLD-Solid
370
    25
100
AcDbLine
 10
21.95698053885605
 20
9.249752456181394
 30
0.0
 11
21.98688053885605
 21
9.249752456181392
 31
0.0
  0
LINE
  5
41D
330
1F
100
AcDbEntity
  8
OBJECT
  6
SLD-Solid
370
    25
100
AcDbLine
 10
21.95698053885616
 20
22.13928766288617
 30
0.0
 11
21.95698053885605
 21
9.249752456181394
 31
0.0
  0
LINE
  5
41E
330
1F
100
AcDbEntity
  8
OBJECT
  6
SLD-Solid
370
    25
100
AcDbLine
 10
21.98688053885617
 20
22.13928766288617
 30
0.0
 11
21.98688053885605
 21
9.249752456181392
 31
0.0
  0
LINE
  5
41F
330
1F
100
AcDbEntity
  8
OBJECT
  6
SLD-Solid
370
    25
100
AcDbLine
 10
32.94987610041417
 20
8.749752456181325
 30
0.0
 11
32.97977610041417
 21
8.749752456181325
 31
0.0
  0
LINE
  5
420
330
1F
100
AcDbEntity
  8
OBJECT
  6
SLD-Solid
370
    25
100
AcDbLine
 10
32.97977610041417
 20
8.749752456181325
 30
0.0
 11
32.97977610041415
 21
9.249752456181321
 31
0.0
  0
LINE
  5
421
330
1F
100
AcDbEntity
  8
OBJECT
  6
SLD-Solid
370
    25
100
AcDbLine
 10
32.94987610041415
 20
9.249752456181335
 30
0.0
 11
32.94987610041417
 21
8.749752456181325
 31
0.0
  0
LINE
  5
422
330
1F
100
AcDbEntity
  8
OBJECT
  6
SLD-Solid
370
    25
100
AcDbLine
 10
21.98688053885605
 20
8.7497524561814
 30
0.0
 11
21.95698053885604
 21
8.7497524561814
 31
0.0
  0
LINE
  5
423
330
1F
100
AcDbEntity
  8
OBJECT
  6
SLD-Solid
370
    25
100
AcDbLine
 10
21.95698053885604
 20
8.7497524561814
 30
0.0
 11
21.95698053885605
 21
9.249752456181394
 31
0.0
  0
LINE
  5
424
330
1F
100
AcDbEntity
  8
OBJECT
  6
SLD-Solid
370
    25
100
AcDbLine
 10
21.98688053885605
 20
9.249752456181392
 30
0.0
 11
21.98688053885605
 21
8.7497524561814
 31
0.0
  0
LINE
  5
425
330
1F
100
AcDbEntity
  8
OBJECT
  6
SLD-Solid
370
    25
100
AcDbLine
 10
32.9158761004142
 20
22.17279518899675
 30
0.0
 11
32.9457761004142
 21
22.17279518899675
 31
0.0
  0
LINE
  5
426
330
1F
100
AcDbEntity
  8
OBJECT
  6
SLD-Solid
370
    25
100
AcDbLine
 10
32.88687610041423
 20
22.20179518899671
 30
0.0
 11
32.88687610041423
 21
22.23169518899672
 31
0.0
  0
ARC
  5
427
330
1F
100
AcDbEntity
  8
OBJECT
  6
SLD-Solid
370
    25
100
AcDbCircle
 10
32.88687610041423
 20
22.17279518899671
 30
0.0
 40
0.0289999999999999
100
AcDbArc
 50
0.0000000000706343
 51
90.00000000001404
  0
ARC
  5
428
330
1F
100
AcDbEntity
  8
OBJECT
  6
SLD-Solid
370
    25
100
AcDbCircle
 10
32.88687610041423
 20
22.17279518899671
 30
0.0
 40
0.0589000000000084
100
AcDbArc
 50
0.0000000000355208
 51
90.00000000000692
  0
LINE
  5
429
330
1F
100
AcDbEntity
  8
OBJECT
  6
SLD-Solid
370
    25
100
AcDbLine
 10
27.46837831963519
 20
22.20179518899677
 30
0.0
 11
27.46837831963519
 21
22.23169518899677
 31
0.0
  0
LINE
  5
42A
330
1F
100
AcDbEntity
  8
OBJECT
  6
SLD-Solid
370
    25
100
AcDbLine
 10
32.88687610041423
 20
22.20179518899671
 30
0.0
 11
32.0264213328666
 21
22.20179518899672
 31
0.0
  0
LINE
  5
42B
330
1F
100
AcDbEntity
  8
OBJECT
  6
SLD-Solid
370
    25
100
AcDbLine
 10
30.76259150298351
 20
22.20179518899674
 30
0.0
 11
27.46837831963519
 21
22.20179518899677
 31
0.0
  0
LINE
  5
42C
330
1F
100
AcDbEntity
  8
OBJECT
  6
SLD-Solid
370
    25
100
AcDbLine
 10
32.88687610041423
 20
22.23169518899672
 30
0.0
 11
31.99652133286659
 21
22.23169518899673
 31
0.0
  0
LINE
  5
42D
330
1F
100
AcDbEntity
  8
OBJECT
  6
SLD-Solid
370
    25
100
AcDbLine
 10
30.78681517332276
 20
22.23169518899675
 30
0.0
 11
27.46837831963519
 21
22.23169518899677
 31
0.0
  0
LINE
  5
42E
330
1F
100
AcDbEntity
  8
OBJECT
  6
SLD-Solid
370
    25
100
AcDbLine
 10
32.9457761004142
 20
21.7607951889967
 30
0.0
 11
32.91587610041419
 21
21.7607951889967
 31
0.0
  0
LINE
  5
42F
330
1F
100
AcDbEntity
  8
OBJECT
  6
SLD-Solid
370
    25
100
AcDbLine
 10
32.91587610041419
 20
21.7607951889967
 30
0.0
 11
32.9158761004142
 21
22.17279518899675
 31
0.0
  0
LINE
  5
430
330
1F
100
AcDbEntity
  8
OBJECT
  6
SLD-Solid
370
    25
100
AcDbLine
 10
32.9457761004142
 20
21.7607951889967
 30
0.0
 11
32.9457761004142
 21
22.17279518899675
 31
0.0
  0
LINE
  5
431
330
1F
100
AcDbEntity
  8
OBJECT
  6
SLD-Solid
370
    25
100
AcDbLine
 10
32.91587610041421
 20
21.71079518899669
 30
0.0
 11
32.94577610041421
 21
21.71079518899669
 31
0.0
  0
LINE
  5
432
330
1F
100
AcDbEntity
  8
OBJECT
  6
SLD-Solid
370
    25
100
AcDbLine
 10
32.91587610041419
 20
21.7607951889967
 30
0.0
 11
32.91587610041421
 21
21.71079518899669
 31
0.0
  0
LINE
  5
433
330
1F
100
AcDbEntity
  8
OBJECT
  6
SLD-Solid
370
    25
100
AcDbLine
 10
32.94577610041421
 20
21.71079518899669
 30
0.0
 11
32.9457761004142
 21
21.7607951889967
 31
0.0
  0
LINE
  5
434
330
1F
100
AcDbEntity
  8
OBJECT
  6
SLD-Solid
370
    25
100
AcDbLine
 10
27.39337831963519
 20
22.20179518899677
 30
0.0
 11
27.39337831963519
 21
22.23169518899677
 31
0.0
  0
LINE
  5
435
330
1F
100
AcDbEntity
  8
OBJECT
  6
SLD-Solid
370
    25
100
AcDbLine
 10
27.46837831963519
 20
22.20179518899674
 30
0.0
 11
27.39337831963519
 21
22.20179518899677
 31
0.0
  0
LINE
  5
436
330
1F
100
AcDbEntity
  8
OBJECT
  6
SLD-Solid
370
    25
100
AcDbLine
 10
27.46837831963519
 20
22.23169518899674
 30
0.0
 11
27.39337831963519
 21
22.23169518899677
 31
0.0
  0
LINE
  5
437
330
1F
100
AcDbEntity
  8
OBJECT
  6
SLD-Solid
370
    25
100
AcDbLine
 10
22.04988053885616
 20
22.2017951889968
 30
0.0
 11
22.04988053885619
 21
22.23169518899681
 31
0.0
  0
LINE
  5
438
330
1F
100
AcDbEntity
  8
OBJECT
  6
SLD-Solid
370
    25
100
AcDbLine
 10
27.39337831963519
 20
22.20179518899677
 30
0.0
 11
24.17416513628665
 21
22.2017951889968
 31
0.0
  0
LINE
  5
439
330
1F
100
AcDbEntity
  8
OBJECT
  6
SLD-Solid
370
    25
100
AcDbLine
 10
22.91033530640366
 20
22.20179518899679
 30
0.0
 11
22.04988053885616
 21
22.2017951889968
 31
0.0
  0
LINE
  5
43A
330
1F
100
AcDbEntity
  8
OBJECT
  6
SLD-Solid
370
    25
100
AcDbLine
 10
27.39337831963519
 20
22.23169518899677
 30
0.0
 11
24.14994146594739
 21
22.2316951889968
 31
0.0
  0
LINE
  5
43B
330
1F
100
AcDbEntity
  8
OBJECT
  6
SLD-Solid
370
    25
100
AcDbLine
 10
22.94023530640368
 20
22.2316951889968
 30
0.0
 11
22.04988053885619
 21
22.23169518899681
 31
0.0
  0
LINE
  5
43C
330
1F
100
AcDbEntity
  8
OBJECT
  6
SLD-Solid
370
    25
100
AcDbLine
 10
22.02088053885619
 20
22.17279518899683
 30
0.0
 11
21.99098053885618
 21
22.17279518899683
 31
0.0
  0
LINE
  5
43D
330
1F
100
AcDbEntity
  8
OBJECT
  6
SLD-Solid
370
    25
100
AcDbLine
 10
21.99098053885618
 20
21.76079518899678
 30
0.0
 11
22.02088053885618
 21
21.76079518899678
 31
0.0
  0
LINE
  5
43E
330
1F
100
AcDbEntity
  8
OBJECT
  6
SLD-Solid
370
    25
100
AcDbLine
 10
22.02088053885618
 20
21.76079518899678
 30
0.0
 11
22.02088053885619
 21
22.17279518899683
 31
0.0
  0
LINE
  5
43F
330
1F
100
AcDbEntity
  8
OBJECT
  6
SLD-Solid
370
    25
100
AcDbLine
 10
21.99098053885618
 20
21.76079518899678
 30
0.0
 11
21.99098053885618
 21
22.17279518899683
 31
0.0
  0
LINE
  5
440
330
1F
100
AcDbEntity
  8
OBJECT
  6
SLD-Solid
370
    25
100
AcDbLine
 10
22.02088053885618
 20
21.71079518899678
 30
0.0
 11
21.99098053885618
 21
21.71079518899678
 31
0.0
  0
LINE
  5
441
330
1F
100
AcDbEntity
  8
OBJECT
  6
SLD-Solid
370
    25
100
AcDbLine
 10
22.02088053885618
 20
21.76079518899678
 30
0.0
 11
22.02088053885618
 21
21.71079518899678
 31
0.0
  0
LINE
  5
442
330
1F
100
AcDbEntity
  8
OBJECT
  6
SLD-Solid
370
    25
100
AcDbLine
 10
21.99098053885618
 20
21.71079518899678
 30
0.0
 11
21.99098053885618
 21
21.76079518899678
 31
0.0
  0
ARC
  5
443
330
1F
100
AcDbEntity
  8
OBJECT
  6
SLD-Solid
370
    25
100
AcDbCircle
 10
22.04988053885615
 20
22.1727951889968
 30
0.0
 40
0.0289999999999999
100
AcDbArc
 50
89.99999999998597
 51
179.9999999999297
  0
ARC
  5
444
330
1F
100
AcDbEntity
  8
OBJECT
  6
SLD-Solid
370
    25
100
AcDbCircle
 10
22.04988053885615
 20
22.1727951889968
 30
0.0
 40
0.0589000000000119
100
AcDbArc
 50
89.99999999996199
 51
179.9999999999652
  0
LINE
  5
445
330
1F
100
AcDbEntity
  8
OBJECT
  6
SLD-Solid
370
    25
100
AcDbLine
 10
32.91587610041411
 20
10.28537284254439
 30
0.0
 11
32.94577610041411
 21
10.28537284254437
 31
0.0
  0
LINE
  5
446
330
1F
100
AcDbEntity
  8
OBJECT
  6
SLD-Solid
370
    25
100
AcDbLine
 10
32.94577610041412
 20
10.35367411273359
 30
0.0
 11
32.91587610041412
 21
10.35367411273361
 31
0.0
  0
LINE
  5
447
330
1F
100
AcDbEntity
  8
OBJECT
  6
SLD-Solid
370
    25
100
AcDbLine
 10
32.91587610041412
 20
10.35367411273361
 30
0.0
 11
32.91587610041411
 21
10.28537284254439
 31
0.0
  0
LINE
  5
448
330
1F
100
AcDbEntity
  8
OBJECT
  6
SLD-Solid
370
    25
100
AcDbLine
 10
32.94577610041411
 20
10.28537284254437
 30
0.0
 11
32.94577610041412
 21
10.35367411273359
 31
0.0
  0
LINE
  5
449
330
1F
100
AcDbEntity
  8
OBJECT
  6
SLD-Solid
370
    25
100
AcDbLine
 10
21.99098053885608
 20
10.35367411273367
 30
0.0
 11
22.02088053885608
 21
10.35367411273368
 31
0.0
  0
LINE
  5
44A
330
1F
100
AcDbEntity
  8
OBJECT
  6
SLD-Solid
370
    25
100
AcDbLine
 10
22.02088053885608
 20
10.35367411273368
 30
0.0
 11
22.02088053885605
 21
10.28537284254446
 31
0.0
  0
LINE
  5
44B
330
1F
100
AcDbEntity
  8
OBJECT
  6
SLD-Solid
370
    25
100
AcDbLine
 10
22.02088053885605
 20
10.28537284254446
 30
0.0
 11
21.99098053885605
 21
10.28537284254446
 31
0.0
  0
LINE
  5
44C
330
1F
100
AcDbEntity
  8
OBJECT
  6
SLD-Solid
370
    25
100
AcDbLine
 10
21.99098053885605
 20
10.28537284254446
 30
0.0
 11
21.99098053885608
 21
10.35367411273367
 31
0.0
  0
LINE
  5
44D
330
1F
100
AcDbEntity
  8
OBJECT
  6
SLD-Solid
370
    25
100
AcDbLine
 10
32.91587610041412
 20
9.935498579415476
 30
0.0
 11
32.94577610041411
 21
9.935498579415459
 31
0.0
  0
LINE
  5
44E
330
1F
100
AcDbEntity
  8
OBJECT
  6
SLD-Solid
370
    25
100
AcDbLine
 10
32.91587610041412
 20
9.935498579415476
 30
0.0
 11
32.91587610041411
 21
10.28537284254439
 31
0.0
  0
LINE
  5
44F
330
1F
100
AcDbEntity
  8
OBJECT
  6
SLD-Solid
370
    25
100
AcDbLine
 10
32.94577610041411
 20
9.935498579415459
 30
0.0
 11
32.94577610041411
 21
10.28537284254437
 31
0.0
  0
LINE
  5
450
330
1F
100
AcDbEntity
  8
OBJECT
  6
SLD-Solid
370
    25
100
AcDbLine
 10
22.02088053885608
 20
9.935498579415546
 30
0.0
 11
21.99098053885609
 21
9.935498579415547
 31
0.0
  0
LINE
  5
451
330
1F
100
AcDbEntity
  8
OBJECT
  6
SLD-Solid
370
    25
100
AcDbLine
 10
22.02088053885608
 20
9.935498579415546
 30
0.0
 11
22.02088053885605
 21
10.28537284254446
 31
0.0
  0
LINE
  5
452
330
1F
100
AcDbEntity
  8
OBJECT
  6
SLD-Solid
370
    25
100
AcDbLine
 10
21.99098053885609
 20
9.935498579415547
 30
0.0
 11
21.99098053885605
 21
10.28537284254446
 31
0.0
  0
LINE
  5
453
330
1F
100
AcDbEntity
  8
OBJECT
  6
SLD-Solid
370
    25
100
AcDbLine
 10
22.04988053885611
 20
22.20179518899678
 30
0.0
 11
22.04988053885611
 21
22.19330128565122
 31
0.0
  0
LINE
  5
454
330
1F
100
AcDbEntity
  8
OBJECT
  6
SLD-Solid
370
    25
100
AcDbLine
 10
32.88687610041422
 20
22.20179518899667
 30
0.0
 11
32.88687610041421
 21
22.19330128565114
 31
0.0
  0
LINE
  5
455
330
1F
100
AcDbEntity
  8
OBJECT
  6
SLD-Solid
370
    25
100
AcDbLine
 10
32.91587610041415
 20
10.46074164301164
 30
0.0
 11
32.94577610041414
 21
10.46074164301162
 31
0.0
  0
LINE
  5
456
330
1F
100
AcDbEntity
  8
OBJECT
  6
SLD-Solid
370
    25
100
AcDbLine
 10
32.91587610041412
 20
10.35367411273361
 30
0.0
 11
32.91587610041415
 21
10.46074164301164
 31
0.0
  0
LINE
  5
457
330
1F
100
AcDbEntity
  8
OBJECT
  6
SLD-Solid
370
    25
100
AcDbLine
 10
32.94577610041412
 20
10.35367411273359
 30
0.0
 11
32.94577610041414
 21
10.46074164301162
 31
0.0
  0
LINE
  5
458
330
1F
100
AcDbEntity
  8
OBJECT
  6
SLD-Solid
370
    25
100
AcDbLine
 10
22.02088053885608
 20
10.46074164301171
 30
0.0
 11
21.99098053885608
 21
10.46074164301171
 31
0.0
  0
LINE
  5
459
330
1F
100
AcDbEntity
  8
OBJECT
  6
SLD-Solid
370
    25
100
AcDbLine
 10
22.02088053885608
 20
10.35367411273368
 30
0.0
 11
22.02088053885608
 21
10.46074164301171
 31
0.0
  0
LINE
  5
45A
330
1F
100
AcDbEntity
  8
OBJECT
  6
SLD-Solid
370
    25
100
AcDbLine
 10
21.99098053885608
 20
10.35367411273367
 30
0.0
 11
21.99098053885608
 21
10.46074164301171
 31
0.0
  0
LINE
  5
45B
330
1F
100
AcDbEntity
  8
OBJECT
  6
SLD-Solid
370
    25
100
AcDbLine
 10
32.91587610041421
 20
22.17279518899672
 30
0.0
 11
32.88687610041421
 21
22.19330128565114
 31
0.0
  0
ARC
  5
45C
330
1F
100
AcDbEntity
  8
OBJECT
  6
SLD-Solid
370
    25
100
AcDbCircle
 10
22.01549514815513
 20
22.1361795662861
 30
0.0
 40
0.0256146593793401
100
AcDbArc
 50
163.147426793744
 51
179.886700733517
  0
LINE
  5
45D
330
1F
100
AcDbEntity
  8
OBJECT
  6
SLD-Solid
370
    25
100
AcDbLine
 10
22.02088053885613
 20
22.17279518899683
 30
0.0
 11
22.04988053885611
 21
22.19330128565122
 31
0.0
  0
ARC
  5
45E
330
1F
100
AcDbEntity
  8
OBJECT
  6
SLD-Solid
370
    25
100
AcDbCircle
 10
32.92126149111854
 20
22.13617956628647
 30
0.0
 40
0.0256146593760317
100
AcDbArc
 50
0.1132992654089466
 51
16.85257320737648
  0
LINE
  5
45F
330
1F
100
AcDbEntity
  8
OBJECT
  6
SLD-Solid
370
    25
100
AcDbLine
 10
32.94687610041421
 20
21.17585951587036
 30
0.0
 11
32.94687610041422
 21
22.13623021783924
 31
0.0
  0
ARC
  5
460
330
1F
100
AcDbEntity
  8
OBJECT
  6
SLD-Solid
370
    25
100
AcDbCircle
 10
32.91560693115626
 20
21.17738724925619
 30
0.0
 40
0.0313064676285959
100
AcDbArc
 50
302.0747174450009
 51
357.2028957453422
  0
LINE
  5
461
330
1F
100
AcDbEntity
  8
OBJECT
  6
SLD-Solid
370
    25
100
AcDbLine
 10
32.9208761004142
 20
21.14283007861718
 30
0.0
 11
32.93223143947353
 21
21.15085951587037
 31
0.0
  0
LINE
  5
462
330
1F
100
AcDbEntity
  8
OBJECT
  6
SLD-Solid
370
    25
100
AcDbLine
 10
22.01588053885614
 20
21.14283007861662
 30
0.0
 11
22.00452519979681
 21
21.15085951587045
 31
0.0
  0
ARC
  5
463
330
1F
100
AcDbEntity
  8
OBJECT
  6
SLD-Solid
370
    25
100
AcDbCircle
 10
22.0211497081141
 20
21.1773872492563
 30
0.0
 40
0.0313064676286185
100
AcDbArc
 50
182.7971042546839
 51
237.9252825549959
  0
LINE
  5
464
330
1F
100
AcDbEntity
  8
OBJECT
  6
SLD-Solid
370
    25
100
AcDbLine
 10
21.98988053885613
 20
21.17585951587046
 30
0.0
 11
21.98988053885614
 21
22.13623021783936
 31
0.0
  0
LINE
  5
465
330
1F
100
AcDbEntity
  8
OBJECT
  6
SLD-Solid
370
    25
100
AcDbLine
 10
32.94687610041422
 20
22.13623021783924
 30
0.0
 11
32.94687610041422
 21
22.15737271059671
 31
0.0
  0
ARC
  5
466
330
1F
100
AcDbEntity
  8
OBJECT
  6
SLD-Solid
370
    25
100
AcDbCircle
 10
32.92126149111424
 20
22.1573220590433
 30
0.0
 40
0.0256146593803323
100
AcDbArc
 50
0.1132992668203598
 51
16.8525732059654
  0
LINE
  5
467
330
1F
100
AcDbEntity
  8
OBJECT
  6
SLD-Solid
370
    25
100
AcDbLine
 10
21.98988053885614
 20
22.13623021783936
 30
0.0
 11
21.98988053885614
 21
22.1573727105968
 31
0.0
  0
ARC
  5
468
330
1F
100
AcDbEntity
  8
OBJECT
  6
SLD-Solid
370
    25
100
AcDbCircle
 10
22.0154951481571
 20
22.15732205904329
 30
0.0
 40
0.0256146593813088
100
AcDbArc
 50
163.1474267943967
 51
179.8867007329535
  0
ARC
  5
469
330
1F
100
AcDbEntity
  8
OBJECT
  6
SLD-Solid
370
    25
100
AcDbCircle
 10
32.89180634752743
 20
9.939165230305441
 30
0.0
 40
0.0540941637831572
100
AcDbArc
 50
276.978179502978
 51
356.1133547261345
  0
ARC
  5
46A
330
1F
100
AcDbEntity
  8
OBJECT
  6
SLD-Solid
370
    25
100
AcDbCircle
 10
32.89052798186194
 20
10.27843026845752
 30
0.0
 40
0.0253707266231482
100
AcDbArc
 50
288.0245833803287
 51
357.581003795626
  0
ARC
  5
46B
330
1F
100
AcDbEntity
  8
OBJECT
  6
SLD-Solid
370
    25
100
AcDbCircle
 10
32.89052798186199
 20
9.936569399312289
 30
0.0
 40
0.0253707266231007
100
AcDbArc
 50
288.0245833802406
 51
357.5810037956934
  0
ARC
  5
46C
330
1F
100
AcDbEntity
  8
OBJECT
  6
SLD-Solid
370
    25
100
AcDbCircle
 10
22.04495029174279
 20
9.939165230305532
 30
0.0
 40
0.0540941637831812
100
AcDbArc
 50
183.8866452738675
 51
263.0218204970233
  0
ARC
  5
46D
330
1F
100
AcDbEntity
  8
OBJECT
  6
SLD-Solid
370
    25
100
AcDbCircle
 10
22.04622865740821
 20
9.936569399312363
 30
0.0
 40
0.0253707266231059
100
AcDbArc
 50
182.4189962043196
 51
251.9754166198155
  0
ARC
  5
46E
330
1F
100
AcDbEntity
  8
OBJECT
  6
SLD-Solid
370
    25
100
AcDbCircle
 10
22.04622865740829
 20
10.27843026845762
 30
0.0
 40
0.0253707266231849
100
AcDbArc
 50
182.4189962044364
 51
251.9754166196874
  0
LINE
  5
46F
330
1F
100
AcDbEntity
  8
OBJECT
  6
SLD-Solid
370
    25
100
AcDbLine
 10
32.91587610041412
 20
10.46744037282241
 30
0.0
 11
32.91587610041415
 21
10.46074164301164
 31
0.0
  0
LINE
  5
470
330
1F
100
AcDbEntity
  8
OBJECT
  6
SLD-Solid
370
    25
100
AcDbLine
 10
32.94577610041414
 20
10.46074164301162
 30
0.0
 11
32.94577610041413
 21
10.4674403728224
 31
0.0
  0
LINE
  5
471
330
1F
100
AcDbEntity
  8
OBJECT
  6
SLD-Solid
370
    25
100
AcDbLine
 10
22.02088053885608
 20
10.46744037282246
 30
0.0
 11
22.02088053885608
 21
10.46074164301171
 31
0.0
  0
LINE
  5
472
330
1F
100
AcDbEntity
  8
OBJECT
  6
SLD-Solid
370
    25
100
AcDbLine
 10
21.99098053885608
 20
10.46074164301171
 30
0.0
 11
21.99098053885608
 21
10.46744037282247
 31
0.0
  0
LINE
  5
473
330
1F
100
AcDbEntity
  8
OBJECT
  6
SLD-Solid
370
    25
100
AcDbLine
 10
32.9208761004142
 20
21.12232398196381
 30
0.0
 11
32.94987610041755
 21
21.12232398196381
 31
0.0
  0
LINE
  5
474
330
1F
100
AcDbEntity
  8
OBJECT
  6
SLD-Solid
370
    25
100
AcDbLine
 10
22.01588053885614
 20
21.12232398196387
 30
0.0
 11
21.98688053885279
 21
21.12232398196389
 31
0.0
  0
LINE
  5
475
330
1F
100
AcDbEntity
  8
OBJECT
  6
SLD-Solid
370
    25
100
AcDbLine
 10
22.01588053885614
 20
21.14283007861662
 30
0.0
 11
22.01588053885614
 21
21.12232398196387
 31
0.0
  0
LINE
  5
476
330
1F
100
AcDbEntity
  8
OBJECT
  6
SLD-Solid
370
    25
100
AcDbLine
 10
32.9208761004142
 20
21.12232398196381
 30
0.0
 11
32.9208761004142
 21
21.14283007861718
 31
0.0
  0
LINE
  5
477
330
1F
100
AcDbEntity
  8
OBJECT
  6
SLD-Solid
370
    25
100
AcDbLine
 10
32.90204915770869
 20
9.864663467920893
 30
0.0
 11
32.90204915770869
 21
9.655417745213487
 31
0.0
  0
LINE
  5
478
330
1F
100
AcDbEntity
  8
OBJECT
  6
SLD-Solid
370
    25
100
AcDbLine
 10
32.90204915770869
 20
10.73966346792089
 30
0.0
 11
32.90204915770869
 21
10.53041774521349
 31
0.0
  0
LINE
  5
479
330
1F
100
AcDbEntity
  8
OBJECT
  6
SLD-Solid
370
    25
100
AcDbLine
 10
22.03470748156151
 20
9.803964414720278
 30
0.0
 11
22.03470748156151
 21
9.864663467920929
 31
0.0
  0
LINE
  5
47A
330
1F
100
AcDbEntity
  8
OBJECT
  6
SLD-Solid
370
    25
100
AcDbLine
 10
22.03470748156151
 20
9.655417745213523
 30
0.0
 11
22.03470748156151
 21
9.803964414720278
 31
0.0
  0
LINE
  5
47B
330
1F
100
AcDbEntity
  8
OBJECT
  6
SLD-Solid
370
    25
100
AcDbLine
 10
22.03470748156154
 20
10.53041774521358
 30
0.0
 11
22.03470748156154
 21
10.73966346792098
 31
0.0
  0
LINE
  5
47C
330
1F
100
AcDbEntity
  8
OBJECT
  6
SLD-Solid
370
    25
100
AcDbLine
 10
27.46837831963515
 20
22.43169518899668
 30
0.0
 11
27.01837831963516
 21
22.43169518899668
 31
0.0
  0
LINE
  5
47D
330
1F
100
AcDbEntity
  8
OBJECT
  6
SLD-Solid
370
    25
100
AcDbLine
 10
27.91837831963516
 20
22.43169518899668
 30
0.0
 11
27.46837831963515
 21
22.43169518899668
 31
0.0
  0
LINE
  5
47E
330
1F
100
AcDbEntity
  8
OBJECT
  6
SLD-Solid
370
    25
100
AcDbLine
 10
32.83937831963513
 20
9.11204060656722
 30
0.0
 11
32.83937831963514
 21
9.309963246478446
 31
0.0
  0
LINE
  5
47F
330
1F
100
AcDbEntity
  8
OBJECT
  6
SLD-Solid
370
    25
100
AcDbLine
 10
22.09737831963513
 20
9.112040606567264
 30
0.0
 11
22.09737831963514
 21
9.309963246478446
 31
0.0
  0
LINE
  5
480
330
1F
100
AcDbEntity
  8
OBJECT
  6
SLD-Solid
370
    25
100
AcDbLine
 10
22.0683783196351
 20
10.28732928170184
 30
0.0
 11
22.06955566819373
 21
10.28732928170184
 31
0.0
  0
LINE
  5
481
330
1F
100
AcDbEntity
  8
OBJECT
  6
SLD-Solid
370
    25
100
AcDbLine
 10
32.86720097107646
 20
10.28732928170182
 30
0.0
 11
32.86837831963513
 21
10.28732928170182
 31
0.0
  0
LINE
  5
482
330
1F
100
AcDbEntity
  8
OBJECT
  6
SLD-Solid
370
    25
100
AcDbLine
 10
22.02373365869444
 20
9.358089321139422
 30
0.0
 11
22.02373365869444
 21
9.674394657788387
 31
0.0
  0
LINE
  5
483
330
1F
100
AcDbEntity
  8
OBJECT
  6
SLD-Solid
370
    25
100
AcDbLine
 10
32.91009404838765
 20
9.668812883758678
 30
0.0
 11
32.91009404838765
 21
9.355160388951264
 31
0.0
  0
LINE
  5
484
330
1F
100
AcDbEntity
  8
OBJECT
  6
SLD-Solid
370
    25
100
AcDbLine
 10
32.93366259088258
 20
9.699729198650493
 30
0.0
 11
32.93366259088258
 21
9.722775980916458
 31
0.0
  0
LINE
  5
485
330
1F
100
AcDbEntity
  8
OBJECT
  6
SLD-Solid
370
    25
100
AcDbLine
 10
32.93366259088258
 20
9.378728931446188
 30
0.0
 11
32.93366259088258
 21
9.699729198650493
 31
0.0
  0
LINE
  5
486
330
1F
100
AcDbEntity
  8
OBJECT
  6
SLD-Solid
370
    25
100
AcDbLine
 10
22.00602298057578
 20
9.725704913104623
 30
0.0
 11
22.00602298057578
 21
9.375799999258078
 31
0.0
  0
LINE
  5
487
330
1F
100
AcDbEntity
  8
OBJECT
  6
SLD-Solid
370
    25
100
AcDbLine
 10
32.86720097107646
 20
11.05060982594888
 30
0.0
 11
32.89837831963511
 21
11.05060982594888
 31
0.0
  0
LINE
  5
488
330
1F
100
AcDbEntity
  8
OBJECT
  6
SLD-Solid
370
    25
100
AcDbLine
 10
32.86837831963513
 20
10.31244401841156
 30
0.0
 11
32.86720097107646
 21
10.31244401841156
 31
0.0
  0
LINE
  5
489
330
1F
100
AcDbEntity
  8
OBJECT
  6
SLD-Solid
370
    25
100
AcDbLine
 10
22.06955566819373
 20
10.31244401841159
 30
0.0
 11
22.0683783196351
 21
10.31244401841159
 31
0.0
  0
LINE
  5
48A
330
1F
100
AcDbEntity
  8
OBJECT
  6
SLD-Solid
370
    25
100
AcDbLine
 10
22.06955566819373
 20
11.0506098259489
 30
0.0
 11
22.03837831963513
 21
11.0506098259489
 31
0.0
  0
LINE
  5
48B
330
1F
100
AcDbEntity
  8
OBJECT
  6
SLD-Solid
370
    25
100
AcDbLine
 10
32.86720097107646
 20
11.08010982594887
 30
0.0
 11
32.89837831963511
 21
11.08010982594887
 31
0.0
  0
LINE
  5
48C
330
1F
100
AcDbEntity
  8
OBJECT
  6
SLD-Solid
370
    25
100
AcDbLine
 10
22.06955566819373
 20
11.0801098259489
 30
0.0
 11
22.03837831963513
 21
11.0801098259489
 31
0.0
  0
LINE
  5
48D
330
1F
100
AcDbEntity
  8
OBJECT
  6
SLD-Solid
370
    25
100
AcDbLine
 10
22.04988053885611
 20
22.19330128565122
 30
0.0
 11
22.90184140305807
 21
22.19330128565122
 31
0.0
  0
LINE
  5
48E
330
1F
100
AcDbEntity
  8
OBJECT
  6
SLD-Solid
370
    25
100
AcDbLine
 10
24.17977275041135
 20
22.19330128565121
 30
0.0
 11
27.15587831963514
 21
22.19330128565118
 31
0.0
  0
LINE
  5
48F
330
1F
100
AcDbEntity
  8
OBJECT
  6
SLD-Solid
370
    25
100
AcDbLine
 10
27.78087831963514
 20
22.19330128565118
 30
0.0
 11
30.75698388885878
 21
22.19330128565116
 31
0.0
  0
LINE
  5
490
330
1F
100
AcDbEntity
  8
OBJECT
  6
SLD-Solid
370
    25
100
AcDbLine
 10
32.03491523621216
 20
22.19330128565115
 30
0.0
 11
32.88687610041421
 21
22.19330128565114
 31
0.0
  0
LINE
  5
491
330
1F
100
AcDbEntity
  8
OBJECT
  6
SLD-Solid
370
    25
100
AcDbLine
 10
32.9208761004142
 20
21.14283007861718
 30
0.0
 11
32.86720097107646
 21
21.14283007861718
 31
0.0
  0
LINE
  5
492
330
1F
100
AcDbEntity
  8
OBJECT
  6
SLD-Solid
370
    25
100
AcDbLine
 10
22.06955566819373
 20
21.14283007861663
 30
0.0
 11
22.01588053885614
 21
21.14283007861662
 31
0.0
  0
LINE
  5
493
330
1F
100
AcDbEntity
  8
OBJECT
  6
SLD-Solid
370
    25
100
AcDbLine
 10
22.02088053885608
 20
10.40738087727816
 30
0.0
 11
22.03837831963511
 21
10.40738087727816
 31
0.0
  0
LINE
  5
494
330
1F
100
AcDbEntity
  8
OBJECT
  6
SLD-Solid
370
    25
100
AcDbLine
 10
32.8983783196351
 20
10.40738087727809
 30
0.0
 11
32.91587610041412
 21
10.40738087727809
 31
0.0
  0
LINE
  5
495
330
1F
100
AcDbEntity
  8
OBJECT
  6
SLD-Solid
370
    25
100
AcDbLine
 10
32.92087610041413
 20
10.4674403728224
 30
0.0
 11
32.92087610041414
 21
10.56719174530113
 31
0.0
  0
LINE
  5
496
330
1F
100
AcDbEntity
  8
OBJECT
  6
SLD-Solid
370
    25
100
AcDbLine
 10
32.92087610041414
 20
10.70288946783329
 30
0.0
 11
32.9208761004142
 21
21.12232398196381
 31
0.0
  0
LINE
  5
497
330
1F
100
AcDbEntity
  8
OBJECT
  6
SLD-Solid
370
    25
100
AcDbLine
 10
22.01588053885608
 20
10.46744037282247
 30
0.0
 11
22.01588053885608
 21
10.56719174530108
 31
0.0
  0
LINE
  5
498
330
1F
100
AcDbEntity
  8
OBJECT
  6
SLD-Solid
370
    25
100
AcDbLine
 10
22.01588053885608
 20
10.70288946783343
 30
0.0
 11
22.01588053885614
 21
21.12232398196389
 31
0.0
  0
LINE
  5
499
330
1F
100
AcDbEntity
  8
OBJECT
  6
SLD-Solid
370
    25
100
AcDbLine
 10
32.91587610041413
 20
10.43249561398783
 30
0.0
 11
32.8983783196351
 21
10.43249561398783
 31
0.0
  0
LINE
  5
49A
330
1F
100
AcDbEntity
  8
OBJECT
  6
SLD-Solid
370
    25
100
AcDbLine
 10
22.03837831963511
 20
10.4324956139879
 30
0.0
 11
22.02088053885608
 21
10.4324956139879
 31
0.0
  0
LINE
  5
49B
330
1F
100
AcDbEntity
  8
OBJECT
  6
SLD-Solid
370
    25
100
AcDbLine
 10
22.01588053885614
 20
21.12232398196387
 30
0.0
 11
22.06955566819372
 21
21.12232398196387
 31
0.0
  0
LINE
  5
49C
330
1F
100
AcDbEntity
  8
OBJECT
  6
SLD-Solid
370
    25
100
AcDbLine
 10
32.86720097107646
 20
21.12232398196381
 30
0.0
 11
32.9208761004142
 21
21.12232398196381
 31
0.0
  0
DIMENSION
  5
49D
330
1F
100
AcDbEntity
  8
DIMS
100
AcDbDimension
  2
_D_5
 10
31.46837831963515
 20
23.77469037000011
 30
0.0
 11
27.71668322466203
 21
23.77469037000011
 31
0.0
 70
    32
  1
<>
 71
     2
 42
-1.0
  3
SLDDIMSTYLE0
100
AcDbAlignedDimension
 13
23.46837831963516
 23
19.80996324647844
 33
0.0
 14
31.46837831963515
 24
19.80996324647844
 34
0.0
100
AcDbRotatedDimension
  0
DIMENSION
  5
4A8
330
1F
100
AcDbEntity
  8
DIMS
100
AcDbDimension
  2
_D_6
 10
34.16525020961229
 20
11.80996324647844
 30
0.0
 11
34.1652502096123
 21
16.45361333060534
 31
0.0
 70
    32
  1
<>
 71
     2
 42
-1.0
  3
SLDDIMSTYLE0
100
AcDbAlignedDimension
 13
31.46837831963515
 23
19.80996324647844
 33
0.0
 14
31.46837831963514
 24
11.80996324647844
 34
0.0
 50
90.0000000000002
100
AcDbRotatedDimension
  0
DIMENSION
  5
4B3
330
1F
100
AcDbEntity
  8
DIMS
100
AcDbDimension
  2
_D_7
 10
34.16525020961231
 20
22.23169518899661
 30
0.0
 11
34.1652502096123
 21
21.12130979085223
 31
0.0
 70
    32
  1
<>
 71
     2
 42
-1.0
  3
SLDDIMSTYLE3
100
AcDbAlignedDimension
 13
31.46837831963515
 23
19.80996324647844
 33
0.0
 14
32.88687610041428
 24
22.23169518899662
 34
0.0
 50
90.0000000000002
100
AcDbRotatedDimension
  0
INSERT
  5
4C8
330
1F
100
AcDbEntity
  8
NOTES
100
AcDbBlockReference
  2
SW_NOTE_0_7
 10
33.8361220472441
 20
25.08673991861308
 30
0.0
  0
LEADER
  5
4C9
330
1F
100
AcDbEntity
  8
NOTES
100
AcDbLeader
  3
SLDDIMSTYLE2
 76
     2
 10
31.55343873804422
 20
19.86254390090641
 30
0.0
 10
33.8361220472441
 20
25.08673991861308
 30
0.0
1001
ACAD
1000
DSTYLE
1002
{
1070
   176
1070
     0
1070
    77
1070
     0
1070
    40
1040
1.0
1070
   147
1040
0.0
1002
}
  0
MTEXT
  5
4CA
330
1F
100
AcDbEntity
  8
NOTES
100
AcDbMText
 10
22.75398021182015
 20
6.85787226487901
 30
0.0
 40
0.5
 41
0.0
 71
     1
 72
     1
  1
Showing mounting hole locations
  7
SLDTEXTSTYLE1
 73
     1
 44
1.0
  0
SPLINE
  5
4CB
330
1F
100
AcDbEntity
  8
OBJECT
  6
SLD-Solid
370
    25
100
AcDbSpline
210
0.0
220
0.0
230
1.0
 70
    12
 71
     3
 72
    13
 73
     9
 74
     0
 42
0.00000001
 43
0.00000001
 40
0.0
 40
0.0
 40
0.0
 40
0.0
 40
0.0151815813733631
 40
0.2127487123536924
 40
0.4095085375044715
 40
0.6104118466860411
 40
0.8181974939005479
 40
1.0
 40
1.0
 40
1.0
 40
1.0
 10
41.51965774805046
 20
20.7425974552885
 30
0.0
 41
1.0
 10
41.51979138450018
 20
20.74381564563738
 30
0.0
 41
1.0
 10
41.52166411316412
 20
20.76088688622513
 30
0.0
 41
1.0
 10
41.51339941356871
 20
20.79393833649882
 30
0.0
 41
1.0
 10
41.49478262871874
 20
20.83912471561775
 30
0.0
 41
1.0
 10
41.4636288487774
 20
20.88095512091868
 30
0.0
 41
1.0
 10
41.42478198896931
 20
20.91740408952605
 30
0.0
 41
1.0
 10
41.39286289429267
 20
20.93743866730109
 30
0.0
 41
1.0
 10
41.37796775090784
 20
20.94678786443956
 30
0.0
 41
1.0
  0
SPLINE
  5
4CC
330
1F
100
AcDbEntity
  8
OBJECT
  6
SLD-Solid
370
    25
100
AcDbSpline
210
0.0
220
0.0
230
1.0
 70
    12
 71
     3
 72
    22
 73
    18
 74
     0
 42
0.00000001
 43
0.00000001
 40
0.0
 40
0.0
 40
0.0
 40
0.0
 40
0.0387038839919353
 40
0.1111564575530663
 40
0.1834371975737626
 40
0.2555180425062136
 40
0.327467860456135
 40
0.3994100698211386
 40
0.4714619612702196
 40
0.5437514752382903
 40
0.6164266980030911
 40
0.6895930020622728
 40
0.7631884678985733
 40
0.8364153882017674
 40
0.907909415142728
 40
0.9765994077642487
 40
1.0
 40
1.0
 40
1.0
 40
1.0
 10
41.37796775090784
 20
20.94678786443956
 30
0.0
 41
1.0
 10
41.36788456042922
 20
20.95229304518488
 30
0.0
 41
1.0
 10
41.33892592323738
 20
20.96810376821118
 30
0.0
 41
1.0
 10
41.28515596299371
 20
20.98927708358624
 30
0.0
 41
1.0
 10
41.21615285798432
 20
21.00771369526175
 30
0.0
 41
1.0
 10
41.14315714940547
 20
21.01877967465652
 30
0.0
 41
1.0
 10
41.0682830130655
 20
21.02237564599193
 30
0.0
 41
1.0
 10
40.99346160163733
 20
21.01841322941089
 30
0.0
 41
1.0
 10
40.92065282365014
 20
21.00697178687236
 30
0.0
 41
1.0
 10
40.85173426906626
 20
20.98823788406033
 30
0.0
 41
1.0
 10
40.78849558238699
 20
20.96248377307946
 30
0.0
 41
1.0
 10
40.7326175516495
 20
20.93003140880717
 30
0.0
 41
1.0
 10
40.68597534806801
 20
20.89134503236628
 30
0.0
 41
1.0
 10
40.65011686905615
 20
20.84722444282669
 30
0.0
 41
1.0
 10
40.62795785068433
 20
20.79924390204796
 30
0.0
 41
1.0
 10
40.61860307017983
 20
20.75985368633733
 30
0.0
 41
1.0
 10
40.62110754294476
 20
20.73770865778257
 30
0.0
 41
1.0
 10
40.62174393966249
 20
20.73208151594106
 30
0.0
 41
1.0
  0
LINE
  5
4CD
330
1F
100
AcDbEntity
  8
OBJECT
  6
SLD-Solid
370
    25
100
AcDbLine
 10
41.52012707011733
 20
20.57689563657883
 30
0.0
 11
41.52012707011733
 21
20.74020379895599
 31
0.0
  0
LINE
  5
4CE
330
1F
100
AcDbEntity
  8
OBJECT
  6
SLD-Solid
370
    25
100
AcDbLine
 10
40.62012707011732
 20
20.74020379895599
 30
0.0
 11
40.62012707011732
 21
20.57689563657883
 31
0.0
  0
LINE
  5
4CF
330
1F
100
AcDbEntity
  8
OBJECT
  6
SLD-Solid
370
    25
100
AcDbLine
 10
40.75512707011732
 20
20.78103083955027
 30
0.0
 11
40.75512707011732
 21
20.7708240794017
 31
0.0
  0
LINE
  5
4D0
330
1F
100
AcDbEntity
  8
OBJECT
  6
SLD-Solid
370
    25
100
AcDbLine
 10
41.38512707011732
 20
20.7708240794017
 30
0.0
 11
41.38512707011732
 21
20.78103083955027
 31
0.0
  0
LINE
  5
4D1
330
1F
100
AcDbEntity
  8
OBJECT
  6
SLD-Solid
370
    25
100
AcDbLine
 10
44.16344204259367
 20
19.65353904019049
 30
0.0
 11
44.14293594593926
 21
19.64170112256907
 31
0.0
  0
LINE
  5
4D2
330
1F
100
AcDbEntity
  8
OBJECT
  6
SLD-Solid
370
    25
100
AcDbLine
 10
44.22845628188852
 20
7.437835314078852
 30
0.0
 11
44.24613395141818
 21
7.42763021268107
 31
0.0
  0
LINE
  5
4D3
330
1F
100
AcDbEntity
  8
OBJECT
  6
SLD-Solid
370
    25
100
AcDbLine
 10
44.43361871378745
 20
7.752398536073826
 30
0.0
 11
44.41594104425778
 21
7.762603637471611
 31
0.0
  0
LINE
  5
4D4
330
1F
100
AcDbEntity
  8
OBJECT
  6
SLD-Solid
370
    25
100
AcDbLine
 10
45.65534417658417
 20
18.67775218046546
 30
0.0
 11
45.63420168382673
 21
18.68995748173719
 31
0.0
  0
LINE
  5
4D5
330
1F
100
AcDbEntity
  8
OBJECT
  6
SLD-Solid
370
    25
100
AcDbLine
 10
35.03389800199269
 20
11.87517964905072
 30
0.0
 11
42.74489431237959
 21
7.423716231127459
 31
0.0
  0
LINE
  5
4D6
330
1F
100
AcDbEntity
  8
OBJECT
  6
SLD-Solid
370
    25
100
AcDbLine
 10
37.90763230658601
 20
23.1948475778373
 30
0.0
 11
35.81098694760818
 21
21.98447997549824
 31
0.0
  0
LINE
  5
4D7
330
1F
100
AcDbEntity
  8
OBJECT
  6
SLD-Solid
370
    25
100
AcDbLine
 10
35.00444560866887
 20
20.65487106155135
 30
0.0
 11
35.00444560866885
 21
11.93823368596995
 31
0.0
  0
LINE
  5
4D8
330
1F
100
AcDbEntity
  8
OBJECT
  6
SLD-Solid
370
    25
100
AcDbLine
 10
42.94656795558295
 20
7.411921174414889
 30
0.0
 11
43.35374923788211
 21
7.37551303195969
 31
0.0
  0
LINE
  5
4D9
330
1F
100
AcDbEntity
  8
OBJECT
  6
SLD-Solid
370
    25
100
AcDbLine
 10
37.86914496560126
 20
23.17262930881596
 30
0.0
 11
37.86105068737348
 21
23.17730203617505
 31
0.0
  0
LWPOLYLINE
  5
4DA
330
1F
100
AcDbEntity
  8
OBJECT
  6
SLD-Solid
370
    25
100
AcDbPolyline
 90
       34
 70
   128
 43
0.0
 10
41.35296978259194
 20
20.94431246191481
 10
41.29433011101369
 20
20.97226300049931
 10
41.2275871573821
 20
20.99330191053656
 10
41.15515318593851
 20
21.00666879100149
 10
41.07964614913576
 20
21.01188052800703
 10
41.00379506801557
 20
21.00874875579875
 10
40.93034139827768
 20
20.99738666478399
 10
40.8619399469281
 20
20.97820491053569
 10
40.80106292063682
 20
20.95189677162994
 10
40.74991057374757
 20
20.91941309275199
 10
40.71033168535308
 20
20.88192791869189
 10
40.68375673960169
 20
20.84079606130683
 10
40.67114622427322
 20
20.79750413309073
 10
40.672955916248
 20
20.75361681712532
 10
40.68912040854298
 20
20.71072031535689
 10
40.71905547429041
 20
20.6703650191251
 10
40.76167918221917
 20
20.63400947398045
 10
40.81545100046969
 20
20.60296766404793
 10
40.8784274754293
 20
20.57836152121714
 10
40.94833247320936
 20
20.56108037560067
 10
41.0226394450544
 20
20.55174881282668
 10
41.09866274339702
 20
20.55070409988697
 10
41.17365468815833
 20
20.55798399542917
 10
41.24490487506507
 20
20.57332538506078
 10
41.30983813672186
 20
20.59617379098894
 10
41.36610761587048
 20
20.62570341229243
 10
41.41167958692578
 20
20.66084697151869
 10
41.44490696011723
 20
20.70033428887163
 10
41.4645888116046
 20
20.7427381898189
 10
41.47001378799457
 20
20.786526086898
 10
41.46098581650578
 20
20.83011537142021
 10
41.43783119154998
 20
20.87193061307215
 10
41.40138678160186
 20
20.91046050007196
 10
41.35296978259194
 20
20.94431246191481
  0
LINE
  5
4DB
330
1F
100
AcDbEntity
  8
OBJECT
  6
SLD-Solid
370
    25
100
AcDbLine
 10
40.62027513489186
 20
20.73354027880034
 30
0.0
 11
40.62012707011732
 21
20.74020379895599
 31
0.0
  0
LINE
  5
4DC
330
1F
100
AcDbEntity
  8
OBJECT
  6
SLD-Solid
370
    25
100
AcDbLine
 10
41.38832512165126
 20
20.39320381141873
 30
0.0
 11
41.38832512165126
 21
20.41688349496341
 31
0.0
  0
ARC
  5
4DD
330
1F
100
AcDbEntity
  8
OBJECT
  6
SLD-Solid
370
    25
100
AcDbCircle
 10
41.32096792171225
 20
20.58810648121349
 30
0.0
 40
0.1994744330255289
100
AcDbArc
 50
303.545246385907
 51
356.7781699834675
  0
LWPOLYLINE
  5
4DE
330
1F
100
AcDbEntity
  8
OBJECT
  6
SLD-Solid
370
    25
100
AcDbPolyline
 90
       15
 70
   128
 43
0.0
 10
40.62012707011732
 20
20.57689563657884
 10
40.62144730545022
 20
20.55701087122539
 10
40.63433683392704
 20
20.51212902336433
 10
40.66059186717117
 20
20.46923354051514
 10
40.69940717426449
 20
20.42964000924425
 10
40.74959230592908
 20
20.39456274664051
 10
40.80960810510999
 20
20.36507755771655
 10
40.8776139122801
 20
20.34208874091782
 10
40.95152401770007
 20
20.32630135366646
 10
41.02907162926602
 20
20.31819958854423
 10
41.10787839407785
 20
20.31803192330803
 10
41.18552734153063
 20
20.32580350018072
 10
41.25963701079488
 20
20.34127596814128
 10
41.32793448922686
 20
20.36397479305123
 10
41.38832512165126
 20
20.39320381141873
  0
LINE
  5
4DF
330
1F
100
AcDbEntity
  8
OBJECT
  6
SLD-Solid
370
    25
100
AcDbLine
 10
41.43119656214576
 20
20.44553425872689
 30
0.0
 11
41.43119656214576
 21
20.42185457518221
 31
0.0
  0
ARC
  5
4E0
330
1F
100
AcDbEntity
  8
OBJECT
  6
SLD-Solid
370
    25
100
AcDbCircle
 10
41.19984440491636
 20
20.74531638585232
 30
0.0
 40
0.3786728725411235
100
AcDbArc
 50
299.8506060616123
 51
307.6586015944121
  0
LWPOLYLINE
  5
4E1
330
1F
100
AcDbEntity
  8
OBJECT
  6
SLD-Solid
370
    25
100
AcDbPolyline
 90
       31
 70
   128
 43
0.0
 10
41.29993677400295
 20
20.91369715772146
 10
41.24713475649721
 20
20.93838095889315
 10
41.18659665371954
 20
20.95618780479991
 10
41.1209682712554
 20
20.96633945082889
 10
41.05311788433837
 20
20.96839222133562
 10
40.986010880459
 20
20.96225640039867
 10
40.92258015770197
 20
20.94820015283592
 10
40.86559794302612
 20
20.92683780411523
 10
40.81755463264381
 20
20.8991029913836
 10
40.7805499497561
 20
20.86620785904382
 10
40.75620117657337
 20
20.82959008222748
 10
40.74557247132208
 20
20.79085003349304
 10
40.7491283594239
 20
20.75168083886559
 10
40.76671343150573
 20
20.71379438010499
 10
40.79755913553506
 20
20.67884647725847
 10
40.84031736623169
 20
20.64836452137908
 10
40.89311938373744
 20
20.62368072020739
 10
40.9536574865151
 20
20.60587387430063
 10
41.01928586897925
 20
20.59572222827166
 10
41.08713625589628
 20
20.59366945776493
 10
41.15424325977564
 20
20.59980527870188
 10
41.21767398253268
 20
20.61386152626462
 10
41.27465619720852
 20
20.63522387498532
 10
41.32269950759084
 20
20.66295868771694
 10
41.35970419047855
 20
20.69585382005673
 10
41.38405296366128
 20
20.73247159687307
 10
41.39468166891256
 20
20.7712116456075
 10
41.39112578081075
 20
20.81038084023496
 10
41.37354070872891
 20
20.84826729899556
 10
41.34269500469959
 20
20.88321520184207
 10
41.29993677400295
 20
20.91369715772146
  0
ARC
  5
4E2
330
1F
100
AcDbEntity
  8
OBJECT
  6
SLD-Solid
370
    25
100
AcDbCircle
 10
40.88779199160603
 20
20.76269094182693
 30
0.0
 40
0.1431579118803731
100
AcDbArc
 50
124.683585370057
 51
174.6947999131462
  0
ARC
  5
4E3
330
1F
100
AcDbEntity
  8
OBJECT
  6
SLD-Solid
370
    25
100
AcDbCircle
 10
41.24614165135237
 20
20.75899594209369
 30
0.0
 40
0.1498249434206777
100
AcDbArc
 50
6.488781388811286
 51
54.13283398312022
  0
ARC
  5
4E4
330
1F
100
AcDbEntity
  8
OBJECT
  6
SLD-Solid
370
    25
100
AcDbCircle
 10
40.88830162389492
 20
20.77655746884254
 30
0.0
 40
0.1332979126931242
100
AcDbArc
 50
182.4651578053933
 51
232.0510462809334
  0
ARC
  5
4E5
330
1F
100
AcDbEntity
  8
OBJECT
  6
SLD-Solid
370
    25
100
AcDbCircle
 10
41.24910236492307
 20
20.77802590319446
 30
0.0
 40
0.1362152219435303
100
AcDbArc
 50
308.5144891126524
 51
356.9693064685151
  0
LWPOLYLINE
  5
4E6
330
1F
100
AcDbEntity
  8
OBJECT
  6
SLD-Solid
370
    25
100
AcDbPolyline
 90
       30
 70
   128
 43
0.0
 10
41.29286570619108
 20
20.90961511716235
 10
41.23977597800901
 20
20.93425070696984
 10
41.17875365544513
 20
20.95172190606845
 10
41.1126520744811
 20
20.96121178060616
 10
41.04456207157618
 20
20.96227659459684
 10
40.97766745958958
 20
20.95486655852172
 10
40.91509615622978
 20
20.93932815743202
 10
40.85977392609888
 20
20.916387949693
 10
40.81428757519155
 20
20.88711859392233
 10
40.78076399472178
 20
20.8528886926653
 10
40.76077071005354
 20
20.81529879806087
 10
40.75524258495699
 20
20.7761065718026
 10
40.76443810841756
 20
20.73714459883126
 10
40.78792730797834
 20
20.7002346976999
 10
40.82461185477422
 20
20.667102734363
 10
40.87277642016898
 20
20.63929792260267
 10
40.93016888261584
 20
20.61812038451397
 10
40.99410563435791
 20
20.60456035824081
 10
41.06159706394434
 20
20.59925189554083
 10
41.12948734713899
 20
20.60244321422994
 10
41.19460200975432
 20
20.61398509179314
 10
41.25389636253618
 20
20.63333784286345
 10
41.30459786744944
 20
20.65959655430987
 10
41.34433577847502
 20
20.6915333979696
 10
41.37125199505888
 20
20.72765504252839
 10
41.38408794482879
 20
20.76627248003299
 10
41.38224343303965
 20
20.80558000202587
 10
41.36580470701268
 20
20.84373963246583
 10
41.33554042330656
 20
20.87896706944488
 10
41.29286570619108
 20
20.90961511716235
  0
LINE
  5
4E7
330
1F
100
AcDbEntity
  8
OBJECT
  6
SLD-Solid
370
    25
100
AcDbLine
 10
41.0442828635298
 20
20.72937293162668
 30
0.0
 11
41.30944790647476
 21
20.88244945259343
 31
0.0
  0
LINE
  5
4E8
330
1F
100
AcDbEntity
  8
OBJECT
  6
SLD-Solid
370
    25
100
AcDbLine
 10
41.30944790647476
 20
20.88244945259343
 30
0.0
 11
41.24580829616797
 21
20.91918781762546
 31
0.0
  0
LINE
  5
4E9
330
1F
100
AcDbEntity
  8
OBJECT
  6
SLD-Solid
370
    25
100
AcDbLine
 10
41.24580829616797
 20
20.91918781762546
 30
0.0
 11
40.98064325322301
 21
20.7661112966587
 31
0.0
  0
LINE
  5
4EA
330
1F
100
AcDbEntity
  8
OBJECT
  6
SLD-Solid
370
    25
100
AcDbLine
 10
40.98064325322301
 20
20.7661112966587
 30
0.0
 11
41.0442828635298
 21
20.72937293162668
 31
0.0
  0
LINE
  5
4EB
330
1F
100
AcDbEntity
  8
OBJECT
  6
SLD-Solid
370
    25
100
AcDbLine
 10
41.39969983379147
 20
20.42369357999688
 30
0.0
 11
41.43119656214576
 21
20.42185457518221
 31
0.0
  0
LINE
  5
4EC
330
1F
100
AcDbEntity
  8
OBJECT
  6
SLD-Solid
370
    25
100
AcDbLine
 10
41.24580829616797
 20
20.84571108756142
 30
0.0
 11
41.24580829616797
 21
20.91918781762546
 31
0.0
  0
LINE
  5
4ED
330
1F
100
AcDbEntity
  8
OBJECT
  6
SLD-Solid
370
    25
100
AcDbLine
 10
38.5666597912101
 20
22.82848282634756
 30
0.0
 11
38.59465018178905
 21
22.84464658773631
 31
0.0
  0
ARC
  5
4EE
330
1F
100
AcDbEntity
  8
OBJECT
  6
SLD-Solid
370
    25
100
AcDbCircle
 10
38.64642178344452
 20
22.73005960583096
 30
0.0
 40
0.1257397119455488
100
AcDbArc
 50
54.38182734008511
 51
114.3139521614457
  0
LINE
  5
4EF
330
1F
100
AcDbEntity
  8
OBJECT
  6
SLD-Solid
370
    25
100
AcDbLine
 10
38.71965018178905
 20
22.83227544039705
 30
0.0
 11
39.31817831921292
 21
22.48675250132481
 31
0.0
  0
ARC
  5
4F0
330
1F
100
AcDbEntity
  8
OBJECT
  6
SLD-Solid
370
    25
100
AcDbCircle
 10
39.11184609757212
 20
22.16463646244582
 30
0.0
 40
0.3825333033741229
100
AcDbArc
 50
22.22512299850669
 51
57.35830674335136
  0
ARC
  5
4F1
330
1F
100
AcDbEntity
  8
OBJECT
  6
SLD-Solid
370
    25
100
AcDbCircle
 10
44.19784158399117
 20
19.5432083936256
 30
0.0
 40
0.111030230934454
100
AcDbArc
 50
50.86000944371303
 51
134.4091846715781
  0
LINE
  5
4F2
330
1F
100
AcDbEntity
  8
OBJECT
  6
SLD-Solid
370
    25
100
AcDbLine
 10
44.86645392494263
 20
19.2838011708731
 30
0.0
 11
44.26792578751876
 21
19.62932410994534
 31
0.0
  0
ARC
  5
4F3
330
1F
100
AcDbEntity
  8
OBJECT
  6
SLD-Solid
370
    25
100
AcDbCircle
 10
44.67557731369957
 20
18.97779630710527
 30
0.0
 40
0.3606561483867977
100
AcDbArc
 50
28.85560887918079
 51
58.04532835051242
  0
LINE
  5
4F4
330
1F
100
AcDbEntity
  8
OBJECT
  6
SLD-Solid
370
    25
100
AcDbLine
 10
45.01944431552153
 20
19.10336961172688
 30
0.0
 11
44.99145392494263
 21
19.15185039019095
 31
0.0
  0
LINE
  5
4F5
330
1F
100
AcDbEntity
  8
OBJECT
  6
SLD-Solid
370
    25
100
AcDbLine
 10
45.01196002159705
 20
19.16368830781238
 30
0.0
 11
44.99145392494263
 21
19.15185039019095
 31
0.0
  0
LINE
  5
4F6
330
1F
100
AcDbEntity
  8
OBJECT
  6
SLD-Solid
370
    25
100
AcDbLine
 10
45.06045317628374
 20
19.07969570032223
 30
0.0
 11
45.01196002159705
 21
19.16368830781238
 31
0.0
  0
LINE
  5
4F7
330
1F
100
AcDbEntity
  8
OBJECT
  6
SLD-Solid
370
    25
100
AcDbLine
 10
44.88696002159703
 20
19.29563908849453
 30
0.0
 11
44.86645392494263
 21
19.2838011708731
 31
0.0
  0
ARC
  5
4F8
330
1F
100
AcDbEntity
  8
OBJECT
  6
SLD-Solid
370
    25
100
AcDbCircle
 10
44.69608341035388
 20
18.98963422472659
 30
0.0
 40
0.3606561483869424
100
AcDbArc
 50
28.85560887918745
 51
58.04532835050798
  0
LINE
  5
4F9
330
1F
100
AcDbEntity
  8
OBJECT
  6
SLD-Solid
370
    25
100
AcDbLine
 10
44.28843188417318
 20
19.64116202756676
 30
0.0
 11
44.26792578751876
 21
19.62932410994534
 31
0.0
  0
LINE
  5
4FA
330
1F
100
AcDbEntity
  8
OBJECT
  6
SLD-Solid
370
    25
100
AcDbLine
 10
44.88696002159703
 20
19.29563908849453
 30
0.0
 11
44.28843188417318
 21
19.64116202756676
 31
0.0
  0
ARC
  5
4FB
330
1F
100
AcDbEntity
  8
OBJECT
  6
SLD-Solid
370
    25
100
AcDbCircle
 10
44.21520187046055
 20
19.53894169528712
 30
0.0
 40
0.1257443089754471
100
AcDbArc
 50
54.38242252480653
 51
114.3071190461018
  0
LINE
  5
4FC
330
1F
100
AcDbEntity
  8
OBJECT
  6
SLD-Solid
370
    25
100
AcDbLine
 10
39.33868441586733
 20
22.49859041894624
 30
0.0
 11
39.31817831921292
 21
22.48675250132481
 31
0.0
  0
ARC
  5
4FD
330
1F
100
AcDbEntity
  8
OBJECT
  6
SLD-Solid
370
    25
100
AcDbCircle
 10
39.13010270094307
 20
22.17361133295998
 30
0.0
 40
0.386157659679586
100
AcDbArc
 50
17.66697213420706
 51
57.3063865442291
  0
LINE
  5
4FE
330
1F
100
AcDbEntity
  8
OBJECT
  6
SLD-Solid
370
    25
100
AcDbLine
 10
38.74015627844346
 20
22.84411335801849
 30
0.0
 11
38.71965018178905
 21
22.83227544039705
 31
0.0
  0
LINE
  5
4FF
330
1F
100
AcDbEntity
  8
OBJECT
  6
SLD-Solid
370
    25
100
AcDbLine
 10
38.74015627844346
 20
22.84411335801849
 30
0.0
 11
39.33868441586733
 21
22.49859041894624
 31
0.0
  0
LINE
  5
500
330
1F
100
AcDbEntity
  8
OBJECT
  6
SLD-Solid
370
    25
100
AcDbLine
 10
38.61515627844346
 20
22.85648450535774
 30
0.0
 11
38.59465018178905
 21
22.84464658773631
 31
0.0
  0
ARC
  5
501
330
1F
100
AcDbEntity
  8
OBJECT
  6
SLD-Solid
370
    25
100
AcDbCircle
 10
38.66692788009893
 20
22.74189752345241
 30
0.0
 40
0.1257397119455261
100
AcDbArc
 50
54.38182734008209
 51
114.3139521614503
  0
LWPOLYLINE
  5
502
330
1F
100
AcDbEntity
  8
OBJECT
  6
SLD-Solid
370
    25
100
AcDbPolyline
 90
       17
 70
   128
 43
0.0
 10
44.41931954216614
 20
7.619009696488663
 10
44.41235983156226
 20
7.640143794643844
 10
44.39759468323126
 20
7.651781781973789
 10
44.37727195716013
 20
7.652151880406129
 10
44.35448560416723
 20
7.641197745809492
 10
44.33270463993694
 20
7.620587045876736
 10
44.31524501882836
 20
7.593457572836164
 10
44.30476480988343
 20
7.563939543028921
 10
44.30285952991068
 20
7.53652680891155
 10
44.30981924051456
 20
7.515392710756366
 10
44.32458438884556
 20
7.503754723426423
 10
44.34490711491669
 20
7.503384624994084
 10
44.36769346790958
 20
7.514338759590722
 10
44.38947443213989
 20
7.534949459523476
 10
44.40693405324847
 20
7.562078932564049
 10
44.4174142621934
 20
7.591596962371292
 10
44.41931954216614
 20
7.619009696488663
  0
LWPOLYLINE
  5
503
330
1F
100
AcDbEntity
  8
OBJECT
  6
SLD-Solid
370
    25
100
AcDbPolyline
 90
       24
 70
   128
 43
0.0
 10
44.47161434791492
 20
7.683317918625628
 10
44.47076005969129
 20
7.641141810710961
 10
44.46019872418271
 20
7.595173814735893
 10
44.44071362732898
 20
7.548823166672308
 10
44.41374988962532
 20
7.505527482046977
 10
44.38130728814635
 20
7.468497803723983
 10
44.34579194222871
 20
7.440480453545035
 10
44.30983786260724
 20
7.423553350202056
 10
44.27611159888848
 20
7.418971899513653
 10
44.24711447376507
 20
7.427075886718644
 10
44.22499707135439
 20
7.447264276159299
 10
44.21139973821285
 20
7.478039787346554
 10
44.20733092633591
 20
7.517119941404239
 10
44.2130924008869
 20
7.561606342085701
 10
44.22825685965535
 20
7.608199636564144
 10
44.25169962410721
 20
7.653444213338241
 10
44.28168205164659
 20
7.69398448912882
 10
44.31598048278337
 20
7.726813777139913
 10
44.35205115978502
 20
7.749497279263743
 10
44.38721888555069
 20
7.760352663917899
 10
44.41887543074199
 20
7.758574836882659
 10
44.44467297422113
 20
7.744295651456217
 10
44.46269823020418
 20
7.718574129498724
 10
44.47161434791492
 20
7.683317918625628
  0
LWPOLYLINE
  5
504
330
1F
100
AcDbEntity
  8
OBJECT
  6
SLD-Solid
370
    25
100
AcDbPolyline
 90
       13
 70
   128
 43
0.0
 10
44.41594104425778
 20
7.762603637471611
 10
44.40119776121232
 20
7.768779938280445
 10
44.36954121602103
 20
7.77055776531568
 10
44.33437349025536
 20
7.759702380661525
 10
44.29830281325371
 20
7.737018878537697
 10
44.26400438211693
 20
7.7041895905266
 10
44.23402195457755
 20
7.663649314736022
 10
44.21057919012569
 20
7.618404737961928
 10
44.19541473135723
 20
7.571811443483484
 10
44.18965325680625
 20
7.52732504280202
 10
44.19372206868319
 20
7.488244888744335
 10
44.20731940182473
 20
7.457469377557084
 10
44.22845628188852
 20
7.437835314078852
  0
LWPOLYLINE
  5
505
330
1F
100
AcDbEntity
  8
OBJECT
  6
SLD-Solid
370
    25
100
AcDbPolyline
 90
       17
 70
   128
 43
0.0
 10
44.40324570093829
 20
7.607625386859524
 10
44.39820715247533
 20
7.622925617549622
 10
44.38751778338189
 20
7.631351048793912
 10
44.37280495320306
 20
7.631618985062177
 10
44.35630855696143
 20
7.623688635486421
 10
44.34054002144459
 20
7.608767323900754
 10
44.32789996324284
 20
7.589126684732068
 10
44.32031271663499
 20
7.567756827250959
 10
44.31893337113853
 20
7.547911118540688
 10
44.32397191960148
 20
7.532610887850589
 10
44.33466128869492
 20
7.5241854566063
 10
44.34937411887375
 20
7.523917520338036
 10
44.36587051511539
 20
7.531847869913792
 10
44.38163905063222
 20
7.546769181499458
 10
44.39427910883397
 20
7.566409820668145
 10
44.40186635544182
 20
7.587779678149253
 10
44.40324570093829
 20
7.607625386859524
  0
LWPOLYLINE
  5
506
330
1F
100
AcDbEntity
  8
OBJECT
  6
SLD-Solid
370
    25
100
AcDbPolyline
 90
        3
 70
   128
 43
0.0
 10
44.38874944139121
 20
8.874268545341357
 10
44.34856488680769
 20
8.839328329637983
 10
44.24041974936738
 20
8.738277264233576
  0
LWPOLYLINE
  5
507
330
1F
100
AcDbEntity
  8
OBJECT
  6
SLD-Solid
370
    25
100
AcDbPolyline
 90
        3
 70
   128
 43
0.0
 10
44.23410234539965
 20
8.76506712485453
 10
44.3273516833721
 20
8.85157445131532
 10
44.38944451796396
 20
8.904987327016475
  0
LINE
  5
508
330
1F
100
AcDbEntity
  8
OBJECT
  6
SLD-Solid
370
    25
100
AcDbLine
 10
44.38944451796396
 20
9.047333027433496
 30
0.0
 11
44.23381031542481
 21
9.137178740139579
 31
0.0
  0
LINE
  5
509
330
1F
100
AcDbEntity
  8
OBJECT
  6
SLD-Solid
370
    25
100
AcDbLine
 10
44.38944451796396
 20
9.071825270788178
 30
0.0
 11
44.23381031542481
 21
9.161670983494261
 31
0.0
  0
LINE
  5
50A
330
1F
100
AcDbEntity
  8
OBJECT
  6
SLD-Solid
370
    25
100
AcDbLine
 10
35.03389560867181
 20
20.67187771144503
 30
0.0
 11
42.74489191905872
 21
16.22041429352178
 31
0.0
  0
LINE
  5
50B
330
1F
100
AcDbEntity
  8
OBJECT
  6
SLD-Solid
370
    25
100
AcDbLine
 10
35.03389560867181
 20
20.67187771144503
 30
0.0
 11
35.03154384094995
 21
20.68634701897039
 31
0.0
  0
ARC
  5
50C
330
1F
100
AcDbEntity
  8
OBJECT
  6
SLD-Solid
370
    25
100
AcDbCircle
 10
35.0871047997826
 20
20.69426111576131
 30
0.0
 40
0.0561217700577921
100
AcDbArc
 50
149.2644182085308
 51
188.1066722213549
  0
LINE
  5
50D
330
1F
100
AcDbEntity
  8
OBJECT
  6
SLD-Solid
370
    25
100
AcDbLine
 10
35.03886617142029
 20
20.72294365065874
 30
0.0
 11
35.71795080723535
 21
21.89915273907782
 31
0.0
  0
ARC
  5
50E
330
1F
100
AcDbEntity
  8
OBJECT
  6
SLD-Solid
370
    25
100
AcDbCircle
 10
35.76691369270227
 20
21.87171541977588
 30
0.0
 40
0.0561263809961369
100
AcDbArc
 50
111.8949637619867
 51
150.7350492046722
  0
LINE
  5
50F
330
1F
100
AcDbEntity
  8
OBJECT
  6
SLD-Solid
370
    25
100
AcDbLine
 10
35.74598381582435
 20
21.92379335077931
 30
0.0
 11
35.80073255316588
 21
21.94455799312542
 31
0.0
  0
LINE
  5
510
330
1F
100
AcDbEntity
  8
OBJECT
  6
SLD-Solid
370
    25
100
AcDbLine
 10
43.4636456024321
 20
17.52085245100417
 30
0.0
 11
35.80073255316588
 21
21.94455799312542
 31
0.0
  0
LINE
  5
511
330
1F
100
AcDbEntity
  8
OBJECT
  6
SLD-Solid
370
    25
100
AcDbLine
 10
43.47303900071433
 20
17.46305934193555
 30
0.0
 11
43.4636456024321
 21
17.52085245100417
 31
0.0
  0
ARC
  5
512
330
1F
100
AcDbEntity
  8
OBJECT
  6
SLD-Solid
370
    25
100
AcDbCircle
 10
43.4174780418815
 20
17.45514524514467
 30
0.0
 40
0.0561217700579616
100
AcDbArc
 50
329.264418208567
 51
8.106672221281809
  0
LINE
  5
513
330
1F
100
AcDbEntity
  8
OBJECT
  6
SLD-Solid
370
    25
100
AcDbLine
 10
42.78663203442891
 20
16.25025362182811
 30
0.0
 11
43.46571667024398
 21
17.42646271024719
 31
0.0
  0
ARC
  5
514
330
1F
100
AcDbEntity
  8
OBJECT
  6
SLD-Solid
370
    25
100
AcDbCircle
 10
42.73766914896184
 20
16.27769094113021
 30
0.0
 40
0.0561263809963531
100
AcDbArc
 50
291.8949637620706
 51
330.7350492046055
  0
LINE
  5
515
330
1F
100
AcDbEntity
  8
OBJECT
  6
SLD-Solid
370
    25
100
AcDbLine
 10
42.74489191905872
 20
16.22041429352178
 30
0.0
 11
42.75859902583992
 21
16.22561301012661
 31
0.0
  0
LINE
  5
516
330
1F
100
AcDbEntity
  8
OBJECT
  6
SLD-Solid
370
    25
100
AcDbLine
 10
44.41058701072144
 20
8.875239659780947
 30
0.0
 11
44.41058701072145
 21
9.89591567463815
 31
0.0
  0
LWPOLYLINE
  5
517
330
1F
100
AcDbEntity
  8
OBJECT
  6
SLD-Solid
370
    25
100
AcDbPolyline
 90
       10
 70
   128
 43
0.0
 10
44.41058701072145
 20
9.89591567463815
 10
44.40525654112172
 20
9.92774763572763
 10
44.3899080656256
 20
9.949585763320865
 10
44.36639283689729
 20
9.958796056933673
 10
44.33754713856926
 20
9.954267619226886
 10
44.30685018757701
 20
9.936546646620572
 10
44.27800448924896
 20
9.907770549944754
 10
44.25448926052066
 20
9.871410151148488
 10
44.23914078502455
 20
9.83185105094894
 10
44.23381031542482
 20
9.793864660660313
  0
LINE
  5
518
330
1F
100
AcDbEntity
  8
OBJECT
  6
SLD-Solid
370
    25
100
AcDbLine
 10
44.23381031542482
 20
9.793864660660313
 30
0.0
 11
44.2338103154248
 21
8.773188645803112
 31
0.0
  0
LWPOLYLINE
  5
519
330
1F
100
AcDbEntity
  8
OBJECT
  6
SLD-Solid
370
    25
100
AcDbPolyline
 90
       10
 70
   128
 43
0.0
 10
44.2338103154248
 20
8.773188645803112
 10
44.23914078502453
 20
8.74135668471363
 10
44.25448926052066
 20
8.719518557120393
 10
44.27800448924896
 20
8.710308263507587
 10
44.30685018757699
 20
8.714836701214368
 10
44.33754713856924
 20
8.732557673820681
 10
44.36639283689727
 20
8.761333770496499
 10
44.38990806562557
 20
8.797694169292765
 10
44.40525654112169
 20
8.837253269492313
 10
44.41058701072144
 20
8.875239659780947
  0
ARC
  5
51A
330
1F
100
AcDbEntity
  8
OBJECT
  6
SLD-Solid
370
    25
100
AcDbCircle
 10
43.62614289758901
 20
17.38509224665592
 30
0.0
 40
0.1154099674839978
100
AcDbArc
 50
121.9546716494949
 51
151.1443911207447
  0
LINE
  5
51B
330
1F
100
AcDbEntity
  8
OBJECT
  6
SLD-Solid
370
    25
100
AcDbLine
 10
45.63034620826831
 20
18.6752767779407
 30
0.0
 11
43.5650623819911
 21
17.48301380306181
 31
0.0
  0
ARC
  5
51C
330
1F
100
AcDbEntity
  8
OBJECT
  6
SLD-Solid
370
    25
100
AcDbCircle
 10
45.64414782895631
 20
18.65835629998705
 30
0.0
 40
0.021835459871392
100
AcDbArc
 50
350.7859630094686
 51
129.2032852357721
  0
LINE
  5
51D
330
1F
100
AcDbEntity
  8
OBJECT
  6
SLD-Solid
370
    25
100
AcDbLine
 10
45.6657015473276
 20
18.654859940142
 30
0.0
 11
45.66570154732758
 21
8.13002839762922
 31
0.0
  0
ARC
  5
51E
330
1F
100
AcDbEntity
  8
OBJECT
  6
SLD-Solid
370
    25
100
AcDbCircle
 10
44.90133769738016
 20
8.163085783585572
 30
0.0
 40
0.7650783527670246
100
AcDbArc
 50
302.4763978921754
 51
357.5236019621998
  0
LINE
  5
51F
330
1F
100
AcDbEntity
  8
OBJECT
  6
SLD-Solid
370
    25
100
AcDbLine
 10
44.96427622718002
 20
7.316833773419489
 30
0.0
 11
45.31214815673432
 21
7.517655963730668
 31
0.0
  0
ARC
  5
520
330
1F
100
AcDbEntity
  8
OBJECT
  6
SLD-Solid
370
    25
100
AcDbCircle
 10
44.80014086659575
 20
7.575954076022619
 30
0.0
 40
0.3067307415556275
100
AcDbArc
 50
267.6251322939034
 51
302.3515205643923
  0
LINE
  5
521
330
1F
100
AcDbEntity
  8
OBJECT
  6
SLD-Solid
370
    25
100
AcDbLine
 10
42.81599050846766
 20
7.446445312492656
 30
0.0
 11
44.78743074425125
 21
7.269486784774021
 31
0.0
  0
LINE
  5
522
330
1F
100
AcDbEntity
  8
OBJECT
  6
SLD-Solid
370
    25
100
AcDbLine
 10
42.81599050846766
 20
16.17936442473503
 30
0.0
 11
42.81599050846765
 21
7.446445312492657
 31
0.0
  0
LINE
  5
523
330
1F
100
AcDbEntity
  8
OBJECT
  6
SLD-Solid
370
    25
100
AcDbLine
 10
42.81599050846766
 20
16.18558326340639
 30
0.0
 11
42.81599050846766
 21
16.17936442473503
 31
0.0
  0
ARC
  5
524
330
1F
100
AcDbEntity
  8
OBJECT
  6
SLD-Solid
370
    25
100
AcDbCircle
 10
42.93134772047505
 20
16.18164258932321
 30
0.0
 40
0.1154245003209797
100
AcDbArc
 50
148.8562722007001
 51
178.0435013567691
  0
LINE
  5
525
330
1F
100
AcDbEntity
  8
OBJECT
  6
SLD-Solid
370
    25
100
AcDbLine
 10
43.52506238199111
 20
17.44078955324358
 30
0.0
 11
42.83255905096265
 21
16.24133860301187
 31
0.0
  0
LINE
  5
526
330
1F
100
AcDbEntity
  8
OBJECT
  6
SLD-Solid
370
    25
100
AcDbLine
 10
43.52506238199111
 20
17.44078955324358
 30
0.0
 11
43.50391988923364
 21
17.45299485451532
 31
0.0
  0
LINE
  5
527
330
1F
100
AcDbEntity
  8
OBJECT
  6
SLD-Solid
370
    25
100
AcDbLine
 10
42.81141655820517
 20
16.25354390428362
 30
0.0
 11
42.83255905096265
 21
16.24133860301187
 31
0.0
  0
LINE
  5
528
330
1F
100
AcDbEntity
  8
OBJECT
  6
SLD-Solid
370
    25
100
AcDbLine
 10
43.50391988923364
 20
17.45299485451532
 30
0.0
 11
42.81141655820517
 21
16.25354390428362
 31
0.0
  0
LINE
  5
529
330
1F
100
AcDbEntity
  8
OBJECT
  6
SLD-Solid
370
    25
100
AcDbLine
 10
43.48066667024397
 20
17.4178294533414
 30
0.0
 11
43.46571667024398
 21
17.42646271024719
 31
0.0
  0
LINE
  5
52A
330
1F
100
AcDbEntity
  8
OBJECT
  6
SLD-Solid
370
    25
100
AcDbLine
 10
42.78663203442891
 20
16.25025362182811
 30
0.0
 11
42.80158203442892
 21
16.24162036492231
 31
0.0
  0
LINE
  5
52B
330
1F
100
AcDbEntity
  8
OBJECT
  6
SLD-Solid
370
    25
100
AcDbLine
 10
42.80158203442892
 20
16.24162036492231
 30
0.0
 11
43.48066667024397
 21
17.4178294533414
 31
0.0
  0
LINE
  5
52C
330
1F
100
AcDbEntity
  8
OBJECT
  6
SLD-Solid
370
    25
100
AcDbLine
 10
42.77354902583992
 20
16.21697975322081
 30
0.0
 11
42.75859902583992
 21
16.22561301012661
 31
0.0
  0
ARC
  5
52D
330
1F
100
AcDbEntity
  8
OBJECT
  6
SLD-Solid
370
    25
100
AcDbCircle
 10
42.75261914896177
 20
16.26905768422448
 30
0.0
 40
0.0561263809964481
100
AcDbArc
 50
291.8949637621028
 51
330.7350492045808
  0
LINE
  5
52E
330
1F
100
AcDbEntity
  8
OBJECT
  6
SLD-Solid
370
    25
100
AcDbLine
 10
43.47303900071433
 20
17.46305934193555
 30
0.0
 11
43.48798900071431
 21
17.45442608502977
 31
0.0
  0
ARC
  5
52F
330
1F
100
AcDbEntity
  8
OBJECT
  6
SLD-Solid
370
    25
100
AcDbCircle
 10
43.43242804188159
 20
17.44651198823886
 30
0.0
 40
0.0561217700578665
100
AcDbArc
 50
329.26441820855
 51
8.106672221328445
  0
LINE
  5
530
330
1F
100
AcDbEntity
  8
OBJECT
  6
SLD-Solid
370
    25
100
AcDbLine
 10
43.4636456024321
 20
17.52085245100417
 30
0.0
 11
43.47859560243212
 21
17.51221919409836
 31
0.0
  0
LINE
  5
531
330
1F
100
AcDbEntity
  8
OBJECT
  6
SLD-Solid
370
    25
100
AcDbLine
 10
43.48798900071431
 20
17.45442608502977
 30
0.0
 11
43.47859560243212
 21
17.51221919409836
 31
0.0
  0
LINE
  5
532
330
1F
100
AcDbEntity
  8
OBJECT
  6
SLD-Solid
370
    25
100
AcDbLine
 10
42.81599050846766
 20
16.18558326340639
 30
0.0
 11
42.79484801571019
 21
16.19778856467814
 31
0.0
  0
ARC
  5
533
330
1F
100
AcDbEntity
  8
OBJECT
  6
SLD-Solid
370
    25
100
AcDbCircle
 10
42.91020522771556
 20
16.19384789059556
 30
0.0
 40
0.115424500318941
100
AcDbArc
 50
148.8562722004386
 51
178.0435013570363
  0
LINE
  5
534
330
1F
100
AcDbEntity
  8
OBJECT
  6
SLD-Solid
370
    25
100
AcDbLine
 10
43.54391988923363
 20
17.49521910433358
 30
0.0
 11
43.5650623819911
 21
17.48301380306181
 31
0.0
  0
ARC
  5
535
330
1F
100
AcDbEntity
  8
OBJECT
  6
SLD-Solid
370
    25
100
AcDbCircle
 10
43.60500040483095
 20
17.39729754792829
 30
0.0
 40
0.1154099674831766
100
AcDbArc
 50
121.9546716494003
 51
151.1443911208753
  0
LINE
  5
536
330
1F
100
AcDbEntity
  8
OBJECT
  6
SLD-Solid
370
    25
100
AcDbLine
 10
42.73269332964387
 20
7.450715067339094
 30
0.0
 11
42.73269332964391
 21
16.179364424735
 31
0.0
  0
ARC
  5
537
330
1F
100
AcDbEntity
  8
OBJECT
  6
SLD-Solid
370
    25
100
AcDbCircle
 10
42.77434191905576
 20
16.25974590764202
 30
0.0
 40
0.0905305903810907
100
AcDbArc
 50
242.6096722365882
 51
297.3903277634677
  0
SPLINE
  5
538
330
1F
100
AcDbEntity
  8
OBJECT
  6
SLD-Solid
370
    25
100
AcDbSpline
210
0.0
220
0.0
230
1.0
 70
    12
 71
     3
 72
    11
 73
     7
 74
     0
 42
0.00000001
 43
0.00000001
 40
0.0
 40
0.0
 40
0.0
 40
0.0
 40
0.250000340265089
 40
0.500000680530233
 40
0.7500010207953807
 40
1.0
 40
1.0
 40
1.0
 40
1.0
 10
42.8159905084676
 20
7.44644531249264
 30
0.0
 41
1.0
 10
42.81270947615858
 20
7.44631299980994
 30
0.0
 41
1.0
 10
42.80614741154054
 20
7.446048374444538
 30
0.0
 41
1.0
 10
42.79420044387548
 20
7.447423106409118
 30
0.0
 41
1.0
 10
42.78140342867656
 20
7.450179227675563
 30
0.0
 41
1.0
 10
42.77266957768273
 20
7.453443853652396
 30
0.0
 41
1.0
 10
42.76830266407313
 20
7.455076162197454
 30
0.0
 41
1.0
  0
SPLINE
  5
539
330
1F
100
AcDbEntity
  8
OBJECT
  6
SLD-Solid
370
    25
100
AcDbSpline
210
0.0
220
0.0
230
1.0
 70
    12
 71
     3
 72
    14
 73
    10
 74
     0
 42
0.00000001
 43
0.00000001
 40
0.0
 40
0.0
 40
0.0
 40
0.0
 40
0.3350534435246604
 40
0.470331856898183
 40
0.5876175006872976
 40
0.6918353102142162
 40
0.7899073026602498
 40
0.8900444359901823
 40
1.0
 40
1.0
 40
1.0
 40
1.0
 10
42.76830259300527
 20
7.455076191571551
 30
0.0
 41
1.0
 10
42.76281224565843
 20
7.456210661820485
 30
0.0
 41
1.0
 10
42.75510516097518
 20
7.457803176415059
 30
0.0
 41
1.0
 10
42.7463111319543
 20
7.459382817062869
 30
0.0
 41
1.0
 10
42.74142872993021
 20
7.459744474803306
 30
0.0
 41
1.0
 10
42.7376791331161
 20
7.459189190716003
 30
0.0
 41
1.0
 10
42.73500648315592
 20
7.457511432318973
 30
0.0
 41
1.0
 10
42.73328943126073
 20
7.454668908157959
 30
0.0
 41
1.0
 10
42.73289812591181
 20
7.452073361906823
 30
0.0
 41
1.0
 10
42.73269332964385
 20
7.45071493890797
 30
0.0
 41
1.0
  0
ARC
  5
53A
330
1F
100
AcDbEntity
  8
OBJECT
  6
SLD-Solid
370
    25
100
AcDbCircle
 10
42.77434191905825
 20
16.23114634748329
 30
0.0
 40
0.0445736353419848
100
AcDbArc
 50
242.6096722413471
 51
297.3903277549638
  0
LINE
  5
53B
330
1F
100
AcDbEntity
  8
OBJECT
  6
SLD-Solid
370
    25
100
AcDbLine
 10
42.81599050847008
 20
16.17936442473367
 30
0.0
 11
42.7948480157126
 21
16.19156972600542
 31
0.0
  0
LINE
  5
53C
330
1F
100
AcDbEntity
  8
OBJECT
  6
SLD-Solid
370
    25
100
AcDbLine
 10
42.73269332964151
 20
16.17936442473363
 30
0.0
 11
42.75383582240135
 21
16.19156972600674
 31
0.0
  0
LINE
  5
53D
330
1F
100
AcDbEntity
  8
OBJECT
  6
SLD-Solid
370
    25
100
AcDbLine
 10
42.75984191905457
 20
16.21178103661169
 30
0.0
 11
42.74489191905872
 21
16.22041429352178
 31
0.0
  0
LINE
  5
53E
330
1F
100
AcDbEntity
  8
OBJECT
  6
SLD-Solid
370
    25
100
AcDbLine
 10
42.75984191905457
 20
16.21178103661169
 30
0.0
 11
42.77354902583992
 21
16.21697975322081
 31
0.0
  0
ARC
  5
53F
330
1F
100
AcDbEntity
  8
OBJECT
  6
SLD-Solid
370
    25
100
AcDbCircle
 10
42.79565281175272
 20
16.19014123165193
 30
0.0
 40
0.0418413813650402
100
AcDbArc
 50
148.8562722034306
 51
178.0435013571871
  0
ARC
  5
540
330
1F
100
AcDbEntity
  8
OBJECT
  6
SLD-Solid
370
    25
100
AcDbCircle
 10
42.81762507705716
 20
16.17646310341206
 30
0.0
 40
0.0849812884374323
100
AcDbArc
 50
148.8562722069418
 51
178.0435013397467
  0
ARC
  5
541
330
1F
100
AcDbEntity
  8
OBJECT
  6
SLD-Solid
370
    25
100
AcDbCircle
 10
35.10662876653809
 20
20.62792652137457
 30
0.0
 40
0.0849812883040159
100
AcDbArc
 50
148.8562721835111
 51
178.0435013631526
  0
LINE
  5
542
330
1F
100
AcDbEntity
  8
OBJECT
  6
SLD-Solid
370
    25
100
AcDbLine
 10
42.73269332964151
 20
16.17936442473363
 30
0.0
 11
35.0216970192546
 21
20.6308278426569
 31
0.0
  0
SPLINE
  5
543
330
1F
100
AcDbEntity
  8
OBJECT
  6
SLD-Solid
370
    25
100
AcDbSpline
210
0.0
220
0.0
230
1.0
 70
    12
 71
     3
 72
    11
 73
     7
 74
     0
 42
0.00000001
 43
0.00000001
 40
0.0
 40
0.0
 40
0.0
 40
0.0
 40
0.2499999999999778
 40
0.4999999999999799
 40
0.7499999999999739
 40
1.0
 40
1.0
 40
1.0
 40
1.0
 10
43.53410779574094
 20
17.50384580111278
 30
0.0
 41
1.0
 10
43.53209071546863
 20
17.506140166228
 30
0.0
 41
1.0
 10
43.528056554924
 20
17.51072889645845
 30
0.0
 41
1.0
 10
43.51818801204486
 20
17.51833412569581
 30
0.0
 41
1.0
 10
43.50628330145251
 20
17.52476351821268
 30
0.0
 41
1.0
 10
43.49749150210558
 20
17.52660482917587
 30
0.0
 41
1.0
 10
43.49309560243212
 20
17.52752548465747
 30
0.0
 41
1.0
  0
LINE
  5
544
330
1F
100
AcDbEntity
  8
OBJECT
  6
SLD-Solid
370
    25
100
AcDbLine
 10
43.49309560243211
 20
17.55194005493286
 30
0.0
 11
43.49309560243213
 21
17.52752548465746
 31
0.0
  0
SPLINE
  5
545
330
1F
100
AcDbEntity
  8
OBJECT
  6
SLD-Solid
370
    25
100
AcDbSpline
210
0.0
220
0.0
230
1.0
 70
    12
 71
     3
 72
    11
 73
     7
 74
     0
 42
0.00000001
 43
0.00000001
 40
0.0
 40
0.0
 40
0.0
 40
0.0
 40
0.1528731931934847
 40
0.4352487954622215
 40
0.7176243977309514
 40
1.0
 40
1.0
 40
1.0
 40
1.0
 10
43.55144521463325
 20
17.49956338221623
 30
0.0
 41
1.0
 10
43.55011532384879
 20
17.50264928603658
 30
0.0
 41
1.0
 10
43.54632896111281
 20
17.51143523400209
 30
0.0
 41
1.0
 10
43.53337567129967
 20
17.52719066903239
 30
0.0
 41
1.0
 10
43.51462270918459
 20
17.54327377259284
 30
0.0
 41
1.0
 10
43.50027130468293
 20
17.54905129415286
 30
0.0
 41
1.0
 10
43.49309560243209
 20
17.55194005493287
 30
0.0
 41
1.0
  0
LINE
  5
546
330
1F
100
AcDbEntity
  8
OBJECT
  6
SLD-Solid
370
    25
100
AcDbLine
 10
43.53410779574093
 20
17.50384580111277
 30
0.0
 11
43.54648559062828
 21
17.49670025222159
 31
0.0
  0
ARC
  5
547
330
1F
100
AcDbEntity
  8
OBJECT
  6
SLD-Solid
370
    25
100
AcDbCircle
 10
45.55121732356982
 20
18.69197373463061
 30
0.0
 40
0.0905178031658892
100
AcDbArc
 50
2.605478485633285
 51
57.3945216600161
  0
LINE
  5
548
330
1F
100
AcDbEntity
  8
OBJECT
  6
SLD-Solid
370
    25
100
AcDbLine
 10
43.4930956024321
 20
17.55194005493287
 30
0.0
 11
45.59999296252837
 21
18.76822601154194
 31
0.0
  0
ARC
  5
549
330
1F
100
AcDbEntity
  8
OBJECT
  6
SLD-Solid
370
    25
100
AcDbCircle
 10
43.51523728933642
 20
17.49202892046025
 30
0.0
 40
0.0418361132130409
100
AcDbArc
 50
121.954671649508
 51
151.1443911206808
  0
ARC
  5
54A
330
1F
100
AcDbEntity
  8
OBJECT
  6
SLD-Solid
370
    25
100
AcDbCircle
 10
43.53806613204119
 20
17.47984530902892
 30
0.0
 40
0.0849705885602556
100
AcDbArc
 50
121.9546716495401
 51
151.1443911207382
  0
ARC
  5
54B
330
1F
100
AcDbEntity
  8
OBJECT
  6
SLD-Solid
370
    25
100
AcDbCircle
 10
35.87515308277472
 20
21.90355085115043
 30
0.0
 40
0.0849705885599119
100
AcDbArc
 50
121.9546716494932
 51
151.1443911208104
  0
LINE
  5
54C
330
1F
100
AcDbEntity
  8
OBJECT
  6
SLD-Solid
370
    25
100
AcDbLine
 10
35.83018255316586
 20
21.97564559705411
 30
0.0
 11
43.49309560243209
 21
17.55194005493286
 31
0.0
  0
LINE
  5
54D
330
1F
100
AcDbEntity
  8
OBJECT
  6
SLD-Solid
370
    25
100
AcDbLine
 10
42.79484801571019
 20
16.19778856467814
 30
0.0
 11
42.79484801571019
 21
16.19156972600678
 31
0.0
  0
LINE
  5
54E
330
1F
100
AcDbEntity
  8
OBJECT
  6
SLD-Solid
370
    25
100
AcDbLine
 10
45.63034620826831
 20
18.6752767779407
 30
0.0
 11
45.60920371551084
 21
18.68748207921244
 31
0.0
  0
LINE
  5
54F
330
1F
100
AcDbEntity
  8
OBJECT
  6
SLD-Solid
370
    25
100
AcDbLine
 10
45.60920371551084
 20
18.68748207921244
 30
0.0
 11
43.54391988923363
 21
17.49521910433358
 31
0.0
  0
LINE
  5
550
330
1F
100
AcDbEntity
  8
OBJECT
  6
SLD-Solid
370
    25
100
AcDbLine
 10
35.02169701925693
 20
11.90214670815177
 30
0.0
 11
35.02169701925693
 21
11.90217848526235
 31
0.0
  0
LINE
  5
551
330
1F
100
AcDbEntity
  8
OBJECT
  6
SLD-Solid
370
    25
100
AcDbLine
 10
35.02169701925693
 20
11.90217848526235
 30
0.0
 11
35.02169701925696
 21
20.63082784265828
 31
0.0
  0
LINE
  5
552
330
1F
100
AcDbEntity
  8
OBJECT
  6
SLD-Solid
370
    25
100
AcDbLine
 10
42.73269332964387
 20
7.450683290228512
 30
0.0
 11
42.73269332964387
 21
7.450715067339094
 31
0.0
  0
LINE
  5
553
330
1F
100
AcDbEntity
  8
OBJECT
  6
SLD-Solid
370
    25
100
AcDbLine
 10
35.02169701925693
 20
11.90214670815176
 30
0.0
 11
42.73269332964384
 21
7.450683290228514
 31
0.0
  0
LINE
  5
554
330
1F
100
AcDbEntity
  8
OBJECT
  6
SLD-Solid
370
    25
100
AcDbLine
 10
41.71550342930628
 20
20.94946347840921
 30
0.0
 11
41.82156944648426
 21
20.94946347840923
 31
0.0
  0
LINE
  5
555
330
1F
100
AcDbEntity
  8
OBJECT
  6
SLD-Solid
370
    25
100
AcDbLine
 10
41.82156944648426
 20
20.94946347840923
 30
0.0
 11
45.59999296252837
 21
18.76822601154196
 31
0.0
  0
LINE
  5
556
330
1F
100
AcDbEntity
  8
OBJECT
  6
SLD-Solid
370
    25
100
AcDbLine
 10
35.83018255316586
 20
21.97564559705412
 30
0.0
 11
37.93707991326216
 21
23.19193155366321
 31
0.0
  0
LINE
  5
557
330
1F
100
AcDbEntity
  8
OBJECT
  6
SLD-Solid
370
    25
100
AcDbLine
 10
37.93707991326217
 20
23.19193155366322
 30
0.0
 11
41.76853643789526
 21
20.98007878260258
 31
0.0
  0
LINE
  5
558
330
1F
100
AcDbEntity
  8
OBJECT
  6
SLD-Solid
370
    25
100
AcDbLine
 10
41.76853643789526
 20
20.98007878260258
 30
0.0
 11
41.71550342930628
 21
20.94946347840921
 31
0.0
  0
LINE
  5
559
330
1F
100
AcDbEntity
  8
OBJECT
  6
SLD-Solid
370
    25
100
AcDbLine
 10
43.53410779574093
 20
17.50384580111277
 30
0.0
 11
43.54648357905196
 21
17.4966990909633
 31
0.0
  0
LINE
  5
55A
330
1F
100
AcDbEntity
  8
OBJECT
  6
SLD-Solid
370
    25
100
AcDbLine
 10
45.64164155194026
 20
18.68566253729572
 30
0.0
 11
45.64164155194026
 21
18.69608853882872
 31
0.0
  0
ARC
  5
55B
330
1F
100
AcDbEntity
  8
OBJECT
  6
SLD-Solid
370
    25
100
AcDbCircle
 10
45.62384971825336
 20
18.66703801275652
 30
0.0
 40
0.0251488617950847
100
AcDbArc
 50
65.69288095399641
 51
125.6175774751993
  0
LINE
  5
55C
330
1F
100
AcDbEntity
  8
OBJECT
  6
SLD-Solid
370
    25
100
AcDbLine
 10
41.76853643789526
 20
20.9556642123272
 30
0.0
 11
41.76853643789526
 21
20.98007878260258
 31
0.0
  0
LINE
  5
55D
330
1F
100
AcDbEntity
  8
OBJECT
  6
SLD-Solid
370
    25
100
AcDbLine
 10
41.76853643789526
 20
20.9556642123272
 30
0.0
 11
41.75779528787914
 21
20.94946347840921
 31
0.0
  0
LINE
  5
55E
330
1F
100
AcDbEntity
  8
OBJECT
  6
SLD-Solid
370
    25
100
AcDbLine
 10
35.75191138553783
 20
21.92813410768147
 30
0.0
 11
35.75036449750316
 21
21.92545481901967
 31
0.0
  0
ARC
  5
55F
330
1F
100
AcDbEntity
  8
OBJECT
  6
SLD-Solid
370
    25
100
AcDbCircle
 10
35.85299190113519
 20
21.87243680109434
 30
0.0
 40
0.1154099674832682
100
AcDbArc
 50
121.9546716494007
 51
151.1443911208439
  0
LINE
  5
560
330
1F
100
AcDbEntity
  8
OBJECT
  6
SLD-Solid
370
    25
100
AcDbLine
 10
35.81165781316552
 20
21.98175772752676
 30
0.0
 11
35.79191138553783
 21
21.97035835749971
 31
0.0
  0
LINE
  5
561
330
1F
100
AcDbEntity
  8
OBJECT
  6
SLD-Solid
370
    25
100
AcDbLine
 10
35.73076889278035
 20
21.94033940895322
 30
0.0
 11
35.75191138553783
 21
21.92813410768147
 31
0.0
  0
LINE
  5
562
330
1F
100
AcDbEntity
  8
OBJECT
  6
SLD-Solid
370
    25
100
AcDbLine
 10
35.73076889278035
 20
21.94033940895322
 30
0.0
 11
35.03826556175191
 21
20.74088845872151
 31
0.0
  0
LINE
  5
563
330
1F
100
AcDbEntity
  8
OBJECT
  6
SLD-Solid
370
    25
100
AcDbLine
 10
42.73269332964384
 20
7.450714938907976
 30
0.0
 11
42.7472598893728
 21
7.459124034846853
 31
0.0
  0
ARC
  5
564
330
1F
100
AcDbEntity
  8
OBJECT
  6
SLD-Solid
370
    25
100
AcDbCircle
 10
42.75825875032289
 20
7.446518836343354
 30
0.0
 40
0.0259023823355811
100
AcDbArc
 50
170.7481208211348
 51
259.453222171666
  0
ARC
  5
565
330
1F
100
AcDbEntity
  8
OBJECT
  6
SLD-Solid
370
    25
100
AcDbCircle
 10
35.0496127117596
 20
11.89853325347389
 30
0.0
 40
0.0281485868670617
100
AcDbArc
 50
172.6245467635441
 51
236.0632728430675
  0
LWPOLYLINE
  5
566
330
1F
100
AcDbEntity
  8
OBJECT
  6
SLD-Solid
370
    25
100
AcDbPolyline
 90
        3
 70
   128
 43
0.0
 10
42.7598430974325
 20
7.44961109211264
 10
42.761858598353
 20
7.448733685436752
 10
42.76408887072854
 20
7.448300342807716
  0
LINE
  5
567
330
1F
100
AcDbEntity
  8
OBJECT
  6
SLD-Solid
370
    25
100
AcDbLine
 10
42.76408887072854
 20
7.448300342807716
 30
0.0
 11
42.7535176243498
 21
7.42105405409088
 31
0.0
  0
LINE
  5
568
330
1F
100
AcDbEntity
  8
OBJECT
  6
SLD-Solid
370
    25
100
AcDbLine
 10
44.38944451796397
 20
9.9081209759099
 30
0.0
 11
44.41058701072145
 21
9.89591567463815
 31
0.0
  0
LWPOLYLINE
  5
569
330
1F
100
AcDbEntity
  8
OBJECT
  6
SLD-Solid
370
    25
100
AcDbPolyline
 90
        3
 70
   128
 43
0.0
 10
44.38944451796397
 20
9.9081209759099
 10
44.38411404836423
 20
9.939952936999383
 10
44.37322206089279
 20
9.957689432314128
  0
LINE
  5
56A
330
1F
100
AcDbEntity
  8
OBJECT
  6
SLD-Solid
370
    25
100
AcDbLine
 10
42.94733969408249
 20
7.41391025017938
 30
0.0
 11
42.94351984732407
 21
7.404064992212132
 31
0.0
  0
LINE
  5
56B
330
1F
100
AcDbEntity
  8
OBJECT
  6
SLD-Solid
370
    25
100
AcDbLine
 10
42.94351984732407
 20
7.404064992212132
 30
0.0
 11
42.7535176243498
 21
7.42105405409088
 31
0.0
  0
LINE
  5
56C
330
1F
100
AcDbEntity
  8
OBJECT
  6
SLD-Solid
370
    25
100
AcDbLine
 10
42.95409109370281
 20
7.431311280928972
 30
0.0
 11
42.76408887072854
 21
7.448300342807716
 31
0.0
  0
LINE
  5
56D
330
1F
100
AcDbEntity
  8
OBJECT
  6
SLD-Solid
370
    25
100
AcDbLine
 10
42.95409109370281
 20
7.431311280928972
 30
0.0
 11
42.94733969408249
 21
7.41391025017938
 31
0.0
  0
LINE
  5
56E
330
1F
100
AcDbEntity
  8
OBJECT
  6
SLD-Solid
370
    25
100
AcDbLine
 10
42.94847503320735
 20
7.434553363643331
 30
0.0
 11
42.95409109370281
 21
7.431311280928972
 31
0.0
  0
SPLINE
  5
56F
330
1F
100
AcDbEntity
  8
OBJECT
  6
SLD-Solid
370
    25
100
AcDbSpline
210
0.0
220
0.0
230
1.0
 70
    12
 71
     3
 72
    11
 73
     7
 74
     0
 42
0.00000001
 43
0.00000001
 40
0.0
 40
0.0
 40
0.0
 40
0.0
 40
0.2500000000000327
 40
0.5000000000000857
 40
0.7500000000001323
 40
1.0
 40
1.0
 40
1.0
 40
1.0
 10
35.80904006040839
 20
21.96343247974865
 30
0.0
 41
1.0
 10
35.80795726282376
 20
21.96838670806335
 30
0.0
 41
1.0
 10
35.80579166765449
 20
21.97829516469274
 30
0.0
 41
1.0
 10
35.81029634702004
 20
21.98567302194108
 30
0.0
 41
1.0
 10
35.81893655322376
 20
21.98588793661067
 30
0.0
 41
1.0
 10
35.8264338865185
 20
21.97905971023964
 30
0.0
 41
1.0
 10
35.83018255316587
 20
21.97564559705412
 30
0.0
 41
1.0
  0
ARC
  5
570
330
1F
100
AcDbEntity
  8
OBJECT
  6
SLD-Solid
370
    25
100
AcDbCircle
 10
37.91982692203148
 20
23.16784844337816
 30
0.0
 40
0.0296253591945965
100
AcDbArc
 50
54.38242252479687
 51
114.3071190462249
  0
ARC
  5
571
330
1F
100
AcDbEntity
  8
OBJECT
  6
SLD-Solid
370
    25
100
AcDbCircle
 10
35.03082222113338
 20
20.65487106155145
 30
0.0
 40
0.0257166421630036
100
AcDbArc
 50
110.7834207992966
 51
249.2165792005514
  0
SPLINE
  5
572
330
1F
100
AcDbEntity
  8
OBJECT
  6
SLD-Solid
370
    25
100
AcDbSpline
210
0.0
220
0.0
230
1.0
 70
    12
 71
     3
 72
    14
 73
    10
 74
     0
 42
0.00000001
 43
0.00000001
 40
0.0
 40
0.0
 40
0.0
 40
0.0
 40
0.3350534435247967
 40
0.4703318568983104
 40
0.5876175006873968
 40
0.6918353102143274
 40
0.7899073026603382
 40
0.890044435990284
 40
1.0
 40
1.0
 40
1.0
 40
1.0
 10
35.00475604867
 20
11.93687621382041
 30
0.0
 41
1.0
 10
35.00575552655665
 20
11.93426418770847
 30
0.0
 41
1.0
 10
35.00715854538677
 20
11.93059755148896
 30
0.0
 41
1.0
 10
35.01143071039092
 20
11.92463423888239
 30
0.0
 41
1.0
 10
35.01440668107055
 20
11.92045935462398
 30
0.0
 41
1.0
 10
35.01718967878089
 20
11.91613288398968
 30
0.0
 41
1.0
 10
35.0194739069299
 20
11.9115935807699
 30
0.0
 41
1.0
 10
35.02109989846006
 20
11.90682115871848
 30
0.0
 41
1.0
 10
35.02149187284019
 20
11.90377343470463
 30
0.0
 41
1.0
 10
35.02169701925694
 20
11.90217835683123
 30
0.0
 41
1.0
  0
LINE
  5
573
330
1F
100
AcDbEntity
  8
OBJECT
  6
SLD-Solid
370
    25
100
AcDbLine
 10
35.02169701925466
 20
20.67891428044602
 30
0.0
 11
35.03389321553949
 21
20.67187356619661
 31
0.0
  0
ARC
  5
574
330
1F
100
AcDbEntity
  8
OBJECT
  6
SLD-Solid
370
    25
100
AcDbCircle
 10
35.13705423126326
 20
20.68119244503334
 30
0.0
 40
0.115424500319817
100
AcDbArc
 50
148.8562722006396
 51
178.0435013570141
  0
LINE
  5
575
330
1F
100
AcDbEntity
  8
OBJECT
  6
SLD-Solid
370
    25
100
AcDbLine
 10
35.79191138553783
 20
21.97035835749971
 30
0.0
 11
35.77076889278035
 21
21.98256365877145
 31
0.0
  0
ARC
  5
576
330
1F
100
AcDbEntity
  8
OBJECT
  6
SLD-Solid
370
    25
100
AcDbCircle
 10
35.83184940837867
 20
21.88464210236519
 30
0.0
 40
0.1154099674845376
100
AcDbArc
 50
121.9546716495656
 51
151.1443911206797
  0
LINE
  5
577
330
1F
100
AcDbEntity
  8
OBJECT
  6
SLD-Solid
370
    25
100
AcDbLine
 10
35.02169701925701
 20
20.685133119116
 30
0.0
 11
35.02169701925701
 21
20.67891428044463
 31
0.0
  0
LINE
  5
578
330
1F
100
AcDbEntity
  8
OBJECT
  6
SLD-Solid
370
    25
100
AcDbLine
 10
37.83605271905756
 20
23.17482663365032
 30
0.0
 11
35.77076889278035
 21
21.98256365877145
 31
0.0
  0
LINE
  5
579
330
1F
100
AcDbEntity
  8
OBJECT
  6
SLD-Solid
370
    25
100
AcDbLine
 10
35.80904006040839
 20
21.96343247974864
 30
0.0
 11
35.81282339823625
 21
21.96124769530522
 31
0.0
  0
LINE
  5
57A
330
1F
100
AcDbEntity
  8
OBJECT
  6
SLD-Solid
370
    25
100
AcDbLine
 10
44.38944451796396
 20
8.887444961052697
 30
0.0
 11
44.41058701072144
 21
8.875239659780947
 31
0.0
  0
LINE
  5
57B
330
1F
100
AcDbEntity
  8
OBJECT
  6
SLD-Solid
370
    25
100
AcDbLine
 10
44.38944451796396
 20
8.887444961052697
 30
0.0
 11
44.38944451796397
 21
9.9081209759099
 31
0.0
  0
ARC
  5
57C
330
1F
100
AcDbEntity
  8
OBJECT
  6
SLD-Solid
370
    25
100
AcDbCircle
 10
42.93454773235899
 20
7.460077017879567
 30
0.0
 40
0.0479062075791705
100
AcDbArc
 50
285.4870734554885
 51
324.562061119469
  0
ARC
  5
57D
330
1F
100
AcDbEntity
  8
OBJECT
  6
SLD-Solid
370
    25
100
AcDbCircle
 10
43.35581394287407
 20
7.419405124178875
 30
0.0
 40
0.0439406277388173
100
AcDbArc
 50
267.3067645182601
 51
325.8315502123236
  0
LWPOLYLINE
  5
57E
330
1F
100
AcDbEntity
  8
OBJECT
  6
SLD-Solid
370
    25
100
AcDbPolyline
 90
        8
 70
   128
 43
0.0
 10
44.25003277249477
 20
8.723620189400023
 10
44.25686199649148
 20
8.722513564779334
 10
44.28570769481951
 20
8.727042002486117
 10
44.31640464581176
 20
8.74476297509243
 10
44.34525034413979
 20
8.773539071768248
 10
44.36876557286809
 20
8.809899470564513
 10
44.38411404836422
 20
8.84945857076406
 10
44.38944451796396
 20
8.887444961052697
  0
ARC
  5
57F
330
1F
100
AcDbEntity
  8
OBJECT
  6
SLD-Solid
370
    25
100
AcDbCircle
 10
37.85069872180009
 20
23.15438256719422
 30
0.0
 40
0.0251488617952409
100
AcDbArc
 50
65.692880954015
 51
125.6175774749947
  0
LWPOLYLINE
  5
580
330
1F
100
AcDbEntity
  8
OBJECT
  6
SLD-Solid
370
    25
100
AcDbPolyline
 90
       19
 70
   128
 43
0.0
 10
41.52011350883926
 20
20.74222058861865
 10
41.51729756456928
 20
20.71111772664594
 10
41.50111493762554
 20
20.66549139797723
 10
41.47108000600209
 20
20.62226638734954
 10
41.42815811711412
 20
20.5828319821701
 10
41.37372881578676
 20
20.54845563666813
 10
41.30954150454922
 20
20.520242234873
 10
41.23765921639819
 20
20.49909857873248
 10
41.16039230721979
 20
20.48570424275197
 10
41.08022419905043
 20
20.4804897319108
 10
40.99973156084921
 20
20.4836226448779
 10
40.9215014922375
 20
20.49500228725275
 10
40.84804837198836
 20
20.51426290796622
 10
40.78173304382405
 20
20.54078545482088
 10
40.72468693695621
 20
20.57371747133801
 10
40.67874356019725
 20
20.61200049541019
 10
40.64537957147856
 20
20.65440407914435
 10
40.62566731684951
 20
20.6995653364695
 10
40.62027513489186
 20
20.73354027880034
  0
LINE
  5
581
330
1F
100
AcDbEntity
  8
OBJECT
  6
SLD-Solid
370
    25
100
AcDbLine
 10
44.32102770770655
 20
8.845949671788873
 30
0.0
 11
44.2338103154248
 21
8.896299200633273
 31
0.0
  0
LINE
  5
582
330
1F
100
AcDbEntity
  8
OBJECT
  6
SLD-Solid
370
    25
100
AcDbLine
 10
45.63250311567494
 20
18.69081303186509
 30
0.0
 11
45.64164155194026
 21
18.69608853882874
 31
0.0
  0
LINE
  5
583
330
1F
100
AcDbEntity
  8
OBJECT
  6
SLD-Solid
370
    25
100
AcDbLine
 10
35.04648657153504
 20
20.73614257079278
 30
0.0
 11
35.03826556175191
 21
20.74088845872151
 31
0.0
  0
LINE
  5
584
330
1F
100
AcDbEntity
  8
OBJECT
  6
SLD-Solid
370
    25
100
AcDbLine
 10
42.74730251803941
 20
7.459116995172806
 30
0.0
 11
42.73269332964384
 21
7.450683290228514
 31
0.0
  0
LINE
  5
585
330
1F
100
AcDbEntity
  8
OBJECT
  6
SLD-Solid
370
    25
100
AcDbLine
 10
42.76408887072854
 20
7.448300342807716
 30
0.0
 11
42.75948221999514
 21
7.450959705669979
 31
0.0
  0
LINE
  5
586
330
1F
100
AcDbEntity
  8
OBJECT
  6
SLD-Solid
370
    25
100
AcDbLine
 10
35.02169701925701
 20
20.685133119116
 30
0.0
 11
35.03278116051327
 21
20.67873438056974
 31
0.0
  0
LINE
  5
587
330
1F
100
AcDbEntity
  8
OBJECT
  6
SLD-Solid
370
    25
100
AcDbLine
 10
37.83605271905756
 20
23.17482663365032
 30
0.0
 11
37.8545019876661
 21
23.16417609758565
 31
0.0
  0
MTEXT
  5
58B
330
1F
100
AcDbEntity
  8
NOTES
100
AcDbMText
 10
37.18181923579608
 20
4.88020099615648
 30
0.0
 40
0.2916666666666666
 41
0.0
 71
     1
 72
     1
  1
FROST PRODUCTS LTD.
  7
SLDTEXTSTYLE0
 73
     1
 44
1.0
  0
MTEXT
  5
58C
330
1F
100
AcDbEntity
  8
NOTES
100
AcDbMText
 10
37.18181923579608
 20
4.454708634531021
 30
0.0
 40
0.2291666666666666
 41
0.0
 71
     1
 72
     1
  1
5280 JOHN LUCAS DRIVE, BURLINGTON, ON, L7L 5Z9
  7
SLDTEXTSTYLE0
 73
     1
 44
1.0
  0
ENDSEC
  0
SECTION
  2
OBJECTS
  0
DICTIONARY
  5
C
330
0
100
AcDbDictionary
281
     1
  3
ACAD_COLOR
350
6C
  3
ACAD_GROUP
350
D
  3
ACAD_LAYOUT
350
1A
  3
ACAD_MATERIAL
350
6B
  3
ACAD_MLINESTYLE
350
17
  3
ACAD_PLOTSETTINGS
350
19
  3
ACAD_PLOTSTYLENAME
350
E
  3
ACAD_SCALELIST
350
47
  3
ACAD_TABLESTYLE
350
92
  3
AcDbVariableDictionary
350
59
  0
DICTIONARY
  5
6C
102
{ACAD_REACTORS
330
C
102
}
330
C
100
AcDbDictionary
281
     1
  0
DICTIONARY
  5
D
102
{ACAD_REACTORS
330
C
102
}
330
C
100
AcDbDictionary
281
     1
  0
DICTIONARY
  5
1A
102
{ACAD_REACTORS
330
C
102
}
330
C
100
AcDbDictionary
281
     1
  3
Layout1
350
74
  3
Layout2
350
26
  3
Model
350
22
  0
DICTIONARY
  5
6B
102
{ACAD_REACTORS
330
C
102
}
330
C
100
AcDbDictionary
281
     1
  0
DICTIONARY
  5
17
102
{ACAD_REACTORS
330
C
102
}
330
C
100
AcDbDictionary
281
     1
  3
Standard
350
18
  0
DICTIONARY
  5
19
102
{ACAD_REACTORS
330
C
102
}
330
C
100
AcDbDictionary
281
     1
  0
ACDBDICTIONARYWDFLT
  5
E
102
{ACAD_REACTORS
330
C
102
}
330
C
100
AcDbDictionary
281
     1
  3
Normal
350
F
100
AcDbDictionaryWithDefault
340
F
  0
DICTIONARY
  5
47
102
{ACAD_REACTORS
330
C
102
}
330
C
100
AcDbDictionary
281
     1
  3
A0
350
48
  3
A1
350
49
  3
A2
350
4A
  3
A3
350
4B
  3
A4
350
4C
  3
A5
350
4D
  3
A6
350
4E
  3
A7
350
4F
  3
A8
350
50
  3
A9
350
51
  3
B0
350
52
  3
B1
350
53
  3
B2
350
54
  3
B3
350
55
  3
B4
350
56
  3
B5
350
57
  3
B6
350
58
  3
B7
350
59E
  3
B8
350
59F
  3
B9
350
5B
  3
C0
350
5C
  3
C1
350
5D
  3
C2
350
5A0
  3
C3
350
5F
  3
C4
350
60
  3
C5
350
61
  3
C6
350
62
  3
C7
350
63
  3
C8
350
64
  3
C9
350
65
  3
D0
350
66
  3
D1
350
67
  3
D2
350
68
  0
DICTIONARY
  5
92
102
{ACAD_REACTORS
330
C
102
}
330
C
100
AcDbDictionary
281
     1
  3
Standard
350
93
  0
DICTIONARY
  5
59
102
{ACAD_REACTORS
330
C
102
}
330
C
100
AcDbDictionary
281
     1
  3
CTABLESTYLE
350
98
  3
HIDETEXT
350
58A
  0
LAYOUT
  5
74
102
{ACAD_REACTORS
330
1A
102
}
330
1A
100
AcDbPlotSettings
  1

  2
none_device
  4

  6

 40
0.0
 41
0.0
 42
0.0
 43
0.0
 44
0.0
 45
0.0
 46
0.0
 47
0.0
 48
0.0
 49
0.0
140
0.0
141
0.0
142
1.0
143
1.0
 70
   688
 72
     0
 73
     0
 74
     5
  7

 75
    16
 76
     0
 77
     2
 78
   300
147
1.0
148
0.0
149
0.0
100
AcDbLayout
  1
Layout1
 70
     1
 71
     1
 10
0.0
 20
0.0
 11
12.0
 21
9.0
 12
0.0
 22
0.0
 32
0.0
 14
1.000000000000000E+20
 24
1.000000000000000E+20
 34
1.000000000000000E+20
 15
-1.000000000000000E+20
 25
-1.000000000000000E+20
 35
-1.000000000000000E+20
146
0.0
 13
0.0
 23
0.0
 33
0.0
 16
1.0
 26
0.0
 36
0.0
 17
0.0
 27
1.0
 37
0.0
 76
     0
330
73
  0
LAYOUT
  5
26
102
{ACAD_REACTORS
330
1A
102
}
330
1A
100
AcDbPlotSettings
  1

  2
none_device
  4

  6

 40
0.0
 41
0.0
 42
0.0
 43
0.0
 44
0.0
 45
0.0
 46
0.0
 47
0.0
 48
0.0
 49
0.0
140
0.0
141
0.0
142
1.0
143
1.0
 70
   688
 72
     0
 73
     0
 74
     5
  7

 75
    16
 76
     0
 77
     2
 78
   300
147
1.0
148
0.0
149
0.0
100
AcDbLayout
  1
Layout2
 70
     1
 71
     2
 10
0.0
 20
0.0
 11
0.0
 21
0.0
 12
0.0
 22
0.0
 32
0.0
 14
0.0
 24
0.0
 34
0.0
 15
0.0
 25
0.0
 35
0.0
146
0.0
 13
0.0
 23
0.0
 33
0.0
 16
1.0
 26
0.0
 36
0.0
 17
0.0
 27
1.0
 37
0.0
 76
     0
330
23
  0
LAYOUT
  5
22
102
{ACAD_REACTORS
330
1A
102
}
330
1A
100
AcDbPlotSettings
  1

  2
none_device
  4
Letter_(8.50_x_11.00_Inches)
  6

 40
6.35
 41
6.35
 42
6.35000508
 43
6.35000508
 44
215.9
 45
279.4
 46
0.0
 47
0.0
 48
0.0
 49
0.0
140
0.0
141
0.0
142
1.0
143
1.0
 70
 11952
 72
     0
 73
     0
 74
     0
  7

 75
     0
 76
     0
 77
     2
 78
   300
147
1.0
148
0.0
149
0.0
100
AcDbLayout
  1
Model
 70
     1
 71
     0
 10
0.0
 20
0.0
 11
46.81102362204724
 21
33.11023622047244
 12
0.0
 22
0.0
 32
0.0
 14
0.4376842629731451
 24
0.3573773641115478
 34
-7.695827986068138
 15
46.41568767877938
 25
25.75027715453793
 35
7.695827986068139
146
0.0
 13
0.0
 23
0.0
 33
0.0
 16
1.0
 26
0.0
 36
0.0
 17
0.0
 27
1.0
 37
0.0
 76
     0
330
1F
  0
MLINESTYLE
  5
18
102
{ACAD_REACTORS
330
17
102
}
330
17
100
AcDbMlineStyle
  2
Standard
 70
     0
  3

 62
   256
 51
90.0
 52
90.0
 71
     2
 49
0.5
 62
   256
  6
BYLAYER
 49
-0.5
 62
   256
  6
BYLAYER
  0
ACDBPLACEHOLDER
  5
F
102
{ACAD_REACTORS
330
E
102
}
330
E
  0
ACAD_PROXY_OBJECT
  5
48
102
{ACAD_REACTORS
330
47
102
}
330
47
100
AcDbProxyObject
 90
      499
 91
      505
 95
   393239
 70
     0
 93
       41
310
903313A31580
  0
ACAD_PROXY_OBJECT
  5
49
102
{ACAD_REACTORS
330
47
102
}
330
47
100
AcDbProxyObject
 90
      499
 91
      505
 95
   393239
 70
     0
 93
      105
310
903313A324000000000000004000
  0
ACAD_PROXY_OBJECT
  5
4A
102
{ACAD_REACTORS
330
47
102
}
330
47
100
AcDbProxyObject
 90
      499
 91
      505
 95
   393239
 70
     0
 93
      105
310
903313A344000000000000104000
  0
ACAD_PROXY_OBJECT
  5
4B
102
{ACAD_REACTORS
330
47
102
}
330
47
100
AcDbProxyObject
 90
      499
 91
      505
 95
   393239
 70
     0
 93
      105
310
903313A354000000000000144000
  0
ACAD_PROXY_OBJECT
  5
4C
102
{ACAD_REACTORS
330
47
102
}
330
47
100
AcDbProxyObject
 90
      499
 91
      505
 95
   393239
 70
     0
 93
      105
310
903313A384000000000000204000
  0
ACAD_PROXY_OBJECT
  5
4D
102
{ACAD_REACTORS
330
47
102
}
330
47
100
AcDbProxyObject
 90
      499
 91
      505
 95
   393239
 70
     0
 93
      113
310
904313A31304000000000000244000
  0
ACAD_PROXY_OBJECT
  5
4E
102
{ACAD_REACTORS
330
47
102
}
330
47
100
AcDbProxyObject
 90
      499
 91
      505
 95
   393239
 70
     0
 93
      113
310
904313A31364000000000000304000
  0
ACAD_PROXY_OBJECT
  5
4F
102
{ACAD_REACTORS
330
47
102
}
330
47
100
AcDbProxyObject
 90
      499
 91
      505
 95
   393239
 70
     0
 93
      113
310
904313A32304000000000000344000
  0
ACAD_PROXY_OBJECT
  5
50
102
{ACAD_REACTORS
330
47
102
}
330
47
100
AcDbProxyObject
 90
      499
 91
      505
 95
   393239
 70
     0
 93
      113
310
904313A333040000000000003E4000
  0
ACAD_PROXY_OBJECT
  5
51
102
{ACAD_REACTORS
330
47
102
}
330
47
100
AcDbProxyObject
 90
      499
 91
      505
 95
   393239
 70
     0
 93
      113
310
904313A34304000000000000444000
  0
ACAD_PROXY_OBJECT
  5
52
102
{ACAD_REACTORS
330
47
102
}
330
47
100
AcDbProxyObject
 90
      499
 91
      505
 95
   393239
 70
     0
 93
      113
310
904313A35304000000000000494000
  0
ACAD_PROXY_OBJECT
  5
53
102
{ACAD_REACTORS
330
47
102
}
330
47
100
AcDbProxyObject
 90
      499
 91
      505
 95
   393239
 70
     0
 93
      121
310
905313A3130304000000000000594000
  0
ACAD_PROXY_OBJECT
  5
54
102
{ACAD_REACTORS
330
47
102
}
330
47
100
AcDbProxyObject
 90
      499
 91
      505
 95
   393239
 70
     0
 93
      105
310
903323A310000000000000010100
  0
ACAD_PROXY_OBJECT
  5
55
102
{ACAD_REACTORS
330
47
102
}
330
47
100
AcDbProxyObject
 90
      499
 91
      505
 95
   393239
 70
     0
 93
      105
310
903343A310000000000000410100
  0
ACAD_PROXY_OBJECT
  5
56
102
{ACAD_REACTORS
330
47
102
}
330
47
100
AcDbProxyObject
 90
      499
 91
      505
 95
   393239
 70
     0
 93
      105
310
903383A310000000000000810100
  0
ACAD_PROXY_OBJECT
  5
57
102
{ACAD_REACTORS
330
47
102
}
330
47
100
AcDbProxyObject
 90
      499
 91
      505
 95
   393239
 70
     0
 93
      113
310
90431303A310000000000000910100
  0
ACAD_PROXY_OBJECT
  5
58
102
{ACAD_REACTORS
330
47
102
}
330
47
100
AcDbProxyObject
 90
      499
 91
      505
 95
   393239
 70
     0
 93
      121
310
9053130303A310000000000001650100
  0
ACAD_PROXY_OBJECT
  5
59E
102
{ACAD_REACTORS
330
47
102
}
330
47
100
AcDbProxyObject
 90
      499
 91
      505
 95
   393239
 70
     0
 93
      257
310
90E312F31323822203D2031272D3022000000000000200FC000000000000284000
  0
ACAD_PROXY_OBJECT
  5
59F
102
{ACAD_REACTORS
330
47
102
}
330
47
100
AcDbProxyObject
 90
      499
 91
      505
 95
   393239
 70
     0
 93
      249
310
90D312F363422203D2031272D3022000000000000240FC000000000000284000
  0
ACAD_PROXY_OBJECT
  5
5B
102
{ACAD_REACTORS
330
47
102
}
330
47
100
AcDbProxyObject
 90
      499
 91
      505
 95
   393239
 70
     0
 93
      249
310
90D312F333222203D2031272D3022000000000000280FC000000000000284000
  0
ACAD_PROXY_OBJECT
  5
5C
102
{ACAD_REACTORS
330
47
102
}
330
47
100
AcDbProxyObject
 90
      499
 91
      505
 95
   393239
 70
     0
 93
      249
310
90D312F313622203D2031272D30220000000000002C0FC000000000000284000
  0
ACAD_PROXY_OBJECT
  5
5D
102
{ACAD_REACTORS
330
47
102
}
330
47
100
AcDbProxyObject
 90
      499
 91
      505
 95
   393239
 70
     0
 93
      249
310
90D332F333222203D2031272D30220000000000002E0FC000000000000284000
  0
ACAD_PROXY_OBJECT
  5
5A0
102
{ACAD_REACTORS
330
47
102
}
330
47
100
AcDbProxyObject
 90
      499
 91
      505
 95
   393239
 70
     0
 93
      241
310
90C312F3822203D2031272D3022000000000000300FC000000000000284000
  0
ACAD_PROXY_OBJECT
  5
5F
102
{ACAD_REACTORS
330
47
102
}
330
47
100
AcDbProxyObject
 90
      499
 91
      505
 95
   393239
 70
     0
 93
      249
310
90D332F313622203D2031272D3022000000000000320FC000000000000284000
  0
ACAD_PROXY_OBJECT
  5
60
102
{ACAD_REACTORS
330
47
102
}
330
47
100
AcDbProxyObject
 90
      499
 91
      505
 95
   393239
 70
     0
 93
      241
310
90C312F3422203D2031272D3022000000000000340FC000000000000284000
  0
ACAD_PROXY_OBJECT
  5
61
102
{ACAD_REACTORS
330
47
102
}
330
47
100
AcDbProxyObject
 90
      499
 91
      505
 95
   393239
 70
     0
 93
      241
310
90C332F3822203D2031272D3022000000000000360FC000000000000284000
  0
ACAD_PROXY_OBJECT
  5
62
102
{ACAD_REACTORS
330
47
102
}
330
47
100
AcDbProxyObject
 90
      499
 91
      505
 95
   393239
 70
     0
 93
      241
310
90C312F3222203D2031272D3022000000000000380FC000000000000284000
  0
ACAD_PROXY_OBJECT
  5
63
102
{ACAD_REACTORS
330
47
102
}
330
47
100
AcDbProxyObject
 90
      499
 91
      505
 95
   393239
 70
     0
 93
      241
310
90C332F3422203D2031272D30220000000000003A0FC000000000000284000
  0
ACAD_PROXY_OBJECT
  5
64
102
{ACAD_REACTORS
330
47
102
}
330
47
100
AcDbProxyObject
 90
      499
 91
      505
 95
   393239
 70
     0
 93
      161
310
90A3122203D2031272D30224000000000000284000
  0
ACAD_PROXY_OBJECT
  5
65
102
{ACAD_REACTORS
330
47
102
}
330
47
100
AcDbProxyObject
 90
      499
 91
      505
 95
   393239
 70
     0
 93
      257
310
90E312D312F3222203D2031272D30220000000000003E0FC000000000000284000
  0
ACAD_PROXY_OBJECT
  5
66
102
{ACAD_REACTORS
330
47
102
}
330
47
100
AcDbProxyObject
 90
      499
 91
      505
 95
   393239
 70
     0
 93
      225
310
90A3322203D2031272D302200000000000002100000000000000284000
  0
ACAD_PROXY_OBJECT
  5
67
102
{ACAD_REACTORS
330
47
102
}
330
47
100
AcDbProxyObject
 90
      499
 91
      505
 95
   393239
 70
     0
 93
      225
310
90A3622203D2031272D302200000000000006100000000000000284000
  0
ACAD_PROXY_OBJECT
  5
68
102
{ACAD_REACTORS
330
47
102
}
330
47
100
AcDbProxyObject
 90
      499
 91
      505
 95
   393239
 70
     0
 93
      249
310
90D31272D3022203D2031272D30220000000000000A100000000000000284000
  0
TABLESTYLE
  5
93
102
{ACAD_REACTORS
330
92
102
}
330
92
100
AcDbTableStyle
  3
Standard
 70
     0
 71
     0
 40
0.06
 41
0.06
280
     0
281
     0
  7
Standard
140
0.18
170
     2
 62
     0
 63
     7
283
     0
274
    -2
284
     1
 64
     0
275
    -2
285
     1
 65
     0
276
    -2
286
     1
 66
     0
277
    -2
287
     1
 67
     0
278
    -2
288
     1
 68
     0
279
    -2
289
     1
 69
     0
  7
Standard
140
0.25
170
     5
 62
     0
 63
     7
283
     0
274
    -2
284
     1
 64
     0
275
    -2
285
     1
 65
     0
276
    -2
286
     1
 66
     0
277
    -2
287
     1
 67
     0
278
    -2
288
     1
 68
     0
279
    -2
289
     1
 69
     0
  7
Standard
140
0.18
170
     5
 62
     0
 63
     7
283
     0
274
    -2
284
     1
 64
     0
275
    -2
285
     1
 65
     0
276
    -2
286
     1
 66
     0
277
    -2
287
     1
 67
     0
278
    -2
288
     1
 68
     0
279
    -2
289
     1
 69
     0
  0
DICTIONARYVAR
  5
98
102
{ACAD_REACTORS
330
59
102
}
330
59
100
DictionaryVariables
280
     0
  1
STANDARD
  0
DICTIONARYVAR
  5
58A
102
{ACAD_REACTORS
330
59
102
}
330
59
100
DictionaryVariables
280
     0
  1
2
  0
ENDSEC
  0
EOF
