  0
SECTION
  2
HEADER
  9
$ACADVER
  1
AC1015
  9
$ACADMAINTVER
 70
     6
  9
$DWGCODEPAGE
  3
ANSI_1252
  9
$INSBASE
 10
0.0
 20
0.0
 30
0.0
  9
$EXTMIN
 10
0.0
 20
0.0
 30
0.0
  9
$EXTMAX
 10
48.0
 20
36.0
 30
0.0
  9
$LIMMIN
 10
0.0
 20
0.0
  9
$LIMMAX
 10
48.0
 20
36.0
  9
$ORTHOMODE
 70
     0
  9
$REGENMODE
 70
     1
  9
$FILLMODE
 70
     1
  9
$QTEXTMODE
 70
     0
  9
$MIRRTEXT
 70
     1
  9
$LTSCALE
 40
1.0
  9
$ATTMODE
 70
     1
  9
$TEXTSIZE
 40
0.5
  9
$TRACEWID
 40
0.05
  9
$TEXTSTYLE
  7
STANDARD
  9
$CLAYER
  8
0
  9
$CELTYPE
  6
ByLayer
  9
$CECOLOR
 62
   256
  9
$CELTSCALE
 40
1.0
  9
$DISPSILH
 70
     0
  9
$DIMSCALE
 40
1.0
  9
$DIMASZ
 40
0.3
  9
$DIMEXO
 40
0.1666666667
  9
$DIMDLI
 40
0.38
  9
$DIMRND
 40
0.0
  9
$DIMDLE
 40
0.0
  9
$DIMEXE
 40
0.375
  9
$DIMTP
 40
0.0
  9
$DIMTM
 40
0.0
  9
$DIMTXT
 40
0.5
  9
$DIMCEN
 40
0.09
  9
$DIMTSZ
 40
0.0
  9
$DIMTOL
 70
     0
  9
$DIMLIM
 70
     0
  9
$DIMTIH
 70
     1
  9
$DIMTOH
 70
     1
  9
$DIMSE1
 70
     0
  9
$DIMSE2
 70
     0
  9
$DIMTAD
 70
     0
  9
$DIMZIN
 70
     1
  9
$DIMBLK
  1

  9
$DIMASO
 70
     1
  9
$DIMSHO
 70
     1
  9
$DIMPOST
  1

  9
$DIMAPOST
  1

  9
$DIMALT
 70
     0
  9
$DIMALTD
 70
     2
  9
$DIMALTF
 40
25.4
  9
$DIMLFAC
 40
1.0
  9
$DIMTOFL
 70
     0
  9
$DIMTVP
 40
0.0
  9
$DIMTIX
 70
     0
  9
$DIMSOXD
 70
     0
  9
$DIMSAH
 70
     0
  9
$DIMBLK1
  1

  9
$DIMBLK2
  1

  9
$DIMSTYLE
  2
Standard
  9
$DIMCLRD
 70
     0
  9
$DIMCLRE
 70
     0
  9
$DIMCLRT
 70
     0
  9
$DIMTFAC
 40
1.0
  9
$DIMGAP
 40
0.125
  9
$DIMJUST
 70
     0
  9
$DIMSD1
 70
     0
  9
$DIMSD2
 70
     0
  9
$DIMTOLJ
 70
     1
  9
$DIMTZIN
 70
     1
  9
$DIMALTZ
 70
     0
  9
$DIMALTTZ
 70
     0
  9
$DIMUPT
 70
     0
  9
$DIMDEC
 70
     2
  9
$DIMTDEC
 70
     2
  9
$DIMALTU
 70
     2
  9
$DIMALTTD
 70
     2
  9
$DIMTXSTY
  7
STANDARD
  9
$DIMAUNIT
 70
     0
  9
$DIMADEC
 70
     2
  9
$DIMALTRND
 40
0.0
  9
$DIMAZIN
 70
     0
  9
$DIMDSEP
 70
    46
  9
$DIMATFIT
 70
     3
  9
$DIMFRAC
 70
     0
  9
$DIMLDRBLK
  1

  9
$DIMLUNIT
 70
     2
  9
$DIMLWD
 70
    -2
  9
$DIMLWE
 70
    -2
  9
$DIMTMOVE
 70
     0
  9
$LUNITS
 70
     2
  9
$LUPREC
 70
     4
  9
$SKETCHINC
 40
0.1
  9
$FILLETRAD
 40
0.5
  9
$AUNITS
 70
     0
  9
$AUPREC
 70
     2
  9
$MENU
  1
.
  9
$ELEVATION
 40
0.0
  9
$PELEVATION
 40
0.0
  9
$THICKNESS
 40
0.0
  9
$LIMCHECK
 70
     0
  9
$CHAMFERA
 40
0.0
  9
$CHAMFERB
 40
0.0
  9
$CHAMFERC
 40
0.0
  9
$CHAMFERD
 40
0.0
  9
$SKPOLY
 70
     0
  9
$TDCREATE
 40
2459475.366338391
  9
$TDUCREATE
 40
2459475.533005058
  9
$TDUPDATE
 40
2459475.366341829
  9
$TDUUPDATE
 40
2459475.533008495
  9
$TDINDWG
 40
0.0000000116
  9
$TDUSRTIMER
 40
0.0000000116
  9
$USRTIMER
 70
     1
  9
$ANGBASE
 50
0.0
  9
$ANGDIR
 70
     0
  9
$PDMODE
 70
     0
  9
$PDSIZE
 40
-1.0
  9
$PLINEWID
 40
0.0
  9
$SPLFRAME
 70
     0
  9
$SPLINETYPE
 70
     6
  9
$SPLINESEGS
 70
     8
  9
$HANDSEED
  5
394
  9
$SURFTAB1
 70
     6
  9
$SURFTAB2
 70
     6
  9
$SURFTYPE
 70
     6
  9
$SURFU
 70
     6
  9
$SURFV
 70
     6
  9
$UCSBASE
  2

  9
$UCSNAME
  2

  9
$UCSORG
 10
0.0
 20
0.0
 30
0.0
  9
$UCSXDIR
 10
1.0
 20
0.0
 30
0.0
  9
$UCSYDIR
 10
0.0
 20
1.0
 30
0.0
  9
$UCSORTHOREF
  2

  9
$UCSORTHOVIEW
 70
     0
  9
$UCSORGTOP
 10
0.0
 20
0.0
 30
0.0
  9
$UCSORGBOTTOM
 10
0.0
 20
0.0
 30
0.0
  9
$UCSORGLEFT
 10
0.0
 20
0.0
 30
0.0
  9
$UCSORGRIGHT
 10
0.0
 20
0.0
 30
0.0
  9
$UCSORGFRONT
 10
0.0
 20
0.0
 30
0.0
  9
$UCSORGBACK
 10
0.0
 20
0.0
 30
0.0
  9
$PUCSBASE
  2

  9
$PUCSNAME
  2

  9
$PUCSORG
 10
0.0
 20
0.0
 30
0.0
  9
$PUCSXDIR
 10
1.0
 20
0.0
 30
0.0
  9
$PUCSYDIR
 10
0.0
 20
1.0
 30
0.0
  9
$PUCSORTHOREF
  2

  9
$PUCSORTHOVIEW
 70
     0
  9
$PUCSORGTOP
 10
0.0
 20
0.0
 30
0.0
  9
$PUCSORGBOTTOM
 10
0.0
 20
0.0
 30
0.0
  9
$PUCSORGLEFT
 10
0.0
 20
0.0
 30
0.0
  9
$PUCSORGRIGHT
 10
0.0
 20
0.0
 30
0.0
  9
$PUCSORGFRONT
 10
0.0
 20
0.0
 30
0.0
  9
$PUCSORGBACK
 10
0.0
 20
0.0
 30
0.0
  9
$USERI1
 70
     0
  9
$USERI2
 70
     0
  9
$USERI3
 70
     0
  9
$USERI4
 70
     0
  9
$USERI5
 70
     0
  9
$USERR1
 40
0.0
  9
$USERR2
 40
0.0
  9
$USERR3
 40
0.0
  9
$USERR4
 40
0.0
  9
$USERR5
 40
0.0
  9
$WORLDVIEW
 70
     1
  9
$SHADEDGE
 70
     3
  9
$SHADEDIF
 70
    70
  9
$TILEMODE
 70
     1
  9
$MAXACTVP
 70
    64
  9
$PINSBASE
 10
0.0
 20
0.0
 30
0.0
  9
$PLIMCHECK
 70
     0
  9
$PEXTMIN
 10
1.0000000000E+20
 20
1.0000000000E+20
 30
1.0000000000E+20
  9
$PEXTMAX
 10
-1.0000000000E+20
 20
-1.0000000000E+20
 30
-1.0000000000E+20
  9
$PLIMMIN
 10
0.0
 20
0.0
  9
$PLIMMAX
 10
12.0
 20
9.0
  9
$UNITMODE
 70
     0
  9
$VISRETAIN
 70
     1
  9
$PLINEGEN
 70
     0
  9
$PSLTSCALE
 70
     1
  9
$TREEDEPTH
 70
  3020
  9
$CMLSTYLE
  2
Standard
  9
$CMLJUST
 70
     0
  9
$CMLSCALE
 40
1.0
  9
$PROXYGRAPHICS
 70
     1
  9
$MEASUREMENT
 70
     0
  9
$CELWEIGHT
370
    -1
  9
$ENDCAPS
280
     0
  9
$JOINSTYLE
280
     0
  9
$LWDISPLAY
290
     1
  9
$INSUNITS
 70
     1
  9
$HYPERLINKBASE
  1

  9
$STYLESHEET
  1

  9
$XEDIT
290
     1
  9
$CEPSNTYPE
380
     0
  9
$PSTYLEMODE
290
     1
  9
$FINGERPRINTGUID
  2
{7ffe7c34-9961-4a4c-b73d-b986428973d6}
  9
$VERSIONGUID
  2
{FAEB1C32-E019-11D5-929B-00C0DF256EC4}
  9
$EXTNAMES
290
     1
  9
$PSVPSCALE
 40
0.0
  9
$OLESTARTUP
290
     0
  0
ENDSEC
  0
SECTION
  2
CLASSES
  0
CLASS
  1
ACDBDICTIONARYWDFLT
  2
AcDbDictionaryWithDefault
  3
ObjectDBX Classes
 90
        0
280
     0
281
     0
  0
CLASS
  1
VISUALSTYLE
  2
AcDbVisualStyle
  3
ObjectDBX Classes
 90
     4095
280
     0
281
     0
  0
CLASS
  1
MATERIAL
  2
AcDbMaterial
  3
ObjectDBX Classes
 90
     1153
280
     0
281
     0
  0
CLASS
  1
SCALE
  2
AcDbScale
  3
ObjectDBX Classes
 90
     1153
280
     0
281
     0
  0
CLASS
  1
TABLESTYLE
  2
AcDbTableStyle
  3
ObjectDBX Classes
 90
     4095
280
     0
281
     0
  0
CLASS
  1
MLEADERSTYLE
  2
AcDbMLeaderStyle
  3
ACDB_MLEADERSTYLE_CLASS
 90
     4095
280
     0
281
     0
  0
CLASS
  1
SUN
  2
AcDbSun
  3
SCENEOE
 90
     1153
280
     0
281
     0
  0
CLASS
  1
ACDBPLACEHOLDER
  2
AcDbPlaceHolder
  3
ObjectDBX Classes
 90
        0
280
     0
281
     0
  0
CLASS
  1
LAYOUT
  2
AcDbLayout
  3
ObjectDBX Classes
 90
        0
280
     0
281
     0
  0
ENDSEC
  0
SECTION
  2
TABLES
  0
TABLE
  2
VPORT
  5
8
330
0
100
AcDbSymbolTable
 70
     1
  0
VPORT
  5
29
330
8
100
AcDbSymbolTableRecord
100
AcDbViewportTableRecord
  2
*Active
 70
     0
 10
0.0
 20
0.0
 11
1.0
 21
1.0
 12
24.0
 22
18.0
 13
0.0
 23
0.0
 14
0.5
 24
0.5
 15
0.5
 25
0.5
 16
0.0
 26
0.0
 36
1.0
 17
0.0
 27
0.0
 37
0.0
 40
36.0
 41
1.3333333333
 42
50.0
 43
0.0
 44
0.0
 50
0.0
 51
0.0
 71
     0
 72
  2000
 73
     1
 74
     3
 75
     0
 76
     0
 77
     0
 78
     0
281
     0
 65
     1
110
0.0
120
0.0
130
0.0
111
1.0
121
0.0
131
0.0
112
0.0
122
1.0
132
0.0
 79
     0
146
0.0
  0
ENDTAB
  0
TABLE
  2
LTYPE
  5
5
330
0
100
AcDbSymbolTable
 70
     8
  0
LTYPE
  5
14
330
5
100
AcDbSymbolTableRecord
100
AcDbLinetypeTableRecord
  2
ByBlock
 70
     0
  3

 72
    65
 73
     0
 40
0.0
  0
LTYPE
  5
15
330
5
100
AcDbSymbolTableRecord
100
AcDbLinetypeTableRecord
  2
ByLayer
 70
     0
  3

 72
    65
 73
     0
 40
0.0
  0
LTYPE
  5
16
330
5
100
AcDbSymbolTableRecord
100
AcDbLinetypeTableRecord
  2
Continuous
 70
     0
  3
Solid line
 72
    65
 73
     0
 40
0.0
  0
LTYPE
  5
6E
330
5
100
AcDbSymbolTableRecord
100
AcDbLinetypeTableRecord
  2
SLD-Solid
 70
     0
  3
SolidWorks Line Style
 72
    65
 73
     0
 40
0.0
  0
LTYPE
  5
6F
330
5
100
AcDbSymbolTableRecord
100
AcDbLinetypeTableRecord
  2
SLD-Dashed
 70
     0
  3
SolidWorks Line Style
 72
    65
 73
     2
 40
0.075
 49
0.05
 74
     0
 49
-0.025
 74
     0
  0
LTYPE
  5
70
330
5
100
AcDbSymbolTableRecord
100
AcDbLinetypeTableRecord
  2
SLD-Phantom
 70
     0
  3
SolidWorks Line Style
 72
    65
 73
     6
 40
0.5
 49
0.25
 74
     0
 49
-0.05
 74
     0
 49
0.05
 74
     0
 49
-0.05
 74
     0
 49
0.05
 74
     0
 49
-0.05
 74
     0
  0
LTYPE
  5
71
330
5
100
AcDbSymbolTableRecord
100
AcDbLinetypeTableRecord
  2
SLD-Chain
 70
     0
  3
SolidWorks Line Style
 72
    65
 73
     4
 40
0.4
 49
0.25
 74
     0
 49
-0.05
 74
     0
 49
0.05
 74
     0
 49
-0.05
 74
     0
  0
LTYPE
  5
72
330
5
100
AcDbSymbolTableRecord
100
AcDbLinetypeTableRecord
  2
SLD-Center
 70
     0
  3
SolidWorks Line Style
 72
    65
 73
     4
 40
0.75
 49
0.6
 74
     0
 49
-0.05
 74
     0
 49
0.05
 74
     0
 49
-0.05
 74
     0
  0
LTYPE
  5
73
330
5
100
AcDbSymbolTableRecord
100
AcDbLinetypeTableRecord
  2
SLD-Stitch
 70
     0
  3
SolidWorks Line Style
 72
    65
 73
     2
 40
0.025
 49
0.0
 74
     0
 49
-0.025
 74
     0
  0
LTYPE
  5
74
330
5
100
AcDbSymbolTableRecord
100
AcDbLinetypeTableRecord
  2
SLD-Thin-Thick-Chain
 70
     0
  3
SolidWorks Line Style
 72
    65
 73
     4
 40
0.4
 49
0.25
 74
     0
 49
-0.05
 74
     0
 49
0.05
 74
     0
 49
-0.05
 74
     0
  0
ENDTAB
  0
TABLE
  2
LAYER
  5
2
330
0
100
AcDbSymbolTable
 70
     6
  0
LAYER
  5
10
330
2
100
AcDbSymbolTableRecord
100
AcDbLayerTableRecord
  2
0
 70
     0
 62
     7
  6
Continuous
370
    -3
390
F
  0
LAYER
  5
75
330
2
100
AcDbSymbolTableRecord
100
AcDbLayerTableRecord
  2
FORMAT
 70
     0
 62
     7
  6
SLD-Solid
370
    -3
390
F
  0
LAYER
  5
76
330
2
100
AcDbSymbolTableRecord
100
AcDbLayerTableRecord
  2
NOTES
 70
     0
 62
     1
  6
SLD-Solid
370
    -3
390
F
  0
LAYER
  5
77
330
2
100
AcDbSymbolTableRecord
100
AcDbLayerTableRecord
  2
OBJECT
 70
     0
 62
     7
  6
SLD-Solid
370
    25
390
F
  0
LAYER
  5
78
330
2
100
AcDbSymbolTableRecord
100
AcDbLayerTableRecord
  2
DIMS
 70
     0
 62
     5
  6
SLD-Solid
370
    -3
390
F
  0
LAYER
  5
79
330
2
100
AcDbSymbolTableRecord
100
AcDbLayerTableRecord
  2
TITLE
 70
     0
 62
     8
  6
SLD-Solid
370
    -3
390
F
  0
ENDTAB
  0
TABLE
  2
STYLE
  5
3
330
0
100
AcDbSymbolTable
 70
     5
  0
STYLE
  5
11
330
3
100
AcDbSymbolTableRecord
100
AcDbTextStyleTableRecord
  2
STANDARD
 70
     0
 40
0.0
 41
1.0
 50
0.0
 71
     0
 42
0.5
  3
GOTHIC.TTF
  4

1001
ACAD
1000
CENTURY GOTHIC
1071
       34
  0
STYLE
  5
DF
330
3
100
AcDbSymbolTableRecord
100
AcDbTextStyleTableRecord
  2
SLDTEXTSTYLE0
 70
     0
 40
0.0
 41
0.913
 50
0.0
 71
     0
 42
0.5
  3
GOTHIC.TTF
  4

1001
ACAD
1000
Century Gothic
1071
      290
  0
STYLE
  5
E9
330
3
100
AcDbSymbolTableRecord
100
AcDbTextStyleTableRecord
  2
SLDTEXTSTYLE1
 70
     0
 40
0.0
 41
0.948
 50
0.0
 71
     0
 42
0.5
  3
ARIAL.TTF
  4

1001
ACAD
1000
Arial
1071
      290
  0
STYLE
  5
FB
330
3
100
AcDbSymbolTableRecord
100
AcDbTextStyleTableRecord
  2
SLDTEXTSTYLE2
 70
     0
 40
0.0
 41
0.87
 50
0.0
 71
     0
 42
0.5
  3
ARIALNB.TTF
  4

1001
ACAD
1000
Arial Narrow
1071
 33554722
  0
STYLE
  5
FD
330
3
100
AcDbSymbolTableRecord
100
AcDbTextStyleTableRecord
  2
SLDTEXTSTYLE3
 70
     0
 40
0.0
 41
0.87
 50
0.0
 71
     0
 42
0.5
  3
ARIALN.TTF
  4

1001
ACAD
1000
Arial Narrow
1071
      290
  0
ENDTAB
  0
TABLE
  2
VIEW
  5
6
330
0
100
AcDbSymbolTable
 70
     0
  0
ENDTAB
  0
TABLE
  2
UCS
  5
7
330
0
100
AcDbSymbolTable
 70
     0
  0
ENDTAB
  0
TABLE
  2
APPID
  5
9
330
0
100
AcDbSymbolTable
 70
     1
  0
APPID
  5
12
330
9
100
AcDbSymbolTableRecord
100
AcDbRegAppTableRecord
  2
ACAD
 70
     0
  0
ENDTAB
  0
TABLE
  2
DIMSTYLE
  5
A
330
0
100
AcDbSymbolTable
 70
     5
100
AcDbDimStyleTable
  0
DIMSTYLE
105
27
330
A
100
AcDbSymbolTableRecord
100
AcDbDimStyleTableRecord
  2
Standard
 70
     0
178
     0
340
11
  0
DIMSTYLE
105
1F4
102
{ACAD_REACTORS
330
1F3
330
205
102
}
330
A
100
AcDbSymbolTableRecord
100
AcDbDimStyleTableRecord
  2
SLDDIMSTYLE0
 70
     0
 41
0.3
 44
0.0
 45
0.000000001
 78
    12
 79
     3
140
0.5
147
0.125
173
     1
178
     0
271
     2
272
     2
276
     2
277
     5
284
    12
340
DF
341
1F5
343
1F5
344
1F5
  0
DIMSTYLE
105
211
330
A
100
AcDbSymbolTableRecord
100
AcDbDimStyleTableRecord
  2
SLDDIMSTYLE1
 70
     0
 41
0.0666666667
 44
0.0
 45
0.000000001
146
0.2
147
0.0
173
     1
178
     0
271
     0
272
     0
276
     2
277
     5
340
11
341
212
343
212
344
212
  0
DIMSTYLE
105
223
102
{ACAD_REACTORS
330
222
102
}
330
A
100
AcDbSymbolTableRecord
100
AcDbDimStyleTableRecord
  2
SLDDIMSTYLE2
 70
     0
 41
0.3
 44
0.0
 45
0.000000001
 78
    12
 79
     3
140
0.5
147
0.125
172
     1
173
     1
178
     0
271
     6
272
     2
276
     2
277
     5
284
    12
289
     0
340
DF
341
1F5
343
1F5
344
1F5
  0
DIMSTYLE
105
390
330
A
100
AcDbSymbolTableRecord
100
AcDbDimStyleTableRecord
  2
SLDDIMSTYLE3
 70
     0
 41
0.3
 44
0.0
 45
0.000000001
146
0.3
147
0.0
173
     1
178
     0
271
     0
272
     0
276
     2
277
     5
340
11
341
1F5
343
1F5
344
1F5
  0
ENDTAB
  0
TABLE
  2
BLOCK_RECORD
  5
1
330
0
100
AcDbSymbolTable
 70
     9
  0
BLOCK_RECORD
  5
1F
330
1
100
AcDbSymbolTableRecord
100
AcDbBlockTableRecord
  2
*Model_Space
340
22
  0
BLOCK_RECORD
  5
1B
330
1
100
AcDbSymbolTableRecord
100
AcDbBlockTableRecord
  2
*Paper_Space
340
1E
  0
BLOCK_RECORD
  5
23
330
1
100
AcDbSymbolTableRecord
100
AcDbBlockTableRecord
  2
*Paper_Space0
340
26
  0
BLOCK_RECORD
  5
E3
330
1
100
AcDbSymbolTableRecord
100
AcDbBlockTableRecord
  2
SW_NOTE_0
340
0
102
{BLKREFS
331
E8
102
}
  0
BLOCK_RECORD
  5
F2
330
1
100
AcDbSymbolTableRecord
100
AcDbBlockTableRecord
  2
SW_NOTE_0_1
340
0
102
{BLKREFS
331
F7
102
}
  0
BLOCK_RECORD
  5
F8
330
1
100
AcDbSymbolTableRecord
100
AcDbBlockTableRecord
  2
SW_NOTE_0_2
340
0
102
{BLKREFS
331
101
102
}
  0
BLOCK_RECORD
  5
1F5
330
1
100
AcDbSymbolTableRecord
100
AcDbBlockTableRecord
  2
_Open90
340
0
102
{BLKREFS
331
1FE
331
1FF
331
209
331
20A
331
227
331
228
102
}
  0
BLOCK_RECORD
  5
1FB
330
1
100
AcDbSymbolTableRecord
100
AcDbBlockTableRecord
  2
_D
340
0
  0
BLOCK_RECORD
  5
206
330
1
100
AcDbSymbolTableRecord
100
AcDbBlockTableRecord
  2
_D_1
340
0
  0
BLOCK_RECORD
  5
212
330
1
100
AcDbSymbolTableRecord
100
AcDbBlockTableRecord
  2
_Origin
340
0
  0
BLOCK_RECORD
  5
224
330
1
100
AcDbSymbolTableRecord
100
AcDbBlockTableRecord
  2
_D_2
340
0
  0
ENDTAB
  0
ENDSEC
  0
SECTION
  2
BLOCKS
  0
BLOCK
  5
20
330
1F
100
AcDbEntity
  8
0
100
AcDbBlockBegin
  2
*Model_Space
 70
     0
 10
0.0
 20
0.0
 30
0.0
  3
*Model_Space
  1

  0
ENDBLK
  5
21
330
1F
100
AcDbEntity
  8
0
100
AcDbBlockEnd
  0
BLOCK
  5
1C
330
1B
100
AcDbEntity
 67
     1
  8
0
100
AcDbBlockBegin
  2
*Paper_Space
 70
     0
 10
0.0
 20
0.0
 30
0.0
  3
*Paper_Space
  1

  0
ENDBLK
  5
1D
330
1B
100
AcDbEntity
 67
     1
  8
0
100
AcDbBlockEnd
  0
BLOCK
  5
24
330
23
100
AcDbEntity
  8
0
100
AcDbBlockBegin
  2
*Paper_Space0
 70
     0
 10
0.0
 20
0.0
 30
0.0
  3
*Paper_Space0
  1

  0
ENDBLK
  5
25
330
23
100
AcDbEntity
  8
0
100
AcDbBlockEnd
  0
BLOCK
  5
E4
330
E3
100
AcDbEntity
  8
0
100
AcDbBlockBegin
  2
SW_NOTE_0
 70
     0
 10
0.0
 20
0.0
 30
0.0
  3
SW_NOTE_0
  1

  0
MTEXT
  5
E6
330
E3
100
AcDbEntity
  8
NOTES
 62
     0
100
AcDbMText
 10
0.0
 20
0.638671875
 30
0.0
 40
0.5
 41
0.0
 71
     1
 72
     1
  1
3D view
  7
SLDTEXTSTYLE0
 73
     1
 44
1.0
  0
MTEXT
  5
E7
330
E3
100
AcDbEntity
  8
NOTES
 62
     0
100
AcDbMText
 10
0.0
 20
-0.3613281862
 30
0.0
 40
0.5
 41
0.0
 71
     1
 72
     1
  1
code 965
  7
SLDTEXTSTYLE0
 73
     1
 44
1.0
  0
ENDBLK
  5
E5
330
E3
100
AcDbEntity
  8
0
100
AcDbBlockEnd
  0
BLOCK
  5
F3
330
F2
100
AcDbEntity
  8
0
100
AcDbBlockBegin
  2
SW_NOTE_0_1
 70
     0
 10
0.0
 20
0.0
 30
0.0
  3
SW_NOTE_0_1
  1

  0
MTEXT
  5
F5
330
F2
100
AcDbEntity
  8
NOTES
 62
     0
100
AcDbMText
 10
0.0
 20
0.3759780908
 30
0.0
 40
0.2916666667
 41
0.0
 71
     1
 72
     1
  1
FROST PRODUCTS LTD.
  7
SLDTEXTSTYLE1
 73
     1
 44
1.0
  0
MTEXT
  5
F6
330
F2
100
AcDbEntity
  8
NOTES
 62
     0
100
AcDbMText
 10
0.0
 20
-0.0495142709
 30
0.0
 40
0.2291666667
 41
0.0
 71
     1
 72
     1
  1
5280 JOHN LUCAS DRIVE, BURLINGTON, ON, L7L 5Z9
  7
SLDTEXTSTYLE1
 73
     1
 44
1.0
  0
ENDBLK
  5
F4
330
F2
100
AcDbEntity
  8
0
100
AcDbBlockEnd
  0
BLOCK
  5
F9
330
F8
100
AcDbEntity
  8
0
100
AcDbBlockBegin
  2
SW_NOTE_0_2
 70
     0
 10
0.0
 20
0.0
 30
0.0
  3
SW_NOTE_0_2
  1

  0
MTEXT
  5
FC
330
F8
100
AcDbEntity
  8
NOTES
 62
     0
100
AcDbMText
 10
0.0
 20
0.2381282771
 30
0.0
 40
0.184729064
 41
0.0
 71
     1
 72
     1
  1
PROPRIETARY AND CONFIDENTIAL
  7
SLDTEXTSTYLE2
 73
     1
 44
1.0
  0
MTEXT
  5
FE
330
F8
100
AcDbEntity
  8
NOTES
 62
     0
100
AcDbMText
 10
0.0
 20
-0.0504364796
 30
0.0
 40
0.25
 41
0.0
 71
     1
 72
     1
  1
THE INFORMATION CONTAINED IN THIS DRAWING IS THE SOLE PROPERTY OF 
  7
SLDTEXTSTYLE3
 73
     1
 44
1.0
  0
MTEXT
  5
FF
330
F8
100
AcDbEntity
  8
NOTES
 62
     0
100
AcDbMText
 10
0.0
 20
-0.4231398941
 30
0.0
 40
0.25
 41
0.0
 71
     1
 72
     1
  1
FROST PRODUCTS LTD.  ANY REPRODUCTION IN PART OR AS A WHOLE WITHOUT 
  7
SLDTEXTSTYLE3
 73
     1
 44
1.0
  0
MTEXT
  5
100
330
F8
100
AcDbEntity
  8
NOTES
 62
     0
100
AcDbMText
 10
0.0
 20
-0.7958433086
 30
0.0
 40
0.25
 41
0.0
 71
     1
 72
     1
  1
THE WRITTEN PERMISSION OF FROST PRODUCTS LTD. IS PROHIBITED.
  7
SLDTEXTSTYLE3
 73
     1
 44
1.0
  0
ENDBLK
  5
FA
330
F8
100
AcDbEntity
  8
0
100
AcDbBlockEnd
  0
BLOCK
  5
1F6
330
1F5
100
AcDbEntity
  8
0
100
AcDbBlockBegin
  2
_Open90
 70
     0
 10
0.0
 20
0.0
 30
0.0
  3
_Open90
  1

  0
LINE
  5
1F8
330
1F5
100
AcDbEntity
  8
0
  6
ByBlock
 62
     0
370
    -2
100
AcDbLine
 10
-0.5
 20
0.5
 30
0.0
 11
0.0
 21
0.0
 31
0.0
  0
LINE
  5
1F9
330
1F5
100
AcDbEntity
  8
0
  6
ByBlock
 62
     0
370
    -2
100
AcDbLine
 10
0.0
 20
0.0
 30
0.0
 11
-0.5
 21
-0.5
 31
0.0
  0
LINE
  5
1FA
330
1F5
100
AcDbEntity
  8
0
  6
ByBlock
 62
     0
370
    -2
100
AcDbLine
 10
0.0
 20
0.0
 30
0.0
 11
-1.0
 21
0.0
 31
0.0
  0
ENDBLK
  5
1F7
330
1F5
100
AcDbEntity
  8
0
100
AcDbBlockEnd
  0
BLOCK
  5
1FC
330
1FB
100
AcDbEntity
  8
0
100
AcDbBlockBegin
  2
_D
 70
     0
 10
0.0
 20
0.0
 30
0.0
  3
_D
  1

  0
INSERT
  5
1FE
330
1FB
100
AcDbEntity
  8
DIMS
100
AcDbBlockReference
  2
_Open90
 10
13.7486414492
 20
17.8470049346
 30
-0.02925
 41
0.3
 42
0.3
 50
0.0
  0
INSERT
  5
1FF
330
1FB
100
AcDbEntity
  8
DIMS
100
AcDbBlockReference
  2
_Open90
 10
7.7486414492
 20
17.8470049346
 30
-0.02925
 41
0.3
 42
0.3
 50
180.0
  0
LINE
  5
200
330
1FB
100
AcDbEntity
  8
DIMS
100
AcDbLine
 10
13.7486414492
 20
17.3837503415
 30
0.0
 11
13.7486414492
 21
18.2220049346
 31
0.0
  0
LINE
  5
201
330
1FB
100
AcDbEntity
  8
DIMS
100
AcDbLine
 10
7.7486414492
 20
17.3837503415
 30
0.0
 11
7.7486414492
 21
18.2220049346
 31
0.0
  0
LINE
  5
202
330
1FB
100
AcDbEntity
  8
DIMS
100
AcDbLine
 10
13.7486414492
 20
17.8470049346
 30
0.0
 11
11.0364886723
 21
17.8470049346
 31
0.0
  0
LINE
  5
203
330
1FB
100
AcDbEntity
  8
DIMS
100
AcDbLine
 10
7.7486414492
 20
17.8470049346
 30
0.0
 11
10.4607942261
 21
17.8470049346
 31
0.0
  0
MTEXT
  5
204
330
1FB
100
AcDbEntity
  8
DIMS
100
AcDbMText
 10
10.4607942261
 20
18.0888018527
 30
0.0
 40
0.5
 41
0.0
 71
     1
 72
     1
  1
6"
  7
SLDTEXTSTYLE0
 73
     1
 44
1.0
  0
ENDBLK
  5
1FD
330
1FB
100
AcDbEntity
  8
0
100
AcDbBlockEnd
  0
BLOCK
  5
207
330
206
100
AcDbEntity
  8
0
100
AcDbBlockBegin
  2
_D_1
 70
     0
 10
0.0
 20
0.0
 30
0.0
  3
_D_1
  1

  0
INSERT
  5
209
330
206
100
AcDbEntity
  8
DIMS
100
AcDbBlockReference
  2
_Open90
 10
7.1187201894
 20
11.2170836748
 30
-0.02925
 41
0.3
 42
0.3
 50
270.0
  0
INSERT
  5
20A
330
206
100
AcDbEntity
  8
DIMS
100
AcDbBlockReference
  2
_Open90
 10
7.1187201894
 20
17.2170836748
 30
-0.02925
 41
0.3
 42
0.3
 50
90.0
  0
LINE
  5
20B
330
206
100
AcDbEntity
  8
DIMS
100
AcDbLine
 10
7.5819747826
 20
11.2170836748
 30
0.0
 11
6.7437201894
 21
11.2170836748
 31
0.0
  0
LINE
  5
20C
330
206
100
AcDbEntity
  8
DIMS
100
AcDbLine
 10
7.5819747826
 20
17.2170836748
 30
0.0
 11
6.7437201894
 21
17.2170836748
 31
0.0
  0
LINE
  5
20D
330
206
100
AcDbEntity
  8
DIMS
100
AcDbLine
 10
7.1187201894
 20
11.2170836748
 30
0.0
 11
7.1187201894
 21
14.0352242289
 31
0.0
  0
LINE
  5
20E
330
206
100
AcDbEntity
  8
DIMS
100
AcDbLine
 10
7.1187201894
 20
17.2170836748
 30
0.0
 11
7.1187201894
 21
14.8289742528
 31
0.0
  0
MTEXT
  5
20F
330
206
100
AcDbEntity
  8
DIMS
100
AcDbMText
 10
6.8308729663
 20
14.6738961589
 30
0.0
 40
0.5
 41
0.0
 71
     1
 72
     1
  1
6"
  7
SLDTEXTSTYLE0
 73
     1
 44
1.0
  0
ENDBLK
  5
208
330
206
100
AcDbEntity
  8
0
100
AcDbBlockEnd
  0
BLOCK
  5
213
330
212
100
AcDbEntity
  8
0
100
AcDbBlockBegin
  2
_Origin
 70
     0
 10
0.0
 20
0.0
 30
0.0
  3
_Origin
  1

  0
CIRCLE
  5
215
330
212
100
AcDbEntity
  8
0
  6
ByBlock
 62
     0
370
    -2
100
AcDbCircle
 10
0.0
 20
0.0
 30
0.0
 40
0.5
  0
LINE
  5
216
330
212
100
AcDbEntity
  8
0
  6
ByBlock
 62
     0
370
    -2
100
AcDbLine
 10
0.0
 20
0.0
 30
0.0
 11
-1.0
 21
0.0
 31
0.0
  0
ENDBLK
  5
214
330
212
100
AcDbEntity
  8
0
100
AcDbBlockEnd
  0
BLOCK
  5
225
330
224
100
AcDbEntity
  8
0
100
AcDbBlockBegin
  2
_D_2
 70
     0
 10
0.0
 20
0.0
 30
0.0
  3
_D_2
  1

  0
INSERT
  5
227
330
224
100
AcDbEntity
  8
DIMS
100
AcDbBlockReference
  2
_Open90
 10
20.3646096308
 20
17.8470049346
 30
0.0
 41
0.3
 42
0.3
 50
0.0
  0
INSERT
  5
228
330
224
100
AcDbEntity
  8
DIMS
100
AcDbBlockReference
  2
_Open90
 10
20.4391096308
 20
17.8470049346
 30
0.0
 41
0.3
 42
0.3
 50
180.0
  0
LINE
  5
229
330
224
100
AcDbEntity
  8
DIMS
100
AcDbLine
 10
18.4801935875
 20
17.898289633
 30
0.0
 11
19.3656102824
 21
17.898289633
 31
0.0
  0
LINE
  5
22A
330
224
100
AcDbEntity
  8
DIMS
100
AcDbLine
 10
20.3646096308
 20
17.3837503415
 30
0.0
 11
20.3646096308
 21
18.2220049346
 31
0.0
  0
LINE
  5
22B
330
224
100
AcDbEntity
  8
DIMS
100
AcDbLine
 10
20.4391096308
 20
17.3837503415
 30
0.0
 11
20.4391096308
 21
18.2220049346
 31
0.0
  0
LINE
  5
22C
330
224
100
AcDbEntity
  8
DIMS
100
AcDbLine
 10
20.3646096308
 20
17.8470049346
 30
0.0
 11
19.6451242218
 21
17.8470049346
 31
0.0
  0
LINE
  5
22D
330
224
100
AcDbEntity
  8
DIMS
100
AcDbLine
 10
20.4391096308
 20
17.8470049346
 30
0.0
 11
20.7391096308
 21
17.8470049346
 31
0.0
  0
MTEXT
  5
22E
330
224
100
AcDbEntity
  8
DIMS
100
AcDbMText
 10
18.7381797122
 20
18.4930031925
 30
0.0
 40
0.5
 41
0.0
 71
     1
 72
     1
  1
1
  7
SLDTEXTSTYLE0
 73
     1
 44
1.0
  0
MTEXT
  5
22F
330
224
100
AcDbEntity
  8
DIMS
100
AcDbMText
 10
18.5534574895
 20
17.8318226139
 30
0.0
 40
0.5
 41
0.0
 71
     1
 72
     1
  1
16
  7
SLDTEXTSTYLE0
 73
     1
 44
1.0
  0
MTEXT
  5
230
330
224
100
AcDbEntity
  8
DIMS
100
AcDbMText
 10
19.4388741844
 20
18.1276906934
 30
0.0
 40
0.5
 41
0.0
 71
     1
 72
     1
  1
"
  7
SLDTEXTSTYLE0
 73
     1
 44
1.0
  0
ENDBLK
  5
226
330
224
100
AcDbEntity
  8
0
100
AcDbBlockEnd
  0
ENDSEC
  0
SECTION
  2
ENTITIES
  0
LINE
  5
7A
330
1F
100
AcDbEntity
  8
TITLE
370
    35
100
AcDbLine
 10
30.5182229757
 20
1.4876117645
 30
0.0
 11
47.4999864512
 21
1.4876117645
 31
0.0
  0
LINE
  5
7B
330
1F
100
AcDbEntity
  8
TITLE
370
    35
100
AcDbLine
 10
47.4999317442
 20
5.4753603936
 30
0.0
 11
37.3105350723
 21
5.4753603936
 31
0.0
  0
LINE
  5
7C
330
1F
100
AcDbEntity
  8
TITLE
  6
SLD-Solid
370
    18
100
AcDbLine
 10
0.5
 20
0.5
 30
0.0
 11
0.5
 21
35.5
 31
0.0
  0
LINE
  5
7D
330
1F
100
AcDbEntity
  8
TITLE
  6
SLD-Solid
370
    18
100
AcDbLine
 10
0.5
 20
35.5
 30
0.0
 11
47.5
 21
35.5
 31
0.0
  0
LINE
  5
7E
330
1F
100
AcDbEntity
  8
TITLE
370
    35
100
AcDbLine
 10
30.5182229757
 20
2.5427877231
 30
0.0
 11
23.5059791203
 21
2.5427877231
 31
0.0
  0
LINE
  5
7F
330
1F
100
AcDbEntity
  8
TITLE
370
    35
100
AcDbLine
 10
30.5182229757
 20
1.4876117645
 30
0.0
 11
23.5059791203
 21
1.4876117645
 31
0.0
  0
LINE
  5
80
330
1F
100
AcDbEntity
  8
TITLE
  6
SLD-Solid
370
    18
100
AcDbLine
 10
47.5
 20
35.5
 30
0.0
 11
47.5
 21
0.5
 31
0.0
  0
LINE
  5
81
330
1F
100
AcDbEntity
  8
TITLE
  6
SLD-Solid
370
    18
100
AcDbLine
 10
47.5
 20
0.5
 30
0.0
 11
0.5
 21
0.5
 31
0.0
  0
LINE
  5
82
330
1F
100
AcDbEntity
  8
TITLE
370
    35
100
AcDbLine
 10
30.5182229757
 20
1.4876117645
 30
0.0
 11
30.5182229757
 21
3.5979636817
 31
0.0
  0
LINE
  5
83
330
1F
100
AcDbEntity
  8
TITLE
370
    35
100
AcDbLine
 10
23.5059791203
 20
3.5979636817
 30
0.0
 11
23.5059791203
 21
0.5
 31
0.0
  0
LINE
  5
84
330
1F
100
AcDbEntity
  8
TITLE
370
    35
100
AcDbLine
 10
23.5059791203
 20
0.5
 30
0.0
 11
47.5
 21
0.5
 31
0.0
  0
LINE
  5
85
330
1F
100
AcDbEntity
  8
TITLE
370
    35
100
AcDbLine
 10
47.4999317442
 20
5.4753603936
 30
0.0
 11
47.5
 21
0.5
 31
0.0
  0
LINE
  5
86
330
1F
100
AcDbEntity
  8
TITLE
  6
SLD-Solid
370
    18
100
AcDbLine
 10
0.4999606299
 20
18.0
 30
0.0
 11
0.5000393701
 21
18.0
 31
0.0
  0
LINE
  5
87
330
1F
100
AcDbEntity
  8
TITLE
370
    35
100
AcDbLine
 10
30.5182229757
 20
3.5979636817
 30
0.0
 11
23.5059791203
 21
3.5979636817
 31
0.0
  0
LINE
  5
88
330
1F
100
AcDbEntity
  8
TITLE
370
    35
100
AcDbLine
 10
30.5182229757
 20
3.5979636817
 30
0.0
 11
47.4997615643
 21
3.5979648343
 31
0.0
  0
LINE
  5
89
330
1F
100
AcDbEntity
  8
TITLE
370
    35
100
AcDbLine
 10
37.3105350723
 20
5.4753603936
 30
0.0
 11
37.3105350723
 21
0.4636772425
 31
0.0
  0
LINE
  5
8A
330
1F
100
AcDbEntity
  8
TITLE
  6
SLD-Solid
370
    18
100
AcDbLine
 10
24.0
 20
35.5000393701
 30
0.0
 11
24.0
 21
35.4999606299
 31
0.0
  0
LINE
  5
8B
330
1F
100
AcDbEntity
  8
TITLE
  6
SLD-Solid
370
    18
100
AcDbLine
 10
47.5000393701
 20
18.0
 30
0.0
 11
47.4999606299
 21
18.0
 31
0.0
  0
LINE
  5
8C
330
1F
100
AcDbEntity
  8
TITLE
  6
SLD-Solid
370
    18
100
AcDbLine
 10
24.0
 20
0.4999606299
 30
0.0
 11
24.0
 21
0.5000393701
 31
0.0
  0
LINE
  5
8D
330
1F
100
AcDbEntity
  8
TITLE
  6
SLD-Solid
370
    18
100
AcDbLine
 10
0.5
 20
2.2519685039
 30
0.0
 11
0.1653543307
 21
2.2519685039
 31
0.0
  0
LINE
  5
8E
330
1F
100
AcDbEntity
  8
TITLE
  6
SLD-Solid
370
    18
100
AcDbLine
 10
47.5
 20
2.2519685039
 30
0.0
 11
47.8346456693
 21
2.2519685039
 31
0.0
  0
LINE
  5
8F
330
1F
100
AcDbEntity
  8
TITLE
  6
SLD-Solid
370
    18
100
AcDbLine
 10
0.5
 20
4.2204724409
 30
0.0
 11
0.1653543307
 21
4.2204724409
 31
0.0
  0
LINE
  5
90
330
1F
100
AcDbEntity
  8
TITLE
  6
SLD-Solid
370
    18
100
AcDbLine
 10
47.5
 20
4.2204724409
 30
0.0
 11
47.8346456693
 21
4.2204724409
 31
0.0
  0
LINE
  5
91
330
1F
100
AcDbEntity
  8
TITLE
  6
SLD-Solid
370
    18
100
AcDbLine
 10
0.5
 20
6.188976378
 30
0.0
 11
0.1653543307
 21
6.188976378
 31
0.0
  0
LINE
  5
92
330
1F
100
AcDbEntity
  8
TITLE
  6
SLD-Solid
370
    18
100
AcDbLine
 10
47.5
 20
6.188976378
 30
0.0
 11
47.8346456693
 21
6.188976378
 31
0.0
  0
LINE
  5
93
330
1F
100
AcDbEntity
  8
TITLE
  6
SLD-Solid
370
    18
100
AcDbLine
 10
0.5
 20
8.157480315
 30
0.0
 11
0.1653543307
 21
8.157480315
 31
0.0
  0
LINE
  5
94
330
1F
100
AcDbEntity
  8
TITLE
  6
SLD-Solid
370
    18
100
AcDbLine
 10
47.5
 20
8.157480315
 30
0.0
 11
47.8346456693
 21
8.157480315
 31
0.0
  0
LINE
  5
95
330
1F
100
AcDbEntity
  8
TITLE
  6
SLD-Solid
370
    18
100
AcDbLine
 10
0.5
 20
10.125984252
 30
0.0
 11
0.1653543307
 21
10.125984252
 31
0.0
  0
LINE
  5
96
330
1F
100
AcDbEntity
  8
TITLE
  6
SLD-Solid
370
    18
100
AcDbLine
 10
47.5
 20
10.125984252
 30
0.0
 11
47.8346456693
 21
10.125984252
 31
0.0
  0
LINE
  5
97
330
1F
100
AcDbEntity
  8
TITLE
  6
SLD-Solid
370
    18
100
AcDbLine
 10
0.5
 20
12.094488189
 30
0.0
 11
0.1653543307
 21
12.094488189
 31
0.0
  0
LINE
  5
98
330
1F
100
AcDbEntity
  8
TITLE
  6
SLD-Solid
370
    18
100
AcDbLine
 10
47.5
 20
12.094488189
 30
0.0
 11
47.8346456693
 21
12.094488189
 31
0.0
  0
LINE
  5
99
330
1F
100
AcDbEntity
  8
TITLE
  6
SLD-Solid
370
    18
100
AcDbLine
 10
0.5
 20
14.062992126
 30
0.0
 11
0.1653543307
 21
14.062992126
 31
0.0
  0
LINE
  5
9A
330
1F
100
AcDbEntity
  8
TITLE
  6
SLD-Solid
370
    18
100
AcDbLine
 10
47.5
 20
14.062992126
 30
0.0
 11
47.8346456693
 21
14.062992126
 31
0.0
  0
LINE
  5
9B
330
1F
100
AcDbEntity
  8
TITLE
  6
SLD-Solid
370
    18
100
AcDbLine
 10
0.5
 20
16.031496063
 30
0.0
 11
0.1653543307
 21
16.031496063
 31
0.0
  0
LINE
  5
9C
330
1F
100
AcDbEntity
  8
TITLE
  6
SLD-Solid
370
    18
100
AcDbLine
 10
47.5
 20
16.031496063
 30
0.0
 11
47.8346456693
 21
16.031496063
 31
0.0
  0
LINE
  5
9D
330
1F
100
AcDbEntity
  8
TITLE
  6
SLD-Solid
370
    18
100
AcDbLine
 10
0.5
 20
18.0
 30
0.0
 11
0.1653543307
 21
18.0
 31
0.0
  0
LINE
  5
9E
330
1F
100
AcDbEntity
  8
TITLE
  6
SLD-Solid
370
    18
100
AcDbLine
 10
47.5
 20
18.0
 30
0.0
 11
47.8346456693
 21
18.0
 31
0.0
  0
LINE
  5
9F
330
1F
100
AcDbEntity
  8
TITLE
  6
SLD-Solid
370
    18
100
AcDbLine
 10
0.5
 20
19.968503937
 30
0.0
 11
0.1653543307
 21
19.968503937
 31
0.0
  0
LINE
  5
A0
330
1F
100
AcDbEntity
  8
TITLE
  6
SLD-Solid
370
    18
100
AcDbLine
 10
47.5
 20
19.968503937
 30
0.0
 11
47.8346456693
 21
19.968503937
 31
0.0
  0
LINE
  5
A1
330
1F
100
AcDbEntity
  8
TITLE
  6
SLD-Solid
370
    18
100
AcDbLine
 10
0.5
 20
21.937007874
 30
0.0
 11
0.1653543307
 21
21.937007874
 31
0.0
  0
LINE
  5
A2
330
1F
100
AcDbEntity
  8
TITLE
  6
SLD-Solid
370
    18
100
AcDbLine
 10
47.5
 20
21.937007874
 30
0.0
 11
47.8346456693
 21
21.937007874
 31
0.0
  0
LINE
  5
A3
330
1F
100
AcDbEntity
  8
TITLE
  6
SLD-Solid
370
    18
100
AcDbLine
 10
0.5
 20
23.905511811
 30
0.0
 11
0.1653543307
 21
23.905511811
 31
0.0
  0
LINE
  5
A4
330
1F
100
AcDbEntity
  8
TITLE
  6
SLD-Solid
370
    18
100
AcDbLine
 10
47.5
 20
23.905511811
 30
0.0
 11
47.8346456693
 21
23.905511811
 31
0.0
  0
LINE
  5
A5
330
1F
100
AcDbEntity
  8
TITLE
  6
SLD-Solid
370
    18
100
AcDbLine
 10
0.5
 20
25.874015748
 30
0.0
 11
0.1653543307
 21
25.874015748
 31
0.0
  0
LINE
  5
A6
330
1F
100
AcDbEntity
  8
TITLE
  6
SLD-Solid
370
    18
100
AcDbLine
 10
47.5
 20
25.874015748
 30
0.0
 11
47.8346456693
 21
25.874015748
 31
0.0
  0
LINE
  5
A7
330
1F
100
AcDbEntity
  8
TITLE
  6
SLD-Solid
370
    18
100
AcDbLine
 10
0.5
 20
27.842519685
 30
0.0
 11
0.1653543307
 21
27.842519685
 31
0.0
  0
LINE
  5
A8
330
1F
100
AcDbEntity
  8
TITLE
  6
SLD-Solid
370
    18
100
AcDbLine
 10
47.5
 20
27.842519685
 30
0.0
 11
47.8346456693
 21
27.842519685
 31
0.0
  0
LINE
  5
A9
330
1F
100
AcDbEntity
  8
TITLE
  6
SLD-Solid
370
    18
100
AcDbLine
 10
0.5
 20
29.811023622
 30
0.0
 11
0.1653543307
 21
29.811023622
 31
0.0
  0
LINE
  5
AA
330
1F
100
AcDbEntity
  8
TITLE
  6
SLD-Solid
370
    18
100
AcDbLine
 10
47.5
 20
29.811023622
 30
0.0
 11
47.8346456693
 21
29.811023622
 31
0.0
  0
LINE
  5
AB
330
1F
100
AcDbEntity
  8
TITLE
  6
SLD-Solid
370
    18
100
AcDbLine
 10
0.5
 20
31.7795275591
 30
0.0
 11
0.1653543307
 21
31.7795275591
 31
0.0
  0
LINE
  5
AC
330
1F
100
AcDbEntity
  8
TITLE
  6
SLD-Solid
370
    18
100
AcDbLine
 10
47.5
 20
31.7795275591
 30
0.0
 11
47.8346456693
 21
31.7795275591
 31
0.0
  0
LINE
  5
AD
330
1F
100
AcDbEntity
  8
TITLE
  6
SLD-Solid
370
    18
100
AcDbLine
 10
47.5
 20
33.7480314961
 30
0.0
 11
47.8346456693
 21
33.7480314961
 31
0.0
  0
LINE
  5
AE
330
1F
100
AcDbEntity
  8
TITLE
  6
SLD-Solid
370
    18
100
AcDbLine
 10
2.3464566929
 20
35.5
 30
0.0
 11
2.3464566929
 21
35.8346456693
 31
0.0
  0
LINE
  5
AF
330
1F
100
AcDbEntity
  8
TITLE
  6
SLD-Solid
370
    18
100
AcDbLine
 10
2.3464566929
 20
0.5
 30
0.0
 11
2.3464566929
 21
0.1653543307
 31
0.0
  0
LINE
  5
B0
330
1F
100
AcDbEntity
  8
TITLE
  6
SLD-Solid
370
    18
100
AcDbLine
 10
4.3149606299
 20
0.5
 30
0.0
 11
4.3149606299
 21
0.1653543307
 31
0.0
  0
LINE
  5
B1
330
1F
100
AcDbEntity
  8
TITLE
  6
SLD-Solid
370
    18
100
AcDbLine
 10
6.2834645669
 20
35.5
 30
0.0
 11
6.2834645669
 21
35.8346456693
 31
0.0
  0
LINE
  5
B2
330
1F
100
AcDbEntity
  8
TITLE
  6
SLD-Solid
370
    18
100
AcDbLine
 10
6.2834645669
 20
0.5
 30
0.0
 11
6.2834645669
 21
0.1653543307
 31
0.0
  0
LINE
  5
B3
330
1F
100
AcDbEntity
  8
TITLE
  6
SLD-Solid
370
    18
100
AcDbLine
 10
8.2519685039
 20
35.5
 30
0.0
 11
8.2519685039
 21
35.8346456693
 31
0.0
  0
LINE
  5
B4
330
1F
100
AcDbEntity
  8
TITLE
  6
SLD-Solid
370
    18
100
AcDbLine
 10
8.2519685039
 20
0.5
 30
0.0
 11
8.2519685039
 21
0.1653543307
 31
0.0
  0
LINE
  5
B5
330
1F
100
AcDbEntity
  8
TITLE
  6
SLD-Solid
370
    18
100
AcDbLine
 10
10.2204724409
 20
35.5
 30
0.0
 11
10.2204724409
 21
35.8346456693
 31
0.0
  0
LINE
  5
B6
330
1F
100
AcDbEntity
  8
TITLE
  6
SLD-Solid
370
    18
100
AcDbLine
 10
10.2204724409
 20
0.5
 30
0.0
 11
10.2204724409
 21
0.1653543307
 31
0.0
  0
LINE
  5
B7
330
1F
100
AcDbEntity
  8
TITLE
  6
SLD-Solid
370
    18
100
AcDbLine
 10
12.188976378
 20
35.5
 30
0.0
 11
12.188976378
 21
35.8346456693
 31
0.0
  0
LINE
  5
B8
330
1F
100
AcDbEntity
  8
TITLE
  6
SLD-Solid
370
    18
100
AcDbLine
 10
12.188976378
 20
0.5
 30
0.0
 11
12.188976378
 21
0.1653543307
 31
0.0
  0
LINE
  5
B9
330
1F
100
AcDbEntity
  8
TITLE
  6
SLD-Solid
370
    18
100
AcDbLine
 10
14.157480315
 20
35.5
 30
0.0
 11
14.157480315
 21
35.8346456693
 31
0.0
  0
LINE
  5
BA
330
1F
100
AcDbEntity
  8
TITLE
  6
SLD-Solid
370
    18
100
AcDbLine
 10
14.157480315
 20
0.5
 30
0.0
 11
14.157480315
 21
0.1653543307
 31
0.0
  0
LINE
  5
BB
330
1F
100
AcDbEntity
  8
TITLE
  6
SLD-Solid
370
    18
100
AcDbLine
 10
16.125984252
 20
35.5
 30
0.0
 11
16.125984252
 21
35.8346456693
 31
0.0
  0
LINE
  5
BC
330
1F
100
AcDbEntity
  8
TITLE
  6
SLD-Solid
370
    18
100
AcDbLine
 10
16.125984252
 20
0.5
 30
0.0
 11
16.125984252
 21
0.1653543307
 31
0.0
  0
LINE
  5
BD
330
1F
100
AcDbEntity
  8
TITLE
  6
SLD-Solid
370
    18
100
AcDbLine
 10
18.094488189
 20
35.5
 30
0.0
 11
18.094488189
 21
35.8346456693
 31
0.0
  0
LINE
  5
BE
330
1F
100
AcDbEntity
  8
TITLE
  6
SLD-Solid
370
    18
100
AcDbLine
 10
18.094488189
 20
0.5
 30
0.0
 11
18.094488189
 21
0.1653543307
 31
0.0
  0
LINE
  5
BF
330
1F
100
AcDbEntity
  8
TITLE
  6
SLD-Solid
370
    18
100
AcDbLine
 10
20.062992126
 20
35.5
 30
0.0
 11
20.062992126
 21
35.8346456693
 31
0.0
  0
LINE
  5
C0
330
1F
100
AcDbEntity
  8
TITLE
  6
SLD-Solid
370
    18
100
AcDbLine
 10
20.062992126
 20
0.5
 30
0.0
 11
20.062992126
 21
0.1653543307
 31
0.0
  0
LINE
  5
C1
330
1F
100
AcDbEntity
  8
TITLE
  6
SLD-Solid
370
    18
100
AcDbLine
 10
22.031496063
 20
35.5
 30
0.0
 11
22.031496063
 21
35.8346456693
 31
0.0
  0
LINE
  5
C2
330
1F
100
AcDbEntity
  8
TITLE
  6
SLD-Solid
370
    18
100
AcDbLine
 10
22.031496063
 20
0.5
 30
0.0
 11
22.031496063
 21
0.1653543307
 31
0.0
  0
LINE
  5
C3
330
1F
100
AcDbEntity
  8
TITLE
  6
SLD-Solid
370
    18
100
AcDbLine
 10
24.0
 20
35.5
 30
0.0
 11
24.0
 21
35.8346456693
 31
0.0
  0
LINE
  5
C4
330
1F
100
AcDbEntity
  8
TITLE
  6
SLD-Solid
370
    18
100
AcDbLine
 10
24.0
 20
0.5
 30
0.0
 11
24.0
 21
0.1653543307
 31
0.0
  0
LINE
  5
C5
330
1F
100
AcDbEntity
  8
TITLE
  6
SLD-Solid
370
    18
100
AcDbLine
 10
25.968503937
 20
35.5
 30
0.0
 11
25.968503937
 21
35.8346456693
 31
0.0
  0
LINE
  5
C6
330
1F
100
AcDbEntity
  8
TITLE
  6
SLD-Solid
370
    18
100
AcDbLine
 10
25.968503937
 20
0.5
 30
0.0
 11
25.968503937
 21
0.1653543307
 31
0.0
  0
LINE
  5
C7
330
1F
100
AcDbEntity
  8
TITLE
  6
SLD-Solid
370
    18
100
AcDbLine
 10
27.937007874
 20
35.5
 30
0.0
 11
27.937007874
 21
35.8346456693
 31
0.0
  0
LINE
  5
C8
330
1F
100
AcDbEntity
  8
TITLE
  6
SLD-Solid
370
    18
100
AcDbLine
 10
27.937007874
 20
0.5
 30
0.0
 11
27.937007874
 21
0.1653543307
 31
0.0
  0
LINE
  5
C9
330
1F
100
AcDbEntity
  8
TITLE
  6
SLD-Solid
370
    18
100
AcDbLine
 10
29.905511811
 20
35.5
 30
0.0
 11
29.905511811
 21
35.8346456693
 31
0.0
  0
LINE
  5
CA
330
1F
100
AcDbEntity
  8
TITLE
  6
SLD-Solid
370
    18
100
AcDbLine
 10
29.905511811
 20
0.5
 30
0.0
 11
29.905511811
 21
0.1653543307
 31
0.0
  0
LINE
  5
CB
330
1F
100
AcDbEntity
  8
TITLE
  6
SLD-Solid
370
    18
100
AcDbLine
 10
31.874015748
 20
35.5
 30
0.0
 11
31.874015748
 21
35.8346456693
 31
0.0
  0
LINE
  5
CC
330
1F
100
AcDbEntity
  8
TITLE
  6
SLD-Solid
370
    18
100
AcDbLine
 10
31.874015748
 20
0.5
 30
0.0
 11
31.874015748
 21
0.1653543307
 31
0.0
  0
LINE
  5
CD
330
1F
100
AcDbEntity
  8
TITLE
  6
SLD-Solid
370
    18
100
AcDbLine
 10
33.842519685
 20
35.5
 30
0.0
 11
33.842519685
 21
35.8346456693
 31
0.0
  0
LINE
  5
CE
330
1F
100
AcDbEntity
  8
TITLE
  6
SLD-Solid
370
    18
100
AcDbLine
 10
33.842519685
 20
0.5
 30
0.0
 11
33.842519685
 21
0.1653543307
 31
0.0
  0
LINE
  5
CF
330
1F
100
AcDbEntity
  8
TITLE
  6
SLD-Solid
370
    18
100
AcDbLine
 10
35.811023622
 20
35.5
 30
0.0
 11
35.811023622
 21
35.8346456693
 31
0.0
  0
LINE
  5
D0
330
1F
100
AcDbEntity
  8
TITLE
  6
SLD-Solid
370
    18
100
AcDbLine
 10
35.811023622
 20
0.5
 30
0.0
 11
35.811023622
 21
0.1653543307
 31
0.0
  0
LINE
  5
D1
330
1F
100
AcDbEntity
  8
TITLE
  6
SLD-Solid
370
    18
100
AcDbLine
 10
37.7795275591
 20
35.5
 30
0.0
 11
37.7795275591
 21
35.8346456693
 31
0.0
  0
LINE
  5
D2
330
1F
100
AcDbEntity
  8
TITLE
  6
SLD-Solid
370
    18
100
AcDbLine
 10
37.7795275591
 20
0.5
 30
0.0
 11
37.7795275591
 21
0.1653543307
 31
0.0
  0
LINE
  5
D3
330
1F
100
AcDbEntity
  8
TITLE
  6
SLD-Solid
370
    18
100
AcDbLine
 10
39.7480314961
 20
35.5
 30
0.0
 11
39.7480314961
 21
35.8346456693
 31
0.0
  0
LINE
  5
D4
330
1F
100
AcDbEntity
  8
TITLE
  6
SLD-Solid
370
    18
100
AcDbLine
 10
39.7480314961
 20
0.5
 30
0.0
 11
39.7480314961
 21
0.1653543307
 31
0.0
  0
LINE
  5
D5
330
1F
100
AcDbEntity
  8
TITLE
  6
SLD-Solid
370
    18
100
AcDbLine
 10
41.7165354331
 20
35.5
 30
0.0
 11
41.7165354331
 21
35.8346456693
 31
0.0
  0
LINE
  5
D6
330
1F
100
AcDbEntity
  8
TITLE
  6
SLD-Solid
370
    18
100
AcDbLine
 10
41.7165354331
 20
0.5
 30
0.0
 11
41.7165354331
 21
0.1653543307
 31
0.0
  0
LINE
  5
D7
330
1F
100
AcDbEntity
  8
TITLE
  6
SLD-Solid
370
    18
100
AcDbLine
 10
43.6850393701
 20
35.5
 30
0.0
 11
43.6850393701
 21
35.8346456693
 31
0.0
  0
LINE
  5
D8
330
1F
100
AcDbEntity
  8
TITLE
  6
SLD-Solid
370
    18
100
AcDbLine
 10
43.6850393701
 20
0.5
 30
0.0
 11
43.6850393701
 21
0.1653543307
 31
0.0
  0
LINE
  5
D9
330
1F
100
AcDbEntity
  8
TITLE
  6
SLD-Solid
370
    18
100
AcDbLine
 10
45.6535433071
 20
35.5
 30
0.0
 11
45.6535433071
 21
35.8346456693
 31
0.0
  0
LINE
  5
DA
330
1F
100
AcDbEntity
  8
TITLE
  6
SLD-Solid
370
    18
100
AcDbLine
 10
45.6535433071
 20
0.5
 30
0.0
 11
45.6535433071
 21
0.1653543307
 31
0.0
  0
LINE
  5
DB
330
1F
100
AcDbEntity
  8
TITLE
370
    35
100
AcDbLine
 10
0.5
 20
35.5
 30
0.0
 11
47.5
 21
35.5
 31
0.0
  0
LINE
  5
DC
330
1F
100
AcDbEntity
  8
TITLE
370
    35
100
AcDbLine
 10
0.5
 20
35.5
 30
0.0
 11
0.5
 21
0.5
 31
0.0
  0
LINE
  5
DD
330
1F
100
AcDbEntity
  8
TITLE
370
    35
100
AcDbLine
 10
0.5
 20
0.5
 30
0.0
 11
47.5
 21
0.5
 31
0.0
  0
LINE
  5
DE
330
1F
100
AcDbEntity
  8
TITLE
370
    35
100
AcDbLine
 10
47.5
 20
35.5
 30
0.0
 11
47.5
 21
0.5
 31
0.0
  0
MTEXT
  5
E0
330
1F
100
AcDbEntity
  8
NOTES
100
AcDbMText
 10
9.1149110778
 20
8.7912975777
 30
0.0
 40
0.5
 41
0.0
 71
     1
 72
     1
  1
Front view
  7
SLDTEXTSTYLE0
 73
     1
 44
1.0
  0
MTEXT
  5
E1
330
1F
100
AcDbEntity
  8
NOTES
100
AcDbMText
 10
18.9844368698
 20
8.8163510288
 30
0.0
 40
0.5
 41
0.0
 71
     1
 72
     1
  1
Side view
  7
SLDTEXTSTYLE0
 73
     1
 44
1.0
  0
MTEXT
  5
E2
330
1F
100
AcDbEntity
  8
NOTES
100
AcDbMText
 10
28.8357028829
 20
8.7839653782
 30
0.0
 40
0.5
 41
0.0
 71
     1
 72
     1
  1
Back view
  7
SLDTEXTSTYLE0
 73
     1
 44
1.0
  0
INSERT
  5
E8
330
1F
100
AcDbEntity
  8
NOTES
100
AcDbBlockReference
  2
SW_NOTE_0
 10
39.8580256772
 20
9.2072247117
 30
0.0
  0
MTEXT
  5
EA
330
1F
100
AcDbEntity
  8
NOTES
100
AcDbMText
 10
24.408297803
 20
1.0702903347
 30
0.0
 40
0.25
 41
0.0
 71
     1
 72
     1
  1
UNLESS OTHERWISE SPECIFIED DIMENSIONS ARE IN INCHES.
  7
SLDTEXTSTYLE1
 73
     1
 44
1.0
  0
MTEXT
  5
EB
330
1F
100
AcDbEntity
  8
NOTES
100
AcDbMText
 10
24.4368251132
 20
3.2193045501
 30
0.0
 40
0.25
 41
0.0
 71
     1
 72
     1
  1
DATE:
  7
SLDTEXTSTYLE1
 73
     1
 44
1.0
  0
MTEXT
  5
EC
330
1F
100
AcDbEntity
  8
NOTES
100
AcDbMText
 10
26.7130669976
 20
2.1722148141
 30
0.0
 40
0.25
 41
0.0
 71
     2
 72
     1
  1
DO NOT SCALE DRAWING
  7
SLDTEXTSTYLE1
 73
     1
 44
1.0
  0
MTEXT
  5
ED
330
1F
100
AcDbEntity
  8
NOTES
100
AcDbMText
 10
30.8307373075
 20
3.2682755553
 30
0.0
 40
0.25
 41
0.0
 71
     1
 72
     1
  1
TITLE:
  7
SLDTEXTSTYLE0
 73
     1
 44
1.0
  0
MTEXT
  5
EE
330
1F
100
AcDbEntity
  8
NOTES
100
AcDbMText
 10
38.1561831052
 20
3.2682755553
 30
0.0
 40
0.25
 41
0.0
 71
     1
 72
     1
  1
DWG NO.
  7
SLDTEXTSTYLE0
 73
     1
 44
1.0
  0
MTEXT
  5
EF
330
1F
100
AcDbEntity
  8
NOTES
100
AcDbMText
 10
38.1831753203
 20
1.0645815577
 30
0.0
 40
0.25
 41
0.0
 71
     1
 72
     1
  1
SCALE:     1:1
  7
SLDTEXTSTYLE0
 73
     1
 44
1.0
  0
MTEXT
  5
F0
330
1F
100
AcDbEntity
  8
NOTES
100
AcDbMText
 10
42.1760834346
 20
2.6510344295
 30
0.0
 40
0.25
 41
0.0
 71
     2
 72
     1
  1
965 CAD
  7
SLDTEXTSTYLE0
 73
     1
 44
1.0
  0
MTEXT
  5
F1
330
1F
100
AcDbEntity
  8
NOTES
100
AcDbMText
 10
33.9467646324
 20
2.6388861441
 30
0.0
 40
0.25
 41
0.0
 71
     2
 72
     1
  1
965
  7
SLDTEXTSTYLE0
 73
     1
 44
1.0
  0
INSERT
  5
F7
330
1F
100
AcDbEntity
  8
NOTES
100
AcDbBlockReference
  2
SW_NOTE_0_1
 10
38.266131557
 20
4.6105227838
 30
0.0
  0
INSERT
  5
101
330
1F
100
AcDbEntity
  8
NOTES
100
AcDbBlockReference
  2
SW_NOTE_0_2
 10
24.6159726246
 20
5.1481526848
 30
0.0
  0
MTEXT
  5
102
330
1F
100
AcDbEntity
  8
NOTES
100
AcDbMText
 10
27.5257340466
 20
3.2135957731
 30
0.0
 40
0.25
 41
0.0
 71
     2
 72
     1
  1
September 17, 2021
  7
SLDTEXTSTYLE0
 73
     1
 44
1.0
  0
MTEXT
  5
103
330
1F
100
AcDbEntity
  8
TITLE
100
AcDbMText
 10
0.3276279776
 20
1.4558621965
 30
0.0
 40
0.125
 41
0.0
 71
     2
 72
     1
  1
A
  7
SLDTEXTSTYLE0
 73
     1
 44
1.0
  0
MTEXT
  5
104
330
1F
100
AcDbEntity
  8
TITLE
100
AcDbMText
 10
47.6622736469
 20
1.4558621965
 30
0.0
 40
0.125
 41
0.0
 71
     2
 72
     1
  1
A
  7
SLDTEXTSTYLE0
 73
     1
 44
1.0
  0
MTEXT
  5
105
330
1F
100
AcDbEntity
  8
TITLE
100
AcDbMText
 10
0.3317512413
 20
3.316098417
 30
0.0
 40
0.125
 41
0.0
 71
     2
 72
     1
  1
B
  7
SLDTEXTSTYLE0
 73
     1
 44
1.0
  0
MTEXT
  5
106
330
1F
100
AcDbEntity
  8
TITLE
100
AcDbMText
 10
47.6663969106
 20
3.316098417
 30
0.0
 40
0.125
 41
0.0
 71
     2
 72
     1
  1
B
  7
SLDTEXTSTYLE0
 73
     1
 44
1.0
  0
MTEXT
  5
107
330
1F
100
AcDbEntity
  8
TITLE
100
AcDbMText
 10
0.3313750817
 20
5.284602354
 30
0.0
 40
0.125
 41
0.0
 71
     2
 72
     1
  1
C
  7
SLDTEXTSTYLE0
 73
     1
 44
1.0
  0
MTEXT
  5
108
330
1F
100
AcDbEntity
  8
TITLE
100
AcDbMText
 10
47.666020751
 20
5.284602354
 30
0.0
 40
0.125
 41
0.0
 71
     2
 72
     1
  1
C
  7
SLDTEXTSTYLE0
 73
     1
 44
1.0
  0
MTEXT
  5
109
330
1F
100
AcDbEntity
  8
TITLE
100
AcDbMText
 10
0.3311870028
 20
7.253106291
 30
0.0
 40
0.125
 41
0.0
 71
     2
 72
     1
  1
D
  7
SLDTEXTSTYLE0
 73
     1
 44
1.0
  0
MTEXT
  5
10A
330
1F
100
AcDbEntity
  8
TITLE
100
AcDbMText
 10
47.6658326721
 20
7.253106291
 30
0.0
 40
0.125
 41
0.0
 71
     2
 72
     1
  1
D
  7
SLDTEXTSTYLE0
 73
     1
 44
1.0
  0
MTEXT
  5
10B
330
1F
100
AcDbEntity
  8
TITLE
100
AcDbMText
 10
0.332923116
 20
9.221610228
 30
0.0
 40
0.125
 41
0.0
 71
     2
 72
     1
  1
E
  7
SLDTEXTSTYLE0
 73
     1
 44
1.0
  0
MTEXT
  5
10C
330
1F
100
AcDbEntity
  8
TITLE
100
AcDbMText
 10
47.6675687853
 20
9.221610228
 30
0.0
 40
0.125
 41
0.0
 71
     2
 72
     1
  1
E
  7
SLDTEXTSTYLE0
 73
     1
 44
1.0
  0
MTEXT
  5
10D
330
1F
100
AcDbEntity
  8
TITLE
100
AcDbMText
 10
0.3313461474
 20
11.190114165
 30
0.0
 40
0.125
 41
0.0
 71
     2
 72
     1
  1
F
  7
SLDTEXTSTYLE0
 73
     1
 44
1.0
  0
MTEXT
  5
10E
330
1F
100
AcDbEntity
  8
TITLE
100
AcDbMText
 10
47.6659918167
 20
11.190114165
 30
0.0
 40
0.125
 41
0.0
 71
     2
 72
     1
  1
F
  7
SLDTEXTSTYLE0
 73
     1
 44
1.0
  0
MTEXT
  5
10F
330
1F
100
AcDbEntity
  8
TITLE
100
AcDbMText
 10
0.3322576054
 20
13.158618102
 30
0.0
 40
0.125
 41
0.0
 71
     2
 72
     1
  1
G
  7
SLDTEXTSTYLE0
 73
     1
 44
1.0
  0
MTEXT
  5
110
330
1F
100
AcDbEntity
  8
TITLE
100
AcDbMText
 10
47.6669032747
 20
13.158618102
 30
0.0
 40
0.125
 41
0.0
 71
     2
 72
     1
  1
G
  7
SLDTEXTSTYLE0
 73
     1
 44
1.0
  0
MTEXT
  5
111
330
1F
100
AcDbEntity
  8
TITLE
100
AcDbMText
 10
0.3323733457
 20
15.127122039
 30
0.0
 40
0.125
 41
0.0
 71
     2
 72
     1
  1
H
  7
SLDTEXTSTYLE0
 73
     1
 44
1.0
  0
MTEXT
  5
112
330
1F
100
AcDbEntity
  8
TITLE
100
AcDbMText
 10
47.667019015
 20
15.127122039
 30
0.0
 40
0.125
 41
0.0
 71
     2
 72
     1
  1
H
  7
SLDTEXTSTYLE0
 73
     1
 44
1.0
  0
MTEXT
  5
113
330
1F
100
AcDbEntity
  8
TITLE
100
AcDbMText
 10
0.3315776306
 20
17.095625976
 30
0.0
 40
0.125
 41
0.0
 71
     2
 72
     1
  1
J
  7
SLDTEXTSTYLE0
 73
     1
 44
1.0
  0
MTEXT
  5
114
330
1F
100
AcDbEntity
  8
TITLE
100
AcDbMText
 10
47.6662232999
 20
17.095625976
 30
0.0
 40
0.125
 41
0.0
 71
     2
 72
     1
  1
J
  7
SLDTEXTSTYLE0
 73
     1
 44
1.0
  0
MTEXT
  5
115
330
1F
100
AcDbEntity
  8
TITLE
100
AcDbMText
 10
0.3323154765
 20
19.064129913
 30
0.0
 40
0.125
 41
0.0
 71
     2
 72
     1
  1
K
  7
SLDTEXTSTYLE0
 73
     1
 44
1.0
  0
MTEXT
  5
116
330
1F
100
AcDbEntity
  8
TITLE
100
AcDbMText
 10
47.6669611458
 20
19.064129913
 30
0.0
 40
0.125
 41
0.0
 71
     2
 72
     1
  1
K
  7
SLDTEXTSTYLE0
 73
     1
 44
1.0
  0
MTEXT
  5
117
330
1F
100
AcDbEntity
  8
TITLE
100
AcDbMText
 10
0.3312448739
 20
21.03263385
 30
0.0
 40
0.125
 41
0.0
 71
     2
 72
     1
  1
L
  7
SLDTEXTSTYLE0
 73
     1
 44
1.0
  0
MTEXT
  5
118
330
1F
100
AcDbEntity
  8
TITLE
100
AcDbMText
 10
47.6658905432
 20
21.03263385
 30
0.0
 40
0.125
 41
0.0
 71
     2
 72
     1
  1
L
  7
SLDTEXTSTYLE0
 73
     1
 44
1.0
  0
MTEXT
  5
119
330
1F
100
AcDbEntity
  8
TITLE
100
AcDbMText
 10
0.3283224192
 20
23.001137787
 30
0.0
 40
0.125
 41
0.0
 71
     2
 72
     1
  1
M
  7
SLDTEXTSTYLE0
 73
     1
 44
1.0
  0
MTEXT
  5
11A
330
1F
100
AcDbEntity
  8
TITLE
100
AcDbMText
 10
47.6629680885
 20
23.001137787
 30
0.0
 40
0.125
 41
0.0
 71
     2
 72
     1
  1
M
  7
SLDTEXTSTYLE0
 73
     1
 44
1.0
  0
MTEXT
  5
11B
330
1F
100
AcDbEntity
  8
TITLE
100
AcDbMText
 10
0.3315342276
 20
24.969641724
 30
0.0
 40
0.125
 41
0.0
 71
     2
 72
     1
  1
N
  7
SLDTEXTSTYLE0
 73
     1
 44
1.0
  0
MTEXT
  5
11C
330
1F
100
AcDbEntity
  8
TITLE
100
AcDbMText
 10
47.6661798969
 20
24.969641724
 30
0.0
 40
0.125
 41
0.0
 71
     2
 72
     1
  1
N
  7
SLDTEXTSTYLE0
 73
     1
 44
1.0
  0
MTEXT
  5
11D
330
1F
100
AcDbEntity
  8
TITLE
100
AcDbMText
 10
0.3321997349
 20
26.9381456611
 30
0.0
 40
0.125
 41
0.0
 71
     2
 72
     1
  1
P
  7
SLDTEXTSTYLE0
 73
     1
 44
1.0
  0
MTEXT
  5
11E
330
1F
100
AcDbEntity
  8
TITLE
100
AcDbMText
 10
47.6668454042
 20
26.9381456611
 30
0.0
 40
0.125
 41
0.0
 71
     2
 72
     1
  1
P
  7
SLDTEXTSTYLE0
 73
     1
 44
1.0
  0
MTEXT
  5
11F
330
1F
100
AcDbEntity
  8
TITLE
100
AcDbMText
 10
0.3309265867
 20
28.9066495981
 30
0.0
 40
0.125
 41
0.0
 71
     2
 72
     1
  1
R
  7
SLDTEXTSTYLE0
 73
     1
 44
1.0
  0
MTEXT
  5
120
330
1F
100
AcDbEntity
  8
TITLE
100
AcDbMText
 10
47.665572256
 20
28.9066495981
 30
0.0
 40
0.125
 41
0.0
 71
     2
 72
     1
  1
R
  7
SLDTEXTSTYLE0
 73
     1
 44
1.0
  0
MTEXT
  5
121
330
1F
100
AcDbEntity
  8
TITLE
100
AcDbMText
 10
0.3323010071
 20
30.8751535351
 30
0.0
 40
0.125
 41
0.0
 71
     2
 72
     1
  1
T
  7
SLDTEXTSTYLE0
 73
     1
 44
1.0
  0
MTEXT
  5
122
330
1F
100
AcDbEntity
  8
TITLE
100
AcDbMText
 10
47.6669466764
 20
30.8751535351
 30
0.0
 40
0.125
 41
0.0
 71
     2
 72
     1
  1
T
  7
SLDTEXTSTYLE0
 73
     1
 44
1.0
  0
MTEXT
  5
123
330
1F
100
AcDbEntity
  8
TITLE
100
AcDbMText
 10
0.3328507755
 20
32.8436574721
 30
0.0
 40
0.125
 41
0.0
 71
     2
 72
     1
  1
U
  7
SLDTEXTSTYLE0
 73
     1
 44
1.0
  0
MTEXT
  5
124
330
1F
100
AcDbEntity
  8
TITLE
100
AcDbMText
 10
47.6674964448
 20
32.8436574721
 30
0.0
 40
0.125
 41
0.0
 71
     2
 72
     1
  1
U
  7
SLDTEXTSTYLE0
 73
     1
 44
1.0
  0
MTEXT
  5
125
330
1F
100
AcDbEntity
  8
TITLE
100
AcDbMText
 10
0.3307529773
 20
34.7038936925
 30
0.0
 40
0.125
 41
0.0
 71
     2
 72
     1
  1
V
  7
SLDTEXTSTYLE0
 73
     1
 44
1.0
  0
MTEXT
  5
126
330
1F
100
AcDbEntity
  8
TITLE
100
AcDbMText
 10
47.6653986466
 20
34.7038936925
 30
0.0
 40
0.125
 41
0.0
 71
     2
 72
     1
  1
V
  7
SLDTEXTSTYLE0
 73
     1
 44
1.0
  0
MTEXT
  5
127
330
1F
100
AcDbEntity
  8
TITLE
100
AcDbMText
 10
1.4207109851
 20
0.4125551099
 30
0.0
 40
0.125
 41
0.0
 71
     2
 72
     1
  1
24
  7
SLDTEXTSTYLE0
 73
     1
 44
1.0
  0
MTEXT
  5
128
330
1F
100
AcDbEntity
  8
TITLE
100
AcDbMText
 10
1.4207109851
 20
35.7472007792
 30
0.0
 40
0.125
 41
0.0
 71
     2
 72
     1
  1
24
  7
SLDTEXTSTYLE0
 73
     1
 44
1.0
  0
MTEXT
  5
129
330
1F
100
AcDbEntity
  8
TITLE
100
AcDbMText
 10
3.3281913
 20
0.4125551099
 30
0.0
 40
0.125
 41
0.0
 71
     2
 72
     1
  1
23
  7
SLDTEXTSTYLE0
 73
     1
 44
1.0
  0
MTEXT
  5
12A
330
1F
100
AcDbEntity
  8
TITLE
100
AcDbMText
 10
3.3281913
 20
35.7472007792
 30
0.0
 40
0.125
 41
0.0
 71
     2
 72
     1
  1
23
  7
SLDTEXTSTYLE0
 73
     1
 44
1.0
  0
MTEXT
  5
12B
330
1F
100
AcDbEntity
  8
TITLE
100
AcDbMText
 10
5.2966952371
 20
0.4125551099
 30
0.0
 40
0.125
 41
0.0
 71
     2
 72
     1
  1
22
  7
SLDTEXTSTYLE0
 73
     1
 44
1.0
  0
MTEXT
  5
12C
330
1F
100
AcDbEntity
  8
TITLE
100
AcDbMText
 10
5.2966952371
 20
35.7472007792
 30
0.0
 40
0.125
 41
0.0
 71
     2
 72
     1
  1
22
  7
SLDTEXTSTYLE0
 73
     1
 44
1.0
  0
MTEXT
  5
12D
330
1F
100
AcDbEntity
  8
TITLE
100
AcDbMText
 10
7.2651991741
 20
0.4125551099
 30
0.0
 40
0.125
 41
0.0
 71
     2
 72
     1
  1
21
  7
SLDTEXTSTYLE0
 73
     1
 44
1.0
  0
MTEXT
  5
12E
330
1F
100
AcDbEntity
  8
TITLE
100
AcDbMText
 10
7.2651991741
 20
35.7472007792
 30
0.0
 40
0.125
 41
0.0
 71
     2
 72
     1
  1
21
  7
SLDTEXTSTYLE0
 73
     1
 44
1.0
  0
MTEXT
  5
12F
330
1F
100
AcDbEntity
  8
TITLE
100
AcDbMText
 10
9.2337031111
 20
0.4125551099
 30
0.0
 40
0.125
 41
0.0
 71
     2
 72
     1
  1
20
  7
SLDTEXTSTYLE0
 73
     1
 44
1.0
  0
MTEXT
  5
130
330
1F
100
AcDbEntity
  8
TITLE
100
AcDbMText
 10
9.2337031111
 20
35.7472007792
 30
0.0
 40
0.125
 41
0.0
 71
     2
 72
     1
  1
20
  7
SLDTEXTSTYLE0
 73
     1
 44
1.0
  0
MTEXT
  5
131
330
1F
100
AcDbEntity
  8
TITLE
100
AcDbMText
 10
11.2022070481
 20
0.4125551099
 30
0.0
 40
0.125
 41
0.0
 71
     2
 72
     1
  1
19
  7
SLDTEXTSTYLE0
 73
     1
 44
1.0
  0
MTEXT
  5
132
330
1F
100
AcDbEntity
  8
TITLE
100
AcDbMText
 10
11.2022070481
 20
35.7472007792
 30
0.0
 40
0.125
 41
0.0
 71
     2
 72
     1
  1
19
  7
SLDTEXTSTYLE0
 73
     1
 44
1.0
  0
MTEXT
  5
133
330
1F
100
AcDbEntity
  8
TITLE
100
AcDbMText
 10
13.1707109851
 20
0.4125551099
 30
0.0
 40
0.125
 41
0.0
 71
     2
 72
     1
  1
18
  7
SLDTEXTSTYLE0
 73
     1
 44
1.0
  0
MTEXT
  5
134
330
1F
100
AcDbEntity
  8
TITLE
100
AcDbMText
 10
13.1707109851
 20
35.7472007792
 30
0.0
 40
0.125
 41
0.0
 71
     2
 72
     1
  1
18
  7
SLDTEXTSTYLE0
 73
     1
 44
1.0
  0
MTEXT
  5
135
330
1F
100
AcDbEntity
  8
TITLE
100
AcDbMText
 10
15.1392149221
 20
0.4125551099
 30
0.0
 40
0.125
 41
0.0
 71
     2
 72
     1
  1
17
  7
SLDTEXTSTYLE0
 73
     1
 44
1.0
  0
MTEXT
  5
136
330
1F
100
AcDbEntity
  8
TITLE
100
AcDbMText
 10
15.1392149221
 20
35.7472007792
 30
0.0
 40
0.125
 41
0.0
 71
     2
 72
     1
  1
17
  7
SLDTEXTSTYLE0
 73
     1
 44
1.0
  0
MTEXT
  5
137
330
1F
100
AcDbEntity
  8
TITLE
100
AcDbMText
 10
17.1077188591
 20
0.4125551099
 30
0.0
 40
0.125
 41
0.0
 71
     2
 72
     1
  1
16
  7
SLDTEXTSTYLE0
 73
     1
 44
1.0
  0
MTEXT
  5
138
330
1F
100
AcDbEntity
  8
TITLE
100
AcDbMText
 10
17.1077188591
 20
35.7472007792
 30
0.0
 40
0.125
 41
0.0
 71
     2
 72
     1
  1
16
  7
SLDTEXTSTYLE0
 73
     1
 44
1.0
  0
MTEXT
  5
139
330
1F
100
AcDbEntity
  8
TITLE
100
AcDbMText
 10
19.0762227961
 20
0.4125551099
 30
0.0
 40
0.125
 41
0.0
 71
     2
 72
     1
  1
15
  7
SLDTEXTSTYLE0
 73
     1
 44
1.0
  0
MTEXT
  5
13A
330
1F
100
AcDbEntity
  8
TITLE
100
AcDbMText
 10
19.0762227961
 20
35.7472007792
 30
0.0
 40
0.125
 41
0.0
 71
     2
 72
     1
  1
15
  7
SLDTEXTSTYLE0
 73
     1
 44
1.0
  0
MTEXT
  5
13B
330
1F
100
AcDbEntity
  8
TITLE
100
AcDbMText
 10
21.0447267331
 20
0.4125551099
 30
0.0
 40
0.125
 41
0.0
 71
     2
 72
     1
  1
14
  7
SLDTEXTSTYLE0
 73
     1
 44
1.0
  0
MTEXT
  5
13C
330
1F
100
AcDbEntity
  8
TITLE
100
AcDbMText
 10
21.0447267331
 20
35.7472007792
 30
0.0
 40
0.125
 41
0.0
 71
     2
 72
     1
  1
14
  7
SLDTEXTSTYLE0
 73
     1
 44
1.0
  0
MTEXT
  5
13D
330
1F
100
AcDbEntity
  8
TITLE
100
AcDbMText
 10
23.0132306701
 20
0.4125551099
 30
0.0
 40
0.125
 41
0.0
 71
     2
 72
     1
  1
13
  7
SLDTEXTSTYLE0
 73
     1
 44
1.0
  0
MTEXT
  5
13E
330
1F
100
AcDbEntity
  8
TITLE
100
AcDbMText
 10
23.0132306701
 20
35.7472007792
 30
0.0
 40
0.125
 41
0.0
 71
     2
 72
     1
  1
13
  7
SLDTEXTSTYLE0
 73
     1
 44
1.0
  0
MTEXT
  5
13F
330
1F
100
AcDbEntity
  8
TITLE
100
AcDbMText
 10
24.9817346071
 20
0.4125551099
 30
0.0
 40
0.125
 41
0.0
 71
     2
 72
     1
  1
12
  7
SLDTEXTSTYLE0
 73
     1
 44
1.0
  0
MTEXT
  5
140
330
1F
100
AcDbEntity
  8
TITLE
100
AcDbMText
 10
24.9817346071
 20
35.7472007792
 30
0.0
 40
0.125
 41
0.0
 71
     2
 72
     1
  1
12
  7
SLDTEXTSTYLE0
 73
     1
 44
1.0
  0
MTEXT
  5
141
330
1F
100
AcDbEntity
  8
TITLE
100
AcDbMText
 10
26.9502385441
 20
0.4125551099
 30
0.0
 40
0.125
 41
0.0
 71
     2
 72
     1
  1
11
  7
SLDTEXTSTYLE0
 73
     1
 44
1.0
  0
MTEXT
  5
142
330
1F
100
AcDbEntity
  8
TITLE
100
AcDbMText
 10
26.9502385441
 20
35.7472007792
 30
0.0
 40
0.125
 41
0.0
 71
     2
 72
     1
  1
11
  7
SLDTEXTSTYLE0
 73
     1
 44
1.0
  0
MTEXT
  5
143
330
1F
100
AcDbEntity
  8
TITLE
100
AcDbMText
 10
28.9187424811
 20
0.4125551099
 30
0.0
 40
0.125
 41
0.0
 71
     2
 72
     1
  1
10
  7
SLDTEXTSTYLE0
 73
     1
 44
1.0
  0
MTEXT
  5
144
330
1F
100
AcDbEntity
  8
TITLE
100
AcDbMText
 10
28.9187424811
 20
35.7472007792
 30
0.0
 40
0.125
 41
0.0
 71
     2
 72
     1
  1
10
  7
SLDTEXTSTYLE0
 73
     1
 44
1.0
  0
MTEXT
  5
145
330
1F
100
AcDbEntity
  8
TITLE
100
AcDbMText
 10
30.8885050988
 20
0.4125551099
 30
0.0
 40
0.125
 41
0.0
 71
     2
 72
     1
  1
9
  7
SLDTEXTSTYLE0
 73
     1
 44
1.0
  0
MTEXT
  5
146
330
1F
100
AcDbEntity
  8
TITLE
100
AcDbMText
 10
30.8885050988
 20
35.7472007792
 30
0.0
 40
0.125
 41
0.0
 71
     2
 72
     1
  1
9
  7
SLDTEXTSTYLE0
 73
     1
 44
1.0
  0
MTEXT
  5
147
330
1F
100
AcDbEntity
  8
TITLE
100
AcDbMText
 10
32.8570090359
 20
0.4125551099
 30
0.0
 40
0.125
 41
0.0
 71
     2
 72
     1
  1
8
  7
SLDTEXTSTYLE0
 73
     1
 44
1.0
  0
MTEXT
  5
148
330
1F
100
AcDbEntity
  8
TITLE
100
AcDbMText
 10
32.8570090359
 20
35.7472007792
 30
0.0
 40
0.125
 41
0.0
 71
     2
 72
     1
  1
8
  7
SLDTEXTSTYLE0
 73
     1
 44
1.0
  0
MTEXT
  5
149
330
1F
100
AcDbEntity
  8
TITLE
100
AcDbMText
 10
34.8255129729
 20
0.4125551099
 30
0.0
 40
0.125
 41
0.0
 71
     2
 72
     1
  1
7
  7
SLDTEXTSTYLE0
 73
     1
 44
1.0
  0
MTEXT
  5
14A
330
1F
100
AcDbEntity
  8
TITLE
100
AcDbMText
 10
34.8255129729
 20
35.7472007792
 30
0.0
 40
0.125
 41
0.0
 71
     2
 72
     1
  1
7
  7
SLDTEXTSTYLE0
 73
     1
 44
1.0
  0
MTEXT
  5
14B
330
1F
100
AcDbEntity
  8
TITLE
100
AcDbMText
 10
36.7940169099
 20
0.4125551099
 30
0.0
 40
0.125
 41
0.0
 71
     2
 72
     1
  1
6
  7
SLDTEXTSTYLE0
 73
     1
 44
1.0
  0
MTEXT
  5
14C
330
1F
100
AcDbEntity
  8
TITLE
100
AcDbMText
 10
36.7940169099
 20
35.7472007792
 30
0.0
 40
0.125
 41
0.0
 71
     2
 72
     1
  1
6
  7
SLDTEXTSTYLE0
 73
     1
 44
1.0
  0
MTEXT
  5
14D
330
1F
100
AcDbEntity
  8
TITLE
100
AcDbMText
 10
38.7625208469
 20
0.4125551099
 30
0.0
 40
0.125
 41
0.0
 71
     2
 72
     1
  1
5
  7
SLDTEXTSTYLE0
 73
     1
 44
1.0
  0
MTEXT
  5
14E
330
1F
100
AcDbEntity
  8
TITLE
100
AcDbMText
 10
38.7625208469
 20
35.7472007792
 30
0.0
 40
0.125
 41
0.0
 71
     2
 72
     1
  1
5
  7
SLDTEXTSTYLE0
 73
     1
 44
1.0
  0
MTEXT
  5
14F
330
1F
100
AcDbEntity
  8
TITLE
100
AcDbMText
 10
40.7310247839
 20
0.4125551099
 30
0.0
 40
0.125
 41
0.0
 71
     2
 72
     1
  1
4
  7
SLDTEXTSTYLE0
 73
     1
 44
1.0
  0
MTEXT
  5
150
330
1F
100
AcDbEntity
  8
TITLE
100
AcDbMText
 10
40.7310247839
 20
35.7472007792
 30
0.0
 40
0.125
 41
0.0
 71
     2
 72
     1
  1
4
  7
SLDTEXTSTYLE0
 73
     1
 44
1.0
  0
MTEXT
  5
151
330
1F
100
AcDbEntity
  8
TITLE
100
AcDbMText
 10
42.6995287209
 20
0.4125551099
 30
0.0
 40
0.125
 41
0.0
 71
     2
 72
     1
  1
3
  7
SLDTEXTSTYLE0
 73
     1
 44
1.0
  0
MTEXT
  5
152
330
1F
100
AcDbEntity
  8
TITLE
100
AcDbMText
 10
42.6995287209
 20
35.7472007792
 30
0.0
 40
0.125
 41
0.0
 71
     2
 72
     1
  1
3
  7
SLDTEXTSTYLE0
 73
     1
 44
1.0
  0
MTEXT
  5
153
330
1F
100
AcDbEntity
  8
TITLE
100
AcDbMText
 10
44.6680326579
 20
0.4125551099
 30
0.0
 40
0.125
 41
0.0
 71
     2
 72
     1
  1
2
  7
SLDTEXTSTYLE0
 73
     1
 44
1.0
  0
MTEXT
  5
154
330
1F
100
AcDbEntity
  8
TITLE
100
AcDbMText
 10
44.6680326579
 20
35.7472007792
 30
0.0
 40
0.125
 41
0.0
 71
     2
 72
     1
  1
2
  7
SLDTEXTSTYLE0
 73
     1
 44
1.0
  0
MTEXT
  5
155
330
1F
100
AcDbEntity
  8
TITLE
100
AcDbMText
 10
46.5755129729
 20
0.4125551099
 30
0.0
 40
0.125
 41
0.0
 71
     2
 72
     1
  1
1
  7
SLDTEXTSTYLE0
 73
     1
 44
1.0
  0
MTEXT
  5
156
330
1F
100
AcDbEntity
  8
TITLE
100
AcDbMText
 10
46.5755129729
 20
35.7472007792
 30
0.0
 40
0.125
 41
0.0
 71
     2
 72
     1
  1
1
  7
SLDTEXTSTYLE0
 73
     1
 44
1.0
  0
LINE
  5
157
330
1F
100
AcDbEntity
  8
0
  6
SLD-Solid
 62
     7
370
    25
100
AcDbLine
 10
13.4556414492
 20
16.9240836748
 30
0.0
 11
13.4556414492
 21
11.5100836748
 31
0.0
  0
LINE
  5
158
330
1F
100
AcDbEntity
  8
0
  6
SLD-Solid
 62
     7
370
    25
100
AcDbLine
 10
8.0416414492
 20
16.9240836748
 30
0.0
 11
13.4556414492
 21
16.9240836748
 31
0.0
  0
LINE
  5
159
330
1F
100
AcDbEntity
  8
0
  6
SLD-Solid
 62
     7
370
    25
100
AcDbLine
 10
8.0416414492
 20
11.5100836748
 30
0.0
 11
8.0416414492
 21
16.9240836748
 31
0.0
  0
LINE
  5
15A
330
1F
100
AcDbEntity
  8
0
  6
SLD-Solid
 62
     7
370
    25
100
AcDbLine
 10
13.4556414492
 20
11.5100836748
 30
0.0
 11
8.0416414492
 21
11.5100836748
 31
0.0
  0
LINE
  5
15B
330
1F
100
AcDbEntity
  8
0
  6
SLD-Solid
 62
     7
370
    25
100
AcDbLine
 10
7.7486414492
 20
17.2170836748
 30
0.0
 11
7.7486414492
 21
11.2170836748
 31
0.0
  0
LINE
  5
15C
330
1F
100
AcDbEntity
  8
0
  6
SLD-Solid
 62
     7
370
    25
100
AcDbLine
 10
13.7486414492
 20
17.2170836748
 30
0.0
 11
7.7486414492
 21
17.2170836748
 31
0.0
  0
LINE
  5
15D
330
1F
100
AcDbEntity
  8
0
  6
SLD-Solid
 62
     7
370
    25
100
AcDbLine
 10
13.7486414492
 20
11.2170836748
 30
0.0
 11
13.7486414492
 21
17.2170836748
 31
0.0
  0
LINE
  5
15E
330
1F
100
AcDbEntity
  8
0
  6
SLD-Solid
 62
     7
370
    25
100
AcDbLine
 10
7.7486414492
 20
11.2170836748
 30
0.0
 11
13.7486414492
 21
11.2170836748
 31
0.0
  0
LINE
  5
15F
330
1F
100
AcDbEntity
  8
0
  6
SLD-Solid
 62
     7
370
    25
100
AcDbLine
 10
9.6514104854
 20
12.8316221363
 30
0.0
 11
9.7240827611
 21
12.999992529
 31
0.0
  0
LINE
  5
160
330
1F
100
AcDbEntity
  8
0
  6
SLD-Solid
 62
     7
370
    25
100
AcDbLine
 10
9.7240827611
 20
12.999992529
 30
0.0
 11
9.7967550367
 21
12.8316221363
 31
0.0
  0
LINE
  5
161
330
1F
100
AcDbEntity
  8
0
  6
SLD-Solid
 62
     7
370
    25
100
AcDbLine
 10
9.7967550367
 20
12.8316221363
 30
0.0
 11
9.6514104854
 21
12.8316221363
 31
0.0
  0
LINE
  5
162
330
1F
100
AcDbEntity
  8
0
  6
SLD-Solid
 62
     7
370
    25
100
AcDbLine
 10
10.3800763508
 20
13.1300836748
 30
0.0
 11
10.3800763508
 21
12.6450836748
 31
0.0
  0
LINE
  5
163
330
1F
100
AcDbEntity
  8
0
  6
SLD-Solid
 62
     7
370
    25
100
AcDbLine
 10
10.3800763508
 20
12.6450836748
 30
0.0
 11
10.4671276329
 21
12.6450836748
 31
0.0
  0
LINE
  5
164
330
1F
100
AcDbEntity
  8
0
  6
SLD-Solid
 62
     7
370
    25
100
AcDbLine
 10
10.4671276329
 20
12.6450836748
 30
0.0
 11
10.4671276329
 21
12.8564939312
 31
0.0
  0
LINE
  5
165
330
1F
100
AcDbEntity
  8
0
  6
SLD-Solid
 62
     7
370
    25
100
AcDbLine
 10
10.4671276329
 20
12.8564939312
 30
0.0
 11
10.6350122483
 21
12.8564939312
 31
0.0
  0
LINE
  5
166
330
1F
100
AcDbEntity
  8
0
  6
SLD-Solid
 62
     7
370
    25
100
AcDbLine
 10
10.6350122483
 20
12.8564939312
 30
0.0
 11
10.6350122483
 21
12.6450836748
 31
0.0
  0
LINE
  5
167
330
1F
100
AcDbEntity
  8
0
  6
SLD-Solid
 62
     7
370
    25
100
AcDbLine
 10
10.7220635303
 20
12.6450836748
 30
0.0
 11
10.7220635303
 21
13.1300836748
 31
0.0
  0
LINE
  5
168
330
1F
100
AcDbEntity
  8
0
  6
SLD-Solid
 62
     7
370
    25
100
AcDbLine
 10
10.7220635303
 20
13.1300836748
 30
0.0
 11
10.6350122483
 21
13.1300836748
 31
0.0
  0
LINE
  5
169
330
1F
100
AcDbEntity
  8
0
  6
SLD-Solid
 62
     7
370
    25
100
AcDbLine
 10
10.6350122483
 20
13.1300836748
 30
0.0
 11
10.6350122483
 21
12.9435452132
 31
0.0
  0
LINE
  5
16A
330
1F
100
AcDbEntity
  8
0
  6
SLD-Solid
 62
     7
370
    25
100
AcDbLine
 10
10.6350122483
 20
12.9435452132
 30
0.0
 11
10.4671276329
 21
12.9435452132
 31
0.0
  0
LINE
  5
16B
330
1F
100
AcDbEntity
  8
0
  6
SLD-Solid
 62
     7
370
    25
100
AcDbLine
 10
10.4671276329
 20
12.9435452132
 30
0.0
 11
10.4671276329
 21
13.1300836748
 31
0.0
  0
LINE
  5
16C
330
1F
100
AcDbEntity
  8
0
  6
SLD-Solid
 62
     7
370
    25
100
AcDbLine
 10
10.4671276329
 20
13.1300836748
 30
0.0
 11
10.3800763508
 21
13.1300836748
 31
0.0
  0
SPLINE
  5
16D
330
1F
100
AcDbEntity
  8
0
  6
SLD-Solid
 62
     7
370
    25
100
AcDbSpline
210
0.0
220
0.0
230
1.0
 70
     8
 71
     3
 72
    19
 73
    15
 74
     0
 42
0.00000001
 43
0.00000001
 40
0.0
 40
0.0
 40
0.0
 40
0.0
 40
0.1069102197112001
 40
0.2129765276064939
 40
0.3197766759577688
 40
0.4285562728491928
 40
0.4858568032784263
 40
0.5465586866406887
 40
0.6114314979175136
 40
0.679820910072493
 40
0.7531585046908256
 40
0.8307528691562623
 40
0.9131330746557015
 40
1.0
 40
1.0
 40
1.0
 40
1.0
 10
10.14670896299396
 20
13.1425195722232
 30
0.0
 10
10.15242335529879
 20
13.14231052757789
 30
0.0
 10
10.16380703249777
 20
13.14189408841247
 30
0.0
 10
10.18063812756235
 20
13.13863767022069
 30
0.0
 10
10.19707803751998
 20
13.13351660959812
 30
0.0
 10
10.2103256250644
 20
13.1273386133736
 30
0.0
 10
10.22086648319311
 20
13.12135398550758
 30
0.0
 10
10.22894506629788
 20
13.11584409403581
 30
0.0
 10
10.23716545944778
 20
13.10953221721797
 30
0.0
 10
10.24559395501427
 20
13.1023984646642
 30
0.0
 10
10.25407393849851
 20
13.09430842710753
 30
0.0
 10
10.26284653638527
 20
13.08545469426059
 30
0.0
 10
10.27179221130545
 20
13.07576074916593
 30
0.0
 10
10.2776054816351
 20
13.06883543974003
 30
0.0
 10
10.28058917132729
 20
13.06528099049243
 30
0.0
  0
LINE
  5
16E
330
1F
100
AcDbEntity
  8
0
  6
SLD-Solid
 62
     7
370
    25
100
AcDbLine
 10
10.0711220239
 20
12.7818785466
 30
0.0
 11
9.9945635303
 21
12.7359240193
 31
0.0
  0
SPLINE
  5
16F
330
1F
100
AcDbEntity
  8
0
  6
SLD-Solid
 62
     7
370
    25
100
AcDbSpline
210
0.0
220
0.0
230
1.0
 70
     8
 71
     3
 72
    15
 73
    11
 74
     0
 42
0.00000001
 43
0.00000001
 40
0.0
 40
0.0
 40
0.0
 40
0.0
 40
0.1481262583591565
 40
0.2859928874896983
 40
0.416634393560614
 40
0.5473799458012569
 40
0.6715828376102101
 40
0.7844007386959908
 40
0.8932655763009623
 40
1.0
 40
1.0
 40
1.0
 40
1.0
 10
10.14573740850678
 20
13.05546829017191
 30
0.0
 10
10.14297444629066
 20
13.05537139328262
 30
0.0
 10
10.13763989216794
 20
13.05518431084723
 30
0.0
 10
10.13003508950693
 20
13.05332472538336
 30
0.0
 10
10.12328343740091
 20
13.05011535395947
 30
0.0
 10
10.11739152516425
 20
13.04591883082953
 30
0.0
 10
10.11272426139237
 20
13.04086299336606
 30
0.0
 10
10.10899781320682
 20
13.03556071983253
 30
0.0
 10
10.10689950974777
 20
13.02970820899012
 30
0.0
 10
10.1066233317276
 20
13.02568846845643
 30
0.0
 10
10.10648660722473
 20
13.02369845844115
 30
0.0
  0
SPLINE
  5
170
330
1F
100
AcDbEntity
  8
0
  6
SLD-Solid
 62
     7
370
    25
100
AcDbSpline
210
0.0
220
0.0
230
1.0
 70
     8
 71
     3
 72
    15
 73
    11
 74
     0
 42
0.00000001
 43
0.00000001
 40
0.0
 40
0.0
 40
0.0
 40
0.0
 40
0.1624203072014376
 40
0.31182433973305
 40
0.44843276679258
 40
0.5733811968860476
 40
0.689077146873546
 40
0.7975729005012506
 40
0.9002930430775783
 40
1.0
 40
1.0
 40
1.0
 40
1.0
 10
10.21549502068627
 20
13.00572470042833
 30
0.0
 10
10.21270666639036
 20
13.00965796404184
 30
0.0
 10
10.20735341498821
 20
13.01720928167208
 30
0.0
 10
10.19867635283217
 20
13.02732067395772
 30
0.0
 10
10.1900384720593
 20
13.0359464440584
 30
0.0
 10
10.18135974795731
 20
13.04305055749082
 30
0.0
 10
10.17256325561864
 20
13.04858985148123
 30
0.0
 10
10.16366426446866
 20
13.05251173281803
 30
0.0
 10
10.15471322537774
 20
13.0550049100021
 30
0.0
 10
10.14869950882972
 20
13.05531537054684
 30
0.0
 10
10.14573740850678
 20
13.05546829017191
 30
0.0
  0
LINE
  5
171
330
1F
100
AcDbEntity
  8
0
  6
SLD-Solid
 62
     7
370
    25
100
AcDbLine
 10
9.5806813188
 20
12.6450836748
 30
0.0
 11
9.6183776329
 21
12.7445708543
 31
0.0
  0
LINE
  5
172
330
1F
100
AcDbEntity
  8
0
  6
SLD-Solid
 62
     7
370
    25
100
AcDbLine
 10
9.6183776329
 20
12.7445708543
 30
0.0
 11
9.8296907338
 21
12.7445708543
 31
0.0
  0
LINE
  5
173
330
1F
100
AcDbEntity
  8
0
  6
SLD-Solid
 62
     7
370
    25
100
AcDbLine
 10
9.8296907338
 20
12.7445708543
 30
0.0
 11
9.8673870479
 21
12.6450836748
 31
0.0
  0
LINE
  5
174
330
1F
100
AcDbEntity
  8
0
  6
SLD-Solid
 62
     7
370
    25
100
AcDbLine
 10
8.8846596841
 20
13.1300836748
 30
0.0
 11
8.9970685383
 21
12.6450836748
 31
0.0
  0
LINE
  5
175
330
1F
100
AcDbEntity
  8
0
  6
SLD-Solid
 62
     7
370
    25
100
AcDbLine
 10
8.9970685383
 20
12.6450836748
 30
0.0
 11
9.0873259502
 21
12.6450836748
 31
0.0
  0
LINE
  5
176
330
1F
100
AcDbEntity
  8
0
  6
SLD-Solid
 62
     7
370
    25
100
AcDbLine
 10
9.0873259502
 20
12.6450836748
 30
0.0
 11
9.1706853252
 21
12.9586043078
 31
0.0
  0
LINE
  5
177
330
1F
100
AcDbEntity
  8
0
  6
SLD-Solid
 62
     7
370
    25
100
AcDbLine
 10
9.1706853252
 20
12.9586043078
 30
0.0
 11
9.2535589229
 21
12.6450836748
 31
0.0
  0
LINE
  5
178
330
1F
100
AcDbEntity
  8
0
  6
SLD-Solid
 62
     7
370
    25
100
AcDbLine
 10
9.2535589229
 20
12.6450836748
 30
0.0
 11
9.3444964229
 21
12.6450836748
 31
0.0
  0
LINE
  5
179
330
1F
100
AcDbEntity
  8
0
  6
SLD-Solid
 62
     7
370
    25
100
AcDbLine
 10
9.3444964229
 20
12.6450836748
 30
0.0
 11
9.4567109662
 21
13.1300836748
 31
0.0
  0
LINE
  5
17A
330
1F
100
AcDbEntity
  8
0
  6
SLD-Solid
 62
     7
370
    25
100
AcDbLine
 10
9.4567109662
 20
13.1300836748
 30
0.0
 11
9.3666478652
 21
13.1300836748
 31
0.0
  0
LINE
  5
17B
330
1F
100
AcDbEntity
  8
0
  6
SLD-Solid
 62
     7
370
    25
100
AcDbLine
 10
9.3666478652
 20
13.1300836748
 30
0.0
 11
9.2950442995
 21
12.8204492597
 31
0.0
  0
LINE
  5
17C
330
1F
100
AcDbEntity
  8
0
  6
SLD-Solid
 62
     7
370
    25
100
AcDbLine
 10
9.2950442995
 20
12.8204492597
 30
0.0
 11
9.2132394117
 21
13.1300836748
 31
0.0
  0
LINE
  5
17D
330
1F
100
AcDbEntity
  8
0
  6
SLD-Solid
 62
     7
370
    25
100
AcDbLine
 10
9.2132394117
 20
13.1300836748
 30
0.0
 11
9.1286170159
 21
13.1300836748
 31
0.0
  0
LINE
  5
17E
330
1F
100
AcDbEntity
  8
0
  6
SLD-Solid
 62
     7
370
    25
100
AcDbLine
 10
9.1286170159
 20
13.1300836748
 30
0.0
 11
9.0463263508
 21
12.8204492597
 31
0.0
  0
LINE
  5
17F
330
1F
100
AcDbEntity
  8
0
  6
SLD-Solid
 62
     7
370
    25
100
AcDbLine
 10
9.0463263508
 20
12.8204492597
 30
0.0
 11
8.9745284742
 21
13.1300836748
 31
0.0
  0
LINE
  5
180
330
1F
100
AcDbEntity
  8
0
  6
SLD-Solid
 62
     7
370
    25
100
AcDbLine
 10
8.9745284742
 20
13.1300836748
 30
0.0
 11
8.8846596841
 21
13.1300836748
 31
0.0
  0
LINE
  5
181
330
1F
100
AcDbEntity
  8
0
  6
SLD-Solid
 62
     7
370
    25
100
AcDbLine
 10
10.8339866072
 20
13.1300836748
 30
0.0
 11
10.8339866072
 21
12.6450836748
 31
0.0
  0
LINE
  5
182
330
1F
100
AcDbEntity
  8
0
  6
SLD-Solid
 62
     7
370
    25
100
AcDbLine
 10
10.8339866072
 20
12.6450836748
 30
0.0
 11
10.9210378893
 21
12.6450836748
 31
0.0
  0
LINE
  5
183
330
1F
100
AcDbEntity
  8
0
  6
SLD-Solid
 62
     7
370
    25
100
AcDbLine
 10
10.9210378893
 20
12.6450836748
 30
0.0
 11
10.9210378893
 21
12.8564939312
 31
0.0
  0
LINE
  5
184
330
1F
100
AcDbEntity
  8
0
  6
SLD-Solid
 62
     7
370
    25
100
AcDbLine
 10
10.9210378893
 20
12.8564939312
 30
0.0
 11
10.9505731457
 21
12.8564939312
 31
0.0
  0
LINE
  5
185
330
1F
100
AcDbEntity
  8
0
  6
SLD-Solid
 62
     7
370
    25
100
AcDbLine
 10
10.9505731457
 20
12.8564939312
 30
0.0
 11
11.0574441393
 21
12.6450836748
 31
0.0
  0
LINE
  5
186
330
1F
100
AcDbEntity
  8
0
  6
SLD-Solid
 62
     7
370
    25
100
AcDbLine
 10
11.0574441393
 20
12.6450836748
 30
0.0
 11
11.1542109662
 21
12.6450836748
 31
0.0
  0
LINE
  5
187
330
1F
100
AcDbEntity
  8
0
  6
SLD-Solid
 62
     7
370
    25
100
AcDbLine
 10
11.1542109662
 20
12.6450836748
 30
0.0
 11
11.0422878893
 21
12.866403787
 31
0.0
  0
SPLINE
  5
188
330
1F
100
AcDbEntity
  8
0
  6
SLD-Solid
 62
     7
370
    25
100
AcDbSpline
210
0.0
220
0.0
230
1.0
 70
     8
 71
     3
 72
    23
 73
    19
 74
     0
 42
0.00000001
 43
0.00000001
 40
0.0
 40
0.0
 40
0.0
 40
0.0
 40
0.0687412630793653
 40
0.1347890881950349
 40
0.1985360495606904
 40
0.2603856506059206
 40
0.3209615782321962
 40
0.3799038495841482
 40
0.4385029357752679
 40
0.4961543439762686
 40
0.554265483208499
 40
0.6127487608156945
 40
0.6725134425261786
 40
0.7336464018979733
 40
0.7967896194814541
 40
0.8619356990410243
 40
0.9293977347748985
 40
1.0
 40
1.0
 40
1.0
 40
1.0
 10
11.13244814568627
 20
12.99231724850525
 30
0.0
 10
11.13235891092735
 20
12.98849402695789
 30
0.0
 10
11.13218393782893
 20
12.98099738631949
 30
0.0
 10
11.13124143753158
 20
12.96998543264445
 30
0.0
 10
11.12951884305687
 20
12.95944996562107
 30
0.0
 10
11.12690972312026
 20
12.94942183180065
 30
0.0
 10
11.1239108786483
 20
12.93977621936686
 30
0.0
 10
11.11992318474738
 20
12.93069109590067
 30
0.0
 10
11.11542267804999
 20
12.92203433144318
 30
0.0
 10
11.11007755773644
 20
12.91392837920872
 30
0.0
 10
11.10421154931928
 20
12.90619318980328
 30
0.0
 10
11.09738950492502
 20
12.89912512702909
 30
0.0
 10
11.09005338824078
 20
12.89234430927446
 30
0.0
 10
11.08179080943011
 20
12.88627546395841
 30
0.0
 10
11.07296599064235
 20
12.88050823769066
 30
0.0
 10
11.06340359201292
 20
12.87528159482122
 30
0.0
 10
11.05316602103473
 20
12.8704641495829
 30
0.0
 10
11.04596850164064
 20
12.86777760934559
 30
0.0
 10
11.04228788927601
 20
12.86640378696679
 30
0.0
  0
LINE
  5
189
330
1F
100
AcDbEntity
  8
0
  6
SLD-Solid
 62
     7
370
    25
100
AcDbLine
 10
10.9354168957
 20
13.1300836748
 30
0.0
 11
10.8339866072
 21
13.1300836748
 31
0.0
  0
LINE
  5
18A
330
1F
100
AcDbEntity
  8
0
  6
SLD-Solid
 62
     7
370
    25
100
AcDbLine
 10
12.3957604454
 20
13.1300836748
 30
0.0
 11
12.3138584021
 21
12.6450836748
 31
0.0
  0
LINE
  5
18B
330
1F
100
AcDbEntity
  8
0
  6
SLD-Solid
 62
     7
370
    25
100
AcDbLine
 10
12.3138584021
 20
12.6450836748
 30
0.0
 11
12.4020755495
 21
12.6450836748
 31
0.0
  0
LINE
  5
18C
330
1F
100
AcDbEntity
  8
0
  6
SLD-Solid
 62
     7
370
    25
100
AcDbLine
 10
12.4020755495
 20
12.6450836748
 30
0.0
 11
12.4537622483
 21
12.9514148046
 31
0.0
  0
LINE
  5
18D
330
1F
100
AcDbEntity
  8
0
  6
SLD-Solid
 62
     7
370
    25
100
AcDbLine
 10
12.4537622483
 20
12.9514148046
 30
0.0
 11
12.5540266713
 21
12.6450836748
 31
0.0
  0
LINE
  5
18E
330
1F
100
AcDbEntity
  8
0
  6
SLD-Solid
 62
     7
370
    25
100
AcDbLine
 10
12.5540266713
 20
12.6450836748
 30
0.0
 11
12.6389405335
 21
12.6450836748
 31
0.0
  0
LINE
  5
18F
330
1F
100
AcDbEntity
  8
0
  6
SLD-Solid
 62
     7
370
    25
100
AcDbLine
 10
12.6389405335
 20
12.6450836748
 30
0.0
 11
12.7397878893
 21
12.9514148046
 31
0.0
  0
LINE
  5
190
330
1F
100
AcDbEntity
  8
0
  6
SLD-Solid
 62
     7
370
    25
100
AcDbLine
 10
12.7397878893
 20
12.9514148046
 30
0.0
 11
12.7915717434
 21
12.6450836748
 31
0.0
  0
LINE
  5
191
330
1F
100
AcDbEntity
  8
0
  6
SLD-Solid
 62
     7
370
    25
100
AcDbLine
 10
12.7915717434
 20
12.6450836748
 30
0.0
 11
12.8796917354
 21
12.6450836748
 31
0.0
  0
LINE
  5
192
330
1F
100
AcDbEntity
  8
0
  6
SLD-Solid
 62
     7
370
    25
100
AcDbLine
 10
12.8796917354
 20
12.6450836748
 30
0.0
 11
12.7976925367
 21
13.1300836748
 31
0.0
  0
LINE
  5
193
330
1F
100
AcDbEntity
  8
0
  6
SLD-Solid
 62
     7
370
    25
100
AcDbLine
 10
12.7976925367
 20
13.1300836748
 30
0.0
 11
12.7082123684
 21
13.1300836748
 31
0.0
  0
LINE
  5
194
330
1F
100
AcDbEntity
  8
0
  6
SLD-Solid
 62
     7
370
    25
100
AcDbLine
 10
12.7082123684
 20
13.1300836748
 30
0.0
 11
12.5967750688
 21
12.7917884024
 31
0.0
  0
LINE
  5
195
330
1F
100
AcDbEntity
  8
0
  6
SLD-Solid
 62
     7
370
    25
100
AcDbLine
 10
12.5967750688
 20
12.7917884024
 30
0.0
 11
12.4861150127
 21
13.1300836748
 31
0.0
  0
LINE
  5
196
330
1F
100
AcDbEntity
  8
0
  6
SLD-Solid
 62
     7
370
    25
100
AcDbLine
 10
12.4861150127
 20
13.1300836748
 30
0.0
 11
12.3957604454
 21
13.1300836748
 31
0.0
  0
LINE
  5
197
330
1F
100
AcDbEntity
  8
0
  6
SLD-Solid
 62
     7
370
    25
100
AcDbLine
 10
9.6686414492
 20
11.9520836748
 30
0.0
 11
11.9876414492
 21
11.9520836748
 31
0.0
  0
LINE
  5
198
330
1F
100
AcDbEntity
  8
0
  6
SLD-Solid
 62
     7
370
    25
100
AcDbLine
 10
11.9876414492
 20
11.9520836748
 30
0.0
 11
11.9876414492
 21
12.3520836748
 31
0.0
  0
LINE
  5
199
330
1F
100
AcDbEntity
  8
0
  6
SLD-Solid
 62
     7
370
    25
100
AcDbLine
 10
11.9876414492
 20
12.3520836748
 30
0.0
 11
9.6686414492
 21
12.3520836748
 31
0.0
  0
LINE
  5
19A
330
1F
100
AcDbEntity
  8
0
  6
SLD-Solid
 62
     7
370
    25
100
AcDbLine
 10
9.6686414492
 20
12.3520836748
 30
0.0
 11
9.6686414492
 21
11.9520836748
 31
0.0
  0
CIRCLE
  5
19B
330
1F
100
AcDbEntity
  8
0
  6
SLD-Solid
 62
     7
370
    25
100
AcDbCircle
 10
9.8772726109
 20
16.3288257378
 30
0.0
 40
0.2351907549748962
  0
LINE
  5
19C
330
1F
100
AcDbEntity
  8
0
  6
SLD-Solid
 62
     7
370
    25
100
AcDbLine
 10
9.2750599974
 20
15.7146605489
 30
0.0
 11
9.2750599974
 21
14.8952847789
 31
0.0
  0
ARC
  5
19D
330
1F
100
AcDbEntity
  8
0
  6
SLD-Solid
 62
     7
370
    25
100
AcDbCircle
 10
9.3777243214
 20
14.8952847789
 30
0.0
 40
0.1026643239875664
100
AcDbArc
 50
180.0
 51
0.0
  0
LINE
  5
19E
330
1F
100
AcDbEntity
  8
0
  6
SLD-Solid
 62
     7
370
    25
100
AcDbLine
 10
9.4803886453
 20
14.8952847789
 30
0.0
 11
9.4803886453
 21
15.6093532199
 31
0.0
  0
ARC
  5
19F
330
1F
100
AcDbEntity
  8
0
  6
SLD-Solid
 62
     7
370
    25
100
AcDbCircle
 10
9.5134311001
 20
15.6093532199
 30
0.0
 40
0.0330424547876298
100
AcDbArc
 50
0.0
 51
180.0
  0
LINE
  5
1A0
330
1F
100
AcDbEntity
  8
0
  6
SLD-Solid
 62
     7
370
    25
100
AcDbLine
 10
9.5464735549
 20
15.6093532199
 30
0.0
 11
9.5464735549
 21
13.5919312057
 31
0.0
  0
ARC
  5
1A1
330
1F
100
AcDbEntity
  8
0
  6
SLD-Solid
 62
     7
370
    25
100
AcDbCircle
 10
9.6915111357
 20
13.5919312057
 30
0.0
 40
0.1450375807594533
100
AcDbArc
 50
180.0
 51
0.0
  0
LINE
  5
1A2
330
1F
100
AcDbEntity
  8
0
  6
SLD-Solid
 62
     7
370
    25
100
AcDbLine
 10
9.8365487164
 20
13.5919312057
 30
0.0
 11
9.8365487164
 21
14.8250672961
 31
0.0
  0
ARC
  5
1A3
330
1F
100
AcDbEntity
  8
0
  6
SLD-Solid
 62
     7
370
    25
100
AcDbCircle
 10
9.8772726109
 20
14.8250672961
 30
0.0
 40
0.0407238944936719
100
AcDbArc
 50
0.0
 51
180.0
  0
LINE
  5
1A4
330
1F
100
AcDbEntity
  8
0
  6
SLD-Solid
 62
     7
370
    25
100
AcDbLine
 10
9.9179965054
 20
14.8250672961
 30
0.0
 11
9.9179965054
 21
13.5919312057
 31
0.0
  0
ARC
  5
1A5
330
1F
100
AcDbEntity
  8
0
  6
SLD-Solid
 62
     7
370
    25
100
AcDbCircle
 10
10.0630340862
 20
13.5919312057
 30
0.0
 40
0.1450375807594533
100
AcDbArc
 50
180.0
 51
0.0
  0
LINE
  5
1A6
330
1F
100
AcDbEntity
  8
0
  6
SLD-Solid
 62
     7
370
    25
100
AcDbLine
 10
10.208071667
 20
13.5919312057
 30
0.0
 11
10.208071667
 21
15.6093532199
 31
0.0
  0
ARC
  5
1A7
330
1F
100
AcDbEntity
  8
0
  6
SLD-Solid
 62
     7
370
    25
100
AcDbCircle
 10
10.2411141217
 20
15.6093532199
 30
0.0
 40
0.0330424547876316
100
AcDbArc
 50
0.0
 51
180.0
  0
LINE
  5
1A8
330
1F
100
AcDbEntity
  8
0
  6
SLD-Solid
 62
     7
370
    25
100
AcDbLine
 10
10.2741565765
 20
15.6093532199
 30
0.0
 11
10.2741565765
 21
14.8952847789
 31
0.0
  0
ARC
  5
1A9
330
1F
100
AcDbEntity
  8
0
  6
SLD-Solid
 62
     7
370
    25
100
AcDbCircle
 10
10.3768209005
 20
14.8952847789
 30
0.0
 40
0.1026643239875682
100
AcDbArc
 50
180.0
 51
0.0
  0
LINE
  5
1AA
330
1F
100
AcDbEntity
  8
0
  6
SLD-Solid
 62
     7
370
    25
100
AcDbLine
 10
10.4794852245
 20
14.8952847789
 30
0.0
 11
10.4794852245
 21
15.7146605489
 31
0.0
  0
ARC
  5
1AB
330
1F
100
AcDbEntity
  8
0
  6
SLD-Solid
 62
     7
370
    25
100
AcDbCircle
 10
10.1933100935
 20
15.7146605489
 30
0.0
 40
0.2861751309663934
100
AcDbArc
 50
0.0
 51
90.0
  0
LINE
  5
1AC
330
1F
100
AcDbEntity
  8
0
  6
SLD-Solid
 62
     7
370
    25
100
AcDbLine
 10
10.1933100935
 20
16.0008356798
 30
0.0
 11
9.5612351283
 21
16.0008356798
 31
0.0
  0
ARC
  5
1AD
330
1F
100
AcDbEntity
  8
0
  6
SLD-Solid
 62
     7
370
    25
100
AcDbCircle
 10
9.5612351283
 20
15.7146605489
 30
0.0
 40
0.2861751309663916
100
AcDbArc
 50
90.0
 51
180.0
  0
ARC
  5
1AE
330
1F
100
AcDbEntity
  8
0
  6
SLD-Solid
 62
     7
370
    25
100
AcDbCircle
 10
11.4426858398
 20
13.5919312057
 30
0.0
 40
0.1450375807594533
100
AcDbArc
 50
180.0
 51
0.0
  0
LINE
  5
1AF
330
1F
100
AcDbEntity
  8
0
  6
SLD-Solid
 62
     7
370
    25
100
AcDbLine
 10
11.5877234206
 20
13.5919312057
 30
0.0
 11
11.5877234206
 21
14.5161048021
 31
0.0
  0
ARC
  5
1B0
330
1F
100
AcDbEntity
  8
0
  6
SLD-Solid
 62
     7
370
    25
100
AcDbCircle
 10
11.6200102876
 20
14.5161048021
 30
0.0
 40
0.0322868669756797
100
AcDbArc
 50
0.0
 51
180.0
  0
LINE
  5
1B1
330
1F
100
AcDbEntity
  8
0
  6
SLD-Solid
 62
     7
370
    25
100
AcDbLine
 10
11.6522971545
 20
14.5161048021
 30
0.0
 11
11.6522971545
 21
13.5919312057
 31
0.0
  0
ARC
  5
1B2
330
1F
100
AcDbEntity
  8
0
  6
SLD-Solid
 62
     7
370
    25
100
AcDbCircle
 10
11.7973347353
 20
13.5919312057
 30
0.0
 40
0.1450375807594533
100
AcDbArc
 50
180.0
 51
0.0
  0
LINE
  5
1B3
330
1F
100
AcDbEntity
  8
0
  6
SLD-Solid
 62
     7
370
    25
100
AcDbLine
 10
11.942372316
 20
13.5919312057
 30
0.0
 11
11.9330584783
 21
14.572513382
 31
0.0
  0
LINE
  5
1B4
330
1F
100
AcDbEntity
  8
0
  6
SLD-Solid
 62
     7
370
    25
100
AcDbLine
 10
11.9330584783
 20
14.572513382
 30
0.0
 11
12.2050304448
 21
14.572513382
 31
0.0
  0
LINE
  5
1B5
330
1F
100
AcDbEntity
  8
0
  6
SLD-Solid
 62
     7
370
    25
100
AcDbLine
 10
12.2050304448
 20
14.572513382
 30
0.0
 11
11.9431315034
 21
15.6032823361
 31
0.0
  0
ARC
  5
1B6
330
1F
100
AcDbEntity
  8
0
  6
SLD-Solid
 62
     7
370
    25
100
AcDbCircle
 10
11.9670249892
 20
15.6093532199
 30
0.0
 40
0.0246526731979464
100
AcDbArc
 50
0.0
 51
194.2561080276
  0
LINE
  5
1B7
330
1F
100
AcDbEntity
  8
0
  6
SLD-Solid
 62
     7
370
    25
100
AcDbLine
 10
11.9916776624
 20
15.6093532199
 30
0.0
 11
12.1730042109
 21
14.9392483784
 31
0.0
  0
ARC
  5
1B8
330
1F
100
AcDbEntity
  8
0
  6
SLD-Solid
 62
     7
370
    25
100
AcDbCircle
 10
12.2721044986
 20
14.9660643511
 30
0.0
 40
0.1026643239875659
100
AcDbArc
 50
195.1413074441
 51
15.1413074441
  0
LINE
  5
1B9
330
1F
100
AcDbEntity
  8
0
  6
SLD-Solid
 62
     7
370
    25
100
AcDbLine
 10
12.3712047863
 20
14.9928803238
 30
0.0
 11
12.1430831562
 21
15.8359196367
 31
0.0
  0
ARC
  5
1BA
330
1F
100
AcDbEntity
  8
0
  6
SLD-Solid
 62
     7
370
    25
100
AcDbCircle
 10
11.9276107426
 20
15.7776140305
 30
0.0
 40
0.2232216493385391
100
AcDbArc
 50
15.1413074441
 51
90.0
  0
LINE
  5
1BB
330
1F
100
AcDbEntity
  8
0
  6
SLD-Solid
 62
     7
370
    25
100
AcDbLine
 10
11.9276107426
 20
16.0008356798
 30
0.0
 11
11.3124098325
 21
16.0008356798
 31
0.0
  0
ARC
  5
1BC
330
1F
100
AcDbEntity
  8
0
  6
SLD-Solid
 62
     7
370
    25
100
AcDbCircle
 10
11.3124098325
 20
15.7776140305
 30
0.0
 40
0.2232216493385391
100
AcDbArc
 50
90.0
 51
164.8586925559
  0
LINE
  5
1BD
330
1F
100
AcDbEntity
  8
0
  6
SLD-Solid
 62
     7
370
    25
100
AcDbLine
 10
11.0969374189
 20
15.8359196367
 30
0.0
 11
10.8688157888
 21
14.9928803238
 31
0.0
  0
ARC
  5
1BE
330
1F
100
AcDbEntity
  8
0
  6
SLD-Solid
 62
     7
370
    25
100
AcDbCircle
 10
10.9679160765
 20
14.9660643511
 30
0.0
 40
0.1026643239875663
100
AcDbArc
 50
164.8586925559
 51
344.8586925559
  0
LINE
  5
1BF
330
1F
100
AcDbEntity
  8
0
  6
SLD-Solid
 62
     7
370
    25
100
AcDbLine
 10
11.0670163642
 20
14.9392483784
 30
0.0
 11
11.2483429127
 21
15.6093532199
 31
0.0
  0
ARC
  5
1C0
330
1F
100
AcDbEntity
  8
0
  6
SLD-Solid
 62
     7
370
    25
100
AcDbCircle
 10
11.2729955859
 20
15.6093532199
 30
0.0
 40
0.0246526731979451
100
AcDbArc
 50
345.7438919724
 51
180.0
  0
LINE
  5
1C1
330
1F
100
AcDbEntity
  8
0
  6
SLD-Solid
 62
     7
370
    25
100
AcDbLine
 10
11.2968890717
 20
15.6032823361
 30
0.0
 11
11.0349901303
 21
14.572513382
 31
0.0
  0
LINE
  5
1C2
330
1F
100
AcDbEntity
  8
0
  6
SLD-Solid
 62
     7
370
    25
100
AcDbLine
 10
11.0349901303
 20
14.572513382
 30
0.0
 11
11.3069620968
 21
14.572513382
 31
0.0
  0
LINE
  5
1C3
330
1F
100
AcDbEntity
  8
0
  6
SLD-Solid
 62
     7
370
    25
100
AcDbLine
 10
11.3069620968
 20
14.572513382
 30
0.0
 11
11.2976482591
 21
13.5919312057
 31
0.0
  0
CIRCLE
  5
1C4
330
1F
100
AcDbEntity
  8
0
  6
SLD-Solid
 62
     7
370
    25
100
AcDbCircle
 10
11.6200102876
 20
16.3288257378
 30
0.0
 40
0.2351907549748962
  0
LINE
  5
1C5
330
1F
100
AcDbEntity
  8
0
  6
SLD-Solid
 62
     7
370
    25
100
AcDbLine
 10
13.3306414492
 20
16.7990836748
 30
0.0
 11
13.3306414492
 21
11.6350836748
 31
0.0
  0
LINE
  5
1C6
330
1F
100
AcDbEntity
  8
0
  6
SLD-Solid
 62
     7
370
    25
100
AcDbLine
 10
13.3306414492
 20
11.6350836748
 30
0.0
 11
8.1666414492
 21
11.6350836748
 31
0.0
  0
LINE
  5
1C7
330
1F
100
AcDbEntity
  8
0
  6
SLD-Solid
 62
     7
370
    25
100
AcDbLine
 10
8.1666414492
 20
11.6350836748
 30
0.0
 11
8.1666414492
 21
16.7990836748
 31
0.0
  0
LINE
  5
1C8
330
1F
100
AcDbEntity
  8
0
  6
SLD-Solid
 62
     7
370
    25
100
AcDbLine
 10
8.1666414492
 20
16.7990836748
 30
0.0
 11
13.3306414492
 21
16.7990836748
 31
0.0
  0
LINE
  5
1C9
330
1F
100
AcDbEntity
  8
0
  6
SLD-Solid
 62
     7
370
    25
100
AcDbLine
 10
9.7644994277
 20
13.1300836748
 30
0.0
 11
9.6837632499
 21
13.1300836748
 31
0.0
  0
LINE
  5
1CA
330
1F
100
AcDbEntity
  8
0
  6
SLD-Solid
 62
     7
370
    25
100
AcDbLine
 10
9.9603648124
 20
12.6450836748
 30
0.0
 11
9.7644994277
 21
13.1300836748
 31
0.0
  0
LINE
  5
1CB
330
1F
100
AcDbEntity
  8
0
  6
SLD-Solid
 62
     7
370
    25
100
AcDbLine
 10
9.8673870479
 20
12.6450836748
 30
0.0
 11
9.9603648124
 21
12.6450836748
 31
0.0
  0
LINE
  5
1CC
330
1F
100
AcDbEntity
  8
0
  6
SLD-Solid
 62
     7
370
    25
100
AcDbLine
 10
10.2154950207
 20
13.0057247004
 30
0.0
 11
10.2805891713
 21
13.0652809905
 31
0.0
  0
LINE
  5
1CD
330
1F
100
AcDbEntity
  8
0
  6
SLD-Solid
 62
     7
370
    25
100
AcDbLine
 10
9.6837632499
 20
13.1300836748
 30
0.0
 11
9.4878007098
 21
12.6450836748
 31
0.0
  0
LINE
  5
1CE
330
1F
100
AcDbEntity
  8
0
  6
SLD-Solid
 62
     7
370
    25
100
AcDbLine
 10
10.6350122483
 20
12.6450836748
 30
0.0
 11
10.7220635303
 21
12.6450836748
 31
0.0
  0
LINE
  5
1CF
330
1F
100
AcDbEntity
  8
0
  6
SLD-Solid
 62
     7
370
    25
100
AcDbLine
 10
9.4878007098
 20
12.6450836748
 30
0.0
 11
9.5806813188
 21
12.6450836748
 31
0.0
  0
SPLINE
  5
1D0
330
1F
100
AcDbEntity
  8
0
  6
SLD-Solid
 62
     7
370
    25
100
AcDbSpline
210
0.0
220
0.0
230
1.0
 70
     8
 71
     3
 72
    15
 73
    11
 74
     0
 42
0.00000001
 43
0.00000001
 40
0.0
 40
0.0
 40
0.0
 40
0.0
 40
0.1419858925296712
 40
0.2754733105502131
 40
0.404345842663139
 40
0.5354297108606288
 40
0.6614274010622525
 40
0.7778668404627587
 40
0.8882797492818405
 40
1.0
 40
1.0
 40
1.0
 40
1.0
 10
10.15059518094268
 20
12.71969905940268
 30
0.0
 10
10.15436972960187
 20
12.71985171185269
 30
0.0
 10
10.16169290373175
 20
12.72014787983824
 30
0.0
 10
10.1721457976933
 20
12.7228834942265
 30
0.0
 10
10.1817294066654
 20
12.72717860950172
 30
0.0
 10
10.19001340748065
 20
12.73330714671652
 30
0.0
 10
10.19702777706721
 20
12.74038041013017
 30
0.0
 10
10.20220478444758
 20
12.74824973909679
 30
0.0
 10
10.20545701540229
 20
12.75676416308
 30
0.0
 10
10.20580085506436
 20
12.76267884204563
 30
0.0
 10
10.20597378671191
 20
12.76565358664627
 30
0.0
  0
SPLINE
  5
1D1
330
1F
100
AcDbEntity
  8
0
  6
SLD-Solid
 62
     7
370
    25
100
AcDbSpline
210
0.0
220
0.0
230
1.0
 70
     8
 71
     3
 72
    11
 73
     7
 74
     0
 42
0.00000001
 43
0.00000001
 40
0.0
 40
0.0
 40
0.0
 40
0.0
 40
0.2418813747501821
 40
0.4871154746783743
 40
0.7378378396463977
 40
1.0
 40
1.0
 40
1.0
 40
1.0
 10
10.10648660722473
 20
13.02369845844115
 30
0.0
 10
10.1065722855399
 20
13.02167975159522
 30
0.0
 10
10.10674482976001
 20
13.01761435654566
 30
0.0
 10
10.10841137205209
 20
13.01165601379737
 30
0.0
 10
10.11092332714507
 20
13.00583401932879
 30
0.0
 10
10.11332360279104
 20
13.00228989426144
 30
0.0
 10
10.11455050946832
 20
13.00047830619756
 30
0.0
  0
SPLINE
  5
1D2
330
1F
100
AcDbEntity
  8
0
  6
SLD-Solid
 62
     7
370
    25
100
AcDbSpline
210
0.0
220
0.0
230
1.0
 70
     8
 71
     3
 72
    19
 73
    15
 74
     0
 42
0.00000001
 43
0.00000001
 40
0.0
 40
0.0
 40
0.0
 40
0.0
 40
0.1121245812797442
 40
0.2152010090762411
 40
0.309902452493476
 40
0.3959590963320905
 40
0.473447494000333
 40
0.5421403275660301
 40
0.6025233330554092
 40
0.6547263328340143
 40
0.7478040553141012
 40
0.8352784168250078
 40
0.9189252427194493
 40
0.9999999999999999
 40
0.9999999999999999
 40
0.9999999999999999
 40
0.9999999999999999
 10
10.14165687966063
 20
12.84930442799243
 30
0.0
 10
10.13548364911669
 20
12.85452757299728
 30
0.0
 10
10.1236353512042
 20
12.86455236919065
 30
0.0
 10
10.10689220303832
 20
12.87935867758301
 30
0.0
 10
10.0918051273797
 20
12.89319652946548
 30
0.0
 10
10.07850443241642
 20
12.90623699093735
 30
0.0
 10
10.06682064671836
 20
12.91823923489499
 30
0.0
 10
10.05683289795889
 20
12.92930074815518
 30
0.0
 10
10.04865090609977
 20
12.93950685516351
 30
0.0
 10
10.04004112392933
 20
12.95159530593817
 30
0.0
 10
10.03186010945417
 20
12.96632591382168
 30
0.0
 10
10.02478939137306
 20
12.98404854276678
 30
0.0
 10
10.02020220791615
 20
13.00176892297307
 30
0.0
 10
10.01968827780941
 20
13.01366541021986
 30
0.0
 10
10.01943532517345
 20
13.01952077414627
 30
0.0
  0
SPLINE
  5
1D3
330
1F
100
AcDbEntity
  8
0
  6
SLD-Solid
 62
     7
370
    25
100
AcDbSpline
210
0.0
220
0.0
230
1.0
 70
     8
 71
     3
 72
    15
 73
    11
 74
     0
 42
0.00000001
 43
0.00000001
 40
0.0
 40
0.0
 40
0.0
 40
0.0
 40
0.0592341891229447
 40
0.1363492805279907
 40
0.2338052120618149
 40
0.3494112238568944
 40
0.4831791503491676
 40
0.6359668555591125
 40
0.809243356367591
 40
0.9999999999999999
 40
0.9999999999999999
 40
0.9999999999999999
 40
0.9999999999999999
 10
10.11455050946832
 20
13.00047830619756
 30
0.0
 10
10.11566590035891
 20
12.99907017775155
 30
0.0
 10
10.11823338288364
 20
12.99582885203498
 30
0.0
 10
10.12312904620632
 20
12.99069509736098
 30
0.0
 10
10.12927697116817
 20
12.9844057985192
 30
0.0
 10
10.13691374285949
 20
12.97717722606744
 30
0.0
 10
10.14572233789261
 20
12.96874941227002
 30
0.0
 10
10.15611104601807
 20
12.95945365769482
 30
0.0
 10
10.16778083491189
 20
12.94900208362645
 30
0.0
 10
10.17607545049174
 20
12.94172398591816
 30
0.0
 10
10.18042190369909
 20
12.9379101972232
 30
0.0
  0
SPLINE
  5
1D4
330
1F
100
AcDbEntity
  8
0
  6
SLD-Solid
 62
     7
370
    25
100
AcDbSpline
210
0.0
220
0.0
230
1.0
 70
     8
 71
     3
 72
    15
 73
    11
 74
     0
 42
0.00000001
 43
0.00000001
 40
0.0
 40
0.0
 40
0.0
 40
0.0
 40
0.1604579205559365
 40
0.3076115473748602
 40
0.4421388877557715
 40
0.5662291941703349
 40
0.6812222080152134
 40
0.7895580052436291
 40
0.8950288924051354
 40
0.9999999999999999
 40
0.9999999999999999
 40
0.9999999999999999
 40
0.9999999999999999
 10
10.0711220238914
 20
12.78187854658217
 30
0.0
 10
10.07394871622203
 20
12.77696507895636
 30
0.0
 10
10.07936772700545
 20
12.76754554158409
 30
0.0
 10
10.08855074738547
 20
12.75488919927542
 30
0.0
 10
10.09795828295774
 20
12.74405113709618
 30
0.0
 10
10.10780782751559
 20
12.73522291849059
 30
0.0
 10
10.1179796142827
 20
12.72828649882839
 30
0.0
 10
10.12852277535279
 20
12.7233292521216
 30
0.0
 10
10.13944471814783
 20
12.72026072201789
 30
0.0
 10
10.14688424940228
 20
12.71988598361849
 30
0.0
 10
10.15059518094268
 20
12.71969905940268
 30
0.0
  0
SPLINE
  5
1D5
330
1F
100
AcDbEntity
  8
0
  6
SLD-Solid
 62
     7
370
    25
100
AcDbSpline
210
0.0
220
0.0
230
1.0
 70
     8
 71
     3
 72
    23
 73
    19
 74
     0
 42
0.00000001
 43
0.00000001
 40
0.0
 40
0.0
 40
0.0
 40
0.0
 40
0.0633955966615902
 40
0.1251572666424212
 40
0.1856494665262525
 40
0.2459766793408148
 40
0.3061083686579568
 40
0.3673505880891745
 40
0.4299020782799139
 40
0.4945399581831935
 40
0.5593725826940478
 40
0.6224096858457367
 40
0.684357425819475
 40
0.7458066007722107
 40
0.8074302750159149
 40
0.8699955160697818
 40
0.9339278677192727
 40
1.0
 40
1.0
 40
1.0
 40
1.0
 10
12.01947739248114
 20
13.1425195722232
 30
0.0
 10
12.02790971187873
 20
13.14230124437346
 30
0.0
 10
12.04455702025397
 20
13.14187021574775
 30
0.0
 10
12.06903920348243
 20
13.13827725575119
 30
0.0
 10
12.09263231376279
 20
13.13242304253658
 30
0.0
 10
12.11532568235847
 20
13.12428526273658
 30
0.0
 10
12.13706248768316
 20
13.11364350391978
 30
0.0
 10
12.15791940272702
 20
13.10079946693105
 30
0.0
 10
12.17782171900888
 20
13.08551072826736
 30
0.0
 10
12.19656549355022
 20
13.06813394897853
 30
0.0
 10
12.21388812173559
 20
13.04923746025356
 30
0.0
 10
12.22889818917566
 20
13.02889203060972
 30
0.0
 10
12.24169822402697
 20
13.00762483056735
 30
0.0
 10
12.25230692715781
 20
12.98537887404406
 30
0.0
 10
12.26038742920248
 20
12.96200009718208
 30
0.0
 10
12.26605785171425
 20
12.93760770084286
 30
0.0
 10
12.26970081724469
 20
12.9122086244402
 30
0.0
 10
12.27011981433157
 20
12.8949153153423
 30
0.0
 10
12.27033276107088
 20
12.88612634305653
 30
0.0
  0
SPLINE
  5
1D6
330
1F
100
AcDbEntity
  8
0
  6
SLD-Solid
 62
     7
370
    25
100
AcDbSpline
210
0.0
220
0.0
230
1.0
 70
     8
 71
     3
 72
    23
 73
    19
 74
     0
 42
0.00000001
 43
0.00000001
 40
0.0
 40
0.0
 40
0.0
 40
0.0
 40
0.0631728801065212
 40
0.1244573597770007
 40
0.1848409152554598
 40
0.2445668214643688
 40
0.3043191726186554
 40
0.3651997864614173
 40
0.4274209827764752
 40
0.4912616890772871
 40
0.5554990019310213
 40
0.6186045181428791
 40
0.6804947639253089
 40
0.7424733052606058
 40
0.8049906647647702
 40
0.8682519711837803
 40
0.9328872172654757
 40
1.0
 40
1.0
 40
1.0
 40
1.0
 10
10.01943532517345
 20
13.01952077414627
 30
0.0
 10
10.01954052783767
 20
13.02367308396172
 30
0.0
 10
10.01974778838695
 20
13.0318535803351
 30
0.0
 10
10.02159658445941
 20
13.04388180831821
 30
0.0
 10
10.02435968062528
 20
13.05548803766988
 30
0.0
 10
10.0283724895184
 20
13.06662992357797
 30
0.0
 10
10.03358063093688
 20
13.07729351038185
 30
0.0
 10
10.03990571638789
 20
13.08753100082707
 30
0.0
 10
10.04744596246226
 20
13.09724817136382
 30
0.0
 10
10.05594331074612
 20
13.1064385801931
 30
0.0
 10
10.06530521299339
 20
13.11483756800069
 30
0.0
 10
10.07530959527066
 20
13.12225051631999
 30
0.0
 10
10.08589983189063
 20
13.12851160026051
 30
0.0
 10
10.09701113714812
 20
13.13370562402283
 30
0.0
 10
10.10871236317846
 20
13.13768131926255
 30
0.0
 10
10.12091730758559
 20
13.1404994902136
 30
0.0
 10
10.13364347613179
 20
13.14217564842339
 30
0.0
 10
10.14229954127701
 20
13.14240350268152
 30
0.0
 10
10.14670896299396
 20
13.1425195722232
 30
0.0
  0
SPLINE
  5
1D7
330
1F
100
AcDbEntity
  8
0
  6
SLD-Solid
 62
     7
370
    25
100
AcDbSpline
210
0.0
220
0.0
230
1.0
 70
     8
 71
     3
 72
    15
 73
    11
 74
     0
 42
0.00000001
 43
0.00000001
 40
0.0
 40
0.0
 40
0.0
 40
0.0
 40
0.1508330973407548
 40
0.2899541833158774
 40
0.4171386481520551
 40
0.535255183906263
 40
0.6487510952936693
 40
0.7624054615861224
 40
0.879826701250104
 40
1.0
 40
1.0
 40
1.0
 40
1.0
 10
10.24289285722473
 20
12.88194865876166
 30
0.0
 10
10.24717465678804
 20
12.87731483460765
 30
0.0
 10
10.25540577924983
 20
12.868406997257
 30
0.0
 10
10.2661033367885
 20
12.85460265082024
 30
0.0
 10
10.27490777267383
 20
12.8411267939352
 30
0.0
 10
10.28171905123416
 20
12.82772585649428
 30
0.0
 10
10.2868632027544
 20
12.81420648964288
 30
0.0
 10
10.29048989772106
 20
12.80023713164225
 30
0.0
 10
10.29266194946744
 20
12.78567181145554
 30
0.0
 10
10.29290309792323
 20
12.77573275850992
 30
0.0
 10
10.29302506876319
 20
12.77070566997961
 30
0.0
  0
SPLINE
  5
1D8
330
1F
100
AcDbEntity
  8
0
  6
SLD-Solid
 62
     7
370
    25
100
AcDbSpline
210
0.0
220
0.0
230
1.0
 70
     8
 71
     3
 72
    31
 73
    27
 74
     0
 42
0.00000001
 43
0.00000001
 40
0.0
 40
0.0
 40
0.0
 40
0.0
 40
0.0431143456619737
 40
0.0856827648242087
 40
0.1275943241639274
 40
0.1690586225605484
 40
0.2104320288213096
 40
0.2518111664630531
 40
0.2934438397982396
 40
0.3353808532218248
 40
0.3774766059607942
 40
0.4186884906768272
 40
0.459873033671199
 40
0.5008729046253154
 40
0.5418727755794318
 40
0.5832117768673237
 40
0.6247632017340757
 40
0.6669876223820894
 40
0.7093697058942393
 40
0.7511026519448576
 40
0.7925683801202204
 40
0.8335451085502583
 40
0.8748274225565255
 40
0.9160177232110672
 40
0.9578592039763042
 40
1.0
 40
1.0
 40
1.0
 40
1.0
 10
11.76667891491704
 20
12.88777798568474
 30
0.0
 10
11.76675288517535
 20
12.89351480894802
 30
0.0
 10
11.76689988905884
 20
12.90491581413454
 30
0.0
 10
11.76867070568726
 20
12.92181152185234
 30
0.0
 10
11.7712201725077
 20
12.93837744803992
 30
0.0
 10
11.77499071296484
 20
12.95454754410879
 30
0.0
 10
11.77957095590964
 20
12.97043588256756
 30
0.0
 10
11.78550530765236
 20
12.98589457082657
 30
0.0
 10
11.79226020591201
 20
13.00108875018912
 30
0.0
 10
11.80015266852892
 20
13.01583895837101
 30
0.0
 10
11.80892832382406
 20
13.03000948113113
 30
0.0
 10
11.81850334507189
 20
13.04353347363986
 30
0.0
 10
11.82890180853314
 20
13.05624741105754
 30
0.0
 10
11.84009021731219
 20
13.06823484414432
 30
0.0
 10
11.85210712818068
 20
13.07941697863229
 30
0.0
 10
11.86479447108887
 20
13.08995211320333
 30
0.0
 10
11.87839830661436
 20
13.09956039722326
 30
0.0
 10
11.89262088948018
 20
13.10847648415151
 30
0.0
 10
11.90738203603497
 20
13.11653914693402
 30
0.0
 10
11.92262165502248
 20
13.12340184436438
 30
0.0
 10
11.93802578018675
 20
13.12939492113611
 30
0.0
 10
11.95380018986492
 20
13.13412492231694
 30
0.0
 10
11.96977583319732
 20
13.13797745879276
 30
0.0
 10
11.98612337757184
 20
13.14052520727367
 30
0.0
 10
12.00269513221855
 20
13.14229597486305
 30
0.0
 10
12.01387002984105
 20
13.14244486288941
 30
0.0
 10
12.01947739248114
 20
13.1425195722232
 30
0.0
  0
SPLINE
  5
1D9
330
1F
100
AcDbEntity
  8
0
  6
SLD-Solid
 62
     7
370
    25
100
AcDbSpline
210
0.0
220
0.0
230
1.0
 70
     8
 71
     3
 72
    15
 73
    11
 74
     0
 42
0.00000001
 43
0.00000001
 40
0.0
 40
0.0
 40
0.0
 40
0.0
 40
0.1929527021649357
 40
0.3661841413840577
 40
0.5204572982944607
 40
0.6550121351900097
 40
0.7706242255759997
 40
0.8656771846793666
 40
0.9426745273198688
 40
1.0
 40
1.0
 40
1.0
 40
1.0
 10
10.18042190369909
 20
12.9379101972232
 30
0.0
 10
10.18450167526395
 20
12.93437936071924
 30
0.0
 10
10.19224423409187
 20
12.92767856659164
 30
0.0
 10
10.20326035777247
 20
12.91816786520525
 30
0.0
 10
10.21294169577102
 20
12.90961131906958
 30
0.0
 10
10.22142928308922
 20
12.9021373436328
 30
0.0
 10
10.22859445618245
 20
12.89566751978098
 30
0.0
 10
10.23446733746209
 20
12.89017092183107
 30
0.0
 10
10.23911965421636
 20
12.88575455843621
 30
0.0
 10
10.24176422389213
 20
12.88308707225907
 30
0.0
 10
10.24289285722473
 20
12.88194865876166
 30
0.0
  0
SPLINE
  5
1DA
330
1F
100
AcDbEntity
  8
0
  6
SLD-Solid
 62
     7
370
    25
100
AcDbSpline
210
0.0
220
0.0
230
1.0
 70
     8
 71
     3
 72
    23
 73
    19
 74
     0
 42
0.00000001
 43
0.00000001
 40
0.0
 40
0.0
 40
0.0
 40
0.0
 40
0.0667486513092659
 40
0.1311519760901756
 40
0.1937321970570955
 40
0.2553255433785986
 40
0.3163881857773854
 40
0.3780268629068868
 40
0.4404056792054013
 40
0.5045574293240809
 40
0.5686582873620151
 40
0.6309861790900101
 40
0.692288134873299
 40
0.7526154469796394
 40
0.813199538435563
 40
0.8740161248607817
 40
0.9361583555105316
 40
1.0
 40
1.0
 40
1.0
 40
1.0
 10
12.02015748062217
 20
12.6326477773514
 30
0.0
 10
12.01123757744838
 20
12.6328499218637
 30
0.0
 10
11.99371118695466
 20
12.63324710819966
 30
0.0
 10
11.96806123600818
 20
12.63702416892836
 30
0.0
 10
11.94348636665967
 20
12.64271374182356
 30
0.0
 10
11.9201930219619
 20
12.65120512414397
 30
0.0
 10
11.89794397910872
 20
12.66182006605673
 30
0.0
 10
11.87690270835193
 20
12.67489300342954
 30
0.0
 10
11.85707628093847
 20
12.69040233222377
 30
0.0
 10
11.83857842450622
 20
12.70795085277007
 30
0.0
 10
11.8218193217811
 20
12.72715278321913
 30
0.0
 10
11.80702612631579
 20
12.74743791993036
 30
0.0
 10
11.79454773777987
 20
12.76865130229825
 30
0.0
 10
11.78438369961343
 20
12.79080285863596
 30
0.0
 10
11.77637078022078
 20
12.81375492241222
 30
0.0
 10
11.77071857601904
 20
12.83764727831696
 30
0.0
 10
11.76737968411846
 20
12.8624226238065
 30
0.0
 10
11.76691459586401
 20
12.87925053372728
 30
0.0
 10
11.76667891491704
 20
12.88777798568474
 30
0.0
  0
SPLINE
  5
1DB
330
1F
100
AcDbEntity
  8
0
  6
SLD-Solid
 62
     7
370
    25
100
AcDbSpline
210
0.0
220
0.0
230
1.0
 70
     8
 71
     3
 72
    23
 73
    19
 74
     0
 42
0.00000001
 43
0.00000001
 40
0.0
 40
0.0
 40
0.0
 40
0.0
 40
0.0652008752881559
 40
0.1279265440230309
 40
0.1890469100189668
 40
0.2485436930694599
 40
0.3076071270223461
 40
0.3672476600602125
 40
0.4269630557213213
 40
0.4886171282353927
 40
0.5503918546271246
 40
0.6113307342255598
 40
0.6725560854310831
 40
0.734024190629192
 40
0.7973406208369387
 40
0.8622496273165778
 40
0.9296254660746968
 40
1.0
 40
1.0
 40
1.0
 40
1.0
 10
10.29302506876319
 20
12.77070566997961
 30
0.0
 10
10.29293825304218
 20
12.76580738872523
 30
0.0
 10
10.29276791736637
 20
12.75619677859528
 30
0.0
 10
10.29068163199076
 20
12.74213308222625
 30
0.0
 10
10.28770671149661
 20
12.7286735144294
 30
0.0
 10
10.28310696252048
 20
12.71596453432963
 30
0.0
 10
10.27750081570855
 20
12.70379752789221
 30
0.0
 10
10.27047270099538
 20
12.69236201839059
 30
0.0
 10
10.2622191439577
 20
12.68154227379413
 30
0.0
 10
10.25275930032034
 20
12.67153171026811
 30
0.0
 10
10.24229558995282
 20
12.66244781772255
 30
0.0
 10
10.23107226613032
 20
12.65436112202401
 30
0.0
 10
10.21897958154334
 20
12.64768452466993
 30
0.0
 10
10.20612085418328
 20
12.64218682298409
 30
0.0
 10
10.19250296703539
 20
12.63795241963521
 30
0.0
 10
10.17814214310826
 20
12.63482280091712
 30
0.0
 10
10.16301641654223
 20
12.63294445309539
 30
0.0
 10
10.15267322675306
 20
12.63274809411574
 30
0.0
 10
10.14738905113498
 20
12.6326477773514
 30
0.0
  0
SPLINE
  5
1DC
330
1F
100
AcDbEntity
  8
0
  6
SLD-Solid
 62
     7
370
    25
100
AcDbSpline
210
0.0
220
0.0
230
1.0
 70
     8
 71
     3
 72
    31
 73
    27
 74
     0
 42
0.00000001
 43
0.00000001
 40
0.0
 40
0.0
 40
0.0
 40
0.0
 40
0.0728890266200382
 40
0.1401861299444944
 40
0.2022774341249592
 40
0.2588951317514627
 40
0.3104829424654784
 40
0.3570952441313351
 40
0.3985135666534654
 40
0.4350375108701162
 40
0.4692514858292876
 40
0.5028050278902746
 40
0.536210446318562
 40
0.5693793599392056
 40
0.6028014750483932
 40
0.6366657983367763
 40
0.6709286568940432
 40
0.705803000229313
 40
0.7411890612458777
 40
0.7763043110764618
 40
0.8120043009129352
 40
0.8479689758088955
 40
0.8845217611964794
 40
0.9219741585442052
 40
0.9601981758096081
 40
1.0
 40
1.0
 40
1.0
 40
1.0
 10
10.93541689568627
 20
13.1300836747873
 30
0.0
 10
10.94212140687858
 20
13.1300598776204
 30
0.0
 10
10.95501607046242
 20
13.13001410896515
 30
0.0
 10
10.97360947105553
 20
13.12929200081979
 30
0.0
 10
10.99069006651014
 20
13.12828712806721
 30
0.0
 10
11.00628314619278
 20
13.12675366557568
 30
0.0
 10
11.02038203912697
 20
13.12472047967176
 30
0.0
 10
11.03300087569875
 20
13.12232368993881
 30
0.0
 10
11.044139287072
 20
13.11959203418079
 30
0.0
 10
11.05389121036358
 20
13.1161881755854
 30
0.0
 10
11.0626918389113
 20
13.11234867469524
 30
0.0
 10
11.07089524823959
 20
13.107937017769
 30
0.0
 10
11.07868241775709
 20
13.10300233000176
 30
0.0
 10
11.08600129864596
 20
13.09741476640115
 30
0.0
 10
11.09291549370189
 20
13.09127484585982
 30
0.0
 10
11.09943804696837
 20
13.08457638794484
 30
0.0
 10
11.10547678872217
 20
13.07726259249197
 30
0.0
 10
11.1109943268292
 20
13.06937967340712
 30
0.0
 10
11.11602311868062
 20
13.06108702329604
 30
0.0
 10
11.1204675159584
 20
13.05237325629601
 30
0.0
 10
11.12408170721175
 20
13.04323231256245
 30
0.0
 10
11.1272752326168
 20
13.03379629849456
 30
0.0
 10
11.12957542550682
 20
13.02393032442003
 30
0.0
 10
11.13117517601293
 20
13.01373043726186
 30
0.0
 10
11.13234645075116
 20
13.00316073233435
 30
0.0
 10
11.13241379344899
 20
12.99598014409611
 30
0.0
 10
11.13244814568627
 20
12.99231724850525
 30
0.0
  0
SPLINE
  5
1DD
330
1F
100
AcDbEntity
  8
0
  6
SLD-Solid
 62
     7
370
    25
100
AcDbSpline
210
0.0
220
0.0
230
1.0
 70
     8
 71
     3
 72
    31
 73
    27
 74
     0
 42
0.00000001
 43
0.00000001
 40
0.0
 40
0.0
 40
0.0
 40
0.0
 40
0.0431143456619737
 40
0.0856827648242087
 40
0.1275943241639274
 40
0.1690586225605484
 40
0.2104320288213097
 40
0.2518111664630531
 40
0.2934438397982395
 40
0.3353808532218248
 40
0.3774766059607941
 40
0.4186884906768273
 40
0.459873033671199
 40
0.5008729046253154
 40
0.5418727755794318
 40
0.5832117768673237
 40
0.6247632017340757
 40
0.6669876223820893
 40
0.7093697058942392
 40
0.7511026519448577
 40
0.7925683801202204
 40
0.8335451085502582
 40
0.8748274225565255
 40
0.9160177232110671
 40
0.9578592039763045
 40
1.0
 40
1.0
 40
1.0
 40
1.0
 10
11.2008455815837
 20
12.88777798568474
 30
0.0
 10
11.20091955184201
 20
12.89351480894802
 30
0.0
 10
11.20106655572551
 20
12.90491581413454
 30
0.0
 10
11.20283737235393
 20
12.92181152185234
 30
0.0
 10
11.20538683917437
 20
12.93837744803992
 30
0.0
 10
11.20915737963151
 20
12.9545475441088
 30
0.0
 10
11.21373762257631
 20
12.97043588256756
 30
0.0
 10
11.21967197431903
 20
12.98589457082657
 30
0.0
 10
11.22642687257868
 20
13.00108875018912
 30
0.0
 10
11.23431933519558
 20
13.01583895837101
 30
0.0
 10
11.24309499049073
 20
13.03000948113113
 30
0.0
 10
11.25267001173856
 20
13.04353347363986
 30
0.0
 10
11.2630684751998
 20
13.05624741105754
 30
0.0
 10
11.27425688397886
 20
13.06823484414432
 30
0.0
 10
11.28627379484734
 20
13.07941697863229
 30
0.0
 10
11.29896113775554
 20
13.08995211320333
 30
0.0
 10
11.31256497328103
 20
13.09956039722326
 30
0.0
 10
11.32678755614685
 20
13.10847648415151
 30
0.0
 10
11.34154870270164
 20
13.11653914693402
 30
0.0
 10
11.35678832168915
 20
13.12340184436438
 30
0.0
 10
11.37219244685341
 20
13.12939492113611
 30
0.0
 10
11.38796685653159
 20
13.13412492231694
 30
0.0
 10
11.40394249986398
 20
13.13797745879276
 30
0.0
 10
11.42029004423851
 20
13.14052520727367
 30
0.0
 10
11.43686179888521
 20
13.14229597486305
 30
0.0
 10
11.44803669650772
 20
13.14244486288941
 30
0.0
 10
11.45364405914781
 20
13.1425195722232
 30
0.0
  0
SPLINE
  5
1DE
330
1F
100
AcDbEntity
  8
0
  6
SLD-Solid
 62
     7
370
    25
100
AcDbSpline
210
0.0
220
0.0
230
1.0
 70
     8
 71
     3
 72
    23
 73
    19
 74
     0
 42
0.00000001
 43
0.00000001
 40
0.0
 40
0.0
 40
0.0
 40
0.0
 40
0.0635514822357808
 40
0.1258683816453842
 40
0.1862402502136729
 40
0.2449766506319395
 40
0.3033576876770614
 40
0.3612303170408046
 40
0.418489049028352
 40
0.4759367117285737
 40
0.5342037438191215
 40
0.5940594289675396
 40
0.6554686942598743
 40
0.7187716848998884
 40
0.784974607219059
 40
0.853522316376702
 40
0.9251824507719316
 40
1.0
 40
1.0
 40
1.0
 40
1.0
 10
10.14738905113498
 20
12.6326477773514
 30
0.0
 10
10.14324101827268
 20
12.63272136621772
 30
0.0
 10
10.13502553430564
 20
12.63286711437628
 30
0.0
 10
10.12291715297452
 20
12.63405702677725
 30
0.0
 10
10.11122514202202
 20
12.63597741878988
 30
0.0
 10
10.09996267145409
 20
12.63872991421428
 30
0.0
 10
10.089079001852
 20
12.64221769923312
 30
0.0
 10
10.07857368623876
 20
12.6464778950236
 30
0.0
 10
10.06851924629601
 20
12.65157653302483
 30
0.0
 10
10.05883960536446
 20
12.65740876496751
 30
0.0
 10
10.0495818184441
 20
12.66418075449709
 30
0.0
 10
10.04062882446069
 20
12.67175405050379
 30
0.0
 10
10.0320695530512
 20
12.68024513366817
 30
0.0
 10
10.02386289577051
 20
12.68963392290681
 30
0.0
 10
10.01606136109996
 20
12.6999470050157
 30
0.0
 10
10.00840957681568
 20
12.711040751241
 30
0.0
 10
10.0012476112362
 20
12.72312104645164
 30
0.0
 10
9.996823346511526
 20
12.73159547126327
 30
0.0
 10
9.994563530301653
 20
12.73592401933858
 30
0.0
  0
SPLINE
  5
1DF
330
1F
100
AcDbEntity
  8
0
  6
SLD-Solid
 62
     7
370
    25
100
AcDbSpline
210
0.0
220
0.0
230
1.0
 70
     8
 71
     3
 72
    23
 73
    19
 74
     0
 42
0.00000001
 43
0.00000001
 40
0.0
 40
0.0
 40
0.0
 40
0.0
 40
0.0657223151915615
 40
0.1295079307025846
 40
0.1917221026921612
 40
0.2531611245020889
 40
0.3143157037352574
 40
0.3759517397728626
 40
0.4386196008234093
 40
0.5029729018927769
 40
0.567128645724265
 40
0.6295522895796744
 40
0.6904767824348743
 40
0.7510723384108287
 40
0.8116678943867836
 40
0.8729293555873915
 40
0.935501370715807
 40
1.0
 40
1.0
 40
1.0
 40
1.0
 10
12.27033276107088
 20
12.88612634305653
 30
0.0
 10
12.27010598200752
 20
12.8774364021889
 30
0.0
 10
12.26965910658724
 20
12.86031259490344
 30
0.0
 10
12.26620657351428
 20
12.83514758099255
 30
0.0
 10
12.26044066037659
 20
12.81101647803911
 30
0.0
 10
12.25249720998752
 20
12.7878646647489
 30
0.0
 10
12.2420809086237
 20
12.76580428055895
 30
0.0
 10
12.22953048838961
 20
12.74469447298954
 30
0.0
 10
12.21451476755335
 20
12.72473114610585
 30
0.0
 10
12.19758142842378
 20
12.70592501298843
 30
0.0
 10
12.17893929157478
 20
12.68885441182811
 30
0.0
 10
12.15919430925442
 20
12.67381097403576
 30
0.0
 10
12.13843765158766
 20
12.66106373255061
 30
0.0
 10
12.1166996996992
 20
12.65061852622678
 30
0.0
 10
12.09393383759387
 20
12.64251238627233
 30
0.0
 10
12.07019629973469
 20
12.6367929155142
 30
0.0
 10
12.04548855499288
 20
12.63331707764692
 30
0.0
 10
12.02868609037089
 20
12.63287312116989
 30
0.0
 10
12.02015748062217
 20
12.6326477773514
 30
0.0
  0
SPLINE
  5
1E0
330
1F
100
AcDbEntity
  8
0
  6
SLD-Solid
 62
     7
370
    25
100
AcDbSpline
210
0.0
220
0.0
230
1.0
 70
     8
 71
     3
 72
    23
 73
    19
 74
     0
 42
0.00000001
 43
0.00000001
 40
0.0
 40
0.0
 40
0.0
 40
0.0
 40
0.0633955966615902
 40
0.1251572666424212
 40
0.1856494665262525
 40
0.2459766793408151
 40
0.3061083686579568
 40
0.3673505880891745
 40
0.4299020782799139
 40
0.4945399581831935
 40
0.5593725826940478
 40
0.6224096858457367
 40
0.684357425819475
 40
0.7458066007722107
 40
0.8074302750159149
 40
0.8699955160697818
 40
0.9339278677192727
 40
1.0
 40
1.0
 40
1.0
 40
1.0
 10
11.45364405914781
 20
13.1425195722232
 30
0.0
 10
11.4620763785454
 20
13.14230124437346
 30
0.0
 10
11.47872368692064
 20
13.14187021574775
 30
0.0
 10
11.50320587014909
 20
13.13827725575119
 30
0.0
 10
11.52679898042945
 20
13.13242304253658
 30
0.0
 10
11.54949234902513
 20
13.12428526273658
 30
0.0
 10
11.57122915434983
 20
13.11364350391977
 30
0.0
 10
11.59208606939368
 20
13.10079946693105
 30
0.0
 10
11.61198838567555
 20
13.08551072826736
 30
0.0
 10
11.63073216021688
 20
13.06813394897853
 30
0.0
 10
11.64805478840226
 20
13.04923746025356
 30
0.0
 10
11.66306485584233
 20
13.02889203060972
 30
0.0
 10
11.67586489069364
 20
13.00762483056735
 30
0.0
 10
11.68647359382447
 20
12.98537887404406
 30
0.0
 10
11.69455409586915
 20
12.96200009718208
 30
0.0
 10
11.70022451838092
 20
12.93760770084286
 30
0.0
 10
11.70386748391135
 20
12.9122086244402
 30
0.0
 10
11.70428648099823
 20
12.8949153153423
 30
0.0
 10
11.70449942773755
 20
12.88612634305653
 30
0.0
  0
SPLINE
  5
1E1
330
1F
100
AcDbEntity
  8
0
  6
SLD-Solid
 62
     7
370
    25
100
AcDbSpline
210
0.0
220
0.0
230
1.0
 70
     8
 71
     3
 72
    23
 73
    19
 74
     0
 42
0.00000001
 43
0.00000001
 40
0.0
 40
0.0
 40
0.0
 40
0.0
 40
0.0667486513092663
 40
0.1311519760901756
 40
0.1937321970570956
 40
0.2553255433785988
 40
0.3163881857773854
 40
0.3780268629068868
 40
0.4404056792054011
 40
0.5045574293240809
 40
0.5686582873620151
 40
0.6309861790900102
 40
0.692288134873299
 40
0.7526154469796396
 40
0.813199538435563
 40
0.8740161248607817
 40
0.9361583555105316
 40
1.0
 40
1.0
 40
1.0
 40
1.0
 10
11.45432414728883
 20
12.6326477773514
 30
0.0
 10
11.44540424411504
 20
12.6328499218637
 30
0.0
 10
11.42787785362132
 20
12.63324710819966
 30
0.0
 10
11.40222790267484
 20
12.63702416892835
 30
0.0
 10
11.37765303332633
 20
12.64271374182356
 30
0.0
 10
11.35435968862857
 20
12.65120512414397
 30
0.0
 10
11.33211064577539
 20
12.66182006605673
 30
0.0
 10
11.3110693750186
 20
12.67489300342954
 30
0.0
 10
11.29124294760513
 20
12.69040233222377
 30
0.0
 10
11.27274509117288
 20
12.70795085277007
 30
0.0
 10
11.25598598844777
 20
12.72715278321913
 30
0.0
 10
11.24119279298246
 20
12.74743791993036
 30
0.0
 10
11.22871440444654
 20
12.76865130229825
 30
0.0
 10
11.2185503662801
 20
12.79080285863596
 30
0.0
 10
11.21053744688745
 20
12.81375492241222
 30
0.0
 10
11.2048852426857
 20
12.83764727831696
 30
0.0
 10
11.20154635078513
 20
12.8624226238065
 30
0.0
 10
11.20108126253068
 20
12.87925053372728
 30
0.0
 10
11.2008455815837
 20
12.88777798568474
 30
0.0
  0
SPLINE
  5
1E2
330
1F
100
AcDbEntity
  8
0
  6
SLD-Solid
 62
     7
370
    25
100
AcDbSpline
210
0.0
220
0.0
230
1.0
 70
     8
 71
     3
 72
    19
 73
    15
 74
     0
 42
0.00000001
 43
0.00000001
 40
0.0
 40
0.0
 40
0.0
 40
0.0
 40
0.0763466063531701
 40
0.1550908218146645
 40
0.2383515612585566
 40
0.3284041399329876
 40
0.3793838595513589
 40
0.4396176441748209
 40
0.5098314158313143
 40
0.5888746449969577
 40
0.6774363544094507
 40
0.775546719619675
 40
0.8826358717258564
 40
0.9999999999999999
 40
0.9999999999999999
 40
0.9999999999999999
 40
0.9999999999999999
 10
10.20597378671191
 20
12.76565358664627
 30
0.0
 10
10.20581409141398
 20
12.76842110241835
 30
0.0
 10
10.20548968570456
 20
12.77404304576303
 30
0.0
 10
10.20310021322408
 20
12.78240197149888
 30
0.0
 10
10.19936473891449
 20
12.79075709576771
 30
0.0
 10
10.19494540938917
 20
12.79761019473661
 30
0.0
 10
10.19044818822364
 20
12.80334810873291
 30
0.0
 10
10.18614783043883
 20
12.80831975165242
 30
0.0
 10
10.18091113223877
 20
12.81381254670426
 30
0.0
 10
10.17475137158039
 20
12.81983340340803
 30
0.0
 10
10.16774993497427
 20
12.82643532488886
 30
0.0
 10
10.15990092461744
 20
12.83361766466053
 30
0.0
 10
10.15111446103801
 20
12.84131715489967
 30
0.0
 10
10.14490417124331
 20
12.84656197158125
 30
0.0
 10
10.14165687966063
 20
12.84930442799243
 30
0.0
  0
SPLINE
  5
1E3
330
1F
100
AcDbEntity
  8
0
  6
SLD-Solid
 62
     7
370
    25
100
AcDbSpline
210
0.0
220
0.0
230
1.0
 70
     8
 71
     3
 72
    23
 73
    19
 74
     0
 42
0.00000001
 43
0.00000001
 40
0.0
 40
0.0
 40
0.0
 40
0.0
 40
0.0657223151915614
 40
0.1295079307025845
 40
0.1917221026921612
 40
0.2531611245020888
 40
0.3143157037352575
 40
0.3759517397728624
 40
0.4386196008234091
 40
0.5029729018927769
 40
0.567128645724265
 40
0.6295522895796744
 40
0.6904767824348743
 40
0.7510723384108287
 40
0.8116678943867836
 40
0.8729293555873915
 40
0.935501370715807
 40
1.0
 40
1.0
 40
1.0
 40
1.0
 10
11.70449942773755
 20
12.88612634305653
 30
0.0
 10
11.70427264867419
 20
12.8774364021889
 30
0.0
 10
11.70382577325391
 20
12.86031259490344
 30
0.0
 10
11.70037324018095
 20
12.83514758099255
 30
0.0
 10
11.69460732704326
 20
12.81101647803911
 30
0.0
 10
11.68666387665419
 20
12.7878646647489
 30
0.0
 10
11.67624757529036
 20
12.76580428055895
 30
0.0
 10
11.66369715505627
 20
12.74469447298954
 30
0.0
 10
11.64868143422002
 20
12.72473114610585
 30
0.0
 10
11.63174809509045
 20
12.70592501298843
 30
0.0
 10
11.61310595824144
 20
12.68885441182811
 30
0.0
 10
11.59336097592109
 20
12.67381097403576
 30
0.0
 10
11.57260431825433
 20
12.66106373255061
 30
0.0
 10
11.55086636636586
 20
12.65061852622678
 30
0.0
 10
11.52810050426054
 20
12.64251238627233
 30
0.0
 10
11.50436296640136
 20
12.6367929155142
 30
0.0
 10
11.47965522165954
 20
12.63331707764692
 30
0.0
 10
11.46285275703756
 20
12.63287312116989
 30
0.0
 10
11.45432414728883
 20
12.6326477773514
 30
0.0
  0
SPLINE
  5
1E4
330
1F
100
AcDbEntity
  8
0
  6
SLD-Solid
 62
     7
370
    25
100
AcDbSpline
210
0.0
220
0.0
230
1.0
 70
     8
 71
     3
 72
    15
 73
    11
 74
     0
 42
0.00000001
 43
0.00000001
 40
0.0
 40
0.0
 40
0.0
 40
0.0
 40
0.1279910255623737
 40
0.2530983915017065
 40
0.3761840584327907
 40
0.4989363124701259
 40
0.6215258806257301
 40
0.7457068938016925
 40
0.8715753502968717
 40
1.0
 40
1.0
 40
1.0
 40
1.0
 10
11.34755030914781
 20
12.75700675171038
 30
0.0
 10
11.35145265774418
 20
12.75402284610056
 30
0.0
 10
11.35916943435787
 20
12.74812226278294
 30
0.0
 10
11.37148708990973
 20
12.74055945478523
 30
0.0
 10
11.384171849669
 20
12.73407737389646
 30
0.0
 10
11.39731943605095
 20
12.72883992922058
 30
0.0
 10
11.41090208202971
 20
12.72472024327368
 30
0.0
 10
11.42491792500811
 20
12.72183529494646
 30
0.0
 10
11.43934710572247
 20
12.72002474037705
 30
0.0
 10
11.44910479394433
 20
12.71980834480793
 30
0.0
 10
11.45403268094268
 20
12.71969905940268
 30
0.0
  0
SPLINE
  5
1E5
330
1F
100
AcDbEntity
  8
0
  6
SLD-Solid
 62
     7
370
    25
100
AcDbSpline
210
0.0
220
0.0
230
1.0
 70
     8
 71
     3
 72
    23
 73
    19
 74
     0
 42
0.00000001
 43
0.00000001
 40
0.0
 40
0.0
 40
0.0
 40
0.0
 40
0.0646087354707741
 40
0.1275117897236748
 40
0.1885213083986468
 40
0.2487081790893703
 40
0.3085982651789124
 40
0.3688122491095536
 40
0.4298875018150757
 40
0.4928024479242462
 40
0.5557433321027936
 40
0.6174852948395648
 40
0.6789689634380378
 40
0.7401976913545544
 40
0.8023601016976085
 40
0.8662447764427322
 40
0.9317068283956897
 40
0.9999999999999999
 40
0.9999999999999999
 40
0.9999999999999999
 40
0.9999999999999999
 10
11.45228388286576
 20
13.05546829017191
 30
0.0
 10
11.44660893302605
 20
13.05531601852592
 30
0.0
 10
11.43540885295361
 20
13.05501549523038
 30
0.0
 10
11.41898037520256
 20
13.05272591418678
 30
0.0
 10
11.40320845638353
 20
13.04906919301226
 30
0.0
 10
11.38818052648652
 20
13.04377247707553
 30
0.0
 10
11.37383145315318
 20
13.03703110200003
 30
0.0
 10
11.36013579992206
 20
13.02886862296701
 30
0.0
 10
11.34728322327773
 20
13.01900446389295
 30
0.0
 10
11.33510234653341
 20
13.00796818749279
 30
0.0
 10
11.32409892878746
 20
12.99567123929106
 30
0.0
 10
11.31437706208459
 20
12.98249296797725
 30
0.0
 10
11.30624142553398
 20
12.96845538104582
 30
0.0
 10
11.2994277789571
 20
12.95368888436199
 30
0.0
 10
11.29429861320008
 20
12.93802743257652
 30
0.0
 10
11.29064526221742
 20
12.92159370354083
 30
0.0
 10
11.28833648076691
 20
12.90435938111948
 30
0.0
 10
11.28804545599676
 20
12.89261076595961
 30
0.0
 10
11.28789686363499
 20
12.88661212030012
 30
0.0
  0
SPLINE
  5
1E6
330
1F
100
AcDbEntity
  8
0
  6
SLD-Solid
 62
     7
370
    25
100
AcDbSpline
210
0.0
220
0.0
230
1.0
 70
     8
 71
     3
 72
    23
 73
    19
 74
     0
 42
0.00000001
 43
0.00000001
 40
0.0
 40
0.0
 40
0.0
 40
0.0
 40
0.0659391240576586
 40
0.1297911093795349
 40
0.1921752363053294
 40
0.2536170442157555
 40
0.3147191079962365
 40
0.3762822754113758
 40
0.4389729923739132
 40
0.5031747018386415
 40
0.5673294646239474
 40
0.6296509938060325
 40
0.6906498673030979
 40
0.7512376127977867
 40
0.8117541138236056
 40
0.8727877774488529
 40
0.9355396326682295
 40
1.0
 40
1.0
 40
1.0
 40
1.0
 10
11.61744814568627
 20
12.88729220844115
 30
0.0
 10
11.61729471369665
 20
12.8930637380813
 30
0.0
 10
11.61699270622491
 20
12.90442411396615
 30
0.0
 10
11.61472733098861
 20
12.92112485254765
 30
0.0
 10
11.61092450454838
 20
12.93712703928461
 30
0.0
 10
11.60565848732575
 20
12.95245680743766
 30
0.0
 10
11.59893406218912
 20
12.96712918586948
 30
0.0
 10
11.59061862833215
 20
12.98109257782484
 30
0.0
 10
11.58074136358286
 20
12.99433348411777
 30
0.0
 10
11.56952959257612
 20
13.00676167303541
 30
0.0
 10
11.5573262689251
 20
13.01818238255706
 30
0.0
 10
11.54422478164246
 20
13.02809348234635
 30
0.0
 10
11.53059172504782
 20
13.0367059129437
 30
0.0
 10
11.51611429030669
 20
13.04345254330951
 30
0.0
 10
11.50108867361494
 20
13.04882756941039
 30
0.0
 10
11.48542318786133
 20
13.05278581575864
 30
0.0
 10
11.46905849905919
 20
13.05499941081192
 30
0.0
 10
11.45792526290001
 20
13.05531060390181
 30
0.0
 10
11.45228388286576
 20
13.05546829017191
 30
0.0
  0
SPLINE
  5
1E7
330
1F
100
AcDbEntity
  8
0
  6
SLD-Solid
 62
     7
370
    25
100
AcDbSpline
210
0.0
220
0.0
230
1.0
 70
     8
 71
     3
 72
    23
 73
    19
 74
     0
 42
0.00000001
 43
0.00000001
 40
0.0
 40
0.0
 40
0.0
 40
0.0
 40
0.0641474448766717
 40
0.1262121152536841
 40
0.1868412890216909
 40
0.2469358694509788
 40
0.3072563614860039
 40
0.3681505022006765
 40
0.4300707669516571
 40
0.4938754417369545
 40
0.5579806818508447
 40
0.6208695259285356
 40
0.6825247313751585
 40
0.7440356981057701
 40
0.8058886825781886
 40
0.8689681377436671
 40
0.9332474288479391
 40
0.9999999999999999
 40
0.9999999999999999
 40
0.9999999999999999
 40
0.9999999999999999
 10
11.45403268094268
 20
12.71969905940268
 30
0.0
 10
11.4596100498808
 20
12.71985262214339
 30
0.0
 10
11.4705836986767
 20
12.72015476166532
 30
0.0
 10
11.4867063514439
 20
12.7224161567107
 30
0.0
 10
11.50215234247937
 20
12.72624325360789
 30
0.0
 10
11.51701756180309
 20
12.73149350487624
 30
0.0
 10
11.53125914476795
 20
12.73831952374738
 30
0.0
 10
11.54480748886691
 20
12.74673517727348
 30
0.0
 10
11.55768634804608
 20
12.75663713206498
 30
0.0
 10
11.56985170651358
 20
12.76781833894293
 30
0.0
 10
11.58097141922349
 20
12.78016372862329
 30
0.0
 10
11.59067299840051
 20
12.79341229147492
 30
0.0
 10
11.59906730753902
 20
12.80727212200913
 30
0.0
 10
11.60573926423332
 20
12.8219393851102
 30
0.0
 10
11.61107107173953
 20
12.83727562867917
 30
0.0
 10
11.61468045273936
 20
12.85334877363862
 30
0.0
 10
11.61700873815796
 20
12.87009256038071
 30
0.0
 10
11.6172998449237
 20
12.88148729896895
 30
0.0
 10
11.61744814568627
 20
12.88729220844115
 30
0.0
  0
SPLINE
  5
1E8
330
1F
100
AcDbEntity
  8
0
  6
SLD-Solid
 62
     7
370
    25
100
AcDbSpline
210
0.0
220
0.0
230
1.0
 70
     8
 71
     3
 72
    15
 73
    11
 74
     0
 42
0.00000001
 43
0.00000001
 40
0.0
 40
0.0
 40
0.0
 40
0.0
 40
0.1348068327792217
 40
0.2641990558543184
 40
0.3884618167279427
 40
0.5099420983643732
 40
0.6304096106127708
 40
0.7506710345119788
 40
0.8734547255294232
 40
1.0
 40
1.0
 40
1.0
 40
1.0
 10
11.28789686363499
 20
12.88661212030012
 30
0.0
 10
11.28809387442085
 20
12.87996427153155
 30
0.0
 10
11.28847998291806
 20
12.8669355894395
 30
0.0
 10
11.29119668926573
 20
12.84792969903216
 30
0.0
 10
11.29584470339871
 20
12.82998052187511
 30
0.0
 10
11.30255634543669
 20
12.81317584471169
 30
0.0
 10
11.31088054238363
 20
12.79732906418652
 30
0.0
 10
11.32121787385891
 20
12.78263440512089
 30
0.0
 10
11.33340092402725
 20
12.76900388276173
 30
0.0
 10
11.34278664717441
 20
12.76104581605786
 30
0.0
 10
11.34755030914781
 20
12.75700675171038
 30
0.0
  0
LINE
  5
1E9
330
1F
100
AcDbEntity
  8
0
  6
SLD-Solid
 62
     7
370
    25
100
AcDbLine
 10
10.9210378893
 20
12.9435452132
 30
0.0
 11
10.9210378893
 21
13.0430323927
 31
0.0
  0
LINE
  5
1EA
330
1F
100
AcDbEntity
  8
0
  6
SLD-Solid
 62
     7
370
    25
100
AcDbLine
 10
10.9210378893
 20
13.0430323927
 30
0.0
 11
10.9506703011
 21
13.0430323927
 31
0.0
  0
LINE
  5
1EB
330
1F
100
AcDbEntity
  8
0
  6
SLD-Solid
 62
     7
370
    25
100
AcDbLine
 10
10.9549451409
 20
12.9435452132
 30
0.0
 11
10.9210378893
 21
12.9435452132
 31
0.0
  0
SPLINE
  5
1EC
330
1F
100
AcDbEntity
  8
0
  6
SLD-Solid
 62
     7
370
    25
100
AcDbSpline
210
0.0
220
0.0
230
1.0
 70
     8
 71
     3
 72
    23
 73
    19
 74
     0
 42
0.00000001
 43
0.00000001
 40
0.0
 40
0.0
 40
0.0
 40
0.0
 40
0.06376895995774
 40
0.1252623047603748
 40
0.1854135826663909
 40
0.2468067624960846
 40
0.3094223888496969
 40
0.3725326822170087
 40
0.4377332507368581
 40
0.505749516742634
 40
0.5440132631112705
 40
0.5883695992066303
 40
0.6403890193945119
 40
0.6978974005877081
 40
0.7632716192950986
 40
0.8349786038393129
 40
0.9138736558434376
 40
0.9999999999999999
 40
0.9999999999999999
 40
0.9999999999999999
 40
0.9999999999999999
 10
11.04539686363499
 20
12.99348311388986
 30
0.0
 10
11.04529812428918
 20
12.99605349071875
 30
0.0
 10
11.0451041691418
 20
13.00110251968053
 30
0.0
 10
11.04317953152336
 20
13.00837135097814
 30
0.0
 10
11.04011592416865
 20
13.01509915166668
 30
0.0
 10
11.03591655758866
 20
13.021255523876
 30
0.0
 10
11.03062800133402
 20
13.02665262474069
 30
0.0
 10
11.02455896577803
 20
13.0314102121348
 30
0.0
 10
11.01757846648498
 20
13.03517215626302
 30
0.0
 10
11.01111504943001
 20
13.03765349455498
 30
0.0
 10
11.00523485067953
 20
13.03913810485268
 30
0.0
 10
10.99992815682446
 20
13.04024442331695
 30
0.0
 10
10.99378297338996
 20
13.04102850296697
 30
0.0
 10
10.98679466109848
 20
13.04186015900377
 30
0.0
 10
10.97898103339585
 20
13.04239944584637
 30
0.0
 10
10.97029950133772
 20
13.04279301774857
 30
0.0
 10
10.96077499821949
 20
13.04295404734867
 30
0.0
 10
10.95413551494737
 20
13.04300552567448
 30
0.0
 10
10.95067030113499
 20
13.04303239273602
 30
0.0
  0
SPLINE
  5
1ED
330
1F
100
AcDbEntity
  8
0
  6
SLD-Solid
 62
     7
370
    25
100
AcDbSpline
210
0.0
220
0.0
230
1.0
 70
     8
 71
     3
 72
    23
 73
    19
 74
     0
 42
0.00000001
 43
0.00000001
 40
0.0
 40
0.0
 40
0.0
 40
0.0
 40
0.1055399964402573
 40
0.2020864154635874
 40
0.2906848989424215
 40
0.3705526096211914
 40
0.4426702615663768
 40
0.5076749275738738
 40
0.5655732034810459
 40
0.6164546657486231
 40
0.6633313570051054
 40
0.7088620244966144
 40
0.7534118003496297
 40
0.7985150107871098
 40
0.8450643214401193
 40
0.8938731190084044
 40
0.944707806003652
 40
1.0
 40
1.0
 40
1.0
 40
1.0
 10
10.95494514087858
 20
12.94354521324884
 30
0.0
 10
10.95909058424133
 20
12.94359190201816
 30
0.0
 10
10.9670282175362
 20
12.94368130097924
 30
0.0
 10
10.97844357675253
 20
12.94409597041732
 30
0.0
 10
10.98881144533917
 20
12.94509511885992
 30
0.0
 10
10.99817634642271
 20
12.94635750557543
 30
0.0
 10
11.00658540333448
 20
12.94781511334436
 30
0.0
 10
11.01396361025344
 20
12.94990395377482
 30
0.0
 10
11.02042465408691
 20
12.95214219917363
 30
0.0
 10
11.02589197122355
 20
12.95492375759924
 30
0.0
 10
11.03056312135984
 20
12.95808699282413
 30
0.0
 10
11.03459636052729
 20
12.96168050667328
 30
0.0
 10
11.03793242761482
 20
12.96583954138275
 30
0.0
 10
11.04067818099066
 20
12.97045107233006
 30
0.0
 10
11.04281407859528
 20
12.97555588737104
 30
0.0
 10
11.04437312021724
 20
12.98109794720334
 30
0.0
 10
11.04524439393431
 20
12.98714038301728
 30
0.0
 10
11.04534463694326
 20
12.9913104864857
 30
0.0
 10
11.04539686363499
 20
12.99348311388986
 30
0.0
  0
SPLINE
  5
1EE
330
1F
100
AcDbEntity
  8
0
  6
SLD-Solid
 62
     7
370
    25
100
AcDbSpline
210
0.0
220
0.0
230
1.0
 70
     8
 71
     3
 72
    23
 73
    19
 74
     0
 42
0.00000001
 43
0.00000001
 40
0.0
 40
0.0
 40
0.0
 40
0.0
 40
0.0659391240576587
 40
0.129791109379535
 40
0.1921752363053295
 40
0.2536170442157556
 40
0.3147191079962369
 40
0.3762822754113757
 40
0.4389729923739137
 40
0.5031747018386418
 40
0.5673294646239473
 40
0.6296509938060333
 40
0.6906498673030982
 40
0.7512376127977869
 40
0.8117541138236064
 40
0.8727877774488533
 40
0.9355396326682304
 40
1.0
 40
1.0
 40
1.0
 40
1.0
 10
12.1832814790196
 20
12.88729220844115
 30
0.0
 10
12.18312804702999
 20
12.8930637380813
 30
0.0
 10
12.18282603955824
 20
12.90442411396615
 30
0.0
 10
12.18056066432194
 20
12.92112485254765
 30
0.0
 10
12.17675783788171
 20
12.93712703928461
 30
0.0
 10
12.17149182065908
 20
12.95245680743766
 30
0.0
 10
12.16476739552246
 20
12.96712918586948
 30
0.0
 10
12.15645196166548
 20
12.98109257782484
 30
0.0
 10
12.14657469691619
 20
12.99433348411777
 30
0.0
 10
12.13536292590946
 20
13.00676167303541
 30
0.0
 10
12.12315960225843
 20
13.01818238255706
 30
0.0
 10
12.11005811497579
 20
13.02809348234635
 30
0.0
 10
12.09642505838116
 20
13.0367059129437
 30
0.0
 10
12.08194762364002
 20
13.04345254330951
 30
0.0
 10
12.06692200694827
 20
13.04882756941039
 30
0.0
 10
12.05125652119467
 20
13.05278581575864
 30
0.0
 10
12.03489183239253
 20
13.05499941081192
 30
0.0
 10
12.02375859623334
 20
13.05531060390181
 30
0.0
 10
12.01811721619909
 20
13.05546829017191
 30
0.0
  0
SPLINE
  5
1EF
330
1F
100
AcDbEntity
  8
0
  6
SLD-Solid
 62
     7
370
    25
100
AcDbSpline
210
0.0
220
0.0
230
1.0
 70
     8
 71
     3
 72
    15
 73
    11
 74
     0
 42
0.00000001
 43
0.00000001
 40
0.0
 40
0.0
 40
0.0
 40
0.0
 40
0.1348068327792216
 40
0.2641990558543183
 40
0.3884618167279425
 40
0.5099420983643731
 40
0.6304096106127706
 40
0.7506710345119781
 40
0.8734547255294228
 40
1.0
 40
1.0
 40
1.0
 40
1.0
 10
11.85373019696832
 20
12.88661212030012
 30
0.0
 10
11.85392720775418
 20
12.87996427153156
 30
0.0
 10
11.8543133162514
 20
12.8669355894395
 30
0.0
 10
11.85703002259906
 20
12.84792969903216
 30
0.0
 10
11.86167803673205
 20
12.82998052187511
 30
0.0
 10
11.86838967877002
 20
12.81317584471169
 30
0.0
 10
11.87671387571696
 20
12.79732906418652
 30
0.0
 10
11.88705120719224
 20
12.78263440512089
 30
0.0
 10
11.89923425736058
 20
12.76900388276173
 30
0.0
 10
11.90861998050774
 20
12.76104581605786
 30
0.0
 10
11.91338364248114
 20
12.75700675171038
 30
0.0
  0
SPLINE
  5
1F0
330
1F
100
AcDbEntity
  8
0
  6
SLD-Solid
 62
     7
370
    25
100
AcDbSpline
210
0.0
220
0.0
230
1.0
 70
     8
 71
     3
 72
    23
 73
    19
 74
     0
 42
0.00000001
 43
0.00000001
 40
0.0
 40
0.0
 40
0.0
 40
0.0
 40
0.0646087354707751
 40
0.1275117897236747
 40
0.1885213083986472
 40
0.2487081790893707
 40
0.3085982651789128
 40
0.3688122491095539
 40
0.4298875018150757
 40
0.4928024479242463
 40
0.5557433321027938
 40
0.617485294839565
 40
0.6789689634380379
 40
0.7401976913545545
 40
0.8023601016976087
 40
0.8662447764427323
 40
0.9317068283956899
 40
1.0
 40
1.0
 40
1.0
 40
1.0
 10
12.01811721619909
 20
13.05546829017191
 30
0.0
 10
12.01244226635939
 20
13.05531601852592
 30
0.0
 10
12.00124218628694
 20
13.05501549523038
 30
0.0
 10
11.98481370853589
 20
13.05272591418678
 30
0.0
 10
11.96904178971686
 20
13.04906919301226
 30
0.0
 10
11.95401385981985
 20
13.04377247707553
 30
0.0
 10
11.93966478648651
 20
13.03703110200003
 30
0.0
 10
11.92596913325539
 20
13.02886862296701
 30
0.0
 10
11.91311655661107
 20
13.01900446389295
 30
0.0
 10
11.90093567986675
 20
13.00796818749279
 30
0.0
 10
11.88993226212079
 20
12.99567123929106
 30
0.0
 10
11.88021039541792
 20
12.98249296797725
 30
0.0
 10
11.87207475886732
 20
12.96845538104582
 30
0.0
 10
11.86526111229043
 20
12.95368888436199
 30
0.0
 10
11.86013194653341
 20
12.93802743257652
 30
0.0
 10
11.85647859555075
 20
12.92159370354083
 30
0.0
 10
11.85416981410025
 20
12.90435938111948
 30
0.0
 10
11.8538787893301
 20
12.89261076595961
 30
0.0
 10
11.85373019696832
 20
12.88661212030012
 30
0.0
  0
SPLINE
  5
1F1
330
1F
100
AcDbEntity
  8
0
  6
SLD-Solid
 62
     7
370
    25
100
AcDbSpline
210
0.0
220
0.0
230
1.0
 70
     8
 71
     3
 72
    23
 73
    19
 74
     0
 42
0.00000001
 43
0.00000001
 40
0.0
 40
0.0
 40
0.0
 40
0.0
 40
0.0641474448766717
 40
0.1262121152536841
 40
0.1868412890216904
 40
0.2469358694509788
 40
0.3072563614860039
 40
0.3681505022006761
 40
0.430070766951657
 40
0.4938754417369544
 40
0.5579806818508446
 40
0.6208695259285356
 40
0.6825247313751585
 40
0.7440356981057701
 40
0.8058886825781886
 40
0.8689681377436671
 40
0.9332474288479391
 40
0.9999999999999999
 40
0.9999999999999999
 40
0.9999999999999999
 40
0.9999999999999999
 10
12.01986601427601
 20
12.71969905940268
 30
0.0
 10
12.02544338321413
 20
12.71985262214339
 30
0.0
 10
12.03641703201003
 20
12.72015476166532
 30
0.0
 10
12.05253968477723
 20
12.7224161567107
 30
0.0
 10
12.0679856758127
 20
12.72624325360789
 30
0.0
 10
12.08285089513642
 20
12.73149350487624
 30
0.0
 10
12.09709247810128
 20
12.73831952374738
 30
0.0
 10
12.11064082220024
 20
12.74673517727348
 30
0.0
 10
12.12351968137942
 20
12.75663713206498
 30
0.0
 10
12.13568503984691
 20
12.76781833894293
 30
0.0
 10
12.14680475255682
 20
12.78016372862329
 30
0.0
 10
12.15650633173384
 20
12.79341229147492
 30
0.0
 10
12.16490064087236
 20
12.80727212200913
 30
0.0
 10
12.17157259756666
 20
12.8219393851102
 30
0.0
 10
12.17690440507286
 20
12.83727562867917
 30
0.0
 10
12.1805137860727
 20
12.85334877363862
 30
0.0
 10
12.18284207149129
 20
12.87009256038071
 30
0.0
 10
12.18313317825703
 20
12.88148729896895
 30
0.0
 10
12.1832814790196
 20
12.88729220844115
 30
0.0
  0
SPLINE
  5
1F2
330
1F
100
AcDbEntity
  8
0
  6
SLD-Solid
 62
     7
370
    25
100
AcDbSpline
210
0.0
220
0.0
230
1.0
 70
     8
 71
     3
 72
    15
 73
    11
 74
     0
 42
0.00000001
 43
0.00000001
 40
0.0
 40
0.0
 40
0.0
 40
0.0
 40
0.1279910255623733
 40
0.2530983915017062
 40
0.3761840584327903
 40
0.4989363124701256
 40
0.6215258806257299
 40
0.7457068938016911
 40
0.8715753502968727
 40
1.0
 40
1.0
 40
1.0
 40
1.0
 10
11.91338364248114
 20
12.75700675171038
 30
0.0
 10
11.91728599107752
 20
12.75402284610056
 30
0.0
 10
11.92500276769121
 20
12.74812226278294
 30
0.0
 10
11.93732042324307
 20
12.74055945478523
 30
0.0
 10
11.95000518300234
 20
12.73407737389646
 30
0.0
 10
11.96315276938428
 20
12.72883992922058
 30
0.0
 10
11.97673541536304
 20
12.72472024327368
 30
0.0
 10
11.99075125834145
 20
12.72183529494646
 30
0.0
 10
12.0051804390558
 20
12.72002474037705
 30
0.0
 10
12.01493812727766
 20
12.71980834480793
 30
0.0
 10
12.01986601427601
 20
12.71969905940268
 30
0.0
  0
DIMENSION
  5
1F3
330
1F
100
AcDbEntity
  8
DIMS
100
AcDbDimension
  2
_D
 10
7.7486414492
 20
17.8470049346
 30
0.0
 11
10.7486414492
 21
17.8470049346
 31
0.0
 70
   160
  1
<>
 71
     2
 42
-1.0
  3
SLDDIMSTYLE0
100
AcDbAlignedDimension
 13
13.7486414492
 23
17.2170836748
 33
0.0
 14
7.7486414492
 24
17.2170836748
 34
0.0
 50
0.0
100
AcDbRotatedDimension
  0
DIMENSION
  5
205
330
1F
100
AcDbEntity
  8
DIMS
100
AcDbDimension
  2
_D_1
 10
7.1187201894
 20
17.2170836748
 30
0.0
 11
7.1187201894
 21
14.4320992408
 31
0.0
 70
   160
  1
<>
 71
     2
 42
-1.0
  3
SLDDIMSTYLE0
100
AcDbAlignedDimension
 13
7.7486414492
 23
11.2170836748
 33
0.0
 14
7.7486414492
 24
17.2170836748
 34
0.0
 50
90.0
100
AcDbRotatedDimension
  0
MTEXT
  5
210
330
1F
100
AcDbEntity
  8
NOTES
100
AcDbMText
 10
12.7226939271
 20
10.6531372536
 30
0.0
 40
0.5
 41
0.0
 71
     1
 72
     1
  1
braille
  7
SLDTEXTSTYLE0
 73
     1
 44
1.0
  0
LEADER
  5
217
330
1F
100
AcDbEntity
  8
NOTES
100
AcDbLeader
  3
SLDDIMSTYLE1
 76
     3
 10
10.7216981715
 20
12.1666929255
 30
0.0
 10
12.1998788613
 20
10.4060995421
 30
0.0
 10
12.6998788613
 20
10.4060995421
 30
0.0
  0
LINE
  5
218
330
1F
100
AcDbEntity
  8
0
  6
SLD-Solid
 62
     7
370
    25
100
AcDbLine
 10
20.4551096308
 20
12.5170836748
 30
0.0
 11
20.4391096308
 21
12.5170836748
 31
0.0
  0
LINE
  5
219
330
1F
100
AcDbEntity
  8
0
  6
SLD-Solid
 62
     7
370
    25
100
AcDbLine
 10
20.4551096308
 20
11.3170836748
 30
0.0
 11
20.4551096308
 21
12.5170836748
 31
0.0
  0
LINE
  5
21A
330
1F
100
AcDbEntity
  8
0
  6
SLD-Solid
 62
     7
370
    25
100
AcDbLine
 10
20.4551096308
 20
11.3170836748
 30
0.0
 11
20.4391096308
 21
11.3170836748
 31
0.0
  0
LINE
  5
21B
330
1F
100
AcDbEntity
  8
0
  6
SLD-Solid
 62
     7
370
    25
100
AcDbLine
 10
20.4551096308
 20
17.1170836748
 30
0.0
 11
20.4391096308
 21
17.1170836748
 31
0.0
  0
LINE
  5
21C
330
1F
100
AcDbEntity
  8
0
  6
SLD-Solid
 62
     7
370
    25
100
AcDbLine
 10
20.4551096308
 20
17.1170836748
 30
0.0
 11
20.4551096308
 21
15.9170836748
 31
0.0
  0
LINE
  5
21D
330
1F
100
AcDbEntity
  8
0
  6
SLD-Solid
 62
     7
370
    25
100
AcDbLine
 10
20.4551096308
 20
15.9170836748
 30
0.0
 11
20.4391096308
 21
15.9170836748
 31
0.0
  0
LINE
  5
21E
330
1F
100
AcDbEntity
  8
0
  6
SLD-Solid
 62
     7
370
    25
100
AcDbLine
 10
20.3646096308
 20
11.2170836748
 30
0.0
 11
20.4391096308
 21
11.2170836748
 31
0.0
  0
LINE
  5
21F
330
1F
100
AcDbEntity
  8
0
  6
SLD-Solid
 62
     7
370
    25
100
AcDbLine
 10
20.3646096308
 20
11.2170836748
 30
0.0
 11
20.3646096308
 21
17.2170836748
 31
0.0
  0
LINE
  5
220
330
1F
100
AcDbEntity
  8
0
  6
SLD-Solid
 62
     7
370
    25
100
AcDbLine
 10
20.3646096308
 20
17.2170836748
 30
0.0
 11
20.4391096308
 21
17.2170836748
 31
0.0
  0
LINE
  5
221
330
1F
100
AcDbEntity
  8
0
  6
SLD-Solid
 62
     7
370
    25
100
AcDbLine
 10
20.4391096308
 20
17.2170836748
 30
0.0
 11
20.4391096308
 21
11.2170836748
 31
0.0
  0
DIMENSION
  5
222
330
1F
100
AcDbEntity
  8
DIMS
100
AcDbDimension
  2
_D_2
 10
20.4391096308
 20
17.8470049346
 30
0.0
 11
19.0260269537
 21
17.8470049346
 31
0.0
 70
   160
  1
<>
 71
     2
 42
-1.0
  3
SLDDIMSTYLE2
100
AcDbAlignedDimension
 13
20.3646096308
 23
17.2170836748
 33
0.0
 14
20.4391096308
 24
17.2170836748
 34
0.0
100
AcDbRotatedDimension
  0
LINE
  5
231
330
1F
100
AcDbEntity
  8
0
  6
SLD-Solid
 62
     7
370
    25
100
AcDbLine
 10
42.5200620811
 20
15.1855221433
 30
0.0
 11
42.5193549743
 21
15.1851139393
 31
0.0
  0
LINE
  5
232
330
1F
100
AcDbEntity
  8
0
  6
SLD-Solid
 62
     7
370
    25
100
AcDbLine
 10
42.0293091836
 20
15.4688277607
 30
0.0
 11
42.0286020768
 21
15.4684195567
 31
0.0
  0
LINE
  5
233
330
1F
100
AcDbEntity
  8
0
  6
SLD-Solid
 62
     7
370
    25
100
AcDbLine
 10
42.2708688456
 20
14.4411045862
 30
0.0
 11
42.2701617389
 21
14.4406963821
 31
0.0
  0
LINE
  5
234
330
1F
100
AcDbEntity
  8
0
  6
SLD-Solid
 62
     7
370
    25
100
AcDbLine
 10
41.295464253
 20
15.8973119204
 30
0.0
 11
41.2947571463
 21
15.8969037163
 31
0.0
  0
LINE
  5
235
330
1F
100
AcDbEntity
  8
0
  6
SLD-Solid
 62
     7
370
    25
100
AcDbLine
 10
40.7809146539
 20
16.1943550812
 30
0.0
 11
40.7802075471
 21
16.1939468772
 31
0.0
  0
LINE
  5
236
330
1F
100
AcDbEntity
  8
0
  6
SLD-Solid
 62
     7
370
    25
100
AcDbLine
 10
41.0343490457
 20
15.4120845379
 30
0.0
 11
41.033641939
 21
15.4116763339
 31
0.0
  0
LINE
  5
237
330
1F
100
AcDbEntity
  8
0
  6
SLD-Solid
 62
     7
370
    25
100
AcDbLine
 10
39.5488327024
 20
18.198502321
 30
0.0
 11
39.6015121576
 21
18.2289135232
 31
0.0
  0
LINE
  5
238
330
1F
100
AcDbEntity
  8
0
  6
SLD-Solid
 62
     7
370
    25
100
AcDbLine
 10
43.8441528447
 20
15.7796891877
 30
0.0
 11
39.6015121576
 21
18.2289135232
 31
0.0
  0
LINE
  5
239
330
1F
100
AcDbEntity
  8
0
  6
SLD-Solid
 62
     7
370
    25
100
AcDbLine
 10
43.7914733895
 20
15.7492779855
 30
0.0
 11
43.8441528447
 21
15.7796891877
 31
0.0
  0
LINE
  5
23A
330
1F
100
AcDbEntity
  8
0
  6
SLD-Solid
 62
     7
370
    25
100
AcDbLine
 10
43.7914733895
 20
15.7492779855
 30
0.0
 11
39.5488327024
 21
18.198502321
 31
0.0
  0
LINE
  5
23B
330
1F
100
AcDbEntity
  8
0
  6
SLD-Solid
 62
     7
370
    25
100
AcDbLine
 10
43.8441528447
 20
15.7796891877
 30
0.0
 11
43.8441528447
 21
10.8804443164
 31
0.0
  0
LINE
  5
23C
330
1F
100
AcDbEntity
  8
0
  6
SLD-Solid
 62
     7
370
    25
100
AcDbLine
 10
43.7914733895
 20
10.8500331142
 30
0.0
 11
43.8441528447
 21
10.8804443164
 31
0.0
  0
LINE
  5
23D
330
1F
100
AcDbEntity
  8
0
  6
SLD-Solid
 62
     7
370
    25
100
AcDbLine
 10
43.7914733895
 20
10.8500331142
 30
0.0
 11
43.7914733895
 21
15.7492779855
 31
0.0
  0
LINE
  5
23E
330
1F
100
AcDbEntity
  8
0
  6
SLD-Solid
 62
     7
370
    25
100
AcDbLine
 10
43.5842911026
 20
15.629635316
 30
0.0
 11
43.5842911026
 21
11.2088833605
 31
0.0
  0
LINE
  5
23F
330
1F
100
AcDbEntity
  8
0
  6
SLD-Solid
 62
     7
370
    25
100
AcDbLine
 10
39.7560149893
 20
17.8396520747
 30
0.0
 11
43.5842911026
 21
15.629635316
 31
0.0
  0
LINE
  5
240
330
1F
100
AcDbEntity
  8
0
  6
SLD-Solid
 62
     7
370
    25
100
AcDbLine
 10
39.7560149893
 20
13.4189001192
 30
0.0
 11
39.7560149893
 21
17.8396520747
 31
0.0
  0
LINE
  5
241
330
1F
100
AcDbEntity
  8
0
  6
SLD-Solid
 62
     7
370
    25
100
AcDbLine
 10
43.5842911026
 20
11.2088833605
 30
0.0
 11
39.7560149893
 21
13.4189001192
 31
0.0
  0
LINE
  5
242
330
1F
100
AcDbEntity
  8
0
  6
SLD-Solid
 62
     7
370
    25
100
AcDbLine
 10
39.5488327024
 20
18.198502321
 30
0.0
 11
39.5488327024
 21
13.2992574497
 31
0.0
  0
LINE
  5
243
330
1F
100
AcDbEntity
  8
0
  6
SLD-Solid
 62
     7
370
    25
100
AcDbLine
 10
39.5488327024
 20
13.2992574497
 30
0.0
 11
43.7914733895
 21
10.8500331142
 31
0.0
  0
LINE
  5
244
330
1F
100
AcDbEntity
  8
0
  6
SLD-Solid
 62
     7
370
    25
100
AcDbLine
 10
39.7563685426
 20
17.8394479727
 30
0.0
 11
39.7563685426
 21
13.4191042212
 31
0.0
  0
LINE
  5
245
330
1F
100
AcDbEntity
  8
0
  6
SLD-Solid
 62
     7
370
    25
100
AcDbLine
 10
39.7563685426
 20
13.4191042212
 30
0.0
 11
43.5842911026
 21
11.2092915646
 31
0.0
  0
LINE
  5
246
330
1F
100
AcDbEntity
  8
0
  6
SLD-Solid
 62
     7
370
    25
100
AcDbLine
 10
43.4962563083
 20
11.362180571
 30
0.0
 11
43.4962563083
 21
15.5787973236
 31
0.0
  0
LINE
  5
247
330
1F
100
AcDbEntity
  8
0
  6
SLD-Solid
 62
     7
370
    25
100
AcDbLine
 10
43.4962563083
 20
15.5787973236
 30
0.0
 11
39.8447568903
 21
17.6867630683
 31
0.0
  0
SPLINE
  5
248
330
1F
100
AcDbEntity
  8
0
  6
SLD-Solid
 62
     7
370
    25
100
AcDbSpline
210
0.0
220
0.0
230
1.0
 70
     8
 71
     3
 72
    11
 73
     7
 74
     0
 42
0.00000001
 43
0.00000001
 40
0.0
 40
0.0
 40
0.0
 40
0.0
 40
0.2843707772011589
 40
0.5687587091065992
 40
0.8532077203405848
 40
1.0
 40
1.0
 40
1.0
 40
1.0
 10
42.16866517214316
 20
13.35905734810015
 30
0.0
 10
42.15547178990688
 20
13.36578585096301
 30
0.0
 10
42.12908422954177
 20
13.37924326258652
 30
0.0
 10
42.0917989279764
 20
13.3847252060924
 30
0.0
 10
42.06264215802138
 20
13.38244843711898
 30
0.0
 10
42.04878054807456
 20
13.37381989357888
 30
0.0
 10
42.04406212855674
 20
13.3708827824925
 30
0.0
  0
SPLINE
  5
249
330
1F
100
AcDbEntity
  8
0
  6
SLD-Solid
 62
     7
370
    25
100
AcDbSpline
210
0.0
220
0.0
230
1.0
 70
     8
 71
     3
 72
    11
 73
     7
 74
     0
 42
0.00000001
 43
0.00000001
 40
0.0
 40
0.0
 40
0.0
 40
0.0
 40
0.1078644803357255
 40
0.4052573457676297
 40
0.7026015617781646
 40
1.0
 40
1.0
 40
1.0
 40
1.0
 10
42.04112685508463
 20
13.36927868478141
 30
0.0
 10
42.03744790948119
 20
13.36748389575185
 30
0.0
 10
42.02362575295812
 20
13.36074069876922
 30
0.0
 10
42.0070438562861
 20
13.33724633315886
 30
0.0
 10
41.99233937574962
 20
13.30073114493572
 30
0.0
 10
41.99071961073007
 20
13.26974053015965
 30
0.0
 10
41.98990965438396
 20
13.25424381007686
 30
0.0
  0
SPLINE
  5
24A
330
1F
100
AcDbEntity
  8
0
  6
SLD-Solid
 62
     7
370
    25
100
AcDbSpline
210
0.0
220
0.0
230
1.0
 70
     8
 71
     3
 72
    23
 73
    19
 74
     0
 42
0.00000001
 43
0.00000001
 40
0.0
 40
0.0
 40
0.0
 40
0.0
 40
0.0667486513092663
 40
0.1311519760901756
 40
0.1937321970570956
 40
0.2553255433785988
 40
0.3163881857773854
 40
0.3780268629068868
 40
0.4404056792054011
 40
0.5045574293240809
 40
0.5686582873620151
 40
0.6309861790900102
 40
0.692288134873299
 40
0.7526154469796396
 40
0.813199538435563
 40
0.8740161248607817
 40
0.9361583555105316
 40
1.0
 40
1.0
 40
1.0
 40
1.0
 10
42.1691460670795
 20
12.94244860402035
 30
0.0
 10
42.16283874305778
 20
12.94625480391842
 30
0.0
 10
42.15044571348994
 20
12.95373346645667
 30
0.0
 10
42.13230845923858
 20
12.9672880047009
 30
0.0
 10
42.11493140247548
 20
12.98196533451359
 30
0.0
 10
42.09846052048318
 20
12.9984073325089
 30
0.0
 10
42.08272807140678
 20
13.01615701532928
 30
0.0
 10
42.06784964616987
 20
13.03542073428986
 30
0.0
 10
42.05383024489911
 20
13.05617796229971
 30
0.0
 10
42.04075028517845
 20
13.07805794553529
 30
0.0
 10
42.02889980999493
 20
13.10057823911976
 30
0.0
 10
42.01843944116597
 20
13.123180523508
 30
0.0
 10
42.00961588801395
 20
13.14559584478111
 30
0.0
 10
42.00242882770223
 20
13.16783249618162
 30
0.0
 10
41.99676283806258
 20
13.18984469916771
 30
0.0
 10
41.99276612614288
 20
13.21166103553603
 30
0.0
 10
41.99040517303833
 20
13.23325406547286
 30
0.0
 10
41.99007630597976
 20
13.24718459161374
 30
0.0
 10
41.98990965438396
 20
13.25424381007686
 30
0.0
  0
SPLINE
  5
24B
330
1F
100
AcDbEntity
  8
0
  6
SLD-Solid
 62
     7
370
    25
100
AcDbSpline
210
0.0
220
0.0
230
1.0
 70
     8
 71
     3
 72
    11
 73
     7
 74
     0
 42
0.00000001
 43
0.00000001
 40
0.0
 40
0.0
 40
0.0
 40
0.0
 40
0.2876012149150649
 40
0.5750269270502016
 40
0.8625150318221674
 40
1.0
 40
1.0
 40
1.0
 40
1.0
 10
42.1691460670795
 20
12.94244860402035
 30
0.0
 10
42.1822613600669
 20
12.93567454251844
 30
0.0
 10
42.20848394270144
 20
12.9221305532476
 30
0.0
 10
42.24577410617211
 20
12.91597068791197
 30
0.0
 10
42.27397574913921
 20
12.91911917516276
 30
0.0
 10
42.2873436356732
 20
12.92756201641837
 30
0.0
 10
42.29166834133508
 20
12.93029339832288
 30
0.0
  0
SPLINE
  5
24C
330
1F
100
AcDbEntity
  8
0
  6
SLD-Solid
 62
     7
370
    25
100
AcDbSpline
210
0.0
220
0.0
230
1.0
 70
     8
 71
     3
 72
    11
 73
     7
 74
     0
 42
0.00000001
 43
0.00000001
 40
0.0
 40
0.0
 40
0.0
 40
0.0
 40
0.1173088742160377
 40
0.4115039082733797
 40
0.7056624366749414
 40
1.0
 40
1.0
 40
1.0
 40
1.0
 10
42.29458280166335
 20
12.93193402945973
 30
0.0
 10
42.29857259239129
 20
12.93394622582013
 30
0.0
 10
42.31256824692907
 20
12.94100474268044
 30
0.0
 10
42.32976160385905
 20
12.96407559416574
 30
0.0
 10
42.34384708275052
 20
13.00097886810139
 30
0.0
 10
42.34531334847221
 20
13.0318575804729
 30
0.0
 10
42.34604670437002
 20
13.04730163368892
 30
0.0
  0
SPLINE
  5
24D
330
1F
100
AcDbEntity
  8
0
  6
SLD-Solid
 62
     7
370
    25
100
AcDbSpline
210
0.0
220
0.0
230
1.0
 70
     8
 71
     3
 72
    23
 73
    19
 74
     0
 42
0.00000001
 43
0.00000001
 40
0.0
 40
0.0
 40
0.0
 40
0.0
 40
0.0633955966615902
 40
0.1251572666424212
 40
0.1856494665262525
 40
0.2459766793408151
 40
0.3061083686579568
 40
0.3673505880891745
 40
0.4299020782799139
 40
0.4945399581831935
 40
0.5593725826940478
 40
0.6224096858457367
 40
0.684357425819475
 40
0.7458066007722107
 40
0.8074302750159149
 40
0.8699955160697818
 40
0.9339278677192727
 40
1.0
 40
1.0
 40
1.0
 40
1.0
 10
42.16866517214316
 20
13.35905734810015
 30
0.0
 10
42.17462772237033
 20
13.35543696752164
 30
0.0
 10
42.18639914701097
 20
13.34828951625888
 30
0.0
 10
42.20371066479007
 20
13.33536199129479
 30
0.0
 10
42.22039351305858
 20
13.32095098397557
 30
0.0
 10
42.23644014788056
 20
13.30504262954768
 30
0.0
 10
42.25181039032698
 20
13.28748014706742
 30
0.0
 10
42.26655845638912
 20
13.26847858936206
 30
0.0
 10
42.28063151919335
 20
13.2478705040526
 30
0.0
 10
42.29388536927656
 20
13.22603036979329
 30
0.0
 10
42.30613431713441
 20
13.2035294484637
 30
0.0
 10
42.31674803760735
 20
13.18078940441561
 30
0.0
 10
42.32579902905014
 20
13.15819884148437
 30
0.0
 10
42.33330051497354
 20
13.1357035944377
 30
0.0
 10
42.33901429276473
 20
13.11331537528948
 30
0.0
 10
42.343023886975
 20
13.09108329871078
 30
0.0
 10
42.34559985260519
 20
13.06885684293874
 30
0.0
 10
42.34589612828662
 20
13.05456511397747
 30
0.0
 10
42.34604670437002
 20
13.04730163368892
 30
0.0
  0
LINE
  5
24E
330
1F
100
AcDbEntity
  8
0
  6
SLD-Solid
 62
     7
370
    25
100
AcDbLine
 10
41.4095381655
 20
13.7871376231
 30
0.0
 11
41.4095381655
 21
13.3911153294
 31
0.0
  0
LINE
  5
24F
330
1F
100
AcDbEntity
  8
0
  6
SLD-Solid
 62
     7
370
    25
100
AcDbLine
 10
41.4095381655
 20
13.3911153294
 30
0.0
 11
41.4710927174
 21
13.355580643
 31
0.0
  0
LINE
  5
250
330
1F
100
AcDbEntity
  8
0
  6
SLD-Solid
 62
     7
370
    25
100
AcDbLine
 10
41.4710927174
 20
13.355580643
 30
0.0
 11
41.4710927174
 21
13.5282057454
 31
0.0
  0
LINE
  5
251
330
1F
100
AcDbEntity
  8
0
  6
SLD-Solid
 62
     7
370
    25
100
AcDbLine
 10
41.4710927174
 20
13.5282057454
 30
0.0
 11
41.5898050674
 21
13.4596745645
 31
0.0
  0
LINE
  5
252
330
1F
100
AcDbEntity
  8
0
  6
SLD-Solid
 62
     7
370
    25
100
AcDbLine
 10
41.5898050674
 20
13.4596745645
 30
0.0
 11
41.5898050674
 21
13.2870494621
 31
0.0
  0
LINE
  5
253
330
1F
100
AcDbEntity
  8
0
  6
SLD-Solid
 62
     7
370
    25
100
AcDbLine
 10
41.5898050674
 20
13.2870494621
 30
0.0
 11
41.6513596192
 21
13.2515147756
 31
0.0
  0
LINE
  5
254
330
1F
100
AcDbEntity
  8
0
  6
SLD-Solid
 62
     7
370
    25
100
AcDbLine
 10
41.6513596192
 20
13.2515147756
 30
0.0
 11
41.6513596192
 21
13.6475370694
 31
0.0
  0
LINE
  5
255
330
1F
100
AcDbEntity
  8
0
  6
SLD-Solid
 62
     7
370
    25
100
AcDbLine
 10
41.6513596192
 20
13.6475370694
 30
0.0
 11
41.5898050674
 21
13.6830717558
 31
0.0
  0
LINE
  5
256
330
1F
100
AcDbEntity
  8
0
  6
SLD-Solid
 62
     7
370
    25
100
AcDbLine
 10
41.5898050674
 20
13.6830717558
 30
0.0
 11
41.5898050674
 21
13.530755489
 31
0.0
  0
LINE
  5
257
330
1F
100
AcDbEntity
  8
0
  6
SLD-Solid
 62
     7
370
    25
100
AcDbLine
 10
41.5898050674
 20
13.530755489
 30
0.0
 11
41.4710927174
 21
13.5992866699
 31
0.0
  0
LINE
  5
258
330
1F
100
AcDbEntity
  8
0
  6
SLD-Solid
 62
     7
370
    25
100
AcDbLine
 10
41.4710927174
 20
13.5992866699
 30
0.0
 11
41.4710927174
 21
13.7516029367
 31
0.0
  0
LINE
  5
259
330
1F
100
AcDbEntity
  8
0
  6
SLD-Solid
 62
     7
370
    25
100
AcDbLine
 10
41.4710927174
 20
13.7516029367
 30
0.0
 11
41.4095381655
 21
13.7871376231
 31
0.0
  0
SPLINE
  5
25A
330
1F
100
AcDbEntity
  8
0
  6
SLD-Solid
 62
     7
370
    25
100
AcDbSpline
210
0.0
220
0.0
230
1.0
 70
     8
 71
     3
 72
    19
 73
    15
 74
     0
 42
0.00000001
 43
0.00000001
 40
0.0
 40
0.0
 40
0.0
 40
0.0
 40
0.1069102197112001
 40
0.2129765276064939
 40
0.3197766759577688
 40
0.4285562728491928
 40
0.4858568032784263
 40
0.5465586866406887
 40
0.6114314979175136
 40
0.679820910072493
 40
0.7531585046908256
 40
0.8307528691562623
 40
0.9131330746557015
 40
1.0
 40
1.0
 40
1.0
 40
1.0
 10
41.24452250308209
 20
13.89255355516305
 30
0.0
 10
41.2485631886312
 20
13.89005022356275
 30
0.0
 10
41.25661266397343
 20
13.88506332078471
 30
0.0
 10
41.2685140454284
 20
13.87553380115976
 30
0.0
 10
41.28013881724153
 20
13.86464140823777
 30
0.0
 10
41.28950627622855
 20
13.8541891032181
 30
0.0
 10
41.29695978849088
 20
13.84499958928062
 30
0.0
 10
41.30267220938665
 20
13.83720282763548
 30
0.0
 10
41.30848490512696
 20
13.82869332478914
 30
0.0
 10
41.31444475149723
 20
13.81942777861162
 30
0.0
 10
41.32044100532328
 20
13.80936036912458
 30
0.0
 10
41.32664416877763
 20
13.79854992487927
 30
0.0
 10
41.33296971617598
 20
13.78698276229601
 30
0.0
 10
41.33708031904695
 20
13.77895496398816
 30
0.0
 10
41.33919010626126
 20
13.77483465687978
 30
0.0
  0
SPLINE
  5
25B
330
1F
100
AcDbEntity
  8
0
  6
SLD-Solid
 62
     7
370
    25
100
AcDbSpline
210
0.0
220
0.0
230
1.0
 70
     8
 71
     3
 72
    10
 73
     6
 74
     0
 42
0.00000001
 43
0.00000001
 40
0.0
 40
0.0
 40
0.0
 40
0.0
 40
0.3741731480834349
 40
0.7479573259510863
 40
1.0
 40
1.0
 40
1.0
 40
1.0
 10
41.24452250308209
 20
13.89255355516305
 30
0.0
 10
41.23586894062634
 20
13.8968529505236
 30
0.0
 10
41.21857081149145
 20
13.90544727182527
 30
0.0
 10
41.19661826301232
 20
13.90729900812366
 30
0.0
 10
41.18613457325077
 20
13.9017476662654
 30
0.0
 10
41.18191241948202
 20
13.89951194396901
 30
0.0
  0
SPLINE
  5
25C
330
1F
100
AcDbEntity
  8
0
  6
SLD-Solid
 62
     7
370
    25
100
AcDbSpline
210
0.0
220
0.0
230
1.0
 70
     8
 71
     3
 72
    10
 73
     6
 74
     0
 42
0.00000001
 43
0.00000001
 40
0.0
 40
0.0
 40
0.0
 40
0.0
 40
0.0667668733830134
 40
0.5332759917539326
 40
1.0
 40
1.0
 40
1.0
 40
1.0
 10
41.1788203803851
 20
13.898195205356
 30
0.0
 10
41.17770666668157
 20
13.89775601095247
 30
0.0
 10
41.16881128563872
 20
13.8942481062199
 30
0.0
 10
41.15762764248887
 20
13.87742199164049
 30
0.0
 10
41.15556033997994
 20
13.8551914581026
 30
0.0
 10
41.15452645071293
 20
13.84407363188927
 30
0.0
  0
SPLINE
  5
25D
330
1F
100
AcDbEntity
  8
0
  6
SLD-Solid
 62
     7
370
    25
100
AcDbSpline
210
0.0
220
0.0
230
1.0
 70
     8
 71
     3
 72
    19
 73
    15
 74
     0
 42
0.00000001
 43
0.00000001
 40
0.0
 40
0.0
 40
0.0
 40
0.0
 40
0.1121245812797442
 40
0.2152010090762411
 40
0.309902452493476
 40
0.3959590963320905
 40
0.473447494000333
 40
0.5421403275660301
 40
0.6025233330554092
 40
0.6547263328340143
 40
0.7478040553141012
 40
0.8352784168250078
 40
0.9189252427194493
 40
0.9999999999999999
 40
0.9999999999999999
 40
0.9999999999999999
 40
0.9999999999999999
 10
41.24095014069798
 20
13.65519370414313
 30
0.0
 10
41.23658500751853
 20
13.6619785529521
 30
0.0
 10
41.22820699571908
 20
13.67500073143835
 30
0.0
 10
41.21636780211258
 20
13.69392530750411
 30
0.0
 10
41.20569962860611
 20
13.71138308379066
 30
0.0
 10
41.19629461700306
 20
13.72746055041872
 30
0.0
 10
41.18803293290603
 20
13.7420302411547
 30
0.0
 10
41.18097052802943
 20
13.75513945772589
 30
0.0
 10
41.17518498610224
 20
13.766813082891
 30
0.0
 10
41.16909695074497
 20
13.78019834430346
 30
0.0
 10
41.1633120999326
 20
13.79556601011446
 30
0.0
 10
41.1583123472296
 20
13.81292355574097
 30
0.0
 10
41.15506871870067
 20
13.82926547627385
 30
0.0
 10
41.15470531523714
 20
13.83918923198296
 30
0.0
 10
41.15452645071293
 20
13.84407363188927
 30
0.0
  0
SPLINE
  5
25E
330
1F
100
AcDbEntity
  8
0
  6
SLD-Solid
 62
     7
370
    25
100
AcDbSpline
210
0.0
220
0.0
230
1.0
 70
     8
 71
     3
 72
    19
 73
    15
 74
     0
 42
0.00000001
 43
0.00000001
 40
0.0
 40
0.0
 40
0.0
 40
0.0
 40
0.0763466063531701
 40
0.1550908218146645
 40
0.2383515612585566
 40
0.3284041399329876
 40
0.3793838595513589
 40
0.4396176441748209
 40
0.5098314158313143
 40
0.5888746449969577
 40
0.6774363544094507
 40
0.775546719619675
 40
0.8826358717258564
 40
0.9999999999999999
 40
0.9999999999999999
 40
0.9999999999999999
 40
0.9999999999999999
 10
41.28642906181888
 20
13.56063495591341
 30
0.0
 10
41.28631614019079
 20
13.56295993375717
 30
0.0
 10
41.2860867507138
 20
13.56768290366656
 30
0.0
 10
41.28439713851939
 20
13.57548370003142
 30
0.0
 10
41.28175575930413
 20
13.58383083574923
 30
0.0
 10
41.27863082142848
 20
13.59123065898187
 30
0.0
 10
41.27545080584584
 20
13.59775168385504
 30
0.0
 10
41.27240999369467
 20
13.60356665669057
 30
0.0
 10
41.26870708888639
 20
13.61018938946657
 30
0.0
 10
41.26435148035436
 20
13.61762010397191
 30
0.0
 10
41.25940071705212
 20
13.6258688571177
 30
0.0
 10
41.2538506286032
 20
13.63493752852864
 30
0.0
 10
41.24763766062354
 20
13.64481114660986
 30
0.0
 10
41.24324632259658
 20
13.6516288189638
 30
0.0
 10
41.24095014069798
 20
13.65519370414313
 30
0.0
  0
SPLINE
  5
25F
330
1F
100
AcDbEntity
  8
0
  6
SLD-Solid
 62
     7
370
    25
100
AcDbSpline
210
0.0
220
0.0
230
1.0
 70
     8
 71
     3
 72
     9
 73
     5
 74
     0
 42
0.00000001
 43
0.00000001
 40
0.0
 40
0.0
 40
0.0
 40
0.0
 40
0.7493998915408606
 40
1.0
 40
1.0
 40
1.0
 40
1.0
 10
41.28642906181888
 20
13.56063495591341
 30
0.0
 10
41.28577291562372
 20
13.55469795568997
 30
0.0
 10
41.28489735345381
 20
13.54677561637492
 30
0.0
 10
41.27960163944411
 20
13.54446999287084
 30
0.0
 10
41.2782745329389
 20
13.54389220337065
 30
0.0
  0
SPLINE
  5
260
330
1F
100
AcDbEntity
  8
0
  6
SLD-Solid
 62
     7
370
    25
100
AcDbSpline
210
0.0
220
0.0
230
1.0
 70
     8
 71
     3
 72
    11
 73
     7
 74
     0
 42
0.00000001
 43
0.00000001
 40
0.0
 40
0.0
 40
0.0
 40
0.0
 40
0.1419858925296712
 40
0.2754733105502131
 40
0.404345842663139
 40
0.4400000000000198
 40
0.4400000000000198
 40
0.4400000000000198
 40
0.4400000000000198
 10
41.2472704741468
 20
13.54571698041382
 30
0.0
 10
41.24993948309964
 20
13.54430084129737
 30
0.0
 10
41.25511774918668
 20
13.54155332516278
 30
0.0
 10
41.26250906138992
 20
13.53952015224525
 30
0.0
 10
41.2676420249924
 20
13.53921343706442
 30
0.0
 10
41.27026268694824
 20
13.53958905838239
 30
0.0
 10
41.27082076412851
 20
13.5396939215238
 30
0.0
  0
SPLINE
  5
261
330
1F
100
AcDbEntity
  8
0
  6
SLD-Solid
 62
     7
370
    25
100
AcDbSpline
210
0.0
220
0.0
230
1.0
 70
     8
 71
     3
 72
    15
 73
    11
 74
     0
 42
0.00000001
 43
0.00000001
 40
0.0
 40
0.0
 40
0.0
 40
0.0
 40
0.1604579205559365
 40
0.3076115473748602
 40
0.4421388877557715
 40
0.5662291941703349
 40
0.6812222080152134
 40
0.7895580052436291
 40
0.8950288924051354
 40
0.9999999999999999
 40
0.9999999999999999
 40
0.9999999999999999
 40
0.9999999999999999
 10
41.19107446587353
 20
13.62893033440241
 30
0.0
 10
41.19307323918885
 20
13.62376442028387
 30
0.0
 10
41.19690505846113
 20
13.61386092140951
 30
0.0
 10
41.20339843444361
 20
13.59977795522065
 30
0.0
 10
41.21005056664102
 20
13.58708804095282
 30
0.0
 10
41.21701524638948
 20
13.5758588161277
 30
0.0
 10
41.22420778578929
 20
13.56604278177095
 30
0.0
 10
41.23166292647709
 20
13.55769122640933
 30
0.0
 10
41.2393859062912
 20
13.55072726499979
 30
0.0
 10
41.24464644929006
 20
13.54738442897076
 30
0.0
 10
41.2472704741468
 20
13.54571698041382
 30
0.0
  0
LINE
  5
262
330
1F
100
AcDbEntity
  8
0
  6
SLD-Solid
 62
     7
370
    25
100
AcDbLine
 10
41.1910744659
 20
13.6289303344
 30
0.0
 11
41.1369394359
 21
13.622658075
 31
0.0
  0
SPLINE
  5
263
330
1F
100
AcDbEntity
  8
0
  6
SLD-Solid
 62
     7
370
    25
100
AcDbSpline
210
0.0
220
0.0
230
1.0
 70
     8
 71
     3
 72
    23
 73
    19
 74
     0
 42
0.00000001
 43
0.00000001
 40
0.0
 40
0.0
 40
0.0
 40
0.0
 40
0.0635514822357808
 40
0.1258683816453842
 40
0.1862402502136729
 40
0.2449766506319395
 40
0.3033576876770614
 40
0.3612303170408046
 40
0.418489049028352
 40
0.4759367117285737
 40
0.5342037438191215
 40
0.5940594289675396
 40
0.6554686942598743
 40
0.7187716848998884
 40
0.784974607219059
 40
0.853522316376702
 40
0.9251824507719316
 40
1.0
 40
1.0
 40
1.0
 40
1.0
 10
41.24500339801841
 20
13.47594481108325
 30
0.0
 10
41.2420702958529
 20
13.47769814323434
 30
0.0
 10
41.23626107142907
 20
13.48117074643069
 30
0.0
 10
41.22769915288065
 20
13.48708504883852
 30
0.0
 10
41.21943165265043
 20
13.49342585358423
 30
0.0
 10
41.21146788333893
 20
13.5002707645982
 30
0.0
 10
41.2037719667591
 20
13.50756144148393
 30
0.0
 10
41.19634358685047
 20
13.51532837765544
 30
0.0
 10
41.18923402418591
 20
13.52359588683302
 30
0.0
 10
41.18238948444376
 20
13.53230941092663
 30
0.0
 10
41.1758432405336
 20
13.54161808292484
 30
0.0
 10
41.16951251777601
 20
13.55145663665139
 30
0.0
 10
41.16346019892034
 20
13.56188388189721
 30
0.0
 10
41.1576572159063
 20
13.57290020227222
 30
0.0
 10
41.15214069783709
 20
13.5845058728053
 30
0.0
 10
41.1467300692815
 20
13.59668785873477
 30
0.0
 10
41.14166579485362
 20
13.60947545619172
 30
0.0
 10
41.13853736726504
 20
13.61820117271271
 30
0.0
 10
41.1369394358988
 20
13.6226580750149
 30
0.0
  0
SPLINE
  5
264
330
1F
100
AcDbEntity
  8
0
  6
SLD-Solid
 62
     7
370
    25
100
AcDbSpline
210
0.0
220
0.0
230
1.0
 70
     8
 71
     3
 72
    23
 73
    19
 74
     0
 42
0.00000001
 43
0.00000001
 40
0.0
 40
0.0
 40
0.0
 40
0.0
 40
0.0652008752881559
 40
0.1279265440230309
 40
0.1890469100189668
 40
0.2485436930694599
 40
0.3076071270223461
 40
0.3672476600602125
 40
0.4269630557213213
 40
0.4886171282353927
 40
0.5503918546271246
 40
0.6113307342255598
 40
0.6725560854310831
 40
0.734024190629192
 40
0.7973406208369387
 40
0.8622496273165778
 40
0.9296254660746968
 40
1.0
 40
1.0
 40
1.0
 40
1.0
 10
41.34798361366833
 20
13.52922550173451
 30
0.0
 10
41.34792222568328
 20
13.52526129371164
 30
0.0
 10
41.34780178017184
 20
13.51748337002715
 30
0.0
 10
41.34632655363525
 20
13.50685141812798
 30
0.0
 10
41.34422296718034
 20
13.49707550632324
 30
0.0
 10
41.34097045348757
 20
13.48857574158256
 30
0.0
 10
41.33700630906053
 20
13.4809293361346
 30
0.0
 10
41.33203668148789
 20
13.47446068085314
 30
0.0
 10
41.32620053533763
 20
13.46899505327443
 30
0.0
 10
41.31951141575269
 20
13.46468256614651
 30
0.0
 10
41.31211245519545
 20
13.46153652616418
 30
0.0
 10
41.30417636681311
 20
13.45951481539818
 30
0.0
 10
41.29562554753891
 20
13.4589993840693
 30
0.0
 10
41.28653305422518
 20
13.45975927093347
 30
0.0
 10
41.27690375387747
 20
13.46186058455184
 30
0.0
 10
41.26674911789517
 20
13.46516726971616
 30
0.0
 10
41.25605361406996
 20
13.46980790499366
 30
0.0
 10
41.24873987443094
 20
13.473869701896
 30
0.0
 10
41.24500339801841
 20
13.47594481108325
 30
0.0
  0
SPLINE
  5
265
330
1F
100
AcDbEntity
  8
0
  6
SLD-Solid
 62
     7
370
    25
100
AcDbSpline
210
0.0
220
0.0
230
1.0
 70
     8
 71
     3
 72
    15
 73
    11
 74
     0
 42
0.00000001
 43
0.00000001
 40
0.0
 40
0.0
 40
0.0
 40
0.0
 40
0.1508330973407548
 40
0.2899541833158774
 40
0.4171386481520551
 40
0.535255183906263
 40
0.6487510952936693
 40
0.7624054615861224
 40
0.879826701250104
 40
1.0
 40
1.0
 40
1.0
 40
1.0
 10
41.3125347869336
 20
13.64052411419301
 30
0.0
 10
41.3155624764405
 20
13.63499255970781
 30
0.0
 10
41.32138275895
 20
13.62435896939176
 30
0.0
 10
41.32894707442773
 20
13.60872037076911
 30
0.0
 10
41.33517275074677
 20
13.59412277720894
 30
0.0
 10
41.33998905200533
 20
13.58039997333663
 30
0.0
 10
41.34362651642874
 20
13.56726099503682
 30
0.0
 10
41.34619097703296
 20
13.55437401251852
 30
0.0
 10
41.34772684955192
 20
13.54159419381537
 30
0.0
 10
41.34789736726027
 20
13.53338011367604
 30
0.0
 10
41.34798361366833
 20
13.52922550173451
 30
0.0
  0
SPLINE
  5
266
330
1F
100
AcDbEntity
  8
0
  6
SLD-Solid
 62
     7
370
    25
100
AcDbSpline
210
0.0
220
0.0
230
1.0
 70
     8
 71
     3
 72
    15
 73
    11
 74
     0
 42
0.00000001
 43
0.00000001
 40
0.0
 40
0.0
 40
0.0
 40
0.0
 40
0.1929527021649357
 40
0.3661841413840577
 40
0.5204572982944607
 40
0.6550121351900097
 40
0.7706242255759997
 40
0.8656771846793666
 40
0.9426745273198688
 40
1.0
 40
1.0
 40
1.0
 40
1.0
 10
41.26836115206843
 20
13.71171989084858
 30
0.0
 10
41.27124598620763
 20
13.70717143944304
 30
0.0
 10
41.2767208020586
 20
13.69853942364912
 30
0.0
 10
41.28451037781553
 20
13.68627672145063
 30
0.0
 10
41.29135611756526
 20
13.67533799088442
 30
0.0
 10
41.29735774811388
 20
13.66577051734506
 30
0.0
 10
41.30242429059648
 20
13.65756278940638
 30
0.0
 10
41.30657704477441
 20
13.65067725889551
 30
0.0
 10
41.30986672949958
 20
13.64517202337501
 30
0.0
 10
41.31173672265064
 20
13.64191438797845
 30
0.0
 10
41.3125347869336
 20
13.64052411419301
 30
0.0
  0
SPLINE
  5
267
330
1F
100
AcDbEntity
  8
0
  6
SLD-Solid
 62
     7
370
    25
100
AcDbSpline
210
0.0
220
0.0
230
1.0
 70
     8
 71
     3
 72
    15
 73
    11
 74
     0
 42
0.00000001
 43
0.00000001
 40
0.0
 40
0.0
 40
0.0
 40
0.0
 40
0.0592341891229447
 40
0.1363492805279907
 40
0.2338052120618149
 40
0.3494112238568944
 40
0.4831791503491676
 40
0.6359668555591125
 40
0.809243356367591
 40
0.9999999999999999
 40
0.9999999999999999
 40
0.9999999999999999
 40
0.9999999999999999
 10
41.22178304252164
 20
13.7896982756422
 30
0.0
 10
41.22257174298405
 20
13.78809317421219
 30
0.0
 10
41.22438722728786
 20
13.78439844269992
 30
0.0
 10
41.22784898402173
 20
13.77820809286569
 30
0.0
 10
41.23219622345249
 20
13.77056301577837
 30
0.0
 10
41.23759623650179
 20
13.76154323018137
 30
0.0
 10
41.24382485378244
 20
13.7510658720414
 30
0.0
 10
41.25117077974571
 20
13.73923479626099
 30
0.0
 10
41.25942256660755
 20
13.72593700432763
 30
0.0
 10
41.26528774553141
 20
13.716608244794
 30
0.0
 10
41.26836115206843
 20
13.71171989084858
 30
0.0
  0
SPLINE
  5
268
330
1F
100
AcDbEntity
  8
0
  6
SLD-Solid
 62
     7
370
    25
100
AcDbSpline
210
0.0
220
0.0
230
1.0
 70
     8
 71
     3
 72
    11
 73
     7
 74
     0
 42
0.00000001
 43
0.00000001
 40
0.0
 40
0.0
 40
0.0
 40
0.0
 40
0.2418813747501821
 40
0.4871154746783743
 40
0.7378378396463977
 40
1.0
 40
1.0
 40
1.0
 40
1.0
 10
41.21608100256237
 20
13.81195019520959
 30
0.0
 10
41.21614158628003
 20
13.81026686444691
 30
0.0
 10
41.21626359346813
 20
13.80687687022203
 30
0.0
 10
41.21744201682398
 20
13.80133135087387
 30
0.0
 10
41.21921823730427
 20
13.79555206452648
 30
0.0
 10
41.22091548849025
 20
13.79167833951257
 30
0.0
 10
41.22178304252164
 20
13.7896982756422
 30
0.0
  0
SPLINE
  5
269
330
1F
100
AcDbEntity
  8
0
  6
SLD-Solid
 62
     7
370
    25
100
AcDbSpline
210
0.0
220
0.0
230
1.0
 70
     8
 71
     3
 72
    15
 73
    11
 74
     0
 42
0.00000001
 43
0.00000001
 40
0.0
 40
0.0
 40
0.0
 40
0.0
 40
0.1481262583591565
 40
0.2859928874896983
 40
0.416634393560614
 40
0.5473799458012569
 40
0.6715828376102101
 40
0.7844007386959908
 40
0.8932655763009623
 40
1.0
 40
1.0
 40
1.0
 40
1.0
 10
41.24383551031592
 20
13.82186922312341
 30
0.0
 10
41.24188180099674
 20
13.8229179552417
 30
0.0
 10
41.23810970160196
 20
13.82494278142739
 30
0.0
 10
41.23273229407077
 20
13.82652866529358
 30
0.0
 10
41.22795815508238
 20
13.82666413431926
 30
0.0
 10
41.22379194398569
 20
13.82564260438772
 30
0.0
 10
41.22049169012301
 20
13.82341950276222
 30
0.0
 10
41.21785669334126
 20
13.8206111312898
 30
0.0
 10
41.21637296873639
 20
13.81668885331748
 30
0.0
 10
41.2161776813855
 20
13.81351930810652
 30
0.0
 10
41.21608100256237
 20
13.81195019520959
 30
0.0
  0
SPLINE
  5
26A
330
1F
100
AcDbEntity
  8
0
  6
SLD-Solid
 62
     7
370
    25
100
AcDbSpline
210
0.0
220
0.0
230
1.0
 70
     8
 71
     3
 72
    15
 73
    11
 74
     0
 42
0.00000001
 43
0.00000001
 40
0.0
 40
0.0
 40
0.0
 40
0.0
 40
0.1624203072014376
 40
0.31182433973305
 40
0.44843276679258
 40
0.5733811968860476
 40
0.689077146873546
 40
0.7975729005012506
 40
0.9002930430775783
 40
1.0
 40
1.0
 40
1.0
 40
1.0
 10
41.29316159092741
 20
13.75277621174571
 30
0.0
 10
41.29118992669642
 20
13.75712609954295
 30
0.0
 10
41.28740460632857
 20
13.76547727750622
 30
0.0
 10
41.28126899683725
 20
13.77727565393793
 30
0.0
 10
41.27516109276767
 20
13.78784496522504
 30
0.0
 10
41.26902430810311
 20
13.79718845415345
 30
0.0
 10
41.26280424871977
 20
13.80530227761609
 30
0.0
 10
41.25651171173192
 20
13.8121372580679
 30
0.0
 10
41.25018237129206
 20
13.81782688945149
 30
0.0
 10
41.24593003154082
 20
13.82053521664275
 30
0.0
 10
41.24383551031592
 20
13.82186922312341
 30
0.0
  0
LINE
  5
26B
330
1F
100
AcDbEntity
  8
0
  6
SLD-Solid
 62
     7
370
    25
100
AcDbLine
 10
41.2931615909
 20
13.7527762117
 30
0.0
 11
41.3391901063
 21
13.7748346569
 31
0.0
  0
LINE
  5
26C
330
1F
100
AcDbEntity
  8
0
  6
SLD-Solid
 62
     7
370
    25
100
AcDbLine
 10
40.91717045
 20
14.0713754551
 30
0.0
 11
40.7786040091
 21
13.755345865
 31
0.0
  0
LINE
  5
26D
330
1F
100
AcDbEntity
  8
0
  6
SLD-Solid
 62
     7
370
    25
100
AcDbLine
 10
40.7786040091
 20
13.755345865
 30
0.0
 11
40.8442805175
 21
13.7174316237
 31
0.0
  0
LINE
  5
26E
330
1F
100
AcDbEntity
  8
0
  6
SLD-Solid
 62
     7
370
    25
100
AcDbLine
 10
40.8442805175
 20
13.7174316237
 30
0.0
 11
40.8709358368
 21
13.7832791777
 31
0.0
  0
LINE
  5
26F
330
1F
100
AcDbEntity
  8
0
  6
SLD-Solid
 62
     7
370
    25
100
AcDbLine
 10
40.8709358368
 20
13.7832791777
 30
0.0
 11
41.0203567635
 21
13.6970203129
 31
0.0
  0
LINE
  5
270
330
1F
100
AcDbEntity
  8
0
  6
SLD-Solid
 62
     7
370
    25
100
AcDbLine
 10
41.0203567635
 20
13.6970203129
 30
0.0
 11
41.0470120828
 21
13.6003971822
 31
0.0
  0
LINE
  5
271
330
1F
100
AcDbEntity
  8
0
  6
SLD-Solid
 62
     7
370
    25
100
AcDbLine
 10
41.0470120828
 20
13.6003971822
 30
0.0
 11
41.1127572905
 21
13.5624432817
 31
0.0
  0
LINE
  5
272
330
1F
100
AcDbEntity
  8
0
  6
SLD-Solid
 62
     7
370
    25
100
AcDbLine
 10
41.1127572905
 20
13.5624432817
 30
0.0
 11
40.9742595489
 21
14.0384186199
 31
0.0
  0
LINE
  5
273
330
1F
100
AcDbEntity
  8
0
  6
SLD-Solid
 62
     7
370
    25
100
AcDbLine
 10
40.9742595489
 20
14.0384186199
 30
0.0
 11
40.91717045
 21
14.0713754551
 31
0.0
  0
LINE
  5
274
330
1F
100
AcDbEntity
  8
0
  6
SLD-Solid
 62
     7
370
    25
100
AcDbLine
 10
40.3521188998
 20
14.3975727718
 30
0.0
 11
40.4316039629
 21
13.9556647278
 31
0.0
  0
LINE
  5
275
330
1F
100
AcDbEntity
  8
0
  6
SLD-Solid
 62
     7
370
    25
100
AcDbLine
 10
40.4316039629
 20
13.9556647278
 30
0.0
 11
40.4954255908
 21
13.9188212862
 31
0.0
  0
LINE
  5
276
330
1F
100
AcDbEntity
  8
0
  6
SLD-Solid
 62
     7
370
    25
100
AcDbLine
 10
40.4954255908
 20
13.9188212862
 30
0.0
 11
40.5543695702
 21
14.1407960435
 31
0.0
  0
LINE
  5
277
330
1F
100
AcDbEntity
  8
0
  6
SLD-Solid
 62
     7
370
    25
100
AcDbLine
 10
40.5543695702
 20
14.1407960435
 30
0.0
 11
40.6129700531
 21
13.8509643125
 31
0.0
  0
LINE
  5
278
330
1F
100
AcDbEntity
  8
0
  6
SLD-Solid
 62
     7
370
    25
100
AcDbLine
 10
40.6129700531
 20
13.8509643125
 30
0.0
 11
40.677272576
 21
13.8138432562
 31
0.0
  0
LINE
  5
279
330
1F
100
AcDbEntity
  8
0
  6
SLD-Solid
 62
     7
370
    25
100
AcDbLine
 10
40.677272576
 20
13.8138432562
 30
0.0
 11
40.7566202405
 21
14.1640591182
 31
0.0
  0
LINE
  5
27A
330
1F
100
AcDbEntity
  8
0
  6
SLD-Solid
 62
     7
370
    25
100
AcDbLine
 10
40.7566202405
 20
14.1640591182
 30
0.0
 11
40.6929360111
 21
14.2008232413
 31
0.0
  0
LINE
  5
27B
330
1F
100
AcDbEntity
  8
0
  6
SLD-Solid
 62
     7
370
    25
100
AcDbLine
 10
40.6929360111
 20
14.2008232413
 30
0.0
 11
40.6423046443
 21
13.9772229706
 31
0.0
  0
LINE
  5
27C
330
1F
100
AcDbEntity
  8
0
  6
SLD-Solid
 62
     7
370
    25
100
AcDbLine
 10
40.6423046443
 20
13.9772229706
 30
0.0
 11
40.5844598533
 21
14.2634451943
 31
0.0
  0
LINE
  5
27D
330
1F
100
AcDbEntity
  8
0
  6
SLD-Solid
 62
     7
370
    25
100
AcDbLine
 10
40.5844598533
 20
14.2634451943
 30
0.0
 11
40.5246227834
 21
14.2979883995
 31
0.0
  0
LINE
  5
27E
330
1F
100
AcDbEntity
  8
0
  6
SLD-Solid
 62
     7
370
    25
100
AcDbLine
 10
40.5246227834
 20
14.2979883995
 30
0.0
 11
40.4664344961
 21
14.0787506461
 31
0.0
  0
LINE
  5
27F
330
1F
100
AcDbEntity
  8
0
  6
SLD-Solid
 62
     7
370
    25
100
AcDbLine
 10
40.4664344961
 20
14.0787506461
 30
0.0
 11
40.4156657307
 21
14.3608879672
 31
0.0
  0
LINE
  5
280
330
1F
100
AcDbEntity
  8
0
  6
SLD-Solid
 62
     7
370
    25
100
AcDbLine
 10
40.4156657307
 20
14.3608879672
 30
0.0
 11
40.3521188998
 21
14.3975727718
 31
0.0
  0
LINE
  5
281
330
1F
100
AcDbEntity
  8
0
  6
SLD-Solid
 62
     7
370
    25
100
AcDbLine
 10
41.7305011859
 20
13.6018496155
 30
0.0
 11
41.7305011859
 21
13.2058273217
 31
0.0
  0
LINE
  5
282
330
1F
100
AcDbEntity
  8
0
  6
SLD-Solid
 62
     7
370
    25
100
AcDbLine
 10
41.7305011859
 20
13.2058273217
 30
0.0
 11
41.7920557377
 21
13.1702926353
 31
0.0
  0
LINE
  5
283
330
1F
100
AcDbEntity
  8
0
  6
SLD-Solid
 62
     7
370
    25
100
AcDbLine
 10
41.7920557377
 20
13.1702926353
 30
0.0
 11
41.7920557377
 21
13.3429177377
 31
0.0
  0
LINE
  5
284
330
1F
100
AcDbEntity
  8
0
  6
SLD-Solid
 62
     7
370
    25
100
AcDbLine
 10
41.7920557377
 20
13.3429177377
 30
0.0
 11
41.8129403178
 21
13.3308613262
 31
0.0
  0
LINE
  5
285
330
1F
100
AcDbEntity
  8
0
  6
SLD-Solid
 62
     7
370
    25
100
AcDbLine
 10
41.8129403178
 20
13.3308613262
 30
0.0
 11
41.8885095221
 21
13.1146110508
 31
0.0
  0
LINE
  5
286
330
1F
100
AcDbEntity
  8
0
  6
SLD-Solid
 62
     7
370
    25
100
AcDbLine
 10
41.8885095221
 20
13.1146110508
 30
0.0
 11
41.9569340016
 21
13.0751104396
 31
0.0
  0
LINE
  5
287
330
1F
100
AcDbEntity
  8
0
  6
SLD-Solid
 62
     7
370
    25
100
AcDbLine
 10
41.9569340016
 20
13.0751104396
 30
0.0
 11
41.8777924349
 21
13.3015147976
 31
0.0
  0
SPLINE
  5
288
330
1F
100
AcDbEntity
  8
0
  6
SLD-Solid
 62
     7
370
    25
100
AcDbSpline
210
0.0
220
0.0
230
1.0
 70
     8
 71
     3
 72
     9
 73
     5
 74
     0
 42
0.00000001
 43
0.00000001
 40
0.0
 40
0.0
 40
0.0
 40
0.0
 40
0.8779672582495285
 40
1.0
 40
1.0
 40
1.0
 40
1.0
 10
41.87779243494389
 20
13.30151479759824
 30
0.0
 10
41.88857158673741
 20
13.29955095804714
 30
0.0
 10
41.90084898283873
 20
13.29731415532739
 30
0.0
 10
41.90915784691316
 20
13.30338324701743
 30
0.0
 10
41.910171800377
 20
13.3041238749163
 30
0.0
  0
SPLINE
  5
289
330
1F
100
AcDbEntity
  8
0
  6
SLD-Solid
 62
     7
370
    25
100
AcDbSpline
210
0.0
220
0.0
230
1.0
 70
     8
 71
     3
 72
    10
 73
     6
 74
     0
 42
0.00000001
 43
0.00000001
 40
0.0
 40
0.0
 40
0.0
 40
0.0
 40
0.2477819555127579
 40
0.6236075576898318
 40
1.0
 40
1.0
 40
1.0
 40
1.0
 10
41.91774307673266
 20
13.30924680326204
 30
0.0
 10
41.92189392100916
 20
13.31142728024644
 30
0.0
 10
41.93234059722599
 20
13.31691501612305
 30
0.0
 10
41.93995367878625
 20
13.33867034421844
 30
0.0
 10
41.94101453555302
 20
13.35790161435291
 30
0.0
 10
41.9415453636451
 20
13.36752449536153
 30
0.0
  0
SPLINE
  5
28A
330
1F
100
AcDbEntity
  8
0
  6
SLD-Solid
 62
     7
370
    25
100
AcDbSpline
210
0.0
220
0.0
230
1.0
 70
     8
 71
     3
 72
    31
 73
    27
 74
     0
 42
0.00000001
 43
0.00000001
 40
0.0
 40
0.0
 40
0.0
 40
0.0
 40
0.0728890266200382
 40
0.1401861299444944
 40
0.2022774341249592
 40
0.2588951317514627
 40
0.3104829424654784
 40
0.3570952441313351
 40
0.3985135666534654
 40
0.4350375108701162
 40
0.4692514858292876
 40
0.5028050278902746
 40
0.536210446318562
 40
0.5693793599392056
 40
0.6028014750483932
 40
0.6366657983367763
 40
0.6709286568940432
 40
0.705803000229313
 40
0.7411890612458777
 40
0.7763043110764618
 40
0.8120043009129352
 40
0.8479689758088955
 40
0.8845217611964794
 40
0.9219741585442052
 40
0.9601981758096081
 40
1.0
 40
1.0
 40
1.0
 40
1.0
 10
41.80222323066444
 20
13.56044536031975
 30
0.0
 10
41.80696403599306
 20
13.55768912030017
 30
0.0
 10
41.81608194005432
 20
13.55238809435072
 30
0.0
 10
41.82922945969903
 20
13.54420856204414
 30
0.0
 10
41.84130726457168
 20
13.53641567408895
 30
0.0
 10
41.85233323695486
 20
13.52879838101052
 30
0.0
 10
41.86230265975585
 20
13.52138297646223
 30
0.0
 10
41.87122552466645
 20
13.51427483955828
 30
0.0
 10
41.87910157088011
 20
13.50749758644887
 30
0.0
 10
41.88599722196921
 20
13.50073742234728
 30
0.0
 10
41.892220206094
 20
13.49400986090545
 30
0.0
 10
41.89802089245888
 20
13.48705889801702
 30
0.0
 10
41.90352725283095
 20
13.47985076988004
 30
0.0
 10
41.90870248313817
 20
13.47230069929757
 30
0.0
 10
41.91359155734867
 20
13.46446480112864
 30
0.0
 10
41.91820369899404
 20
13.45633270416609
 30
0.0
 10
41.92247373423798
 20
13.44789565281254
 30
0.0
 10
41.92637522284893
 20
13.43920664622902
 30
0.0
 10
41.92993111566824
 20
13.43038258574455
 30
0.0
 10
41.93307377912164
 20
13.4214532183689
 30
0.0
 10
41.93562939826539
 20
13.41251393722284
 30
0.0
 10
41.9378875617352
 20
13.40350543661188
 30
0.0
 10
41.93951404372577
 20
13.39451051806393
 30
0.0
 10
41.94064523815684
 20
13.38552886927763
 30
0.0
 10
41.94147345446689
 20
13.37642015473598
 30
0.0
 10
41.94152107294518
 20
13.37052942182373
 30
0.0
 10
41.9415453636451
 20
13.36752449536153
 30
0.0
  0
LINE
  5
28B
330
1F
100
AcDbEntity
  8
0
  6
SLD-Solid
 62
     7
370
    25
100
AcDbLine
 10
41.8022232307
 20
13.5604453603
 30
0.0
 11
41.7305011859
 21
13.6018496155
 31
0.0
  0
SPLINE
  5
28C
330
1F
100
AcDbEntity
  8
0
  6
SLD-Solid
 62
     7
370
    25
100
AcDbSpline
210
0.0
220
0.0
230
1.0
 70
     8
 71
     3
 72
    11
 73
     7
 74
     0
 42
0.00000001
 43
0.00000001
 40
0.0
 40
0.0
 40
0.0
 40
0.0
 40
0.2843707772011586
 40
0.5687587091065982
 40
0.8532077203405847
 40
0.9999999999999999
 40
0.9999999999999999
 40
0.9999999999999999
 40
0.9999999999999999
 10
42.56876975916456
 20
13.12808188646365
 30
0.0
 10
42.55557637692826
 20
13.1348103893265
 30
0.0
 10
42.52918881656316
 20
13.14826780095001
 30
0.0
 10
42.49190351499779
 20
13.15374974445589
 30
0.0
 10
42.46274674504277
 20
13.15147297548247
 30
0.0
 10
42.44888513509595
 20
13.14284443194238
 30
0.0
 10
42.44416671557813
 20
13.13990732085599
 30
0.0
  0
SPLINE
  5
28D
330
1F
100
AcDbEntity
  8
0
  6
SLD-Solid
 62
     7
370
    25
100
AcDbSpline
210
0.0
220
0.0
230
1.0
 70
     8
 71
     3
 72
    11
 73
     7
 74
     0
 42
0.00000001
 43
0.00000001
 40
0.0
 40
0.0
 40
0.0
 40
0.0
 40
0.1078644803357248
 40
0.4052573457676298
 40
0.7026015617781632
 40
1.0
 40
1.0
 40
1.0
 40
1.0
 10
42.44123144210602
 20
13.1383032231449
 30
0.0
 10
42.43755249650257
 20
13.13650843411534
 30
0.0
 10
42.42373033997951
 20
13.12976523713271
 30
0.0
 10
42.40714844330749
 20
13.10627087152235
 30
0.0
 10
42.39244396277101
 20
13.06975568329921
 30
0.0
 10
42.39082419775146
 20
13.03876506852314
 30
0.0
 10
42.39001424140534
 20
13.02326834844035
 30
0.0
  0
SPLINE
  5
28E
330
1F
100
AcDbEntity
  8
0
  6
SLD-Solid
 62
     7
370
    25
100
AcDbSpline
210
0.0
220
0.0
230
1.0
 70
     8
 71
     3
 72
    23
 73
    19
 74
     0
 42
0.00000001
 43
0.00000001
 40
0.0
 40
0.0
 40
0.0
 40
0.0
 40
0.0667486513092659
 40
0.1311519760901756
 40
0.1937321970570955
 40
0.2553255433785986
 40
0.3163881857773854
 40
0.3780268629068868
 40
0.4404056792054013
 40
0.5045574293240809
 40
0.5686582873620151
 40
0.6309861790900101
 40
0.692288134873299
 40
0.7526154469796394
 40
0.813199538435563
 40
0.8740161248607817
 40
0.9361583555105316
 40
1.0
 40
1.0
 40
1.0
 40
1.0
 10
42.56925065410088
 20
12.71147314238384
 30
0.0
 10
42.56294333007916
 20
12.71527934228191
 30
0.0
 10
42.55055030051133
 20
12.72275800482017
 30
0.0
 10
42.53241304625998
 20
12.7363125430644
 30
0.0
 10
42.51503598949687
 20
12.75098987287708
 30
0.0
 10
42.49856510750456
 20
12.76743187087239
 30
0.0
 10
42.48283265842817
 20
12.78518155369277
 30
0.0
 10
42.46795423319126
 20
12.80444527265335
 30
0.0
 10
42.4539348319205
 20
12.8252025006632
 30
0.0
 10
42.44085487219984
 20
12.84708248389878
 30
0.0
 10
42.42900439701631
 20
12.86960277748325
 30
0.0
 10
42.41854402818737
 20
12.89220506187149
 30
0.0
 10
42.40972047503534
 20
12.9146203831446
 30
0.0
 10
42.40253341472361
 20
12.93685703454511
 30
0.0
 10
42.39686742508396
 20
12.9588692375312
 30
0.0
 10
42.39287071316426
 20
12.98068557389952
 30
0.0
 10
42.39050976005972
 20
13.00227860383636
 30
0.0
 10
42.39018089300114
 20
13.01620912997723
 30
0.0
 10
42.39001424140534
 20
13.02326834844035
 30
0.0
  0
SPLINE
  5
28F
330
1F
100
AcDbEntity
  8
0
  6
SLD-Solid
 62
     7
370
    25
100
AcDbSpline
210
0.0
220
0.0
230
1.0
 70
     8
 71
     3
 72
    11
 73
     7
 74
     0
 42
0.00000001
 43
0.00000001
 40
0.0
 40
0.0
 40
0.0
 40
0.0
 40
0.3033865029566817
 40
0.6065878704831166
 40
0.9098550551303296
 40
1.0
 40
1.0
 40
1.0
 40
1.0
 10
42.56925065410088
 20
12.71147314238384
 30
0.0
 10
42.58237141442528
 20
12.70468869412023
 30
0.0
 10
42.60860492839753
 20
12.6911239376643
 30
0.0
 10
42.64581313926288
 20
12.68511976461199
 30
0.0
 10
42.67219354940273
 20
12.68758523301943
 30
0.0
 10
42.68401692849955
 20
12.69481933684505
 30
0.0
 10
42.68672609219048
 20
12.69647693162065
 30
0.0
  0
SPLINE
  5
290
330
1F
100
AcDbEntity
  8
0
  6
SLD-Solid
 62
     7
370
    25
100
AcDbSpline
210
0.0
220
0.0
230
1.0
 70
     8
 71
     3
 72
    11
 73
     7
 74
     0
 42
0.00000001
 43
0.00000001
 40
0.0
 40
0.0
 40
0.0
 40
0.0
 40
0.1173088742160524
 40
0.4115039082733919
 40
0.7056624366749484
 40
0.9999999999999999
 40
0.9999999999999999
 40
0.9999999999999999
 40
0.9999999999999999
 10
42.69468738868473
 20
12.70095856782322
 30
0.0
 10
42.69867717941268
 20
12.70297076418362
 30
0.0
 10
42.71267283395046
 20
12.71002928104394
 30
0.0
 10
42.72986619088044
 20
12.73310013252923
 30
0.0
 10
42.74395166977191
 20
12.77000340646488
 30
0.0
 10
42.7454179354936
 20
12.80088211883639
 30
0.0
 10
42.74615129139141
 20
12.81632617205241
 30
0.0
  0
SPLINE
  5
291
330
1F
100
AcDbEntity
  8
0
  6
SLD-Solid
 62
     7
370
    25
100
AcDbSpline
210
0.0
220
0.0
230
1.0
 70
     8
 71
     3
 72
    23
 73
    19
 74
     0
 42
0.00000001
 43
0.00000001
 40
0.0
 40
0.0
 40
0.0
 40
0.0
 40
0.0633955966615902
 40
0.1251572666424212
 40
0.1856494665262525
 40
0.2459766793408148
 40
0.3061083686579568
 40
0.3673505880891745
 40
0.4299020782799139
 40
0.4945399581831935
 40
0.5593725826940478
 40
0.6224096858457367
 40
0.684357425819475
 40
0.7458066007722107
 40
0.8074302750159149
 40
0.8699955160697818
 40
0.9339278677192727
 40
1.0
 40
1.0
 40
1.0
 40
1.0
 10
42.56876975916456
 20
13.12808188646365
 30
0.0
 10
42.57473230939172
 20
13.12446150588513
 30
0.0
 10
42.58650373403236
 20
13.11731405462237
 30
0.0
 10
42.60381525181145
 20
13.10438652965828
 30
0.0
 10
42.62049810007998
 20
13.08997552233906
 30
0.0
 10
42.63654473490195
 20
13.07406716791118
 30
0.0
 10
42.65191497734837
 20
13.05650468543091
 30
0.0
 10
42.66666304341052
 20
13.03750312772555
 30
0.0
 10
42.68073610621474
 20
13.0168950424161
 30
0.0
 10
42.69398995629794
 20
12.99505490815678
 30
0.0
 10
42.7062389041558
 20
12.97255398682719
 30
0.0
 10
42.71685262462874
 20
12.9498139427791
 30
0.0
 10
42.72590361607153
 20
12.92722337984786
 30
0.0
 10
42.73340510199493
 20
12.90472813280119
 30
0.0
 10
42.73911887978611
 20
12.88233991365297
 30
0.0
 10
42.74312847399638
 20
12.86010783707428
 30
0.0
 10
42.74570443962658
 20
12.83788138130223
 30
0.0
 10
42.74600071530801
 20
12.82358965234096
 30
0.0
 10
42.74615129139141
 20
12.81632617205241
 30
0.0
  0
LINE
  5
292
330
1F
100
AcDbEntity
  8
0
  6
SLD-Solid
 62
     7
370
    25
100
AcDbLine
 10
42.8348420575
 20
12.9643272003
 30
0.0
 11
42.7769285673
 21
12.6017376528
 31
0.0
  0
LINE
  5
293
330
1F
100
AcDbEntity
  8
0
  6
SLD-Solid
 62
     7
370
    25
100
AcDbLine
 10
42.7769285673
 20
12.6017376528
 30
0.0
 11
42.8393075105
 21
12.5657270554
 31
0.0
  0
LINE
  5
294
330
1F
100
AcDbEntity
  8
0
  6
SLD-Solid
 62
     7
370
    25
100
AcDbLine
 10
42.8393075105
 20
12.5657270554
 30
0.0
 11
42.8758555256
 21
12.7947602048
 31
0.0
  0
LINE
  5
295
330
1F
100
AcDbEntity
  8
0
  6
SLD-Solid
 62
     7
370
    25
100
AcDbLine
 10
42.8758555256
 20
12.7947602048
 30
0.0
 11
42.9467531791
 21
12.5036999912
 31
0.0
  0
LINE
  5
296
330
1F
100
AcDbEntity
  8
0
  6
SLD-Solid
 62
     7
370
    25
100
AcDbLine
 10
42.9467531791
 20
12.5036999912
 30
0.0
 11
43.0067963469
 21
12.4690378083
 31
0.0
  0
LINE
  5
297
330
1F
100
AcDbEntity
  8
0
  6
SLD-Solid
 62
     7
370
    25
100
AcDbLine
 10
43.0067963469
 20
12.4690378083
 30
0.0
 11
43.078106196
 21
12.678003378
 31
0.0
  0
LINE
  5
298
330
1F
100
AcDbEntity
  8
0
  6
SLD-Solid
 62
     7
370
    25
100
AcDbLine
 10
43.078106196
 20
12.678003378
 30
0.0
 11
43.1147229104
 21
12.4067331293
 31
0.0
  0
LINE
  5
299
330
1F
100
AcDbEntity
  8
0
  6
SLD-Solid
 62
     7
370
    25
100
AcDbLine
 10
43.1147229104
 20
12.4067331293
 30
0.0
 11
43.1770331543
 21
12.3707621912
 31
0.0
  0
LINE
  5
29A
330
1F
100
AcDbEntity
  8
0
  6
SLD-Solid
 62
     7
370
    25
100
AcDbLine
 10
43.1770331543
 20
12.3707621912
 30
0.0
 11
43.1190509649
 21
12.8002568904
 31
0.0
  0
LINE
  5
29B
330
1F
100
AcDbEntity
  8
0
  6
SLD-Solid
 62
     7
370
    25
100
AcDbLine
 10
43.1190509649
 20
12.8002568904
 30
0.0
 11
43.0557789311
 21
12.836783058
 31
0.0
  0
LINE
  5
29C
330
1F
100
AcDbEntity
  8
0
  6
SLD-Solid
 62
     7
370
    25
100
AcDbLine
 10
43.0557789311
 20
12.836783058
 30
0.0
 11
42.9769808608
 21
12.6060403193
 31
0.0
  0
LINE
  5
29D
330
1F
100
AcDbEntity
  8
0
  6
SLD-Solid
 62
     7
370
    25
100
AcDbLine
 10
42.9769808608
 20
12.6060403193
 30
0.0
 11
42.8987323848
 21
12.9274440995
 31
0.0
  0
LINE
  5
29E
330
1F
100
AcDbEntity
  8
0
  6
SLD-Solid
 62
     7
370
    25
100
AcDbLine
 10
42.8987323848
 20
12.9274440995
 30
0.0
 11
42.8348420575
 21
12.9643272003
 31
0.0
  0
LINE
  5
29F
330
1F
100
AcDbEntity
  8
0
  6
SLD-Solid
 62
     7
370
    25
100
AcDbLine
 10
43.495902755
 20
15.5785932215
 30
0.0
 11
43.495902755
 21
11.361976469
 31
0.0
  0
LINE
  5
2A0
330
1F
100
AcDbEntity
  8
0
  6
SLD-Solid
 62
     7
370
    25
100
AcDbLine
 10
43.495902755
 20
11.361976469
 30
0.0
 11
39.8444033369
 21
13.4699422137
 31
0.0
  0
LINE
  5
2A1
330
1F
100
AcDbEntity
  8
0
  6
SLD-Solid
 62
     7
370
    25
100
AcDbLine
 10
39.8444033369
 20
13.4699422137
 30
0.0
 11
39.8444033369
 21
17.6865589663
 31
0.0
  0
LINE
  5
2A2
330
1F
100
AcDbEntity
  8
0
  6
SLD-Solid
 62
     7
370
    25
100
AcDbLine
 10
39.8444033369
 20
17.6865589663
 30
0.0
 11
43.495902755
 21
15.5785932215
 31
0.0
  0
LINE
  5
2A3
330
1F
100
AcDbEntity
  8
0
  6
SLD-Solid
 62
     7
370
    25
100
AcDbLine
 10
40.9064777222
 20
13.1156631591
 30
0.0
 11
42.5462583478
 21
12.1690379534
 31
0.0
  0
LINE
  5
2A4
330
1F
100
AcDbEntity
  8
0
  6
SLD-Solid
 62
     7
370
    25
100
AcDbLine
 10
42.5462583478
 20
12.1690379534
 30
0.0
 11
42.5462583478
 21
12.4956542782
 31
0.0
  0
LINE
  5
2A5
330
1F
100
AcDbEntity
  8
0
  6
SLD-Solid
 62
     7
370
    25
100
AcDbLine
 10
42.5462583478
 20
12.4956542782
 30
0.0
 11
40.9064777222
 21
13.4422794838
 31
0.0
  0
LINE
  5
2A6
330
1F
100
AcDbEntity
  8
0
  6
SLD-Solid
 62
     7
370
    25
100
AcDbLine
 10
40.9064777222
 20
13.4422794838
 30
0.0
 11
40.9064777222
 21
13.1156631591
 31
0.0
  0
LWPOLYLINE
  5
2A7
330
1F
100
AcDbEntity
  8
0
  6
SLD-Solid
 62
     7
370
    25
100
AcDbPolyline
 90
       40
 70
   128
 43
0.0
 10
41.2203072092
 20
16.5082817701
 10
41.2181536034
 20
16.5403308598
 10
41.2117485633
 20
16.5740363953
 10
41.2012579761
 20
16.6085254207
 10
41.1869535424
 20
16.6429046887
 10
41.1692057396
 20
16.676283794
 10
41.1484742265
 20
16.7077982355
 10
41.1252959383
 20
16.7366318056
 10
41.1002711806
 20
16.7620377301
 10
41.0740480814
 20
16.7833580088
 10
41.0473058052
 20
16.8000404577
 10
41.0207369629
 20
16.8116530102
 10
40.9950296736
 20
16.8178949073
 10
40.9708497426
 20
16.818604487
 10
40.9488234174
 20
16.8137633717
 10
40.9295211682
 20
16.8034969436
 10
40.9134429131
 20
16.788071098
 10
40.9010050706
 20
16.767885356
 10
40.8925297741
 20
16.7434625179
 10
40.8882365295
 20
16.7154351222
 10
40.8882365295
 20
16.6845290638
 10
40.8925297741
 20
16.6515447934
 10
40.9010050706
 20
16.6173365863
 10
40.9134429131
 20
16.582790417
 10
40.9295211682
 20
16.5488010133
 10
40.9488234174
 20
16.5162486827
 10
40.9708497426
 20
16.4859765135
 10
40.9950296736
 20
16.4587685392
 10
41.0207369629
 20
16.4353294318
 10
41.0473058052
 20
16.4162662519
 10
41.0740480814
 20
16.402072726
 10
41.1002711806
 20
16.3931164588
 10
41.1252959383
 20
16.389629413
 10
41.1484742265
 20
16.3917019012
 10
41.1692057396
 20
16.3992802471
 10
41.1869535424
 20
16.4121681756
 10
41.2012579761
 20
16.4300318959
 10
41.2117485633
 20
16.4524087472
 10
41.2181536034
 20
16.4787191807
 10
41.2203072092
 20
16.5082817701
  0
LINE
  5
2A8
330
1F
100
AcDbEntity
  8
0
  6
SLD-Solid
 62
     7
370
    25
100
AcDbLine
 10
40.6281736087
 20
16.3486222796
 30
0.0
 11
40.6281736087
 21
15.6795685232
 31
0.0
  0
LWPOLYLINE
  5
2A9
330
1F
100
AcDbEntity
  8
0
  6
SLD-Solid
 62
     7
370
    25
100
AcDbPolyline
 90
       14
 70
   128
 43
0.0
 10
40.6281736087
 20
15.6795685232
 10
40.630283077
 20
15.6582890141
 10
40.6364888872
 20
15.6358106526
 10
40.6464303803
 20
15.6134397991
 10
40.6595297928
 20
15.5924765665
 10
40.6750258344
 20
15.5741392616
 10
40.6920179315
 20
15.5594935819
 10
40.7095185652
 20
15.5493906811
 10
40.7265106624
 20
15.5444177031
 10
40.742006704
 20
15.5448636592
 10
40.7551061164
 20
15.5507026321
 10
40.7650476095
 20
15.5615952819
 10
40.7712534197
 20
15.5769085675
 10
40.773362888
 20
15.5957525363
  0
LINE
  5
2AA
330
1F
100
AcDbEntity
  8
0
  6
SLD-Solid
 62
     7
370
    25
100
AcDbLine
 10
40.773362888
 20
15.5957525363
 30
0.0
 11
40.773362888
 21
16.1788185609
 31
0.0
  0
LWPOLYLINE
  5
2AB
330
1F
100
AcDbEntity
  8
0
  6
SLD-Solid
 62
     7
370
    25
100
AcDbPolyline
 90
        9
 70
   128
 43
0.0
 10
40.773362888
 20
16.1788185609
 10
40.775141408
 20
16.1881168384
 10
40.7802062045
 20
16.193946102
 10
40.787786208
 20
16.1954188991
 10
40.7967274319
 20
16.1923110097
 10
40.8056686557
 20
16.1850955818
 10
40.8132486593
 20
16.1748710988
 10
40.8183134557
 20
16.1631941457
 10
40.8200919757
 20
16.1518424327
  0
LINE
  5
2AC
330
1F
100
AcDbEntity
  8
0
  6
SLD-Solid
 62
     7
370
    25
100
AcDbLine
 10
40.8200919757
 20
16.1518424327
 30
0.0
 11
40.8200919757
 21
14.5045350233
 31
0.0
  0
LWPOLYLINE
  5
2AD
330
1F
100
AcDbEntity
  8
0
  6
SLD-Solid
 62
     7
370
    25
100
AcDbPolyline
 90
       16
 70
   128
 43
0.0
 10
40.8200919757
 20
14.5045350233
 10
40.8223330935
 20
14.4786184583
 10
40.8289584991
 20
14.4512470321
 10
40.8396786307
 20
14.4236170073
 10
40.854024967
 20
14.3969359486
 10
40.8713705042
 20
14.3723699464
 10
40.8909571591
 20
14.3509926527
 10
40.9119289011
 20
14.3337383579
 10
40.9333691642
 20
14.3213611574
 10
40.9543409061
 20
14.3144019944
 10
40.9739275611
 20
14.3131650176
 10
40.9912730983
 20
14.3177042889
 10
41.0056194345
 20
14.3278214203
 10
41.0163395661
 20
14.3430742447
 10
41.0229649717
 20
14.3627961403
 10
41.0252060895
 20
14.3861251658
  0
LINE
  5
2AE
330
1F
100
AcDbEntity
  8
0
  6
SLD-Solid
 62
     7
370
    25
100
AcDbLine
 10
41.0252060895
 20
14.3861251658
 30
0.0
 11
41.0252060895
 21
15.3930311103
 31
0.0
  0
LWPOLYLINE
  5
2AF
330
1F
100
AcDbEntity
  8
0
  6
SLD-Solid
 62
     7
370
    25
100
AcDbPolyline
 90
        9
 70
   128
 43
0.0
 10
41.0252060895
 20
15.3930311103
 10
41.0273980653
 20
15.4044909753
 10
41.0336402842
 20
15.4116753785
 10
41.042982425
 20
15.4134905594
 10
41.0540022314
 20
15.4096601733
 10
41.0650220379
 20
15.4007673617
 10
41.0743641787
 20
15.3881659746
 10
41.0806063976
 20
15.3737744589
 10
41.0827983734
 20
15.3597837925
  0
LINE
  5
2B0
330
1F
100
AcDbEntity
  8
0
  6
SLD-Solid
 62
     7
370
    25
100
AcDbLine
 10
41.0827983734
 20
15.3597837925
 30
0.0
 11
41.0827983734
 21
14.352877848
 31
0.0
  0
LWPOLYLINE
  5
2B1
330
1F
100
AcDbEntity
  8
0
  6
SLD-Solid
 62
     7
370
    25
100
AcDbPolyline
 90
       16
 70
   128
 43
0.0
 10
41.0827983734
 20
14.352877848
 10
41.0850394912
 20
14.3269612831
 10
41.0916648968
 20
14.2995898568
 10
41.1023850284
 20
14.2719598321
 10
41.1167313646
 20
14.2452787734
 10
41.1340769018
 20
14.2207127711
 10
41.1536635568
 20
14.1993354774
 10
41.1746352987
 20
14.1820811826
 10
41.1960755618
 20
14.1697039822
 10
41.2170473037
 20
14.1627448192
 10
41.2366339587
 20
14.1615078424
 10
41.2539794959
 20
14.1660471137
 10
41.2683258322
 20
14.1761642451
 10
41.2790459637
 20
14.1914170694
 10
41.2856713694
 20
14.2111389651
 10
41.2879124872
 20
14.2344679906
  0
LINE
  5
2B2
330
1F
100
AcDbEntity
  8
0
  6
SLD-Solid
 62
     7
370
    25
100
AcDbLine
 10
41.2879124872
 20
14.2344679906
 30
0.0
 11
41.2879124872
 21
15.8817754
 31
0.0
  0
LWPOLYLINE
  5
2B3
330
1F
100
AcDbEntity
  8
0
  6
SLD-Solid
 62
     7
370
    25
100
AcDbPolyline
 90
        9
 70
   128
 43
0.0
 10
41.2879124872
 20
15.8817754
 10
41.2896910072
 20
15.8910736776
 10
41.2947558036
 20
15.8969029411
 10
41.3023358072
 20
15.8983757382
 10
41.311277031
 20
15.8952678488
 10
41.3202182548
 20
15.8880524209
 10
41.3277982584
 20
15.877827938
 10
41.3328630549
 20
15.8661509849
 10
41.3346415749
 20
15.8547992719
  0
LINE
  5
2B4
330
1F
100
AcDbEntity
  8
0
  6
SLD-Solid
 62
     7
370
    25
100
AcDbLine
 10
41.3346415749
 20
15.8547992719
 30
0.0
 11
41.3346415749
 21
15.2717332473
 31
0.0
  0
LWPOLYLINE
  5
2B5
330
1F
100
AcDbEntity
  8
0
  6
SLD-Solid
 62
     7
370
    25
100
AcDbPolyline
 90
       14
 70
   128
 43
0.0
 10
41.3346415749
 20
15.2717332473
 10
41.3367510431
 20
15.2504537383
 10
41.3429568534
 20
15.2279753767
 10
41.3528983465
 20
15.2056045233
 10
41.3659977589
 20
15.1846412907
 10
41.3814938005
 20
15.1663039858
 10
41.3984858977
 20
15.1516583061
 10
41.4159865314
 20
15.1415554053
 10
41.4329786285
 20
15.1365824272
 10
41.4484746701
 20
15.1370283833
 10
41.4615740826
 20
15.1428673562
 10
41.4715155757
 20
15.1537600061
 10
41.4777213859
 20
15.1690732916
 10
41.4798308542
 20
15.1879172604
  0
LINE
  5
2B6
330
1F
100
AcDbEntity
  8
0
  6
SLD-Solid
 62
     7
370
    25
100
AcDbLine
 10
41.4798308542
 20
15.1879172604
 30
0.0
 11
41.4798308542
 21
15.8569710168
 31
0.0
  0
ARC
  5
2B7
330
1F
100
AcDbEntity
  8
0
  6
SLD-Solid
 62
     7
370
    25
100
AcDbCircle
 10
41.0421932638
 20
15.8379618511
 30
0.0
 40
0.4380502355648704
100
AcDbArc
 50
2.487128189
 51
57.5128719567
  0
LINE
  5
2B8
330
1F
100
AcDbEntity
  8
0
  6
SLD-Solid
 62
     7
370
    25
100
AcDbLine
 10
41.2774744785
 20
16.2074625398
 30
0.0
 11
40.8305299844
 21
16.4654781042
 31
0.0
  0
ARC
  5
2B9
330
1F
100
AcDbEntity
  8
0
  6
SLD-Solid
 62
     7
370
    25
100
AcDbCircle
 10
40.7521041881
 20
16.3676504315
 30
0.0
 40
0.1253828500118076
100
AcDbArc
 50
51.2817934449
 51
188.7289583099
  0
LWPOLYLINE
  5
2BA
330
1F
100
AcDbEntity
  8
0
  6
SLD-Solid
 62
     7
370
    25
100
AcDbPolyline
 90
       16
 70
   128
 43
0.0
 10
42.0583594841
 20
13.7896984065
 10
42.0606006018
 20
13.7637818415
 10
42.0672260075
 20
13.7364104153
 10
42.077946139
 20
13.7087803905
 10
42.0922924753
 20
13.6820993318
 10
42.1096380125
 20
13.6575333295
 10
42.1292246675
 20
13.6361560358
 10
42.1501964094
 20
13.618901741
 10
42.1716366725
 20
13.6065245406
 10
42.1926084144
 20
13.5995653776
 10
42.2121950694
 20
13.5983284008
 10
42.2295406066
 20
13.6028676721
 10
42.2438869429
 20
13.6129848035
 10
42.2546070744
 20
13.6282376278
 10
42.2612324801
 20
13.6479595235
 10
42.2634735978
 20
13.671288549
  0
LINE
  5
2BB
330
1F
100
AcDbEntity
  8
0
  6
SLD-Solid
 62
     7
370
    25
100
AcDbLine
 10
42.2634735978
 20
13.671288549
 30
0.0
 11
42.2634735978
 21
14.4259140077
 31
0.0
  0
LWPOLYLINE
  5
2BC
330
1F
100
AcDbEntity
  8
0
  6
SLD-Solid
 62
     7
370
    25
100
AcDbPolyline
 90
        9
 70
   128
 43
0.0
 10
42.2634735978
 20
14.4259140077
 10
42.2652114481
 20
14.4349996599
 10
42.2701604269
 20
14.4406956246
 10
42.2775670972
 20
14.442134743
 10
42.2863038604
 20
14.4390979223
 10
42.2950406237
 20
14.4320474909
 10
42.3024472939
 20
14.4220568131
 10
42.3073962727
 20
14.410646879
 10
42.309134123
 20
14.3995547476
  0
LINE
  5
2BD
330
1F
100
AcDbEntity
  8
0
  6
SLD-Solid
 62
     7
370
    25
100
AcDbLine
 10
42.309134123
 20
14.3995547476
 30
0.0
 11
42.309134123
 21
13.6449292889
 31
0.0
  0
LWPOLYLINE
  5
2BE
330
1F
100
AcDbEntity
  8
0
  6
SLD-Solid
 62
     7
370
    25
100
AcDbPolyline
 90
       16
 70
   128
 43
0.0
 10
42.309134123
 20
13.6449292889
 10
42.3113752407
 20
13.6190127239
 10
42.3180006464
 20
13.5916412977
 10
42.328720778
 20
13.5640112729
 10
42.3430671142
 20
13.5373302143
 10
42.3604126514
 20
13.512764212
 10
42.3799993064
 20
13.4913869183
 10
42.4009710483
 20
13.4741326235
 10
42.4224113114
 20
13.461755423
 10
42.4433830533
 20
13.45479626
 10
42.4629697083
 20
13.4535592833
 10
42.4803152455
 20
13.4580985545
 10
42.4946615818
 20
13.468215686
 10
42.5053817133
 20
13.4834685103
 10
42.512007119
 20
13.503190406
 10
42.5142482368
 20
13.5265194315
  0
LINE
  5
2BF
330
1F
100
AcDbEntity
  8
0
  6
SLD-Solid
 62
     7
370
    25
100
AcDbLine
 10
42.5142482368
 20
13.5265194315
 30
0.0
 11
42.5076623589
 21
14.3310067441
 31
0.0
  0
LINE
  5
2C0
330
1F
100
AcDbEntity
  8
0
  6
SLD-Solid
 62
     7
370
    25
100
AcDbLine
 10
42.5076623589
 20
14.3310067441
 30
0.0
 11
42.6999755807
 21
14.2199866843
 31
0.0
  0
LINE
  5
2C1
330
1F
100
AcDbEntity
  8
0
  6
SLD-Solid
 62
     7
370
    25
100
AcDbLine
 10
42.6999755807
 20
14.2199866843
 30
0.0
 11
42.5147850633
 21
15.1685598131
 31
0.0
  0
LWPOLYLINE
  5
2C2
330
1F
100
AcDbEntity
  8
0
  6
SLD-Solid
 62
     7
370
    25
100
AcDbPolyline
 90
        9
 70
   128
 43
0.0
 10
42.5147850633
 20
15.1685598131
 10
42.5145144395
 20
15.177177651
 10
42.5172810617
 20
15.1834220573
 10
42.5225954172
 20
15.186188177
 10
42.5295172096
 20
15.1849865862
 10
42.5368217304
 20
15.1800298885
 10
42.5432165529
 20
15.1721950981
 10
42.5475702082
 20
15.162868465
 10
42.5491123815
 20
15.1537001985
  0
LINE
  5
2C3
330
1F
100
AcDbEntity
  8
0
  6
SLD-Solid
 62
     7
370
    25
100
AcDbLine
 10
42.5491123815
 20
15.1537001985
 30
0.0
 11
42.6773296135
 21
14.5325140147
 31
0.0
  0
LWPOLYLINE
  5
2C4
330
1F
100
AcDbEntity
  8
0
  6
SLD-Solid
 62
     7
370
    25
100
AcDbPolyline
 90
       14
 70
   128
 43
0.0
 10
42.6773296135
 20
14.5325140147
 10
42.683903696
 20
14.5099898584
 10
42.6941681911
 20
14.4876962702
 10
42.7075265636
 20
14.4669288725
 10
42.7232024735
 20
14.4488945909
 10
42.740284894
 20
14.4346415123
 10
42.7577810567
 20
14.4249979739
 10
42.7746741484
 20
14.4205244229
 10
42.789982404
 20
14.4214808461
 10
42.8028161632
 20
14.4278116594
 10
42.8124295747
 20
14.4391489391
 10
42.8182639419
 20
14.4548338036
 10
42.8199801926
 20
14.4739547057
 10
42.8174785845
 20
14.4954004081
  0
LINE
  5
2C5
330
1F
100
AcDbEntity
  8
0
  6
SLD-Solid
 62
     7
370
    25
100
AcDbLine
 10
42.8174785845
 20
14.4954004081
 30
0.0
 11
42.6561722329
 21
15.2768965878
 31
0.0
  0
ARC
  5
2C6
330
1F
100
AcDbEntity
  8
0
  6
SLD-Solid
 62
     7
370
    25
100
AcDbCircle
 10
42.3136140585
 20
15.2058935635
 30
0.0
 40
0.349839294945302
100
AcDbArc
 50
11.7100453387
 51
57.0663644455
  0
LINE
  5
2C7
330
1F
100
AcDbEntity
  8
0
  6
SLD-Solid
 62
     7
370
    25
100
AcDbLine
 10
42.5038102281
 20
15.4995139807
 30
0.0
 11
42.0687974927
 21
15.7506414874
 31
0.0
  0
LWPOLYLINE
  5
2C8
330
1F
100
AcDbEntity
  8
0
  6
SLD-Solid
 62
     7
370
    25
100
AcDbPolyline
 90
        9
 70
   128
 43
0.0
 10
42.0687974927
 20
15.7506414874
 10
42.0431338315
 20
15.763031434
 10
42.0181531571
 20
15.7702409079
 10
41.9945202801
 20
15.7720780432
 10
41.972864142
 20
15.7684939483
 10
41.9537610775
 20
15.7595840068
 10
41.9377194763
 20
15.7455853388
 10
41.9251662535
 20
15.7268704907
 10
41.9164354879
 20
15.7039375208
  0
LINE
  5
2C9
330
1F
100
AcDbEntity
  8
0
  6
SLD-Solid
 62
     7
370
    25
100
AcDbLine
 10
41.9164354879
 20
15.7039375208
 30
0.0
 11
41.7551291363
 21
15.1086816904
 31
0.0
  0
LWPOLYLINE
  5
2CA
330
1F
100
AcDbEntity
  8
0
  6
SLD-Solid
 62
     7
370
    25
100
AcDbPolyline
 90
       14
 70
   128
 43
0.0
 10
41.7551291363
 20
15.1086816904
 10
41.7526275283
 20
15.0901242833
 10
41.7543437789
 20
15.0690218403
 10
41.7601781461
 20
15.0466007588
 10
41.7697915576
 20
15.0241640705
 10
41.7826253168
 20
15.0030157142
 10
41.7979335724
 20
14.9843847554
 10
41.8148266641
 20
14.9693539578
 10
41.8323228268
 20
14.9587968567
 10
41.8494052473
 20
14.9533269925
 10
41.8650811572
 20
14.9532622537
 10
41.8784395298
 20
14.9586064028
 10
41.8887040248
 20
14.9690488572
 10
41.8952781073
 20
14.9839827394
  0
LINE
  5
2CB
330
1F
100
AcDbEntity
  8
0
  6
SLD-Solid
 62
     7
370
    25
100
AcDbLine
 10
41.8952781073
 20
14.9839827394
 30
0.0
 11
42.0234953393
 21
15.4571324583
 31
0.0
  0
LWPOLYLINE
  5
2CC
330
1F
100
AcDbEntity
  8
0
  6
SLD-Solid
 62
     7
370
    25
100
AcDbPolyline
 90
        9
 70
   128
 43
0.0
 10
42.0234953393
 20
15.4571324583
 10
42.0250375126
 20
15.4645201693
 10
42.0293911679
 20
15.468820179
 10
42.0357859904
 20
15.4692716645
 10
42.0430905112
 20
15.465794742
 10
42.0500123036
 20
15.4590046015
 10
42.0553266591
 20
15.4501026575
 10
42.0580932813
 20
15.4406639771
 10
42.0578226575
 20
15.4323585948
  0
LINE
  5
2CD
330
1F
100
AcDbEntity
  8
0
  6
SLD-Solid
 62
     7
370
    25
100
AcDbLine
 10
42.0578226575
 20
15.4323585948
 30
0.0
 11
41.8726321401
 21
14.6976018863
 31
0.0
  0
LINE
  5
2CE
330
1F
100
AcDbEntity
  8
0
  6
SLD-Solid
 62
     7
370
    25
100
AcDbLine
 10
41.8726321401
 20
14.6976018863
 30
0.0
 11
42.0649453619
 21
14.5865818264
 31
0.0
  0
LINE
  5
2CF
330
1F
100
AcDbEntity
  8
0
  6
SLD-Solid
 62
     7
370
    25
100
AcDbLine
 10
42.0649453619
 20
14.5865818264
 30
0.0
 11
42.0583594841
 21
13.7896984065
 31
0.0
  0
LWPOLYLINE
  5
2D0
330
1F
100
AcDbEntity
  8
0
  6
SLD-Solid
 62
     7
370
    25
100
AcDbPolyline
 90
       40
 70
   128
 43
0.0
 10
42.1199988827
 20
15.9889008223
 10
42.1221524885
 20
15.9568517326
 10
42.1285575286
 20
15.9231461972
 10
42.1390481158
 20
15.8886571717
 10
42.1533525495
 20
15.8542779038
 10
42.1711003522
 20
15.8208987985
 10
42.1918318654
 20
15.789384357
 10
42.2150101535
 20
15.7605507869
 10
42.2400349113
 20
15.7351448624
 10
42.2662580105
 20
15.7138245837
 10
42.2930002867
 20
15.6971421347
 10
42.319569129
 20
15.6855295822
 10
42.3452764182
 20
15.6792876852
 10
42.3694563493
 20
15.6785781055
 10
42.3914826745
 20
15.6834192208
 10
42.4107849237
 20
15.6936856488
 10
42.4268631788
 20
15.7091114945
 10
42.4393010213
 20
15.7292972364
 10
42.4477763177
 20
15.7537200746
 10
42.4520695623
 20
15.7817474702
 10
42.4520695623
 20
15.8126535286
 10
42.4477763177
 20
15.845637799
 10
42.4393010213
 20
15.8798460061
 10
42.4268631788
 20
15.9143921754
 10
42.4107849237
 20
15.9483815792
 10
42.3914826745
 20
15.9809339098
 10
42.3694563493
 20
16.0112060789
 10
42.3452764182
 20
16.0384140533
 10
42.319569129
 20
16.0618531607
 10
42.2930002867
 20
16.0809163405
 10
42.2662580105
 20
16.0951098665
 10
42.2400349113
 20
16.1040661337
 10
42.2150101535
 20
16.1075531795
 10
42.1918318654
 20
16.1054806912
 10
42.1711003522
 20
16.0979023453
 10
42.1533525495
 20
16.0850144169
 10
42.1390481158
 20
16.0671506966
 10
42.1285575286
 20
16.0447738453
 10
42.1221524885
 20
16.0184634117
 10
42.1199988827
 20
15.9889008223
  0
LINE
  5
2D1
330
1F
100
AcDbEntity
  8
0
  6
SLD-Solid
 62
     7
370
    25
100
AcDbLine
 10
43.4962563083
 20
11.362180571
 30
0.0
 11
43.495902755
 21
11.361976469
 31
0.0
  0
LINE
  5
2D2
330
1F
100
AcDbEntity
  8
0
  6
SLD-Solid
 62
     7
370
    25
100
AcDbLine
 10
43.4962563083
 20
15.5787973236
 30
0.0
 11
43.495902755
 21
15.5785932215
 31
0.0
  0
LINE
  5
2D3
330
1F
100
AcDbEntity
  8
0
  6
SLD-Solid
 62
     7
370
    25
100
AcDbLine
 10
39.8447568903
 20
17.6867630683
 30
0.0
 11
39.8444033369
 21
17.6865589663
 31
0.0
  0
LWPOLYLINE
  5
2D4
330
1F
100
AcDbEntity
  8
0
  6
SLD-Solid
 62
     7
370
    25
100
AcDbPolyline
 90
       16
 70
   128
 43
0.0
 10
42.1207059895
 20
15.9893090264
 10
42.1228595953
 20
15.9572599367
 10
42.1292646354
 20
15.9235544013
 10
42.1397552226
 20
15.8890653758
 10
42.1540596562
 20
15.8546861079
 10
42.171807459
 20
15.8213070025
 10
42.1925389721
 20
15.789792561
 10
42.2157172603
 20
15.7609589909
 10
42.2407420181
 20
15.7355530664
 10
42.2669651173
 20
15.7142327877
 10
42.2937073935
 20
15.6975503388
 10
42.3202762357
 20
15.6859377863
 10
42.345983525
 20
15.6796958892
 10
42.370163456
 20
15.6789863095
 10
42.3921897813
 20
15.6838274248
 10
42.404596788
 20
15.6896165205
  0
ARC
  5
2D5
330
1F
100
AcDbEntity
  8
0
  6
SLD-Solid
 62
     7
370
    25
100
AcDbCircle
 10
42.2398521929
 20
16.0002641757
 30
0.0
 40
0.1196487906276129
100
AcDbArc
 50
126.0587702918
 51
185.2534101016
  0
LINE
  5
2D6
330
1F
100
AcDbEntity
  8
0
  6
SLD-Solid
 62
     7
370
    25
100
AcDbLine
 10
41.8733392469
 20
14.6980100903
 30
0.0
 11
42.0656524687
 21
14.5869900305
 31
0.0
  0
LINE
  5
2D7
330
1F
100
AcDbEntity
  8
0
  6
SLD-Solid
 62
     7
370
    25
100
AcDbLine
 10
42.0585297643
 20
15.4327667989
 30
0.0
 11
41.8733392469
 21
14.6980100903
 31
0.0
  0
LWPOLYLINE
  5
2D8
330
1F
100
AcDbEntity
  8
0
  6
SLD-Solid
 62
     7
370
    25
100
AcDbPolyline
 90
        8
 70
   128
 43
0.0
 10
42.0293091836
 20
15.4688277607
 10
42.0300982747
 20
15.4692283831
 10
42.0364930972
 20
15.4696798686
 10
42.043797618
 20
15.4662029461
 10
42.0507194104
 20
15.4594128055
 10
42.0560337659
 20
15.4505108616
 10
42.0588003881
 20
15.4410721812
 10
42.0585297643
 20
15.4327667989
  0
LWPOLYLINE
  5
2D9
330
1F
100
AcDbEntity
  8
0
  6
SLD-Solid
 62
     7
370
    25
100
AcDbPolyline
 90
       12
 70
   128
 43
0.0
 10
41.7558362431
 20
15.1090898945
 10
41.753334635
 20
15.0905324874
 10
41.7550508857
 20
15.0694300444
 10
41.7608852529
 20
15.0470089629
 10
41.7704986644
 20
15.0245722746
 10
41.7833324236
 20
15.0034239182
 10
41.7986406792
 20
14.9847929594
 10
41.8155337709
 20
14.9697621619
 10
41.8330299336
 20
14.9592050608
 10
41.8501123541
 20
14.9537351965
 10
41.865788264
 20
14.9536704578
 10
41.8772387189
 20
14.957828098
  0
LINE
  5
2DA
330
1F
100
AcDbEntity
  8
0
  6
SLD-Solid
 62
     7
370
    25
100
AcDbLine
 10
41.9171425947
 20
15.7043457249
 30
0.0
 11
41.7558362431
 21
15.1090898945
 31
0.0
  0
ARC
  5
2DB
330
1F
100
AcDbEntity
  8
0
  6
SLD-Solid
 62
     7
370
    25
100
AcDbCircle
 10
42.0049654453
 20
15.6856262309
 30
0.0
 40
0.0897957267862394
100
AcDbArc
 50
121.608169748
 51
167.9674388941
  0
LWPOLYLINE
  5
2DC
330
1F
100
AcDbEntity
  8
0
  6
SLD-Solid
 62
     7
370
    25
100
AcDbPolyline
 90
       10
 70
   128
 43
0.0
 10
42.6780367203
 20
14.5329222187
 10
42.6846108028
 20
14.5103980624
 10
42.6948752978
 20
14.4881044743
 10
42.7082336704
 20
14.4673370766
 10
42.7239095803
 20
14.449302795
 10
42.7409920008
 20
14.4350497164
 10
42.7584881635
 20
14.4254061779
 10
42.7753812552
 20
14.420932627
 10
42.7906895108
 20
14.4218890501
 10
42.7994391962
 20
14.4254530944
  0
LINE
  5
2DD
330
1F
100
AcDbEntity
  8
0
  6
SLD-Solid
 62
     7
370
    25
100
AcDbLine
 10
42.5498194883
 20
15.1541084026
 30
0.0
 11
42.6780367203
 21
14.5329222187
 31
0.0
  0
LWPOLYLINE
  5
2DE
330
1F
100
AcDbEntity
  8
0
  6
SLD-Solid
 62
     7
370
    25
100
AcDbPolyline
 90
        7
 70
   128
 43
0.0
 10
42.5200620811
 20
15.1855221433
 10
42.523302524
 20
15.1865963811
 10
42.5302243164
 20
15.1853947903
 10
42.5375288372
 20
15.1804380926
 10
42.5439236597
 20
15.1726033022
 10
42.548277315
 20
15.1632766691
 10
42.5498194883
 20
15.1541084026
  0
LINE
  5
2DF
330
1F
100
AcDbEntity
  8
0
  6
SLD-Solid
 62
     7
370
    25
100
AcDbLine
 10
42.5083694657
 20
14.3314149482
 30
0.0
 11
42.6997959474
 21
14.2209067925
 31
0.0
  0
LWPOLYLINE
  5
2E0
330
1F
100
AcDbEntity
  8
0
  6
SLD-Solid
 62
     7
370
    25
100
AcDbPolyline
 90
       13
 70
   128
 43
0.0
 10
42.3098412298
 20
13.645337493
 10
42.3120823475
 20
13.619420928
 10
42.3187077532
 20
13.5920495018
 10
42.3294278847
 20
13.564419477
 10
42.343774221
 20
13.5377384183
 10
42.3611197582
 20
13.513172416
 10
42.3807064132
 20
13.4917951223
 10
42.4016781551
 20
13.4745408275
 10
42.4231184182
 20
13.4621636271
 10
42.4440901601
 20
13.4552044641
 10
42.4636768151
 20
13.4539674873
 10
42.4810223523
 20
13.4585067586
 10
42.4849111836
 20
13.4605229324
  0
LINE
  5
2E1
330
1F
100
AcDbEntity
  8
0
  6
SLD-Solid
 62
     7
370
    25
100
AcDbLine
 10
42.3098412298
 20
14.3999629517
 30
0.0
 11
42.3098412298
 21
13.645337493
 31
0.0
  0
LWPOLYLINE
  5
2E2
330
1F
100
AcDbEntity
  8
0
  6
SLD-Solid
 62
     7
370
    25
100
AcDbPolyline
 90
        7
 70
   128
 43
0.0
 10
42.2708688456
 20
14.4411045862
 10
42.2782742039
 20
14.4425429471
 10
42.2870109672
 20
14.4395061263
 10
42.2957477304
 20
14.4324556949
 10
42.3031544007
 20
14.4224650171
 10
42.3081033795
 20
14.411055083
 10
42.3098412298
 20
14.3999629517
  0
LWPOLYLINE
  5
2E3
330
1F
100
AcDbEntity
  8
0
  6
SLD-Solid
 62
     7
370
    25
100
AcDbPolyline
 90
       13
 70
   128
 43
0.0
 10
42.0590665908
 20
13.7901066105
 10
42.0613077086
 20
13.7641900455
 10
42.0679331143
 20
13.7368186193
 10
42.0786532458
 20
13.7091885945
 10
42.0929995821
 20
13.6825075359
 10
42.1103451193
 20
13.6579415336
 10
42.1299317743
 20
13.6365642399
 10
42.1509035162
 20
13.6193099451
 10
42.1723437793
 20
13.6069327447
 10
42.1933155212
 20
13.5999735816
 10
42.2129021762
 20
13.5987366049
 10
42.2302477134
 20
13.6032758762
 10
42.2341365447
 20
13.60529205
  0
LINE
  5
2E4
330
1F
100
AcDbEntity
  8
0
  6
SLD-Solid
 62
     7
370
    25
100
AcDbLine
 10
42.0656524687
 20
14.5869900305
 30
0.0
 11
42.0590665908
 21
13.7901066105
 31
0.0
  0
LINE
  5
2E5
330
1F
100
AcDbEntity
  8
0
  6
SLD-Solid
 62
     7
370
    25
100
AcDbLine
 10
42.5498194883
 20
15.1541084026
 30
0.0
 11
42.5491123815
 21
15.1537001985
 31
0.0
  0
LINE
  5
2E6
330
1F
100
AcDbEntity
  8
0
  6
SLD-Solid
 62
     7
370
    25
100
AcDbLine
 10
42.6780367203
 20
14.5329222187
 30
0.0
 11
42.6773296135
 21
14.5325140147
 31
0.0
  0
LINE
  5
2E7
330
1F
100
AcDbEntity
  8
0
  6
SLD-Solid
 62
     7
370
    25
100
AcDbLine
 10
41.9171425947
 20
15.7043457249
 30
0.0
 11
41.9164354879
 21
15.7039375208
 31
0.0
  0
LINE
  5
2E8
330
1F
100
AcDbEntity
  8
0
  6
SLD-Solid
 62
     7
370
    25
100
AcDbLine
 10
41.7558362431
 20
15.1090898945
 30
0.0
 11
41.7551291363
 21
15.1086816904
 31
0.0
  0
LINE
  5
2E9
330
1F
100
AcDbEntity
  8
0
  6
SLD-Solid
 62
     7
370
    25
100
AcDbLine
 10
42.0585297643
 20
15.4327667989
 30
0.0
 11
42.0578226575
 21
15.4323585948
 31
0.0
  0
LINE
  5
2EA
330
1F
100
AcDbEntity
  8
0
  6
SLD-Solid
 62
     7
370
    25
100
AcDbLine
 10
41.8733392469
 20
14.6980100903
 30
0.0
 11
41.8726321401
 21
14.6976018863
 31
0.0
  0
LINE
  5
2EB
330
1F
100
AcDbEntity
  8
0
  6
SLD-Solid
 62
     7
370
    25
100
AcDbLine
 10
42.5083694657
 20
14.3314149482
 30
0.0
 11
42.5076623589
 21
14.3310067441
 31
0.0
  0
LWPOLYLINE
  5
2EC
330
1F
100
AcDbEntity
  8
0
  6
SLD-Solid
 62
     7
370
    25
100
AcDbPolyline
 90
       22
 70
   128
 43
0.0
 10
40.9371235174
 20
16.8083824801
 10
40.9302282749
 20
16.8039051477
 10
40.9141500199
 20
16.7884793021
 10
40.9017121773
 20
16.7682935601
 10
40.8932368809
 20
16.7438707219
 10
40.8889436363
 20
16.7158433263
 10
40.8889436363
 20
16.6849372679
 10
40.8932368809
 20
16.6519529975
 10
40.9017121773
 20
16.6177447904
 10
40.9141500199
 20
16.5831986211
 10
40.9302282749
 20
16.5492092173
 10
40.9495305241
 20
16.5166568867
 10
40.9715568494
 20
16.4863847176
 10
40.9957367804
 20
16.4591767432
 10
41.0214440697
 20
16.4357376358
 10
41.048012912
 20
16.416674456
 10
41.0747551881
 20
16.40248093
 10
41.1009782874
 20
16.3935246628
 10
41.1260030451
 20
16.390037617
 10
41.1491813333
 20
16.3921101053
 10
41.1699128464
 20
16.3996884512
 10
41.172295159
 20
16.4010091085
  0
LWPOLYLINE
  5
2ED
330
1F
100
AcDbEntity
  8
0
  6
SLD-Solid
 62
     7
370
    25
100
AcDbPolyline
 90
       11
 70
   128
 43
0.0
 10
41.3353486816
 20
15.2721414514
 10
41.3374581499
 20
15.2508619423
 10
41.3436639602
 20
15.2283835808
 10
41.3536054533
 20
15.2060127273
 10
41.3667048657
 20
15.1850494947
 10
41.3822009073
 20
15.1667121898
 10
41.3991930044
 20
15.1520665101
 10
41.4166936382
 20
15.1419636093
 10
41.4336857353
 20
15.1369906313
 10
41.4491817769
 20
15.1374365874
 10
41.4592713117
 20
15.1413211369
  0
LINE
  5
2EE
330
1F
100
AcDbEntity
  8
0
  6
SLD-Solid
 62
     7
370
    25
100
AcDbLine
 10
41.3353486816
 20
15.855207476
 30
0.0
 11
41.3353486816
 21
15.2721414514
 31
0.0
  0
LWPOLYLINE
  5
2EF
330
1F
100
AcDbEntity
  8
0
  6
SLD-Solid
 62
     7
370
    25
100
AcDbPolyline
 90
        7
 70
   128
 43
0.0
 10
41.295464253
 20
15.8973119204
 10
41.303042914
 20
15.8987839423
 10
41.3119841378
 20
15.8956760529
 10
41.3209253616
 20
15.888460625
 10
41.3285053652
 20
15.8782361421
 10
41.3335701616
 20
15.866559189
 10
41.3353486816
 20
15.855207476
  0
LWPOLYLINE
  5
2F0
330
1F
100
AcDbEntity
  8
0
  6
SLD-Solid
 62
     7
370
    25
100
AcDbPolyline
 90
       13
 70
   128
 43
0.0
 10
41.0835054802
 20
14.3532860521
 10
41.0857465979
 20
14.3273694871
 10
41.0923720036
 20
14.2999980609
 10
41.1030921352
 20
14.2723680361
 10
41.1174384714
 20
14.2456869774
 10
41.1347840086
 20
14.2211209752
 10
41.1543706636
 20
14.1997436815
 10
41.1753424055
 20
14.1824893867
 10
41.1967826686
 20
14.1701121862
 10
41.2177544105
 20
14.1631530232
 10
41.2373410655
 20
14.1619160464
 10
41.2546866027
 20
14.1664553177
 10
41.258575434
 20
14.1684714916
  0
LINE
  5
2F1
330
1F
100
AcDbEntity
  8
0
  6
SLD-Solid
 62
     7
370
    25
100
AcDbLine
 10
41.0835054802
 20
15.3601919965
 30
0.0
 11
41.0835054802
 21
14.3532860521
 31
0.0
  0
LWPOLYLINE
  5
2F2
330
1F
100
AcDbEntity
  8
0
  6
SLD-Solid
 62
     7
370
    25
100
AcDbPolyline
 90
        7
 70
   128
 43
0.0
 10
41.0343490457
 20
15.4120845379
 10
41.0436895318
 20
15.4138987634
 10
41.0547093382
 20
15.4100683773
 10
41.0657291447
 20
15.4011755657
 10
41.0750712855
 20
15.3885741786
 10
41.0813135044
 20
15.374182663
 10
41.0835054802
 20
15.3601919965
  0
LWPOLYLINE
  5
2F3
330
1F
100
AcDbEntity
  8
0
  6
SLD-Solid
 62
     7
370
    25
100
AcDbPolyline
 90
       13
 70
   128
 43
0.0
 10
40.8207990825
 20
14.5049432274
 10
40.8230402003
 20
14.4790266624
 10
40.8296656059
 20
14.4516552362
 10
40.8403857375
 20
14.4240252114
 10
40.8547320737
 20
14.3973441527
 10
40.872077611
 20
14.3727781504
 10
40.8916642659
 20
14.3514008567
 10
40.9126360078
 20
14.3341465619
 10
40.9340762709
 20
14.3217693615
 10
40.9550480129
 20
14.3148101985
 10
40.9746346678
 20
14.3135732217
 10
40.991980205
 20
14.318112493
 10
40.9958690364
 20
14.3201286668
  0
LINE
  5
2F4
330
1F
100
AcDbEntity
  8
0
  6
SLD-Solid
 62
     7
370
    25
100
AcDbLine
 10
40.8207990825
 20
16.1522506368
 30
0.0
 11
40.8207990825
 21
14.5049432274
 31
0.0
  0
LWPOLYLINE
  5
2F5
330
1F
100
AcDbEntity
  8
0
  6
SLD-Solid
 62
     7
370
    25
100
AcDbPolyline
 90
        7
 70
   128
 43
0.0
 10
40.7809146539
 20
16.1943550812
 10
40.7884933148
 20
16.1958271031
 10
40.7974345387
 20
16.1927192137
 10
40.8063757625
 20
16.1855037858
 10
40.8139557661
 20
16.1752793029
 10
40.8190205625
 20
16.1636023498
 10
40.8207990825
 20
16.1522506368
  0
LWPOLYLINE
  5
2F6
330
1F
100
AcDbEntity
  8
0
  6
SLD-Solid
 62
     7
370
    25
100
AcDbPolyline
 90
       11
 70
   128
 43
0.0
 10
40.6288807155
 20
15.6799767272
 10
40.6309901838
 20
15.6586972182
 10
40.637195994
 20
15.6362188566
 10
40.6471374871
 20
15.6138480032
 10
40.6602368995
 20
15.5928847706
 10
40.6757329411
 20
15.5745474657
 10
40.6927250383
 20
15.559901786
 10
40.710225672
 20
15.5497988852
 10
40.7272177691
 20
15.5448259071
 10
40.7427138107
 20
15.5452718632
 10
40.7528033455
 20
15.5491564128
  0
LINE
  5
2F7
330
1F
100
AcDbEntity
  8
0
  6
SLD-Solid
 62
     7
370
    25
100
AcDbLine
 10
40.6288807155
 20
16.3490304837
 30
0.0
 11
40.6288807155
 21
15.6799767272
 31
0.0
  0
ARC
  5
2F8
330
1F
100
AcDbEntity
  8
0
  6
SLD-Solid
 62
     7
370
    25
100
AcDbCircle
 10
40.7707597825
 20
16.363761011
 30
0.0
 40
0.1426417123044026
100
AcDbArc
 50
125.3847106268
 51
185.9274697666
  0
LINE
  5
2F9
330
1F
100
AcDbEntity
  8
0
  6
SLD-Solid
 62
     7
370
    25
100
AcDbLine
 10
42.3098412298
 20
14.3999629517
 30
0.0
 11
42.309134123
 21
14.3995547476
 31
0.0
  0
LINE
  5
2FA
330
1F
100
AcDbEntity
  8
0
  6
SLD-Solid
 62
     7
370
    25
100
AcDbLine
 10
42.3098412298
 20
13.645337493
 30
0.0
 11
42.309134123
 21
13.6449292889
 31
0.0
  0
LINE
  5
2FB
330
1F
100
AcDbEntity
  8
0
  6
SLD-Solid
 62
     7
370
    25
100
AcDbLine
 10
42.9773344142
 20
12.6062444214
 30
0.0
 11
43.05601604
 21
12.836646178
 31
0.0
  0
LINE
  5
2FC
330
1F
100
AcDbEntity
  8
0
  6
SLD-Solid
 62
     7
370
    25
100
AcDbLine
 10
43.1769733886
 20
12.3712048972
 30
0.0
 11
43.1150764638
 21
12.4069372313
 31
0.0
  0
LINE
  5
2FD
330
1F
100
AcDbEntity
  8
0
  6
SLD-Solid
 62
     7
370
    25
100
AcDbLine
 10
43.1150764638
 20
12.4069372313
 30
0.0
 11
43.0784597494
 21
12.6782074801
 31
0.0
  0
LINE
  5
2FE
330
1F
100
AcDbEntity
  8
0
  6
SLD-Solid
 62
     7
370
    25
100
AcDbLine
 10
43.0069127214
 20
12.4693788307
 30
0.0
 11
42.9471067325
 21
12.5039040932
 31
0.0
  0
LINE
  5
2FF
330
1F
100
AcDbEntity
  8
0
  6
SLD-Solid
 62
     7
370
    25
100
AcDbLine
 10
42.9471067325
 20
12.5039040932
 30
0.0
 11
42.876209079
 21
12.7949643068
 31
0.0
  0
LINE
  5
300
330
1F
100
AcDbEntity
  8
0
  6
SLD-Solid
 62
     7
370
    25
100
AcDbLine
 10
42.8393671552
 20
12.5661008273
 30
0.0
 11
42.7772821207
 21
12.6019417548
 31
0.0
  0
LINE
  5
301
330
1F
100
AcDbEntity
  8
0
  6
SLD-Solid
 62
     7
370
    25
100
AcDbLine
 10
42.7772821207
 20
12.6019417548
 30
0.0
 11
42.835135916
 21
12.9641575594
 31
0.0
  0
LINE
  5
302
330
1F
100
AcDbEntity
  8
0
  6
SLD-Solid
 62
     7
370
    25
100
AcDbLine
 10
41.3353486816
 20
15.855207476
 30
0.0
 11
41.3346415749
 21
15.8547992719
 31
0.0
  0
LINE
  5
303
330
1F
100
AcDbEntity
  8
0
  6
SLD-Solid
 62
     7
370
    25
100
AcDbLine
 10
41.3353486816
 20
15.2721414514
 30
0.0
 11
41.3346415749
 21
15.2717332473
 31
0.0
  0
LINE
  5
304
330
1F
100
AcDbEntity
  8
0
  6
SLD-Solid
 62
     7
370
    25
100
AcDbLine
 10
42.0656524687
 20
14.5869900305
 30
0.0
 11
42.0649453619
 21
14.5865818264
 31
0.0
  0
LINE
  5
305
330
1F
100
AcDbEntity
  8
0
  6
SLD-Solid
 62
     7
370
    25
100
AcDbLine
 10
42.0590665908
 20
13.7901066105
 30
0.0
 11
42.0583594841
 21
13.7896984065
 31
0.0
  0
LINE
  5
306
330
1F
100
AcDbEntity
  8
0
  6
SLD-Solid
 62
     7
370
    25
100
AcDbLine
 10
42.9773344142
 20
12.6062444214
 30
0.0
 11
42.9769808608
 21
12.6060403193
 31
0.0
  0
LINE
  5
307
330
1F
100
AcDbEntity
  8
0
  6
SLD-Solid
 62
     7
370
    25
100
AcDbLine
 10
43.1150764638
 20
12.4069372313
 30
0.0
 11
43.1147229104
 21
12.4067331293
 31
0.0
  0
LINE
  5
308
330
1F
100
AcDbEntity
  8
0
  6
SLD-Solid
 62
     7
370
    25
100
AcDbLine
 10
43.0784597494
 20
12.6782074801
 30
0.0
 11
43.078106196
 21
12.678003378
 31
0.0
  0
LINE
  5
309
330
1F
100
AcDbEntity
  8
0
  6
SLD-Solid
 62
     7
370
    25
100
AcDbLine
 10
40.6288807155
 20
16.3490304837
 30
0.0
 11
40.6281736087
 21
16.3486222796
 31
0.0
  0
LINE
  5
30A
330
1F
100
AcDbEntity
  8
0
  6
SLD-Solid
 62
     7
370
    25
100
AcDbLine
 10
42.7772821207
 20
12.6019417548
 30
0.0
 11
42.7769285673
 21
12.6017376528
 31
0.0
  0
LINE
  5
30B
330
1F
100
AcDbEntity
  8
0
  6
SLD-Solid
 62
     7
370
    25
100
AcDbLine
 10
42.9471067325
 20
12.5039040932
 30
0.0
 11
42.9467531791
 21
12.5036999912
 31
0.0
  0
LINE
  5
30C
330
1F
100
AcDbEntity
  8
0
  6
SLD-Solid
 62
     7
370
    25
100
AcDbLine
 10
42.876209079
 20
12.7949643068
 30
0.0
 11
42.8758555256
 21
12.7947602048
 31
0.0
  0
SPLINE
  5
30D
330
1F
100
AcDbEntity
  8
0
  6
SLD-Solid
 62
     7
370
    25
100
AcDbSpline
210
0.0
220
0.0
230
1.0
 70
     8
 71
     3
 72
    11
 73
     7
 74
     0
 42
0.00000001
 43
0.00000001
 40
0.0
 40
0.0
 40
0.0
 40
0.0
 40
0.1227171342471291
 40
0.4151479084260075
 40
0.7074759587168812
 40
0.9999999999999999
 40
0.9999999999999999
 40
0.9999999999999999
 40
0.9999999999999999
 10
42.69501406475398
 20
12.70116265925214
 30
0.0
 10
42.69115237441641
 20
12.69846676466601
 30
0.0
 10
42.67808840680939
 20
12.68934664459776
 30
0.0
 10
42.6496568369876
 20
12.68504740903318
 30
0.0
 10
42.61082580195349
 20
12.69050426639527
 30
0.0
 10
42.5833478083812
 20
12.7046180085112
 30
0.0
 10
42.56960420749147
 20
12.7116772444118
 30
0.0
  0
SPLINE
  5
30E
330
1F
100
AcDbEntity
  8
0
  6
SLD-Solid
 62
     7
370
    25
100
AcDbSpline
210
0.0
220
0.0
230
1.0
 70
     8
 71
     3
 72
    23
 73
    19
 74
     0
 42
0.00000001
 43
0.00000001
 40
0.0
 40
0.0
 40
0.0
 40
0.0
 40
0.0667486513092659
 40
0.1311519760901756
 40
0.1937321970570955
 40
0.2553255433785986
 40
0.3163881857773854
 40
0.3780268629068868
 40
0.4404056792054013
 40
0.5045574293240809
 40
0.5686582873620151
 40
0.6309861790900101
 40
0.692288134873299
 40
0.7526154469796394
 40
0.813199538435563
 40
0.8740161248607817
 40
0.9361583555105316
 40
1.0
 40
1.0
 40
1.0
 40
1.0
 10
42.56960420749147
 20
12.7116772444118
 30
0.0
 10
42.56329688346975
 20
12.71548344430986
 30
0.0
 10
42.55090385390193
 20
12.72296210684812
 30
0.0
 10
42.53276659965056
 20
12.73651664509235
 30
0.0
 10
42.51538954288746
 20
12.75119397490504
 30
0.0
 10
42.49891866089516
 20
12.76763597290035
 30
0.0
 10
42.48318621181877
 20
12.78538565572072
 30
0.0
 10
42.46830778658185
 20
12.80464937468131
 30
0.0
 10
42.4542883853111
 20
12.82540660269115
 30
0.0
 10
42.44120842559042
 20
12.84728658592673
 30
0.0
 10
42.4293579504069
 20
12.86980687951121
 30
0.0
 10
42.41889758157796
 20
12.89240916389944
 30
0.0
 10
42.41007402842593
 20
12.91482448517256
 30
0.0
 10
42.40288696811421
 20
12.93706113657307
 30
0.0
 10
42.39722097847456
 20
12.95907333955916
 30
0.0
 10
42.39322426655486
 20
12.98088967592747
 30
0.0
 10
42.3908633134503
 20
13.00248270586431
 30
0.0
 10
42.39053444639174
 20
13.01641323200519
 30
0.0
 10
42.39036779479594
 20
13.0234724504683
 30
0.0
  0
SPLINE
  5
30F
330
1F
100
AcDbEntity
  8
0
  6
SLD-Solid
 62
     7
370
    25
100
AcDbSpline
210
0.0
220
0.0
230
1.0
 70
     8
 71
     3
 72
    11
 73
     7
 74
     0
 42
0.00000001
 43
0.00000001
 40
0.0
 40
0.0
 40
0.0
 40
0.0
 40
0.2757375919072261
 40
0.5514241603980539
 40
0.8271502541529189
 40
1.0
 40
1.0
 40
1.0
 40
1.0
 10
42.39036779479594
 20
13.0234724504683
 30
0.0
 10
42.39110849815303
 20
13.03827446320762
 30
0.0
 10
42.39258976780496
 20
13.06787574967177
 30
0.0
 10
42.40589020364043
 20
13.10349679307473
 30
0.0
 10
42.42308774106036
 20
13.12875524521058
 30
0.0
 10
42.43854545231547
 20
13.13701658242601
 30
0.0
 10
42.44450177279895
 20
13.14019992381888
 30
0.0
  0
SPLINE
  5
310
330
1F
100
AcDbEntity
  8
0
  6
SLD-Solid
 62
     7
370
    25
100
AcDbSpline
210
0.0
220
0.0
230
1.0
 70
     8
 71
     3
 72
    23
 73
    19
 74
     0
 42
0.00000001
 43
0.00000001
 40
0.0
 40
0.0
 40
0.0
 40
0.0
 40
0.0659391240576587
 40
0.129791109379535
 40
0.1921752363053295
 40
0.2536170442157556
 40
0.3147191079962369
 40
0.3762822754113757
 40
0.4389729923739137
 40
0.5031747018386418
 40
0.5673294646239473
 40
0.6296509938060333
 40
0.6906498673030982
 40
0.7512376127977869
 40
0.8117541138236064
 40
0.8727877774488533
 40
0.9355396326682304
 40
1.0
 40
1.0
 40
1.0
 40
1.0
 10
42.68495029293256
 20
12.85301693715369
 30
0.0
 10
42.68484180013226
 20
12.85779225821235
 30
0.0
 10
42.68462824860102
 20
12.86719174943558
 30
0.0
 10
42.68302638640949
 20
12.88175331943563
 30
0.0
 10
42.68033738204593
 20
12.8963720871626
 30
0.0
 10
42.67661374555797
 20
12.91103907808508
 30
0.0
 10
42.67185885894428
 20
12.92576461149655
 30
0.0
 10
42.6659789592755
 20
12.94056068472753
 30
0.0
 10
42.6589946783917
 20
12.95540436463403
 30
0.0
 10
42.65106675908373
 20
12.97012917850201
 30
0.0
 10
42.64243770617708
 20
12.98443610013708
 30
0.0
 10
42.63317355567589
 20
12.99787699785295
 30
0.0
 10
42.62353352890953
 20
13.01047446792161
 30
0.0
 10
42.61329643662989
 20
13.02189311453854
 30
0.0
 10
42.60267172117564
 20
13.032415560391
 30
0.0
 10
42.59159454996868
 20
13.04204234490028
 30
0.0
 10
42.58002296754468
 20
13.05052996794503
 30
0.0
 10
42.57215058075997
 20
13.05532870195891
 30
0.0
 10
42.5681615226825
 20
13.05776029344484
 30
0.0
  0
SPLINE
  5
311
330
1F
100
AcDbEntity
  8
0
  6
SLD-Solid
 62
     7
370
    25
100
AcDbSpline
210
0.0
220
0.0
230
1.0
 70
     8
 71
     3
 72
    10
 73
     6
 74
     0
 42
0.00000001
 43
0.00000001
 40
0.0
 40
0.0
 40
0.0
 40
0.0
 40
0.3719971519759701
 40
0.7436408049059609
 40
0.9999999999999999
 40
0.9999999999999999
 40
0.9999999999999999
 40
0.9999999999999999
 10
42.5681615226825
 20
13.05776029344484
 30
0.0
 10
42.55659651875488
 20
13.06343376215347
 30
0.0
 10
42.53347750081672
 20
13.07477530822362
 30
0.0
 10
42.50418220466914
 20
13.07634009160149
 30
0.0
 10
42.49055862145874
 20
13.06794037830722
 30
0.0
 10
42.48499729186111
 20
13.06451150255305
 30
0.0
  0
SPLINE
  5
312
330
1F
100
AcDbEntity
  8
0
  6
SLD-Solid
 62
     7
370
    25
100
AcDbSpline
210
0.0
220
0.0
230
1.0
 70
     8
 71
     3
 72
    11
 73
     7
 74
     0
 42
0.00000001
 43
0.00000001
 40
0.0
 40
0.0
 40
0.0
 40
0.0
 40
0.1169225884295875
 40
0.4112345063482211
 40
0.7055114754514241
 40
0.9999999999999999
 40
0.9999999999999999
 40
0.9999999999999999
 40
0.9999999999999999
 10
42.65145124657294
 20
12.7769677868359
 30
0.0
 10
42.65414701259569
 20
12.77814210164639
 30
0.0
 10
42.66362843123758
 20
12.78227234523641
 30
0.0
 10
42.67451445186065
 20
12.79810629491664
 30
0.0
 10
42.68354773062522
 20
12.82251650477481
 30
0.0
 10
42.6844826601837
 20
12.84284769122413
 30
0.0
 10
42.68495029293256
 20
12.85301693715369
 30
0.0
  0
LINE
  5
313
330
1F
100
AcDbEntity
  8
0
  6
SLD-Solid
 62
     7
370
    25
100
AcDbLine
 10
42.6849502929
 20
12.8530169372
 30
0.0
 11
42.6845967395
 21
12.8528128351
 31
0.0
  0
SPLINE
  5
314
330
1F
100
AcDbEntity
  8
0
  6
SLD-Solid
 62
     7
370
    25
100
AcDbSpline
210
0.0
220
0.0
230
1.0
 70
     8
 71
     3
 72
    23
 73
    19
 74
     0
 42
0.00000001
 43
0.00000001
 40
0.0
 40
0.0
 40
0.0
 40
0.0
 40
0.0659391240576587
 40
0.129791109379535
 40
0.1921752363053295
 40
0.2536170442157556
 40
0.3147191079962369
 40
0.3762822754113757
 40
0.4389729923739137
 40
0.5031747018386418
 40
0.5673294646239473
 40
0.6296509938060333
 40
0.6906498673030982
 40
0.7512376127977869
 40
0.8117541138236064
 40
0.8727877774488533
 40
0.9355396326682304
 40
1.0
 40
1.0
 40
1.0
 40
1.0
 10
42.68459673954197
 20
12.85281283512573
 30
0.0
 10
42.68448824674167
 20
12.85758815618439
 30
0.0
 10
42.68427469521042
 20
12.86698764740762
 30
0.0
 10
42.6826728330189
 20
12.88154921740767
 30
0.0
 10
42.67998382865533
 20
12.89616798513464
 30
0.0
 10
42.67626019216737
 20
12.91083497605713
 30
0.0
 10
42.67150530555368
 20
12.92556050946859
 30
0.0
 10
42.66562540588491
 20
12.94035658269957
 30
0.0
 10
42.65864112500112
 20
12.95520026260608
 30
0.0
 10
42.65071320569314
 20
12.96992507647405
 30
0.0
 10
42.64208415278649
 20
12.98423199810912
 30
0.0
 10
42.63282000228529
 20
12.997672895825
 30
0.0
 10
42.62317997551893
 20
13.01027036589366
 30
0.0
 10
42.61294288323929
 20
13.02168901251058
 30
0.0
 10
42.60231816778504
 20
13.03221145836304
 30
0.0
 10
42.59124099657809
 20
13.04183824287233
 30
0.0
 10
42.57966941415409
 20
13.05032586591707
 30
0.0
 10
42.57179702736938
 20
13.05512459993095
 30
0.0
 10
42.56780796929191
 20
13.05755619141688
 30
0.0
  0
LINE
  5
315
330
1F
100
AcDbEntity
  8
0
  6
SLD-Solid
 62
     7
370
    25
100
AcDbLine
 10
42.5681615227
 20
13.0577602934
 30
0.0
 11
42.5678079693
 21
13.0575561914
 31
0.0
  0
SPLINE
  5
316
330
1F
100
AcDbEntity
  8
0
  6
SLD-Solid
 62
     7
370
    25
100
AcDbSpline
210
0.0
220
0.0
230
1.0
 70
     8
 71
     3
 72
    10
 73
     6
 74
     0
 42
0.00000001
 43
0.00000001
 40
0.0
 40
0.0
 40
0.0
 40
0.0
 40
0.3746783136825433
 40
0.7488904403558928
 40
0.9999999999999999
 40
0.9999999999999999
 40
0.9999999999999999
 40
0.9999999999999999
 10
42.68459673954197
 20
12.85281283512573
 30
0.0
 10
42.6837843847492
 20
12.84005792657828
 30
0.0
 10
42.68216068592204
 20
12.81456397955766
 30
0.0
 10
42.66967079297747
 20
12.78831110302992
 30
0.0
 10
42.65634112198128
 20
12.78008749275604
 30
0.0
 10
42.65098834454322
 20
12.77678514901882
 30
0.0
  0
SPLINE
  5
317
330
1F
100
AcDbEntity
  8
0
  6
SLD-Solid
 62
     7
370
    25
100
AcDbSpline
210
0.0
220
0.0
230
1.0
 70
     8
 71
     3
 72
    11
 73
     7
 74
     0
 42
0.00000001
 43
0.00000001
 40
0.0
 40
0.0
 40
0.0
 40
0.0
 40
0.0018502178993654
 40
0.3345637900839783
 40
0.6672005533260388
 40
1.0
 40
1.0
 40
1.0
 40
1.0
 10
42.6436337613796
 20
12.77134097868941
 30
0.0
 10
42.6436008027373
 20
12.77131652562743
 30
0.0
 10
42.63764108940249
 20
12.7668948252978
 30
0.0
 10
42.62140953080714
 20
12.76575450708565
 30
0.0
 10
42.59621104339531
 20
12.76870493900614
 30
0.0
 10
42.57810152776203
 20
12.77801625063705
 30
0.0
 10
42.56904455627103
 20
12.78267304465035
 30
0.0
  0
SPLINE
  5
318
330
1F
100
AcDbEntity
  8
0
  6
SLD-Solid
 62
     7
370
    25
100
AcDbSpline
210
0.0
220
0.0
230
1.0
 70
     8
 71
     3
 72
    15
 73
    11
 74
     0
 42
0.00000001
 43
0.00000001
 40
0.0
 40
0.0
 40
0.0
 40
0.0
 40
0.1279910255623733
 40
0.2530983915017062
 40
0.3761840584327903
 40
0.4989363124701256
 40
0.6215258806257299
 40
0.7457068938016911
 40
0.8715753502968727
 40
1.0
 40
1.0
 40
1.0
 40
1.0
 10
42.49375014909805
 20
12.85660283406659
 30
0.0
 10
42.49650952625309
 20
12.85257339883273
 30
0.0
 10
42.50196611132554
 20
12.8446053122277
 30
0.0
 10
42.51067600909458
 20
12.83340185388952
 30
0.0
 10
42.51964548873809
 20
12.8229309999159
 30
0.0
 10
42.52894223622499
 20
12.81328751450149
 30
0.0
 10
42.53854661730303
 20
12.80437913161516
 30
0.0
 10
42.5484573149171
 20
12.796302129615
 30
0.0
 10
42.55866028644719
 20
12.78893368782586
 30
0.0
 10
42.56556001395757
 20
12.78477386410368
 30
0.0
 10
42.56904455627103
 20
12.78267304465035
 30
0.0
  0
SPLINE
  5
319
330
1F
100
AcDbEntity
  8
0
  6
SLD-Solid
 62
     7
370
    25
100
AcDbSpline
210
0.0
220
0.0
230
1.0
 70
     8
 71
     3
 72
    15
 73
    11
 74
     0
 42
0.00000001
 43
0.00000001
 40
0.0
 40
0.0
 40
0.0
 40
0.0
 40
0.1348068327792216
 40
0.2641990558543183
 40
0.3884618167279425
 40
0.5099420983643731
 40
0.6304096106127706
 40
0.7506710345119781
 40
0.8734547255294228
 40
1.0
 40
1.0
 40
1.0
 40
1.0
 10
42.45156879325479
 20
12.98678168536703
 30
0.0
 10
42.45170810091744
 20
12.9812730249344
 30
0.0
 10
42.45198112085409
 20
12.97047696322657
 30
0.0
 10
42.45390212233502
 20
12.95384890749291
 30
0.0
 10
42.4571887646475
 20
12.93729533358339
 30
0.0
 10
42.46193461224545
 20
12.92083390934717
 30
0.0
 10
42.46782070835457
 20
12.90449639535543
 30
0.0
 10
42.47513030554011
 20
12.88827786587609
 30
0.0
 10
42.48374502292967
 20
12.87217481759042
 30
0.0
 10
42.49038173141337
 20
12.86184544108667
 30
0.0
 10
42.49375014909805
 20
12.85660283406659
 30
0.0
  0
SPLINE
  5
31A
330
1F
100
AcDbEntity
  8
0
  6
SLD-Solid
 62
     7
370
    25
100
AcDbSpline
210
0.0
220
0.0
230
1.0
 70
     8
 71
     3
 72
    10
 73
     6
 74
     0
 42
0.00000001
 43
0.00000001
 40
0.0
 40
0.0
 40
0.0
 40
0.0
 40
0.4059498103041978
 40
0.8113229713961481
 40
1.0
 40
1.0
 40
1.0
 40
1.0
 10
42.45156879325479
 20
12.98678168536703
 30
0.0
 10
42.45238339445498
 20
12.99963451683417
 30
0.0
 10
42.45401143971939
 20
13.0253219224003
 30
0.0
 10
42.46473731343892
 20
13.05093771937164
 30
0.0
 10
42.47642054810542
 20
13.05842838341185
 30
0.0
 10
42.48013127497596
 20
13.06080750264772
 30
0.0
  0
SPLINE
  5
31B
330
1F
100
AcDbEntity
  8
0
  6
SLD-Solid
 62
     7
370
    25
100
AcDbSpline
210
0.0
220
0.0
230
1.0
 70
     8
 71
     3
 72
    11
 73
     7
 74
     0
 42
0.00000001
 43
0.00000001
 40
0.0
 40
0.0
 40
0.0
 40
0.0
 40
0.0827207865928968
 40
0.3884071554220099
 40
0.694076402818534
 40
1.0
 40
1.0
 40
1.0
 40
1.0
 10
42.4874625915937
 20
13.066284885279
 30
0.0
 10
42.48903537799733
 20
13.06756878670499
 30
0.0
 10
42.49642023878359
 20
13.07359721705788
 30
0.0
 10
42.51471438415158
 20
13.07531450899797
 30
0.0
 10
42.54039455697895
 20
13.07170210784626
 30
0.0
 10
42.5586676320466
 20
13.06227280404914
 30
0.0
 10
42.56780796929191
 20
13.05755619141688
 30
0.0
  0
LINE
  5
31C
330
1F
100
AcDbEntity
  8
0
  6
SLD-Solid
 62
     7
370
    25
100
AcDbLine
 10
40.8207990825
 20
16.1522506368
 30
0.0
 11
40.8200919757
 21
16.1518424327
 31
0.0
  0
LINE
  5
31D
330
1F
100
AcDbEntity
  8
0
  6
SLD-Solid
 62
     7
370
    25
100
AcDbLine
 10
42.3903677948
 20
13.0234724505
 30
0.0
 11
42.3900142414
 21
13.0232683484
 31
0.0
  0
LINE
  5
31E
330
1F
100
AcDbEntity
  8
0
  6
SLD-Solid
 62
     7
370
    25
100
AcDbLine
 10
42.5696042075
 20
12.7116772444
 30
0.0
 11
42.5692506541
 21
12.7114731424
 31
0.0
  0
LINE
  5
31F
330
1F
100
AcDbEntity
  8
0
  6
SLD-Solid
 62
     7
370
    25
100
AcDbLine
 10
40.8207990825
 20
14.5049432274
 30
0.0
 11
40.8200919757
 21
14.5045350233
 31
0.0
  0
LINE
  5
320
330
1F
100
AcDbEntity
  8
0
  6
SLD-Solid
 62
     7
370
    25
100
AcDbLine
 10
40.6288807155
 20
15.6799767272
 30
0.0
 11
40.6281736087
 21
15.6795685232
 31
0.0
  0
LINE
  5
321
330
1F
100
AcDbEntity
  8
0
  6
SLD-Solid
 62
     7
370
    25
100
AcDbLine
 10
39.7563685426
 20
13.4191042212
 30
0.0
 11
39.7560149893
 21
13.4189001192
 31
0.0
  0
SPLINE
  5
322
330
1F
100
AcDbEntity
  8
0
  6
SLD-Solid
 62
     7
370
    25
100
AcDbSpline
210
0.0
220
0.0
230
1.0
 70
     8
 71
     3
 72
    11
 73
     7
 74
     0
 42
0.00000001
 43
0.00000001
 40
0.0
 40
0.0
 40
0.0
 40
0.0
 40
0.0963509968107014
 40
0.3975705782074494
 40
0.6986843484198877
 40
0.9999999999999999
 40
0.9999999999999999
 40
0.9999999999999999
 40
0.9999999999999999
 10
42.29207979331539
 20
12.93035224207879
 30
0.0
 10
42.28912230832476
 20
12.92832276362603
 30
0.0
 10
42.27691891597095
 20
12.91994858018604
 30
0.0
 10
42.2495119918535
 20
12.91609624536985
 30
0.0
 10
42.21073128585858
 20
12.92146137269515
 30
0.0
 10
42.1832465790852
 20
12.93558735033541
 30
0.0
 10
42.16949962047008
 20
12.9426527060483
 30
0.0
  0
SPLINE
  5
323
330
1F
100
AcDbEntity
  8
0
  6
SLD-Solid
 62
     7
370
    25
100
AcDbSpline
210
0.0
220
0.0
230
1.0
 70
     8
 71
     3
 72
    23
 73
    19
 74
     0
 42
0.00000001
 43
0.00000001
 40
0.0
 40
0.0
 40
0.0
 40
0.0
 40
0.0667486513092663
 40
0.1311519760901756
 40
0.1937321970570956
 40
0.2553255433785988
 40
0.3163881857773854
 40
0.3780268629068868
 40
0.4404056792054011
 40
0.5045574293240809
 40
0.5686582873620151
 40
0.6309861790900102
 40
0.692288134873299
 40
0.7526154469796396
 40
0.813199538435563
 40
0.8740161248607817
 40
0.9361583555105316
 40
1.0
 40
1.0
 40
1.0
 40
1.0
 10
42.16949962047008
 20
12.9426527060483
 30
0.0
 10
42.16319229644836
 20
12.94645890594637
 30
0.0
 10
42.15079926688054
 20
12.95393756848463
 30
0.0
 10
42.13266201262918
 20
12.96749210672886
 30
0.0
 10
42.11528495586607
 20
12.98216943654155
 30
0.0
 10
42.09881407387378
 20
12.99861143453685
 30
0.0
 10
42.08308162479738
 20
13.01636111735723
 30
0.0
 10
42.06820319956046
 20
13.03562483631782
 30
0.0
 10
42.05418379828971
 20
13.05638206432766
 30
0.0
 10
42.04110383856904
 20
13.07826204756324
 30
0.0
 10
42.02925336338551
 20
13.10078234114772
 30
0.0
 10
42.01879299455658
 20
13.12338462553595
 30
0.0
 10
42.00996944140454
 20
13.14579994680907
 30
0.0
 10
42.00278238109281
 20
13.16803659820958
 30
0.0
 10
41.99711639145318
 20
13.19004880119566
 30
0.0
 10
41.99311967953347
 20
13.21186513756398
 30
0.0
 10
41.99075872642892
 20
13.23345816750082
 30
0.0
 10
41.99042985937035
 20
13.2473886936417
 30
0.0
 10
41.99026320777455
 20
13.25444791210481
 30
0.0
  0
SPLINE
  5
324
330
1F
100
AcDbEntity
  8
0
  6
SLD-Solid
 62
     7
370
    25
100
AcDbSpline
210
0.0
220
0.0
230
1.0
 70
     8
 71
     3
 72
    11
 73
     7
 74
     0
 42
0.00000001
 43
0.00000001
 40
0.0
 40
0.0
 40
0.0
 40
0.0
 40
0.2838678745456918
 40
0.5676832212199946
 40
0.8515392585836405
 40
1.0
 40
1.0
 40
1.0
 40
1.0
 10
41.99026320777455
 20
13.25444791210481
 30
0.0
 10
41.99100089461417
 20
13.26925455828333
 30
0.0
 10
41.99247613178935
 20
13.29886511076848
 30
0.0
 10
42.00582180694374
 20
13.33441666555239
 30
0.0
 10
42.02219467502802
 20
13.35889836107604
 30
0.0
 10
42.03660570725015
 20
13.36672395360539
 30
0.0
 10
42.04155456103813
 20
13.36941131927325
 30
0.0
  0
SPLINE
  5
325
330
1F
100
AcDbEntity
  8
0
  6
SLD-Solid
 62
     7
370
    25
100
AcDbSpline
210
0.0
220
0.0
230
1.0
 70
     8
 71
     3
 72
    23
 73
    19
 74
     0
 42
0.00000001
 43
0.00000001
 40
0.0
 40
0.0
 40
0.0
 40
0.0
 40
0.0659391240576586
 40
0.1297911093795349
 40
0.1921752363053294
 40
0.2536170442157555
 40
0.3147191079962365
 40
0.3762822754113758
 40
0.4389729923739132
 40
0.5031747018386415
 40
0.5673294646239474
 40
0.6296509938060325
 40
0.6906498673030979
 40
0.7512376127977867
 40
0.8117541138236056
 40
0.8727877774488529
 40
0.9355396326682295
 40
1.0
 40
1.0
 40
1.0
 40
1.0
 10
42.28484570591117
 20
13.0839923987902
 30
0.0
 10
42.28473721311087
 20
13.08876771984886
 30
0.0
 10
42.28452366157962
 20
13.09816721107209
 30
0.0
 10
42.28292179938811
 20
13.11272878107213
 30
0.0
 10
42.28023279502455
 20
13.12734754879911
 30
0.0
 10
42.27650915853658
 20
13.14201453972159
 30
0.0
 10
42.27175427192289
 20
13.15674007313305
 30
0.0
 10
42.26587437225411
 20
13.17153614636404
 30
0.0
 10
42.25889009137032
 20
13.18637982627054
 30
0.0
 10
42.25096217206234
 20
13.20110464013852
 30
0.0
 10
42.24233311915569
 20
13.21541156177359
 30
0.0
 10
42.23306896865451
 20
13.22885245948946
 30
0.0
 10
42.22342894188814
 20
13.24144992955813
 30
0.0
 10
42.21319184960849
 20
13.25286857617504
 30
0.0
 10
42.20256713415424
 20
13.26339102202751
 30
0.0
 10
42.1914899629473
 20
13.27301780653679
 30
0.0
 10
42.1799183805233
 20
13.28150542958154
 30
0.0
 10
42.17204599373858
 20
13.28630416359541
 30
0.0
 10
42.16805693566112
 20
13.28873575508135
 30
0.0
  0
SPLINE
  5
326
330
1F
100
AcDbEntity
  8
0
  6
SLD-Solid
 62
     7
370
    25
100
AcDbSpline
210
0.0
220
0.0
230
1.0
 70
     8
 71
     3
 72
    10
 73
     6
 74
     0
 42
0.00000001
 43
0.00000001
 40
0.0
 40
0.0
 40
0.0
 40
0.0
 40
0.3890946671874323
 40
0.7778195880127884
 40
1.0
 40
1.0
 40
1.0
 40
1.0
 10
42.16805693566112
 20
13.28873575508135
 30
0.0
 10
42.15650333533088
 20
13.29438681190534
 30
0.0
 10
42.13340711375094
 20
13.30568355550362
 30
0.0
 10
42.10525264869572
 20
13.30746741570401
 30
0.0
 10
42.09251967690798
 20
13.29977854460983
 30
0.0
 10
42.08788881715661
 20
13.29698217591624
 30
0.0
  0
SPLINE
  5
327
330
1F
100
AcDbEntity
  8
0
  6
SLD-Solid
 62
     7
370
    25
100
AcDbSpline
210
0.0
220
0.0
230
1.0
 70
     8
 71
     3
 72
    11
 73
     7
 74
     0
 42
0.00000001
 43
0.00000001
 40
0.0
 40
0.0
 40
0.0
 40
0.0
 40
0.1169225884294908
 40
0.411234506348155
 40
0.7055114754513915
 40
1.0
 40
1.0
 40
1.0
 40
1.0
 10
42.25134665955157
 20
13.00794324847241
 30
0.0
 10
42.25404242557431
 20
13.0091175632829
 30
0.0
 10
42.26352384421619
 20
13.01324780687292
 30
0.0
 10
42.27440986483926
 20
13.02908175655314
 30
0.0
 10
42.28344314360384
 20
13.05349196641132
 30
0.0
 10
42.28437807316232
 20
13.07382315286064
 30
0.0
 10
42.28484570591117
 20
13.0839923987902
 30
0.0
  0
LINE
  5
328
330
1F
100
AcDbEntity
  8
0
  6
SLD-Solid
 62
     7
370
    25
100
AcDbLine
 10
41.0835054802
 20
15.3601919965
 30
0.0
 11
41.0827983734
 21
15.3597837925
 31
0.0
  0
LINE
  5
329
330
1F
100
AcDbEntity
  8
0
  6
SLD-Solid
 62
     7
370
    25
100
AcDbLine
 10
41.0835054802
 20
14.3532860521
 30
0.0
 11
41.0827983734
 21
14.352877848
 31
0.0
  0
LINE
  5
32A
330
1F
100
AcDbEntity
  8
0
  6
SLD-Solid
 62
     7
370
    25
100
AcDbLine
 10
42.2848457059
 20
13.0839923988
 30
0.0
 11
42.2844921525
 21
13.0837882968
 31
0.0
  0
SPLINE
  5
32B
330
1F
100
AcDbEntity
  8
0
  6
SLD-Solid
 62
     7
370
    25
100
AcDbSpline
210
0.0
220
0.0
230
1.0
 70
     8
 71
     3
 72
    23
 73
    19
 74
     0
 42
0.00000001
 43
0.00000001
 40
0.0
 40
0.0
 40
0.0
 40
0.0
 40
0.0659391240576586
 40
0.1297911093795349
 40
0.1921752363053294
 40
0.2536170442157555
 40
0.3147191079962365
 40
0.3762822754113758
 40
0.4389729923739132
 40
0.5031747018386415
 40
0.5673294646239474
 40
0.6296509938060325
 40
0.6906498673030979
 40
0.7512376127977867
 40
0.8117541138236056
 40
0.8727877774488529
 40
0.9355396326682295
 40
1.0
 40
1.0
 40
1.0
 40
1.0
 10
42.28449215252058
 20
13.08378829676224
 30
0.0
 10
42.28438365972028
 20
13.0885636178209
 30
0.0
 10
42.28417010818903
 20
13.09796310904413
 30
0.0
 10
42.28256824599752
 20
13.11252467904418
 30
0.0
 10
42.27987924163395
 20
13.12714344677115
 30
0.0
 10
42.27615560514599
 20
13.14181043769364
 30
0.0
 10
42.27140071853229
 20
13.1565359711051
 30
0.0
 10
42.26552081886352
 20
13.17133204433608
 30
0.0
 10
42.25853653797972
 20
13.18617572424258
 30
0.0
 10
42.25060861867176
 20
13.20090053811056
 30
0.0
 10
42.2419795657651
 20
13.21520745974563
 30
0.0
 10
42.23271541526391
 20
13.2286483574615
 30
0.0
 10
42.22307538849754
 20
13.24124582753017
 30
0.0
 10
42.2128382962179
 20
13.25266447414709
 30
0.0
 10
42.20221358076365
 20
13.26318691999955
 30
0.0
 10
42.19113640955671
 20
13.27281370450884
 30
0.0
 10
42.17956482713271
 20
13.28130132755358
 30
0.0
 10
42.17169244034799
 20
13.28610006156746
 30
0.0
 10
42.16770338227052
 20
13.28853165305339
 30
0.0
  0
LINE
  5
32C
330
1F
100
AcDbEntity
  8
0
  6
SLD-Solid
 62
     7
370
    25
100
AcDbLine
 10
42.1680569357
 20
13.2887357551
 30
0.0
 11
42.1677033823
 21
13.2885316531
 31
0.0
  0
SPLINE
  5
32D
330
1F
100
AcDbEntity
  8
0
  6
SLD-Solid
 62
     7
370
    25
100
AcDbSpline
210
0.0
220
0.0
230
1.0
 70
     8
 71
     3
 72
    10
 73
     6
 74
     0
 42
0.00000001
 43
0.00000001
 40
0.0
 40
0.0
 40
0.0
 40
0.0
 40
0.3586494178275234
 40
0.7168525923221907
 40
1.0
 40
1.0
 40
1.0
 40
1.0
 10
42.28449215252058
 20
13.08378829676224
 30
0.0
 10
42.28369163128765
 20
13.07101582294732
 30
0.0
 10
42.28209158485647
 20
13.04548676724702
 30
0.0
 10
42.2688786381205
 20
13.01830528513494
 30
0.0
 10
42.25452225713991
 20
13.0096038045012
 30
0.0
 10
42.24818411358585
 20
13.00576222120357
 30
0.0
  0
SPLINE
  5
32E
330
1F
100
AcDbEntity
  8
0
  6
SLD-Solid
 62
     7
370
    25
100
AcDbSpline
210
0.0
220
0.0
230
1.0
 70
     8
 71
     3
 72
    11
 73
     7
 74
     0
 42
0.00000001
 43
0.00000001
 40
0.0
 40
0.0
 40
0.0
 40
0.0
 40
0.0018502178994884
 40
0.3345637900840609
 40
0.6672005533260795
 40
1.0
 40
1.0
 40
1.0
 40
1.0
 10
42.24352917435822
 20
13.00231644032592
 30
0.0
 10
42.24349621571591
 20
13.00229198726394
 30
0.0
 10
42.2375365023811
 20
12.9978702869343
 30
0.0
 10
42.22130494378575
 20
12.99672996872216
 30
0.0
 10
42.19610645637391
 20
12.99968040064265
 30
0.0
 10
42.17799694074064
 20
13.00899171227355
 30
0.0
 10
42.16893996924964
 20
13.01364850628686
 30
0.0
  0
SPLINE
  5
32F
330
1F
100
AcDbEntity
  8
0
  6
SLD-Solid
 62
     7
370
    25
100
AcDbSpline
210
0.0
220
0.0
230
1.0
 70
     8
 71
     3
 72
    15
 73
    11
 74
     0
 42
0.00000001
 43
0.00000001
 40
0.0
 40
0.0
 40
0.0
 40
0.0
 40
0.1279910255623737
 40
0.2530983915017065
 40
0.3761840584327907
 40
0.4989363124701259
 40
0.6215258806257301
 40
0.7457068938016925
 40
0.8715753502968717
 40
1.0
 40
1.0
 40
1.0
 40
1.0
 10
42.09364556207666
 20
13.08757829570309
 30
0.0
 10
42.0964049392317
 20
13.08354886046924
 30
0.0
 10
42.10186152430415
 20
13.0755807738642
 30
0.0
 10
42.11057142207319
 20
13.06437731552603
 30
0.0
 10
42.11954090171669
 20
13.05390646155241
 30
0.0
 10
42.1288376492036
 20
13.044262976138
 30
0.0
 10
42.13844203028163
 20
13.03535459325167
 30
0.0
 10
42.14835272789572
 20
13.02727759125151
 30
0.0
 10
42.1585556994258
 20
13.01990914946236
 30
0.0
 10
42.16545542693618
 20
13.01574932574018
 30
0.0
 10
42.16893996924964
 20
13.01364850628686
 30
0.0
  0
SPLINE
  5
330
330
1F
100
AcDbEntity
  8
0
  6
SLD-Solid
 62
     7
370
    25
100
AcDbSpline
210
0.0
220
0.0
230
1.0
 70
     8
 71
     3
 72
    15
 73
    11
 74
     0
 42
0.00000001
 43
0.00000001
 40
0.0
 40
0.0
 40
0.0
 40
0.0
 40
0.1348068327792217
 40
0.2641990558543184
 40
0.3884618167279427
 40
0.5099420983643732
 40
0.6304096106127708
 40
0.7506710345119788
 40
0.8734547255294232
 40
1.0
 40
1.0
 40
1.0
 40
1.0
 10
42.0514642062334
 20
13.21775714700354
 30
0.0
 10
42.05160351389605
 20
13.21224848657091
 30
0.0
 10
42.0518765338327
 20
13.20145242486308
 30
0.0
 10
42.05379753531363
 20
13.18482436912942
 30
0.0
 10
42.05708417762611
 20
13.1682707952199
 30
0.0
 10
42.06183002522407
 20
13.15180937098368
 30
0.0
 10
42.06771612133318
 20
13.13547185699194
 30
0.0
 10
42.07502571851872
 20
13.1192533275126
 30
0.0
 10
42.08364043590829
 20
13.10315027922693
 30
0.0
 10
42.09027714439198
 20
13.09282090272318
 30
0.0
 10
42.09364556207666
 20
13.08757829570309
 30
0.0
  0
SPLINE
  5
331
330
1F
100
AcDbEntity
  8
0
  6
SLD-Solid
 62
     7
370
    25
100
AcDbSpline
210
0.0
220
0.0
230
1.0
 70
     8
 71
     3
 72
    10
 73
     6
 74
     0
 42
0.00000001
 43
0.00000001
 40
0.0
 40
0.0
 40
0.0
 40
0.0
 40
0.4059498103042088
 40
0.8113229713961649
 40
1.0
 40
1.0
 40
1.0
 40
1.0
 10
42.0514642062334
 20
13.21775714700354
 30
0.0
 10
42.05227880743359
 20
13.23060997847068
 30
0.0
 10
42.053906852698
 20
13.25629738403681
 30
0.0
 10
42.06463272641754
 20
13.28191318100814
 30
0.0
 10
42.07631596108403
 20
13.28940384504835
 30
0.0
 10
42.08002668795458
 20
13.29178296428422
 30
0.0
  0
SPLINE
  5
332
330
1F
100
AcDbEntity
  8
0
  6
SLD-Solid
 62
     7
370
    25
100
AcDbSpline
210
0.0
220
0.0
230
1.0
 70
     8
 71
     3
 72
    11
 73
     7
 74
     0
 42
0.00000001
 43
0.00000001
 40
0.0
 40
0.0
 40
0.0
 40
0.0
 40
0.0827207865929155
 40
0.3884071554220214
 40
0.6940764028185411
 40
1.0
 40
1.0
 40
1.0
 40
1.0
 10
42.08735800457231
 20
13.29726034691551
 30
0.0
 10
42.08893079097594
 20
13.2985442483415
 30
0.0
 10
42.0963156517622
 20
13.30457267869438
 30
0.0
 10
42.11460979713019
 20
13.30628997063448
 30
0.0
 10
42.14028996995756
 20
13.30267756948277
 30
0.0
 10
42.15856304502521
 20
13.29324826568565
 30
0.0
 10
42.16770338227052
 20
13.28853165305339
 30
0.0
  0
LINE
  5
333
330
1F
100
AcDbEntity
  8
0
  6
SLD-Solid
 62
     7
370
    25
100
AcDbLine
 10
41.9902632078
 20
13.2544479121
 30
0.0
 11
41.9899096544
 21
13.2542438101
 31
0.0
  0
LINE
  5
334
330
1F
100
AcDbEntity
  8
0
  6
SLD-Solid
 62
     7
370
    25
100
AcDbLine
 10
42.1694996205
 20
12.942652706
 30
0.0
 11
42.1691460671
 21
12.942448604
 31
0.0
  0
LINE
  5
335
330
1F
100
AcDbEntity
  8
0
  6
SLD-Solid
 62
     7
370
    25
100
AcDbLine
 10
40.907184829
 20
13.1160713631
 30
0.0
 11
42.5462583478
 21
12.1698543615
 31
0.0
  0
LINE
  5
336
330
1F
100
AcDbEntity
  8
0
  6
SLD-Solid
 62
     7
370
    25
100
AcDbLine
 10
40.907184829
 20
13.4418712798
 30
0.0
 11
40.907184829
 21
13.1160713631
 31
0.0
  0
SPLINE
  5
337
330
1F
100
AcDbEntity
  8
0
  6
SLD-Solid
 62
     7
370
    25
100
AcDbSpline
210
0.0
220
0.0
230
1.0
 70
     8
 71
     3
 72
     9
 73
     5
 74
     0
 42
0.00000001
 43
0.00000001
 40
0.0
 40
0.0
 40
0.0
 40
0.0
 40
0.4690953550951977
 40
0.9999999999999999
 40
0.9999999999999999
 40
0.9999999999999999
 40
0.9999999999999999
 10
41.91911203828576
 20
13.30788063328744
 30
0.0
 10
41.91349864520545
 20
13.30503287233774
 30
0.0
 10
41.90153222298589
 20
13.29896212164969
 30
0.0
 10
41.8862561346095
 20
13.30076287258848
 30
0.0
 10
41.87814598833449
 20
13.3017188996262
 30
0.0
  0
LINE
  5
338
330
1F
100
AcDbEntity
  8
0
  6
SLD-Solid
 62
     7
370
    25
100
AcDbLine
 10
41.9567552363
 20
13.0756218426
 30
0.0
 11
41.8888630755
 21
13.1148151528
 31
0.0
  0
LINE
  5
339
330
1F
100
AcDbEntity
  8
0
  6
SLD-Solid
 62
     7
370
    25
100
AcDbLine
 10
41.8888630755
 20
13.1148151528
 30
0.0
 11
41.8132938712
 21
13.3310654283
 31
0.0
  0
LINE
  5
33A
330
1F
100
AcDbEntity
  8
0
  6
SLD-Solid
 62
     7
370
    25
100
AcDbLine
 10
41.8132938712
 20
13.3310654283
 30
0.0
 11
41.7924092911
 21
13.3431218397
 31
0.0
  0
LINE
  5
33B
330
1F
100
AcDbEntity
  8
0
  6
SLD-Solid
 62
     7
370
    25
100
AcDbLine
 10
41.7920557377
 20
13.1707008393
 30
0.0
 11
41.7308547393
 21
13.2060314237
 31
0.0
  0
LINE
  5
33C
330
1F
100
AcDbEntity
  8
0
  6
SLD-Solid
 62
     7
370
    25
100
AcDbLine
 10
41.7308547393
 20
13.2060314237
 30
0.0
 11
41.7308547393
 21
13.6016455134
 31
0.0
  0
SPLINE
  5
33D
330
1F
100
AcDbEntity
  8
0
  6
SLD-Solid
 62
     7
370
    25
100
AcDbSpline
210
0.0
220
0.0
230
1.0
 70
     8
 71
     3
 72
    10
 73
     6
 74
     0
 42
0.00000001
 43
0.00000001
 40
0.0
 40
0.0
 40
0.0
 40
0.0
 40
0.0863177644490433
 40
0.5426248112586022
 40
1.0
 40
1.0
 40
1.0
 40
1.0
 10
41.87338096056295
 20
13.38390003439716
 30
0.0
 10
41.87387540117034
 20
13.38411257762441
 30
0.0
 10
41.87698363437104
 20
13.38544870153014
 30
0.0
 10
41.87964835231591
 20
13.39274489342686
 30
0.0
 10
41.88011218014987
 20
13.40038882606622
 30
0.0
 10
41.88034436518625
 20
13.4042152604628
 30
0.0
  0
SPLINE
  5
33E
330
1F
100
AcDbEntity
  8
0
  6
SLD-Solid
 62
     7
370
    25
100
AcDbSpline
210
0.0
220
0.0
230
1.0
 70
     8
 71
     3
 72
    23
 73
    19
 74
     0
 42
0.00000001
 43
0.00000001
 40
0.0
 40
0.0
 40
0.0
 40
0.0
 40
0.06376895995774
 40
0.1252623047603748
 40
0.1854135826663909
 40
0.2468067624960846
 40
0.3094223888496969
 40
0.3725326822170087
 40
0.4377332507368581
 40
0.505749516742634
 40
0.5440132631112705
 40
0.5883695992066303
 40
0.6403890193945119
 40
0.6978974005877081
 40
0.7632716192950986
 40
0.8349786038393129
 40
0.9138736558434376
 40
0.9999999999999999
 40
0.9999999999999999
 40
0.9999999999999999
 40
0.9999999999999999
 10
41.88034436518625
 20
13.4042152604628
 30
0.0
 10
41.88027454592526
 20
13.40635438384695
 30
0.0
 10
41.88013739892531
 20
13.41055629533246
 30
0.0
 10
41.87877647461399
 20
13.41727723762368
 30
0.0
 10
41.87661017707857
 20
13.42402133840802
 30
0.0
 10
41.87364077649318
 20
13.4307624660403
 30
0.0
 10
41.86990120250283
 20
13.43732822927524
 30
0.0
 10
41.86560974630593
 20
13.44369039847807
 30
0.0
 10
41.86067378791975
 20
13.4496116475145
 30
0.0
 10
41.85610346189053
 20
13.45427615455487
 30
0.0
 10
41.85194553347934
 20
13.45788872043219
 30
0.0
 10
41.84819313426875
 20
13.46095828856433
 30
0.0
 10
41.84384783339058
 20
13.46410701040062
 30
0.0
 10
41.83890635038023
 20
13.46763874891749
 30
0.0
 10
41.83338128124603
 20
13.47126865315338
 30
0.0
 10
41.82724251105664
 20
13.47513385727159
 30
0.0
 10
41.82050767031431
 20
13.47915328531539
 30
0.0
 10
41.81581284666902
 20
13.48190558347018
 30
0.0
 10
41.81336257048402
 20
13.48334203585523
 30
0.0
  0
LINE
  5
33F
330
1F
100
AcDbEntity
  8
0
  6
SLD-Solid
 62
     7
370
    25
100
AcDbLine
 10
41.8133625705
 20
13.4833420359
 30
0.0
 11
41.7924092911
 21
13.4954381066
 31
0.0
  0
LINE
  5
340
330
1F
100
AcDbEntity
  8
0
  6
SLD-Solid
 62
     7
370
    25
100
AcDbLine
 10
41.8781459883
 20
13.3017188996
 30
0.0
 11
41.8777924349
 21
13.3015147976
 31
0.0
  0
LINE
  5
341
330
1F
100
AcDbEntity
  8
0
  6
SLD-Solid
 62
     7
370
    25
100
AcDbLine
 10
41.7920557377
 20
13.4139986622
 30
0.0
 11
41.7920557377
 21
13.4952340045
 31
0.0
  0
LINE
  5
342
330
1F
100
AcDbEntity
  8
0
  6
SLD-Solid
 62
     7
370
    25
100
AcDbLine
 10
41.7920557377
 20
13.4952340045
 30
0.0
 11
41.8130090171
 21
13.4831379338
 31
0.0
  0
SPLINE
  5
343
330
1F
100
AcDbEntity
  8
0
  6
SLD-Solid
 62
     7
370
    25
100
AcDbSpline
210
0.0
220
0.0
230
1.0
 70
     8
 71
     3
 72
    23
 73
    19
 74
     0
 42
0.00000001
 43
0.00000001
 40
0.0
 40
0.0
 40
0.0
 40
0.0
 40
0.06376895995774
 40
0.1252623047603748
 40
0.1854135826663909
 40
0.2468067624960846
 40
0.3094223888496969
 40
0.3725326822170087
 40
0.4377332507368581
 40
0.505749516742634
 40
0.5440132631112705
 40
0.5883695992066303
 40
0.6403890193945119
 40
0.6978974005877081
 40
0.7632716192950986
 40
0.8349786038393129
 40
0.9138736558434376
 40
0.9999999999999999
 40
0.9999999999999999
 40
0.9999999999999999
 40
0.9999999999999999
 10
41.87999081179566
 20
13.40401115843484
 30
0.0
 10
41.87992099253467
 20
13.406150281819
 30
0.0
 10
41.87978384553471
 20
13.4103521933045
 30
0.0
 10
41.8784229212234
 20
13.41707313559572
 30
0.0
 10
41.87625662368798
 20
13.42381723638006
 30
0.0
 10
41.87328722310259
 20
13.43055836401234
 30
0.0
 10
41.86954764911224
 20
13.43712412724728
 30
0.0
 10
41.86525619291534
 20
13.44348629645012
 30
0.0
 10
41.86032023452915
 20
13.44940754548655
 30
0.0
 10
41.85574990849994
 20
13.45407205252692
 30
0.0
 10
41.85159198008876
 20
13.45768461840424
 30
0.0
 10
41.84783958087816
 20
13.46075418653638
 30
0.0
 10
41.84349427999998
 20
13.46390290837267
 30
0.0
 10
41.83855279698963
 20
13.46743464688953
 30
0.0
 10
41.83302772785544
 20
13.47106455112542
 30
0.0
 10
41.82688895766604
 20
13.47492975524363
 30
0.0
 10
41.82015411692371
 20
13.47894918328744
 30
0.0
 10
41.81545929327842
 20
13.48170148144222
 30
0.0
 10
41.81300901709342
 20
13.48313793382728
 30
0.0
  0
SPLINE
  5
344
330
1F
100
AcDbEntity
  8
0
  6
SLD-Solid
 62
     7
370
    25
100
AcDbSpline
210
0.0
220
0.0
230
1.0
 70
     8
 71
     3
 72
    10
 73
     6
 74
     0
 42
0.00000001
 43
0.00000001
 40
0.0
 40
0.0
 40
0.0
 40
0.0
 40
0.3875204031014374
 40
0.7741358012918413
 40
1.0
 40
1.0
 40
1.0
 40
1.0
 10
41.87999081179566
 20
13.40401115843484
 30
0.0
 10
41.87978523689945
 20
13.40014273523098
 30
0.0
 10
41.87937456720122
 20
13.39241492303659
 30
0.0
 10
41.87588664726416
 20
13.3843445162579
 30
0.0
 10
41.8715987993119
 20
13.38279657009835
 30
0.0
 10
41.87001756893815
 20
13.38222573374601
 30
0.0
  0
SPLINE
  5
345
330
1F
100
AcDbEntity
  8
0
  6
SLD-Solid
 62
     7
370
    25
100
AcDbSpline
210
0.0
220
0.0
230
1.0
 70
     8
 71
     3
 72
    16
 73
    12
 74
     0
 42
0.00000001
 43
0.00000001
 40
0.0
 40
0.0
 40
0.0
 40
0.0
 40
0.1055399964402573
 40
0.2020864154635874
 40
0.2906848989424215
 40
0.3705526096211914
 40
0.4426702615663768
 40
0.5076749275738738
 40
0.5655732034810459
 40
0.6164546657486231
 40
0.625
 40
0.625
 40
0.625
 40
0.625
 10
41.8160317852646
 20
13.40015758459489
 30
0.0
 10
41.81896305637742
 20
13.39850352108627
 30
0.0
 10
41.8245758107068
 20
13.39533634488123
 30
0.0
 10
41.83264768861835
 20
13.39101514346907
 30
0.0
 10
41.83997887880241
 20
13.38759878294136
 30
0.0
 10
41.84660086386373
 20
13.38480678260945
 30
0.0
 10
41.85254696502942
 20
13.38256436770273
 30
0.0
 10
41.85776414517482
 20
13.38125817717404
 30
0.0
 10
41.86233279308301
 20
13.38044837159095
 30
0.0
 10
41.86524674938912
 20
13.38047812558698
 30
0.0
 10
41.86665821662156
 20
13.38065449723854
 30
0.0
 10
41.86685976856812
 20
13.38068326089695
 30
0.0
  0
LINE
  5
346
330
1F
100
AcDbEntity
  8
0
  6
SLD-Solid
 62
     7
370
    25
100
AcDbLine
 10
41.8160317853
 20
13.4001575846
 30
0.0
 11
41.7920557377
 21
13.4139986622
 31
0.0
  0
LINE
  5
347
330
1F
100
AcDbEntity
  8
0
  6
SLD-Solid
 62
     7
370
    25
100
AcDbLine
 10
41.8803443652
 20
13.4042152605
 30
0.0
 11
41.8799908118
 21
13.4040111584
 31
0.0
  0
LINE
  5
348
330
1F
100
AcDbEntity
  8
0
  6
SLD-Solid
 62
     7
370
    25
100
AcDbLine
 10
41.8133625705
 20
13.4833420359
 30
0.0
 11
41.8130090171
 21
13.4831379338
 31
0.0
  0
LINE
  5
349
330
1F
100
AcDbEntity
  8
0
  6
SLD-Solid
 62
     7
370
    25
100
AcDbLine
 10
41.7924092911
 20
13.4954381066
 30
0.0
 11
41.7920557377
 21
13.4952340045
 31
0.0
  0
LINE
  5
34A
330
1F
100
AcDbEntity
  8
0
  6
SLD-Solid
 62
     7
370
    25
100
AcDbLine
 10
41.7308547393
 20
13.2060314237
 30
0.0
 11
41.7305011859
 21
13.2058273217
 31
0.0
  0
LINE
  5
34B
330
1F
100
AcDbEntity
  8
0
  6
SLD-Solid
 62
     7
370
    25
100
AcDbLine
 10
40.907184829
 20
13.1160713631
 30
0.0
 11
40.9064777222
 21
13.1156631591
 31
0.0
  0
LINE
  5
34C
330
1F
100
AcDbEntity
  8
0
  6
SLD-Solid
 62
     7
370
    25
100
AcDbLine
 10
41.8888630755
 20
13.1148151528
 30
0.0
 11
41.8885095221
 21
13.1146110508
 31
0.0
  0
LINE
  5
34D
330
1F
100
AcDbEntity
  8
0
  6
SLD-Solid
 62
     7
370
    25
100
AcDbLine
 10
41.8132938712
 20
13.3310654283
 30
0.0
 11
41.8129403178
 21
13.3308613262
 31
0.0
  0
LINE
  5
34E
330
1F
100
AcDbEntity
  8
0
  6
SLD-Solid
 62
     7
370
    25
100
AcDbLine
 10
41.5901586208
 20
13.530959591
 30
0.0
 11
41.5901586208
 21
13.6828676538
 31
0.0
  0
LINE
  5
34F
330
1F
100
AcDbEntity
  8
0
  6
SLD-Solid
 62
     7
370
    25
100
AcDbLine
 10
41.6513596192
 20
13.2519229797
 30
0.0
 11
41.5901586208
 21
13.2872535641
 31
0.0
  0
LINE
  5
350
330
1F
100
AcDbEntity
  8
0
  6
SLD-Solid
 62
     7
370
    25
100
AcDbLine
 10
41.5901586208
 20
13.2872535641
 30
0.0
 11
41.5901586208
 21
13.4598786665
 31
0.0
  0
LINE
  5
351
330
1F
100
AcDbEntity
  8
0
  6
SLD-Solid
 62
     7
370
    25
100
AcDbLine
 10
41.5901586208
 20
13.4598786665
 30
0.0
 11
41.4714462708
 21
13.5284098474
 31
0.0
  0
LINE
  5
352
330
1F
100
AcDbEntity
  8
0
  6
SLD-Solid
 62
     7
370
    25
100
AcDbLine
 10
41.4710927174
 20
13.355988847
 30
0.0
 11
41.4098917189
 21
13.3913194314
 31
0.0
  0
LINE
  5
353
330
1F
100
AcDbEntity
  8
0
  6
SLD-Solid
 62
     7
370
    25
100
AcDbLine
 10
41.4098917189
 20
13.3913194314
 30
0.0
 11
41.4098917189
 21
13.7869335211
 31
0.0
  0
LINE
  5
354
330
1F
100
AcDbEntity
  8
0
  6
SLD-Solid
 62
     7
370
    25
100
AcDbLine
 10
41.7924092911
 20
13.3431218397
 30
0.0
 11
41.7920557377
 21
13.3429177377
 31
0.0
  0
LINE
  5
355
330
1F
100
AcDbEntity
  8
0
  6
SLD-Solid
 62
     7
370
    25
100
AcDbLine
 10
41.5901586208
 20
13.530959591
 30
0.0
 11
41.5898050674
 21
13.530755489
 31
0.0
  0
LINE
  5
356
330
1F
100
AcDbEntity
  8
0
  6
SLD-Solid
 62
     7
370
    25
100
AcDbLine
 10
41.4098917189
 20
13.3913194314
 30
0.0
 11
41.4095381655
 21
13.3911153294
 31
0.0
  0
LINE
  5
357
330
1F
100
AcDbEntity
  8
0
  6
SLD-Solid
 62
     7
370
    25
100
AcDbLine
 10
41.5901586208
 20
13.2872535641
 30
0.0
 11
41.5898050674
 21
13.2870494621
 31
0.0
  0
LINE
  5
358
330
1F
100
AcDbEntity
  8
0
  6
SLD-Solid
 62
     7
370
    25
100
AcDbLine
 10
41.5901586208
 20
13.4598786665
 30
0.0
 11
41.5898050674
 21
13.4596745645
 31
0.0
  0
LINE
  5
359
330
1F
100
AcDbEntity
  8
0
  6
SLD-Solid
 62
     7
370
    25
100
AcDbLine
 10
41.4714462708
 20
13.5284098474
 30
0.0
 11
41.4710927174
 21
13.5282057454
 31
0.0
  0
LINE
  5
35A
330
1F
100
AcDbEntity
  8
0
  6
SLD-Solid
 62
     7
370
    25
100
AcDbLine
 10
41.3395436597
 20
13.7750387589
 30
0.0
 11
41.2935151443
 21
13.7529803138
 31
0.0
  0
SPLINE
  5
35B
330
1F
100
AcDbEntity
  8
0
  6
SLD-Solid
 62
     7
370
    25
100
AcDbSpline
210
0.0
220
0.0
230
1.0
 70
     8
 71
     3
 72
    15
 73
    11
 74
     0
 42
0.00000001
 43
0.00000001
 40
0.0
 40
0.0
 40
0.0
 40
0.0
 40
0.1624203072014376
 40
0.31182433973305
 40
0.44843276679258
 40
0.5733811968860476
 40
0.689077146873546
 40
0.7975729005012506
 40
0.9002930430775783
 40
1.0
 40
1.0
 40
1.0
 40
1.0
 10
41.29351514431801
 20
13.75298031377366
 30
0.0
 10
41.29154348008701
 20
13.75733020157091
 30
0.0
 10
41.28775815971916
 20
13.76568137953418
 30
0.0
 10
41.28162255022784
 20
13.77747975596589
 30
0.0
 10
41.27551464615827
 20
13.788049067253
 30
0.0
 10
41.2693778614937
 20
13.7973925561814
 30
0.0
 10
41.26315780211038
 20
13.80550637964405
 30
0.0
 10
41.25686526512251
 20
13.81234136009586
 30
0.0
 10
41.25053592468265
 20
13.81803099147944
 30
0.0
 10
41.24628358493141
 20
13.82073931867071
 30
0.0
 10
41.24418906370651
 20
13.82207332515136
 30
0.0
  0
SPLINE
  5
35C
330
1F
100
AcDbEntity
  8
0
  6
SLD-Solid
 62
     7
370
    25
100
AcDbSpline
210
0.0
220
0.0
230
1.0
 70
     8
 71
     3
 72
    10
 73
     6
 74
     0
 42
0.00000001
 43
0.00000001
 40
0.0
 40
0.0
 40
0.0
 40
0.0
 40
0.4388818964140397
 40
0.8769468977068571
 40
1.0
 40
1.0
 40
1.0
 40
1.0
 10
41.24418906370651
 20
13.82207332515136
 30
0.0
 10
41.24051603121662
 20
13.82386592162434
 30
0.0
 10
41.23317680288778
 20
13.82744777799313
 30
0.0
 10
41.22532437030966
 20
13.82709739343994
 30
0.0
 10
41.2225207104629
 20
13.82434482129211
 30
0.0
 10
41.22190586834727
 20
13.82374118269996
 30
0.0
  0
SPLINE
  5
35D
330
1F
100
AcDbEntity
  8
0
  6
SLD-Solid
 62
     7
370
    25
100
AcDbSpline
210
0.0
220
0.0
230
1.0
 70
     8
 71
     3
 72
    10
 73
     6
 74
     0
 42
0.00000001
 43
0.00000001
 40
0.0
 40
0.0
 40
0.0
 40
0.0
 40
0.181122710587551
 40
0.5900866505878797
 40
1.0
 40
1.0
 40
1.0
 40
1.0
 10
41.32185049446409
 20
13.46815233571356
 30
0.0
 10
41.3184293941168
 20
13.46566186868702
 30
0.0
 10
41.30728365961054
 20
13.45754808029834
 30
0.0
 10
41.28019671256112
 20
13.45898830744302
 30
0.0
 10
41.25697917795871
 20
13.47042429158079
 30
0.0
 10
41.24535695140901
 20
13.4761489131112
 30
0.0
  0
SPLINE
  5
35E
330
1F
100
AcDbEntity
  8
0
  6
SLD-Solid
 62
     7
370
    25
100
AcDbSpline
210
0.0
220
0.0
230
1.0
 70
     8
 71
     3
 72
    23
 73
    19
 74
     0
 42
0.00000001
 43
0.00000001
 40
0.0
 40
0.0
 40
0.0
 40
0.0
 40
0.0635514822357808
 40
0.1258683816453842
 40
0.1862402502136729
 40
0.2449766506319395
 40
0.3033576876770614
 40
0.3612303170408046
 40
0.418489049028352
 40
0.4759367117285737
 40
0.5342037438191215
 40
0.5940594289675396
 40
0.6554686942598743
 40
0.7187716848998884
 40
0.784974607219059
 40
0.853522316376702
 40
0.9251824507719316
 40
1.0
 40
1.0
 40
1.0
 40
1.0
 10
41.24535695140901
 20
13.4761489131112
 30
0.0
 10
41.24242384924349
 20
13.47790224526229
 30
0.0
 10
41.23661462481967
 20
13.48137484845864
 30
0.0
 10
41.22805270627124
 20
13.48728915086648
 30
0.0
 10
41.21978520604102
 20
13.49362995561218
 30
0.0
 10
41.21182143672952
 20
13.50047486662615
 30
0.0
 10
41.20412552014969
 20
13.50776554351189
 30
0.0
 10
41.19669714024106
 20
13.5155324796834
 30
0.0
 10
41.1895875775765
 20
13.52379998886097
 30
0.0
 10
41.18274303783435
 20
13.53251351295458
 30
0.0
 10
41.17619679392419
 20
13.5418221849528
 30
0.0
 10
41.1698660711666
 20
13.55166073867934
 30
0.0
 10
41.16381375231094
 20
13.56208798392517
 30
0.0
 10
41.15801076929689
 20
13.57310430430017
 30
0.0
 10
41.15249425122767
 20
13.58470997483326
 30
0.0
 10
41.14708362267208
 20
13.59689196076272
 30
0.0
 10
41.14201934824421
 20
13.60967955821967
 30
0.0
 10
41.13889092065563
 20
13.61840527474067
 30
0.0
 10
41.13729298928939
 20
13.62286217704285
 30
0.0
  0
SPLINE
  5
35F
330
1F
100
AcDbEntity
  8
0
  6
SLD-Solid
 62
     7
370
    25
100
AcDbSpline
210
0.0
220
0.0
230
1.0
 70
     8
 71
     3
 72
     9
 73
     5
 74
     0
 42
0.00000001
 43
0.00000001
 40
0.0
 40
0.0
 40
0.0
 40
0.0
 40
0.4114708237627644
 40
1.0
 40
1.0
 40
1.0
 40
1.0
 10
41.27876514187961
 20
13.54377135319672
 30
0.0
 10
41.28074483212406
 20
13.54512327018656
 30
0.0
 10
41.28555608514647
 20
13.54840884211965
 30
0.0
 10
41.28632820194568
 20
13.55623382639294
 30
0.0
 10
41.28678261520948
 20
13.56083905794136
 30
0.0
  0
SPLINE
  5
360
330
1F
100
AcDbEntity
  8
0
  6
SLD-Solid
 62
     7
370
    25
100
AcDbSpline
210
0.0
220
0.0
230
1.0
 70
     8
 71
     3
 72
    19
 73
    15
 74
     0
 42
0.00000001
 43
0.00000001
 40
0.0
 40
0.0
 40
0.0
 40
0.0
 40
0.0763466063531701
 40
0.1550908218146645
 40
0.2383515612585566
 40
0.3284041399329876
 40
0.3793838595513589
 40
0.4396176441748209
 40
0.5098314158313143
 40
0.5888746449969577
 40
0.6774363544094507
 40
0.775546719619675
 40
0.8826358717258564
 40
0.9999999999999999
 40
0.9999999999999999
 40
0.9999999999999999
 40
0.9999999999999999
 10
41.28678261520948
 20
13.56083905794136
 30
0.0
 10
41.28666969358138
 20
13.56316403578512
 30
0.0
 10
41.2864403041044
 20
13.56788700569451
 30
0.0
 10
41.28475069190999
 20
13.57568780205938
 30
0.0
 10
41.28210931269474
 20
13.58403493777718
 30
0.0
 10
41.27898437481907
 20
13.59143476100983
 30
0.0
 10
41.27580435923643
 20
13.59795578588299
 30
0.0
 10
41.27276354708526
 20
13.60377075871853
 30
0.0
 10
41.26906064227698
 20
13.61039349149452
 30
0.0
 10
41.26470503374495
 20
13.61782420599986
 30
0.0
 10
41.25975427044272
 20
13.62607295914565
 30
0.0
 10
41.2542041819938
 20
13.6351416305566
 30
0.0
 10
41.24799121401414
 20
13.64501524863781
 30
0.0
 10
41.24359987598717
 20
13.65183292099176
 30
0.0
 10
41.24130369408856
 20
13.65539780617108
 30
0.0
  0
SPLINE
  5
361
330
1F
100
AcDbEntity
  8
0
  6
SLD-Solid
 62
     7
370
    25
100
AcDbSpline
210
0.0
220
0.0
230
1.0
 70
     8
 71
     3
 72
    19
 73
    15
 74
     0
 42
0.00000001
 43
0.00000001
 40
0.0
 40
0.0
 40
0.0
 40
0.0
 40
0.1121245812797442
 40
0.2152010090762411
 40
0.309902452493476
 40
0.3959590963320905
 40
0.473447494000333
 40
0.5421403275660301
 40
0.6025233330554092
 40
0.6547263328340143
 40
0.7478040553141012
 40
0.8352784168250078
 40
0.9189252427194493
 40
0.9999999999999999
 40
0.9999999999999999
 40
0.9999999999999999
 40
0.9999999999999999
 10
41.24130369408856
 20
13.65539780617108
 30
0.0
 10
41.23693856090912
 20
13.66218265498006
 30
0.0
 10
41.22856054910968
 20
13.6752048334663
 30
0.0
 10
41.21672135550318
 20
13.69412940953207
 30
0.0
 10
41.20605318199669
 20
13.71158718581862
 30
0.0
 10
41.19664817039366
 20
13.72766465244668
 30
0.0
 10
41.18838648629663
 20
13.74223434318265
 30
0.0
 10
41.18132408142002
 20
13.75534355975385
 30
0.0
 10
41.17553853949282
 20
13.76701718491895
 30
0.0
 10
41.16945050413557
 20
13.78040244633142
 30
0.0
 10
41.1636656533232
 20
13.79577011214242
 30
0.0
 10
41.15866590062019
 20
13.81312765776892
 30
0.0
 10
41.15542227209126
 20
13.82946957830181
 30
0.0
 10
41.15505886862773
 20
13.83939333401092
 30
0.0
 10
41.15488000410352
 20
13.84427773391723
 30
0.0
  0
SPLINE
  5
362
330
1F
100
AcDbEntity
  8
0
  6
SLD-Solid
 62
     7
370
    25
100
AcDbSpline
210
0.0
220
0.0
230
1.0
 70
     8
 71
     3
 72
    10
 73
     6
 74
     0
 42
0.00000001
 43
0.00000001
 40
0.0
 40
0.0
 40
0.0
 40
0.0
 40
0.395909140381734
 40
0.7915147790256332
 40
0.9999999999999999
 40
0.9999999999999999
 40
0.9999999999999999
 40
0.9999999999999999
 10
41.15488000410352
 20
13.84427773391723
 30
0.0
 10
41.15559789458784
 20
13.85384468839015
 30
0.0
 10
41.15703312522565
 20
13.87297126336209
 30
0.0
 10
41.1667269200437
 20
13.89102055525861
 30
0.0
 10
41.17621041227986
 20
13.89618677312057
 30
0.0
 10
41.17948337683973
 20
13.89796975006089
 30
0.0
  0
LINE
  5
363
330
1F
100
AcDbEntity
  8
0
  6
SLD-Solid
 62
     7
370
    25
100
AcDbLine
 10
41.2935151443
 20
13.7529803138
 30
0.0
 11
41.2931615909
 21
13.7527762117
 31
0.0
  0
LINE
  5
364
330
1F
100
AcDbEntity
  8
0
  6
SLD-Solid
 62
     7
370
    25
100
AcDbLine
 10
41.1548800041
 20
13.8442777339
 30
0.0
 11
41.1545264507
 21
13.8440736319
 31
0.0
  0
LINE
  5
365
330
1F
100
AcDbEntity
  8
0
  6
SLD-Solid
 62
     7
370
    25
100
AcDbLine
 10
41.2441890637
 20
13.8220733252
 30
0.0
 11
41.2438355103
 21
13.8218692231
 31
0.0
  0
LINE
  5
366
330
1F
100
AcDbEntity
  8
0
  6
SLD-Solid
 62
     7
370
    25
100
AcDbLine
 10
41.2413036941
 20
13.6553978062
 30
0.0
 11
41.2409501407
 21
13.6551937041
 31
0.0
  0
LINE
  5
367
330
1F
100
AcDbEntity
  8
0
  6
SLD-Solid
 62
     7
370
    25
100
AcDbLine
 10
41.1126145326
 20
13.5629338982
 30
0.0
 11
41.0473656362
 21
13.6006012843
 31
0.0
  0
LINE
  5
368
330
1F
100
AcDbEntity
  8
0
  6
SLD-Solid
 62
     7
370
    25
100
AcDbLine
 10
41.0473656362
 20
13.6006012843
 30
0.0
 11
41.0207103169
 21
13.6972244149
 31
0.0
  0
LINE
  5
369
330
1F
100
AcDbEntity
  8
0
  6
SLD-Solid
 62
     7
370
    25
100
AcDbLine
 10
41.0207103169
 20
13.6972244149
 30
0.0
 11
40.8712893902
 21
13.7834832798
 31
0.0
  0
LINE
  5
36A
330
1F
100
AcDbEntity
  8
0
  6
SLD-Solid
 62
     7
370
    25
100
AcDbLine
 10
40.8444144593
 20
13.7177625048
 30
0.0
 11
40.7789575625
 21
13.7555499671
 31
0.0
  0
LINE
  5
36B
330
1F
100
AcDbEntity
  8
0
  6
SLD-Solid
 62
     7
370
    25
100
AcDbLine
 10
40.7789575625
 20
13.7555499671
 30
0.0
 11
40.9173811746
 21
14.0712538064
 31
0.0
  0
LINE
  5
36C
330
1F
100
AcDbEntity
  8
0
  6
SLD-Solid
 62
     7
370
    25
100
AcDbLine
 10
40.9974212621
 20
13.7817498246
 30
0.0
 11
40.9460342032
 21
13.9488962393
 31
0.0
  0
LINE
  5
36D
330
1F
100
AcDbEntity
  8
0
  6
SLD-Solid
 62
     7
370
    25
100
AcDbLine
 10
41.2453569514
 20
13.4761489131
 30
0.0
 11
41.245003398
 21
13.4759448111
 31
0.0
  0
LINE
  5
36E
330
1F
100
AcDbEntity
  8
0
  6
SLD-Solid
 62
     7
370
    25
100
AcDbLine
 10
41.2867826152
 20
13.5608390579
 30
0.0
 11
41.2864290618
 21
13.5606349559
 31
0.0
  0
LINE
  5
36F
330
1F
100
AcDbEntity
  8
0
  6
SLD-Solid
 62
     7
370
    25
100
AcDbLine
 10
40.7789575625
 20
13.7555499671
 30
0.0
 11
40.7786040091
 21
13.755345865
 31
0.0
  0
LINE
  5
370
330
1F
100
AcDbEntity
  8
0
  6
SLD-Solid
 62
     7
370
    25
100
AcDbLine
 10
40.9456806498
 20
13.9486921373
 30
0.0
 11
40.9970677087
 21
13.7815457225
 31
0.0
  0
LINE
  5
371
330
1F
100
AcDbEntity
  8
0
  6
SLD-Solid
 62
     7
370
    25
100
AcDbLine
 10
40.9970677087
 20
13.7815457225
 30
0.0
 11
40.8942935909
 21
13.8408759579
 31
0.0
  0
LINE
  5
372
330
1F
100
AcDbEntity
  8
0
  6
SLD-Solid
 62
     7
370
    25
100
AcDbLine
 10
40.8942935909
 20
13.8408759579
 30
0.0
 11
40.9456806498
 21
13.9486921373
 31
0.0
  0
LINE
  5
373
330
1F
100
AcDbEntity
  8
0
  6
SLD-Solid
 62
     7
370
    25
100
AcDbLine
 10
40.9974212621
 20
13.7817498246
 30
0.0
 11
40.9970677087
 21
13.7815457225
 31
0.0
  0
LINE
  5
374
330
1F
100
AcDbEntity
  8
0
  6
SLD-Solid
 62
     7
370
    25
100
AcDbLine
 10
40.9460342032
 20
13.9488962393
 30
0.0
 11
40.9456806498
 21
13.9486921373
 31
0.0
  0
LINE
  5
375
330
1F
100
AcDbEntity
  8
0
  6
SLD-Solid
 62
     7
370
    25
100
AcDbLine
 10
41.0473656362
 20
13.6006012843
 30
0.0
 11
41.0470120828
 21
13.6003971822
 31
0.0
  0
LINE
  5
376
330
1F
100
AcDbEntity
  8
0
  6
SLD-Solid
 62
     7
370
    25
100
AcDbLine
 10
41.0207103169
 20
13.6972244149
 30
0.0
 11
41.0203567635
 21
13.6970203129
 31
0.0
  0
LINE
  5
377
330
1F
100
AcDbEntity
  8
0
  6
SLD-Solid
 62
     7
370
    25
100
AcDbLine
 10
40.4667880495
 20
14.0789547481
 30
0.0
 11
40.5248823892
 21
14.2978385323
 31
0.0
  0
LINE
  5
378
330
1F
100
AcDbEntity
  8
0
  6
SLD-Solid
 62
     7
370
    25
100
AcDbLine
 10
40.6426581976
 20
13.9774270726
 30
0.0
 11
40.6932078179
 21
14.2006663306
 31
0.0
  0
LINE
  5
379
330
1F
100
AcDbEntity
  8
0
  6
SLD-Solid
 62
     7
370
    25
100
AcDbLine
 10
40.6773543645
 20
13.8142042448
 30
0.0
 11
40.6133236065
 21
13.8511684145
 31
0.0
  0
LINE
  5
37A
330
1F
100
AcDbEntity
  8
0
  6
SLD-Solid
 62
     7
370
    25
100
AcDbLine
 10
40.6133236065
 20
13.8511684145
 30
0.0
 11
40.5547231236
 21
14.1410001455
 31
0.0
  0
LINE
  5
37B
330
1F
100
AcDbEntity
  8
0
  6
SLD-Solid
 62
     7
370
    25
100
AcDbLine
 10
40.4955195789
 20
13.9191752321
 30
0.0
 11
40.4319575163
 21
13.9558688298
 31
0.0
  0
LINE
  5
37C
330
1F
100
AcDbEntity
  8
0
  6
SLD-Solid
 62
     7
370
    25
100
AcDbLine
 10
40.4319575163
 20
13.9558688298
 30
0.0
 11
40.3525543833
 21
14.3973213725
 31
0.0
  0
LINE
  5
37D
330
1F
100
AcDbEntity
  8
0
  6
SLD-Solid
 62
     7
370
    25
100
AcDbLine
 10
40.8712893902
 20
13.7834832798
 30
0.0
 11
40.8709358368
 21
13.7832791777
 31
0.0
  0
LINE
  5
37E
330
1F
100
AcDbEntity
  8
0
  6
SLD-Solid
 62
     7
370
    25
100
AcDbLine
 10
40.6426581976
 20
13.9774270726
 30
0.0
 11
40.6423046443
 21
13.9772229706
 31
0.0
  0
LINE
  5
37F
330
1F
100
AcDbEntity
  8
0
  6
SLD-Solid
 62
     7
370
    25
100
AcDbLine
 10
40.4667880495
 20
14.0789547481
 30
0.0
 11
40.4664344961
 21
14.0787506461
 31
0.0
  0
LINE
  5
380
330
1F
100
AcDbEntity
  8
0
  6
SLD-Solid
 62
     7
370
    25
100
AcDbLine
 10
40.6133236065
 20
13.8511684145
 30
0.0
 11
40.6129700531
 21
13.8509643125
 31
0.0
  0
LINE
  5
381
330
1F
100
AcDbEntity
  8
0
  6
SLD-Solid
 62
     7
370
    25
100
AcDbLine
 10
40.5547231236
 20
14.1410001455
 30
0.0
 11
40.5543695702
 21
14.1407960435
 31
0.0
  0
LINE
  5
382
330
1F
100
AcDbEntity
  8
0
  6
SLD-Solid
 62
     7
370
    25
100
AcDbLine
 10
40.4319575163
 20
13.9558688298
 30
0.0
 11
40.4316039629
 21
13.9556647278
 31
0.0
  0
LINE
  5
383
330
1F
100
AcDbEntity
  8
0
  6
SLD-Solid
 62
     7
370
    25
100
AcDbLine
 10
27.798980342
 20
11.3170836748
 30
0.0
 11
27.798980342
 21
12.5170836748
 31
0.0
  0
LINE
  5
384
330
1F
100
AcDbEntity
  8
0
  6
SLD-Solid
 62
     7
370
    25
100
AcDbLine
 10
33.523980342
 20
11.3170836748
 30
0.0
 11
27.798980342
 21
11.3170836748
 31
0.0
  0
LINE
  5
385
330
1F
100
AcDbEntity
  8
0
  6
SLD-Solid
 62
     7
370
    25
100
AcDbLine
 10
33.523980342
 20
12.5170836748
 30
0.0
 11
33.523980342
 21
11.3170836748
 31
0.0
  0
LINE
  5
386
330
1F
100
AcDbEntity
  8
0
  6
SLD-Solid
 62
     7
370
    25
100
AcDbLine
 10
27.798980342
 20
12.5170836748
 30
0.0
 11
33.523980342
 21
12.5170836748
 31
0.0
  0
LINE
  5
387
330
1F
100
AcDbEntity
  8
0
  6
SLD-Solid
 62
     7
370
    25
100
AcDbLine
 10
33.523980342
 20
17.1170836748
 30
0.0
 11
27.798980342
 21
17.1170836748
 31
0.0
  0
LINE
  5
388
330
1F
100
AcDbEntity
  8
0
  6
SLD-Solid
 62
     7
370
    25
100
AcDbLine
 10
33.523980342
 20
15.9170836748
 30
0.0
 11
33.523980342
 21
17.1170836748
 31
0.0
  0
LINE
  5
389
330
1F
100
AcDbEntity
  8
0
  6
SLD-Solid
 62
     7
370
    25
100
AcDbLine
 10
27.798980342
 20
15.9170836748
 30
0.0
 11
33.523980342
 21
15.9170836748
 31
0.0
  0
LINE
  5
38A
330
1F
100
AcDbEntity
  8
0
  6
SLD-Solid
 62
     7
370
    25
100
AcDbLine
 10
27.798980342
 20
17.1170836748
 30
0.0
 11
27.798980342
 21
15.9170836748
 31
0.0
  0
LINE
  5
38B
330
1F
100
AcDbEntity
  8
0
  6
SLD-Solid
 62
     7
370
    25
100
AcDbLine
 10
27.661480342
 20
17.2170836748
 30
0.0
 11
33.661480342
 21
17.2170836748
 31
0.0
  0
LINE
  5
38C
330
1F
100
AcDbEntity
  8
0
  6
SLD-Solid
 62
     7
370
    25
100
AcDbLine
 10
33.661480342
 20
17.2170836748
 30
0.0
 11
33.661480342
 21
11.2170836748
 31
0.0
  0
LINE
  5
38D
330
1F
100
AcDbEntity
  8
0
  6
SLD-Solid
 62
     7
370
    25
100
AcDbLine
 10
27.661480342
 20
11.2170836748
 30
0.0
 11
33.661480342
 21
11.2170836748
 31
0.0
  0
LINE
  5
38E
330
1F
100
AcDbEntity
  8
0
  6
SLD-Solid
 62
     7
370
    25
100
AcDbLine
 10
27.661480342
 20
17.2170836748
 30
0.0
 11
27.661480342
 21
11.2170836748
 31
0.0
  0
MTEXT
  5
38F
330
1F
100
AcDbEntity
  8
NOTES
100
AcDbMText
 10
26.4453631959
 20
19.2019070052
 30
0.0
 40
0.5
 41
0.0
 71
     1
 72
     1
  1
adhesive mounting tape
  7
SLDTEXTSTYLE0
 73
     1
 44
1.0
  0
LEADER
  5
391
330
1F
100
AcDbEntity
  8
NOTES
100
AcDbLeader
  3
SLDDIMSTYLE3
 76
     3
 10
28.5739202745
 20
17.1170836748
 30
0.0
 10
25.9255099631
 20
18.9576707521
 30
0.0
 10
26.4255099631
 20
18.9576707521
 30
0.0
  0
LEADER
  5
392
330
1F
100
AcDbEntity
  8
NOTES
100
AcDbLeader
  3
SLDDIMSTYLE3
 76
     3
 10
28.7703262209
 20
12.5170836748
 30
0.0
 10
25.9255099631
 20
18.9576707521
 30
0.0
 10
26.4255099631
 20
18.9576707521
 30
0.0
  0
ENDSEC
  0
SECTION
  2
OBJECTS
  0
DICTIONARY
  5
C
330
0
100
AcDbDictionary
281
     1
  3
ACAD_GROUP
350
D
  3
ACAD_LAYOUT
350
1A
  3
ACAD_MLINESTYLE
350
17
  3
ACAD_PLOTSETTINGS
350
19
  3
ACAD_PLOTSTYLENAME
350
E
  3
ACAD_SCALELIST
350
47
  3
DWGPROPS
350
393
  0
DICTIONARY
  5
D
102
{ACAD_REACTORS
330
C
102
}
330
C
100
AcDbDictionary
281
     1
  0
DICTIONARY
  5
1A
102
{ACAD_REACTORS
330
C
102
}
330
C
100
AcDbDictionary
281
     1
  3
Layout1
350
1E
  3
Layout2
350
26
  3
Model
350
22
  0
DICTIONARY
  5
17
102
{ACAD_REACTORS
330
C
102
}
330
C
100
AcDbDictionary
281
     1
  3
Standard
350
18
  0
DICTIONARY
  5
19
102
{ACAD_REACTORS
330
C
102
}
330
C
100
AcDbDictionary
281
     1
  0
ACDBDICTIONARYWDFLT
  5
E
102
{ACAD_REACTORS
330
C
102
}
330
C
100
AcDbDictionary
281
     1
  3
Normal
350
F
100
AcDbDictionaryWithDefault
340
F
  0
DICTIONARY
  5
47
102
{ACAD_REACTORS
330
C
102
}
330
C
100
AcDbDictionary
281
     1
  3
A0
350
48
  3
A1
350
49
  3
A2
350
4A
  3
A3
350
4B
  3
A4
350
4C
  3
A5
350
4D
  3
A6
350
4E
  3
A7
350
4F
  3
A8
350
50
  3
A9
350
51
  3
B0
350
52
  3
B1
350
53
  3
B2
350
54
  3
B3
350
55
  3
B4
350
56
  3
B5
350
57
  3
B6
350
58
  3
B7
350
59
  3
B8
350
5A
  3
B9
350
5B
  3
C0
350
5C
  3
C1
350
5D
  3
C2
350
5E
  3
C3
350
5F
  3
C4
350
60
  3
C5
350
61
  3
C6
350
62
  3
C7
350
63
  3
C8
350
64
  3
C9
350
65
  3
D0
350
66
  3
D1
350
67
  3
D2
350
68
  0
XRECORD
  5
393
102
{ACAD_REACTORS
330
C
102
}
330
C
100
AcDbXrecord
280
     1
  1
DWGPROPS COOKIE
  2

  3

  4

  6

  7

  8
carl
  9

300
=
301
=
302
=
303
=
304
=
305
=
306
=
307
=
308
=
309
=
 40
0.0
 41
2459475.533005058
 42
2459475.533008495
  1

 90
        0
  0
LAYOUT
  5
1E
102
{ACAD_REACTORS
330
1A
102
}
330
1A
100
AcDbPlotSettings
  1

  2
none_device
  4

  6

 40
0.0
 41
0.0
 42
0.0
 43
0.0
 44
0.0
 45
0.0
 46
0.0
 47
0.0
 48
0.0
 49
0.0
140
0.0
141
0.0
142
1.0
143
1.0
 70
   688
 72
     0
 73
     0
 74
     5
  7

 75
    16
147
1.0
148
0.0
149
0.0
100
AcDbLayout
  1
Layout1
 70
     1
 71
     1
 10
0.0
 20
0.0
 11
12.0
 21
9.0
 12
0.0
 22
0.0
 32
0.0
 14
1.0000000000E+20
 24
1.0000000000E+20
 34
1.0000000000E+20
 15
-1.0000000000E+20
 25
-1.0000000000E+20
 35
-1.0000000000E+20
146
0.0
 13
0.0
 23
0.0
 33
0.0
 16
1.0
 26
0.0
 36
0.0
 17
0.0
 27
1.0
 37
0.0
 76
     0
330
1B
  0
LAYOUT
  5
26
102
{ACAD_REACTORS
330
1A
102
}
330
1A
100
AcDbPlotSettings
  1

  2
none_device
  4

  6

 40
0.0
 41
0.0
 42
0.0
 43
0.0
 44
0.0
 45
0.0
 46
0.0
 47
0.0
 48
0.0
 49
0.0
140
0.0
141
0.0
142
1.0
143
1.0
 70
   688
 72
     0
 73
     0
 74
     5
  7

 75
    16
147
1.0
148
0.0
149
0.0
100
AcDbLayout
  1
Layout2
 70
     1
 71
     2
 10
0.0
 20
0.0
 11
0.0
 21
0.0
 12
0.0
 22
0.0
 32
0.0
 14
0.0
 24
0.0
 34
0.0
 15
0.0
 25
0.0
 35
0.0
146
0.0
 13
0.0
 23
0.0
 33
0.0
 16
1.0
 26
0.0
 36
0.0
 17
0.0
 27
1.0
 37
0.0
 76
     0
330
23
  0
LAYOUT
  5
22
102
{ACAD_REACTORS
330
1A
102
}
330
1A
100
AcDbPlotSettings
  1

  2
none_device
  4
Letter_(8.50_x_11.00_Inches)
  6

 40
6.35
 41
6.35
 42
6.35000508
 43
6.35000508
 44
215.9
 45
279.4
 46
0.0
 47
0.0
 48
0.0
 49
0.0
140
0.0
141
0.0
142
1.0
143
1.0
 70
  1712
 72
     0
 73
     0
 74
     0
  7

 75
     0
147
1.0
148
0.0
149
0.0
100
AcDbLayout
  1
Model
 70
     1
 71
     0
 10
0.0
 20
0.0
 11
48.0
 21
36.0
 12
0.0
 22
0.0
 32
0.0
 14
0.0
 24
0.0
 34
0.0
 15
48.0
 25
36.0
 35
0.0
146
0.0
 13
0.0
 23
0.0
 33
0.0
 16
1.0
 26
0.0
 36
0.0
 17
0.0
 27
1.0
 37
0.0
 76
     0
330
1F
331
29
  0
MLINESTYLE
  5
18
102
{ACAD_REACTORS
330
17
102
}
330
17
100
AcDbMlineStyle
  2
Standard
 70
     0
  3

 62
   256
 51
90.0
 52
90.0
 71
     2
 49
0.5
 62
   256
  6
BYLAYER
 49
-0.5
 62
   256
  6
BYLAYER
  0
ACDBPLACEHOLDER
  5
F
102
{ACAD_REACTORS
330
E
102
}
330
E
  0
SCALE
  5
48
102
{ACAD_REACTORS
330
47
102
}
330
47
100
AcDbScale
 70
     0
300
1:1
140
1.0
141
1.0
290
     1
  0
SCALE
  5
49
102
{ACAD_REACTORS
330
47
102
}
330
47
100
AcDbScale
 70
     0
300
1:2
140
1.0
141
2.0
290
     0
  0
SCALE
  5
4A
102
{ACAD_REACTORS
330
47
102
}
330
47
100
AcDbScale
 70
     0
300
1:4
140
1.0
141
4.0
290
     0
  0
SCALE
  5
4B
102
{ACAD_REACTORS
330
47
102
}
330
47
100
AcDbScale
 70
     0
300
1:5
140
1.0
141
5.0
290
     0
  0
SCALE
  5
4C
102
{ACAD_REACTORS
330
47
102
}
330
47
100
AcDbScale
 70
     0
300
1:8
140
1.0
141
8.0
290
     0
  0
SCALE
  5
4D
102
{ACAD_REACTORS
330
47
102
}
330
47
100
AcDbScale
 70
     0
300
1:10
140
1.0
141
10.0
290
     0
  0
SCALE
  5
4E
102
{ACAD_REACTORS
330
47
102
}
330
47
100
AcDbScale
 70
     0
300
1:16
140
1.0
141
16.0
290
     0
  0
SCALE
  5
4F
102
{ACAD_REACTORS
330
47
102
}
330
47
100
AcDbScale
 70
     0
300
1:20
140
1.0
141
20.0
290
     0
  0
SCALE
  5
50
102
{ACAD_REACTORS
330
47
102
}
330
47
100
AcDbScale
 70
     0
300
1:30
140
1.0
141
30.0
290
     0
  0
SCALE
  5
51
102
{ACAD_REACTORS
330
47
102
}
330
47
100
AcDbScale
 70
     0
300
1:40
140
1.0
141
40.0
290
     0
  0
SCALE
  5
52
102
{ACAD_REACTORS
330
47
102
}
330
47
100
AcDbScale
 70
     0
300
1:50
140
1.0
141
50.0
290
     0
  0
SCALE
  5
53
102
{ACAD_REACTORS
330
47
102
}
330
47
100
AcDbScale
 70
     0
300
1:100
140
1.0
141
100.0
290
     0
  0
SCALE
  5
54
102
{ACAD_REACTORS
330
47
102
}
330
47
100
AcDbScale
 70
     0
300
2:1
140
2.0
141
1.0
290
     0
  0
SCALE
  5
55
102
{ACAD_REACTORS
330
47
102
}
330
47
100
AcDbScale
 70
     0
300
4:1
140
4.0
141
1.0
290
     0
  0
SCALE
  5
56
102
{ACAD_REACTORS
330
47
102
}
330
47
100
AcDbScale
 70
     0
300
8:1
140
8.0
141
1.0
290
     0
  0
SCALE
  5
57
102
{ACAD_REACTORS
330
47
102
}
330
47
100
AcDbScale
 70
     0
300
10:1
140
10.0
141
1.0
290
     0
  0
SCALE
  5
58
102
{ACAD_REACTORS
330
47
102
}
330
47
100
AcDbScale
 70
     0
300
100:1
140
100.0
141
1.0
290
     0
  0
SCALE
  5
59
102
{ACAD_REACTORS
330
47
102
}
330
47
100
AcDbScale
 70
     0
300
1/128" = 1'-0"
140
0.0078125
141
12.0
290
     0
  0
SCALE
  5
5A
102
{ACAD_REACTORS
330
47
102
}
330
47
100
AcDbScale
 70
     0
300
1/64" = 1'-0"
140
0.015625
141
12.0
290
     0
  0
SCALE
  5
5B
102
{ACAD_REACTORS
330
47
102
}
330
47
100
AcDbScale
 70
     0
300
1/32" = 1'-0"
140
0.03125
141
12.0
290
     0
  0
SCALE
  5
5C
102
{ACAD_REACTORS
330
47
102
}
330
47
100
AcDbScale
 70
     0
300
1/16" = 1'-0"
140
0.0625
141
12.0
290
     0
  0
SCALE
  5
5D
102
{ACAD_REACTORS
330
47
102
}
330
47
100
AcDbScale
 70
     0
300
3/32" = 1'-0"
140
0.09375
141
12.0
290
     0
  0
SCALE
  5
5E
102
{ACAD_REACTORS
330
47
102
}
330
47
100
AcDbScale
 70
     0
300
1/8" = 1'-0"
140
0.125
141
12.0
290
     0
  0
SCALE
  5
5F
102
{ACAD_REACTORS
330
47
102
}
330
47
100
AcDbScale
 70
     0
300
3/16" = 1'-0"
140
0.1875
141
12.0
290
     0
  0
SCALE
  5
60
102
{ACAD_REACTORS
330
47
102
}
330
47
100
AcDbScale
 70
     0
300
1/4" = 1'-0"
140
0.25
141
12.0
290
     0
  0
SCALE
  5
61
102
{ACAD_REACTORS
330
47
102
}
330
47
100
AcDbScale
 70
     0
300
3/8" = 1'-0"
140
0.375
141
12.0
290
     0
  0
SCALE
  5
62
102
{ACAD_REACTORS
330
47
102
}
330
47
100
AcDbScale
 70
     0
300
1/2" = 1'-0"
140
0.5
141
12.0
290
     0
  0
SCALE
  5
63
102
{ACAD_REACTORS
330
47
102
}
330
47
100
AcDbScale
 70
     0
300
3/4" = 1'-0"
140
0.75
141
12.0
290
     0
  0
SCALE
  5
64
102
{ACAD_REACTORS
330
47
102
}
330
47
100
AcDbScale
 70
     0
300
1" = 1'-0"
140
1.0
141
12.0
290
     0
  0
SCALE
  5
65
102
{ACAD_REACTORS
330
47
102
}
330
47
100
AcDbScale
 70
     0
300
1-1/2" = 1'-0"
140
1.5
141
12.0
290
     0
  0
SCALE
  5
66
102
{ACAD_REACTORS
330
47
102
}
330
47
100
AcDbScale
 70
     0
300
3" = 1'-0"
140
3.0
141
12.0
290
     0
  0
SCALE
  5
67
102
{ACAD_REACTORS
330
47
102
}
330
47
100
AcDbScale
 70
     0
300
6" = 1'-0"
140
6.0
141
12.0
290
     0
  0
SCALE
  5
68
102
{ACAD_REACTORS
330
47
102
}
330
47
100
AcDbScale
 70
     0
300
1'-0" = 1'-0"
140
12.0
141
12.0
290
     0
  0
ENDSEC
  0
EOF
