  0
SECTION
  2
HEADER
  9
$ACADVER
  1
AC1015
  9
$ACADMAINTVER
 70
     6
  9
$DWGCODEPAGE
  3
ANSI_1252
  9
$INSBASE
 10
0.0
 20
0.0
 30
0.0
  9
$EXTMIN
 10
0.0
 20
0.0
 30
0.0
  9
$EXTMAX
 10
48.0
 20
36.0
 30
0.0
  9
$LIMMIN
 10
0.0
 20
0.0
  9
$LIMMAX
 10
48.0
 20
36.0
  9
$ORTHOMODE
 70
     0
  9
$REGENMODE
 70
     1
  9
$FILLMODE
 70
     1
  9
$QTEXTMODE
 70
     0
  9
$MIRRTEXT
 70
     1
  9
$LTSCALE
 40
1.0
  9
$ATTMODE
 70
     1
  9
$TEXTSIZE
 40
0.5
  9
$TRACEWID
 40
0.05
  9
$TEXTSTYLE
  7
STANDARD
  9
$CLAYER
  8
0
  9
$CELTYPE
  6
ByLayer
  9
$CECOLOR
 62
   256
  9
$CELTSCALE
 40
1.0
  9
$DISPSILH
 70
     0
  9
$DIMSCALE
 40
1.0
  9
$DIMASZ
 40
0.3
  9
$DIMEXO
 40
0.1666666667
  9
$DIMDLI
 40
0.38
  9
$DIMRND
 40
0.0
  9
$DIMDLE
 40
0.0
  9
$DIMEXE
 40
0.375
  9
$DIMTP
 40
0.0
  9
$DIMTM
 40
0.0
  9
$DIMTXT
 40
0.5
  9
$DIMCEN
 40
0.09
  9
$DIMTSZ
 40
0.0
  9
$DIMTOL
 70
     0
  9
$DIMLIM
 70
     0
  9
$DIMTIH
 70
     1
  9
$DIMTOH
 70
     1
  9
$DIMSE1
 70
     0
  9
$DIMSE2
 70
     0
  9
$DIMTAD
 70
     0
  9
$DIMZIN
 70
     1
  9
$DIMBLK
  1

  9
$DIMASO
 70
     1
  9
$DIMSHO
 70
     1
  9
$DIMPOST
  1

  9
$DIMAPOST
  1

  9
$DIMALT
 70
     0
  9
$DIMALTD
 70
     2
  9
$DIMALTF
 40
25.4
  9
$DIMLFAC
 40
1.0
  9
$DIMTOFL
 70
     0
  9
$DIMTVP
 40
0.0
  9
$DIMTIX
 70
     0
  9
$DIMSOXD
 70
     0
  9
$DIMSAH
 70
     0
  9
$DIMBLK1
  1

  9
$DIMBLK2
  1

  9
$DIMSTYLE
  2
Standard
  9
$DIMCLRD
 70
     0
  9
$DIMCLRE
 70
     0
  9
$DIMCLRT
 70
     0
  9
$DIMTFAC
 40
1.0
  9
$DIMGAP
 40
0.125
  9
$DIMJUST
 70
     0
  9
$DIMSD1
 70
     0
  9
$DIMSD2
 70
     0
  9
$DIMTOLJ
 70
     1
  9
$DIMTZIN
 70
     1
  9
$DIMALTZ
 70
     0
  9
$DIMALTTZ
 70
     0
  9
$DIMUPT
 70
     0
  9
$DIMDEC
 70
     2
  9
$DIMTDEC
 70
     2
  9
$DIMALTU
 70
     2
  9
$DIMALTTD
 70
     2
  9
$DIMTXSTY
  7
STANDARD
  9
$DIMAUNIT
 70
     0
  9
$DIMADEC
 70
     2
  9
$DIMALTRND
 40
0.0
  9
$DIMAZIN
 70
     0
  9
$DIMDSEP
 70
    46
  9
$DIMATFIT
 70
     3
  9
$DIMFRAC
 70
     0
  9
$DIMLDRBLK
  1

  9
$DIMLUNIT
 70
     2
  9
$DIMLWD
 70
    -2
  9
$DIMLWE
 70
    -2
  9
$DIMTMOVE
 70
     0
  9
$LUNITS
 70
     2
  9
$LUPREC
 70
     4
  9
$SKETCHINC
 40
0.1
  9
$FILLETRAD
 40
0.5
  9
$AUNITS
 70
     0
  9
$AUPREC
 70
     2
  9
$MENU
  1
.
  9
$ELEVATION
 40
0.0
  9
$PELEVATION
 40
0.0
  9
$THICKNESS
 40
0.0
  9
$LIMCHECK
 70
     0
  9
$CHAMFERA
 40
0.0
  9
$CHAMFERB
 40
0.0
  9
$CHAMFERC
 40
0.0
  9
$CHAMFERD
 40
0.0
  9
$SKPOLY
 70
     0
  9
$TDCREATE
 40
2459475.423018796
  9
$TDUCREATE
 40
2459475.589685463
  9
$TDUPDATE
 40
2459475.423022095
  9
$TDUUPDATE
 40
2459475.589688762
  9
$TDINDWG
 40
0.0000000116
  9
$TDUSRTIMER
 40
0.0000000116
  9
$USRTIMER
 70
     1
  9
$ANGBASE
 50
0.0
  9
$ANGDIR
 70
     0
  9
$PDMODE
 70
     0
  9
$PDSIZE
 40
-1.0
  9
$PLINEWID
 40
0.0
  9
$SPLFRAME
 70
     0
  9
$SPLINETYPE
 70
     6
  9
$SPLINESEGS
 70
     8
  9
$HANDSEED
  5
38B
  9
$SURFTAB1
 70
     6
  9
$SURFTAB2
 70
     6
  9
$SURFTYPE
 70
     6
  9
$SURFU
 70
     6
  9
$SURFV
 70
     6
  9
$UCSBASE
  2

  9
$UCSNAME
  2

  9
$UCSORG
 10
0.0
 20
0.0
 30
0.0
  9
$UCSXDIR
 10
1.0
 20
0.0
 30
0.0
  9
$UCSYDIR
 10
0.0
 20
1.0
 30
0.0
  9
$UCSORTHOREF
  2

  9
$UCSORTHOVIEW
 70
     0
  9
$UCSORGTOP
 10
0.0
 20
0.0
 30
0.0
  9
$UCSORGBOTTOM
 10
0.0
 20
0.0
 30
0.0
  9
$UCSORGLEFT
 10
0.0
 20
0.0
 30
0.0
  9
$UCSORGRIGHT
 10
0.0
 20
0.0
 30
0.0
  9
$UCSORGFRONT
 10
0.0
 20
0.0
 30
0.0
  9
$UCSORGBACK
 10
0.0
 20
0.0
 30
0.0
  9
$PUCSBASE
  2

  9
$PUCSNAME
  2

  9
$PUCSORG
 10
0.0
 20
0.0
 30
0.0
  9
$PUCSXDIR
 10
1.0
 20
0.0
 30
0.0
  9
$PUCSYDIR
 10
0.0
 20
1.0
 30
0.0
  9
$PUCSORTHOREF
  2

  9
$PUCSORTHOVIEW
 70
     0
  9
$PUCSORGTOP
 10
0.0
 20
0.0
 30
0.0
  9
$PUCSORGBOTTOM
 10
0.0
 20
0.0
 30
0.0
  9
$PUCSORGLEFT
 10
0.0
 20
0.0
 30
0.0
  9
$PUCSORGRIGHT
 10
0.0
 20
0.0
 30
0.0
  9
$PUCSORGFRONT
 10
0.0
 20
0.0
 30
0.0
  9
$PUCSORGBACK
 10
0.0
 20
0.0
 30
0.0
  9
$USERI1
 70
     0
  9
$USERI2
 70
     0
  9
$USERI3
 70
     0
  9
$USERI4
 70
     0
  9
$USERI5
 70
     0
  9
$USERR1
 40
0.0
  9
$USERR2
 40
0.0
  9
$USERR3
 40
0.0
  9
$USERR4
 40
0.0
  9
$USERR5
 40
0.0
  9
$WORLDVIEW
 70
     1
  9
$SHADEDGE
 70
     3
  9
$SHADEDIF
 70
    70
  9
$TILEMODE
 70
     1
  9
$MAXACTVP
 70
    64
  9
$PINSBASE
 10
0.0
 20
0.0
 30
0.0
  9
$PLIMCHECK
 70
     0
  9
$PEXTMIN
 10
1.0000000000E+20
 20
1.0000000000E+20
 30
1.0000000000E+20
  9
$PEXTMAX
 10
-1.0000000000E+20
 20
-1.0000000000E+20
 30
-1.0000000000E+20
  9
$PLIMMIN
 10
0.0
 20
0.0
  9
$PLIMMAX
 10
12.0
 20
9.0
  9
$UNITMODE
 70
     0
  9
$VISRETAIN
 70
     1
  9
$PLINEGEN
 70
     0
  9
$PSLTSCALE
 70
     1
  9
$TREEDEPTH
 70
  3020
  9
$CMLSTYLE
  2
Standard
  9
$CMLJUST
 70
     0
  9
$CMLSCALE
 40
1.0
  9
$PROXYGRAPHICS
 70
     1
  9
$MEASUREMENT
 70
     0
  9
$CELWEIGHT
370
    -1
  9
$ENDCAPS
280
     0
  9
$JOINSTYLE
280
     0
  9
$LWDISPLAY
290
     1
  9
$INSUNITS
 70
     1
  9
$HYPERLINKBASE
  1

  9
$STYLESHEET
  1

  9
$XEDIT
290
     1
  9
$CEPSNTYPE
380
     0
  9
$PSTYLEMODE
290
     1
  9
$FINGERPRINTGUID
  2
{2222ece2-74e1-4536-ad9b-14bd9f588960}
  9
$VERSIONGUID
  2
{FAEB1C32-E019-11D5-929B-00C0DF256EC4}
  9
$EXTNAMES
290
     1
  9
$PSVPSCALE
 40
0.0
  9
$OLESTARTUP
290
     0
  0
ENDSEC
  0
SECTION
  2
CLASSES
  0
CLASS
  1
ACDBDICTIONARYWDFLT
  2
AcDbDictionaryWithDefault
  3
ObjectDBX Classes
 90
        0
280
     0
281
     0
  0
CLASS
  1
VISUALSTYLE
  2
AcDbVisualStyle
  3
ObjectDBX Classes
 90
     4095
280
     0
281
     0
  0
CLASS
  1
MATERIAL
  2
AcDbMaterial
  3
ObjectDBX Classes
 90
     1153
280
     0
281
     0
  0
CLASS
  1
SCALE
  2
AcDbScale
  3
ObjectDBX Classes
 90
     1153
280
     0
281
     0
  0
CLASS
  1
TABLESTYLE
  2
AcDbTableStyle
  3
ObjectDBX Classes
 90
     4095
280
     0
281
     0
  0
CLASS
  1
MLEADERSTYLE
  2
AcDbMLeaderStyle
  3
ACDB_MLEADERSTYLE_CLASS
 90
     4095
280
     0
281
     0
  0
CLASS
  1
SUN
  2
AcDbSun
  3
SCENEOE
 90
     1153
280
     0
281
     0
  0
CLASS
  1
ACDBPLACEHOLDER
  2
AcDbPlaceHolder
  3
ObjectDBX Classes
 90
        0
280
     0
281
     0
  0
CLASS
  1
LAYOUT
  2
AcDbLayout
  3
ObjectDBX Classes
 90
        0
280
     0
281
     0
  0
ENDSEC
  0
SECTION
  2
TABLES
  0
TABLE
  2
VPORT
  5
8
330
0
100
AcDbSymbolTable
 70
     1
  0
VPORT
  5
29
330
8
100
AcDbSymbolTableRecord
100
AcDbViewportTableRecord
  2
*Active
 70
     0
 10
0.0
 20
0.0
 11
1.0
 21
1.0
 12
24.0
 22
18.0
 13
0.0
 23
0.0
 14
0.5
 24
0.5
 15
0.5
 25
0.5
 16
0.0
 26
0.0
 36
1.0
 17
0.0
 27
0.0
 37
0.0
 40
36.0
 41
1.3333333333
 42
50.0
 43
0.0
 44
0.0
 50
0.0
 51
0.0
 71
     0
 72
  2000
 73
     1
 74
     3
 75
     0
 76
     0
 77
     0
 78
     0
281
     0
 65
     1
110
0.0
120
0.0
130
0.0
111
1.0
121
0.0
131
0.0
112
0.0
122
1.0
132
0.0
 79
     0
146
0.0
  0
ENDTAB
  0
TABLE
  2
LTYPE
  5
5
330
0
100
AcDbSymbolTable
 70
     8
  0
LTYPE
  5
14
330
5
100
AcDbSymbolTableRecord
100
AcDbLinetypeTableRecord
  2
ByBlock
 70
     0
  3

 72
    65
 73
     0
 40
0.0
  0
LTYPE
  5
15
330
5
100
AcDbSymbolTableRecord
100
AcDbLinetypeTableRecord
  2
ByLayer
 70
     0
  3

 72
    65
 73
     0
 40
0.0
  0
LTYPE
  5
16
330
5
100
AcDbSymbolTableRecord
100
AcDbLinetypeTableRecord
  2
Continuous
 70
     0
  3
Solid line
 72
    65
 73
     0
 40
0.0
  0
LTYPE
  5
6E
330
5
100
AcDbSymbolTableRecord
100
AcDbLinetypeTableRecord
  2
SLD-Solid
 70
     0
  3
SolidWorks Line Style
 72
    65
 73
     0
 40
0.0
  0
LTYPE
  5
6F
330
5
100
AcDbSymbolTableRecord
100
AcDbLinetypeTableRecord
  2
SLD-Dashed
 70
     0
  3
SolidWorks Line Style
 72
    65
 73
     2
 40
0.075
 49
0.05
 74
     0
 49
-0.025
 74
     0
  0
LTYPE
  5
70
330
5
100
AcDbSymbolTableRecord
100
AcDbLinetypeTableRecord
  2
SLD-Phantom
 70
     0
  3
SolidWorks Line Style
 72
    65
 73
     6
 40
0.5
 49
0.25
 74
     0
 49
-0.05
 74
     0
 49
0.05
 74
     0
 49
-0.05
 74
     0
 49
0.05
 74
     0
 49
-0.05
 74
     0
  0
LTYPE
  5
71
330
5
100
AcDbSymbolTableRecord
100
AcDbLinetypeTableRecord
  2
SLD-Chain
 70
     0
  3
SolidWorks Line Style
 72
    65
 73
     4
 40
0.4
 49
0.25
 74
     0
 49
-0.05
 74
     0
 49
0.05
 74
     0
 49
-0.05
 74
     0
  0
LTYPE
  5
72
330
5
100
AcDbSymbolTableRecord
100
AcDbLinetypeTableRecord
  2
SLD-Center
 70
     0
  3
SolidWorks Line Style
 72
    65
 73
     4
 40
0.75
 49
0.6
 74
     0
 49
-0.05
 74
     0
 49
0.05
 74
     0
 49
-0.05
 74
     0
  0
LTYPE
  5
73
330
5
100
AcDbSymbolTableRecord
100
AcDbLinetypeTableRecord
  2
SLD-Stitch
 70
     0
  3
SolidWorks Line Style
 72
    65
 73
     2
 40
0.025
 49
0.0
 74
     0
 49
-0.025
 74
     0
  0
LTYPE
  5
74
330
5
100
AcDbSymbolTableRecord
100
AcDbLinetypeTableRecord
  2
SLD-Thin-Thick-Chain
 70
     0
  3
SolidWorks Line Style
 72
    65
 73
     4
 40
0.4
 49
0.25
 74
     0
 49
-0.05
 74
     0
 49
0.05
 74
     0
 49
-0.05
 74
     0
  0
ENDTAB
  0
TABLE
  2
LAYER
  5
2
330
0
100
AcDbSymbolTable
 70
     6
  0
LAYER
  5
10
330
2
100
AcDbSymbolTableRecord
100
AcDbLayerTableRecord
  2
0
 70
     0
 62
     7
  6
Continuous
370
    -3
390
F
  0
LAYER
  5
75
330
2
100
AcDbSymbolTableRecord
100
AcDbLayerTableRecord
  2
FORMAT
 70
     0
 62
     7
  6
SLD-Solid
370
    -3
390
F
  0
LAYER
  5
76
330
2
100
AcDbSymbolTableRecord
100
AcDbLayerTableRecord
  2
NOTES
 70
     0
 62
     1
  6
SLD-Solid
370
    -3
390
F
  0
LAYER
  5
77
330
2
100
AcDbSymbolTableRecord
100
AcDbLayerTableRecord
  2
OBJECT
 70
     0
 62
     7
  6
SLD-Solid
370
    25
390
F
  0
LAYER
  5
78
330
2
100
AcDbSymbolTableRecord
100
AcDbLayerTableRecord
  2
DIMS
 70
     0
 62
     5
  6
SLD-Solid
370
    -3
390
F
  0
LAYER
  5
79
330
2
100
AcDbSymbolTableRecord
100
AcDbLayerTableRecord
  2
TITLE
 70
     0
 62
     8
  6
SLD-Solid
370
    -3
390
F
  0
ENDTAB
  0
TABLE
  2
STYLE
  5
3
330
0
100
AcDbSymbolTable
 70
     5
  0
STYLE
  5
11
330
3
100
AcDbSymbolTableRecord
100
AcDbTextStyleTableRecord
  2
STANDARD
 70
     0
 40
0.0
 41
1.0
 50
0.0
 71
     0
 42
0.5
  3
GOTHIC.TTF
  4

1001
ACAD
1000
CENTURY GOTHIC
1071
       34
  0
STYLE
  5
DF
330
3
100
AcDbSymbolTableRecord
100
AcDbTextStyleTableRecord
  2
SLDTEXTSTYLE0
 70
     0
 40
0.0
 41
0.913
 50
0.0
 71
     0
 42
0.5
  3
GOTHIC.TTF
  4

1001
ACAD
1000
Century Gothic
1071
      290
  0
STYLE
  5
E9
330
3
100
AcDbSymbolTableRecord
100
AcDbTextStyleTableRecord
  2
SLDTEXTSTYLE1
 70
     0
 40
0.0
 41
0.948
 50
0.0
 71
     0
 42
0.5
  3
ARIAL.TTF
  4

1001
ACAD
1000
Arial
1071
      290
  0
STYLE
  5
FB
330
3
100
AcDbSymbolTableRecord
100
AcDbTextStyleTableRecord
  2
SLDTEXTSTYLE2
 70
     0
 40
0.0
 41
0.87
 50
0.0
 71
     0
 42
0.5
  3
ARIALNB.TTF
  4

1001
ACAD
1000
Arial Narrow
1071
 33554722
  0
STYLE
  5
FD
330
3
100
AcDbSymbolTableRecord
100
AcDbTextStyleTableRecord
  2
SLDTEXTSTYLE3
 70
     0
 40
0.0
 41
0.87
 50
0.0
 71
     0
 42
0.5
  3
ARIALN.TTF
  4

1001
ACAD
1000
Arial Narrow
1071
      290
  0
ENDTAB
  0
TABLE
  2
VIEW
  5
6
330
0
100
AcDbSymbolTable
 70
     0
  0
ENDTAB
  0
TABLE
  2
UCS
  5
7
330
0
100
AcDbSymbolTable
 70
     0
  0
ENDTAB
  0
TABLE
  2
APPID
  5
9
330
0
100
AcDbSymbolTable
 70
     1
  0
APPID
  5
12
330
9
100
AcDbSymbolTableRecord
100
AcDbRegAppTableRecord
  2
ACAD
 70
     0
  0
ENDTAB
  0
TABLE
  2
DIMSTYLE
  5
A
330
0
100
AcDbSymbolTable
 70
     5
100
AcDbDimStyleTable
  0
DIMSTYLE
105
27
330
A
100
AcDbSymbolTableRecord
100
AcDbDimStyleTableRecord
  2
Standard
 70
     0
178
     0
340
11
  0
DIMSTYLE
105
1F3
102
{ACAD_REACTORS
330
1F2
330
204
102
}
330
A
100
AcDbSymbolTableRecord
100
AcDbDimStyleTableRecord
  2
SLDDIMSTYLE0
 70
     0
 41
0.3
 44
0.0
 45
0.000000001
 78
    12
 79
     3
140
0.5
147
0.125
173
     1
178
     0
271
     2
272
     2
276
     2
277
     5
284
    12
340
DF
341
1F4
343
1F4
344
1F4
  0
DIMSTYLE
105
210
330
A
100
AcDbSymbolTableRecord
100
AcDbDimStyleTableRecord
  2
SLDDIMSTYLE1
 70
     0
 41
0.0666666667
 44
0.0
 45
0.000000001
146
0.2
147
0.0
173
     1
178
     0
271
     0
272
     0
276
     2
277
     5
340
11
341
211
343
211
344
211
  0
DIMSTYLE
105
222
102
{ACAD_REACTORS
330
221
102
}
330
A
100
AcDbSymbolTableRecord
100
AcDbDimStyleTableRecord
  2
SLDDIMSTYLE2
 70
     0
 41
0.3
 44
0.0
 45
0.000000001
 78
    12
 79
     3
140
0.5
147
0.125
172
     1
173
     1
178
     0
271
     6
272
     2
276
     2
277
     5
284
    12
289
     0
340
DF
341
1F4
343
1F4
344
1F4
  0
DIMSTYLE
105
387
330
A
100
AcDbSymbolTableRecord
100
AcDbDimStyleTableRecord
  2
SLDDIMSTYLE3
 70
     0
 41
0.3
 44
0.0
 45
0.000000001
146
0.3
147
0.0
173
     1
178
     0
271
     0
272
     0
276
     2
277
     5
340
11
341
1F4
343
1F4
344
1F4
  0
ENDTAB
  0
TABLE
  2
BLOCK_RECORD
  5
1
330
0
100
AcDbSymbolTable
 70
     9
  0
BLOCK_RECORD
  5
1F
330
1
100
AcDbSymbolTableRecord
100
AcDbBlockTableRecord
  2
*Model_Space
340
22
  0
BLOCK_RECORD
  5
1B
330
1
100
AcDbSymbolTableRecord
100
AcDbBlockTableRecord
  2
*Paper_Space
340
1E
  0
BLOCK_RECORD
  5
23
330
1
100
AcDbSymbolTableRecord
100
AcDbBlockTableRecord
  2
*Paper_Space0
340
26
  0
BLOCK_RECORD
  5
E3
330
1
100
AcDbSymbolTableRecord
100
AcDbBlockTableRecord
  2
SW_NOTE_0
340
0
102
{BLKREFS
331
E8
102
}
  0
BLOCK_RECORD
  5
F2
330
1
100
AcDbSymbolTableRecord
100
AcDbBlockTableRecord
  2
SW_NOTE_0_1
340
0
102
{BLKREFS
331
F7
102
}
  0
BLOCK_RECORD
  5
F8
330
1
100
AcDbSymbolTableRecord
100
AcDbBlockTableRecord
  2
SW_NOTE_0_2
340
0
102
{BLKREFS
331
101
102
}
  0
BLOCK_RECORD
  5
1F4
330
1
100
AcDbSymbolTableRecord
100
AcDbBlockTableRecord
  2
_Open90
340
0
102
{BLKREFS
331
1FD
331
1FE
331
208
331
209
331
226
331
227
102
}
  0
BLOCK_RECORD
  5
1FA
330
1
100
AcDbSymbolTableRecord
100
AcDbBlockTableRecord
  2
_D
340
0
  0
BLOCK_RECORD
  5
205
330
1
100
AcDbSymbolTableRecord
100
AcDbBlockTableRecord
  2
_D_1
340
0
  0
BLOCK_RECORD
  5
211
330
1
100
AcDbSymbolTableRecord
100
AcDbBlockTableRecord
  2
_Origin
340
0
  0
BLOCK_RECORD
  5
223
330
1
100
AcDbSymbolTableRecord
100
AcDbBlockTableRecord
  2
_D_2
340
0
  0
ENDTAB
  0
ENDSEC
  0
SECTION
  2
BLOCKS
  0
BLOCK
  5
20
330
1F
100
AcDbEntity
  8
0
100
AcDbBlockBegin
  2
*Model_Space
 70
     0
 10
0.0
 20
0.0
 30
0.0
  3
*Model_Space
  1

  0
ENDBLK
  5
21
330
1F
100
AcDbEntity
  8
0
100
AcDbBlockEnd
  0
BLOCK
  5
1C
330
1B
100
AcDbEntity
 67
     1
  8
0
100
AcDbBlockBegin
  2
*Paper_Space
 70
     0
 10
0.0
 20
0.0
 30
0.0
  3
*Paper_Space
  1

  0
ENDBLK
  5
1D
330
1B
100
AcDbEntity
 67
     1
  8
0
100
AcDbBlockEnd
  0
BLOCK
  5
24
330
23
100
AcDbEntity
  8
0
100
AcDbBlockBegin
  2
*Paper_Space0
 70
     0
 10
0.0
 20
0.0
 30
0.0
  3
*Paper_Space0
  1

  0
ENDBLK
  5
25
330
23
100
AcDbEntity
  8
0
100
AcDbBlockEnd
  0
BLOCK
  5
E4
330
E3
100
AcDbEntity
  8
0
100
AcDbBlockBegin
  2
SW_NOTE_0
 70
     0
 10
0.0
 20
0.0
 30
0.0
  3
SW_NOTE_0
  1

  0
MTEXT
  5
E6
330
E3
100
AcDbEntity
  8
NOTES
 62
     0
100
AcDbMText
 10
0.0
 20
0.638671875
 30
0.0
 40
0.5
 41
0.0
 71
     1
 72
     1
  1
3D view
  7
SLDTEXTSTYLE0
 73
     1
 44
1.0
  0
MTEXT
  5
E7
330
E3
100
AcDbEntity
  8
NOTES
 62
     0
100
AcDbMText
 10
0.0
 20
-0.3613281862
 30
0.0
 40
0.5
 41
0.0
 71
     1
 72
     1
  1
code 963
  7
SLDTEXTSTYLE0
 73
     1
 44
1.0
  0
ENDBLK
  5
E5
330
E3
100
AcDbEntity
  8
0
100
AcDbBlockEnd
  0
BLOCK
  5
F3
330
F2
100
AcDbEntity
  8
0
100
AcDbBlockBegin
  2
SW_NOTE_0_1
 70
     0
 10
0.0
 20
0.0
 30
0.0
  3
SW_NOTE_0_1
  1

  0
MTEXT
  5
F5
330
F2
100
AcDbEntity
  8
NOTES
 62
     0
100
AcDbMText
 10
0.0
 20
0.3759780908
 30
0.0
 40
0.2916666667
 41
0.0
 71
     1
 72
     1
  1
FROST PRODUCTS LTD.
  7
SLDTEXTSTYLE1
 73
     1
 44
1.0
  0
MTEXT
  5
F6
330
F2
100
AcDbEntity
  8
NOTES
 62
     0
100
AcDbMText
 10
0.0
 20
-0.0495142709
 30
0.0
 40
0.2291666667
 41
0.0
 71
     1
 72
     1
  1
5280 JOHN LUCAS DRIVE, BURLINGTON, ON, L7L 5Z9
  7
SLDTEXTSTYLE1
 73
     1
 44
1.0
  0
ENDBLK
  5
F4
330
F2
100
AcDbEntity
  8
0
100
AcDbBlockEnd
  0
BLOCK
  5
F9
330
F8
100
AcDbEntity
  8
0
100
AcDbBlockBegin
  2
SW_NOTE_0_2
 70
     0
 10
0.0
 20
0.0
 30
0.0
  3
SW_NOTE_0_2
  1

  0
MTEXT
  5
FC
330
F8
100
AcDbEntity
  8
NOTES
 62
     0
100
AcDbMText
 10
0.0
 20
0.2381282771
 30
0.0
 40
0.184729064
 41
0.0
 71
     1
 72
     1
  1
PROPRIETARY AND CONFIDENTIAL
  7
SLDTEXTSTYLE2
 73
     1
 44
1.0
  0
MTEXT
  5
FE
330
F8
100
AcDbEntity
  8
NOTES
 62
     0
100
AcDbMText
 10
0.0
 20
-0.0504364796
 30
0.0
 40
0.25
 41
0.0
 71
     1
 72
     1
  1
THE INFORMATION CONTAINED IN THIS DRAWING IS THE SOLE PROPERTY OF 
  7
SLDTEXTSTYLE3
 73
     1
 44
1.0
  0
MTEXT
  5
FF
330
F8
100
AcDbEntity
  8
NOTES
 62
     0
100
AcDbMText
 10
0.0
 20
-0.4231398941
 30
0.0
 40
0.25
 41
0.0
 71
     1
 72
     1
  1
FROST PRODUCTS LTD.  ANY REPRODUCTION IN PART OR AS A WHOLE WITHOUT 
  7
SLDTEXTSTYLE3
 73
     1
 44
1.0
  0
MTEXT
  5
100
330
F8
100
AcDbEntity
  8
NOTES
 62
     0
100
AcDbMText
 10
0.0
 20
-0.7958433086
 30
0.0
 40
0.25
 41
0.0
 71
     1
 72
     1
  1
THE WRITTEN PERMISSION OF FROST PRODUCTS LTD. IS PROHIBITED.
  7
SLDTEXTSTYLE3
 73
     1
 44
1.0
  0
ENDBLK
  5
FA
330
F8
100
AcDbEntity
  8
0
100
AcDbBlockEnd
  0
BLOCK
  5
1F5
330
1F4
100
AcDbEntity
  8
0
100
AcDbBlockBegin
  2
_Open90
 70
     0
 10
0.0
 20
0.0
 30
0.0
  3
_Open90
  1

  0
LINE
  5
1F7
330
1F4
100
AcDbEntity
  8
0
  6
ByBlock
 62
     0
370
    -2
100
AcDbLine
 10
-0.5
 20
0.5
 30
0.0
 11
0.0
 21
0.0
 31
0.0
  0
LINE
  5
1F8
330
1F4
100
AcDbEntity
  8
0
  6
ByBlock
 62
     0
370
    -2
100
AcDbLine
 10
0.0
 20
0.0
 30
0.0
 11
-0.5
 21
-0.5
 31
0.0
  0
LINE
  5
1F9
330
1F4
100
AcDbEntity
  8
0
  6
ByBlock
 62
     0
370
    -2
100
AcDbLine
 10
0.0
 20
0.0
 30
0.0
 11
-1.0
 21
0.0
 31
0.0
  0
ENDBLK
  5
1F6
330
1F4
100
AcDbEntity
  8
0
100
AcDbBlockEnd
  0
BLOCK
  5
1FB
330
1FA
100
AcDbEntity
  8
0
100
AcDbBlockBegin
  2
_D
 70
     0
 10
0.0
 20
0.0
 30
0.0
  3
_D
  1

  0
INSERT
  5
1FD
330
1FA
100
AcDbEntity
  8
DIMS
100
AcDbBlockReference
  2
_Open90
 10
13.7486414492
 20
17.8470049346
 30
-0.02925
 41
0.3
 42
0.3
 50
0.0
  0
INSERT
  5
1FE
330
1FA
100
AcDbEntity
  8
DIMS
100
AcDbBlockReference
  2
_Open90
 10
7.7486414492
 20
17.8470049346
 30
-0.02925
 41
0.3
 42
0.3
 50
180.0
  0
LINE
  5
1FF
330
1FA
100
AcDbEntity
  8
DIMS
100
AcDbLine
 10
13.7486414492
 20
17.3837503415
 30
0.0
 11
13.7486414492
 21
18.2220049346
 31
0.0
  0
LINE
  5
200
330
1FA
100
AcDbEntity
  8
DIMS
100
AcDbLine
 10
7.7486414492
 20
17.3837503415
 30
0.0
 11
7.7486414492
 21
18.2220049346
 31
0.0
  0
LINE
  5
201
330
1FA
100
AcDbEntity
  8
DIMS
100
AcDbLine
 10
13.7486414492
 20
17.8470049346
 30
0.0
 11
11.0364886723
 21
17.8470049346
 31
0.0
  0
LINE
  5
202
330
1FA
100
AcDbEntity
  8
DIMS
100
AcDbLine
 10
7.7486414492
 20
17.8470049346
 30
0.0
 11
10.4607942261
 21
17.8470049346
 31
0.0
  0
MTEXT
  5
203
330
1FA
100
AcDbEntity
  8
DIMS
100
AcDbMText
 10
10.4607942261
 20
18.0888018527
 30
0.0
 40
0.5
 41
0.0
 71
     1
 72
     1
  1
6"
  7
SLDTEXTSTYLE0
 73
     1
 44
1.0
  0
ENDBLK
  5
1FC
330
1FA
100
AcDbEntity
  8
0
100
AcDbBlockEnd
  0
BLOCK
  5
206
330
205
100
AcDbEntity
  8
0
100
AcDbBlockBegin
  2
_D_1
 70
     0
 10
0.0
 20
0.0
 30
0.0
  3
_D_1
  1

  0
INSERT
  5
208
330
205
100
AcDbEntity
  8
DIMS
100
AcDbBlockReference
  2
_Open90
 10
7.1187201894
 20
11.2170836748
 30
-0.02925
 41
0.3
 42
0.3
 50
270.0
  0
INSERT
  5
209
330
205
100
AcDbEntity
  8
DIMS
100
AcDbBlockReference
  2
_Open90
 10
7.1187201894
 20
17.2170836748
 30
-0.02925
 41
0.3
 42
0.3
 50
90.0
  0
LINE
  5
20A
330
205
100
AcDbEntity
  8
DIMS
100
AcDbLine
 10
7.5819747826
 20
11.2170836748
 30
0.0
 11
6.7437201894
 21
11.2170836748
 31
0.0
  0
LINE
  5
20B
330
205
100
AcDbEntity
  8
DIMS
100
AcDbLine
 10
7.5819747826
 20
17.2170836748
 30
0.0
 11
6.7437201894
 21
17.2170836748
 31
0.0
  0
LINE
  5
20C
330
205
100
AcDbEntity
  8
DIMS
100
AcDbLine
 10
7.1187201894
 20
11.2170836748
 30
0.0
 11
7.1187201894
 21
14.0352242289
 31
0.0
  0
LINE
  5
20D
330
205
100
AcDbEntity
  8
DIMS
100
AcDbLine
 10
7.1187201894
 20
17.2170836748
 30
0.0
 11
7.1187201894
 21
14.8289742528
 31
0.0
  0
MTEXT
  5
20E
330
205
100
AcDbEntity
  8
DIMS
100
AcDbMText
 10
6.8308729663
 20
14.6738961589
 30
0.0
 40
0.5
 41
0.0
 71
     1
 72
     1
  1
6"
  7
SLDTEXTSTYLE0
 73
     1
 44
1.0
  0
ENDBLK
  5
207
330
205
100
AcDbEntity
  8
0
100
AcDbBlockEnd
  0
BLOCK
  5
212
330
211
100
AcDbEntity
  8
0
100
AcDbBlockBegin
  2
_Origin
 70
     0
 10
0.0
 20
0.0
 30
0.0
  3
_Origin
  1

  0
CIRCLE
  5
214
330
211
100
AcDbEntity
  8
0
  6
ByBlock
 62
     0
370
    -2
100
AcDbCircle
 10
0.0
 20
0.0
 30
0.0
 40
0.5
  0
LINE
  5
215
330
211
100
AcDbEntity
  8
0
  6
ByBlock
 62
     0
370
    -2
100
AcDbLine
 10
0.0
 20
0.0
 30
0.0
 11
-1.0
 21
0.0
 31
0.0
  0
ENDBLK
  5
213
330
211
100
AcDbEntity
  8
0
100
AcDbBlockEnd
  0
BLOCK
  5
224
330
223
100
AcDbEntity
  8
0
100
AcDbBlockBegin
  2
_D_2
 70
     0
 10
0.0
 20
0.0
 30
0.0
  3
_D_2
  1

  0
INSERT
  5
226
330
223
100
AcDbEntity
  8
DIMS
100
AcDbBlockReference
  2
_Open90
 10
20.3646096308
 20
17.8470049346
 30
0.0
 41
0.3
 42
0.3
 50
0.0
  0
INSERT
  5
227
330
223
100
AcDbEntity
  8
DIMS
100
AcDbBlockReference
  2
_Open90
 10
20.4391096308
 20
17.8470049346
 30
0.0
 41
0.3
 42
0.3
 50
180.0
  0
LINE
  5
228
330
223
100
AcDbEntity
  8
DIMS
100
AcDbLine
 10
18.4801935875
 20
17.898289633
 30
0.0
 11
19.3656102824
 21
17.898289633
 31
0.0
  0
LINE
  5
229
330
223
100
AcDbEntity
  8
DIMS
100
AcDbLine
 10
20.3646096308
 20
17.3837503415
 30
0.0
 11
20.3646096308
 21
18.2220049346
 31
0.0
  0
LINE
  5
22A
330
223
100
AcDbEntity
  8
DIMS
100
AcDbLine
 10
20.4391096308
 20
17.3837503415
 30
0.0
 11
20.4391096308
 21
18.2220049346
 31
0.0
  0
LINE
  5
22B
330
223
100
AcDbEntity
  8
DIMS
100
AcDbLine
 10
20.3646096308
 20
17.8470049346
 30
0.0
 11
19.6451242218
 21
17.8470049346
 31
0.0
  0
LINE
  5
22C
330
223
100
AcDbEntity
  8
DIMS
100
AcDbLine
 10
20.4391096308
 20
17.8470049346
 30
0.0
 11
20.7391096308
 21
17.8470049346
 31
0.0
  0
MTEXT
  5
22D
330
223
100
AcDbEntity
  8
DIMS
100
AcDbMText
 10
18.7381797122
 20
18.4930031925
 30
0.0
 40
0.5
 41
0.0
 71
     1
 72
     1
  1
1
  7
SLDTEXTSTYLE0
 73
     1
 44
1.0
  0
MTEXT
  5
22E
330
223
100
AcDbEntity
  8
DIMS
100
AcDbMText
 10
18.5534574895
 20
17.8318226139
 30
0.0
 40
0.5
 41
0.0
 71
     1
 72
     1
  1
16
  7
SLDTEXTSTYLE0
 73
     1
 44
1.0
  0
MTEXT
  5
22F
330
223
100
AcDbEntity
  8
DIMS
100
AcDbMText
 10
19.4388741844
 20
18.1276906934
 30
0.0
 40
0.5
 41
0.0
 71
     1
 72
     1
  1
"
  7
SLDTEXTSTYLE0
 73
     1
 44
1.0
  0
ENDBLK
  5
225
330
223
100
AcDbEntity
  8
0
100
AcDbBlockEnd
  0
ENDSEC
  0
SECTION
  2
ENTITIES
  0
LINE
  5
7A
330
1F
100
AcDbEntity
  8
TITLE
370
    35
100
AcDbLine
 10
30.5182229757
 20
1.4876117645
 30
0.0
 11
47.4999864512
 21
1.4876117645
 31
0.0
  0
LINE
  5
7B
330
1F
100
AcDbEntity
  8
TITLE
370
    35
100
AcDbLine
 10
47.4999317442
 20
5.4753603936
 30
0.0
 11
37.3105350723
 21
5.4753603936
 31
0.0
  0
LINE
  5
7C
330
1F
100
AcDbEntity
  8
TITLE
  6
SLD-Solid
370
    18
100
AcDbLine
 10
0.5
 20
0.5
 30
0.0
 11
0.5
 21
35.5
 31
0.0
  0
LINE
  5
7D
330
1F
100
AcDbEntity
  8
TITLE
  6
SLD-Solid
370
    18
100
AcDbLine
 10
0.5
 20
35.5
 30
0.0
 11
47.5
 21
35.5
 31
0.0
  0
LINE
  5
7E
330
1F
100
AcDbEntity
  8
TITLE
370
    35
100
AcDbLine
 10
30.5182229757
 20
2.5427877231
 30
0.0
 11
23.5059791203
 21
2.5427877231
 31
0.0
  0
LINE
  5
7F
330
1F
100
AcDbEntity
  8
TITLE
370
    35
100
AcDbLine
 10
30.5182229757
 20
1.4876117645
 30
0.0
 11
23.5059791203
 21
1.4876117645
 31
0.0
  0
LINE
  5
80
330
1F
100
AcDbEntity
  8
TITLE
  6
SLD-Solid
370
    18
100
AcDbLine
 10
47.5
 20
35.5
 30
0.0
 11
47.5
 21
0.5
 31
0.0
  0
LINE
  5
81
330
1F
100
AcDbEntity
  8
TITLE
  6
SLD-Solid
370
    18
100
AcDbLine
 10
47.5
 20
0.5
 30
0.0
 11
0.5
 21
0.5
 31
0.0
  0
LINE
  5
82
330
1F
100
AcDbEntity
  8
TITLE
370
    35
100
AcDbLine
 10
30.5182229757
 20
1.4876117645
 30
0.0
 11
30.5182229757
 21
3.5979636817
 31
0.0
  0
LINE
  5
83
330
1F
100
AcDbEntity
  8
TITLE
370
    35
100
AcDbLine
 10
23.5059791203
 20
3.5979636817
 30
0.0
 11
23.5059791203
 21
0.5
 31
0.0
  0
LINE
  5
84
330
1F
100
AcDbEntity
  8
TITLE
370
    35
100
AcDbLine
 10
23.5059791203
 20
0.5
 30
0.0
 11
47.5
 21
0.5
 31
0.0
  0
LINE
  5
85
330
1F
100
AcDbEntity
  8
TITLE
370
    35
100
AcDbLine
 10
47.4999317442
 20
5.4753603936
 30
0.0
 11
47.5
 21
0.5
 31
0.0
  0
LINE
  5
86
330
1F
100
AcDbEntity
  8
TITLE
  6
SLD-Solid
370
    18
100
AcDbLine
 10
0.4999606299
 20
18.0
 30
0.0
 11
0.5000393701
 21
18.0
 31
0.0
  0
LINE
  5
87
330
1F
100
AcDbEntity
  8
TITLE
370
    35
100
AcDbLine
 10
30.5182229757
 20
3.5979636817
 30
0.0
 11
23.5059791203
 21
3.5979636817
 31
0.0
  0
LINE
  5
88
330
1F
100
AcDbEntity
  8
TITLE
370
    35
100
AcDbLine
 10
30.5182229757
 20
3.5979636817
 30
0.0
 11
47.4997615643
 21
3.5979648343
 31
0.0
  0
LINE
  5
89
330
1F
100
AcDbEntity
  8
TITLE
370
    35
100
AcDbLine
 10
37.3105350723
 20
5.4753603936
 30
0.0
 11
37.3105350723
 21
0.4636772425
 31
0.0
  0
LINE
  5
8A
330
1F
100
AcDbEntity
  8
TITLE
  6
SLD-Solid
370
    18
100
AcDbLine
 10
24.0
 20
35.5000393701
 30
0.0
 11
24.0
 21
35.4999606299
 31
0.0
  0
LINE
  5
8B
330
1F
100
AcDbEntity
  8
TITLE
  6
SLD-Solid
370
    18
100
AcDbLine
 10
47.5000393701
 20
18.0
 30
0.0
 11
47.4999606299
 21
18.0
 31
0.0
  0
LINE
  5
8C
330
1F
100
AcDbEntity
  8
TITLE
  6
SLD-Solid
370
    18
100
AcDbLine
 10
24.0
 20
0.4999606299
 30
0.0
 11
24.0
 21
0.5000393701
 31
0.0
  0
LINE
  5
8D
330
1F
100
AcDbEntity
  8
TITLE
  6
SLD-Solid
370
    18
100
AcDbLine
 10
0.5
 20
2.2519685039
 30
0.0
 11
0.1653543307
 21
2.2519685039
 31
0.0
  0
LINE
  5
8E
330
1F
100
AcDbEntity
  8
TITLE
  6
SLD-Solid
370
    18
100
AcDbLine
 10
47.5
 20
2.2519685039
 30
0.0
 11
47.8346456693
 21
2.2519685039
 31
0.0
  0
LINE
  5
8F
330
1F
100
AcDbEntity
  8
TITLE
  6
SLD-Solid
370
    18
100
AcDbLine
 10
0.5
 20
4.2204724409
 30
0.0
 11
0.1653543307
 21
4.2204724409
 31
0.0
  0
LINE
  5
90
330
1F
100
AcDbEntity
  8
TITLE
  6
SLD-Solid
370
    18
100
AcDbLine
 10
47.5
 20
4.2204724409
 30
0.0
 11
47.8346456693
 21
4.2204724409
 31
0.0
  0
LINE
  5
91
330
1F
100
AcDbEntity
  8
TITLE
  6
SLD-Solid
370
    18
100
AcDbLine
 10
0.5
 20
6.188976378
 30
0.0
 11
0.1653543307
 21
6.188976378
 31
0.0
  0
LINE
  5
92
330
1F
100
AcDbEntity
  8
TITLE
  6
SLD-Solid
370
    18
100
AcDbLine
 10
47.5
 20
6.188976378
 30
0.0
 11
47.8346456693
 21
6.188976378
 31
0.0
  0
LINE
  5
93
330
1F
100
AcDbEntity
  8
TITLE
  6
SLD-Solid
370
    18
100
AcDbLine
 10
0.5
 20
8.157480315
 30
0.0
 11
0.1653543307
 21
8.157480315
 31
0.0
  0
LINE
  5
94
330
1F
100
AcDbEntity
  8
TITLE
  6
SLD-Solid
370
    18
100
AcDbLine
 10
47.5
 20
8.157480315
 30
0.0
 11
47.8346456693
 21
8.157480315
 31
0.0
  0
LINE
  5
95
330
1F
100
AcDbEntity
  8
TITLE
  6
SLD-Solid
370
    18
100
AcDbLine
 10
0.5
 20
10.125984252
 30
0.0
 11
0.1653543307
 21
10.125984252
 31
0.0
  0
LINE
  5
96
330
1F
100
AcDbEntity
  8
TITLE
  6
SLD-Solid
370
    18
100
AcDbLine
 10
47.5
 20
10.125984252
 30
0.0
 11
47.8346456693
 21
10.125984252
 31
0.0
  0
LINE
  5
97
330
1F
100
AcDbEntity
  8
TITLE
  6
SLD-Solid
370
    18
100
AcDbLine
 10
0.5
 20
12.094488189
 30
0.0
 11
0.1653543307
 21
12.094488189
 31
0.0
  0
LINE
  5
98
330
1F
100
AcDbEntity
  8
TITLE
  6
SLD-Solid
370
    18
100
AcDbLine
 10
47.5
 20
12.094488189
 30
0.0
 11
47.8346456693
 21
12.094488189
 31
0.0
  0
LINE
  5
99
330
1F
100
AcDbEntity
  8
TITLE
  6
SLD-Solid
370
    18
100
AcDbLine
 10
0.5
 20
14.062992126
 30
0.0
 11
0.1653543307
 21
14.062992126
 31
0.0
  0
LINE
  5
9A
330
1F
100
AcDbEntity
  8
TITLE
  6
SLD-Solid
370
    18
100
AcDbLine
 10
47.5
 20
14.062992126
 30
0.0
 11
47.8346456693
 21
14.062992126
 31
0.0
  0
LINE
  5
9B
330
1F
100
AcDbEntity
  8
TITLE
  6
SLD-Solid
370
    18
100
AcDbLine
 10
0.5
 20
16.031496063
 30
0.0
 11
0.1653543307
 21
16.031496063
 31
0.0
  0
LINE
  5
9C
330
1F
100
AcDbEntity
  8
TITLE
  6
SLD-Solid
370
    18
100
AcDbLine
 10
47.5
 20
16.031496063
 30
0.0
 11
47.8346456693
 21
16.031496063
 31
0.0
  0
LINE
  5
9D
330
1F
100
AcDbEntity
  8
TITLE
  6
SLD-Solid
370
    18
100
AcDbLine
 10
0.5
 20
18.0
 30
0.0
 11
0.1653543307
 21
18.0
 31
0.0
  0
LINE
  5
9E
330
1F
100
AcDbEntity
  8
TITLE
  6
SLD-Solid
370
    18
100
AcDbLine
 10
47.5
 20
18.0
 30
0.0
 11
47.8346456693
 21
18.0
 31
0.0
  0
LINE
  5
9F
330
1F
100
AcDbEntity
  8
TITLE
  6
SLD-Solid
370
    18
100
AcDbLine
 10
0.5
 20
19.968503937
 30
0.0
 11
0.1653543307
 21
19.968503937
 31
0.0
  0
LINE
  5
A0
330
1F
100
AcDbEntity
  8
TITLE
  6
SLD-Solid
370
    18
100
AcDbLine
 10
47.5
 20
19.968503937
 30
0.0
 11
47.8346456693
 21
19.968503937
 31
0.0
  0
LINE
  5
A1
330
1F
100
AcDbEntity
  8
TITLE
  6
SLD-Solid
370
    18
100
AcDbLine
 10
0.5
 20
21.937007874
 30
0.0
 11
0.1653543307
 21
21.937007874
 31
0.0
  0
LINE
  5
A2
330
1F
100
AcDbEntity
  8
TITLE
  6
SLD-Solid
370
    18
100
AcDbLine
 10
47.5
 20
21.937007874
 30
0.0
 11
47.8346456693
 21
21.937007874
 31
0.0
  0
LINE
  5
A3
330
1F
100
AcDbEntity
  8
TITLE
  6
SLD-Solid
370
    18
100
AcDbLine
 10
0.5
 20
23.905511811
 30
0.0
 11
0.1653543307
 21
23.905511811
 31
0.0
  0
LINE
  5
A4
330
1F
100
AcDbEntity
  8
TITLE
  6
SLD-Solid
370
    18
100
AcDbLine
 10
47.5
 20
23.905511811
 30
0.0
 11
47.8346456693
 21
23.905511811
 31
0.0
  0
LINE
  5
A5
330
1F
100
AcDbEntity
  8
TITLE
  6
SLD-Solid
370
    18
100
AcDbLine
 10
0.5
 20
25.874015748
 30
0.0
 11
0.1653543307
 21
25.874015748
 31
0.0
  0
LINE
  5
A6
330
1F
100
AcDbEntity
  8
TITLE
  6
SLD-Solid
370
    18
100
AcDbLine
 10
47.5
 20
25.874015748
 30
0.0
 11
47.8346456693
 21
25.874015748
 31
0.0
  0
LINE
  5
A7
330
1F
100
AcDbEntity
  8
TITLE
  6
SLD-Solid
370
    18
100
AcDbLine
 10
0.5
 20
27.842519685
 30
0.0
 11
0.1653543307
 21
27.842519685
 31
0.0
  0
LINE
  5
A8
330
1F
100
AcDbEntity
  8
TITLE
  6
SLD-Solid
370
    18
100
AcDbLine
 10
47.5
 20
27.842519685
 30
0.0
 11
47.8346456693
 21
27.842519685
 31
0.0
  0
LINE
  5
A9
330
1F
100
AcDbEntity
  8
TITLE
  6
SLD-Solid
370
    18
100
AcDbLine
 10
0.5
 20
29.811023622
 30
0.0
 11
0.1653543307
 21
29.811023622
 31
0.0
  0
LINE
  5
AA
330
1F
100
AcDbEntity
  8
TITLE
  6
SLD-Solid
370
    18
100
AcDbLine
 10
47.5
 20
29.811023622
 30
0.0
 11
47.8346456693
 21
29.811023622
 31
0.0
  0
LINE
  5
AB
330
1F
100
AcDbEntity
  8
TITLE
  6
SLD-Solid
370
    18
100
AcDbLine
 10
0.5
 20
31.7795275591
 30
0.0
 11
0.1653543307
 21
31.7795275591
 31
0.0
  0
LINE
  5
AC
330
1F
100
AcDbEntity
  8
TITLE
  6
SLD-Solid
370
    18
100
AcDbLine
 10
47.5
 20
31.7795275591
 30
0.0
 11
47.8346456693
 21
31.7795275591
 31
0.0
  0
LINE
  5
AD
330
1F
100
AcDbEntity
  8
TITLE
  6
SLD-Solid
370
    18
100
AcDbLine
 10
47.5
 20
33.7480314961
 30
0.0
 11
47.8346456693
 21
33.7480314961
 31
0.0
  0
LINE
  5
AE
330
1F
100
AcDbEntity
  8
TITLE
  6
SLD-Solid
370
    18
100
AcDbLine
 10
2.3464566929
 20
35.5
 30
0.0
 11
2.3464566929
 21
35.8346456693
 31
0.0
  0
LINE
  5
AF
330
1F
100
AcDbEntity
  8
TITLE
  6
SLD-Solid
370
    18
100
AcDbLine
 10
2.3464566929
 20
0.5
 30
0.0
 11
2.3464566929
 21
0.1653543307
 31
0.0
  0
LINE
  5
B0
330
1F
100
AcDbEntity
  8
TITLE
  6
SLD-Solid
370
    18
100
AcDbLine
 10
4.3149606299
 20
0.5
 30
0.0
 11
4.3149606299
 21
0.1653543307
 31
0.0
  0
LINE
  5
B1
330
1F
100
AcDbEntity
  8
TITLE
  6
SLD-Solid
370
    18
100
AcDbLine
 10
6.2834645669
 20
35.5
 30
0.0
 11
6.2834645669
 21
35.8346456693
 31
0.0
  0
LINE
  5
B2
330
1F
100
AcDbEntity
  8
TITLE
  6
SLD-Solid
370
    18
100
AcDbLine
 10
6.2834645669
 20
0.5
 30
0.0
 11
6.2834645669
 21
0.1653543307
 31
0.0
  0
LINE
  5
B3
330
1F
100
AcDbEntity
  8
TITLE
  6
SLD-Solid
370
    18
100
AcDbLine
 10
8.2519685039
 20
35.5
 30
0.0
 11
8.2519685039
 21
35.8346456693
 31
0.0
  0
LINE
  5
B4
330
1F
100
AcDbEntity
  8
TITLE
  6
SLD-Solid
370
    18
100
AcDbLine
 10
8.2519685039
 20
0.5
 30
0.0
 11
8.2519685039
 21
0.1653543307
 31
0.0
  0
LINE
  5
B5
330
1F
100
AcDbEntity
  8
TITLE
  6
SLD-Solid
370
    18
100
AcDbLine
 10
10.2204724409
 20
35.5
 30
0.0
 11
10.2204724409
 21
35.8346456693
 31
0.0
  0
LINE
  5
B6
330
1F
100
AcDbEntity
  8
TITLE
  6
SLD-Solid
370
    18
100
AcDbLine
 10
10.2204724409
 20
0.5
 30
0.0
 11
10.2204724409
 21
0.1653543307
 31
0.0
  0
LINE
  5
B7
330
1F
100
AcDbEntity
  8
TITLE
  6
SLD-Solid
370
    18
100
AcDbLine
 10
12.188976378
 20
35.5
 30
0.0
 11
12.188976378
 21
35.8346456693
 31
0.0
  0
LINE
  5
B8
330
1F
100
AcDbEntity
  8
TITLE
  6
SLD-Solid
370
    18
100
AcDbLine
 10
12.188976378
 20
0.5
 30
0.0
 11
12.188976378
 21
0.1653543307
 31
0.0
  0
LINE
  5
B9
330
1F
100
AcDbEntity
  8
TITLE
  6
SLD-Solid
370
    18
100
AcDbLine
 10
14.157480315
 20
35.5
 30
0.0
 11
14.157480315
 21
35.8346456693
 31
0.0
  0
LINE
  5
BA
330
1F
100
AcDbEntity
  8
TITLE
  6
SLD-Solid
370
    18
100
AcDbLine
 10
14.157480315
 20
0.5
 30
0.0
 11
14.157480315
 21
0.1653543307
 31
0.0
  0
LINE
  5
BB
330
1F
100
AcDbEntity
  8
TITLE
  6
SLD-Solid
370
    18
100
AcDbLine
 10
16.125984252
 20
35.5
 30
0.0
 11
16.125984252
 21
35.8346456693
 31
0.0
  0
LINE
  5
BC
330
1F
100
AcDbEntity
  8
TITLE
  6
SLD-Solid
370
    18
100
AcDbLine
 10
16.125984252
 20
0.5
 30
0.0
 11
16.125984252
 21
0.1653543307
 31
0.0
  0
LINE
  5
BD
330
1F
100
AcDbEntity
  8
TITLE
  6
SLD-Solid
370
    18
100
AcDbLine
 10
18.094488189
 20
35.5
 30
0.0
 11
18.094488189
 21
35.8346456693
 31
0.0
  0
LINE
  5
BE
330
1F
100
AcDbEntity
  8
TITLE
  6
SLD-Solid
370
    18
100
AcDbLine
 10
18.094488189
 20
0.5
 30
0.0
 11
18.094488189
 21
0.1653543307
 31
0.0
  0
LINE
  5
BF
330
1F
100
AcDbEntity
  8
TITLE
  6
SLD-Solid
370
    18
100
AcDbLine
 10
20.062992126
 20
35.5
 30
0.0
 11
20.062992126
 21
35.8346456693
 31
0.0
  0
LINE
  5
C0
330
1F
100
AcDbEntity
  8
TITLE
  6
SLD-Solid
370
    18
100
AcDbLine
 10
20.062992126
 20
0.5
 30
0.0
 11
20.062992126
 21
0.1653543307
 31
0.0
  0
LINE
  5
C1
330
1F
100
AcDbEntity
  8
TITLE
  6
SLD-Solid
370
    18
100
AcDbLine
 10
22.031496063
 20
35.5
 30
0.0
 11
22.031496063
 21
35.8346456693
 31
0.0
  0
LINE
  5
C2
330
1F
100
AcDbEntity
  8
TITLE
  6
SLD-Solid
370
    18
100
AcDbLine
 10
22.031496063
 20
0.5
 30
0.0
 11
22.031496063
 21
0.1653543307
 31
0.0
  0
LINE
  5
C3
330
1F
100
AcDbEntity
  8
TITLE
  6
SLD-Solid
370
    18
100
AcDbLine
 10
24.0
 20
35.5
 30
0.0
 11
24.0
 21
35.8346456693
 31
0.0
  0
LINE
  5
C4
330
1F
100
AcDbEntity
  8
TITLE
  6
SLD-Solid
370
    18
100
AcDbLine
 10
24.0
 20
0.5
 30
0.0
 11
24.0
 21
0.1653543307
 31
0.0
  0
LINE
  5
C5
330
1F
100
AcDbEntity
  8
TITLE
  6
SLD-Solid
370
    18
100
AcDbLine
 10
25.968503937
 20
35.5
 30
0.0
 11
25.968503937
 21
35.8346456693
 31
0.0
  0
LINE
  5
C6
330
1F
100
AcDbEntity
  8
TITLE
  6
SLD-Solid
370
    18
100
AcDbLine
 10
25.968503937
 20
0.5
 30
0.0
 11
25.968503937
 21
0.1653543307
 31
0.0
  0
LINE
  5
C7
330
1F
100
AcDbEntity
  8
TITLE
  6
SLD-Solid
370
    18
100
AcDbLine
 10
27.937007874
 20
35.5
 30
0.0
 11
27.937007874
 21
35.8346456693
 31
0.0
  0
LINE
  5
C8
330
1F
100
AcDbEntity
  8
TITLE
  6
SLD-Solid
370
    18
100
AcDbLine
 10
27.937007874
 20
0.5
 30
0.0
 11
27.937007874
 21
0.1653543307
 31
0.0
  0
LINE
  5
C9
330
1F
100
AcDbEntity
  8
TITLE
  6
SLD-Solid
370
    18
100
AcDbLine
 10
29.905511811
 20
35.5
 30
0.0
 11
29.905511811
 21
35.8346456693
 31
0.0
  0
LINE
  5
CA
330
1F
100
AcDbEntity
  8
TITLE
  6
SLD-Solid
370
    18
100
AcDbLine
 10
29.905511811
 20
0.5
 30
0.0
 11
29.905511811
 21
0.1653543307
 31
0.0
  0
LINE
  5
CB
330
1F
100
AcDbEntity
  8
TITLE
  6
SLD-Solid
370
    18
100
AcDbLine
 10
31.874015748
 20
35.5
 30
0.0
 11
31.874015748
 21
35.8346456693
 31
0.0
  0
LINE
  5
CC
330
1F
100
AcDbEntity
  8
TITLE
  6
SLD-Solid
370
    18
100
AcDbLine
 10
31.874015748
 20
0.5
 30
0.0
 11
31.874015748
 21
0.1653543307
 31
0.0
  0
LINE
  5
CD
330
1F
100
AcDbEntity
  8
TITLE
  6
SLD-Solid
370
    18
100
AcDbLine
 10
33.842519685
 20
35.5
 30
0.0
 11
33.842519685
 21
35.8346456693
 31
0.0
  0
LINE
  5
CE
330
1F
100
AcDbEntity
  8
TITLE
  6
SLD-Solid
370
    18
100
AcDbLine
 10
33.842519685
 20
0.5
 30
0.0
 11
33.842519685
 21
0.1653543307
 31
0.0
  0
LINE
  5
CF
330
1F
100
AcDbEntity
  8
TITLE
  6
SLD-Solid
370
    18
100
AcDbLine
 10
35.811023622
 20
35.5
 30
0.0
 11
35.811023622
 21
35.8346456693
 31
0.0
  0
LINE
  5
D0
330
1F
100
AcDbEntity
  8
TITLE
  6
SLD-Solid
370
    18
100
AcDbLine
 10
35.811023622
 20
0.5
 30
0.0
 11
35.811023622
 21
0.1653543307
 31
0.0
  0
LINE
  5
D1
330
1F
100
AcDbEntity
  8
TITLE
  6
SLD-Solid
370
    18
100
AcDbLine
 10
37.7795275591
 20
35.5
 30
0.0
 11
37.7795275591
 21
35.8346456693
 31
0.0
  0
LINE
  5
D2
330
1F
100
AcDbEntity
  8
TITLE
  6
SLD-Solid
370
    18
100
AcDbLine
 10
37.7795275591
 20
0.5
 30
0.0
 11
37.7795275591
 21
0.1653543307
 31
0.0
  0
LINE
  5
D3
330
1F
100
AcDbEntity
  8
TITLE
  6
SLD-Solid
370
    18
100
AcDbLine
 10
39.7480314961
 20
35.5
 30
0.0
 11
39.7480314961
 21
35.8346456693
 31
0.0
  0
LINE
  5
D4
330
1F
100
AcDbEntity
  8
TITLE
  6
SLD-Solid
370
    18
100
AcDbLine
 10
39.7480314961
 20
0.5
 30
0.0
 11
39.7480314961
 21
0.1653543307
 31
0.0
  0
LINE
  5
D5
330
1F
100
AcDbEntity
  8
TITLE
  6
SLD-Solid
370
    18
100
AcDbLine
 10
41.7165354331
 20
35.5
 30
0.0
 11
41.7165354331
 21
35.8346456693
 31
0.0
  0
LINE
  5
D6
330
1F
100
AcDbEntity
  8
TITLE
  6
SLD-Solid
370
    18
100
AcDbLine
 10
41.7165354331
 20
0.5
 30
0.0
 11
41.7165354331
 21
0.1653543307
 31
0.0
  0
LINE
  5
D7
330
1F
100
AcDbEntity
  8
TITLE
  6
SLD-Solid
370
    18
100
AcDbLine
 10
43.6850393701
 20
35.5
 30
0.0
 11
43.6850393701
 21
35.8346456693
 31
0.0
  0
LINE
  5
D8
330
1F
100
AcDbEntity
  8
TITLE
  6
SLD-Solid
370
    18
100
AcDbLine
 10
43.6850393701
 20
0.5
 30
0.0
 11
43.6850393701
 21
0.1653543307
 31
0.0
  0
LINE
  5
D9
330
1F
100
AcDbEntity
  8
TITLE
  6
SLD-Solid
370
    18
100
AcDbLine
 10
45.6535433071
 20
35.5
 30
0.0
 11
45.6535433071
 21
35.8346456693
 31
0.0
  0
LINE
  5
DA
330
1F
100
AcDbEntity
  8
TITLE
  6
SLD-Solid
370
    18
100
AcDbLine
 10
45.6535433071
 20
0.5
 30
0.0
 11
45.6535433071
 21
0.1653543307
 31
0.0
  0
LINE
  5
DB
330
1F
100
AcDbEntity
  8
TITLE
370
    35
100
AcDbLine
 10
0.5
 20
35.5
 30
0.0
 11
47.5
 21
35.5
 31
0.0
  0
LINE
  5
DC
330
1F
100
AcDbEntity
  8
TITLE
370
    35
100
AcDbLine
 10
0.5
 20
35.5
 30
0.0
 11
0.5
 21
0.5
 31
0.0
  0
LINE
  5
DD
330
1F
100
AcDbEntity
  8
TITLE
370
    35
100
AcDbLine
 10
0.5
 20
0.5
 30
0.0
 11
47.5
 21
0.5
 31
0.0
  0
LINE
  5
DE
330
1F
100
AcDbEntity
  8
TITLE
370
    35
100
AcDbLine
 10
47.5
 20
35.5
 30
0.0
 11
47.5
 21
0.5
 31
0.0
  0
MTEXT
  5
E0
330
1F
100
AcDbEntity
  8
NOTES
100
AcDbMText
 10
9.1149110778
 20
8.7912975777
 30
0.0
 40
0.5
 41
0.0
 71
     1
 72
     1
  1
Front view
  7
SLDTEXTSTYLE0
 73
     1
 44
1.0
  0
MTEXT
  5
E1
330
1F
100
AcDbEntity
  8
NOTES
100
AcDbMText
 10
18.9844368698
 20
8.8163510288
 30
0.0
 40
0.5
 41
0.0
 71
     1
 72
     1
  1
Side view
  7
SLDTEXTSTYLE0
 73
     1
 44
1.0
  0
MTEXT
  5
E2
330
1F
100
AcDbEntity
  8
NOTES
100
AcDbMText
 10
28.8357028829
 20
8.7839653782
 30
0.0
 40
0.5
 41
0.0
 71
     1
 72
     1
  1
Back view
  7
SLDTEXTSTYLE0
 73
     1
 44
1.0
  0
INSERT
  5
E8
330
1F
100
AcDbEntity
  8
NOTES
100
AcDbBlockReference
  2
SW_NOTE_0
 10
39.8580256772
 20
9.2072247117
 30
0.0
  0
MTEXT
  5
EA
330
1F
100
AcDbEntity
  8
NOTES
100
AcDbMText
 10
24.408297803
 20
1.0702903347
 30
0.0
 40
0.25
 41
0.0
 71
     1
 72
     1
  1
UNLESS OTHERWISE SPECIFIED DIMENSIONS ARE IN INCHES.
  7
SLDTEXTSTYLE1
 73
     1
 44
1.0
  0
MTEXT
  5
EB
330
1F
100
AcDbEntity
  8
NOTES
100
AcDbMText
 10
24.4368251132
 20
3.2193045501
 30
0.0
 40
0.25
 41
0.0
 71
     1
 72
     1
  1
DATE:
  7
SLDTEXTSTYLE1
 73
     1
 44
1.0
  0
MTEXT
  5
EC
330
1F
100
AcDbEntity
  8
NOTES
100
AcDbMText
 10
26.7130669976
 20
2.1722148141
 30
0.0
 40
0.25
 41
0.0
 71
     2
 72
     1
  1
DO NOT SCALE DRAWING
  7
SLDTEXTSTYLE1
 73
     1
 44
1.0
  0
MTEXT
  5
ED
330
1F
100
AcDbEntity
  8
NOTES
100
AcDbMText
 10
30.8307373075
 20
3.2682755553
 30
0.0
 40
0.25
 41
0.0
 71
     1
 72
     1
  1
TITLE:
  7
SLDTEXTSTYLE0
 73
     1
 44
1.0
  0
MTEXT
  5
EE
330
1F
100
AcDbEntity
  8
NOTES
100
AcDbMText
 10
38.1561831052
 20
3.2682755553
 30
0.0
 40
0.25
 41
0.0
 71
     1
 72
     1
  1
DWG NO.
  7
SLDTEXTSTYLE0
 73
     1
 44
1.0
  0
MTEXT
  5
EF
330
1F
100
AcDbEntity
  8
NOTES
100
AcDbMText
 10
38.1831753203
 20
1.0645815577
 30
0.0
 40
0.25
 41
0.0
 71
     1
 72
     1
  1
SCALE:     1:1
  7
SLDTEXTSTYLE0
 73
     1
 44
1.0
  0
MTEXT
  5
F0
330
1F
100
AcDbEntity
  8
NOTES
100
AcDbMText
 10
42.1758519973
 20
2.6510344295
 30
0.0
 40
0.25
 41
0.0
 71
     2
 72
     1
  1
963 CAD
  7
SLDTEXTSTYLE0
 73
     1
 44
1.0
  0
MTEXT
  5
F1
330
1F
100
AcDbEntity
  8
NOTES
100
AcDbMText
 10
33.9465331401
 20
2.6388861441
 30
0.0
 40
0.25
 41
0.0
 71
     2
 72
     1
  1
963
  7
SLDTEXTSTYLE0
 73
     1
 44
1.0
  0
INSERT
  5
F7
330
1F
100
AcDbEntity
  8
NOTES
100
AcDbBlockReference
  2
SW_NOTE_0_1
 10
38.266131557
 20
4.6105227838
 30
0.0
  0
INSERT
  5
101
330
1F
100
AcDbEntity
  8
NOTES
100
AcDbBlockReference
  2
SW_NOTE_0_2
 10
24.6159726246
 20
5.1481526848
 30
0.0
  0
MTEXT
  5
102
330
1F
100
AcDbEntity
  8
NOTES
100
AcDbMText
 10
27.5257340466
 20
3.2135957731
 30
0.0
 40
0.25
 41
0.0
 71
     2
 72
     1
  1
September 17, 2021
  7
SLDTEXTSTYLE0
 73
     1
 44
1.0
  0
MTEXT
  5
103
330
1F
100
AcDbEntity
  8
TITLE
100
AcDbMText
 10
0.3276279776
 20
1.4558621965
 30
0.0
 40
0.125
 41
0.0
 71
     2
 72
     1
  1
A
  7
SLDTEXTSTYLE0
 73
     1
 44
1.0
  0
MTEXT
  5
104
330
1F
100
AcDbEntity
  8
TITLE
100
AcDbMText
 10
47.6622736469
 20
1.4558621965
 30
0.0
 40
0.125
 41
0.0
 71
     2
 72
     1
  1
A
  7
SLDTEXTSTYLE0
 73
     1
 44
1.0
  0
MTEXT
  5
105
330
1F
100
AcDbEntity
  8
TITLE
100
AcDbMText
 10
0.3317512413
 20
3.316098417
 30
0.0
 40
0.125
 41
0.0
 71
     2
 72
     1
  1
B
  7
SLDTEXTSTYLE0
 73
     1
 44
1.0
  0
MTEXT
  5
106
330
1F
100
AcDbEntity
  8
TITLE
100
AcDbMText
 10
47.6663969106
 20
3.316098417
 30
0.0
 40
0.125
 41
0.0
 71
     2
 72
     1
  1
B
  7
SLDTEXTSTYLE0
 73
     1
 44
1.0
  0
MTEXT
  5
107
330
1F
100
AcDbEntity
  8
TITLE
100
AcDbMText
 10
0.3313750817
 20
5.284602354
 30
0.0
 40
0.125
 41
0.0
 71
     2
 72
     1
  1
C
  7
SLDTEXTSTYLE0
 73
     1
 44
1.0
  0
MTEXT
  5
108
330
1F
100
AcDbEntity
  8
TITLE
100
AcDbMText
 10
47.666020751
 20
5.284602354
 30
0.0
 40
0.125
 41
0.0
 71
     2
 72
     1
  1
C
  7
SLDTEXTSTYLE0
 73
     1
 44
1.0
  0
MTEXT
  5
109
330
1F
100
AcDbEntity
  8
TITLE
100
AcDbMText
 10
0.3311870028
 20
7.253106291
 30
0.0
 40
0.125
 41
0.0
 71
     2
 72
     1
  1
D
  7
SLDTEXTSTYLE0
 73
     1
 44
1.0
  0
MTEXT
  5
10A
330
1F
100
AcDbEntity
  8
TITLE
100
AcDbMText
 10
47.6658326721
 20
7.253106291
 30
0.0
 40
0.125
 41
0.0
 71
     2
 72
     1
  1
D
  7
SLDTEXTSTYLE0
 73
     1
 44
1.0
  0
MTEXT
  5
10B
330
1F
100
AcDbEntity
  8
TITLE
100
AcDbMText
 10
0.332923116
 20
9.221610228
 30
0.0
 40
0.125
 41
0.0
 71
     2
 72
     1
  1
E
  7
SLDTEXTSTYLE0
 73
     1
 44
1.0
  0
MTEXT
  5
10C
330
1F
100
AcDbEntity
  8
TITLE
100
AcDbMText
 10
47.6675687853
 20
9.221610228
 30
0.0
 40
0.125
 41
0.0
 71
     2
 72
     1
  1
E
  7
SLDTEXTSTYLE0
 73
     1
 44
1.0
  0
MTEXT
  5
10D
330
1F
100
AcDbEntity
  8
TITLE
100
AcDbMText
 10
0.3313461474
 20
11.190114165
 30
0.0
 40
0.125
 41
0.0
 71
     2
 72
     1
  1
F
  7
SLDTEXTSTYLE0
 73
     1
 44
1.0
  0
MTEXT
  5
10E
330
1F
100
AcDbEntity
  8
TITLE
100
AcDbMText
 10
47.6659918167
 20
11.190114165
 30
0.0
 40
0.125
 41
0.0
 71
     2
 72
     1
  1
F
  7
SLDTEXTSTYLE0
 73
     1
 44
1.0
  0
MTEXT
  5
10F
330
1F
100
AcDbEntity
  8
TITLE
100
AcDbMText
 10
0.3322576054
 20
13.158618102
 30
0.0
 40
0.125
 41
0.0
 71
     2
 72
     1
  1
G
  7
SLDTEXTSTYLE0
 73
     1
 44
1.0
  0
MTEXT
  5
110
330
1F
100
AcDbEntity
  8
TITLE
100
AcDbMText
 10
47.6669032747
 20
13.158618102
 30
0.0
 40
0.125
 41
0.0
 71
     2
 72
     1
  1
G
  7
SLDTEXTSTYLE0
 73
     1
 44
1.0
  0
MTEXT
  5
111
330
1F
100
AcDbEntity
  8
TITLE
100
AcDbMText
 10
0.3323733457
 20
15.127122039
 30
0.0
 40
0.125
 41
0.0
 71
     2
 72
     1
  1
H
  7
SLDTEXTSTYLE0
 73
     1
 44
1.0
  0
MTEXT
  5
112
330
1F
100
AcDbEntity
  8
TITLE
100
AcDbMText
 10
47.667019015
 20
15.127122039
 30
0.0
 40
0.125
 41
0.0
 71
     2
 72
     1
  1
H
  7
SLDTEXTSTYLE0
 73
     1
 44
1.0
  0
MTEXT
  5
113
330
1F
100
AcDbEntity
  8
TITLE
100
AcDbMText
 10
0.3315776306
 20
17.095625976
 30
0.0
 40
0.125
 41
0.0
 71
     2
 72
     1
  1
J
  7
SLDTEXTSTYLE0
 73
     1
 44
1.0
  0
MTEXT
  5
114
330
1F
100
AcDbEntity
  8
TITLE
100
AcDbMText
 10
47.6662232999
 20
17.095625976
 30
0.0
 40
0.125
 41
0.0
 71
     2
 72
     1
  1
J
  7
SLDTEXTSTYLE0
 73
     1
 44
1.0
  0
MTEXT
  5
115
330
1F
100
AcDbEntity
  8
TITLE
100
AcDbMText
 10
0.3323154765
 20
19.064129913
 30
0.0
 40
0.125
 41
0.0
 71
     2
 72
     1
  1
K
  7
SLDTEXTSTYLE0
 73
     1
 44
1.0
  0
MTEXT
  5
116
330
1F
100
AcDbEntity
  8
TITLE
100
AcDbMText
 10
47.6669611458
 20
19.064129913
 30
0.0
 40
0.125
 41
0.0
 71
     2
 72
     1
  1
K
  7
SLDTEXTSTYLE0
 73
     1
 44
1.0
  0
MTEXT
  5
117
330
1F
100
AcDbEntity
  8
TITLE
100
AcDbMText
 10
0.3312448739
 20
21.03263385
 30
0.0
 40
0.125
 41
0.0
 71
     2
 72
     1
  1
L
  7
SLDTEXTSTYLE0
 73
     1
 44
1.0
  0
MTEXT
  5
118
330
1F
100
AcDbEntity
  8
TITLE
100
AcDbMText
 10
47.6658905432
 20
21.03263385
 30
0.0
 40
0.125
 41
0.0
 71
     2
 72
     1
  1
L
  7
SLDTEXTSTYLE0
 73
     1
 44
1.0
  0
MTEXT
  5
119
330
1F
100
AcDbEntity
  8
TITLE
100
AcDbMText
 10
0.3283224192
 20
23.001137787
 30
0.0
 40
0.125
 41
0.0
 71
     2
 72
     1
  1
M
  7
SLDTEXTSTYLE0
 73
     1
 44
1.0
  0
MTEXT
  5
11A
330
1F
100
AcDbEntity
  8
TITLE
100
AcDbMText
 10
47.6629680885
 20
23.001137787
 30
0.0
 40
0.125
 41
0.0
 71
     2
 72
     1
  1
M
  7
SLDTEXTSTYLE0
 73
     1
 44
1.0
  0
MTEXT
  5
11B
330
1F
100
AcDbEntity
  8
TITLE
100
AcDbMText
 10
0.3315342276
 20
24.969641724
 30
0.0
 40
0.125
 41
0.0
 71
     2
 72
     1
  1
N
  7
SLDTEXTSTYLE0
 73
     1
 44
1.0
  0
MTEXT
  5
11C
330
1F
100
AcDbEntity
  8
TITLE
100
AcDbMText
 10
47.6661798969
 20
24.969641724
 30
0.0
 40
0.125
 41
0.0
 71
     2
 72
     1
  1
N
  7
SLDTEXTSTYLE0
 73
     1
 44
1.0
  0
MTEXT
  5
11D
330
1F
100
AcDbEntity
  8
TITLE
100
AcDbMText
 10
0.3321997349
 20
26.9381456611
 30
0.0
 40
0.125
 41
0.0
 71
     2
 72
     1
  1
P
  7
SLDTEXTSTYLE0
 73
     1
 44
1.0
  0
MTEXT
  5
11E
330
1F
100
AcDbEntity
  8
TITLE
100
AcDbMText
 10
47.6668454042
 20
26.9381456611
 30
0.0
 40
0.125
 41
0.0
 71
     2
 72
     1
  1
P
  7
SLDTEXTSTYLE0
 73
     1
 44
1.0
  0
MTEXT
  5
11F
330
1F
100
AcDbEntity
  8
TITLE
100
AcDbMText
 10
0.3309265867
 20
28.9066495981
 30
0.0
 40
0.125
 41
0.0
 71
     2
 72
     1
  1
R
  7
SLDTEXTSTYLE0
 73
     1
 44
1.0
  0
MTEXT
  5
120
330
1F
100
AcDbEntity
  8
TITLE
100
AcDbMText
 10
47.665572256
 20
28.9066495981
 30
0.0
 40
0.125
 41
0.0
 71
     2
 72
     1
  1
R
  7
SLDTEXTSTYLE0
 73
     1
 44
1.0
  0
MTEXT
  5
121
330
1F
100
AcDbEntity
  8
TITLE
100
AcDbMText
 10
0.3323010071
 20
30.8751535351
 30
0.0
 40
0.125
 41
0.0
 71
     2
 72
     1
  1
T
  7
SLDTEXTSTYLE0
 73
     1
 44
1.0
  0
MTEXT
  5
122
330
1F
100
AcDbEntity
  8
TITLE
100
AcDbMText
 10
47.6669466764
 20
30.8751535351
 30
0.0
 40
0.125
 41
0.0
 71
     2
 72
     1
  1
T
  7
SLDTEXTSTYLE0
 73
     1
 44
1.0
  0
MTEXT
  5
123
330
1F
100
AcDbEntity
  8
TITLE
100
AcDbMText
 10
0.3328507755
 20
32.8436574721
 30
0.0
 40
0.125
 41
0.0
 71
     2
 72
     1
  1
U
  7
SLDTEXTSTYLE0
 73
     1
 44
1.0
  0
MTEXT
  5
124
330
1F
100
AcDbEntity
  8
TITLE
100
AcDbMText
 10
47.6674964448
 20
32.8436574721
 30
0.0
 40
0.125
 41
0.0
 71
     2
 72
     1
  1
U
  7
SLDTEXTSTYLE0
 73
     1
 44
1.0
  0
MTEXT
  5
125
330
1F
100
AcDbEntity
  8
TITLE
100
AcDbMText
 10
0.3307529773
 20
34.7038936925
 30
0.0
 40
0.125
 41
0.0
 71
     2
 72
     1
  1
V
  7
SLDTEXTSTYLE0
 73
     1
 44
1.0
  0
MTEXT
  5
126
330
1F
100
AcDbEntity
  8
TITLE
100
AcDbMText
 10
47.6653986466
 20
34.7038936925
 30
0.0
 40
0.125
 41
0.0
 71
     2
 72
     1
  1
V
  7
SLDTEXTSTYLE0
 73
     1
 44
1.0
  0
MTEXT
  5
127
330
1F
100
AcDbEntity
  8
TITLE
100
AcDbMText
 10
1.4207109851
 20
0.4125551099
 30
0.0
 40
0.125
 41
0.0
 71
     2
 72
     1
  1
24
  7
SLDTEXTSTYLE0
 73
     1
 44
1.0
  0
MTEXT
  5
128
330
1F
100
AcDbEntity
  8
TITLE
100
AcDbMText
 10
1.4207109851
 20
35.7472007792
 30
0.0
 40
0.125
 41
0.0
 71
     2
 72
     1
  1
24
  7
SLDTEXTSTYLE0
 73
     1
 44
1.0
  0
MTEXT
  5
129
330
1F
100
AcDbEntity
  8
TITLE
100
AcDbMText
 10
3.3281913
 20
0.4125551099
 30
0.0
 40
0.125
 41
0.0
 71
     2
 72
     1
  1
23
  7
SLDTEXTSTYLE0
 73
     1
 44
1.0
  0
MTEXT
  5
12A
330
1F
100
AcDbEntity
  8
TITLE
100
AcDbMText
 10
3.3281913
 20
35.7472007792
 30
0.0
 40
0.125
 41
0.0
 71
     2
 72
     1
  1
23
  7
SLDTEXTSTYLE0
 73
     1
 44
1.0
  0
MTEXT
  5
12B
330
1F
100
AcDbEntity
  8
TITLE
100
AcDbMText
 10
5.2966952371
 20
0.4125551099
 30
0.0
 40
0.125
 41
0.0
 71
     2
 72
     1
  1
22
  7
SLDTEXTSTYLE0
 73
     1
 44
1.0
  0
MTEXT
  5
12C
330
1F
100
AcDbEntity
  8
TITLE
100
AcDbMText
 10
5.2966952371
 20
35.7472007792
 30
0.0
 40
0.125
 41
0.0
 71
     2
 72
     1
  1
22
  7
SLDTEXTSTYLE0
 73
     1
 44
1.0
  0
MTEXT
  5
12D
330
1F
100
AcDbEntity
  8
TITLE
100
AcDbMText
 10
7.2651991741
 20
0.4125551099
 30
0.0
 40
0.125
 41
0.0
 71
     2
 72
     1
  1
21
  7
SLDTEXTSTYLE0
 73
     1
 44
1.0
  0
MTEXT
  5
12E
330
1F
100
AcDbEntity
  8
TITLE
100
AcDbMText
 10
7.2651991741
 20
35.7472007792
 30
0.0
 40
0.125
 41
0.0
 71
     2
 72
     1
  1
21
  7
SLDTEXTSTYLE0
 73
     1
 44
1.0
  0
MTEXT
  5
12F
330
1F
100
AcDbEntity
  8
TITLE
100
AcDbMText
 10
9.2337031111
 20
0.4125551099
 30
0.0
 40
0.125
 41
0.0
 71
     2
 72
     1
  1
20
  7
SLDTEXTSTYLE0
 73
     1
 44
1.0
  0
MTEXT
  5
130
330
1F
100
AcDbEntity
  8
TITLE
100
AcDbMText
 10
9.2337031111
 20
35.7472007792
 30
0.0
 40
0.125
 41
0.0
 71
     2
 72
     1
  1
20
  7
SLDTEXTSTYLE0
 73
     1
 44
1.0
  0
MTEXT
  5
131
330
1F
100
AcDbEntity
  8
TITLE
100
AcDbMText
 10
11.2022070481
 20
0.4125551099
 30
0.0
 40
0.125
 41
0.0
 71
     2
 72
     1
  1
19
  7
SLDTEXTSTYLE0
 73
     1
 44
1.0
  0
MTEXT
  5
132
330
1F
100
AcDbEntity
  8
TITLE
100
AcDbMText
 10
11.2022070481
 20
35.7472007792
 30
0.0
 40
0.125
 41
0.0
 71
     2
 72
     1
  1
19
  7
SLDTEXTSTYLE0
 73
     1
 44
1.0
  0
MTEXT
  5
133
330
1F
100
AcDbEntity
  8
TITLE
100
AcDbMText
 10
13.1707109851
 20
0.4125551099
 30
0.0
 40
0.125
 41
0.0
 71
     2
 72
     1
  1
18
  7
SLDTEXTSTYLE0
 73
     1
 44
1.0
  0
MTEXT
  5
134
330
1F
100
AcDbEntity
  8
TITLE
100
AcDbMText
 10
13.1707109851
 20
35.7472007792
 30
0.0
 40
0.125
 41
0.0
 71
     2
 72
     1
  1
18
  7
SLDTEXTSTYLE0
 73
     1
 44
1.0
  0
MTEXT
  5
135
330
1F
100
AcDbEntity
  8
TITLE
100
AcDbMText
 10
15.1392149221
 20
0.4125551099
 30
0.0
 40
0.125
 41
0.0
 71
     2
 72
     1
  1
17
  7
SLDTEXTSTYLE0
 73
     1
 44
1.0
  0
MTEXT
  5
136
330
1F
100
AcDbEntity
  8
TITLE
100
AcDbMText
 10
15.1392149221
 20
35.7472007792
 30
0.0
 40
0.125
 41
0.0
 71
     2
 72
     1
  1
17
  7
SLDTEXTSTYLE0
 73
     1
 44
1.0
  0
MTEXT
  5
137
330
1F
100
AcDbEntity
  8
TITLE
100
AcDbMText
 10
17.1077188591
 20
0.4125551099
 30
0.0
 40
0.125
 41
0.0
 71
     2
 72
     1
  1
16
  7
SLDTEXTSTYLE0
 73
     1
 44
1.0
  0
MTEXT
  5
138
330
1F
100
AcDbEntity
  8
TITLE
100
AcDbMText
 10
17.1077188591
 20
35.7472007792
 30
0.0
 40
0.125
 41
0.0
 71
     2
 72
     1
  1
16
  7
SLDTEXTSTYLE0
 73
     1
 44
1.0
  0
MTEXT
  5
139
330
1F
100
AcDbEntity
  8
TITLE
100
AcDbMText
 10
19.0762227961
 20
0.4125551099
 30
0.0
 40
0.125
 41
0.0
 71
     2
 72
     1
  1
15
  7
SLDTEXTSTYLE0
 73
     1
 44
1.0
  0
MTEXT
  5
13A
330
1F
100
AcDbEntity
  8
TITLE
100
AcDbMText
 10
19.0762227961
 20
35.7472007792
 30
0.0
 40
0.125
 41
0.0
 71
     2
 72
     1
  1
15
  7
SLDTEXTSTYLE0
 73
     1
 44
1.0
  0
MTEXT
  5
13B
330
1F
100
AcDbEntity
  8
TITLE
100
AcDbMText
 10
21.0447267331
 20
0.4125551099
 30
0.0
 40
0.125
 41
0.0
 71
     2
 72
     1
  1
14
  7
SLDTEXTSTYLE0
 73
     1
 44
1.0
  0
MTEXT
  5
13C
330
1F
100
AcDbEntity
  8
TITLE
100
AcDbMText
 10
21.0447267331
 20
35.7472007792
 30
0.0
 40
0.125
 41
0.0
 71
     2
 72
     1
  1
14
  7
SLDTEXTSTYLE0
 73
     1
 44
1.0
  0
MTEXT
  5
13D
330
1F
100
AcDbEntity
  8
TITLE
100
AcDbMText
 10
23.0132306701
 20
0.4125551099
 30
0.0
 40
0.125
 41
0.0
 71
     2
 72
     1
  1
13
  7
SLDTEXTSTYLE0
 73
     1
 44
1.0
  0
MTEXT
  5
13E
330
1F
100
AcDbEntity
  8
TITLE
100
AcDbMText
 10
23.0132306701
 20
35.7472007792
 30
0.0
 40
0.125
 41
0.0
 71
     2
 72
     1
  1
13
  7
SLDTEXTSTYLE0
 73
     1
 44
1.0
  0
MTEXT
  5
13F
330
1F
100
AcDbEntity
  8
TITLE
100
AcDbMText
 10
24.9817346071
 20
0.4125551099
 30
0.0
 40
0.125
 41
0.0
 71
     2
 72
     1
  1
12
  7
SLDTEXTSTYLE0
 73
     1
 44
1.0
  0
MTEXT
  5
140
330
1F
100
AcDbEntity
  8
TITLE
100
AcDbMText
 10
24.9817346071
 20
35.7472007792
 30
0.0
 40
0.125
 41
0.0
 71
     2
 72
     1
  1
12
  7
SLDTEXTSTYLE0
 73
     1
 44
1.0
  0
MTEXT
  5
141
330
1F
100
AcDbEntity
  8
TITLE
100
AcDbMText
 10
26.9502385441
 20
0.4125551099
 30
0.0
 40
0.125
 41
0.0
 71
     2
 72
     1
  1
11
  7
SLDTEXTSTYLE0
 73
     1
 44
1.0
  0
MTEXT
  5
142
330
1F
100
AcDbEntity
  8
TITLE
100
AcDbMText
 10
26.9502385441
 20
35.7472007792
 30
0.0
 40
0.125
 41
0.0
 71
     2
 72
     1
  1
11
  7
SLDTEXTSTYLE0
 73
     1
 44
1.0
  0
MTEXT
  5
143
330
1F
100
AcDbEntity
  8
TITLE
100
AcDbMText
 10
28.9187424811
 20
0.4125551099
 30
0.0
 40
0.125
 41
0.0
 71
     2
 72
     1
  1
10
  7
SLDTEXTSTYLE0
 73
     1
 44
1.0
  0
MTEXT
  5
144
330
1F
100
AcDbEntity
  8
TITLE
100
AcDbMText
 10
28.9187424811
 20
35.7472007792
 30
0.0
 40
0.125
 41
0.0
 71
     2
 72
     1
  1
10
  7
SLDTEXTSTYLE0
 73
     1
 44
1.0
  0
MTEXT
  5
145
330
1F
100
AcDbEntity
  8
TITLE
100
AcDbMText
 10
30.8885050988
 20
0.4125551099
 30
0.0
 40
0.125
 41
0.0
 71
     2
 72
     1
  1
9
  7
SLDTEXTSTYLE0
 73
     1
 44
1.0
  0
MTEXT
  5
146
330
1F
100
AcDbEntity
  8
TITLE
100
AcDbMText
 10
30.8885050988
 20
35.7472007792
 30
0.0
 40
0.125
 41
0.0
 71
     2
 72
     1
  1
9
  7
SLDTEXTSTYLE0
 73
     1
 44
1.0
  0
MTEXT
  5
147
330
1F
100
AcDbEntity
  8
TITLE
100
AcDbMText
 10
32.8570090359
 20
0.4125551099
 30
0.0
 40
0.125
 41
0.0
 71
     2
 72
     1
  1
8
  7
SLDTEXTSTYLE0
 73
     1
 44
1.0
  0
MTEXT
  5
148
330
1F
100
AcDbEntity
  8
TITLE
100
AcDbMText
 10
32.8570090359
 20
35.7472007792
 30
0.0
 40
0.125
 41
0.0
 71
     2
 72
     1
  1
8
  7
SLDTEXTSTYLE0
 73
     1
 44
1.0
  0
MTEXT
  5
149
330
1F
100
AcDbEntity
  8
TITLE
100
AcDbMText
 10
34.8255129729
 20
0.4125551099
 30
0.0
 40
0.125
 41
0.0
 71
     2
 72
     1
  1
7
  7
SLDTEXTSTYLE0
 73
     1
 44
1.0
  0
MTEXT
  5
14A
330
1F
100
AcDbEntity
  8
TITLE
100
AcDbMText
 10
34.8255129729
 20
35.7472007792
 30
0.0
 40
0.125
 41
0.0
 71
     2
 72
     1
  1
7
  7
SLDTEXTSTYLE0
 73
     1
 44
1.0
  0
MTEXT
  5
14B
330
1F
100
AcDbEntity
  8
TITLE
100
AcDbMText
 10
36.7940169099
 20
0.4125551099
 30
0.0
 40
0.125
 41
0.0
 71
     2
 72
     1
  1
6
  7
SLDTEXTSTYLE0
 73
     1
 44
1.0
  0
MTEXT
  5
14C
330
1F
100
AcDbEntity
  8
TITLE
100
AcDbMText
 10
36.7940169099
 20
35.7472007792
 30
0.0
 40
0.125
 41
0.0
 71
     2
 72
     1
  1
6
  7
SLDTEXTSTYLE0
 73
     1
 44
1.0
  0
MTEXT
  5
14D
330
1F
100
AcDbEntity
  8
TITLE
100
AcDbMText
 10
38.7625208469
 20
0.4125551099
 30
0.0
 40
0.125
 41
0.0
 71
     2
 72
     1
  1
5
  7
SLDTEXTSTYLE0
 73
     1
 44
1.0
  0
MTEXT
  5
14E
330
1F
100
AcDbEntity
  8
TITLE
100
AcDbMText
 10
38.7625208469
 20
35.7472007792
 30
0.0
 40
0.125
 41
0.0
 71
     2
 72
     1
  1
5
  7
SLDTEXTSTYLE0
 73
     1
 44
1.0
  0
MTEXT
  5
14F
330
1F
100
AcDbEntity
  8
TITLE
100
AcDbMText
 10
40.7310247839
 20
0.4125551099
 30
0.0
 40
0.125
 41
0.0
 71
     2
 72
     1
  1
4
  7
SLDTEXTSTYLE0
 73
     1
 44
1.0
  0
MTEXT
  5
150
330
1F
100
AcDbEntity
  8
TITLE
100
AcDbMText
 10
40.7310247839
 20
35.7472007792
 30
0.0
 40
0.125
 41
0.0
 71
     2
 72
     1
  1
4
  7
SLDTEXTSTYLE0
 73
     1
 44
1.0
  0
MTEXT
  5
151
330
1F
100
AcDbEntity
  8
TITLE
100
AcDbMText
 10
42.6995287209
 20
0.4125551099
 30
0.0
 40
0.125
 41
0.0
 71
     2
 72
     1
  1
3
  7
SLDTEXTSTYLE0
 73
     1
 44
1.0
  0
MTEXT
  5
152
330
1F
100
AcDbEntity
  8
TITLE
100
AcDbMText
 10
42.6995287209
 20
35.7472007792
 30
0.0
 40
0.125
 41
0.0
 71
     2
 72
     1
  1
3
  7
SLDTEXTSTYLE0
 73
     1
 44
1.0
  0
MTEXT
  5
153
330
1F
100
AcDbEntity
  8
TITLE
100
AcDbMText
 10
44.6680326579
 20
0.4125551099
 30
0.0
 40
0.125
 41
0.0
 71
     2
 72
     1
  1
2
  7
SLDTEXTSTYLE0
 73
     1
 44
1.0
  0
MTEXT
  5
154
330
1F
100
AcDbEntity
  8
TITLE
100
AcDbMText
 10
44.6680326579
 20
35.7472007792
 30
0.0
 40
0.125
 41
0.0
 71
     2
 72
     1
  1
2
  7
SLDTEXTSTYLE0
 73
     1
 44
1.0
  0
MTEXT
  5
155
330
1F
100
AcDbEntity
  8
TITLE
100
AcDbMText
 10
46.5755129729
 20
0.4125551099
 30
0.0
 40
0.125
 41
0.0
 71
     2
 72
     1
  1
1
  7
SLDTEXTSTYLE0
 73
     1
 44
1.0
  0
MTEXT
  5
156
330
1F
100
AcDbEntity
  8
TITLE
100
AcDbMText
 10
46.5755129729
 20
35.7472007792
 30
0.0
 40
0.125
 41
0.0
 71
     2
 72
     1
  1
1
  7
SLDTEXTSTYLE0
 73
     1
 44
1.0
  0
ARC
  5
157
330
1F
100
AcDbEntity
  8
0
  6
SLD-Solid
 62
     7
370
    25
100
AcDbCircle
 10
9.9762691045
 20
15.8115890238
 30
0.0
 40
0.1951465022883081
100
AcDbArc
 50
15.1413074441
 51
90.0
  0
LINE
  5
158
330
1F
100
AcDbEntity
  8
0
  6
SLD-Solid
 62
     7
370
    25
100
AcDbLine
 10
9.4384435568
 20
16.0067355261
 30
0.0
 11
9.9762691045
 21
16.0067355261
 31
0.0
  0
ARC
  5
159
330
1F
100
AcDbEntity
  8
0
  6
SLD-Solid
 62
     7
370
    25
100
AcDbCircle
 10
9.4384435568
 20
15.8115890238
 30
0.0
 40
0.1951465022883081
100
AcDbArc
 50
90.0
 51
164.8586925559
  0
LINE
  5
15A
330
1F
100
AcDbEntity
  8
0
  6
SLD-Solid
 62
     7
370
    25
100
AcDbLine
 10
9.2500716494
 20
15.8625613876
 30
0.0
 11
9.0506414492
 21
15.1255532448
 31
0.0
  0
ARC
  5
15B
330
1F
100
AcDbEntity
  8
0
  6
SLD-Solid
 62
     7
370
    25
100
AcDbCircle
 10
9.1372776451
 20
15.1021099843
 30
0.0
 40
0.0897519743059652
100
AcDbArc
 50
164.8586925559
 51
344.8586925559
  0
LINE
  5
15C
330
1F
100
AcDbEntity
  8
0
  6
SLD-Solid
 62
     7
370
    25
100
AcDbLine
 10
9.2239138409
 20
15.0786667238
 30
0.0
 11
9.3824344943
 21
15.6644907977
 31
0.0
  0
ARC
  5
15D
330
1F
100
AcDbEntity
  8
0
  6
SLD-Solid
 62
     7
370
    25
100
AcDbCircle
 10
9.4039865389
 20
15.6644907977
 30
0.0
 40
0.0215520446197387
100
AcDbArc
 50
345.7438919724
 51
180.0
  0
LINE
  5
15E
330
1F
100
AcDbEntity
  8
0
  6
SLD-Solid
 62
     7
370
    25
100
AcDbLine
 10
9.1959156268
 20
14.7580569083
 30
0.0
 11
9.424874881
 21
15.6591834641
 31
0.0
  0
LINE
  5
15F
330
1F
100
AcDbEntity
  8
0
  6
SLD-Solid
 62
     7
370
    25
100
AcDbLine
 10
9.4336809965
 20
14.7580569083
 30
0.0
 11
9.1959156268
 21
14.7580569083
 31
0.0
  0
LINE
  5
160
330
1F
100
AcDbEntity
  8
0
  6
SLD-Solid
 62
     7
370
    25
100
AcDbLine
 10
9.4255385835
 20
13.9008050132
 30
0.0
 11
9.4336809965
 21
14.7580569083
 31
0.0
  0
ARC
  5
161
330
1F
100
AcDbEntity
  8
0
  6
SLD-Solid
 62
     7
370
    25
100
AcDbCircle
 10
9.5523344238
 20
13.9008050132
 30
0.0
 40
0.126795840230713
100
AcDbArc
 50
180.0
 51
0.0
  0
LINE
  5
162
330
1F
100
AcDbEntity
  8
0
  6
SLD-Solid
 62
     7
370
    25
100
AcDbLine
 10
9.679130264
 20
13.9008050132
 30
0.0
 11
9.679130264
 21
14.7087429771
 31
0.0
  0
ARC
  5
163
330
1F
100
AcDbEntity
  8
0
  6
SLD-Solid
 62
     7
370
    25
100
AcDbCircle
 10
9.7073563307
 20
14.7087429771
 30
0.0
 40
0.0282260666867327
100
AcDbArc
 50
0.0
 51
180.0
  0
LINE
  5
164
330
1F
100
AcDbEntity
  8
0
  6
SLD-Solid
 62
     7
370
    25
100
AcDbLine
 10
9.7355823974
 20
13.9008050132
 30
0.0
 11
9.7355823974
 21
14.7087429771
 31
0.0
  0
ARC
  5
165
330
1F
100
AcDbEntity
  8
0
  6
SLD-Solid
 62
     7
370
    25
100
AcDbCircle
 10
9.8623782376
 20
13.9008050132
 30
0.0
 40
0.126795840230713
100
AcDbArc
 50
180.0
 51
0.0
  0
LINE
  5
166
330
1F
100
AcDbEntity
  8
0
  6
SLD-Solid
 62
     7
370
    25
100
AcDbLine
 10
9.9891740778
 20
13.9008050132
 30
0.0
 11
9.9810316648
 21
14.7580569083
 31
0.0
  0
LINE
  5
167
330
1F
100
AcDbEntity
  8
0
  6
SLD-Solid
 62
     7
370
    25
100
AcDbLine
 10
9.9810316648
 20
14.7580569083
 30
0.0
 11
10.2187970345
 21
14.7580569083
 31
0.0
  0
LINE
  5
168
330
1F
100
AcDbEntity
  8
0
  6
SLD-Solid
 62
     7
370
    25
100
AcDbLine
 10
10.2187970345
 20
14.7580569083
 30
0.0
 11
9.9898377803
 21
15.6591834641
 31
0.0
  0
ARC
  5
169
330
1F
100
AcDbEntity
  8
0
  6
SLD-Solid
 62
     7
370
    25
100
AcDbCircle
 10
10.0107261224
 20
15.6644907977
 30
0.0
 40
0.0215520446197387
100
AcDbArc
 50
0.0
 51
194.2561080276
  0
LINE
  5
16A
330
1F
100
AcDbEntity
  8
0
  6
SLD-Solid
 62
     7
370
    25
100
AcDbLine
 10
10.1907988204
 20
15.0786667238
 30
0.0
 11
10.0322781671
 21
15.6644907977
 31
0.0
  0
ARC
  5
16B
330
1F
100
AcDbEntity
  8
0
  6
SLD-Solid
 62
     7
370
    25
100
AcDbCircle
 10
10.2774350163
 20
15.1021099843
 30
0.0
 40
0.0897519743059648
100
AcDbArc
 50
195.1413074441
 51
15.1413074441
  0
LINE
  5
16C
330
1F
100
AcDbEntity
  8
0
  6
SLD-Solid
 62
     7
370
    25
100
AcDbLine
 10
10.1646410119
 20
15.8625613876
 30
0.0
 11
10.3640712121
 21
15.1255532448
 31
0.0
  0
LINE
  5
16D
330
1F
100
AcDbEntity
  8
0
  6
SLD-Solid
 62
     7
370
    25
100
AcDbLine
 10
10.7951895482
 20
15.7551383504
 30
0.0
 11
10.9324731227
 21
14.7239353526
 31
0.0
  0
LINE
  5
16E
330
1F
100
AcDbEntity
  8
0
  6
SLD-Solid
 62
     7
370
    25
100
AcDbLine
 10
10.9324731227
 20
14.7239353526
 30
0.0
 11
11.704207631
 21
14.7239353526
 31
0.0
  0
LINE
  5
16F
330
1F
100
AcDbEntity
  8
0
  6
SLD-Solid
 62
     7
370
    25
100
AcDbLine
 10
11.704207631
 20
14.7239353526
 30
0.0
 11
12.03336379
 21
14.053981645
 31
0.0
  0
LINE
  5
170
330
1F
100
AcDbEntity
  8
0
  6
SLD-Solid
 62
     7
370
    25
100
AcDbLine
 10
12.03336379
 20
14.053981645
 30
0.0
 11
12.4466414492
 21
14.2570298338
 31
0.0
  0
LINE
  5
171
330
1F
100
AcDbEntity
  8
0
  6
SLD-Solid
 62
     7
370
    25
100
AcDbLine
 10
12.3580165877
 20
14.4374139856
 30
0.0
 11
12.4466414492
 21
14.2570298338
 31
0.0
  0
LINE
  5
172
330
1F
100
AcDbEntity
  8
0
  6
SLD-Solid
 62
     7
370
    25
100
AcDbLine
 10
12.1251230803
 20
14.3229906583
 30
0.0
 11
12.3580165877
 21
14.4374139856
 31
0.0
  0
LINE
  5
173
330
1F
100
AcDbEntity
  8
0
  6
SLD-Solid
 62
     7
370
    25
100
AcDbLine
 10
11.8293905639
 20
14.9249149742
 30
0.0
 11
12.1251230803
 21
14.3229906583
 31
0.0
  0
LINE
  5
174
330
1F
100
AcDbEntity
  8
0
  6
SLD-Solid
 62
     7
370
    25
100
AcDbLine
 10
11.108469627
 20
14.9249149742
 30
0.0
 11
11.8293905639
 21
14.9249149742
 31
0.0
  0
LINE
  5
175
330
1F
100
AcDbEntity
  8
0
  6
SLD-Solid
 62
     7
370
    25
100
AcDbLine
 10
11.0927735437
 20
15.04281581
 30
0.0
 11
11.108469627
 21
14.9249149742
 31
0.0
  0
LINE
  5
176
330
1F
100
AcDbEntity
  8
0
  6
SLD-Solid
 62
     7
370
    25
100
AcDbLine
 10
11.6066612872
 20
15.04281581
 30
0.0
 11
11.0927735437
 21
15.04281581
 31
0.0
  0
LINE
  5
177
330
1F
100
AcDbEntity
  8
0
  6
SLD-Solid
 62
     7
370
    25
100
AcDbLine
 10
11.6066612872
 20
15.2437954316
 30
0.0
 11
11.6066612872
 21
15.04281581
 31
0.0
  0
LINE
  5
178
330
1F
100
AcDbEntity
  8
0
  6
SLD-Solid
 62
     7
370
    25
100
AcDbLine
 10
11.6066612872
 20
15.2437954316
 30
0.0
 11
11.0660172204
 21
15.2437954316
 31
0.0
  0
LINE
  5
179
330
1F
100
AcDbEntity
  8
0
  6
SLD-Solid
 62
     7
370
    25
100
AcDbLine
 10
11.0187918545
 20
15.5985278823
 30
0.0
 11
11.0660172204
 21
15.2437954316
 31
0.0
  0
ARC
  5
17A
330
1F
100
AcDbEntity
  8
0
  6
SLD-Solid
 62
     7
370
    25
100
AcDbCircle
 10
10.9789720161
 20
15.7796052247
 30
0.0
 40
0.1854039467157669
100
AcDbArc
 50
282.4022342821
 51
187.5831701795
  0
CIRCLE
  5
17B
330
1F
100
AcDbEntity
  8
0
  6
SLD-Solid
 62
     7
370
    25
100
AcDbCircle
 10
9.7073563307
 20
16.2934734513
 30
0.0
 40
0.205610223470261
  0
LINE
  5
17C
330
1F
100
AcDbEntity
  8
0
  6
SLD-Solid
 62
     7
370
    25
100
AcDbLine
 10
8.7366414492
 20
11.8650836748
 30
0.0
 11
12.7606414492
 21
11.8650836748
 31
0.0
  0
LINE
  5
17D
330
1F
100
AcDbEntity
  8
0
  6
SLD-Solid
 62
     7
370
    25
100
AcDbLine
 10
12.7606414492
 20
11.8650836748
 30
0.0
 11
12.7606414492
 21
12.2650836748
 31
0.0
  0
LINE
  5
17E
330
1F
100
AcDbEntity
  8
0
  6
SLD-Solid
 62
     7
370
    25
100
AcDbLine
 10
12.7606414492
 20
12.2650836748
 30
0.0
 11
8.7366414492
 21
12.2650836748
 31
0.0
  0
LINE
  5
17F
330
1F
100
AcDbEntity
  8
0
  6
SLD-Solid
 62
     7
370
    25
100
AcDbLine
 10
8.7366414492
 20
12.2650836748
 30
0.0
 11
8.7366414492
 21
11.8650836748
 31
0.0
  0
LINE
  5
180
330
1F
100
AcDbEntity
  8
0
  6
SLD-Solid
 62
     7
370
    25
100
AcDbLine
 10
13.3306414492
 20
16.7990836748
 30
0.0
 11
13.3306414492
 21
11.6350836748
 31
0.0
  0
LINE
  5
181
330
1F
100
AcDbEntity
  8
0
  6
SLD-Solid
 62
     7
370
    25
100
AcDbLine
 10
13.3306414492
 20
11.6350836748
 30
0.0
 11
8.1666414492
 21
11.6350836748
 31
0.0
  0
LINE
  5
182
330
1F
100
AcDbEntity
  8
0
  6
SLD-Solid
 62
     7
370
    25
100
AcDbLine
 10
8.1666414492
 20
11.6350836748
 30
0.0
 11
8.1666414492
 21
16.7990836748
 31
0.0
  0
LINE
  5
183
330
1F
100
AcDbEntity
  8
0
  6
SLD-Solid
 62
     7
370
    25
100
AcDbLine
 10
8.1666414492
 20
16.7990836748
 30
0.0
 11
13.3306414492
 21
16.7990836748
 31
0.0
  0
LINE
  5
184
330
1F
100
AcDbEntity
  8
0
  6
SLD-Solid
 62
     7
370
    25
100
AcDbLine
 10
12.2544537489
 20
13.1300836748
 30
0.0
 11
12.1725517057
 21
12.6450836748
 31
0.0
  0
LINE
  5
185
330
1F
100
AcDbEntity
  8
0
  6
SLD-Solid
 62
     7
370
    25
100
AcDbLine
 10
12.1725517057
 20
12.6450836748
 30
0.0
 11
12.2607688531
 21
12.6450836748
 31
0.0
  0
LINE
  5
186
330
1F
100
AcDbEntity
  8
0
  6
SLD-Solid
 62
     7
370
    25
100
AcDbLine
 10
12.2607688531
 20
12.6450836748
 30
0.0
 11
12.3124555518
 21
12.9514148046
 31
0.0
  0
LINE
  5
187
330
1F
100
AcDbEntity
  8
0
  6
SLD-Solid
 62
     7
370
    25
100
AcDbLine
 10
12.3124555518
 20
12.9514148046
 30
0.0
 11
12.4127199749
 21
12.6450836748
 31
0.0
  0
LINE
  5
188
330
1F
100
AcDbEntity
  8
0
  6
SLD-Solid
 62
     7
370
    25
100
AcDbLine
 10
12.4127199749
 20
12.6450836748
 30
0.0
 11
12.4976338371
 21
12.6450836748
 31
0.0
  0
LINE
  5
189
330
1F
100
AcDbEntity
  8
0
  6
SLD-Solid
 62
     7
370
    25
100
AcDbLine
 10
12.4976338371
 20
12.6450836748
 30
0.0
 11
12.5984811928
 21
12.9514148046
 31
0.0
  0
LINE
  5
18A
330
1F
100
AcDbEntity
  8
0
  6
SLD-Solid
 62
     7
370
    25
100
AcDbLine
 10
12.5984811928
 20
12.9514148046
 30
0.0
 11
12.650265047
 21
12.6450836748
 31
0.0
  0
LINE
  5
18B
330
1F
100
AcDbEntity
  8
0
  6
SLD-Solid
 62
     7
370
    25
100
AcDbLine
 10
12.650265047
 20
12.6450836748
 30
0.0
 11
12.738385039
 21
12.6450836748
 31
0.0
  0
LINE
  5
18C
330
1F
100
AcDbEntity
  8
0
  6
SLD-Solid
 62
     7
370
    25
100
AcDbLine
 10
12.738385039
 20
12.6450836748
 30
0.0
 11
12.6563858403
 21
13.1300836748
 31
0.0
  0
LINE
  5
18D
330
1F
100
AcDbEntity
  8
0
  6
SLD-Solid
 62
     7
370
    25
100
AcDbLine
 10
12.6563858403
 20
13.1300836748
 30
0.0
 11
12.566905672
 21
13.1300836748
 31
0.0
  0
LINE
  5
18E
330
1F
100
AcDbEntity
  8
0
  6
SLD-Solid
 62
     7
370
    25
100
AcDbLine
 10
12.566905672
 20
13.1300836748
 30
0.0
 11
12.4554683723
 21
12.7917884024
 31
0.0
  0
LINE
  5
18F
330
1F
100
AcDbEntity
  8
0
  6
SLD-Solid
 62
     7
370
    25
100
AcDbLine
 10
12.4554683723
 20
12.7917884024
 30
0.0
 11
12.3448083162
 21
13.1300836748
 31
0.0
  0
LINE
  5
190
330
1F
100
AcDbEntity
  8
0
  6
SLD-Solid
 62
     7
370
    25
100
AcDbLine
 10
12.3448083162
 20
13.1300836748
 30
0.0
 11
12.2544537489
 21
13.1300836748
 31
0.0
  0
SPLINE
  5
191
330
1F
100
AcDbEntity
  8
0
  6
SLD-Solid
 62
     7
370
    25
100
AcDbSpline
210
0.0
220
0.0
230
1.0
 70
     8
 71
     3
 72
    31
 73
    27
 74
     0
 42
0.00000001
 43
0.00000001
 40
0.0
 40
0.0
 40
0.0
 40
0.0
 40
0.0431143456619737
 40
0.0856827648242094
 40
0.1275943241639274
 40
0.1690586225605478
 40
0.2104320288213096
 40
0.2518111664630525
 40
0.2934438397982396
 40
0.3353808532218248
 40
0.3774766059607942
 40
0.4186884906768273
 40
0.4598730336711991
 40
0.5008729046253154
 40
0.5418727755794318
 40
0.5832117768673238
 40
0.6247632017340758
 40
0.6669876223820893
 40
0.7093697058942392
 40
0.7511026519448578
 40
0.7925683801202206
 40
0.8335451085502585
 40
0.8748274225565257
 40
0.9160177232110671
 40
0.9578592039763048
 40
0.9999999999999999
 40
0.9999999999999999
 40
0.9999999999999999
 40
0.9999999999999999
 10
11.62537221847613
 20
12.88777798568474
 30
0.0
 10
11.62544618873444
 20
12.89351480894802
 30
0.0
 10
11.62559319261793
 20
12.90491581413454
 30
0.0
 10
11.62736400924636
 20
12.92181152185234
 30
0.0
 10
11.6299134760668
 20
12.93837744803992
 30
0.0
 10
11.63368401652393
 20
12.9545475441088
 30
0.0
 10
11.63826425946874
 20
12.97043588256756
 30
0.0
 10
11.64419861121146
 20
12.98589457082657
 30
0.0
 10
11.65095350947111
 20
13.00108875018912
 30
0.0
 10
11.65884597208801
 20
13.01583895837101
 30
0.0
 10
11.66762162738316
 20
13.03000948113113
 30
0.0
 10
11.67719664863099
 20
13.04353347363986
 30
0.0
 10
11.68759511209223
 20
13.05624741105754
 30
0.0
 10
11.69878352087129
 20
13.06823484414433
 30
0.0
 10
11.71080043173977
 20
13.07941697863229
 30
0.0
 10
11.72348777464797
 20
13.08995211320333
 30
0.0
 10
11.73709161017345
 20
13.09956039722326
 30
0.0
 10
11.75131419303928
 20
13.10847648415151
 30
0.0
 10
11.76607533959406
 20
13.11653914693402
 30
0.0
 10
11.78131495858158
 20
13.12340184436438
 30
0.0
 10
11.79671908374584
 20
13.12939492113611
 30
0.0
 10
11.81249349342402
 20
13.13412492231694
 30
0.0
 10
11.82846913675641
 20
13.13797745879276
 30
0.0
 10
11.84481668113094
 20
13.14052520727367
 30
0.0
 10
11.86138843577764
 20
13.14229597486305
 30
0.0
 10
11.87256333340015
 20
13.14244486288941
 30
0.0
 10
11.87817069604023
 20
13.1425195722232
 30
0.0
  0
SPLINE
  5
192
330
1F
100
AcDbEntity
  8
0
  6
SLD-Solid
 62
     7
370
    25
100
AcDbSpline
210
0.0
220
0.0
230
1.0
 70
     8
 71
     3
 72
    23
 73
    19
 74
     0
 42
0.00000001
 43
0.00000001
 40
0.0
 40
0.0
 40
0.0
 40
0.0
 40
0.0667486513092666
 40
0.1311519760901755
 40
0.1937321970570959
 40
0.2553255433785992
 40
0.3163881857773856
 40
0.378026862906887
 40
0.4404056792054015
 40
0.504557429324081
 40
0.5686582873620152
 40
0.6309861790900102
 40
0.692288134873299
 40
0.7526154469796394
 40
0.813199538435563
 40
0.8740161248607817
 40
0.9361583555105316
 40
1.0
 40
1.0
 40
1.0
 40
1.0
 10
11.87885078418126
 20
12.6326477773514
 30
0.0
 10
11.86993088100747
 20
12.6328499218637
 30
0.0
 10
11.85240449051375
 20
12.63324710819966
 30
0.0
 10
11.82675453956727
 20
12.63702416892836
 30
0.0
 10
11.80217967021876
 20
12.64271374182356
 30
0.0
 10
11.778886325521
 20
12.65120512414397
 30
0.0
 10
11.75663728266782
 20
12.66182006605673
 30
0.0
 10
11.73559601191102
 20
12.67489300342954
 30
0.0
 10
11.71576958449756
 20
12.69040233222377
 30
0.0
 10
11.69727172806531
 20
12.70795085277007
 30
0.0
 10
11.68051262534019
 20
12.72715278321913
 30
0.0
 10
11.66571942987489
 20
12.74743791993036
 30
0.0
 10
11.65324104133896
 20
12.76865130229825
 30
0.0
 10
11.64307700317252
 20
12.79080285863596
 30
0.0
 10
11.63506408377988
 20
12.81375492241222
 30
0.0
 10
11.62941187957813
 20
12.83764727831696
 30
0.0
 10
11.62607298767756
 20
12.8624226238065
 30
0.0
 10
11.62560789942311
 20
12.87925053372728
 30
0.0
 10
11.62537221847613
 20
12.88777798568474
 30
0.0
  0
SPLINE
  5
193
330
1F
100
AcDbEntity
  8
0
  6
SLD-Solid
 62
     7
370
    25
100
AcDbSpline
210
0.0
220
0.0
230
1.0
 70
     8
 71
     3
 72
    23
 73
    19
 74
     0
 42
0.00000001
 43
0.00000001
 40
0.0
 40
0.0
 40
0.0
 40
0.0
 40
0.0657223151915621
 40
0.1295079307025846
 40
0.1917221026921614
 40
0.2531611245020889
 40
0.3143157037352578
 40
0.3759517397728626
 40
0.4386196008234093
 40
0.5029729018927773
 40
0.567128645724265
 40
0.6295522895796744
 40
0.6904767824348744
 40
0.7510723384108293
 40
0.8116678943867834
 40
0.8729293555873915
 40
0.9355013707158076
 40
1.0
 40
1.0
 40
1.0
 40
1.0
 10
12.12902606462998
 20
12.88612634305653
 30
0.0
 10
12.12879928556661
 20
12.8774364021889
 30
0.0
 10
12.12835241014634
 20
12.86031259490344
 30
0.0
 10
12.12489987707338
 20
12.83514758099255
 30
0.0
 10
12.11913396393569
 20
12.81101647803911
 30
0.0
 10
12.11119051354662
 20
12.7878646647489
 30
0.0
 10
12.10077421218279
 20
12.76580428055895
 30
0.0
 10
12.0882237919487
 20
12.74469447298954
 30
0.0
 10
12.07320807111244
 20
12.72473114610585
 30
0.0
 10
12.05627473198288
 20
12.70592501298843
 30
0.0
 10
12.03763259513387
 20
12.68885441182811
 30
0.0
 10
12.01788761281352
 20
12.67381097403577
 30
0.0
 10
11.99713095514675
 20
12.66106373255061
 30
0.0
 10
11.97539300325829
 20
12.65061852622678
 30
0.0
 10
11.95262714115296
 20
12.64251238627233
 30
0.0
 10
11.92888960329379
 20
12.6367929155142
 30
0.0
 10
11.90418185855197
 20
12.63331707764692
 30
0.0
 10
11.88737939392998
 20
12.63287312116989
 30
0.0
 10
11.87885078418126
 20
12.6326477773514
 30
0.0
  0
SPLINE
  5
194
330
1F
100
AcDbEntity
  8
0
  6
SLD-Solid
 62
     7
370
    25
100
AcDbSpline
210
0.0
220
0.0
230
1.0
 70
     8
 71
     3
 72
    23
 73
    19
 74
     0
 42
0.00000001
 43
0.00000001
 40
0.0
 40
0.0
 40
0.0
 40
0.0
 40
0.0633955966615906
 40
0.1251572666424215
 40
0.1856494665262532
 40
0.2459766793408154
 40
0.3061083686579568
 40
0.367350588089175
 40
0.4299020782799144
 40
0.494539958183194
 40
0.5593725826940479
 40
0.6224096858457372
 40
0.6843574258194755
 40
0.7458066007722108
 40
0.8074302750159151
 40
0.8699955160697818
 40
0.9339278677192728
 40
1.0
 40
1.0
 40
1.0
 40
1.0
 10
11.87817069604023
 20
13.1425195722232
 30
0.0
 10
11.88660301543782
 20
13.14230124437346
 30
0.0
 10
11.90325032381307
 20
13.14187021574776
 30
0.0
 10
11.92773250704152
 20
13.13827725575119
 30
0.0
 10
11.95132561732188
 20
13.13242304253658
 30
0.0
 10
11.97401898591756
 20
13.12428526273658
 30
0.0
 10
11.99575579124225
 20
13.11364350391978
 30
0.0
 10
12.01661270628611
 20
13.10079946693105
 30
0.0
 10
12.03651502256798
 20
13.08551072826736
 30
0.0
 10
12.05525879710931
 20
13.06813394897853
 30
0.0
 10
12.07258142529468
 20
13.04923746025356
 30
0.0
 10
12.08759149273475
 20
13.02889203060972
 30
0.0
 10
12.10039152758607
 20
13.00762483056735
 30
0.0
 10
12.1110002307169
 20
12.98537887404406
 30
0.0
 10
12.11908073276158
 20
12.96200009718208
 30
0.0
 10
12.12475115527334
 20
12.93760770084286
 30
0.0
 10
12.12839412080378
 20
12.9122086244402
 30
0.0
 10
12.12881311789066
 20
12.8949153153423
 30
0.0
 10
12.12902606462998
 20
12.88612634305653
 30
0.0
  0
LINE
  5
195
330
1F
100
AcDbEntity
  8
0
  6
SLD-Solid
 62
     7
370
    25
100
AcDbLine
 10
10.6926799108
 20
13.1300836748
 30
0.0
 11
10.6926799108
 21
12.6450836748
 31
0.0
  0
LINE
  5
196
330
1F
100
AcDbEntity
  8
0
  6
SLD-Solid
 62
     7
370
    25
100
AcDbLine
 10
10.6926799108
 20
12.6450836748
 30
0.0
 11
10.7797311928
 21
12.6450836748
 31
0.0
  0
LINE
  5
197
330
1F
100
AcDbEntity
  8
0
  6
SLD-Solid
 62
     7
370
    25
100
AcDbLine
 10
10.7797311928
 20
12.6450836748
 30
0.0
 11
10.7797311928
 21
12.8564939312
 31
0.0
  0
LINE
  5
198
330
1F
100
AcDbEntity
  8
0
  6
SLD-Solid
 62
     7
370
    25
100
AcDbLine
 10
10.7797311928
 20
12.8564939312
 30
0.0
 11
10.8092664492
 21
12.8564939312
 31
0.0
  0
LINE
  5
199
330
1F
100
AcDbEntity
  8
0
  6
SLD-Solid
 62
     7
370
    25
100
AcDbLine
 10
10.8092664492
 20
12.8564939312
 30
0.0
 11
10.9161374428
 21
12.6450836748
 31
0.0
  0
LINE
  5
19A
330
1F
100
AcDbEntity
  8
0
  6
SLD-Solid
 62
     7
370
    25
100
AcDbLine
 10
10.9161374428
 20
12.6450836748
 30
0.0
 11
11.0129042698
 21
12.6450836748
 31
0.0
  0
LINE
  5
19B
330
1F
100
AcDbEntity
  8
0
  6
SLD-Solid
 62
     7
370
    25
100
AcDbLine
 10
11.0129042698
 20
12.6450836748
 30
0.0
 11
10.9009811928
 21
12.866403787
 31
0.0
  0
SPLINE
  5
19C
330
1F
100
AcDbEntity
  8
0
  6
SLD-Solid
 62
     7
370
    25
100
AcDbSpline
210
0.0
220
0.0
230
1.0
 70
     8
 71
     3
 72
    23
 73
    19
 74
     0
 42
0.00000001
 43
0.00000001
 40
0.0
 40
0.0
 40
0.0
 40
0.0
 40
0.0687412630793653
 40
0.1347890881950349
 40
0.1985360495606905
 40
0.2603856506059207
 40
0.3209615782321963
 40
0.3799038495841484
 40
0.438502935775268
 40
0.4961543439762687
 40
0.5542654832084991
 40
0.6127487608156946
 40
0.6725134425261788
 40
0.7336464018979734
 40
0.7967896194814542
 40
0.8619356990410245
 40
0.9293977347748985
 40
1.0
 40
1.0
 40
1.0
 40
1.0
 10
10.99114144924536
 20
12.99231724850525
 30
0.0
 10
10.99105221448644
 20
12.98849402695789
 30
0.0
 10
10.99087724138802
 20
12.98099738631949
 30
0.0
 10
10.98993474109067
 20
12.96998543264445
 30
0.0
 10
10.98821214661597
 20
12.95944996562107
 30
0.0
 10
10.98560302667936
 20
12.94942183180065
 30
0.0
 10
10.9826041822074
 20
12.93977621936686
 30
0.0
 10
10.97861648830648
 20
12.93069109590067
 30
0.0
 10
10.97411598160908
 20
12.92203433144318
 30
0.0
 10
10.96877086129554
 20
12.91392837920872
 30
0.0
 10
10.96290485287838
 20
12.90619318980328
 30
0.0
 10
10.95608280848411
 20
12.89912512702909
 30
0.0
 10
10.94874669179988
 20
12.89234430927446
 30
0.0
 10
10.9404841129892
 20
12.88627546395841
 30
0.0
 10
10.93165929420145
 20
12.88050823769066
 30
0.0
 10
10.92209689557201
 20
12.87528159482122
 30
0.0
 10
10.91185932459383
 20
12.8704641495829
 30
0.0
 10
10.90466180519974
 20
12.8677776093456
 30
0.0
 10
10.9009811928351
 20
12.86640378696679
 30
0.0
  0
SPLINE
  5
19D
330
1F
100
AcDbEntity
  8
0
  6
SLD-Solid
 62
     7
370
    25
100
AcDbSpline
210
0.0
220
0.0
230
1.0
 70
     8
 71
     3
 72
    31
 73
    27
 74
     0
 42
0.00000001
 43
0.00000001
 40
0.0
 40
0.0
 40
0.0
 40
0.0
 40
0.0728890266200382
 40
0.1401861299444944
 40
0.2022774341249592
 40
0.2588951317514627
 40
0.3104829424654784
 40
0.3570952441313351
 40
0.3985135666534654
 40
0.4350375108701162
 40
0.4692514858292874
 40
0.5028050278902745
 40
0.5362104463185619
 40
0.5693793599392056
 40
0.6028014750483932
 40
0.6366657983367763
 40
0.6709286568940432
 40
0.705803000229313
 40
0.7411890612458777
 40
0.7763043110764618
 40
0.8120043009129352
 40
0.8479689758088955
 40
0.8845217611964794
 40
0.9219741585442052
 40
0.9601981758096081
 40
1.0
 40
1.0
 40
1.0
 40
1.0
 10
10.79411019924536
 20
13.1300836747873
 30
0.0
 10
10.80081471043767
 20
13.1300598776204
 30
0.0
 10
10.81370937402151
 20
13.13001410896515
 30
0.0
 10
10.83230277461462
 20
13.12929200081979
 30
0.0
 10
10.84938337006923
 20
13.12828712806721
 30
0.0
 10
10.86497644975187
 20
13.12675366557568
 30
0.0
 10
10.87907534268606
 20
13.12472047967176
 30
0.0
 10
10.89169417925785
 20
13.12232368993881
 30
0.0
 10
10.90283259063109
 20
13.11959203418079
 30
0.0
 10
10.91258451392268
 20
13.1161881755854
 30
0.0
 10
10.92138514247039
 20
13.11234867469524
 30
0.0
 10
10.92958855179868
 20
13.107937017769
 30
0.0
 10
10.93737572131618
 20
13.10300233000176
 30
0.0
 10
10.94469460220506
 20
13.09741476640115
 30
0.0
 10
10.95160879726098
 20
13.09127484585982
 30
0.0
 10
10.95813135052747
 20
13.08457638794484
 30
0.0
 10
10.96417009228126
 20
13.07726259249197
 30
0.0
 10
10.9696876303883
 20
13.06937967340712
 30
0.0
 10
10.97471642223971
 20
13.06108702329604
 30
0.0
 10
10.97916081951749
 20
13.05237325629601
 30
0.0
 10
10.98277501077084
 20
13.04323231256245
 30
0.0
 10
10.98596853617589
 20
13.03379629849456
 30
0.0
 10
10.98826872906591
 20
13.02393032442003
 30
0.0
 10
10.98986847957202
 20
13.01373043726187
 30
0.0
 10
10.99103975431026
 20
13.00316073233435
 30
0.0
 10
10.99110709700808
 20
12.99598014409611
 30
0.0
 10
10.99114144924536
 20
12.99231724850525
 30
0.0
  0
LINE
  5
19E
330
1F
100
AcDbEntity
  8
0
  6
SLD-Solid
 62
     7
370
    25
100
AcDbLine
 10
10.7941101992
 20
13.1300836748
 30
0.0
 11
10.6926799108
 21
13.1300836748
 31
0.0
  0
LINE
  5
19F
330
1F
100
AcDbEntity
  8
0
  6
SLD-Solid
 62
     7
370
    25
100
AcDbLine
 10
8.7433529877
 20
13.1300836748
 30
0.0
 11
8.8557618419
 21
12.6450836748
 31
0.0
  0
LINE
  5
1A0
330
1F
100
AcDbEntity
  8
0
  6
SLD-Solid
 62
     7
370
    25
100
AcDbLine
 10
8.8557618419
 20
12.6450836748
 30
0.0
 11
8.9460192537
 21
12.6450836748
 31
0.0
  0
LINE
  5
1A1
330
1F
100
AcDbEntity
  8
0
  6
SLD-Solid
 62
     7
370
    25
100
AcDbLine
 10
8.9460192537
 20
12.6450836748
 30
0.0
 11
9.0293786287
 21
12.9586043078
 31
0.0
  0
LINE
  5
1A2
330
1F
100
AcDbEntity
  8
0
  6
SLD-Solid
 62
     7
370
    25
100
AcDbLine
 10
9.0293786287
 20
12.9586043078
 30
0.0
 11
9.1122522265
 21
12.6450836748
 31
0.0
  0
LINE
  5
1A3
330
1F
100
AcDbEntity
  8
0
  6
SLD-Solid
 62
     7
370
    25
100
AcDbLine
 10
9.1122522265
 20
12.6450836748
 30
0.0
 11
9.2031897265
 21
12.6450836748
 31
0.0
  0
LINE
  5
1A4
330
1F
100
AcDbEntity
  8
0
  6
SLD-Solid
 62
     7
370
    25
100
AcDbLine
 10
9.2031897265
 20
12.6450836748
 30
0.0
 11
9.3154042698
 21
13.1300836748
 31
0.0
  0
LINE
  5
1A5
330
1F
100
AcDbEntity
  8
0
  6
SLD-Solid
 62
     7
370
    25
100
AcDbLine
 10
9.3154042698
 20
13.1300836748
 30
0.0
 11
9.2253411688
 21
13.1300836748
 31
0.0
  0
LINE
  5
1A6
330
1F
100
AcDbEntity
  8
0
  6
SLD-Solid
 62
     7
370
    25
100
AcDbLine
 10
9.2253411688
 20
13.1300836748
 30
0.0
 11
9.1537376031
 21
12.8204492597
 31
0.0
  0
LINE
  5
1A7
330
1F
100
AcDbEntity
  8
0
  6
SLD-Solid
 62
     7
370
    25
100
AcDbLine
 10
9.1537376031
 20
12.8204492597
 30
0.0
 11
9.0719327153
 21
13.1300836748
 31
0.0
  0
LINE
  5
1A8
330
1F
100
AcDbEntity
  8
0
  6
SLD-Solid
 62
     7
370
    25
100
AcDbLine
 10
9.0719327153
 20
13.1300836748
 30
0.0
 11
8.9873103194
 21
13.1300836748
 31
0.0
  0
LINE
  5
1A9
330
1F
100
AcDbEntity
  8
0
  6
SLD-Solid
 62
     7
370
    25
100
AcDbLine
 10
8.9873103194
 20
13.1300836748
 30
0.0
 11
8.9050196544
 21
12.8204492597
 31
0.0
  0
LINE
  5
1AA
330
1F
100
AcDbEntity
  8
0
  6
SLD-Solid
 62
     7
370
    25
100
AcDbLine
 10
8.9050196544
 20
12.8204492597
 30
0.0
 11
8.8332217778
 21
13.1300836748
 31
0.0
  0
LINE
  5
1AB
330
1F
100
AcDbEntity
  8
0
  6
SLD-Solid
 62
     7
370
    25
100
AcDbLine
 10
8.8332217778
 20
13.1300836748
 30
0.0
 11
8.7433529877
 21
13.1300836748
 31
0.0
  0
LINE
  5
1AC
330
1F
100
AcDbEntity
  8
0
  6
SLD-Solid
 62
     7
370
    25
100
AcDbLine
 10
9.5424565534
 20
13.1300836748
 30
0.0
 11
9.3464940133
 21
12.6450836748
 31
0.0
  0
LINE
  5
1AD
330
1F
100
AcDbEntity
  8
0
  6
SLD-Solid
 62
     7
370
    25
100
AcDbLine
 10
9.3464940133
 20
12.6450836748
 30
0.0
 11
9.4393746223
 21
12.6450836748
 31
0.0
  0
LINE
  5
1AE
330
1F
100
AcDbEntity
  8
0
  6
SLD-Solid
 62
     7
370
    25
100
AcDbLine
 10
9.4393746223
 20
12.6450836748
 30
0.0
 11
9.4770709364
 21
12.7445708543
 31
0.0
  0
LINE
  5
1AF
330
1F
100
AcDbEntity
  8
0
  6
SLD-Solid
 62
     7
370
    25
100
AcDbLine
 10
9.4770709364
 20
12.7445708543
 30
0.0
 11
9.6883840374
 21
12.7445708543
 31
0.0
  0
LINE
  5
1B0
330
1F
100
AcDbEntity
  8
0
  6
SLD-Solid
 62
     7
370
    25
100
AcDbLine
 10
9.6883840374
 20
12.7445708543
 30
0.0
 11
9.7260803515
 21
12.6450836748
 31
0.0
  0
LINE
  5
1B1
330
1F
100
AcDbEntity
  8
0
  6
SLD-Solid
 62
     7
370
    25
100
AcDbLine
 10
9.7260803515
 20
12.6450836748
 30
0.0
 11
9.8190581159
 21
12.6450836748
 31
0.0
  0
LINE
  5
1B2
330
1F
100
AcDbEntity
  8
0
  6
SLD-Solid
 62
     7
370
    25
100
AcDbLine
 10
9.8190581159
 20
12.6450836748
 30
0.0
 11
9.6231927313
 21
13.1300836748
 31
0.0
  0
LINE
  5
1B3
330
1F
100
AcDbEntity
  8
0
  6
SLD-Solid
 62
     7
370
    25
100
AcDbLine
 10
9.6231927313
 20
13.1300836748
 30
0.0
 11
9.5424565534
 21
13.1300836748
 31
0.0
  0
SPLINE
  5
1B4
330
1F
100
AcDbEntity
  8
0
  6
SLD-Solid
 62
     7
370
    25
100
AcDbSpline
210
0.0
220
0.0
230
1.0
 70
     8
 71
     3
 72
    19
 73
    15
 74
     0
 42
0.00000001
 43
0.00000001
 40
0.0
 40
0.0
 40
0.0
 40
0.0
 40
0.1069102197112001
 40
0.2129765276064939
 40
0.3197766759577688
 40
0.4285562728491928
 40
0.4858568032784263
 40
0.5465586866406887
 40
0.6114314979175136
 40
0.679820910072493
 40
0.7531585046908256
 40
0.8307528691562623
 40
0.9131330746557015
 40
1.0
 40
1.0
 40
1.0
 40
1.0
 10
10.00540226655305
 20
13.1425195722232
 30
0.0
 10
10.01111665885789
 20
13.1423105275779
 30
0.0
 10
10.02250033605687
 20
13.14189408841247
 30
0.0
 10
10.03933143112144
 20
13.13863767022069
 30
0.0
 10
10.05577134107907
 20
13.13351660959812
 30
0.0
 10
10.06901892862349
 20
13.1273386133736
 30
0.0
 10
10.0795597867522
 20
13.12135398550759
 30
0.0
 10
10.08763836985698
 20
13.11584409403581
 30
0.0
 10
10.09585876300687
 20
13.10953221721797
 30
0.0
 10
10.10428725857336
 20
13.1023984646642
 30
0.0
 10
10.1127672420576
 20
13.09430842710753
 30
0.0
 10
10.12153983994436
 20
13.08545469426059
 30
0.0
 10
10.13048551486454
 20
13.07576074916593
 30
0.0
 10
10.13629878519419
 20
13.06883543974003
 30
0.0
 10
10.13928247488639
 20
13.06528099049243
 30
0.0
  0
SPLINE
  5
1B5
330
1F
100
AcDbEntity
  8
0
  6
SLD-Solid
 62
     7
370
    25
100
AcDbSpline
210
0.0
220
0.0
230
1.0
 70
     8
 71
     3
 72
    23
 73
    19
 74
     0
 42
0.00000001
 43
0.00000001
 40
0.0
 40
0.0
 40
0.0
 40
0.0
 40
0.0631728801065212
 40
0.1244573597770007
 40
0.1848409152554598
 40
0.2445668214643688
 40
0.3043191726186554
 40
0.3651997864614173
 40
0.4274209827764752
 40
0.4912616890772871
 40
0.5554990019310213
 40
0.6186045181428791
 40
0.6804947639253089
 40
0.7424733052606058
 40
0.8049906647647702
 40
0.8682519711837803
 40
0.9328872172654757
 40
1.0
 40
1.0
 40
1.0
 40
1.0
 10
9.87812862873254
 20
13.01952077414628
 30
0.0
 10
9.878233831396763
 20
13.02367308396173
 30
0.0
 10
9.878441091946046
 20
13.0318535803351
 30
0.0
 10
9.880289888018508
 20
13.04388180831821
 30
0.0
 10
9.883052984184367
 20
13.05548803766988
 30
0.0
 10
9.887065793077493
 20
13.06662992357797
 30
0.0
 10
9.892273934495977
 20
13.07729351038185
 30
0.0
 10
9.898599019946984
 20
13.08753100082707
 30
0.0
 10
9.906139266021354
 20
13.09724817136382
 30
0.0
 10
9.914636614305211
 20
13.1064385801931
 30
0.0
 10
9.923998516552484
 20
13.11483756800069
 30
0.0
 10
9.934002898829752
 20
13.12225051631999
 30
0.0
 10
9.944593135449724
 20
13.12851160026051
 30
0.0
 10
9.955704440707217
 20
13.13370562402283
 30
0.0
 10
9.967405666737557
 20
13.13768131926255
 30
0.0
 10
9.979610611144683
 20
13.1404994902136
 30
0.0
 10
9.992336779690882
 20
13.14217564842339
 30
0.0
 10
10.00099284483611
 20
13.14240350268152
 30
0.0
 10
10.00540226655305
 20
13.1425195722232
 30
0.0
  0
SPLINE
  5
1B6
330
1F
100
AcDbEntity
  8
0
  6
SLD-Solid
 62
     7
370
    25
100
AcDbSpline
210
0.0
220
0.0
230
1.0
 70
     8
 71
     3
 72
    19
 73
    15
 74
     0
 42
0.00000001
 43
0.00000001
 40
0.0
 40
0.0
 40
0.0
 40
0.0
 40
0.1121245812797442
 40
0.2152010090762411
 40
0.309902452493476
 40
0.3959590963320905
 40
0.473447494000333
 40
0.5421403275660301
 40
0.6025233330554092
 40
0.6547263328340143
 40
0.7478040553141012
 40
0.8352784168250078
 40
0.9189252427194493
 40
0.9999999999999999
 40
0.9999999999999999
 40
0.9999999999999999
 40
0.9999999999999999
 10
10.00035018321972
 20
12.84930442799243
 30
0.0
 10
9.994176952675785
 20
12.85452757299728
 30
0.0
 10
9.982328654763295
 20
12.86455236919065
 30
0.0
 10
9.965585506597415
 20
12.87935867758301
 30
0.0
 10
9.950498430938797
 20
12.89319652946548
 30
0.0
 10
9.93719773597551
 20
12.90623699093735
 30
0.0
 10
9.925513950277452
 20
12.91823923489499
 30
0.0
 10
9.915526201517986
 20
12.92930074815518
 30
0.0
 10
9.90734420965886
 20
12.93950685516351
 30
0.0
 10
9.89873442748842
 20
12.95159530593817
 30
0.0
 10
9.890553413013263
 20
12.96632591382168
 30
0.0
 10
9.883482694932159
 20
12.98404854276678
 30
0.0
 10
9.878895511475244
 20
13.00176892297307
 30
0.0
 10
9.878381581368501
 20
13.01366541021986
 30
0.0
 10
9.87812862873254
 20
13.01952077414628
 30
0.0
  0
SPLINE
  5
1B7
330
1F
100
AcDbEntity
  8
0
  6
SLD-Solid
 62
     7
370
    25
100
AcDbSpline
210
0.0
220
0.0
230
1.0
 70
     8
 71
     3
 72
    19
 73
    15
 74
     0
 42
0.00000001
 43
0.00000001
 40
0.0
 40
0.0
 40
0.0
 40
0.0
 40
0.0763466063531701
 40
0.1550908218146645
 40
0.2383515612585566
 40
0.3284041399329871
 40
0.3793838595513589
 40
0.4396176441748209
 40
0.5098314158313143
 40
0.5888746449969577
 40
0.6774363544094507
 40
0.775546719619675
 40
0.8826358717258564
 40
0.9999999999999999
 40
0.9999999999999999
 40
0.9999999999999999
 40
0.9999999999999999
 10
10.064667090271
 20
12.76565358664628
 30
0.0
 10
10.06450739497307
 20
12.76842110241835
 30
0.0
 10
10.06418298926365
 20
12.77404304576303
 30
0.0
 10
10.06179351678317
 20
12.78240197149888
 30
0.0
 10
10.05805804247359
 20
12.79075709576771
 30
0.0
 10
10.05363871294826
 20
12.79761019473661
 30
0.0
 10
10.04914149178273
 20
12.80334810873291
 30
0.0
 10
10.04484113399792
 20
12.80831975165242
 30
0.0
 10
10.03960443579786
 20
12.81381254670426
 30
0.0
 10
10.03344467513949
 20
12.81983340340804
 30
0.0
 10
10.02644323853336
 20
12.82643532488886
 30
0.0
 10
10.01859422817653
 20
12.83361766466053
 30
0.0
 10
10.0098077645971
 20
12.84131715489967
 30
0.0
 10
10.0035974748024
 20
12.84656197158125
 30
0.0
 10
10.00035018321972
 20
12.84930442799243
 30
0.0
  0
SPLINE
  5
1B8
330
1F
100
AcDbEntity
  8
0
  6
SLD-Solid
 62
     7
370
    25
100
AcDbSpline
210
0.0
220
0.0
230
1.0
 70
     8
 71
     3
 72
    15
 73
    11
 74
     0
 42
0.00000001
 43
0.00000001
 40
0.0
 40
0.0
 40
0.0
 40
0.0
 40
0.1419858925296712
 40
0.2754733105502131
 40
0.404345842663139
 40
0.5354297108606288
 40
0.6614274010622531
 40
0.7778668404627588
 40
0.8882797492818406
 40
1.0
 40
1.0
 40
1.0
 40
1.0
 10
10.00928848450177
 20
12.71969905940268
 30
0.0
 10
10.01306303316097
 20
12.71985171185269
 30
0.0
 10
10.02038620729085
 20
12.72014787983824
 30
0.0
 10
10.0308391012524
 20
12.7228834942265
 30
0.0
 10
10.0404227102245
 20
12.72717860950172
 30
0.0
 10
10.04870671103974
 20
12.73330714671652
 30
0.0
 10
10.0557210806263
 20
12.74038041013017
 30
0.0
 10
10.06089808800667
 20
12.74824973909679
 30
0.0
 10
10.06415031896138
 20
12.75676416308
 30
0.0
 10
10.06449415862346
 20
12.76267884204563
 30
0.0
 10
10.064667090271
 20
12.76565358664628
 30
0.0
  0
SPLINE
  5
1B9
330
1F
100
AcDbEntity
  8
0
  6
SLD-Solid
 62
     7
370
    25
100
AcDbSpline
210
0.0
220
0.0
230
1.0
 70
     8
 71
     3
 72
    15
 73
    11
 74
     0
 42
0.00000001
 43
0.00000001
 40
0.0
 40
0.0
 40
0.0
 40
0.0
 40
0.1604579205559365
 40
0.3076115473748602
 40
0.4421388877557715
 40
0.5662291941703349
 40
0.6812222080152134
 40
0.7895580052436291
 40
0.8950288924051347
 40
0.9999999999999999
 40
0.9999999999999999
 40
0.9999999999999999
 40
0.9999999999999999
 10
9.929815327450491
 20
12.78187854658217
 30
0.0
 10
9.932642019781118
 20
12.77696507895636
 30
0.0
 10
9.93806103056454
 20
12.76754554158409
 30
0.0
 10
9.947244050944565
 20
12.75488919927543
 30
0.0
 10
9.956651586516832
 20
12.74405113709618
 30
0.0
 10
9.966501131074688
 20
12.73522291849059
 30
0.0
 10
9.9766729178418
 20
12.72828649882839
 30
0.0
 10
9.987216078911883
 20
12.7233292521216
 30
0.0
 10
9.998138021706922
 20
12.72026072201789
 30
0.0
 10
10.00557755296137
 20
12.71988598361849
 30
0.0
 10
10.00928848450177
 20
12.71969905940268
 30
0.0
  0
LINE
  5
1BA
330
1F
100
AcDbEntity
  8
0
  6
SLD-Solid
 62
     7
370
    25
100
AcDbLine
 10
9.9298153275
 20
12.7818785466
 30
0.0
 11
9.8532568339
 21
12.7359240193
 31
0.0
  0
SPLINE
  5
1BB
330
1F
100
AcDbEntity
  8
0
  6
SLD-Solid
 62
     7
370
    25
100
AcDbSpline
210
0.0
220
0.0
230
1.0
 70
     8
 71
     3
 72
    23
 73
    19
 74
     0
 42
0.00000001
 43
0.00000001
 40
0.0
 40
0.0
 40
0.0
 40
0.0
 40
0.0635514822357808
 40
0.1258683816453842
 40
0.1862402502136729
 40
0.2449766506319395
 40
0.3033576876770614
 40
0.3612303170408046
 40
0.418489049028352
 40
0.4759367117285737
 40
0.5342037438191215
 40
0.5940594289675396
 40
0.6554686942598743
 40
0.7187716848998884
 40
0.784974607219059
 40
0.853522316376702
 40
0.9251824507719316
 40
1.0
 40
1.0
 40
1.0
 40
1.0
 10
10.00608235469408
 20
12.6326477773514
 30
0.0
 10
10.00193432183178
 20
12.63272136621772
 30
0.0
 10
9.99371883786473
 20
12.63286711437628
 30
0.0
 10
9.981610456533613
 20
12.63405702677725
 30
0.0
 10
9.969918445581119
 20
12.63597741878988
 30
0.0
 10
9.958655975013182
 20
12.63872991421428
 30
0.0
 10
9.947772305411094
 20
12.64221769923312
 30
0.0
 10
9.937266989797854
 20
12.6464778950236
 30
0.0
 10
9.9272125498551
 20
12.65157653302483
 30
0.0
 10
9.917532908923548
 20
12.65740876496751
 30
0.0
 10
9.908275122003193
 20
12.66418075449709
 30
0.0
 10
9.899322128019787
 20
12.67175405050379
 30
0.0
 10
9.890762856610294
 20
12.68024513366817
 30
0.0
 10
9.882556199329603
 20
12.68963392290681
 30
0.0
 10
9.874754664659056
 20
12.6999470050157
 30
0.0
 10
9.867102880374771
 20
12.711040751241
 30
0.0
 10
9.859940914795295
 20
12.72312104645164
 30
0.0
 10
9.855516650070618
 20
12.73159547126327
 30
0.0
 10
9.853256833860748
 20
12.73592401933858
 30
0.0
  0
SPLINE
  5
1BC
330
1F
100
AcDbEntity
  8
0
  6
SLD-Solid
 62
     7
370
    25
100
AcDbSpline
210
0.0
220
0.0
230
1.0
 70
     8
 71
     3
 72
    23
 73
    19
 74
     0
 42
0.00000001
 43
0.00000001
 40
0.0
 40
0.0
 40
0.0
 40
0.0
 40
0.0652008752881559
 40
0.1279265440230309
 40
0.1890469100189667
 40
0.2485436930694599
 40
0.307607127022346
 40
0.3672476600602126
 40
0.4269630557213212
 40
0.4886171282353926
 40
0.5503918546271245
 40
0.6113307342255597
 40
0.6725560854310831
 40
0.7340241906291919
 40
0.7973406208369389
 40
0.862249627316578
 40
0.9296254660746968
 40
1.0
 40
1.0
 40
1.0
 40
1.0
 10
10.15171837232228
 20
12.77070566997961
 30
0.0
 10
10.15163155660128
 20
12.76580738872523
 30
0.0
 10
10.15146122092547
 20
12.75619677859528
 30
0.0
 10
10.14937493554985
 20
12.74213308222625
 30
0.0
 10
10.1464000150557
 20
12.7286735144294
 30
0.0
 10
10.14180026607957
 20
12.71596453432963
 30
0.0
 10
10.13619411926764
 20
12.70379752789221
 30
0.0
 10
10.12916600455447
 20
12.69236201839059
 30
0.0
 10
10.12091244751679
 20
12.68154227379413
 30
0.0
 10
10.11145260387943
 20
12.67153171026811
 30
0.0
 10
10.10098889351191
 20
12.66244781772255
 30
0.0
 10
10.08976556968942
 20
12.65436112202401
 30
0.0
 10
10.07767288510244
 20
12.64768452466993
 30
0.0
 10
10.06481415774238
 20
12.64218682298409
 30
0.0
 10
10.05119627059448
 20
12.63795241963521
 30
0.0
 10
10.03683544666735
 20
12.63482280091712
 30
0.0
 10
10.02170972010132
 20
12.63294445309539
 30
0.0
 10
10.01136653031215
 20
12.63274809411575
 30
0.0
 10
10.00608235469408
 20
12.6326477773514
 30
0.0
  0
SPLINE
  5
1BD
330
1F
100
AcDbEntity
  8
0
  6
SLD-Solid
 62
     7
370
    25
100
AcDbSpline
210
0.0
220
0.0
230
1.0
 70
     8
 71
     3
 72
    15
 73
    11
 74
     0
 42
0.00000001
 43
0.00000001
 40
0.0
 40
0.0
 40
0.0
 40
0.0
 40
0.1508330973407548
 40
0.2899541833158774
 40
0.4171386481520551
 40
0.535255183906263
 40
0.6487510952936693
 40
0.7624054615861224
 40
0.879826701250104
 40
1.0
 40
1.0
 40
1.0
 40
1.0
 10
10.10158616078382
 20
12.88194865876166
 30
0.0
 10
10.10586796034714
 20
12.87731483460765
 30
0.0
 10
10.11409908280892
 20
12.868406997257
 30
0.0
 10
10.12479664034759
 20
12.85460265082024
 30
0.0
 10
10.13360107623292
 20
12.8411267939352
 30
0.0
 10
10.14041235479325
 20
12.82772585649428
 30
0.0
 10
10.14555650631349
 20
12.81420648964288
 30
0.0
 10
10.14918320128015
 20
12.80023713164225
 30
0.0
 10
10.15135525302654
 20
12.78567181145554
 30
0.0
 10
10.15159640148232
 20
12.77573275850992
 30
0.0
 10
10.15171837232228
 20
12.77070566997961
 30
0.0
  0
SPLINE
  5
1BE
330
1F
100
AcDbEntity
  8
0
  6
SLD-Solid
 62
     7
370
    25
100
AcDbSpline
210
0.0
220
0.0
230
1.0
 70
     8
 71
     3
 72
    15
 73
    11
 74
     0
 42
0.00000001
 43
0.00000001
 40
0.0
 40
0.0
 40
0.0
 40
0.0
 40
0.1929527021649357
 40
0.3661841413840577
 40
0.5204572982944607
 40
0.6550121351900097
 40
0.7706242255759997
 40
0.8656771846793666
 40
0.9426745273198681
 40
1.0
 40
1.0
 40
1.0
 40
1.0
 10
10.03911520725818
 20
12.9379101972232
 30
0.0
 10
10.04319497882304
 20
12.93437936071924
 30
0.0
 10
10.05093753765096
 20
12.92767856659164
 30
0.0
 10
10.06195366133156
 20
12.91816786520525
 30
0.0
 10
10.07163499933012
 20
12.90961131906958
 30
0.0
 10
10.08012258664831
 20
12.90213734363281
 30
0.0
 10
10.08728775974155
 20
12.89566751978098
 30
0.0
 10
10.09316064102118
 20
12.89017092183107
 30
0.0
 10
10.09781295777545
 20
12.88575455843621
 30
0.0
 10
10.10045752745122
 20
12.88308707225907
 30
0.0
 10
10.10158616078382
 20
12.88194865876166
 30
0.0
  0
SPLINE
  5
1BF
330
1F
100
AcDbEntity
  8
0
  6
SLD-Solid
 62
     7
370
    25
100
AcDbSpline
210
0.0
220
0.0
230
1.0
 70
     8
 71
     3
 72
    15
 73
    11
 74
     0
 42
0.00000001
 43
0.00000001
 40
0.0
 40
0.0
 40
0.0
 40
0.0
 40
0.0592341891229447
 40
0.1363492805279907
 40
0.2338052120618149
 40
0.3494112238568944
 40
0.4831791503491671
 40
0.6359668555591125
 40
0.809243356367591
 40
0.9999999999999999
 40
0.9999999999999999
 40
0.9999999999999999
 40
0.9999999999999999
 10
9.973243813027414
 20
13.00047830619756
 30
0.0
 10
9.974359203918004
 20
12.99907017775155
 30
0.0
 10
9.976926686442729
 20
12.99582885203498
 30
0.0
 10
9.98182234976541
 20
12.99069509736098
 30
0.0
 10
9.987970274727267
 20
12.9844057985192
 30
0.0
 10
9.995607046418588
 20
12.97717722606744
 30
0.0
 10
10.0044156414517
 20
12.96874941227002
 30
0.0
 10
10.01480434957716
 20
12.95945365769482
 30
0.0
 10
10.02647413847098
 20
12.94900208362645
 30
0.0
 10
10.03476875405084
 20
12.94172398591816
 30
0.0
 10
10.03911520725818
 20
12.9379101972232
 30
0.0
  0
SPLINE
  5
1C0
330
1F
100
AcDbEntity
  8
0
  6
SLD-Solid
 62
     7
370
    25
100
AcDbSpline
210
0.0
220
0.0
230
1.0
 70
     8
 71
     3
 72
    11
 73
     7
 74
     0
 42
0.00000001
 43
0.00000001
 40
0.0
 40
0.0
 40
0.0
 40
0.0
 40
0.2418813747501821
 40
0.4871154746783743
 40
0.7378378396463977
 40
1.0
 40
1.0
 40
1.0
 40
1.0
 10
9.965179910783823
 20
13.02369845844115
 30
0.0
 10
9.965265589098998
 20
13.02167975159522
 30
0.0
 10
9.965438133319108
 20
13.01761435654566
 30
0.0
 10
9.96710467561118
 20
13.01165601379737
 30
0.0
 10
9.969616630704163
 20
13.00583401932879
 30
0.0
 10
9.972016906350131
 20
13.00228989426144
 30
0.0
 10
9.973243813027414
 20
13.00047830619756
 30
0.0
  0
SPLINE
  5
1C1
330
1F
100
AcDbEntity
  8
0
  6
SLD-Solid
 62
     7
370
    25
100
AcDbSpline
210
0.0
220
0.0
230
1.0
 70
     8
 71
     3
 72
    15
 73
    11
 74
     0
 42
0.00000001
 43
0.00000001
 40
0.0
 40
0.0
 40
0.0
 40
0.0
 40
0.1481262583591575
 40
0.285992887489699
 40
0.4166343935606146
 40
0.5473799458012574
 40
0.6715828376102103
 40
0.784400738695991
 40
0.8932655763009623
 40
1.0
 40
1.0
 40
1.0
 40
1.0
 10
10.00443071206588
 20
13.05546829017192
 30
0.0
 10
10.00166774984976
 20
13.05537139328262
 30
0.0
 10
9.996333195727038
 20
13.05518431084723
 30
0.0
 10
9.988728393066022
 20
13.05332472538336
 30
0.0
 10
9.981976740960006
 20
13.05011535395947
 30
0.0
 10
9.97608482872334
 20
13.04591883082953
 30
0.0
 10
9.97141756495147
 20
13.04086299336606
 30
0.0
 10
9.967691116765915
 20
13.03556071983253
 30
0.0
 10
9.965592813306868
 20
13.02970820899012
 30
0.0
 10
9.965316635286694
 20
13.02568846845643
 30
0.0
 10
9.965179910783823
 20
13.02369845844115
 30
0.0
  0
SPLINE
  5
1C2
330
1F
100
AcDbEntity
  8
0
  6
SLD-Solid
 62
     7
370
    25
100
AcDbSpline
210
0.0
220
0.0
230
1.0
 70
     8
 71
     3
 72
    15
 73
    11
 74
     0
 42
0.00000001
 43
0.00000001
 40
0.0
 40
0.0
 40
0.0
 40
0.0
 40
0.1624203072014381
 40
0.3118243397330505
 40
0.448432766792581
 40
0.5733811968860474
 40
0.6890771468735459
 40
0.7975729005012512
 40
0.900293043077579
 40
1.0
 40
1.0
 40
1.0
 40
1.0
 10
10.07418832424536
 20
13.00572470042833
 30
0.0
 10
10.07139996994945
 20
13.00965796404184
 30
0.0
 10
10.06604671854731
 20
13.01720928167208
 30
0.0
 10
10.05736965639126
 20
13.02732067395772
 30
0.0
 10
10.04873177561839
 20
13.0359464440584
 30
0.0
 10
10.0400530515164
 20
13.04305055749082
 30
0.0
 10
10.03125655917773
 20
13.04858985148123
 30
0.0
 10
10.02235756802776
 20
13.05251173281804
 30
0.0
 10
10.01340652893684
 20
13.0550049100021
 30
0.0
 10
10.00739281238882
 20
13.05531537054684
 30
0.0
 10
10.00443071206588
 20
13.05546829017192
 30
0.0
  0
LINE
  5
1C3
330
1F
100
AcDbEntity
  8
0
  6
SLD-Solid
 62
     7
370
    25
100
AcDbLine
 10
10.0741883242
 20
13.0057247004
 30
0.0
 11
10.1392824749
 21
13.0652809905
 31
0.0
  0
LINE
  5
1C4
330
1F
100
AcDbEntity
  8
0
  6
SLD-Solid
 62
     7
370
    25
100
AcDbLine
 10
10.2387696544
 20
13.1300836748
 30
0.0
 11
10.2387696544
 21
12.6450836748
 31
0.0
  0
LINE
  5
1C5
330
1F
100
AcDbEntity
  8
0
  6
SLD-Solid
 62
     7
370
    25
100
AcDbLine
 10
10.2387696544
 20
12.6450836748
 30
0.0
 11
10.3258209364
 21
12.6450836748
 31
0.0
  0
LINE
  5
1C6
330
1F
100
AcDbEntity
  8
0
  6
SLD-Solid
 62
     7
370
    25
100
AcDbLine
 10
10.3258209364
 20
12.6450836748
 30
0.0
 11
10.3258209364
 21
12.8564939312
 31
0.0
  0
LINE
  5
1C7
330
1F
100
AcDbEntity
  8
0
  6
SLD-Solid
 62
     7
370
    25
100
AcDbLine
 10
10.3258209364
 20
12.8564939312
 30
0.0
 11
10.4937055518
 21
12.8564939312
 31
0.0
  0
LINE
  5
1C8
330
1F
100
AcDbEntity
  8
0
  6
SLD-Solid
 62
     7
370
    25
100
AcDbLine
 10
10.4937055518
 20
12.8564939312
 30
0.0
 11
10.4937055518
 21
12.6450836748
 31
0.0
  0
LINE
  5
1C9
330
1F
100
AcDbEntity
  8
0
  6
SLD-Solid
 62
     7
370
    25
100
AcDbLine
 10
10.4937055518
 20
12.6450836748
 30
0.0
 11
10.5807568339
 21
12.6450836748
 31
0.0
  0
LINE
  5
1CA
330
1F
100
AcDbEntity
  8
0
  6
SLD-Solid
 62
     7
370
    25
100
AcDbLine
 10
10.5807568339
 20
12.6450836748
 30
0.0
 11
10.5807568339
 21
13.1300836748
 31
0.0
  0
LINE
  5
1CB
330
1F
100
AcDbEntity
  8
0
  6
SLD-Solid
 62
     7
370
    25
100
AcDbLine
 10
10.5807568339
 20
13.1300836748
 30
0.0
 11
10.4937055518
 21
13.1300836748
 31
0.0
  0
LINE
  5
1CC
330
1F
100
AcDbEntity
  8
0
  6
SLD-Solid
 62
     7
370
    25
100
AcDbLine
 10
10.4937055518
 20
13.1300836748
 30
0.0
 11
10.4937055518
 21
12.9435452132
 31
0.0
  0
LINE
  5
1CD
330
1F
100
AcDbEntity
  8
0
  6
SLD-Solid
 62
     7
370
    25
100
AcDbLine
 10
10.4937055518
 20
12.9435452132
 30
0.0
 11
10.3258209364
 21
12.9435452132
 31
0.0
  0
LINE
  5
1CE
330
1F
100
AcDbEntity
  8
0
  6
SLD-Solid
 62
     7
370
    25
100
AcDbLine
 10
10.3258209364
 20
12.9435452132
 30
0.0
 11
10.3258209364
 21
13.1300836748
 31
0.0
  0
LINE
  5
1CF
330
1F
100
AcDbEntity
  8
0
  6
SLD-Solid
 62
     7
370
    25
100
AcDbLine
 10
10.3258209364
 20
13.1300836748
 30
0.0
 11
10.2387696544
 21
13.1300836748
 31
0.0
  0
SPLINE
  5
1D0
330
1F
100
AcDbEntity
  8
0
  6
SLD-Solid
 62
     7
370
    25
100
AcDbSpline
210
0.0
220
0.0
230
1.0
 70
     8
 71
     3
 72
    31
 73
    27
 74
     0
 42
0.00000001
 43
0.00000001
 40
0.0
 40
0.0
 40
0.0
 40
0.0
 40
0.0431143456619737
 40
0.0856827648242093
 40
0.1275943241639275
 40
0.1690586225605478
 40
0.2104320288213097
 40
0.2518111664630526
 40
0.2934438397982395
 40
0.3353808532218248
 40
0.3774766059607941
 40
0.4186884906768274
 40
0.4598730336711989
 40
0.5008729046253154
 40
0.5418727755794318
 40
0.5832117768673238
 40
0.6247632017340758
 40
0.6669876223820894
 40
0.7093697058942393
 40
0.7511026519448578
 40
0.7925683801202206
 40
0.8335451085502585
 40
0.8748274225565257
 40
0.9160177232110671
 40
0.9578592039763044
 40
0.9999999999999999
 40
0.9999999999999999
 40
0.9999999999999999
 40
0.9999999999999999
 10
11.0595388851428
 20
12.88777798568474
 30
0.0
 10
11.05961285540111
 20
12.89351480894802
 30
0.0
 10
11.0597598592846
 20
12.90491581413454
 30
0.0
 10
11.06153067591302
 20
12.92181152185234
 30
0.0
 10
11.06408014273346
 20
12.93837744803992
 30
0.0
 10
11.0678506831906
 20
12.9545475441088
 30
0.0
 10
11.0724309261354
 20
12.97043588256756
 30
0.0
 10
11.07836527787812
 20
12.98589457082657
 30
0.0
 10
11.08512017613777
 20
13.00108875018912
 30
0.0
 10
11.09301263875468
 20
13.01583895837101
 30
0.0
 10
11.10178829404982
 20
13.03000948113113
 30
0.0
 10
11.11136331529765
 20
13.04353347363986
 30
0.0
 10
11.1217617787589
 20
13.05624741105754
 30
0.0
 10
11.13295018753795
 20
13.06823484414433
 30
0.0
 10
11.14496709840644
 20
13.07941697863229
 30
0.0
 10
11.15765444131463
 20
13.08995211320333
 30
0.0
 10
11.17125827684012
 20
13.09956039722326
 30
0.0
 10
11.18548085970594
 20
13.10847648415151
 30
0.0
 10
11.20024200626073
 20
13.11653914693402
 30
0.0
 10
11.21548162524824
 20
13.12340184436438
 30
0.0
 10
11.23088575041251
 20
13.12939492113611
 30
0.0
 10
11.24666016009068
 20
13.13412492231694
 30
0.0
 10
11.26263580342308
 20
13.13797745879276
 30
0.0
 10
11.2789833477976
 20
13.14052520727367
 30
0.0
 10
11.29555510244431
 20
13.14229597486305
 30
0.0
 10
11.30673000006682
 20
13.14244486288941
 30
0.0
 10
11.3123373627069
 20
13.1425195722232
 30
0.0
  0
SPLINE
  5
1D1
330
1F
100
AcDbEntity
  8
0
  6
SLD-Solid
 62
     7
370
    25
100
AcDbSpline
210
0.0
220
0.0
230
1.0
 70
     8
 71
     3
 72
    23
 73
    19
 74
     0
 42
0.00000001
 43
0.00000001
 40
0.0
 40
0.0
 40
0.0
 40
0.0
 40
0.0667486513092663
 40
0.1311519760901756
 40
0.1937321970570959
 40
0.255325543378599
 40
0.3163881857773855
 40
0.3780268629068869
 40
0.4404056792054014
 40
0.5045574293240812
 40
0.5686582873620151
 40
0.6309861790900103
 40
0.6922881348732991
 40
0.7526154469796397
 40
0.813199538435563
 40
0.8740161248607818
 40
0.9361583555105316
 40
1.0
 40
1.0
 40
1.0
 40
1.0
 10
11.31301745084793
 20
12.6326477773514
 30
0.0
 10
11.30409754767414
 20
12.6328499218637
 30
0.0
 10
11.28657115718042
 20
12.63324710819966
 30
0.0
 10
11.26092120623394
 20
12.63702416892836
 30
0.0
 10
11.23634633688543
 20
12.64271374182356
 30
0.0
 10
11.21305299218766
 20
12.65120512414397
 30
0.0
 10
11.19080394933449
 20
12.66182006605673
 30
0.0
 10
11.16976267857769
 20
12.67489300342954
 30
0.0
 10
11.14993625116423
 20
12.69040233222377
 30
0.0
 10
11.13143839473198
 20
12.70795085277007
 30
0.0
 10
11.11467929200686
 20
12.72715278321913
 30
0.0
 10
11.09988609654155
 20
12.74743791993036
 30
0.0
 10
11.08740770800563
 20
12.76865130229825
 30
0.0
 10
11.07724366983919
 20
12.79080285863596
 30
0.0
 10
11.06923075044654
 20
12.81375492241222
 30
0.0
 10
11.0635785462448
 20
12.83764727831696
 30
0.0
 10
11.06023965434422
 20
12.8624226238065
 30
0.0
 10
11.05977456608978
 20
12.87925053372728
 30
0.0
 10
11.0595388851428
 20
12.88777798568474
 30
0.0
  0
SPLINE
  5
1D2
330
1F
100
AcDbEntity
  8
0
  6
SLD-Solid
 62
     7
370
    25
100
AcDbSpline
210
0.0
220
0.0
230
1.0
 70
     8
 71
     3
 72
    23
 73
    19
 74
     0
 42
0.00000001
 43
0.00000001
 40
0.0
 40
0.0
 40
0.0
 40
0.0
 40
0.0657223151915621
 40
0.1295079307025845
 40
0.1917221026921613
 40
0.2531611245020887
 40
0.3143157037352576
 40
0.3759517397728623
 40
0.438619600823409
 40
0.5029729018927771
 40
0.5671286457242649
 40
0.6295522895796745
 40
0.6904767824348742
 40
0.7510723384108289
 40
0.8116678943867834
 40
0.8729293555873915
 40
0.9355013707158073
 40
1.0
 40
1.0
 40
1.0
 40
1.0
 10
11.56319273129665
 20
12.88612634305653
 30
0.0
 10
11.56296595223328
 20
12.8774364021889
 30
0.0
 10
11.562519076813
 20
12.86031259490344
 30
0.0
 10
11.55906654374005
 20
12.83514758099255
 30
0.0
 10
11.55330063060235
 20
12.81101647803911
 30
0.0
 10
11.54535718021328
 20
12.7878646647489
 30
0.0
 10
11.53494087884946
 20
12.76580428055895
 30
0.0
 10
11.52239045861537
 20
12.74469447298954
 30
0.0
 10
11.50737473777911
 20
12.72473114610585
 30
0.0
 10
11.49044139864955
 20
12.70592501298843
 30
0.0
 10
11.47179926180054
 20
12.68885441182811
 30
0.0
 10
11.45205427948018
 20
12.67381097403577
 30
0.0
 10
11.43129762181342
 20
12.66106373255061
 30
0.0
 10
11.40955966992496
 20
12.65061852622678
 30
0.0
 10
11.38679380781963
 20
12.64251238627233
 30
0.0
 10
11.36305626996045
 20
12.6367929155142
 30
0.0
 10
11.33834852521864
 20
12.63331707764692
 30
0.0
 10
11.32154606059665
 20
12.63287312116989
 30
0.0
 10
11.31301745084793
 20
12.6326477773514
 30
0.0
  0
SPLINE
  5
1D3
330
1F
100
AcDbEntity
  8
0
  6
SLD-Solid
 62
     7
370
    25
100
AcDbSpline
210
0.0
220
0.0
230
1.0
 70
     8
 71
     3
 72
    23
 73
    19
 74
     0
 42
0.00000001
 43
0.00000001
 40
0.0
 40
0.0
 40
0.0
 40
0.0
 40
0.0633955966615904
 40
0.1251572666424213
 40
0.1856494665262528
 40
0.2459766793408154
 40
0.3061083686579567
 40
0.3673505880891748
 40
0.4299020782799139
 40
0.4945399581831937
 40
0.5593725826940478
 40
0.622409685845737
 40
0.6843574258194752
 40
0.7458066007722107
 40
0.807430275015915
 40
0.8699955160697819
 40
0.9339278677192728
 40
1.0
 40
1.0
 40
1.0
 40
1.0
 10
11.3123373627069
 20
13.1425195722232
 30
0.0
 10
11.32076968210449
 20
13.14230124437346
 30
0.0
 10
11.33741699047973
 20
13.14187021574776
 30
0.0
 10
11.36189917370819
 20
13.13827725575119
 30
0.0
 10
11.38549228398855
 20
13.13242304253658
 30
0.0
 10
11.40818565258423
 20
13.12428526273658
 30
0.0
 10
11.42992245790892
 20
13.11364350391978
 30
0.0
 10
11.45077937295278
 20
13.10079946693105
 30
0.0
 10
11.47068168923465
 20
13.08551072826736
 30
0.0
 10
11.48942546377597
 20
13.06813394897853
 30
0.0
 10
11.50674809196135
 20
13.04923746025356
 30
0.0
 10
11.52175815940142
 20
13.02889203060972
 30
0.0
 10
11.53455819425274
 20
13.00762483056735
 30
0.0
 10
11.54516689738357
 20
12.98537887404406
 30
0.0
 10
11.55324739942825
 20
12.96200009718208
 30
0.0
 10
11.55891782194001
 20
12.93760770084286
 30
0.0
 10
11.56256078747045
 20
12.9122086244402
 30
0.0
 10
11.56297978455733
 20
12.8949153153423
 30
0.0
 10
11.56319273129665
 20
12.88612634305653
 30
0.0
  0
ARC
  5
1D4
330
1F
100
AcDbEntity
  8
0
  6
SLD-Solid
 62
     7
370
    25
100
AcDbCircle
 10
11.1461647957
 20
14.5294282927
 30
0.0
 40
0.7554191196927196
100
AcDbArc
 50
118.7108367181
 51
337.6591403413
  0
LINE
  5
1D5
330
1F
100
AcDbEntity
  8
0
  6
SLD-Solid
 62
     7
370
    25
100
AcDbLine
 10
11.6861023876
 20
14.5654549405
 30
0.0
 11
11.8448813098
 21
14.2422815021
 31
0.0
  0
ARC
  5
1D6
330
1F
100
AcDbEntity
  8
0
  6
SLD-Solid
 62
     7
370
    25
100
AcDbCircle
 10
11.1461647957
 20
14.5294282927
 30
0.0
 40
0.541138173126517
100
AcDbArc
 50
127.7936401627
 51
3.8173296033
  0
LINE
  5
1D7
330
1F
100
AcDbEntity
  8
0
  6
SLD-Solid
 62
     7
370
    25
100
AcDbLine
 10
10.7832694663
 20
15.1919726507
 30
0.0
 11
10.8145448562
 21
14.9570481451
 31
0.0
  0
SPLINE
  5
1D8
330
1F
100
AcDbEntity
  8
0
  6
SLD-Solid
 62
     7
370
    25
100
AcDbSpline
210
0.0
220
0.0
230
1.0
 70
     8
 71
     3
 72
    23
 73
    19
 74
     0
 42
0.00000001
 43
0.00000001
 40
0.0
 40
0.0
 40
0.0
 40
0.0
 40
0.0659391240576587
 40
0.129791109379535
 40
0.1921752363053295
 40
0.2536170442157547
 40
0.3147191079962374
 40
0.3762822754113759
 40
0.4389729923739132
 40
0.5031747018386419
 40
0.5673294646239474
 40
0.6296509938060325
 40
0.6906498673030983
 40
0.751237612797787
 40
0.8117541138236058
 40
0.8727877774488532
 40
0.9355396326682299
 40
1.0
 40
1.0
 40
1.0
 40
1.0
 10
11.47614144924536
 20
12.88729220844115
 30
0.0
 10
11.47598801725575
 20
12.8930637380813
 30
0.0
 10
11.475686009784
 20
12.90442411396615
 30
0.0
 10
11.4734206345477
 20
12.92112485254765
 30
0.0
 10
11.46961780810747
 20
12.93712703928461
 30
0.0
 10
11.46435179088485
 20
12.95245680743766
 30
0.0
 10
11.45762736574822
 20
12.96712918586949
 30
0.0
 10
11.44931193189124
 20
12.98109257782484
 30
0.0
 10
11.43943466714195
 20
12.99433348411777
 30
0.0
 10
11.42822289613522
 20
13.00676167303541
 30
0.0
 10
11.41601957248419
 20
13.01818238255706
 30
0.0
 10
11.40291808520155
 20
13.02809348234635
 30
0.0
 10
11.38928502860692
 20
13.0367059129437
 30
0.0
 10
11.37480759386578
 20
13.04345254330951
 30
0.0
 10
11.35978197717403
 20
13.04882756941039
 30
0.0
 10
11.34411649142043
 20
13.05278581575864
 30
0.0
 10
11.32775180261829
 20
13.05499941081192
 30
0.0
 10
11.3166185664591
 20
13.05531060390181
 30
0.0
 10
11.31097718642485
 20
13.05546829017192
 30
0.0
  0
SPLINE
  5
1D9
330
1F
100
AcDbEntity
  8
0
  6
SLD-Solid
 62
     7
370
    25
100
AcDbSpline
210
0.0
220
0.0
230
1.0
 70
     8
 71
     3
 72
    23
 73
    19
 74
     0
 42
0.00000001
 43
0.00000001
 40
0.0
 40
0.0
 40
0.0
 40
0.0
 40
0.0641474448766717
 40
0.1262121152536836
 40
0.1868412890216907
 40
0.2469358694509788
 40
0.3072563614860035
 40
0.3681505022006766
 40
0.4300707669516568
 40
0.4938754417369542
 40
0.5579806818508447
 40
0.6208695259285355
 40
0.6825247313751582
 40
0.7440356981057702
 40
0.8058886825781876
 40
0.8689681377436671
 40
0.9332474288479402
 40
1.0
 40
1.0
 40
1.0
 40
1.0
 10
11.31272598450177
 20
12.71969905940268
 30
0.0
 10
11.3183033534399
 20
12.71985262214339
 30
0.0
 10
11.32927700223579
 20
12.72015476166532
 30
0.0
 10
11.345399655003
 20
12.7224161567107
 30
0.0
 10
11.36084564603846
 20
12.72624325360789
 30
0.0
 10
11.37571086536218
 20
12.73149350487624
 30
0.0
 10
11.38995244832704
 20
12.73831952374738
 30
0.0
 10
11.403500792426
 20
12.74673517727348
 30
0.0
 10
11.41637965160518
 20
12.75663713206498
 30
0.0
 10
11.42854501007267
 20
12.76781833894293
 30
0.0
 10
11.43966472278258
 20
12.78016372862329
 30
0.0
 10
11.4493663019596
 20
12.79341229147492
 30
0.0
 10
11.45776061109812
 20
12.80727212200913
 30
0.0
 10
11.46443256779242
 20
12.8219393851102
 30
0.0
 10
11.46976437529862
 20
12.83727562867917
 30
0.0
 10
11.47337375629846
 20
12.85334877363862
 30
0.0
 10
11.47570204171705
 20
12.87009256038071
 30
0.0
 10
11.47599314848279
 20
12.88148729896895
 30
0.0
 10
11.47614144924536
 20
12.88729220844115
 30
0.0
  0
SPLINE
  5
1DA
330
1F
100
AcDbEntity
  8
0
  6
SLD-Solid
 62
     7
370
    25
100
AcDbSpline
210
0.0
220
0.0
230
1.0
 70
     8
 71
     3
 72
    15
 73
    11
 74
     0
 42
0.00000001
 43
0.00000001
 40
0.0
 40
0.0
 40
0.0
 40
0.0
 40
0.1279910255623737
 40
0.2530983915017069
 40
0.3761840584327911
 40
0.4989363124701262
 40
0.6215258806257303
 40
0.7457068938016915
 40
0.8715753502968709
 40
1.0
 40
1.0
 40
1.0
 40
1.0
 10
11.2062436127069
 20
12.75700675171038
 30
0.0
 10
11.21014596130328
 20
12.75402284610056
 30
0.0
 10
11.21786273791697
 20
12.74812226278294
 30
0.0
 10
11.23018039346883
 20
12.74055945478523
 30
0.0
 10
11.2428651532281
 20
12.73407737389646
 30
0.0
 10
11.25601273961004
 20
12.72883992922058
 30
0.0
 10
11.2695953855888
 20
12.72472024327368
 30
0.0
 10
11.2836112285672
 20
12.72183529494646
 30
0.0
 10
11.29804040928156
 20
12.72002474037705
 30
0.0
 10
11.30779809750342
 20
12.71980834480793
 30
0.0
 10
11.31272598450177
 20
12.71969905940268
 30
0.0
  0
SPLINE
  5
1DB
330
1F
100
AcDbEntity
  8
0
  6
SLD-Solid
 62
     7
370
    25
100
AcDbSpline
210
0.0
220
0.0
230
1.0
 70
     8
 71
     3
 72
    23
 73
    19
 74
     0
 42
0.00000001
 43
0.00000001
 40
0.0
 40
0.0
 40
0.0
 40
0.0
 40
0.0646087354707743
 40
0.1275117897236747
 40
0.1885213083986466
 40
0.24870817908937
 40
0.3085982651789125
 40
0.3688122491095532
 40
0.4298875018150754
 40
0.4928024479242456
 40
0.5557433321027934
 40
0.6174852948395642
 40
0.6789689634380383
 40
0.7401976913545537
 40
0.8023601016976077
 40
0.8662447764427313
 40
0.9317068283956889
 40
1.0
 40
1.0
 40
1.0
 40
1.0
 10
11.31097718642485
 20
13.05546829017192
 30
0.0
 10
11.30530223658515
 20
13.05531601852593
 30
0.0
 10
11.2941021565127
 20
13.05501549523038
 30
0.0
 10
11.27767367876165
 20
13.05272591418678
 30
0.0
 10
11.26190175994262
 20
13.04906919301226
 30
0.0
 10
11.24687383004561
 20
13.04377247707553
 30
0.0
 10
11.23252475671227
 20
13.03703110200003
 30
0.0
 10
11.21882910348115
 20
13.02886862296701
 30
0.0
 10
11.20597652683683
 20
13.01900446389295
 30
0.0
 10
11.19379565009251
 20
13.00796818749279
 30
0.0
 10
11.18279223234655
 20
12.99567123929106
 30
0.0
 10
11.17307036564368
 20
12.98249296797725
 30
0.0
 10
11.16493472909308
 20
12.96845538104582
 30
0.0
 10
11.15812108251619
 20
12.95368888436199
 30
0.0
 10
11.15299191675917
 20
12.93802743257652
 30
0.0
 10
11.14933856577651
 20
12.92159370354083
 30
0.0
 10
11.147029784326
 20
12.90435938111948
 30
0.0
 10
11.14673875955586
 20
12.89261076595961
 30
0.0
 10
11.14659016719408
 20
12.88661212030012
 30
0.0
  0
SPLINE
  5
1DC
330
1F
100
AcDbEntity
  8
0
  6
SLD-Solid
 62
     7
370
    25
100
AcDbSpline
210
0.0
220
0.0
230
1.0
 70
     8
 71
     3
 72
    15
 73
    11
 74
     0
 42
0.00000001
 43
0.00000001
 40
0.0
 40
0.0
 40
0.0
 40
0.0
 40
0.1348068327792183
 40
0.2641990558543169
 40
0.3884618167279413
 40
0.5099420983643721
 40
0.63040961061277
 40
0.7506710345119784
 40
0.8734547255294228
 40
1.0
 40
1.0
 40
1.0
 40
1.0
 10
11.14659016719408
 20
12.88661212030012
 30
0.0
 10
11.14678717797995
 20
12.87996427153156
 30
0.0
 10
11.14717328647716
 20
12.8669355894395
 30
0.0
 10
11.14988999282482
 20
12.84792969903216
 30
0.0
 10
11.15453800695781
 20
12.82998052187511
 30
0.0
 10
11.16124964899578
 20
12.81317584471169
 30
0.0
 10
11.16957384594273
 20
12.79732906418653
 30
0.0
 10
11.179911177418
 20
12.78263440512089
 30
0.0
 10
11.19209422758634
 20
12.76900388276173
 30
0.0
 10
11.2014799507335
 20
12.76104581605786
 30
0.0
 10
11.2062436127069
 20
12.75700675171038
 30
0.0
  0
SPLINE
  5
1DD
330
1F
100
AcDbEntity
  8
0
  6
SLD-Solid
 62
     7
370
    25
100
AcDbSpline
210
0.0
220
0.0
230
1.0
 70
     8
 71
     3
 72
    23
 73
    19
 74
     0
 42
0.00000001
 43
0.00000001
 40
0.0
 40
0.0
 40
0.0
 40
0.0
 40
0.0659391240576586
 40
0.1297911093795351
 40
0.1921752363053296
 40
0.2536170442157547
 40
0.3147191079962374
 40
0.3762822754113758
 40
0.4389729923739132
 40
0.5031747018386419
 40
0.5673294646239474
 40
0.6296509938060325
 40
0.6906498673030979
 40
0.7512376127977867
 40
0.8117541138236056
 40
0.8727877774488529
 40
0.9355396326682295
 40
1.0
 40
1.0
 40
1.0
 40
1.0
 10
12.04197478257869
 20
12.88729220844115
 30
0.0
 10
12.04182135058908
 20
12.8930637380813
 30
0.0
 10
12.04151934311733
 20
12.90442411396615
 30
0.0
 10
12.03925396788103
 20
12.92112485254765
 30
0.0
 10
12.0354511414408
 20
12.93712703928461
 30
0.0
 10
12.03018512421818
 20
12.95245680743766
 30
0.0
 10
12.02346069908155
 20
12.96712918586949
 30
0.0
 10
12.01514526522458
 20
12.98109257782484
 30
0.0
 10
12.00526800047529
 20
12.99433348411777
 30
0.0
 10
11.99405622946855
 20
13.00676167303541
 30
0.0
 10
11.98185290581753
 20
13.01818238255706
 30
0.0
 10
11.96875141853488
 20
13.02809348234635
 30
0.0
 10
11.95511836194025
 20
13.0367059129437
 30
0.0
 10
11.94064092719912
 20
13.04345254330951
 30
0.0
 10
11.92561531050736
 20
13.04882756941039
 30
0.0
 10
11.90994982475376
 20
13.05278581575864
 30
0.0
 10
11.89358513595162
 20
13.05499941081192
 30
0.0
 10
11.88245189979243
 20
13.05531060390181
 30
0.0
 10
11.87681051975818
 20
13.05546829017192
 30
0.0
  0
SPLINE
  5
1DE
330
1F
100
AcDbEntity
  8
0
  6
SLD-Solid
 62
     7
370
    25
100
AcDbSpline
210
0.0
220
0.0
230
1.0
 70
     8
 71
     3
 72
    23
 73
    19
 74
     0
 42
0.00000001
 43
0.00000001
 40
0.0
 40
0.0
 40
0.0
 40
0.0
 40
0.0641474448766717
 40
0.1262121152536831
 40
0.1868412890216904
 40
0.2469358694509788
 40
0.3072563614860029
 40
0.3681505022006761
 40
0.430070766951657
 40
0.4938754417369545
 40
0.5579806818508446
 40
0.6208695259285351
 40
0.6825247313751585
 40
0.7440356981057702
 40
0.8058886825781875
 40
0.868968137743667
 40
0.9332474288479402
 40
1.0
 40
1.0
 40
1.0
 40
1.0
 10
11.8785593178351
 20
12.71969905940268
 30
0.0
 10
11.88413668677323
 20
12.71985262214339
 30
0.0
 10
11.89511033556913
 20
12.72015476166532
 30
0.0
 10
11.91123298833633
 20
12.7224161567107
 30
0.0
 10
11.9266789793718
 20
12.72624325360789
 30
0.0
 10
11.94154419869551
 20
12.73149350487624
 30
0.0
 10
11.95578578166038
 20
12.73831952374738
 30
0.0
 10
11.96933412575934
 20
12.74673517727348
 30
0.0
 10
11.98221298493851
 20
12.75663713206498
 30
0.0
 10
11.994378343406
 20
12.76781833894293
 30
0.0
 10
12.00549805611591
 20
12.78016372862329
 30
0.0
 10
12.01519963529293
 20
12.79341229147492
 30
0.0
 10
12.02359394443145
 20
12.80727212200913
 30
0.0
 10
12.03026590112575
 20
12.8219393851102
 30
0.0
 10
12.03559770863196
 20
12.83727562867917
 30
0.0
 10
12.03920708963179
 20
12.85334877363862
 30
0.0
 10
12.04153537505038
 20
12.87009256038071
 30
0.0
 10
12.04182648181613
 20
12.88148729896895
 30
0.0
 10
12.04197478257869
 20
12.88729220844115
 30
0.0
  0
SPLINE
  5
1DF
330
1F
100
AcDbEntity
  8
0
  6
SLD-Solid
 62
     7
370
    25
100
AcDbSpline
210
0.0
220
0.0
230
1.0
 70
     8
 71
     3
 72
    15
 73
    11
 74
     0
 42
0.00000001
 43
0.00000001
 40
0.0
 40
0.0
 40
0.0
 40
0.0
 40
0.127991025562374
 40
0.2530983915017067
 40
0.3761840584327916
 40
0.4989363124701255
 40
0.6215258806257297
 40
0.7457068938016919
 40
0.8715753502968706
 40
1.0
 40
1.0
 40
1.0
 40
1.0
 10
11.77207694604023
 20
12.75700675171038
 30
0.0
 10
11.77597929463661
 20
12.75402284610056
 30
0.0
 10
11.7836960712503
 20
12.74812226278294
 30
0.0
 10
11.79601372680216
 20
12.74055945478523
 30
0.0
 10
11.80869848656143
 20
12.73407737389646
 30
0.0
 10
11.82184607294337
 20
12.72883992922058
 30
0.0
 10
11.83542871892213
 20
12.72472024327368
 30
0.0
 10
11.84944456190054
 20
12.72183529494646
 30
0.0
 10
11.86387374261489
 20
12.72002474037705
 30
0.0
 10
11.87363143083675
 20
12.71980834480793
 30
0.0
 10
11.8785593178351
 20
12.71969905940268
 30
0.0
  0
SPLINE
  5
1E0
330
1F
100
AcDbEntity
  8
0
  6
SLD-Solid
 62
     7
370
    25
100
AcDbSpline
210
0.0
220
0.0
230
1.0
 70
     8
 71
     3
 72
    15
 73
    11
 74
     0
 42
0.00000001
 43
0.00000001
 40
0.0
 40
0.0
 40
0.0
 40
0.0
 40
0.1348068327792183
 40
0.2641990558543171
 40
0.3884618167279417
 40
0.5099420983643725
 40
0.6304096106127703
 40
0.7506710345119788
 40
0.873454725529423
 40
0.9999999999999999
 40
0.9999999999999999
 40
0.9999999999999999
 40
0.9999999999999999
 10
11.71242350052741
 20
12.88661212030012
 30
0.0
 10
11.71262051131328
 20
12.87996427153156
 30
0.0
 10
11.71300661981049
 20
12.8669355894395
 30
0.0
 10
11.71572332615816
 20
12.84792969903216
 30
0.0
 10
11.72037134029114
 20
12.82998052187511
 30
0.0
 10
11.72708298232911
 20
12.81317584471169
 30
0.0
 10
11.73540717927606
 20
12.79732906418652
 30
0.0
 10
11.74574451075133
 20
12.7826344051209
 30
0.0
 10
11.75792756091968
 20
12.76900388276173
 30
0.0
 10
11.76731328406684
 20
12.76104581605786
 30
0.0
 10
11.77207694604023
 20
12.75700675171038
 30
0.0
  0
SPLINE
  5
1E1
330
1F
100
AcDbEntity
  8
0
  6
SLD-Solid
 62
     7
370
    25
100
AcDbSpline
210
0.0
220
0.0
230
1.0
 70
     8
 71
     3
 72
    23
 73
    19
 74
     0
 42
0.00000001
 43
0.00000001
 40
0.0
 40
0.0
 40
0.0
 40
0.0
 40
0.064608735470774
 40
0.1275117897236747
 40
0.1885213083986466
 40
0.2487081790893696
 40
0.308598265178912
 40
0.3688122491095532
 40
0.4298875018150754
 40
0.4928024479242456
 40
0.555743332102793
 40
0.6174852948395643
 40
0.678968963438038
 40
0.7401976913545537
 40
0.8023601016976079
 40
0.8662447764427315
 40
0.9317068283956889
 40
1.0
 40
1.0
 40
1.0
 40
1.0
 10
11.87681051975818
 20
13.05546829017192
 30
0.0
 10
11.87113556991848
 20
13.05531601852593
 30
0.0
 10
11.85993548984604
 20
13.05501549523038
 30
0.0
 10
11.84350701209499
 20
13.05272591418678
 30
0.0
 10
11.82773509327596
 20
13.04906919301226
 30
0.0
 10
11.81270716337895
 20
13.04377247707553
 30
0.0
 10
11.79835809004561
 20
13.03703110200003
 30
0.0
 10
11.78466243681449
 20
13.02886862296701
 30
0.0
 10
11.77180986017016
 20
13.01900446389295
 30
0.0
 10
11.75962898342584
 20
13.00796818749279
 30
0.0
 10
11.74862556567989
 20
12.99567123929106
 30
0.0
 10
11.73890369897702
 20
12.98249296797725
 30
0.0
 10
11.73076806242641
 20
12.96845538104582
 30
0.0
 10
11.72395441584952
 20
12.95368888436199
 30
0.0
 10
11.7188252500925
 20
12.93802743257652
 30
0.0
 10
11.71517189910984
 20
12.92159370354083
 30
0.0
 10
11.71286311765934
 20
12.90435938111948
 30
0.0
 10
11.71257209288919
 20
12.89261076595961
 30
0.0
 10
11.71242350052741
 20
12.88661212030012
 30
0.0
  0
LINE
  5
1E2
330
1F
100
AcDbEntity
  8
0
  6
SLD-Solid
 62
     7
370
    25
100
AcDbLine
 10
10.7797311928
 20
12.9435452132
 30
0.0
 11
10.7797311928
 21
13.0430323927
 31
0.0
  0
LINE
  5
1E3
330
1F
100
AcDbEntity
  8
0
  6
SLD-Solid
 62
     7
370
    25
100
AcDbLine
 10
10.7797311928
 20
13.0430323927
 30
0.0
 11
10.8093636047
 21
13.0430323927
 31
0.0
  0
SPLINE
  5
1E4
330
1F
100
AcDbEntity
  8
0
  6
SLD-Solid
 62
     7
370
    25
100
AcDbSpline
210
0.0
220
0.0
230
1.0
 70
     8
 71
     3
 72
    23
 73
    19
 74
     0
 42
0.00000001
 43
0.00000001
 40
0.0
 40
0.0
 40
0.0
 40
0.0
 40
0.06376895995774
 40
0.1252623047603748
 40
0.1854135826663909
 40
0.2468067624960846
 40
0.3094223888496969
 40
0.3725326822170087
 40
0.4377332507368581
 40
0.505749516742634
 40
0.5440132631112705
 40
0.5883695992066303
 40
0.6403890193945119
 40
0.6978974005877081
 40
0.7632716192950986
 40
0.8349786038393129
 40
0.9138736558434376
 40
0.9999999999999999
 40
0.9999999999999999
 40
0.9999999999999999
 40
0.9999999999999999
 10
10.90409016719408
 20
12.99348311388986
 30
0.0
 10
10.90399142784827
 20
12.99605349071875
 30
0.0
 10
10.90379747270089
 20
13.00110251968053
 30
0.0
 10
10.90187283508246
 20
13.00837135097814
 30
0.0
 10
10.89880922772774
 20
13.01509915166668
 30
0.0
 10
10.89460986114776
 20
13.021255523876
 30
0.0
 10
10.88932130489311
 20
13.02665262474069
 30
0.0
 10
10.88325226933712
 20
13.0314102121348
 30
0.0
 10
10.87627177004407
 20
13.03517215626302
 30
0.0
 10
10.8698083529891
 20
13.03765349455498
 30
0.0
 10
10.86392815423862
 20
13.03913810485268
 30
0.0
 10
10.85862146038355
 20
13.04024442331695
 30
0.0
 10
10.85247627694906
 20
13.04102850296697
 30
0.0
 10
10.84548796465757
 20
13.04186015900377
 30
0.0
 10
10.83767433695495
 20
13.04239944584637
 30
0.0
 10
10.82899280489681
 20
13.04279301774857
 30
0.0
 10
10.81946830177858
 20
13.04295404734868
 30
0.0
 10
10.81282881850647
 20
13.04300552567448
 30
0.0
 10
10.80936360469408
 20
13.04303239273602
 30
0.0
  0
SPLINE
  5
1E5
330
1F
100
AcDbEntity
  8
0
  6
SLD-Solid
 62
     7
370
    25
100
AcDbSpline
210
0.0
220
0.0
230
1.0
 70
     8
 71
     3
 72
    23
 73
    19
 74
     0
 42
0.00000001
 43
0.00000001
 40
0.0
 40
0.0
 40
0.0
 40
0.0
 40
0.1055399964402573
 40
0.2020864154635874
 40
0.2906848989424215
 40
0.3705526096211914
 40
0.4426702615663768
 40
0.5076749275738738
 40
0.5655732034810459
 40
0.6164546657486231
 40
0.6633313570051054
 40
0.7088620244966144
 40
0.7534118003496297
 40
0.7985150107871098
 40
0.8450643214401193
 40
0.8938731190084044
 40
0.944707806003652
 40
1.0
 40
1.0
 40
1.0
 40
1.0
 10
10.81363844443767
 20
12.94354521324884
 30
0.0
 10
10.81778388780042
 20
12.94359190201816
 30
0.0
 10
10.82572152109529
 20
12.94368130097924
 30
0.0
 10
10.83713688031162
 20
12.94409597041732
 30
0.0
 10
10.84750474889827
 20
12.94509511885992
 30
0.0
 10
10.85686964998181
 20
12.94635750557543
 30
0.0
 10
10.86527870689357
 20
12.94781511334436
 30
0.0
 10
10.87265691381254
 20
12.94990395377482
 30
0.0
 10
10.87911795764601
 20
12.95214219917364
 30
0.0
 10
10.88458527478264
 20
12.95492375759924
 30
0.0
 10
10.88925642491894
 20
12.95808699282413
 30
0.0
 10
10.89328966408639
 20
12.96168050667328
 30
0.0
 10
10.89662573117392
 20
12.96583954138276
 30
0.0
 10
10.89937148454975
 20
12.97045107233006
 30
0.0
 10
10.90150738215437
 20
12.97555588737104
 30
0.0
 10
10.90306642377634
 20
12.98109794720334
 30
0.0
 10
10.90393769749341
 20
12.98714038301728
 30
0.0
 10
10.90403794050235
 20
12.9913104864857
 30
0.0
 10
10.90409016719408
 20
12.99348311388986
 30
0.0
  0
LINE
  5
1E6
330
1F
100
AcDbEntity
  8
0
  6
SLD-Solid
 62
     7
370
    25
100
AcDbLine
 10
10.8136384444
 20
12.9435452132
 30
0.0
 11
10.7797311928
 21
12.9435452132
 31
0.0
  0
LINE
  5
1E7
330
1F
100
AcDbEntity
  8
0
  6
SLD-Solid
 62
     7
370
    25
100
AcDbLine
 10
13.4556414492
 20
16.9240836748
 30
0.0
 11
13.4556414492
 21
11.5100836748
 31
0.0
  0
LINE
  5
1E8
330
1F
100
AcDbEntity
  8
0
  6
SLD-Solid
 62
     7
370
    25
100
AcDbLine
 10
8.0416414492
 20
16.9240836748
 30
0.0
 11
13.4556414492
 21
16.9240836748
 31
0.0
  0
LINE
  5
1E9
330
1F
100
AcDbEntity
  8
0
  6
SLD-Solid
 62
     7
370
    25
100
AcDbLine
 10
8.0416414492
 20
11.5100836748
 30
0.0
 11
8.0416414492
 21
16.9240836748
 31
0.0
  0
LINE
  5
1EA
330
1F
100
AcDbEntity
  8
0
  6
SLD-Solid
 62
     7
370
    25
100
AcDbLine
 10
13.4556414492
 20
11.5100836748
 30
0.0
 11
8.0416414492
 21
11.5100836748
 31
0.0
  0
LINE
  5
1EB
330
1F
100
AcDbEntity
  8
0
  6
SLD-Solid
 62
     7
370
    25
100
AcDbLine
 10
7.7486414492
 20
17.2170836748
 30
0.0
 11
7.7486414492
 21
11.2170836748
 31
0.0
  0
LINE
  5
1EC
330
1F
100
AcDbEntity
  8
0
  6
SLD-Solid
 62
     7
370
    25
100
AcDbLine
 10
13.7486414492
 20
11.2170836748
 30
0.0
 11
13.7486414492
 21
17.2170836748
 31
0.0
  0
LINE
  5
1ED
330
1F
100
AcDbEntity
  8
0
  6
SLD-Solid
 62
     7
370
    25
100
AcDbLine
 10
13.7486414492
 20
17.2170836748
 30
0.0
 11
7.7486414492
 21
17.2170836748
 31
0.0
  0
LINE
  5
1EE
330
1F
100
AcDbEntity
  8
0
  6
SLD-Solid
 62
     7
370
    25
100
AcDbLine
 10
7.7486414492
 20
11.2170836748
 30
0.0
 11
13.7486414492
 21
11.2170836748
 31
0.0
  0
LINE
  5
1EF
330
1F
100
AcDbEntity
  8
0
  6
SLD-Solid
 62
     7
370
    25
100
AcDbLine
 10
9.510103789
 20
12.8316221363
 30
0.0
 11
9.5827760646
 21
12.999992529
 31
0.0
  0
LINE
  5
1F0
330
1F
100
AcDbEntity
  8
0
  6
SLD-Solid
 62
     7
370
    25
100
AcDbLine
 10
9.5827760646
 20
12.999992529
 30
0.0
 11
9.6554483403
 21
12.8316221363
 31
0.0
  0
LINE
  5
1F1
330
1F
100
AcDbEntity
  8
0
  6
SLD-Solid
 62
     7
370
    25
100
AcDbLine
 10
9.6554483403
 20
12.8316221363
 30
0.0
 11
9.510103789
 21
12.8316221363
 31
0.0
  0
DIMENSION
  5
1F2
330
1F
100
AcDbEntity
  8
DIMS
100
AcDbDimension
  2
_D
 10
7.7486414492
 20
17.8470049346
 30
0.0
 11
10.7486414492
 21
17.8470049346
 31
0.0
 70
   160
  1
<>
 71
     2
 42
-1.0
  3
SLDDIMSTYLE0
100
AcDbAlignedDimension
 13
13.7486414492
 23
17.2170836748
 33
0.0
 14
7.7486414492
 24
17.2170836748
 34
0.0
 50
0.0
100
AcDbRotatedDimension
  0
DIMENSION
  5
204
330
1F
100
AcDbEntity
  8
DIMS
100
AcDbDimension
  2
_D_1
 10
7.1187201894
 20
17.2170836748
 30
0.0
 11
7.1187201894
 21
14.4320992408
 31
0.0
 70
   160
  1
<>
 71
     2
 42
-1.0
  3
SLDDIMSTYLE0
100
AcDbAlignedDimension
 13
7.7486414492
 23
11.2170836748
 33
0.0
 14
7.7486414492
 24
17.2170836748
 34
0.0
 50
90.0
100
AcDbRotatedDimension
  0
MTEXT
  5
20F
330
1F
100
AcDbEntity
  8
NOTES
100
AcDbMText
 10
12.5649335612
 20
10.5661372536
 30
0.0
 40
0.5
 41
0.0
 71
     1
 72
     1
  1
braille
  7
SLDTEXTSTYLE0
 73
     1
 44
1.0
  0
LEADER
  5
216
330
1F
100
AcDbEntity
  8
NOTES
100
AcDbLeader
  3
SLDDIMSTYLE1
 76
     3
 10
10.5639378056
 20
12.0796929255
 30
0.0
 10
12.0407559876
 20
10.3239716073
 30
0.0
 10
12.5407559876
 20
10.3239716073
 30
0.0
  0
LINE
  5
217
330
1F
100
AcDbEntity
  8
0
  6
SLD-Solid
 62
     7
370
    25
100
AcDbLine
 10
20.3646096308
 20
11.2170836748
 30
0.0
 11
20.4391096308
 21
11.2170836748
 31
0.0
  0
LINE
  5
218
330
1F
100
AcDbEntity
  8
0
  6
SLD-Solid
 62
     7
370
    25
100
AcDbLine
 10
20.3646096308
 20
11.2170836748
 30
0.0
 11
20.3646096308
 21
17.2170836748
 31
0.0
  0
LINE
  5
219
330
1F
100
AcDbEntity
  8
0
  6
SLD-Solid
 62
     7
370
    25
100
AcDbLine
 10
20.3646096308
 20
17.2170836748
 30
0.0
 11
20.4391096308
 21
17.2170836748
 31
0.0
  0
LINE
  5
21A
330
1F
100
AcDbEntity
  8
0
  6
SLD-Solid
 62
     7
370
    25
100
AcDbLine
 10
20.4391096308
 20
17.2170836748
 30
0.0
 11
20.4391096308
 21
11.2170836748
 31
0.0
  0
LINE
  5
21B
330
1F
100
AcDbEntity
  8
0
  6
SLD-Solid
 62
     7
370
    25
100
AcDbLine
 10
20.4551096308
 20
17.1170836748
 30
0.0
 11
20.4551096308
 21
15.9170836748
 31
0.0
  0
LINE
  5
21C
330
1F
100
AcDbEntity
  8
0
  6
SLD-Solid
 62
     7
370
    25
100
AcDbLine
 10
20.4551096308
 20
17.1170836748
 30
0.0
 11
20.4391096308
 21
17.1170836748
 31
0.0
  0
LINE
  5
21D
330
1F
100
AcDbEntity
  8
0
  6
SLD-Solid
 62
     7
370
    25
100
AcDbLine
 10
20.4551096308
 20
15.9170836748
 30
0.0
 11
20.4391096308
 21
15.9170836748
 31
0.0
  0
LINE
  5
21E
330
1F
100
AcDbEntity
  8
0
  6
SLD-Solid
 62
     7
370
    25
100
AcDbLine
 10
20.4551096308
 20
11.3170836748
 30
0.0
 11
20.4551096308
 21
12.5170836748
 31
0.0
  0
LINE
  5
21F
330
1F
100
AcDbEntity
  8
0
  6
SLD-Solid
 62
     7
370
    25
100
AcDbLine
 10
20.4551096308
 20
11.3170836748
 30
0.0
 11
20.4391096308
 21
11.3170836748
 31
0.0
  0
LINE
  5
220
330
1F
100
AcDbEntity
  8
0
  6
SLD-Solid
 62
     7
370
    25
100
AcDbLine
 10
20.4551096308
 20
12.5170836748
 30
0.0
 11
20.4391096308
 21
12.5170836748
 31
0.0
  0
DIMENSION
  5
221
330
1F
100
AcDbEntity
  8
DIMS
100
AcDbDimension
  2
_D_2
 10
20.4391096308
 20
17.8470049346
 30
0.0
 11
19.0260269537
 21
17.8470049346
 31
0.0
 70
   160
  1
<>
 71
     2
 42
-1.0
  3
SLDDIMSTYLE2
100
AcDbAlignedDimension
 13
20.3646096308
 23
17.2170836748
 33
0.0
 14
20.4391096308
 24
17.2170836748
 34
0.0
100
AcDbRotatedDimension
  0
LINE
  5
230
330
1F
100
AcDbEntity
  8
0
  6
SLD-Solid
 62
     7
370
    25
100
AcDbLine
 10
42.221791598
 20
14.1483871039
 30
0.0
 11
42.2224987048
 21
14.148795308
 31
0.0
  0
LINE
  5
231
330
1F
100
AcDbEntity
  8
0
  6
SLD-Solid
 62
     7
370
    25
100
AcDbLine
 10
41.6814045086
 20
15.0860995064
 30
0.0
 11
41.6806974018
 21
15.0856913024
 31
0.0
  0
LINE
  5
232
330
1F
100
AcDbEntity
  8
0
  6
SLD-Solid
 62
     7
370
    25
100
AcDbLine
 10
41.1383000746
 20
16.026428062
 30
0.0
 11
41.1375929678
 21
16.0260198579
 31
0.0
  0
LINE
  5
233
330
1F
100
AcDbEntity
  8
0
  6
SLD-Solid
 62
     7
370
    25
100
AcDbLine
 10
40.7092704007
 20
16.2741016209
 30
0.0
 11
40.7085632939
 21
16.2736934168
 31
0.0
  0
LINE
  5
234
330
1F
100
AcDbEntity
  8
0
  6
SLD-Solid
 62
     7
370
    25
100
AcDbLine
 10
40.9204484978
 20
15.3756377692
 30
0.0
 11
40.919741391
 21
15.3752295652
 31
0.0
  0
LINE
  5
235
330
1F
100
AcDbEntity
  8
0
  6
SLD-Solid
 62
     7
370
    25
100
AcDbLine
 10
43.5842911026
 20
15.629635316
 30
0.0
 11
43.5842911026
 21
11.2088833605
 31
0.0
  0
LINE
  5
236
330
1F
100
AcDbEntity
  8
0
  6
SLD-Solid
 62
     7
370
    25
100
AcDbLine
 10
39.7560149893
 20
17.8396520747
 30
0.0
 11
43.5842911026
 21
15.629635316
 31
0.0
  0
LINE
  5
237
330
1F
100
AcDbEntity
  8
0
  6
SLD-Solid
 62
     7
370
    25
100
AcDbLine
 10
39.7560149893
 20
13.4189001192
 30
0.0
 11
39.7560149893
 21
17.8396520747
 31
0.0
  0
LINE
  5
238
330
1F
100
AcDbEntity
  8
0
  6
SLD-Solid
 62
     7
370
    25
100
AcDbLine
 10
43.5842911026
 20
11.2088833605
 30
0.0
 11
39.7560149893
 21
13.4189001192
 31
0.0
  0
LINE
  5
239
330
1F
100
AcDbEntity
  8
0
  6
SLD-Solid
 62
     7
370
    25
100
AcDbLine
 10
39.5488327024
 20
18.198502321
 30
0.0
 11
39.5488327024
 21
13.2992574497
 31
0.0
  0
LINE
  5
23A
330
1F
100
AcDbEntity
  8
0
  6
SLD-Solid
 62
     7
370
    25
100
AcDbLine
 10
43.7914733895
 20
15.7492779855
 30
0.0
 11
39.5488327024
 21
18.198502321
 31
0.0
  0
LINE
  5
23B
330
1F
100
AcDbEntity
  8
0
  6
SLD-Solid
 62
     7
370
    25
100
AcDbLine
 10
43.7914733895
 20
10.8500331142
 30
0.0
 11
43.7914733895
 21
15.7492779855
 31
0.0
  0
LINE
  5
23C
330
1F
100
AcDbEntity
  8
0
  6
SLD-Solid
 62
     7
370
    25
100
AcDbLine
 10
39.5488327024
 20
13.2992574497
 30
0.0
 11
43.7914733895
 21
10.8500331142
 31
0.0
  0
LINE
  5
23D
330
1F
100
AcDbEntity
  8
0
  6
SLD-Solid
 62
     7
370
    25
100
AcDbLine
 10
43.8441528447
 20
15.7796891877
 30
0.0
 11
43.8441528447
 21
10.8804443164
 31
0.0
  0
LINE
  5
23E
330
1F
100
AcDbEntity
  8
0
  6
SLD-Solid
 62
     7
370
    25
100
AcDbLine
 10
43.7914733895
 20
10.8500331142
 30
0.0
 11
43.8441528447
 21
10.8804443164
 31
0.0
  0
LINE
  5
23F
330
1F
100
AcDbEntity
  8
0
  6
SLD-Solid
 62
     7
370
    25
100
AcDbLine
 10
43.7914733895
 20
15.7492779855
 30
0.0
 11
43.8441528447
 21
15.7796891877
 31
0.0
  0
LINE
  5
240
330
1F
100
AcDbEntity
  8
0
  6
SLD-Solid
 62
     7
370
    25
100
AcDbLine
 10
39.5488327024
 20
18.198502321
 30
0.0
 11
39.6015121576
 21
18.2289135232
 31
0.0
  0
LINE
  5
241
330
1F
100
AcDbEntity
  8
0
  6
SLD-Solid
 62
     7
370
    25
100
AcDbLine
 10
43.8441528447
 20
15.7796891877
 30
0.0
 11
39.6015121576
 21
18.2289135232
 31
0.0
  0
LINE
  5
242
330
1F
100
AcDbEntity
  8
0
  6
SLD-Solid
 62
     7
370
    25
100
AcDbLine
 10
39.7563685426
 20
17.8394479727
 30
0.0
 11
39.7563685426
 21
13.4191042212
 31
0.0
  0
LINE
  5
243
330
1F
100
AcDbEntity
  8
0
  6
SLD-Solid
 62
     7
370
    25
100
AcDbLine
 10
39.7563685426
 20
13.4191042212
 30
0.0
 11
43.5842911026
 21
11.2092915646
 31
0.0
  0
LINE
  5
244
330
1F
100
AcDbEntity
  8
0
  6
SLD-Solid
 62
     7
370
    25
100
AcDbLine
 10
43.4962563083
 20
11.362180571
 30
0.0
 11
43.4962563083
 21
15.5787973236
 31
0.0
  0
LINE
  5
245
330
1F
100
AcDbEntity
  8
0
  6
SLD-Solid
 62
     7
370
    25
100
AcDbLine
 10
43.4962563083
 20
15.5787973236
 30
0.0
 11
39.8447568903
 21
17.6867630683
 31
0.0
  0
LINE
  5
246
330
1F
100
AcDbEntity
  8
0
  6
SLD-Solid
 62
     7
370
    25
100
AcDbLine
 10
43.4962563083
 20
15.5787973236
 30
0.0
 11
43.495902755
 21
15.5785932215
 31
0.0
  0
LINE
  5
247
330
1F
100
AcDbEntity
  8
0
  6
SLD-Solid
 62
     7
370
    25
100
AcDbLine
 10
39.8444033369
 20
17.6865589663
 30
0.0
 11
43.495902755
 21
15.5785932215
 31
0.0
  0
LINE
  5
248
330
1F
100
AcDbEntity
  8
0
  6
SLD-Solid
 62
     7
370
    25
100
AcDbLine
 10
39.8447568903
 20
17.6867630683
 30
0.0
 11
39.8444033369
 21
17.6865589663
 31
0.0
  0
ARC
  5
249
330
1F
100
AcDbEntity
  8
0
  6
SLD-Solid
 62
     7
370
    25
100
AcDbCircle
 10
40.9577286034
 20
16.0441859767
 30
0.0
 40
0.3058391288384733
100
AcDbArc
 50
11.7100453387
 51
57.0663644455
  0
LINE
  5
24A
330
1F
100
AcDbEntity
  8
0
  6
SLD-Solid
 62
     7
370
    25
100
AcDbLine
 10
40.7437032315
 20
16.520419587
 30
0.0
 11
41.1240033234
 21
16.3008770171
 31
0.0
  0
LWPOLYLINE
  5
24B
330
1F
100
AcDbEntity
  8
0
  6
SLD-Solid
 62
     7
370
    25
100
AcDbPolyline
 90
        9
 70
   128
 43
0.0
 10
40.7437032315
 20
16.520419587
 10
40.7212673533
 20
16.531251219
 10
40.6994285611
 20
16.5375539392
 10
40.6787680503
 20
16.5391600134
 10
40.659835659
 20
16.5360266991
 10
40.6431352349
 20
16.5282373833
 10
40.6291112262
 20
16.5159993629
 10
40.6181368537
 20
16.4996383283
 10
40.6105041784
 20
16.4795896956
  0
LINE
  5
24C
330
1F
100
AcDbEntity
  8
0
  6
SLD-Solid
 62
     7
370
    25
100
AcDbLine
 10
40.6105041784
 20
16.4795896956
 30
0.0
 11
40.4694857315
 21
15.9592006849
 31
0.0
  0
LWPOLYLINE
  5
24D
330
1F
100
AcDbEntity
  8
0
  6
SLD-Solid
 62
     7
370
    25
100
AcDbPolyline
 90
       13
 70
   128
 43
0.0
 10
40.4694857315
 20
15.9592006849
 10
40.4672827364
 20
15.9415108119
 10
40.4694047105
 20
15.9213118699
 10
40.4757070449
 20
15.8999803835
 10
40.4857602457
 20
15.8789700581
 10
40.4988792041
 20
15.8597127127
 10
40.5141698846
 20
15.8435207037
 10
40.5305902526
 20
15.8314974896
 10
40.5470212873
 20
15.8244624326
 10
40.5623432407
 20
15.8228949602
 10
40.5755119471
 20
15.8269018932
 10
40.5856299808
 20
15.8362101655
 10
40.5920078146
 20
15.8501854339
  0
LINE
  5
24E
330
1F
100
AcDbEntity
  8
0
  6
SLD-Solid
 62
     7
370
    25
100
AcDbLine
 10
40.5920078146
 20
15.8501854339
 30
0.0
 11
40.7040988436
 21
16.2638259251
 31
0.0
  0
LWPOLYLINE
  5
24F
330
1F
100
AcDbEntity
  8
0
  6
SLD-Solid
 62
     7
370
    25
100
AcDbPolyline
 90
        9
 70
   128
 43
0.0
 10
40.7341087288
 20
16.2421679326
 10
40.7343453156
 20
16.2494287262
 10
40.7319266584
 20
16.2576802801
 10
40.7272807027
 20
16.2654626042
 10
40.7212294815
 20
16.2713987317
 10
40.7148436687
 20
16.2744383529
 10
40.709253139
 20
16.2740436519
 10
40.7054470539
 20
16.2702844652
 10
40.7040988436
 20
16.2638259251
  0
LINE
  5
250
330
1F
100
AcDbEntity
  8
0
  6
SLD-Solid
 62
     7
370
    25
100
AcDbLine
 10
40.5722100876
 20
15.5998234193
 30
0.0
 11
40.7341087288
 21
16.2421679326
 31
0.0
  0
LINE
  5
251
330
1F
100
AcDbEntity
  8
0
  6
SLD-Solid
 62
     7
370
    25
100
AcDbLine
 10
40.7403355928
 20
15.502766631
 30
0.0
 11
40.5722100876
 21
15.5998234193
 31
0.0
  0
LINE
  5
252
330
1F
100
AcDbEntity
  8
0
  6
SLD-Solid
 62
     7
370
    25
100
AcDbLine
 10
40.7345780374
 20
14.8061092387
 30
0.0
 11
40.7403355928
 21
15.502766631
 31
0.0
  0
LWPOLYLINE
  5
253
330
1F
100
AcDbEntity
  8
0
  6
SLD-Solid
 62
     7
370
    25
100
AcDbPolyline
 90
       15
 70
   128
 43
0.0
 10
40.7345780374
 20
14.8061092387
 10
40.7368259556
 20
14.7817730656
 10
40.7434569903
 20
14.7560618187
 10
40.7541386336
 20
14.7302647672
 10
40.7683352634
 20
14.7056754831
 10
40.7853350014
 20
14.6835269758
 10
40.8042854098
 20
14.6649298639
 10
40.8242362358
 20
14.6508166841
 10
40.8441870619
 20
14.6418951304
 10
40.8631374702
 20
14.6386125666
 10
40.8801372082
 20
14.6411335942
 10
40.894333838
 20
14.6493317984
 10
40.9050154814
 20
14.662796087
 10
40.911646516
 20
14.6808513042
 10
40.9138944343
 20
14.7025920862
  0
LINE
  5
254
330
1F
100
AcDbEntity
  8
0
  6
SLD-Solid
 62
     7
370
    25
100
AcDbLine
 10
40.9138944343
 20
14.7025920862
 30
0.0
 11
40.9138944343
 21
15.3623064071
 31
0.0
  0
LWPOLYLINE
  5
255
330
1F
100
AcDbEntity
  8
0
  6
SLD-Solid
 62
     7
370
    25
100
AcDbPolyline
 90
        9
 70
   128
 43
0.0
 10
40.9138944343
 20
15.3623064071
 10
40.9154137107
 20
15.370249334
 10
40.9197402441
 20
15.375228903
 10
40.9262153588
 20
15.3764870198
 10
40.9338532774
 20
15.3738321476
 10
40.941491196
 20
15.3676684667
 10
40.9479663108
 20
15.3589343415
 10
40.9522928441
 20
15.3489594635
 10
40.9538121206
 20
15.3392624173
  0
LINE
  5
256
330
1F
100
AcDbEntity
  8
0
  6
SLD-Solid
 62
     7
370
    25
100
AcDbLine
 10
40.9538121206
 20
14.6795480964
 30
0.0
 11
40.9538121206
 21
15.3392624173
 31
0.0
  0
LWPOLYLINE
  5
257
330
1F
100
AcDbEntity
  8
0
  6
SLD-Solid
 62
     7
370
    25
100
AcDbPolyline
 90
       15
 70
   128
 43
0.0
 10
41.1331285175
 20
14.5760309439
 10
41.1308805993
 20
14.5542901619
 10
41.1242495646
 20
14.5362349446
 10
41.1135679213
 20
14.5227706561
 10
41.0993712914
 20
14.5145724519
 10
41.0823715534
 20
14.5120514243
 10
41.0634211451
 20
14.5153339881
 10
41.043470319
 20
14.5242555418
 10
41.023519493
 20
14.5383687215
 10
41.0045690847
 20
14.5569658335
 10
40.9875693467
 20
14.5791143408
 10
40.9733727168
 20
14.6037036249
 10
40.9626910735
 20
14.6295006763
 10
40.9560600388
 20
14.6552119233
 10
40.9538121206
 20
14.6795480964
  0
LINE
  5
258
330
1F
100
AcDbEntity
  8
0
  6
SLD-Solid
 62
     7
370
    25
100
AcDbLine
 10
41.1331285175
 20
14.5760309439
 30
0.0
 11
41.1273709621
 21
15.2793358682
 31
0.0
  0
LINE
  5
259
330
1F
100
AcDbEntity
  8
0
  6
SLD-Solid
 62
     7
370
    25
100
AcDbLine
 10
41.1273709621
 20
15.2793358682
 30
0.0
 11
41.2954964673
 21
15.18227908
 31
0.0
  0
LINE
  5
25A
330
1F
100
AcDbEntity
  8
0
  6
SLD-Solid
 62
     7
370
    25
100
AcDbLine
 10
41.2954964673
 20
15.18227908
 30
0.0
 11
41.133597826
 21
16.0115477857
 31
0.0
  0
LWPOLYLINE
  5
25B
330
1F
100
AcDbEntity
  8
0
  6
SLD-Solid
 62
     7
370
    25
100
AcDbPolyline
 90
        9
 70
   128
 43
0.0
 10
41.133597826
 20
16.0115477857
 10
41.1333612393
 20
16.0190817365
 10
41.1357798965
 20
16.0245407682
 10
41.1404258521
 20
16.0269589861
 10
41.1464770733
 20
16.0259085224
 10
41.1528628862
 20
16.021575241
 10
41.1584534158
 20
16.0147258519
 10
41.162259501
 20
16.0065722528
 10
41.1636077113
 20
15.9985571022
  0
LINE
  5
25C
330
1F
100
AcDbEntity
  8
0
  6
SLD-Solid
 62
     7
370
    25
100
AcDbLine
 10
41.2756987403
 20
15.4554990636
 30
0.0
 11
41.1636077113
 21
15.9985571022
 31
0.0
  0
LWPOLYLINE
  5
25D
330
1F
100
AcDbEntity
  8
0
  6
SLD-Solid
 62
     7
370
    25
100
AcDbPolyline
 90
       13
 70
   128
 43
0.0
 10
41.3982208234
 20
15.4230533285
 10
41.4004238185
 20
15.4028199315
 10
41.3983018443
 20
15.3850709688
 10
41.39199951
 20
15.3710160027
 10
41.3819463091
 20
15.3616128559
 10
41.3688273508
 20
15.3575023375
 10
41.3535366703
 20
15.3589645724
 10
41.3371163022
 20
15.3658999117
 10
41.3206852676
 20
15.3778357235
 10
41.3053633142
 20
15.393958602
 10
41.2921946078
 20
15.4131697997
 10
41.2820765741
 20
15.4341601051
 10
41.2756987403
 20
15.4554990636
  0
LINE
  5
25E
330
1F
100
AcDbEntity
  8
0
  6
SLD-Solid
 62
     7
370
    25
100
AcDbLine
 10
41.2572023765
 20
16.1062587724
 30
0.0
 11
41.3982208234
 21
15.4230533285
 31
0.0
  0
LINE
  5
25F
330
1F
100
AcDbEntity
  8
0
  6
SLD-Solid
 62
     7
370
    25
100
AcDbLine
 10
41.7030675223
 20
15.7611510084
 30
0.0
 11
41.8001416688
 21
14.8630919634
 31
0.0
  0
LINE
  5
260
330
1F
100
AcDbEntity
  8
0
  6
SLD-Solid
 62
     7
370
    25
100
AcDbLine
 10
41.8001416688
 20
14.8630919634
 30
0.0
 11
42.3458403729
 21
14.548066807
 31
0.0
  0
LINE
  5
261
330
1F
100
AcDbEntity
  8
0
  6
SLD-Solid
 62
     7
370
    25
100
AcDbLine
 10
42.3458403729
 20
14.548066807
 30
0.0
 11
42.578588925
 21
13.8666593836
 31
0.0
  0
LINE
  5
262
330
1F
100
AcDbEntity
  8
0
  6
SLD-Solid
 62
     7
370
    25
100
AcDbLine
 10
42.578588925
 20
13.8666593836
 30
0.0
 11
42.8708203604
 21
13.8637548998
 31
0.0
  0
LINE
  5
263
330
1F
100
AcDbEntity
  8
0
  6
SLD-Solid
 62
     7
370
    25
100
AcDbLine
 10
42.8081531198
 20
14.0472229495
 30
0.0
 11
42.8708203604
 21
13.8637548998
 31
0.0
  0
LINE
  5
264
330
1F
100
AcDbEntity
  8
0
  6
SLD-Solid
 62
     7
370
    25
100
AcDbLine
 10
42.6434725414
 20
14.0488597073
 30
0.0
 11
42.8081531198
 21
14.0472229495
 31
0.0
  0
LINE
  5
265
330
1F
100
AcDbEntity
  8
0
  6
SLD-Solid
 62
     7
370
    25
100
AcDbLine
 10
42.4343580737
 20
14.6610746895
 30
0.0
 11
42.6434725414
 21
14.0488597073
 31
0.0
  0
LINE
  5
266
330
1F
100
AcDbEntity
  8
0
  6
SLD-Solid
 62
     7
370
    25
100
AcDbLine
 10
41.9245899905
 20
14.9553575399
 30
0.0
 11
42.4343580737
 21
14.6610746895
 31
0.0
  0
LINE
  5
267
330
1F
100
AcDbEntity
  8
0
  6
SLD-Solid
 62
     7
370
    25
100
AcDbLine
 10
41.9134911835
 20
15.058035589
 30
0.0
 11
41.9245899905
 21
14.9553575399
 31
0.0
  0
LINE
  5
268
330
1F
100
AcDbEntity
  8
0
  6
SLD-Solid
 62
     7
370
    25
100
AcDbLine
 10
42.2768646917
 20
14.8482645278
 30
0.0
 11
41.9134911835
 21
15.058035589
 31
0.0
  0
LINE
  5
269
330
1F
100
AcDbEntity
  8
0
  6
SLD-Solid
 62
     7
370
    25
100
AcDbLine
 10
42.2768646917
 20
15.0123725912
 30
0.0
 11
42.2768646917
 21
14.8482645278
 31
0.0
  0
LINE
  5
26A
330
1F
100
AcDbEntity
  8
0
  6
SLD-Solid
 62
     7
370
    25
100
AcDbLine
 10
42.2768646917
 20
15.0123725912
 30
0.0
 11
41.8945716059
 21
15.2330656921
 31
0.0
  0
LINE
  5
26B
330
1F
100
AcDbEntity
  8
0
  6
SLD-Solid
 62
     7
370
    25
100
AcDbLine
 10
41.8611782294
 20
15.5419968012
 30
0.0
 11
41.8945716059
 21
15.2330656921
 31
0.0
  0
LWPOLYLINE
  5
26C
330
1F
100
AcDbEntity
  8
0
  6
SLD-Solid
 62
     7
370
    25
100
AcDbPolyline
 90
       27
 70
   128
 43
0.0
 10
41.8611782294
 20
15.5419968012
 10
41.8834057884
 20
15.5372589765
 10
41.904040985
 20
15.5378575134
 10
41.9224316592
 20
15.5437734956
 10
41.9379965875
 20
15.5548199529
 10
41.950243852
 20
15.5706477703
 10
41.9587863871
 20
15.5907567215
 10
41.9633542124
 20
15.6145112781
 10
41.9638029651
 20
15.6411606951
 10
41.9601184628
 20
15.6698627377
 10
41.9524171514
 20
15.6997102993
 10
41.940942425
 20
15.7297600699
 10
41.9260569339
 20
15.7590623492
 10
41.9082311228
 20
15.7866910604
 10
41.8880283632
 20
15.8117730189
 10
41.8660871482
 20
15.8335155281
 10
41.8431009133
 20
15.8512314322
 10
41.8197961215
 20
15.8643608334
 10
41.7969093032
 20
15.8724887868
 10
41.7751637791
 20
15.8753584145
 10
41.7552468004
 20
15.8728790241
 10
41.7377878281
 20
15.8651289747
 10
41.7233386401
 20
15.852353201
 10
41.7123558922
 20
15.8349554718
 10
41.7051866858
 20
15.8134856291
 10
41.7020575983
 20
15.7886222114
 10
41.7030675223
 20
15.7611510084
  0
LWPOLYLINE
  5
26D
330
1F
100
AcDbEntity
  8
0
  6
SLD-Solid
 62
     7
370
    25
100
AcDbPolyline
 90
       38
 70
   128
 43
0.0
 10
41.0792416607
 20
16.5608505931
 10
41.0771503812
 20
16.5336844609
 10
41.0709367049
 20
16.5097143889
 10
41.0607793879
 20
16.4896299522
 10
41.0469706379
 20
16.4740089438
 10
41.0299077074
 20
16.4633007514
 10
41.0100814657
 20
16.4578134303
 10
40.9880622779
 20
16.4577048407
 10
40.9644835959
 20
16.4629781066
 10
40.9400237354
 20
16.4734815258
 10
40.915386362
 20
16.4889129338
 10
40.8912802481
 20
16.5088283973
 10
40.8683988828
 20
16.5326549847
 10
40.8474005213
 20
16.5597072483
 10
40.8288892481
 20
16.5892069438
 10
40.813397599
 20
16.6203054187
 10
40.8013712404
 20
16.6521080265
 10
40.7931561488
 20
16.6836998641
 10
40.7889886575
 20
16.7141720917
 10
40.7889886575
 20
16.742648079
 10
40.7931561488
 20
16.7683086235
 10
40.8013712404
 20
16.7904155182
 10
40.813397599
 20
16.8083327879
 10
40.8288892481
 20
16.8215449855
 10
40.8474005213
 20
16.8296720199
 10
40.8683988828
 20
16.8324800914
 10
40.8912802481
 20
16.8298884166
 10
40.915386362
 20
16.8219715535
 10
40.9400237354
 20
16.8089572558
 10
40.9644835959
 20
16.791219921
 10
40.9880622779
 20
16.7692698201
 10
41.0100814657
 20
16.7437384175
 10
41.0299077074
 20
16.7153602051
 10
41.0469706379
 20
16.6849515724
 10
41.0607793879
 20
16.6533873205
 10
41.0709367049
 20
16.6215754953
 10
41.0771503812
 20
16.5904312653
 10
41.0792416607
 20
16.5608505931
  0
LINE
  5
26E
330
1F
100
AcDbEntity
  8
0
  6
SLD-Solid
 62
     7
370
    25
100
AcDbLine
 10
40.2474542022
 20
13.4250702886
 30
0.0
 11
43.0928518897
 21
11.7824571676
 31
0.0
  0
LINE
  5
26F
330
1F
100
AcDbEntity
  8
0
  6
SLD-Solid
 62
     7
370
    25
100
AcDbLine
 10
43.0928518897
 20
11.7824571676
 30
0.0
 11
43.0928518897
 21
12.1090734923
 31
0.0
  0
LINE
  5
270
330
1F
100
AcDbEntity
  8
0
  6
SLD-Solid
 62
     7
370
    25
100
AcDbLine
 10
43.0928518897
 20
12.1090734923
 30
0.0
 11
40.2474542022
 21
13.7516866133
 31
0.0
  0
LINE
  5
271
330
1F
100
AcDbEntity
  8
0
  6
SLD-Solid
 62
     7
370
    25
100
AcDbLine
 10
40.2474542022
 20
13.7516866133
 30
0.0
 11
40.2474542022
 21
13.4250702886
 31
0.0
  0
LINE
  5
272
330
1F
100
AcDbEntity
  8
0
  6
SLD-Solid
 62
     7
370
    25
100
AcDbLine
 10
43.495902755
 20
15.5785932215
 30
0.0
 11
43.495902755
 21
11.361976469
 31
0.0
  0
LINE
  5
273
330
1F
100
AcDbEntity
  8
0
  6
SLD-Solid
 62
     7
370
    25
100
AcDbLine
 10
43.495902755
 20
11.361976469
 30
0.0
 11
39.8444033369
 21
13.4699422137
 31
0.0
  0
LINE
  5
274
330
1F
100
AcDbEntity
  8
0
  6
SLD-Solid
 62
     7
370
    25
100
AcDbLine
 10
39.8444033369
 20
13.4699422137
 30
0.0
 11
39.8444033369
 21
17.6865589663
 31
0.0
  0
LINE
  5
275
330
1F
100
AcDbEntity
  8
0
  6
SLD-Solid
 62
     7
370
    25
100
AcDbLine
 10
42.7349231342
 20
13.0220091669
 30
0.0
 11
42.677009644
 21
12.6594196194
 31
0.0
  0
LINE
  5
276
330
1F
100
AcDbEntity
  8
0
  6
SLD-Solid
 62
     7
370
    25
100
AcDbLine
 10
42.677009644
 20
12.6594196194
 30
0.0
 11
42.7393885872
 21
12.623409022
 31
0.0
  0
LINE
  5
277
330
1F
100
AcDbEntity
  8
0
  6
SLD-Solid
 62
     7
370
    25
100
AcDbLine
 10
42.7393885872
 20
12.623409022
 30
0.0
 11
42.7759366024
 21
12.8524421714
 31
0.0
  0
LINE
  5
278
330
1F
100
AcDbEntity
  8
0
  6
SLD-Solid
 62
     7
370
    25
100
AcDbLine
 10
42.7759366024
 20
12.8524421714
 30
0.0
 11
42.8468342558
 21
12.5613819578
 31
0.0
  0
LINE
  5
279
330
1F
100
AcDbEntity
  8
0
  6
SLD-Solid
 62
     7
370
    25
100
AcDbLine
 10
42.8468342558
 20
12.5613819578
 30
0.0
 11
42.9068774236
 21
12.5267197749
 31
0.0
  0
LINE
  5
27A
330
1F
100
AcDbEntity
  8
0
  6
SLD-Solid
 62
     7
370
    25
100
AcDbLine
 10
42.9068774236
 20
12.5267197749
 30
0.0
 11
42.9781872727
 21
12.7356853447
 31
0.0
  0
LINE
  5
27B
330
1F
100
AcDbEntity
  8
0
  6
SLD-Solid
 62
     7
370
    25
100
AcDbLine
 10
42.9781872727
 20
12.7356853447
 30
0.0
 11
43.0148039872
 21
12.4644150959
 31
0.0
  0
LINE
  5
27C
330
1F
100
AcDbEntity
  8
0
  6
SLD-Solid
 62
     7
370
    25
100
AcDbLine
 10
43.0148039872
 20
12.4644150959
 30
0.0
 11
43.0771142311
 21
12.4284441578
 31
0.0
  0
LINE
  5
27D
330
1F
100
AcDbEntity
  8
0
  6
SLD-Solid
 62
     7
370
    25
100
AcDbLine
 10
43.0771142311
 20
12.4284441578
 30
0.0
 11
43.0191320416
 21
12.857938857
 31
0.0
  0
LINE
  5
27E
330
1F
100
AcDbEntity
  8
0
  6
SLD-Solid
 62
     7
370
    25
100
AcDbLine
 10
43.0191320416
 20
12.857938857
 30
0.0
 11
42.9558600078
 21
12.8944650247
 31
0.0
  0
LINE
  5
27F
330
1F
100
AcDbEntity
  8
0
  6
SLD-Solid
 62
     7
370
    25
100
AcDbLine
 10
42.9558600078
 20
12.8944650247
 30
0.0
 11
42.8770619375
 21
12.663722286
 31
0.0
  0
LINE
  5
280
330
1F
100
AcDbEntity
  8
0
  6
SLD-Solid
 62
     7
370
    25
100
AcDbLine
 10
42.8770619375
 20
12.663722286
 30
0.0
 11
42.7988134615
 21
12.9851260661
 31
0.0
  0
LINE
  5
281
330
1F
100
AcDbEntity
  8
0
  6
SLD-Solid
 62
     7
370
    25
100
AcDbLine
 10
42.7988134615
 20
12.9851260661
 30
0.0
 11
42.7349231342
 21
13.0220091669
 31
0.0
  0
SPLINE
  5
282
330
1F
100
AcDbEntity
  8
0
  6
SLD-Solid
 62
     7
370
    25
100
AcDbSpline
210
0.0
220
0.0
230
1.0
 70
     8
 71
     3
 72
    11
 73
     7
 74
     0
 42
0.00000001
 43
0.00000001
 40
0.0
 40
0.0
 40
0.0
 40
0.0
 40
0.2843707772011589
 40
0.5687587091065984
 40
0.853207720340584
 40
1.0
 40
1.0
 40
1.0
 40
1.0
 10
42.46885083588412
 20
13.18576385307826
 30
0.0
 10
42.45565745364782
 20
13.19249235594111
 30
0.0
 10
42.42926989328272
 20
13.20594976756463
 30
0.0
 10
42.39198459171735
 20
13.2114317110705
 30
0.0
 10
42.36282782176234
 20
13.20915494209709
 30
0.0
 10
42.34896621181552
 20
13.20052639855699
 30
0.0
 10
42.34424779229769
 20
13.1975892874706
 30
0.0
  0
SPLINE
  5
283
330
1F
100
AcDbEntity
  8
0
  6
SLD-Solid
 62
     7
370
    25
100
AcDbSpline
210
0.0
220
0.0
230
1.0
 70
     8
 71
     3
 72
    11
 73
     7
 74
     0
 42
0.00000001
 43
0.00000001
 40
0.0
 40
0.0
 40
0.0
 40
0.0
 40
0.0598569406089649
 40
0.3732530919621056
 40
0.6865979759743127
 40
1.0
 40
1.0
 40
1.0
 40
1.0
 10
42.33623037073246
 20
13.19320784645536
 30
0.0
 10
42.33431361197027
 20
13.19222988620678
 30
0.0
 10
42.32236117792917
 20
13.18613156773468
 30
0.0
 10
42.30732876603254
 20
13.16379414305342
 30
0.0
 10
42.29250022440222
 20
13.12747732942033
 30
0.0
 10
42.29089700227217
 20
13.0964602624438
 30
0.0
 10
42.29009531812491
 20
13.08095031505496
 30
0.0
  0
SPLINE
  5
284
330
1F
100
AcDbEntity
  8
0
  6
SLD-Solid
 62
     7
370
    25
100
AcDbSpline
210
0.0
220
0.0
230
1.0
 70
     8
 71
     3
 72
    23
 73
    19
 74
     0
 42
0.00000001
 43
0.00000001
 40
0.0
 40
0.0
 40
0.0
 40
0.0
 40
0.0667486513092666
 40
0.1311519760901755
 40
0.1937321970570959
 40
0.2553255433785992
 40
0.3163881857773856
 40
0.378026862906887
 40
0.4404056792054015
 40
0.504557429324081
 40
0.5686582873620152
 40
0.6309861790900102
 40
0.692288134873299
 40
0.7526154469796394
 40
0.813199538435563
 40
0.8740161248607817
 40
0.9361583555105316
 40
1.0
 40
1.0
 40
1.0
 40
1.0
 10
42.46933173082044
 20
12.76915510899845
 30
0.0
 10
42.46302440679873
 20
12.77296130889652
 30
0.0
 10
42.4506313772309
 20
12.78043997143478
 30
0.0
 10
42.43249412297954
 20
12.79399450967901
 30
0.0
 10
42.41511706621644
 20
12.8086718394917
 30
0.0
 10
42.39864618422413
 20
12.82511383748701
 30
0.0
 10
42.38291373514775
 20
12.84286352030738
 30
0.0
 10
42.36803530991082
 20
12.86212723926796
 30
0.0
 10
42.35401590864006
 20
12.88288446727781
 30
0.0
 10
42.3409359489194
 20
12.90476445051339
 30
0.0
 10
42.32908547373587
 20
12.92728474409787
 30
0.0
 10
42.31862510490694
 20
12.9498870284861
 30
0.0
 10
42.30980155175491
 20
12.97230234975922
 30
0.0
 10
42.30261449144317
 20
12.99453900115973
 30
0.0
 10
42.29694850180353
 20
13.01655120414581
 30
0.0
 10
42.29295178988383
 20
13.03836754051413
 30
0.0
 10
42.29059083677928
 20
13.05996057045097
 30
0.0
 10
42.29026196972071
 20
13.07389109659185
 30
0.0
 10
42.29009531812491
 20
13.08095031505496
 30
0.0
  0
SPLINE
  5
285
330
1F
100
AcDbEntity
  8
0
  6
SLD-Solid
 62
     7
370
    25
100
AcDbSpline
210
0.0
220
0.0
230
1.0
 70
     8
 71
     3
 72
    11
 73
     7
 74
     0
 42
0.00000001
 43
0.00000001
 40
0.0
 40
0.0
 40
0.0
 40
0.0
 40
0.3033865029566877
 40
0.6065878704831296
 40
0.9098550551303499
 40
0.9999999999999999
 40
0.9999999999999999
 40
0.9999999999999999
 40
0.9999999999999999
 10
42.46933173082044
 20
12.76915510899845
 30
0.0
 10
42.48245249114485
 20
12.76237066073485
 30
0.0
 10
42.50868600511708
 20
12.74880590427891
 30
0.0
 10
42.54589421598245
 20
12.7428017312266
 30
0.0
 10
42.57227462612229
 20
12.74526719963405
 30
0.0
 10
42.58409800521912
 20
12.75250130345967
 30
0.0
 10
42.58680716891004
 20
12.75415889823526
 30
0.0
  0
SPLINE
  5
286
330
1F
100
AcDbEntity
  8
0
  6
SLD-Solid
 62
     7
370
    25
100
AcDbSpline
210
0.0
220
0.0
230
1.0
 70
     8
 71
     3
 72
    11
 73
     7
 74
     0
 42
0.00000001
 43
0.00000001
 40
0.0
 40
0.0
 40
0.0
 40
0.0
 40
0.1173088742160678
 40
0.4115039082734014
 40
0.7056624366749531
 40
1.0
 40
1.0
 40
1.0
 40
1.0
 10
42.59476846540429
 20
12.75864053443783
 30
0.0
 10
42.59875825613224
 20
12.76065273079823
 30
0.0
 10
42.61275391067002
 20
12.76771124765855
 30
0.0
 10
42.62994726760001
 20
12.79078209914385
 30
0.0
 10
42.64403274649147
 20
12.8276853730795
 30
0.0
 10
42.64549901221316
 20
12.85856408545101
 30
0.0
 10
42.64623236811098
 20
12.87400813866703
 30
0.0
  0
SPLINE
  5
287
330
1F
100
AcDbEntity
  8
0
  6
SLD-Solid
 62
     7
370
    25
100
AcDbSpline
210
0.0
220
0.0
230
1.0
 70
     8
 71
     3
 72
    23
 73
    19
 74
     0
 42
0.00000001
 43
0.00000001
 40
0.0
 40
0.0
 40
0.0
 40
0.0
 40
0.0633955966615906
 40
0.1251572666424215
 40
0.1856494665262532
 40
0.2459766793408154
 40
0.3061083686579568
 40
0.367350588089175
 40
0.4299020782799144
 40
0.494539958183194
 40
0.5593725826940479
 40
0.6224096858457372
 40
0.6843574258194755
 40
0.7458066007722108
 40
0.8074302750159151
 40
0.8699955160697818
 40
0.9339278677192728
 40
1.0
 40
1.0
 40
1.0
 40
1.0
 10
42.46885083588412
 20
13.18576385307826
 30
0.0
 10
42.47481338611129
 20
13.18214347249974
 30
0.0
 10
42.48658481075192
 20
13.17499602123698
 30
0.0
 10
42.50389632853102
 20
13.16206849627289
 30
0.0
 10
42.52057917679954
 20
13.14765748895367
 30
0.0
 10
42.53662581162151
 20
13.13174913452579
 30
0.0
 10
42.55199605406793
 20
13.11418665204553
 30
0.0
 10
42.56674412013008
 20
13.09518509434016
 30
0.0
 10
42.5808171829343
 20
13.07457700903071
 30
0.0
 10
42.59407103301751
 20
13.05273687477139
 30
0.0
 10
42.60631998087536
 20
13.0302359534418
 30
0.0
 10
42.6169337013483
 20
13.00749590939372
 30
0.0
 10
42.6259846927911
 20
12.98490534646247
 30
0.0
 10
42.63348617871451
 20
12.9624100994158
 30
0.0
 10
42.63919995650568
 20
12.94002188026758
 30
0.0
 10
42.64320955071594
 20
12.91778980368889
 30
0.0
 10
42.64578551634614
 20
12.89556334791684
 30
0.0
 10
42.64608179202758
 20
12.88127161895557
 30
0.0
 10
42.64623236811098
 20
12.87400813866703
 30
0.0
  0
LINE
  5
288
330
1F
100
AcDbEntity
  8
0
  6
SLD-Solid
 62
     7
370
    25
100
AcDbLine
 10
41.6305822626
 20
13.6595315821
 30
0.0
 11
41.6305822626
 21
13.2635092883
 31
0.0
  0
LINE
  5
289
330
1F
100
AcDbEntity
  8
0
  6
SLD-Solid
 62
     7
370
    25
100
AcDbLine
 10
41.6305822626
 20
13.2635092883
 30
0.0
 11
41.6921368144
 21
13.2279746019
 31
0.0
  0
LINE
  5
28A
330
1F
100
AcDbEntity
  8
0
  6
SLD-Solid
 62
     7
370
    25
100
AcDbLine
 10
41.6921368144
 20
13.2279746019
 30
0.0
 11
41.6921368144
 21
13.4005997043
 31
0.0
  0
LINE
  5
28B
330
1F
100
AcDbEntity
  8
0
  6
SLD-Solid
 62
     7
370
    25
100
AcDbLine
 10
41.6921368144
 20
13.4005997043
 30
0.0
 11
41.7130213945
 21
13.3885432929
 31
0.0
  0
LINE
  5
28C
330
1F
100
AcDbEntity
  8
0
  6
SLD-Solid
 62
     7
370
    25
100
AcDbLine
 10
41.7130213945
 20
13.3885432929
 30
0.0
 11
41.7885905988
 21
13.1722930174
 31
0.0
  0
LINE
  5
28D
330
1F
100
AcDbEntity
  8
0
  6
SLD-Solid
 62
     7
370
    25
100
AcDbLine
 10
41.7885905988
 20
13.1722930174
 30
0.0
 11
41.8570150783
 21
13.1327924062
 31
0.0
  0
LINE
  5
28E
330
1F
100
AcDbEntity
  8
0
  6
SLD-Solid
 62
     7
370
    25
100
AcDbLine
 10
41.8570150783
 20
13.1327924062
 30
0.0
 11
41.7778735117
 21
13.3591967642
 31
0.0
  0
SPLINE
  5
28F
330
1F
100
AcDbEntity
  8
0
  6
SLD-Solid
 62
     7
370
    25
100
AcDbSpline
210
0.0
220
0.0
230
1.0
 70
     8
 71
     3
 72
     9
 73
     5
 74
     0
 42
0.00000001
 43
0.00000001
 40
0.0
 40
0.0
 40
0.0
 40
0.0
 40
0.8779672582495266
 40
1.0
 40
1.0
 40
1.0
 40
1.0
 10
41.77787351166346
 20
13.35919676421285
 30
0.0
 10
41.78865266345698
 20
13.35723292466175
 30
0.0
 10
41.80093005955829
 20
13.354996121942
 30
0.0
 10
41.80923892363273
 20
13.36106521363205
 30
0.0
 10
41.81025287709657
 20
13.36180584153092
 30
0.0
  0
SPLINE
  5
290
330
1F
100
AcDbEntity
  8
0
  6
SLD-Solid
 62
     7
370
    25
100
AcDbSpline
210
0.0
220
0.0
230
1.0
 70
     8
 71
     3
 72
    10
 73
     6
 74
     0
 42
0.00000001
 43
0.00000001
 40
0.0
 40
0.0
 40
0.0
 40
0.0
 40
0.2477819555127597
 40
0.6236075576898313
 40
1.0
 40
1.0
 40
1.0
 40
1.0
 10
41.81782415345222
 20
13.36692876987665
 30
0.0
 10
41.82197499772872
 20
13.36910924686105
 30
0.0
 10
41.83242167394555
 20
13.37459698273766
 30
0.0
 10
41.84003475550581
 20
13.39635231083306
 30
0.0
 10
41.84109561227258
 20
13.41558358096752
 30
0.0
 10
41.84162644036467
 20
13.42520646197614
 30
0.0
  0
SPLINE
  5
291
330
1F
100
AcDbEntity
  8
0
  6
SLD-Solid
 62
     7
370
    25
100
AcDbSpline
210
0.0
220
0.0
230
1.0
 70
     8
 71
     3
 72
    31
 73
    27
 74
     0
 42
0.00000001
 43
0.00000001
 40
0.0
 40
0.0
 40
0.0
 40
0.0
 40
0.0728890266200382
 40
0.1401861299444944
 40
0.2022774341249592
 40
0.2588951317514627
 40
0.3104829424654784
 40
0.3570952441313351
 40
0.3985135666534654
 40
0.4350375108701162
 40
0.4692514858292874
 40
0.5028050278902745
 40
0.5362104463185619
 40
0.5693793599392056
 40
0.6028014750483932
 40
0.6366657983367763
 40
0.6709286568940432
 40
0.705803000229313
 40
0.7411890612458777
 40
0.7763043110764618
 40
0.8120043009129352
 40
0.8479689758088955
 40
0.8845217611964794
 40
0.9219741585442052
 40
0.9601981758096081
 40
1.0
 40
1.0
 40
1.0
 40
1.0
 10
41.70230430738401
 20
13.61812732693437
 30
0.0
 10
41.70704511271263
 20
13.61537108691479
 30
0.0
 10
41.71616301677388
 20
13.61007006096533
 30
0.0
 10
41.72931053641859
 20
13.60189052865876
 30
0.0
 10
41.74138834129126
 20
13.59409764070357
 30
0.0
 10
41.75241431367443
 20
13.58648034762513
 30
0.0
 10
41.76238373647541
 20
13.57906494307684
 30
0.0
 10
41.77130660138602
 20
13.57195680617289
 30
0.0
 10
41.77918264759968
 20
13.56517955306348
 30
0.0
 10
41.78607829868876
 20
13.55841938896189
 30
0.0
 10
41.79230128281356
 20
13.55169182752006
 30
0.0
 10
41.79810196917844
 20
13.54474086463163
 30
0.0
 10
41.80360832955051
 20
13.53753273649466
 30
0.0
 10
41.80878355985774
 20
13.52998266591219
 30
0.0
 10
41.81367263406823
 20
13.52214676774326
 30
0.0
 10
41.81828477571361
 20
13.5140146707807
 30
0.0
 10
41.82255481095756
 20
13.50557761942715
 30
0.0
 10
41.82645629956849
 20
13.49688861284364
 30
0.0
 10
41.83001219238781
 20
13.48806455235917
 30
0.0
 10
41.83315485584121
 20
13.47913518498351
 30
0.0
 10
41.83571047498496
 20
13.47019590383745
 30
0.0
 10
41.83796863845476
 20
13.4611874032265
 30
0.0
 10
41.83959512044534
 20
13.45219248467854
 30
0.0
 10
41.84072631487641
 20
13.44321083589224
 30
0.0
 10
41.84155453118645
 20
13.43410212135059
 30
0.0
 10
41.84160214966474
 20
13.42821138843834
 30
0.0
 10
41.84162644036467
 20
13.42520646197614
 30
0.0
  0
LINE
  5
292
330
1F
100
AcDbEntity
  8
0
  6
SLD-Solid
 62
     7
370
    25
100
AcDbLine
 10
41.7023043074
 20
13.6181273269
 30
0.0
 11
41.6305822626
 21
13.6595315821
 31
0.0
  0
LINE
  5
293
330
1F
100
AcDbEntity
  8
0
  6
SLD-Solid
 62
     7
370
    25
100
AcDbLine
 10
40.2521999765
 20
14.4552547384
 30
0.0
 11
40.3316850396
 21
14.0133466944
 31
0.0
  0
LINE
  5
294
330
1F
100
AcDbEntity
  8
0
  6
SLD-Solid
 62
     7
370
    25
100
AcDbLine
 10
40.3316850396
 20
14.0133466944
 30
0.0
 11
40.3955066676
 21
13.9765032528
 31
0.0
  0
LINE
  5
295
330
1F
100
AcDbEntity
  8
0
  6
SLD-Solid
 62
     7
370
    25
100
AcDbLine
 10
40.3955066676
 20
13.9765032528
 30
0.0
 11
40.4544506469
 21
14.1984780101
 31
0.0
  0
LINE
  5
296
330
1F
100
AcDbEntity
  8
0
  6
SLD-Solid
 62
     7
370
    25
100
AcDbLine
 10
40.4544506469
 20
14.1984780101
 30
0.0
 11
40.5130511299
 21
13.9086462791
 31
0.0
  0
LINE
  5
297
330
1F
100
AcDbEntity
  8
0
  6
SLD-Solid
 62
     7
370
    25
100
AcDbLine
 10
40.5130511299
 20
13.9086462791
 30
0.0
 11
40.5773536528
 21
13.8715252228
 31
0.0
  0
LINE
  5
298
330
1F
100
AcDbEntity
  8
0
  6
SLD-Solid
 62
     7
370
    25
100
AcDbLine
 10
40.5773536528
 20
13.8715252228
 30
0.0
 11
40.6567013173
 21
14.2217410849
 31
0.0
  0
LINE
  5
299
330
1F
100
AcDbEntity
  8
0
  6
SLD-Solid
 62
     7
370
    25
100
AcDbLine
 10
40.6567013173
 20
14.2217410849
 30
0.0
 11
40.5930170878
 21
14.258505208
 31
0.0
  0
LINE
  5
29A
330
1F
100
AcDbEntity
  8
0
  6
SLD-Solid
 62
     7
370
    25
100
AcDbLine
 10
40.5930170878
 20
14.258505208
 30
0.0
 11
40.542385721
 21
14.0349049372
 31
0.0
  0
LINE
  5
29B
330
1F
100
AcDbEntity
  8
0
  6
SLD-Solid
 62
     7
370
    25
100
AcDbLine
 10
40.542385721
 20
14.0349049372
 30
0.0
 11
40.4845409301
 21
14.3211271609
 31
0.0
  0
LINE
  5
29C
330
1F
100
AcDbEntity
  8
0
  6
SLD-Solid
 62
     7
370
    25
100
AcDbLine
 10
40.4845409301
 20
14.3211271609
 30
0.0
 11
40.4247038601
 21
14.3556703661
 31
0.0
  0
LINE
  5
29D
330
1F
100
AcDbEntity
  8
0
  6
SLD-Solid
 62
     7
370
    25
100
AcDbLine
 10
40.4247038601
 20
14.3556703661
 30
0.0
 11
40.3665155728
 21
14.1364326127
 31
0.0
  0
LINE
  5
29E
330
1F
100
AcDbEntity
  8
0
  6
SLD-Solid
 62
     7
370
    25
100
AcDbLine
 10
40.3665155728
 20
14.1364326127
 30
0.0
 11
40.3157468074
 21
14.4185699338
 31
0.0
  0
LINE
  5
29F
330
1F
100
AcDbEntity
  8
0
  6
SLD-Solid
 62
     7
370
    25
100
AcDbLine
 10
40.3157468074
 20
14.4185699338
 30
0.0
 11
40.2521999765
 21
14.4552547384
 31
0.0
  0
LINE
  5
2A0
330
1F
100
AcDbEntity
  8
0
  6
SLD-Solid
 62
     7
370
    25
100
AcDbLine
 10
40.8172515267
 20
14.1290574218
 30
0.0
 11
40.6786850858
 21
13.8130278317
 31
0.0
  0
LINE
  5
2A1
330
1F
100
AcDbEntity
  8
0
  6
SLD-Solid
 62
     7
370
    25
100
AcDbLine
 10
40.6786850858
 20
13.8130278317
 30
0.0
 11
40.7443615942
 21
13.7751135904
 31
0.0
  0
LINE
  5
2A2
330
1F
100
AcDbEntity
  8
0
  6
SLD-Solid
 62
     7
370
    25
100
AcDbLine
 10
40.7443615942
 20
13.7751135904
 30
0.0
 11
40.7710169136
 21
13.8409611444
 31
0.0
  0
LINE
  5
2A3
330
1F
100
AcDbEntity
  8
0
  6
SLD-Solid
 62
     7
370
    25
100
AcDbLine
 10
40.7710169136
 20
13.8409611444
 30
0.0
 11
40.9204378402
 21
13.7547022795
 31
0.0
  0
LINE
  5
2A4
330
1F
100
AcDbEntity
  8
0
  6
SLD-Solid
 62
     7
370
    25
100
AcDbLine
 10
40.9204378402
 20
13.7547022795
 30
0.0
 11
40.9470931595
 21
13.6580791489
 31
0.0
  0
LINE
  5
2A5
330
1F
100
AcDbEntity
  8
0
  6
SLD-Solid
 62
     7
370
    25
100
AcDbLine
 10
40.9470931595
 20
13.6580791489
 30
0.0
 11
41.0128383672
 21
13.6201252483
 31
0.0
  0
LINE
  5
2A6
330
1F
100
AcDbEntity
  8
0
  6
SLD-Solid
 62
     7
370
    25
100
AcDbLine
 10
41.0128383672
 20
13.6201252483
 30
0.0
 11
40.8743406256
 21
14.0961005865
 31
0.0
  0
LINE
  5
2A7
330
1F
100
AcDbEntity
  8
0
  6
SLD-Solid
 62
     7
370
    25
100
AcDbLine
 10
40.8743406256
 20
14.0961005865
 30
0.0
 11
40.8172515267
 21
14.1290574218
 31
0.0
  0
SPLINE
  5
2A8
330
1F
100
AcDbEntity
  8
0
  6
SLD-Solid
 62
     7
370
    25
100
AcDbSpline
210
0.0
220
0.0
230
1.0
 70
     8
 71
     3
 72
    19
 73
    15
 74
     0
 42
0.00000001
 43
0.00000001
 40
0.0
 40
0.0
 40
0.0
 40
0.0
 40
0.1069102197112001
 40
0.2129765276064939
 40
0.3197766759577688
 40
0.4285562728491928
 40
0.4858568032784263
 40
0.5465586866406887
 40
0.6114314979175136
 40
0.679820910072493
 40
0.7531585046908256
 40
0.8307528691562623
 40
0.9131330746557015
 40
1.0
 40
1.0
 40
1.0
 40
1.0
 10
41.14460357980166
 20
13.95023552177766
 30
0.0
 10
41.14864426535077
 20
13.94773219017736
 30
0.0
 10
41.156693740693
 20
13.94274528739932
 30
0.0
 10
41.16859512214796
 20
13.93321576777438
 30
0.0
 10
41.18021989396109
 20
13.92232337485238
 30
0.0
 10
41.18958735294812
 20
13.91187106983272
 30
0.0
 10
41.19704086521045
 20
13.90268155589524
 30
0.0
 10
41.20275328610622
 20
13.89488479425009
 30
0.0
 10
41.20856598184653
 20
13.88637529140375
 30
0.0
 10
41.2145258282168
 20
13.87710974522623
 30
0.0
 10
41.22052208204285
 20
13.86704233573919
 30
0.0
 10
41.2267252454972
 20
13.85623189149388
 30
0.0
 10
41.23305079289555
 20
13.84466472891063
 30
0.0
 10
41.23716139576652
 20
13.83663693060277
 30
0.0
 10
41.23927118298082
 20
13.83251662349439
 30
0.0
  0
SPLINE
  5
2A9
330
1F
100
AcDbEntity
  8
0
  6
SLD-Solid
 62
     7
370
    25
100
AcDbSpline
210
0.0
220
0.0
230
1.0
 70
     8
 71
     3
 72
    10
 73
     6
 74
     0
 42
0.00000001
 43
0.00000001
 40
0.0
 40
0.0
 40
0.0
 40
0.0
 40
0.3741731480834115
 40
0.7479573259510417
 40
0.9999999999999999
 40
0.9999999999999999
 40
0.9999999999999999
 40
0.9999999999999999
 10
41.14460357980166
 20
13.95023552177766
 30
0.0
 10
41.13595001734591
 20
13.95453491713822
 30
0.0
 10
41.11865188821102
 20
13.96312923843989
 30
0.0
 10
41.09669933973188
 20
13.96498097473828
 30
0.0
 10
41.08621564997033
 20
13.95942963288002
 30
0.0
 10
41.08199349620158
 20
13.95719391058362
 30
0.0
  0
SPLINE
  5
2AA
330
1F
100
AcDbEntity
  8
0
  6
SLD-Solid
 62
     7
370
    25
100
AcDbSpline
210
0.0
220
0.0
230
1.0
 70
     8
 71
     3
 72
    15
 73
    11
 74
     0
 42
0.00000001
 43
0.00000001
 40
0.0
 40
0.0
 40
0.0
 40
0.0
 40
0.0631728801065212
 40
0.1244573597770007
 40
0.1848409152554598
 40
0.2445668214643688
 40
0.3043191726186554
 40
0.3651997864614173
 40
0.4274209827764752
 40
0.4399999999999969
 40
0.4399999999999969
 40
0.4399999999999969
 40
0.4399999999999969
 10
41.05460752743249
 20
13.90175559850389
 30
0.0
 10
41.05468191694976
 20
13.90510318477757
 30
0.0
 10
41.05482847228964
 20
13.91169828933106
 30
0.0
 10
41.05613576852949
 20
13.92076514231861
 30
0.0
 10
41.05808957256545
 20
13.92911419519457
 30
0.0
 10
41.06092705694538
 20
13.93657395489413
 30
0.0
 10
41.06460976905978
 20
13.9431552242698
 30
0.0
 10
41.06908227987376
 20
13.94893262749453
 30
0.0
 10
41.07295201215295
 20
13.95245742720121
 30
0.0
 10
41.07522089320467
 20
13.95418885580626
 30
0.0
 10
41.07560626699459
 20
13.9544739219084
 30
0.0
  0
SPLINE
  5
2AB
330
1F
100
AcDbEntity
  8
0
  6
SLD-Solid
 62
     7
370
    25
100
AcDbSpline
210
0.0
220
0.0
230
1.0
 70
     8
 71
     3
 72
    19
 73
    15
 74
     0
 42
0.00000001
 43
0.00000001
 40
0.0
 40
0.0
 40
0.0
 40
0.0
 40
0.1121245812797442
 40
0.2152010090762411
 40
0.309902452493476
 40
0.3959590963320905
 40
0.473447494000333
 40
0.5421403275660301
 40
0.6025233330554092
 40
0.6547263328340143
 40
0.7478040553141012
 40
0.8352784168250078
 40
0.9189252427194493
 40
0.9999999999999999
 40
0.9999999999999999
 40
0.9999999999999999
 40
0.9999999999999999
 10
41.14103121741754
 20
13.71287567075774
 30
0.0
 10
41.13666608423809
 20
13.71966051956671
 30
0.0
 10
41.12828807243866
 20
13.73268269805296
 30
0.0
 10
41.11644887883214
 20
13.75160727411873
 30
0.0
 10
41.10578070532566
 20
13.76906505040528
 30
0.0
 10
41.09637569372263
 20
13.78514251703334
 30
0.0
 10
41.0881140096256
 20
13.79971220776931
 30
0.0
 10
41.081051604749
 20
13.81282142434051
 30
0.0
 10
41.0752660628218
 20
13.82449504950561
 30
0.0
 10
41.06917802746454
 20
13.83788031091808
 30
0.0
 10
41.06339317665218
 20
13.85324797672908
 30
0.0
 10
41.05839342394916
 20
13.87060552235558
 30
0.0
 10
41.05514979542023
 20
13.88694744288846
 30
0.0
 10
41.0547863919567
 20
13.89687119859757
 30
0.0
 10
41.05460752743249
 20
13.90175559850389
 30
0.0
  0
SPLINE
  5
2AC
330
1F
100
AcDbEntity
  8
0
  6
SLD-Solid
 62
     7
370
    25
100
AcDbSpline
210
0.0
220
0.0
230
1.0
 70
     8
 71
     3
 72
    19
 73
    15
 74
     0
 42
0.00000001
 43
0.00000001
 40
0.0
 40
0.0
 40
0.0
 40
0.0
 40
0.0763466063531701
 40
0.1550908218146645
 40
0.2383515612585566
 40
0.3284041399329871
 40
0.3793838595513589
 40
0.4396176441748209
 40
0.5098314158313143
 40
0.5888746449969577
 40
0.6774363544094507
 40
0.775546719619675
 40
0.8826358717258564
 40
0.9999999999999999
 40
0.9999999999999999
 40
0.9999999999999999
 40
0.9999999999999999
 10
41.18651013853844
 20
13.61831692252802
 30
0.0
 10
41.18639721691036
 20
13.62064190037178
 30
0.0
 10
41.18616782743337
 20
13.62536487028117
 30
0.0
 10
41.18447821523896
 20
13.63316566664604
 30
0.0
 10
41.18183683602371
 20
13.64151280236384
 30
0.0
 10
41.17871189814805
 20
13.64891262559649
 30
0.0
 10
41.17553188256541
 20
13.65543365046965
 30
0.0
 10
41.17249107041424
 20
13.66124862330518
 30
0.0
 10
41.16878816560595
 20
13.66787135608118
 30
0.0
 10
41.16443255707393
 20
13.67530207058652
 30
0.0
 10
41.1594817937717
 20
13.68355082373231
 30
0.0
 10
41.15393170532278
 20
13.69261949514325
 30
0.0
 10
41.14771873734311
 20
13.70249311322447
 30
0.0
 10
41.14332739931614
 20
13.70931078557841
 30
0.0
 10
41.14103121741754
 20
13.71287567075774
 30
0.0
  0
SPLINE
  5
2AD
330
1F
100
AcDbEntity
  8
0
  6
SLD-Solid
 62
     7
370
    25
100
AcDbSpline
210
0.0
220
0.0
230
1.0
 70
     8
 71
     3
 72
     9
 73
     5
 74
     0
 42
0.00000001
 43
0.00000001
 40
0.0
 40
0.0
 40
0.0
 40
0.0
 40
0.6259762210677469
 40
1.0
 40
1.0
 40
1.0
 40
1.0
 10
41.18651013853844
 20
13.61831692252802
 30
0.0
 10
41.18571771363225
 20
13.61255309255273
 30
0.0
 10
41.18445181106355
 20
13.6033453466651
 30
0.0
 10
41.17789423574776
 20
13.60086176389722
 30
0.0
 10
41.17544154664752
 20
13.59993284488509
 30
0.0
  0
SPLINE
  5
2AE
330
1F
100
AcDbEntity
  8
0
  6
SLD-Solid
 62
     7
370
    25
100
AcDbSpline
210
0.0
220
0.0
230
1.0
 70
     8
 71
     3
 72
    11
 73
     7
 74
     0
 42
0.00000001
 43
0.00000001
 40
0.0
 40
0.0
 40
0.0
 40
0.0
 40
0.1419858925296712
 40
0.2754733105502131
 40
0.404345842663139
 40
0.440000000000022
 40
0.440000000000022
 40
0.440000000000022
 40
0.440000000000022
 10
41.14735155086637
 20
13.60339894702843
 30
0.0
 10
41.1500205598192
 20
13.60198280791198
 30
0.0
 10
41.15519882590625
 20
13.59923529177739
 30
0.0
 10
41.16259013810949
 20
13.59720211885987
 30
0.0
 10
41.16772310171197
 20
13.59689540367903
 30
0.0
 10
41.17034376366782
 20
13.59727102499701
 30
0.0
 10
41.17090184084807
 20
13.59737588813842
 30
0.0
  0
SPLINE
  5
2AF
330
1F
100
AcDbEntity
  8
0
  6
SLD-Solid
 62
     7
370
    25
100
AcDbSpline
210
0.0
220
0.0
230
1.0
 70
     8
 71
     3
 72
    15
 73
    11
 74
     0
 42
0.00000001
 43
0.00000001
 40
0.0
 40
0.0
 40
0.0
 40
0.0
 40
0.1604579205559365
 40
0.3076115473748602
 40
0.4421388877557715
 40
0.5662291941703349
 40
0.6812222080152134
 40
0.7895580052436291
 40
0.8950288924051347
 40
0.9999999999999999
 40
0.9999999999999999
 40
0.9999999999999999
 40
0.9999999999999999
 10
41.09115554259309
 20
13.68661230101702
 30
0.0
 10
41.09315431590841
 20
13.68144638689849
 30
0.0
 10
41.09698613518069
 20
13.67154288802413
 30
0.0
 10
41.10347951116319
 20
13.65745992183527
 30
0.0
 10
41.11013164336059
 20
13.64477000756743
 30
0.0
 10
41.11709632310905
 20
13.63354078274231
 30
0.0
 10
41.12428886250886
 20
13.62372474838556
 30
0.0
 10
41.13174400319665
 20
13.61537319302395
 30
0.0
 10
41.13946698301076
 20
13.6084092316144
 30
0.0
 10
41.14472752600963
 20
13.60506639558537
 30
0.0
 10
41.14735155086637
 20
13.60339894702843
 30
0.0
  0
LINE
  5
2B0
330
1F
100
AcDbEntity
  8
0
  6
SLD-Solid
 62
     7
370
    25
100
AcDbLine
 10
41.0911555426
 20
13.686612301
 30
0.0
 11
41.0370205126
 21
13.6803400416
 31
0.0
  0
SPLINE
  5
2B1
330
1F
100
AcDbEntity
  8
0
  6
SLD-Solid
 62
     7
370
    25
100
AcDbSpline
210
0.0
220
0.0
230
1.0
 70
     8
 71
     3
 72
    23
 73
    19
 74
     0
 42
0.00000001
 43
0.00000001
 40
0.0
 40
0.0
 40
0.0
 40
0.0
 40
0.0635514822357808
 40
0.1258683816453842
 40
0.1862402502136729
 40
0.2449766506319395
 40
0.3033576876770614
 40
0.3612303170408046
 40
0.418489049028352
 40
0.4759367117285737
 40
0.5342037438191215
 40
0.5940594289675396
 40
0.6554686942598743
 40
0.7187716848998884
 40
0.784974607219059
 40
0.853522316376702
 40
0.9251824507719316
 40
1.0
 40
1.0
 40
1.0
 40
1.0
 10
41.14508447473798
 20
13.53362677769786
 30
0.0
 10
41.14215137257246
 20
13.53538010984895
 30
0.0
 10
41.13634214814863
 20
13.5388527130453
 30
0.0
 10
41.12778022960021
 20
13.54476701545314
 30
0.0
 10
41.11951272936999
 20
13.55110782019884
 30
0.0
 10
41.11154896005849
 20
13.55795273121281
 30
0.0
 10
41.10385304347867
 20
13.56524340809854
 30
0.0
 10
41.09642466357003
 20
13.57301034427005
 30
0.0
 10
41.08931510090548
 20
13.58127785344763
 30
0.0
 10
41.08247056116333
 20
13.58999137754124
 30
0.0
 10
41.07592431725316
 20
13.59930004953945
 30
0.0
 10
41.06959359449558
 20
13.609138603266
 30
0.0
 10
41.06354127563991
 20
13.61956584851183
 30
0.0
 10
41.05773829262586
 20
13.63058216888683
 30
0.0
 10
41.05222177455665
 20
13.64218783941991
 30
0.0
 10
41.04681114600105
 20
13.65436982534938
 30
0.0
 10
41.04174687157319
 20
13.66715742280633
 30
0.0
 10
41.0386184439846
 20
13.67588313932733
 30
0.0
 10
41.03702051261836
 20
13.68034004162951
 30
0.0
  0
SPLINE
  5
2B2
330
1F
100
AcDbEntity
  8
0
  6
SLD-Solid
 62
     7
370
    25
100
AcDbSpline
210
0.0
220
0.0
230
1.0
 70
     8
 71
     3
 72
    23
 73
    19
 74
     0
 42
0.00000001
 43
0.00000001
 40
0.0
 40
0.0
 40
0.0
 40
0.0
 40
0.0652008752881559
 40
0.1279265440230309
 40
0.1890469100189667
 40
0.2485436930694599
 40
0.307607127022346
 40
0.3672476600602126
 40
0.4269630557213212
 40
0.4886171282353926
 40
0.5503918546271245
 40
0.6113307342255597
 40
0.6725560854310831
 40
0.7340241906291919
 40
0.7973406208369389
 40
0.862249627316578
 40
0.9296254660746968
 40
1.0
 40
1.0
 40
1.0
 40
1.0
 10
41.24806469038788
 20
13.58690746834912
 30
0.0
 10
41.24800330240285
 20
13.58294326032625
 30
0.0
 10
41.2478828568914
 20
13.57516533664176
 30
0.0
 10
41.24640763035482
 20
13.5645333847426
 30
0.0
 10
41.24430404389991
 20
13.55475747293785
 30
0.0
 10
41.24105153020714
 20
13.54625770819717
 30
0.0
 10
41.2370873857801
 20
13.53861130274921
 30
0.0
 10
41.23211775820745
 20
13.53214264746775
 30
0.0
 10
41.2262816120572
 20
13.52667701988904
 30
0.0
 10
41.21959249247225
 20
13.52236453276113
 30
0.0
 10
41.21219353191502
 20
13.51921849277879
 30
0.0
 10
41.20425744353268
 20
13.51719678201279
 30
0.0
 10
41.19570662425847
 20
13.51668135068391
 30
0.0
 10
41.18661413094475
 20
13.51744123754809
 30
0.0
 10
41.17698483059704
 20
13.51954255116645
 30
0.0
 10
41.16683019461474
 20
13.52284923633077
 30
0.0
 10
41.15613469078953
 20
13.52748987160828
 30
0.0
 10
41.1488209511505
 20
13.53155166851062
 30
0.0
 10
41.14508447473798
 20
13.53362677769786
 30
0.0
  0
SPLINE
  5
2B3
330
1F
100
AcDbEntity
  8
0
  6
SLD-Solid
 62
     7
370
    25
100
AcDbSpline
210
0.0
220
0.0
230
1.0
 70
     8
 71
     3
 72
    15
 73
    11
 74
     0
 42
0.00000001
 43
0.00000001
 40
0.0
 40
0.0
 40
0.0
 40
0.0
 40
0.1508330973407548
 40
0.2899541833158774
 40
0.4171386481520551
 40
0.535255183906263
 40
0.6487510952936693
 40
0.7624054615861224
 40
0.879826701250104
 40
1.0
 40
1.0
 40
1.0
 40
1.0
 10
41.21261586365316
 20
13.69820608080762
 30
0.0
 10
41.21564355316006
 20
13.69267452632242
 30
0.0
 10
41.22146383566957
 20
13.68204093600638
 30
0.0
 10
41.2290281511473
 20
13.66640233738372
 30
0.0
 10
41.23525382746634
 20
13.65180474382355
 30
0.0
 10
41.24007012872489
 20
13.63808193995124
 30
0.0
 10
41.2437075931483
 20
13.62494296165143
 30
0.0
 10
41.24627205375253
 20
13.61205597913314
 30
0.0
 10
41.24780792627148
 20
13.59927616042998
 30
0.0
 10
41.24797844397984
 20
13.59106208029066
 30
0.0
 10
41.24806469038788
 20
13.58690746834912
 30
0.0
  0
SPLINE
  5
2B4
330
1F
100
AcDbEntity
  8
0
  6
SLD-Solid
 62
     7
370
    25
100
AcDbSpline
210
0.0
220
0.0
230
1.0
 70
     8
 71
     3
 72
    15
 73
    11
 74
     0
 42
0.00000001
 43
0.00000001
 40
0.0
 40
0.0
 40
0.0
 40
0.0
 40
0.1929527021649357
 40
0.3661841413840577
 40
0.5204572982944607
 40
0.6550121351900097
 40
0.7706242255759997
 40
0.8656771846793666
 40
0.9426745273198681
 40
1.0
 40
1.0
 40
1.0
 40
1.0
 10
41.16844222878799
 20
13.76940185746319
 30
0.0
 10
41.17132706292719
 20
13.76485340605765
 30
0.0
 10
41.17680187877816
 20
13.75622139026373
 30
0.0
 10
41.1845914545351
 20
13.74395868806524
 30
0.0
 10
41.19143719428484
 20
13.73301995749903
 30
0.0
 10
41.19743882483345
 20
13.72345248395968
 30
0.0
 10
41.20250536731604
 20
13.71524475602099
 30
0.0
 10
41.20665812149398
 20
13.70835922551012
 30
0.0
 10
41.20994780621915
 20
13.70285398998962
 30
0.0
 10
41.21181779937021
 20
13.69959635459306
 30
0.0
 10
41.21261586365316
 20
13.69820608080762
 30
0.0
  0
SPLINE
  5
2B5
330
1F
100
AcDbEntity
  8
0
  6
SLD-Solid
 62
     7
370
    25
100
AcDbSpline
210
0.0
220
0.0
230
1.0
 70
     8
 71
     3
 72
    15
 73
    11
 74
     0
 42
0.00000001
 43
0.00000001
 40
0.0
 40
0.0
 40
0.0
 40
0.0
 40
0.0592341891229447
 40
0.1363492805279907
 40
0.2338052120618149
 40
0.3494112238568944
 40
0.4831791503491671
 40
0.6359668555591125
 40
0.809243356367591
 40
0.9999999999999999
 40
0.9999999999999999
 40
0.9999999999999999
 40
0.9999999999999999
 10
41.1218641192412
 20
13.84738024225681
 30
0.0
 10
41.12265281970361
 20
13.8457751408268
 30
0.0
 10
41.12446830400742
 20
13.84208040931453
 30
0.0
 10
41.1279300607413
 20
13.83589005948031
 30
0.0
 10
41.13227730017206
 20
13.82824498239298
 30
0.0
 10
41.13767731322136
 20
13.81922519679598
 30
0.0
 10
41.143905930502
 20
13.80874783865601
 30
0.0
 10
41.15125185646528
 20
13.7969167628756
 30
0.0
 10
41.15950364332712
 20
13.78361897094224
 30
0.0
 10
41.16536882225097
 20
13.77429021140861
 30
0.0
 10
41.16844222878799
 20
13.76940185746319
 30
0.0
  0
SPLINE
  5
2B6
330
1F
100
AcDbEntity
  8
0
  6
SLD-Solid
 62
     7
370
    25
100
AcDbSpline
210
0.0
220
0.0
230
1.0
 70
     8
 71
     3
 72
    11
 73
     7
 74
     0
 42
0.00000001
 43
0.00000001
 40
0.0
 40
0.0
 40
0.0
 40
0.0
 40
0.2418813747501821
 40
0.4871154746783743
 40
0.7378378396463977
 40
1.0
 40
1.0
 40
1.0
 40
1.0
 10
41.11616207928194
 20
13.86963216182421
 30
0.0
 10
41.1162226629996
 20
13.86794883106152
 30
0.0
 10
41.11634467018769
 20
13.86455883683664
 30
0.0
 10
41.11752309354355
 20
13.85901331748848
 30
0.0
 10
41.11929931402383
 20
13.8532340311411
 30
0.0
 10
41.12099656520981
 20
13.84936030612718
 30
0.0
 10
41.1218641192412
 20
13.84738024225681
 30
0.0
  0
SPLINE
  5
2B7
330
1F
100
AcDbEntity
  8
0
  6
SLD-Solid
 62
     7
370
    25
100
AcDbSpline
210
0.0
220
0.0
230
1.0
 70
     8
 71
     3
 72
    15
 73
    11
 74
     0
 42
0.00000001
 43
0.00000001
 40
0.0
 40
0.0
 40
0.0
 40
0.0
 40
0.1481262583591575
 40
0.285992887489699
 40
0.4166343935606146
 40
0.5473799458012574
 40
0.6715828376102103
 40
0.784400738695991
 40
0.8932655763009623
 40
1.0
 40
1.0
 40
1.0
 40
1.0
 10
41.14391658703548
 20
13.87955118973802
 30
0.0
 10
41.1419628777163
 20
13.88059992185631
 30
0.0
 10
41.13819077832152
 20
13.88262474804201
 30
0.0
 10
41.13281337079033
 20
13.88421063190819
 30
0.0
 10
41.12803923180195
 20
13.88434610093387
 30
0.0
 10
41.12387302070525
 20
13.88332457100233
 30
0.0
 10
41.12057276684258
 20
13.88110146937683
 30
0.0
 10
41.11793777006083
 20
13.87829309790441
 30
0.0
 10
41.11645404545595
 20
13.87437081993209
 30
0.0
 10
41.11625875810508
 20
13.87120127472113
 30
0.0
 10
41.11616207928194
 20
13.86963216182421
 30
0.0
  0
SPLINE
  5
2B8
330
1F
100
AcDbEntity
  8
0
  6
SLD-Solid
 62
     7
370
    25
100
AcDbSpline
210
0.0
220
0.0
230
1.0
 70
     8
 71
     3
 72
    15
 73
    11
 74
     0
 42
0.00000001
 43
0.00000001
 40
0.0
 40
0.0
 40
0.0
 40
0.0
 40
0.1624203072014381
 40
0.3118243397330505
 40
0.448432766792581
 40
0.5733811968860474
 40
0.6890771468735459
 40
0.7975729005012512
 40
0.900293043077579
 40
1.0
 40
1.0
 40
1.0
 40
1.0
 10
41.19324266764698
 20
13.81045817836032
 30
0.0
 10
41.19127100341599
 20
13.81480806615756
 30
0.0
 10
41.18748568304814
 20
13.82315924412084
 30
0.0
 10
41.18135007355681
 20
13.83495762055255
 30
0.0
 10
41.17524216948724
 20
13.84552693183966
 30
0.0
 10
41.16910538482268
 20
13.85487042076806
 30
0.0
 10
41.16288532543935
 20
13.8629842442307
 30
0.0
 10
41.15659278845148
 20
13.86981922468252
 30
0.0
 10
41.15026344801163
 20
13.8755088560661
 30
0.0
 10
41.14601110826039
 20
13.87821718325737
 30
0.0
 10
41.14391658703548
 20
13.87955118973802
 30
0.0
  0
LINE
  5
2B9
330
1F
100
AcDbEntity
  8
0
  6
SLD-Solid
 62
     7
370
    25
100
AcDbLine
 10
41.1932426676
 20
13.8104581784
 30
0.0
 11
41.239271183
 21
13.8325166235
 31
0.0
  0
LINE
  5
2BA
330
1F
100
AcDbEntity
  8
0
  6
SLD-Solid
 62
     7
370
    25
100
AcDbLine
 10
41.3096192422
 20
13.8448195898
 30
0.0
 11
41.3096192422
 21
13.448797296
 31
0.0
  0
LINE
  5
2BB
330
1F
100
AcDbEntity
  8
0
  6
SLD-Solid
 62
     7
370
    25
100
AcDbLine
 10
41.3096192422
 20
13.448797296
 30
0.0
 11
41.3711737941
 21
13.4132626096
 31
0.0
  0
LINE
  5
2BC
330
1F
100
AcDbEntity
  8
0
  6
SLD-Solid
 62
     7
370
    25
100
AcDbLine
 10
41.3711737941
 20
13.4132626096
 30
0.0
 11
41.3711737941
 21
13.585887712
 31
0.0
  0
LINE
  5
2BD
330
1F
100
AcDbEntity
  8
0
  6
SLD-Solid
 62
     7
370
    25
100
AcDbLine
 10
41.3711737941
 20
13.585887712
 30
0.0
 11
41.4898861441
 21
13.5173565311
 31
0.0
  0
LINE
  5
2BE
330
1F
100
AcDbEntity
  8
0
  6
SLD-Solid
 62
     7
370
    25
100
AcDbLine
 10
41.4898861441
 20
13.5173565311
 30
0.0
 11
41.4898861441
 21
13.3447314287
 31
0.0
  0
LINE
  5
2BF
330
1F
100
AcDbEntity
  8
0
  6
SLD-Solid
 62
     7
370
    25
100
AcDbLine
 10
41.4898861441
 20
13.3447314287
 30
0.0
 11
41.5514406959
 21
13.3091967423
 31
0.0
  0
LINE
  5
2C0
330
1F
100
AcDbEntity
  8
0
  6
SLD-Solid
 62
     7
370
    25
100
AcDbLine
 10
41.5514406959
 20
13.3091967423
 30
0.0
 11
41.5514406959
 21
13.705219036
 31
0.0
  0
LINE
  5
2C1
330
1F
100
AcDbEntity
  8
0
  6
SLD-Solid
 62
     7
370
    25
100
AcDbLine
 10
41.5514406959
 20
13.705219036
 30
0.0
 11
41.4898861441
 21
13.7407537224
 31
0.0
  0
LINE
  5
2C2
330
1F
100
AcDbEntity
  8
0
  6
SLD-Solid
 62
     7
370
    25
100
AcDbLine
 10
41.4898861441
 20
13.7407537224
 30
0.0
 11
41.4898861441
 21
13.5884374556
 31
0.0
  0
LINE
  5
2C3
330
1F
100
AcDbEntity
  8
0
  6
SLD-Solid
 62
     7
370
    25
100
AcDbLine
 10
41.4898861441
 20
13.5884374556
 30
0.0
 11
41.3711737941
 21
13.6569686365
 31
0.0
  0
LINE
  5
2C4
330
1F
100
AcDbEntity
  8
0
  6
SLD-Solid
 62
     7
370
    25
100
AcDbLine
 10
41.3711737941
 20
13.6569686365
 30
0.0
 11
41.3711737941
 21
13.8092849034
 31
0.0
  0
LINE
  5
2C5
330
1F
100
AcDbEntity
  8
0
  6
SLD-Solid
 62
     7
370
    25
100
AcDbLine
 10
41.3711737941
 20
13.8092849034
 30
0.0
 11
41.3096192422
 21
13.8448195898
 31
0.0
  0
SPLINE
  5
2C6
330
1F
100
AcDbEntity
  8
0
  6
SLD-Solid
 62
     7
370
    25
100
AcDbSpline
210
0.0
220
0.0
230
1.0
 70
     8
 71
     3
 72
    11
 73
     7
 74
     0
 42
0.00000001
 43
0.00000001
 40
0.0
 40
0.0
 40
0.0
 40
0.0
 40
0.2843707772011583
 40
0.5687587091065979
 40
0.8532077203405827
 40
1.0
 40
1.0
 40
1.0
 40
1.0
 10
42.06874624886274
 20
13.41673931471477
 30
0.0
 10
42.05555286662644
 20
13.42346781757762
 30
0.0
 10
42.02916530626134
 20
13.43692522920114
 30
0.0
 10
41.99188000469596
 20
13.44240717270701
 30
0.0
 10
41.96272323474096
 20
13.4401304037336
 30
0.0
 10
41.94886162479413
 20
13.4315018601935
 30
0.0
 10
41.9441432052763
 20
13.42856474910711
 30
0.0
  0
SPLINE
  5
2C7
330
1F
100
AcDbEntity
  8
0
  6
SLD-Solid
 62
     7
370
    25
100
AcDbSpline
210
0.0
220
0.0
230
1.0
 70
     8
 71
     3
 72
    11
 73
     7
 74
     0
 42
0.00000001
 43
0.00000001
 40
0.0
 40
0.0
 40
0.0
 40
0.0
 40
0.1078644803357248
 40
0.4052573457676297
 40
0.7026015617781639
 40
1.0
 40
1.0
 40
1.0
 40
1.0
 10
41.9412079318042
 20
13.42696065139602
 30
0.0
 10
41.93752898620075
 20
13.42516586236646
 30
0.0
 10
41.92370682967769
 20
13.41842266538383
 30
0.0
 10
41.90712493300567
 20
13.39492829977348
 30
0.0
 10
41.89242045246919
 20
13.35841311155033
 30
0.0
 10
41.89080068744964
 20
13.32742249677426
 30
0.0
 10
41.88999073110352
 20
13.31192577669147
 30
0.0
  0
SPLINE
  5
2C8
330
1F
100
AcDbEntity
  8
0
  6
SLD-Solid
 62
     7
370
    25
100
AcDbSpline
210
0.0
220
0.0
230
1.0
 70
     8
 71
     3
 72
    23
 73
    19
 74
     0
 42
0.00000001
 43
0.00000001
 40
0.0
 40
0.0
 40
0.0
 40
0.0
 40
0.0667486513092663
 40
0.1311519760901756
 40
0.1937321970570959
 40
0.255325543378599
 40
0.3163881857773855
 40
0.3780268629068869
 40
0.4404056792054014
 40
0.5045574293240812
 40
0.5686582873620151
 40
0.6309861790900103
 40
0.6922881348732991
 40
0.7526154469796397
 40
0.813199538435563
 40
0.8740161248607818
 40
0.9361583555105316
 40
1.0
 40
1.0
 40
1.0
 40
1.0
 10
42.06922714379906
 20
13.00013057063496
 30
0.0
 10
42.06291981977734
 20
13.00393677053303
 30
0.0
 10
42.05052679020951
 20
13.01141543307129
 30
0.0
 10
42.03238953595815
 20
13.02496997131552
 30
0.0
 10
42.01501247919504
 20
13.0396473011282
 30
0.0
 10
41.99854159720274
 20
13.05608929912351
 30
0.0
 10
41.98280914812635
 20
13.07383898194389
 30
0.0
 10
41.96793072288944
 20
13.09310270090447
 30
0.0
 10
41.95391132161868
 20
13.11385992891432
 30
0.0
 10
41.94083136189802
 20
13.1357399121499
 30
0.0
 10
41.92898088671448
 20
13.15826020573438
 30
0.0
 10
41.91852051788555
 20
13.18086249012261
 30
0.0
 10
41.90969696473351
 20
13.20327781139572
 30
0.0
 10
41.90250990442179
 20
13.22551446279623
 30
0.0
 10
41.89684391478214
 20
13.24752666578232
 30
0.0
 10
41.89284720286243
 20
13.26934300215064
 30
0.0
 10
41.8904862497579
 20
13.29093603208748
 30
0.0
 10
41.89015738269932
 20
13.30486655822836
 30
0.0
 10
41.88999073110352
 20
13.31192577669147
 30
0.0
  0
SPLINE
  5
2C9
330
1F
100
AcDbEntity
  8
0
  6
SLD-Solid
 62
     7
370
    25
100
AcDbSpline
210
0.0
220
0.0
230
1.0
 70
     8
 71
     3
 72
    11
 73
     7
 74
     0
 42
0.00000001
 43
0.00000001
 40
0.0
 40
0.0
 40
0.0
 40
0.0
 40
0.3033865029566753
 40
0.6065878704831085
 40
0.9098550551303187
 40
0.9999999999999999
 40
0.9999999999999999
 40
0.9999999999999999
 40
0.9999999999999999
 10
42.06922714379906
 20
13.00013057063496
 30
0.0
 10
42.08234790412346
 20
12.99334612237135
 30
0.0
 10
42.1085814180957
 20
12.97978136591542
 30
0.0
 10
42.14578962896107
 20
12.97377719286311
 30
0.0
 10
42.17217003910091
 20
12.97624266127055
 30
0.0
 10
42.18399341819774
 20
12.98347676509618
 30
0.0
 10
42.18670258188867
 20
12.98513435987177
 30
0.0
  0
SPLINE
  5
2CA
330
1F
100
AcDbEntity
  8
0
  6
SLD-Solid
 62
     7
370
    25
100
AcDbSpline
210
0.0
220
0.0
230
1.0
 70
     8
 71
     3
 72
    11
 73
     7
 74
     0
 42
0.00000001
 43
0.00000001
 40
0.0
 40
0.0
 40
0.0
 40
0.0
 40
0.1173088742160426
 40
0.4115039082733833
 40
0.7056624366749435
 40
1.0
 40
1.0
 40
1.0
 40
1.0
 10
42.1946638783829
 20
12.98961599607435
 30
0.0
 10
42.19865366911085
 20
12.99162819243475
 30
0.0
 10
42.21264932364863
 20
12.99868670929506
 30
0.0
 10
42.22984268057862
 20
13.02175756078036
 30
0.0
 10
42.24392815947009
 20
13.05866083471601
 30
0.0
 10
42.24539442519178
 20
13.08953954708752
 30
0.0
 10
42.2461277810896
 20
13.10498360030354
 30
0.0
  0
SPLINE
  5
2CB
330
1F
100
AcDbEntity
  8
0
  6
SLD-Solid
 62
     7
370
    25
100
AcDbSpline
210
0.0
220
0.0
230
1.0
 70
     8
 71
     3
 72
    23
 73
    19
 74
     0
 42
0.00000001
 43
0.00000001
 40
0.0
 40
0.0
 40
0.0
 40
0.0
 40
0.0633955966615904
 40
0.1251572666424213
 40
0.1856494665262528
 40
0.2459766793408154
 40
0.3061083686579567
 40
0.3673505880891748
 40
0.4299020782799139
 40
0.4945399581831937
 40
0.5593725826940478
 40
0.622409685845737
 40
0.6843574258194752
 40
0.7458066007722107
 40
0.807430275015915
 40
0.8699955160697819
 40
0.9339278677192728
 40
1.0
 40
1.0
 40
1.0
 40
1.0
 10
42.06874624886274
 20
13.41673931471477
 30
0.0
 10
42.0747087990899
 20
13.41311893413625
 30
0.0
 10
42.08648022373053
 20
13.40597148287349
 30
0.0
 10
42.10379174150962
 20
13.3930439579094
 30
0.0
 10
42.12047458977815
 20
13.37863295059018
 30
0.0
 10
42.13652122460012
 20
13.3627245961623
 30
0.0
 10
42.15189146704655
 20
13.34516211368203
 30
0.0
 10
42.16663953310869
 20
13.32616055597667
 30
0.0
 10
42.18071259591292
 20
13.30555247066722
 30
0.0
 10
42.19396644599612
 20
13.2837123364079
 30
0.0
 10
42.20621539385397
 20
13.26121141507831
 30
0.0
 10
42.21682911432692
 20
13.23847137103022
 30
0.0
 10
42.2258801057697
 20
13.21588080809898
 30
0.0
 10
42.23338159169311
 20
13.19338556105231
 30
0.0
 10
42.2390953694843
 20
13.17099734190409
 30
0.0
 10
42.24310496369456
 20
13.1487652653254
 30
0.0
 10
42.24568092932476
 20
13.12653880955335
 30
0.0
 10
42.24597720500619
 20
13.11224708059208
 30
0.0
 10
42.2461277810896
 20
13.10498360030354
 30
0.0
  0
LWPOLYLINE
  5
2CC
330
1F
100
AcDbEntity
  8
0
  6
SLD-Solid
 62
     7
370
    25
100
AcDbPolyline
 90
       44
 70
   128
 43
0.0
 10
41.6946387516
 20
15.3061690565
 10
41.6540719417
 20
15.3011539519
 10
41.6158505692
 20
15.2907394647
 10
41.5802762966
 20
15.2750077915
 10
41.5476298944
 20
15.2540830944
 10
41.5181690246
 20
15.2281305221
 10
41.4921262073
 20
15.1973549053
 10
41.4697069857
 20
15.161999141
 10
41.4510883039
 20
15.1223422748
 10
41.4364171099
 20
15.078697299
 10
41.4258091963
 20
15.0314086821
 10
41.4193482861
 20
14.9808496498
 10
41.4170853722
 20
14.92741924
 10
41.4190383146
 20
14.8715391525
 10
41.4251916997
 20
14.8136504216
 10
41.4354969619
 20
14.7542099347
 10
41.4498727667
 20
14.6936868264
 10
41.4682056529
 20
14.632558776
 10
41.4903509282
 20
14.5713082371
 10
41.5161338107
 20
14.5104186304
 10
41.5453508086
 20
14.4503705276
 10
41.5777713266
 20
14.3916378591
 10
41.6131394855
 20
14.3346841729
 10
41.6511761415
 20
14.2799589767
 10
41.6915810901
 20
14.2278941895
 10
41.7340354348
 20
14.1789007333
 10
41.7782041043
 20
14.1333652895
 10
41.8237384968
 20
14.0916472468
 10
41.8702792318
 20
14.0540758655
 10
41.9174589859
 20
14.0209476781
 10
41.9649053925
 20
13.992524149
 10
42.0122439805
 20
13.9690296113
 10
42.0591011294
 20
13.9506494959
 10
42.1051070187
 20
13.9375288679
 10
42.1498985466
 20
13.9297712822
 10
42.1931221954
 20
13.9274379655
 10
42.234436822
 20
13.9305473335
 10
42.2735163504
 20
13.9390748455
 10
42.310052345
 20
13.9529531981
 10
42.343756445
 20
13.9720728562
 10
42.3743626404
 20
13.9962829178
 10
42.4016293717
 20
14.0253923045
 10
42.4253414359
 20
14.0591712705
 10
42.4453116852
 20
14.0973532147
  0
LINE
  5
2CD
330
1F
100
AcDbEntity
  8
0
  6
SLD-Solid
 62
     7
370
    25
100
AcDbLine
 10
42.3330380325
 20
14.4260517165
 30
0.0
 11
42.4453116852
 21
14.0973532147
 31
0.0
  0
LWPOLYLINE
  5
2CE
330
1F
100
AcDbEntity
  8
0
  6
SLD-Solid
 62
     7
370
    25
100
AcDbPolyline
 90
       40
 70
   128
 43
0.0
 10
41.7167537919
 20
15.1015768689
 10
41.6861817475
 20
15.0887315331
 10
41.6585641869
 20
15.0706285468
 10
41.6342089451
 20
15.0474696923
 10
41.6133874943
 20
15.0195131065
 10
41.596331918
 20
14.9870704035
 10
41.5832323235
 20
14.950503201
 10
41.5742347236
 20
14.9102190902
 10
41.5694394088
 20
14.8666670921
 10
41.5688998294
 20
14.8203326528
 10
41.5726219996
 20
14.7717322323
 10
41.5805644309
 20
14.7214075484
 10
41.5926385941
 20
14.6699195377
 10
41.6087099063
 20
14.617842104
 10
41.6285992309
 20
14.5657557209
 10
41.6520848744
 20
14.5142409618
 10
41.6789050576
 20
14.4638720284
 10
41.708760833
 20
14.4152103508
 10
41.7413194176
 20
14.3687983293
 10
41.7762179019
 20
14.325153289
 10
41.8130672949
 20
14.2847617129
 10
41.8514568602
 20
14.2480738199
 10
41.8909586939
 20
14.2154985463
 10
41.9311324948
 20
14.1873989876
 10
41.9715304711
 20
14.1640883517
 10
42.0117023329
 20
14.145826467
 10
42.0512003101
 20
14.1328168871
 10
42.0895841443
 20
14.1252046214
 10
42.1264259957
 20
14.1230745189
 10
42.1613152117
 20
14.1264503224
 10
42.1938629049
 20
14.1352944041
 10
42.2237062871
 20
14.1495081847
 10
42.2505127132
 20
14.1689332323
 10
42.2739833894
 20
14.1933530285
 10
42.2938567032
 20
14.2224953814
 10
42.3099111394
 20
14.2560354602
 10
42.3219677497
 20
14.2935994151
 10
42.3298921468
 20
14.3347685449
 10
42.3335960026
 20
14.3790839638
 10
42.3330380325
 20
14.4260517165
  0
LINE
  5
2CF
330
1F
100
AcDbEntity
  8
0
  6
SLD-Solid
 62
     7
370
    25
100
AcDbLine
 10
41.6946387516
 20
15.3061690565
 30
0.0
 11
41.7167537919
 21
15.1015768689
 31
0.0
  0
LINE
  5
2D0
330
1F
100
AcDbEntity
  8
0
  6
SLD-Solid
 62
     7
370
    25
100
AcDbLine
 10
43.4962563083
 20
11.362180571
 30
0.0
 11
43.495902755
 21
11.361976469
 31
0.0
  0
LINE
  5
2D1
330
1F
100
AcDbEntity
  8
0
  6
SLD-Solid
 62
     7
370
    25
100
AcDbLine
 10
42.2768646917
 20
14.8490809359
 30
0.0
 11
41.9141982903
 21
15.058443793
 31
0.0
  0
LINE
  5
2D2
330
1F
100
AcDbEntity
  8
0
  6
SLD-Solid
 62
     7
370
    25
100
AcDbLine
 10
42.5792960318
 20
13.8670675876
 30
0.0
 11
42.8706780463
 21
13.8641715462
 31
0.0
  0
LINE
  5
2D3
330
1F
100
AcDbEntity
  8
0
  6
SLD-Solid
 62
     7
370
    25
100
AcDbLine
 10
42.3465474797
 20
14.5484750111
 30
0.0
 11
42.5792960318
 21
13.8670675876
 31
0.0
  0
LINE
  5
2D4
330
1F
100
AcDbEntity
  8
0
  6
SLD-Solid
 62
     7
370
    25
100
AcDbLine
 10
41.8008487756
 20
14.8635001675
 30
0.0
 11
42.3465474797
 21
14.5484750111
 31
0.0
  0
LINE
  5
2D5
330
1F
100
AcDbEntity
  8
0
  6
SLD-Solid
 62
     7
370
    25
100
AcDbLine
 10
41.7037746291
 20
15.7615592124
 30
0.0
 11
41.8008487756
 21
14.8635001675
 31
0.0
  0
ARC
  5
2D6
330
1F
100
AcDbEntity
  8
0
  6
SLD-Solid
 62
     7
370
    25
100
AcDbCircle
 10
41.8903270673
 20
15.6138923513
 30
0.0
 40
0.0769374597451016
100
AcDbArc
 50
248.3045245742
 51
297.9796595398
  0
ARC
  5
2D7
330
1F
100
AcDbEntity
  8
0
  6
SLD-Solid
 62
     7
370
    25
100
AcDbCircle
 10
41.80186417
 20
15.7862665795
 30
0.0
 40
0.1011534083501391
100
AcDbArc
 50
126.9677438278
 51
194.1378933956
  0
LINE
  5
2D8
330
1F
100
AcDbEntity
  8
0
  6
SLD-Solid
 62
     7
370
    25
100
AcDbLine
 10
41.8618853362
 20
15.5424050053
 30
0.0
 11
41.8611782294
 21
15.5419968012
 31
0.0
  0
LINE
  5
2D9
330
1F
100
AcDbEntity
  8
0
  6
SLD-Solid
 62
     7
370
    25
100
AcDbLine
 10
41.7037746291
 20
15.7615592124
 30
0.0
 11
41.7030675223
 21
15.7611510084
 31
0.0
  0
LWPOLYLINE
  5
2DA
330
1F
100
AcDbEntity
  8
0
  6
SLD-Solid
 62
     7
370
    25
100
AcDbPolyline
 90
       37
 70
   128
 43
0.0
 10
41.5742727423
 20
15.2716772764
 10
41.5483370012
 20
15.2544912985
 10
41.5188761313
 20
15.2285387261
 10
41.492833314
 20
15.1977631093
 10
41.4704140925
 20
15.162407345
 10
41.4517954107
 20
15.1227504789
 10
41.4371242167
 20
15.0791055031
 10
41.4265163031
 20
15.0318168861
 10
41.4200553929
 20
14.9812578539
 10
41.417792479
 20
14.927827444
 10
41.4197454214
 20
14.8719473566
 10
41.4258988065
 20
14.8140586257
 10
41.4362040686
 20
14.7546181388
 10
41.4505798734
 20
14.6940950305
 10
41.4689127597
 20
14.63296698
 10
41.491058035
 20
14.5717164412
 10
41.5168409174
 20
14.5108268345
 10
41.5460579154
 20
14.4507787317
 10
41.5784784334
 20
14.3920460631
 10
41.6138465922
 20
14.335092377
 10
41.6518832483
 20
14.2803671807
 10
41.6922881969
 20
14.2283023936
 10
41.7347425416
 20
14.1793089374
 10
41.7789112111
 20
14.1337734935
 10
41.8244456036
 20
14.0920554509
 10
41.8709863385
 20
14.0544840696
 10
41.9181660927
 20
14.0213558821
 10
41.9656124993
 20
13.992932353
 10
42.0129510872
 20
13.9694378153
 10
42.0598082361
 20
13.9510576999
 10
42.1058141255
 20
13.937937072
 10
42.1506056534
 20
13.9301794862
 10
42.1938293022
 20
13.9278461695
 10
42.2351439288
 20
13.9309555375
 10
42.2742234572
 20
13.9394830496
 10
42.3107594517
 20
13.9533614022
 10
42.3296304711
 20
13.963217538
  0
LWPOLYLINE
  5
2DB
330
1F
100
AcDbEntity
  8
0
  6
SLD-Solid
 62
     7
370
    25
100
AcDbPolyline
 90
        3
 70
   128
 43
0.0
 10
41.7174608987
 20
15.101985073
 10
41.6868888543
 20
15.0891397372
 10
41.6814045086
 20
15.0860995064
  0
LWPOLYLINE
  5
2DC
330
1F
100
AcDbEntity
  8
0
  6
SLD-Solid
 62
     7
370
    25
100
AcDbPolyline
 90
       10
 70
   128
 43
0.0
 10
42.2224987048
 20
14.148795308
 10
42.2244133938
 20
14.1499163887
 10
42.25121982
 20
14.1693414364
 10
42.2746904962
 20
14.1937612325
 10
42.2945638099
 20
14.2229035855
 10
42.3106182462
 20
14.2564436642
 10
42.3226748565
 20
14.2940076191
 10
42.3305992536
 20
14.3351767489
 10
42.3343031094
 20
14.3794921679
 10
42.3337451393
 20
14.4264599206
  0
LINE
  5
2DD
330
1F
100
AcDbEntity
  8
0
  6
SLD-Solid
 62
     7
370
    25
100
AcDbLine
 10
42.3465474797
 20
14.5484750111
 30
0.0
 11
42.3458403729
 21
14.548066807
 31
0.0
  0
LINE
  5
2DE
330
1F
100
AcDbEntity
  8
0
  6
SLD-Solid
 62
     7
370
    25
100
AcDbLine
 10
42.5792960318
 20
13.8670675876
 30
0.0
 11
42.578588925
 21
13.8666593836
 31
0.0
  0
LINE
  5
2DF
330
1F
100
AcDbEntity
  8
0
  6
SLD-Solid
 62
     7
370
    25
100
AcDbLine
 10
41.8008487756
 20
14.8635001675
 30
0.0
 11
41.8001416688
 21
14.8630919634
 31
0.0
  0
LINE
  5
2E0
330
1F
100
AcDbEntity
  8
0
  6
SLD-Solid
 62
     7
370
    25
100
AcDbLine
 10
41.9141982903
 20
15.058443793
 30
0.0
 11
41.9134911835
 21
15.058035589
 31
0.0
  0
LWPOLYLINE
  5
2E1
330
1F
100
AcDbEntity
  8
0
  6
SLD-Solid
 62
     7
370
    25
100
AcDbPolyline
 90
       21
 70
   128
 43
0.0
 10
41.0373571413
 20
16.4671212242
 10
41.0306148141
 20
16.4637089554
 10
41.0107885725
 20
16.4582216343
 10
40.9887693847
 20
16.4581130448
 10
40.9651907027
 20
16.4633863107
 10
40.9407308421
 20
16.4738897298
 10
40.9160934688
 20
16.4893211379
 10
40.8919873549
 20
16.5092366014
 10
40.8691059896
 20
16.5330631887
 10
40.8481076281
 20
16.5601154523
 10
40.8295963549
 20
16.5896151479
 10
40.8141047058
 20
16.6207136228
 10
40.8020783472
 20
16.6525162306
 10
40.7938632556
 20
16.6841080681
 10
40.7896957642
 20
16.7145802958
 10
40.7896957642
 20
16.743056283
 10
40.7938632556
 20
16.7687168276
 10
40.8020783472
 20
16.7908237222
 10
40.8141047058
 20
16.808740992
 10
40.8295963549
 20
16.8219531895
 10
40.8317636272
 20
16.8232582245
  0
LINE
  5
2E2
330
1F
100
AcDbEntity
  8
0
  6
SLD-Solid
 62
     7
370
    25
100
AcDbLine
 10
41.276405847
 20
15.4559072677
 30
0.0
 11
41.1643148181
 21
15.9989653062
 31
0.0
  0
LWPOLYLINE
  5
2E3
330
1F
100
AcDbEntity
  8
0
  6
SLD-Solid
 62
     7
370
    25
100
AcDbPolyline
 90
        7
 70
   128
 43
0.0
 10
41.1383000746
 20
16.026428062
 10
41.1411329589
 20
16.0273671902
 10
41.1471841801
 20
16.0263167264
 10
41.153569993
 20
16.021983445
 10
41.1591605226
 20
16.0151340559
 10
41.1629666078
 20
16.0069804568
 10
41.1643148181
 20
15.9989653062
  0
LINE
  5
2E4
330
1F
100
AcDbEntity
  8
0
  6
SLD-Solid
 62
     7
370
    25
100
AcDbLine
 10
41.1280780688
 20
15.2797440723
 30
0.0
 11
41.295316834
 21
15.1831991882
 31
0.0
  0
LWPOLYLINE
  5
2E5
330
1F
100
AcDbEntity
  8
0
  6
SLD-Solid
 62
     7
370
    25
100
AcDbPolyline
 90
       12
 70
   128
 43
0.0
 10
41.1075701938
 20
14.518386331
 10
41.1000783982
 20
14.514980656
 10
41.0830786602
 20
14.5124596284
 10
41.0641282519
 20
14.5157421921
 10
41.0441774258
 20
14.5246637459
 10
41.0242265998
 20
14.5387769256
 10
41.0052761914
 20
14.5573740375
 10
40.9882764534
 20
14.5795225449
 10
40.9740798236
 20
14.604111829
 10
40.9633981803
 20
14.6299088804
 10
40.9567671456
 20
14.6556201273
 10
40.9545192274
 20
14.6799563004
  0
LINE
  5
2E6
330
1F
100
AcDbEntity
  8
0
  6
SLD-Solid
 62
     7
370
    25
100
AcDbLine
 10
40.9545192274
 20
14.6799563004
 30
0.0
 11
40.9545192274
 21
15.3396706214
 31
0.0
  0
LWPOLYLINE
  5
2E7
330
1F
100
AcDbEntity
  8
0
  6
SLD-Solid
 62
     7
370
    25
100
AcDbPolyline
 90
        7
 70
   128
 43
0.0
 10
40.9204484978
 20
15.3756377692
 10
40.9269224656
 20
15.3768952239
 10
40.9345603842
 20
15.3742403517
 10
40.9421983028
 20
15.3680766707
 10
40.9486734176
 20
15.3593425456
 10
40.9529999509
 20
15.3493676675
 10
40.9545192274
 20
15.3396706214
  0
LWPOLYLINE
  5
2E8
330
1F
100
AcDbEntity
  8
0
  6
SLD-Solid
 62
     7
370
    25
100
AcDbPolyline
 90
       12
 70
   128
 43
0.0
 10
40.7352851441
 20
14.8065174428
 10
40.7375330624
 20
14.7821812696
 10
40.744164097
 20
14.7564700227
 10
40.7548457404
 20
14.7306729713
 10
40.7690423702
 20
14.7060836872
 10
40.7860421082
 20
14.6839351799
 10
40.8049925165
 20
14.6653380679
 10
40.8249433426
 20
14.6512248882
 10
40.8448941687
 20
14.6423033345
 10
40.863844577
 20
14.6390207707
 10
40.880844315
 20
14.6415417983
 10
40.8883361105
 20
14.6449474733
  0
LINE
  5
2E9
330
1F
100
AcDbEntity
  8
0
  6
SLD-Solid
 62
     7
370
    25
100
AcDbLine
 10
40.7352851441
 20
14.8065174428
 30
0.0
 11
40.7410426996
 21
15.5031748351
 31
0.0
  0
LINE
  5
2EA
330
1F
100
AcDbEntity
  8
0
  6
SLD-Solid
 62
     7
370
    25
100
AcDbLine
 10
40.7410426996
 20
15.5031748351
 30
0.0
 11
40.5729171943
 21
15.6002316234
 31
0.0
  0
LINE
  5
2EB
330
1F
100
AcDbEntity
  8
0
  6
SLD-Solid
 62
     7
370
    25
100
AcDbLine
 10
40.5729171943
 20
15.6002316234
 30
0.0
 11
40.7348158356
 21
16.2425761367
 31
0.0
  0
LWPOLYLINE
  5
2EC
330
1F
100
AcDbEntity
  8
0
  6
SLD-Solid
 62
     7
370
    25
100
AcDbPolyline
 90
        8
 70
   128
 43
0.0
 10
40.7348158356
 20
16.2425761367
 10
40.7350524224
 20
16.2498369302
 10
40.7326337652
 20
16.2580884841
 10
40.7279878095
 20
16.2658708082
 10
40.7219365883
 20
16.2718069357
 10
40.7155507755
 20
16.274846557
 10
40.7099602458
 20
16.274451856
 10
40.7092704007
 20
16.2741016209
  0
LWPOLYLINE
  5
2ED
330
1F
100
AcDbEntity
  8
0
  6
SLD-Solid
 62
     7
370
    25
100
AcDbPolyline
 90
       12
 70
   128
 43
0.0
 10
40.4701928383
 20
15.9596088889
 10
40.4679898432
 20
15.9419190159
 10
40.4701118173
 20
15.921720074
 10
40.4764141517
 20
15.9003885875
 10
40.4864673525
 20
15.8793782621
 10
40.4995863109
 20
15.8601209168
 10
40.5148769914
 20
15.8439289077
 10
40.5312973594
 20
15.8319056936
 10
40.5477283941
 20
15.8248706367
 10
40.5630503475
 20
15.8233031643
 10
40.5762190539
 20
15.8273100972
 10
40.57632622
 20
15.8273716682
  0
LINE
  5
2EE
330
1F
100
AcDbEntity
  8
0
  6
SLD-Solid
 62
     7
370
    25
100
AcDbLine
 10
40.6112112852
 20
16.4799978996
 30
0.0
 11
40.4701928383
 21
15.9596088889
 31
0.0
  0
ARC
  5
2EF
330
1F
100
AcDbEntity
  8
0
  6
SLD-Solid
 62
     7
370
    25
100
AcDbCircle
 10
40.6879884355
 20
16.4636328033
 30
0.0
 40
0.0785018928705385
100
AcDbArc
 50
121.6081697479
 51
167.9674388941
  0
LWPOLYLINE
  5
2F0
330
1F
100
AcDbEntity
  8
0
  6
SLD-Solid
 62
     7
370
    25
100
AcDbPolyline
 90
        9
 70
   128
 43
0.0
 10
41.3825392288
 20
15.3619548049
 10
41.3695344576
 20
15.3579105415
 10
41.3542437771
 20
15.3593727764
 10
41.337823409
 20
15.3663081157
 10
41.3213923744
 20
15.3782439276
 10
41.3060704209
 20
15.3943668061
 10
41.2929017146
 20
15.4135780037
 10
41.2827836808
 20
15.4345683091
 10
41.276405847
 20
15.4559072677
  0
LINE
  5
2F1
330
1F
100
AcDbEntity
  8
0
  6
SLD-Solid
 62
     7
370
    25
100
AcDbLine
 10
42.8774154909
 20
12.663926388
 30
0.0
 11
42.9560971167
 21
12.8943281446
 31
0.0
  0
LINE
  5
2F2
330
1F
100
AcDbEntity
  8
0
  6
SLD-Solid
 62
     7
370
    25
100
AcDbLine
 10
43.0770544653
 20
12.4288868639
 30
0.0
 11
43.0151575406
 21
12.4646191979
 31
0.0
  0
LINE
  5
2F3
330
1F
100
AcDbEntity
  8
0
  6
SLD-Solid
 62
     7
370
    25
100
AcDbLine
 10
43.0151575406
 20
12.4646191979
 30
0.0
 11
42.9785408261
 21
12.7358894467
 31
0.0
  0
LINE
  5
2F4
330
1F
100
AcDbEntity
  8
0
  6
SLD-Solid
 62
     7
370
    25
100
AcDbLine
 10
42.9069937981
 20
12.5270607974
 30
0.0
 11
42.8471878092
 21
12.5615860598
 31
0.0
  0
LINE
  5
2F5
330
1F
100
AcDbEntity
  8
0
  6
SLD-Solid
 62
     7
370
    25
100
AcDbLine
 10
42.8471878092
 20
12.5615860598
 30
0.0
 11
42.7762901558
 21
12.8526462734
 31
0.0
  0
LINE
  5
2F6
330
1F
100
AcDbEntity
  8
0
  6
SLD-Solid
 62
     7
370
    25
100
AcDbLine
 10
42.7394482319
 20
12.6237827939
 30
0.0
 11
42.6773631974
 21
12.6596237214
 31
0.0
  0
LINE
  5
2F7
330
1F
100
AcDbEntity
  8
0
  6
SLD-Solid
 62
     7
370
    25
100
AcDbLine
 10
42.6773631974
 20
12.6596237214
 30
0.0
 11
42.7352169927
 21
13.0218395261
 31
0.0
  0
LINE
  5
2F8
330
1F
100
AcDbEntity
  8
0
  6
SLD-Solid
 62
     7
370
    25
100
AcDbLine
 10
41.1643148181
 20
15.9989653062
 30
0.0
 11
41.1636077113
 21
15.9985571022
 31
0.0
  0
LINE
  5
2F9
330
1F
100
AcDbEntity
  8
0
  6
SLD-Solid
 62
     7
370
    25
100
AcDbLine
 10
41.276405847
 20
15.4559072677
 30
0.0
 11
41.2756987403
 21
15.4554990636
 31
0.0
  0
LINE
  5
2FA
330
1F
100
AcDbEntity
  8
0
  6
SLD-Solid
 62
     7
370
    25
100
AcDbLine
 10
42.8774154909
 20
12.663926388
 30
0.0
 11
42.8770619375
 21
12.663722286
 31
0.0
  0
LINE
  5
2FB
330
1F
100
AcDbEntity
  8
0
  6
SLD-Solid
 62
     7
370
    25
100
AcDbLine
 10
43.0151575406
 20
12.4646191979
 30
0.0
 11
43.0148039872
 21
12.4644150959
 31
0.0
  0
LINE
  5
2FC
330
1F
100
AcDbEntity
  8
0
  6
SLD-Solid
 62
     7
370
    25
100
AcDbLine
 10
42.9785408261
 20
12.7358894467
 30
0.0
 11
42.9781872727
 21
12.7356853447
 31
0.0
  0
LINE
  5
2FD
330
1F
100
AcDbEntity
  8
0
  6
SLD-Solid
 62
     7
370
    25
100
AcDbLine
 10
40.6112112852
 20
16.4799978996
 30
0.0
 11
40.6105041784
 21
16.4795896956
 31
0.0
  0
LINE
  5
2FE
330
1F
100
AcDbEntity
  8
0
  6
SLD-Solid
 62
     7
370
    25
100
AcDbLine
 10
42.6773631974
 20
12.6596237214
 30
0.0
 11
42.677009644
 21
12.6594196194
 31
0.0
  0
LINE
  5
2FF
330
1F
100
AcDbEntity
  8
0
  6
SLD-Solid
 62
     7
370
    25
100
AcDbLine
 10
42.8471878092
 20
12.5615860598
 30
0.0
 11
42.8468342558
 21
12.5613819578
 31
0.0
  0
LINE
  5
300
330
1F
100
AcDbEntity
  8
0
  6
SLD-Solid
 62
     7
370
    25
100
AcDbLine
 10
42.7762901558
 20
12.8526462734
 30
0.0
 11
42.7759366024
 21
12.8524421714
 31
0.0
  0
SPLINE
  5
301
330
1F
100
AcDbEntity
  8
0
  6
SLD-Solid
 62
     7
370
    25
100
AcDbSpline
210
0.0
220
0.0
230
1.0
 70
     8
 71
     3
 72
    11
 73
     7
 74
     0
 42
0.00000001
 43
0.00000001
 40
0.0
 40
0.0
 40
0.0
 40
0.0
 40
0.0963509968106699
 40
0.3975705782074274
 40
0.6986843484198755
 40
1.0
 40
1.0
 40
1.0
 40
1.0
 10
42.59226545705634
 20
12.75705874705689
 30
0.0
 10
42.58930797206573
 20
12.75502926860414
 30
0.0
 10
42.5771045797119
 20
12.74665508516414
 30
0.0
 10
42.54969765559444
 20
12.74280275034795
 30
0.0
 10
42.51091694959953
 20
12.74816787767325
 30
0.0
 10
42.48343224282615
 20
12.76229385531351
 30
0.0
 10
42.46968528421104
 20
12.76935921102641
 30
0.0
  0
SPLINE
  5
302
330
1F
100
AcDbEntity
  8
0
  6
SLD-Solid
 62
     7
370
    25
100
AcDbSpline
210
0.0
220
0.0
230
1.0
 70
     8
 71
     3
 72
    23
 73
    19
 74
     0
 42
0.00000001
 43
0.00000001
 40
0.0
 40
0.0
 40
0.0
 40
0.0
 40
0.0667486513092666
 40
0.1311519760901755
 40
0.1937321970570959
 40
0.2553255433785992
 40
0.3163881857773856
 40
0.378026862906887
 40
0.4404056792054015
 40
0.504557429324081
 40
0.5686582873620152
 40
0.6309861790900102
 40
0.692288134873299
 40
0.7526154469796394
 40
0.813199538435563
 40
0.8740161248607817
 40
0.9361583555105316
 40
1.0
 40
1.0
 40
1.0
 40
1.0
 10
42.46968528421104
 20
12.76935921102641
 30
0.0
 10
42.46337796018933
 20
12.77316541092448
 30
0.0
 10
42.45098493062149
 20
12.78064407346273
 30
0.0
 10
42.43284767637013
 20
12.79419861170696
 30
0.0
 10
42.41547061960703
 20
12.80887594151965
 30
0.0
 10
42.39899973761472
 20
12.82531793951496
 30
0.0
 10
42.38326728853833
 20
12.84306762233534
 30
0.0
 10
42.36838886330141
 20
12.86233134129592
 30
0.0
 10
42.35436946203066
 20
12.88308856930577
 30
0.0
 10
42.34128950231
 20
12.90496855254134
 30
0.0
 10
42.32943902712647
 20
12.92748884612582
 30
0.0
 10
42.31897865829752
 20
12.95009113051406
 30
0.0
 10
42.3101551051455
 20
12.97250645178717
 30
0.0
 10
42.30296804483377
 20
12.99474310318768
 30
0.0
 10
42.29730205519412
 20
13.01675530617377
 30
0.0
 10
42.29330534327442
 20
13.03857164254209
 30
0.0
 10
42.29094439016988
 20
13.06016467247893
 30
0.0
 10
42.29061552311131
 20
13.0740951986198
 30
0.0
 10
42.2904488715155
 20
13.08115441708292
 30
0.0
  0
SPLINE
  5
303
330
1F
100
AcDbEntity
  8
0
  6
SLD-Solid
 62
     7
370
    25
100
AcDbSpline
210
0.0
220
0.0
230
1.0
 70
     8
 71
     3
 72
    11
 73
     7
 74
     0
 42
0.00000001
 43
0.00000001
 40
0.0
 40
0.0
 40
0.0
 40
0.0
 40
0.2757375919072251
 40
0.5514241603980556
 40
0.8271502541529197
 40
1.0
 40
1.0
 40
1.0
 40
1.0
 10
42.2904488715155
 20
13.08115441708292
 30
0.0
 10
42.2911895748726
 20
13.09595642982223
 30
0.0
 10
42.29267084452453
 20
13.12555771628638
 30
0.0
 10
42.30597128036
 20
13.16117875968934
 30
0.0
 10
42.32316881777994
 20
13.18643721182519
 30
0.0
 10
42.33862652903503
 20
13.19469854904063
 30
0.0
 10
42.34458284951852
 20
13.19788189043349
 30
0.0
  0
SPLINE
  5
304
330
1F
100
AcDbEntity
  8
0
  6
SLD-Solid
 62
     7
370
    25
100
AcDbSpline
210
0.0
220
0.0
230
1.0
 70
     8
 71
     3
 72
    23
 73
    19
 74
     0
 42
0.00000001
 43
0.00000001
 40
0.0
 40
0.0
 40
0.0
 40
0.0
 40
0.0659391240576586
 40
0.1297911093795351
 40
0.1921752363053296
 40
0.2536170442157547
 40
0.3147191079962374
 40
0.3762822754113758
 40
0.4389729923739132
 40
0.5031747018386419
 40
0.5673294646239474
 40
0.6296509938060325
 40
0.6906498673030979
 40
0.7512376127977867
 40
0.8117541138236056
 40
0.8727877774488529
 40
0.9355396326682295
 40
1.0
 40
1.0
 40
1.0
 40
1.0
 10
42.58503136965214
 20
12.9106989037683
 30
0.0
 10
42.58492287685183
 20
12.91547422482697
 30
0.0
 10
42.58470932532058
 20
12.92487371605019
 30
0.0
 10
42.58310746312906
 20
12.93943528605024
 30
0.0
 10
42.58041845876549
 20
12.95405405377721
 30
0.0
 10
42.57669482227753
 20
12.96872104469969
 30
0.0
 10
42.57193993566384
 20
12.98344657811116
 30
0.0
 10
42.56606003599507
 20
12.99824265134214
 30
0.0
 10
42.55907575511127
 20
13.01308633124864
 30
0.0
 10
42.5511478358033
 20
13.02781114511662
 30
0.0
 10
42.54251878289665
 20
13.04211806675169
 30
0.0
 10
42.53325463239545
 20
13.05555896446756
 30
0.0
 10
42.52361460562909
 20
13.06815643453623
 30
0.0
 10
42.51337751334945
 20
13.07957508115315
 30
0.0
 10
42.50275279789521
 20
13.09009752700561
 30
0.0
 10
42.49167562668825
 20
13.0997243115149
 30
0.0
 10
42.48010404426425
 20
13.10821193455964
 30
0.0
 10
42.47223165747954
 20
13.11301066857352
 30
0.0
 10
42.46824259940207
 20
13.11544226005945
 30
0.0
  0
SPLINE
  5
305
330
1F
100
AcDbEntity
  8
0
  6
SLD-Solid
 62
     7
370
    25
100
AcDbSpline
210
0.0
220
0.0
230
1.0
 70
     8
 71
     3
 72
    10
 73
     6
 74
     0
 42
0.00000001
 43
0.00000001
 40
0.0
 40
0.0
 40
0.0
 40
0.0
 40
0.3890946671874239
 40
0.7778195880127698
 40
1.0
 40
1.0
 40
1.0
 40
1.0
 10
42.46824259940207
 20
13.11544226005945
 30
0.0
 10
42.45668899907183
 20
13.12109331688344
 30
0.0
 10
42.4335927774919
 20
13.13239006048172
 30
0.0
 10
42.40543831243669
 20
13.13417392068211
 30
0.0
 10
42.39270534064894
 20
13.12648504958793
 30
0.0
 10
42.38807448089756
 20
13.12368868089434
 30
0.0
  0
SPLINE
  5
306
330
1F
100
AcDbEntity
  8
0
  6
SLD-Solid
 62
     7
370
    25
100
AcDbSpline
210
0.0
220
0.0
230
1.0
 70
     8
 71
     3
 72
    11
 73
     7
 74
     0
 42
0.00000001
 43
0.00000001
 40
0.0
 40
0.0
 40
0.0
 40
0.0
 40
0.1169225884295291
 40
0.4112345063481787
 40
0.7055114754514056
 40
1.0
 40
1.0
 40
1.0
 40
1.0
 10
42.55153232329251
 20
12.83464975345051
 30
0.0
 10
42.55422808931526
 20
12.835824068261
 30
0.0
 10
42.56370950795715
 20
12.83995431185102
 30
0.0
 10
42.57459552858022
 20
12.85578826153125
 30
0.0
 10
42.58362880734479
 20
12.88019847138942
 30
0.0
 10
42.58456373690326
 20
12.90052965783874
 30
0.0
 10
42.58503136965214
 20
12.9106989037683
 30
0.0
  0
LINE
  5
307
330
1F
100
AcDbEntity
  8
0
  6
SLD-Solid
 62
     7
370
    25
100
AcDbLine
 10
40.4701928383
 20
15.9596088889
 30
0.0
 11
40.4694857315
 21
15.9592006849
 31
0.0
  0
LINE
  5
308
330
1F
100
AcDbEntity
  8
0
  6
SLD-Solid
 62
     7
370
    25
100
AcDbLine
 10
40.7348158356
 20
16.2425761367
 30
0.0
 11
40.7341087288
 21
16.2421679326
 31
0.0
  0
SPLINE
  5
309
330
1F
100
AcDbEntity
  8
0
  6
SLD-Solid
 62
     7
370
    25
100
AcDbSpline
210
0.0
220
0.0
230
1.0
 70
     8
 71
     3
 72
    23
 73
    19
 74
     0
 42
0.00000001
 43
0.00000001
 40
0.0
 40
0.0
 40
0.0
 40
0.0
 40
0.0659391240576586
 40
0.1297911093795351
 40
0.1921752363053296
 40
0.2536170442157547
 40
0.3147191079962374
 40
0.3762822754113758
 40
0.4389729923739132
 40
0.5031747018386419
 40
0.5673294646239474
 40
0.6296509938060325
 40
0.6906498673030979
 40
0.7512376127977867
 40
0.8117541138236056
 40
0.8727877774488529
 40
0.9355396326682295
 40
1.0
 40
1.0
 40
1.0
 40
1.0
 10
42.58467781626153
 20
12.91049480174035
 30
0.0
 10
42.58456932346122
 20
12.91527012279901
 30
0.0
 10
42.58435577192999
 20
12.92466961402224
 30
0.0
 10
42.58275390973846
 20
12.93923118402228
 30
0.0
 10
42.5800649053749
 20
12.95384995174926
 30
0.0
 10
42.57634126888694
 20
12.96851694267174
 30
0.0
 10
42.57158638227325
 20
12.9832424760832
 30
0.0
 10
42.56570648260448
 20
12.99803854931418
 30
0.0
 10
42.55872220172068
 20
13.01288222922069
 30
0.0
 10
42.5507942824127
 20
13.02760704308867
 30
0.0
 10
42.54216522950605
 20
13.04191396472374
 30
0.0
 10
42.53290107900487
 20
13.05535486243961
 30
0.0
 10
42.5232610522385
 20
13.06795233250827
 30
0.0
 10
42.51302395995886
 20
13.07937097912519
 30
0.0
 10
42.50239924450461
 20
13.08989342497765
 30
0.0
 10
42.49132207329765
 20
13.09952020948694
 30
0.0
 10
42.47975049087366
 20
13.10800783253169
 30
0.0
 10
42.47187810408894
 20
13.11280656654556
 30
0.0
 10
42.46788904601147
 20
13.1152381580315
 30
0.0
  0
SPLINE
  5
30A
330
1F
100
AcDbEntity
  8
0
  6
SLD-Solid
 62
     7
370
    25
100
AcDbSpline
210
0.0
220
0.0
230
1.0
 70
     8
 71
     3
 72
    10
 73
     6
 74
     0
 42
0.00000001
 43
0.00000001
 40
0.0
 40
0.0
 40
0.0
 40
0.0
 40
0.3586494178275079
 40
0.7168525923221627
 40
1.0
 40
1.0
 40
1.0
 40
1.0
 10
42.58467781626153
 20
12.91049480174035
 30
0.0
 10
42.5838772950286
 20
12.89772232792542
 30
0.0
 10
42.58227724859744
 20
12.87219327222513
 30
0.0
 10
42.56906430186146
 20
12.84501179011304
 30
0.0
 10
42.55470792088086
 20
12.83631030947931
 30
0.0
 10
42.5483697773268
 20
12.83246872618167
 30
0.0
  0
SPLINE
  5
30B
330
1F
100
AcDbEntity
  8
0
  6
SLD-Solid
 62
     7
370
    25
100
AcDbSpline
210
0.0
220
0.0
230
1.0
 70
     8
 71
     3
 72
    11
 73
     7
 74
     0
 42
0.00000001
 43
0.00000001
 40
0.0
 40
0.0
 40
0.0
 40
0.0
 40
0.0018502178994479
 40
0.3345637900840318
 40
0.6672005533260665
 40
1.0
 40
1.0
 40
1.0
 40
1.0
 10
42.54371483809918
 20
12.82902294530403
 30
0.0
 10
42.54368187945687
 20
12.82899849224204
 30
0.0
 10
42.53772216612204
 20
12.82457679191241
 30
0.0
 10
42.5214906075267
 20
12.82343647370026
 30
0.0
 10
42.49629212011487
 20
12.82638690562076
 30
0.0
 10
42.47818260448159
 20
12.83569821725166
 30
0.0
 10
42.46912563299059
 20
12.84035501126496
 30
0.0
  0
SPLINE
  5
30C
330
1F
100
AcDbEntity
  8
0
  6
SLD-Solid
 62
     7
370
    25
100
AcDbSpline
210
0.0
220
0.0
230
1.0
 70
     8
 71
     3
 72
    15
 73
    11
 74
     0
 42
0.00000001
 43
0.00000001
 40
0.0
 40
0.0
 40
0.0
 40
0.0
 40
0.127991025562374
 40
0.2530983915017067
 40
0.3761840584327916
 40
0.4989363124701255
 40
0.6215258806257297
 40
0.7457068938016919
 40
0.8715753502968706
 40
1.0
 40
1.0
 40
1.0
 40
1.0
 10
42.39383122581761
 20
12.9142848006812
 30
0.0
 10
42.39659060297267
 20
12.91025536544735
 30
0.0
 10
42.4020471880451
 20
12.90228727884231
 30
0.0
 10
42.41075708581414
 20
12.89108382050413
 30
0.0
 10
42.41972656545764
 20
12.88061296653051
 30
0.0
 10
42.42902331294456
 20
12.87096948111611
 30
0.0
 10
42.43862769402259
 20
12.86206109822978
 30
0.0
 10
42.44853839163667
 20
12.85398409622961
 30
0.0
 10
42.45874136316676
 20
12.84661565444047
 30
0.0
 10
42.46564109067713
 20
12.84245583071829
 30
0.0
 10
42.46912563299059
 20
12.84035501126496
 30
0.0
  0
SPLINE
  5
30D
330
1F
100
AcDbEntity
  8
0
  6
SLD-Solid
 62
     7
370
    25
100
AcDbSpline
210
0.0
220
0.0
230
1.0
 70
     8
 71
     3
 72
    15
 73
    11
 74
     0
 42
0.00000001
 43
0.00000001
 40
0.0
 40
0.0
 40
0.0
 40
0.0
 40
0.1348068327792183
 40
0.2641990558543171
 40
0.3884618167279417
 40
0.5099420983643725
 40
0.6304096106127703
 40
0.7506710345119788
 40
0.873454725529423
 40
0.9999999999999999
 40
0.9999999999999999
 40
0.9999999999999999
 40
0.9999999999999999
 10
42.35164986997435
 20
13.04446365198164
 30
0.0
 10
42.351789177637
 20
13.03895499154901
 30
0.0
 10
42.35206219757366
 20
13.02815892984118
 30
0.0
 10
42.35398319905458
 20
13.01153087410752
 30
0.0
 10
42.35726984136707
 20
12.99497730019801
 30
0.0
 10
42.36201568896502
 20
12.97851587596179
 30
0.0
 10
42.36790178507414
 20
12.96217836197004
 30
0.0
 10
42.37521138225968
 20
12.9459598324907
 30
0.0
 10
42.38382609964925
 20
12.92985678420503
 30
0.0
 10
42.39046280813294
 20
12.91952740770128
 30
0.0
 10
42.39383122581761
 20
12.9142848006812
 30
0.0
  0
SPLINE
  5
30E
330
1F
100
AcDbEntity
  8
0
  6
SLD-Solid
 62
     7
370
    25
100
AcDbSpline
210
0.0
220
0.0
230
1.0
 70
     8
 71
     3
 72
    10
 73
     6
 74
     0
 42
0.00000001
 43
0.00000001
 40
0.0
 40
0.0
 40
0.0
 40
0.0
 40
0.4059498103042204
 40
0.8113229713961851
 40
1.0
 40
1.0
 40
1.0
 40
1.0
 10
42.35164986997435
 20
13.04446365198164
 30
0.0
 10
42.35246447117456
 20
13.05731648344879
 30
0.0
 10
42.35409251643895
 20
13.08300388901492
 30
0.0
 10
42.36481839015849
 20
13.10861968598625
 30
0.0
 10
42.37650162482498
 20
13.11611035002646
 30
0.0
 10
42.38021235169553
 20
13.11848946926233
 30
0.0
  0
SPLINE
  5
30F
330
1F
100
AcDbEntity
  8
0
  6
SLD-Solid
 62
     7
370
    25
100
AcDbSpline
210
0.0
220
0.0
230
1.0
 70
     8
 71
     3
 72
    11
 73
     7
 74
     0
 42
0.00000001
 43
0.00000001
 40
0.0
 40
0.0
 40
0.0
 40
0.0
 40
0.0827207865929354
 40
0.3884071554220341
 40
0.6940764028185494
 40
0.9999999999999999
 40
0.9999999999999999
 40
0.9999999999999999
 40
0.9999999999999999
 10
42.38754366831327
 20
13.12396685189362
 30
0.0
 10
42.38911645471689
 20
13.12525075331961
 30
0.0
 10
42.39650131550315
 20
13.13127918367249
 30
0.0
 10
42.41479546087114
 20
13.13299647561258
 30
0.0
 10
42.44047563369852
 20
13.12938407446088
 30
0.0
 10
42.45874870876617
 20
13.11995477066375
 30
0.0
 10
42.46788904601147
 20
13.1152381580315
 30
0.0
  0
LINE
  5
310
330
1F
100
AcDbEntity
  8
0
  6
SLD-Solid
 62
     7
370
    25
100
AcDbLine
 10
42.5850313697
 20
12.9106989038
 30
0.0
 11
42.5846778163
 21
12.9104948017
 31
0.0
  0
LINE
  5
311
330
1F
100
AcDbEntity
  8
0
  6
SLD-Solid
 62
     7
370
    25
100
AcDbLine
 10
42.4682425994
 20
13.1154422601
 30
0.0
 11
42.467889046
 21
13.115238158
 31
0.0
  0
LINE
  5
312
330
1F
100
AcDbEntity
  8
0
  6
SLD-Solid
 62
     7
370
    25
100
AcDbLine
 10
40.5729171943
 20
15.6002316234
 30
0.0
 11
40.5722100876
 21
15.5998234193
 31
0.0
  0
LINE
  5
313
330
1F
100
AcDbEntity
  8
0
  6
SLD-Solid
 62
     7
370
    25
100
AcDbLine
 10
40.248161309
 20
13.4254784926
 30
0.0
 11
43.0928518897
 21
11.7832735757
 31
0.0
  0
LINE
  5
314
330
1F
100
AcDbEntity
  8
0
  6
SLD-Solid
 62
     7
370
    25
100
AcDbLine
 10
40.248161309
 20
13.7512784093
 30
0.0
 11
40.248161309
 21
13.4254784926
 31
0.0
  0
LINE
  5
315
330
1F
100
AcDbEntity
  8
0
  6
SLD-Solid
 62
     7
370
    25
100
AcDbLine
 10
42.2904488715
 20
13.0811544171
 30
0.0
 11
42.2900953181
 21
13.0809503151
 31
0.0
  0
LINE
  5
316
330
1F
100
AcDbEntity
  8
0
  6
SLD-Solid
 62
     7
370
    25
100
AcDbLine
 10
42.4696852842
 20
12.769359211
 30
0.0
 11
42.4693317308
 21
12.769155109
 31
0.0
  0
LINE
  5
317
330
1F
100
AcDbEntity
  8
0
  6
SLD-Solid
 62
     7
370
    25
100
AcDbLine
 10
41.1280780688
 20
15.2797440723
 30
0.0
 11
41.1273709621
 21
15.2793358682
 31
0.0
  0
LINE
  5
318
330
1F
100
AcDbEntity
  8
0
  6
SLD-Solid
 62
     7
370
    25
100
AcDbLine
 10
39.7563685426
 20
13.4191042212
 30
0.0
 11
39.7560149893
 21
13.4189001192
 31
0.0
  0
SPLINE
  5
319
330
1F
100
AcDbEntity
  8
0
  6
SLD-Solid
 62
     7
370
    25
100
AcDbSpline
210
0.0
220
0.0
230
1.0
 70
     8
 71
     3
 72
    11
 73
     7
 74
     0
 42
0.00000001
 43
0.00000001
 40
0.0
 40
0.0
 40
0.0
 40
0.0
 40
0.0963509968106998
 40
0.3975705782074472
 40
0.6986843484198868
 40
1.0
 40
1.0
 40
1.0
 40
1.0
 10
42.19216087003496
 20
12.9880342086934
 30
0.0
 10
42.18920338504434
 20
12.98600473024065
 30
0.0
 10
42.17699999269052
 20
12.97763054680066
 30
0.0
 10
42.14959306857306
 20
12.97377821198446
 30
0.0
 10
42.11081236257815
 20
12.97914333930976
 30
0.0
 10
42.08332765580477
 20
12.99326931695002
 30
0.0
 10
42.06958069718965
 20
13.00033467266292
 30
0.0
  0
SPLINE
  5
31A
330
1F
100
AcDbEntity
  8
0
  6
SLD-Solid
 62
     7
370
    25
100
AcDbSpline
210
0.0
220
0.0
230
1.0
 70
     8
 71
     3
 72
    23
 73
    19
 74
     0
 42
0.00000001
 43
0.00000001
 40
0.0
 40
0.0
 40
0.0
 40
0.0
 40
0.0667486513092663
 40
0.1311519760901756
 40
0.1937321970570959
 40
0.255325543378599
 40
0.3163881857773855
 40
0.3780268629068869
 40
0.4404056792054014
 40
0.5045574293240812
 40
0.5686582873620151
 40
0.6309861790900103
 40
0.6922881348732991
 40
0.7526154469796397
 40
0.813199538435563
 40
0.8740161248607818
 40
0.9361583555105316
 40
1.0
 40
1.0
 40
1.0
 40
1.0
 10
42.06958069718965
 20
13.00033467266292
 30
0.0
 10
42.06327337316794
 20
13.00414087256099
 30
0.0
 10
42.05088034360011
 20
13.01161953509924
 30
0.0
 10
42.03274308934874
 20
13.02517407334347
 30
0.0
 10
42.01536603258564
 20
13.03985140315616
 30
0.0
 10
41.99889515059334
 20
13.05629340115147
 30
0.0
 10
41.98316270151695
 20
13.07404308397184
 30
0.0
 10
41.96828427628003
 20
13.09330680293243
 30
0.0
 10
41.95426487500927
 20
13.11406403094227
 30
0.0
 10
41.94118491528862
 20
13.13594401417785
 30
0.0
 10
41.92933444010507
 20
13.15846430776233
 30
0.0
 10
41.91887407127614
 20
13.18106659215057
 30
0.0
 10
41.91005051812411
 20
13.20348191342368
 30
0.0
 10
41.90286345781239
 20
13.22571856482419
 30
0.0
 10
41.89719746817274
 20
13.24773076781028
 30
0.0
 10
41.89320075625304
 20
13.26954710417859
 30
0.0
 10
41.89083980314849
 20
13.29114013411544
 30
0.0
 10
41.89051093608992
 20
13.30507066025631
 30
0.0
 10
41.89034428449412
 20
13.31212987871942
 30
0.0
  0
SPLINE
  5
31B
330
1F
100
AcDbEntity
  8
0
  6
SLD-Solid
 62
     7
370
    25
100
AcDbSpline
210
0.0
220
0.0
230
1.0
 70
     8
 71
     3
 72
    11
 73
     7
 74
     0
 42
0.00000001
 43
0.00000001
 40
0.0
 40
0.0
 40
0.0
 40
0.0
 40
0.2838678745456925
 40
0.5676832212199957
 40
0.851539258583642
 40
1.0
 40
1.0
 40
1.0
 40
1.0
 10
41.89034428449412
 20
13.31212987871942
 30
0.0
 10
41.89108197133373
 20
13.32693652489794
 30
0.0
 10
41.89255720850891
 20
13.35654707738309
 30
0.0
 10
41.9059028836633
 20
13.392098632167
 30
0.0
 10
41.92227575174759
 20
13.41658032769065
 30
0.0
 10
41.93668678396972
 20
13.42440592022001
 30
0.0
 10
41.94163563775769
 20
13.42709328588786
 30
0.0
  0
SPLINE
  5
31C
330
1F
100
AcDbEntity
  8
0
  6
SLD-Solid
 62
     7
370
    25
100
AcDbSpline
210
0.0
220
0.0
230
1.0
 70
     8
 71
     3
 72
    23
 73
    19
 74
     0
 42
0.00000001
 43
0.00000001
 40
0.0
 40
0.0
 40
0.0
 40
0.0
 40
0.0659391240576587
 40
0.129791109379535
 40
0.1921752363053295
 40
0.2536170442157547
 40
0.3147191079962374
 40
0.3762822754113759
 40
0.4389729923739132
 40
0.5031747018386419
 40
0.5673294646239474
 40
0.6296509938060325
 40
0.6906498673030983
 40
0.751237612797787
 40
0.8117541138236058
 40
0.8727877774488532
 40
0.9355396326682299
 40
1.0
 40
1.0
 40
1.0
 40
1.0
 10
42.18492678263074
 20
13.14167436540481
 30
0.0
 10
42.18481828983044
 20
13.14644968646347
 30
0.0
 10
42.18460473829919
 20
13.1558491776867
 30
0.0
 10
42.18300287610768
 20
13.17041074768675
 30
0.0
 10
42.18031387174411
 20
13.18502951541372
 30
0.0
 10
42.17659023525615
 20
13.1996965063362
 30
0.0
 10
42.17183534864245
 20
13.21442203974767
 30
0.0
 10
42.16595544897368
 20
13.22921811297865
 30
0.0
 10
42.15897116808988
 20
13.24406179288515
 30
0.0
 10
42.1510432487819
 20
13.25878660675313
 30
0.0
 10
42.14241419587525
 20
13.2730935283882
 30
0.0
 10
42.13315004537407
 20
13.28653442610407
 30
0.0
 10
42.1235100186077
 20
13.29913189617274
 30
0.0
 10
42.11327292632807
 20
13.31055054278966
 30
0.0
 10
42.10264821087382
 20
13.32107298864212
 30
0.0
 10
42.09157103966686
 20
13.33069977315141
 30
0.0
 10
42.07999945724286
 20
13.33918739619615
 30
0.0
 10
42.07212707045815
 20
13.34398613021003
 30
0.0
 10
42.06813801238068
 20
13.34641772169596
 30
0.0
  0
SPLINE
  5
31D
330
1F
100
AcDbEntity
  8
0
  6
SLD-Solid
 62
     7
370
    25
100
AcDbSpline
210
0.0
220
0.0
230
1.0
 70
     8
 71
     3
 72
    10
 73
     6
 74
     0
 42
0.00000001
 43
0.00000001
 40
0.0
 40
0.0
 40
0.0
 40
0.0
 40
0.371997151975955
 40
0.7436408049059315
 40
1.0
 40
1.0
 40
1.0
 40
1.0
 10
42.06813801238068
 20
13.34641772169596
 30
0.0
 10
42.05657300845306
 20
13.35209119040459
 30
0.0
 10
42.0334539905149
 20
13.36343273647474
 30
0.0
 10
42.00415869436732
 20
13.36499751985261
 30
0.0
 10
41.99053511115692
 20
13.35659780655834
 30
0.0
 10
41.98497378155928
 20
13.35316893080417
 30
0.0
  0
SPLINE
  5
31E
330
1F
100
AcDbEntity
  8
0
  6
SLD-Solid
 62
     7
370
    25
100
AcDbSpline
210
0.0
220
0.0
230
1.0
 70
     8
 71
     3
 72
    11
 73
     7
 74
     0
 42
0.00000001
 43
0.00000001
 40
0.0
 40
0.0
 40
0.0
 40
0.0
 40
0.1169225884294985
 40
0.4112345063481604
 40
0.7055114754513926
 40
1.0
 40
1.0
 40
1.0
 40
1.0
 10
42.15142773627113
 20
13.06562521508702
 30
0.0
 10
42.15412350229387
 20
13.06679952989751
 30
0.0
 10
42.16360492093576
 20
13.07092977348753
 30
0.0
 10
42.17449094155883
 20
13.08676372316776
 30
0.0
 10
42.1835242203234
 20
13.11117393302593
 30
0.0
 10
42.18445914988188
 20
13.13150511947525
 30
0.0
 10
42.18492678263074
 20
13.14167436540481
 30
0.0
  0
LINE
  5
31F
330
1F
100
AcDbEntity
  8
0
  6
SLD-Solid
 62
     7
370
    25
100
AcDbLine
 10
40.248161309
 20
13.4254784926
 30
0.0
 11
40.2474542022
 21
13.4250702886
 31
0.0
  0
SPLINE
  5
320
330
1F
100
AcDbEntity
  8
0
  6
SLD-Solid
 62
     7
370
    25
100
AcDbSpline
210
0.0
220
0.0
230
1.0
 70
     8
 71
     3
 72
    23
 73
    19
 74
     0
 42
0.00000001
 43
0.00000001
 40
0.0
 40
0.0
 40
0.0
 40
0.0
 40
0.0659391240576587
 40
0.129791109379535
 40
0.1921752363053295
 40
0.2536170442157547
 40
0.3147191079962374
 40
0.3762822754113759
 40
0.4389729923739132
 40
0.5031747018386419
 40
0.5673294646239474
 40
0.6296509938060325
 40
0.6906498673030983
 40
0.751237612797787
 40
0.8117541138236058
 40
0.8727877774488532
 40
0.9355396326682299
 40
1.0
 40
1.0
 40
1.0
 40
1.0
 10
42.18457322924015
 20
13.14147026337686
 30
0.0
 10
42.18446473643984
 20
13.14624558443552
 30
0.0
 10
42.1842511849086
 20
13.15564507565875
 30
0.0
 10
42.18264932271708
 20
13.17020664565879
 30
0.0
 10
42.17996031835352
 20
13.18482541338577
 30
0.0
 10
42.17623668186555
 20
13.19949240430825
 30
0.0
 10
42.17148179525186
 20
13.21421793771971
 30
0.0
 10
42.16560189558309
 20
13.22901401095069
 30
0.0
 10
42.1586176146993
 20
13.2438576908572
 30
0.0
 10
42.15068969539132
 20
13.25858250472518
 30
0.0
 10
42.14206064248467
 20
13.27288942636025
 30
0.0
 10
42.13279649198348
 20
13.28633032407611
 30
0.0
 10
42.12315646521711
 20
13.29892779414478
 30
0.0
 10
42.11291937293747
 20
13.3103464407617
 30
0.0
 10
42.10229465748322
 20
13.32086888661416
 30
0.0
 10
42.09121748627626
 20
13.33049567112345
 30
0.0
 10
42.07964590385227
 20
13.3389832941682
 30
0.0
 10
42.07177351706756
 20
13.34378202818207
 30
0.0
 10
42.06778445899008
 20
13.346213619668
 30
0.0
  0
SPLINE
  5
321
330
1F
100
AcDbEntity
  8
0
  6
SLD-Solid
 62
     7
370
    25
100
AcDbSpline
210
0.0
220
0.0
230
1.0
 70
     8
 71
     3
 72
    10
 73
     6
 74
     0
 42
0.00000001
 43
0.00000001
 40
0.0
 40
0.0
 40
0.0
 40
0.0
 40
0.3586494178275194
 40
0.7168525923221885
 40
1.0
 40
1.0
 40
1.0
 40
1.0
 10
42.18457322924015
 20
13.14147026337686
 30
0.0
 10
42.18377270800722
 20
13.12869778956193
 30
0.0
 10
42.18217266157604
 20
13.10316873386163
 30
0.0
 10
42.16895971484006
 20
13.07598725174955
 30
0.0
 10
42.15460333385948
 20
13.06728577111581
 30
0.0
 10
42.14826519030542
 20
13.06344418781818
 30
0.0
  0
SPLINE
  5
322
330
1F
100
AcDbEntity
  8
0
  6
SLD-Solid
 62
     7
370
    25
100
AcDbSpline
210
0.0
220
0.0
230
1.0
 70
     8
 71
     3
 72
    11
 73
     7
 74
     0
 42
0.00000001
 43
0.00000001
 40
0.0
 40
0.0
 40
0.0
 40
0.0
 40
0.0018502178994817
 40
0.3345637900840556
 40
0.6672005533260773
 40
0.9999999999999999
 40
0.9999999999999999
 40
0.9999999999999999
 40
0.9999999999999999
 10
42.14361025107779
 20
13.05999840694053
 30
0.0
 10
42.14357729243548
 20
13.05997395387855
 30
0.0
 10
42.13761757910067
 20
13.05555225354891
 30
0.0
 10
42.12138602050531
 20
13.05441193533677
 30
0.0
 10
42.09618753309348
 20
13.05736236725726
 30
0.0
 10
42.07807801746021
 20
13.06667367888817
 30
0.0
 10
42.06902104596921
 20
13.07133047290147
 30
0.0
  0
SPLINE
  5
323
330
1F
100
AcDbEntity
  8
0
  6
SLD-Solid
 62
     7
370
    25
100
AcDbSpline
210
0.0
220
0.0
230
1.0
 70
     8
 71
     3
 72
    15
 73
    11
 74
     0
 42
0.00000001
 43
0.00000001
 40
0.0
 40
0.0
 40
0.0
 40
0.0
 40
0.1279910255623737
 40
0.2530983915017069
 40
0.3761840584327911
 40
0.4989363124701262
 40
0.6215258806257303
 40
0.7457068938016915
 40
0.8715753502968709
 40
1.0
 40
1.0
 40
1.0
 40
1.0
 10
41.99372663879623
 20
13.14526026231771
 30
0.0
 10
41.99648601595127
 20
13.14123082708385
 30
0.0
 10
42.00194260102371
 20
13.13326274047882
 30
0.0
 10
42.01065249879276
 20
13.12205928214064
 30
0.0
 10
42.01962197843626
 20
13.11158842816702
 30
0.0
 10
42.02891872592317
 20
13.10194494275262
 30
0.0
 10
42.0385231070012
 20
13.09303655986629
 30
0.0
 10
42.04843380461528
 20
13.08495955786612
 30
0.0
 10
42.05863677614536
 20
13.07759111607698
 30
0.0
 10
42.06553650365575
 20
13.0734312923548
 30
0.0
 10
42.06902104596921
 20
13.07133047290147
 30
0.0
  0
SPLINE
  5
324
330
1F
100
AcDbEntity
  8
0
  6
SLD-Solid
 62
     7
370
    25
100
AcDbSpline
210
0.0
220
0.0
230
1.0
 70
     8
 71
     3
 72
    15
 73
    11
 74
     0
 42
0.00000001
 43
0.00000001
 40
0.0
 40
0.0
 40
0.0
 40
0.0
 40
0.1348068327792183
 40
0.2641990558543169
 40
0.3884618167279413
 40
0.5099420983643721
 40
0.63040961061277
 40
0.7506710345119784
 40
0.8734547255294228
 40
1.0
 40
1.0
 40
1.0
 40
1.0
 10
41.95154528295296
 20
13.27543911361815
 30
0.0
 10
41.95168459061561
 20
13.26993045318552
 30
0.0
 10
41.95195761055228
 20
13.25913439147769
 30
0.0
 10
41.9538786120332
 20
13.24250633574403
 30
0.0
 10
41.95716525434568
 20
13.22595276183452
 30
0.0
 10
41.96191110194363
 20
13.20949133759829
 30
0.0
 10
41.96779719805275
 20
13.19315382360655
 30
0.0
 10
41.97510679523829
 20
13.17693529412721
 30
0.0
 10
41.98372151262785
 20
13.16083224584154
 30
0.0
 10
41.99035822111155
 20
13.15050286933779
 30
0.0
 10
41.99372663879623
 20
13.14526026231771
 30
0.0
  0
SPLINE
  5
325
330
1F
100
AcDbEntity
  8
0
  6
SLD-Solid
 62
     7
370
    25
100
AcDbSpline
210
0.0
220
0.0
230
1.0
 70
     8
 71
     3
 72
    10
 73
     6
 74
     0
 42
0.00000001
 43
0.00000001
 40
0.0
 40
0.0
 40
0.0
 40
0.0
 40
0.4059498103042204
 40
0.8113229713961868
 40
0.9999999999999999
 40
0.9999999999999999
 40
0.9999999999999999
 40
0.9999999999999999
 10
41.95154528295296
 20
13.27543911361815
 30
0.0
 10
41.95235988415317
 20
13.28829194508529
 30
0.0
 10
41.95398792941756
 20
13.31397935065142
 30
0.0
 10
41.9647138031371
 20
13.33959514762276
 30
0.0
 10
41.9763970378036
 20
13.34708581166297
 30
0.0
 10
41.98010776467414
 20
13.34946493089883
 30
0.0
  0
SPLINE
  5
326
330
1F
100
AcDbEntity
  8
0
  6
SLD-Solid
 62
     7
370
    25
100
AcDbSpline
210
0.0
220
0.0
230
1.0
 70
     8
 71
     3
 72
    11
 73
     7
 74
     0
 42
0.00000001
 43
0.00000001
 40
0.0
 40
0.0
 40
0.0
 40
0.0
 40
0.0827207865929361
 40
0.3884071554220358
 40
0.6940764028185473
 40
0.9999999999999999
 40
0.9999999999999999
 40
0.9999999999999999
 40
0.9999999999999999
 10
41.98743908129187
 20
13.35494231353012
 30
0.0
 10
41.98901186769551
 20
13.35622621495611
 30
0.0
 10
41.99639672848176
 20
13.362254645309
 30
0.0
 10
42.01469087384976
 20
13.36397193724909
 30
0.0
 10
42.04037104667713
 20
13.36035953609739
 30
0.0
 10
42.05864412174478
 20
13.35093023230026
 30
0.0
 10
42.06778445899008
 20
13.346213619668
 30
0.0
  0
LINE
  5
327
330
1F
100
AcDbEntity
  8
0
  6
SLD-Solid
 62
     7
370
    25
100
AcDbLine
 10
42.1849267826
 20
13.1416743654
 30
0.0
 11
42.1845732292
 21
13.1414702634
 31
0.0
  0
LINE
  5
328
330
1F
100
AcDbEntity
  8
0
  6
SLD-Solid
 62
     7
370
    25
100
AcDbLine
 10
42.0681380124
 20
13.3464177217
 30
0.0
 11
42.067784459
 21
13.3462136197
 31
0.0
  0
LINE
  5
329
330
1F
100
AcDbEntity
  8
0
  6
SLD-Solid
 62
     7
370
    25
100
AcDbLine
 10
40.9545192274
 20
15.3396706214
 30
0.0
 11
40.9538121206
 21
15.3392624173
 31
0.0
  0
LINE
  5
32A
330
1F
100
AcDbEntity
  8
0
  6
SLD-Solid
 62
     7
370
    25
100
AcDbLine
 10
41.8903442845
 20
13.3121298787
 30
0.0
 11
41.8899907311
 21
13.3119257767
 31
0.0
  0
LINE
  5
32B
330
1F
100
AcDbEntity
  8
0
  6
SLD-Solid
 62
     7
370
    25
100
AcDbLine
 10
42.0695806972
 20
13.0003346727
 30
0.0
 11
42.0692271438
 21
13.0001305706
 31
0.0
  0
LINE
  5
32C
330
1F
100
AcDbEntity
  8
0
  6
SLD-Solid
 62
     7
370
    25
100
AcDbLine
 10
40.9545192274
 20
14.6799563004
 30
0.0
 11
40.9538121206
 21
14.6795480964
 31
0.0
  0
LINE
  5
32D
330
1F
100
AcDbEntity
  8
0
  6
SLD-Solid
 62
     7
370
    25
100
AcDbLine
 10
40.7410426996
 20
15.5031748351
 30
0.0
 11
40.7403355928
 21
15.502766631
 31
0.0
  0
LINE
  5
32E
330
1F
100
AcDbEntity
  8
0
  6
SLD-Solid
 62
     7
370
    25
100
AcDbLine
 10
40.7352851441
 20
14.8065174428
 30
0.0
 11
40.7345780374
 21
14.8061092387
 31
0.0
  0
SPLINE
  5
32F
330
1F
100
AcDbEntity
  8
0
  6
SLD-Solid
 62
     7
370
    25
100
AcDbSpline
210
0.0
220
0.0
230
1.0
 70
     8
 71
     3
 72
     9
 73
     5
 74
     0
 42
0.00000001
 43
0.00000001
 40
0.0
 40
0.0
 40
0.0
 40
0.0
 40
0.4204615712766968
 40
1.0
 40
1.0
 40
1.0
 40
1.0
 10
41.81605022849926
 20
13.36434412812391
 30
0.0
 10
41.8114203690027
 20
13.36205496454488
 30
0.0
 10
41.80040899528191
 20
13.35661055836035
 30
0.0
 10
41.78636569641404
 20
13.35837709207027
 30
0.0
 10
41.77822706505405
 20
13.35940086624081
 30
0.0
  0
LINE
  5
330
330
1F
100
AcDbEntity
  8
0
  6
SLD-Solid
 62
     7
370
    25
100
AcDbLine
 10
41.856836313
 20
13.1333038092
 30
0.0
 11
41.7889441522
 21
13.1724971194
 31
0.0
  0
LINE
  5
331
330
1F
100
AcDbEntity
  8
0
  6
SLD-Solid
 62
     7
370
    25
100
AcDbLine
 10
41.7889441522
 20
13.1724971194
 30
0.0
 11
41.7133749479
 21
13.3887473949
 31
0.0
  0
LINE
  5
332
330
1F
100
AcDbEntity
  8
0
  6
SLD-Solid
 62
     7
370
    25
100
AcDbLine
 10
41.7133749479
 20
13.3887473949
 30
0.0
 11
41.6924903678
 21
13.4008038063
 31
0.0
  0
LINE
  5
333
330
1F
100
AcDbEntity
  8
0
  6
SLD-Solid
 62
     7
370
    25
100
AcDbLine
 10
41.6921368144
 20
13.228382806
 30
0.0
 11
41.630935816
 21
13.2637133903
 31
0.0
  0
LINE
  5
334
330
1F
100
AcDbEntity
  8
0
  6
SLD-Solid
 62
     7
370
    25
100
AcDbLine
 10
41.630935816
 20
13.2637133903
 30
0.0
 11
41.630935816
 21
13.65932748
 31
0.0
  0
SPLINE
  5
335
330
1F
100
AcDbEntity
  8
0
  6
SLD-Solid
 62
     7
370
    25
100
AcDbSpline
210
0.0
220
0.0
230
1.0
 70
     8
 71
     3
 72
    10
 73
     6
 74
     0
 42
0.00000001
 43
0.00000001
 40
0.0
 40
0.0
 40
0.0
 40
0.0
 40
0.2258641987081844
 40
0.6124795968985793
 40
1.0
 40
1.0
 40
1.0
 40
1.0
 10
41.77045219904831
 20
13.44011180238858
 30
0.0
 10
41.77203342942206
 20
13.44068263874092
 30
0.0
 10
41.77632127737431
 20
13.44223058490047
 30
0.0
 10
41.77980919731139
 20
13.45030099167916
 30
0.0
 10
41.78021986700961
 20
13.45802880387355
 30
0.0
 10
41.78042544190582
 20
13.46189722707742
 30
0.0
  0
SPLINE
  5
336
330
1F
100
AcDbEntity
  8
0
  6
SLD-Solid
 62
     7
370
    25
100
AcDbSpline
210
0.0
220
0.0
230
1.0
 70
     8
 71
     3
 72
    23
 73
    19
 74
     0
 42
0.00000001
 43
0.00000001
 40
0.0
 40
0.0
 40
0.0
 40
0.0
 40
0.06376895995774
 40
0.1252623047603748
 40
0.1854135826663909
 40
0.2468067624960846
 40
0.3094223888496969
 40
0.3725326822170087
 40
0.4377332507368581
 40
0.505749516742634
 40
0.5440132631112705
 40
0.5883695992066303
 40
0.6403890193945119
 40
0.6978974005877081
 40
0.7632716192950986
 40
0.8349786038393129
 40
0.9138736558434376
 40
0.9999999999999999
 40
0.9999999999999999
 40
0.9999999999999999
 40
0.9999999999999999
 10
41.78042544190582
 20
13.46189722707742
 30
0.0
 10
41.78035562264483
 20
13.46403635046156
 30
0.0
 10
41.78021847564487
 20
13.46823826194707
 30
0.0
 10
41.77885755133356
 20
13.47495920423829
 30
0.0
 10
41.77669125379814
 20
13.48170330502263
 30
0.0
 10
41.77372185321274
 20
13.48844443265491
 30
0.0
 10
41.7699822792224
 20
13.49501019588985
 30
0.0
 10
41.76569082302549
 20
13.50137236509268
 30
0.0
 10
41.76075486463932
 20
13.50729361412912
 30
0.0
 10
41.7561845386101
 20
13.51195812116949
 30
0.0
 10
41.75202661019891
 20
13.51557068704681
 30
0.0
 10
41.74827421098832
 20
13.51864025517895
 30
0.0
 10
41.74392891011014
 20
13.52178897701524
 30
0.0
 10
41.73898742709979
 20
13.5253207155321
 30
0.0
 10
41.7334623579656
 20
13.52895061976799
 30
0.0
 10
41.7273235877762
 20
13.5328158238862
 30
0.0
 10
41.72058874703387
 20
13.53683525193001
 30
0.0
 10
41.71589392338858
 20
13.53958755008479
 30
0.0
 10
41.71344364720358
 20
13.54102400246985
 30
0.0
  0
LINE
  5
337
330
1F
100
AcDbEntity
  8
0
  6
SLD-Solid
 62
     7
370
    25
100
AcDbLine
 10
41.7134436472
 20
13.5410240025
 30
0.0
 11
41.6924903678
 21
13.5531200732
 31
0.0
  0
LINE
  5
338
330
1F
100
AcDbEntity
  8
0
  6
SLD-Solid
 62
     7
370
    25
100
AcDbLine
 10
41.7782270651
 20
13.3594008662
 30
0.0
 11
41.7778735117
 21
13.3591967642
 31
0.0
  0
LINE
  5
339
330
1F
100
AcDbEntity
  8
0
  6
SLD-Solid
 62
     7
370
    25
100
AcDbLine
 10
41.6921368144
 20
13.4716806288
 30
0.0
 11
41.6921368144
 21
13.5529159711
 31
0.0
  0
LINE
  5
33A
330
1F
100
AcDbEntity
  8
0
  6
SLD-Solid
 62
     7
370
    25
100
AcDbLine
 10
41.6921368144
 20
13.5529159711
 30
0.0
 11
41.7130900938
 21
13.5408199004
 31
0.0
  0
SPLINE
  5
33B
330
1F
100
AcDbEntity
  8
0
  6
SLD-Solid
 62
     7
370
    25
100
AcDbSpline
210
0.0
220
0.0
230
1.0
 70
     8
 71
     3
 72
    23
 73
    19
 74
     0
 42
0.00000001
 43
0.00000001
 40
0.0
 40
0.0
 40
0.0
 40
0.0
 40
0.06376895995774
 40
0.1252623047603748
 40
0.1854135826663909
 40
0.2468067624960846
 40
0.3094223888496969
 40
0.3725326822170087
 40
0.4377332507368581
 40
0.505749516742634
 40
0.5440132631112705
 40
0.5883695992066303
 40
0.6403890193945119
 40
0.6978974005877081
 40
0.7632716192950986
 40
0.8349786038393129
 40
0.9138736558434376
 40
0.9999999999999999
 40
0.9999999999999999
 40
0.9999999999999999
 40
0.9999999999999999
 10
41.78007188851523
 20
13.46169312504946
 30
0.0
 10
41.78000206925424
 20
13.46383224843361
 30
0.0
 10
41.77986492225428
 20
13.46803415991911
 30
0.0
 10
41.77850399794296
 20
13.47475510221033
 30
0.0
 10
41.77633770040755
 20
13.48149920299468
 30
0.0
 10
41.77336829982215
 20
13.48824033062695
 30
0.0
 10
41.76962872583181
 20
13.4948060938619
 30
0.0
 10
41.76533726963491
 20
13.50116826306473
 30
0.0
 10
41.76040131124871
 20
13.50708951210116
 30
0.0
 10
41.75583098521951
 20
13.51175401914153
 30
0.0
 10
41.75167305680832
 20
13.51536658501885
 30
0.0
 10
41.74792065759772
 20
13.51843615315099
 30
0.0
 10
41.74357535671955
 20
13.52158487498728
 30
0.0
 10
41.73863387370919
 20
13.52511661350414
 30
0.0
 10
41.733108804575
 20
13.52874651774003
 30
0.0
 10
41.7269700343856
 20
13.53261172185825
 30
0.0
 10
41.72023519364328
 20
13.53663114990205
 30
0.0
 10
41.71554036999799
 20
13.53938344805684
 30
0.0
 10
41.71309009381299
 20
13.54081990044189
 30
0.0
  0
SPLINE
  5
33C
330
1F
100
AcDbEntity
  8
0
  6
SLD-Solid
 62
     7
370
    25
100
AcDbSpline
210
0.0
220
0.0
230
1.0
 70
     8
 71
     3
 72
    10
 73
     6
 74
     0
 42
0.00000001
 43
0.00000001
 40
0.0
 40
0.0
 40
0.0
 40
0.0
 40
0.3875204031014206
 40
0.7741358012918156
 40
1.0
 40
1.0
 40
1.0
 40
1.0
 10
41.78007188851523
 20
13.46169312504946
 30
0.0
 10
41.77986631361902
 20
13.45782470184559
 30
0.0
 10
41.77945564392079
 20
13.45009688965121
 30
0.0
 10
41.77596772398373
 20
13.44202648287252
 30
0.0
 10
41.77167987603147
 20
13.44047853671296
 30
0.0
 10
41.77009864565772
 20
13.43990770036063
 30
0.0
  0
SPLINE
  5
33D
330
1F
100
AcDbEntity
  8
0
  6
SLD-Solid
 62
     7
370
    25
100
AcDbSpline
210
0.0
220
0.0
230
1.0
 70
     8
 71
     3
 72
    16
 73
    12
 74
     0
 42
0.00000001
 43
0.00000001
 40
0.0
 40
0.0
 40
0.0
 40
0.0
 40
0.1055399964402573
 40
0.2020864154635874
 40
0.2906848989424215
 40
0.3705526096211914
 40
0.4426702615663768
 40
0.5076749275738738
 40
0.5655732034810459
 40
0.6164546657486231
 40
0.625
 40
0.625
 40
0.625
 40
0.625
 10
41.71611286198416
 20
13.4578395512095
 30
0.0
 10
41.71904413309699
 20
13.45618548770088
 30
0.0
 10
41.72465688742637
 20
13.45301831149584
 30
0.0
 10
41.73272876533792
 20
13.44869711008368
 30
0.0
 10
41.74005995552198
 20
13.44528074955598
 30
0.0
 10
41.74668194058329
 20
13.44248874922406
 30
0.0
 10
41.75262804174898
 20
13.44024633431735
 30
0.0
 10
41.75784522189439
 20
13.43894014378865
 30
0.0
 10
41.76241386980258
 20
13.43813033820556
 30
0.0
 10
41.7653278261087
 20
13.4381600922016
 30
0.0
 10
41.76673929334113
 20
13.43833646385315
 30
0.0
 10
41.76694084528769
 20
13.43836522751156
 30
0.0
  0
LINE
  5
33E
330
1F
100
AcDbEntity
  8
0
  6
SLD-Solid
 62
     7
370
    25
100
AcDbLine
 10
41.716112862
 20
13.4578395512
 30
0.0
 11
41.6921368144
 21
13.4716806288
 31
0.0
  0
LINE
  5
33F
330
1F
100
AcDbEntity
  8
0
  6
SLD-Solid
 62
     7
370
    25
100
AcDbLine
 10
41.7804254419
 20
13.4618972271
 30
0.0
 11
41.7800718885
 21
13.461693125
 31
0.0
  0
LINE
  5
340
330
1F
100
AcDbEntity
  8
0
  6
SLD-Solid
 62
     7
370
    25
100
AcDbLine
 10
41.7134436472
 20
13.5410240025
 30
0.0
 11
41.7130900938
 21
13.5408199004
 31
0.0
  0
LINE
  5
341
330
1F
100
AcDbEntity
  8
0
  6
SLD-Solid
 62
     7
370
    25
100
AcDbLine
 10
41.6924903678
 20
13.5531200732
 30
0.0
 11
41.6921368144
 21
13.5529159711
 31
0.0
  0
LINE
  5
342
330
1F
100
AcDbEntity
  8
0
  6
SLD-Solid
 62
     7
370
    25
100
AcDbLine
 10
41.630935816
 20
13.2637133903
 30
0.0
 11
41.6305822626
 21
13.2635092883
 31
0.0
  0
LINE
  5
343
330
1F
100
AcDbEntity
  8
0
  6
SLD-Solid
 62
     7
370
    25
100
AcDbLine
 10
41.7889441522
 20
13.1724971194
 30
0.0
 11
41.7885905988
 21
13.1722930174
 31
0.0
  0
LINE
  5
344
330
1F
100
AcDbEntity
  8
0
  6
SLD-Solid
 62
     7
370
    25
100
AcDbLine
 10
41.7133749479
 20
13.3887473949
 30
0.0
 11
41.7130213945
 21
13.3885432929
 31
0.0
  0
LINE
  5
345
330
1F
100
AcDbEntity
  8
0
  6
SLD-Solid
 62
     7
370
    25
100
AcDbLine
 10
41.4902396975
 20
13.5886415576
 30
0.0
 11
41.4902396975
 21
13.7405496204
 31
0.0
  0
LINE
  5
346
330
1F
100
AcDbEntity
  8
0
  6
SLD-Solid
 62
     7
370
    25
100
AcDbLine
 10
41.5514406959
 20
13.3096049463
 30
0.0
 11
41.4902396975
 21
13.3449355307
 31
0.0
  0
LINE
  5
347
330
1F
100
AcDbEntity
  8
0
  6
SLD-Solid
 62
     7
370
    25
100
AcDbLine
 10
41.4902396975
 20
13.3449355307
 30
0.0
 11
41.4902396975
 21
13.5175606331
 31
0.0
  0
LINE
  5
348
330
1F
100
AcDbEntity
  8
0
  6
SLD-Solid
 62
     7
370
    25
100
AcDbLine
 10
41.4902396975
 20
13.5175606331
 30
0.0
 11
41.3715273475
 21
13.586091814
 31
0.0
  0
LINE
  5
349
330
1F
100
AcDbEntity
  8
0
  6
SLD-Solid
 62
     7
370
    25
100
AcDbLine
 10
41.3711737941
 20
13.4136708136
 30
0.0
 11
41.3099727956
 21
13.449001398
 31
0.0
  0
LINE
  5
34A
330
1F
100
AcDbEntity
  8
0
  6
SLD-Solid
 62
     7
370
    25
100
AcDbLine
 10
41.3099727956
 20
13.449001398
 30
0.0
 11
41.3099727956
 21
13.8446154877
 31
0.0
  0
LINE
  5
34B
330
1F
100
AcDbEntity
  8
0
  6
SLD-Solid
 62
     7
370
    25
100
AcDbLine
 10
41.6924903678
 20
13.4008038063
 30
0.0
 11
41.6921368144
 21
13.4005997043
 31
0.0
  0
LINE
  5
34C
330
1F
100
AcDbEntity
  8
0
  6
SLD-Solid
 62
     7
370
    25
100
AcDbLine
 10
41.4902396975
 20
13.5886415576
 30
0.0
 11
41.4898861441
 21
13.5884374556
 31
0.0
  0
LINE
  5
34D
330
1F
100
AcDbEntity
  8
0
  6
SLD-Solid
 62
     7
370
    25
100
AcDbLine
 10
41.3099727956
 20
13.449001398
 30
0.0
 11
41.3096192422
 21
13.448797296
 31
0.0
  0
LINE
  5
34E
330
1F
100
AcDbEntity
  8
0
  6
SLD-Solid
 62
     7
370
    25
100
AcDbLine
 10
41.4902396975
 20
13.3449355307
 30
0.0
 11
41.4898861441
 21
13.3447314287
 31
0.0
  0
LINE
  5
34F
330
1F
100
AcDbEntity
  8
0
  6
SLD-Solid
 62
     7
370
    25
100
AcDbLine
 10
41.4902396975
 20
13.5175606331
 30
0.0
 11
41.4898861441
 21
13.5173565311
 31
0.0
  0
LINE
  5
350
330
1F
100
AcDbEntity
  8
0
  6
SLD-Solid
 62
     7
370
    25
100
AcDbLine
 10
41.3715273475
 20
13.586091814
 30
0.0
 11
41.3711737941
 21
13.585887712
 31
0.0
  0
LINE
  5
351
330
1F
100
AcDbEntity
  8
0
  6
SLD-Solid
 62
     7
370
    25
100
AcDbLine
 10
41.2396247364
 20
13.8327207255
 30
0.0
 11
41.193596221
 21
13.8106622804
 31
0.0
  0
SPLINE
  5
352
330
1F
100
AcDbEntity
  8
0
  6
SLD-Solid
 62
     7
370
    25
100
AcDbSpline
210
0.0
220
0.0
230
1.0
 70
     8
 71
     3
 72
    15
 73
    11
 74
     0
 42
0.00000001
 43
0.00000001
 40
0.0
 40
0.0
 40
0.0
 40
0.0
 40
0.1624203072014381
 40
0.3118243397330505
 40
0.448432766792581
 40
0.5733811968860474
 40
0.6890771468735459
 40
0.7975729005012512
 40
0.900293043077579
 40
1.0
 40
1.0
 40
1.0
 40
1.0
 10
41.19359622103757
 20
13.81066228038828
 30
0.0
 10
41.19162455680658
 20
13.81501216818552
 30
0.0
 10
41.18783923643873
 20
13.82336334614879
 30
0.0
 10
41.18170362694741
 20
13.8351617225805
 30
0.0
 10
41.17559572287783
 20
13.84573103386761
 30
0.0
 10
41.16945893821327
 20
13.85507452279602
 30
0.0
 10
41.16323887882994
 20
13.86318834625866
 30
0.0
 10
41.15694634184208
 20
13.87002332671047
 30
0.0
 10
41.15061700140222
 20
13.87571295809406
 30
0.0
 10
41.14636466165098
 20
13.87842128528532
 30
0.0
 10
41.14427014042607
 20
13.87975529176598
 30
0.0
  0
SPLINE
  5
353
330
1F
100
AcDbEntity
  8
0
  6
SLD-Solid
 62
     7
370
    25
100
AcDbSpline
210
0.0
220
0.0
230
1.0
 70
     8
 71
     3
 72
    10
 73
     6
 74
     0
 42
0.00000001
 43
0.00000001
 40
0.0
 40
0.0
 40
0.0
 40
0.0
 40
0.438881896414055
 40
0.8769468977068635
 40
0.9999999999999999
 40
0.9999999999999999
 40
0.9999999999999999
 40
0.9999999999999999
 10
41.14427014042607
 20
13.87975529176598
 30
0.0
 10
41.14059710793619
 20
13.88154788823895
 30
0.0
 10
41.13325787960734
 20
13.88512974460775
 30
0.0
 10
41.12540544702922
 20
13.88477936005456
 30
0.0
 10
41.12260178718245
 20
13.88202678790672
 30
0.0
 10
41.12198694506684
 20
13.88142314931457
 30
0.0
  0
SPLINE
  5
354
330
1F
100
AcDbEntity
  8
0
  6
SLD-Solid
 62
     7
370
    25
100
AcDbSpline
210
0.0
220
0.0
230
1.0
 70
     8
 71
     3
 72
    10
 73
     6
 74
     0
 42
0.00000001
 43
0.00000001
 40
0.0
 40
0.0
 40
0.0
 40
0.0
 40
0.1397614821439909
 40
0.5693820591841205
 40
0.9999999999999999
 40
0.9999999999999999
 40
0.9999999999999999
 40
0.9999999999999999
 10
41.21908606254979
 20
13.5240751145159
 30
0.0
 10
41.21655153550566
 20
13.52228578609552
 30
0.0
 10
41.20622598510857
 20
13.51499614173197
 30
0.0
 10
41.18022073955837
 20
13.51677597537094
 30
0.0
 10
41.15704122341127
 20
13.52814151918943
 30
0.0
 10
41.14543802812857
 20
13.53383087972582
 30
0.0
  0
SPLINE
  5
355
330
1F
100
AcDbEntity
  8
0
  6
SLD-Solid
 62
     7
370
    25
100
AcDbSpline
210
0.0
220
0.0
230
1.0
 70
     8
 71
     3
 72
    23
 73
    19
 74
     0
 42
0.00000001
 43
0.00000001
 40
0.0
 40
0.0
 40
0.0
 40
0.0
 40
0.0635514822357808
 40
0.1258683816453842
 40
0.1862402502136729
 40
0.2449766506319395
 40
0.3033576876770614
 40
0.3612303170408046
 40
0.418489049028352
 40
0.4759367117285737
 40
0.5342037438191215
 40
0.5940594289675396
 40
0.6554686942598743
 40
0.7187716848998884
 40
0.784974607219059
 40
0.853522316376702
 40
0.9251824507719316
 40
1.0
 40
1.0
 40
1.0
 40
1.0
 10
41.14543802812857
 20
13.53383087972582
 30
0.0
 10
41.14250492596306
 20
13.53558421187691
 30
0.0
 10
41.13669570153923
 20
13.53905681507326
 30
0.0
 10
41.12813378299081
 20
13.54497111748109
 30
0.0
 10
41.11986628276059
 20
13.55131192222679
 30
0.0
 10
41.11190251344909
 20
13.55815683324077
 30
0.0
 10
41.10420659686925
 20
13.5654475101265
 30
0.0
 10
41.09677821696062
 20
13.57321444629801
 30
0.0
 10
41.08966865429607
 20
13.58148195547559
 30
0.0
 10
41.08282411455392
 20
13.5901954795692
 30
0.0
 10
41.07627787064376
 20
13.59950415156741
 30
0.0
 10
41.06994714788617
 20
13.60934270529396
 30
0.0
 10
41.0638948290305
 20
13.61976995053978
 30
0.0
 10
41.05809184601645
 20
13.63078627091478
 30
0.0
 10
41.05257532794725
 20
13.64239194144787
 30
0.0
 10
41.04716469939164
 20
13.65457392737734
 30
0.0
 10
41.04210042496378
 20
13.66736152483429
 30
0.0
 10
41.03897199737519
 20
13.67608724135528
 30
0.0
 10
41.03737406600897
 20
13.68054414365747
 30
0.0
  0
SPLINE
  5
356
330
1F
100
AcDbEntity
  8
0
  6
SLD-Solid
 62
     7
370
    25
100
AcDbSpline
210
0.0
220
0.0
230
1.0
 70
     8
 71
     3
 72
     9
 73
     5
 74
     0
 42
0.00000001
 43
0.00000001
 40
0.0
 40
0.0
 40
0.0
 40
0.0
 40
0.4114708237626488
 40
1.0
 40
1.0
 40
1.0
 40
1.0
 10
41.17884621859918
 20
13.60145331981134
 30
0.0
 10
41.18082590884363
 20
13.60280523680118
 30
0.0
 10
41.18563716186603
 20
13.60609080873427
 30
0.0
 10
41.18640927866524
 20
13.61391579300755
 30
0.0
 10
41.18686369192904
 20
13.61852102455598
 30
0.0
  0
SPLINE
  5
357
330
1F
100
AcDbEntity
  8
0
  6
SLD-Solid
 62
     7
370
    25
100
AcDbSpline
210
0.0
220
0.0
230
1.0
 70
     8
 71
     3
 72
    19
 73
    15
 74
     0
 42
0.00000001
 43
0.00000001
 40
0.0
 40
0.0
 40
0.0
 40
0.0
 40
0.0763466063531701
 40
0.1550908218146645
 40
0.2383515612585566
 40
0.3284041399329871
 40
0.3793838595513589
 40
0.4396176441748209
 40
0.5098314158313143
 40
0.5888746449969577
 40
0.6774363544094507
 40
0.775546719619675
 40
0.8826358717258564
 40
0.9999999999999999
 40
0.9999999999999999
 40
0.9999999999999999
 40
0.9999999999999999
 10
41.18686369192904
 20
13.61852102455598
 30
0.0
 10
41.18675077030095
 20
13.62084600239974
 30
0.0
 10
41.18652138082396
 20
13.62556897230913
 30
0.0
 10
41.18483176862955
 20
13.63336976867399
 30
0.0
 10
41.18219038941429
 20
13.64171690439179
 30
0.0
 10
41.17906545153864
 20
13.64911672762444
 30
0.0
 10
41.175885435956
 20
13.65563775249761
 30
0.0
 10
41.17284462380483
 20
13.66145272533314
 30
0.0
 10
41.16914171899655
 20
13.66807545810913
 30
0.0
 10
41.16478611046452
 20
13.67550617261448
 30
0.0
 10
41.15983534716229
 20
13.68375492576027
 30
0.0
 10
41.15428525871337
 20
13.69282359717121
 30
0.0
 10
41.1480722907337
 20
13.70269721525243
 30
0.0
 10
41.14368095270674
 20
13.70951488760637
 30
0.0
 10
41.14138477080813
 20
13.7130797727857
 30
0.0
  0
SPLINE
  5
358
330
1F
100
AcDbEntity
  8
0
  6
SLD-Solid
 62
     7
370
    25
100
AcDbSpline
210
0.0
220
0.0
230
1.0
 70
     8
 71
     3
 72
    19
 73
    15
 74
     0
 42
0.00000001
 43
0.00000001
 40
0.0
 40
0.0
 40
0.0
 40
0.0
 40
0.1121245812797442
 40
0.2152010090762411
 40
0.309902452493476
 40
0.3959590963320905
 40
0.473447494000333
 40
0.5421403275660301
 40
0.6025233330554092
 40
0.6547263328340143
 40
0.7478040553141012
 40
0.8352784168250078
 40
0.9189252427194493
 40
0.9999999999999999
 40
0.9999999999999999
 40
0.9999999999999999
 40
0.9999999999999999
 10
41.14138477080813
 20
13.7130797727857
 30
0.0
 10
41.13701963762869
 20
13.71986462159467
 30
0.0
 10
41.12864162582925
 20
13.73288680008092
 30
0.0
 10
41.11680243222274
 20
13.75181137614668
 30
0.0
 10
41.10613425871625
 20
13.76926915243324
 30
0.0
 10
41.09672924711322
 20
13.78534661906129
 30
0.0
 10
41.0884675630162
 20
13.79991630979727
 30
0.0
 10
41.08140515813959
 20
13.81302552636846
 30
0.0
 10
41.07561961621239
 20
13.82469915153357
 30
0.0
 10
41.06953158085513
 20
13.83808441294603
 30
0.0
 10
41.06374673004277
 20
13.85345207875704
 30
0.0
 10
41.05874697733976
 20
13.87080962438353
 30
0.0
 10
41.05550334881083
 20
13.88715154491642
 30
0.0
 10
41.05513994534729
 20
13.89707530062553
 30
0.0
 10
41.05496108082309
 20
13.90195970053184
 30
0.0
  0
SPLINE
  5
359
330
1F
100
AcDbEntity
  8
0
  6
SLD-Solid
 62
     7
370
    25
100
AcDbSpline
210
0.0
220
0.0
230
1.0
 70
     8
 71
     3
 72
    10
 73
     6
 74
     0
 42
0.00000001
 43
0.00000001
 40
0.0
 40
0.0
 40
0.0
 40
0.0
 40
0.3726075901667533
 40
0.7449295414340433
 40
1.0
 40
1.0
 40
1.0
 40
1.0
 10
41.05496108082308
 20
13.90195970053184
 30
0.0
 10
41.05566582016186
 20
13.91154745429994
 30
0.0
 10
41.05707475859015
 20
13.9307156119176
 30
0.0
 10
41.06755116207586
 20
13.9496146659978
 30
0.0
 10
41.07809387798248
 20
13.95519316346286
 30
0.0
 10
41.08238008759976
 20
13.95746113783459
 30
0.0
  0
LINE
  5
35A
330
1F
100
AcDbEntity
  8
0
  6
SLD-Solid
 62
     7
370
    25
100
AcDbLine
 10
41.193596221
 20
13.8106622804
 30
0.0
 11
41.1932426676
 21
13.8104581784
 31
0.0
  0
LINE
  5
35B
330
1F
100
AcDbEntity
  8
0
  6
SLD-Solid
 62
     7
370
    25
100
AcDbLine
 10
41.0549610808
 20
13.9019597005
 30
0.0
 11
41.0546075274
 21
13.9017555985
 31
0.0
  0
LINE
  5
35C
330
1F
100
AcDbEntity
  8
0
  6
SLD-Solid
 62
     7
370
    25
100
AcDbLine
 10
41.1442701404
 20
13.8797552918
 30
0.0
 11
41.143916587
 21
13.8795511897
 31
0.0
  0
LINE
  5
35D
330
1F
100
AcDbEntity
  8
0
  6
SLD-Solid
 62
     7
370
    25
100
AcDbLine
 10
41.1413847708
 20
13.7130797728
 30
0.0
 11
41.1410312174
 21
13.7128756708
 31
0.0
  0
LINE
  5
35E
330
1F
100
AcDbEntity
  8
0
  6
SLD-Solid
 62
     7
370
    25
100
AcDbLine
 10
41.0126956093
 20
13.6206158648
 30
0.0
 11
40.9474467129
 21
13.6582832509
 31
0.0
  0
LINE
  5
35F
330
1F
100
AcDbEntity
  8
0
  6
SLD-Solid
 62
     7
370
    25
100
AcDbLine
 10
40.9474467129
 20
13.6582832509
 30
0.0
 11
40.9207913936
 21
13.7549063815
 31
0.0
  0
LINE
  5
360
330
1F
100
AcDbEntity
  8
0
  6
SLD-Solid
 62
     7
370
    25
100
AcDbLine
 10
40.9207913936
 20
13.7549063815
 30
0.0
 11
40.7713704669
 21
13.8411652464
 31
0.0
  0
LINE
  5
361
330
1F
100
AcDbEntity
  8
0
  6
SLD-Solid
 62
     7
370
    25
100
AcDbLine
 10
40.744495536
 20
13.7754444714
 30
0.0
 11
40.6790386392
 21
13.8132319337
 31
0.0
  0
LINE
  5
362
330
1F
100
AcDbEntity
  8
0
  6
SLD-Solid
 62
     7
370
    25
100
AcDbLine
 10
40.6790386392
 20
13.8132319337
 30
0.0
 11
40.8174622513
 21
14.128935773
 31
0.0
  0
LINE
  5
363
330
1F
100
AcDbEntity
  8
0
  6
SLD-Solid
 62
     7
370
    25
100
AcDbLine
 10
40.8975023388
 20
13.8394317912
 30
0.0
 11
40.8461152799
 21
14.0065782059
 31
0.0
  0
LINE
  5
364
330
1F
100
AcDbEntity
  8
0
  6
SLD-Solid
 62
     7
370
    25
100
AcDbLine
 10
41.1454380281
 20
13.5338308797
 30
0.0
 11
41.1450844747
 21
13.5336267777
 31
0.0
  0
LINE
  5
365
330
1F
100
AcDbEntity
  8
0
  6
SLD-Solid
 62
     7
370
    25
100
AcDbLine
 10
41.1868636919
 20
13.6185210246
 30
0.0
 11
41.1865101385
 21
13.6183169225
 31
0.0
  0
LINE
  5
366
330
1F
100
AcDbEntity
  8
0
  6
SLD-Solid
 62
     7
370
    25
100
AcDbLine
 10
40.6790386392
 20
13.8132319337
 30
0.0
 11
40.6786850858
 21
13.8130278317
 31
0.0
  0
LINE
  5
367
330
1F
100
AcDbEntity
  8
0
  6
SLD-Solid
 62
     7
370
    25
100
AcDbLine
 10
40.8975023388
 20
13.8394317912
 30
0.0
 11
40.8971487854
 21
13.8392276891
 31
0.0
  0
LINE
  5
368
330
1F
100
AcDbEntity
  8
0
  6
SLD-Solid
 62
     7
370
    25
100
AcDbLine
 10
40.8457617265
 20
14.0063741039
 30
0.0
 11
40.8971487854
 21
13.8392276891
 31
0.0
  0
LINE
  5
369
330
1F
100
AcDbEntity
  8
0
  6
SLD-Solid
 62
     7
370
    25
100
AcDbLine
 10
40.8461152799
 20
14.0065782059
 30
0.0
 11
40.8457617265
 21
14.0063741039
 31
0.0
  0
LINE
  5
36A
330
1F
100
AcDbEntity
  8
0
  6
SLD-Solid
 62
     7
370
    25
100
AcDbLine
 10
40.8971487854
 20
13.8392276891
 30
0.0
 11
40.7943746676
 21
13.8985579245
 31
0.0
  0
LINE
  5
36B
330
1F
100
AcDbEntity
  8
0
  6
SLD-Solid
 62
     7
370
    25
100
AcDbLine
 10
40.7943746676
 20
13.8985579245
 30
0.0
 11
40.8457617265
 21
14.0063741039
 31
0.0
  0
LINE
  5
36C
330
1F
100
AcDbEntity
  8
0
  6
SLD-Solid
 62
     7
370
    25
100
AcDbLine
 10
40.9474467129
 20
13.6582832509
 30
0.0
 11
40.9470931595
 21
13.6580791489
 31
0.0
  0
LINE
  5
36D
330
1F
100
AcDbEntity
  8
0
  6
SLD-Solid
 62
     7
370
    25
100
AcDbLine
 10
40.9207913936
 20
13.7549063815
 30
0.0
 11
40.9204378402
 21
13.7547022795
 31
0.0
  0
LINE
  5
36E
330
1F
100
AcDbEntity
  8
0
  6
SLD-Solid
 62
     7
370
    25
100
AcDbLine
 10
40.3668691262
 20
14.1366367147
 30
0.0
 11
40.4249634659
 21
14.3555204989
 31
0.0
  0
LINE
  5
36F
330
1F
100
AcDbEntity
  8
0
  6
SLD-Solid
 62
     7
370
    25
100
AcDbLine
 10
40.5427392744
 20
14.0351090393
 30
0.0
 11
40.5932888946
 21
14.2583482972
 31
0.0
  0
LINE
  5
370
330
1F
100
AcDbEntity
  8
0
  6
SLD-Solid
 62
     7
370
    25
100
AcDbLine
 10
40.5774354412
 20
13.8718862114
 30
0.0
 11
40.5134046832
 21
13.9088503811
 31
0.0
  0
LINE
  5
371
330
1F
100
AcDbEntity
  8
0
  6
SLD-Solid
 62
     7
370
    25
100
AcDbLine
 10
40.5134046832
 20
13.9088503811
 30
0.0
 11
40.4548042003
 21
14.1986821121
 31
0.0
  0
LINE
  5
372
330
1F
100
AcDbEntity
  8
0
  6
SLD-Solid
 62
     7
370
    25
100
AcDbLine
 10
40.3956006556
 20
13.9768571987
 30
0.0
 11
40.332038593
 21
14.0135507964
 31
0.0
  0
LINE
  5
373
330
1F
100
AcDbEntity
  8
0
  6
SLD-Solid
 62
     7
370
    25
100
AcDbLine
 10
40.332038593
 20
14.0135507964
 30
0.0
 11
40.25263546
 21
14.4550033391
 31
0.0
  0
LINE
  5
374
330
1F
100
AcDbEntity
  8
0
  6
SLD-Solid
 62
     7
370
    25
100
AcDbLine
 10
40.7713704669
 20
13.8411652464
 30
0.0
 11
40.7710169136
 21
13.8409611444
 31
0.0
  0
LINE
  5
375
330
1F
100
AcDbEntity
  8
0
  6
SLD-Solid
 62
     7
370
    25
100
AcDbLine
 10
40.5427392744
 20
14.0351090393
 30
0.0
 11
40.542385721
 21
14.0349049372
 31
0.0
  0
LINE
  5
376
330
1F
100
AcDbEntity
  8
0
  6
SLD-Solid
 62
     7
370
    25
100
AcDbLine
 10
40.3668691262
 20
14.1366367147
 30
0.0
 11
40.3665155728
 21
14.1364326127
 31
0.0
  0
LINE
  5
377
330
1F
100
AcDbEntity
  8
0
  6
SLD-Solid
 62
     7
370
    25
100
AcDbLine
 10
40.5134046832
 20
13.9088503811
 30
0.0
 11
40.5130511299
 21
13.9086462791
 31
0.0
  0
LINE
  5
378
330
1F
100
AcDbEntity
  8
0
  6
SLD-Solid
 62
     7
370
    25
100
AcDbLine
 10
40.4548042003
 20
14.1986821121
 30
0.0
 11
40.4544506469
 21
14.1984780101
 31
0.0
  0
LINE
  5
379
330
1F
100
AcDbEntity
  8
0
  6
SLD-Solid
 62
     7
370
    25
100
AcDbLine
 10
40.332038593
 20
14.0135507964
 30
0.0
 11
40.3316850396
 21
14.0133466944
 31
0.0
  0
LINE
  5
37A
330
1F
100
AcDbEntity
  8
0
  6
SLD-Solid
 62
     7
370
    25
100
AcDbLine
 10
27.661480342
 20
17.2170836748
 30
0.0
 11
33.661480342
 21
17.2170836748
 31
0.0
  0
LINE
  5
37B
330
1F
100
AcDbEntity
  8
0
  6
SLD-Solid
 62
     7
370
    25
100
AcDbLine
 10
33.661480342
 20
17.2170836748
 30
0.0
 11
33.661480342
 21
11.2170836748
 31
0.0
  0
LINE
  5
37C
330
1F
100
AcDbEntity
  8
0
  6
SLD-Solid
 62
     7
370
    25
100
AcDbLine
 10
27.661480342
 20
11.2170836748
 30
0.0
 11
33.661480342
 21
11.2170836748
 31
0.0
  0
LINE
  5
37D
330
1F
100
AcDbEntity
  8
0
  6
SLD-Solid
 62
     7
370
    25
100
AcDbLine
 10
27.661480342
 20
17.2170836748
 30
0.0
 11
27.661480342
 21
11.2170836748
 31
0.0
  0
LINE
  5
37E
330
1F
100
AcDbEntity
  8
0
  6
SLD-Solid
 62
     7
370
    25
100
AcDbLine
 10
33.561480342
 20
17.1170836748
 30
0.0
 11
27.761480342
 21
17.1170836748
 31
0.0
  0
LINE
  5
37F
330
1F
100
AcDbEntity
  8
0
  6
SLD-Solid
 62
     7
370
    25
100
AcDbLine
 10
27.761480342
 20
17.1170836748
 30
0.0
 11
27.761480342
 21
15.9170836748
 31
0.0
  0
LINE
  5
380
330
1F
100
AcDbEntity
  8
0
  6
SLD-Solid
 62
     7
370
    25
100
AcDbLine
 10
27.761480342
 20
15.9170836748
 30
0.0
 11
33.561480342
 21
15.9170836748
 31
0.0
  0
LINE
  5
381
330
1F
100
AcDbEntity
  8
0
  6
SLD-Solid
 62
     7
370
    25
100
AcDbLine
 10
33.561480342
 20
15.9170836748
 30
0.0
 11
33.561480342
 21
17.1170836748
 31
0.0
  0
LINE
  5
382
330
1F
100
AcDbEntity
  8
0
  6
SLD-Solid
 62
     7
370
    25
100
AcDbLine
 10
27.761480342
 20
12.5170836748
 30
0.0
 11
33.561480342
 21
12.5170836748
 31
0.0
  0
LINE
  5
383
330
1F
100
AcDbEntity
  8
0
  6
SLD-Solid
 62
     7
370
    25
100
AcDbLine
 10
33.561480342
 20
12.5170836748
 30
0.0
 11
33.561480342
 21
11.3170836748
 31
0.0
  0
LINE
  5
384
330
1F
100
AcDbEntity
  8
0
  6
SLD-Solid
 62
     7
370
    25
100
AcDbLine
 10
33.561480342
 20
11.3170836748
 30
0.0
 11
27.761480342
 21
11.3170836748
 31
0.0
  0
LINE
  5
385
330
1F
100
AcDbEntity
  8
0
  6
SLD-Solid
 62
     7
370
    25
100
AcDbLine
 10
27.761480342
 20
11.3170836748
 30
0.0
 11
27.761480342
 21
12.5170836748
 31
0.0
  0
MTEXT
  5
386
330
1F
100
AcDbEntity
  8
NOTES
100
AcDbMText
 10
26.4180152474
 20
19.2019070052
 30
0.0
 40
0.5
 41
0.0
 71
     1
 72
     1
  1
adhesive mounting tape
  7
SLDTEXTSTYLE0
 73
     1
 44
1.0
  0
LEADER
  5
388
330
1F
100
AcDbEntity
  8
NOTES
100
AcDbLeader
  3
SLDDIMSTYLE3
 76
     3
 10
28.5465723261
 20
17.1170836748
 30
0.0
 10
25.8947119876
 20
18.9576707521
 30
0.0
 10
26.3947119876
 20
18.9576707521
 30
0.0
  0
LEADER
  5
389
330
1F
100
AcDbEntity
  8
NOTES
100
AcDbLeader
  3
SLDDIMSTYLE3
 76
     3
 10
28.7455512761
 20
12.5170836748
 30
0.0
 10
25.8947119876
 20
18.9576707521
 30
0.0
 10
26.3947119876
 20
18.9576707521
 30
0.0
  0
ENDSEC
  0
SECTION
  2
OBJECTS
  0
DICTIONARY
  5
C
330
0
100
AcDbDictionary
281
     1
  3
ACAD_GROUP
350
D
  3
ACAD_LAYOUT
350
1A
  3
ACAD_MLINESTYLE
350
17
  3
ACAD_PLOTSETTINGS
350
19
  3
ACAD_PLOTSTYLENAME
350
E
  3
ACAD_SCALELIST
350
47
  3
DWGPROPS
350
38A
  0
DICTIONARY
  5
D
102
{ACAD_REACTORS
330
C
102
}
330
C
100
AcDbDictionary
281
     1
  0
DICTIONARY
  5
1A
102
{ACAD_REACTORS
330
C
102
}
330
C
100
AcDbDictionary
281
     1
  3
Layout1
350
1E
  3
Layout2
350
26
  3
Model
350
22
  0
DICTIONARY
  5
17
102
{ACAD_REACTORS
330
C
102
}
330
C
100
AcDbDictionary
281
     1
  3
Standard
350
18
  0
DICTIONARY
  5
19
102
{ACAD_REACTORS
330
C
102
}
330
C
100
AcDbDictionary
281
     1
  0
ACDBDICTIONARYWDFLT
  5
E
102
{ACAD_REACTORS
330
C
102
}
330
C
100
AcDbDictionary
281
     1
  3
Normal
350
F
100
AcDbDictionaryWithDefault
340
F
  0
DICTIONARY
  5
47
102
{ACAD_REACTORS
330
C
102
}
330
C
100
AcDbDictionary
281
     1
  3
A0
350
48
  3
A1
350
49
  3
A2
350
4A
  3
A3
350
4B
  3
A4
350
4C
  3
A5
350
4D
  3
A6
350
4E
  3
A7
350
4F
  3
A8
350
50
  3
A9
350
51
  3
B0
350
52
  3
B1
350
53
  3
B2
350
54
  3
B3
350
55
  3
B4
350
56
  3
B5
350
57
  3
B6
350
58
  3
B7
350
59
  3
B8
350
5A
  3
B9
350
5B
  3
C0
350
5C
  3
C1
350
5D
  3
C2
350
5E
  3
C3
350
5F
  3
C4
350
60
  3
C5
350
61
  3
C6
350
62
  3
C7
350
63
  3
C8
350
64
  3
C9
350
65
  3
D0
350
66
  3
D1
350
67
  3
D2
350
68
  0
XRECORD
  5
38A
102
{ACAD_REACTORS
330
C
102
}
330
C
100
AcDbXrecord
280
     1
  1
DWGPROPS COOKIE
  2

  3

  4

  6

  7

  8
carl
  9

300
=
301
=
302
=
303
=
304
=
305
=
306
=
307
=
308
=
309
=
 40
0.0
 41
2459475.589685463
 42
2459475.589688762
  1

 90
        0
  0
LAYOUT
  5
1E
102
{ACAD_REACTORS
330
1A
102
}
330
1A
100
AcDbPlotSettings
  1

  2
none_device
  4

  6

 40
0.0
 41
0.0
 42
0.0
 43
0.0
 44
0.0
 45
0.0
 46
0.0
 47
0.0
 48
0.0
 49
0.0
140
0.0
141
0.0
142
1.0
143
1.0
 70
   688
 72
     0
 73
     0
 74
     5
  7

 75
    16
147
1.0
148
0.0
149
0.0
100
AcDbLayout
  1
Layout1
 70
     1
 71
     1
 10
0.0
 20
0.0
 11
12.0
 21
9.0
 12
0.0
 22
0.0
 32
0.0
 14
1.0000000000E+20
 24
1.0000000000E+20
 34
1.0000000000E+20
 15
-1.0000000000E+20
 25
-1.0000000000E+20
 35
-1.0000000000E+20
146
0.0
 13
0.0
 23
0.0
 33
0.0
 16
1.0
 26
0.0
 36
0.0
 17
0.0
 27
1.0
 37
0.0
 76
     0
330
1B
  0
LAYOUT
  5
26
102
{ACAD_REACTORS
330
1A
102
}
330
1A
100
AcDbPlotSettings
  1

  2
none_device
  4

  6

 40
0.0
 41
0.0
 42
0.0
 43
0.0
 44
0.0
 45
0.0
 46
0.0
 47
0.0
 48
0.0
 49
0.0
140
0.0
141
0.0
142
1.0
143
1.0
 70
   688
 72
     0
 73
     0
 74
     5
  7

 75
    16
147
1.0
148
0.0
149
0.0
100
AcDbLayout
  1
Layout2
 70
     1
 71
     2
 10
0.0
 20
0.0
 11
0.0
 21
0.0
 12
0.0
 22
0.0
 32
0.0
 14
0.0
 24
0.0
 34
0.0
 15
0.0
 25
0.0
 35
0.0
146
0.0
 13
0.0
 23
0.0
 33
0.0
 16
1.0
 26
0.0
 36
0.0
 17
0.0
 27
1.0
 37
0.0
 76
     0
330
23
  0
LAYOUT
  5
22
102
{ACAD_REACTORS
330
1A
102
}
330
1A
100
AcDbPlotSettings
  1

  2
none_device
  4
Letter_(8.50_x_11.00_Inches)
  6

 40
6.35
 41
6.35
 42
6.35000508
 43
6.35000508
 44
215.9
 45
279.4
 46
0.0
 47
0.0
 48
0.0
 49
0.0
140
0.0
141
0.0
142
1.0
143
1.0
 70
  1712
 72
     0
 73
     0
 74
     0
  7

 75
     0
147
1.0
148
0.0
149
0.0
100
AcDbLayout
  1
Model
 70
     1
 71
     0
 10
0.0
 20
0.0
 11
48.0
 21
36.0
 12
0.0
 22
0.0
 32
0.0
 14
0.0
 24
0.0
 34
0.0
 15
48.0
 25
36.0
 35
0.0
146
0.0
 13
0.0
 23
0.0
 33
0.0
 16
1.0
 26
0.0
 36
0.0
 17
0.0
 27
1.0
 37
0.0
 76
     0
330
1F
331
29
  0
MLINESTYLE
  5
18
102
{ACAD_REACTORS
330
17
102
}
330
17
100
AcDbMlineStyle
  2
Standard
 70
     0
  3

 62
   256
 51
90.0
 52
90.0
 71
     2
 49
0.5
 62
   256
  6
BYLAYER
 49
-0.5
 62
   256
  6
BYLAYER
  0
ACDBPLACEHOLDER
  5
F
102
{ACAD_REACTORS
330
E
102
}
330
E
  0
SCALE
  5
48
102
{ACAD_REACTORS
330
47
102
}
330
47
100
AcDbScale
 70
     0
300
1:1
140
1.0
141
1.0
290
     1
  0
SCALE
  5
49
102
{ACAD_REACTORS
330
47
102
}
330
47
100
AcDbScale
 70
     0
300
1:2
140
1.0
141
2.0
290
     0
  0
SCALE
  5
4A
102
{ACAD_REACTORS
330
47
102
}
330
47
100
AcDbScale
 70
     0
300
1:4
140
1.0
141
4.0
290
     0
  0
SCALE
  5
4B
102
{ACAD_REACTORS
330
47
102
}
330
47
100
AcDbScale
 70
     0
300
1:5
140
1.0
141
5.0
290
     0
  0
SCALE
  5
4C
102
{ACAD_REACTORS
330
47
102
}
330
47
100
AcDbScale
 70
     0
300
1:8
140
1.0
141
8.0
290
     0
  0
SCALE
  5
4D
102
{ACAD_REACTORS
330
47
102
}
330
47
100
AcDbScale
 70
     0
300
1:10
140
1.0
141
10.0
290
     0
  0
SCALE
  5
4E
102
{ACAD_REACTORS
330
47
102
}
330
47
100
AcDbScale
 70
     0
300
1:16
140
1.0
141
16.0
290
     0
  0
SCALE
  5
4F
102
{ACAD_REACTORS
330
47
102
}
330
47
100
AcDbScale
 70
     0
300
1:20
140
1.0
141
20.0
290
     0
  0
SCALE
  5
50
102
{ACAD_REACTORS
330
47
102
}
330
47
100
AcDbScale
 70
     0
300
1:30
140
1.0
141
30.0
290
     0
  0
SCALE
  5
51
102
{ACAD_REACTORS
330
47
102
}
330
47
100
AcDbScale
 70
     0
300
1:40
140
1.0
141
40.0
290
     0
  0
SCALE
  5
52
102
{ACAD_REACTORS
330
47
102
}
330
47
100
AcDbScale
 70
     0
300
1:50
140
1.0
141
50.0
290
     0
  0
SCALE
  5
53
102
{ACAD_REACTORS
330
47
102
}
330
47
100
AcDbScale
 70
     0
300
1:100
140
1.0
141
100.0
290
     0
  0
SCALE
  5
54
102
{ACAD_REACTORS
330
47
102
}
330
47
100
AcDbScale
 70
     0
300
2:1
140
2.0
141
1.0
290
     0
  0
SCALE
  5
55
102
{ACAD_REACTORS
330
47
102
}
330
47
100
AcDbScale
 70
     0
300
4:1
140
4.0
141
1.0
290
     0
  0
SCALE
  5
56
102
{ACAD_REACTORS
330
47
102
}
330
47
100
AcDbScale
 70
     0
300
8:1
140
8.0
141
1.0
290
     0
  0
SCALE
  5
57
102
{ACAD_REACTORS
330
47
102
}
330
47
100
AcDbScale
 70
     0
300
10:1
140
10.0
141
1.0
290
     0
  0
SCALE
  5
58
102
{ACAD_REACTORS
330
47
102
}
330
47
100
AcDbScale
 70
     0
300
100:1
140
100.0
141
1.0
290
     0
  0
SCALE
  5
59
102
{ACAD_REACTORS
330
47
102
}
330
47
100
AcDbScale
 70
     0
300
1/128" = 1'-0"
140
0.0078125
141
12.0
290
     0
  0
SCALE
  5
5A
102
{ACAD_REACTORS
330
47
102
}
330
47
100
AcDbScale
 70
     0
300
1/64" = 1'-0"
140
0.015625
141
12.0
290
     0
  0
SCALE
  5
5B
102
{ACAD_REACTORS
330
47
102
}
330
47
100
AcDbScale
 70
     0
300
1/32" = 1'-0"
140
0.03125
141
12.0
290
     0
  0
SCALE
  5
5C
102
{ACAD_REACTORS
330
47
102
}
330
47
100
AcDbScale
 70
     0
300
1/16" = 1'-0"
140
0.0625
141
12.0
290
     0
  0
SCALE
  5
5D
102
{ACAD_REACTORS
330
47
102
}
330
47
100
AcDbScale
 70
     0
300
3/32" = 1'-0"
140
0.09375
141
12.0
290
     0
  0
SCALE
  5
5E
102
{ACAD_REACTORS
330
47
102
}
330
47
100
AcDbScale
 70
     0
300
1/8" = 1'-0"
140
0.125
141
12.0
290
     0
  0
SCALE
  5
5F
102
{ACAD_REACTORS
330
47
102
}
330
47
100
AcDbScale
 70
     0
300
3/16" = 1'-0"
140
0.1875
141
12.0
290
     0
  0
SCALE
  5
60
102
{ACAD_REACTORS
330
47
102
}
330
47
100
AcDbScale
 70
     0
300
1/4" = 1'-0"
140
0.25
141
12.0
290
     0
  0
SCALE
  5
61
102
{ACAD_REACTORS
330
47
102
}
330
47
100
AcDbScale
 70
     0
300
3/8" = 1'-0"
140
0.375
141
12.0
290
     0
  0
SCALE
  5
62
102
{ACAD_REACTORS
330
47
102
}
330
47
100
AcDbScale
 70
     0
300
1/2" = 1'-0"
140
0.5
141
12.0
290
     0
  0
SCALE
  5
63
102
{ACAD_REACTORS
330
47
102
}
330
47
100
AcDbScale
 70
     0
300
3/4" = 1'-0"
140
0.75
141
12.0
290
     0
  0
SCALE
  5
64
102
{ACAD_REACTORS
330
47
102
}
330
47
100
AcDbScale
 70
     0
300
1" = 1'-0"
140
1.0
141
12.0
290
     0
  0
SCALE
  5
65
102
{ACAD_REACTORS
330
47
102
}
330
47
100
AcDbScale
 70
     0
300
1-1/2" = 1'-0"
140
1.5
141
12.0
290
     0
  0
SCALE
  5
66
102
{ACAD_REACTORS
330
47
102
}
330
47
100
AcDbScale
 70
     0
300
3" = 1'-0"
140
3.0
141
12.0
290
     0
  0
SCALE
  5
67
102
{ACAD_REACTORS
330
47
102
}
330
47
100
AcDbScale
 70
     0
300
6" = 1'-0"
140
6.0
141
12.0
290
     0
  0
SCALE
  5
68
102
{ACAD_REACTORS
330
47
102
}
330
47
100
AcDbScale
 70
     0
300
1'-0" = 1'-0"
140
12.0
141
12.0
290
     0
  0
ENDSEC
  0
EOF
