  0
SECTION
  2
HEADER
  9
$ACADVER
  1
AC1018
  9
$ACADMAINTVER
 70
    39
  9
$DWGCODEPAGE
  3
ANSI_1252
  9
$LASTSAVEDBY
  1
fottrem
  9
$INSBASE
 10
0.0
 20
0.0
 30
0.0
  9
$EXTMIN
 10
0.1653543307086614
 20
0.1653543307086614
 30
-7.396568976397787
  9
$EXTMAX
 10
69.83464566929135
 20
49.83464566929134
 30
2.765474409448966
  9
$LIMMIN
 10
0.0
 20
0.0
  9
$LIMMAX
 10
70.0
 20
50.0
  9
$ORTHOMODE
 70
     0
  9
$REGENMODE
 70
     1
  9
$FILLMODE
 70
     1
  9
$QTEXTMODE
 70
     0
  9
$MIRRTEXT
 70
     1
  9
$LTSCALE
 40
1.0
  9
$ATTMODE
 70
     1
  9
$TEXTSIZE
 40
0.5
  9
$TRACEWID
 40
0.05
  9
$TEXTSTYLE
  7
Standard
  9
$CLAYER
  8
0
  9
$CELTYPE
  6
ByLayer
  9
$CECOLOR
 62
   256
  9
$CELTSCALE
 40
1.0
  9
$DISPSILH
 70
     0
  9
$DIMSCALE
 40
1.0
  9
$DIMASZ
 40
0.3
  9
$DIMEXO
 40
0.1666666666666667
  9
$DIMDLI
 40
0.38
  9
$DIMRND
 40
0.0
  9
$DIMDLE
 40
0.0
  9
$DIMEXE
 40
0.3750000000000001
  9
$DIMTP
 40
0.0
  9
$DIMTM
 40
0.0
  9
$DIMTXT
 40
0.5
  9
$DIMCEN
 40
0.09
  9
$DIMTSZ
 40
0.0
  9
$DIMTOL
 70
     0
  9
$DIMLIM
 70
     0
  9
$DIMTIH
 70
     1
  9
$DIMTOH
 70
     1
  9
$DIMSE1
 70
     0
  9
$DIMSE2
 70
     0
  9
$DIMTAD
 70
     0
  9
$DIMZIN
 70
     1
  9
$DIMBLK
  1

  9
$DIMASO
 70
     1
  9
$DIMSHO
 70
     1
  9
$DIMPOST
  1

  9
$DIMAPOST
  1

  9
$DIMALT
 70
     0
  9
$DIMALTD
 70
     2
  9
$DIMALTF
 40
25.4
  9
$DIMLFAC
 40
1.0
  9
$DIMTOFL
 70
     0
  9
$DIMTVP
 40
0.0
  9
$DIMTIX
 70
     0
  9
$DIMSOXD
 70
     0
  9
$DIMSAH
 70
     0
  9
$DIMBLK1
  1

  9
$DIMBLK2
  1

  9
$DIMSTYLE
  2
Standard
  9
$DIMCLRD
 70
     0
  9
$DIMCLRE
 70
     0
  9
$DIMCLRT
 70
     0
  9
$DIMTFAC
 40
1.0
  9
$DIMGAP
 40
0.125
  9
$DIMJUST
 70
     0
  9
$DIMSD1
 70
     0
  9
$DIMSD2
 70
     0
  9
$DIMTOLJ
 70
     1
  9
$DIMTZIN
 70
     1
  9
$DIMALTZ
 70
     0
  9
$DIMALTTZ
 70
     0
  9
$DIMUPT
 70
     0
  9
$DIMDEC
 70
     2
  9
$DIMTDEC
 70
     2
  9
$DIMALTU
 70
     2
  9
$DIMALTTD
 70
     2
  9
$DIMTXSTY
  7
Standard
  9
$DIMAUNIT
 70
     0
  9
$DIMADEC
 70
     2
  9
$DIMALTRND
 40
0.0
  9
$DIMAZIN
 70
     0
  9
$DIMDSEP
 70
    46
  9
$DIMATFIT
 70
     3
  9
$DIMFRAC
 70
     0
  9
$DIMLDRBLK
  1

  9
$DIMLUNIT
 70
     2
  9
$DIMLWD
 70
    -2
  9
$DIMLWE
 70
    -2
  9
$DIMTMOVE
 70
     0
  9
$LUNITS
 70
     2
  9
$LUPREC
 70
     4
  9
$SKETCHINC
 40
0.1
  9
$FILLETRAD
 40
0.5
  9
$AUNITS
 70
     0
  9
$AUPREC
 70
     2
  9
$MENU
  1
.
  9
$ELEVATION
 40
0.0
  9
$PELEVATION
 40
0.0
  9
$THICKNESS
 40
0.0
  9
$LIMCHECK
 70
     0
  9
$CHAMFERA
 40
0.0
  9
$CHAMFERB
 40
0.0
  9
$CHAMFERC
 40
0.0
  9
$CHAMFERD
 40
0.0
  9
$SKPOLY
 70
     0
  9
$TDCREATE
 40
2453353.550459155
  9
$TDUCREATE
 40
2453353.717125822
  9
$TDUPDATE
 40
2459488.569850937
  9
$TDUUPDATE
 40
2459488.736517604
  9
$TDINDWG
 40
0.0428472338
  9
$TDUSRTIMER
 40
0.0428472338
  9
$USRTIMER
 70
     1
  9
$ANGBASE
 50
0.0
  9
$ANGDIR
 70
     0
  9
$PDMODE
 70
     0
  9
$PDSIZE
 40
-1.0
  9
$PLINEWID
 40
0.0
  9
$SPLFRAME
 70
     0
  9
$SPLINETYPE
 70
     6
  9
$SPLINESEGS
 70
     8
  9
$HANDSEED
  5
3E5
  9
$SURFTAB1
 70
     6
  9
$SURFTAB2
 70
     6
  9
$SURFTYPE
 70
     6
  9
$SURFU
 70
     6
  9
$SURFV
 70
     6
  9
$UCSBASE
  2

  9
$UCSNAME
  2

  9
$UCSORG
 10
0.0
 20
0.0
 30
0.0
  9
$UCSXDIR
 10
1.0
 20
0.0
 30
0.0
  9
$UCSYDIR
 10
0.0
 20
1.0
 30
0.0
  9
$UCSORTHOREF
  2

  9
$UCSORTHOVIEW
 70
     0
  9
$UCSORGTOP
 10
0.0
 20
0.0
 30
0.0
  9
$UCSORGBOTTOM
 10
0.0
 20
0.0
 30
0.0
  9
$UCSORGLEFT
 10
0.0
 20
0.0
 30
0.0
  9
$UCSORGRIGHT
 10
0.0
 20
0.0
 30
0.0
  9
$UCSORGFRONT
 10
0.0
 20
0.0
 30
0.0
  9
$UCSORGBACK
 10
0.0
 20
0.0
 30
0.0
  9
$PUCSBASE
  2

  9
$PUCSNAME
  2

  9
$PUCSORG
 10
0.0
 20
0.0
 30
0.0
  9
$PUCSXDIR
 10
1.0
 20
0.0
 30
0.0
  9
$PUCSYDIR
 10
0.0
 20
1.0
 30
0.0
  9
$PUCSORTHOREF
  2

  9
$PUCSORTHOVIEW
 70
     0
  9
$PUCSORGTOP
 10
0.0
 20
0.0
 30
0.0
  9
$PUCSORGBOTTOM
 10
0.0
 20
0.0
 30
0.0
  9
$PUCSORGLEFT
 10
0.0
 20
0.0
 30
0.0
  9
$PUCSORGRIGHT
 10
0.0
 20
0.0
 30
0.0
  9
$PUCSORGFRONT
 10
0.0
 20
0.0
 30
0.0
  9
$PUCSORGBACK
 10
0.0
 20
0.0
 30
0.0
  9
$USERI1
 70
     0
  9
$USERI2
 70
     0
  9
$USERI3
 70
     0
  9
$USERI4
 70
     0
  9
$USERI5
 70
     0
  9
$USERR1
 40
0.0
  9
$USERR2
 40
0.0
  9
$USERR3
 40
0.0
  9
$USERR4
 40
0.0
  9
$USERR5
 40
0.0
  9
$WORLDVIEW
 70
     1
  9
$SHADEDGE
 70
     3
  9
$SHADEDIF
 70
    70
  9
$TILEMODE
 70
     1
  9
$MAXACTVP
 70
    64
  9
$PINSBASE
 10
0.0
 20
0.0
 30
0.0
  9
$PLIMCHECK
 70
     0
  9
$PEXTMIN
 10
1.000000000000000E+20
 20
1.000000000000000E+20
 30
1.000000000000000E+20
  9
$PEXTMAX
 10
-1.000000000000000E+20
 20
-1.000000000000000E+20
 30
-1.000000000000000E+20
  9
$PLIMMIN
 10
0.0
 20
0.0
  9
$PLIMMAX
 10
12.0
 20
9.0
  9
$UNITMODE
 70
     0
  9
$VISRETAIN
 70
     1
  9
$PLINEGEN
 70
     0
  9
$PSLTSCALE
 70
     1
  9
$TREEDEPTH
 70
  3020
  9
$CMLSTYLE
  2
Standard
  9
$CMLJUST
 70
     0
  9
$CMLSCALE
 40
1.0
  9
$PROXYGRAPHICS
 70
     1
  9
$MEASUREMENT
 70
     0
  9
$CELWEIGHT
370
    -1
  9
$ENDCAPS
280
     0
  9
$JOINSTYLE
280
     0
  9
$LWDISPLAY
290
     1
  9
$INSUNITS
 70
     1
  9
$HYPERLINKBASE
  1

  9
$STYLESHEET
  1

  9
$XEDIT
290
     0
  9
$CEPSNTYPE
380
     0
  9
$PSTYLEMODE
290
     1
  9
$FINGERPRINTGUID
  2
{1b7c5f5a-844b-4cf6-949b-42e507be157c}
  9
$VERSIONGUID
  2
{FAEB1C32-E019-11D5-929B-00C0DF256EC4}
  9
$EXTNAMES
290
     1
  9
$PSVPSCALE
 40
0.0
  9
$OLESTARTUP
290
     0
  9
$SORTENTS
280
   127
  9
$INDEXCTL
280
     0
  9
$HIDETEXT
280
     1
  9
$XCLIPFRAME
290
     0
  9
$HALOGAP
280
     0
  9
$OBSCOLOR
 70
   257
  9
$OBSLTYPE
280
     0
  9
$INTERSECTIONDISPLAY
280
     0
  9
$INTERSECTIONCOLOR
 70
   257
  9
$DIMASSOC
280
     2
  9
$PROJECTNAME
  1

  0
ENDSEC
  0
SECTION
  2
CLASSES
  0
CLASS
  1
ACDBDICTIONARYWDFLT
  2
AcDbDictionaryWithDefault
  3
ObjectDBX Classes
 90
        0
 91
        3
280
     0
281
     0
  0
CLASS
  1
ACDBPLACEHOLDER
  2
AcDbPlaceHolder
  3
ObjectDBX Classes
 90
        0
 91
        1
280
     0
281
     0
  0
CLASS
  1
LAYOUT
  2
AcDbLayout
  3
ObjectDBX Classes
 90
        0
 91
        1
280
     0
281
     0
  0
CLASS
  1
DICTIONARYVAR
  2
AcDbDictionaryVar
  3
ObjectDBX Classes
 90
        0
 91
        3
280
     0
281
     0
  0
CLASS
  1
TABLESTYLE
  2
AcDbTableStyle
  3
ObjectDBX Classes
 90
     2047
 91
        3
280
     0
281
     0
  0
CLASS
  1
SCALE
  2
AcDbScale
  3
ObjectDBX Classes
 90
     1153
 91
       67
280
     1
281
     0
  0
ENDSEC
  0
SECTION
  2
TABLES
  0
TABLE
  2
VPORT
  5
8
330
0
100
AcDbSymbolTable
 70
     2
  0
VPORT
  5
97
330
8
100
AcDbSymbolTableRecord
100
AcDbViewportTableRecord
  2
*Active
 70
     0
 10
0.0
 20
0.0
 11
1.0
 21
1.0
 12
35.00000000000001
 22
25.0
 13
0.0
 23
0.0
 14
0.5
 24
0.5
 15
0.5
 25
0.5
 16
0.0
 26
0.0
 36
1.0
 17
0.0
 27
0.0
 37
0.0
 40
50.66267716535433
 41
1.4
 42
50.0
 43
0.0
 44
0.0
 50
0.0
 51
0.0
 71
    16
 72
  2000
 73
     1
 74
     1
 75
     0
 76
     0
 77
     0
 78
     0
281
     0
 65
     0
110
0.0
120
0.0
130
0.0
111
1.0
121
0.0
131
0.0
112
0.0
122
1.0
132
0.0
 79
     0
146
0.0
  0
ENDTAB
  0
TABLE
  2
LTYPE
  5
5
330
0
100
AcDbSymbolTable
 70
     8
  0
LTYPE
  5
14
330
5
100
AcDbSymbolTableRecord
100
AcDbLinetypeTableRecord
  2
ByBlock
 70
     0
  3

 72
    65
 73
     0
 40
0.0
  0
LTYPE
  5
15
330
5
100
AcDbSymbolTableRecord
100
AcDbLinetypeTableRecord
  2
ByLayer
 70
     0
  3

 72
    65
 73
     0
 40
0.0
  0
LTYPE
  5
16
330
5
100
AcDbSymbolTableRecord
100
AcDbLinetypeTableRecord
  2
Continuous
 70
     0
  3
Solid line
 72
    65
 73
     0
 40
0.0
  0
LTYPE
  5
3AD
330
5
100
AcDbSymbolTableRecord
100
AcDbLinetypeTableRecord
  2
SLD-Solid
 70
     0
  3
SolidWorks Line Style
 72
    65
 73
     0
 40
0.0
  0
LTYPE
  5
3AE
330
5
100
AcDbSymbolTableRecord
100
AcDbLinetypeTableRecord
  2
SLD-Dashed
 70
     0
  3
SolidWorks Line Style
 72
    65
 73
     2
 40
0.075
 49
0.05
 74
     4
 75
     0
340
0
 46
1.0
 50
0.0
 44
0.0
 45
0.0
 49
-0.025
 74
     4
 75
     0
340
0
 46
1.0
 50
0.0
 44
0.0
 45
0.0
  0
LTYPE
  5
3AF
330
5
100
AcDbSymbolTableRecord
100
AcDbLinetypeTableRecord
  2
SLD-Phantom
 70
     0
  3
SolidWorks Line Style
 72
    65
 73
     6
 40
0.4999999999999999
 49
0.25
 74
     4
 75
     0
340
0
 46
1.0
 50
0.0
 44
0.0
 45
0.0
 49
-0.05
 74
     4
 75
     0
340
0
 46
1.0
 50
0.0
 44
0.0
 45
0.0
 49
0.05
 74
     4
 75
     0
340
0
 46
1.0
 50
0.0
 44
0.0
 45
0.0
 49
-0.05
 74
     4
 75
     0
340
0
 46
1.0
 50
0.0
 44
0.0
 45
0.0
 49
0.05
 74
     4
 75
     0
340
0
 46
1.0
 50
0.0
 44
0.0
 45
0.0
 49
-0.05
 74
     4
 75
     0
340
0
 46
1.0
 50
0.0
 44
0.0
 45
0.0
  0
LTYPE
  5
3B0
330
5
100
AcDbSymbolTableRecord
100
AcDbLinetypeTableRecord
  2
SLD-Chain
 70
     0
  3
SolidWorks Line Style
 72
    65
 73
     4
 40
0.4
 49
0.25
 74
     4
 75
     0
340
0
 46
1.0
 50
0.0
 44
0.0
 45
0.0
 49
-0.05
 74
     4
 75
     0
340
0
 46
1.0
 50
0.0
 44
0.0
 45
0.0
 49
0.05
 74
     4
 75
     0
340
0
 46
1.0
 50
0.0
 44
0.0
 45
0.0
 49
-0.05
 74
     4
 75
     0
340
0
 46
1.0
 50
0.0
 44
0.0
 45
0.0
  0
LTYPE
  5
3B1
330
5
100
AcDbSymbolTableRecord
100
AcDbLinetypeTableRecord
  2
SLD-Center
 70
     0
  3
SolidWorks Line Style
 72
    65
 73
     4
 40
0.7500000000000002
 49
0.6000000000000001
 74
     4
 75
     0
340
0
 46
1.0
 50
0.0
 44
0.0
 45
0.0
 49
-0.05
 74
     4
 75
     0
340
0
 46
1.0
 50
0.0
 44
0.0
 45
0.0
 49
0.05
 74
     4
 75
     0
340
0
 46
1.0
 50
0.0
 44
0.0
 45
0.0
 49
-0.05
 74
     4
 75
     0
340
0
 46
1.0
 50
0.0
 44
0.0
 45
0.0
  0
LTYPE
  5
3B2
330
5
100
AcDbSymbolTableRecord
100
AcDbLinetypeTableRecord
  2
SLD-Stitch
 70
     0
  3
SolidWorks Line Style
 72
    65
 73
     2
 40
0.025
 49
0.0
 74
     4
 75
     0
340
0
 46
1.0
 50
0.0
 44
0.0
 45
0.0
 49
-0.025
 74
     4
 75
     0
340
0
 46
1.0
 50
0.0
 44
0.0
 45
0.0
  0
LTYPE
  5
3B3
330
5
100
AcDbSymbolTableRecord
100
AcDbLinetypeTableRecord
  2
SLD-Thin-Thick-Chain
 70
     0
  3
SolidWorks Line Style
 72
    65
 73
     4
 40
0.4
 49
0.25
 74
     4
 75
     0
340
0
 46
1.0
 50
0.0
 44
0.0
 45
0.0
 49
-0.05
 74
     4
 75
     0
340
0
 46
1.0
 50
0.0
 44
0.0
 45
0.0
 49
0.05
 74
     4
 75
     0
340
0
 46
1.0
 50
0.0
 44
0.0
 45
0.0
 49
-0.05
 74
     4
 75
     0
340
0
 46
1.0
 50
0.0
 44
0.0
 45
0.0
  0
ENDTAB
  0
TABLE
  2
LAYER
  5
2
330
0
100
AcDbSymbolTable
 70
     6
  0
LAYER
  5
10
330
2
100
AcDbSymbolTableRecord
100
AcDbLayerTableRecord
  2
0
 70
     0
 62
     7
  6
Continuous
370
    -3
390
F
  0
LAYER
  5
3B4
330
2
100
AcDbSymbolTableRecord
100
AcDbLayerTableRecord
  2
FORMAT
 70
     0
 62
     7
  6
SLD-Solid
370
    -3
390
F
  0
LAYER
  5
3B5
330
2
100
AcDbSymbolTableRecord
100
AcDbLayerTableRecord
  2
NOTES
 70
     0
 62
     1
  6
SLD-Solid
370
    -3
390
F
  0
LAYER
  5
77
330
2
100
AcDbSymbolTableRecord
100
AcDbLayerTableRecord
  2
OBJECT
 70
     0
 62
     7
  6
SLD-Solid
370
    -3
390
F
  0
LAYER
  5
78
330
2
100
AcDbSymbolTableRecord
100
AcDbLayerTableRecord
  2
DIMS
 70
     0
 62
     5
  6
SLD-Solid
370
    -3
390
F
  0
LAYER
  5
79
330
2
100
AcDbSymbolTableRecord
100
AcDbLayerTableRecord
  2
TITLE
 70
     0
 62
     8
  6
SLD-Solid
370
    -3
390
F
  0
ENDTAB
  0
TABLE
  2
STYLE
  5
3
330
0
100
AcDbSymbolTable
 70
     5
  0
STYLE
  5
11
330
3
100
AcDbSymbolTableRecord
100
AcDbTextStyleTableRecord
  2
Standard
 70
     0
 40
0.0
 41
1.0
 50
0.0
 71
     0
 42
0.5
  3
GOTHIC.TTF
  4

1001
ACAD
1000
CENTURY GOTHIC
1071
       34
  0
STYLE
  5
101
330
3
100
AcDbSymbolTableRecord
100
AcDbTextStyleTableRecord
  2
SLDTEXTSTYLE0
 70
     0
 40
0.0
 41
0.948
 50
0.0
 71
     0
 42
0.5
  3
ARIAL.TTF
  4

1001
ACAD
1000
Arial
1071
      290
  0
STYLE
  5
105
330
3
100
AcDbSymbolTableRecord
100
AcDbTextStyleTableRecord
  2
SLDTEXTSTYLE1
 70
     0
 40
0.0
 41
0.913
 50
0.0
 71
     0
 42
0.5
  3
GOTHIC.TTF
  4

1001
ACAD
1000
Century Gothic
1071
      290
  0
STYLE
  5
114
330
3
100
AcDbSymbolTableRecord
100
AcDbTextStyleTableRecord
  2
SLDTEXTSTYLE2
 70
     0
 40
0.0
 41
0.87
 50
0.0
 71
     0
 42
0.5
  3
ARIALNB.TTF
  4

1001
ACAD
1000
Arial Narrow
1071
 33554722
  0
STYLE
  5
116
330
3
100
AcDbSymbolTableRecord
100
AcDbTextStyleTableRecord
  2
SLDTEXTSTYLE3
 70
     0
 40
0.0
 41
0.87
 50
0.0
 71
     0
 42
0.5
  3
ARIALN.TTF
  4

1001
ACAD
1000
Arial Narrow
1071
      290
  0
ENDTAB
  0
TABLE
  2
VIEW
  5
6
330
0
100
AcDbSymbolTable
 70
     0
  0
ENDTAB
  0
TABLE
  2
UCS
  5
7
330
0
100
AcDbSymbolTable
 70
     0
  0
ENDTAB
  0
TABLE
  2
APPID
  5
9
330
0
100
AcDbSymbolTable
 70
     1
  0
APPID
  5
12
330
9
100
AcDbSymbolTableRecord
100
AcDbRegAppTableRecord
  2
ACAD
 70
     0
  0
ENDTAB
  0
TABLE
  2
DIMSTYLE
  5
A
330
0
100
AcDbSymbolTable
 70
     6
100
AcDbDimStyleTable
  0
DIMSTYLE
105
27
330
A
100
AcDbSymbolTableRecord
100
AcDbDimStyleTableRecord
  2
Standard
 70
     0
340
11
  0
DIMSTYLE
105
1C2
102
{ACAD_REACTORS
330
1C1
330
244
102
}
330
A
100
AcDbSymbolTableRecord
100
AcDbDimStyleTableRecord
  2
SLDDIMSTYLE0
 70
     0
 41
0.3
 44
0.0
 45
0.000000001
 78
    12
 79
     3
140
0.5
147
0.125
173
     1
271
     2
272
     2
276
     2
277
     5
284
    12
340
105
341
3B6
343
3B6
344
3B6
  0
DIMSTYLE
105
1D4
102
{ACAD_REACTORS
330
1D3
330
1E3
330
235
330
250
330
34F
330
35E
330
383
330
392
102
}
330
A
100
AcDbSymbolTableRecord
100
AcDbDimStyleTableRecord
  2
SLDDIMSTYLE1
 70
     0
 41
0.3
 44
0.0
 45
0.000000001
 78
    12
 79
     3
140
0.5
147
0.125
173
     1
271
     6
272
     2
276
     2
277
     5
284
    12
340
105
341
3B6
343
3B6
344
3B6
  0
DIMSTYLE
105
260
102
{ACAD_REACTORS
330
25F
102
}
330
A
100
AcDbSymbolTableRecord
100
AcDbDimStyleTableRecord
  2
SLDDIMSTYLE2
 70
     0
 41
0.3
 44
0.0
 45
0.000000001
 78
    12
 79
     3
140
0.5
147
0.125
172
     1
173
     1
271
     6
272
     2
276
     2
277
     5
284
    12
289
     0
340
105
341
3B6
343
3B6
344
3B6
  0
DIMSTYLE
105
270
102
{ACAD_REACTORS
330
26F
102
}
330
A
100
AcDbSymbolTableRecord
100
AcDbDimStyleTableRecord
  2
SLDDIMSTYLE3
 70
     0
 41
0.3
 44
0.0
 45
0.000000001
 78
    12
 79
     3
140
0.5
141
0.0
147
0.125
173
     1
271
     2
272
     2
276
     2
277
     5
284
    12
340
105
341
3B6
343
3B6
344
3B6
  0
DIMSTYLE
105
27E
330
A
100
AcDbSymbolTableRecord
100
AcDbDimStyleTableRecord
  2
SLDDIMSTYLE4
 70
     0
 41
0.3
 44
0.0
 45
0.000000001
146
0.3
147
0.0
173
     1
271
     0
272
     0
276
     2
277
     5
340
11
341
3B6
343
3B6
344
3B6
  0
ENDTAB
  0
TABLE
  2
BLOCK_RECORD
  5
1
330
0
100
AcDbSymbolTable
 70
    18
  0
BLOCK_RECORD
  5
1F
330
1
100
AcDbSymbolTableRecord
100
AcDbBlockTableRecord
  2
*Model_Space
340
22
  0
BLOCK_RECORD
  5
73
330
1
100
AcDbSymbolTableRecord
100
AcDbBlockTableRecord
  2
*Paper_Space
340
74
  0
BLOCK_RECORD
  5
3B6
330
1
100
AcDbSymbolTableRecord
100
AcDbBlockTableRecord
  2
_Open90
340
0
102
{BLKREFS
331
1CC
331
1CD
331
1D8
331
1D9
331
1E7
331
1E8
331
239
331
23A
331
248
331
249
331
254
331
255
331
264
331
265
331
274
331
353
331
354
331
362
331
363
331
387
331
388
331
396
331
397
102
}
  0
BLOCK_RECORD
  5
23
330
1
100
AcDbSymbolTableRecord
100
AcDbBlockTableRecord
  2
*Paper_Space1
340
26
  0
BLOCK_RECORD
  5
10B
330
1
100
AcDbSymbolTableRecord
100
AcDbBlockTableRecord
  2
SW_NOTE_0
340
0
  0
BLOCK_RECORD
  5
111
330
1
100
AcDbSymbolTableRecord
100
AcDbBlockTableRecord
  2
SW_NOTE_0_1
340
0
102
{BLKREFS
331
11A
102
}
  0
BLOCK_RECORD
  5
1C9
330
1
100
AcDbSymbolTableRecord
100
AcDbBlockTableRecord
  2
_D
340
0
  0
BLOCK_RECORD
  5
1D5
330
1
100
AcDbSymbolTableRecord
100
AcDbBlockTableRecord
  2
_D_1
340
0
  0
BLOCK_RECORD
  5
1E4
330
1
100
AcDbSymbolTableRecord
100
AcDbBlockTableRecord
  2
_D_2
340
0
  0
BLOCK_RECORD
  5
236
330
1
100
AcDbSymbolTableRecord
100
AcDbBlockTableRecord
  2
_D_3
340
0
  0
BLOCK_RECORD
  5
245
330
1
100
AcDbSymbolTableRecord
100
AcDbBlockTableRecord
  2
_D_4
340
0
  0
BLOCK_RECORD
  5
251
330
1
100
AcDbSymbolTableRecord
100
AcDbBlockTableRecord
  2
_D_5
340
0
  0
BLOCK_RECORD
  5
261
330
1
100
AcDbSymbolTableRecord
100
AcDbBlockTableRecord
  2
_D_6
340
0
  0
BLOCK_RECORD
  5
271
330
1
100
AcDbSymbolTableRecord
100
AcDbBlockTableRecord
  2
_D_7
340
0
  0
BLOCK_RECORD
  5
2F4
330
1
100
AcDbSymbolTableRecord
100
AcDbBlockTableRecord
  2
SW_NOTE_0_2
340
0
102
{BLKREFS
331
2F9
102
}
  0
BLOCK_RECORD
  5
350
330
1
100
AcDbSymbolTableRecord
100
AcDbBlockTableRecord
  2
_D_8
340
0
  0
BLOCK_RECORD
  5
35F
330
1
100
AcDbSymbolTableRecord
100
AcDbBlockTableRecord
  2
_D_9
340
0
  0
BLOCK_RECORD
  5
384
330
1
100
AcDbSymbolTableRecord
100
AcDbBlockTableRecord
  2
_D_10
340
0
  0
BLOCK_RECORD
  5
393
330
1
100
AcDbSymbolTableRecord
100
AcDbBlockTableRecord
  2
_D_11
340
0
  0
BLOCK_RECORD
  5
3A1
330
1
100
AcDbSymbolTableRecord
100
AcDbBlockTableRecord
  2
SW_NOTE_0_3
340
0
102
{BLKREFS
331
3A6
102
}
  0
ENDTAB
  0
ENDSEC
  0
SECTION
  2
BLOCKS
  0
BLOCK
  5
20
330
1F
100
AcDbEntity
  8
0
100
AcDbBlockBegin
  2
*Model_Space
 70
     0
 71
     0
 10
0.0
 20
0.0
 30
0.0
  3
*Model_Space
  1

  0
ENDBLK
  5
21
330
1F
100
AcDbEntity
  8
0
100
AcDbBlockEnd
  0
BLOCK
  5
75
330
73
100
AcDbEntity
 67
     1
  8
0
100
AcDbBlockBegin
  2
*Paper_Space
 70
     0
 71
     0
 10
0.0
 20
0.0
 30
0.0
  3
*Paper_Space
  1

  0
ENDBLK
  5
76
330
73
100
AcDbEntity
 67
     1
  8
0
100
AcDbBlockEnd
  0
BLOCK
  5
3B7
330
3B6
100
AcDbEntity
  8
0
100
AcDbBlockBegin
  2
_Open90
 70
     0
 71
     0
 10
0.0
 20
0.0
 30
0.0
  3
_Open90
  1

  0
LINE
  5
1C6
330
3B6
100
AcDbEntity
  8
0
  6
ByBlock
 62
     0
370
    -2
100
AcDbLine
 10
-0.5
 20
0.5
 30
0.0
 11
0.0
 21
0.0
 31
0.0
  0
LINE
  5
1C7
330
3B6
100
AcDbEntity
  8
0
  6
ByBlock
 62
     0
370
    -2
100
AcDbLine
 10
0.0
 20
0.0
 30
0.0
 11
-0.5
 21
-0.5
 31
0.0
  0
LINE
  5
1C8
330
3B6
100
AcDbEntity
  8
0
  6
ByBlock
 62
     0
370
    -2
100
AcDbLine
 10
0.0
 20
0.0
 30
0.0
 11
-1.0
 21
0.0
 31
0.0
  0
ENDBLK
  5
3B8
330
3B6
100
AcDbEntity
  8
0
100
AcDbBlockEnd
  0
BLOCK
  5
3BF
330
23
100
AcDbEntity
  8
0
100
AcDbBlockBegin
  2
*Paper_Space1
 70
     0
 71
     0
 10
0.0
 20
0.0
 30
0.0
  3
*Paper_Space1
  1

  0
ENDBLK
  5
3C0
330
23
100
AcDbEntity
  8
0
100
AcDbBlockEnd
  0
BLOCK
  5
3C1
330
10B
100
AcDbEntity
  8
0
100
AcDbBlockBegin
  2
SW_NOTE_0
 70
     0
 71
     0
 10
0.0
 20
0.0
 30
0.0
  3
SW_NOTE_0
  1

  0
MTEXT
  5
10E
330
10B
100
AcDbEntity
  8
NOTES
 62
     0
100
AcDbMText
 10
0.0
 20
0.3759780907668229
 30
0.0
 40
0.2916666666666666
 41
0.0
 71
     1
 72
     1
  1
FROST PRODUCTS LTD.
  7
SLDTEXTSTYLE0
 73
     1
 44
1.0
  0
MTEXT
  5
10F
330
10B
100
AcDbEntity
  8
NOTES
 62
     0
100
AcDbMText
 10
0.0
 20
-0.0495142708586375
 30
0.0
 40
0.2291666666666666
 41
0.0
 71
     1
 72
     1
  1
5280 JOHN LUCUS DRIVE, BURLINGTON, ON, L7L 5Z9
  7
SLDTEXTSTYLE0
 73
     1
 44
1.0
  0
ENDBLK
  5
3C2
330
10B
100
AcDbEntity
  8
0
100
AcDbBlockEnd
  0
BLOCK
  5
3C3
330
111
100
AcDbEntity
  8
0
100
AcDbBlockBegin
  2
SW_NOTE_0_1
 70
     0
 71
     0
 10
0.0
 20
0.0
 30
0.0
  3
SW_NOTE_0_1
  1

  0
MTEXT
  5
115
330
111
100
AcDbEntity
  8
NOTES
 62
     0
100
AcDbMText
 10
0.0
 20
0.2381282770514712
 30
0.0
 40
0.1847290640394089
 41
0.0
 71
     1
 72
     1
  1
PROPRIETARY AND CONFIDENTIAL
  7
SLDTEXTSTYLE2
 73
     1
 44
1.0
  0
MTEXT
  5
117
330
111
100
AcDbEntity
  8
NOTES
 62
     0
100
AcDbMText
 10
0.0
 20
-0.0504364795553608
 30
0.0
 40
0.25
 41
0.0
 71
     1
 72
     1
  1
THE INFORMATION CONTAINED IN THIS DRAWING IS THE SOLE PROPERTY OF 
  7
SLDTEXTSTYLE3
 73
     1
 44
1.0
  0
MTEXT
  5
118
330
111
100
AcDbEntity
  8
NOTES
 62
     0
100
AcDbMText
 10
0.0
 20
-0.4231398940537119
 30
0.0
 40
0.25
 41
0.0
 71
     1
 72
     1
  1
FROST PRODUCTS LTD.  ANY REPRODUCTION IN PART OR AS A WHOLE WITHOUT 
  7
SLDTEXTSTYLE3
 73
     1
 44
1.0
  0
MTEXT
  5
119
330
111
100
AcDbEntity
  8
NOTES
 62
     0
100
AcDbMText
 10
0.0
 20
-0.7958433085520636
 30
0.0
 40
0.25
 41
0.0
 71
     1
 72
     1
  1
THE WRITTEN PERMISSION OF FROST PRODUCTS LTD. IS PROHIBITED.
  7
SLDTEXTSTYLE3
 73
     1
 44
1.0
  0
ENDBLK
  5
3C4
330
111
100
AcDbEntity
  8
0
100
AcDbBlockEnd
  0
BLOCK
  5
3C5
330
1C9
100
AcDbEntity
  8
0
100
AcDbBlockBegin
  2
_D
 70
     0
 71
     0
 10
0.0
 20
0.0
 30
0.0
  3
_D
  1

  0
INSERT
  5
1CC
330
1C9
100
AcDbEntity
  8
DIMS
100
AcDbBlockReference
  2
_Open90
 10
4.918682221906432
 20
19.91367542794594
 30
0.0
 41
0.3
 42
0.3
 50
90.00000000000092
  0
INSERT
  5
1CD
330
1C9
100
AcDbEntity
  8
DIMS
100
AcDbBlockReference
  2
_Open90
 10
4.918682221906537
 20
8.286930196825212
 30
0.0
 41
0.3
 42
0.3
 50
270.0000000000009
  0
LINE
  5
1CE
330
1C9
100
AcDbEntity
  8
DIMS
100
AcDbLine
 10
6.624686103840175
 20
19.91367542794596
 30
0.0
 11
4.543682221906432
 21
19.91367542794594
 31
0.0
  0
LINE
  5
1CF
330
1C9
100
AcDbEntity
  8
DIMS
100
AcDbLine
 10
4.918682221906432
 20
19.91367542794594
 30
0.0
 11
4.91868222190651
 21
11.33870969378159
 31
0.0
  0
MTEXT
  5
1D0
330
1C9
100
AcDbEntity
  8
DIMS
100
AcDbMText
 10
-11.3695224686963
 20
11.18363159991563
 30
0.0
 40
0.5
 41
0.0
 71
     1
 72
     1
  1
                                                                                      48" (1220mm) Max. height for barrier free installation
  7
SLDTEXTSTYLE1
 73
     1
 44
1.0
  0
MTEXT
  5
1D1
330
1C9
100
AcDbEntity
  8
DIMS
100
AcDbMText
 10
4.826321110536627
 20
9.596131552184984
 30
0.0
 40
0.5
 41
0.0
 71
     1
 72
     1
  1
 
  7
SLDTEXTSTYLE1
 73
     1
 44
1.0
  0
MTEXT
  5
1D2
330
1C9
100
AcDbEntity
  8
DIMS
100
AcDbMText
 10
4.826321110536627
 20
8.80238152831966
 30
0.0
 40
0.5
 41
0.0
 71
     1
 72
     1
  1
 
  7
SLDTEXTSTYLE1
 73
     1
 44
1.0
  0
ENDBLK
  5
3C6
330
1C9
100
AcDbEntity
  8
0
100
AcDbBlockEnd
  0
BLOCK
  5
3C7
330
1D5
100
AcDbEntity
  8
0
100
AcDbBlockBegin
  2
_D_1
 70
     0
 71
     0
 10
0.0
 20
0.0
 30
0.0
  3
_D_1
  1

  0
INSERT
  5
1D8
330
1D5
100
AcDbEntity
  8
DIMS
100
AcDbBlockReference
  2
_Open90
 10
6.729830843953807
 20
21.16179799536138
 30
2.765474409448966
 41
0.3
 42
0.3
 50
180.0
  0
INSERT
  5
1D9
330
1D5
100
AcDbEntity
  8
DIMS
100
AcDbBlockReference
  2
_Open90
 10
21.45096789115824
 20
21.16179799536129
 30
2.765474409448966
 41
0.3
 42
0.3
 50
0.0000000000000509
  0
LINE
  5
1DA
330
1D5
100
AcDbEntity
  8
DIMS
100
AcDbLine
 10
14.09873270628857
 20
21.21308269374946
 30
0.0
 11
14.61470495573312
 21
21.21308269374946
 31
0.0
  0
LINE
  5
1DB
330
1D5
100
AcDbEntity
  8
DIMS
100
AcDbLine
 10
6.7298308439538
 20
19.97053201684432
 30
0.0
 11
6.72983084395381
 21
21.53679799536138
 31
0.0
  0
LINE
  5
1DC
330
1D5
100
AcDbEntity
  8
DIMS
100
AcDbLine
 10
21.45096789115823
 20
20.0165060325925
 30
0.0
 11
21.45096789115825
 21
21.53679799536129
 31
0.0
  0
LINE
  5
1DD
330
1D5
100
AcDbEntity
  8
DIMS
100
AcDbLine
 10
6.729830843953807
 20
21.16179799536138
 30
0.0
 11
13.28657991334694
 21
21.16179799536134
 31
0.0
  0
LINE
  5
1DE
330
1D5
100
AcDbEntity
  8
DIMS
100
AcDbLine
 10
21.45096789115824
 20
21.16179799536129
 30
0.0
 11
14.89421882176509
 21
21.16179799536133
 31
0.0
  0
MTEXT
  5
1DF
330
1D5
100
AcDbEntity
  8
DIMS
100
AcDbMText
 10
13.28657991334694
 20
21.44248375418083
 30
0.0
 40
0.5
 41
0.0
 71
     1
 72
     1
  1
14
  7
SLDTEXTSTYLE1
 73
     1
 44
1.0
  0
MTEXT
  5
1E0
330
1D5
100
AcDbEntity
  8
DIMS
100
AcDbMText
 10
14.17199660827106
 20
21.80779625322633
 30
0.0
 40
0.5
 41
0.0
 71
     1
 72
     1
  1
3
  7
SLDTEXTSTYLE1
 73
     1
 44
1.0
  0
MTEXT
  5
1E1
330
1D5
100
AcDbEntity
  8
DIMS
100
AcDbMText
 10
14.17199660827106
 20
21.1466156746783
 30
0.0
 40
0.5
 41
0.0
 71
     1
 72
     1
  1
4
  7
SLDTEXTSTYLE1
 73
     1
 44
1.0
  0
MTEXT
  5
1E2
330
1D5
100
AcDbEntity
  8
DIMS
100
AcDbMText
 10
14.6879688577156
 20
21.44248375418083
 30
0.0
 40
0.5
 41
0.0
 71
     1
 72
     1
  1
"
  7
SLDTEXTSTYLE1
 73
     1
 44
1.0
  0
ENDBLK
  5
3C8
330
1D5
100
AcDbEntity
  8
0
100
AcDbBlockEnd
  0
BLOCK
  5
3C9
330
1E4
100
AcDbEntity
  8
0
100
AcDbBlockBegin
  2
_D_2
 70
     0
 71
     0
 10
0.0
 20
0.0
 30
0.0
  3
_D_2
  1

  0
INSERT
  5
1E7
330
1E4
100
AcDbEntity
  8
DIMS
100
AcDbBlockReference
  2
_Open90
 10
23.26199151320546
 20
19.91367542794611
 30
2.765474409448966
 41
0.3
 42
0.3
 50
90.00000000000094
  0
INSERT
  5
1E8
330
1E4
100
AcDbEntity
  8
DIMS
100
AcDbBlockReference
  2
_Open90
 10
23.26199151320549
 20
17.49983936592585
 30
2.765474409448966
 41
0.3
 42
0.3
 50
270.000000000001
  0
LINE
  5
1E9
330
1E4
100
AcDbEntity
  8
DIMS
100
AcDbLine
 10
22.90088040645846
 20
18.77887956728559
 30
0.0
 11
23.78629710138258
 21
18.77887956728559
 31
0.0
  0
LINE
  5
1EA
330
1E4
100
AcDbEntity
  8
DIMS
100
AcDbLine
 10
21.25475093118926
 20
19.91367542794609
 30
0.0
 11
23.63699151320546
 21
19.91367542794611
 31
0.0
  0
LINE
  5
1EB
330
1E4
100
AcDbEntity
  8
DIMS
100
AcDbLine
 10
21.61763455782486
 20
17.49983936592584
 30
0.0
 11
23.63699151320549
 21
17.49983936592585
 31
0.0
  0
LINE
  5
1EC
330
1E4
100
AcDbEntity
  8
DIMS
100
AcDbLine
 10
23.26199151320546
 20
19.91367542794611
 30
0.0
 11
23.26199151320547
 21
19.38144902218518
 31
0.0
  0
LINE
  5
1ED
330
1E4
100
AcDbEntity
  8
DIMS
100
AcDbLine
 10
23.26199151320549
 20
17.49983936592585
 30
0.0
 11
23.26199151320548
 21
18.07374071560979
 31
0.0
  0
MTEXT
  5
1EE
330
1E4
100
AcDbEntity
  8
DIMS
100
AcDbMText
 10
22.4581720589964
 20
19.00828062771696
 30
0.0
 40
0.5
 41
0.0
 71
     1
 72
     1
  1
2
  7
SLDTEXTSTYLE1
 73
     1
 44
1.0
  0
MTEXT
  5
1EF
330
1E4
100
AcDbEntity
  8
DIMS
100
AcDbMText
 10
23.15886653118073
 20
19.37359312676247
 30
0.0
 40
0.5
 41
0.0
 71
     1
 72
     1
  1
7
  7
SLDTEXTSTYLE1
 73
     1
 44
1.0
  0
MTEXT
  5
1F0
330
1E4
100
AcDbEntity
  8
DIMS
100
AcDbMText
 10
22.97414430844094
 20
18.71241254821443
 30
0.0
 40
0.5
 41
0.0
 71
     1
 72
     1
  1
16
  7
SLDTEXTSTYLE1
 73
     1
 44
1.0
  0
MTEXT
  5
1F1
330
1E4
100
AcDbEntity
  8
DIMS
100
AcDbMText
 10
23.85956100336506
 20
19.00828062771696
 30
0.0
 40
0.5
 41
0.0
 71
     1
 72
     1
  1
"
  7
SLDTEXTSTYLE1
 73
     1
 44
1.0
  0
ENDBLK
  5
3CA
330
1E4
100
AcDbEntity
  8
0
100
AcDbBlockEnd
  0
BLOCK
  5
3CB
330
236
100
AcDbEntity
  8
0
100
AcDbBlockBegin
  2
_D_3
 70
     0
 71
     0
 10
0.0
 20
0.0
 30
0.0
  3
_D_3
  1

  0
INSERT
  5
239
330
236
100
AcDbEntity
  8
DIMS
100
AcDbBlockReference
  2
_Open90
 10
52.02317531205139
 20
21.16179799536136
 30
-7.396568976397787
 41
0.3
 42
0.3
 50
180.0000000000009
  0
INSERT
  5
23A
330
236
100
AcDbEntity
  8
DIMS
100
AcDbBlockReference
  2
_Open90
 10
56.64817531205139
 20
21.16179799536141
 30
-7.396568976397787
 41
0.3
 42
0.3
 50
0.0000000000008906
  0
LINE
  5
23B
330
236
100
AcDbEntity
  8
DIMS
100
AcDbLine
 10
54.14387464318312
 20
21.21308269374951
 30
0.0
 11
54.65984689262766
 21
21.21308269374951
 31
0.0
  0
LINE
  5
23C
330
236
100
AcDbEntity
  8
DIMS
100
AcDbLine
 10
52.02317531205141
 20
19.26650603259255
 30
0.0
 11
52.02317531205139
 21
21.53679799536136
 31
0.0
  0
LINE
  5
23D
330
236
100
AcDbEntity
  8
DIMS
100
AcDbLine
 10
56.64817531205141
 20
19.26650603259258
 30
0.0
 11
56.64817531205139
 21
21.53679799536141
 31
0.0
  0
LINE
  5
23E
330
236
100
AcDbEntity
  8
DIMS
100
AcDbLine
 10
52.02317531205139
 20
21.16179799536136
 30
0.0
 11
53.70116629572106
 21
21.16179799536138
 31
0.0
  0
LINE
  5
23F
330
236
100
AcDbEntity
  8
DIMS
100
AcDbLine
 10
56.64817531205139
 20
21.16179799536141
 30
0.0
 11
54.9393608319921
 21
21.16179799536139
 31
0.0
  0
MTEXT
  5
240
330
236
100
AcDbEntity
  8
DIMS
100
AcDbMText
 10
53.70116629572106
 20
21.44248375418088
 30
0.0
 40
0.5
 41
0.0
 71
     1
 72
     1
  1
4
  7
SLDTEXTSTYLE1
 73
     1
 44
1.0
  0
MTEXT
  5
241
330
236
100
AcDbEntity
  8
DIMS
100
AcDbMText
 10
54.2171385451656
 20
21.80779625322639
 30
0.0
 40
0.5
 41
0.0
 71
     1
 72
     1
  1
5
  7
SLDTEXTSTYLE1
 73
     1
 44
1.0
  0
MTEXT
  5
242
330
236
100
AcDbEntity
  8
DIMS
100
AcDbMText
 10
54.2171385451656
 20
21.14661567467835
 30
0.0
 40
0.5
 41
0.0
 71
     1
 72
     1
  1
8
  7
SLDTEXTSTYLE1
 73
     1
 44
1.0
  0
MTEXT
  5
243
330
236
100
AcDbEntity
  8
DIMS
100
AcDbMText
 10
54.73311079461015
 20
21.44248375418088
 30
0.0
 40
0.5
 41
0.0
 71
     1
 72
     1
  1
"
  7
SLDTEXTSTYLE1
 73
     1
 44
1.0
  0
ENDBLK
  5
3CC
330
236
100
AcDbEntity
  8
0
100
AcDbBlockEnd
  0
BLOCK
  5
3CD
330
245
100
AcDbEntity
  8
0
100
AcDbBlockBegin
  2
_D_4
 70
     0
 71
     0
 10
0.0
 20
0.0
 30
0.0
  3
_D_4
  1

  0
INSERT
  5
248
330
245
100
AcDbEntity
  8
DIMS
100
AcDbBlockReference
  2
_Open90
 10
50.01150413570954
 20
19.09983936592586
 30
-7.396568976397787
 41
0.3
 42
0.3
 50
90.00000000000082
  0
INSERT
  5
249
330
245
100
AcDbEntity
  8
DIMS
100
AcDbBlockReference
  2
_Open90
 10
50.01150413570956
 20
18.09983936592582
 30
-7.396568976397787
 41
0.3
 42
0.3
 50
270.0000000000008
  0
LINE
  5
24A
330
245
100
AcDbEntity
  8
DIMS
100
AcDbLine
 10
51.85650864538475
 20
19.09983936592588
 30
0.0
 11
49.63650413570954
 21
19.09983936592586
 31
0.0
  0
LINE
  5
24B
330
245
100
AcDbEntity
  8
DIMS
100
AcDbLine
 10
51.85650864538476
 20
18.09983936592583
 30
0.0
 11
49.63650413570956
 21
18.09983936592582
 31
0.0
  0
LINE
  5
24C
330
245
100
AcDbEntity
  8
DIMS
100
AcDbLine
 10
48.59938330706388
 20
19.56150451375216
 30
0.0
 11
50.01150413570954
 21
19.56150451375216
 31
0.0
  0
LINE
  5
24D
330
245
100
AcDbEntity
  8
DIMS
100
AcDbLine
 10
50.01150413570954
 20
19.56150451375216
 30
0.0
 11
50.01150413570954
 21
19.09983936592586
 31
0.0
  0
LINE
  5
24E
330
245
100
AcDbEntity
  8
DIMS
100
AcDbLine
 10
50.01150413570954
 20
19.09983936592586
 30
0.0
 11
50.01150413570956
 21
18.09983936592582
 31
0.0
  0
MTEXT
  5
24F
330
245
100
AcDbEntity
  8
DIMS
100
AcDbMText
 10
48.02368886086858
 20
19.80330143181886
 30
0.0
 40
0.5
 41
0.0
 71
     1
 72
     1
  1
1"
  7
SLDTEXTSTYLE1
 73
     1
 44
1.0
  0
ENDBLK
  5
3CE
330
245
100
AcDbEntity
  8
0
100
AcDbBlockEnd
  0
BLOCK
  5
3CF
330
251
100
AcDbEntity
  8
0
100
AcDbBlockBegin
  2
_D_5
 70
     0
 71
     0
 10
0.0
 20
0.0
 30
0.0
  3
_D_5
  1

  0
INSERT
  5
254
330
251
100
AcDbEntity
  8
DIMS
100
AcDbBlockReference
  2
_Open90
 10
50.95638602547334
 20
19.9136754279461
 30
-7.396568976397787
 41
0.3
 42
0.3
 50
90.0000000000005
  0
INSERT
  5
255
330
251
100
AcDbEntity
  8
DIMS
100
AcDbBlockReference
  2
_Open90
 10
50.95638602547334
 20
19.09983936592588
 30
-7.396568976397787
 41
0.3
 42
0.3
 50
270.0000000000005
  0
LINE
  5
256
330
251
100
AcDbEntity
  8
DIMS
100
AcDbLine
 10
48.1765066665173
 20
20.97686222130854
 30
0.0
 11
49.06192336144142
 21
20.97686222130854
 31
0.0
  0
LINE
  5
257
330
251
100
AcDbEntity
  8
DIMS
100
AcDbLine
 10
51.5700840841879
 20
19.9136754279461
 30
0.0
 11
50.58138602547334
 21
19.9136754279461
 31
0.0
  0
LINE
  5
258
330
251
100
AcDbEntity
  8
DIMS
100
AcDbLine
 10
51.85650864538475
 20
19.09983936592588
 30
0.0
 11
50.58138602547334
 21
19.09983936592588
 31
0.0
  0
LINE
  5
259
330
251
100
AcDbEntity
  8
DIMS
100
AcDbLine
 10
49.34143730080588
 20
20.92557752292042
 30
0.0
 11
50.95638602547334
 21
20.92557752292042
 31
0.0
  0
LINE
  5
25A
330
251
100
AcDbEntity
  8
DIMS
100
AcDbLine
 10
50.95638602547334
 20
20.92557752292042
 30
0.0
 11
50.95638602547334
 21
19.9136754279461
 31
0.0
  0
LINE
  5
25B
330
251
100
AcDbEntity
  8
DIMS
100
AcDbLine
 10
50.95638602547334
 20
19.9136754279461
 30
0.0
 11
50.95638602547334
 21
19.09983936592588
 31
0.0
  0
MTEXT
  5
25C
330
251
100
AcDbEntity
  8
DIMS
100
AcDbMText
 10
48.24977056849978
 20
21.57157578078542
 30
0.0
 40
0.5
 41
0.0
 71
     1
 72
     1
  1
13
  7
SLDTEXTSTYLE1
 73
     1
 44
1.0
  0
MTEXT
  5
25D
330
251
100
AcDbEntity
  8
DIMS
100
AcDbMText
 10
48.24977056849978
 20
20.91039520223738
 30
0.0
 40
0.5
 41
0.0
 71
     1
 72
     1
  1
16
  7
SLDTEXTSTYLE1
 73
     1
 44
1.0
  0
MTEXT
  5
25E
330
251
100
AcDbEntity
  8
DIMS
100
AcDbMText
 10
49.1351872634239
 20
21.20626328173991
 30
0.0
 40
0.5
 41
0.0
 71
     1
 72
     1
  1
"
  7
SLDTEXTSTYLE1
 73
     1
 44
1.0
  0
ENDBLK
  5
3D0
330
251
100
AcDbEntity
  8
0
100
AcDbBlockEnd
  0
BLOCK
  5
3D1
330
261
100
AcDbEntity
  8
0
100
AcDbBlockBegin
  2
_D_6
 70
     0
 71
     0
 10
0.0
 20
0.0
 30
0.0
  3
_D_6
  1

  0
INSERT
  5
264
330
261
100
AcDbEntity
  8
DIMS
100
AcDbBlockReference
  2
_Open90
 10
50.01150413570954
 20
17.49983936592582
 30
-7.396568976397787
 41
0.3
 42
0.3
 50
90.00000000000091
  0
INSERT
  5
265
330
261
100
AcDbEntity
  8
DIMS
100
AcDbBlockReference
  2
_Open90
 10
50.01150413570953
 20
18.09983936592582
 30
-7.396568976397787
 41
0.3
 42
0.3
 50
270.0000000000009
  0
LINE
  5
266
330
261
100
AcDbEntity
  8
DIMS
100
AcDbLine
 10
48.04558379630711
 20
16.68498233203042
 30
0.0
 11
48.56155604575165
 21
16.68498233203042
 31
0.0
  0
LINE
  5
267
330
261
100
AcDbEntity
  8
DIMS
100
AcDbLine
 10
51.35342014620822
 20
17.49983936592583
 30
0.0
 11
49.63650413570954
 21
17.49983936592581
 31
0.0
  0
LINE
  5
268
330
261
100
AcDbEntity
  8
DIMS
100
AcDbLine
 10
51.85650864538476
 20
18.09983936592583
 30
0.0
 11
49.63650413570953
 21
18.09983936592581
 31
0.0
  0
LINE
  5
269
330
261
100
AcDbEntity
  8
DIMS
100
AcDbLine
 10
48.84106991178361
 20
16.6336976336423
 30
0.0
 11
50.01150413570954
 21
16.6336976336423
 31
0.0
  0
LINE
  5
26A
330
261
100
AcDbEntity
  8
DIMS
100
AcDbLine
 10
50.01150413570954
 20
16.6336976336423
 30
0.0
 11
50.01150413570954
 21
17.49983936592582
 31
0.0
  0
LINE
  5
26B
330
261
100
AcDbEntity
  8
DIMS
100
AcDbLine
 10
50.01150413570953
 20
18.09983936592582
 30
0.0
 11
50.01150413570953
 21
18.49983936592582
 31
0.0
  0
MTEXT
  5
26C
330
261
100
AcDbEntity
  8
DIMS
100
AcDbMText
 10
48.11884769828959
 20
17.27969589150729
 30
0.0
 40
0.5
 41
0.0
 71
     1
 72
     1
  1
5
  7
SLDTEXTSTYLE1
 73
     1
 44
1.0
  0
MTEXT
  5
26D
330
261
100
AcDbEntity
  8
DIMS
100
AcDbMText
 10
48.11884769828959
 20
16.61851531295926
 30
0.0
 40
0.5
 41
0.0
 71
     1
 72
     1
  1
8
  7
SLDTEXTSTYLE1
 73
     1
 44
1.0
  0
MTEXT
  5
26E
330
261
100
AcDbEntity
  8
DIMS
100
AcDbMText
 10
48.63481994773414
 20
16.91438339246179
 30
0.0
 40
0.5
 41
0.0
 71
     1
 72
     1
  1
"
  7
SLDTEXTSTYLE1
 73
     1
 44
1.0
  0
ENDBLK
  5
3D2
330
261
100
AcDbEntity
  8
0
100
AcDbBlockEnd
  0
BLOCK
  5
3D3
330
271
100
AcDbEntity
  8
0
100
AcDbBlockBegin
  2
_D_7
 70
     0
 71
     0
 10
0.0
 20
0.0
 30
0.0
  3
_D_7
  1

  0
INSERT
  5
274
330
271
100
AcDbEntity
  8
DIMS
100
AcDbBlockReference
  2
_Open90
 10
51.99729340754116
 20
19.19643194855479
 30
-7.396568976397787
 41
0.3
 42
0.3
 50
285.0000000000033
  0
LINE
  5
275
330
271
100
AcDbEntity
  8
DIMS
100
AcDbLine
 10
49.47734479388246
 20
23.18509762253134
 30
0.0
 11
50.36276148880658
 21
23.18509762253134
 31
0.0
  0
LINE
  5
276
330
271
100
AcDbEntity
  8
DIMS
100
AcDbLine
 10
51.99729340754116
 20
19.19643194855479
 30
0.0
 11
50.94227535483854
 21
23.13381292414322
 31
0.0
  0
LINE
  5
277
330
271
100
AcDbEntity
  8
DIMS
100
AcDbLine
 10
50.94227535483854
 20
23.13381292414322
 30
0.0
 11
50.64227535483855
 21
23.13381292414322
 31
0.0
  0
MTEXT
  5
278
330
271
100
AcDbEntity
  8
DIMS
100
AcDbMText
 10
48.65001840956079
 20
23.40685979370782
 30
0.0
 40
0.5
 41
0.0
 71
     1
 72
     1
  1
%%c
  7
SLDTEXTSTYLE1
 73
     1
 44
1.0
  0
MTEXT
  5
279
330
271
100
AcDbEntity
  8
DIMS
100
AcDbMText
 10
49.73533091860473
 20
23.77981118200822
 30
0.0
 40
0.5
 41
0.0
 71
     1
 72
     1
  1
3
  7
SLDTEXTSTYLE1
 73
     1
 44
1.0
  0
MTEXT
  5
27A
330
271
100
AcDbEntity
  8
DIMS
100
AcDbMText
 10
49.55060869586494
 20
23.11863060346019
 30
0.0
 40
0.5
 41
0.0
 71
     1
 72
     1
  1
16
  7
SLDTEXTSTYLE1
 73
     1
 44
1.0
  0
MTEXT
  5
27B
330
271
100
AcDbEntity
  8
DIMS
100
AcDbMText
 10
50.43602539078906
 20
23.41449868296272
 30
0.0
 40
0.5
 41
0.0
 71
     1
 72
     1
  1
"
  7
SLDTEXTSTYLE1
 73
     1
 44
1.0
  0
ENDBLK
  5
3D4
330
271
100
AcDbEntity
  8
0
100
AcDbBlockEnd
  0
BLOCK
  5
3D5
330
2F4
100
AcDbEntity
  8
0
100
AcDbBlockBegin
  2
SW_NOTE_0_2
 70
     0
 71
     0
 10
0.0
 20
0.0
 30
0.0
  3
SW_NOTE_0_2
  1

  0
MTEXT
  5
2F7
330
2F4
100
AcDbEntity
  8
NOTES
 62
     0
100
AcDbMText
 10
0.0
 20
0.6386718749999982
 30
0.0
 40
0.5
 41
0.0
 71
     1
 72
     1
  1
3D view
  7
SLDTEXTSTYLE1
 73
     1
 44
1.0
  0
MTEXT
  5
2F8
330
2F4
100
AcDbEntity
  8
NOTES
 62
     0
100
AcDbMText
 10
0.0
 20
-0.3613281862472943
 30
0.0
 40
0.5
 41
0.0
 71
     1
 72
     1
  1
code 955
  7
SLDTEXTSTYLE1
 73
     1
 44
1.0
  0
ENDBLK
  5
3D6
330
2F4
100
AcDbEntity
  8
0
100
AcDbBlockEnd
  0
BLOCK
  5
3D7
330
350
100
AcDbEntity
  8
0
100
AcDbBlockBegin
  2
_D_8
 70
     0
 71
     0
 10
0.0
 20
0.0
 30
0.0
  3
_D_8
  1

  0
INSERT
  5
353
330
350
100
AcDbEntity
  8
DIMS
100
AcDbBlockReference
  2
_Open90
 10
22.78955056832355
 20
36.70317551322218
 30
1.084901787644507
 41
0.3
 42
0.3
 50
90.00000000000067
  0
INSERT
  5
354
330
350
100
AcDbEntity
  8
DIMS
100
AcDbBlockReference
  2
_Open90
 10
22.78955056832358
 20
31.07199851486912
 30
1.084901787644507
 41
0.3
 42
0.3
 50
270.0000000000007
  0
LINE
  5
355
330
350
100
AcDbEntity
  8
DIMS
100
AcDbLine
 10
22.6131616476501
 20
33.93887171243378
 30
0.0
 11
23.12913389709464
 21
33.93887171243378
 31
0.0
  0
LINE
  5
356
330
350
100
AcDbEntity
  8
DIMS
100
AcDbLine
 10
21.53863455782486
 20
36.70317551322218
 30
0.0
 11
23.16455056832355
 21
36.70317551322218
 31
0.0
  0
LINE
  5
357
330
350
100
AcDbEntity
  8
DIMS
100
AcDbLine
 10
21.53863455782488
 20
31.0719985148691
 30
0.0
 11
23.16455056832358
 21
31.07199851486912
 31
0.0
  0
LINE
  5
358
330
350
100
AcDbEntity
  8
DIMS
100
AcDbLine
 10
22.78955056832355
 20
36.70317551322218
 30
0.0
 11
22.78955056832356
 21
34.54144116733337
 31
0.0
  0
LINE
  5
359
330
350
100
AcDbEntity
  8
DIMS
100
AcDbLine
 10
22.78955056832358
 20
31.07199851486912
 30
0.0
 11
22.78955056832356
 21
33.23373286075797
 31
0.0
  0
MTEXT
  5
35A
330
350
100
AcDbEntity
  8
DIMS
100
AcDbMText
 10
22.17045330018804
 20
34.16827277286516
 30
0.0
 40
0.5
 41
0.0
 71
     1
 72
     1
  1
5
  7
SLDTEXTSTYLE1
 73
     1
 44
1.0
  0
MTEXT
  5
35B
330
350
100
AcDbEntity
  8
DIMS
100
AcDbMText
 10
22.68642554963258
 20
34.53358527191066
 30
0.0
 40
0.5
 41
0.0
 71
     1
 72
     1
  1
5
  7
SLDTEXTSTYLE1
 73
     1
 44
1.0
  0
MTEXT
  5
35C
330
350
100
AcDbEntity
  8
DIMS
100
AcDbMText
 10
22.68642554963258
 20
33.87240469336263
 30
0.0
 40
0.5
 41
0.0
 71
     1
 72
     1
  1
8
  7
SLDTEXTSTYLE1
 73
     1
 44
1.0
  0
MTEXT
  5
35D
330
350
100
AcDbEntity
  8
DIMS
100
AcDbMText
 10
23.20239779907713
 20
34.16827277286516
 30
0.0
 40
0.5
 41
0.0
 71
     1
 72
     1
  1
"
  7
SLDTEXTSTYLE1
 73
     1
 44
1.0
  0
ENDBLK
  5
3D8
330
350
100
AcDbEntity
  8
0
100
AcDbBlockEnd
  0
BLOCK
  5
3D9
330
35F
100
AcDbEntity
  8
0
100
AcDbBlockBegin
  2
_D_9
 70
     0
 71
     0
 10
0.0
 20
0.0
 30
0.0
  3
_D_9
  1

  0
INSERT
  5
362
330
35F
100
AcDbEntity
  8
DIMS
100
AcDbBlockReference
  2
_Open90
 10
5.627343639229339
 20
36.62433457688925
 30
1.084901787644507
 41
0.3
 42
0.3
 50
90.00000000000078
  0
INSERT
  5
363
330
35F
100
AcDbEntity
  8
DIMS
100
AcDbBlockReference
  2
_Open90
 10
5.627343639229375
 20
31.20966245284873
 30
1.084901787644507
 41
0.3
 42
0.3
 50
270.0000000000008
  0
LINE
  5
364
330
35F
100
AcDbEntity
  8
DIMS
100
AcDbLine
 10
5.266232532482345
 20
33.78247151335156
 30
0.0
 11
6.151649227406463
 21
33.78247151335156
 31
0.0
  0
LINE
  5
365
330
35F
100
AcDbEntity
  8
DIMS
100
AcDbLine
 10
6.62468610384016
 20
36.62433457688925
 30
0.0
 11
5.252343639229339
 21
36.62433457688925
 31
0.0
  0
LINE
  5
366
330
35F
100
AcDbEntity
  8
DIMS
100
AcDbLine
 10
6.624686103840182
 20
31.20966245284874
 30
0.0
 11
5.252343639229375
 21
31.20966245284873
 31
0.0
  0
LINE
  5
367
330
35F
100
AcDbEntity
  8
DIMS
100
AcDbLine
 10
5.627343639229339
 20
36.62433457688925
 30
0.0
 11
5.627343639229355
 21
34.38504096825115
 31
0.0
  0
LINE
  5
368
330
35F
100
AcDbEntity
  8
DIMS
100
AcDbLine
 10
5.627343639229375
 20
31.20966245284873
 30
0.0
 11
5.627343639229363
 21
33.07733266167576
 31
0.0
  0
MTEXT
  5
369
330
35F
100
AcDbEntity
  8
DIMS
100
AcDbMText
 10
4.823524185020286
 20
34.01187257378294
 30
0.0
 40
0.5
 41
0.0
 71
     1
 72
     1
  1
5
  7
SLDTEXTSTYLE1
 73
     1
 44
1.0
  0
MTEXT
  5
36A
330
35F
100
AcDbEntity
  8
DIMS
100
AcDbMText
 10
5.524218657204617
 20
34.37718507282844
 30
0.0
 40
0.5
 41
0.0
 71
     1
 72
     1
  1
7
  7
SLDTEXTSTYLE1
 73
     1
 44
1.0
  0
MTEXT
  5
36B
330
35F
100
AcDbEntity
  8
DIMS
100
AcDbMText
 10
5.339496434464831
 20
33.7160044942804
 30
0.0
 40
0.5
 41
0.0
 71
     1
 72
     1
  1
16
  7
SLDTEXTSTYLE1
 73
     1
 44
1.0
  0
MTEXT
  5
36C
330
35F
100
AcDbEntity
  8
DIMS
100
AcDbMText
 10
6.224913129388949
 20
34.01187257378294
 30
0.0
 40
0.5
 41
0.0
 71
     1
 72
     1
  1
"
  7
SLDTEXTSTYLE1
 73
     1
 44
1.0
  0
ENDBLK
  5
3DA
330
35F
100
AcDbEntity
  8
0
100
AcDbBlockEnd
  0
BLOCK
  5
3DB
330
384
100
AcDbEntity
  8
0
100
AcDbBlockBegin
  2
_D_10
 70
     0
 71
     0
 10
0.0
 20
0.0
 30
0.0
  3
_D_10
  1

  0
INSERT
  5
387
330
384
100
AcDbEntity
  8
DIMS
100
AcDbBlockReference
  2
_Open90
 10
34.77249395411844
 20
16.39747716120142
 30
2.765474409448966
 41
0.3
 42
0.3
 50
180.0
  0
INSERT
  5
388
330
384
100
AcDbEntity
  8
DIMS
100
AcDbBlockReference
  2
_Open90
 10
37.14117757898242
 20
16.3974771612014
 30
2.765474409448966
 41
0.3
 42
0.3
 50
0.0000000000000509
  0
LINE
  5
389
330
384
100
AcDbEntity
  8
DIMS
100
AcDbLine
 10
35.89488326417382
 20
16.44876185958953
 30
0.0
 11
36.41085551361837
 21
16.44876185958953
 31
0.0
  0
LINE
  5
38A
330
384
100
AcDbEntity
  8
DIMS
100
AcDbLine
 10
34.77249395411845
 20
17.58317269925914
 30
0.0
 11
34.77249395411843
 21
16.02247716120142
 31
0.0
  0
LINE
  5
38B
330
384
100
AcDbEntity
  8
DIMS
100
AcDbLine
 10
37.14117757898243
 20
17.33317269925917
 30
0.0
 11
37.14117757898241
 21
16.0224771612014
 31
0.0
  0
LINE
  5
38C
330
384
100
AcDbEntity
  8
DIMS
100
AcDbLine
 10
34.77249395411844
 20
16.39747716120142
 30
0.0
 11
35.45217491671176
 21
16.39747716120141
 31
0.0
  0
LINE
  5
38D
330
384
100
AcDbEntity
  8
DIMS
100
AcDbLine
 10
37.14117757898242
 20
16.3974771612014
 30
0.0
 11
36.69036945298282
 21
16.3974771612014
 31
0.0
  0
MTEXT
  5
38E
330
384
100
AcDbEntity
  8
DIMS
100
AcDbMText
 10
35.45217491671176
 20
16.6781629200209
 30
0.0
 40
0.5
 41
0.0
 71
     1
 72
     1
  1
2
  7
SLDTEXTSTYLE1
 73
     1
 44
1.0
  0
MTEXT
  5
38F
330
384
100
AcDbEntity
  8
DIMS
100
AcDbMText
 10
35.96814716615631
 20
17.04347541906641
 30
0.0
 40
0.5
 41
0.0
 71
     1
 72
     1
  1
3
  7
SLDTEXTSTYLE1
 73
     1
 44
1.0
  0
MTEXT
  5
390
330
384
100
AcDbEntity
  8
DIMS
100
AcDbMText
 10
35.96814716615631
 20
16.38229484051837
 30
0.0
 40
0.5
 41
0.0
 71
     1
 72
     1
  1
8
  7
SLDTEXTSTYLE1
 73
     1
 44
1.0
  0
MTEXT
  5
391
330
384
100
AcDbEntity
  8
DIMS
100
AcDbMText
 10
36.48411941560085
 20
16.6781629200209
 30
0.0
 40
0.5
 41
0.0
 71
     1
 72
     1
  1
"
  7
SLDTEXTSTYLE1
 73
     1
 44
1.0
  0
ENDBLK
  5
3DC
330
384
100
AcDbEntity
  8
0
100
AcDbBlockEnd
  0
BLOCK
  5
3DD
330
393
100
AcDbEntity
  8
0
100
AcDbBlockBegin
  2
_D_11
 70
     0
 71
     0
 10
0.0
 20
0.0
 30
0.0
  3
_D_11
  1

  0
INSERT
  5
396
330
393
100
AcDbEntity
  8
DIMS
100
AcDbBlockReference
  2
_Open90
 10
32.96147033207102
 20
17.49983936592585
 30
2.765474409448966
 41
0.3
 42
0.3
 50
270.0000000000001
  0
INSERT
  5
397
330
393
100
AcDbEntity
  8
DIMS
100
AcDbBlockReference
  2
_Open90
 10
32.96147033207111
 20
33.68532252386713
 30
2.765474409448966
 41
0.3
 42
0.3
 50
90.00000000000007
  0
LINE
  5
398
330
393
100
AcDbEntity
  8
DIMS
100
AcDbLine
 10
32.7850814113976
 20
25.89101109784199
 30
0.0
 11
33.67049810632172
 21
25.89101109784199
 31
0.0
  0
LINE
  5
399
330
393
100
AcDbEntity
  8
DIMS
100
AcDbLine
 10
34.85582728745167
 20
17.49983936592584
 30
0.0
 11
32.58647033207102
 21
17.49983936592586
 31
0.0
  0
LINE
  5
39A
330
393
100
AcDbEntity
  8
DIMS
100
AcDbLine
 10
36.56736420430383
 20
33.68532252386711
 30
0.0
 11
32.58647033207111
 21
33.68532252386713
 31
0.0
  0
LINE
  5
39B
330
393
100
AcDbEntity
  8
DIMS
100
AcDbLine
 10
32.96147033207102
 20
17.49983936592585
 30
0.0
 11
32.96147033207106
 21
25.18587224616621
 31
0.0
  0
LINE
  5
39C
330
393
100
AcDbEntity
  8
DIMS
100
AcDbLine
 10
32.96147033207111
 20
33.68532252386713
 30
0.0
 11
32.96147033207107
 21
26.49358055274158
 31
0.0
  0
MTEXT
  5
39D
330
393
100
AcDbEntity
  8
DIMS
100
AcDbMText
 10
31.97292861845597
 20
26.12041215827337
 30
0.0
 40
0.5
 41
0.0
 71
     1
 72
     1
  1
16
  7
SLDTEXTSTYLE1
 73
     1
 44
1.0
  0
MTEXT
  5
39E
330
393
100
AcDbEntity
  8
DIMS
100
AcDbMText
 10
33.04306753611987
 20
26.48572465731887
 30
0.0
 40
0.5
 41
0.0
 71
     1
 72
     1
  1
3
  7
SLDTEXTSTYLE1
 73
     1
 44
1.0
  0
MTEXT
  5
39F
330
393
100
AcDbEntity
  8
DIMS
100
AcDbMText
 10
32.85834531338008
 20
25.82454407877083
 30
0.0
 40
0.5
 41
0.0
 71
     1
 72
     1
  1
16
  7
SLDTEXTSTYLE1
 73
     1
 44
1.0
  0
MTEXT
  5
3A0
330
393
100
AcDbEntity
  8
DIMS
100
AcDbMText
 10
33.74376208163669
 20
26.12041215827337
 30
0.0
 40
0.5
 41
0.0
 71
     1
 72
     1
  1
"
  7
SLDTEXTSTYLE1
 73
     1
 44
1.0
  0
ENDBLK
  5
3DE
330
393
100
AcDbEntity
  8
0
100
AcDbBlockEnd
  0
BLOCK
  5
3DF
330
3A1
100
AcDbEntity
  8
0
100
AcDbBlockBegin
  2
SW_NOTE_0_3
 70
     0
 71
     0
 10
0.0
 20
0.0
 30
0.0
  3
SW_NOTE_0_3
  1

  0
MTEXT
  5
3A4
330
3A1
100
AcDbEntity
  8
NOTES
 62
     0
100
AcDbMText
 10
0.0
 20
0.6386718750000004
 30
0.0
 40
0.5
 41
0.0
 71
     1
 72
     1
  1
Side view
  7
SLDTEXTSTYLE1
 73
     1
 44
1.0
  0
MTEXT
  5
3A5
330
3A1
100
AcDbEntity
  8
NOTES
 62
     0
100
AcDbMText
 10
0.0
 20
-0.3613281862472921
 30
0.0
 40
0.5
 41
0.0
 71
     1
 72
     1
  1
- shelf flipped up
  7
SLDTEXTSTYLE1
 73
     1
 44
1.0
  0
ENDBLK
  5
3E0
330
3A1
100
AcDbEntity
  8
0
100
AcDbBlockEnd
  0
ENDSEC
  0
SECTION
  2
ENTITIES
  0
LINE
  5
7A
330
1F
100
AcDbEntity
  8
TITLE
370
    50
100
AcDbLine
 10
52.5182230240126
 20
1.487611764461629
 30
0.0
 11
69.49998645119504
 21
1.487611764461629
 31
0.0
  0
LINE
  5
7B
330
1F
100
AcDbEntity
  8
TITLE
370
    50
100
AcDbLine
 10
69.49993174424404
 20
5.475360393555786
 30
0.0
 11
59.31053507231783
 21
5.475360393555786
 31
0.0
  0
LINE
  5
7C
330
1F
100
AcDbEntity
  8
TITLE
  6
SLD-Solid
370
    18
100
AcDbLine
 10
0.5
 20
0.5
 30
0.0
 11
0.5
 21
49.50000000000001
 31
0.0
  0
LINE
  5
7D
330
1F
100
AcDbEntity
  8
TITLE
  6
SLD-Solid
370
    18
100
AcDbLine
 10
0.5
 20
49.50000000000001
 30
0.0
 11
69.5
 21
49.50000000000001
 31
0.0
  0
LINE
  5
7E
330
1F
100
AcDbEntity
  8
TITLE
370
    50
100
AcDbLine
 10
52.5182230240126
 20
2.54278772310344
 30
0.0
 11
45.50597912026433
 21
2.54278772310344
 31
0.0
  0
LINE
  5
7F
330
1F
100
AcDbEntity
  8
TITLE
370
    50
100
AcDbLine
 10
52.5182230240126
 20
1.487611764461629
 30
0.0
 11
45.50597912026433
 21
1.487611764461629
 31
0.0
  0
LINE
  5
80
330
1F
100
AcDbEntity
  8
TITLE
  6
SLD-Solid
370
    18
100
AcDbLine
 10
69.5
 20
49.50000000000001
 30
0.0
 11
69.5
 21
0.5
 31
0.0
  0
LINE
  5
81
330
1F
100
AcDbEntity
  8
TITLE
  6
SLD-Solid
370
    18
100
AcDbLine
 10
69.5
 20
0.5
 30
0.0
 11
0.5
 21
0.5
 31
0.0
  0
LINE
  5
82
330
1F
100
AcDbEntity
  8
TITLE
370
    50
100
AcDbLine
 10
52.5182230240126
 20
1.487611764461629
 30
0.0
 11
52.5182230240126
 21
3.597963681745254
 31
0.0
  0
LINE
  5
83
330
1F
100
AcDbEntity
  8
TITLE
370
    50
100
AcDbLine
 10
45.50597912026433
 20
3.597963681745254
 30
0.0
 11
45.50597912026433
 21
0.4999999999999996
 31
0.0
  0
LINE
  5
84
330
1F
100
AcDbEntity
  8
TITLE
370
    50
100
AcDbLine
 10
45.50597912026433
 20
0.4999999999999996
 30
0.0
 11
69.5
 21
0.4999999999999996
 31
0.0
  0
LINE
  5
85
330
1F
100
AcDbEntity
  8
TITLE
370
    50
100
AcDbLine
 10
69.49993174424404
 20
5.475360393555786
 30
0.0
 11
69.5
 21
0.4999999999999996
 31
0.0
  0
LINE
  5
86
330
1F
100
AcDbEntity
  8
TITLE
  6
SLD-Solid
370
    18
100
AcDbLine
 10
0.4999606299212599
 20
25.0
 30
0.0
 11
0.5000393700787401
 21
25.0
 31
0.0
  0
LINE
  5
87
330
1F
100
AcDbEntity
  8
TITLE
370
    50
100
AcDbLine
 10
52.5182230240126
 20
3.597963681745254
 30
0.0
 11
45.50597912026433
 21
3.597963681745254
 31
0.0
  0
LINE
  5
88
330
1F
100
AcDbEntity
  8
TITLE
370
    50
100
AcDbLine
 10
52.5182230240126
 20
3.597963681745254
 30
0.0
 11
69.49976156426075
 21
3.597964834324629
 31
0.0
  0
LINE
  5
89
330
1F
100
AcDbEntity
  8
TITLE
370
    50
100
AcDbLine
 10
59.31053507231783
 20
5.475360393555786
 30
0.0
 11
59.31053507231783
 21
0.4636772425222307
 31
0.0
  0
LINE
  5
8A
330
1F
100
AcDbEntity
  8
TITLE
  6
SLD-Solid
370
    18
100
AcDbLine
 10
35.0
 20
49.50003937007874
 30
0.0
 11
35.0
 21
49.49996062992127
 31
0.0
  0
LINE
  5
8B
330
1F
100
AcDbEntity
  8
TITLE
  6
SLD-Solid
370
    18
100
AcDbLine
 10
69.50003937007874
 20
25.0
 30
0.0
 11
69.49996062992126
 21
25.0
 31
0.0
  0
LINE
  5
8C
330
1F
100
AcDbEntity
  8
TITLE
  6
SLD-Solid
370
    18
100
AcDbLine
 10
35.0
 20
0.4999606299212599
 30
0.0
 11
35.0
 21
0.5000393700787401
 31
0.0
  0
LINE
  5
8D
330
1F
100
AcDbEntity
  8
TITLE
  6
SLD-Solid
370
    18
100
AcDbLine
 10
0.5
 20
3.346456692913384
 30
0.0
 11
0.1653543307086614
 21
3.346456692913384
 31
0.0
  0
LINE
  5
8E
330
1F
100
AcDbEntity
  8
TITLE
  6
SLD-Solid
370
    18
100
AcDbLine
 10
69.5
 20
3.346456692913384
 30
0.0
 11
69.83464566929135
 21
3.346456692913384
 31
0.0
  0
LINE
  5
8F
330
1F
100
AcDbEntity
  8
TITLE
  6
SLD-Solid
370
    18
100
AcDbLine
 10
0.5
 20
5.31496062992126
 30
0.0
 11
0.1653543307086614
 21
5.31496062992126
 31
0.0
  0
LINE
  5
90
330
1F
100
AcDbEntity
  8
TITLE
  6
SLD-Solid
370
    18
100
AcDbLine
 10
69.5
 20
5.31496062992126
 30
0.0
 11
69.83464566929135
 21
5.31496062992126
 31
0.0
  0
LINE
  5
91
330
1F
100
AcDbEntity
  8
TITLE
  6
SLD-Solid
370
    18
100
AcDbLine
 10
0.5
 20
7.283464566929134
 30
0.0
 11
0.1653543307086614
 21
7.283464566929134
 31
0.0
  0
LINE
  5
3E1
330
1F
100
AcDbEntity
  8
TITLE
  6
SLD-Solid
370
    18
100
AcDbLine
 10
69.5
 20
7.283464566929134
 30
0.0
 11
69.83464566929135
 21
7.283464566929134
 31
0.0
  0
LINE
  5
3E2
330
1F
100
AcDbEntity
  8
TITLE
  6
SLD-Solid
370
    18
100
AcDbLine
 10
0.5
 20
9.251968503937007
 30
0.0
 11
0.1653543307086614
 21
9.251968503937007
 31
0.0
  0
LINE
  5
94
330
1F
100
AcDbEntity
  8
TITLE
  6
SLD-Solid
370
    18
100
AcDbLine
 10
69.5
 20
9.251968503937007
 30
0.0
 11
69.83464566929135
 21
9.251968503937007
 31
0.0
  0
LINE
  5
95
330
1F
100
AcDbEntity
  8
TITLE
  6
SLD-Solid
370
    18
100
AcDbLine
 10
0.5
 20
11.22047244094488
 30
0.0
 11
0.1653543307086614
 21
11.22047244094488
 31
0.0
  0
LINE
  5
96
330
1F
100
AcDbEntity
  8
TITLE
  6
SLD-Solid
370
    18
100
AcDbLine
 10
69.5
 20
11.22047244094488
 30
0.0
 11
69.83464566929135
 21
11.22047244094488
 31
0.0
  0
LINE
  5
3E3
330
1F
100
AcDbEntity
  8
TITLE
  6
SLD-Solid
370
    18
100
AcDbLine
 10
0.5
 20
13.18897637795276
 30
0.0
 11
0.1653543307086614
 21
13.18897637795276
 31
0.0
  0
LINE
  5
3E4
330
1F
100
AcDbEntity
  8
TITLE
  6
SLD-Solid
370
    18
100
AcDbLine
 10
69.5
 20
13.18897637795276
 30
0.0
 11
69.83464566929135
 21
13.18897637795276
 31
0.0
  0
LINE
  5
99
330
1F
100
AcDbEntity
  8
TITLE
  6
SLD-Solid
370
    18
100
AcDbLine
 10
0.5
 20
15.15748031496063
 30
0.0
 11
0.1653543307086614
 21
15.15748031496063
 31
0.0
  0
LINE
  5
9A
330
1F
100
AcDbEntity
  8
TITLE
  6
SLD-Solid
370
    18
100
AcDbLine
 10
69.5
 20
15.15748031496063
 30
0.0
 11
69.83464566929135
 21
15.15748031496063
 31
0.0
  0
LINE
  5
9B
330
1F
100
AcDbEntity
  8
TITLE
  6
SLD-Solid
370
    18
100
AcDbLine
 10
0.5
 20
17.1259842519685
 30
0.0
 11
0.1653543307086614
 21
17.1259842519685
 31
0.0
  0
LINE
  5
9C
330
1F
100
AcDbEntity
  8
TITLE
  6
SLD-Solid
370
    18
100
AcDbLine
 10
69.5
 20
17.1259842519685
 30
0.0
 11
69.83464566929135
 21
17.1259842519685
 31
0.0
  0
LINE
  5
9D
330
1F
100
AcDbEntity
  8
TITLE
  6
SLD-Solid
370
    18
100
AcDbLine
 10
0.5
 20
19.09448818897638
 30
0.0
 11
0.1653543307086614
 21
19.09448818897638
 31
0.0
  0
LINE
  5
9E
330
1F
100
AcDbEntity
  8
TITLE
  6
SLD-Solid
370
    18
100
AcDbLine
 10
69.5
 20
19.09448818897638
 30
0.0
 11
69.83464566929135
 21
19.09448818897638
 31
0.0
  0
LINE
  5
9F
330
1F
100
AcDbEntity
  8
TITLE
  6
SLD-Solid
370
    18
100
AcDbLine
 10
0.5
 20
21.06299212598426
 30
0.0
 11
0.1653543307086614
 21
21.06299212598426
 31
0.0
  0
LINE
  5
A0
330
1F
100
AcDbEntity
  8
TITLE
  6
SLD-Solid
370
    18
100
AcDbLine
 10
69.5
 20
21.06299212598426
 30
0.0
 11
69.83464566929135
 21
21.06299212598426
 31
0.0
  0
LINE
  5
A1
330
1F
100
AcDbEntity
  8
TITLE
  6
SLD-Solid
370
    18
100
AcDbLine
 10
0.5
 20
23.03149606299213
 30
0.0
 11
0.1653543307086614
 21
23.03149606299213
 31
0.0
  0
LINE
  5
A2
330
1F
100
AcDbEntity
  8
TITLE
  6
SLD-Solid
370
    18
100
AcDbLine
 10
69.5
 20
23.03149606299213
 30
0.0
 11
69.83464566929135
 21
23.03149606299213
 31
0.0
  0
LINE
  5
A3
330
1F
100
AcDbEntity
  8
TITLE
  6
SLD-Solid
370
    18
100
AcDbLine
 10
0.5
 20
25.0
 30
0.0
 11
0.1653543307086614
 21
25.0
 31
0.0
  0
LINE
  5
A4
330
1F
100
AcDbEntity
  8
TITLE
  6
SLD-Solid
370
    18
100
AcDbLine
 10
69.5
 20
25.0
 30
0.0
 11
69.83464566929135
 21
25.0
 31
0.0
  0
LINE
  5
A5
330
1F
100
AcDbEntity
  8
TITLE
  6
SLD-Solid
370
    18
100
AcDbLine
 10
0.5
 20
26.96850393700788
 30
0.0
 11
0.1653543307086614
 21
26.96850393700788
 31
0.0
  0
LINE
  5
A6
330
1F
100
AcDbEntity
  8
TITLE
  6
SLD-Solid
370
    18
100
AcDbLine
 10
69.5
 20
26.96850393700788
 30
0.0
 11
69.83464566929135
 21
26.96850393700788
 31
0.0
  0
LINE
  5
A7
330
1F
100
AcDbEntity
  8
TITLE
  6
SLD-Solid
370
    18
100
AcDbLine
 10
0.5
 20
28.93700787401575
 30
0.0
 11
0.1653543307086614
 21
28.93700787401575
 31
0.0
  0
LINE
  5
A8
330
1F
100
AcDbEntity
  8
TITLE
  6
SLD-Solid
370
    18
100
AcDbLine
 10
69.5
 20
28.93700787401575
 30
0.0
 11
69.83464566929135
 21
28.93700787401575
 31
0.0
  0
LINE
  5
A9
330
1F
100
AcDbEntity
  8
TITLE
  6
SLD-Solid
370
    18
100
AcDbLine
 10
0.5
 20
30.90551181102363
 30
0.0
 11
0.1653543307086614
 21
30.90551181102363
 31
0.0
  0
LINE
  5
AA
330
1F
100
AcDbEntity
  8
TITLE
  6
SLD-Solid
370
    18
100
AcDbLine
 10
69.5
 20
30.90551181102363
 30
0.0
 11
69.83464566929135
 21
30.90551181102363
 31
0.0
  0
LINE
  5
AB
330
1F
100
AcDbEntity
  8
TITLE
  6
SLD-Solid
370
    18
100
AcDbLine
 10
0.5
 20
32.8740157480315
 30
0.0
 11
0.1653543307086614
 21
32.8740157480315
 31
0.0
  0
LINE
  5
AC
330
1F
100
AcDbEntity
  8
TITLE
  6
SLD-Solid
370
    18
100
AcDbLine
 10
69.5
 20
32.8740157480315
 30
0.0
 11
69.83464566929135
 21
32.8740157480315
 31
0.0
  0
LINE
  5
AD
330
1F
100
AcDbEntity
  8
TITLE
  6
SLD-Solid
370
    18
100
AcDbLine
 10
0.5
 20
34.84251968503937
 30
0.0
 11
0.1653543307086614
 21
34.84251968503937
 31
0.0
  0
LINE
  5
AE
330
1F
100
AcDbEntity
  8
TITLE
  6
SLD-Solid
370
    18
100
AcDbLine
 10
69.5
 20
34.84251968503937
 30
0.0
 11
69.83464566929135
 21
34.84251968503937
 31
0.0
  0
LINE
  5
AF
330
1F
100
AcDbEntity
  8
TITLE
  6
SLD-Solid
370
    18
100
AcDbLine
 10
0.5
 20
36.81102362204724
 30
0.0
 11
0.1653543307086614
 21
36.81102362204724
 31
0.0
  0
LINE
  5
B0
330
1F
100
AcDbEntity
  8
TITLE
  6
SLD-Solid
370
    18
100
AcDbLine
 10
69.5
 20
36.81102362204724
 30
0.0
 11
69.83464566929135
 21
36.81102362204724
 31
0.0
  0
LINE
  5
B1
330
1F
100
AcDbEntity
  8
TITLE
  6
SLD-Solid
370
    18
100
AcDbLine
 10
0.5
 20
38.77952755905513
 30
0.0
 11
0.1653543307086614
 21
38.77952755905513
 31
0.0
  0
LINE
  5
B2
330
1F
100
AcDbEntity
  8
TITLE
  6
SLD-Solid
370
    18
100
AcDbLine
 10
69.5
 20
38.77952755905513
 30
0.0
 11
69.83464566929135
 21
38.77952755905513
 31
0.0
  0
LINE
  5
B3
330
1F
100
AcDbEntity
  8
TITLE
  6
SLD-Solid
370
    18
100
AcDbLine
 10
0.5
 20
40.748031496063
 30
0.0
 11
0.1653543307086614
 21
40.748031496063
 31
0.0
  0
LINE
  5
B4
330
1F
100
AcDbEntity
  8
TITLE
  6
SLD-Solid
370
    18
100
AcDbLine
 10
69.5
 20
40.748031496063
 30
0.0
 11
69.83464566929135
 21
40.748031496063
 31
0.0
  0
LINE
  5
B5
330
1F
100
AcDbEntity
  8
TITLE
  6
SLD-Solid
370
    18
100
AcDbLine
 10
0.5
 20
42.71653543307087
 30
0.0
 11
0.1653543307086614
 21
42.71653543307087
 31
0.0
  0
LINE
  5
B6
330
1F
100
AcDbEntity
  8
TITLE
  6
SLD-Solid
370
    18
100
AcDbLine
 10
69.5
 20
42.71653543307087
 30
0.0
 11
69.83464566929135
 21
42.71653543307087
 31
0.0
  0
LINE
  5
B7
330
1F
100
AcDbEntity
  8
TITLE
  6
SLD-Solid
370
    18
100
AcDbLine
 10
0.5
 20
44.68503937007874
 30
0.0
 11
0.1653543307086614
 21
44.68503937007874
 31
0.0
  0
LINE
  5
B8
330
1F
100
AcDbEntity
  8
TITLE
  6
SLD-Solid
370
    18
100
AcDbLine
 10
69.5
 20
44.68503937007874
 30
0.0
 11
69.83464566929135
 21
44.68503937007874
 31
0.0
  0
LINE
  5
B9
330
1F
100
AcDbEntity
  8
TITLE
  6
SLD-Solid
370
    18
100
AcDbLine
 10
0.5
 20
46.65354330708661
 30
0.0
 11
0.1653543307086614
 21
46.65354330708661
 31
0.0
  0
LINE
  5
BA
330
1F
100
AcDbEntity
  8
TITLE
  6
SLD-Solid
370
    18
100
AcDbLine
 10
69.5
 20
46.65354330708661
 30
0.0
 11
69.83464566929135
 21
46.65354330708661
 31
0.0
  0
LINE
  5
BB
330
1F
100
AcDbEntity
  8
TITLE
  6
SLD-Solid
370
    18
100
AcDbLine
 10
1.535433070866139
 20
49.50000000000001
 30
0.0
 11
1.535433070866139
 21
49.83464566929134
 31
0.0
  0
LINE
  5
BC
330
1F
100
AcDbEntity
  8
TITLE
  6
SLD-Solid
370
    18
100
AcDbLine
 10
1.535433070866139
 20
0.5
 30
0.0
 11
1.535433070866139
 21
0.1653543307086614
 31
0.0
  0
LINE
  5
BD
330
1F
100
AcDbEntity
  8
TITLE
  6
SLD-Solid
370
    18
100
AcDbLine
 10
3.503937007874014
 20
49.50000000000001
 30
0.0
 11
3.503937007874014
 21
49.83464566929134
 31
0.0
  0
LINE
  5
BE
330
1F
100
AcDbEntity
  8
TITLE
  6
SLD-Solid
370
    18
100
AcDbLine
 10
3.503937007874014
 20
0.5
 30
0.0
 11
3.503937007874014
 21
0.1653543307086614
 31
0.0
  0
LINE
  5
BF
330
1F
100
AcDbEntity
  8
TITLE
  6
SLD-Solid
370
    18
100
AcDbLine
 10
5.472440944881891
 20
49.50000000000001
 30
0.0
 11
5.472440944881891
 21
49.83464566929134
 31
0.0
  0
LINE
  5
C0
330
1F
100
AcDbEntity
  8
TITLE
  6
SLD-Solid
370
    18
100
AcDbLine
 10
5.472440944881891
 20
0.5
 30
0.0
 11
5.472440944881891
 21
0.1653543307086614
 31
0.0
  0
LINE
  5
C1
330
1F
100
AcDbEntity
  8
TITLE
  6
SLD-Solid
370
    18
100
AcDbLine
 10
7.440944881889762
 20
49.50000000000001
 30
0.0
 11
7.440944881889762
 21
49.83464566929134
 31
0.0
  0
LINE
  5
C2
330
1F
100
AcDbEntity
  8
TITLE
  6
SLD-Solid
370
    18
100
AcDbLine
 10
7.440944881889762
 20
0.5
 30
0.0
 11
7.440944881889762
 21
0.1653543307086614
 31
0.0
  0
LINE
  5
C3
330
1F
100
AcDbEntity
  8
TITLE
  6
SLD-Solid
370
    18
100
AcDbLine
 10
9.409448818897637
 20
49.50000000000001
 30
0.0
 11
9.409448818897637
 21
49.83464566929134
 31
0.0
  0
LINE
  5
C4
330
1F
100
AcDbEntity
  8
TITLE
  6
SLD-Solid
370
    18
100
AcDbLine
 10
9.409448818897637
 20
0.5
 30
0.0
 11
9.409448818897637
 21
0.1653543307086614
 31
0.0
  0
LINE
  5
C5
330
1F
100
AcDbEntity
  8
TITLE
  6
SLD-Solid
370
    18
100
AcDbLine
 10
11.37795275590551
 20
49.50000000000001
 30
0.0
 11
11.37795275590551
 21
49.83464566929134
 31
0.0
  0
LINE
  5
C6
330
1F
100
AcDbEntity
  8
TITLE
  6
SLD-Solid
370
    18
100
AcDbLine
 10
11.37795275590551
 20
0.5
 30
0.0
 11
11.37795275590551
 21
0.1653543307086614
 31
0.0
  0
LINE
  5
C7
330
1F
100
AcDbEntity
  8
TITLE
  6
SLD-Solid
370
    18
100
AcDbLine
 10
13.34645669291339
 20
49.50000000000001
 30
0.0
 11
13.34645669291339
 21
49.83464566929134
 31
0.0
  0
LINE
  5
C8
330
1F
100
AcDbEntity
  8
TITLE
  6
SLD-Solid
370
    18
100
AcDbLine
 10
13.34645669291339
 20
0.5
 30
0.0
 11
13.34645669291339
 21
0.1653543307086614
 31
0.0
  0
LINE
  5
C9
330
1F
100
AcDbEntity
  8
TITLE
  6
SLD-Solid
370
    18
100
AcDbLine
 10
15.31496062992126
 20
49.50000000000001
 30
0.0
 11
15.31496062992126
 21
49.83464566929134
 31
0.0
  0
LINE
  5
CA
330
1F
100
AcDbEntity
  8
TITLE
  6
SLD-Solid
370
    18
100
AcDbLine
 10
15.31496062992126
 20
0.5
 30
0.0
 11
15.31496062992126
 21
0.1653543307086614
 31
0.0
  0
LINE
  5
CB
330
1F
100
AcDbEntity
  8
TITLE
  6
SLD-Solid
370
    18
100
AcDbLine
 10
17.28346456692913
 20
49.50000000000001
 30
0.0
 11
17.28346456692913
 21
49.83464566929134
 31
0.0
  0
LINE
  5
CC
330
1F
100
AcDbEntity
  8
TITLE
  6
SLD-Solid
370
    18
100
AcDbLine
 10
17.28346456692913
 20
0.5
 30
0.0
 11
17.28346456692913
 21
0.1653543307086614
 31
0.0
  0
LINE
  5
CD
330
1F
100
AcDbEntity
  8
TITLE
  6
SLD-Solid
370
    18
100
AcDbLine
 10
19.25196850393701
 20
49.50000000000001
 30
0.0
 11
19.25196850393701
 21
49.83464566929134
 31
0.0
  0
LINE
  5
CE
330
1F
100
AcDbEntity
  8
TITLE
  6
SLD-Solid
370
    18
100
AcDbLine
 10
19.25196850393701
 20
0.5
 30
0.0
 11
19.25196850393701
 21
0.1653543307086614
 31
0.0
  0
LINE
  5
CF
330
1F
100
AcDbEntity
  8
TITLE
  6
SLD-Solid
370
    18
100
AcDbLine
 10
21.22047244094488
 20
49.50000000000001
 30
0.0
 11
21.22047244094488
 21
49.83464566929134
 31
0.0
  0
LINE
  5
D0
330
1F
100
AcDbEntity
  8
TITLE
  6
SLD-Solid
370
    18
100
AcDbLine
 10
21.22047244094488
 20
0.5
 30
0.0
 11
21.22047244094488
 21
0.1653543307086614
 31
0.0
  0
LINE
  5
D1
330
1F
100
AcDbEntity
  8
TITLE
  6
SLD-Solid
370
    18
100
AcDbLine
 10
23.18897637795276
 20
49.50000000000001
 30
0.0
 11
23.18897637795276
 21
49.83464566929134
 31
0.0
  0
LINE
  5
D2
330
1F
100
AcDbEntity
  8
TITLE
  6
SLD-Solid
370
    18
100
AcDbLine
 10
23.18897637795276
 20
0.5
 30
0.0
 11
23.18897637795276
 21
0.1653543307086614
 31
0.0
  0
LINE
  5
D3
330
1F
100
AcDbEntity
  8
TITLE
  6
SLD-Solid
370
    18
100
AcDbLine
 10
25.15748031496063
 20
49.50000000000001
 30
0.0
 11
25.15748031496063
 21
49.83464566929134
 31
0.0
  0
LINE
  5
D4
330
1F
100
AcDbEntity
  8
TITLE
  6
SLD-Solid
370
    18
100
AcDbLine
 10
25.15748031496063
 20
0.5
 30
0.0
 11
25.15748031496063
 21
0.1653543307086614
 31
0.0
  0
LINE
  5
D5
330
1F
100
AcDbEntity
  8
TITLE
  6
SLD-Solid
370
    18
100
AcDbLine
 10
27.12598425196851
 20
49.50000000000001
 30
0.0
 11
27.12598425196851
 21
49.83464566929134
 31
0.0
  0
LINE
  5
D6
330
1F
100
AcDbEntity
  8
TITLE
  6
SLD-Solid
370
    18
100
AcDbLine
 10
27.12598425196851
 20
0.5
 30
0.0
 11
27.12598425196851
 21
0.1653543307086614
 31
0.0
  0
LINE
  5
D7
330
1F
100
AcDbEntity
  8
TITLE
  6
SLD-Solid
370
    18
100
AcDbLine
 10
29.09448818897638
 20
49.50000000000001
 30
0.0
 11
29.09448818897638
 21
49.83464566929134
 31
0.0
  0
LINE
  5
D8
330
1F
100
AcDbEntity
  8
TITLE
  6
SLD-Solid
370
    18
100
AcDbLine
 10
29.09448818897638
 20
0.5
 30
0.0
 11
29.09448818897638
 21
0.1653543307086614
 31
0.0
  0
LINE
  5
D9
330
1F
100
AcDbEntity
  8
TITLE
  6
SLD-Solid
370
    18
100
AcDbLine
 10
31.06299212598426
 20
49.50000000000001
 30
0.0
 11
31.06299212598426
 21
49.83464566929134
 31
0.0
  0
LINE
  5
DA
330
1F
100
AcDbEntity
  8
TITLE
  6
SLD-Solid
370
    18
100
AcDbLine
 10
31.06299212598426
 20
0.5
 30
0.0
 11
31.06299212598426
 21
0.1653543307086614
 31
0.0
  0
LINE
  5
DB
330
1F
100
AcDbEntity
  8
TITLE
  6
SLD-Solid
370
    18
100
AcDbLine
 10
33.03149606299213
 20
49.50000000000001
 30
0.0
 11
33.03149606299213
 21
49.83464566929134
 31
0.0
  0
LINE
  5
DC
330
1F
100
AcDbEntity
  8
TITLE
  6
SLD-Solid
370
    18
100
AcDbLine
 10
33.03149606299213
 20
0.5
 30
0.0
 11
33.03149606299213
 21
0.1653543307086614
 31
0.0
  0
LINE
  5
DD
330
1F
100
AcDbEntity
  8
TITLE
  6
SLD-Solid
370
    18
100
AcDbLine
 10
35.0
 20
49.50000000000001
 30
0.0
 11
35.0
 21
49.83464566929134
 31
0.0
  0
LINE
  5
DE
330
1F
100
AcDbEntity
  8
TITLE
  6
SLD-Solid
370
    18
100
AcDbLine
 10
35.0
 20
0.5
 30
0.0
 11
35.0
 21
0.1653543307086614
 31
0.0
  0
LINE
  5
DF
330
1F
100
AcDbEntity
  8
TITLE
  6
SLD-Solid
370
    18
100
AcDbLine
 10
36.96850393700787
 20
49.50000000000001
 30
0.0
 11
36.96850393700787
 21
49.83464566929134
 31
0.0
  0
LINE
  5
E0
330
1F
100
AcDbEntity
  8
TITLE
  6
SLD-Solid
370
    18
100
AcDbLine
 10
36.96850393700787
 20
0.5
 30
0.0
 11
36.96850393700787
 21
0.1653543307086614
 31
0.0
  0
LINE
  5
E1
330
1F
100
AcDbEntity
  8
TITLE
  6
SLD-Solid
370
    18
100
AcDbLine
 10
38.93700787401575
 20
49.50000000000001
 30
0.0
 11
38.93700787401575
 21
49.83464566929134
 31
0.0
  0
LINE
  5
E2
330
1F
100
AcDbEntity
  8
TITLE
  6
SLD-Solid
370
    18
100
AcDbLine
 10
38.93700787401575
 20
0.5
 30
0.0
 11
38.93700787401575
 21
0.1653543307086614
 31
0.0
  0
LINE
  5
E3
330
1F
100
AcDbEntity
  8
TITLE
  6
SLD-Solid
370
    18
100
AcDbLine
 10
40.90551181102363
 20
49.50000000000001
 30
0.0
 11
40.90551181102363
 21
49.83464566929134
 31
0.0
  0
LINE
  5
E4
330
1F
100
AcDbEntity
  8
TITLE
  6
SLD-Solid
370
    18
100
AcDbLine
 10
40.90551181102363
 20
0.5
 30
0.0
 11
40.90551181102363
 21
0.1653543307086614
 31
0.0
  0
LINE
  5
E5
330
1F
100
AcDbEntity
  8
TITLE
  6
SLD-Solid
370
    18
100
AcDbLine
 10
42.8740157480315
 20
49.50000000000001
 30
0.0
 11
42.8740157480315
 21
49.83464566929134
 31
0.0
  0
LINE
  5
E6
330
1F
100
AcDbEntity
  8
TITLE
  6
SLD-Solid
370
    18
100
AcDbLine
 10
42.8740157480315
 20
0.5
 30
0.0
 11
42.8740157480315
 21
0.1653543307086614
 31
0.0
  0
LINE
  5
E7
330
1F
100
AcDbEntity
  8
TITLE
  6
SLD-Solid
370
    18
100
AcDbLine
 10
44.84251968503937
 20
49.50000000000001
 30
0.0
 11
44.84251968503937
 21
49.83464566929134
 31
0.0
  0
LINE
  5
E8
330
1F
100
AcDbEntity
  8
TITLE
  6
SLD-Solid
370
    18
100
AcDbLine
 10
44.84251968503937
 20
0.5
 30
0.0
 11
44.84251968503937
 21
0.1653543307086614
 31
0.0
  0
LINE
  5
E9
330
1F
100
AcDbEntity
  8
TITLE
  6
SLD-Solid
370
    18
100
AcDbLine
 10
46.81102362204724
 20
49.50000000000001
 30
0.0
 11
46.81102362204724
 21
49.83464566929134
 31
0.0
  0
LINE
  5
EA
330
1F
100
AcDbEntity
  8
TITLE
  6
SLD-Solid
370
    18
100
AcDbLine
 10
46.81102362204724
 20
0.5
 30
0.0
 11
46.81102362204724
 21
0.1653543307086614
 31
0.0
  0
LINE
  5
EB
330
1F
100
AcDbEntity
  8
TITLE
  6
SLD-Solid
370
    18
100
AcDbLine
 10
48.77952755905513
 20
49.50000000000001
 30
0.0
 11
48.77952755905513
 21
49.83464566929134
 31
0.0
  0
LINE
  5
EC
330
1F
100
AcDbEntity
  8
TITLE
  6
SLD-Solid
370
    18
100
AcDbLine
 10
48.77952755905513
 20
0.5
 30
0.0
 11
48.77952755905513
 21
0.1653543307086614
 31
0.0
  0
LINE
  5
ED
330
1F
100
AcDbEntity
  8
TITLE
  6
SLD-Solid
370
    18
100
AcDbLine
 10
50.748031496063
 20
49.50000000000001
 30
0.0
 11
50.748031496063
 21
49.83464566929134
 31
0.0
  0
LINE
  5
EE
330
1F
100
AcDbEntity
  8
TITLE
  6
SLD-Solid
370
    18
100
AcDbLine
 10
50.748031496063
 20
0.5
 30
0.0
 11
50.748031496063
 21
0.1653543307086614
 31
0.0
  0
LINE
  5
EF
330
1F
100
AcDbEntity
  8
TITLE
  6
SLD-Solid
370
    18
100
AcDbLine
 10
52.71653543307087
 20
49.50000000000001
 30
0.0
 11
52.71653543307087
 21
49.83464566929134
 31
0.0
  0
LINE
  5
F0
330
1F
100
AcDbEntity
  8
TITLE
  6
SLD-Solid
370
    18
100
AcDbLine
 10
52.71653543307087
 20
0.5
 30
0.0
 11
52.71653543307087
 21
0.1653543307086614
 31
0.0
  0
LINE
  5
F1
330
1F
100
AcDbEntity
  8
TITLE
  6
SLD-Solid
370
    18
100
AcDbLine
 10
54.68503937007874
 20
49.50000000000001
 30
0.0
 11
54.68503937007874
 21
49.83464566929134
 31
0.0
  0
LINE
  5
F2
330
1F
100
AcDbEntity
  8
TITLE
  6
SLD-Solid
370
    18
100
AcDbLine
 10
54.68503937007874
 20
0.5
 30
0.0
 11
54.68503937007874
 21
0.1653543307086614
 31
0.0
  0
LINE
  5
F3
330
1F
100
AcDbEntity
  8
TITLE
  6
SLD-Solid
370
    18
100
AcDbLine
 10
56.65354330708661
 20
49.50000000000001
 30
0.0
 11
56.65354330708661
 21
49.83464566929134
 31
0.0
  0
LINE
  5
F4
330
1F
100
AcDbEntity
  8
TITLE
  6
SLD-Solid
370
    18
100
AcDbLine
 10
56.65354330708661
 20
0.5
 30
0.0
 11
56.65354330708661
 21
0.1653543307086614
 31
0.0
  0
LINE
  5
F5
330
1F
100
AcDbEntity
  8
TITLE
  6
SLD-Solid
370
    18
100
AcDbLine
 10
58.6220472440945
 20
49.50000000000001
 30
0.0
 11
58.6220472440945
 21
49.83464566929134
 31
0.0
  0
LINE
  5
F6
330
1F
100
AcDbEntity
  8
TITLE
  6
SLD-Solid
370
    18
100
AcDbLine
 10
58.6220472440945
 20
0.5
 30
0.0
 11
58.6220472440945
 21
0.1653543307086614
 31
0.0
  0
LINE
  5
F7
330
1F
100
AcDbEntity
  8
TITLE
  6
SLD-Solid
370
    18
100
AcDbLine
 10
60.59055118110237
 20
49.50000000000001
 30
0.0
 11
60.59055118110237
 21
49.83464566929134
 31
0.0
  0
LINE
  5
F8
330
1F
100
AcDbEntity
  8
TITLE
  6
SLD-Solid
370
    18
100
AcDbLine
 10
60.59055118110237
 20
0.5
 30
0.0
 11
60.59055118110237
 21
0.1653543307086614
 31
0.0
  0
LINE
  5
F9
330
1F
100
AcDbEntity
  8
TITLE
  6
SLD-Solid
370
    18
100
AcDbLine
 10
62.55905511811024
 20
49.50000000000001
 30
0.0
 11
62.55905511811024
 21
49.83464566929134
 31
0.0
  0
LINE
  5
FA
330
1F
100
AcDbEntity
  8
TITLE
  6
SLD-Solid
370
    18
100
AcDbLine
 10
62.55905511811024
 20
0.5
 30
0.0
 11
62.55905511811024
 21
0.1653543307086614
 31
0.0
  0
LINE
  5
FB
330
1F
100
AcDbEntity
  8
TITLE
  6
SLD-Solid
370
    18
100
AcDbLine
 10
64.52755905511812
 20
49.50000000000001
 30
0.0
 11
64.52755905511812
 21
49.83464566929134
 31
0.0
  0
LINE
  5
FC
330
1F
100
AcDbEntity
  8
TITLE
  6
SLD-Solid
370
    18
100
AcDbLine
 10
64.52755905511812
 20
0.5
 30
0.0
 11
64.52755905511812
 21
0.1653543307086614
 31
0.0
  0
LINE
  5
FD
330
1F
100
AcDbEntity
  8
TITLE
  6
SLD-Solid
370
    18
100
AcDbLine
 10
66.49606299212599
 20
49.50000000000001
 30
0.0
 11
66.49606299212599
 21
49.83464566929134
 31
0.0
  0
LINE
  5
FE
330
1F
100
AcDbEntity
  8
TITLE
  6
SLD-Solid
370
    18
100
AcDbLine
 10
66.49606299212599
 20
0.5
 30
0.0
 11
66.49606299212599
 21
0.1653543307086614
 31
0.0
  0
LINE
  5
FF
330
1F
100
AcDbEntity
  8
TITLE
  6
SLD-Solid
370
    18
100
AcDbLine
 10
68.46456692913387
 20
49.50000000000001
 30
0.0
 11
68.46456692913387
 21
49.83464566929134
 31
0.0
  0
LINE
  5
100
330
1F
100
AcDbEntity
  8
TITLE
  6
SLD-Solid
370
    18
100
AcDbLine
 10
68.46456692913387
 20
0.5
 30
0.0
 11
68.46456692913387
 21
0.1653543307086614
 31
0.0
  0
MTEXT
  5
102
330
1F
100
AcDbEntity
  8
NOTES
100
AcDbMText
 10
46.40829780303407
 20
1.070290334694339
 30
0.0
 40
0.25
 41
0.0
 71
     1
 72
     1
  1
UNLESS OTHERWISE SPECIFIED DIMENSIONS ARE IN INCHES.
  7
SLDTEXTSTYLE0
 73
     1
 44
1.0
  0
MTEXT
  5
103
330
1F
100
AcDbEntity
  8
NOTES
100
AcDbMText
 10
46.43006992789031
 20
3.083062777580424
 30
0.0
 40
0.25
 41
0.0
 71
     1
 72
     1
  1
DATE:
  7
SLDTEXTSTYLE0
 73
     1
 44
1.0
  0
MTEXT
  5
104
330
1F
100
AcDbEntity
  8
NOTES
100
AcDbMText
 10
48.53870118800533
 20
2.193032963662708
 30
0.0
 40
0.25
 41
0.0
 71
     2
 72
     1
  1
DO NOT SCALE DRAWING
  7
SLDTEXTSTYLE0
 73
     1
 44
1.0
  0
MTEXT
  5
106
330
1F
100
AcDbEntity
  8
NOTES
100
AcDbMText
 10
52.83073730750539
 20
3.268275555297609
 30
0.0
 40
0.25
 41
0.0
 71
     1
 72
     1
  1
TITLE:
  7
SLDTEXTSTYLE1
 73
     1
 44
1.0
  0
MTEXT
  5
107
330
1F
100
AcDbEntity
  8
NOTES
100
AcDbMText
 10
60.15618310516096
 20
3.268275555297602
 30
0.0
 40
0.25
 41
0.0
 71
     1
 72
     1
  1
DWG NO.
  7
SLDTEXTSTYLE1
 73
     1
 44
1.0
  0
MTEXT
  5
108
330
1F
100
AcDbEntity
  8
NOTES
100
AcDbMText
 10
60.18317532028495
 20
1.064581557673832
 30
0.0
 40
0.25
 41
0.0
 71
     1
 72
     1
  1
SCALE:     1:1
  7
SLDTEXTSTYLE1
 73
     1
 44
1.0
  0
MTEXT
  5
109
330
1F
100
AcDbEntity
  8
NOTES
100
AcDbMText
 10
64.17553366096821
 20
2.651034429460866
 30
0.0
 40
0.25
 41
0.0
 71
     2
 72
     1
  1
955 CAD
  7
SLDTEXTSTYLE1
 73
     1
 44
1.0
  0
MTEXT
  5
10A
330
1F
100
AcDbEntity
  8
NOTES
100
AcDbMText
 10
56.45624930606164
 20
2.651034429460864
 30
0.0
 40
0.25
 41
0.0
 71
     2
 72
     1
  1
955 Flip up shelf
  7
SLDTEXTSTYLE1
 73
     1
 44
1.0
  0
INSERT
  5
11A
330
1F
100
AcDbEntity
  8
NOTES
100
AcDbBlockReference
  2
SW_NOTE_0_1
 10
46.61597262459082
 20
5.148152684778704
 30
0.0
  0
MTEXT
  5
11B
330
1F
100
AcDbEntity
  8
NOTES
100
AcDbMText
 10
49.51086800828756
 20
3.08647332676587
 30
0.0
 40
0.25
 41
0.0
 71
     2
 72
     1
  1
July 13, 2021
  7
SLDTEXTSTYLE1
 73
     1
 44
1.0
  0
MTEXT
  5
11C
330
1F
100
AcDbEntity
  8
TITLE
100
AcDbMText
 10
0.3276279775836454
 20
2.003106290974172
 30
0.0
 40
0.125
 41
0.0
 71
     2
 72
     1
  1
A
  7
SLDTEXTSTYLE1
 73
     1
 44
1.0
  0
MTEXT
  5
11D
330
1F
100
AcDbEntity
  8
TITLE
100
AcDbMText
 10
69.662273646875
 20
2.003106290974172
 30
0.0
 40
0.125
 41
0.0
 71
     2
 72
     1
  1
A
  7
SLDTEXTSTYLE1
 73
     1
 44
1.0
  0
MTEXT
  5
11E
330
1F
100
AcDbEntity
  8
TITLE
100
AcDbMText
 10
0.3317512413046844
 20
4.410586605934803
 30
0.0
 40
0.125
 41
0.0
 71
     2
 72
     1
  1
B
  7
SLDTEXTSTYLE1
 73
     1
 44
1.0
  0
MTEXT
  5
11F
330
1F
100
AcDbEntity
  8
TITLE
100
AcDbMText
 10
69.66639691059605
 20
4.410586605934803
 30
0.0
 40
0.125
 41
0.0
 71
     2
 72
     1
  1
B
  7
SLDTEXTSTYLE1
 73
     1
 44
1.0
  0
MTEXT
  5
120
330
1F
100
AcDbEntity
  8
TITLE
100
AcDbMText
 10
0.3313750816934456
 20
6.379090542942676
 30
0.0
 40
0.125
 41
0.0
 71
     2
 72
     1
  1
C
  7
SLDTEXTSTYLE1
 73
     1
 44
1.0
  0
MTEXT
  5
121
330
1F
100
AcDbEntity
  8
TITLE
100
AcDbMText
 10
69.6660207509848
 20
6.379090542942677
 30
0.0
 40
0.125
 41
0.0
 71
     2
 72
     1
  1
C
  7
SLDTEXTSTYLE1
 73
     1
 44
1.0
  0
MTEXT
  5
122
330
1F
100
AcDbEntity
  8
TITLE
100
AcDbMText
 10
0.3311870028448152
 20
8.34759447995055
 30
0.0
 40
0.125
 41
0.0
 71
     2
 72
     1
  1
D
  7
SLDTEXTSTYLE1
 73
     1
 44
1.0
  0
MTEXT
  5
123
330
1F
100
AcDbEntity
  8
TITLE
100
AcDbMText
 10
69.66583267213616
 20
8.34759447995055
 30
0.0
 40
0.125
 41
0.0
 71
     2
 72
     1
  1
D
  7
SLDTEXTSTYLE1
 73
     1
 44
1.0
  0
MTEXT
  5
124
330
1F
100
AcDbEntity
  8
TITLE
100
AcDbMText
 10
0.3329231160377541
 20
10.31609841695842
 30
0.0
 40
0.125
 41
0.0
 71
     2
 72
     1
  1
E
  7
SLDTEXTSTYLE1
 73
     1
 44
1.0
  0
MTEXT
  5
125
330
1F
100
AcDbEntity
  8
TITLE
100
AcDbMText
 10
69.66756878532911
 20
10.31609841695842
 30
0.0
 40
0.125
 41
0.0
 71
     2
 72
     1
  1
E
  7
SLDTEXTSTYLE1
 73
     1
 44
1.0
  0
MTEXT
  5
126
330
1F
100
AcDbEntity
  8
TITLE
100
AcDbMText
 10
0.3313461474003637
 20
12.28460235396629
 30
0.0
 40
0.125
 41
0.0
 71
     2
 72
     1
  1
F
  7
SLDTEXTSTYLE1
 73
     1
 44
1.0
  0
MTEXT
  5
127
330
1F
100
AcDbEntity
  8
TITLE
100
AcDbMText
 10
69.66599181669172
 20
12.2846023539663
 30
0.0
 40
0.125
 41
0.0
 71
     2
 72
     1
  1
F
  7
SLDTEXTSTYLE1
 73
     1
 44
1.0
  0
MTEXT
  5
128
330
1F
100
AcDbEntity
  8
TITLE
100
AcDbMText
 10
0.332257605436456
 20
14.25310629097417
 30
0.0
 40
0.125
 41
0.0
 71
     2
 72
     1
  1
G
  7
SLDTEXTSTYLE1
 73
     1
 44
1.0
  0
MTEXT
  5
129
330
1F
100
AcDbEntity
  8
TITLE
100
AcDbMText
 10
69.66690327472782
 20
14.25310629097417
 30
0.0
 40
0.125
 41
0.0
 71
     2
 72
     1
  1
G
  7
SLDTEXTSTYLE1
 73
     1
 44
1.0
  0
MTEXT
  5
12A
330
1F
100
AcDbEntity
  8
TITLE
100
AcDbMText
 10
0.3323733456814148
 20
16.22161022798205
 30
0.0
 40
0.125
 41
0.0
 71
     2
 72
     1
  1
H
  7
SLDTEXTSTYLE1
 73
     1
 44
1.0
  0
MTEXT
  5
12B
330
1F
100
AcDbEntity
  8
TITLE
100
AcDbMText
 10
69.66701901497275
 20
16.22161022798205
 30
0.0
 40
0.125
 41
0.0
 71
     2
 72
     1
  1
H
  7
SLDTEXTSTYLE1
 73
     1
 44
1.0
  0
MTEXT
  5
12C
330
1F
100
AcDbEntity
  8
TITLE
100
AcDbMText
 10
0.3315776305595838
 20
18.19011416498992
 30
0.0
 40
0.125
 41
0.0
 71
     2
 72
     1
  1
J
  7
SLDTEXTSTYLE1
 73
     1
 44
1.0
  0
MTEXT
  5
12D
330
1F
100
AcDbEntity
  8
TITLE
100
AcDbMText
 10
69.66622329985094
 20
18.19011416498992
 30
0.0
 40
0.125
 41
0.0
 71
     2
 72
     1
  1
J
  7
SLDTEXTSTYLE1
 73
     1
 44
1.0
  0
MTEXT
  5
12E
330
1F
100
AcDbEntity
  8
TITLE
100
AcDbMText
 10
0.3323154765159243
 20
20.1586181019978
 30
0.0
 40
0.125
 41
0.0
 71
     2
 72
     1
  1
K
  7
SLDTEXTSTYLE1
 73
     1
 44
1.0
  0
MTEXT
  5
12F
330
1F
100
AcDbEntity
  8
TITLE
100
AcDbMText
 10
69.66696114580728
 20
20.1586181019978
 30
0.0
 40
0.125
 41
0.0
 71
     2
 72
     1
  1
K
  7
SLDTEXTSTYLE1
 73
     1
 44
1.0
  0
MTEXT
  5
130
330
1F
100
AcDbEntity
  8
TITLE
100
AcDbMText
 10
0.3312448739242835
 20
22.12712203900567
 30
0.0
 40
0.125
 41
0.0
 71
     2
 72
     1
  1
L
  7
SLDTEXTSTYLE1
 73
     1
 44
1.0
  0
MTEXT
  5
131
330
1F
100
AcDbEntity
  8
TITLE
100
AcDbMText
 10
69.66589054321565
 20
22.12712203900567
 30
0.0
 40
0.125
 41
0.0
 71
     2
 72
     1
  1
L
  7
SLDTEXTSTYLE1
 73
     1
 44
1.0
  0
MTEXT
  5
132
330
1F
100
AcDbEntity
  8
TITLE
100
AcDbMText
 10
0.3283224192293962
 20
24.09562597601354
 30
0.0
 40
0.125
 41
0.0
 71
     2
 72
     1
  1
M
  7
SLDTEXTSTYLE1
 73
     1
 44
1.0
  0
MTEXT
  5
133
330
1F
100
AcDbEntity
  8
TITLE
100
AcDbMText
 10
69.66296808852073
 20
24.09562597601354
 30
0.0
 40
0.125
 41
0.0
 71
     2
 72
     1
  1
M
  7
SLDTEXTSTYLE1
 73
     1
 44
1.0
  0
MTEXT
  5
134
330
1F
100
AcDbEntity
  8
TITLE
100
AcDbMText
 10
0.3315342275836453
 20
26.06412991302142
 30
0.0
 40
0.125
 41
0.0
 71
     2
 72
     1
  1
N
  7
SLDTEXTSTYLE1
 73
     1
 44
1.0
  0
MTEXT
  5
135
330
1F
100
AcDbEntity
  8
TITLE
100
AcDbMText
 10
69.666179896875
 20
26.06412991302141
 30
0.0
 40
0.125
 41
0.0
 71
     2
 72
     1
  1
N
  7
SLDTEXTSTYLE1
 73
     1
 44
1.0
  0
MTEXT
  5
136
330
1F
100
AcDbEntity
  8
TITLE
100
AcDbMText
 10
0.3321997349363143
 20
28.03263385002929
 30
0.0
 40
0.125
 41
0.0
 71
     2
 72
     1
  1
P
  7
SLDTEXTSTYLE1
 73
     1
 44
1.0
  0
MTEXT
  5
137
330
1F
100
AcDbEntity
  8
TITLE
100
AcDbMText
 10
69.66684540422766
 20
28.03263385002929
 30
0.0
 40
0.125
 41
0.0
 71
     2
 72
     1
  1
P
  7
SLDTEXTSTYLE1
 73
     1
 44
1.0
  0
MTEXT
  5
138
330
1F
100
AcDbEntity
  8
TITLE
100
AcDbMText
 10
0.3309265867271644
 20
30.00113778703717
 30
0.0
 40
0.125
 41
0.0
 71
     2
 72
     1
  1
R
  7
SLDTEXTSTYLE1
 73
     1
 44
1.0
  0
MTEXT
  5
139
330
1F
100
AcDbEntity
  8
TITLE
100
AcDbMText
 10
69.6655722560185
 20
30.00113778703717
 30
0.0
 40
0.125
 41
0.0
 71
     2
 72
     1
  1
R
  7
SLDTEXTSTYLE1
 73
     1
 44
1.0
  0
MTEXT
  5
13A
330
1F
100
AcDbEntity
  8
TITLE
100
AcDbMText
 10
0.3323010070777432
 20
31.96964172404504
 30
0.0
 40
0.125
 41
0.0
 71
     2
 72
     1
  1
T
  7
SLDTEXTSTYLE1
 73
     1
 44
1.0
  0
MTEXT
  5
13B
330
1F
100
AcDbEntity
  8
TITLE
100
AcDbMText
 10
69.6669466763691
 20
31.96964172404504
 30
0.0
 40
0.125
 41
0.0
 71
     2
 72
     1
  1
T
  7
SLDTEXTSTYLE1
 73
     1
 44
1.0
  0
MTEXT
  5
13C
330
1F
100
AcDbEntity
  8
TITLE
100
AcDbMText
 10
0.3328507755201046
 20
33.93814566105291
 30
0.0
 40
0.125
 41
0.0
 71
     2
 72
     1
  1
U
  7
SLDTEXTSTYLE1
 73
     1
 44
1.0
  0
MTEXT
  5
13D
330
1F
100
AcDbEntity
  8
TITLE
100
AcDbMText
 10
69.66749644481145
 20
33.93814566105292
 30
0.0
 40
0.125
 41
0.0
 71
     2
 72
     1
  1
U
  7
SLDTEXTSTYLE1
 73
     1
 44
1.0
  0
MTEXT
  5
13E
330
1F
100
AcDbEntity
  8
TITLE
100
AcDbMText
 10
0.3307529773167151
 20
35.90664959806079
 30
0.0
 40
0.125
 41
0.0
 71
     2
 72
     1
  1
V
  7
SLDTEXTSTYLE1
 73
     1
 44
1.0
  0
MTEXT
  5
13F
330
1F
100
AcDbEntity
  8
TITLE
100
AcDbMText
 10
69.66539864660804
 20
35.90664959806078
 30
0.0
 40
0.125
 41
0.0
 71
     2
 72
     1
  1
V
  7
SLDTEXTSTYLE1
 73
     1
 44
1.0
  0
MTEXT
  5
140
330
1F
100
AcDbEntity
  8
TITLE
100
AcDbMText
 10
0.3327784409203867
 20
37.87515353506867
 30
0.0
 40
0.125
 41
0.0
 71
     2
 72
     1
  1
W
  7
SLDTEXTSTYLE1
 73
     1
 44
1.0
  0
MTEXT
  5
141
330
1F
100
AcDbEntity
  8
TITLE
100
AcDbMText
 10
69.66742411021175
 20
37.87515353506867
 30
0.0
 40
0.125
 41
0.0
 71
     2
 72
     1
  1
W
  7
SLDTEXTSTYLE1
 73
     1
 44
1.0
  0
MTEXT
  5
142
330
1F
100
AcDbEntity
  8
TITLE
100
AcDbMText
 10
0.3321997349363144
 20
39.84365747207655
 30
0.0
 40
0.125
 41
0.0
 71
     2
 72
     1
  1
Y
  7
SLDTEXTSTYLE1
 73
     1
 44
1.0
  0
MTEXT
  5
143
330
1F
100
AcDbEntity
  8
TITLE
100
AcDbMText
 10
69.66684540422766
 20
39.84365747207655
 30
0.0
 40
0.125
 41
0.0
 71
     2
 72
     1
  1
Y
  7
SLDTEXTSTYLE1
 73
     1
 44
1.0
  0
MTEXT
  5
144
330
1F
100
AcDbEntity
  8
TITLE
100
AcDbMText
 10
0.32257878981296
 20
41.81216140908442
 30
0.0
 40
0.125
 41
0.0
 71
     2
 72
     1
  1
AA
  7
SLDTEXTSTYLE1
 73
     1
 44
1.0
  0
MTEXT
  5
145
330
1F
100
AcDbEntity
  8
TITLE
100
AcDbMText
 10
69.65722445910431
 20
41.81216140908442
 30
0.0
 40
0.125
 41
0.0
 71
     2
 72
     1
  1
AA
  7
SLDTEXTSTYLE1
 73
     1
 44
1.0
  0
MTEXT
  5
146
330
1F
100
AcDbEntity
  8
TITLE
100
AcDbMText
 10
0.3267020535339989
 20
43.78066534609228
 30
0.0
 40
0.125
 41
0.0
 71
     2
 72
     1
  1
AB
  7
SLDTEXTSTYLE1
 73
     1
 44
1.0
  0
MTEXT
  5
147
330
1F
100
AcDbEntity
  8
TITLE
100
AcDbMText
 10
69.66134772282535
 20
43.7806653460923
 30
0.0
 40
0.125
 41
0.0
 71
     2
 72
     1
  1
AB
  7
SLDTEXTSTYLE1
 73
     1
 44
1.0
  0
MTEXT
  5
148
330
1F
100
AcDbEntity
  8
TITLE
100
AcDbMText
 10
0.3263258985060407
 20
45.74916928310017
 30
0.0
 40
0.125
 41
0.0
 71
     2
 72
     1
  1
AC
  7
SLDTEXTSTYLE1
 73
     1
 44
1.0
  0
MTEXT
  5
149
330
1F
100
AcDbEntity
  8
TITLE
100
AcDbMText
 10
69.66097156779739
 20
45.74916928310017
 30
0.0
 40
0.125
 41
0.0
 71
     2
 72
     1
  1
AC
  7
SLDTEXTSTYLE1
 73
     1
 44
1.0
  0
MTEXT
  5
14A
330
1F
100
AcDbEntity
  8
TITLE
100
AcDbMText
 10
0.3261378196574102
 20
48.15664959806079
 30
0.0
 40
0.125
 41
0.0
 71
     2
 72
     1
  1
AD
  7
SLDTEXTSTYLE1
 73
     1
 44
1.0
  0
MTEXT
  5
14B
330
1F
100
AcDbEntity
  8
TITLE
100
AcDbMText
 10
69.66078348894875
 20
48.1566495980608
 30
0.0
 40
0.125
 41
0.0
 71
     2
 72
     1
  1
AD
  7
SLDTEXTSTYLE1
 73
     1
 44
1.0
  0
MTEXT
  5
14C
330
1F
100
AcDbEntity
  8
TITLE
100
AcDbMText
 10
1.015199174063176
 20
0.4125551098718105
 30
0.0
 40
0.125
 41
0.0
 71
     2
 72
     1
  1
36
  7
SLDTEXTSTYLE1
 73
     1
 44
1.0
  0
MTEXT
  5
14D
330
1F
100
AcDbEntity
  8
TITLE
100
AcDbMText
 10
1.015199174063176
 20
49.74720077916316
 30
0.0
 40
0.125
 41
0.0
 71
     2
 72
     1
  1
36
  7
SLDTEXTSTYLE1
 73
     1
 44
1.0
  0
MTEXT
  5
14E
330
1F
100
AcDbEntity
  8
TITLE
100
AcDbMText
 10
2.517167678000183
 20
0.4125551098718104
 30
0.0
 40
0.125
 41
0.0
 71
     2
 72
     1
  1
35
  7
SLDTEXTSTYLE1
 73
     1
 44
1.0
  0
MTEXT
  5
14F
330
1F
100
AcDbEntity
  8
TITLE
100
AcDbMText
 10
2.517167678000183
 20
49.74720077916316
 30
0.0
 40
0.125
 41
0.0
 71
     2
 72
     1
  1
35
  7
SLDTEXTSTYLE1
 73
     1
 44
1.0
  0
MTEXT
  5
150
330
1F
100
AcDbEntity
  8
TITLE
100
AcDbMText
 10
4.48567161500806
 20
0.4125551098718104
 30
0.0
 40
0.125
 41
0.0
 71
     2
 72
     1
  1
34
  7
SLDTEXTSTYLE1
 73
     1
 44
1.0
  0
MTEXT
  5
151
330
1F
100
AcDbEntity
  8
TITLE
100
AcDbMText
 10
4.485671615008059
 20
49.74720077916316
 30
0.0
 40
0.125
 41
0.0
 71
     2
 72
     1
  1
34
  7
SLDTEXTSTYLE1
 73
     1
 44
1.0
  0
MTEXT
  5
152
330
1F
100
AcDbEntity
  8
TITLE
100
AcDbMText
 10
6.454175552015934
 20
0.4125551098718104
 30
0.0
 40
0.125
 41
0.0
 71
     2
 72
     1
  1
33
  7
SLDTEXTSTYLE1
 73
     1
 44
1.0
  0
MTEXT
  5
153
330
1F
100
AcDbEntity
  8
TITLE
100
AcDbMText
 10
6.454175552015932
 20
49.74720077916316
 30
0.0
 40
0.125
 41
0.0
 71
     2
 72
     1
  1
33
  7
SLDTEXTSTYLE1
 73
     1
 44
1.0
  0
MTEXT
  5
154
330
1F
100
AcDbEntity
  8
TITLE
100
AcDbMText
 10
8.422679489023805
 20
0.4125551098718104
 30
0.0
 40
0.125
 41
0.0
 71
     2
 72
     1
  1
32
  7
SLDTEXTSTYLE1
 73
     1
 44
1.0
  0
MTEXT
  5
155
330
1F
100
AcDbEntity
  8
TITLE
100
AcDbMText
 10
8.422679489023807
 20
49.74720077916316
 30
0.0
 40
0.125
 41
0.0
 71
     2
 72
     1
  1
32
  7
SLDTEXTSTYLE1
 73
     1
 44
1.0
  0
MTEXT
  5
156
330
1F
100
AcDbEntity
  8
TITLE
100
AcDbMText
 10
10.39118342603168
 20
0.4125551098718104
 30
0.0
 40
0.125
 41
0.0
 71
     2
 72
     1
  1
31
  7
SLDTEXTSTYLE1
 73
     1
 44
1.0
  0
MTEXT
  5
157
330
1F
100
AcDbEntity
  8
TITLE
100
AcDbMText
 10
10.39118342603168
 20
49.74720077916315
 30
0.0
 40
0.125
 41
0.0
 71
     2
 72
     1
  1
31
  7
SLDTEXTSTYLE1
 73
     1
 44
1.0
  0
MTEXT
  5
158
330
1F
100
AcDbEntity
  8
TITLE
100
AcDbMText
 10
12.35968736303955
 20
0.4125551098718104
 30
0.0
 40
0.125
 41
0.0
 71
     2
 72
     1
  1
30
  7
SLDTEXTSTYLE1
 73
     1
 44
1.0
  0
MTEXT
  5
159
330
1F
100
AcDbEntity
  8
TITLE
100
AcDbMText
 10
12.35968736303955
 20
49.74720077916316
 30
0.0
 40
0.125
 41
0.0
 71
     2
 72
     1
  1
30
  7
SLDTEXTSTYLE1
 73
     1
 44
1.0
  0
MTEXT
  5
15A
330
1F
100
AcDbEntity
  8
TITLE
100
AcDbMText
 10
14.32819130004743
 20
0.4125551098718104
 30
0.0
 40
0.125
 41
0.0
 71
     2
 72
     1
  1
29
  7
SLDTEXTSTYLE1
 73
     1
 44
1.0
  0
MTEXT
  5
15B
330
1F
100
AcDbEntity
  8
TITLE
100
AcDbMText
 10
14.32819130004743
 20
49.74720077916316
 30
0.0
 40
0.125
 41
0.0
 71
     2
 72
     1
  1
29
  7
SLDTEXTSTYLE1
 73
     1
 44
1.0
  0
MTEXT
  5
15C
330
1F
100
AcDbEntity
  8
TITLE
100
AcDbMText
 10
16.2966952370553
 20
0.4125551098718104
 30
0.0
 40
0.125
 41
0.0
 71
     2
 72
     1
  1
28
  7
SLDTEXTSTYLE1
 73
     1
 44
1.0
  0
MTEXT
  5
15D
330
1F
100
AcDbEntity
  8
TITLE
100
AcDbMText
 10
16.29669523705531
 20
49.74720077916317
 30
0.0
 40
0.125
 41
0.0
 71
     2
 72
     1
  1
28
  7
SLDTEXTSTYLE1
 73
     1
 44
1.0
  0
MTEXT
  5
15E
330
1F
100
AcDbEntity
  8
TITLE
100
AcDbMText
 10
18.26519917406318
 20
0.4125551098718105
 30
0.0
 40
0.125
 41
0.0
 71
     2
 72
     1
  1
27
  7
SLDTEXTSTYLE1
 73
     1
 44
1.0
  0
MTEXT
  5
15F
330
1F
100
AcDbEntity
  8
TITLE
100
AcDbMText
 10
18.26519917406317
 20
49.74720077916316
 30
0.0
 40
0.125
 41
0.0
 71
     2
 72
     1
  1
27
  7
SLDTEXTSTYLE1
 73
     1
 44
1.0
  0
MTEXT
  5
160
330
1F
100
AcDbEntity
  8
TITLE
100
AcDbMText
 10
20.23370311107105
 20
0.4125551098718103
 30
0.0
 40
0.125
 41
0.0
 71
     2
 72
     1
  1
26
  7
SLDTEXTSTYLE1
 73
     1
 44
1.0
  0
MTEXT
  5
161
330
1F
100
AcDbEntity
  8
TITLE
100
AcDbMText
 10
20.23370311107105
 20
49.74720077916316
 30
0.0
 40
0.125
 41
0.0
 71
     2
 72
     1
  1
26
  7
SLDTEXTSTYLE1
 73
     1
 44
1.0
  0
MTEXT
  5
162
330
1F
100
AcDbEntity
  8
TITLE
100
AcDbMText
 10
22.20220704807893
 20
0.4125551098718104
 30
0.0
 40
0.125
 41
0.0
 71
     2
 72
     1
  1
25
  7
SLDTEXTSTYLE1
 73
     1
 44
1.0
  0
MTEXT
  5
163
330
1F
100
AcDbEntity
  8
TITLE
100
AcDbMText
 10
22.20220704807893
 20
49.74720077916316
 30
0.0
 40
0.125
 41
0.0
 71
     2
 72
     1
  1
25
  7
SLDTEXTSTYLE1
 73
     1
 44
1.0
  0
MTEXT
  5
164
330
1F
100
AcDbEntity
  8
TITLE
100
AcDbMText
 10
24.1707109850868
 20
0.4125551098718104
 30
0.0
 40
0.125
 41
0.0
 71
     2
 72
     1
  1
24
  7
SLDTEXTSTYLE1
 73
     1
 44
1.0
  0
MTEXT
  5
165
330
1F
100
AcDbEntity
  8
TITLE
100
AcDbMText
 10
24.1707109850868
 20
49.74720077916316
 30
0.0
 40
0.125
 41
0.0
 71
     2
 72
     1
  1
24
  7
SLDTEXTSTYLE1
 73
     1
 44
1.0
  0
MTEXT
  5
166
330
1F
100
AcDbEntity
  8
TITLE
100
AcDbMText
 10
26.13921492209468
 20
0.4125551098718104
 30
0.0
 40
0.125
 41
0.0
 71
     2
 72
     1
  1
23
  7
SLDTEXTSTYLE1
 73
     1
 44
1.0
  0
MTEXT
  5
167
330
1F
100
AcDbEntity
  8
TITLE
100
AcDbMText
 10
26.13921492209468
 20
49.74720077916316
 30
0.0
 40
0.125
 41
0.0
 71
     2
 72
     1
  1
23
  7
SLDTEXTSTYLE1
 73
     1
 44
1.0
  0
MTEXT
  5
168
330
1F
100
AcDbEntity
  8
TITLE
100
AcDbMText
 10
28.10771885910255
 20
0.4125551098718104
 30
0.0
 40
0.125
 41
0.0
 71
     2
 72
     1
  1
22
  7
SLDTEXTSTYLE1
 73
     1
 44
1.0
  0
MTEXT
  5
169
330
1F
100
AcDbEntity
  8
TITLE
100
AcDbMText
 10
28.10771885910255
 20
49.74720077916316
 30
0.0
 40
0.125
 41
0.0
 71
     2
 72
     1
  1
22
  7
SLDTEXTSTYLE1
 73
     1
 44
1.0
  0
MTEXT
  5
16A
330
1F
100
AcDbEntity
  8
TITLE
100
AcDbMText
 10
30.07622279611043
 20
0.4125551098718104
 30
0.0
 40
0.125
 41
0.0
 71
     2
 72
     1
  1
21
  7
SLDTEXTSTYLE1
 73
     1
 44
1.0
  0
MTEXT
  5
16B
330
1F
100
AcDbEntity
  8
TITLE
100
AcDbMText
 10
30.07622279611043
 20
49.74720077916316
 30
0.0
 40
0.125
 41
0.0
 71
     2
 72
     1
  1
21
  7
SLDTEXTSTYLE1
 73
     1
 44
1.0
  0
MTEXT
  5
16C
330
1F
100
AcDbEntity
  8
TITLE
100
AcDbMText
 10
32.0447267331183
 20
0.4125551098718104
 30
0.0
 40
0.125
 41
0.0
 71
     2
 72
     1
  1
20
  7
SLDTEXTSTYLE1
 73
     1
 44
1.0
  0
MTEXT
  5
16D
330
1F
100
AcDbEntity
  8
TITLE
100
AcDbMText
 10
32.0447267331183
 20
49.74720077916316
 30
0.0
 40
0.125
 41
0.0
 71
     2
 72
     1
  1
20
  7
SLDTEXTSTYLE1
 73
     1
 44
1.0
  0
MTEXT
  5
16E
330
1F
100
AcDbEntity
  8
TITLE
100
AcDbMText
 10
34.01323067012617
 20
0.4125551098718104
 30
0.0
 40
0.125
 41
0.0
 71
     2
 72
     1
  1
19
  7
SLDTEXTSTYLE1
 73
     1
 44
1.0
  0
MTEXT
  5
16F
330
1F
100
AcDbEntity
  8
TITLE
100
AcDbMText
 10
34.01323067012617
 20
49.74720077916317
 30
0.0
 40
0.125
 41
0.0
 71
     2
 72
     1
  1
19
  7
SLDTEXTSTYLE1
 73
     1
 44
1.0
  0
MTEXT
  5
170
330
1F
100
AcDbEntity
  8
TITLE
100
AcDbMText
 10
35.98173460713405
 20
0.4125551098718104
 30
0.0
 40
0.125
 41
0.0
 71
     2
 72
     1
  1
18
  7
SLDTEXTSTYLE1
 73
     1
 44
1.0
  0
MTEXT
  5
171
330
1F
100
AcDbEntity
  8
TITLE
100
AcDbMText
 10
35.98173460713404
 20
49.74720077916316
 30
0.0
 40
0.125
 41
0.0
 71
     2
 72
     1
  1
18
  7
SLDTEXTSTYLE1
 73
     1
 44
1.0
  0
MTEXT
  5
172
330
1F
100
AcDbEntity
  8
TITLE
100
AcDbMText
 10
37.95023854414192
 20
0.4125551098718105
 30
0.0
 40
0.125
 41
0.0
 71
     2
 72
     1
  1
17
  7
SLDTEXTSTYLE1
 73
     1
 44
1.0
  0
MTEXT
  5
173
330
1F
100
AcDbEntity
  8
TITLE
100
AcDbMText
 10
37.95023854414192
 20
49.74720077916315
 30
0.0
 40
0.125
 41
0.0
 71
     2
 72
     1
  1
17
  7
SLDTEXTSTYLE1
 73
     1
 44
1.0
  0
MTEXT
  5
174
330
1F
100
AcDbEntity
  8
TITLE
100
AcDbMText
 10
39.91874248114979
 20
0.4125551098718104
 30
0.0
 40
0.125
 41
0.0
 71
     2
 72
     1
  1
16
  7
SLDTEXTSTYLE1
 73
     1
 44
1.0
  0
MTEXT
  5
175
330
1F
100
AcDbEntity
  8
TITLE
100
AcDbMText
 10
39.91874248114979
 20
49.74720077916316
 30
0.0
 40
0.125
 41
0.0
 71
     2
 72
     1
  1
16
  7
SLDTEXTSTYLE1
 73
     1
 44
1.0
  0
MTEXT
  5
176
330
1F
100
AcDbEntity
  8
TITLE
100
AcDbMText
 10
41.88724641815767
 20
0.4125551098718104
 30
0.0
 40
0.125
 41
0.0
 71
     2
 72
     1
  1
15
  7
SLDTEXTSTYLE1
 73
     1
 44
1.0
  0
MTEXT
  5
177
330
1F
100
AcDbEntity
  8
TITLE
100
AcDbMText
 10
41.88724641815768
 20
49.74720077916316
 30
0.0
 40
0.125
 41
0.0
 71
     2
 72
     1
  1
15
  7
SLDTEXTSTYLE1
 73
     1
 44
1.0
  0
MTEXT
  5
178
330
1F
100
AcDbEntity
  8
TITLE
100
AcDbMText
 10
43.85575035516554
 20
0.4125551098718104
 30
0.0
 40
0.125
 41
0.0
 71
     2
 72
     1
  1
14
  7
SLDTEXTSTYLE1
 73
     1
 44
1.0
  0
MTEXT
  5
179
330
1F
100
AcDbEntity
  8
TITLE
100
AcDbMText
 10
43.85575035516554
 20
49.74720077916316
 30
0.0
 40
0.125
 41
0.0
 71
     2
 72
     1
  1
14
  7
SLDTEXTSTYLE1
 73
     1
 44
1.0
  0
MTEXT
  5
17A
330
1F
100
AcDbEntity
  8
TITLE
100
AcDbMText
 10
45.82425429217342
 20
0.4125551098718104
 30
0.0
 40
0.125
 41
0.0
 71
     2
 72
     1
  1
13
  7
SLDTEXTSTYLE1
 73
     1
 44
1.0
  0
MTEXT
  5
17B
330
1F
100
AcDbEntity
  8
TITLE
100
AcDbMText
 10
45.82425429217341
 20
49.74720077916315
 30
0.0
 40
0.125
 41
0.0
 71
     2
 72
     1
  1
13
  7
SLDTEXTSTYLE1
 73
     1
 44
1.0
  0
MTEXT
  5
17C
330
1F
100
AcDbEntity
  8
TITLE
100
AcDbMText
 10
47.79275822918129
 20
0.4125551098718104
 30
0.0
 40
0.125
 41
0.0
 71
     2
 72
     1
  1
12
  7
SLDTEXTSTYLE1
 73
     1
 44
1.0
  0
MTEXT
  5
17D
330
1F
100
AcDbEntity
  8
TITLE
100
AcDbMText
 10
47.79275822918129
 20
49.74720077916316
 30
0.0
 40
0.125
 41
0.0
 71
     2
 72
     1
  1
12
  7
SLDTEXTSTYLE1
 73
     1
 44
1.0
  0
MTEXT
  5
17E
330
1F
100
AcDbEntity
  8
TITLE
100
AcDbMText
 10
49.76126216618918
 20
0.4125551098718104
 30
0.0
 40
0.125
 41
0.0
 71
     2
 72
     1
  1
11
  7
SLDTEXTSTYLE1
 73
     1
 44
1.0
  0
MTEXT
  5
17F
330
1F
100
AcDbEntity
  8
TITLE
100
AcDbMText
 10
49.76126216618918
 20
49.74720077916316
 30
0.0
 40
0.125
 41
0.0
 71
     2
 72
     1
  1
11
  7
SLDTEXTSTYLE1
 73
     1
 44
1.0
  0
MTEXT
  5
180
330
1F
100
AcDbEntity
  8
TITLE
100
AcDbMText
 10
51.72976610319703
 20
0.4125551098718104
 30
0.0
 40
0.125
 41
0.0
 71
     2
 72
     1
  1
10
  7
SLDTEXTSTYLE1
 73
     1
 44
1.0
  0
MTEXT
  5
181
330
1F
100
AcDbEntity
  8
TITLE
100
AcDbMText
 10
51.72976610319704
 20
49.74720077916316
 30
0.0
 40
0.125
 41
0.0
 71
     2
 72
     1
  1
10
  7
SLDTEXTSTYLE1
 73
     1
 44
1.0
  0
MTEXT
  5
182
330
1F
100
AcDbEntity
  8
TITLE
100
AcDbMText
 10
53.69952872088985
 20
0.4125551098718104
 30
0.0
 40
0.125
 41
0.0
 71
     2
 72
     1
  1
9
  7
SLDTEXTSTYLE1
 73
     1
 44
1.0
  0
MTEXT
  5
183
330
1F
100
AcDbEntity
  8
TITLE
100
AcDbMText
 10
53.69952872088985
 20
49.74720077916316
 30
0.0
 40
0.125
 41
0.0
 71
     2
 72
     1
  1
9
  7
SLDTEXTSTYLE1
 73
     1
 44
1.0
  0
MTEXT
  5
184
330
1F
100
AcDbEntity
  8
TITLE
100
AcDbMText
 10
55.66803265789773
 20
0.4125551098718104
 30
0.0
 40
0.125
 41
0.0
 71
     2
 72
     1
  1
8
  7
SLDTEXTSTYLE1
 73
     1
 44
1.0
  0
MTEXT
  5
185
330
1F
100
AcDbEntity
  8
TITLE
100
AcDbMText
 10
55.66803265789774
 20
49.74720077916315
 30
0.0
 40
0.125
 41
0.0
 71
     2
 72
     1
  1
8
  7
SLDTEXTSTYLE1
 73
     1
 44
1.0
  0
MTEXT
  5
186
330
1F
100
AcDbEntity
  8
TITLE
100
AcDbMText
 10
57.63653659490561
 20
0.4125551098718104
 30
0.0
 40
0.125
 41
0.0
 71
     2
 72
     1
  1
7
  7
SLDTEXTSTYLE1
 73
     1
 44
1.0
  0
MTEXT
  5
187
330
1F
100
AcDbEntity
  8
TITLE
100
AcDbMText
 10
57.63653659490561
 20
49.74720077916316
 30
0.0
 40
0.125
 41
0.0
 71
     2
 72
     1
  1
7
  7
SLDTEXTSTYLE1
 73
     1
 44
1.0
  0
MTEXT
  5
188
330
1F
100
AcDbEntity
  8
TITLE
100
AcDbMText
 10
59.60504053191348
 20
0.4125551098718104
 30
0.0
 40
0.125
 41
0.0
 71
     2
 72
     1
  1
6
  7
SLDTEXTSTYLE1
 73
     1
 44
1.0
  0
MTEXT
  5
189
330
1F
100
AcDbEntity
  8
TITLE
100
AcDbMText
 10
59.6050405319135
 20
49.74720077916316
 30
0.0
 40
0.125
 41
0.0
 71
     2
 72
     1
  1
6
  7
SLDTEXTSTYLE1
 73
     1
 44
1.0
  0
MTEXT
  5
18A
330
1F
100
AcDbEntity
  8
TITLE
100
AcDbMText
 10
61.57354446892136
 20
0.4125551098718104
 30
0.0
 40
0.125
 41
0.0
 71
     2
 72
     1
  1
5
  7
SLDTEXTSTYLE1
 73
     1
 44
1.0
  0
MTEXT
  5
18B
330
1F
100
AcDbEntity
  8
TITLE
100
AcDbMText
 10
61.57354446892136
 20
49.74720077916314
 30
0.0
 40
0.125
 41
0.0
 71
     2
 72
     1
  1
5
  7
SLDTEXTSTYLE1
 73
     1
 44
1.0
  0
MTEXT
  5
18C
330
1F
100
AcDbEntity
  8
TITLE
100
AcDbMText
 10
63.54204840592922
 20
0.4125551098718104
 30
0.0
 40
0.125
 41
0.0
 71
     2
 72
     1
  1
4
  7
SLDTEXTSTYLE1
 73
     1
 44
1.0
  0
MTEXT
  5
18D
330
1F
100
AcDbEntity
  8
TITLE
100
AcDbMText
 10
63.54204840592922
 20
49.74720077916318
 30
0.0
 40
0.125
 41
0.0
 71
     2
 72
     1
  1
4
  7
SLDTEXTSTYLE1
 73
     1
 44
1.0
  0
MTEXT
  5
18E
330
1F
100
AcDbEntity
  8
TITLE
100
AcDbMText
 10
65.5105523429371
 20
0.4125551098718104
 30
0.0
 40
0.125
 41
0.0
 71
     2
 72
     1
  1
3
  7
SLDTEXTSTYLE1
 73
     1
 44
1.0
  0
MTEXT
  5
18F
330
1F
100
AcDbEntity
  8
TITLE
100
AcDbMText
 10
65.5105523429371
 20
49.74720077916316
 30
0.0
 40
0.125
 41
0.0
 71
     2
 72
     1
  1
3
  7
SLDTEXTSTYLE1
 73
     1
 44
1.0
  0
MTEXT
  5
190
330
1F
100
AcDbEntity
  8
TITLE
100
AcDbMText
 10
67.47905627994497
 20
0.4125551098718104
 30
0.0
 40
0.125
 41
0.0
 71
     2
 72
     1
  1
2
  7
SLDTEXTSTYLE1
 73
     1
 44
1.0
  0
MTEXT
  5
191
330
1F
100
AcDbEntity
  8
TITLE
100
AcDbMText
 10
67.47905627994498
 20
49.74720077916317
 30
0.0
 40
0.125
 41
0.0
 71
     2
 72
     1
  1
2
  7
SLDTEXTSTYLE1
 73
     1
 44
1.0
  0
MTEXT
  5
192
330
1F
100
AcDbEntity
  8
TITLE
100
AcDbMText
 10
68.98102478388199
 20
0.4125551098718104
 30
0.0
 40
0.125
 41
0.0
 71
     2
 72
     1
  1
1
  7
SLDTEXTSTYLE1
 73
     1
 44
1.0
  0
MTEXT
  5
193
330
1F
100
AcDbEntity
  8
TITLE
100
AcDbMText
 10
68.98102478388199
 20
49.74720077916316
 30
0.0
 40
0.125
 41
0.0
 71
     2
 72
     1
  1
1
  7
SLDTEXTSTYLE1
 73
     1
 44
1.0
  0
LINE
  5
194
330
1F
100
AcDbEntity
  8
0
  6
SLD-Solid
 62
     7
370
    25
100
AcDbLine
 10
6.729830843953835
 20
19.80386535017765
 30
0.0
 11
6.729830843953841
 21
19.2083618241687
 31
0.0
  0
ELLIPSE
  5
195
330
1F
100
AcDbEntity
  8
0
  6
SLD-Solid
 62
     7
370
    25
100
AcDbEllipse
 10
20.22728426629423
 20
18.07483936592569
 30
0.0
 11
-0.9499999999999993
 21
1.065814103640150E-14
 31
5.438344680463457E-31
210
5.724573347856275E-31
220
-6.422453696281826E-45
230
1.0
 40
0.2894736842105288
 41
0.0
 42
6.283185307179586
  0
CIRCLE
  5
196
330
1F
100
AcDbEntity
  8
0
  6
SLD-Solid
 62
     7
370
    25
100
AcDbCircle
 10
20.87508426629419
 20
19.53733936592581
 30
0.0
 40
0.124999999999998
  0
ARC
  5
197
330
1F
100
AcDbEntity
  8
0
  6
SLD-Solid
 62
     7
370
    25
100
AcDbCircle
 10
20.87508426629419
 20
19.53733936592581
 30
0.0
 40
0.1250000000000009
100
AcDbArc
 50
33.26919714372277
 51
213.2691971437227
  0
ARC
  5
198
330
1F
100
AcDbEntity
  8
0
  6
SLD-Solid
 62
     7
370
    25
100
AcDbCircle
 10
20.87508426629419
 20
19.53733936592581
 30
0.0
 40
0.1250000000000009
100
AcDbArc
 50
213.2691971437227
 51
303.2691971437249
  0
CIRCLE
  5
199
330
1F
100
AcDbEntity
  8
0
  6
SLD-Solid
 62
     7
370
    25
100
AcDbCircle
 10
20.87508426629434
 20
19.53733936592583
 30
0.0
 40
0.1290000000000013
  0
LINE
  5
19A
330
1F
100
AcDbEntity
  8
0
  6
SLD-Solid
 62
     7
370
    25
100
AcDbLine
 10
19.33228426629433
 20
17.49983936592585
 30
0.0
 11
21.37196789115832
 21
17.49983936592583
 31
0.0
  0
ARC
  5
19B
330
1F
100
AcDbEntity
  8
0
  6
SLD-Solid
 62
     7
370
    25
100
AcDbCircle
 10
19.33228426629433
 20
17.74983936592585
 30
0.0
 40
0.25
100
AcDbArc
 50
180.0000000000098
 51
270.0000000000008
  0
LINE
  5
19C
330
1F
100
AcDbEntity
  8
0
  6
SLD-Solid
 62
     7
370
    25
100
AcDbLine
 10
19.08228426629444
 20
19.5998393659258
 30
0.0
 11
19.08228426629433
 21
17.74983936592581
 31
0.0
  0
ARC
  5
19D
330
1F
100
AcDbEntity
  8
0
  6
SLD-Solid
 62
     7
370
    25
100
AcDbCircle
 10
19.33228426629444
 20
19.59983936592585
 30
0.0
 40
0.25
100
AcDbArc
 50
90.00000000002117
 51
180.0000000000119
  0
LINE
  5
19E
330
1F
100
AcDbEntity
  8
0
  6
SLD-Solid
 62
     7
370
    25
100
AcDbLine
 10
21.37196789115833
 20
19.84983936592583
 30
0.0
 11
19.33228426629434
 21
19.84983936592585
 31
0.0
  0
LINE
  5
19F
330
1F
100
AcDbEntity
  8
0
  6
SLD-Solid
 62
     7
370
    25
100
AcDbLine
 10
21.45096789115832
 20
17.49983936592584
 30
0.0
 11
21.45096789115834
 21
19.84983936592583
 31
0.0
  0
LINE
  5
1A0
330
1F
100
AcDbEntity
  8
0
  6
SLD-Solid
 62
     7
370
    25
100
AcDbLine
 10
21.45096789115832
 20
17.49983936592584
 30
0.0
 11
21.37196789115832
 21
17.49983936592583
 31
0.0
  0
LINE
  5
1A1
330
1F
100
AcDbEntity
  8
0
  6
SLD-Solid
 62
     7
370
    25
100
AcDbLine
 10
21.37196789115833
 20
19.84983936592583
 30
0.0
 11
21.45096789115834
 21
19.84983936592583
 31
0.0
  0
LINE
  5
1A2
330
1F
100
AcDbEntity
  8
0
  6
SLD-Solid
 62
     7
370
    25
100
AcDbLine
 10
19.08228426629432
 20
17.84823136283675
 30
0.0
 11
6.81135277050688
 21
19.20702835046191
 31
0.0
  0
LINE
  5
1A3
330
1F
100
AcDbEntity
  8
0
  6
SLD-Solid
 62
     7
370
    25
100
AcDbLine
 10
6.81135277050688
 20
19.20702835046191
 30
0.0
 11
6.789830843953835
 21
19.20848780842067
 31
0.0
  0
LINE
  5
1A4
330
1F
100
AcDbEntity
  8
0
  6
SLD-Solid
 62
     7
370
    25
100
AcDbLine
 10
6.791352770506882
 20
19.83386535017765
 30
0.0
 11
6.791352770506887
 21
19.83467542794595
 31
0.0
  0
ARC
  5
1A5
330
1F
100
AcDbEntity
  8
0
  6
SLD-Solid
 62
     7
370
    25
100
AcDbCircle
 10
6.761352770506876
 20
19.83386535017765
 30
0.0
 40
0.0300000000000065
100
AcDbArc
 50
341.671489153287
 51
0.0000000000067852
  0
SPLINE
  5
1A6
330
1F
100
AcDbEntity
  8
0
  6
SLD-Solid
 62
     7
370
    25
100
AcDbSpline
210
0.0
220
0.0
230
1.0
 70
    12
 71
     3
 72
    15
 73
    11
 74
     0
 42
0.00000001
 43
0.00000001
 40
0.0
 40
0.0
 40
0.0
 40
0.0
 40
0.0490755257381808
 40
0.1849218792041578
 40
0.320768232670132
 40
0.4566145861361325
 40
0.5924609396021064
 40
0.7283072930680876
 40
0.8641536465340728
 40
1.0
 40
1.0
 40
1.0
 40
1.0
 10
6.730145665519885
 20
19.21221587822311
 30
0.0
 41
1.0
 10
6.730062031284834
 20
19.21215489256126
 30
0.0
 41
1.0
 10
6.729746888457964
 20
19.21192509200337
 30
0.0
 41
1.0
 10
6.732020175310173
 20
19.21152647654944
 30
0.0
 41
1.0
 10
6.73685787686407
 20
19.21102003186131
 30
0.0
 41
1.0
 10
6.744278611015413
 20
19.21051358717318
 30
0.0
 41
1.0
 10
6.753717226836712
 20
19.21000714248506
 30
0.0
 41
1.0
 10
6.764806839128576
 20
19.20950069779693
 30
0.0
 41
1.0
 10
6.777028052640681
 20
19.20899425310881
 30
0.0
 41
1.0
 10
6.785563246849451
 20
19.20865662331672
 30
0.0
 41
1.0
 10
6.789830843953835
 20
19.20848780842067
 30
0.0
 41
1.0
  0
LINE
  5
1A7
330
1F
100
AcDbEntity
  8
0
  6
SLD-Solid
 62
     7
370
    25
100
AcDbLine
 10
6.746222522306074
 20
19.80386535017765
 30
0.0
 11
6.729830843953835
 21
19.80386535017766
 31
0.0
  0
SPLINE
  5
1A8
330
1F
100
AcDbEntity
  8
0
  6
SLD-Solid
 62
     7
370
    25
100
AcDbSpline
210
0.0
220
0.0
230
1.0
 70
    12
 71
     3
 72
    11
 73
     7
 74
     0
 42
0.00000001
 43
0.00000001
 40
0.0
 40
0.0
 40
0.0
 40
0.0
 40
0.2848777781429058
 40
0.4869703007518604
 40
0.6922932863494264
 40
1.0
 40
1.0
 40
1.0
 40
1.0
 10
6.789830843953832
 20
19.82443140440985
 30
0.0
 41
1.0
 10
6.786126959233151
 20
19.82077309021551
 30
0.0
 41
1.0
 10
6.779795535742916
 20
19.81451956501927
 30
0.0
 41
1.0
 10
6.769286345861643
 20
19.80761748686483
 30
0.0
 41
1.0
 10
6.757331551549794
 20
19.80522138564096
 30
0.0
 41
1.0
 10
6.750387468355392
 20
19.80437374874441
 30
0.0
 41
1.0
 10
6.746222522306074
 20
19.80386535017765
 30
0.0
 41
1.0
  0
LINE
  5
1A9
330
1F
100
AcDbEntity
  8
0
  6
SLD-Solid
 62
     7
370
    25
100
AcDbLine
 10
6.79135277050687
 20
19.91367542794596
 30
0.0
 11
6.791352770506887
 21
19.83467542794595
 31
0.0
  0
LINE
  5
1AA
330
1F
100
AcDbEntity
  8
0
  6
SLD-Solid
 62
     7
370
    25
100
AcDbLine
 10
21.08808426452271
 20
19.9136754279461
 30
0.0
 11
6.79135277050687
 21
19.91367542794596
 31
0.0
  0
LINE
  5
1AB
330
1F
100
AcDbEntity
  8
0
  6
SLD-Solid
 62
     7
370
    25
100
AcDbLine
 10
21.08808426452272
 20
19.84983936592588
 30
0.0
 11
21.08808426452271
 21
19.9136754279461
 31
0.0
  0
LINE
  5
1AC
330
1F
100
AcDbEntity
  8
0
  6
SLD-Solid
 62
     7
370
    25
100
AcDbLine
 10
6.791352770506855
 20
19.86367542794596
 30
0.0
 11
6.789830843953846
 21
19.86367542794596
 31
0.0
  0
LINE
  5
1AD
330
1F
100
AcDbEntity
  8
0
  6
SLD-Solid
 62
     7
370
    25
100
AcDbLine
 10
6.791352770506865
 20
19.91367542794596
 30
0.0
 11
6.789830843953824
 21
19.91367542794596
 31
0.0
  0
SPLINE
  5
1AE
330
1F
100
AcDbEntity
  8
0
  6
SLD-Solid
 62
     7
370
    25
100
AcDbSpline
210
0.0
220
0.0
230
1.0
 70
    12
 71
     3
 72
    11
 73
     7
 74
     0
 42
0.00000001
 43
0.00000001
 40
0.0
 40
0.0
 40
0.0
 40
0.0
 40
0.2970434742300556
 40
0.4989871773306217
 40
0.6993611911780914
 40
1.0
 40
1.0
 40
1.0
 40
1.0
 10
6.746222522306056
 20
19.89488603681144
 30
0.0
 41
1.0
 10
6.750226000049687
 20
19.89853087395267
 30
0.0
 41
1.0
 10
6.756951224577775
 20
19.90465363763785
 30
0.0
 41
1.0
 10
6.768453430914783
 20
19.90999993104862
 30
0.0
 41
1.0
 10
6.778743396292186
 20
19.91305540067484
 30
0.0
 41
1.0
 10
6.785672782113833
 20
19.91344290267824
 30
0.0
 41
1.0
 10
6.789830843953824
 20
19.91367542794596
 30
0.0
 41
1.0
  0
SPLINE
  5
1AF
330
1F
100
AcDbEntity
  8
0
  6
SLD-Solid
 62
     7
370
    25
100
AcDbSpline
210
0.0
220
0.0
230
1.0
 70
    12
 71
     3
 72
    13
 73
     9
 74
     0
 42
0.00000001
 43
0.00000001
 40
0.0
 40
0.0
 40
0.0
 40
0.0
 40
0.0691896276106997
 40
0.1369201998669035
 40
0.2073979075945717
 40
0.284383265214278
 40
0.5413661670138218
 40
1.0
 40
1.0
 40
1.0
 40
1.0
 10
6.782562790345887
 20
19.86054386275686
 30
0.0
 41
1.0
 10
6.782923225013496
 20
19.86089164179791
 30
0.0
 41
1.0
 10
6.783636493583256
 20
19.86157986599356
 30
0.0
 41
1.0
 10
6.784695545670121
 20
19.86227747501205
 30
0.0
 41
1.0
 10
6.785603222181722
 20
19.86275310678431
 30
0.0
 41
1.0
 10
6.786797446298838
 20
19.86323992450657
 30
0.0
 41
1.0
 10
6.788053794263982
 20
19.86356246862353
 30
0.0
 41
1.0
 10
6.789136771382763
 20
19.86363130877034
 30
0.0
 41
1.0
 10
6.789830843953846
 20
19.86367542794596
 30
0.0
 41
1.0
  0
ARC
  5
1B0
330
1F
100
AcDbEntity
  8
0
  6
SLD-Solid
 62
     7
370
    25
100
AcDbCircle
 10
6.789830843953848
 20
19.85367542794595
 30
0.0
 40
0.009999999999998
100
AcDbArc
 50
136.6192404907115
 51
269.9999999999296
  0
ARC
  5
1B1
330
1F
100
AcDbEntity
  8
0
  6
SLD-Solid
 62
     7
370
    25
100
AcDbCircle
 10
6.789830843953848
 20
19.85367542794595
 30
0.0
 40
0.0600000000000121
100
AcDbArc
 50
136.6192404907179
 51
236.1159957101203
  0
LINE
  5
1B2
330
1F
100
AcDbEntity
  8
0
  6
SLD-Solid
 62
     7
370
    25
100
AcDbLine
 10
6.789830843953835
 20
19.84367542794595
 30
0.0
 11
6.79135277050686
 21
19.84367542794596
 31
0.0
  0
LINE
  5
1B3
330
1F
100
AcDbEntity
  8
0
  6
SLD-Solid
 62
     7
370
    25
100
AcDbLine
 10
21.08836052732917
 20
19.8636754279461
 30
0.0
 11
21.08836052732917
 21
19.9136754279461
 31
0.0
  0
LINE
  5
1B4
330
1F
100
AcDbEntity
  8
0
  6
SLD-Solid
 62
     7
370
    25
100
AcDbLine
 10
21.08836052732917
 20
19.8636754279461
 30
0.0
 11
21.08808426452273
 21
19.8636754279461
 31
0.0
  0
LINE
  5
1B5
330
1F
100
AcDbEntity
  8
0
  6
SLD-Solid
 62
     7
370
    25
100
AcDbLine
 10
21.08836052732917
 20
19.9136754279461
 30
0.0
 11
21.08808426452275
 21
19.9136754279461
 31
0.0
  0
ARC
  5
1B6
330
1F
100
AcDbEntity
  8
0
  6
SLD-Solid
 62
     7
370
    25
100
AcDbCircle
 10
21.08836052732917
 20
19.8346754279461
 30
0.0
 40
0.0789999999999975
100
AcDbArc
 50
44.99999999999089
 51
90.0
  0
ARC
  5
1B7
330
1F
100
AcDbEntity
  8
0
  6
SLD-Solid
 62
     7
370
    25
100
AcDbCircle
 10
21.08836052732917
 20
19.8346754279461
 30
0.0
 40
0.0290000000000001
100
AcDbArc
 50
44.99999999998511
 51
90.0
  0
LINE
  5
1B8
330
1F
100
AcDbEntity
  8
0
  6
SLD-Solid
 62
     7
370
    25
100
AcDbLine
 10
21.18491946077678
 20
19.84983936592588
 30
0.0
 11
21.16178325170327
 21
19.87297557499947
 31
0.0
  0
LINE
  5
1B9
330
1F
100
AcDbEntity
  8
0
  6
SLD-Solid
 62
     7
370
    25
100
AcDbLine
 10
21.1142087826582
 20
19.84983936592588
 30
0.0
 11
21.10886662398359
 21
19.85518152460051
 31
0.0
  0
LINE
  5
1BA
330
1F
100
AcDbEntity
  8
0
  6
SLD-Solid
 62
     7
370
    25
100
AcDbLine
 10
21.16178325170327
 20
19.87297557499947
 30
0.0
 11
21.14422196304292
 21
19.89053686365983
 31
0.0
  0
LINE
  5
1BB
330
1F
100
AcDbEntity
  8
DIMS
100
AcDbLine
 10
4.918830226293532
 20
10.47019970933339
 30
0.0
 11
4.918830226293532
 21
9.680071027773677
 31
0.0
  0
LINE
  5
1BC
330
1F
100
AcDbEntity
  8
DIMS
100
AcDbLine
 10
4.918830226293532
 20
9.680071027773677
 30
0.0
 11
5.044507498313453
 21
9.519904266331826
 31
0.0
  0
LINE
  5
1BD
330
1F
100
AcDbEntity
  8
DIMS
100
AcDbLine
 10
5.044507498313453
 20
9.519904266331826
 30
0.0
 11
4.79315295427361
 21
9.237225639826773
 31
0.0
  0
LINE
  5
1BE
330
1F
100
AcDbEntity
  8
DIMS
100
AcDbLine
 10
4.79315295427361
 20
9.237225639826773
 30
0.0
 11
4.918830226293532
 21
9.077058878384923
 31
0.0
  0
LINE
  5
1BF
330
1F
100
AcDbEntity
  8
DIMS
100
AcDbLine
 10
4.918830226293532
 20
9.077058878384923
 30
0.0
 11
4.918830226293532
 21
8.286930196825207
 31
0.0
  0
LINE
  5
1C0
330
1F
100
AcDbEntity
  8
DIMS
100
AcDbLine
 10
4.340067096572803
 20
8.286930196825207
 30
0.0
 11
63.35014838892065
 21
8.286930196825207
 31
0.0
  0
DIMENSION
  5
1C1
330
1F
100
AcDbEntity
  8
DIMS
100
AcDbDimension
  2
_D
 10
4.918682221906537
 20
8.286930196825212
 30
0.0
 11
4.918682221906524
 21
9.751209646050942
 31
0.0
 70
    32
  1
                                                                                      48" (1220mm) Max. height for barrier free installation\P\P \P 
 71
     2
 42
-1.0
  3
SLDDIMSTYLE0
100
AcDbAlignedDimension
 13
6.791352770506842
 23
19.91367542794596
 33
0.0
 14
4.340067096572803
 24
8.286930196825207
 34
0.0
 50
90.0000000000002
100
AcDbRotatedDimension
  0
DIMENSION
  5
1D3
330
1F
100
AcDbEntity
  8
DIMS
100
AcDbDimension
  2
_D_1
 10
21.45096789115824
 20
21.16179799536129
 30
0.0
 11
14.09039936755602
 21
21.16179799536134
 31
0.0
 70
    32
  1
<>
 71
     2
 42
-1.0
  3
SLDDIMSTYLE1
100
AcDbAlignedDimension
 13
6.729830843953798
 23
19.80386535017766
 33
0.0
 14
21.45096789115823
 24
19.84983936592583
 34
0.0
 50
-0.0000000000003872
100
AcDbRotatedDimension
  0
DIMENSION
  5
1E3
330
1F
100
AcDbEntity
  8
DIMS
100
AcDbDimension
  2
_D_2
 10
23.26199151320548
 20
17.49983936592585
 30
0.0
 11
23.26199151320547
 21
18.72759486889747
 31
0.0
 70
    32
  1
<>
 71
     2
 42
-1.0
  3
SLDDIMSTYLE1
100
AcDbAlignedDimension
 13
21.08808426452259
 23
19.91367542794609
 33
0.0
 14
21.4509678911582
 24
17.49983936592583
 34
0.0
 50
90.0000000000002
100
AcDbRotatedDimension
  0
MTEXT
  5
1F2
330
1F
100
AcDbEntity
  8
NOTES
100
AcDbMText
 10
5.648197377302258
 20
9.165300614013464
 30
0.0
 40
0.5
 41
0.0
 71
     1
 72
     1
  1
Floor
  7
SLDTEXTSTYLE1
 73
     1
 44
1.0
  0
MTEXT
  5
1F3
330
1F
100
AcDbEntity
  8
NOTES
100
AcDbMText
 10
7.108233556368061
 20
17.14770157997999
 30
0.0
 40
0.5
 41
0.0
 71
     1
 72
     1
  1
Side view
  7
SLDTEXTSTYLE1
 73
     1
 44
1.0
  0
ARC
  5
1F4
330
1F
100
AcDbEntity
  8
0
  6
SLD-Solid
 62
     7
370
    25
100
AcDbCircle
 10
51.54508677309496
 20
17.87055187379842
 30
0.0
 40
0.0749999602274925
100
AcDbArc
 50
180.0357103465968
 51
250.219114482521
  0
ARC
  5
1F5
330
1F
100
AcDbEntity
  8
0
  6
SLD-Solid
 62
     7
370
    25
100
AcDbCircle
 10
51.54508679631002
 20
18.27912792608057
 30
0.0
 40
0.074999983436195
100
AcDbArc
 50
109.7773630256865
 51
179.9874271732357
  0
LINE
  5
1F6
330
1F
100
AcDbEntity
  8
0
  6
SLD-Solid
 62
     7
370
    25
100
AcDbLine
 10
57.15126381122798
 20
19.41233936592586
 30
0.0
 11
57.36008681287489
 21
19.41233936592586
 31
0.0
  0
LINE
  5
1F7
330
1F
100
AcDbEntity
  8
0
  6
SLD-Solid
 62
     7
370
    25
100
AcDbLine
 10
57.36008681287488
 20
19.66233936592586
 30
0.0
 11
57.15126381122798
 21
19.66233936592586
 31
0.0
  0
ARC
  5
1F8
330
1F
100
AcDbEntity
  8
0
  6
SLD-Solid
 62
     7
370
    25
100
AcDbCircle
 10
57.36008681287488
 20
19.64233936592585
 30
0.0
 40
0.0200000000000102
100
AcDbArc
 50
0.0000000000203555
 51
90.0
  0
ARC
  5
1F9
330
1F
100
AcDbEntity
  8
0
  6
SLD-Solid
 62
     7
370
    25
100
AcDbCircle
 10
57.36008681287489
 20
19.43233936592585
 30
0.0
 40
0.0199999999999996
100
AcDbArc
 50
270.0000000000008
 51
359.9999999999804
  0
LINE
  5
1FA
330
1F
100
AcDbEntity
  8
0
  6
SLD-Solid
 62
     7
370
    25
100
AcDbLine
 10
51.52008681287491
 20
19.66233936592582
 30
0.0
 11
51.37008681287495
 21
19.66233936592582
 31
0.0
  0
LINE
  5
1FB
330
1F
100
AcDbEntity
  8
0
  6
SLD-Solid
 62
     7
370
    25
100
AcDbLine
 10
51.37008681287496
 20
19.41233936592582
 30
0.0
 11
51.52008681287491
 21
19.41233936592582
 31
0.0
  0
ARC
  5
1FC
330
1F
100
AcDbEntity
  8
0
  6
SLD-Solid
 62
     7
370
    25
100
AcDbCircle
 10
51.37008681287496
 20
19.43233936592581
 30
0.0
 40
0.0200000000000031
100
AcDbArc
 50
179.9999999999898
 51
270.0000000000008
  0
ARC
  5
1FD
330
1F
100
AcDbEntity
  8
0
  6
SLD-Solid
 62
     7
370
    25
100
AcDbCircle
 10
51.37008681287495
 20
19.64233936592581
 30
0.0
 40
0.0199999999999996
100
AcDbArc
 50
90.0
 51
180.000000000011
  0
SPLINE
  5
1FE
330
1F
100
AcDbEntity
  8
0
  6
SLD-Solid
 62
     7
370
    25
100
AcDbSpline
210
0.0
220
0.0
230
1.0
 70
    28
 71
     3
 72
    41
 73
    37
 74
     0
 42
0.00000001
 43
0.00000001
 40
0.0
 40
0.0
 40
0.0
 40
0.0
 40
0.026361223207798
 40
0.0927816428410516
 40
0.1595285419986836
 40
0.2264056062801382
 40
0.264980274866015
 40
0.3036005620627038
 40
0.3424131740612661
 40
0.3813287070378392
 40
0.4019380609503482
 40
0.4225911088472474
 40
0.4434674702804373
 40
0.4644976174612295
 40
0.476671432476099
 40
0.4890497411585435
 40
0.4968185449850836
 40
0.4996542236961179
 40
0.5009815464755908
 40
0.5042887788190403
 40
0.5095580528973002
 40
0.514946844675949
 40
0.5255283877796415
 40
0.5410151270743864
 40
0.5634932706572277
 40
0.5960049090666961
 40
0.6194804696223486
 40
0.6430037292015969
 40
0.6756135248054881
 40
0.7082786010602343
 40
0.7410687976311943
 40
0.7738880536813535
 40
0.836040395026946
 40
0.8983088986898201
 40
0.9608766470132565
 40
1.0
 40
1.0
 40
1.0
 40
1.0
 10
51.47008681287492
 20
17.87111096584309
 30
0.0
 41
1.0
 10
51.47008681287492
 20
17.87098807385322
 30
0.0
 41
1.0
 10
51.47008681287492
 20
17.87055554002798
 30
0.0
 41
1.0
 10
51.47008681287492
 20
17.87471257880816
 30
0.0
 41
1.0
 10
51.47008681287492
 20
17.88374687759968
 30
0.0
 41
1.0
 10
51.47008681287492
 20
17.89645736386654
 30
0.0
 41
1.0
 10
51.47008681287492
 20
17.91066713495955
 30
0.0
 41
1.0
 10
51.47008681287492
 20
17.92456776696813
 30
0.0
 41
1.0
 10
51.47008681287492
 20
17.94141554387169
 30
0.0
 41
1.0
 10
51.47008681287492
 20
17.95870806146186
 30
0.0
 41
1.0
 10
51.47008681287492
 20
17.97535402604226
 30
0.0
 41
1.0
 10
51.47008681287492
 20
17.98993272215419
 30
0.0
 41
1.0
 10
51.47008681287492
 20
18.00676341382736
 30
0.0
 41
1.0
 10
51.47008681287492
 20
18.02385819325882
 30
0.0
 41
1.0
 10
51.47008681287492
 20
18.04084660245018
 30
0.0
 41
1.0
 10
51.47008681287492
 20
18.05488561012567
 30
0.0
 41
1.0
 10
51.47008681287492
 20
18.06667123785685
 30
0.0
 41
1.0
 10
51.47008681287492
 20
18.07390661777398
 30
0.0
 41
1.0
 10
51.47008681287492
 20
18.07850648653505
 30
0.0
 41
1.0
 10
51.47008681287492
 20
18.08414802233152
 30
0.0
 41
1.0
 10
51.47008681287492
 20
18.09132127952239
 30
0.0
 41
1.0
 10
51.47008681287492
 20
18.10121509945171
 30
0.0
 41
1.0
 10
51.47008681287492
 20
18.11420562536718
 30
0.0
 41
1.0
 10
51.47008681287492
 20
18.13142925620355
 30
0.0
 41
1.0
 10
51.47008681287492
 20
18.15245208333642
 30
0.0
 41
1.0
 10
51.47008681287492
 20
18.17161538959056
 30
0.0
 41
1.0
 10
51.47008681287492
 20
18.18811258330241
 30
0.0
 41
1.0
 10
51.47008681287492
 20
18.20264009233001
 30
0.0
 41
1.0
 10
51.47008681287492
 20
18.21664863005078
 30
0.0
 41
1.0
 10
51.47008681287492
 20
18.22982089658982
 30
0.0
 41
1.0
 10
51.47008681287492
 20
18.24106122056171
 30
0.0
 41
1.0
 10
51.47008681287492
 20
18.25342867568901
 30
0.0
 41
1.0
 10
51.47008681287492
 20
18.26512534400567
 30
0.0
 41
1.0
 10
51.47008681287492
 20
18.27409116407057
 30
0.0
 41
1.0
 10
51.47008681287492
 20
18.27870832950165
 30
0.0
 41
1.0
 10
51.47008681287492
 20
18.27865850468099
 30
0.0
 41
1.0
 10
51.47008681287492
 20
18.27863933570729
 30
0.0
 41
1.0
  0
LINE
  5
1FF
330
1F
100
AcDbEntity
  8
0
  6
SLD-Solid
 62
     7
370
    25
100
AcDbLine
 10
57.38008681287489
 20
19.64233936592586
 30
0.0
 11
57.38008681287489
 21
19.43233936592586
 31
0.0
  0
LINE
  5
200
330
1F
100
AcDbEntity
  8
0
  6
SLD-Solid
 62
     7
370
    25
100
AcDbLine
 10
51.35008681287496
 20
19.5949395728449
 30
0.0
 11
51.35008681287496
 21
19.64233936592582
 31
0.0
  0
LINE
  5
201
330
1F
100
AcDbEntity
  8
0
  6
SLD-Solid
 62
     7
370
    25
100
AcDbLine
 10
51.35008681287496
 20
19.43233936592582
 30
0.0
 11
51.35008681287496
 21
19.5949395728449
 31
0.0
  0
LINE
  5
202
330
1F
100
AcDbEntity
  8
0
  6
SLD-Solid
 62
     7
370
    25
100
AcDbLine
 10
57.15126381122801
 20
17.49983936592588
 30
0.0
 11
57.15126381122798
 21
19.84983936592592
 31
0.0
  0
LINE
  5
203
330
1F
100
AcDbEntity
  8
0
  6
SLD-Solid
 62
     7
370
    25
100
AcDbLine
 10
57.07226381122801
 20
17.49983936592588
 30
0.0
 11
57.15126381122801
 21
17.49983936592588
 31
0.0
  0
LINE
  5
204
330
1F
100
AcDbEntity
  8
0
  6
SLD-Solid
 62
     7
370
    25
100
AcDbLine
 10
57.07226381122801
 20
17.49983936592588
 30
0.0
 11
57.07226381122798
 21
19.84983936592588
 31
0.0
  0
LINE
  5
205
330
1F
100
AcDbEntity
  8
0
  6
SLD-Solid
 62
     7
370
    25
100
AcDbLine
 10
57.15126381122798
 20
19.84983936592592
 30
0.0
 11
57.07226381122798
 21
19.84983936592588
 31
0.0
  0
CIRCLE
  5
206
330
1F
100
AcDbEntity
  8
0
  6
SLD-Solid
 62
     7
370
    25
100
AcDbCircle
 10
52.02317531205147
 20
18.09983936592584
 30
0.0
 40
0.0999999999999979
  0
CIRCLE
  5
207
330
1F
100
AcDbEntity
  8
0
  6
SLD-Solid
 62
     7
370
    25
100
AcDbCircle
 10
52.02317531205146
 20
19.09983936592588
 30
0.0
 40
0.0999999999999979
  0
LINE
  5
208
330
1F
100
AcDbEntity
  8
0
  6
SLD-Solid
 62
     7
370
    25
100
AcDbLine
 10
51.59908681287491
 20
17.49983936592584
 30
0.0
 11
51.59908681287492
 21
19.84983936592583
 31
0.0
  0
LINE
  5
209
330
1F
100
AcDbEntity
  8
0
  6
SLD-Solid
 62
     7
370
    25
100
AcDbLine
 10
51.59908681287492
 20
19.84983936592583
 30
0.0
 11
57.07226381122798
 21
19.84983936592588
 31
0.0
  0
LINE
  5
20A
330
1F
100
AcDbEntity
  8
0
  6
SLD-Solid
 62
     7
370
    25
100
AcDbLine
 10
57.07226381122801
 20
17.49983936592588
 30
0.0
 11
51.59908681287491
 21
17.49983936592584
 31
0.0
  0
CIRCLE
  5
20B
330
1F
100
AcDbEntity
  8
0
  6
SLD-Solid
 62
     7
370
    25
100
AcDbCircle
 10
56.64817531205146
 20
18.09983936592592
 30
0.0
 40
0.0999999999999979
  0
CIRCLE
  5
20C
330
1F
100
AcDbEntity
  8
0
  6
SLD-Solid
 62
     7
370
    25
100
AcDbCircle
 10
56.64817531205146
 20
19.09983936592592
 30
0.0
 40
0.0999999999999979
  0
LINE
  5
20D
330
1F
100
AcDbEntity
  8
0
  6
SLD-Solid
 62
     7
370
    25
100
AcDbLine
 10
51.59908681287491
 20
17.49983936592584
 30
0.0
 11
51.52008681287493
 21
17.49983936592583
 31
0.0
  0
LINE
  5
20E
330
1F
100
AcDbEntity
  8
0
  6
SLD-Solid
 62
     7
370
    25
100
AcDbLine
 10
51.52008681287493
 20
17.49983936592583
 30
0.0
 11
51.52008681287491
 21
19.84983936592583
 31
0.0
  0
LINE
  5
20F
330
1F
100
AcDbEntity
  8
0
  6
SLD-Solid
 62
     7
370
    25
100
AcDbLine
 10
51.52008681287491
 20
19.84983936592583
 30
0.0
 11
51.59908681287492
 21
19.84983936592583
 31
0.0
  0
LINE
  5
210
330
1F
100
AcDbEntity
  8
0
  6
SLD-Solid
 62
     7
370
    25
100
AcDbLine
 10
52.24223719786735
 20
19.84983936592583
 30
0.0
 11
52.24008681287493
 21
19.87297557499947
 31
0.0
  0
LINE
  5
211
330
1F
100
AcDbEntity
  8
0
  6
SLD-Solid
 62
     7
370
    25
100
AcDbLine
 10
52.24008681287493
 20
19.87297557499947
 30
0.0
 11
52.24008681287493
 21
19.89053686365983
 31
0.0
  0
LINE
  5
212
330
1F
100
AcDbEntity
  8
0
  6
SLD-Solid
 62
     7
370
    25
100
AcDbLine
 10
56.49008681287491
 20
19.89053686365985
 30
0.0
 11
52.24008681287493
 21
19.89053686365983
 31
0.0
  0
LINE
  5
213
330
1F
100
AcDbEntity
  8
0
  6
SLD-Solid
 62
     7
370
    25
100
AcDbLine
 10
56.49008681287487
 20
19.87297557499949
 30
0.0
 11
56.49008681287491
 21
19.89053686365985
 31
0.0
  0
LINE
  5
214
330
1F
100
AcDbEntity
  8
0
  6
SLD-Solid
 62
     7
370
    25
100
AcDbLine
 10
56.48793642788245
 20
19.84983936592587
 30
0.0
 11
56.49008681287487
 21
19.87297557499949
 31
0.0
  0
LINE
  5
215
330
1F
100
AcDbEntity
  8
0
  6
SLD-Solid
 62
     7
370
    25
100
AcDbLine
 10
56.49008681287487
 20
19.87297557499949
 30
0.0
 11
56.49008681287487
 21
19.84983936592587
 31
0.0
  0
LINE
  5
216
330
1F
100
AcDbEntity
  8
0
  6
SLD-Solid
 62
     7
370
    25
100
AcDbLine
 10
52.24008681287493
 20
19.87297557499947
 30
0.0
 11
52.24008681287494
 21
19.84983936592584
 31
0.0
  0
LINE
  5
217
330
1F
100
AcDbEntity
  8
0
  6
SLD-Solid
 62
     7
370
    25
100
AcDbLine
 10
56.49008681287487
 20
19.91367542794612
 30
0.0
 11
52.24008681287488
 21
19.9136754279461
 31
0.0
  0
LINE
  5
218
330
1F
100
AcDbEntity
  8
0
  6
SLD-Solid
 62
     7
370
    25
100
AcDbLine
 10
56.49008681287487
 20
19.91367542794612
 30
0.0
 11
56.49008681287491
 21
19.89053686365985
 31
0.0
  0
LINE
  5
219
330
1F
100
AcDbEntity
  8
0
  6
SLD-Solid
 62
     7
370
    25
100
AcDbLine
 10
52.24008681287488
 20
19.9136754279461
 30
0.0
 11
52.24008681287493
 21
19.89053686365983
 31
0.0
  0
LINE
  5
21A
330
1F
100
AcDbEntity
  8
0
  6
SLD-Solid
 62
     7
370
    25
100
AcDbLine
 10
56.99342287489514
 20
19.91367542794613
 30
0.0
 11
56.99342287489518
 21
19.86367542794613
 31
0.0
  0
ARC
  5
21B
330
1F
100
AcDbEntity
  8
0
  6
SLD-Solid
 62
     7
370
    25
100
AcDbCircle
 10
56.99342287489514
 20
19.83467542794613
 30
0.0
 40
0.0290000000000035
100
AcDbArc
 50
31.52660403581419
 51
89.99999999991577
  0
ARC
  5
21C
330
1F
100
AcDbEntity
  8
0
  6
SLD-Solid
 62
     7
370
    25
100
AcDbCircle
 10
56.99342287489514
 20
19.83467542794613
 30
0.0
 40
0.0790000000000055
100
AcDbArc
 50
11.06652310537288
 51
90.0
  0
LINE
  5
21D
330
1F
100
AcDbEntity
  8
0
  6
SLD-Solid
 62
     7
370
    25
100
AcDbLine
 10
51.73675075085461
 20
19.9136754279461
 30
0.0
 11
51.73675075085467
 21
19.8636754279461
 31
0.0
  0
ARC
  5
21E
330
1F
100
AcDbEntity
  8
0
  6
SLD-Solid
 62
     7
370
    25
100
AcDbCircle
 10
51.73675075085467
 20
19.8346754279461
 30
0.0
 40
0.0290000000000013
100
AcDbArc
 50
90.0
 51
148.4733959642424
  0
ARC
  5
21F
330
1F
100
AcDbEntity
  8
0
  6
SLD-Solid
 62
     7
370
    25
100
AcDbCircle
 10
51.73675075085467
 20
19.8346754279461
 30
0.0
 40
0.0790000000000008
100
AcDbArc
 50
90.00000000004123
 51
168.9334768946448
  0
LINE
  5
220
330
1F
100
AcDbEntity
  8
0
  6
SLD-Solid
 62
     7
370
    25
100
AcDbLine
 10
52.18618681287489
 20
19.9136754279461
 30
0.0
 11
52.18618681287494
 21
19.8636754279461
 31
0.0
  0
LINE
  5
221
330
1F
100
AcDbEntity
  8
0
  6
SLD-Solid
 62
     7
370
    25
100
AcDbLine
 10
52.21618681287489
 20
19.9136754279461
 30
0.0
 11
52.21618681287494
 21
19.8636754279461
 31
0.0
  0
LINE
  5
222
330
1F
100
AcDbEntity
  8
0
  6
SLD-Solid
 62
     7
370
    25
100
AcDbLine
 10
52.21618681287489
 20
19.9136754279461
 30
0.0
 11
52.18618681287489
 21
19.9136754279461
 31
0.0
  0
LINE
  5
223
330
1F
100
AcDbEntity
  8
0
  6
SLD-Solid
 62
     7
370
    25
100
AcDbLine
 10
52.21618681287494
 20
19.8636754279461
 30
0.0
 11
52.18618681287494
 21
19.8636754279461
 31
0.0
  0
LINE
  5
224
330
1F
100
AcDbEntity
  8
0
  6
SLD-Solid
 62
     7
370
    25
100
AcDbLine
 10
52.18618681287489
 20
19.9136754279461
 30
0.0
 11
51.73675075085461
 21
19.9136754279461
 31
0.0
  0
LINE
  5
225
330
1F
100
AcDbEntity
  8
0
  6
SLD-Solid
 62
     7
370
    25
100
AcDbLine
 10
52.18618681287494
 20
19.8636754279461
 30
0.0
 11
51.73675075085467
 21
19.8636754279461
 31
0.0
  0
LINE
  5
226
330
1F
100
AcDbEntity
  8
0
  6
SLD-Solid
 62
     7
370
    25
100
AcDbLine
 10
56.51398681287487
 20
19.91367542794612
 30
0.0
 11
56.51398681287492
 21
19.86367542794612
 31
0.0
  0
LINE
  5
227
330
1F
100
AcDbEntity
  8
0
  6
SLD-Solid
 62
     7
370
    25
100
AcDbLine
 10
56.54398681287486
 20
19.91367542794613
 30
0.0
 11
56.54398681287491
 21
19.86367542794613
 31
0.0
  0
LINE
  5
228
330
1F
100
AcDbEntity
  8
0
  6
SLD-Solid
 62
     7
370
    25
100
AcDbLine
 10
56.51398681287487
 20
19.91367542794612
 30
0.0
 11
56.54398681287486
 21
19.91367542794613
 31
0.0
  0
LINE
  5
229
330
1F
100
AcDbEntity
  8
0
  6
SLD-Solid
 62
     7
370
    25
100
AcDbLine
 10
56.51398681287492
 20
19.86367542794612
 30
0.0
 11
56.54398681287491
 21
19.86367542794613
 31
0.0
  0
LINE
  5
22A
330
1F
100
AcDbEntity
  8
0
  6
SLD-Solid
 62
     7
370
    25
100
AcDbLine
 10
56.54398681287486
 20
19.91367542794613
 30
0.0
 11
56.99342287489514
 21
19.91367542794613
 31
0.0
  0
LINE
  5
22B
330
1F
100
AcDbEntity
  8
0
  6
SLD-Solid
 62
     7
370
    25
100
AcDbLine
 10
56.54398681287491
 20
19.86367542794613
 30
0.0
 11
56.99342287489518
 21
19.86367542794613
 31
0.0
  0
LINE
  5
22C
330
1F
100
AcDbEntity
  8
0
  6
SLD-Solid
 62
     7
370
    25
100
AcDbLine
 10
52.24008681287488
 20
19.9136754279461
 30
0.0
 11
52.21618681287489
 21
19.9136754279461
 31
0.0
  0
LINE
  5
22D
330
1F
100
AcDbEntity
  8
0
  6
SLD-Solid
 62
     7
370
    25
100
AcDbLine
 10
52.24008681287489
 20
19.8636754279461
 30
0.0
 11
52.21618681287489
 21
19.86367542794609
 31
0.0
  0
LINE
  5
22E
330
1F
100
AcDbEntity
  8
0
  6
SLD-Solid
 62
     7
370
    25
100
AcDbLine
 10
56.49008681287487
 20
19.91367542794612
 30
0.0
 11
56.51398681287487
 21
19.91367542794612
 31
0.0
  0
LINE
  5
22F
330
1F
100
AcDbEntity
  8
0
  6
SLD-Solid
 62
     7
370
    25
100
AcDbLine
 10
56.49008681287488
 20
19.86367542794611
 30
0.0
 11
56.51398681287488
 21
19.86367542794611
 31
0.0
  0
LINE
  5
230
330
1F
100
AcDbEntity
  8
0
  6
SLD-Solid
 62
     7
370
    25
100
AcDbLine
 10
56.96261279712677
 20
19.84983936592588
 30
0.0
 11
56.96261279712682
 21
19.8605438627569
 31
0.0
  0
LINE
  5
231
330
1F
100
AcDbEntity
  8
0
  6
SLD-Solid
 62
     7
370
    25
100
AcDbLine
 10
51.76756082862287
 20
19.84983936592583
 30
0.0
 11
51.76756082862287
 21
19.86054386275686
 31
0.0
  0
LINE
  5
232
330
1F
100
AcDbEntity
  8
0
  6
SLD-Solid
 62
     8
370
    25
100
AcDbLine
 10
57.36008681287489
 20
19.41233936592585
 30
0.0
 11
57.36008681287488
 21
19.66233936592585
 31
0.0
  0
LINE
  5
233
330
1F
100
AcDbEntity
  8
0
  6
SLD-Solid
 62
     8
370
    25
100
AcDbLine
 10
51.37008681287495
 20
19.60591104082948
 30
0.0
 11
51.37008681287496
 21
19.41233936592581
 31
0.0
  0
LINE
  5
234
330
1F
100
AcDbEntity
  8
0
  6
SLD-Solid
 62
     8
370
    25
100
AcDbLine
 10
51.37008681287495
 20
19.66233936592581
 30
0.0
 11
51.37008681287495
 21
19.60591104082948
 31
0.0
  0
DIMENSION
  5
235
330
1F
100
AcDbEntity
  8
DIMS
100
AcDbDimension
  2
_D_3
 10
56.64817531205139
 20
21.16179799536141
 30
0.0
 11
54.32026356385657
 21
21.16179799536139
 31
0.0
 70
    32
  1
<>
 71
     2
 42
-1.0
  3
SLDDIMSTYLE1
100
AcDbAlignedDimension
 13
52.02317531205141
 23
19.09983936592588
 33
0.0
 14
56.64817531205141
 24
19.09983936592592
 34
0.0
 50
0.0000000000005281
100
AcDbRotatedDimension
  0
DIMENSION
  5
244
330
1F
100
AcDbEntity
  8
DIMS
100
AcDbDimension
  2
_D_4
 10
50.01150413570956
 20
18.09983936592582
 30
0.0
 11
50.01150413570954
 21
19.56150451375216
 31
0.0
 70
    32
  1
<>
 71
     2
 42
-1.0
  3
SLDDIMSTYLE0
100
AcDbAlignedDimension
 13
52.02317531205141
 23
19.09983936592588
 33
0.0
 14
52.02317531205142
 24
18.09983936592583
 34
0.0
 50
90.0000000000002
100
AcDbRotatedDimension
  0
DIMENSION
  5
250
330
1F
100
AcDbEntity
  8
DIMS
100
AcDbDimension
  2
_D_5
 10
50.95638602547334
 20
19.09983936592588
 30
0.0
 11
50.95638602547334
 21
20.92557752292042
 31
0.0
 70
    32
  1
<>
 71
     2
 42
-1.0
  3
SLDDIMSTYLE1
100
AcDbAlignedDimension
 13
51.73675075085456
 23
19.9136754279461
 33
0.0
 14
52.02317531205141
 24
19.09983936592588
 34
0.0
 50
90.0000000000002
100
AcDbRotatedDimension
  0
DIMENSION
  5
25F
330
1F
100
AcDbEntity
  8
DIMS
100
AcDbDimension
  2
_D_6
 10
50.01150413570953
 20
18.09983936592582
 30
0.0
 11
50.01150413570954
 21
16.6336976336423
 31
0.0
 70
    32
  1
<>
 71
     2
 42
-1.0
  3
SLDDIMSTYLE2
100
AcDbAlignedDimension
 13
51.52008681287488
 23
17.49983936592583
 33
0.0
 14
52.02317531205142
 24
18.09983936592583
 34
0.0
 50
90.0000000000002
100
AcDbRotatedDimension
  0
DIMENSION
  5
26F
330
1F
100
AcDbEntity
  8
DIMS
100
AcDbDimension
  2
_D_7
 10
52.04905721656166
 20
19.00324678329697
 30
0.0
 11
49.64614688219967
 21
23.13381292414322
 31
0.0
 70
    35
  1
<>
 71
     1
 42
-1.0
  3
SLDDIMSTYLE3
100
AcDbDiametricDimension
 15
51.99729340754116
 25
19.19643194855479
 35
0.0
 40
0.0
  0
MTEXT
  5
27C
330
1F
100
AcDbEntity
  8
NOTES
100
AcDbMText
 10
51.86088850810041
 20
16.673576799408
 30
0.0
 40
0.5
 41
0.0
 71
     1
 72
     1
  1
Back view
  7
SLDTEXTSTYLE1
 73
     1
 44
1.0
  0
MTEXT
  5
27D
330
1F
100
AcDbEntity
  8
NOTES
100
AcDbMText
 10
51.37665950641711
 20
25.10307570339843
 30
0.0
 40
0.5
 41
0.0
 71
     1
 72
     1
  1
mounting hole (4)
  7
SLDTEXTSTYLE1
 73
     1
 44
1.0
  0
LEADER
  5
27F
330
1F
100
AcDbEntity
  8
NOTES
100
AcDbLeader
  3
SLDDIMSTYLE4
 76
     3
 10
56.7014544585157
 20
19.18446402280577
 30
0.0
 10
57.61998011586955
 20
24.86083173728984
 30
0.0
 10
57.11998011586955
 20
24.86083173728984
 30
0.0
1001
ACAD
1000
DSTYLE
1002
{
1070
   176
1070
     0
1070
    77
1070
     0
1070
    40
1040
1.0
1070
   147
1040
0.0
1002
}
  0
SPLINE
  5
280
330
1F
100
AcDbEntity
  8
0
  6
SLD-Solid
 62
     7
370
    25
100
AcDbSpline
210
0.0
220
0.0
230
1.0
 70
    12
 71
     3
 72
     9
 73
     5
 74
     0
 42
0.00000001
 43
0.00000001
 40
0.0
 40
0.0
 40
0.0
 40
0.0
 40
0.5891506415613624
 40
1.0
 40
1.0
 40
1.0
 40
1.0
 10
54.14571384653478
 20
31.8018854159032
 30
0.0
 41
1.0
 10
54.14276459344985
 20
31.7981942525666
 30
0.0
 41
1.0
 10
54.13775865290279
 20
31.79192902415776
 30
0.0
 41
1.0
 10
54.13489610590466
 20
31.78427689310611
 30
0.0
 41
1.0
 10
54.13372003030697
 20
31.78113301997285
 30
0.0
 41
1.0
  0
SPLINE
  5
281
330
1F
100
AcDbEntity
  8
0
  6
SLD-Solid
 62
     7
370
    25
100
AcDbSpline
210
0.0
220
0.0
230
1.0
 70
    12
 71
     3
 72
    27
 73
    23
 74
     0
 42
0.00000001
 43
0.00000001
 40
0.0
 40
0.0
 40
0.0
 40
0.0
 40
0.0155115680355918
 40
0.0275867782869107
 40
0.0356707956687766
 40
0.0495527680053774
 40
0.0678806611696706
 40
0.0929809868418316
 40
0.1250796109531292
 40
0.1659162135582549
 40
0.2175756077224175
 40
0.2824643769802331
 40
0.3572818701836815
 40
0.4476075681765018
 40
0.5443197040805348
 40
0.6508173117751185
 40
0.7447535054400717
 40
0.8294808312113797
 40
0.8973317029594811
 40
0.9497096201363604
 40
0.9850974387114217
 40
1.0
 40
1.0
 40
1.0
 40
1.0
 10
54.13372003030697
 20
31.78113301997285
 30
0.0
 41
1.0
 10
54.1313140626275
 20
31.77162433798585
 30
0.0
 41
1.0
 10
54.12703513371541
 20
31.75471348144482
 30
0.0
 41
1.0
 10
54.13065360482237
 20
31.73218505234661
 30
0.0
 41
1.0
 10
54.13738968373473
 20
31.71206278468133
 30
0.0
 41
1.0
 10
54.1485099881728
 20
31.68921728215467
 30
0.0
 41
1.0
 10
54.16792534363926
 20
31.65874622348314
 30
0.0
 41
1.0
 10
54.19643477872471
 20
31.62130884000019
 30
0.0
 41
1.0
 10
54.23604770922142
 20
31.57649494583967
 30
0.0
 41
1.0
 10
54.28842156356696
 20
31.52391790083339
 30
0.0
 41
1.0
 10
54.35626115047165
 20
31.4625451237769
 30
0.0
 41
1.0
 10
54.44021476751519
 20
31.39412496193901
 30
0.0
 41
1.0
 10
54.5420979939548
 20
31.31809485454041
 30
0.0
 41
1.0
 10
54.6590233786086
 20
31.23920237174226
 30
0.0
 41
1.0
 10
54.79043491395452
 20
31.15910963990496
 30
0.0
 41
1.0
 10
54.92378509607433
 20
31.08637735534906
 30
0.0
 41
1.0
 10
55.05178991048103
 20
31.02623763629747
 30
0.0
 41
1.0
 10
55.16184442818925
 20
30.98230192009794
 30
0.0
 41
1.0
 10
55.25405418669187
 20
30.95353067267245
 30
0.0
 41
1.0
 10
55.3229827720134
 20
30.93968251802611
 30
0.0
 41
1.0
 10
55.37010055958704
 20
30.93380384153492
 30
0.0
 41
1.0
 10
55.39391652098605
 20
30.93563647933839
 30
0.0
 41
1.0
 10
55.40097391099497
 20
30.93617954537329
 30
0.0
 41
1.0
  0
SPLINE
  5
282
330
1F
100
AcDbEntity
  8
0
  6
SLD-Solid
 62
     7
370
    25
100
AcDbSpline
210
0.0
220
0.0
230
1.0
 70
    12
 71
     3
 72
    18
 73
    14
 74
     0
 42
0.00000001
 43
0.00000001
 40
0.0
 40
0.0
 40
0.0
 40
0.0
 40
0.0770003370424352
 40
0.1684137510247846
 40
0.2651045221391697
 40
0.3681698097384406
 40
0.4723480574828373
 40
0.5764948399951905
 40
0.6814362319563014
 40
0.7882373845241295
 40
0.8835153453926544
 40
0.9728539207836522
 40
1.0
 40
1.0
 40
1.0
 40
1.0
 10
55.09577798366404
 20
32.35831290945926
 30
0.0
 41
1.0
 10
55.08989274277787
 20
32.35400368197341
 30
0.0
 41
1.0
 10
55.07702064985732
 20
32.34457861719074
 30
0.0
 41
1.0
 10
55.06706882035206
 20
32.31983600290992
 30
0.0
 41
1.0
 10
55.06421545067666
 20
32.28924803450825
 30
0.0
 41
1.0
 10
55.07041706520047
 20
32.25392257410863
 30
0.0
 41
1.0
 10
55.08530619057075
 20
32.2175533623863
 30
0.0
 41
1.0
 10
55.10744772045037
 20
32.18418573388746
 30
0.0
 41
1.0
 10
55.13474480018704
 20
32.15731269921121
 30
0.0
 41
1.0
 10
55.16411102965217
 20
32.14015757157463
 30
0.0
 41
1.0
 10
55.19221379358049
 20
32.13492653757035
 30
0.0
 41
1.0
 10
55.21344130565348
 20
32.1372635429346
 30
0.0
 41
1.0
 10
55.22170834117451
 20
32.14450271548428
 30
0.0
 41
1.0
 10
55.22363492628476
 20
32.14618976303708
 30
0.0
 41
1.0
  0
LINE
  5
283
330
1F
100
AcDbEntity
  8
0
  6
SLD-Solid
 62
     7
370
    25
100
AcDbLine
 10
55.21932016288894
 20
32.43078665535247
 30
0.0
 11
55.09731547317718
 21
32.36035484716506
 31
0.0
  0
LINE
  5
284
330
1F
100
AcDbEntity
  8
0
  6
SLD-Solid
 62
     7
370
    25
100
AcDbLine
 10
55.22230531475669
 20
32.1438426315699
 30
0.0
 11
55.3443100044688
 21
32.2142744397575
 31
0.0
  0
LINE
  5
285
330
1F
100
AcDbEntity
  8
0
  6
SLD-Solid
 62
     7
370
    25
100
AcDbLine
 10
59.02200965164727
 20
34.33736525481496
 30
0.0
 11
59.23504914629064
 21
34.4603503372615
 31
0.0
  0
SPLINE
  5
286
330
1F
100
AcDbEntity
  8
0
  6
SLD-Solid
 62
     7
370
    25
100
AcDbSpline
210
0.0
220
0.0
230
1.0
 70
    12
 71
     3
 72
    12
 73
     8
 74
     0
 42
0.00000001
 43
0.00000001
 40
0.0
 40
0.0
 40
0.0
 40
0.0
 40
0.1442121348188437
 40
0.3921531569106765
 40
0.6444881644172111
 40
0.8695977666352144
 40
1.0
 40
1.0
 40
1.0
 40
1.0
 10
59.45970571957888
 20
34.74479080569029
 30
0.0
 41
1.0
 10
59.45563343686123
 20
34.75135910336962
 30
0.0
 41
1.0
 10
59.4445597603945
 20
34.76922014310607
 30
0.0
 41
1.0
 10
59.42020869657892
 20
34.79202721358115
 30
0.0
 41
1.0
 10
59.39133265602986
 20
34.80871678111856
 30
0.0
 41
1.0
 10
59.36569520978706
 20
34.815145739653
 30
0.0
 41
1.0
 10
59.3519874542571
 20
34.81129156831001
 30
0.0
 41
1.0
 10
59.34695943055547
 20
34.80987785292675
 30
0.0
 41
1.0
  0
LINE
  5
287
330
1F
100
AcDbEntity
  8
0
  6
SLD-Solid
 62
     7
370
    25
100
AcDbLine
 10
54.08531756661027
 20
33.23106278434773
 30
0.0
 11
54.04996222755094
 21
33.21065258155216
 31
0.0
  0
LINE
  5
288
330
1F
100
AcDbEntity
  8
0
  6
SLD-Solid
 62
     7
370
    25
100
AcDbLine
 10
59.62220819763031
 20
32.71321870241699
 30
0.0
 11
59.62220819763032
 21
34.6320896103485
 31
0.0
  0
LINE
  5
289
330
1F
100
AcDbEntity
  8
0
  6
SLD-Solid
 62
     7
370
    25
100
AcDbLine
 10
55.89628077779778
 20
32.77699944091767
 30
0.0
 11
55.89628077779777
 21
32.81782648151196
 31
0.0
  0
LINE
  5
28A
330
1F
100
AcDbEntity
  8
0
  6
SLD-Solid
 62
     7
370
    25
100
AcDbLine
 10
59.32621998939183
 20
34.77182475406357
 30
0.0
 11
49.21690420116977
 21
40.60780853619639
 31
0.0
  0
LINE
  5
28B
330
1F
100
AcDbEntity
  8
0
  6
SLD-Solid
 62
     7
370
    25
100
AcDbLine
 10
45.38586771241848
 20
38.36145436268636
 30
0.0
 11
45.38586771241848
 21
37.87505055544497
 31
0.0
  0
LINE
  5
28C
330
1F
100
AcDbEntity
  8
0
  6
SLD-Solid
 62
     7
370
    25
100
AcDbLine
 10
49.12466659235323
 20
40.59498099368051
 30
0.0
 11
45.4509722715939
 21
38.47420240434765
 31
0.0
  0
ELLIPSE
  5
28D
330
1F
100
AcDbEntity
  8
0
  6
SLD-Solid
 62
     7
370
    25
100
AcDbEllipse
 10
54.80781263829228
 20
31.38357299779051
 30
0.0
 11
0.6639028285902099
 21
-0.4174881047009791
 31
0.0
210
0.0
220
0.0
230
1.0
 40
0.2452445671205258
 41
5.961561945935782
 42
9.416974602369775
  0
ARC
  5
28E
330
1F
100
AcDbEntity
  8
0
  6
SLD-Solid
 62
     7
370
    25
100
AcDbCircle
 10
55.42969490582092
 20
32.40845207106808
 30
0.0
 40
0.4493857044777929
100
AcDbArc
 50
10.32041650546165
 51
40.21208079717545
  0
ARC
  5
28F
330
1F
100
AcDbEntity
  8
0
  6
SLD-Solid
 62
     7
370
    25
100
AcDbCircle
 10
55.42917923420888
 20
32.40821791009223
 30
0.0
 40
0.4499307073197883
100
AcDbArc
 50
10.30921084634097
 51
40.19245614837774
  0
ARC
  5
290
330
1F
100
AcDbEntity
  8
0
  6
SLD-Solid
 62
     7
370
    25
100
AcDbCircle
 10
55.22439254124458
 20
32.35781981953428
 30
0.0
 40
0.2474174227082536
100
AcDbArc
 50
44.61718637076952
 51
75.3881901619288
  0
LINE
  5
291
330
1F
100
AcDbEntity
  8
0
  6
SLD-Solid
 62
     7
370
    25
100
AcDbLine
 10
55.22384805487737
 20
32.14477832683021
 30
0.0
 11
55.22230531475669
 21
32.14384263156989
 31
0.0
  0
LINE
  5
292
330
1F
100
AcDbEntity
  8
0
  6
SLD-Solid
 62
     7
370
    25
100
AcDbLine
 10
55.0957732834729
 20
32.35941950223947
 30
0.0
 11
55.09731547317719
 21
32.36035484716506
 31
0.0
  0
ARC
  5
293
330
1F
100
AcDbEntity
  8
0
  6
SLD-Solid
 62
     7
370
    25
100
AcDbCircle
 10
55.6730876274606
 20
30.55460970826305
 30
0.0
 40
0.1214247307250838
100
AcDbArc
 50
242.6096722366135
 51
297.3903277633837
  0
ARC
  5
294
330
1F
100
AcDbEntity
  8
0
  6
SLD-Solid
 62
     7
370
    25
100
AcDbCircle
 10
55.6730876274606
 20
32.47348061619449
 30
0.0
 40
0.1214247307250272
100
AcDbArc
 50
242.6096722365995
 51
297.390327763405
  0
ARC
  5
295
330
1F
100
AcDbEntity
  8
0
  6
SLD-Solid
 62
     7
370
    25
100
AcDbCircle
 10
55.6730876274606
 20
32.42565526474231
 30
0.0
 40
0.0445736353294751
100
AcDbArc
 50
242.609672236626
 51
297.390327763388
  0
LWPOLYLINE
  5
296
330
1F
100
AcDbEntity
  8
0
  6
SLD-Solid
 62
     7
370
    25
100
AcDbPolyline
 90
       17
 70
   128
 43
0.0
 10
56.0288249167653
 20
31.0281825839236
 10
56.05588472177261
 20
31.05001942367819
 10
56.0788249167653
 20
31.08096289619645
 10
56.09415306500912
 20
31.11630213829077
 10
56.09953559488396
 20
31.15065707070331
 10
56.09415306500912
 20
31.17879746640249
 10
56.07882491676531
 20
31.19643920523645
 10
56.05588472177261
 20
31.20089649239046
 10
56.0288249167653
 20
31.19149074630075
 10
56.001765111758
 20
31.16965390654616
 10
55.97882491676531
 20
31.13871043402789
 10
55.96349676852149
 20
31.10337119193358
 10
55.95811423864665
 20
31.06901625952104
 10
55.96349676852149
 20
31.04087586382186
 10
55.9788249167653
 20
31.0232341249879
 10
56.001765111758
 20
31.01877683783388
 10
56.0288249167653
 20
31.0281825839236
  0
LWPOLYLINE
  5
297
330
1F
100
AcDbEntity
  8
0
  6
SLD-Solid
 62
     7
370
    25
100
AcDbPolyline
 90
       17
 70
   128
 43
0.0
 10
56.0288249167653
 20
31.84472339580938
 10
56.05588472177261
 20
31.86656023556397
 10
56.0788249167653
 20
31.89750370808224
 10
56.09415306500912
 20
31.93284295017655
 10
56.09953559488395
 20
31.96719788258909
 10
56.09415306500912
 20
31.99533827828828
 10
56.07882491676531
 20
32.01298001712223
 10
56.05588472177261
 20
32.01743730427624
 10
56.0288249167653
 20
32.00803155818653
 10
56.001765111758
 20
31.98619471843194
 10
55.9788249167653
 20
31.95525124591368
 10
55.96349676852149
 20
31.91991200381936
 10
55.95811423864665
 20
31.88555707140682
 10
55.96349676852149
 20
31.85741667570763
 10
55.9788249167653
 20
31.83977493687368
 10
56.001765111758
 20
31.83531764971967
 10
56.0288249167653
 20
31.84472339580938
  0
LINE
  5
298
330
1F
100
AcDbEntity
  8
0
  6
SLD-Solid
 62
     7
370
    25
100
AcDbLine
 10
55.72894906317435
 20
32.365668440483
 30
0.0
 11
59.59906963334409
 21
34.59984148993146
 31
0.0
  0
LINE
  5
299
330
1F
100
AcDbEntity
  8
0
  6
SLD-Solid
 62
     7
370
    25
100
AcDbLine
 10
59.59906963334403
 20
32.680970582
 30
0.0
 11
55.72894906317433
 21
30.44679753255149
 31
0.0
  0
LWPOLYLINE
  5
29A
330
1F
100
AcDbEntity
  8
0
  6
SLD-Solid
 62
     7
370
    25
100
AcDbPolyline
 90
       17
 70
   128
 43
0.0
 10
59.29919377975308
 20
32.91612634251369
 10
59.27213397474576
 20
32.90672059642397
 10
59.24919377975308
 20
32.91117788357798
 10
59.23386563150926
 20
32.92881962241194
 10
59.22848310163442
 20
32.95696001811113
 10
59.23386563150926
 20
32.99131495052366
 10
59.24919377975308
 20
33.02665419261798
 10
59.27213397474576
 20
33.05759766513625
 10
59.29919377975308
 20
33.07943450489083
 10
59.32625358476039
 20
33.08884025098055
 10
59.34919377975308
 20
33.08438296382653
 10
59.3645219279969
 20
33.06674122499258
 10
59.36990445787173
 20
33.03860082929339
 10
59.3645219279969
 20
33.00424589688085
 10
59.34919377975308
 20
32.96890665478654
 10
59.32625358476039
 20
32.93796318226827
 10
59.29919377975308
 20
32.91612634251369
  0
LWPOLYLINE
  5
29B
330
1F
100
AcDbEntity
  8
0
  6
SLD-Solid
 62
     7
370
    25
100
AcDbPolyline
 90
       17
 70
   128
 43
0.0
 10
59.29919377975308
 20
33.73266715439943
 10
59.27213397474576
 20
33.72326140830971
 10
59.24919377975307
 20
33.72771869546373
 10
59.23386563150925
 20
33.74536043429768
 10
59.22848310163442
 20
33.77350082999687
 10
59.23386563150925
 20
33.8078557624094
 10
59.24919377975308
 20
33.84319500450372
 10
59.27213397474576
 20
33.87413847702199
 10
59.29919377975308
 20
33.89597531677658
 10
59.32625358476039
 20
33.90538106286629
 10
59.34919377975308
 20
33.90092377571227
 10
59.3645219279969
 20
33.88328203687832
 10
59.36990445787173
 20
33.85514164117914
 10
59.3645219279969
 20
33.8207867087666
 10
59.34919377975307
 20
33.78544746667228
 10
59.32625358476039
 20
33.75450399415401
 10
59.29919377975308
 20
33.73266715439943
  0
LINE
  5
29C
330
1F
100
AcDbEntity
  8
0
  6
SLD-Solid
 62
     7
370
    25
100
AcDbLine
 10
55.69359372411502
 20
32.38607864327857
 30
0.0
 11
59.56371429428476
 21
34.62025169272702
 31
0.0
  0
LWPOLYLINE
  5
29D
330
1F
100
AcDbEntity
  8
0
  6
SLD-Solid
 62
     7
370
    25
100
AcDbPolyline
 90
       13
 70
   128
 43
0.0
 10
55.31243265940062
 20
32.19587204015573
 10
55.32190291382117
 20
32.19786279544981
 10
55.34224003724024
 20
32.2116334561501
 10
55.35430197686814
 20
32.23642444468003
 10
55.35678163438592
 20
32.26954927276056
 10
55.34941030042568
 20
32.3074183512845
 10
55.33298677340004
 20
32.34592797799449
 10
55.3092907972995
 20
32.38090503729806
 10
55.28089019881551
 20
32.4085592220947
 10
55.2508626234745
 20
32.42589377236278
 10
55.22246202499052
 20
32.43103022060751
 10
55.19876604888998
 20
32.42341195296137
 10
55.18744281782148
 20
32.41238425575111
  0
LINE
  5
29E
330
1F
100
AcDbEntity
  8
0
  6
SLD-Solid
 62
     7
370
    25
100
AcDbLine
 10
54.17495206913038
 20
31.27940466099697
 30
0.0
 11
55.61722619174687
 21
30.4467975325515
 31
0.0
  0
ARC
  5
29F
330
1F
100
AcDbEntity
  8
0
  6
SLD-Solid
 62
     7
370
    25
100
AcDbCircle
 10
54.3819793991756
 20
31.60305609101137
 30
0.0
 40
0.3842012018929883
100
AcDbArc
 50
182.6054784856576
 51
237.3945216599766
  0
LINE
  5
2A0
330
1F
100
AcDbEntity
  8
0
  6
SLD-Solid
 62
     7
370
    25
100
AcDbLine
 10
53.99817537383381
 20
33.09619137993479
 30
0.0
 11
53.99817537383375
 21
31.58559087794621
 31
0.0
  0
ARC
  5
2A1
330
1F
100
AcDbEntity
  8
0
  6
SLD-Solid
 62
     7
370
    25
100
AcDbCircle
 10
54.10594396569045
 20
33.11367317915998
 30
0.0
 40
0.1091772993571246
100
AcDbArc
 50
50.79671476432789
 51
189.2140369904726
  0
LINE
  5
2A2
330
1F
100
AcDbEntity
  8
0
  6
SLD-Solid
 62
     7
370
    25
100
AcDbLine
 10
55.61722619174687
 20
32.365668440483
 30
0.0
 11
54.17495206913038
 21
33.19827556892847
 31
0.0
  0
LINE
  5
2A3
330
1F
100
AcDbEntity
  8
0
  6
SLD-Solid
 62
     7
370
    25
100
AcDbLine
 10
54.17495206913038
 20
33.19827556892847
 30
0.0
 11
54.21030740818971
 21
33.218685771724
 31
0.0
  0
LINE
  5
2A4
330
1F
100
AcDbEntity
  8
0
  6
SLD-Solid
 62
     7
370
    25
100
AcDbLine
 10
55.6525815308062
 20
32.38607864327856
 30
0.0
 11
54.21030740818971
 21
33.218685771724
 31
0.0
  0
ARC
  5
2A5
330
1F
100
AcDbEntity
  8
0
  6
SLD-Solid
 62
     7
370
    25
100
AcDbCircle
 10
55.93417765597471
 20
31.98004728219715
 30
0.0
 40
0.1293084941499291
100
AcDbArc
 50
297.2923405155738
 51
16.88028562890183
  0
LWPOLYLINE
  5
2A6
330
1F
100
AcDbEntity
  8
0
  6
SLD-Solid
 62
     7
370
    25
100
AcDbPolyline
 90
        3
 70
   128
 43
0.0
 10
55.96437978800191
 20
31.85557018499894
 10
55.96640977269866
 20
31.85572785251519
 10
55.99346957770597
 20
31.86513359860491
  0
ARC
  5
2A7
330
1F
100
AcDbEntity
  8
0
  6
SLD-Solid
 62
     7
370
    25
100
AcDbCircle
 10
55.93417765597538
 20
31.16350647031098
 30
0.0
 40
0.1293084941492459
100
AcDbArc
 50
297.2923405153994
 51
16.88028562960422
  0
LWPOLYLINE
  5
2A8
330
1F
100
AcDbEntity
  8
0
  6
SLD-Solid
 62
     7
370
    25
100
AcDbPolyline
 90
        3
 70
   128
 43
0.0
 10
55.9643797880009
 20
31.03902937311314
 10
55.96640977269866
 20
31.03918704062945
 10
55.99346957770597
 20
31.04859278671917
  0
ARC
  5
2A9
330
1F
100
AcDbEntity
  8
0
  6
SLD-Solid
 62
     7
370
    25
100
AcDbCircle
 10
54.13707739447708
 20
33.11646543944433
 30
0.0
 40
0.1257443089754664
100
AcDbArc
 50
54.3824225248086
 51
114.3071190460623
  0
ARC
  5
2AA
330
1F
100
AcDbEntity
  8
0
  6
SLD-Solid
 62
     7
370
    25
100
AcDbCircle
 10
59.58267208969351
 20
32.71716130619206
 30
0.0
 40
0.0397322030010505
100
AcDbArc
 50
294.3746582936069
 51
354.3052007487639
  0
ARC
  5
2AB
330
1F
100
AcDbEntity
  8
0
  6
SLD-Solid
 62
     7
370
    25
100
AcDbCircle
 10
59.58683039822716
 20
34.63208961034847
 30
0.0
 40
0.0344926100299527
100
AcDbArc
 50
290.783420799545
 51
69.21657920058708
  0
ARC
  5
2AC
330
1F
100
AcDbEntity
  8
0
  6
SLD-Solid
 62
     7
370
    25
100
AcDbCircle
 10
59.55922141050766
 20
34.63208961034846
 30
0.0
 40
0.0126618441882086
100
AcDbArc
 50
290.7834207995608
 51
69.21657920078626
  0
LINE
  5
2AD
330
1F
100
AcDbEntity
  8
0
  6
SLD-Solid
 62
     7
370
    25
100
AcDbLine
 10
58.15679551072753
 20
35.49694485921092
 30
0.0
 11
58.1214401716682
 21
35.47653465641538
 31
0.0
  0
LINE
  5
2AE
330
1F
100
AcDbEntity
  8
0
  6
SLD-Solid
 62
     7
370
    25
100
AcDbLine
 10
59.59906963334402
 20
34.66433773076552
 30
0.0
 11
58.15679551072753
 21
35.49694485921092
 31
0.0
  0
LINE
  5
2AF
330
1F
100
AcDbEntity
  8
0
  6
SLD-Solid
 62
     7
370
    25
100
AcDbLine
 10
59.56371429428469
 20
34.64392752796992
 30
0.0
 11
58.1214401716682
 21
35.47653465641538
 31
0.0
  0
LWPOLYLINE
  5
2B0
330
1F
100
AcDbEntity
  8
0
  6
SLD-Solid
 62
     7
370
    25
100
AcDbPolyline
 90
        3
 70
   128
 43
0.0
 10
58.1214401716682
 20
35.47653465641538
 10
58.08695274925784
 20
35.49252142090945
 10
58.06895358056142
 20
35.49762920269927
  0
LWPOLYLINE
  5
2B1
330
1F
100
AcDbEntity
  8
0
  6
SLD-Solid
 62
     7
370
    25
100
AcDbPolyline
 90
        3
 70
   128
 43
0.0
 10
59.26383844069375
 20
33.75307735719496
 10
59.23677863568643
 20
33.74367161110525
 10
59.23474865098856
 20
33.74351394358893
  0
ARC
  5
2B2
330
1F
100
AcDbEntity
  8
0
  6
SLD-Solid
 62
     7
370
    25
100
AcDbCircle
 10
59.20454651896324
 20
33.86799104078671
 30
0.0
 40
0.1293084941491569
100
AcDbArc
 50
297.2923405153782
 51
16.8802856296933
  0
LWPOLYLINE
  5
2B3
330
1F
100
AcDbEntity
  8
0
  6
SLD-Solid
 62
     7
370
    25
100
AcDbPolyline
 90
        3
 70
   128
 43
0.0
 10
59.26383844069375
 20
32.93653654530922
 10
59.23677863568643
 20
32.9271307992195
 10
59.23474865098937
 20
32.92697313170324
  0
ARC
  5
2B4
330
1F
100
AcDbEntity
  8
0
  6
SLD-Solid
 62
     7
370
    25
100
AcDbCircle
 10
59.20454651896279
 20
33.05145022890127
 30
0.0
 40
0.129308494149637
100
AcDbArc
 50
297.2923405154924
 51
16.88028562915826
  0
ARC
  5
2B5
330
1F
100
AcDbEntity
  8
0
  6
SLD-Solid
 62
     7
370
    25
100
AcDbCircle
 10
58.08210404885679
 20
35.39064591521728
 30
0.0
 40
0.1299164345668044
100
AcDbArc
 50
54.90602109937792
 51
108.506915763496
  0
LWPOLYLINE
  5
2B6
330
1F
100
AcDbEntity
  8
0
  6
SLD-Solid
 62
     7
370
    25
100
AcDbPolyline
 90
        3
 70
   128
 43
0.0
 10
55.54957731261197
 20
32.54554969417784
 10
55.60012841838355
 20
32.41697205435791
 10
55.6004152064909
 20
32.41619362129045
  0
LINE
  5
2B7
330
1F
100
AcDbEntity
  8
0
  6
SLD-Solid
 62
     7
370
    25
100
AcDbLine
 10
55.51422197355269
 20
32.52513949138225
 30
0.0
 11
55.54530733452948
 21
32.44800671861295
 31
0.0
  0
LINE
  5
2B8
330
1F
100
AcDbEntity
  8
0
  6
SLD-Solid
 62
     7
370
    25
100
AcDbLine
 10
53.99817537383376
 20
31.79076921385393
 30
0.0
 11
45.41865960575714
 21
37.84068413867715
 31
0.0
  0
LINE
  5
2B9
330
1F
100
AcDbEntity
  8
0
  6
SLD-Solid
 62
     7
370
    25
100
AcDbLine
 10
45.41865960575714
 20
37.84068413867715
 30
0.0
 11
45.40344130554728
 21
37.85066118337368
 31
0.0
  0
ARC
  5
2BA
330
1F
100
AcDbEntity
  8
0
  6
SLD-Solid
 62
     7
370
    25
100
AcDbCircle
 10
45.38266067393266
 20
38.36038480818185
 30
0.0
 40
0.0218588742780002
100
AcDbArc
 50
341.9289420877526
 51
0.7900562628860677
  0
LINE
  5
2BB
330
1F
100
AcDbEntity
  8
0
  6
SLD-Solid
 62
     7
370
    25
100
AcDbLine
 10
45.4045174701334
 20
38.36068621246329
 30
0.0
 11
45.40451747013341
 21
38.3613476740219
 31
0.0
  0
LINE
  5
2BC
330
1F
100
AcDbEntity
  8
0
  6
SLD-Solid
 62
     7
370
    25
100
AcDbLine
 10
55.51422197355269
 20
32.52513949138225
 30
0.0
 11
45.40451747013341
 21
38.3613476740219
 31
0.0
  0
ARC
  5
2BD
330
1F
100
AcDbEntity
  8
0
  6
SLD-Solid
 62
     7
370
    25
100
AcDbCircle
 10
45.52579954214141
 20
38.35582866669336
 30
0.0
 40
0.121407579798159
100
AcDbArc
 50
122.6054783400459
 51
177.394521514368
  0
ARC
  5
2BE
330
1F
100
AcDbEntity
  8
0
  6
SLD-Solid
 62
     7
370
    25
100
AcDbCircle
 10
55.6353459133361
 20
32.51965404290238
 30
0.0
 40
0.1216926292511875
100
AcDbArc
 50
122.6485154089206
 51
176.8222102714671
  0
LINE
  5
2BF
330
1F
100
AcDbEntity
  8
0
  6
SLD-Solid
 62
     7
370
    25
100
AcDbLine
 10
55.51422197355269
 20
32.52513949138225
 30
0.0
 11
55.51384040744015
 21
32.52640000844014
 31
0.0
  0
ARC
  5
2C0
330
1F
100
AcDbEntity
  8
0
  6
SLD-Solid
 62
     7
370
    25
100
AcDbCircle
 10
55.5937945087366
 20
32.54367807417065
 30
0.0
 40
0.044671977826293
100
AcDbArc
 50
122.648515408807
 51
176.8222102715074
  0
LINE
  5
2C1
330
1F
100
AcDbEntity
  8
0
  6
SLD-Solid
 62
     7
370
    25
100
AcDbLine
 10
55.54957731261197
 20
32.54554969417784
 30
0.0
 11
55.54919122176223
 21
32.54615444126675
 31
0.0
  0
LINE
  5
2C2
330
1F
100
AcDbEntity
  8
0
  6
SLD-Solid
 62
     7
370
    25
100
AcDbLine
 10
55.92580238404312
 20
32.82746978685017
 30
0.0
 11
55.90021328132338
 21
32.84224206141357
 31
0.0
  0
LINE
  5
2C3
330
1F
100
AcDbEntity
  8
0
  6
SLD-Solid
 62
     7
370
    25
100
AcDbLine
 10
55.90021328132338
 20
32.84224206141357
 30
0.0
 11
55.88331342925301
 21
32.83248598447729
 31
0.0
  0
LINE
  5
2C4
330
1F
100
AcDbEntity
  8
0
  6
SLD-Solid
 62
     7
370
    25
100
AcDbLine
 10
55.88331342925301
 20
32.83248598447729
 30
0.0
 11
55.88749398123337
 21
32.8300726031893
 31
0.0
  0
ARC
  5
2C5
330
1F
100
AcDbEntity
  8
0
  6
SLD-Solid
 62
     7
370
    25
100
AcDbCircle
 10
55.8828461704295
 20
32.81782648151196
 30
0.0
 40
0.0130984595050271
100
AcDbArc
 50
290.7834207994285
 51
69.21657920056133
  0
LINE
  5
2C6
330
1F
100
AcDbEntity
  8
0
  6
SLD-Solid
 62
     7
370
    25
100
AcDbLine
 10
55.88749398123337
 20
32.80558035983462
 30
0.0
 11
55.56969469406901
 21
32.62211873644515
 31
0.0
  0
LINE
  5
2C7
330
1F
100
AcDbEntity
  8
0
  6
SLD-Solid
 62
     7
370
    25
100
AcDbLine
 10
45.4603789058471
 20
38.45810251857787
 30
0.0
 11
45.46095171733035
 21
38.45843319560849
 31
0.0
  0
ARC
  5
2C8
330
1F
100
AcDbEntity
  8
0
  6
SLD-Solid
 62
     7
370
    25
100
AcDbCircle
 10
45.4502870954004
 20
38.47750984347567
 30
0.0
 40
0.0218552660646594
100
AcDbArc
 50
299.2069655992235
 51
318.0691446998662
  0
ARC
  5
2C9
330
1F
100
AcDbEntity
  8
0
  6
SLD-Solid
 62
     7
370
    25
100
AcDbCircle
 10
49.15956457514849
 20
40.63408550384955
 30
0.0
 40
0.0350663617073945
100
AcDbArc
 50
285.7578501264324
 51
299.5047345400415
  0
LINE
  5
2CA
330
1F
100
AcDbEntity
  8
0
  6
SLD-Solid
 62
     7
370
    25
100
AcDbLine
 10
49.17740741123046
 20
40.60389740020739
 30
0.0
 11
49.17683459974721
 21
40.60356672317677
 31
0.0
  0
LINE
  5
2CB
330
1F
100
AcDbEntity
  8
0
  6
SLD-Solid
 62
     7
370
    25
100
AcDbLine
 10
58.96892391228808
 20
34.58445199468514
 30
0.0
 11
59.28672319945237
 21
34.76791361807466
 31
0.0
  0
ARC
  5
2CC
330
1F
100
AcDbEntity
  8
0
  6
SLD-Solid
 62
     7
370
    25
100
AcDbCircle
 10
58.94771070885248
 20
34.62539332723377
 30
0.0
 40
0.0461106572373276
100
AcDbArc
 50
242.6096722365968
 51
297.3903277634324
  0
LINE
  5
2CD
330
1F
100
AcDbEntity
  8
0
  6
SLD-Solid
 62
     7
370
    25
100
AcDbLine
 10
58.92231695343654
 20
34.58686537597313
 30
0.0
 11
58.92649750541689
 21
34.58445199468513
 31
0.0
  0
LINE
  5
2CE
330
1F
100
AcDbEntity
  8
0
  6
SLD-Solid
 62
     7
370
    25
100
AcDbLine
 10
58.90541710136618
 20
34.57710929903685
 30
0.0
 11
58.92231695343654
 21
34.58686537597313
 31
0.0
  0
LINE
  5
2CF
330
1F
100
AcDbEntity
  8
0
  6
SLD-Solid
 62
     7
370
    25
100
AcDbLine
 10
58.93100620408592
 20
34.56233702447345
 30
0.0
 11
58.90541710136618
 21
34.57710929903685
 31
0.0
  0
LINE
  5
2D0
330
1F
100
AcDbEntity
  8
0
  6
SLD-Solid
 62
     7
370
    25
100
AcDbLine
 10
58.93100620408592
 20
34.56233702447345
 30
0.0
 11
55.92580238404312
 21
32.82746978685017
 31
0.0
  0
LINE
  5
2D1
330
1F
100
AcDbEntity
  8
0
  6
SLD-Solid
 62
     7
370
    25
100
AcDbLine
 10
55.88749398123341
 20
32.76475331924036
 30
0.0
 11
55.56969469406906
 21
32.58129169585087
 31
0.0
  0
ARC
  5
2D2
330
1F
100
AcDbEntity
  8
0
  6
SLD-Solid
 62
     7
370
    25
100
AcDbCircle
 10
56.21900879872006
 20
32.89786977199716
 30
0.0
 40
0.2758086496612243
100
AcDbArc
 50
208.9738391725967
 51
250.8881760108389
  0
LINE
  5
2D3
330
1F
100
AcDbEntity
  8
0
  6
SLD-Solid
 62
     7
370
    25
100
AcDbLine
 10
55.97772009034127
 20
32.76426524199595
 30
0.0
 11
55.96530238404315
 21
32.78577334015463
 31
0.0
  0
LINE
  5
2D4
330
1F
100
AcDbEntity
  8
0
  6
SLD-Solid
 62
     7
370
    25
100
AcDbLine
 10
58.98292391038404
 20
34.49913247961921
 30
0.0
 11
58.97050620408597
 21
34.5206405777779
 31
0.0
  0
ARC
  5
2D5
330
1F
100
AcDbEntity
  8
0
  6
SLD-Solid
 62
     7
370
    25
100
AcDbCircle
 10
58.74659692158108
 20
34.35698241501081
 30
0.0
 40
0.2757844928650757
100
AcDbArc
 50
349.1099371176832
 51
31.02679836004428
  0
ARC
  5
2D6
330
1F
100
AcDbEntity
  8
0
  6
SLD-Solid
 62
     7
370
    25
100
AcDbCircle
 10
56.19400959373843
 20
32.88343358242278
 30
0.0
 40
0.2758096817846185
100
AcDbArc
 50
208.9738854558057
 51
250.8869299382793
  0
ARC
  5
2D7
330
1F
100
AcDbEntity
  8
0
  6
SLD-Solid
 62
     7
370
    25
100
AcDbCircle
 10
58.87068919493271
 20
34.4656394875223
 30
0.0
 40
0.1139673428908835
100
AcDbArc
 50
28.85560887930439
 51
58.04532835047874
  0
ARC
  5
2D8
330
1F
100
AcDbEntity
  8
0
  6
SLD-Solid
 62
     7
370
    25
100
AcDbCircle
 10
55.86548537489003
 20
32.73077224989919
 30
0.0
 40
0.1139673428906763
100
AcDbArc
 50
28.85560887926378
 51
58.0453283504849
  0
ARC
  5
2D9
330
1F
100
AcDbEntity
  8
0
  6
SLD-Solid
 62
     7
370
    25
100
AcDbCircle
 10
55.90366069713883
 20
32.7511461820587
 30
0.0
 40
0.0418361132130583
100
AcDbArc
 50
28.85560887924421
 51
58.04532835044819
  0
ARC
  5
2DA
330
1F
100
AcDbEntity
  8
0
  6
SLD-Solid
 62
     7
370
    25
100
AcDbCircle
 10
55.88126706592317
 20
32.77849663222462
 30
0.0
 40
0.0150881783547381
100
AcDbArc
 50
294.3746582934322
 51
354.3052007489404
  0
LINE
  5
2DB
330
1F
100
AcDbEntity
  8
0
  6
SLD-Solid
 62
     7
370
    25
100
AcDbLine
 10
55.95272009034127
 20
32.74982835753809
 30
0.0
 11
55.94030238404316
 21
32.77133645569678
 31
0.0
  0
LINE
  5
2DC
330
1F
100
AcDbEntity
  8
0
  6
SLD-Solid
 62
     7
370
    25
100
AcDbLine
 10
55.90021328132338
 20
32.84224206141357
 30
0.0
 11
55.90021328132339
 21
32.80141502081928
 31
0.0
  0
LINE
  5
2DD
330
1F
100
AcDbEntity
  8
0
  6
SLD-Solid
 62
     7
370
    25
100
AcDbLine
 10
55.92580238404316
 20
32.78664274625591
 30
0.0
 11
55.90021328132339
 21
32.80141502081928
 31
0.0
  0
LINE
  5
2DE
330
1F
100
AcDbEntity
  8
0
  6
SLD-Solid
 62
     7
370
    25
100
AcDbLine
 10
55.90021328132339
 20
32.80141502081928
 30
0.0
 11
55.89628077779777
 21
32.79914483485621
 31
0.0
  0
ARC
  5
2DF
330
1F
100
AcDbEntity
  8
0
  6
SLD-Solid
 62
     7
370
    25
100
AcDbCircle
 10
58.95022971680531
 20
34.57751059201016
 30
0.0
 40
0.0387002506703346
100
AcDbArc
 50
280.6395487009695
 51
298.8848591392634
  0
LINE
  5
2E0
330
1F
100
AcDbEntity
  8
0
  6
SLD-Solid
 62
     7
370
    25
100
AcDbLine
 10
58.92231695343654
 20
34.58686537597313
 30
0.0
 11
58.92231695343654
 21
34.56735322210056
 31
0.0
  0
LINE
  5
2E1
330
1F
100
AcDbEntity
  8
0
  6
SLD-Solid
 62
     7
370
    25
100
AcDbLine
 10
58.96892391228812
 20
34.54362495409087
 30
0.0
 11
59.28672319945241
 21
34.72708657748039
 31
0.0
  0
LWPOLYLINE
  5
2E2
330
1F
100
AcDbEntity
  8
0
  6
SLD-Solid
 62
     7
370
    25
100
AcDbPolyline
 90
        3
 70
   128
 43
0.0
 10
59.34297335036347
 20
34.73543061384574
 10
59.39352445613503
 20
34.60685297402582
 10
59.41853222444085
 20
34.53643986779107
  0
LWPOLYLINE
  5
2E3
330
1F
100
AcDbEntity
  8
0
  6
SLD-Solid
 62
     7
370
    25
100
AcDbPolyline
 90
        3
 70
   128
 43
0.0
 10
59.3076180113041
 20
34.7150204110502
 10
59.35816911707568
 20
34.58644277123027
 10
59.38317688538152
 20
34.51602966499549
  0
LWPOLYLINE
  5
2E4
330
1F
100
AcDbEntity
  8
0
  6
SLD-Solid
 62
     7
370
    25
100
AcDbPolyline
 90
        9
 70
   128
 43
0.0
 10
59.16706800277486
 20
34.65801110275123
 10
59.1862335913182
 20
34.64193360647972
 10
59.21264205564299
 20
34.61018497447026
 10
59.23297917906205
 20
34.57293357087198
 10
59.24504111868996
 20
34.53421616327984
 10
59.24752077620774
 20
34.49822838356891
 10
59.24014944224749
 20
34.46887006607883
 10
59.22372591522185
 20
34.44932264005086
 10
59.20317180122241
 20
34.4419479376597
  0
LINE
  5
2E5
330
1F
100
AcDbEntity
  8
0
  6
SLD-Solid
 62
     7
370
    25
100
AcDbLine
 10
59.32566319589547
 20
33.01425256692727
 30
0.0
 11
59.26486610317703
 21
33.04934998148416
 31
0.0
  0
LINE
  5
2E6
330
1F
100
AcDbEntity
  8
0
  6
SLD-Solid
 62
     7
370
    25
100
AcDbLine
 10
59.34297335036347
 20
34.73543061384574
 30
0.0
 11
59.34257748608136
 21
34.73668287674604
 31
0.0
  0
ARC
  5
2E7
330
1F
100
AcDbEntity
  8
0
  6
SLD-Solid
 62
     7
370
    25
100
AcDbCircle
 10
59.30854001790172
 20
34.74137030199839
 30
0.0
 40
0.0343587135320353
100
AcDbArc
 50
352.15890763253
 51
129.4179021791368
  0
ARC
  5
2E8
330
1F
100
AcDbEntity
  8
0
  6
SLD-Solid
 62
     7
370
    25
100
AcDbCircle
 10
49.20054809556367
 20
40.57159577520695
 30
0.0
 40
0.0397352016363118
100
AcDbArc
 50
65.69288095397256
 51
125.6175774751512
  0
ARC
  5
2E9
330
1F
100
AcDbEntity
  8
0
  6
SLD-Solid
 62
     7
370
    25
100
AcDbCircle
 10
59.2947319049591
 20
34.71734282854098
 30
0.0
 40
0.0126126923092313
100
AcDbArc
 50
352.158907632523
 51
129.4179021789711
  0
LINE
  5
2EA
330
1F
100
AcDbEntity
  8
0
  6
SLD-Solid
 62
     7
370
    25
100
AcDbLine
 10
59.30761801130411
 20
34.7150204110502
 30
0.0
 11
59.30722667175922
 21
34.71562212813188
 31
0.0
  0
SPLINE
  5
2EB
330
1F
100
AcDbEntity
  8
0
  6
SLD-Solid
 62
     7
370
    25
100
AcDbSpline
210
0.0
220
0.0
230
1.0
 70
    12
 71
     3
 72
    11
 73
     7
 74
     0
 42
0.00000001
 43
0.00000001
 40
0.0
 40
0.0
 40
0.0
 40
0.0
 40
0.2848777781428909
 40
0.4869703007518454
 40
0.692293286349411
 40
1.0
 40
1.0
 40
1.0
 40
1.0
 10
45.40344130554727
 20
38.35360426731851
 30
0.0
 41
1.0
 10
45.40094409368064
 20
38.35219937628226
 30
0.0
 41
1.0
 10
45.39667535772775
 20
38.34979785442646
 30
0.0
 41
1.0
 10
45.39127507186559
 20
38.34962429512431
 30
0.0
 41
1.0
 10
45.38663395623977
 20
38.35474851271582
 30
0.0
 41
1.0
 10
45.38616996546112
 20
38.35945773227018
 30
0.0
 41
1.0
 10
45.38589167147956
 20
38.36228224413578
 30
0.0
 41
1.0
  0
SPLINE
  5
2EC
330
1F
100
AcDbEntity
  8
0
  6
SLD-Solid
 62
     7
370
    25
100
AcDbSpline
210
0.0
220
0.0
230
1.0
 70
    12
 71
     3
 72
    11
 73
     7
 74
     0
 42
0.00000001
 43
0.00000001
 40
0.0
 40
0.0
 40
0.0
 40
0.0
 40
0.1850148600244378
 40
0.4566765733496688
 40
0.7283382866748866
 40
1.0
 40
1.0
 40
1.0
 40
1.0
 10
45.38616403022094
 20
37.87668226177045
 30
0.0
 41
1.0
 10
45.38616770871329
 20
37.87490811071319
 30
0.0
 41
1.0
 10
45.38617678842336
 20
37.87052893152007
 30
0.0
 41
1.0
 10
45.38934474818704
 20
37.86374428098073
 30
0.0
 41
1.0
 10
45.39493214186329
 20
37.85662378295001
 30
0.0
 41
1.0
 10
45.40060491765261
 20
37.85264871656579
 30
0.0
 41
1.0
 10
45.40344130554728
 20
37.85066118337368
 30
0.0
 41
1.0
  0
ARC
  5
2ED
330
1F
100
AcDbEntity
  8
0
  6
SLD-Solid
 62
     7
370
    25
100
AcDbCircle
 10
45.4214527316692
 20
38.35437759155671
 30
0.0
 40
0.0364290067694359
100
AcDbArc
 50
110.3526321009057
 51
167.4678225599616
  0
SPLINE
  5
2EE
330
1F
100
AcDbEntity
  8
0
  6
SLD-Solid
 62
     7
370
    25
100
AcDbSpline
210
0.0
220
0.0
230
1.0
 70
    12
 71
     3
 72
    11
 73
     7
 74
     0
 42
0.00000001
 43
0.00000001
 40
0.0
 40
0.0
 40
0.0
 40
0.0
 40
0.2970434742300762
 40
0.4989871773306508
 40
0.699361191178129
 40
1.0
 40
1.0
 40
1.0
 40
1.0
 10
45.45025301622652
 20
38.47375936295386
 30
0.0
 41
1.0
 10
45.4528244372308
 20
38.47495149927533
 30
0.0
 41
1.0
 10
45.45714402752643
 20
38.47695410424615
 30
0.0
 41
1.0
 10
45.46325699184538
 20
38.47545801563673
 30
0.0
 41
1.0
 10
45.46537731504287
 20
38.47077615660908
 30
0.0
 41
1.0
 10
45.46610793963782
 20
38.46585714161561
 30
0.0
 41
1.0
 10
45.46654635976996
 20
38.46290542712589
 30
0.0
 41
1.0
  0
ARC
  5
2EF
330
1F
100
AcDbEntity
  8
0
  6
SLD-Solid
 62
     7
370
    25
100
AcDbCircle
 10
45.47488357028688
 20
38.44691026479749
 30
0.0
 40
0.0364353985175334
100
AcDbArc
 50
132.5323335962152
 51
189.6382022489487
  0
SPLINE
  5
2F0
330
1F
100
AcDbEntity
  8
0
  6
SLD-Solid
 62
     7
370
    25
100
AcDbSpline
210
0.0
220
0.0
230
1.0
 70
    12
 71
     3
 72
    11
 73
     7
 74
     0
 42
0.00000001
 43
0.00000001
 40
0.0
 40
0.0
 40
0.0
 40
0.0
 40
0.2970434742305255
 40
0.4989871773311054
 40
0.6993611911785889
 40
1.0
 40
1.0
 40
1.0
 40
1.0
 10
49.12370949177215
 20
40.59440064716748
 30
0.0
 41
1.0
 10
49.1267998432896
 20
40.59589235569761
 30
0.0
 41
1.0
 10
49.13199115673166
 20
40.59839819572922
 30
0.0
 41
1.0
 10
49.14214476861171
 20
40.59923472330568
 30
0.0
 41
1.0
 10
49.15457665400728
 20
40.6005056024274
 30
0.0
 41
1.0
 10
49.16364566082021
 20
40.60040023302702
 30
0.0
 41
1.0
 10
49.16908762813535
 20
40.60033700484288
 30
0.0
 41
1.0
  0
LWPOLYLINE
  5
2F1
330
1F
100
AcDbEntity
  8
0
  6
SLD-Solid
 62
     8
370
    25
100
AcDbPolyline
 90
        5
 70
   128
 43
0.0
 10
55.23371210369312
 20
32.26542776153864
 10
55.24583898570155
 20
32.22586271103309
 10
55.24758954989998
 20
32.18946211274721
 10
55.23875265241053
 20
32.16061641604989
 10
55.22384805487737
 20
32.14477832683021
  0
LWPOLYLINE
  5
2F2
330
1F
100
AcDbEntity
  8
0
  6
SLD-Solid
 62
     8
370
    25
100
AcDbPolyline
 90
        7
 70
   128
 43
0.0
 10
55.09731547317719
 20
32.36035484716506
 10
55.09922663444475
 20
32.36139264105498
 10
55.12489242888559
 20
32.3660217618752
 10
55.15476984524953
 20
32.35691008485623
 10
55.18525522617935
 20
32.3351566127206
 10
55.21267158481864
 20
32.30338513525493
 10
55.23371210369312
 20
32.26542776153864
  0
ARC
  5
2F3
330
1F
100
AcDbEntity
  8
0
  6
SLD-Solid
 62
     8
370
    25
100
AcDbCircle
 10
59.34811370022106
 20
34.70004871832418
 30
0.0
 40
0.1103798992217536
100
AcDbArc
 50
28.9284588063069
 51
91.07691772639447
  0
INSERT
  5
2F9
330
1F
100
AcDbEntity
  8
NOTES
100
AcDbBlockReference
  2
SW_NOTE_0_2
 10
48.15373924269704
 20
32.05046613659096
 30
0.0
  0
LINE
  5
2FA
330
1F
100
AcDbEntity
  8
0
  6
SLD-Solid
 62
     7
370
    25
100
AcDbLine
 10
21.15008426629424
 20
31.65966245284884
 30
0.0
 11
21.15008426629424
 21
31.79199851486912
 31
0.0
  0
LINE
  5
2FB
330
1F
100
AcDbEntity
  8
0
  6
SLD-Solid
 62
     7
370
    25
100
AcDbLine
 10
21.15008426629418
 20
31.30053558554805
 30
0.0
 11
21.15008426629417
 21
31.65966245284884
 31
0.0
  0
LINE
  5
2FC
330
1F
100
AcDbEntity
  8
0
  6
SLD-Solid
 62
     7
370
    25
100
AcDbLine
 10
21.38609461812158
 20
31.30966245284886
 30
0.0
 11
21.15008426629418
 21
31.30966245284884
 31
0.0
  0
LINE
  5
2FD
330
1F
100
AcDbEntity
  8
0
  6
SLD-Solid
 62
     7
370
    25
100
AcDbLine
 10
21.14008426629418
 20
31.15199851486911
 30
0.0
 11
21.14008426629418
 21
31.18199851486911
 31
0.0
  0
LINE
  5
2FE
330
1F
100
AcDbEntity
  8
0
  6
SLD-Solid
 62
     7
370
    25
100
AcDbLine
 10
20.61008426629418
 20
31.18199851486911
 30
0.0
 11
20.61008426629418
 21
31.15199851486911
 31
0.0
  0
LINE
  5
2FF
330
1F
100
AcDbEntity
  8
0
  6
SLD-Solid
 62
     7
370
    25
100
AcDbLine
 10
21.00008426629427
 20
31.18199851486933
 30
0.0
 11
21.00008426629427
 21
31.20966245284887
 31
0.0
  0
LINE
  5
300
330
1F
100
AcDbEntity
  8
0
  6
SLD-Solid
 62
     7
370
    25
100
AcDbLine
 10
21.00008426629423
 20
36.62433457688933
 30
0.0
 11
21.00008426629423
 21
36.65317551322217
 31
0.0
  0
LINE
  5
301
330
1F
100
AcDbEntity
  8
0
  6
SLD-Solid
 62
     7
370
    25
100
AcDbLine
 10
21.00008426629423
 20
36.70317551322217
 30
0.0
 11
21.00008426629423
 21
36.91199851486907
 31
0.0
  0
LINE
  5
302
330
1F
100
AcDbEntity
  8
0
  6
SLD-Solid
 62
     7
370
    25
100
AcDbLine
 10
20.75008426629423
 20
36.91199851486907
 30
0.0
 11
20.75008426629423
 21
36.70317551322217
 31
0.0
  0
LINE
  5
303
330
1F
100
AcDbEntity
  8
0
  6
SLD-Solid
 62
     7
370
    25
100
AcDbLine
 10
20.75008426629423
 20
36.65317551322217
 30
0.0
 11
20.75008426629423
 21
36.62433457688932
 31
0.0
  0
LINE
  5
304
330
1F
100
AcDbEntity
  8
0
  6
SLD-Solid
 62
     7
370
    25
100
AcDbLine
 10
20.75008426629427
 20
31.20966245284887
 30
0.0
 11
20.75008426629427
 21
31.18199851486933
 31
0.0
  0
ARC
  5
305
330
1F
100
AcDbEntity
  8
0
  6
SLD-Solid
 62
     7
370
    25
100
AcDbCircle
 10
20.77008426629423
 20
36.91199851486907
 30
0.0
 40
0.0200000000000031
100
AcDbArc
 50
90.00000000001017
 51
180.0
  0
ARC
  5
306
330
1F
100
AcDbEntity
  8
0
  6
SLD-Solid
 62
     7
370
    25
100
AcDbCircle
 10
20.98008426629423
 20
36.91199851486907
 30
0.0
 40
0.0200000000000031
100
AcDbArc
 50
0.0
 51
89.99999999997965
  0
LINE
  5
307
330
1F
100
AcDbEntity
  8
0
  6
SLD-Solid
 62
     7
370
    25
100
AcDbLine
 10
20.75008426629419
 20
31.15199851486914
 30
0.0
 11
20.75008426629419
 21
31.12199851486911
 31
0.0
  0
LINE
  5
308
330
1F
100
AcDbEntity
  8
0
  6
SLD-Solid
 62
     7
370
    25
100
AcDbLine
 10
20.75008426629419
 20
31.0719985148691
 30
0.0
 11
20.75008426629419
 21
30.92199851486915
 31
0.0
  0
LINE
  5
309
330
1F
100
AcDbEntity
  8
0
  6
SLD-Solid
 62
     7
370
    25
100
AcDbLine
 10
21.00008426629419
 20
30.92199851486915
 30
0.0
 11
21.00008426629419
 21
31.0719985148691
 31
0.0
  0
LINE
  5
30A
330
1F
100
AcDbEntity
  8
0
  6
SLD-Solid
 62
     7
370
    25
100
AcDbLine
 10
21.00008426629419
 20
31.12199851486911
 30
0.0
 11
21.00008426629419
 21
31.15199851486914
 31
0.0
  0
ARC
  5
30B
330
1F
100
AcDbEntity
  8
0
  6
SLD-Solid
 62
     7
370
    25
100
AcDbCircle
 10
20.9800842662942
 20
30.92199851486915
 30
0.0
 40
0.019999999999996
100
AcDbArc
 50
269.9999999999804
 51
0.0
  0
ARC
  5
30C
330
1F
100
AcDbEntity
  8
0
  6
SLD-Solid
 62
     7
370
    25
100
AcDbCircle
 10
20.77008426629419
 20
30.92199851486915
 30
0.0
 40
0.0200000000000031
100
AcDbArc
 50
180.0
 51
270.0000000000008
  0
LINE
  5
30D
330
1F
100
AcDbEntity
  8
0
  6
SLD-Solid
 62
     7
370
    25
100
AcDbLine
 10
6.729830843953794
 20
36.51452449912102
 30
0.0
 11
6.729830843953824
 21
31.31947253061707
 31
0.0
  0
LINE
  5
30E
330
1F
100
AcDbEntity
  8
0
  6
SLD-Solid
 62
     7
370
    25
100
AcDbLine
 10
21.15008426629424
 20
31.65966245284884
 30
0.0
 11
21.08808426452278
 21
31.65966245284884
 31
0.0
  0
SPLINE
  5
30F
330
1F
100
AcDbEntity
  8
0
  6
SLD-Solid
 62
     7
370
    25
100
AcDbSpline
210
0.0
220
0.0
230
1.0
 70
    12
 71
     3
 72
    11
 73
     7
 74
     0
 42
0.00000001
 43
0.00000001
 40
0.0
 40
0.0
 40
0.0
 40
0.0
 40
0.0075064930492346
 40
0.331039301773712
 40
0.9886992859791075
 40
1.0
 40
1.0
 40
1.0
 40
1.0
 10
21.15007042864026
 20
31.30053558554805
 30
0.0
 41
1.0
 10
21.15007502563329
 20
31.30050355066365
 30
0.0
 41
1.0
 10
21.15027775483747
 20
31.29909079963636
 30
0.0
 41
1.0
 10
21.14923216543385
 20
31.29392341850046
 30
0.0
 41
1.0
 10
21.14694176005501
 20
31.28847473294951
 30
0.0
 41
1.0
 10
21.14443365532016
 20
31.28472578363082
 30
0.0
 41
1.0
 10
21.1443912860533
 20
31.28466245284884
 30
0.0
 41
1.0
  0
ARC
  5
310
330
1F
100
AcDbEntity
  8
0
  6
SLD-Solid
 62
     7
370
    25
100
AcDbCircle
 10
21.11964732274594
 20
31.2844063595341
 30
0.0
 40
0.0247452885200777
100
AcDbArc
 50
270.6055101898412
 51
0.5929746191594198
  0
LWPOLYLINE
  5
311
330
1F
100
AcDbEntity
  8
0
  6
SLD-Solid
 62
     7
370
    25
100
AcDbPolyline
 90
        3
 70
   128
 43
0.0
 10
21.38609461812159
 20
31.25966245284886
 10
21.39546364854717
 20
31.26156546453608
 10
21.40096789115834
 20
31.26480460212077
  0
LWPOLYLINE
  5
312
330
1F
100
AcDbEntity
  8
0
  6
SLD-Solid
 62
     7
370
    25
100
AcDbPolyline
 90
        3
 70
   128
 43
0.0
 10
21.40096789115834
 20
31.30452030357694
 10
21.39546364854717
 20
31.30775944116164
 10
21.38609461812159
 20
31.30966245284886
  0
LINE
  5
313
330
1F
100
AcDbEntity
  8
0
  6
SLD-Solid
 62
     7
370
    25
100
AcDbLine
 10
21.14008426629418
 20
31.15199851486911
 30
0.0
 11
20.61008426629418
 21
31.15199851486911
 31
0.0
  0
LINE
  5
314
330
1F
100
AcDbEntity
  8
0
  6
SLD-Solid
 62
     7
370
    25
100
AcDbLine
 10
21.14008426629418
 20
31.18199851486911
 30
0.0
 11
20.61008426629418
 21
31.18199851486911
 31
0.0
  0
LINE
  5
315
330
1F
100
AcDbEntity
  8
0
  6
SLD-Solid
 62
     7
370
    25
100
AcDbLine
 10
20.77008426629423
 20
36.93199851486907
 30
0.0
 11
20.98008426629423
 21
36.93199851486907
 31
0.0
  0
LINE
  5
316
330
1F
100
AcDbEntity
  8
0
  6
SLD-Solid
 62
     7
370
    25
100
AcDbLine
 10
20.96287501844315
 20
30.90199851486915
 30
0.0
 11
20.77008426629419
 21
30.90199851486915
 31
0.0
  0
LINE
  5
317
330
1F
100
AcDbEntity
  8
0
  6
SLD-Solid
 62
     7
370
    25
100
AcDbLine
 10
20.9800842662942
 20
30.90199851486915
 30
0.0
 11
20.96287501844315
 21
30.90199851486915
 31
0.0
  0
LINE
  5
318
330
1F
100
AcDbEntity
  8
0
  6
SLD-Solid
 62
     7
370
    25
100
AcDbLine
 10
21.37196789115833
 20
36.65317551322217
 30
0.0
 11
19.33228426629433
 21
36.65317551322216
 31
0.0
  0
LINE
  5
319
330
1F
100
AcDbEntity
  8
0
  6
SLD-Solid
 62
     7
370
    25
100
AcDbLine
 10
21.37196789115833
 20
36.70317551322218
 30
0.0
 11
19.33228426629433
 21
36.70317551322216
 31
0.0
  0
ARC
  5
31A
330
1F
100
AcDbEntity
  8
0
  6
SLD-Solid
 62
     7
370
    25
100
AcDbCircle
 10
21.37196789115842
 20
36.62417551322217
 30
0.0
 40
0.0790000000000077
100
AcDbArc
 50
0.0000000000008052
 51
90.00000000006958
  0
ARC
  5
31B
330
1F
100
AcDbEntity
  8
0
  6
SLD-Solid
 62
     7
370
    25
100
AcDbCircle
 10
21.37196789115842
 20
36.62417551322217
 30
0.0
 40
0.0290000000000035
100
AcDbArc
 50
0.0
 51
90.00000000018952
  0
LINE
  5
31C
330
1F
100
AcDbEntity
  8
0
  6
SLD-Solid
 62
     7
370
    25
100
AcDbLine
 10
19.08228426629443
 20
36.70317551322216
 30
0.0
 11
19.08228426629443
 21
36.65317551322217
 31
0.0
  0
LINE
  5
31D
330
1F
100
AcDbEntity
  8
0
  6
SLD-Solid
 62
     7
370
    25
100
AcDbLine
 10
19.33228426629433
 20
36.65317551322216
 30
0.0
 11
19.08228426629443
 21
36.65317551322217
 31
0.0
  0
LINE
  5
31E
330
1F
100
AcDbEntity
  8
0
  6
SLD-Solid
 62
     7
370
    25
100
AcDbLine
 10
19.33228426629433
 20
36.70317551322216
 30
0.0
 11
19.08228426629443
 21
36.70317551322216
 31
0.0
  0
LINE
  5
31F
330
1F
100
AcDbEntity
  8
0
  6
SLD-Solid
 62
     7
370
    25
100
AcDbLine
 10
21.45096789115834
 20
31.15099851486911
 30
0.0
 11
21.45096789115842
 21
36.62417551322217
 31
0.0
  0
LINE
  5
320
330
1F
100
AcDbEntity
  8
0
  6
SLD-Solid
 62
     7
370
    25
100
AcDbLine
 10
21.40096789115834
 20
31.15099851486911
 30
0.0
 11
21.40096789115842
 21
36.62417551322217
 31
0.0
  0
LINE
  5
321
330
1F
100
AcDbEntity
  8
0
  6
SLD-Solid
 62
     7
370
    25
100
AcDbLine
 10
19.33228426629436
 20
31.0719985148691
 30
0.0
 11
19.08228426629445
 21
31.07199851486911
 31
0.0
  0
LINE
  5
322
330
1F
100
AcDbEntity
  8
0
  6
SLD-Solid
 62
     7
370
    25
100
AcDbLine
 10
19.08228426629445
 20
31.07199851486911
 30
0.0
 11
19.08228426629435
 21
31.12199851486911
 31
0.0
  0
LINE
  5
323
330
1F
100
AcDbEntity
  8
0
  6
SLD-Solid
 62
     7
370
    25
100
AcDbLine
 10
19.33228426629436
 20
31.12199851486911
 30
0.0
 11
19.08228426629435
 21
31.12199851486911
 31
0.0
  0
LINE
  5
324
330
1F
100
AcDbEntity
  8
0
  6
SLD-Solid
 62
     7
370
    25
100
AcDbLine
 10
21.37196789115835
 20
31.0719985148691
 30
0.0
 11
19.33228426629436
 21
31.0719985148691
 31
0.0
  0
LINE
  5
325
330
1F
100
AcDbEntity
  8
0
  6
SLD-Solid
 62
     7
370
    25
100
AcDbLine
 10
21.37196789115835
 20
31.12199851486911
 30
0.0
 11
19.33228426629436
 21
31.12199851486911
 31
0.0
  0
ARC
  5
326
330
1F
100
AcDbEntity
  8
0
  6
SLD-Solid
 62
     7
370
    25
100
AcDbCircle
 10
21.37196789115835
 20
31.15099851486911
 30
0.0
 40
0.0290000000000035
100
AcDbArc
 50
270.0000000000008
 51
0.0
  0
ARC
  5
327
330
1F
100
AcDbEntity
  8
0
  6
SLD-Solid
 62
     7
370
    25
100
AcDbCircle
 10
21.37196789115835
 20
31.15099851486911
 30
0.0
 40
0.0790000000000042
100
AcDbArc
 50
270.0000000000008
 51
0.0
  0
LINE
  5
328
330
1F
100
AcDbEntity
  8
0
  6
SLD-Solid
 62
     7
370
    25
100
AcDbLine
 10
21.08836052732918
 20
31.79199851486907
 30
0.0
 11
21.05217207121396
 21
31.79199851486908
 31
0.0
  0
LINE
  5
329
330
1F
100
AcDbEntity
  8
0
  6
SLD-Solid
 62
     7
370
    25
100
AcDbLine
 10
21.05217207121396
 20
31.79199851486908
 30
0.0
 11
21.05217207121396
 21
31.76809851486908
 31
0.0
  0
LINE
  5
32A
330
1F
100
AcDbEntity
  8
0
  6
SLD-Solid
 62
     7
370
    25
100
AcDbLine
 10
21.05217207121396
 20
31.76809851486908
 30
0.0
 11
21.05808426452278
 21
31.76809851486908
 31
0.0
  0
ARC
  5
32B
330
1F
100
AcDbEntity
  8
0
  6
SLD-Solid
 62
     7
370
    25
100
AcDbCircle
 10
21.05808426452278
 20
31.73809851486908
 30
0.0
 40
0.0300000000000082
100
AcDbArc
 50
0.0000000000038167
 51
90.0
  0
LINE
  5
32C
330
1F
100
AcDbEntity
  8
0
  6
SLD-Solid
 62
     7
370
    25
100
AcDbLine
 10
21.08808426452279
 20
31.73809851486908
 30
0.0
 11
21.08808426452272
 21
31.2886624528488
 31
0.0
  0
LINE
  5
32D
330
1F
100
AcDbEntity
  8
0
  6
SLD-Solid
 62
     7
370
    25
100
AcDbLine
 10
6.791352770506869
 20
31.28866245284874
 30
0.0
 11
6.791352770506864
 21
31.28947253061703
 31
0.0
  0
LINE
  5
32E
330
1F
100
AcDbEntity
  8
0
  6
SLD-Solid
 62
     7
370
    25
100
AcDbLine
 10
21.08808426452276
 20
36.09589851486906
 30
0.0
 11
21.08808426452273
 21
36.54533457688933
 31
0.0
  0
ARC
  5
32F
330
1F
100
AcDbEntity
  8
0
  6
SLD-Solid
 62
     7
370
    25
100
AcDbCircle
 10
21.05808426452277
 20
36.09589851486906
 30
0.0
 40
0.0300000000000011
100
AcDbArc
 50
269.9999999999804
 51
0.0000000000008481
  0
LINE
  5
330
330
1F
100
AcDbEntity
  8
0
  6
SLD-Solid
 62
     7
370
    25
100
AcDbLine
 10
21.05217207121394
 20
36.06589851486906
 30
0.0
 11
21.05808426452276
 21
36.06589851486906
 31
0.0
  0
LINE
  5
331
330
1F
100
AcDbEntity
  8
0
  6
SLD-Solid
 62
     7
370
    25
100
AcDbLine
 10
21.05217207121393
 20
36.04199851486906
 30
0.0
 11
21.05217207121394
 21
36.06589851486906
 31
0.0
  0
LINE
  5
332
330
1F
100
AcDbEntity
  8
0
  6
SLD-Solid
 62
     7
370
    25
100
AcDbLine
 10
21.08836052732915
 20
36.04199851486906
 30
0.0
 11
21.05217207121393
 21
36.04199851486906
 31
0.0
  0
LINE
  5
333
330
1F
100
AcDbEntity
  8
0
  6
SLD-Solid
 62
     7
370
    25
100
AcDbLine
 10
21.08836052732915
 20
36.04199851486906
 30
0.0
 11
21.08836052732918
 21
31.79199851486907
 31
0.0
  0
LINE
  5
334
330
1F
100
AcDbEntity
  8
0
  6
SLD-Solid
 62
     7
370
    25
100
AcDbLine
 10
6.72983084395385
 20
31.31947253061707
 30
0.0
 11
6.746222522306057
 21
31.31947253061702
 31
0.0
  0
LINE
  5
335
330
1F
100
AcDbEntity
  8
0
  6
SLD-Solid
 62
     7
370
    25
100
AcDbLine
 10
6.729830843953796
 20
36.51452449912096
 30
0.0
 11
6.746222522306017
 21
36.51452449912096
 31
0.0
  0
LINE
  5
336
330
1F
100
AcDbEntity
  8
0
  6
SLD-Solid
 62
     7
370
    25
100
AcDbLine
 10
21.08863399082673
 20
36.62433457688933
 30
0.0
 11
21.08808426452278
 21
36.62432446655667
 31
0.0
  0
LINE
  5
337
330
1F
100
AcDbEntity
  8
0
  6
SLD-Solid
 62
     7
370
    25
100
AcDbLine
 10
21.08808426452278
 20
36.62432446655667
 30
0.0
 11
21.08808426452273
 21
36.54533457688933
 31
0.0
  0
LINE
  5
338
330
1F
100
AcDbEntity
  8
0
  6
SLD-Solid
 62
     7
370
    25
100
AcDbLine
 10
21.08863399082673
 20
36.62433457688933
 30
0.0
 11
6.791352770506866
 21
36.62433457688926
 31
0.0
  0
LINE
  5
339
330
1F
100
AcDbEntity
  8
0
  6
SLD-Solid
 62
     7
370
    25
100
AcDbLine
 10
21.0880842645228
 20
31.20967256318153
 30
0.0
 11
21.08808426452272
 21
31.2886624528488
 31
0.0
  0
LINE
  5
33A
330
1F
100
AcDbEntity
  8
0
  6
SLD-Solid
 62
     7
370
    25
100
AcDbLine
 10
21.08863399082675
 20
31.20966245284887
 30
0.0
 11
21.0880842645228
 21
31.20967256318153
 31
0.0
  0
LINE
  5
33B
330
1F
100
AcDbEntity
  8
0
  6
SLD-Solid
 62
     7
370
    25
100
AcDbLine
 10
21.08863399082675
 20
31.20966245284887
 30
0.0
 11
6.791352770506888
 21
31.20966245284878
 31
0.0
  0
LINE
  5
33C
330
1F
100
AcDbEntity
  8
0
  6
SLD-Solid
 62
     7
370
    25
100
AcDbLine
 10
21.08836052732915
 20
36.04199851486906
 30
0.0
 11
21.14422196304291
 21
36.04199851486911
 31
0.0
  0
LINE
  5
33D
330
1F
100
AcDbEntity
  8
0
  6
SLD-Solid
 62
     7
370
    25
100
AcDbLine
 10
21.08836052732918
 20
31.79199851486907
 30
0.0
 11
21.14422196304292
 21
31.79199851486913
 31
0.0
  0
LWPOLYLINE
  5
33E
330
1F
100
AcDbEntity
  8
0
  6
SLD-Solid
 62
     7
370
    25
100
AcDbPolyline
 90
        9
 70
   128
 43
0.0
 10
21.33855994699982
 20
32.04199851486914
 10
21.33516323236845
 20
31.99322593436511
 10
21.32510362231274
 20
31.94632765677787
 10
21.30876770200562
 20
31.90310595661425
 10
21.28678325170321
 20
31.86522181957252
 10
21.2599951215016
 20
31.83413111179352
 10
21.2294327642215
 20
31.81102863174133
 10
21.1962706741136
 20
31.79680219476833
 10
21.16178325170328
 20
31.79199851486912
  0
LINE
  5
33F
330
1F
100
AcDbEntity
  8
0
  6
SLD-Solid
 62
     7
370
    25
100
AcDbLine
 10
21.16178325170328
 20
31.79199851486912
 30
0.0
 11
21.14422196304292
 21
31.79199851486913
 31
0.0
  0
LINE
  5
340
330
1F
100
AcDbEntity
  8
0
  6
SLD-Solid
 62
     7
370
    25
100
AcDbLine
 10
21.16178325170326
 20
36.04199851486906
 30
0.0
 11
21.14422196304291
 21
36.04199851486911
 31
0.0
  0
LWPOLYLINE
  5
341
330
1F
100
AcDbEntity
  8
0
  6
SLD-Solid
 62
     7
370
    25
100
AcDbPolyline
 90
        9
 70
   128
 43
0.0
 10
21.33855994699987
 20
35.79199851486908
 10
21.3351632323685
 20
35.84077109537311
 10
21.32510362231278
 20
35.88766937296034
 10
21.30876770200566
 20
35.93089107312397
 10
21.28678325170323
 20
35.9687752101657
 10
21.25999512150163
 20
35.9998659179447
 10
21.22943276422152
 20
36.02296839799688
 10
21.19627067411361
 20
36.03719483496987
 10
21.16178325170326
 20
36.04199851486906
  0
LINE
  5
342
330
1F
100
AcDbEntity
  8
0
  6
SLD-Solid
 62
     7
370
    25
100
AcDbLine
 10
21.33855994699987
 20
35.79199851486908
 30
0.0
 11
21.33855994699982
 21
32.04199851486914
 31
0.0
  0
LINE
  5
343
330
1F
100
AcDbEntity
  8
0
  6
SLD-Solid
 62
     7
370
    25
100
AcDbLine
 10
21.08863399082673
 20
36.62433457688933
 30
0.0
 11
21.40008426629442
 21
36.62433457688933
 31
0.0
  0
LINE
  5
344
330
1F
100
AcDbEntity
  8
0
  6
SLD-Solid
 62
     7
370
    25
100
AcDbLine
 10
21.40008426629442
 20
36.62433457688933
 30
0.0
 11
21.4000842662944
 21
36.57433457688933
 31
0.0
  0
LINE
  5
345
330
1F
100
AcDbEntity
  8
0
  6
SLD-Solid
 62
     7
370
    25
100
AcDbLine
 10
21.08863399082669
 20
36.57433457688933
 30
0.0
 11
21.4000842662944
 21
36.57433457688933
 31
0.0
  0
LINE
  5
346
330
1F
100
AcDbEntity
  8
0
  6
SLD-Solid
 62
     7
370
    25
100
AcDbLine
 10
21.08863399082668
 20
31.25966245284888
 30
0.0
 11
21.40008426629437
 21
31.25966245284889
 31
0.0
  0
LINE
  5
347
330
1F
100
AcDbEntity
  8
0
  6
SLD-Solid
 62
     7
370
    25
100
AcDbLine
 10
21.40008426629446
 20
31.20966245284889
 30
0.0
 11
21.40008426629437
 21
31.25966245284889
 31
0.0
  0
LINE
  5
348
330
1F
100
AcDbEntity
  8
0
  6
SLD-Solid
 62
     7
370
    25
100
AcDbLine
 10
21.08863399082674
 20
31.20966245284887
 30
0.0
 11
21.40008426629446
 21
31.20966245284889
 31
0.0
  0
LINE
  5
349
330
1F
100
AcDbEntity
  8
0
  6
SLD-Solid
 62
     7
370
    25
100
AcDbLine
 10
6.789830843953809
 20
36.62433457688926
 30
0.0
 11
6.791352770506863
 21
36.62433457688926
 31
0.0
  0
LINE
  5
34A
330
1F
100
AcDbEntity
  8
0
  6
SLD-Solid
 62
     7
370
    25
100
AcDbLine
 10
6.789830843953832
 20
31.20966245284878
 30
0.0
 11
6.791352770506884
 21
31.20966245284878
 31
0.0
  0
SPLINE
  5
34B
330
1F
100
AcDbEntity
  8
0
  6
SLD-Solid
 62
     7
370
    25
100
AcDbSpline
210
0.0
220
0.0
230
1.0
 70
    12
 71
     3
 72
    11
 73
     7
 74
     0
 42
0.00000001
 43
0.00000001
 40
0.0
 40
0.0
 40
0.0
 40
0.0
 40
0.2848777781426924
 40
0.4869703007515427
 40
0.6922932863490036
 40
1.0
 40
1.0
 40
1.0
 40
1.0
 10
6.789830843953809
 20
36.62433457688926
 30
0.0
 41
1.0
 10
6.786126959233132
 20
36.62416228305851
 30
0.0
 41
1.0
 10
6.779795535742902
 20
36.62386776384706
 30
0.0
 41
1.0
 10
6.769286345861629
 20
36.62099573147275
 30
0.0
 41
1.0
 10
6.75733155154977
 20
36.61560446582347
 30
0.0
 41
1.0
 10
6.750387468355363
 20
36.60931656468104
 30
0.0
 41
1.0
 10
6.74622252230604
 20
36.60554518575476
 30
0.0
 41
1.0
  0
SPLINE
  5
34C
330
1F
100
AcDbEntity
  8
0
  6
SLD-Solid
 62
     7
370
    25
100
AcDbSpline
210
0.0
220
0.0
230
1.0
 70
    12
 71
     3
 72
    11
 73
     7
 74
     0
 42
0.00000001
 43
0.00000001
 40
0.0
 40
0.0
 40
0.0
 40
0.0
 40
0.2848777781428695
 40
0.4869703007518252
 40
0.692293286349393
 40
0.9999999999999999
 40
0.9999999999999999
 40
0.9999999999999999
 40
0.9999999999999999
 10
6.789830843953832
 20
31.20966245284878
 30
0.0
 41
1.0
 10
6.786126959233151
 20
31.20983474667955
 30
0.0
 41
1.0
 10
6.779795535742917
 20
31.21012926589103
 30
0.0
 41
1.0
 10
6.769286345861645
 20
31.21300129826533
 30
0.0
 41
1.0
 10
6.757331551549796
 20
31.21839256391461
 30
0.0
 41
1.0
 10
6.750387468355392
 20
31.22468046505703
 30
0.0
 41
1.0
 10
6.746222522306074
 20
31.22845184398329
 30
0.0
 41
1.0
  0
ARC
  5
34D
330
1F
100
AcDbEntity
  8
0
  6
SLD-Solid
 62
     7
370
    25
100
AcDbCircle
 10
6.789830843953816
 20
36.56433457688926
 30
0.0
 40
0.0600000000000127
100
AcDbArc
 50
136.6192404906951
 51
235.394006213579
  0
ARC
  5
34E
330
1F
100
AcDbEntity
  8
0
  6
SLD-Solid
 62
     7
370
    25
100
AcDbCircle
 10
6.789830843953838
 20
31.26966245284878
 30
0.0
 40
0.0599999999999987
100
AcDbArc
 50
124.605993786375
 51
223.3807595093041
  0
DIMENSION
  5
34F
330
1F
100
AcDbEntity
  8
DIMS
100
AcDbDimension
  2
_D_8
 10
22.78955056832358
 20
31.07199851486911
 30
0.0
 11
22.78955056832356
 21
33.88758701404566
 31
0.0
 70
    32
  1
<>
 71
     2
 42
-1.0
  3
SLDDIMSTYLE1
100
AcDbAlignedDimension
 13
21.3719678911582
 23
36.70317551322218
 33
0.0
 14
21.37196789115822
 24
31.0719985148691
 34
0.0
 50
90.0000000000002
100
AcDbRotatedDimension
  0
DIMENSION
  5
35E
330
1F
100
AcDbEntity
  8
DIMS
100
AcDbDimension
  2
_D_9
 10
5.627343639229376
 20
31.20966245284873
 30
0.0
 11
5.627343639229359
 21
33.73118681496344
 31
0.0
 70
    32
  1
<>
 71
     2
 42
-1.0
  3
SLDDIMSTYLE1
100
AcDbAlignedDimension
 13
6.791352770506827
 23
36.62433457688925
 33
0.0
 14
6.791352770506849
 24
31.20966245284874
 34
0.0
 50
90.0000000000002
100
AcDbRotatedDimension
  0
MTEXT
  5
36D
330
1F
100
AcDbEntity
  8
NOTES
100
AcDbMText
 10
7.483826821859034
 20
30.38745771763991
 30
0.0
 40
0.5
 41
0.0
 71
     1
 72
     1
  1
Top view
  7
SLDTEXTSTYLE1
 73
     1
 44
1.0
  0
LINE
  5
36E
330
1F
100
AcDbEntity
  8
0
  6
SLD-Solid
 62
     7
370
    25
100
AcDbLine
 10
37.32531980311093
 20
33.66467425936477
 30
0.0
 11
36.73017904176005
 21
33.68545703270705
 31
0.0
  0
ELLIPSE
  5
36F
330
1F
100
AcDbEntity
  8
0
  6
SLD-Solid
 62
     7
370
    25
100
AcDbEllipse
 10
35.91749395411836
 20
18.07483936592569
 30
0.0
 11
-0.9499999999999957
 21
1.065814103640150E-14
 31
5.438344680463457E-31
210
5.724573347856296E-31
220
-6.422453696281874E-45
230
1.0
 40
0.2894736842105299
 41
0.0
 42
6.283185307179586
  0
CIRCLE
  5
370
330
1F
100
AcDbEntity
  8
0
  6
SLD-Solid
 62
     7
370
    25
100
AcDbCircle
 10
36.56529395411847
 20
19.53733936592583
 30
0.0
 40
0.1290000000000013
  0
LINE
  5
371
330
1F
100
AcDbEntity
  8
0
  6
SLD-Solid
 62
     7
370
    25
100
AcDbLine
 10
35.02249395411846
 20
17.49983936592585
 30
0.0
 11
37.06217757898245
 21
17.49983936592583
 31
0.0
  0
ARC
  5
372
330
1F
100
AcDbEntity
  8
0
  6
SLD-Solid
 62
     7
370
    25
100
AcDbCircle
 10
35.02249395411846
 20
17.74983936592585
 30
0.0
 40
0.25
100
AcDbArc
 50
180.0000000000106
 51
270.0000000000008
  0
LINE
  5
373
330
1F
100
AcDbEntity
  8
0
  6
SLD-Solid
 62
     7
370
    25
100
AcDbLine
 10
34.77249395411857
 20
19.5998393659258
 30
0.0
 11
34.77249395411846
 21
17.7498393659258
 31
0.0
  0
ARC
  5
374
330
1F
100
AcDbEntity
  8
0
  6
SLD-Solid
 62
     7
370
    25
100
AcDbCircle
 10
35.02249395411857
 20
19.59983936592585
 30
0.0
 40
0.25
100
AcDbArc
 50
90.00000000002117
 51
180.0000000000127
  0
LINE
  5
375
330
1F
100
AcDbEntity
  8
0
  6
SLD-Solid
 62
     7
370
    25
100
AcDbLine
 10
37.06217757898246
 20
19.84983936592583
 30
0.0
 11
35.02249395411848
 21
19.84983936592585
 31
0.0
  0
LINE
  5
376
330
1F
100
AcDbEntity
  8
0
  6
SLD-Solid
 62
     7
370
    25
100
AcDbLine
 10
37.14117757898245
 20
17.49983936592584
 30
0.0
 11
37.14117757898246
 21
19.84983936592583
 31
0.0
  0
LINE
  5
377
330
1F
100
AcDbEntity
  8
0
  6
SLD-Solid
 62
     7
370
    25
100
AcDbLine
 10
37.14117757898245
 20
17.49983936592584
 30
0.0
 11
37.06217757898245
 21
17.49983936592583
 31
0.0
  0
LINE
  5
378
330
1F
100
AcDbEntity
  8
0
  6
SLD-Solid
 62
     7
370
    25
100
AcDbLine
 10
37.06217757898246
 20
19.84983936592583
 30
0.0
 11
37.14117757898246
 21
19.84983936592583
 31
0.0
  0
LINE
  5
379
330
1F
100
AcDbEntity
  8
0
  6
SLD-Solid
 62
     7
370
    25
100
AcDbLine
 10
34.79739409629978
 20
19.70860541766064
 30
0.0
 11
34.8182064200973
 21
20.30459239333283
 31
0.0
  0
ARC
  5
37A
330
1F
100
AcDbEntity
  8
0
  6
SLD-Solid
 62
     7
370
    25
100
AcDbCircle
 10
40.81455138221195
 20
20.09519541311786
 30
0.0
 40
6.000000000000065
100
AcDbArc
 50
171.6812094363717
 51
178.0000000000004
  0
LINE
  5
37B
330
1F
100
AcDbEntity
  8
0
  6
SLD-Solid
 62
     7
370
    25
100
AcDbLine
 10
34.8776810230171
 20
20.96327970517385
 30
0.0
 11
36.7260013061625
 21
33.60403130467026
 31
0.0
  0
LINE
  5
37C
330
1F
100
AcDbEntity
  8
0
  6
SLD-Solid
 62
     7
370
    25
100
AcDbLine
 10
36.7260013061625
 20
33.60403130467026
 30
0.0
 11
36.72821097946367
 21
33.62548918629893
 31
0.0
  0
SPLINE
  5
37D
330
1F
100
AcDbEntity
  8
0
  6
SLD-Solid
 62
     7
370
    25
100
AcDbSpline
210
0.0
220
0.0
230
1.0
 70
    12
 71
     3
 72
    15
 73
    11
 74
     0
 42
0.00000001
 43
0.00000001
 40
0.0
 40
0.0
 40
0.0
 40
0.0
 40
0.0490755257381812
 40
0.1849218792041549
 40
0.3207682326701293
 40
0.456614586136139
 40
0.5924609396021071
 40
0.7283072930681015
 40
0.8641536465340791
 40
0.9999999999999999
 40
0.9999999999999999
 40
0.9999999999999999
 40
0.9999999999999999
 10
36.73401976091466
 20
33.68500789837503
 30
0.0
 41
1.0
 10
36.73396173119633
 20
33.68509361003127
 30
0.0
 41
1.0
 10
36.73374306895278
 20
33.68541658080546
 30
0.0
 41
1.0
 10
36.73326535975761
 20
33.68315859025691
 30
0.0
 41
1.0
 10
36.73259039023248
 20
33.6783415103648
 30
0.0
 41
1.0
 10
36.73182527416972
 20
33.67094297138893
 30
0.0
 41
1.0
 10
36.7309897350523
 20
33.66152777998209
 30
0.0
 41
1.0
 10
36.73009657698897
 20
33.65046259784712
 30
0.0
 41
1.0
 10
36.7291639266126
 20
33.63826650383281
 30
0.0
 41
1.0
 10
36.72852862851331
 20
33.62974829214355
 30
0.0
 41
1.0
 10
36.72821097946367
 20
33.62548918629893
 30
0.0
 41
1.0
  0
LINE
  5
37E
330
1F
100
AcDbEntity
  8
0
  6
SLD-Solid
 62
     7
370
    25
100
AcDbLine
 10
37.32474774178632
 20
33.64829256638011
 30
0.0
 11
37.32531980311094
 21
33.66467425936477
 31
0.0
  0
LINE
  5
37F
330
1F
100
AcDbEntity
  8
0
  6
SLD-Solid
 62
     7
370
    25
100
AcDbLine
 10
36.95277215010585
 20
19.84983936592588
 30
0.0
 11
37.43291590327395
 21
33.59935749386016
 31
0.0
  0
LINE
  5
380
330
1F
100
AcDbEntity
  8
0
  6
SLD-Solid
 62
     7
370
    25
100
AcDbLine
 10
37.43291590327395
 20
33.59935749386016
 30
0.0
 11
37.43296901774467
 21
33.60087849329667
 31
0.0
  0
SPLINE
  5
381
330
1F
100
AcDbEntity
  8
0
  6
SLD-Solid
 62
     7
370
    25
100
AcDbSpline
210
0.0
220
0.0
230
1.0
 70
    12
 71
     3
 72
    11
 73
     7
 74
     0
 42
0.00000001
 43
0.00000001
 40
0.0
 40
0.0
 40
0.0
 40
0.0
 40
0.2970434742300371
 40
0.4989871773306213
 40
0.6993611911780901
 40
1.0
 40
1.0
 40
1.0
 40
1.0
 10
37.41571298107711
 20
33.64511599022708
 30
0.0
 41
1.0
 10
37.41921587852372
 20
33.64098774831213
 30
0.0
 41
1.0
 10
37.42510020543546
 20
33.63405293923808
 30
0.0
 41
1.0
 10
37.43004182081661
 20
33.62237115678513
 30
0.0
 41
1.0
 10
37.43273631452052
 20
33.61198082542447
 30
0.0
 41
1.0
 10
37.43288174839054
 20
33.60504213717255
 30
0.0
 41
1.0
 10
37.43296901774467
 20
33.60087849329667
 30
0.0
 41
1.0
  0
ARC
  5
382
330
1F
100
AcDbEntity
  8
0
  6
SLD-Solid
 62
     7
370
    25
100
AcDbCircle
 10
37.37300556812352
 20
33.60297246309879
 30
0.0
 40
0.0600000000000104
100
AcDbArc
 50
44.61924049071484
 51
144.1159957101131
  0
DIMENSION
  5
383
330
1F
100
AcDbEntity
  8
DIMS
100
AcDbDimension
  2
_D_10
 10
37.14117757898242
 20
16.3974771612014
 30
0.0
 11
36.07127218484729
 21
16.39747716120141
 31
0.0
 70
    32
  1
<>
 71
     2
 42
-1.0
  3
SLDDIMSTYLE1
100
AcDbAlignedDimension
 13
34.77249395411845
 23
17.74983936592581
 33
0.0
 14
37.14117757898243
 24
17.49983936592583
 34
0.0
 50
-0.0000000000003437
100
AcDbRotatedDimension
  0
DIMENSION
  5
392
330
1F
100
AcDbEntity
  8
DIMS
100
AcDbDimension
  2
_D_11
 10
32.96147033207111
 20
33.68532252386713
 30
0.0
 11
32.96147033207107
 21
25.83972639945387
 31
0.0
 70
    32
  1
<>
 71
     2
 42
-1.0
  3
SLDDIMSTYLE1
100
AcDbAlignedDimension
 13
35.02249395411834
 23
17.49983936592584
 33
0.0
 14
36.73403087097049
 24
33.68532252386711
 34
0.0
 50
90.0000000000002
100
AcDbRotatedDimension
  0
INSERT
  5
3A6
330
1F
100
AcDbEntity
  8
NOTES
100
AcDbBlockReference
  2
SW_NOTE_0_3
 10
33.7042207103519
 20
14.96903064357463
 30
0.0
  0
MTEXT
  5
3AA
330
1F
100
AcDbEntity
  8
NOTES
100
AcDbMText
 10
60.2661315570167
 20
4.98650087456716
 30
0.0
 40
0.2916666666666666
 41
0.0
 71
     1
 72
     1
  1
FROST PRODUCTS LTD.
  7
SLDTEXTSTYLE0
 73
     1
 44
1.0
  0
MTEXT
  5
3AB
330
1F
100
AcDbEntity
  8
NOTES
100
AcDbMText
 10
60.2661315570167
 20
4.5610085129417
 30
0.0
 40
0.2291666666666666
 41
0.0
 71
     1
 72
     1
  1
5280 JOHN LUCAS DRIVE, BURLINGTON, ON, L7L 5Z9
  7
SLDTEXTSTYLE0
 73
     1
 44
1.0
  0
ENDSEC
  0
SECTION
  2
OBJECTS
  0
DICTIONARY
  5
C
330
0
100
AcDbDictionary
281
     1
  3
ACAD_COLOR
350
6C
  3
ACAD_GROUP
350
D
  3
ACAD_LAYOUT
350
1A
  3
ACAD_MATERIAL
350
6B
  3
ACAD_MLINESTYLE
350
17
  3
ACAD_PLOTSETTINGS
350
19
  3
ACAD_PLOTSTYLENAME
350
E
  3
ACAD_SCALELIST
350
47
  3
ACAD_TABLESTYLE
350
92
  3
AcDbVariableDictionary
350
59
  0
DICTIONARY
  5
6C
102
{ACAD_REACTORS
330
C
102
}
330
C
100
AcDbDictionary
281
     1
  0
DICTIONARY
  5
D
102
{ACAD_REACTORS
330
C
102
}
330
C
100
AcDbDictionary
281
     1
  0
DICTIONARY
  5
1A
102
{ACAD_REACTORS
330
C
102
}
330
C
100
AcDbDictionary
281
     1
  3
Layout1
350
74
  3
Layout2
350
26
  3
Model
350
22
  0
DICTIONARY
  5
6B
102
{ACAD_REACTORS
330
C
102
}
330
C
100
AcDbDictionary
281
     1
  0
DICTIONARY
  5
17
102
{ACAD_REACTORS
330
C
102
}
330
C
100
AcDbDictionary
281
     1
  3
Standard
350
18
  0
DICTIONARY
  5
19
102
{ACAD_REACTORS
330
C
102
}
330
C
100
AcDbDictionary
281
     1
  0
ACDBDICTIONARYWDFLT
  5
E
102
{ACAD_REACTORS
330
C
102
}
330
C
100
AcDbDictionary
281
     1
  3
Normal
350
F
100
AcDbDictionaryWithDefault
340
F
  0
DICTIONARY
  5
47
102
{ACAD_REACTORS
330
C
102
}
330
C
100
AcDbDictionary
281
     1
  3
A0
350
48
  3
A1
350
49
  3
A2
350
4A
  3
A3
350
4B
  3
A4
350
4C
  3
A5
350
4D
  3
A6
350
4E
  3
A7
350
4F
  3
A8
350
50
  3
A9
350
51
  3
B0
350
52
  3
B1
350
53
  3
B2
350
54
  3
B3
350
55
  3
B4
350
56
  3
B5
350
57
  3
B6
350
58
  3
B7
350
3BC
  3
B8
350
3BD
  3
B9
350
5B
  3
C0
350
5C
  3
C1
350
5D
  3
C2
350
3BE
  3
C3
350
5F
  3
C4
350
60
  3
C5
350
61
  3
C6
350
62
  3
C7
350
63
  3
C8
350
64
  3
C9
350
65
  3
D0
350
66
  3
D1
350
67
  3
D2
350
68
  0
DICTIONARY
  5
92
102
{ACAD_REACTORS
330
C
102
}
330
C
100
AcDbDictionary
281
     1
  3
Standard
350
93
  0
DICTIONARY
  5
59
102
{ACAD_REACTORS
330
C
102
}
330
C
100
AcDbDictionary
281
     1
  3
CTABLESTYLE
350
98
  3
HIDETEXT
350
3A9
  0
LAYOUT
  5
74
102
{ACAD_REACTORS
330
1A
102
}
330
1A
100
AcDbPlotSettings
  1

  2
none_device
  4

  6

 40
0.0
 41
0.0
 42
0.0
 43
0.0
 44
0.0
 45
0.0
 46
0.0
 47
0.0
 48
0.0
 49
0.0
140
0.0
141
0.0
142
1.0
143
1.0
 70
   688
 72
     0
 73
     0
 74
     5
  7

 75
    16
 76
     0
 77
     2
 78
   300
147
1.0
148
0.0
149
0.0
100
AcDbLayout
  1
Layout1
 70
     1
 71
     1
 10
0.0
 20
0.0
 11
12.0
 21
9.0
 12
0.0
 22
0.0
 32
0.0
 14
1.000000000000000E+20
 24
1.000000000000000E+20
 34
1.000000000000000E+20
 15
-1.000000000000000E+20
 25
-1.000000000000000E+20
 35
-1.000000000000000E+20
146
0.0
 13
0.0
 23
0.0
 33
0.0
 16
1.0
 26
0.0
 36
0.0
 17
0.0
 27
1.0
 37
0.0
 76
     0
330
73
  0
LAYOUT
  5
26
102
{ACAD_REACTORS
330
1A
102
}
330
1A
100
AcDbPlotSettings
  1

  2
none_device
  4

  6

 40
0.0
 41
0.0
 42
0.0
 43
0.0
 44
0.0
 45
0.0
 46
0.0
 47
0.0
 48
0.0
 49
0.0
140
0.0
141
0.0
142
1.0
143
1.0
 70
   688
 72
     0
 73
     0
 74
     5
  7

 75
    16
 76
     0
 77
     2
 78
   300
147
1.0
148
0.0
149
0.0
100
AcDbLayout
  1
Layout2
 70
     1
 71
     2
 10
0.0
 20
0.0
 11
0.0
 21
0.0
 12
0.0
 22
0.0
 32
0.0
 14
0.0
 24
0.0
 34
0.0
 15
0.0
 25
0.0
 35
0.0
146
0.0
 13
0.0
 23
0.0
 33
0.0
 16
1.0
 26
0.0
 36
0.0
 17
0.0
 27
1.0
 37
0.0
 76
     0
330
23
  0
LAYOUT
  5
22
102
{ACAD_REACTORS
330
1A
102
}
330
1A
100
AcDbPlotSettings
  1

  2
none_device
  4
Letter_(8.50_x_11.00_Inches)
  6

 40
6.35
 41
6.35
 42
6.35000508
 43
6.35000508
 44
215.9
 45
279.4
 46
0.0
 47
0.0
 48
0.0
 49
0.0
140
0.0
141
0.0
142
1.0
143
1.0
 70
 11952
 72
     0
 73
     0
 74
     0
  7

 75
     0
 76
     0
 77
     2
 78
   300
147
1.0
148
0.0
149
0.0
100
AcDbLayout
  1
Model
 70
     1
 71
     0
 10
0.0
 20
0.0
 11
70.0
 21
50.0
 12
0.0
 22
0.0
 32
0.0
 14
0.1653543307086614
 24
0.1653543307086614
 34
-7.396568976397787
 15
69.83464566929135
 25
49.83464566929134
 35
2.765474409448966
146
0.0
 13
0.0
 23
0.0
 33
0.0
 16
1.0
 26
0.0
 36
0.0
 17
0.0
 27
1.0
 37
0.0
 76
     0
330
1F
  0
MLINESTYLE
  5
18
102
{ACAD_REACTORS
330
17
102
}
330
17
100
AcDbMlineStyle
  2
Standard
 70
     0
  3

 62
   256
 51
90.0
 52
90.0
 71
     2
 49
0.5
 62
   256
  6
BYLAYER
 49
-0.5
 62
   256
  6
BYLAYER
  0
ACDBPLACEHOLDER
  5
F
102
{ACAD_REACTORS
330
E
102
}
330
E
  0
ACAD_PROXY_OBJECT
  5
48
102
{ACAD_REACTORS
330
47
102
}
330
47
100
AcDbProxyObject
 90
      499
 91
      505
 95
   393239
 70
     0
 93
       41
310
903313A31580
  0
ACAD_PROXY_OBJECT
  5
49
102
{ACAD_REACTORS
330
47
102
}
330
47
100
AcDbProxyObject
 90
      499
 91
      505
 95
   393239
 70
     0
 93
      105
310
903313A324000000000000004000
  0
ACAD_PROXY_OBJECT
  5
4A
102
{ACAD_REACTORS
330
47
102
}
330
47
100
AcDbProxyObject
 90
      499
 91
      505
 95
   393239
 70
     0
 93
      105
310
903313A344000000000000104000
  0
ACAD_PROXY_OBJECT
  5
4B
102
{ACAD_REACTORS
330
47
102
}
330
47
100
AcDbProxyObject
 90
      499
 91
      505
 95
   393239
 70
     0
 93
      105
310
903313A354000000000000144000
  0
ACAD_PROXY_OBJECT
  5
4C
102
{ACAD_REACTORS
330
47
102
}
330
47
100
AcDbProxyObject
 90
      499
 91
      505
 95
   393239
 70
     0
 93
      105
310
903313A384000000000000204000
  0
ACAD_PROXY_OBJECT
  5
4D
102
{ACAD_REACTORS
330
47
102
}
330
47
100
AcDbProxyObject
 90
      499
 91
      505
 95
   393239
 70
     0
 93
      113
310
904313A31304000000000000244000
  0
ACAD_PROXY_OBJECT
  5
4E
102
{ACAD_REACTORS
330
47
102
}
330
47
100
AcDbProxyObject
 90
      499
 91
      505
 95
   393239
 70
     0
 93
      113
310
904313A31364000000000000304000
  0
ACAD_PROXY_OBJECT
  5
4F
102
{ACAD_REACTORS
330
47
102
}
330
47
100
AcDbProxyObject
 90
      499
 91
      505
 95
   393239
 70
     0
 93
      113
310
904313A32304000000000000344000
  0
ACAD_PROXY_OBJECT
  5
50
102
{ACAD_REACTORS
330
47
102
}
330
47
100
AcDbProxyObject
 90
      499
 91
      505
 95
   393239
 70
     0
 93
      113
310
904313A333040000000000003E4000
  0
ACAD_PROXY_OBJECT
  5
51
102
{ACAD_REACTORS
330
47
102
}
330
47
100
AcDbProxyObject
 90
      499
 91
      505
 95
   393239
 70
     0
 93
      113
310
904313A34304000000000000444000
  0
ACAD_PROXY_OBJECT
  5
52
102
{ACAD_REACTORS
330
47
102
}
330
47
100
AcDbProxyObject
 90
      499
 91
      505
 95
   393239
 70
     0
 93
      113
310
904313A35304000000000000494000
  0
ACAD_PROXY_OBJECT
  5
53
102
{ACAD_REACTORS
330
47
102
}
330
47
100
AcDbProxyObject
 90
      499
 91
      505
 95
   393239
 70
     0
 93
      121
310
905313A3130304000000000000594000
  0
ACAD_PROXY_OBJECT
  5
54
102
{ACAD_REACTORS
330
47
102
}
330
47
100
AcDbProxyObject
 90
      499
 91
      505
 95
   393239
 70
     0
 93
      105
310
903323A310000000000000010100
  0
ACAD_PROXY_OBJECT
  5
55
102
{ACAD_REACTORS
330
47
102
}
330
47
100
AcDbProxyObject
 90
      499
 91
      505
 95
   393239
 70
     0
 93
      105
310
903343A310000000000000410100
  0
ACAD_PROXY_OBJECT
  5
56
102
{ACAD_REACTORS
330
47
102
}
330
47
100
AcDbProxyObject
 90
      499
 91
      505
 95
   393239
 70
     0
 93
      105
310
903383A310000000000000810100
  0
ACAD_PROXY_OBJECT
  5
57
102
{ACAD_REACTORS
330
47
102
}
330
47
100
AcDbProxyObject
 90
      499
 91
      505
 95
   393239
 70
     0
 93
      113
310
90431303A310000000000000910100
  0
ACAD_PROXY_OBJECT
  5
58
102
{ACAD_REACTORS
330
47
102
}
330
47
100
AcDbProxyObject
 90
      499
 91
      505
 95
   393239
 70
     0
 93
      121
310
9053130303A310000000000001650100
  0
ACAD_PROXY_OBJECT
  5
3BC
102
{ACAD_REACTORS
330
47
102
}
330
47
100
AcDbProxyObject
 90
      499
 91
      505
 95
   393239
 70
     0
 93
      257
310
90E312F31323822203D2031272D3022000000000000200FC000000000000284000
  0
ACAD_PROXY_OBJECT
  5
3BD
102
{ACAD_REACTORS
330
47
102
}
330
47
100
AcDbProxyObject
 90
      499
 91
      505
 95
   393239
 70
     0
 93
      249
310
90D312F363422203D2031272D3022000000000000240FC000000000000284000
  0
ACAD_PROXY_OBJECT
  5
5B
102
{ACAD_REACTORS
330
47
102
}
330
47
100
AcDbProxyObject
 90
      499
 91
      505
 95
   393239
 70
     0
 93
      249
310
90D312F333222203D2031272D3022000000000000280FC000000000000284000
  0
ACAD_PROXY_OBJECT
  5
5C
102
{ACAD_REACTORS
330
47
102
}
330
47
100
AcDbProxyObject
 90
      499
 91
      505
 95
   393239
 70
     0
 93
      249
310
90D312F313622203D2031272D30220000000000002C0FC000000000000284000
  0
ACAD_PROXY_OBJECT
  5
5D
102
{ACAD_REACTORS
330
47
102
}
330
47
100
AcDbProxyObject
 90
      499
 91
      505
 95
   393239
 70
     0
 93
      249
310
90D332F333222203D2031272D30220000000000002E0FC000000000000284000
  0
ACAD_PROXY_OBJECT
  5
3BE
102
{ACAD_REACTORS
330
47
102
}
330
47
100
AcDbProxyObject
 90
      499
 91
      505
 95
   393239
 70
     0
 93
      241
310
90C312F3822203D2031272D3022000000000000300FC000000000000284000
  0
ACAD_PROXY_OBJECT
  5
5F
102
{ACAD_REACTORS
330
47
102
}
330
47
100
AcDbProxyObject
 90
      499
 91
      505
 95
   393239
 70
     0
 93
      249
310
90D332F313622203D2031272D3022000000000000320FC000000000000284000
  0
ACAD_PROXY_OBJECT
  5
60
102
{ACAD_REACTORS
330
47
102
}
330
47
100
AcDbProxyObject
 90
      499
 91
      505
 95
   393239
 70
     0
 93
      241
310
90C312F3422203D2031272D3022000000000000340FC000000000000284000
  0
ACAD_PROXY_OBJECT
  5
61
102
{ACAD_REACTORS
330
47
102
}
330
47
100
AcDbProxyObject
 90
      499
 91
      505
 95
   393239
 70
     0
 93
      241
310
90C332F3822203D2031272D3022000000000000360FC000000000000284000
  0
ACAD_PROXY_OBJECT
  5
62
102
{ACAD_REACTORS
330
47
102
}
330
47
100
AcDbProxyObject
 90
      499
 91
      505
 95
   393239
 70
     0
 93
      241
310
90C312F3222203D2031272D3022000000000000380FC000000000000284000
  0
ACAD_PROXY_OBJECT
  5
63
102
{ACAD_REACTORS
330
47
102
}
330
47
100
AcDbProxyObject
 90
      499
 91
      505
 95
   393239
 70
     0
 93
      241
310
90C332F3422203D2031272D30220000000000003A0FC000000000000284000
  0
ACAD_PROXY_OBJECT
  5
64
102
{ACAD_REACTORS
330
47
102
}
330
47
100
AcDbProxyObject
 90
      499
 91
      505
 95
   393239
 70
     0
 93
      161
310
90A3122203D2031272D30224000000000000284000
  0
ACAD_PROXY_OBJECT
  5
65
102
{ACAD_REACTORS
330
47
102
}
330
47
100
AcDbProxyObject
 90
      499
 91
      505
 95
   393239
 70
     0
 93
      257
310
90E312D312F3222203D2031272D30220000000000003E0FC000000000000284000
  0
ACAD_PROXY_OBJECT
  5
66
102
{ACAD_REACTORS
330
47
102
}
330
47
100
AcDbProxyObject
 90
      499
 91
      505
 95
   393239
 70
     0
 93
      225
310
90A3322203D2031272D302200000000000002100000000000000284000
  0
ACAD_PROXY_OBJECT
  5
67
102
{ACAD_REACTORS
330
47
102
}
330
47
100
AcDbProxyObject
 90
      499
 91
      505
 95
   393239
 70
     0
 93
      225
310
90A3622203D2031272D302200000000000006100000000000000284000
  0
ACAD_PROXY_OBJECT
  5
68
102
{ACAD_REACTORS
330
47
102
}
330
47
100
AcDbProxyObject
 90
      499
 91
      505
 95
   393239
 70
     0
 93
      249
310
90D31272D3022203D2031272D30220000000000000A100000000000000284000
  0
TABLESTYLE
  5
93
102
{ACAD_REACTORS
330
92
102
}
330
92
100
AcDbTableStyle
  3
Standard
 70
     0
 71
     0
 40
0.06
 41
0.06
280
     0
281
     0
  7
Standard
140
0.18
170
     2
 62
     0
 63
     7
283
     0
274
    -2
284
     1
 64
     0
275
    -2
285
     1
 65
     0
276
    -2
286
     1
 66
     0
277
    -2
287
     1
 67
     0
278
    -2
288
     1
 68
     0
279
    -2
289
     1
 69
     0
  7
Standard
140
0.25
170
     5
 62
     0
 63
     7
283
     0
274
    -2
284
     1
 64
     0
275
    -2
285
     1
 65
     0
276
    -2
286
     1
 66
     0
277
    -2
287
     1
 67
     0
278
    -2
288
     1
 68
     0
279
    -2
289
     1
 69
     0
  7
Standard
140
0.18
170
     5
 62
     0
 63
     7
283
     0
274
    -2
284
     1
 64
     0
275
    -2
285
     1
 65
     0
276
    -2
286
     1
 66
     0
277
    -2
287
     1
 67
     0
278
    -2
288
     1
 68
     0
279
    -2
289
     1
 69
     0
  0
DICTIONARYVAR
  5
98
102
{ACAD_REACTORS
330
59
102
}
330
59
100
DictionaryVariables
280
     0
  1
STANDARD
  0
DICTIONARYVAR
  5
3A9
102
{ACAD_REACTORS
330
59
102
}
330
59
100
DictionaryVariables
280
     0
  1
2
  0
ENDSEC
  0
EOF
