  0
SECTION
  2
HEADER
  9
$ACADVER
  1
AC1018
  9
$ACADMAINTVER
 70
    39
  9
$DWGCODEPAGE
  3
ANSI_1252
  9
$LASTSAVEDBY
  1
fottrem
  9
$INSBASE
 10
0.0
 20
0.0
 30
0.0
  9
$EXTMIN
 10
0.1653543307086614
 20
0.1653543307086614
 30
-0.8896585697048643
  9
$EXTMAX
 10
89.83464566929135
 20
59.83464566929134
 30
0.0514002187796652
  9
$LIMMIN
 10
0.0
 20
0.0
  9
$LIMMAX
 10
90.0
 20
60.0
  9
$ORTHOMODE
 70
     0
  9
$REGENMODE
 70
     1
  9
$FILLMODE
 70
     1
  9
$QTEXTMODE
 70
     0
  9
$MIRRTEXT
 70
     1
  9
$LTSCALE
 40
1.0
  9
$ATTMODE
 70
     1
  9
$TEXTSIZE
 40
0.5
  9
$TRACEWID
 40
0.05
  9
$TEXTSTYLE
  7
Standard
  9
$CLAYER
  8
0
  9
$CELTYPE
  6
ByLayer
  9
$CECOLOR
 62
   256
  9
$CELTSCALE
 40
1.0
  9
$DISPSILH
 70
     0
  9
$DIMSCALE
 40
1.0
  9
$DIMASZ
 40
0.3
  9
$DIMEXO
 40
0.1666666666666667
  9
$DIMDLI
 40
0.38
  9
$DIMRND
 40
0.0
  9
$DIMDLE
 40
0.0
  9
$DIMEXE
 40
0.3750000000000001
  9
$DIMTP
 40
0.0
  9
$DIMTM
 40
0.0
  9
$DIMTXT
 40
0.5
  9
$DIMCEN
 40
0.09
  9
$DIMTSZ
 40
0.0
  9
$DIMTOL
 70
     0
  9
$DIMLIM
 70
     0
  9
$DIMTIH
 70
     1
  9
$DIMTOH
 70
     1
  9
$DIMSE1
 70
     0
  9
$DIMSE2
 70
     0
  9
$DIMTAD
 70
     0
  9
$DIMZIN
 70
     1
  9
$DIMBLK
  1

  9
$DIMASO
 70
     1
  9
$DIMSHO
 70
     1
  9
$DIMPOST
  1

  9
$DIMAPOST
  1

  9
$DIMALT
 70
     0
  9
$DIMALTD
 70
     2
  9
$DIMALTF
 40
25.4
  9
$DIMLFAC
 40
1.0
  9
$DIMTOFL
 70
     0
  9
$DIMTVP
 40
0.0
  9
$DIMTIX
 70
     0
  9
$DIMSOXD
 70
     0
  9
$DIMSAH
 70
     0
  9
$DIMBLK1
  1

  9
$DIMBLK2
  1

  9
$DIMSTYLE
  2
Standard
  9
$DIMCLRD
 70
     0
  9
$DIMCLRE
 70
     0
  9
$DIMCLRT
 70
     0
  9
$DIMTFAC
 40
1.0
  9
$DIMGAP
 40
0.125
  9
$DIMJUST
 70
     0
  9
$DIMSD1
 70
     0
  9
$DIMSD2
 70
     0
  9
$DIMTOLJ
 70
     1
  9
$DIMTZIN
 70
     1
  9
$DIMALTZ
 70
     0
  9
$DIMALTTZ
 70
     0
  9
$DIMUPT
 70
     0
  9
$DIMDEC
 70
     2
  9
$DIMTDEC
 70
     2
  9
$DIMALTU
 70
     2
  9
$DIMALTTD
 70
     2
  9
$DIMTXSTY
  7
Standard
  9
$DIMAUNIT
 70
     0
  9
$DIMADEC
 70
     2
  9
$DIMALTRND
 40
0.0
  9
$DIMAZIN
 70
     0
  9
$DIMDSEP
 70
    46
  9
$DIMATFIT
 70
     3
  9
$DIMFRAC
 70
     0
  9
$DIMLDRBLK
  1

  9
$DIMLUNIT
 70
     2
  9
$DIMLWD
 70
    -2
  9
$DIMLWE
 70
    -2
  9
$DIMTMOVE
 70
     0
  9
$LUNITS
 70
     2
  9
$LUPREC
 70
     4
  9
$SKETCHINC
 40
0.1
  9
$FILLETRAD
 40
0.5
  9
$AUNITS
 70
     0
  9
$AUPREC
 70
     2
  9
$MENU
  1
.
  9
$ELEVATION
 40
0.0
  9
$PELEVATION
 40
0.0
  9
$THICKNESS
 40
0.0
  9
$LIMCHECK
 70
     0
  9
$CHAMFERA
 40
0.0
  9
$CHAMFERB
 40
0.0
  9
$CHAMFERC
 40
0.0
  9
$CHAMFERD
 40
0.0
  9
$SKPOLY
 70
     0
  9
$TDCREATE
 40
2453353.550459155
  9
$TDUCREATE
 40
2453353.717125822
  9
$TDUPDATE
 40
2459488.646427072
  9
$TDUUPDATE
 40
2459488.813093739
  9
$TDINDWG
 40
0.0429398264
  9
$TDUSRTIMER
 40
0.0429398264
  9
$USRTIMER
 70
     1
  9
$ANGBASE
 50
0.0
  9
$ANGDIR
 70
     0
  9
$PDMODE
 70
     0
  9
$PDSIZE
 40
-1.0
  9
$PLINEWID
 40
0.0
  9
$SPLFRAME
 70
     0
  9
$SPLINETYPE
 70
     6
  9
$SPLINESEGS
 70
     8
  9
$HANDSEED
  5
3F3
  9
$SURFTAB1
 70
     6
  9
$SURFTAB2
 70
     6
  9
$SURFTYPE
 70
     6
  9
$SURFU
 70
     6
  9
$SURFV
 70
     6
  9
$UCSBASE
  2

  9
$UCSNAME
  2

  9
$UCSORG
 10
0.0
 20
0.0
 30
0.0
  9
$UCSXDIR
 10
1.0
 20
0.0
 30
0.0
  9
$UCSYDIR
 10
0.0
 20
1.0
 30
0.0
  9
$UCSORTHOREF
  2

  9
$UCSORTHOVIEW
 70
     0
  9
$UCSORGTOP
 10
0.0
 20
0.0
 30
0.0
  9
$UCSORGBOTTOM
 10
0.0
 20
0.0
 30
0.0
  9
$UCSORGLEFT
 10
0.0
 20
0.0
 30
0.0
  9
$UCSORGRIGHT
 10
0.0
 20
0.0
 30
0.0
  9
$UCSORGFRONT
 10
0.0
 20
0.0
 30
0.0
  9
$UCSORGBACK
 10
0.0
 20
0.0
 30
0.0
  9
$PUCSBASE
  2

  9
$PUCSNAME
  2

  9
$PUCSORG
 10
0.0
 20
0.0
 30
0.0
  9
$PUCSXDIR
 10
1.0
 20
0.0
 30
0.0
  9
$PUCSYDIR
 10
0.0
 20
1.0
 30
0.0
  9
$PUCSORTHOREF
  2

  9
$PUCSORTHOVIEW
 70
     0
  9
$PUCSORGTOP
 10
0.0
 20
0.0
 30
0.0
  9
$PUCSORGBOTTOM
 10
0.0
 20
0.0
 30
0.0
  9
$PUCSORGLEFT
 10
0.0
 20
0.0
 30
0.0
  9
$PUCSORGRIGHT
 10
0.0
 20
0.0
 30
0.0
  9
$PUCSORGFRONT
 10
0.0
 20
0.0
 30
0.0
  9
$PUCSORGBACK
 10
0.0
 20
0.0
 30
0.0
  9
$USERI1
 70
     0
  9
$USERI2
 70
     0
  9
$USERI3
 70
     0
  9
$USERI4
 70
     0
  9
$USERI5
 70
     0
  9
$USERR1
 40
0.0
  9
$USERR2
 40
0.0
  9
$USERR3
 40
0.0
  9
$USERR4
 40
0.0
  9
$USERR5
 40
0.0
  9
$WORLDVIEW
 70
     1
  9
$SHADEDGE
 70
     3
  9
$SHADEDIF
 70
    70
  9
$TILEMODE
 70
     1
  9
$MAXACTVP
 70
    64
  9
$PINSBASE
 10
0.0
 20
0.0
 30
0.0
  9
$PLIMCHECK
 70
     0
  9
$PEXTMIN
 10
1.000000000000000E+20
 20
1.000000000000000E+20
 30
1.000000000000000E+20
  9
$PEXTMAX
 10
-1.000000000000000E+20
 20
-1.000000000000000E+20
 30
-1.000000000000000E+20
  9
$PLIMMIN
 10
0.0
 20
0.0
  9
$PLIMMAX
 10
12.0
 20
9.0
  9
$UNITMODE
 70
     0
  9
$VISRETAIN
 70
     1
  9
$PLINEGEN
 70
     0
  9
$PSLTSCALE
 70
     1
  9
$TREEDEPTH
 70
  3020
  9
$CMLSTYLE
  2
Standard
  9
$CMLJUST
 70
     0
  9
$CMLSCALE
 40
1.0
  9
$PROXYGRAPHICS
 70
     1
  9
$MEASUREMENT
 70
     0
  9
$CELWEIGHT
370
    -1
  9
$ENDCAPS
280
     0
  9
$JOINSTYLE
280
     0
  9
$LWDISPLAY
290
     1
  9
$INSUNITS
 70
     1
  9
$HYPERLINKBASE
  1

  9
$STYLESHEET
  1

  9
$XEDIT
290
     0
  9
$CEPSNTYPE
380
     0
  9
$PSTYLEMODE
290
     1
  9
$FINGERPRINTGUID
  2
{a5861498-b4f2-48e5-be6f-9383141b4df7}
  9
$VERSIONGUID
  2
{FAEB1C32-E019-11D5-929B-00C0DF256EC4}
  9
$EXTNAMES
290
     1
  9
$PSVPSCALE
 40
0.0
  9
$OLESTARTUP
290
     0
  9
$SORTENTS
280
   127
  9
$INDEXCTL
280
     0
  9
$HIDETEXT
280
     1
  9
$XCLIPFRAME
290
     0
  9
$HALOGAP
280
     0
  9
$OBSCOLOR
 70
   257
  9
$OBSLTYPE
280
     0
  9
$INTERSECTIONDISPLAY
280
     0
  9
$INTERSECTIONCOLOR
 70
   257
  9
$DIMASSOC
280
     2
  9
$PROJECTNAME
  1

  0
ENDSEC
  0
SECTION
  2
CLASSES
  0
CLASS
  1
ACDBDICTIONARYWDFLT
  2
AcDbDictionaryWithDefault
  3
ObjectDBX Classes
 90
        0
 91
        3
280
     0
281
     0
  0
CLASS
  1
ACDBPLACEHOLDER
  2
AcDbPlaceHolder
  3
ObjectDBX Classes
 90
        0
 91
        1
280
     0
281
     0
  0
CLASS
  1
LAYOUT
  2
AcDbLayout
  3
ObjectDBX Classes
 90
        0
 91
        1
280
     0
281
     0
  0
CLASS
  1
DICTIONARYVAR
  2
AcDbDictionaryVar
  3
ObjectDBX Classes
 90
        0
 91
        3
280
     0
281
     0
  0
CLASS
  1
TABLESTYLE
  2
AcDbTableStyle
  3
ObjectDBX Classes
 90
     2047
 91
        3
280
     0
281
     0
  0
CLASS
  1
SCALE
  2
AcDbScale
  3
ObjectDBX Classes
 90
     1153
 91
       67
280
     1
281
     0
  0
ENDSEC
  0
SECTION
  2
TABLES
  0
TABLE
  2
VPORT
  5
8
330
0
100
AcDbSymbolTable
 70
     2
  0
VPORT
  5
97
330
8
100
AcDbSymbolTableRecord
100
AcDbViewportTableRecord
  2
*Active
 70
     0
 10
0.0
 20
0.0
 11
1.0
 21
1.0
 12
45.00000000000001
 22
30.0
 13
0.0
 23
0.0
 14
0.5
 24
0.5
 15
0.5
 25
0.5
 16
0.0
 26
0.0
 36
1.0
 17
0.0
 27
0.0
 37
0.0
 40
60.86267716535433
 41
1.5
 42
50.0
 43
0.0
 44
0.0
 50
0.0
 51
0.0
 71
    16
 72
  2000
 73
     1
 74
     1
 75
     0
 76
     0
 77
     0
 78
     0
281
     0
 65
     0
110
0.0
120
0.0
130
0.0
111
1.0
121
0.0
131
0.0
112
0.0
122
1.0
132
0.0
 79
     0
146
0.0
  0
ENDTAB
  0
TABLE
  2
LTYPE
  5
5
330
0
100
AcDbSymbolTable
 70
     8
  0
LTYPE
  5
14
330
5
100
AcDbSymbolTableRecord
100
AcDbLinetypeTableRecord
  2
ByBlock
 70
     0
  3

 72
    65
 73
     0
 40
0.0
  0
LTYPE
  5
15
330
5
100
AcDbSymbolTableRecord
100
AcDbLinetypeTableRecord
  2
ByLayer
 70
     0
  3

 72
    65
 73
     0
 40
0.0
  0
LTYPE
  5
16
330
5
100
AcDbSymbolTableRecord
100
AcDbLinetypeTableRecord
  2
Continuous
 70
     0
  3
Solid line
 72
    65
 73
     0
 40
0.0
  0
LTYPE
  5
3C1
330
5
100
AcDbSymbolTableRecord
100
AcDbLinetypeTableRecord
  2
SLD-Solid
 70
     0
  3
SolidWorks Line Style
 72
    65
 73
     0
 40
0.0
  0
LTYPE
  5
3C2
330
5
100
AcDbSymbolTableRecord
100
AcDbLinetypeTableRecord
  2
SLD-Dashed
 70
     0
  3
SolidWorks Line Style
 72
    65
 73
     2
 40
0.075
 49
0.05
 74
     4
 75
     0
340
0
 46
1.0
 50
0.0
 44
0.0
 45
0.0
 49
-0.025
 74
     4
 75
     0
340
0
 46
1.0
 50
0.0
 44
0.0
 45
0.0
  0
LTYPE
  5
3C3
330
5
100
AcDbSymbolTableRecord
100
AcDbLinetypeTableRecord
  2
SLD-Phantom
 70
     0
  3
SolidWorks Line Style
 72
    65
 73
     6
 40
0.4999999999999999
 49
0.25
 74
     4
 75
     0
340
0
 46
1.0
 50
0.0
 44
0.0
 45
0.0
 49
-0.05
 74
     4
 75
     0
340
0
 46
1.0
 50
0.0
 44
0.0
 45
0.0
 49
0.05
 74
     4
 75
     0
340
0
 46
1.0
 50
0.0
 44
0.0
 45
0.0
 49
-0.05
 74
     4
 75
     0
340
0
 46
1.0
 50
0.0
 44
0.0
 45
0.0
 49
0.05
 74
     4
 75
     0
340
0
 46
1.0
 50
0.0
 44
0.0
 45
0.0
 49
-0.05
 74
     4
 75
     0
340
0
 46
1.0
 50
0.0
 44
0.0
 45
0.0
  0
LTYPE
  5
3C4
330
5
100
AcDbSymbolTableRecord
100
AcDbLinetypeTableRecord
  2
SLD-Chain
 70
     0
  3
SolidWorks Line Style
 72
    65
 73
     4
 40
0.4
 49
0.25
 74
     4
 75
     0
340
0
 46
1.0
 50
0.0
 44
0.0
 45
0.0
 49
-0.05
 74
     4
 75
     0
340
0
 46
1.0
 50
0.0
 44
0.0
 45
0.0
 49
0.05
 74
     4
 75
     0
340
0
 46
1.0
 50
0.0
 44
0.0
 45
0.0
 49
-0.05
 74
     4
 75
     0
340
0
 46
1.0
 50
0.0
 44
0.0
 45
0.0
  0
LTYPE
  5
3C5
330
5
100
AcDbSymbolTableRecord
100
AcDbLinetypeTableRecord
  2
SLD-Center
 70
     0
  3
SolidWorks Line Style
 72
    65
 73
     4
 40
0.7500000000000002
 49
0.6000000000000001
 74
     4
 75
     0
340
0
 46
1.0
 50
0.0
 44
0.0
 45
0.0
 49
-0.05
 74
     4
 75
     0
340
0
 46
1.0
 50
0.0
 44
0.0
 45
0.0
 49
0.05
 74
     4
 75
     0
340
0
 46
1.0
 50
0.0
 44
0.0
 45
0.0
 49
-0.05
 74
     4
 75
     0
340
0
 46
1.0
 50
0.0
 44
0.0
 45
0.0
  0
LTYPE
  5
3C6
330
5
100
AcDbSymbolTableRecord
100
AcDbLinetypeTableRecord
  2
SLD-Stitch
 70
     0
  3
SolidWorks Line Style
 72
    65
 73
     2
 40
0.025
 49
0.0
 74
     4
 75
     0
340
0
 46
1.0
 50
0.0
 44
0.0
 45
0.0
 49
-0.025
 74
     4
 75
     0
340
0
 46
1.0
 50
0.0
 44
0.0
 45
0.0
  0
LTYPE
  5
3C7
330
5
100
AcDbSymbolTableRecord
100
AcDbLinetypeTableRecord
  2
SLD-Thin-Thick-Chain
 70
     0
  3
SolidWorks Line Style
 72
    65
 73
     4
 40
0.4
 49
0.25
 74
     4
 75
     0
340
0
 46
1.0
 50
0.0
 44
0.0
 45
0.0
 49
-0.05
 74
     4
 75
     0
340
0
 46
1.0
 50
0.0
 44
0.0
 45
0.0
 49
0.05
 74
     4
 75
     0
340
0
 46
1.0
 50
0.0
 44
0.0
 45
0.0
 49
-0.05
 74
     4
 75
     0
340
0
 46
1.0
 50
0.0
 44
0.0
 45
0.0
  0
ENDTAB
  0
TABLE
  2
LAYER
  5
2
330
0
100
AcDbSymbolTable
 70
     6
  0
LAYER
  5
10
330
2
100
AcDbSymbolTableRecord
100
AcDbLayerTableRecord
  2
0
 70
     0
 62
     7
  6
Continuous
370
    -3
390
F
  0
LAYER
  5
3C8
330
2
100
AcDbSymbolTableRecord
100
AcDbLayerTableRecord
  2
FORMAT
 70
     0
 62
     7
  6
SLD-Solid
370
    -3
390
F
  0
LAYER
  5
3C9
330
2
100
AcDbSymbolTableRecord
100
AcDbLayerTableRecord
  2
NOTES
 70
     0
 62
     1
  6
SLD-Solid
370
    -3
390
F
  0
LAYER
  5
77
330
2
100
AcDbSymbolTableRecord
100
AcDbLayerTableRecord
  2
OBJECT
 70
     0
 62
     7
  6
SLD-Solid
370
    25
390
F
  0
LAYER
  5
78
330
2
100
AcDbSymbolTableRecord
100
AcDbLayerTableRecord
  2
DIMS
 70
     0
 62
     5
  6
SLD-Solid
370
    -3
390
F
  0
LAYER
  5
79
330
2
100
AcDbSymbolTableRecord
100
AcDbLayerTableRecord
  2
TITLE
 70
     0
 62
     8
  6
SLD-Solid
370
    -3
390
F
  0
ENDTAB
  0
TABLE
  2
STYLE
  5
3
330
0
100
AcDbSymbolTable
 70
     5
  0
STYLE
  5
11
330
3
100
AcDbSymbolTableRecord
100
AcDbTextStyleTableRecord
  2
Standard
 70
     0
 40
0.0
 41
1.0
 50
0.0
 71
     0
 42
0.5
  3
GOTHIC.TTF
  4

1001
ACAD
1000
CENTURY GOTHIC
1071
       34
  0
STYLE
  5
121
330
3
100
AcDbSymbolTableRecord
100
AcDbTextStyleTableRecord
  2
SLDTEXTSTYLE0
 70
     0
 40
0.0
 41
0.913
 50
0.0
 71
     0
 42
0.5
  3
GOTHIC.TTF
  4

1001
ACAD
1000
Century Gothic
1071
      290
  0
STYLE
  5
12A
330
3
100
AcDbSymbolTableRecord
100
AcDbTextStyleTableRecord
  2
SLDTEXTSTYLE1
 70
     0
 40
0.0
 41
0.948
 50
0.0
 71
     0
 42
0.5
  3
ARIAL.TTF
  4

1001
ACAD
1000
Arial
1071
      290
  0
STYLE
  5
13C
330
3
100
AcDbSymbolTableRecord
100
AcDbTextStyleTableRecord
  2
SLDTEXTSTYLE2
 70
     0
 40
0.0
 41
0.87
 50
0.0
 71
     0
 42
0.5
  3
ARIALNB.TTF
  4

1001
ACAD
1000
Arial Narrow
1071
 33554722
  0
STYLE
  5
13E
330
3
100
AcDbSymbolTableRecord
100
AcDbTextStyleTableRecord
  2
SLDTEXTSTYLE3
 70
     0
 40
0.0
 41
0.87
 50
0.0
 71
     0
 42
0.5
  3
ARIALN.TTF
  4

1001
ACAD
1000
Arial Narrow
1071
      290
  0
ENDTAB
  0
TABLE
  2
VIEW
  5
6
330
0
100
AcDbSymbolTable
 70
     0
  0
ENDTAB
  0
TABLE
  2
UCS
  5
7
330
0
100
AcDbSymbolTable
 70
     0
  0
ENDTAB
  0
TABLE
  2
APPID
  5
9
330
0
100
AcDbSymbolTable
 70
     1
  0
APPID
  5
12
330
9
100
AcDbSymbolTableRecord
100
AcDbRegAppTableRecord
  2
ACAD
 70
     0
  0
ENDTAB
  0
TABLE
  2
DIMSTYLE
  5
A
330
0
100
AcDbSymbolTable
 70
     5
100
AcDbDimStyleTable
  0
DIMSTYLE
105
27
330
A
100
AcDbSymbolTableRecord
100
AcDbDimStyleTableRecord
  2
Standard
 70
     0
340
11
  0
DIMSTYLE
105
216
102
{ACAD_REACTORS
330
215
330
236
102
}
330
A
100
AcDbSymbolTableRecord
100
AcDbDimStyleTableRecord
  2
SLDDIMSTYLE0
 70
     0
 41
0.3
 44
0.0
 45
0.000000001
 78
    12
 79
     3
140
0.5
147
0.125
173
     1
271
     2
272
     2
276
     2
277
     5
284
    12
340
121
341
3CA
343
3CA
344
3CA
  0
DIMSTYLE
105
227
102
{ACAD_REACTORS
330
226
330
342
330
351
330
360
330
36F
102
}
330
A
100
AcDbSymbolTableRecord
100
AcDbDimStyleTableRecord
  2
SLDDIMSTYLE1
 70
     0
 41
0.3
 44
0.0
 45
0.000000001
 78
    12
 79
     3
140
0.5
147
0.125
173
     1
271
     6
272
     2
276
     2
277
     5
284
    12
340
121
341
3CA
343
3CA
344
3CA
  0
DIMSTYLE
105
27D
102
{ACAD_REACTORS
330
27C
102
}
330
A
100
AcDbSymbolTableRecord
100
AcDbDimStyleTableRecord
  2
SLDDIMSTYLE2
 70
     0
 41
0.3
 44
0.0
 45
0.000000001
 78
    12
 79
     3
140
0.5
147
0.125
172
     1
173
     1
271
     6
272
     2
276
     2
277
     5
284
    12
289
     0
340
121
341
3CA
343
3CA
344
3CA
  0
DIMSTYLE
105
335
102
{ACAD_REACTORS
330
334
102
}
330
A
100
AcDbSymbolTableRecord
100
AcDbDimStyleTableRecord
  2
SLDDIMSTYLE3
 70
     0
 41
0.3
 44
0.0
 45
0.000000001
 78
    12
 79
     3
140
0.5
141
0.0
147
0.125
173
     1
271
     2
272
     2
276
     2
277
     5
284
    12
340
121
341
3CA
343
3CA
344
3CA
  0
ENDTAB
  0
TABLE
  2
BLOCK_RECORD
  5
1
330
0
100
AcDbSymbolTable
 70
    15
  0
BLOCK_RECORD
  5
1F
330
1
100
AcDbSymbolTableRecord
100
AcDbBlockTableRecord
  2
*Model_Space
340
22
  0
BLOCK_RECORD
  5
73
330
1
100
AcDbSymbolTableRecord
100
AcDbBlockTableRecord
  2
*Paper_Space
340
74
  0
BLOCK_RECORD
  5
3CA
330
1
100
AcDbSymbolTableRecord
100
AcDbBlockTableRecord
  2
_Open90
340
0
102
{BLKREFS
331
220
331
221
331
22B
331
22C
331
23A
331
23B
331
281
331
282
331
339
331
346
331
347
331
355
331
356
331
364
331
365
331
373
331
374
102
}
  0
BLOCK_RECORD
  5
23
330
1
100
AcDbSymbolTableRecord
100
AcDbBlockTableRecord
  2
*Paper_Space1
340
26
  0
BLOCK_RECORD
  5
124
330
1
100
AcDbSymbolTableRecord
100
AcDbBlockTableRecord
  2
SW_NOTE_0
340
0
102
{BLKREFS
331
129
102
}
  0
BLOCK_RECORD
  5
133
330
1
100
AcDbSymbolTableRecord
100
AcDbBlockTableRecord
  2
SW_NOTE_0_1
340
0
  0
BLOCK_RECORD
  5
139
330
1
100
AcDbSymbolTableRecord
100
AcDbBlockTableRecord
  2
SW_NOTE_0_2
340
0
102
{BLKREFS
331
142
102
}
  0
BLOCK_RECORD
  5
21D
330
1
100
AcDbSymbolTableRecord
100
AcDbBlockTableRecord
  2
_D
340
0
  0
BLOCK_RECORD
  5
228
330
1
100
AcDbSymbolTableRecord
100
AcDbBlockTableRecord
  2
_D_1
340
0
  0
BLOCK_RECORD
  5
237
330
1
100
AcDbSymbolTableRecord
100
AcDbBlockTableRecord
  2
_D_2
340
0
  0
BLOCK_RECORD
  5
27E
330
1
100
AcDbSymbolTableRecord
100
AcDbBlockTableRecord
  2
_D_3
340
0
  0
BLOCK_RECORD
  5
336
330
1
100
AcDbSymbolTableRecord
100
AcDbBlockTableRecord
  2
_D_4
340
0
  0
BLOCK_RECORD
  5
343
330
1
100
AcDbSymbolTableRecord
100
AcDbBlockTableRecord
  2
_D_5
340
0
  0
BLOCK_RECORD
  5
352
330
1
100
AcDbSymbolTableRecord
100
AcDbBlockTableRecord
  2
_D_6
340
0
  0
BLOCK_RECORD
  5
361
330
1
100
AcDbSymbolTableRecord
100
AcDbBlockTableRecord
  2
_D_7
340
0
  0
BLOCK_RECORD
  5
370
330
1
100
AcDbSymbolTableRecord
100
AcDbBlockTableRecord
  2
_D_8
340
0
  0
BLOCK_RECORD
  5
3B5
330
1
100
AcDbSymbolTableRecord
100
AcDbBlockTableRecord
  2
SW_NOTE_0_3
340
0
102
{BLKREFS
331
3BA
102
}
  0
ENDTAB
  0
ENDSEC
  0
SECTION
  2
BLOCKS
  0
BLOCK
  5
20
330
1F
100
AcDbEntity
  8
0
100
AcDbBlockBegin
  2
*Model_Space
 70
     0
 71
     0
 10
0.0
 20
0.0
 30
0.0
  3
*Model_Space
  1

  0
ENDBLK
  5
21
330
1F
100
AcDbEntity
  8
0
100
AcDbBlockEnd
  0
BLOCK
  5
75
330
73
100
AcDbEntity
 67
     1
  8
0
100
AcDbBlockBegin
  2
*Paper_Space
 70
     0
 71
     0
 10
0.0
 20
0.0
 30
0.0
  3
*Paper_Space
  1

  0
ENDBLK
  5
76
330
73
100
AcDbEntity
 67
     1
  8
0
100
AcDbBlockEnd
  0
BLOCK
  5
3CB
330
3CA
100
AcDbEntity
  8
0
100
AcDbBlockBegin
  2
_Open90
 70
     0
 71
     0
 10
0.0
 20
0.0
 30
0.0
  3
_Open90
  1

  0
LINE
  5
21A
330
3CA
100
AcDbEntity
  8
0
  6
ByBlock
 62
     0
370
    -2
100
AcDbLine
 10
-0.5
 20
0.5
 30
0.0
 11
0.0
 21
0.0
 31
0.0
  0
LINE
  5
21B
330
3CA
100
AcDbEntity
  8
0
  6
ByBlock
 62
     0
370
    -2
100
AcDbLine
 10
0.0
 20
0.0
 30
0.0
 11
-0.5
 21
-0.5
 31
0.0
  0
LINE
  5
21C
330
3CA
100
AcDbEntity
  8
0
  6
ByBlock
 62
     0
370
    -2
100
AcDbLine
 10
0.0
 20
0.0
 30
0.0
 11
-1.0
 21
0.0
 31
0.0
  0
ENDBLK
  5
3CC
330
3CA
100
AcDbEntity
  8
0
100
AcDbBlockEnd
  0
BLOCK
  5
3D3
330
23
100
AcDbEntity
  8
0
100
AcDbBlockBegin
  2
*Paper_Space1
 70
     0
 71
     0
 10
0.0
 20
0.0
 30
0.0
  3
*Paper_Space1
  1

  0
ENDBLK
  5
3D4
330
23
100
AcDbEntity
  8
0
100
AcDbBlockEnd
  0
BLOCK
  5
3D5
330
124
100
AcDbEntity
  8
0
100
AcDbBlockBegin
  2
SW_NOTE_0
 70
     0
 71
     0
 10
0.0
 20
0.0
 30
0.0
  3
SW_NOTE_0
  1

  0
MTEXT
  5
127
330
124
100
AcDbEntity
  8
DIMS
 62
     0
100
AcDbMText
 10
0.0
 20
0.6386718750000004
 30
0.0
 40
0.5
 41
0.0
 71
     1
 72
     1
  1
(1220mm) bottom of mirror from door. Positions may
  7
SLDTEXTSTYLE0
 73
     1
 44
1.0
  0
MTEXT
  5
128
330
124
100
AcDbEntity
  8
DIMS
 62
     0
100
AcDbMText
 10
0.0
 20
-0.0078559229223743
 30
0.0
 40
0.5
 41
0.0
 71
     1
 72
     1
  1
vary depending on size and the type of installation
  7
SLDTEXTSTYLE0
 73
     1
 44
1.0
  0
ENDBLK
  5
3D6
330
124
100
AcDbEntity
  8
0
100
AcDbBlockEnd
  0
BLOCK
  5
3D7
330
133
100
AcDbEntity
  8
0
100
AcDbBlockBegin
  2
SW_NOTE_0_1
 70
     0
 71
     0
 10
0.0
 20
0.0
 30
0.0
  3
SW_NOTE_0_1
  1

  0
MTEXT
  5
136
330
133
100
AcDbEntity
  8
NOTES
 62
     0
100
AcDbMText
 10
0.0
 20
0.3759780907668229
 30
0.0
 40
0.2916666666666666
 41
0.0
 71
     1
 72
     1
  1
FROST PRODUCTS LTD.
  7
SLDTEXTSTYLE1
 73
     1
 44
1.0
  0
MTEXT
  5
137
330
133
100
AcDbEntity
  8
NOTES
 62
     0
100
AcDbMText
 10
0.0
 20
-0.0495142708586375
 30
0.0
 40
0.2291666666666666
 41
0.0
 71
     1
 72
     1
  1
5280 JOHN LUCUS DRIVE, BURLINGTON, ON, L7L 5Z9
  7
SLDTEXTSTYLE1
 73
     1
 44
1.0
  0
ENDBLK
  5
3D8
330
133
100
AcDbEntity
  8
0
100
AcDbBlockEnd
  0
BLOCK
  5
3D9
330
139
100
AcDbEntity
  8
0
100
AcDbBlockBegin
  2
SW_NOTE_0_2
 70
     0
 71
     0
 10
0.0
 20
0.0
 30
0.0
  3
SW_NOTE_0_2
  1

  0
MTEXT
  5
13D
330
139
100
AcDbEntity
  8
NOTES
 62
     0
100
AcDbMText
 10
0.0
 20
0.2381282770514712
 30
0.0
 40
0.1847290640394089
 41
0.0
 71
     1
 72
     1
  1
PROPRIETARY AND CONFIDENTIAL
  7
SLDTEXTSTYLE2
 73
     1
 44
1.0
  0
MTEXT
  5
13F
330
139
100
AcDbEntity
  8
NOTES
 62
     0
100
AcDbMText
 10
0.0
 20
-0.0504364795553608
 30
0.0
 40
0.25
 41
0.0
 71
     1
 72
     1
  1
THE INFORMATION CONTAINED IN THIS DRAWING IS THE SOLE PROPERTY OF 
  7
SLDTEXTSTYLE3
 73
     1
 44
1.0
  0
MTEXT
  5
140
330
139
100
AcDbEntity
  8
NOTES
 62
     0
100
AcDbMText
 10
0.0
 20
-0.4231398940537119
 30
0.0
 40
0.25
 41
0.0
 71
     1
 72
     1
  1
FROST PRODUCTS LTD.  ANY REPRODUCTION IN PART OR AS A WHOLE WITHOUT 
  7
SLDTEXTSTYLE3
 73
     1
 44
1.0
  0
MTEXT
  5
141
330
139
100
AcDbEntity
  8
NOTES
 62
     0
100
AcDbMText
 10
0.0
 20
-0.7958433085520636
 30
0.0
 40
0.25
 41
0.0
 71
     1
 72
     1
  1
THE WRITTEN PERMISSION OF FROST PRODUCTS LTD. IS PROHIBITED.
  7
SLDTEXTSTYLE3
 73
     1
 44
1.0
  0
ENDBLK
  5
3DA
330
139
100
AcDbEntity
  8
0
100
AcDbBlockEnd
  0
BLOCK
  5
3DB
330
21D
100
AcDbEntity
  8
0
100
AcDbBlockBegin
  2
_D
 70
     0
 71
     0
 10
0.0
 20
0.0
 30
0.0
  3
_D
  1

  0
INSERT
  5
220
330
21D
100
AcDbEntity
  8
DIMS
100
AcDbBlockReference
  2
_Open90
 10
3.099898154813605
 20
11.87179567242489
 30
0.0
 41
0.3
 42
0.3
 50
270.0000000000004
  0
INSERT
  5
221
330
21D
100
AcDbEntity
  8
DIMS
100
AcDbBlockReference
  2
_Open90
 10
3.099898154813605
 20
17.87179567242497
 30
0.0
 41
0.3
 42
0.3
 50
90.00000000000041
  0
LINE
  5
222
330
21D
100
AcDbEntity
  8
DIMS
100
AcDbLine
 10
4.318715149564269
 20
17.87179567242497
 30
0.0
 11
2.724898154813605
 21
17.87179567242497
 31
0.0
  0
LINE
  5
223
330
21D
100
AcDbEntity
  8
DIMS
100
AcDbLine
 10
3.099898154813605
 20
17.87179567242497
 30
0.0
 11
3.099898154813605
 21
14.5773065469271
 31
0.0
  0
MTEXT
  5
224
330
21D
100
AcDbEntity
  8
DIMS
100
AcDbMText
 10
2.627328727309273
 20
14.42222845306114
 30
0.0
 40
0.5
 41
0.0
 71
     1
 72
     1
  1
48"
  7
SLDTEXTSTYLE0
 73
     1
 44
1.0
  0
MTEXT
  5
225
330
21D
100
AcDbEntity
  8
DIMS
100
AcDbMText
 10
3.007537043443694
 20
12.04097838146517
 30
0.0
 40
0.5
 41
0.0
 71
     1
 72
     1
  1
 
  7
SLDTEXTSTYLE0
 73
     1
 44
1.0
  0
ENDBLK
  5
3DC
330
21D
100
AcDbEntity
  8
0
100
AcDbBlockEnd
  0
BLOCK
  5
3DD
330
228
100
AcDbEntity
  8
0
100
AcDbBlockBegin
  2
_D_1
 70
     0
 71
     0
 10
0.0
 20
0.0
 30
0.0
  3
_D_1
  1

  0
INSERT
  5
22B
330
228
100
AcDbEntity
  8
DIMS
100
AcDbBlockReference
  2
_Open90
 10
28.41178181623112
 20
55.41989882203126
 30
-0.0514002187799057
 41
0.3
 42
0.3
 50
0.0000000000005089
  0
INSERT
  5
22C
330
228
100
AcDbEntity
  8
DIMS
100
AcDbBlockReference
  2
_Open90
 10
4.456381816231059
 20
55.41989882203121
 30
-0.0514002187799057
 41
0.3
 42
0.3
 50
180.0000000000005
  0
LINE
  5
22D
330
228
100
AcDbEntity
  8
DIMS
100
AcDbLine
 10
18.37012459375219
 20
55.47118352041934
 30
0.0
 11
19.25554128867631
 21
55.47118352041934
 31
0.0
  0
LINE
  5
22E
330
228
100
AcDbEntity
  8
DIMS
100
AcDbLine
 10
28.41178181623112
 20
53.96486233909162
 30
0.0
 11
28.41178181623112
 21
55.79489882203126
 31
0.0
  0
LINE
  5
22F
330
228
100
AcDbEntity
  8
DIMS
100
AcDbLine
 10
4.456381816231063
 20
53.96486233909162
 30
0.0
 11
4.456381816231059
 21
55.79489882203121
 31
0.0
  0
LINE
  5
230
330
228
100
AcDbEntity
  8
DIMS
100
AcDbLine
 10
28.41178181623112
 20
55.41989882203126
 30
0.0
 11
19.53505522804077
 21
55.41989882203124
 31
0.0
  0
LINE
  5
231
330
228
100
AcDbEntity
  8
DIMS
100
AcDbLine
 10
4.456381816231059
 20
55.41989882203121
 30
0.0
 11
17.55797180081056
 21
55.41989882203124
 31
0.0
  0
MTEXT
  5
232
330
228
100
AcDbEntity
  8
DIMS
100
AcDbMText
 10
17.55797180081056
 20
55.70058458085072
 30
0.0
 40
0.5
 41
0.0
 71
     1
 72
     1
  1
23
  7
SLDTEXTSTYLE0
 73
     1
 44
1.0
  0
MTEXT
  5
233
330
228
100
AcDbEntity
  8
DIMS
100
AcDbMText
 10
18.44338849573468
 20
56.06589707989622
 30
0.0
 40
0.5
 41
0.0
 71
     1
 72
     1
  1
15
  7
SLDTEXTSTYLE0
 73
     1
 44
1.0
  0
MTEXT
  5
234
330
228
100
AcDbEntity
  8
DIMS
100
AcDbMText
 10
18.44338849573468
 20
55.40471650134818
 30
0.0
 40
0.5
 41
0.0
 71
     1
 72
     1
  1
16
  7
SLDTEXTSTYLE0
 73
     1
 44
1.0
  0
MTEXT
  5
235
330
228
100
AcDbEntity
  8
DIMS
100
AcDbMText
 10
19.32880526399128
 20
55.70058458085072
 30
0.0
 40
0.5
 41
0.0
 71
     1
 72
     1
  1
"
  7
SLDTEXTSTYLE0
 73
     1
 44
1.0
  0
ENDBLK
  5
3DE
330
228
100
AcDbEntity
  8
0
100
AcDbBlockEnd
  0
BLOCK
  5
3DF
330
237
100
AcDbEntity
  8
0
100
AcDbBlockBegin
  2
_D_2
 70
     0
 71
     0
 10
0.0
 20
0.0
 30
0.0
  3
_D_2
  1

  0
INSERT
  5
23A
330
237
100
AcDbEntity
  8
DIMS
100
AcDbBlockReference
  2
_Open90
 10
3.099898154813719
 20
53.8450956724251
 30
-0.0514002187799057
 41
0.3
 42
0.3
 50
90.0
  0
INSERT
  5
23B
330
237
100
AcDbEntity
  8
DIMS
100
AcDbBlockReference
  2
_Open90
 10
3.099898154813508
 20
17.87179567242498
 30
-0.0514002187799057
 41
0.3
 42
0.3
 50
270.0
  0
LINE
  5
23C
330
237
100
AcDbEntity
  8
DIMS
100
AcDbLine
 10
4.318715149564395
 20
53.84509567242495
 30
0.0
 11
2.724898154813718
 21
53.8450956724251
 31
0.0
  0
LINE
  5
23D
330
237
100
AcDbEntity
  8
DIMS
100
AcDbLine
 10
4.318715149564269
 20
17.87179567242497
 30
0.0
 11
2.724898154813507
 21
17.87179567242498
 31
0.0
  0
LINE
  5
23E
330
237
100
AcDbEntity
  8
DIMS
100
AcDbLine
 10
3.099898154813719
 20
53.8450956724251
 30
0.0
 11
3.099898154813625
 21
37.69604034117931
 31
0.0
  0
LINE
  5
23F
330
237
100
AcDbEntity
  8
DIMS
100
AcDbLine
 10
3.099898154813508
 20
17.87179567242498
 30
0.0
 11
3.09989815481362
 21
36.90229031731401
 31
0.0
  0
MTEXT
  5
240
330
237
100
AcDbEntity
  8
DIMS
100
AcDbMText
 10
2.627328727309273
 20
37.54096224731335
 30
0.0
 40
0.5
 41
0.0
 71
     1
 72
     1
  1
36"
  7
SLDTEXTSTYLE0
 73
     1
 44
1.0
  0
ENDBLK
  5
3E0
330
237
100
AcDbEntity
  8
0
100
AcDbBlockEnd
  0
BLOCK
  5
3E1
330
27E
100
AcDbEntity
  8
0
100
AcDbBlockBegin
  2
_D_3
 70
     0
 71
     0
 10
0.0
 20
0.0
 30
0.0
  3
_D_3
  1

  0
INSERT
  5
281
330
27E
100
AcDbEntity
  8
DIMS
100
AcDbBlockReference
  2
_Open90
 10
33.1696747283889
 20
54.71123740470841
 30
-0.8896585697048643
 41
0.3
 42
0.3
 50
180.0000000000004
  0
INSERT
  5
282
330
27E
100
AcDbEntity
  8
DIMS
100
AcDbBlockReference
  2
_Open90
 10
32.6738747283889
 20
54.71123740470841
 30
-0.8896585697048643
 41
0.3
 42
0.3
 50
0.0000000000004071
  0
LINE
  5
283
330
27E
100
AcDbEntity
  8
DIMS
100
AcDbLine
 10
31.64088861291238
 20
54.76252210309655
 30
0.0
 11
32.15686086235692
 21
54.76252210309655
 31
0.0
  0
LINE
  5
284
330
27E
100
AcDbEntity
  8
DIMS
100
AcDbLine
 10
33.1696747283889
 20
53.91890039831449
 30
0.0
 11
33.1696747283889
 21
55.08623740470841
 31
0.0
  0
LINE
  5
285
330
27E
100
AcDbEntity
  8
DIMS
100
AcDbLine
 10
32.6738747283889
 20
53.96344812552925
 30
0.0
 11
32.6738747283889
 21
55.08623740470841
 31
0.0
  0
LINE
  5
286
330
27E
100
AcDbEntity
  8
DIMS
100
AcDbLine
 10
33.1696747283889
 20
54.71123740470841
 30
0.0
 11
33.4696747283889
 21
54.71123740470841
 31
0.0
  0
LINE
  5
287
330
27E
100
AcDbEntity
  8
DIMS
100
AcDbLine
 10
32.6738747283889
 20
54.71123740470841
 30
0.0
 11
32.43637472838889
 21
54.71123740470841
 31
0.0
  0
MTEXT
  5
288
330
27E
100
AcDbEntity
  8
DIMS
100
AcDbMText
 10
31.71415251489486
 20
55.35723566257343
 30
0.0
 40
0.5
 41
0.0
 71
     1
 72
     1
  1
1
  7
SLDTEXTSTYLE0
 73
     1
 44
1.0
  0
MTEXT
  5
289
330
27E
100
AcDbEntity
  8
DIMS
100
AcDbMText
 10
31.71415251489486
 20
54.6960550840254
 30
0.0
 40
0.5
 41
0.0
 71
     1
 72
     1
  1
2
  7
SLDTEXTSTYLE0
 73
     1
 44
1.0
  0
MTEXT
  5
28A
330
27E
100
AcDbEntity
  8
DIMS
100
AcDbMText
 10
32.23012476433941
 20
54.99192316352792
 30
0.0
 40
0.5
 41
0.0
 71
     1
 72
     1
  1
"
  7
SLDTEXTSTYLE0
 73
     1
 44
1.0
  0
ENDBLK
  5
3E2
330
27E
100
AcDbEntity
  8
0
100
AcDbBlockEnd
  0
BLOCK
  5
3E3
330
336
100
AcDbEntity
  8
0
100
AcDbBlockBegin
  2
_D_4
 70
     0
 71
     0
 10
0.0
 20
0.0
 30
0.0
  3
_D_4
  1

  0
INSERT
  5
339
330
336
100
AcDbEntity
  8
DIMS
100
AcDbBlockReference
  2
_Open90
 10
38.84031943204482
 20
49.51578633171061
 30
0.0514002187796652
 41
0.3
 42
0.3
 50
239.9999999999992
  0
LINE
  5
33A
330
336
100
AcDbEntity
  8
DIMS
100
AcDbLine
 10
42.8827029647473
 20
54.61609811806113
 30
0.0
 11
43.76811965967141
 21
54.61609811806113
 31
0.0
  0
LINE
  5
33B
330
336
100
AcDbEntity
  8
DIMS
100
AcDbLine
 10
38.84031943204482
 20
49.51578633171061
 30
0.0
 11
41.75537658042563
 21
54.56481341967301
 31
0.0
  0
LINE
  5
33C
330
336
100
AcDbEntity
  8
DIMS
100
AcDbLine
 10
41.75537658042563
 20
54.56481341967301
 30
0.0
 11
42.05537658042562
 21
54.56481341967301
 31
0.0
  0
MTEXT
  5
33D
330
336
100
AcDbEntity
  8
DIMS
100
AcDbMText
 10
42.05537658042562
 20
54.8378602892376
 30
0.0
 40
0.5
 41
0.0
 71
     1
 72
     1
  1
%%c
  7
SLDTEXTSTYLE0
 73
     1
 44
1.0
  0
MTEXT
  5
33E
330
336
100
AcDbEntity
  8
DIMS
100
AcDbMText
 10
43.14068908946957
 20
55.21081167753801
 30
0.0
 40
0.5
 41
0.0
 71
     1
 72
     1
  1
3
  7
SLDTEXTSTYLE0
 73
     1
 44
1.0
  0
MTEXT
  5
33F
330
336
100
AcDbEntity
  8
DIMS
100
AcDbMText
 10
42.95596686672978
 20
54.54963109898997
 30
0.0
 40
0.5
 41
0.0
 71
     1
 72
     1
  1
16
  7
SLDTEXTSTYLE0
 73
     1
 44
1.0
  0
MTEXT
  5
340
330
336
100
AcDbEntity
  8
DIMS
100
AcDbMText
 10
43.8413835616539
 20
54.8454991784925
 30
0.0
 40
0.5
 41
0.0
 71
     1
 72
     1
  1
"
  7
SLDTEXTSTYLE0
 73
     1
 44
1.0
  0
MTEXT
  5
341
330
336
100
AcDbEntity
  8
DIMS
100
AcDbMText
 10
44.04763352570338
 20
54.8454991784925
 30
0.0
 40
0.5
 41
0.0
 71
     1
 72
     1
  1
 mounting hole (4)
  7
SLDTEXTSTYLE0
 73
     1
 44
1.0
  0
ENDBLK
  5
3E4
330
336
100
AcDbEntity
  8
0
100
AcDbBlockEnd
  0
BLOCK
  5
3E5
330
343
100
AcDbEntity
  8
0
100
AcDbBlockBegin
  2
_D_5
 70
     0
 71
     0
 10
0.0
 20
0.0
 30
0.0
  3
_D_5
  1

  0
INSERT
  5
346
330
343
100
AcDbEntity
  8
DIMS
100
AcDbBlockReference
  2
_Open90
 10
38.79031943204483
 20
55.65611929447218
 30
0.0514002187796651
 41
0.3
 42
0.3
 50
180.0000000000004
  0
INSERT
  5
347
330
343
100
AcDbEntity
  8
DIMS
100
AcDbBlockReference
  2
_Open90
 10
60.0403194320448
 20
55.65611929447218
 30
0.0514002187796651
 41
0.3
 42
0.3
 50
0.0000000000004071
  0
LINE
  5
348
330
343
100
AcDbEntity
  8
DIMS
100
AcDbLine
 10
49.42365277077737
 20
55.7074039928603
 30
0.0
 11
49.93962502022191
 21
55.7074039928603
 31
0.0
  0
LINE
  5
349
330
343
100
AcDbEntity
  8
DIMS
100
AcDbLine
 10
38.79031943204483
 20
49.59585045799884
 30
0.0
 11
38.79031943204483
 21
56.03111929447218
 31
0.0
  0
LINE
  5
34A
330
343
100
AcDbEntity
  8
DIMS
100
AcDbLine
 10
60.0403194320448
 20
49.59585045799884
 30
0.0
 11
60.0403194320448
 21
56.03111929447218
 31
0.0
  0
LINE
  5
34B
330
343
100
AcDbEntity
  8
DIMS
100
AcDbLine
 10
38.79031943204483
 20
55.65611929447218
 30
0.0
 11
48.61149997783573
 21
55.65611929447218
 31
0.0
  0
LINE
  5
34C
330
343
100
AcDbEntity
  8
DIMS
100
AcDbLine
 10
60.0403194320448
 20
55.65611929447218
 30
0.0
 11
50.21913888625387
 21
55.65611929447218
 31
0.0
  0
MTEXT
  5
34D
330
343
100
AcDbEntity
  8
DIMS
100
AcDbMText
 10
48.61149997783573
 20
55.93680505329167
 30
0.0
 40
0.5
 41
0.0
 71
     1
 72
     1
  1
21
  7
SLDTEXTSTYLE0
 73
     1
 44
1.0
  0
MTEXT
  5
34E
330
343
100
AcDbEntity
  8
DIMS
100
AcDbMText
 10
49.49691667275985
 20
56.30211755233717
 30
0.0
 40
0.5
 41
0.0
 71
     1
 72
     1
  1
1
  7
SLDTEXTSTYLE0
 73
     1
 44
1.0
  0
MTEXT
  5
34F
330
343
100
AcDbEntity
  8
DIMS
100
AcDbMText
 10
49.49691667275985
 20
55.64093697378914
 30
0.0
 40
0.5
 41
0.0
 71
     1
 72
     1
  1
4
  7
SLDTEXTSTYLE0
 73
     1
 44
1.0
  0
MTEXT
  5
350
330
343
100
AcDbEntity
  8
DIMS
100
AcDbMText
 10
50.0128889222044
 20
55.93680505329167
 30
0.0
 40
0.5
 41
0.0
 71
     1
 72
     1
  1
"
  7
SLDTEXTSTYLE0
 73
     1
 44
1.0
  0
ENDBLK
  5
3E6
330
343
100
AcDbEntity
  8
0
100
AcDbBlockEnd
  0
BLOCK
  5
3E7
330
352
100
AcDbEntity
  8
0
100
AcDbBlockBegin
  2
_D_6
 70
     0
 71
     0
 10
0.0
 20
0.0
 30
0.0
  3
_D_6
  1

  0
INSERT
  5
355
330
352
100
AcDbEntity
  8
DIMS
100
AcDbBlockReference
  2
_Open90
 10
62.95501212601465
 20
49.42918379133218
 30
0.0514002187796651
 41
0.3
 42
0.3
 50
90.00000000000041
  0
INSERT
  5
356
330
352
100
AcDbEntity
  8
DIMS
100
AcDbBlockReference
  2
_Open90
 10
62.95501212601465
 20
22.28018379133219
 30
0.0514002187796651
 41
0.3
 42
0.3
 50
270.0000000000004
  0
LINE
  5
357
330
352
100
AcDbEntity
  8
DIMS
100
AcDbLine
 10
62.96334546474718
 20
35.95651428650262
 30
0.0
 11
63.47931771419172
 21
35.95651428650262
 31
0.0
  0
LINE
  5
358
330
352
100
AcDbEntity
  8
DIMS
100
AcDbLine
 10
60.20698609871147
 20
49.42918379133218
 30
0.0
 11
63.33001212601465
 21
49.42918379133218
 31
0.0
  0
LINE
  5
359
330
352
100
AcDbEntity
  8
DIMS
100
AcDbLine
 10
60.20698609871148
 20
22.28018379133219
 30
0.0
 11
63.33001212601465
 21
22.28018379133219
 31
0.0
  0
LINE
  5
35A
330
352
100
AcDbEntity
  8
DIMS
100
AcDbLine
 10
62.95501212601465
 20
49.42918379133218
 30
0.0
 11
62.95501212601465
 21
36.55908374140219
 31
0.0
  0
LINE
  5
35B
330
352
100
AcDbEntity
  8
DIMS
100
AcDbLine
 10
62.95501212601465
 20
22.28018379133219
 30
0.0
 11
62.95501212601465
 21
35.25137543482678
 31
0.0
  0
MTEXT
  5
35C
330
352
100
AcDbEntity
  8
DIMS
100
AcDbMText
 10
62.15119267180555
 20
36.185915346934
 30
0.0
 40
0.5
 41
0.0
 71
     1
 72
     1
  1
27
  7
SLDTEXTSTYLE0
 73
     1
 44
1.0
  0
MTEXT
  5
35D
330
352
100
AcDbEntity
  8
DIMS
100
AcDbMText
 10
63.03660936672966
 20
36.5512278459795
 30
0.0
 40
0.5
 41
0.0
 71
     1
 72
     1
  1
1
  7
SLDTEXTSTYLE0
 73
     1
 44
1.0
  0
MTEXT
  5
35E
330
352
100
AcDbEntity
  8
DIMS
100
AcDbMText
 10
63.03660936672966
 20
35.89004726743146
 30
0.0
 40
0.5
 41
0.0
 71
     1
 72
     1
  1
8
  7
SLDTEXTSTYLE0
 73
     1
 44
1.0
  0
MTEXT
  5
35F
330
352
100
AcDbEntity
  8
DIMS
100
AcDbMText
 10
63.55258161617421
 20
36.185915346934
 30
0.0
 40
0.5
 41
0.0
 71
     1
 72
     1
  1
"
  7
SLDTEXTSTYLE0
 73
     1
 44
1.0
  0
ENDBLK
  5
3E8
330
352
100
AcDbEntity
  8
0
100
AcDbBlockEnd
  0
BLOCK
  5
3E9
330
361
100
AcDbEntity
  8
0
100
AcDbBlockBegin
  2
_D_7
 70
     0
 71
     0
 10
0.0
 20
0.0
 30
0.0
  3
_D_7
  1

  0
INSERT
  5
364
330
361
100
AcDbEntity
  8
DIMS
100
AcDbBlockReference
  2
_Open90
 10
62.9550121260146
 20
22.28018379133221
 30
0.0514002187796651
 41
0.3
 42
0.3
 50
90.0000000000008
  0
INSERT
  5
365
330
361
100
AcDbEntity
  8
DIMS
100
AcDbBlockReference
  2
_Open90
 10
62.95501212601464
 20
17.87179567242498
 30
0.0514002187796651
 41
0.3
 42
0.3
 50
270.0000000000008
  0
LINE
  5
366
330
361
100
AcDbEntity
  8
DIMS
100
AcDbLine
 10
62.59390101926761
 20
20.10174864278995
 30
0.0
 11
63.47931771419172
 21
20.10174864278995
 31
0.0
  0
LINE
  5
367
330
361
100
AcDbEntity
  8
DIMS
100
AcDbLine
 10
60.20698609871148
 20
22.28018379133219
 30
0.0
 11
63.3300121260146
 21
22.28018379133221
 31
0.0
  0
LINE
  5
368
330
361
100
AcDbEntity
  8
DIMS
100
AcDbLine
 10
61.49997465882306
 20
17.87179567242497
 30
0.0
 11
63.33001212601464
 21
17.87179567242498
 31
0.0
  0
LINE
  5
369
330
361
100
AcDbEntity
  8
DIMS
100
AcDbLine
 10
62.9550121260146
 20
22.28018379133221
 30
0.0
 11
62.95501212601462
 21
20.70431809768953
 31
0.0
  0
LINE
  5
36A
330
361
100
AcDbEntity
  8
DIMS
100
AcDbLine
 10
62.95501212601464
 20
17.87179567242498
 30
0.0
 11
62.95501212601463
 21
19.39660979111414
 31
0.0
  0
MTEXT
  5
36B
330
361
100
AcDbEntity
  8
DIMS
100
AcDbMText
 10
62.15119267180555
 20
20.33114970322132
 30
0.0
 40
0.5
 41
0.0
 71
     1
 72
     1
  1
4
  7
SLDTEXTSTYLE0
 73
     1
 44
1.0
  0
MTEXT
  5
36C
330
361
100
AcDbEntity
  8
DIMS
100
AcDbMText
 10
62.85188714398988
 20
20.69646220226682
 30
0.0
 40
0.5
 41
0.0
 71
     1
 72
     1
  1
7
  7
SLDTEXTSTYLE0
 73
     1
 44
1.0
  0
MTEXT
  5
36D
330
361
100
AcDbEntity
  8
DIMS
100
AcDbMText
 10
62.66716492125009
 20
20.03528162371879
 30
0.0
 40
0.5
 41
0.0
 71
     1
 72
     1
  1
16
  7
SLDTEXTSTYLE0
 73
     1
 44
1.0
  0
MTEXT
  5
36E
330
361
100
AcDbEntity
  8
DIMS
100
AcDbMText
 10
63.55258161617421
 20
20.33114970322132
 30
0.0
 40
0.5
 41
0.0
 71
     1
 72
     1
  1
"
  7
SLDTEXTSTYLE0
 73
     1
 44
1.0
  0
ENDBLK
  5
3EA
330
361
100
AcDbEntity
  8
0
100
AcDbBlockEnd
  0
BLOCK
  5
3EB
330
370
100
AcDbEntity
  8
0
100
AcDbBlockBegin
  2
_D_8
 70
     0
 71
     0
 10
0.0
 20
0.0
 30
0.0
  3
_D_8
  1

  0
INSERT
  5
373
330
370
100
AcDbEntity
  8
DIMS
100
AcDbBlockReference
  2
_Open90
 10
62.95501212601465
 20
53.84509567242495
 30
0.0514002187796651
 41
0.3
 42
0.3
 50
90.0000000000004
  0
INSERT
  5
374
330
370
100
AcDbEntity
  8
DIMS
100
AcDbBlockReference
  2
_Open90
 10
62.95501212601465
 20
49.42918379133218
 30
0.0514002187796651
 41
0.3
 42
0.3
 50
270.0000000000004
  0
LINE
  5
375
330
370
100
AcDbEntity
  8
DIMS
100
AcDbLine
 10
62.59390101926761
 20
51.54568920673049
 30
0.0
 11
63.47931771419172
 21
51.54568920673049
 31
0.0
  0
LINE
  5
376
330
370
100
AcDbEntity
  8
DIMS
100
AcDbLine
 10
61.49997465882293
 20
53.84509567242495
 30
0.0
 11
63.33001212601465
 21
53.84509567242495
 31
0.0
  0
LINE
  5
377
330
370
100
AcDbEntity
  8
DIMS
100
AcDbLine
 10
60.20698609871147
 20
49.42918379133218
 30
0.0
 11
63.33001212601465
 21
49.42918379133218
 31
0.0
  0
LINE
  5
378
330
370
100
AcDbEntity
  8
DIMS
100
AcDbLine
 10
62.95501212601465
 20
53.84509567242495
 30
0.0
 11
62.95501212601465
 21
52.14825866163008
 31
0.0
  0
LINE
  5
379
330
370
100
AcDbEntity
  8
DIMS
100
AcDbLine
 10
62.95501212601465
 20
49.42918379133218
 30
0.0
 11
62.95501212601465
 21
50.8405503550547
 31
0.0
  0
MTEXT
  5
37A
330
370
100
AcDbEntity
  8
DIMS
100
AcDbMText
 10
62.15119267180555
 20
51.77509026716186
 30
0.0
 40
0.5
 41
0.0
 71
     1
 72
     1
  1
4
  7
SLDTEXTSTYLE0
 73
     1
 44
1.0
  0
MTEXT
  5
37B
330
370
100
AcDbEntity
  8
DIMS
100
AcDbMText
 10
62.85188714398988
 20
52.14040276620737
 30
0.0
 40
0.5
 41
0.0
 71
     1
 72
     1
  1
7
  7
SLDTEXTSTYLE0
 73
     1
 44
1.0
  0
MTEXT
  5
37C
330
370
100
AcDbEntity
  8
DIMS
100
AcDbMText
 10
62.66716492125009
 20
51.47922218765934
 30
0.0
 40
0.5
 41
0.0
 71
     1
 72
     1
  1
16
  7
SLDTEXTSTYLE0
 73
     1
 44
1.0
  0
MTEXT
  5
37D
330
370
100
AcDbEntity
  8
DIMS
100
AcDbMText
 10
63.55258161617421
 20
51.77509026716186
 30
0.0
 40
0.5
 41
0.0
 71
     1
 72
     1
  1
"
  7
SLDTEXTSTYLE0
 73
     1
 44
1.0
  0
ENDBLK
  5
3EC
330
370
100
AcDbEntity
  8
0
100
AcDbBlockEnd
  0
BLOCK
  5
3ED
330
3B5
100
AcDbEntity
  8
0
100
AcDbBlockBegin
  2
SW_NOTE_0_3
 70
     0
 71
     0
 10
0.0
 20
0.0
 30
0.0
  3
SW_NOTE_0_3
  1

  0
MTEXT
  5
3B8
330
3B5
100
AcDbEntity
  8
NOTES
 62
     0
100
AcDbMText
 10
0.0
 20
0.6386718750000004
 30
0.0
 40
0.5
 41
0.0
 71
     1
 72
     1
  1
3D view
  7
SLDTEXTSTYLE0
 73
     1
 44
1.0
  0
MTEXT
  5
3B9
330
3B5
100
AcDbEntity
  8
NOTES
 62
     0
100
AcDbMText
 10
0.0
 20
-0.3613281862472921
 30
0.0
 40
0.5
 41
0.0
 71
     1
 72
     1
  1
code  941-2436
  7
SLDTEXTSTYLE0
 73
     1
 44
1.0
  0
ENDBLK
  5
3EE
330
3B5
100
AcDbEntity
  8
0
100
AcDbBlockEnd
  0
ENDSEC
  0
SECTION
  2
ENTITIES
  0
LINE
  5
7A
330
1F
100
AcDbEntity
  8
TITLE
370
    50
100
AcDbLine
 10
72.51822307231224
 20
1.48761176446163
 30
0.0
 11
89.49998645119503
 21
1.48761176446163
 31
0.0
  0
LINE
  5
7B
330
1F
100
AcDbEntity
  8
TITLE
370
    50
100
AcDbLine
 10
89.49993174424402
 20
5.475360393555799
 30
0.0
 11
79.31053507231782
 21
5.475360393555798
 31
0.0
  0
LINE
  5
7C
330
1F
100
AcDbEntity
  8
TITLE
  6
SLD-Solid
370
    18
100
AcDbLine
 10
0.5
 20
0.5
 30
0.0
 11
0.5
 21
59.50000000000001
 31
0.0
  0
LINE
  5
7D
330
1F
100
AcDbEntity
  8
TITLE
  6
SLD-Solid
370
    18
100
AcDbLine
 10
0.5
 20
59.50000000000001
 30
0.0
 11
89.5
 21
59.50000000000001
 31
0.0
  0
LINE
  5
7E
330
1F
100
AcDbEntity
  8
TITLE
370
    50
100
AcDbLine
 10
72.51822307231224
 20
2.542787723103443
 30
0.0
 11
65.50597912026433
 21
2.542787723103443
 31
0.0
  0
LINE
  5
7F
330
1F
100
AcDbEntity
  8
TITLE
370
    50
100
AcDbLine
 10
72.51822307231224
 20
1.48761176446163
 30
0.0
 11
65.50597912026433
 21
1.487611764461628
 31
0.0
  0
LINE
  5
80
330
1F
100
AcDbEntity
  8
TITLE
  6
SLD-Solid
370
    18
100
AcDbLine
 10
89.5
 20
59.50000000000001
 30
0.0
 11
89.5
 21
0.5
 31
0.0
  0
LINE
  5
81
330
1F
100
AcDbEntity
  8
TITLE
  6
SLD-Solid
370
    18
100
AcDbLine
 10
89.5
 20
0.5
 30
0.0
 11
0.5
 21
0.5
 31
0.0
  0
LINE
  5
82
330
1F
100
AcDbEntity
  8
TITLE
370
    50
100
AcDbLine
 10
72.51822307231224
 20
1.48761176446163
 30
0.0
 11
72.51822307231224
 21
3.597963681745258
 31
0.0
  0
LINE
  5
83
330
1F
100
AcDbEntity
  8
TITLE
370
    50
100
AcDbLine
 10
65.50597912026433
 20
3.597963681745256
 30
0.0
 11
65.50597912026433
 21
0.5
 31
0.0
  0
LINE
  5
84
330
1F
100
AcDbEntity
  8
TITLE
370
    50
100
AcDbLine
 10
65.50597912026433
 20
0.5
 30
0.0
 11
89.5
 21
0.5
 31
0.0
  0
LINE
  5
85
330
1F
100
AcDbEntity
  8
TITLE
370
    50
100
AcDbLine
 10
89.49993174424402
 20
5.475360393555799
 30
0.0
 11
89.5
 21
0.5
 31
0.0
  0
LINE
  5
86
330
1F
100
AcDbEntity
  8
TITLE
  6
SLD-Solid
370
    18
100
AcDbLine
 10
0.4999606299212599
 20
30.0
 30
0.0
 11
0.5000393700787401
 21
30.0
 31
0.0
  0
LINE
  5
87
330
1F
100
AcDbEntity
  8
TITLE
370
    50
100
AcDbLine
 10
72.51822307231224
 20
3.597963681745258
 30
0.0
 11
65.50597912026433
 21
3.597963681745256
 31
0.0
  0
LINE
  5
88
330
1F
100
AcDbEntity
  8
TITLE
370
    50
100
AcDbLine
 10
72.51822307231224
 20
3.597963681745258
 30
0.0
 11
89.49976156426074
 21
3.597964834324629
 31
0.0
  0
LINE
  5
89
330
1F
100
AcDbEntity
  8
TITLE
370
    50
100
AcDbLine
 10
79.31053507231782
 20
5.475360393555798
 30
0.0
 11
79.31053507231782
 21
0.4636772425222311
 31
0.0
  0
LINE
  5
8A
330
1F
100
AcDbEntity
  8
TITLE
  6
SLD-Solid
370
    18
100
AcDbLine
 10
45.0
 20
59.50003937007875
 30
0.0
 11
45.0
 21
59.49996062992127
 31
0.0
  0
LINE
  5
8B
330
1F
100
AcDbEntity
  8
TITLE
  6
SLD-Solid
370
    18
100
AcDbLine
 10
89.50003937007874
 20
30.0
 30
0.0
 11
89.49996062992125
 21
30.0
 31
0.0
  0
LINE
  5
8C
330
1F
100
AcDbEntity
  8
TITLE
  6
SLD-Solid
370
    18
100
AcDbLine
 10
45.0
 20
0.4999606299212599
 30
0.0
 11
45.0
 21
0.5000393700787401
 31
0.0
  0
LINE
  5
8D
330
1F
100
AcDbEntity
  8
TITLE
  6
SLD-Solid
370
    18
100
AcDbLine
 10
0.5
 20
2.440944881889762
 30
0.0
 11
0.1653543307086614
 21
2.440944881889762
 31
0.0
  0
LINE
  5
8E
330
1F
100
AcDbEntity
  8
TITLE
  6
SLD-Solid
370
    18
100
AcDbLine
 10
89.5
 20
2.440944881889762
 30
0.0
 11
89.83464566929135
 21
2.440944881889762
 31
0.0
  0
LINE
  5
8F
330
1F
100
AcDbEntity
  8
TITLE
  6
SLD-Solid
370
    18
100
AcDbLine
 10
0.5
 20
4.409448818897637
 30
0.0
 11
0.1653543307086614
 21
4.409448818897637
 31
0.0
  0
LINE
  5
90
330
1F
100
AcDbEntity
  8
TITLE
  6
SLD-Solid
370
    18
100
AcDbLine
 10
89.5
 20
4.409448818897637
 30
0.0
 11
89.83464566929135
 21
4.409448818897637
 31
0.0
  0
LINE
  5
91
330
1F
100
AcDbEntity
  8
TITLE
  6
SLD-Solid
370
    18
100
AcDbLine
 10
0.5
 20
6.377952755905508
 30
0.0
 11
0.1653543307086614
 21
6.377952755905508
 31
0.0
  0
LINE
  5
3EF
330
1F
100
AcDbEntity
  8
TITLE
  6
SLD-Solid
370
    18
100
AcDbLine
 10
89.5
 20
6.377952755905508
 30
0.0
 11
89.83464566929135
 21
6.377952755905508
 31
0.0
  0
LINE
  5
3F0
330
1F
100
AcDbEntity
  8
TITLE
  6
SLD-Solid
370
    18
100
AcDbLine
 10
0.5
 20
8.346456692913385
 30
0.0
 11
0.1653543307086614
 21
8.346456692913385
 31
0.0
  0
LINE
  5
94
330
1F
100
AcDbEntity
  8
TITLE
  6
SLD-Solid
370
    18
100
AcDbLine
 10
89.5
 20
8.346456692913385
 30
0.0
 11
89.83464566929135
 21
8.346456692913385
 31
0.0
  0
LINE
  5
95
330
1F
100
AcDbEntity
  8
TITLE
  6
SLD-Solid
370
    18
100
AcDbLine
 10
0.5
 20
10.31496062992126
 30
0.0
 11
0.1653543307086614
 21
10.31496062992126
 31
0.0
  0
LINE
  5
96
330
1F
100
AcDbEntity
  8
TITLE
  6
SLD-Solid
370
    18
100
AcDbLine
 10
89.5
 20
10.31496062992126
 30
0.0
 11
89.83464566929135
 21
10.31496062992126
 31
0.0
  0
LINE
  5
3F1
330
1F
100
AcDbEntity
  8
TITLE
  6
SLD-Solid
370
    18
100
AcDbLine
 10
0.5
 20
12.28346456692913
 30
0.0
 11
0.1653543307086614
 21
12.28346456692913
 31
0.0
  0
LINE
  5
3F2
330
1F
100
AcDbEntity
  8
TITLE
  6
SLD-Solid
370
    18
100
AcDbLine
 10
89.5
 20
12.28346456692913
 30
0.0
 11
89.83464566929135
 21
12.28346456692913
 31
0.0
  0
LINE
  5
99
330
1F
100
AcDbEntity
  8
TITLE
  6
SLD-Solid
370
    18
100
AcDbLine
 10
0.5
 20
14.25196850393701
 30
0.0
 11
0.1653543307086614
 21
14.25196850393701
 31
0.0
  0
LINE
  5
9A
330
1F
100
AcDbEntity
  8
TITLE
  6
SLD-Solid
370
    18
100
AcDbLine
 10
89.5
 20
14.25196850393701
 30
0.0
 11
89.83464566929135
 21
14.25196850393701
 31
0.0
  0
LINE
  5
9B
330
1F
100
AcDbEntity
  8
TITLE
  6
SLD-Solid
370
    18
100
AcDbLine
 10
0.5
 20
16.22047244094488
 30
0.0
 11
0.1653543307086614
 21
16.22047244094488
 31
0.0
  0
LINE
  5
9C
330
1F
100
AcDbEntity
  8
TITLE
  6
SLD-Solid
370
    18
100
AcDbLine
 10
89.5
 20
16.22047244094488
 30
0.0
 11
89.83464566929135
 21
16.22047244094488
 31
0.0
  0
LINE
  5
9D
330
1F
100
AcDbEntity
  8
TITLE
  6
SLD-Solid
370
    18
100
AcDbLine
 10
0.5
 20
18.18897637795276
 30
0.0
 11
0.1653543307086614
 21
18.18897637795276
 31
0.0
  0
LINE
  5
9E
330
1F
100
AcDbEntity
  8
TITLE
  6
SLD-Solid
370
    18
100
AcDbLine
 10
89.5
 20
18.18897637795276
 30
0.0
 11
89.83464566929135
 21
18.18897637795276
 31
0.0
  0
LINE
  5
9F
330
1F
100
AcDbEntity
  8
TITLE
  6
SLD-Solid
370
    18
100
AcDbLine
 10
0.5
 20
20.15748031496063
 30
0.0
 11
0.1653543307086614
 21
20.15748031496063
 31
0.0
  0
LINE
  5
A0
330
1F
100
AcDbEntity
  8
TITLE
  6
SLD-Solid
370
    18
100
AcDbLine
 10
89.5
 20
20.15748031496063
 30
0.0
 11
89.83464566929135
 21
20.15748031496063
 31
0.0
  0
LINE
  5
A1
330
1F
100
AcDbEntity
  8
TITLE
  6
SLD-Solid
370
    18
100
AcDbLine
 10
0.5
 20
22.12598425196851
 30
0.0
 11
0.1653543307086614
 21
22.12598425196851
 31
0.0
  0
LINE
  5
A2
330
1F
100
AcDbEntity
  8
TITLE
  6
SLD-Solid
370
    18
100
AcDbLine
 10
89.5
 20
22.12598425196851
 30
0.0
 11
89.83464566929135
 21
22.12598425196851
 31
0.0
  0
LINE
  5
A3
330
1F
100
AcDbEntity
  8
TITLE
  6
SLD-Solid
370
    18
100
AcDbLine
 10
0.5
 20
24.09448818897638
 30
0.0
 11
0.1653543307086614
 21
24.09448818897638
 31
0.0
  0
LINE
  5
A4
330
1F
100
AcDbEntity
  8
TITLE
  6
SLD-Solid
370
    18
100
AcDbLine
 10
89.5
 20
24.09448818897638
 30
0.0
 11
89.83464566929135
 21
24.09448818897638
 31
0.0
  0
LINE
  5
A5
330
1F
100
AcDbEntity
  8
TITLE
  6
SLD-Solid
370
    18
100
AcDbLine
 10
0.5
 20
26.06299212598426
 30
0.0
 11
0.1653543307086614
 21
26.06299212598426
 31
0.0
  0
LINE
  5
A6
330
1F
100
AcDbEntity
  8
TITLE
  6
SLD-Solid
370
    18
100
AcDbLine
 10
89.5
 20
26.06299212598426
 30
0.0
 11
89.83464566929135
 21
26.06299212598426
 31
0.0
  0
LINE
  5
A7
330
1F
100
AcDbEntity
  8
TITLE
  6
SLD-Solid
370
    18
100
AcDbLine
 10
0.5
 20
28.03149606299213
 30
0.0
 11
0.1653543307086614
 21
28.03149606299213
 31
0.0
  0
LINE
  5
A8
330
1F
100
AcDbEntity
  8
TITLE
  6
SLD-Solid
370
    18
100
AcDbLine
 10
89.5
 20
28.03149606299213
 30
0.0
 11
89.83464566929135
 21
28.03149606299213
 31
0.0
  0
LINE
  5
A9
330
1F
100
AcDbEntity
  8
TITLE
  6
SLD-Solid
370
    18
100
AcDbLine
 10
0.5
 20
30.0
 30
0.0
 11
0.1653543307086614
 21
30.0
 31
0.0
  0
LINE
  5
AA
330
1F
100
AcDbEntity
  8
TITLE
  6
SLD-Solid
370
    18
100
AcDbLine
 10
89.5
 20
30.0
 30
0.0
 11
89.83464566929135
 21
30.0
 31
0.0
  0
LINE
  5
AB
330
1F
100
AcDbEntity
  8
TITLE
  6
SLD-Solid
370
    18
100
AcDbLine
 10
0.5
 20
31.96850393700788
 30
0.0
 11
0.1653543307086614
 21
31.96850393700788
 31
0.0
  0
LINE
  5
AC
330
1F
100
AcDbEntity
  8
TITLE
  6
SLD-Solid
370
    18
100
AcDbLine
 10
89.5
 20
31.96850393700788
 30
0.0
 11
89.83464566929135
 21
31.96850393700788
 31
0.0
  0
LINE
  5
AD
330
1F
100
AcDbEntity
  8
TITLE
  6
SLD-Solid
370
    18
100
AcDbLine
 10
0.5
 20
33.93700787401575
 30
0.0
 11
0.1653543307086614
 21
33.93700787401575
 31
0.0
  0
LINE
  5
AE
330
1F
100
AcDbEntity
  8
TITLE
  6
SLD-Solid
370
    18
100
AcDbLine
 10
89.5
 20
33.93700787401575
 30
0.0
 11
89.83464566929135
 21
33.93700787401575
 31
0.0
  0
LINE
  5
AF
330
1F
100
AcDbEntity
  8
TITLE
  6
SLD-Solid
370
    18
100
AcDbLine
 10
0.5
 20
35.90551181102362
 30
0.0
 11
0.1653543307086614
 21
35.90551181102362
 31
0.0
  0
LINE
  5
B0
330
1F
100
AcDbEntity
  8
TITLE
  6
SLD-Solid
370
    18
100
AcDbLine
 10
89.5
 20
35.90551181102362
 30
0.0
 11
89.83464566929135
 21
35.90551181102362
 31
0.0
  0
LINE
  5
B1
330
1F
100
AcDbEntity
  8
TITLE
  6
SLD-Solid
370
    18
100
AcDbLine
 10
0.5
 20
37.8740157480315
 30
0.0
 11
0.1653543307086614
 21
37.8740157480315
 31
0.0
  0
LINE
  5
B2
330
1F
100
AcDbEntity
  8
TITLE
  6
SLD-Solid
370
    18
100
AcDbLine
 10
89.5
 20
37.8740157480315
 30
0.0
 11
89.83464566929135
 21
37.8740157480315
 31
0.0
  0
LINE
  5
B3
330
1F
100
AcDbEntity
  8
TITLE
  6
SLD-Solid
370
    18
100
AcDbLine
 10
0.5
 20
39.84251968503937
 30
0.0
 11
0.1653543307086614
 21
39.84251968503937
 31
0.0
  0
LINE
  5
B4
330
1F
100
AcDbEntity
  8
TITLE
  6
SLD-Solid
370
    18
100
AcDbLine
 10
89.5
 20
39.84251968503937
 30
0.0
 11
89.83464566929135
 21
39.84251968503937
 31
0.0
  0
LINE
  5
B5
330
1F
100
AcDbEntity
  8
TITLE
  6
SLD-Solid
370
    18
100
AcDbLine
 10
0.5
 20
41.81102362204724
 30
0.0
 11
0.1653543307086614
 21
41.81102362204724
 31
0.0
  0
LINE
  5
B6
330
1F
100
AcDbEntity
  8
TITLE
  6
SLD-Solid
370
    18
100
AcDbLine
 10
89.5
 20
41.81102362204724
 30
0.0
 11
89.83464566929135
 21
41.81102362204724
 31
0.0
  0
LINE
  5
B7
330
1F
100
AcDbEntity
  8
TITLE
  6
SLD-Solid
370
    18
100
AcDbLine
 10
0.5
 20
43.77952755905513
 30
0.0
 11
0.1653543307086614
 21
43.77952755905513
 31
0.0
  0
LINE
  5
B8
330
1F
100
AcDbEntity
  8
TITLE
  6
SLD-Solid
370
    18
100
AcDbLine
 10
89.5
 20
43.77952755905513
 30
0.0
 11
89.83464566929135
 21
43.77952755905513
 31
0.0
  0
LINE
  5
B9
330
1F
100
AcDbEntity
  8
TITLE
  6
SLD-Solid
370
    18
100
AcDbLine
 10
0.5
 20
45.74803149606299
 30
0.0
 11
0.1653543307086614
 21
45.74803149606299
 31
0.0
  0
LINE
  5
BA
330
1F
100
AcDbEntity
  8
TITLE
  6
SLD-Solid
370
    18
100
AcDbLine
 10
89.5
 20
45.74803149606299
 30
0.0
 11
89.83464566929135
 21
45.74803149606299
 31
0.0
  0
LINE
  5
BB
330
1F
100
AcDbEntity
  8
TITLE
  6
SLD-Solid
370
    18
100
AcDbLine
 10
0.5
 20
47.71653543307087
 30
0.0
 11
0.1653543307086614
 21
47.71653543307087
 31
0.0
  0
LINE
  5
BC
330
1F
100
AcDbEntity
  8
TITLE
  6
SLD-Solid
370
    18
100
AcDbLine
 10
89.5
 20
47.71653543307087
 30
0.0
 11
89.83464566929135
 21
47.71653543307087
 31
0.0
  0
LINE
  5
BD
330
1F
100
AcDbEntity
  8
TITLE
  6
SLD-Solid
370
    18
100
AcDbLine
 10
0.5
 20
49.68503937007874
 30
0.0
 11
0.1653543307086614
 21
49.68503937007874
 31
0.0
  0
LINE
  5
BE
330
1F
100
AcDbEntity
  8
TITLE
  6
SLD-Solid
370
    18
100
AcDbLine
 10
89.5
 20
49.68503937007874
 30
0.0
 11
89.83464566929135
 21
49.68503937007874
 31
0.0
  0
LINE
  5
BF
330
1F
100
AcDbEntity
  8
TITLE
  6
SLD-Solid
370
    18
100
AcDbLine
 10
0.5
 20
51.65354330708661
 30
0.0
 11
0.1653543307086614
 21
51.65354330708661
 31
0.0
  0
LINE
  5
C0
330
1F
100
AcDbEntity
  8
TITLE
  6
SLD-Solid
370
    18
100
AcDbLine
 10
89.5
 20
51.65354330708661
 30
0.0
 11
89.83464566929135
 21
51.65354330708661
 31
0.0
  0
LINE
  5
C1
330
1F
100
AcDbEntity
  8
TITLE
  6
SLD-Solid
370
    18
100
AcDbLine
 10
0.5
 20
53.6220472440945
 30
0.0
 11
0.1653543307086614
 21
53.6220472440945
 31
0.0
  0
LINE
  5
C2
330
1F
100
AcDbEntity
  8
TITLE
  6
SLD-Solid
370
    18
100
AcDbLine
 10
89.5
 20
53.6220472440945
 30
0.0
 11
89.83464566929135
 21
53.6220472440945
 31
0.0
  0
LINE
  5
C3
330
1F
100
AcDbEntity
  8
TITLE
  6
SLD-Solid
370
    18
100
AcDbLine
 10
0.5
 20
55.59055118110236
 30
0.0
 11
0.1653543307086614
 21
55.59055118110236
 31
0.0
  0
LINE
  5
C4
330
1F
100
AcDbEntity
  8
TITLE
  6
SLD-Solid
370
    18
100
AcDbLine
 10
89.5
 20
55.59055118110236
 30
0.0
 11
89.83464566929135
 21
55.59055118110236
 31
0.0
  0
LINE
  5
C5
330
1F
100
AcDbEntity
  8
TITLE
  6
SLD-Solid
370
    18
100
AcDbLine
 10
0.5
 20
57.55905511811024
 30
0.0
 11
0.1653543307086614
 21
57.55905511811024
 31
0.0
  0
LINE
  5
C6
330
1F
100
AcDbEntity
  8
TITLE
  6
SLD-Solid
370
    18
100
AcDbLine
 10
89.5
 20
57.55905511811024
 30
0.0
 11
89.83464566929135
 21
57.55905511811024
 31
0.0
  0
LINE
  5
C7
330
1F
100
AcDbEntity
  8
TITLE
  6
SLD-Solid
370
    18
100
AcDbLine
 10
1.692913385826769
 20
59.50000000000001
 30
0.0
 11
1.692913385826769
 21
59.83464566929134
 31
0.0
  0
LINE
  5
C8
330
1F
100
AcDbEntity
  8
TITLE
  6
SLD-Solid
370
    18
100
AcDbLine
 10
1.692913385826769
 20
0.5
 30
0.0
 11
1.692913385826769
 21
0.1653543307086614
 31
0.0
  0
LINE
  5
C9
330
1F
100
AcDbEntity
  8
TITLE
  6
SLD-Solid
370
    18
100
AcDbLine
 10
3.661417322834644
 20
59.50000000000001
 30
0.0
 11
3.661417322834644
 21
59.83464566929134
 31
0.0
  0
LINE
  5
CA
330
1F
100
AcDbEntity
  8
TITLE
  6
SLD-Solid
370
    18
100
AcDbLine
 10
3.661417322834644
 20
0.5
 30
0.0
 11
3.661417322834644
 21
0.1653543307086614
 31
0.0
  0
LINE
  5
CB
330
1F
100
AcDbEntity
  8
TITLE
  6
SLD-Solid
370
    18
100
AcDbLine
 10
5.62992125984252
 20
59.50000000000001
 30
0.0
 11
5.62992125984252
 21
59.83464566929134
 31
0.0
  0
LINE
  5
CC
330
1F
100
AcDbEntity
  8
TITLE
  6
SLD-Solid
370
    18
100
AcDbLine
 10
5.62992125984252
 20
0.5
 30
0.0
 11
5.62992125984252
 21
0.1653543307086614
 31
0.0
  0
LINE
  5
CD
330
1F
100
AcDbEntity
  8
TITLE
  6
SLD-Solid
370
    18
100
AcDbLine
 10
7.598425196850392
 20
59.50000000000001
 30
0.0
 11
7.598425196850392
 21
59.83464566929134
 31
0.0
  0
LINE
  5
CE
330
1F
100
AcDbEntity
  8
TITLE
  6
SLD-Solid
370
    18
100
AcDbLine
 10
7.598425196850392
 20
0.5
 30
0.0
 11
7.598425196850392
 21
0.1653543307086614
 31
0.0
  0
LINE
  5
CF
330
1F
100
AcDbEntity
  8
TITLE
  6
SLD-Solid
370
    18
100
AcDbLine
 10
9.566929133858268
 20
59.50000000000001
 30
0.0
 11
9.566929133858268
 21
59.83464566929134
 31
0.0
  0
LINE
  5
D0
330
1F
100
AcDbEntity
  8
TITLE
  6
SLD-Solid
370
    18
100
AcDbLine
 10
9.566929133858268
 20
0.5
 30
0.0
 11
9.566929133858268
 21
0.1653543307086614
 31
0.0
  0
LINE
  5
D1
330
1F
100
AcDbEntity
  8
TITLE
  6
SLD-Solid
370
    18
100
AcDbLine
 10
11.53543307086614
 20
59.50000000000001
 30
0.0
 11
11.53543307086614
 21
59.83464566929134
 31
0.0
  0
LINE
  5
D2
330
1F
100
AcDbEntity
  8
TITLE
  6
SLD-Solid
370
    18
100
AcDbLine
 10
11.53543307086614
 20
0.5
 30
0.0
 11
11.53543307086614
 21
0.1653543307086614
 31
0.0
  0
LINE
  5
D3
330
1F
100
AcDbEntity
  8
TITLE
  6
SLD-Solid
370
    18
100
AcDbLine
 10
13.50393700787401
 20
59.50000000000001
 30
0.0
 11
13.50393700787401
 21
59.83464566929134
 31
0.0
  0
LINE
  5
D4
330
1F
100
AcDbEntity
  8
TITLE
  6
SLD-Solid
370
    18
100
AcDbLine
 10
13.50393700787401
 20
0.5
 30
0.0
 11
13.50393700787401
 21
0.1653543307086614
 31
0.0
  0
LINE
  5
D5
330
1F
100
AcDbEntity
  8
TITLE
  6
SLD-Solid
370
    18
100
AcDbLine
 10
15.47244094488189
 20
59.50000000000001
 30
0.0
 11
15.47244094488189
 21
59.83464566929134
 31
0.0
  0
LINE
  5
D6
330
1F
100
AcDbEntity
  8
TITLE
  6
SLD-Solid
370
    18
100
AcDbLine
 10
15.47244094488189
 20
0.5
 30
0.0
 11
15.47244094488189
 21
0.1653543307086614
 31
0.0
  0
LINE
  5
D7
330
1F
100
AcDbEntity
  8
TITLE
  6
SLD-Solid
370
    18
100
AcDbLine
 10
17.44094488188976
 20
59.50000000000001
 30
0.0
 11
17.44094488188976
 21
59.83464566929134
 31
0.0
  0
LINE
  5
D8
330
1F
100
AcDbEntity
  8
TITLE
  6
SLD-Solid
370
    18
100
AcDbLine
 10
17.44094488188976
 20
0.5
 30
0.0
 11
17.44094488188976
 21
0.1653543307086614
 31
0.0
  0
LINE
  5
D9
330
1F
100
AcDbEntity
  8
TITLE
  6
SLD-Solid
370
    18
100
AcDbLine
 10
19.40944881889764
 20
59.50000000000001
 30
0.0
 11
19.40944881889764
 21
59.83464566929134
 31
0.0
  0
LINE
  5
DA
330
1F
100
AcDbEntity
  8
TITLE
  6
SLD-Solid
370
    18
100
AcDbLine
 10
19.40944881889764
 20
0.5
 30
0.0
 11
19.40944881889764
 21
0.1653543307086614
 31
0.0
  0
LINE
  5
DB
330
1F
100
AcDbEntity
  8
TITLE
  6
SLD-Solid
370
    18
100
AcDbLine
 10
21.37795275590551
 20
59.50000000000001
 30
0.0
 11
21.37795275590551
 21
59.83464566929134
 31
0.0
  0
LINE
  5
DC
330
1F
100
AcDbEntity
  8
TITLE
  6
SLD-Solid
370
    18
100
AcDbLine
 10
21.37795275590551
 20
0.5
 30
0.0
 11
21.37795275590551
 21
0.1653543307086614
 31
0.0
  0
LINE
  5
DD
330
1F
100
AcDbEntity
  8
TITLE
  6
SLD-Solid
370
    18
100
AcDbLine
 10
23.34645669291339
 20
59.50000000000001
 30
0.0
 11
23.34645669291339
 21
59.83464566929134
 31
0.0
  0
LINE
  5
DE
330
1F
100
AcDbEntity
  8
TITLE
  6
SLD-Solid
370
    18
100
AcDbLine
 10
23.34645669291339
 20
0.5
 30
0.0
 11
23.34645669291339
 21
0.1653543307086614
 31
0.0
  0
LINE
  5
DF
330
1F
100
AcDbEntity
  8
TITLE
  6
SLD-Solid
370
    18
100
AcDbLine
 10
25.31496062992126
 20
59.50000000000001
 30
0.0
 11
25.31496062992126
 21
59.83464566929134
 31
0.0
  0
LINE
  5
E0
330
1F
100
AcDbEntity
  8
TITLE
  6
SLD-Solid
370
    18
100
AcDbLine
 10
25.31496062992126
 20
0.5
 30
0.0
 11
25.31496062992126
 21
0.1653543307086614
 31
0.0
  0
LINE
  5
E1
330
1F
100
AcDbEntity
  8
TITLE
  6
SLD-Solid
370
    18
100
AcDbLine
 10
27.28346456692914
 20
59.50000000000001
 30
0.0
 11
27.28346456692914
 21
59.83464566929134
 31
0.0
  0
LINE
  5
E2
330
1F
100
AcDbEntity
  8
TITLE
  6
SLD-Solid
370
    18
100
AcDbLine
 10
27.28346456692914
 20
0.5
 30
0.0
 11
27.28346456692914
 21
0.1653543307086614
 31
0.0
  0
LINE
  5
E3
330
1F
100
AcDbEntity
  8
TITLE
  6
SLD-Solid
370
    18
100
AcDbLine
 10
29.25196850393701
 20
59.50000000000001
 30
0.0
 11
29.25196850393701
 21
59.83464566929134
 31
0.0
  0
LINE
  5
E4
330
1F
100
AcDbEntity
  8
TITLE
  6
SLD-Solid
370
    18
100
AcDbLine
 10
29.25196850393701
 20
0.5
 30
0.0
 11
29.25196850393701
 21
0.1653543307086614
 31
0.0
  0
LINE
  5
E5
330
1F
100
AcDbEntity
  8
TITLE
  6
SLD-Solid
370
    18
100
AcDbLine
 10
31.22047244094488
 20
59.50000000000001
 30
0.0
 11
31.22047244094488
 21
59.83464566929134
 31
0.0
  0
LINE
  5
E6
330
1F
100
AcDbEntity
  8
TITLE
  6
SLD-Solid
370
    18
100
AcDbLine
 10
31.22047244094488
 20
0.5
 30
0.0
 11
31.22047244094488
 21
0.1653543307086614
 31
0.0
  0
LINE
  5
E7
330
1F
100
AcDbEntity
  8
TITLE
  6
SLD-Solid
370
    18
100
AcDbLine
 10
33.18897637795276
 20
59.50000000000001
 30
0.0
 11
33.18897637795276
 21
59.83464566929134
 31
0.0
  0
LINE
  5
E8
330
1F
100
AcDbEntity
  8
TITLE
  6
SLD-Solid
370
    18
100
AcDbLine
 10
33.18897637795276
 20
0.5
 30
0.0
 11
33.18897637795276
 21
0.1653543307086614
 31
0.0
  0
LINE
  5
E9
330
1F
100
AcDbEntity
  8
TITLE
  6
SLD-Solid
370
    18
100
AcDbLine
 10
35.15748031496063
 20
59.50000000000001
 30
0.0
 11
35.15748031496063
 21
59.83464566929134
 31
0.0
  0
LINE
  5
EA
330
1F
100
AcDbEntity
  8
TITLE
  6
SLD-Solid
370
    18
100
AcDbLine
 10
35.15748031496063
 20
0.5
 30
0.0
 11
35.15748031496063
 21
0.1653543307086614
 31
0.0
  0
LINE
  5
EB
330
1F
100
AcDbEntity
  8
TITLE
  6
SLD-Solid
370
    18
100
AcDbLine
 10
37.12598425196851
 20
59.50000000000001
 30
0.0
 11
37.12598425196851
 21
59.83464566929134
 31
0.0
  0
LINE
  5
EC
330
1F
100
AcDbEntity
  8
TITLE
  6
SLD-Solid
370
    18
100
AcDbLine
 10
37.12598425196851
 20
0.5
 30
0.0
 11
37.12598425196851
 21
0.1653543307086614
 31
0.0
  0
LINE
  5
ED
330
1F
100
AcDbEntity
  8
TITLE
  6
SLD-Solid
370
    18
100
AcDbLine
 10
39.09448818897638
 20
59.50000000000001
 30
0.0
 11
39.09448818897638
 21
59.83464566929134
 31
0.0
  0
LINE
  5
EE
330
1F
100
AcDbEntity
  8
TITLE
  6
SLD-Solid
370
    18
100
AcDbLine
 10
39.09448818897638
 20
0.5
 30
0.0
 11
39.09448818897638
 21
0.1653543307086614
 31
0.0
  0
LINE
  5
EF
330
1F
100
AcDbEntity
  8
TITLE
  6
SLD-Solid
370
    18
100
AcDbLine
 10
41.06299212598425
 20
59.50000000000001
 30
0.0
 11
41.06299212598425
 21
59.83464566929134
 31
0.0
  0
LINE
  5
F0
330
1F
100
AcDbEntity
  8
TITLE
  6
SLD-Solid
370
    18
100
AcDbLine
 10
41.06299212598425
 20
0.5
 30
0.0
 11
41.06299212598425
 21
0.1653543307086614
 31
0.0
  0
LINE
  5
F1
330
1F
100
AcDbEntity
  8
TITLE
  6
SLD-Solid
370
    18
100
AcDbLine
 10
43.03149606299213
 20
59.50000000000001
 30
0.0
 11
43.03149606299213
 21
59.83464566929134
 31
0.0
  0
LINE
  5
F2
330
1F
100
AcDbEntity
  8
TITLE
  6
SLD-Solid
370
    18
100
AcDbLine
 10
43.03149606299213
 20
0.5
 30
0.0
 11
43.03149606299213
 21
0.1653543307086614
 31
0.0
  0
LINE
  5
F3
330
1F
100
AcDbEntity
  8
TITLE
  6
SLD-Solid
370
    18
100
AcDbLine
 10
45.0
 20
59.50000000000001
 30
0.0
 11
45.0
 21
59.83464566929134
 31
0.0
  0
LINE
  5
F4
330
1F
100
AcDbEntity
  8
TITLE
  6
SLD-Solid
370
    18
100
AcDbLine
 10
45.0
 20
0.5
 30
0.0
 11
45.0
 21
0.1653543307086614
 31
0.0
  0
LINE
  5
F5
330
1F
100
AcDbEntity
  8
TITLE
  6
SLD-Solid
370
    18
100
AcDbLine
 10
46.96850393700788
 20
59.50000000000001
 30
0.0
 11
46.96850393700788
 21
59.83464566929134
 31
0.0
  0
LINE
  5
F6
330
1F
100
AcDbEntity
  8
TITLE
  6
SLD-Solid
370
    18
100
AcDbLine
 10
46.96850393700788
 20
0.5
 30
0.0
 11
46.96850393700788
 21
0.1653543307086614
 31
0.0
  0
LINE
  5
F7
330
1F
100
AcDbEntity
  8
TITLE
  6
SLD-Solid
370
    18
100
AcDbLine
 10
48.93700787401576
 20
59.50000000000001
 30
0.0
 11
48.93700787401576
 21
59.83464566929134
 31
0.0
  0
LINE
  5
F8
330
1F
100
AcDbEntity
  8
TITLE
  6
SLD-Solid
370
    18
100
AcDbLine
 10
48.93700787401576
 20
0.5
 30
0.0
 11
48.93700787401576
 21
0.1653543307086614
 31
0.0
  0
LINE
  5
F9
330
1F
100
AcDbEntity
  8
TITLE
  6
SLD-Solid
370
    18
100
AcDbLine
 10
50.90551181102363
 20
59.50000000000001
 30
0.0
 11
50.90551181102363
 21
59.83464566929134
 31
0.0
  0
LINE
  5
FA
330
1F
100
AcDbEntity
  8
TITLE
  6
SLD-Solid
370
    18
100
AcDbLine
 10
50.90551181102363
 20
0.5
 30
0.0
 11
50.90551181102363
 21
0.1653543307086614
 31
0.0
  0
LINE
  5
FB
330
1F
100
AcDbEntity
  8
TITLE
  6
SLD-Solid
370
    18
100
AcDbLine
 10
52.8740157480315
 20
59.50000000000001
 30
0.0
 11
52.8740157480315
 21
59.83464566929134
 31
0.0
  0
LINE
  5
FC
330
1F
100
AcDbEntity
  8
TITLE
  6
SLD-Solid
370
    18
100
AcDbLine
 10
52.8740157480315
 20
0.5
 30
0.0
 11
52.8740157480315
 21
0.1653543307086614
 31
0.0
  0
LINE
  5
FD
330
1F
100
AcDbEntity
  8
TITLE
  6
SLD-Solid
370
    18
100
AcDbLine
 10
54.84251968503937
 20
59.50000000000001
 30
0.0
 11
54.84251968503937
 21
59.83464566929134
 31
0.0
  0
LINE
  5
FE
330
1F
100
AcDbEntity
  8
TITLE
  6
SLD-Solid
370
    18
100
AcDbLine
 10
54.84251968503937
 20
0.5
 30
0.0
 11
54.84251968503937
 21
0.1653543307086614
 31
0.0
  0
LINE
  5
FF
330
1F
100
AcDbEntity
  8
TITLE
  6
SLD-Solid
370
    18
100
AcDbLine
 10
56.81102362204725
 20
59.50000000000001
 30
0.0
 11
56.81102362204725
 21
59.83464566929134
 31
0.0
  0
LINE
  5
100
330
1F
100
AcDbEntity
  8
TITLE
  6
SLD-Solid
370
    18
100
AcDbLine
 10
56.81102362204725
 20
0.5
 30
0.0
 11
56.81102362204725
 21
0.1653543307086614
 31
0.0
  0
LINE
  5
101
330
1F
100
AcDbEntity
  8
TITLE
  6
SLD-Solid
370
    18
100
AcDbLine
 10
58.77952755905513
 20
59.50000000000001
 30
0.0
 11
58.77952755905513
 21
59.83464566929134
 31
0.0
  0
LINE
  5
102
330
1F
100
AcDbEntity
  8
TITLE
  6
SLD-Solid
370
    18
100
AcDbLine
 10
58.77952755905513
 20
0.5
 30
0.0
 11
58.77952755905513
 21
0.1653543307086614
 31
0.0
  0
LINE
  5
103
330
1F
100
AcDbEntity
  8
TITLE
  6
SLD-Solid
370
    18
100
AcDbLine
 10
60.748031496063
 20
59.50000000000001
 30
0.0
 11
60.748031496063
 21
59.83464566929134
 31
0.0
  0
LINE
  5
104
330
1F
100
AcDbEntity
  8
TITLE
  6
SLD-Solid
370
    18
100
AcDbLine
 10
60.748031496063
 20
0.5
 30
0.0
 11
60.748031496063
 21
0.1653543307086614
 31
0.0
  0
LINE
  5
105
330
1F
100
AcDbEntity
  8
TITLE
  6
SLD-Solid
370
    18
100
AcDbLine
 10
62.71653543307087
 20
59.50000000000001
 30
0.0
 11
62.71653543307087
 21
59.83464566929134
 31
0.0
  0
LINE
  5
106
330
1F
100
AcDbEntity
  8
TITLE
  6
SLD-Solid
370
    18
100
AcDbLine
 10
62.71653543307087
 20
0.5
 30
0.0
 11
62.71653543307087
 21
0.1653543307086614
 31
0.0
  0
LINE
  5
107
330
1F
100
AcDbEntity
  8
TITLE
  6
SLD-Solid
370
    18
100
AcDbLine
 10
64.68503937007874
 20
59.50000000000001
 30
0.0
 11
64.68503937007874
 21
59.83464566929134
 31
0.0
  0
LINE
  5
108
330
1F
100
AcDbEntity
  8
TITLE
  6
SLD-Solid
370
    18
100
AcDbLine
 10
64.68503937007874
 20
0.5
 30
0.0
 11
64.68503937007874
 21
0.1653543307086614
 31
0.0
  0
LINE
  5
109
330
1F
100
AcDbEntity
  8
TITLE
  6
SLD-Solid
370
    18
100
AcDbLine
 10
66.65354330708662
 20
59.50000000000001
 30
0.0
 11
66.65354330708662
 21
59.83464566929134
 31
0.0
  0
LINE
  5
10A
330
1F
100
AcDbEntity
  8
TITLE
  6
SLD-Solid
370
    18
100
AcDbLine
 10
66.65354330708662
 20
0.5
 30
0.0
 11
66.65354330708662
 21
0.1653543307086614
 31
0.0
  0
LINE
  5
10B
330
1F
100
AcDbEntity
  8
TITLE
  6
SLD-Solid
370
    18
100
AcDbLine
 10
68.62204724409449
 20
59.50000000000001
 30
0.0
 11
68.62204724409449
 21
59.83464566929134
 31
0.0
  0
LINE
  5
10C
330
1F
100
AcDbEntity
  8
TITLE
  6
SLD-Solid
370
    18
100
AcDbLine
 10
68.62204724409449
 20
0.5
 30
0.0
 11
68.62204724409449
 21
0.1653543307086614
 31
0.0
  0
LINE
  5
10D
330
1F
100
AcDbEntity
  8
TITLE
  6
SLD-Solid
370
    18
100
AcDbLine
 10
70.59055118110237
 20
59.50000000000001
 30
0.0
 11
70.59055118110237
 21
59.83464566929134
 31
0.0
  0
LINE
  5
10E
330
1F
100
AcDbEntity
  8
TITLE
  6
SLD-Solid
370
    18
100
AcDbLine
 10
70.59055118110237
 20
0.5
 30
0.0
 11
70.59055118110237
 21
0.1653543307086614
 31
0.0
  0
LINE
  5
10F
330
1F
100
AcDbEntity
  8
TITLE
  6
SLD-Solid
370
    18
100
AcDbLine
 10
72.55905511811024
 20
59.50000000000001
 30
0.0
 11
72.55905511811024
 21
59.83464566929134
 31
0.0
  0
LINE
  5
110
330
1F
100
AcDbEntity
  8
TITLE
  6
SLD-Solid
370
    18
100
AcDbLine
 10
72.55905511811024
 20
0.5
 30
0.0
 11
72.55905511811024
 21
0.1653543307086614
 31
0.0
  0
LINE
  5
111
330
1F
100
AcDbEntity
  8
TITLE
  6
SLD-Solid
370
    18
100
AcDbLine
 10
74.52755905511812
 20
59.50000000000001
 30
0.0
 11
74.52755905511812
 21
59.83464566929134
 31
0.0
  0
LINE
  5
112
330
1F
100
AcDbEntity
  8
TITLE
  6
SLD-Solid
370
    18
100
AcDbLine
 10
74.52755905511812
 20
0.5
 30
0.0
 11
74.52755905511812
 21
0.1653543307086614
 31
0.0
  0
LINE
  5
113
330
1F
100
AcDbEntity
  8
TITLE
  6
SLD-Solid
370
    18
100
AcDbLine
 10
76.49606299212599
 20
59.50000000000001
 30
0.0
 11
76.49606299212599
 21
59.83464566929134
 31
0.0
  0
LINE
  5
114
330
1F
100
AcDbEntity
  8
TITLE
  6
SLD-Solid
370
    18
100
AcDbLine
 10
76.49606299212599
 20
0.5
 30
0.0
 11
76.49606299212599
 21
0.1653543307086614
 31
0.0
  0
LINE
  5
115
330
1F
100
AcDbEntity
  8
TITLE
  6
SLD-Solid
370
    18
100
AcDbLine
 10
78.46456692913387
 20
59.50000000000001
 30
0.0
 11
78.46456692913387
 21
59.83464566929134
 31
0.0
  0
LINE
  5
116
330
1F
100
AcDbEntity
  8
TITLE
  6
SLD-Solid
370
    18
100
AcDbLine
 10
78.46456692913387
 20
0.5
 30
0.0
 11
78.46456692913387
 21
0.1653543307086614
 31
0.0
  0
LINE
  5
117
330
1F
100
AcDbEntity
  8
TITLE
  6
SLD-Solid
370
    18
100
AcDbLine
 10
80.43307086614175
 20
59.50000000000001
 30
0.0
 11
80.43307086614175
 21
59.83464566929134
 31
0.0
  0
LINE
  5
118
330
1F
100
AcDbEntity
  8
TITLE
  6
SLD-Solid
370
    18
100
AcDbLine
 10
80.43307086614175
 20
0.5
 30
0.0
 11
80.43307086614175
 21
0.1653543307086614
 31
0.0
  0
LINE
  5
119
330
1F
100
AcDbEntity
  8
TITLE
  6
SLD-Solid
370
    18
100
AcDbLine
 10
82.40157480314961
 20
59.50000000000001
 30
0.0
 11
82.40157480314961
 21
59.83464566929134
 31
0.0
  0
LINE
  5
11A
330
1F
100
AcDbEntity
  8
TITLE
  6
SLD-Solid
370
    18
100
AcDbLine
 10
82.40157480314961
 20
0.5
 30
0.0
 11
82.40157480314961
 21
0.1653543307086614
 31
0.0
  0
LINE
  5
11B
330
1F
100
AcDbEntity
  8
TITLE
  6
SLD-Solid
370
    18
100
AcDbLine
 10
84.37007874015748
 20
59.50000000000001
 30
0.0
 11
84.37007874015748
 21
59.83464566929134
 31
0.0
  0
LINE
  5
11C
330
1F
100
AcDbEntity
  8
TITLE
  6
SLD-Solid
370
    18
100
AcDbLine
 10
84.37007874015748
 20
0.5
 30
0.0
 11
84.37007874015748
 21
0.1653543307086614
 31
0.0
  0
LINE
  5
11D
330
1F
100
AcDbEntity
  8
TITLE
  6
SLD-Solid
370
    18
100
AcDbLine
 10
86.33858267716536
 20
59.50000000000001
 30
0.0
 11
86.33858267716536
 21
59.83464566929134
 31
0.0
  0
LINE
  5
11E
330
1F
100
AcDbEntity
  8
TITLE
  6
SLD-Solid
370
    18
100
AcDbLine
 10
86.33858267716536
 20
0.5
 30
0.0
 11
86.33858267716536
 21
0.1653543307086614
 31
0.0
  0
LINE
  5
11F
330
1F
100
AcDbEntity
  8
TITLE
  6
SLD-Solid
370
    18
100
AcDbLine
 10
88.30708661417324
 20
59.50000000000001
 30
0.0
 11
88.30708661417324
 21
59.83464566929134
 31
0.0
  0
LINE
  5
120
330
1F
100
AcDbEntity
  8
TITLE
  6
SLD-Solid
370
    18
100
AcDbLine
 10
88.30708661417324
 20
0.5
 30
0.0
 11
88.30708661417324
 21
0.1653543307086614
 31
0.0
  0
MTEXT
  5
122
330
1F
100
AcDbEntity
  8
NOTES
100
AcDbMText
 10
4.724813739080066
 20
17.33039673842574
 30
0.0
 40
0.5
 41
0.0
 71
     1
 72
     1
  1
Front view
  7
SLDTEXTSTYLE0
 73
     1
 44
1.0
  0
MTEXT
  5
123
330
1F
100
AcDbEntity
  8
NOTES
100
AcDbMText
 10
3.576076686368598
 20
12.48226885378046
 30
0.0
 40
0.5
 41
0.0
 71
     1
 72
     1
  1
Floor
  7
SLDTEXTSTYLE0
 73
     1
 44
1.0
  0
INSERT
  5
129
330
1F
100
AcDbEntity
  8
DIMS
100
AcDbBlockReference
  2
SW_NOTE_0
 10
3.676788412855157
 20
13.73069687172536
 30
0.0
  0
MTEXT
  5
12B
330
1F
100
AcDbEntity
  8
NOTES
100
AcDbMText
 10
66.40829780303407
 20
1.070290334694339
 30
0.0
 40
0.25
 41
0.0
 71
     1
 72
     1
  1
UNLESS OTHERWISE SPECIFIED DIMENSIONS ARE IN INCHES.
  7
SLDTEXTSTYLE1
 73
     1
 44
1.0
  0
MTEXT
  5
12C
330
1F
100
AcDbEntity
  8
NOTES
100
AcDbMText
 10
66.4300699278903
 20
3.083062777580427
 30
0.0
 40
0.25
 41
0.0
 71
     1
 72
     1
  1
DATE:
  7
SLDTEXTSTYLE1
 73
     1
 44
1.0
  0
MTEXT
  5
12D
330
1F
100
AcDbEntity
  8
NOTES
100
AcDbMText
 10
68.53870118800532
 20
2.193032963662708
 30
0.0
 40
0.25
 41
0.0
 71
     2
 72
     1
  1
DO NOT SCALE DRAWING
  7
SLDTEXTSTYLE1
 73
     1
 44
1.0
  0
MTEXT
  5
12E
330
1F
100
AcDbEntity
  8
NOTES
100
AcDbMText
 10
72.83073730750537
 20
3.268275555297611
 30
0.0
 40
0.25
 41
0.0
 71
     1
 72
     1
  1
TITLE:
  7
SLDTEXTSTYLE0
 73
     1
 44
1.0
  0
MTEXT
  5
12F
330
1F
100
AcDbEntity
  8
NOTES
100
AcDbMText
 10
80.15618310516095
 20
3.268275555297598
 30
0.0
 40
0.25
 41
0.0
 71
     1
 72
     1
  1
DWG NO.
  7
SLDTEXTSTYLE0
 73
     1
 44
1.0
  0
MTEXT
  5
130
330
1F
100
AcDbEntity
  8
NOTES
100
AcDbMText
 10
80.18317532028495
 20
1.064581557673828
 30
0.0
 40
0.25
 41
0.0
 71
     1
 72
     1
  1
SCALE:     1:1
  7
SLDTEXTSTYLE0
 73
     1
 44
1.0
  0
MTEXT
  5
131
330
1F
100
AcDbEntity
  8
NOTES
100
AcDbMText
 10
84.17559153942491
 20
2.651034429460864
 30
0.0
 40
0.25
 41
0.0
 71
     2
 72
     1
  1
941-24x36 CAD
  7
SLDTEXTSTYLE0
 73
     1
 44
1.0
  0
MTEXT
  5
132
330
1F
100
AcDbEntity
  8
NOTES
100
AcDbMText
 10
76.44395199278257
 20
2.651034429460866
 30
0.0
 40
0.25
 41
0.0
 71
     2
 72
     1
  1
941-2436 mirror
  7
SLDTEXTSTYLE0
 73
     1
 44
1.0
  0
INSERT
  5
142
330
1F
100
AcDbEntity
  8
NOTES
100
AcDbBlockReference
  2
SW_NOTE_0_2
 10
66.61597262459081
 20
5.148152684778704
 30
0.0
  0
MTEXT
  5
143
330
1F
100
AcDbEntity
  8
NOTES
100
AcDbMText
 10
69.50372112016099
 20
3.086473326765871
 30
0.0
 40
0.25
 41
0.0
 71
     2
 72
     1
  1
August 11, 2021
  7
SLDTEXTSTYLE0
 73
     1
 44
1.0
  0
MTEXT
  5
144
330
1F
100
AcDbEntity
  8
TITLE
100
AcDbMText
 10
0.3276279775836454
 20
1.550350385462361
 30
0.0
 40
0.125
 41
0.0
 71
     2
 72
     1
  1
A
  7
SLDTEXTSTYLE0
 73
     1
 44
1.0
  0
MTEXT
  5
145
330
1F
100
AcDbEntity
  8
TITLE
100
AcDbMText
 10
89.66227364687498
 20
1.550350385462361
 30
0.0
 40
0.125
 41
0.0
 71
     2
 72
     1
  1
A
  7
SLDTEXTSTYLE0
 73
     1
 44
1.0
  0
MTEXT
  5
146
330
1F
100
AcDbEntity
  8
TITLE
100
AcDbMText
 10
0.3317512413046844
 20
3.50507479491118
 30
0.0
 40
0.125
 41
0.0
 71
     2
 72
     1
  1
B
  7
SLDTEXTSTYLE0
 73
     1
 44
1.0
  0
MTEXT
  5
147
330
1F
100
AcDbEntity
  8
TITLE
100
AcDbMText
 10
89.66639691059602
 20
3.505074794911179
 30
0.0
 40
0.125
 41
0.0
 71
     2
 72
     1
  1
B
  7
SLDTEXTSTYLE0
 73
     1
 44
1.0
  0
MTEXT
  5
148
330
1F
100
AcDbEntity
  8
TITLE
100
AcDbMText
 10
0.3313750816934456
 20
5.473578731919052
 30
0.0
 40
0.125
 41
0.0
 71
     2
 72
     1
  1
C
  7
SLDTEXTSTYLE0
 73
     1
 44
1.0
  0
MTEXT
  5
149
330
1F
100
AcDbEntity
  8
TITLE
100
AcDbMText
 10
89.66602075098477
 20
5.473578731919052
 30
0.0
 40
0.125
 41
0.0
 71
     2
 72
     1
  1
C
  7
SLDTEXTSTYLE0
 73
     1
 44
1.0
  0
MTEXT
  5
14A
330
1F
100
AcDbEntity
  8
TITLE
100
AcDbMText
 10
0.3311870028448152
 20
7.442082668926926
 30
0.0
 40
0.125
 41
0.0
 71
     2
 72
     1
  1
D
  7
SLDTEXTSTYLE0
 73
     1
 44
1.0
  0
MTEXT
  5
14B
330
1F
100
AcDbEntity
  8
TITLE
100
AcDbMText
 10
89.66583267213615
 20
7.442082668926927
 30
0.0
 40
0.125
 41
0.0
 71
     2
 72
     1
  1
D
  7
SLDTEXTSTYLE0
 73
     1
 44
1.0
  0
MTEXT
  5
14C
330
1F
100
AcDbEntity
  8
TITLE
100
AcDbMText
 10
0.3329231160377542
 20
9.410586605934803
 30
0.0
 40
0.125
 41
0.0
 71
     2
 72
     1
  1
E
  7
SLDTEXTSTYLE0
 73
     1
 44
1.0
  0
MTEXT
  5
14D
330
1F
100
AcDbEntity
  8
TITLE
100
AcDbMText
 10
89.66756878532908
 20
9.410586605934801
 30
0.0
 40
0.125
 41
0.0
 71
     2
 72
     1
  1
E
  7
SLDTEXTSTYLE0
 73
     1
 44
1.0
  0
MTEXT
  5
14E
330
1F
100
AcDbEntity
  8
TITLE
100
AcDbMText
 10
0.3313461474003637
 20
11.37909054294268
 30
0.0
 40
0.125
 41
0.0
 71
     2
 72
     1
  1
F
  7
SLDTEXTSTYLE0
 73
     1
 44
1.0
  0
MTEXT
  5
14F
330
1F
100
AcDbEntity
  8
TITLE
100
AcDbMText
 10
89.6659918166917
 20
11.37909054294268
 30
0.0
 40
0.125
 41
0.0
 71
     2
 72
     1
  1
F
  7
SLDTEXTSTYLE0
 73
     1
 44
1.0
  0
MTEXT
  5
150
330
1F
100
AcDbEntity
  8
TITLE
100
AcDbMText
 10
0.332257605436456
 20
13.34759447995055
 30
0.0
 40
0.125
 41
0.0
 71
     2
 72
     1
  1
G
  7
SLDTEXTSTYLE0
 73
     1
 44
1.0
  0
MTEXT
  5
151
330
1F
100
AcDbEntity
  8
TITLE
100
AcDbMText
 10
89.6669032747278
 20
13.34759447995055
 30
0.0
 40
0.125
 41
0.0
 71
     2
 72
     1
  1
G
  7
SLDTEXTSTYLE0
 73
     1
 44
1.0
  0
MTEXT
  5
152
330
1F
100
AcDbEntity
  8
TITLE
100
AcDbMText
 10
0.3323733456814149
 20
15.31609841695843
 30
0.0
 40
0.125
 41
0.0
 71
     2
 72
     1
  1
H
  7
SLDTEXTSTYLE0
 73
     1
 44
1.0
  0
MTEXT
  5
153
330
1F
100
AcDbEntity
  8
TITLE
100
AcDbMText
 10
89.66701901497274
 20
15.31609841695843
 30
0.0
 40
0.125
 41
0.0
 71
     2
 72
     1
  1
H
  7
SLDTEXTSTYLE0
 73
     1
 44
1.0
  0
MTEXT
  5
154
330
1F
100
AcDbEntity
  8
TITLE
100
AcDbMText
 10
0.3315776305595839
 20
17.2846023539663
 30
0.0
 40
0.125
 41
0.0
 71
     2
 72
     1
  1
J
  7
SLDTEXTSTYLE0
 73
     1
 44
1.0
  0
MTEXT
  5
155
330
1F
100
AcDbEntity
  8
TITLE
100
AcDbMText
 10
89.66622329985091
 20
17.2846023539663
 30
0.0
 40
0.125
 41
0.0
 71
     2
 72
     1
  1
J
  7
SLDTEXTSTYLE0
 73
     1
 44
1.0
  0
MTEXT
  5
156
330
1F
100
AcDbEntity
  8
TITLE
100
AcDbMText
 10
0.3323154765159243
 20
19.25310629097417
 30
0.0
 40
0.125
 41
0.0
 71
     2
 72
     1
  1
K
  7
SLDTEXTSTYLE0
 73
     1
 44
1.0
  0
MTEXT
  5
157
330
1F
100
AcDbEntity
  8
TITLE
100
AcDbMText
 10
89.66696114580725
 20
19.25310629097417
 30
0.0
 40
0.125
 41
0.0
 71
     2
 72
     1
  1
K
  7
SLDTEXTSTYLE0
 73
     1
 44
1.0
  0
MTEXT
  5
158
330
1F
100
AcDbEntity
  8
TITLE
100
AcDbMText
 10
0.3312448739242835
 20
21.22161022798205
 30
0.0
 40
0.125
 41
0.0
 71
     2
 72
     1
  1
L
  7
SLDTEXTSTYLE0
 73
     1
 44
1.0
  0
MTEXT
  5
159
330
1F
100
AcDbEntity
  8
TITLE
100
AcDbMText
 10
89.66589054321562
 20
21.22161022798205
 30
0.0
 40
0.125
 41
0.0
 71
     2
 72
     1
  1
L
  7
SLDTEXTSTYLE0
 73
     1
 44
1.0
  0
MTEXT
  5
15A
330
1F
100
AcDbEntity
  8
TITLE
100
AcDbMText
 10
0.3283224192293962
 20
23.19011416498992
 30
0.0
 40
0.125
 41
0.0
 71
     2
 72
     1
  1
M
  7
SLDTEXTSTYLE0
 73
     1
 44
1.0
  0
MTEXT
  5
15B
330
1F
100
AcDbEntity
  8
TITLE
100
AcDbMText
 10
89.66296808852074
 20
23.19011416498993
 30
0.0
 40
0.125
 41
0.0
 71
     2
 72
     1
  1
M
  7
SLDTEXTSTYLE0
 73
     1
 44
1.0
  0
MTEXT
  5
15C
330
1F
100
AcDbEntity
  8
TITLE
100
AcDbMText
 10
0.3315342275836453
 20
25.1586181019978
 30
0.0
 40
0.125
 41
0.0
 71
     2
 72
     1
  1
N
  7
SLDTEXTSTYLE0
 73
     1
 44
1.0
  0
MTEXT
  5
15D
330
1F
100
AcDbEntity
  8
TITLE
100
AcDbMText
 10
89.666179896875
 20
25.1586181019978
 30
0.0
 40
0.125
 41
0.0
 71
     2
 72
     1
  1
N
  7
SLDTEXTSTYLE0
 73
     1
 44
1.0
  0
MTEXT
  5
15E
330
1F
100
AcDbEntity
  8
TITLE
100
AcDbMText
 10
0.3321997349363143
 20
27.12712203900567
 30
0.0
 40
0.125
 41
0.0
 71
     2
 72
     1
  1
P
  7
SLDTEXTSTYLE0
 73
     1
 44
1.0
  0
MTEXT
  5
15F
330
1F
100
AcDbEntity
  8
TITLE
100
AcDbMText
 10
89.66684540422764
 20
27.12712203900567
 30
0.0
 40
0.125
 41
0.0
 71
     2
 72
     1
  1
P
  7
SLDTEXTSTYLE0
 73
     1
 44
1.0
  0
MTEXT
  5
160
330
1F
100
AcDbEntity
  8
TITLE
100
AcDbMText
 10
0.3309265867271643
 20
29.09562597601354
 30
0.0
 40
0.125
 41
0.0
 71
     2
 72
     1
  1
R
  7
SLDTEXTSTYLE0
 73
     1
 44
1.0
  0
MTEXT
  5
161
330
1F
100
AcDbEntity
  8
TITLE
100
AcDbMText
 10
89.66557225601849
 20
29.09562597601355
 30
0.0
 40
0.125
 41
0.0
 71
     2
 72
     1
  1
R
  7
SLDTEXTSTYLE0
 73
     1
 44
1.0
  0
MTEXT
  5
162
330
1F
100
AcDbEntity
  8
TITLE
100
AcDbMText
 10
0.3323010070777432
 20
31.06412991302142
 30
0.0
 40
0.125
 41
0.0
 71
     2
 72
     1
  1
T
  7
SLDTEXTSTYLE0
 73
     1
 44
1.0
  0
MTEXT
  5
163
330
1F
100
AcDbEntity
  8
TITLE
100
AcDbMText
 10
89.66694667636908
 20
31.06412991302142
 30
0.0
 40
0.125
 41
0.0
 71
     2
 72
     1
  1
T
  7
SLDTEXTSTYLE0
 73
     1
 44
1.0
  0
MTEXT
  5
164
330
1F
100
AcDbEntity
  8
TITLE
100
AcDbMText
 10
0.3328507755201046
 20
33.03263385002929
 30
0.0
 40
0.125
 41
0.0
 71
     2
 72
     1
  1
U
  7
SLDTEXTSTYLE0
 73
     1
 44
1.0
  0
MTEXT
  5
165
330
1F
100
AcDbEntity
  8
TITLE
100
AcDbMText
 10
89.66749644481143
 20
33.03263385002929
 30
0.0
 40
0.125
 41
0.0
 71
     2
 72
     1
  1
U
  7
SLDTEXTSTYLE0
 73
     1
 44
1.0
  0
MTEXT
  5
166
330
1F
100
AcDbEntity
  8
TITLE
100
AcDbMText
 10
0.3307529773167152
 20
35.00113778703717
 30
0.0
 40
0.125
 41
0.0
 71
     2
 72
     1
  1
V
  7
SLDTEXTSTYLE0
 73
     1
 44
1.0
  0
MTEXT
  5
167
330
1F
100
AcDbEntity
  8
TITLE
100
AcDbMText
 10
89.66539864660804
 20
35.00113778703717
 30
0.0
 40
0.125
 41
0.0
 71
     2
 72
     1
  1
V
  7
SLDTEXTSTYLE0
 73
     1
 44
1.0
  0
MTEXT
  5
168
330
1F
100
AcDbEntity
  8
TITLE
100
AcDbMText
 10
0.3327784409203867
 20
36.96964172404505
 30
0.0
 40
0.125
 41
0.0
 71
     2
 72
     1
  1
W
  7
SLDTEXTSTYLE0
 73
     1
 44
1.0
  0
MTEXT
  5
169
330
1F
100
AcDbEntity
  8
TITLE
100
AcDbMText
 10
89.66742411021173
 20
36.96964172404505
 30
0.0
 40
0.125
 41
0.0
 71
     2
 72
     1
  1
W
  7
SLDTEXTSTYLE0
 73
     1
 44
1.0
  0
MTEXT
  5
16A
330
1F
100
AcDbEntity
  8
TITLE
100
AcDbMText
 10
0.3321997349363143
 20
38.93814566105291
 30
0.0
 40
0.125
 41
0.0
 71
     2
 72
     1
  1
Y
  7
SLDTEXTSTYLE0
 73
     1
 44
1.0
  0
MTEXT
  5
16B
330
1F
100
AcDbEntity
  8
TITLE
100
AcDbMText
 10
89.66684540422764
 20
38.93814566105291
 30
0.0
 40
0.125
 41
0.0
 71
     2
 72
     1
  1
Y
  7
SLDTEXTSTYLE0
 73
     1
 44
1.0
  0
MTEXT
  5
16C
330
1F
100
AcDbEntity
  8
TITLE
100
AcDbMText
 10
0.32257878981296
 20
40.90664959806079
 30
0.0
 40
0.125
 41
0.0
 71
     2
 72
     1
  1
AA
  7
SLDTEXTSTYLE0
 73
     1
 44
1.0
  0
MTEXT
  5
16D
330
1F
100
AcDbEntity
  8
TITLE
100
AcDbMText
 10
89.65722445910428
 20
40.90664959806079
 30
0.0
 40
0.125
 41
0.0
 71
     2
 72
     1
  1
AA
  7
SLDTEXTSTYLE0
 73
     1
 44
1.0
  0
MTEXT
  5
16E
330
1F
100
AcDbEntity
  8
TITLE
100
AcDbMText
 10
0.3267020535339989
 20
42.87515353506867
 30
0.0
 40
0.125
 41
0.0
 71
     2
 72
     1
  1
AB
  7
SLDTEXTSTYLE0
 73
     1
 44
1.0
  0
MTEXT
  5
16F
330
1F
100
AcDbEntity
  8
TITLE
100
AcDbMText
 10
89.66134772282533
 20
42.87515353506867
 30
0.0
 40
0.125
 41
0.0
 71
     2
 72
     1
  1
AB
  7
SLDTEXTSTYLE0
 73
     1
 44
1.0
  0
MTEXT
  5
170
330
1F
100
AcDbEntity
  8
TITLE
100
AcDbMText
 10
0.3263258985060407
 20
44.84365747207654
 30
0.0
 40
0.125
 41
0.0
 71
     2
 72
     1
  1
AC
  7
SLDTEXTSTYLE0
 73
     1
 44
1.0
  0
MTEXT
  5
171
330
1F
100
AcDbEntity
  8
TITLE
100
AcDbMText
 10
89.66097156779738
 20
44.84365747207654
 30
0.0
 40
0.125
 41
0.0
 71
     2
 72
     1
  1
AC
  7
SLDTEXTSTYLE0
 73
     1
 44
1.0
  0
MTEXT
  5
172
330
1F
100
AcDbEntity
  8
TITLE
100
AcDbMText
 10
0.3261378196574102
 20
46.8121614090844
 30
0.0
 40
0.125
 41
0.0
 71
     2
 72
     1
  1
AD
  7
SLDTEXTSTYLE0
 73
     1
 44
1.0
  0
MTEXT
  5
173
330
1F
100
AcDbEntity
  8
TITLE
100
AcDbMText
 10
89.66078348894874
 20
46.8121614090844
 30
0.0
 40
0.125
 41
0.0
 71
     2
 72
     1
  1
AD
  7
SLDTEXTSTYLE0
 73
     1
 44
1.0
  0
MTEXT
  5
174
330
1F
100
AcDbEntity
  8
TITLE
100
AcDbMText
 10
0.3278739282670687
 20
48.78066534609229
 30
0.0
 40
0.125
 41
0.0
 71
     2
 72
     1
  1
AE
  7
SLDTEXTSTYLE0
 73
     1
 44
1.0
  0
MTEXT
  5
175
330
1F
100
AcDbEntity
  8
TITLE
100
AcDbMText
 10
89.6625195975584
 20
48.78066534609229
 30
0.0
 40
0.125
 41
0.0
 71
     2
 72
     1
  1
AE
  7
SLDTEXTSTYLE0
 73
     1
 44
1.0
  0
MTEXT
  5
176
330
1F
100
AcDbEntity
  8
TITLE
100
AcDbMText
 10
0.3262969596296784
 20
50.74916928310016
 30
0.0
 40
0.125
 41
0.0
 71
     2
 72
     1
  1
AF
  7
SLDTEXTSTYLE0
 73
     1
 44
1.0
  0
MTEXT
  5
177
330
1F
100
AcDbEntity
  8
TITLE
100
AcDbMText
 10
89.660942628921
 20
50.74916928310016
 30
0.0
 40
0.125
 41
0.0
 71
     2
 72
     1
  1
AF
  7
SLDTEXTSTYLE0
 73
     1
 44
1.0
  0
MTEXT
  5
178
330
1F
100
AcDbEntity
  8
TITLE
100
AcDbMText
 10
0.3272084176657706
 20
52.71767322010803
 30
0.0
 40
0.125
 41
0.0
 71
     2
 72
     1
  1
AG
  7
SLDTEXTSTYLE0
 73
     1
 44
1.0
  0
MTEXT
  5
179
330
1F
100
AcDbEntity
  8
TITLE
100
AcDbMText
 10
89.66185408695709
 20
52.71767322010804
 30
0.0
 40
0.125
 41
0.0
 71
     2
 72
     1
  1
AG
  7
SLDTEXTSTYLE0
 73
     1
 44
1.0
  0
MTEXT
  5
17A
330
1F
100
AcDbEntity
  8
TITLE
100
AcDbMText
 10
0.3273241624940099
 20
54.68617715711591
 30
0.0
 40
0.125
 41
0.0
 71
     2
 72
     1
  1
AH
  7
SLDTEXTSTYLE0
 73
     1
 44
1.0
  0
MTEXT
  5
17B
330
1F
100
AcDbEntity
  8
TITLE
100
AcDbMText
 10
89.66196983178533
 20
54.68617715711591
 30
0.0
 40
0.125
 41
0.0
 71
     2
 72
     1
  1
AH
  7
SLDTEXTSTYLE0
 73
     1
 44
1.0
  0
MTEXT
  5
17C
330
1F
100
AcDbEntity
  8
TITLE
100
AcDbMText
 10
0.3265284427888984
 20
56.65468109412379
 30
0.0
 40
0.125
 41
0.0
 71
     2
 72
     1
  1
AJ
  7
SLDTEXTSTYLE0
 73
     1
 44
1.0
  0
MTEXT
  5
17D
330
1F
100
AcDbEntity
  8
TITLE
100
AcDbMText
 10
89.66117411208023
 20
56.65468109412377
 30
0.0
 40
0.125
 41
0.0
 71
     2
 72
     1
  1
AJ
  7
SLDTEXTSTYLE0
 73
     1
 44
1.0
  0
MTEXT
  5
17E
330
1F
100
AcDbEntity
  8
TITLE
100
AcDbMText
 10
0.327266288745239
 20
58.6094055035726
 30
0.0
 40
0.125
 41
0.0
 71
     2
 72
     1
  1
AK
  7
SLDTEXTSTYLE0
 73
     1
 44
1.0
  0
MTEXT
  5
17F
330
1F
100
AcDbEntity
  8
TITLE
100
AcDbMText
 10
89.66191195803657
 20
58.6094055035726
 30
0.0
 40
0.125
 41
0.0
 71
     2
 72
     1
  1
AK
  7
SLDTEXTSTYLE0
 73
     1
 44
1.0
  0
MTEXT
  5
180
330
1F
100
AcDbEntity
  8
TITLE
100
AcDbMText
 10
1.093939331543491
 20
0.4125551098718104
 30
0.0
 40
0.125
 41
0.0
 71
     2
 72
     1
  1
46
  7
SLDTEXTSTYLE0
 73
     1
 44
1.0
  0
MTEXT
  5
181
330
1F
100
AcDbEntity
  8
TITLE
100
AcDbMText
 10
1.093939331543491
 20
59.74720077916315
 30
0.0
 40
0.125
 41
0.0
 71
     2
 72
     1
  1
46
  7
SLDTEXTSTYLE0
 73
     1
 44
1.0
  0
MTEXT
  5
182
330
1F
100
AcDbEntity
  8
TITLE
100
AcDbMText
 10
2.674647992960813
 20
0.4125551098718104
 30
0.0
 40
0.125
 41
0.0
 71
     2
 72
     1
  1
45
  7
SLDTEXTSTYLE0
 73
     1
 44
1.0
  0
MTEXT
  5
183
330
1F
100
AcDbEntity
  8
TITLE
100
AcDbMText
 10
2.674647992960813
 20
59.74720077916316
 30
0.0
 40
0.125
 41
0.0
 71
     2
 72
     1
  1
45
  7
SLDTEXTSTYLE0
 73
     1
 44
1.0
  0
MTEXT
  5
184
330
1F
100
AcDbEntity
  8
TITLE
100
AcDbMText
 10
4.643151929968689
 20
0.4125551098718104
 30
0.0
 40
0.125
 41
0.0
 71
     2
 72
     1
  1
44
  7
SLDTEXTSTYLE0
 73
     1
 44
1.0
  0
MTEXT
  5
185
330
1F
100
AcDbEntity
  8
TITLE
100
AcDbMText
 10
4.64315192996869
 20
59.74720077916316
 30
0.0
 40
0.125
 41
0.0
 71
     2
 72
     1
  1
44
  7
SLDTEXTSTYLE0
 73
     1
 44
1.0
  0
MTEXT
  5
186
330
1F
100
AcDbEntity
  8
TITLE
100
AcDbMText
 10
6.611655866976564
 20
0.4125551098718104
 30
0.0
 40
0.125
 41
0.0
 71
     2
 72
     1
  1
43
  7
SLDTEXTSTYLE0
 73
     1
 44
1.0
  0
MTEXT
  5
187
330
1F
100
AcDbEntity
  8
TITLE
100
AcDbMText
 10
6.611655866976562
 20
59.74720077916315
 30
0.0
 40
0.125
 41
0.0
 71
     2
 72
     1
  1
43
  7
SLDTEXTSTYLE0
 73
     1
 44
1.0
  0
MTEXT
  5
188
330
1F
100
AcDbEntity
  8
TITLE
100
AcDbMText
 10
8.580159803984436
 20
0.4125551098718104
 30
0.0
 40
0.125
 41
0.0
 71
     2
 72
     1
  1
42
  7
SLDTEXTSTYLE0
 73
     1
 44
1.0
  0
MTEXT
  5
189
330
1F
100
AcDbEntity
  8
TITLE
100
AcDbMText
 10
8.580159803984436
 20
59.74720077916316
 30
0.0
 40
0.125
 41
0.0
 71
     2
 72
     1
  1
42
  7
SLDTEXTSTYLE0
 73
     1
 44
1.0
  0
MTEXT
  5
18A
330
1F
100
AcDbEntity
  8
TITLE
100
AcDbMText
 10
10.54866374099231
 20
0.4125551098718104
 30
0.0
 40
0.125
 41
0.0
 71
     2
 72
     1
  1
41
  7
SLDTEXTSTYLE0
 73
     1
 44
1.0
  0
MTEXT
  5
18B
330
1F
100
AcDbEntity
  8
TITLE
100
AcDbMText
 10
10.54866374099231
 20
59.74720077916316
 30
0.0
 40
0.125
 41
0.0
 71
     2
 72
     1
  1
41
  7
SLDTEXTSTYLE0
 73
     1
 44
1.0
  0
MTEXT
  5
18C
330
1F
100
AcDbEntity
  8
TITLE
100
AcDbMText
 10
12.51716767800018
 20
0.4125551098718104
 30
0.0
 40
0.125
 41
0.0
 71
     2
 72
     1
  1
40
  7
SLDTEXTSTYLE0
 73
     1
 44
1.0
  0
MTEXT
  5
18D
330
1F
100
AcDbEntity
  8
TITLE
100
AcDbMText
 10
12.51716767800018
 20
59.74720077916317
 30
0.0
 40
0.125
 41
0.0
 71
     2
 72
     1
  1
40
  7
SLDTEXTSTYLE0
 73
     1
 44
1.0
  0
MTEXT
  5
18E
330
1F
100
AcDbEntity
  8
TITLE
100
AcDbMText
 10
14.48567161500806
 20
0.4125551098718104
 30
0.0
 40
0.125
 41
0.0
 71
     2
 72
     1
  1
39
  7
SLDTEXTSTYLE0
 73
     1
 44
1.0
  0
MTEXT
  5
18F
330
1F
100
AcDbEntity
  8
TITLE
100
AcDbMText
 10
14.48567161500806
 20
59.74720077916315
 30
0.0
 40
0.125
 41
0.0
 71
     2
 72
     1
  1
39
  7
SLDTEXTSTYLE0
 73
     1
 44
1.0
  0
MTEXT
  5
190
330
1F
100
AcDbEntity
  8
TITLE
100
AcDbMText
 10
16.45417555201593
 20
0.4125551098718105
 30
0.0
 40
0.125
 41
0.0
 71
     2
 72
     1
  1
38
  7
SLDTEXTSTYLE0
 73
     1
 44
1.0
  0
MTEXT
  5
191
330
1F
100
AcDbEntity
  8
TITLE
100
AcDbMText
 10
16.45417555201593
 20
59.74720077916316
 30
0.0
 40
0.125
 41
0.0
 71
     2
 72
     1
  1
38
  7
SLDTEXTSTYLE0
 73
     1
 44
1.0
  0
MTEXT
  5
192
330
1F
100
AcDbEntity
  8
TITLE
100
AcDbMText
 10
18.42267948902381
 20
0.4125551098718104
 30
0.0
 40
0.125
 41
0.0
 71
     2
 72
     1
  1
37
  7
SLDTEXTSTYLE0
 73
     1
 44
1.0
  0
MTEXT
  5
193
330
1F
100
AcDbEntity
  8
TITLE
100
AcDbMText
 10
18.4226794890238
 20
59.74720077916316
 30
0.0
 40
0.125
 41
0.0
 71
     2
 72
     1
  1
37
  7
SLDTEXTSTYLE0
 73
     1
 44
1.0
  0
MTEXT
  5
194
330
1F
100
AcDbEntity
  8
TITLE
100
AcDbMText
 10
20.39118342603168
 20
0.4125551098718104
 30
0.0
 40
0.125
 41
0.0
 71
     2
 72
     1
  1
36
  7
SLDTEXTSTYLE0
 73
     1
 44
1.0
  0
MTEXT
  5
195
330
1F
100
AcDbEntity
  8
TITLE
100
AcDbMText
 10
20.39118342603168
 20
59.74720077916316
 30
0.0
 40
0.125
 41
0.0
 71
     2
 72
     1
  1
36
  7
SLDTEXTSTYLE0
 73
     1
 44
1.0
  0
MTEXT
  5
196
330
1F
100
AcDbEntity
  8
TITLE
100
AcDbMText
 10
22.35968736303955
 20
0.4125551098718104
 30
0.0
 40
0.125
 41
0.0
 71
     2
 72
     1
  1
35
  7
SLDTEXTSTYLE0
 73
     1
 44
1.0
  0
MTEXT
  5
197
330
1F
100
AcDbEntity
  8
TITLE
100
AcDbMText
 10
22.35968736303955
 20
59.74720077916316
 30
0.0
 40
0.125
 41
0.0
 71
     2
 72
     1
  1
35
  7
SLDTEXTSTYLE0
 73
     1
 44
1.0
  0
MTEXT
  5
198
330
1F
100
AcDbEntity
  8
TITLE
100
AcDbMText
 10
24.32819130004744
 20
0.4125551098718104
 30
0.0
 40
0.125
 41
0.0
 71
     2
 72
     1
  1
34
  7
SLDTEXTSTYLE0
 73
     1
 44
1.0
  0
MTEXT
  5
199
330
1F
100
AcDbEntity
  8
TITLE
100
AcDbMText
 10
24.32819130004743
 20
59.74720077916316
 30
0.0
 40
0.125
 41
0.0
 71
     2
 72
     1
  1
34
  7
SLDTEXTSTYLE0
 73
     1
 44
1.0
  0
MTEXT
  5
19A
330
1F
100
AcDbEntity
  8
TITLE
100
AcDbMText
 10
26.29669523705531
 20
0.4125551098718104
 30
0.0
 40
0.125
 41
0.0
 71
     2
 72
     1
  1
33
  7
SLDTEXTSTYLE0
 73
     1
 44
1.0
  0
MTEXT
  5
19B
330
1F
100
AcDbEntity
  8
TITLE
100
AcDbMText
 10
26.29669523705531
 20
59.74720077916316
 30
0.0
 40
0.125
 41
0.0
 71
     2
 72
     1
  1
33
  7
SLDTEXTSTYLE0
 73
     1
 44
1.0
  0
MTEXT
  5
19C
330
1F
100
AcDbEntity
  8
TITLE
100
AcDbMText
 10
28.26519917406318
 20
0.4125551098718104
 30
0.0
 40
0.125
 41
0.0
 71
     2
 72
     1
  1
32
  7
SLDTEXTSTYLE0
 73
     1
 44
1.0
  0
MTEXT
  5
19D
330
1F
100
AcDbEntity
  8
TITLE
100
AcDbMText
 10
28.26519917406317
 20
59.74720077916316
 30
0.0
 40
0.125
 41
0.0
 71
     2
 72
     1
  1
32
  7
SLDTEXTSTYLE0
 73
     1
 44
1.0
  0
MTEXT
  5
19E
330
1F
100
AcDbEntity
  8
TITLE
100
AcDbMText
 10
30.23370311107105
 20
0.4125551098718104
 30
0.0
 40
0.125
 41
0.0
 71
     2
 72
     1
  1
31
  7
SLDTEXTSTYLE0
 73
     1
 44
1.0
  0
MTEXT
  5
19F
330
1F
100
AcDbEntity
  8
TITLE
100
AcDbMText
 10
30.23370311107105
 20
59.74720077916316
 30
0.0
 40
0.125
 41
0.0
 71
     2
 72
     1
  1
31
  7
SLDTEXTSTYLE0
 73
     1
 44
1.0
  0
MTEXT
  5
1A0
330
1F
100
AcDbEntity
  8
TITLE
100
AcDbMText
 10
32.20220704807893
 20
0.4125551098718104
 30
0.0
 40
0.125
 41
0.0
 71
     2
 72
     1
  1
30
  7
SLDTEXTSTYLE0
 73
     1
 44
1.0
  0
MTEXT
  5
1A1
330
1F
100
AcDbEntity
  8
TITLE
100
AcDbMText
 10
32.20220704807893
 20
59.74720077916316
 30
0.0
 40
0.125
 41
0.0
 71
     2
 72
     1
  1
30
  7
SLDTEXTSTYLE0
 73
     1
 44
1.0
  0
MTEXT
  5
1A2
330
1F
100
AcDbEntity
  8
TITLE
100
AcDbMText
 10
34.1707109850868
 20
0.4125551098718104
 30
0.0
 40
0.125
 41
0.0
 71
     2
 72
     1
  1
29
  7
SLDTEXTSTYLE0
 73
     1
 44
1.0
  0
MTEXT
  5
1A3
330
1F
100
AcDbEntity
  8
TITLE
100
AcDbMText
 10
34.1707109850868
 20
59.74720077916316
 30
0.0
 40
0.125
 41
0.0
 71
     2
 72
     1
  1
29
  7
SLDTEXTSTYLE0
 73
     1
 44
1.0
  0
MTEXT
  5
1A4
330
1F
100
AcDbEntity
  8
TITLE
100
AcDbMText
 10
36.13921492209468
 20
0.4125551098718104
 30
0.0
 40
0.125
 41
0.0
 71
     2
 72
     1
  1
28
  7
SLDTEXTSTYLE0
 73
     1
 44
1.0
  0
MTEXT
  5
1A5
330
1F
100
AcDbEntity
  8
TITLE
100
AcDbMText
 10
36.13921492209468
 20
59.74720077916317
 30
0.0
 40
0.125
 41
0.0
 71
     2
 72
     1
  1
28
  7
SLDTEXTSTYLE0
 73
     1
 44
1.0
  0
MTEXT
  5
1A6
330
1F
100
AcDbEntity
  8
TITLE
100
AcDbMText
 10
38.10771885910255
 20
0.4125551098718104
 30
0.0
 40
0.125
 41
0.0
 71
     2
 72
     1
  1
27
  7
SLDTEXTSTYLE0
 73
     1
 44
1.0
  0
MTEXT
  5
1A7
330
1F
100
AcDbEntity
  8
TITLE
100
AcDbMText
 10
38.10771885910255
 20
59.74720077916315
 30
0.0
 40
0.125
 41
0.0
 71
     2
 72
     1
  1
27
  7
SLDTEXTSTYLE0
 73
     1
 44
1.0
  0
MTEXT
  5
1A8
330
1F
100
AcDbEntity
  8
TITLE
100
AcDbMText
 10
40.07622279611042
 20
0.4125551098718104
 30
0.0
 40
0.125
 41
0.0
 71
     2
 72
     1
  1
26
  7
SLDTEXTSTYLE0
 73
     1
 44
1.0
  0
MTEXT
  5
1A9
330
1F
100
AcDbEntity
  8
TITLE
100
AcDbMText
 10
40.07622279611041
 20
59.74720077916316
 30
0.0
 40
0.125
 41
0.0
 71
     2
 72
     1
  1
26
  7
SLDTEXTSTYLE0
 73
     1
 44
1.0
  0
MTEXT
  5
1AA
330
1F
100
AcDbEntity
  8
TITLE
100
AcDbMText
 10
42.0447267331183
 20
0.4125551098718105
 30
0.0
 40
0.125
 41
0.0
 71
     2
 72
     1
  1
25
  7
SLDTEXTSTYLE0
 73
     1
 44
1.0
  0
MTEXT
  5
1AB
330
1F
100
AcDbEntity
  8
TITLE
100
AcDbMText
 10
42.0447267331183
 20
59.74720077916317
 30
0.0
 40
0.125
 41
0.0
 71
     2
 72
     1
  1
25
  7
SLDTEXTSTYLE0
 73
     1
 44
1.0
  0
MTEXT
  5
1AC
330
1F
100
AcDbEntity
  8
TITLE
100
AcDbMText
 10
44.01323067012616
 20
0.4125551098718104
 30
0.0
 40
0.125
 41
0.0
 71
     2
 72
     1
  1
24
  7
SLDTEXTSTYLE0
 73
     1
 44
1.0
  0
MTEXT
  5
1AD
330
1F
100
AcDbEntity
  8
TITLE
100
AcDbMText
 10
44.01323067012617
 20
59.74720077916316
 30
0.0
 40
0.125
 41
0.0
 71
     2
 72
     1
  1
24
  7
SLDTEXTSTYLE0
 73
     1
 44
1.0
  0
MTEXT
  5
1AE
330
1F
100
AcDbEntity
  8
TITLE
100
AcDbMText
 10
45.98173460713405
 20
0.4125551098718104
 30
0.0
 40
0.125
 41
0.0
 71
     2
 72
     1
  1
23
  7
SLDTEXTSTYLE0
 73
     1
 44
1.0
  0
MTEXT
  5
1AF
330
1F
100
AcDbEntity
  8
TITLE
100
AcDbMText
 10
45.98173460713405
 20
59.74720077916316
 30
0.0
 40
0.125
 41
0.0
 71
     2
 72
     1
  1
23
  7
SLDTEXTSTYLE0
 73
     1
 44
1.0
  0
MTEXT
  5
1B0
330
1F
100
AcDbEntity
  8
TITLE
100
AcDbMText
 10
47.95023854414192
 20
0.4125551098718105
 30
0.0
 40
0.125
 41
0.0
 71
     2
 72
     1
  1
22
  7
SLDTEXTSTYLE0
 73
     1
 44
1.0
  0
MTEXT
  5
1B1
330
1F
100
AcDbEntity
  8
TITLE
100
AcDbMText
 10
47.95023854414192
 20
59.74720077916316
 30
0.0
 40
0.125
 41
0.0
 71
     2
 72
     1
  1
22
  7
SLDTEXTSTYLE0
 73
     1
 44
1.0
  0
MTEXT
  5
1B2
330
1F
100
AcDbEntity
  8
TITLE
100
AcDbMText
 10
49.91874248114981
 20
0.4125551098718104
 30
0.0
 40
0.125
 41
0.0
 71
     2
 72
     1
  1
21
  7
SLDTEXTSTYLE0
 73
     1
 44
1.0
  0
MTEXT
  5
1B3
330
1F
100
AcDbEntity
  8
TITLE
100
AcDbMText
 10
49.91874248114981
 20
59.74720077916316
 30
0.0
 40
0.125
 41
0.0
 71
     2
 72
     1
  1
21
  7
SLDTEXTSTYLE0
 73
     1
 44
1.0
  0
MTEXT
  5
1B4
330
1F
100
AcDbEntity
  8
TITLE
100
AcDbMText
 10
51.88724641815767
 20
0.4125551098718104
 30
0.0
 40
0.125
 41
0.0
 71
     2
 72
     1
  1
20
  7
SLDTEXTSTYLE0
 73
     1
 44
1.0
  0
MTEXT
  5
1B5
330
1F
100
AcDbEntity
  8
TITLE
100
AcDbMText
 10
51.88724641815767
 20
59.74720077916316
 30
0.0
 40
0.125
 41
0.0
 71
     2
 72
     1
  1
20
  7
SLDTEXTSTYLE0
 73
     1
 44
1.0
  0
MTEXT
  5
1B6
330
1F
100
AcDbEntity
  8
TITLE
100
AcDbMText
 10
53.85575035516554
 20
0.4125551098718104
 30
0.0
 40
0.125
 41
0.0
 71
     2
 72
     1
  1
19
  7
SLDTEXTSTYLE0
 73
     1
 44
1.0
  0
MTEXT
  5
1B7
330
1F
100
AcDbEntity
  8
TITLE
100
AcDbMText
 10
53.85575035516553
 20
59.74720077916315
 30
0.0
 40
0.125
 41
0.0
 71
     2
 72
     1
  1
19
  7
SLDTEXTSTYLE0
 73
     1
 44
1.0
  0
MTEXT
  5
1B8
330
1F
100
AcDbEntity
  8
TITLE
100
AcDbMText
 10
55.82425429217342
 20
0.4125551098718104
 30
0.0
 40
0.125
 41
0.0
 71
     2
 72
     1
  1
18
  7
SLDTEXTSTYLE0
 73
     1
 44
1.0
  0
MTEXT
  5
1B9
330
1F
100
AcDbEntity
  8
TITLE
100
AcDbMText
 10
55.82425429217342
 20
59.74720077916316
 30
0.0
 40
0.125
 41
0.0
 71
     2
 72
     1
  1
18
  7
SLDTEXTSTYLE0
 73
     1
 44
1.0
  0
MTEXT
  5
1BA
330
1F
100
AcDbEntity
  8
TITLE
100
AcDbMText
 10
57.79275822918129
 20
0.4125551098718104
 30
0.0
 40
0.125
 41
0.0
 71
     2
 72
     1
  1
17
  7
SLDTEXTSTYLE0
 73
     1
 44
1.0
  0
MTEXT
  5
1BB
330
1F
100
AcDbEntity
  8
TITLE
100
AcDbMText
 10
57.79275822918129
 20
59.74720077916316
 30
0.0
 40
0.125
 41
0.0
 71
     2
 72
     1
  1
17
  7
SLDTEXTSTYLE0
 73
     1
 44
1.0
  0
MTEXT
  5
1BC
330
1F
100
AcDbEntity
  8
TITLE
100
AcDbMText
 10
59.76126216618918
 20
0.4125551098718104
 30
0.0
 40
0.125
 41
0.0
 71
     2
 72
     1
  1
16
  7
SLDTEXTSTYLE0
 73
     1
 44
1.0
  0
MTEXT
  5
1BD
330
1F
100
AcDbEntity
  8
TITLE
100
AcDbMText
 10
59.76126216618918
 20
59.74720077916316
 30
0.0
 40
0.125
 41
0.0
 71
     2
 72
     1
  1
16
  7
SLDTEXTSTYLE0
 73
     1
 44
1.0
  0
MTEXT
  5
1BE
330
1F
100
AcDbEntity
  8
TITLE
100
AcDbMText
 10
61.72976610319703
 20
0.4125551098718104
 30
0.0
 40
0.125
 41
0.0
 71
     2
 72
     1
  1
15
  7
SLDTEXTSTYLE0
 73
     1
 44
1.0
  0
MTEXT
  5
1BF
330
1F
100
AcDbEntity
  8
TITLE
100
AcDbMText
 10
61.72976610319704
 20
59.74720077916316
 30
0.0
 40
0.125
 41
0.0
 71
     2
 72
     1
  1
15
  7
SLDTEXTSTYLE0
 73
     1
 44
1.0
  0
MTEXT
  5
1C0
330
1F
100
AcDbEntity
  8
TITLE
100
AcDbMText
 10
63.69827004020492
 20
0.4125551098718105
 30
0.0
 40
0.125
 41
0.0
 71
     2
 72
     1
  1
14
  7
SLDTEXTSTYLE0
 73
     1
 44
1.0
  0
MTEXT
  5
1C1
330
1F
100
AcDbEntity
  8
TITLE
100
AcDbMText
 10
63.69827004020491
 20
59.74720077916316
 30
0.0
 40
0.125
 41
0.0
 71
     2
 72
     1
  1
14
  7
SLDTEXTSTYLE0
 73
     1
 44
1.0
  0
MTEXT
  5
1C2
330
1F
100
AcDbEntity
  8
TITLE
100
AcDbMText
 10
65.6667739772128
 20
0.4125551098718104
 30
0.0
 40
0.125
 41
0.0
 71
     2
 72
     1
  1
13
  7
SLDTEXTSTYLE0
 73
     1
 44
1.0
  0
MTEXT
  5
1C3
330
1F
100
AcDbEntity
  8
TITLE
100
AcDbMText
 10
65.6667739772128
 20
59.74720077916315
 30
0.0
 40
0.125
 41
0.0
 71
     2
 72
     1
  1
13
  7
SLDTEXTSTYLE0
 73
     1
 44
1.0
  0
MTEXT
  5
1C4
330
1F
100
AcDbEntity
  8
TITLE
100
AcDbMText
 10
67.63527791422067
 20
0.4125551098718104
 30
0.0
 40
0.125
 41
0.0
 71
     2
 72
     1
  1
12
  7
SLDTEXTSTYLE0
 73
     1
 44
1.0
  0
MTEXT
  5
1C5
330
1F
100
AcDbEntity
  8
TITLE
100
AcDbMText
 10
67.63527791422067
 20
59.74720077916316
 30
0.0
 40
0.125
 41
0.0
 71
     2
 72
     1
  1
12
  7
SLDTEXTSTYLE0
 73
     1
 44
1.0
  0
MTEXT
  5
1C6
330
1F
100
AcDbEntity
  8
TITLE
100
AcDbMText
 10
69.60378185122853
 20
0.4125551098718104
 30
0.0
 40
0.125
 41
0.0
 71
     2
 72
     1
  1
11
  7
SLDTEXTSTYLE0
 73
     1
 44
1.0
  0
MTEXT
  5
1C7
330
1F
100
AcDbEntity
  8
TITLE
100
AcDbMText
 10
69.60378185122853
 20
59.74720077916316
 30
0.0
 40
0.125
 41
0.0
 71
     2
 72
     1
  1
11
  7
SLDTEXTSTYLE0
 73
     1
 44
1.0
  0
MTEXT
  5
1C8
330
1F
100
AcDbEntity
  8
TITLE
100
AcDbMText
 10
71.57228578823641
 20
0.4125551098718104
 30
0.0
 40
0.125
 41
0.0
 71
     2
 72
     1
  1
10
  7
SLDTEXTSTYLE0
 73
     1
 44
1.0
  0
MTEXT
  5
1C9
330
1F
100
AcDbEntity
  8
TITLE
100
AcDbMText
 10
71.57228578823641
 20
59.74720077916316
 30
0.0
 40
0.125
 41
0.0
 71
     2
 72
     1
  1
10
  7
SLDTEXTSTYLE0
 73
     1
 44
1.0
  0
MTEXT
  5
1CA
330
1F
100
AcDbEntity
  8
TITLE
100
AcDbMText
 10
73.54204840592922
 20
0.4125551098718104
 30
0.0
 40
0.125
 41
0.0
 71
     2
 72
     1
  1
9
  7
SLDTEXTSTYLE0
 73
     1
 44
1.0
  0
MTEXT
  5
1CB
330
1F
100
AcDbEntity
  8
TITLE
100
AcDbMText
 10
73.54204840592922
 20
59.74720077916317
 30
0.0
 40
0.125
 41
0.0
 71
     2
 72
     1
  1
9
  7
SLDTEXTSTYLE0
 73
     1
 44
1.0
  0
MTEXT
  5
1CC
330
1F
100
AcDbEntity
  8
TITLE
100
AcDbMText
 10
75.5105523429371
 20
0.4125551098718104
 30
0.0
 40
0.125
 41
0.0
 71
     2
 72
     1
  1
8
  7
SLDTEXTSTYLE0
 73
     1
 44
1.0
  0
MTEXT
  5
1CD
330
1F
100
AcDbEntity
  8
TITLE
100
AcDbMText
 10
75.5105523429371
 20
59.74720077916316
 30
0.0
 40
0.125
 41
0.0
 71
     2
 72
     1
  1
8
  7
SLDTEXTSTYLE0
 73
     1
 44
1.0
  0
MTEXT
  5
1CE
330
1F
100
AcDbEntity
  8
TITLE
100
AcDbMText
 10
77.47905627994498
 20
0.4125551098718105
 30
0.0
 40
0.125
 41
0.0
 71
     2
 72
     1
  1
7
  7
SLDTEXTSTYLE0
 73
     1
 44
1.0
  0
MTEXT
  5
1CF
330
1F
100
AcDbEntity
  8
TITLE
100
AcDbMText
 10
77.47905627994498
 20
59.74720077916317
 30
0.0
 40
0.125
 41
0.0
 71
     2
 72
     1
  1
7
  7
SLDTEXTSTYLE0
 73
     1
 44
1.0
  0
MTEXT
  5
1D0
330
1F
100
AcDbEntity
  8
TITLE
100
AcDbMText
 10
79.44756021695287
 20
0.4125551098718104
 30
0.0
 40
0.125
 41
0.0
 71
     2
 72
     1
  1
6
  7
SLDTEXTSTYLE0
 73
     1
 44
1.0
  0
MTEXT
  5
1D1
330
1F
100
AcDbEntity
  8
TITLE
100
AcDbMText
 10
79.44756021695287
 20
59.74720077916316
 30
0.0
 40
0.125
 41
0.0
 71
     2
 72
     1
  1
6
  7
SLDTEXTSTYLE0
 73
     1
 44
1.0
  0
MTEXT
  5
1D2
330
1F
100
AcDbEntity
  8
TITLE
100
AcDbMText
 10
81.41606415396073
 20
0.4125551098718105
 30
0.0
 40
0.125
 41
0.0
 71
     2
 72
     1
  1
5
  7
SLDTEXTSTYLE0
 73
     1
 44
1.0
  0
MTEXT
  5
1D3
330
1F
100
AcDbEntity
  8
TITLE
100
AcDbMText
 10
81.41606415396073
 20
59.74720077916316
 30
0.0
 40
0.125
 41
0.0
 71
     2
 72
     1
  1
5
  7
SLDTEXTSTYLE0
 73
     1
 44
1.0
  0
MTEXT
  5
1D4
330
1F
100
AcDbEntity
  8
TITLE
100
AcDbMText
 10
83.3845680909686
 20
0.4125551098718104
 30
0.0
 40
0.125
 41
0.0
 71
     2
 72
     1
  1
4
  7
SLDTEXTSTYLE0
 73
     1
 44
1.0
  0
MTEXT
  5
1D5
330
1F
100
AcDbEntity
  8
TITLE
100
AcDbMText
 10
83.3845680909686
 20
59.74720077916315
 30
0.0
 40
0.125
 41
0.0
 71
     2
 72
     1
  1
4
  7
SLDTEXTSTYLE0
 73
     1
 44
1.0
  0
MTEXT
  5
1D6
330
1F
100
AcDbEntity
  8
TITLE
100
AcDbMText
 10
85.35307202797648
 20
0.4125551098718104
 30
0.0
 40
0.125
 41
0.0
 71
     2
 72
     1
  1
3
  7
SLDTEXTSTYLE0
 73
     1
 44
1.0
  0
MTEXT
  5
1D7
330
1F
100
AcDbEntity
  8
TITLE
100
AcDbMText
 10
85.35307202797648
 20
59.74720077916316
 30
0.0
 40
0.125
 41
0.0
 71
     2
 72
     1
  1
3
  7
SLDTEXTSTYLE0
 73
     1
 44
1.0
  0
MTEXT
  5
1D8
330
1F
100
AcDbEntity
  8
TITLE
100
AcDbMText
 10
87.32157596498435
 20
0.4125551098718104
 30
0.0
 40
0.125
 41
0.0
 71
     2
 72
     1
  1
2
  7
SLDTEXTSTYLE0
 73
     1
 44
1.0
  0
MTEXT
  5
1D9
330
1F
100
AcDbEntity
  8
TITLE
100
AcDbMText
 10
87.32157596498435
 20
59.74720077916316
 30
0.0
 40
0.125
 41
0.0
 71
     2
 72
     1
  1
2
  7
SLDTEXTSTYLE0
 73
     1
 44
1.0
  0
MTEXT
  5
1DA
330
1F
100
AcDbEntity
  8
TITLE
100
AcDbMText
 10
88.90228462640165
 20
0.4125551098718104
 30
0.0
 40
0.125
 41
0.0
 71
     2
 72
     1
  1
1
  7
SLDTEXTSTYLE0
 73
     1
 44
1.0
  0
MTEXT
  5
1DB
330
1F
100
AcDbEntity
  8
TITLE
100
AcDbMText
 10
88.90228462640165
 20
59.74720077916316
 30
0.0
 40
0.125
 41
0.0
 71
     2
 72
     1
  1
1
  7
SLDTEXTSTYLE0
 73
     1
 44
1.0
  0
LINE
  5
1DC
330
1F
100
AcDbEntity
  8
0
  6
SLD-Solid
 62
     7
370
    25
100
AcDbLine
 10
4.487631816230994
 20
17.92235988598741
 30
0.0
 11
4.487631816230994
 21
17.91953145886287
 31
0.0
  0
LINE
  5
1DD
330
1F
100
AcDbEntity
  8
0
  6
SLD-Solid
 62
     7
370
    25
100
AcDbLine
 10
4.487631816230994
 20
17.91869567242497
 30
0.0
 11
4.487631816230994
 21
17.88969567242489
 31
0.0
  0
LINE
  5
1DE
330
1F
100
AcDbEntity
  8
0
  6
SLD-Solid
 62
     7
370
    25
100
AcDbLine
 10
28.33279602979337
 20
53.76469567242489
 30
0.0
 11
28.32996760266863
 21
53.76469567242489
 31
0.0
  0
LINE
  5
1DF
330
1F
100
AcDbEntity
  8
0
  6
SLD-Solid
 62
     7
370
    25
100
AcDbLine
 10
4.520296029793498
 20
53.76469567242489
 30
0.0
 11
4.51746760266869
 21
53.76469567242489
 31
0.0
  0
LINE
  5
1E0
330
1F
100
AcDbEntity
  8
0
  6
SLD-Solid
 62
     7
370
    25
100
AcDbLine
 10
28.362631816231
 20
17.91869567242481
 30
0.0
 11
28.362631816231
 21
17.92235988598731
 31
0.0
  0
LINE
  5
1E1
330
1F
100
AcDbEntity
  8
0
  6
SLD-Solid
 62
     7
370
    25
100
AcDbLine
 10
4.496222115988661
 20
53.78594115910497
 30
0.0
 11
4.497671575464908
 21
53.78732012675348
 31
0.0
  0
SPLINE
  5
1E2
330
1F
100
AcDbEntity
  8
0
  6
SLD-Solid
 62
     7
370
    25
100
AcDbSpline
210
0.0
220
0.0
230
1.0
 70
    12
 71
     3
 72
    11
 73
     7
 74
     0
 42
0.00000001
 43
0.00000001
 40
0.0
 40
0.0
 40
0.0
 40
0.0
 40
0.2500000000000221
 40
0.5000000000000132
 40
0.7499999999999934
 40
1.0
 40
1.0
 40
1.0
 40
1.0
 10
4.486796029793311
 20
17.91869567242489
 30
0.0
 41
1.0
 10
4.486678178663116
 20
17.91255003507039
 30
0.0
 41
1.0
 10
4.48644247640272
 20
17.90025876036137
 30
0.0
 41
1.0
 10
4.486088923012119
 20
17.88475620281156
 30
0.0
 41
1.0
 10
4.485735369621528
 20
17.87391061471615
 30
0.0
 41
1.0
 10
4.485499667361131
 20
17.87250065318869
 30
0.0
 41
1.0
 10
4.485381816230935
 20
17.87179567242497
 30
0.0
 41
1.0
  0
LINE
  5
1E3
330
1F
100
AcDbEntity
  8
0
  6
SLD-Solid
 62
     7
370
    25
100
AcDbLine
 10
4.486796029793311
 20
17.91869567242519
 30
0.0
 11
28.36096760266873
 21
17.91869567242502
 31
0.0
  0
SPLINE
  5
1E4
330
1F
100
AcDbEntity
  8
0
  6
SLD-Solid
 62
     7
370
    25
100
AcDbSpline
210
0.0
220
0.0
230
1.0
 70
    12
 71
     3
 72
    11
 73
     7
 74
     0
 42
0.00000001
 43
0.00000001
 40
0.0
 40
0.0
 40
0.0
 40
0.0
 40
0.2499999999999939
 40
0.5000000000000266
 40
0.7500000000000189
 40
1.0
 40
1.0
 40
1.0
 40
1.0
 10
28.39138181623093
 20
17.87179567242481
 30
0.0
 41
1.0
 10
28.38884729843409
 20
17.87250065318853
 30
0.0
 41
1.0
 10
28.38377826284039
 20
17.87391061471599
 30
0.0
 41
1.0
 10
28.37617470944983
 20
17.88475620281146
 30
0.0
 41
1.0
 10
28.36857115605927
 20
17.90025876036133
 30
0.0
 41
1.0
 10
28.36350212046557
 20
17.91255003507037
 30
0.0
 41
1.0
 10
28.36096760266873
 20
17.91869567242489
 30
0.0
 41
1.0
  0
LINE
  5
1E5
330
1F
100
AcDbEntity
  8
0
  6
SLD-Solid
 62
     7
370
    25
100
AcDbLine
 10
28.39138181623093
 20
17.87179567242481
 30
0.0
 11
4.485381816230935
 21
17.87179567242497
 31
0.0
  0
LINE
  5
1E6
330
1F
100
AcDbEntity
  8
0
  6
SLD-Solid
 62
     7
370
    25
100
AcDbLine
 10
4.485381816230935
 20
17.88969567242489
 30
0.0
 11
4.485381816230935
 21
17.87179567242505
 31
0.0
  0
SPLINE
  5
1E7
330
1F
100
AcDbEntity
  8
0
  6
SLD-Solid
 62
     7
370
    25
100
AcDbSpline
210
0.0
220
0.0
230
1.0
 70
    12
 71
     3
 72
    11
 73
     7
 74
     0
 42
0.00000001
 43
0.00000001
 40
0.0
 40
0.0
 40
0.0
 40
0.0
 40
0.2499999999999387
 40
0.5000000000000093
 40
0.7500000000000023
 40
1.0
 40
1.0
 40
1.0
 40
1.0
 10
4.486796029793311
 20
17.91869567242492
 30
0.0
 41
1.0
 10
4.486678178663114
 20
17.91489559815454
 30
0.0
 41
1.0
 10
4.48644247640272
 20
17.9072954496138
 30
0.0
 41
1.0
 10
4.486088923012117
 20
17.897709646438
 30
0.0
 41
1.0
 10
4.48573536962153
 20
17.89100341925747
 30
0.0
 41
1.0
 10
4.485499667361132
 20
17.8901315880358
 30
0.0
 41
1.0
 10
4.485381816230935
 20
17.88969567242497
 30
0.0
 41
1.0
  0
LINE
  5
1E8
330
1F
100
AcDbEntity
  8
0
  6
SLD-Solid
 62
     7
370
    25
100
AcDbLine
 10
27.91796760266858
 20
18.36169567242516
 30
0.0
 11
28.36096760266873
 21
17.91869567242502
 31
0.0
  0
LINE
  5
1E9
330
1F
100
AcDbEntity
  8
0
  6
SLD-Solid
 62
     7
370
    25
100
AcDbLine
 10
4.486796029793243
 20
17.91869567242513
 30
0.0
 11
4.9297960297933
 21
18.36169567242517
 31
0.0
  0
LINE
  5
1EA
330
1F
100
AcDbEntity
  8
0
  6
SLD-Solid
 62
     7
370
    25
100
AcDbLine
 10
27.91796760266858
 20
18.36169567242517
 30
0.0
 11
4.929796029793298
 21
18.36169567242517
 31
0.0
  0
LINE
  5
1EB
330
1F
100
AcDbEntity
  8
0
  6
SLD-Solid
 62
     7
370
    25
100
AcDbLine
 10
28.39138181623093
 20
17.87179567242489
 30
0.0
 11
28.39138181623093
 21
17.88969567242489
 31
0.0
  0
SPLINE
  5
1EC
330
1F
100
AcDbEntity
  8
0
  6
SLD-Solid
 62
     7
370
    25
100
AcDbSpline
210
0.0
220
0.0
230
1.0
 70
    12
 71
     3
 72
    11
 73
     7
 74
     0
 42
0.00000001
 43
0.00000001
 40
0.0
 40
0.0
 40
0.0
 40
0.0
 40
0.2499999999999767
 40
0.5000000000000331
 40
0.7500000000000084
 40
1.0
 40
1.0
 40
1.0
 40
1.0
 10
28.39138181623093
 20
17.88969567242481
 30
0.0
 41
1.0
 10
28.38884729843408
 20
17.89013158803564
 30
0.0
 41
1.0
 10
28.38377826284038
 20
17.89100341925731
 30
0.0
 41
1.0
 10
28.37617470944983
 20
17.89770964643787
 30
0.0
 41
1.0
 10
28.36857115605928
 20
17.9072954496137
 30
0.0
 41
1.0
 10
28.36350212046558
 20
17.91489559815447
 30
0.0
 41
1.0
 10
28.36096760266873
 20
17.91869567242486
 30
0.0
 41
1.0
  0
LINE
  5
1ED
330
1F
100
AcDbEntity
  8
0
  6
SLD-Solid
 62
     7
370
    25
100
AcDbLine
 10
4.929796029793436
 20
53.35519567242495
 30
0.0
 11
27.92046760266869
 21
53.35519567242495
 31
0.0
  0
LINE
  5
1EE
330
1F
100
AcDbEntity
  8
0
  6
SLD-Solid
 62
     7
370
    25
100
AcDbLine
 10
4.486796029793438
 20
53.79819567242495
 30
0.0
 11
28.36346760266869
 21
53.79819567242495
 31
0.0
  0
LINE
  5
1EF
330
1F
100
AcDbEntity
  8
0
  6
SLD-Solid
 62
     7
370
    25
100
AcDbLine
 10
28.36346760266869
 20
53.79819567242495
 30
0.0
 11
27.92046760266869
 21
53.35519567242495
 31
0.0
  0
LINE
  5
1F0
330
1F
100
AcDbEntity
  8
0
  6
SLD-Solid
 62
     7
370
    25
100
AcDbLine
 10
4.929796029793436
 20
53.35519567242495
 30
0.0
 11
4.486796029793438
 21
53.79819567242495
 31
0.0
  0
LINE
  5
1F1
330
1F
100
AcDbEntity
  8
0
  6
SLD-Solid
 62
     7
370
    25
100
AcDbLine
 10
4.485381816230937
 20
17.92010988598734
 30
0.0
 11
4.485381816231
 21
53.79678145886258
 31
0.0
  0
LINE
  5
1F2
330
1F
100
AcDbEntity
  8
0
  6
SLD-Solid
 62
     7
370
    25
100
AcDbLine
 10
4.928381816230937
 20
18.36310988598735
 30
0.0
 11
4.485381816230937
 21
17.92010988598734
 31
0.0
  0
LINE
  5
1F3
330
1F
100
AcDbEntity
  8
0
  6
SLD-Solid
 62
     7
370
    25
100
AcDbLine
 10
4.485381816231
 20
53.79678145886258
 30
0.0
 11
4.928381816231061
 21
53.35378145886257
 31
0.0
  0
LINE
  5
1F4
330
1F
100
AcDbEntity
  8
0
  6
SLD-Solid
 62
     7
370
    25
100
AcDbLine
 10
4.928381816230937
 20
18.36310988598735
 30
0.0
 11
4.928381816231061
 21
53.35378145886257
 31
0.0
  0
LINE
  5
1F5
330
1F
100
AcDbEntity
  8
0
  6
SLD-Solid
 62
     7
370
    25
100
AcDbLine
 10
28.36488181623107
 20
53.79678145886258
 30
0.0
 11
28.36488181623113
 21
17.92010988598718
 31
0.0
  0
LINE
  5
1F6
330
1F
100
AcDbEntity
  8
0
  6
SLD-Solid
 62
     7
370
    25
100
AcDbLine
 10
27.92188181623106
 20
53.35378145886258
 30
0.0
 11
28.36488181623107
 21
53.79678145886258
 31
0.0
  0
LINE
  5
1F7
330
1F
100
AcDbEntity
  8
0
  6
SLD-Solid
 62
     7
370
    25
100
AcDbLine
 10
27.92188181623106
 20
53.35378145886258
 30
0.0
 11
27.92188181623119
 21
18.36310988598719
 31
0.0
  0
LINE
  5
1F8
330
1F
100
AcDbEntity
  8
0
  6
SLD-Solid
 62
     7
370
    25
100
AcDbLine
 10
28.36488181623113
 20
17.92010988598718
 30
0.0
 11
27.92188181623119
 21
18.36310988598719
 31
0.0
  0
SPLINE
  5
1F9
330
1F
100
AcDbEntity
  8
0
  6
SLD-Solid
 62
     7
370
    25
100
AcDbSpline
210
0.0
220
0.0
230
1.0
 70
    12
 71
     3
 72
    11
 73
     7
 74
     0
 42
0.00000001
 43
0.00000001
 40
0.0
 40
0.0
 40
0.0
 40
0.0
 40
0.2500000000002109
 40
0.5000000000005913
 40
0.7500000000009718
 40
1.0
 40
1.0
 40
1.0
 40
1.0
 10
4.438481816231063
 20
53.79819567242495
 30
0.0
 41
1.0
 10
4.439186796994766
 20
53.79807782129475
 30
0.0
 41
1.0
 10
4.440596758522169
 20
53.79784211903436
 30
0.0
 41
1.0
 10
4.451442346617655
 20
53.79748856564377
 30
0.0
 41
1.0
 10
4.466944904167506
 20
53.79713501225316
 30
0.0
 41
1.0
 10
4.479236178876515
 20
53.79689930999277
 30
0.0
 41
1.0
 10
4.485381816231
 20
53.79678145886258
 30
0.0
 41
1.0
  0
SPLINE
  5
1FA
330
1F
100
AcDbEntity
  8
0
  6
SLD-Solid
 62
     7
370
    25
100
AcDbSpline
210
0.0
220
0.0
230
1.0
 70
    12
 71
     3
 72
    11
 73
     7
 74
     0
 42
0.00000001
 43
0.00000001
 40
0.0
 40
0.0
 40
0.0
 40
0.0
 40
0.2500000000003802
 40
0.5000000000002401
 40
0.7500000000001287
 40
0.9999999999999999
 40
0.9999999999999999
 40
0.9999999999999999
 40
0.9999999999999999
 10
4.485381816230937
 20
17.92010988598734
 30
0.0
 41
1.0
 10
4.479236178876419
 20
17.91999203485715
 30
0.0
 41
1.0
 10
4.466944904167399
 20
17.91975633259675
 30
0.0
 41
1.0
 10
4.451442346617589
 20
17.91940277920617
 30
0.0
 41
1.0
 10
4.440596758522169
 20
17.91904922581557
 30
0.0
 41
1.0
 10
4.439186796994722
 20
17.91881352355517
 30
0.0
 41
1.0
 10
4.438481816231
 20
17.91869567242497
 30
0.0
 41
1.0
  0
LINE
  5
1FB
330
1F
100
AcDbEntity
  8
0
  6
SLD-Solid
 62
     7
370
    25
100
AcDbLine
 10
4.438481816231063
 20
53.79819567242495
 30
0.0
 11
4.438481816231
 21
17.91869567242497
 31
0.0
  0
LINE
  5
1FC
330
1F
100
AcDbEntity
  8
0
  6
SLD-Solid
 62
     7
370
    25
100
AcDbLine
 10
4.456381816231063
 20
53.79819567242495
 30
0.0
 11
4.438481816231063
 21
53.79819567242495
 31
0.0
  0
LINE
  5
1FD
330
1F
100
AcDbEntity
  8
0
  6
SLD-Solid
 62
     7
370
    25
100
AcDbLine
 10
4.456381816230936
 20
17.91869567242497
 30
0.0
 11
4.438481816231
 21
17.91869567242497
 31
0.0
  0
SPLINE
  5
1FE
330
1F
100
AcDbEntity
  8
0
  6
SLD-Solid
 62
     7
370
    25
100
AcDbSpline
210
0.0
220
0.0
230
1.0
 70
    12
 71
     3
 72
    11
 73
     7
 74
     0
 42
0.00000001
 43
0.00000001
 40
0.0
 40
0.0
 40
0.0
 40
0.0
 40
0.2500000000000017
 40
0.5000000000000016
 40
0.7499999999999962
 40
1.0
 40
1.0
 40
1.0
 40
1.0
 10
28.36488181623107
 20
53.84509567242495
 30
0.0
 41
1.0
 10
28.36476396510086
 20
53.84439069166122
 30
0.0
 41
1.0
 10
28.36452826284047
 20
53.84298073013377
 30
0.0
 41
1.0
 10
28.36417470944988
 20
53.83213514203833
 30
0.0
 41
1.0
 10
28.36382115605928
 20
53.81663258448849
 30
0.0
 41
1.0
 10
28.36358545379889
 20
53.80434130977946
 30
0.0
 41
1.0
 10
28.36346760266869
 20
53.79819567242495
 30
0.0
 41
1.0
  0
LINE
  5
1FF
330
1F
100
AcDbEntity
  8
0
  6
SLD-Solid
 62
     7
370
    25
100
AcDbLine
 10
28.36488181623107
 20
53.82719567242495
 30
0.0
 11
28.36488181623107
 21
53.84509567242495
 31
0.0
  0
SPLINE
  5
200
330
1F
100
AcDbEntity
  8
0
  6
SLD-Solid
 62
     7
370
    25
100
AcDbSpline
210
0.0
220
0.0
230
1.0
 70
    12
 71
     3
 72
    11
 73
     7
 74
     0
 42
0.00000001
 43
0.00000001
 40
0.0
 40
0.0
 40
0.0
 40
0.0
 40
0.2500000000000025
 40
0.4999999999999961
 40
0.7499999999999963
 40
1.0
 40
1.0
 40
1.0
 40
1.0
 10
4.486796029793438
 20
53.79819567242495
 30
0.0
 41
1.0
 10
4.48667817866324
 20
53.80434130977946
 30
0.0
 41
1.0
 10
4.486442476402845
 20
53.81663258448849
 30
0.0
 41
1.0
 10
4.486088923012255
 20
53.83213514203833
 30
0.0
 41
1.0
 10
4.485735369621651
 20
53.84298073013377
 30
0.0
 41
1.0
 10
4.485499667361261
 20
53.84439069166122
 30
0.0
 41
1.0
 10
4.485381816231062
 20
53.84509567242495
 30
0.0
 41
1.0
  0
LINE
  5
201
330
1F
100
AcDbEntity
  8
0
  6
SLD-Solid
 62
     7
370
    25
100
AcDbLine
 10
4.485381816231062
 20
53.84509567242495
 30
0.0
 11
28.36488181623107
 21
53.84509567242495
 31
0.0
  0
SPLINE
  5
202
330
1F
100
AcDbEntity
  8
0
  6
SLD-Solid
 62
     7
370
    25
100
AcDbSpline
210
0.0
220
0.0
230
1.0
 70
    12
 71
     3
 72
    12
 73
     8
 74
     0
 42
0.00000001
 43
0.00000001
 40
0.0
 40
0.0
 40
0.0
 40
0.0
 40
0.2307364642359599
 40
0.4631445665231743
 40
0.6955549229184176
 40
0.9279651631540917
 40
1.0
 40
1.0
 40
1.0
 40
1.0
 10
28.41178181623119
 20
17.88969567242497
 30
0.0
 41
1.0
 10
28.41118212040226
 20
17.89203537271606
 30
0.0
 41
1.0
 10
28.40997838407192
 20
17.89673172394384
 30
0.0
 41
1.0
 10
28.40061105005823
 20
17.9037868869951
 30
0.0
 41
1.0
 10
28.3869654202093
 20
17.91085332730833
 30
0.0
 41
1.0
 10
28.37408412024843
 20
17.91631030164661
 30
0.0
 41
1.0
 10
28.3666425647969
 20
17.91938288189499
 30
0.0
 41
1.0
 10
28.36488181623113
 20
17.92010988598718
 30
0.0
 41
1.0
  0
SPLINE
  5
203
330
1F
100
AcDbEntity
  8
0
  6
SLD-Solid
 62
     7
370
    25
100
AcDbSpline
210
0.0
220
0.0
230
1.0
 70
    12
 71
     3
 72
    11
 73
     7
 74
     0
 42
0.00000001
 43
0.00000001
 40
0.0
 40
0.0
 40
0.0
 40
0.0
 40
0.2499999999996365
 40
0.4999999999997491
 40
0.7499999999998658
 40
0.9999999999999999
 40
0.9999999999999999
 40
0.9999999999999999
 40
0.9999999999999999
 10
28.36488181623107
 20
53.79678145886258
 30
0.0
 41
1.0
 10
28.37102745358557
 20
53.79689930999278
 30
0.0
 41
1.0
 10
28.3833187282946
 20
53.79713501225318
 30
0.0
 41
1.0
 10
28.39882128584447
 20
53.79748856564377
 30
0.0
 41
1.0
 10
28.40966687393994
 20
53.79784211903436
 30
0.0
 41
1.0
 10
28.4110768354674
 20
53.79807782129475
 30
0.0
 41
1.0
 10
28.41178181623112
 20
53.79819567242495
 30
0.0
 41
1.0
  0
LINE
  5
204
330
1F
100
AcDbEntity
  8
0
  6
SLD-Solid
 62
     7
370
    25
100
AcDbLine
 10
28.41178181623119
 20
17.88969567242497
 30
0.0
 11
28.41178181623112
 21
53.79819567242495
 31
0.0
  0
LINE
  5
205
330
1F
100
AcDbEntity
  8
0
  6
SLD-Solid
 62
     7
370
    25
100
AcDbLine
 10
4.485381816231062
 20
53.82719567242495
 30
0.0
 11
4.485381816231062
 21
53.84509567242495
 31
0.0
  0
LINE
  5
206
330
1F
100
AcDbEntity
  8
0
  6
SLD-Solid
 62
     7
370
    25
100
AcDbLine
 10
28.41178181623119
 20
17.88969567242497
 30
0.0
 11
28.39388181623119
 21
17.88969567242497
 31
0.0
  0
SPLINE
  5
207
330
1F
100
AcDbEntity
  8
0
  6
SLD-Solid
 62
     7
370
    25
100
AcDbSpline
210
0.0
220
0.0
230
1.0
 70
    12
 71
     3
 72
    11
 73
     7
 74
     0
 42
0.00000001
 43
0.00000001
 40
0.0
 40
0.0
 40
0.0
 40
0.0
 40
0.2583261309114861
 40
0.5168721566340484
 40
0.7754198087628587
 40
1.0
 40
1.0
 40
1.0
 40
1.0
 10
28.39388181623119
 20
17.88969567242497
 30
0.0
 41
1.0
 10
28.3934156414587
 20
17.89231532964903
 30
0.0
 41
1.0
 10
28.39248289509202
 20
17.89755687402655
 30
0.0
 41
1.0
 10
28.38533227148775
 20
17.90541936306715
 30
0.0
 41
1.0
 10
28.37562737552343
 20
17.91294373458026
 30
0.0
 41
1.0
 10
28.36829175315825
 20
17.91783581875224
 30
0.0
 41
1.0
 10
28.36488181623113
 20
17.92010988598718
 30
0.0
 41
1.0
  0
LINE
  5
208
330
1F
100
AcDbEntity
  8
0
  6
SLD-Solid
 62
     7
370
    25
100
AcDbLine
 10
28.39388181623107
 20
53.79819567242495
 30
0.0
 11
28.41178181623112
 21
53.79819567242495
 31
0.0
  0
ARC
  5
209
330
1F
100
AcDbEntity
  8
0
  6
SLD-Solid
 62
     7
370
    25
100
AcDbCircle
 10
4.485381816230935
 20
17.91869567242497
 30
0.0
 40
0.0289999999999999
100
AcDbArc
 50
180.0
 51
270.0000000000008
  0
ARC
  5
20A
330
1F
100
AcDbEntity
  8
0
  6
SLD-Solid
 62
     7
370
    25
100
AcDbCircle
 10
4.485381816230935
 20
17.91869567242497
 30
0.0
 40
0.0469000000000008
100
AcDbArc
 50
180.0
 51
270.0000000000008
  0
ARC
  5
20B
330
1F
100
AcDbEntity
  8
0
  6
SLD-Solid
 62
     7
370
    25
100
AcDbCircle
 10
4.485381816231062
 20
53.79819567242495
 30
0.0
 40
0.0468999999999991
100
AcDbArc
 50
90.0
 51
180.0
  0
ARC
  5
20C
330
1F
100
AcDbEntity
  8
0
  6
SLD-Solid
 62
     7
370
    25
100
AcDbCircle
 10
4.485381816231062
 20
53.79819567242495
 30
0.0
 40
0.028999999999999
100
AcDbArc
 50
90.0
 51
180.0
  0
ARC
  5
20D
330
1F
100
AcDbEntity
  8
0
  6
SLD-Solid
 62
     7
370
    25
100
AcDbCircle
 10
28.36488181623107
 20
53.79819567242495
 30
0.0
 40
0.0469000000000577
100
AcDbArc
 50
0.0000000000000678
 51
90.0
  0
ARC
  5
20E
330
1F
100
AcDbEntity
  8
0
  6
SLD-Solid
 62
     7
370
    25
100
AcDbCircle
 10
28.36488181623107
 20
53.79819567242495
 30
0.0
 40
0.0289999999999999
100
AcDbArc
 50
0.0
 51
90.0
  0
LINE
  5
20F
330
1F
100
AcDbEntity
  8
DIMS
100
AcDbLine
 10
2.663085580522742
 20
11.87179567242489
 30
0.0
 11
64.03638971046006
 21
11.87179567242489
 31
0.0
  0
LINE
  5
210
330
1F
100
AcDbEntity
  8
DIMS
100
AcDbLine
 10
3.098011991491407
 20
11.87179567242489
 30
0.0
 11
3.098011991491407
 21
12.46289429260732
 31
0.0
  0
LINE
  5
211
330
1F
100
AcDbEntity
  8
DIMS
100
AcDbLine
 10
3.098011991491407
 20
12.46289429260732
 30
0.0
 11
2.796566642797718
 21
12.75605162485055
 31
0.0
  0
LINE
  5
212
330
1F
100
AcDbEntity
  8
DIMS
100
AcDbLine
 10
2.796566642797718
 20
12.75605162485055
 30
0.0
 11
3.399457340185103
 21
13.37598698552349
 31
0.0
  0
LINE
  5
213
330
1F
100
AcDbEntity
  8
DIMS
100
AcDbLine
 10
3.399457340185103
 20
13.37598698552349
 30
0.0
 11
3.098011991491407
 21
13.66914431776671
 31
0.0
  0
LINE
  5
214
330
1F
100
AcDbEntity
  8
DIMS
100
AcDbLine
 10
3.098011991491407
 20
13.66914431776671
 30
0.0
 11
3.098011991491407
 21
13.81136547562324
 31
0.0
  0
DIMENSION
  5
215
330
1F
100
AcDbEntity
  8
DIMS
100
AcDbDimension
  2
_D
 10
3.099898154813612
 20
17.87179567242497
 30
0.0
 11
3.099898154813612
 21
12.98980649919646
 31
0.0
 70
    32
  1
48"\P^M\P 
 71
     2
 42
-1.0
  3
SLDDIMSTYLE0
100
AcDbAlignedDimension
 13
2.663085580522742
 23
11.87179567242489
 33
0.0
 14
4.485381816230935
 24
17.87179567242497
 34
0.0
 50
90.0000000000002
100
AcDbRotatedDimension
  0
DIMENSION
  5
226
330
1F
100
AcDbEntity
  8
DIMS
100
AcDbDimension
  2
_D_1
 10
4.45638181623106
 20
55.41989882203122
 30
0.0
 11
18.54651351442567
 21
55.41989882203125
 31
0.0
 70
    32
  1
<>
 71
     2
 42
-1.0
  3
SLDDIMSTYLE1
100
AcDbAlignedDimension
 13
28.41178181623112
 23
53.79819567242495
 33
0.0
 14
4.456381816231063
 24
53.79819567242495
 34
0.0
 50
0.000000000000119
100
AcDbRotatedDimension
  0
DIMENSION
  5
236
330
1F
100
AcDbEntity
  8
DIMS
100
AcDbDimension
  2
_D_2
 10
3.099898154813503
 20
17.87179567242498
 30
0.0
 11
3.099898154813618
 21
37.29916532924667
 31
0.0
 70
    32
  1
<>
 71
     2
 42
-1.0
  3
SLDDIMSTYLE0
100
AcDbAlignedDimension
 13
4.485381816231062
 23
53.84509567242495
 33
0.0
 14
4.485381816230935
 24
17.87179567242497
 34
0.0
 50
90.0000000000002
100
AcDbRotatedDimension
  0
LINE
  5
241
330
1F
100
AcDbEntity
  8
0
  6
SLD-Solid
 62
     7
370
    25
100
AcDbLine
 10
33.16967472838894
 20
35.73019567242483
 30
0.0
 11
33.19367472838894
 21
35.73019567242483
 31
0.0
  0
LINE
  5
242
330
1F
100
AcDbEntity
  8
0
  6
SLD-Solid
 62
     7
370
    25
100
AcDbLine
 10
33.19367472838894
 20
35.98419567242484
 30
0.0
 11
33.16967472838894
 21
35.98419567242484
 31
0.0
  0
LINE
  5
243
330
1F
100
AcDbEntity
  8
0
  6
SLD-Solid
 62
     7
370
    25
100
AcDbLine
 10
33.19367472838894
 20
35.73019567242483
 30
0.0
 11
33.20867472838894
 21
35.7792584617021
 31
0.0
  0
LINE
  5
244
330
1F
100
AcDbEntity
  8
0
  6
SLD-Solid
 62
     7
370
    25
100
AcDbLine
 10
33.20867472838894
 20
35.93513288314757
 30
0.0
 11
33.19367472838894
 21
35.98419567242484
 31
0.0
  0
LINE
  5
245
330
1F
100
AcDbEntity
  8
0
  6
SLD-Solid
 62
     7
370
    25
100
AcDbLine
 10
33.19367472838895
 20
18.02188713756663
 30
0.0
 11
33.20867472838894
 21
18.07094992684389
 31
0.0
  0
LINE
  5
246
330
1F
100
AcDbEntity
  8
0
  6
SLD-Solid
 62
     7
370
    25
100
AcDbLine
 10
33.20867472838894
 20
18.22682434828937
 30
0.0
 11
33.19367472838894
 21
18.27588713756663
 31
0.0
  0
LINE
  5
247
330
1F
100
AcDbEntity
  8
0
  6
SLD-Solid
 62
     7
370
    25
100
AcDbLine
 10
33.16967472838894
 20
18.02188713756663
 30
0.0
 11
33.19367472838895
 21
18.02188713756663
 31
0.0
  0
LINE
  5
248
330
1F
100
AcDbEntity
  8
0
  6
SLD-Solid
 62
     7
370
    25
100
AcDbLine
 10
33.19367472838894
 20
18.27588713756663
 30
0.0
 11
33.16967472838894
 21
18.27588713756663
 31
0.0
  0
LINE
  5
249
330
1F
100
AcDbEntity
  8
0
  6
SLD-Solid
 62
     7
370
    25
100
AcDbLine
 10
33.16967472838894
 20
18.50966079133228
 30
0.0
 11
33.19367472838894
 21
18.50966079133228
 31
0.0
  0
LINE
  5
24A
330
1F
100
AcDbEntity
  8
0
  6
SLD-Solid
 62
     7
370
    25
100
AcDbLine
 10
33.19367472838894
 20
18.76366079133228
 30
0.0
 11
33.16967472838894
 21
18.76366079133228
 31
0.0
  0
LINE
  5
24B
330
1F
100
AcDbEntity
  8
0
  6
SLD-Solid
 62
     7
370
    25
100
AcDbLine
 10
33.19367472838894
 20
18.50966079133228
 30
0.0
 11
33.20867472838894
 21
18.55872358060955
 31
0.0
  0
LINE
  5
24C
330
1F
100
AcDbEntity
  8
0
  6
SLD-Solid
 62
     7
370
    25
100
AcDbLine
 10
33.20867472838894
 20
18.71459800205502
 30
0.0
 11
33.19367472838894
 21
18.76366079133228
 31
0.0
  0
LINE
  5
24D
330
1F
100
AcDbEntity
  8
0
  6
SLD-Solid
 62
     7
370
    25
100
AcDbLine
 10
33.19367472838894
 20
35.94590942421127
 30
0.0
 11
33.19367472838894
 21
35.98419567242484
 31
0.0
  0
LINE
  5
24E
330
1F
100
AcDbEntity
  8
0
  6
SLD-Solid
 62
     7
370
    25
100
AcDbLine
 10
33.19367472838894
 20
35.73019567242483
 30
0.0
 11
33.19367472838894
 21
35.94590942421127
 31
0.0
  0
LINE
  5
24F
330
1F
100
AcDbEntity
  8
0
  6
SLD-Solid
 62
     7
370
    25
100
AcDbLine
 10
33.20867472838894
 20
35.91163742334597
 30
0.0
 11
33.20867472838894
 21
35.7792584617021
 31
0.0
  0
LINE
  5
250
330
1F
100
AcDbEntity
  8
0
  6
SLD-Solid
 62
     7
370
    25
100
AcDbLine
 10
33.20867472838894
 20
35.93513288314757
 30
0.0
 11
33.20867472838894
 21
35.91163742334597
 31
0.0
  0
LINE
  5
251
330
1F
100
AcDbEntity
  8
0
  6
SLD-Solid
 62
     7
370
    25
100
AcDbLine
 10
33.20867472838894
 20
18.18977792811436
 30
0.0
 11
33.20867472838894
 21
18.07094992684389
 31
0.0
  0
LINE
  5
252
330
1F
100
AcDbEntity
  8
0
  6
SLD-Solid
 62
     7
370
    25
100
AcDbLine
 10
33.20867472838894
 20
18.22682434828937
 30
0.0
 11
33.20867472838894
 21
18.18977792811436
 31
0.0
  0
LINE
  5
253
330
1F
100
AcDbEntity
  8
0
  6
SLD-Solid
 62
     7
370
    25
100
AcDbLine
 10
33.19367472838894
 20
18.21551937076311
 30
0.0
 11
33.19367472838894
 21
18.27588713756663
 31
0.0
  0
LINE
  5
254
330
1F
100
AcDbEntity
  8
0
  6
SLD-Solid
 62
     7
370
    25
100
AcDbLine
 10
33.19367472838895
 20
18.02188713756663
 30
0.0
 11
33.19367472838894
 21
18.21551937076311
 31
0.0
  0
LINE
  5
255
330
1F
100
AcDbEntity
  8
0
  6
SLD-Solid
 62
     7
370
    25
100
AcDbLine
 10
33.19367472838894
 20
18.68530801535632
 30
0.0
 11
33.19367472838894
 21
18.76366079133228
 31
0.0
  0
LINE
  5
256
330
1F
100
AcDbEntity
  8
0
  6
SLD-Solid
 62
     7
370
    25
100
AcDbLine
 10
33.19367472838894
 20
18.50966079133228
 30
0.0
 11
33.19367472838894
 21
18.68530801535632
 31
0.0
  0
LINE
  5
257
330
1F
100
AcDbEntity
  8
0
  6
SLD-Solid
 62
     7
370
    25
100
AcDbLine
 10
33.20867472838894
 20
18.66651456259084
 30
0.0
 11
33.20867472838894
 21
18.55872358060955
 31
0.0
  0
LINE
  5
258
330
1F
100
AcDbEntity
  8
0
  6
SLD-Solid
 62
     7
370
    25
100
AcDbLine
 10
33.20867472838894
 20
18.71459800205502
 30
0.0
 11
33.20867472838894
 21
18.66651456259084
 31
0.0
  0
LINE
  5
259
330
1F
100
AcDbEntity
  8
0
  6
SLD-Solid
 62
     7
370
    25
100
AcDbLine
 10
33.12577472838895
 20
53.81418379133225
 30
0.0
 11
33.12577472838895
 21
53.79792608237219
 31
0.0
  0
LINE
  5
25A
330
1F
100
AcDbEntity
  8
0
  6
SLD-Solid
 62
     7
370
    25
100
AcDbLine
 10
33.12577472838895
 20
53.81418379133225
 30
0.0
 11
33.14610128092323
 21
53.81418379133225
 31
0.0
  0
LINE
  5
25B
330
1F
100
AcDbEntity
  8
0
  6
SLD-Solid
 62
     7
370
    25
100
AcDbLine
 10
33.15177472838894
 20
53.81418379133225
 30
0.0
 11
33.15177472838894
 21
53.79819567242495
 31
0.0
  0
LINE
  5
25C
330
1F
100
AcDbEntity
  8
0
  6
SLD-Solid
 62
     7
370
    25
100
AcDbLine
 10
32.72077472838895
 20
17.88969567242497
 30
0.0
 11
32.72077472838895
 21
53.79819567242495
 31
0.0
  0
LINE
  5
25D
330
1F
100
AcDbEntity
  8
0
  6
SLD-Solid
 62
     7
370
    25
100
AcDbLine
 10
33.12277472838895
 20
53.79819567242495
 30
0.0
 11
32.72077472838895
 21
53.79819567242495
 31
0.0
  0
LINE
  5
25E
330
1F
100
AcDbEntity
  8
0
  6
SLD-Solid
 62
     7
370
    25
100
AcDbLine
 10
33.12277472838895
 20
53.79819567242495
 30
0.0
 11
33.12277472838894
 21
17.88969567242497
 31
0.0
  0
LINE
  5
25F
330
1F
100
AcDbEntity
  8
0
  6
SLD-Solid
 62
     7
370
    25
100
AcDbLine
 10
33.12277472838894
 20
17.88969567242497
 30
0.0
 11
32.72077472838895
 21
17.88969567242497
 31
0.0
  0
LINE
  5
260
330
1F
100
AcDbEntity
  8
0
  6
SLD-Solid
 62
     7
370
    25
100
AcDbLine
 10
32.67387472838895
 20
53.79678145886258
 30
0.0
 11
32.67387472838895
 21
17.92010988598718
 31
0.0
  0
SPLINE
  5
261
330
1F
100
AcDbEntity
  8
0
  6
SLD-Solid
 62
     7
370
    25
100
AcDbSpline
210
0.0
220
0.0
230
1.0
 70
    12
 71
     3
 72
    11
 73
     7
 74
     0
 42
0.00000001
 43
0.00000001
 40
0.0
 40
0.0
 40
0.0
 40
0.0
 40
0.2499999999996365
 40
0.4999999999997491
 40
0.7499999999998658
 40
0.9999999999999999
 40
0.9999999999999999
 40
0.9999999999999999
 40
0.9999999999999999
 10
32.67387472838895
 20
53.79678145886258
 30
0.0
 41
1.0
 10
32.67457970915267
 20
53.79689930999278
 30
0.0
 41
1.0
 10
32.6759896706801
 20
53.79713501225318
 30
0.0
 41
1.0
 10
32.68683525877552
 20
53.79748856564377
 30
0.0
 41
1.0
 10
32.70233781632538
 20
53.79784211903436
 30
0.0
 41
1.0
 10
32.71462909103442
 20
53.79807782129475
 30
0.0
 41
1.0
 10
32.72077472838895
 20
53.79819567242495
 30
0.0
 41
1.0
  0
SPLINE
  5
262
330
1F
100
AcDbEntity
  8
0
  6
SLD-Solid
 62
     7
370
    25
100
AcDbSpline
210
0.0
220
0.0
230
1.0
 70
    12
 71
     3
 72
    12
 73
     8
 74
     0
 42
0.00000001
 43
0.00000001
 40
0.0
 40
0.0
 40
0.0
 40
0.0
 40
0.2307364642359599
 40
0.4631445665231743
 40
0.6955549229184176
 40
0.9279651631540917
 40
1.0
 40
1.0
 40
1.0
 40
1.0
 10
32.72077472838895
 20
17.88969567242497
 30
0.0
 41
1.0
 10
32.71510855312959
 20
17.89203537271606
 30
0.0
 41
1.0
 10
32.70373515234081
 20
17.89673172394384
 30
0.0
 41
1.0
 10
32.68886750696594
 20
17.9037868869951
 30
0.0
 41
1.0
 10
32.67822918963652
 20
17.91085332730833
 30
0.0
 41
1.0
 10
32.67419525670341
 20
17.91631030164661
 30
0.0
 41
1.0
 10
32.67393605757008
 20
17.91938288189499
 30
0.0
 41
1.0
 10
32.67387472838895
 20
17.92010988598718
 30
0.0
 41
1.0
  0
LINE
  5
263
330
1F
100
AcDbEntity
  8
0
  6
SLD-Solid
 62
     7
370
    25
100
AcDbLine
 10
33.12277472838895
 20
53.84509567242495
 30
0.0
 11
33.12277472838895
 21
53.79819567242495
 31
0.0
  0
LINE
  5
264
330
1F
100
AcDbEntity
  8
0
  6
SLD-Solid
 62
     7
370
    25
100
AcDbLine
 10
32.72077472838895
 20
53.79819567242495
 30
0.0
 11
32.72077472838895
 21
53.84509567242495
 31
0.0
  0
LINE
  5
265
330
1F
100
AcDbEntity
  8
0
  6
SLD-Solid
 62
     7
370
    25
100
AcDbLine
 10
32.72077472838895
 20
53.84509567242495
 30
0.0
 11
33.12277472838895
 21
53.84509567242495
 31
0.0
  0
LINE
  5
266
330
1F
100
AcDbEntity
  8
0
  6
SLD-Solid
 62
     7
370
    25
100
AcDbLine
 10
33.16967472838894
 20
17.96215761320185
 30
0.0
 11
33.16967472838895
 21
53.75223373164783
 31
0.0
  0
SPLINE
  5
267
330
1F
100
AcDbEntity
  8
0
  6
SLD-Solid
 62
     7
370
    25
100
AcDbSpline
210
0.0
220
0.0
230
1.0
 70
    12
 71
     3
 72
    11
 73
     7
 74
     0
 42
0.00000001
 43
0.00000001
 40
0.0
 40
0.0
 40
0.0
 40
0.0
 40
0.2109689467081588
 40
0.4643344536994714
 40
0.7178010815806698
 40
1.0
 40
1.0
 40
1.0
 40
1.0
 10
33.12277472838895
 20
53.79819567242495
 30
0.0
 41
1.0
 10
33.12795212265856
 20
53.79496951396469
 30
0.0
 41
1.0
 10
33.13934736625853
 20
53.78786886455839
 30
0.0
 41
1.0
 10
33.15475604864923
 20
53.77686479592138
 30
0.0
 41
1.0
 10
33.16706993112386
 20
53.76478266706507
 30
0.0
 41
1.0
 10
33.16877595970218
 20
53.75656366179496
 30
0.0
 41
1.0
 10
33.16967472838895
 20
53.75223373164783
 30
0.0
 41
1.0
  0
SPLINE
  5
268
330
1F
100
AcDbEntity
  8
0
  6
SLD-Solid
 62
     7
370
    25
100
AcDbSpline
210
0.0
220
0.0
230
1.0
 70
    12
 71
     3
 72
    11
 73
     7
 74
     0
 42
0.00000001
 43
0.00000001
 40
0.0
 40
0.0
 40
0.0
 40
0.0
 40
0.3014288984304863
 40
0.6028577689366139
 40
0.9049183252112695
 40
1.0
 40
1.0
 40
1.0
 40
1.0
 10
33.16967472838894
 20
17.96215761320185
 30
0.0
 41
1.0
 10
33.16864258172329
 20
17.95487308769365
 30
0.0
 41
1.0
 10
33.16657828848761
 20
17.94030403735212
 30
0.0
 41
1.0
 10
33.15106742181852
 20
17.91845127196889
 30
0.0
 41
1.0
 10
33.13481845168602
 20
17.90153222046301
 30
0.0
 41
1.0
 10
33.12510118463815
 20
17.89198210914166
 30
0.0
 41
1.0
 10
33.12277472838894
 20
17.88969567242497
 30
0.0
 41
1.0
  0
LINE
  5
269
330
1F
100
AcDbEntity
  8
0
  6
SLD-Solid
 62
     7
370
    25
100
AcDbLine
 10
33.12277472838894
 20
17.87179567242481
 30
0.0
 11
33.12277472838894
 21
17.88969567242489
 31
0.0
  0
SPLINE
  5
26A
330
1F
100
AcDbEntity
  8
0
  6
SLD-Solid
 62
     7
370
    25
100
AcDbSpline
210
0.0
220
0.0
230
1.0
 70
    12
 71
     3
 72
    11
 73
     7
 74
     0
 42
0.00000001
 43
0.00000001
 40
0.0
 40
0.0
 40
0.0
 40
0.0
 40
0.2500000000000014
 40
0.4999999999999963
 40
0.7500000000000054
 40
1.0
 40
1.0
 40
1.0
 40
1.0
 10
33.15177472838894
 20
17.91869567242486
 30
0.0
 41
1.0
 10
33.15133881277811
 20
17.91489559815448
 30
0.0
 41
1.0
 10
33.15046698155646
 20
17.90729544961371
 30
0.0
 41
1.0
 10
33.14376075437591
 20
17.89770964643787
 30
0.0
 41
1.0
 10
33.1341749512001
 20
17.8910034192573
 30
0.0
 41
1.0
 10
33.12657480265933
 20
17.89013158803564
 30
0.0
 41
1.0
 10
33.12277472838894
 20
17.88969567242481
 30
0.0
 41
1.0
  0
LINE
  5
26B
330
1F
100
AcDbEntity
  8
0
  6
SLD-Solid
 62
     7
370
    25
100
AcDbLine
 10
33.16967472838908
 20
17.91869567242458
 30
0.0
 11
33.15177472838908
 21
17.91869567242458
 31
0.0
  0
SPLINE
  5
26C
330
1F
100
AcDbEntity
  8
0
  6
SLD-Solid
 62
     7
370
    25
100
AcDbSpline
210
0.0
220
0.0
230
1.0
 70
    12
 71
     3
 72
    11
 73
     7
 74
     0
 42
0.00000001
 43
0.00000001
 40
0.0
 40
0.0
 40
0.0
 40
0.0
 40
0.2499999999999927
 40
0.4999999999999916
 40
0.7500000000000016
 40
1.0
 40
1.0
 40
1.0
 40
1.0
 10
33.16967472838894
 20
17.91869567242489
 30
0.0
 41
1.0
 10
33.16896974762523
 20
17.91255003507037
 30
0.0
 41
1.0
 10
33.16755978609779
 20
17.90025876036134
 30
0.0
 41
1.0
 10
33.15671419800235
 20
17.88475620281145
 30
0.0
 41
1.0
 10
33.1412116404525
 20
17.87391061471599
 30
0.0
 41
1.0
 10
33.12892036574346
 20
17.87250065318853
 30
0.0
 41
1.0
 10
33.12277472838894
 20
17.87179567242481
 30
0.0
 41
1.0
  0
LINE
  5
26D
330
1F
100
AcDbEntity
  8
0
  6
SLD-Solid
 62
     7
370
    25
100
AcDbLine
 10
32.72077472838895
 20
17.87179567242489
 30
0.0
 11
32.72077472838895
 21
17.88969567242489
 31
0.0
  0
LINE
  5
26E
330
1F
100
AcDbEntity
  8
0
  6
SLD-Solid
 62
     7
370
    25
100
AcDbLine
 10
33.12277472838894
 20
17.87179567242481
 30
0.0
 11
32.72077472838895
 21
17.87179567242481
 31
0.0
  0
SPLINE
  5
26F
330
1F
100
AcDbEntity
  8
0
  6
SLD-Solid
 62
     7
370
    25
100
AcDbSpline
210
0.0
220
0.0
230
1.0
 70
    12
 71
     3
 72
    11
 73
     7
 74
     0
 42
0.00000001
 43
0.00000001
 40
0.0
 40
0.0
 40
0.0
 40
0.0
 40
0.2499999999999939
 40
0.5000000000000266
 40
0.7500000000000189
 40
1.0
 40
1.0
 40
1.0
 40
1.0
 10
32.72077472838895
 20
17.87179567242481
 30
0.0
 41
1.0
 10
32.71462909103442
 20
17.87250065318853
 30
0.0
 41
1.0
 10
32.70233781632538
 20
17.87391061471599
 30
0.0
 41
1.0
 10
32.68683525877553
 20
17.88475620281146
 30
0.0
 41
1.0
 10
32.6759896706801
 20
17.90025876036133
 30
0.0
 41
1.0
 10
32.67457970915267
 20
17.91255003507037
 30
0.0
 41
1.0
 10
32.67387472838895
 20
17.91869567242489
 30
0.0
 41
1.0
  0
SPLINE
  5
270
330
1F
100
AcDbEntity
  8
0
  6
SLD-Solid
 62
     7
370
    25
100
AcDbSpline
210
0.0
220
0.0
230
1.0
 70
    12
 71
     3
 72
     9
 73
     5
 74
     0
 42
0.00000001
 43
0.00000001
 40
0.0
 40
0.0
 40
0.0
 40
0.0
 40
0.4999999999999203
 40
1.0
 40
1.0
 40
1.0
 40
1.0
 10
32.72077472838895
 20
17.88969567242481
 30
0.0
 41
1.0
 10
32.71693466000752
 20
17.8900915939246
 30
0.0
 41
1.0
 10
32.70925452324465
 20
17.89088343692417
 30
0.0
 41
1.0
 10
32.70326392890456
 20
17.895754196155
 30
0.0
 41
1.0
 10
32.70026863173452
 20
17.89818957577042
 30
0.0
 41
1.0
  0
LINE
  5
271
330
1F
100
AcDbEntity
  8
0
  6
SLD-Solid
 62
     7
370
    25
100
AcDbLine
 10
33.16967472838895
 20
53.79819567242495
 30
0.0
 11
33.15177472838894
 21
53.79819567242495
 31
0.0
  0
SPLINE
  5
272
330
1F
100
AcDbEntity
  8
0
  6
SLD-Solid
 62
     7
370
    25
100
AcDbSpline
210
0.0
220
0.0
230
1.0
 70
    12
 71
     3
 72
    11
 73
     7
 74
     0
 42
0.00000001
 43
0.00000001
 40
0.0
 40
0.0
 40
0.0
 40
0.0
 40
0.2865034074519806
 40
0.592296417336245
 40
0.8982137707291709
 40
1.0
 40
1.0
 40
1.0
 40
1.0
 10
33.15177472838894
 20
53.79819567242495
 30
0.0
 41
1.0
 10
33.15119770732085
 20
53.80254781396574
 30
0.0
 41
1.0
 10
33.15000481570956
 20
53.81154511652932
 30
0.0
 41
1.0
 10
33.14070014961534
 20
53.82232926972257
 30
0.0
 41
1.0
 10
33.13048492872892
 20
53.82681836128953
 30
0.0
 41
1.0
 10
33.12431507757973
 20
53.82712029294368
 30
0.0
 41
1.0
 10
33.12277472838895
 20
53.82719567242495
 30
0.0
 41
1.0
  0
SPLINE
  5
273
330
1F
100
AcDbEntity
  8
0
  6
SLD-Solid
 62
     7
370
    25
100
AcDbSpline
210
0.0
220
0.0
230
1.0
 70
    12
 71
     3
 72
    11
 73
     7
 74
     0
 42
0.00000001
 43
0.00000001
 40
0.0
 40
0.0
 40
0.0
 40
0.0
 40
0.2109689467081776
 40
0.4643344536995477
 40
0.7178010815808493
 40
1.0
 40
1.0
 40
1.0
 40
1.0
 10
33.16967472838895
 20
53.79819567242495
 30
0.0
 41
1.0
 10
33.16917108478786
 20
53.80337306669457
 30
0.0
 41
1.0
 10
33.16806258479289
 20
53.81476831029453
 30
0.0
 41
1.0
 10
33.15861063555889
 20
53.83017699268523
 30
0.0
 41
1.0
 10
33.14290401715077
 20
53.84249087515985
 30
0.0
 41
1.0
 10
33.12972021112132
 20
53.84419690373819
 30
0.0
 41
1.0
 10
33.12277472838895
 20
53.84509567242495
 30
0.0
 41
1.0
  0
SPLINE
  5
274
330
1F
100
AcDbEntity
  8
0
  6
SLD-Solid
 62
     7
370
    25
100
AcDbSpline
210
0.0
220
0.0
230
1.0
 70
    12
 71
     3
 72
    11
 73
     7
 74
     0
 42
0.00000001
 43
0.00000001
 40
0.0
 40
0.0
 40
0.0
 40
0.0
 40
0.250000000000008
 40
0.4999999999999944
 40
0.7499999999999798
 40
1.0
 40
1.0
 40
1.0
 40
1.0
 10
32.72077472838895
 20
53.82719567242495
 30
0.0
 41
1.0
 10
32.71697465411857
 20
53.82675975681411
 30
0.0
 41
1.0
 10
32.7093745055778
 20
53.82588792559245
 30
0.0
 41
1.0
 10
32.69978870240199
 20
53.8191816984119
 30
0.0
 41
1.0
 10
32.69308247522144
 20
53.80959589523609
 30
0.0
 41
1.0
 10
32.69221064399978
 20
53.80199574669533
 30
0.0
 41
1.0
 10
32.69177472838894
 20
53.79819567242495
 30
0.0
 41
1.0
  0
LINE
  5
275
330
1F
100
AcDbEntity
  8
0
  6
SLD-Solid
 62
     7
370
    25
100
AcDbLine
 10
32.67387472838895
 20
53.79819567242495
 30
0.0
 11
32.69177472838894
 21
53.79819567242495
 31
0.0
  0
SPLINE
  5
276
330
1F
100
AcDbEntity
  8
0
  6
SLD-Solid
 62
     7
370
    25
100
AcDbSpline
210
0.0
220
0.0
230
1.0
 70
    12
 71
     3
 72
    11
 73
     7
 74
     0
 42
0.00000001
 43
0.00000001
 40
0.0
 40
0.0
 40
0.0
 40
0.0
 40
0.2500000000000017
 40
0.5000000000000016
 40
0.7499999999999962
 40
1.0
 40
1.0
 40
1.0
 40
1.0
 10
32.72077472838895
 20
53.84509567242495
 30
0.0
 41
1.0
 10
32.71462909103443
 20
53.84439069166122
 30
0.0
 41
1.0
 10
32.70233781632541
 20
53.84298073013377
 30
0.0
 41
1.0
 10
32.68683525877556
 20
53.83213514203833
 30
0.0
 41
1.0
 10
32.67598967068012
 20
53.81663258448849
 30
0.0
 41
1.0
 10
32.67457970915267
 20
53.80434130977946
 30
0.0
 41
1.0
 10
32.67387472838895
 20
53.79819567242495
 30
0.0
 41
1.0
  0
LINE
  5
277
330
1F
100
AcDbEntity
  8
0
  6
SLD-Solid
 62
     7
370
    25
100
AcDbLine
 10
32.67387472838895
 20
53.79819567242495
 30
0.0
 11
32.67387472838895
 21
53.79678145886258
 31
0.0
  0
LINE
  5
278
330
1F
100
AcDbEntity
  8
0
  6
SLD-Solid
 62
     7
370
    25
100
AcDbLine
 10
32.67387472838907
 20
17.92010988598734
 30
0.0
 11
32.67387472838907
 21
17.91869567242502
 31
0.0
  0
LINE
  5
279
330
1F
100
AcDbEntity
  8
0
  6
SLD-Solid
 62
     7
370
    25
100
AcDbLine
 10
33.16967472838908
 20
17.91869567242466
 30
0.0
 11
33.16967472838908
 21
17.96215761320185
 31
0.0
  0
LINE
  5
27A
330
1F
100
AcDbEntity
  8
0
  6
SLD-Solid
 62
     7
370
    25
100
AcDbLine
 10
33.16967472838895
 20
53.75223373164783
 30
0.0
 11
33.16967472838895
 21
53.79819567242495
 31
0.0
  0
LINE
  5
27B
330
1F
100
AcDbEntity
  8
0
  6
SLD-Solid
 62
     7
370
    25
100
AcDbLine
 10
33.15177472838894
 20
53.78781278837724
 30
0.0
 11
33.15177472838894
 21
53.79819567242495
 31
0.0
  0
DIMENSION
  5
27C
330
1F
100
AcDbEntity
  8
DIMS
100
AcDbDimension
  2
_D_3
 10
32.6738747283889
 20
54.71123740470841
 30
0.0
 11
32.00199971965939
 21
54.71123740470841
 31
0.0
 70
    32
  1
<>
 71
     2
 42
-1.0
  3
SLDDIMSTYLE2
100
AcDbAlignedDimension
 13
33.1696747283889
 23
53.75223373164783
 33
0.0
 14
32.6738747283889
 24
53.79678145886258
 34
0.0
100
AcDbRotatedDimension
  0
MTEXT
  5
28B
330
1F
100
AcDbEntity
  8
NOTES
100
AcDbMText
 10
31.60487502157716
 20
17.39933892671722
 30
0.0
 40
0.5
 41
0.0
 71
     1
 72
     1
  1
Side view
  7
SLDTEXTSTYLE0
 73
     1
 44
1.0
  0
CIRCLE
  5
28C
330
1F
100
AcDbEntity
  8
0
  6
SLD-Solid
 62
     7
370
    25
100
AcDbCircle
 10
37.68511943204483
 20
35.85719567242484
 30
0.0
 40
0.0779372107227409
  0
CIRCLE
  5
28D
330
1F
100
AcDbEntity
  8
0
  6
SLD-Solid
 62
     7
370
    25
100
AcDbCircle
 10
37.68511943204483
 20
35.85719567242484
 30
0.0
 40
0.1269999999999998
  0
CIRCLE
  5
28E
330
1F
100
AcDbEntity
  8
0
  6
SLD-Solid
 62
     7
370
    25
100
AcDbCircle
 10
37.68511943204483
 20
35.85719567242484
 30
0.0
 40
0.0312500000000003
  0
CIRCLE
  5
28F
330
1F
100
AcDbEntity
  8
0
  6
SLD-Solid
 62
     7
370
    25
100
AcDbCircle
 10
38.17289308581047
 20
18.14888713756663
 30
0.0
 40
0.077937210722737
  0
CIRCLE
  5
290
330
1F
100
AcDbEntity
  8
0
  6
SLD-Solid
 62
     7
370
    25
100
AcDbCircle
 10
38.17289308581047
 20
18.14888713756663
 30
0.0
 40
0.1270000000000009
  0
CIRCLE
  5
291
330
1F
100
AcDbEntity
  8
0
  6
SLD-Solid
 62
     7
370
    25
100
AcDbCircle
 10
38.17289308581047
 20
18.14888713756663
 30
0.0
 40
0.0312499999999937
  0
CIRCLE
  5
292
330
1F
100
AcDbEntity
  8
0
  6
SLD-Solid
 62
     7
370
    25
100
AcDbCircle
 10
37.68511943204483
 20
18.63666079133229
 30
0.0
 40
0.0779372107227401
  0
CIRCLE
  5
293
330
1F
100
AcDbEntity
  8
0
  6
SLD-Solid
 62
     7
370
    25
100
AcDbCircle
 10
37.68511943204483
 20
18.63666079133229
 30
0.0
 40
0.1270000000000027
  0
CIRCLE
  5
294
330
1F
100
AcDbEntity
  8
0
  6
SLD-Solid
 62
     7
370
    25
100
AcDbCircle
 10
37.68511943204483
 20
18.63666079133229
 30
0.0
 40
0.0312499999999972
  0
CIRCLE
  5
295
330
1F
100
AcDbEntity
  8
0
  6
SLD-Solid
 62
     7
370
    25
100
AcDbCircle
 10
61.10199655226772
 20
35.85719567242484
 30
0.0
 40
0.0779372107227449
  0
CIRCLE
  5
296
330
1F
100
AcDbEntity
  8
0
  6
SLD-Solid
 62
     7
370
    25
100
AcDbCircle
 10
61.10199655226771
 20
35.85719567242484
 30
0.0
 40
0.1269999999999944
  0
CIRCLE
  5
297
330
1F
100
AcDbEntity
  8
0
  6
SLD-Solid
 62
     7
370
    25
100
AcDbCircle
 10
61.10199655226772
 20
35.85719567242484
 30
0.0
 40
0.0312499999999913
  0
LINE
  5
298
330
1F
100
AcDbEntity
  8
0
  6
SLD-Solid
 62
     7
370
    25
100
AcDbLine
 10
37.45605799215632
 20
17.88969567242489
 30
0.0
 11
37.45605799215632
 21
17.95809037574545
 31
0.0
  0
LINE
  5
299
330
1F
100
AcDbEntity
  8
0
  6
SLD-Solid
 62
     7
370
    25
100
AcDbLine
 10
61.33105799215632
 20
17.9669076132021
 30
0.0
 11
61.33105799215632
 21
17.88969567242489
 31
0.0
  0
LINE
  5
29A
330
1F
100
AcDbEntity
  8
0
  6
SLD-Solid
 62
     7
370
    25
100
AcDbLine
 10
37.45605799215633
 20
53.75391169501157
 30
0.0
 11
37.45605799215633
 21
53.76469567242489
 31
0.0
  0
LINE
  5
29B
330
1F
100
AcDbEntity
  8
0
  6
SLD-Solid
 62
     7
370
    25
100
AcDbLine
 10
37.45605799215633
 20
53.76469567242489
 30
0.0
 11
37.49151445033156
 21
53.76469567242489
 31
0.0
  0
ARC
  5
29C
330
1F
100
AcDbEntity
  8
0
  6
SLD-Solid
 62
     7
370
    25
100
AcDbCircle
 10
37.57781943204482
 20
18.03918379133228
 30
0.0
 40
0.0999999999999981
100
AcDbArc
 50
205.5954537928147
 51
242.4627900826573
  0
ARC
  5
29D
330
1F
100
AcDbEntity
  8
0
  6
SLD-Solid
 62
     7
370
    25
100
AcDbCircle
 10
37.57781943204457
 20
53.71418379133224
 30
0.0
 40
0.1000000000000086
100
AcDbArc
 50
132.5836704000242
 51
172.4334548493337
  0
ARC
  5
29E
330
1F
100
AcDbEntity
  8
0
  6
SLD-Solid
 62
     7
370
    25
100
AcDbCircle
 10
61.25281943204455
 20
53.71418379133241
 30
0.0
 40
0.1000000000000143
100
AcDbArc
 50
27.50020241941076
 51
65.54240644196955
  0
ARC
  5
29F
330
1F
100
AcDbEntity
  8
0
  6
SLD-Solid
 62
     7
370
    25
100
AcDbCircle
 10
61.2528194320448
 20
18.03918379133244
 30
0.0
 40
0.0999999999999982
100
AcDbArc
 50
277.5665451504048
 51
317.416329599863
  0
LINE
  5
2A0
330
1F
100
AcDbEntity
  8
0
  6
SLD-Solid
 62
     7
370
    25
100
AcDbLine
 10
38.6253194320448
 20
21.09018379133228
 30
0.0
 11
38.6253194320448
 21
21.79018379133229
 31
0.0
  0
ARC
  5
2A1
330
1F
100
AcDbEntity
  8
0
  6
SLD-Solid
 62
     7
370
    25
100
AcDbCircle
 10
38.7903194320448
 20
21.79018379133229
 30
0.0
 40
0.1649999999999991
100
AcDbArc
 50
0.0000000000001928
 51
179.9999999999998
  0
LINE
  5
2A2
330
1F
100
AcDbEntity
  8
0
  6
SLD-Solid
 62
     7
370
    25
100
AcDbLine
 10
38.9553194320448
 20
21.79018379133229
 30
0.0
 11
38.9553194320448
 21
21.09018379133229
 31
0.0
  0
ARC
  5
2A3
330
1F
100
AcDbEntity
  8
0
  6
SLD-Solid
 62
     7
370
    25
100
AcDbCircle
 10
39.0053194320448
 20
21.09018379133229
 30
0.0
 40
0.0500000000000043
100
AcDbArc
 50
179.9999999999998
 51
0.0000000000040756
  0
LINE
  5
2A4
330
1F
100
AcDbEntity
  8
0
  6
SLD-Solid
 62
     7
370
    25
100
AcDbLine
 10
39.0553194320448
 20
21.09018379133229
 30
0.0
 11
39.0553194320448
 21
21.69018379133229
 31
0.0
  0
LINE
  5
2A5
330
1F
100
AcDbEntity
  8
0
  6
SLD-Solid
 62
     7
370
    25
100
AcDbLine
 10
39.0553194320448
 20
21.69018379133229
 30
0.0
 11
39.28031943204479
 21
21.69018379133229
 31
0.0
  0
ARC
  5
2A6
330
1F
100
AcDbEntity
  8
0
  6
SLD-Solid
 62
     7
370
    25
100
AcDbCircle
 10
39.28031943204479
 20
21.79018379133229
 30
0.0
 40
0.0999999999999979
100
AcDbArc
 50
270.0000000000008
 51
90.0
  0
LINE
  5
2A7
330
1F
100
AcDbEntity
  8
0
  6
SLD-Solid
 62
     7
370
    25
100
AcDbLine
 10
39.28031943204479
 20
21.89018379133228
 30
0.0
 11
39.03572725616639
 21
21.89018379063181
 31
0.0
  0
ARC
  5
2A8
330
1F
100
AcDbEntity
  8
0
  6
SLD-Solid
 62
     7
370
    25
100
AcDbCircle
 10
38.7903194320448
 20
21.79018379133229
 30
0.0
 40
0.2649999999999997
100
AcDbArc
 50
22.17015699999978
 51
67.82984299999993
  0
LINE
  5
2A9
330
1F
100
AcDbEntity
  8
0
  6
SLD-Solid
 62
     7
370
    25
100
AcDbLine
 10
38.89031943134432
 20
22.03559161545387
 30
0.0
 11
38.89031943204479
 21
22.28018379133228
 31
0.0
  0
ARC
  5
2AA
330
1F
100
AcDbEntity
  8
0
  6
SLD-Solid
 62
     7
370
    25
100
AcDbCircle
 10
38.79031943204479
 20
22.28018379133228
 30
0.0
 40
0.1000000000000014
100
AcDbArc
 50
0.0000000000002067
 51
179.9999999999998
  0
LINE
  5
2AB
330
1F
100
AcDbEntity
  8
0
  6
SLD-Solid
 62
     7
370
    25
100
AcDbLine
 10
38.6903194320448
 20
22.28018379133228
 30
0.0
 11
38.69031943274527
 21
22.03559161545387
 31
0.0
  0
ARC
  5
2AC
330
1F
100
AcDbEntity
  8
0
  6
SLD-Solid
 62
     7
370
    25
100
AcDbCircle
 10
38.7903194320448
 20
21.79018379133229
 30
0.0
 40
0.265000000000005
100
AcDbArc
 50
112.1701570000001
 51
157.8298430000015
  0
LINE
  5
2AD
330
1F
100
AcDbEntity
  8
0
  6
SLD-Solid
 62
     7
370
    25
100
AcDbLine
 10
38.5449116079232
 20
21.89018379063181
 30
0.0
 11
38.30031943204479
 21
21.89018379133228
 31
0.0
  0
ARC
  5
2AE
330
1F
100
AcDbEntity
  8
0
  6
SLD-Solid
 62
     7
370
    25
100
AcDbCircle
 10
38.30031943204479
 20
21.79018379133228
 30
0.0
 40
0.1000000000000014
100
AcDbArc
 50
90.0
 51
270.0000000000008
  0
LINE
  5
2AF
330
1F
100
AcDbEntity
  8
0
  6
SLD-Solid
 62
     7
370
    25
100
AcDbLine
 10
38.30031943204479
 20
21.69018379133228
 30
0.0
 11
38.5253194320448
 21
21.69018379133228
 31
0.0
  0
LINE
  5
2B0
330
1F
100
AcDbEntity
  8
0
  6
SLD-Solid
 62
     7
370
    25
100
AcDbLine
 10
38.5253194320448
 20
21.69018379133228
 30
0.0
 11
38.5253194320448
 21
21.09018379133229
 31
0.0
  0
ARC
  5
2B1
330
1F
100
AcDbEntity
  8
0
  6
SLD-Solid
 62
     7
370
    25
100
AcDbCircle
 10
38.5753194320448
 20
21.09018379133229
 30
0.0
 40
0.0499999999999972
100
AcDbArc
 50
179.9999999999998
 51
359.9999999999927
  0
LINE
  5
2B2
330
1F
100
AcDbEntity
  8
0
  6
SLD-Solid
 62
     7
370
    25
100
AcDbLine
 10
38.62531943204461
 20
48.23918379133225
 30
0.0
 11
38.6253194320446
 21
48.93918379133225
 31
0.0
  0
ARC
  5
2B3
330
1F
100
AcDbEntity
  8
0
  6
SLD-Solid
 62
     7
370
    25
100
AcDbCircle
 10
38.7903194320446
 20
48.93918379133225
 30
0.0
 40
0.1650000000000063
100
AcDbArc
 50
0.0000000000024756
 51
179.9999999999998
  0
LINE
  5
2B4
330
1F
100
AcDbEntity
  8
0
  6
SLD-Solid
 62
     7
370
    25
100
AcDbLine
 10
38.9553194320446
 20
48.93918379133226
 30
0.0
 11
38.95531943204461
 21
48.23918379133226
 31
0.0
  0
ARC
  5
2B5
330
1F
100
AcDbEntity
  8
0
  6
SLD-Solid
 62
     7
370
    25
100
AcDbCircle
 10
39.00531943204461
 20
48.23918379133226
 30
0.0
 40
0.0500000000000043
100
AcDbArc
 50
179.9999999999998
 51
0.0000000000001908
  0
LINE
  5
2B6
330
1F
100
AcDbEntity
  8
0
  6
SLD-Solid
 62
     7
370
    25
100
AcDbLine
 10
39.05531943204461
 20
48.23918379133226
 30
0.0
 11
39.05531943204461
 21
48.83918379133225
 31
0.0
  0
LINE
  5
2B7
330
1F
100
AcDbEntity
  8
0
  6
SLD-Solid
 62
     7
370
    25
100
AcDbLine
 10
39.05531943204461
 20
48.83918379133225
 30
0.0
 11
39.28031943204461
 21
48.83918379133225
 31
0.0
  0
ARC
  5
2B8
330
1F
100
AcDbEntity
  8
0
  6
SLD-Solid
 62
     7
370
    25
100
AcDbCircle
 10
39.2803194320446
 20
48.93918379133226
 30
0.0
 40
0.1000000000000085
100
AcDbArc
 50
270.0000000000049
 51
90.0
  0
LINE
  5
2B9
330
1F
100
AcDbEntity
  8
0
  6
SLD-Solid
 62
     7
370
    25
100
AcDbLine
 10
39.2803194320446
 20
49.03918379133226
 30
0.0
 11
39.03572725616619
 21
49.03918379063179
 31
0.0
  0
ARC
  5
2BA
330
1F
100
AcDbEntity
  8
0
  6
SLD-Solid
 62
     7
370
    25
100
AcDbCircle
 10
38.7903194320446
 20
48.93918379133225
 30
0.0
 40
0.2650000000000063
100
AcDbArc
 50
22.17015700000178
 51
67.8298430000008
  0
LINE
  5
2BB
330
1F
100
AcDbEntity
  8
0
  6
SLD-Solid
 62
     7
370
    25
100
AcDbLine
 10
38.89031943134413
 20
49.18459161545385
 30
0.0
 11
38.89031943204461
 21
49.42918379133226
 31
0.0
  0
ARC
  5
2BC
330
1F
100
AcDbEntity
  8
0
  6
SLD-Solid
 62
     7
370
    25
100
AcDbCircle
 10
38.7903194320446
 20
49.42918379133226
 30
0.0
 40
0.1000000000000014
100
AcDbArc
 50
0.0000000000040756
 51
179.9999999999998
  0
LINE
  5
2BD
330
1F
100
AcDbEntity
  8
0
  6
SLD-Solid
 62
     7
370
    25
100
AcDbLine
 10
38.6903194320446
 20
49.42918379133226
 30
0.0
 11
38.69031943274508
 21
49.18459161545385
 31
0.0
  0
ARC
  5
2BE
330
1F
100
AcDbEntity
  8
0
  6
SLD-Solid
 62
     7
370
    25
100
AcDbCircle
 10
38.7903194320446
 20
48.93918379133225
 30
0.0
 40
0.2650000000000063
100
AcDbArc
 50
112.1701569999992
 51
157.8298429999988
  0
LINE
  5
2BF
330
1F
100
AcDbEntity
  8
0
  6
SLD-Solid
 62
     7
370
    25
100
AcDbLine
 10
38.54491160792301
 20
49.03918379063179
 30
0.0
 11
38.3003194320446
 21
49.03918379133226
 31
0.0
  0
ARC
  5
2C0
330
1F
100
AcDbEntity
  8
0
  6
SLD-Solid
 62
     7
370
    25
100
AcDbCircle
 10
38.3003194320446
 20
48.93918379133226
 30
0.0
 40
0.1000000000000085
100
AcDbArc
 50
90.0
 51
270.0000000000008
  0
LINE
  5
2C1
330
1F
100
AcDbEntity
  8
0
  6
SLD-Solid
 62
     7
370
    25
100
AcDbLine
 10
38.3003194320446
 20
48.83918379133225
 30
0.0
 11
38.52531943204461
 21
48.83918379133225
 31
0.0
  0
LINE
  5
2C2
330
1F
100
AcDbEntity
  8
0
  6
SLD-Solid
 62
     7
370
    25
100
AcDbLine
 10
38.52531943204461
 20
48.83918379133225
 30
0.0
 11
38.52531943204461
 21
48.23918379133226
 31
0.0
  0
ARC
  5
2C3
330
1F
100
AcDbEntity
  8
0
  6
SLD-Solid
 62
     7
370
    25
100
AcDbCircle
 10
38.57531943204461
 20
48.23918379133226
 30
0.0
 40
0.0500000000000043
100
AcDbArc
 50
179.9999999999998
 51
359.9999999999927
  0
LINE
  5
2C4
330
1F
100
AcDbEntity
  8
0
  6
SLD-Solid
 62
     7
370
    25
100
AcDbLine
 10
59.87531943204479
 20
21.09018379133243
 30
0.0
 11
59.87531943204478
 21
21.79018379133243
 31
0.0
  0
ARC
  5
2C5
330
1F
100
AcDbEntity
  8
0
  6
SLD-Solid
 62
     7
370
    25
100
AcDbCircle
 10
60.04031943204478
 20
21.79018379133243
 30
0.0
 40
0.1649999999999991
100
AcDbArc
 50
0.0000000000002024
 51
180.000000000002
  0
LINE
  5
2C6
330
1F
100
AcDbEntity
  8
0
  6
SLD-Solid
 62
     7
370
    25
100
AcDbLine
 10
60.20531943204477
 20
21.79018379133243
 30
0.0
 11
60.20531943204478
 21
21.09018379133243
 31
0.0
  0
ARC
  5
2C7
330
1F
100
AcDbEntity
  8
0
  6
SLD-Solid
 62
     7
370
    25
100
AcDbCircle
 10
60.25531943204477
 20
21.09018379133243
 30
0.0
 40
0.0500000000000043
100
AcDbArc
 50
179.9999999999998
 51
0.0000000000081445
  0
LINE
  5
2C8
330
1F
100
AcDbEntity
  8
0
  6
SLD-Solid
 62
     7
370
    25
100
AcDbLine
 10
60.30531943204478
 20
21.09018379133244
 30
0.0
 11
60.30531943204478
 21
21.69018379133243
 31
0.0
  0
LINE
  5
2C9
330
1F
100
AcDbEntity
  8
0
  6
SLD-Solid
 62
     7
370
    25
100
AcDbLine
 10
60.30531943204478
 20
21.69018379133243
 30
0.0
 11
60.53031943204478
 21
21.69018379133243
 31
0.0
  0
ARC
  5
2CA
330
1F
100
AcDbEntity
  8
0
  6
SLD-Solid
 62
     7
370
    25
100
AcDbCircle
 10
60.53031943204478
 20
21.79018379133243
 30
0.0
 40
0.1000000000000014
100
AcDbArc
 50
270.0000000000008
 51
90.0
  0
LINE
  5
2CB
330
1F
100
AcDbEntity
  8
0
  6
SLD-Solid
 62
     7
370
    25
100
AcDbLine
 10
60.53031943204478
 20
21.89018379133243
 30
0.0
 11
60.28572725616637
 21
21.89018379063196
 31
0.0
  0
ARC
  5
2CC
330
1F
100
AcDbEntity
  8
0
  6
SLD-Solid
 62
     7
370
    25
100
AcDbCircle
 10
60.04031943204478
 20
21.79018379133243
 30
0.0
 40
0.265000000000005
100
AcDbArc
 50
22.17015699999849
 51
67.82984300000136
  0
LINE
  5
2CD
330
1F
100
AcDbEntity
  8
0
  6
SLD-Solid
 62
     7
370
    25
100
AcDbLine
 10
60.1403194313443
 20
22.03559161545402
 30
0.0
 11
60.14031943204477
 21
22.28018379133243
 31
0.0
  0
ARC
  5
2CE
330
1F
100
AcDbEntity
  8
0
  6
SLD-Solid
 62
     7
370
    25
100
AcDbCircle
 10
60.04031943204477
 20
22.28018379133243
 30
0.0
 40
0.1000000000000014
100
AcDbArc
 50
0.0000000000001908
 51
180.0000000000028
  0
LINE
  5
2CF
330
1F
100
AcDbEntity
  8
0
  6
SLD-Solid
 62
     7
370
    25
100
AcDbLine
 10
59.94031943204478
 20
22.28018379133243
 30
0.0
 11
59.94031943274525
 21
22.03559161545402
 31
0.0
  0
ARC
  5
2D0
330
1F
100
AcDbEntity
  8
0
  6
SLD-Solid
 62
     7
370
    25
100
AcDbCircle
 10
60.04031943204478
 20
21.79018379133243
 30
0.0
 40
0.2649999999999932
100
AcDbArc
 50
112.1701570000004
 51
157.8298430000004
  0
LINE
  5
2D1
330
1F
100
AcDbEntity
  8
0
  6
SLD-Solid
 62
     7
370
    25
100
AcDbLine
 10
59.79491160792319
 20
21.89018379063196
 30
0.0
 11
59.55031943204478
 21
21.89018379133243
 31
0.0
  0
ARC
  5
2D2
330
1F
100
AcDbEntity
  8
0
  6
SLD-Solid
 62
     7
370
    25
100
AcDbCircle
 10
59.55031943204478
 20
21.79018379133242
 30
0.0
 40
0.1000000000000014
100
AcDbArc
 50
90.0
 51
270.0000000000008
  0
LINE
  5
2D3
330
1F
100
AcDbEntity
  8
0
  6
SLD-Solid
 62
     7
370
    25
100
AcDbLine
 10
59.55031943204478
 20
21.69018379133243
 30
0.0
 11
59.77531943204478
 21
21.69018379133243
 31
0.0
  0
LINE
  5
2D4
330
1F
100
AcDbEntity
  8
0
  6
SLD-Solid
 62
     7
370
    25
100
AcDbLine
 10
59.77531943204478
 20
21.69018379133243
 30
0.0
 11
59.77531943204478
 21
21.09018379133243
 31
0.0
  0
ARC
  5
2D5
330
1F
100
AcDbEntity
  8
0
  6
SLD-Solid
 62
     7
370
    25
100
AcDbCircle
 10
59.82531943204479
 20
21.09018379133243
 30
0.0
 40
0.0500000000000043
100
AcDbArc
 50
179.9999999999999
 51
0.0000000000002862
  0
LINE
  5
2D6
330
1F
100
AcDbEntity
  8
0
  6
SLD-Solid
 62
     7
370
    25
100
AcDbLine
 10
59.87531943204459
 20
48.2391837913324
 30
0.0
 11
59.87531943204458
 21
48.9391837913324
 31
0.0
  0
ARC
  5
2D7
330
1F
100
AcDbEntity
  8
0
  6
SLD-Solid
 62
     7
370
    25
100
AcDbCircle
 10
60.04031943204458
 20
48.93918379133241
 30
0.0
 40
0.1649999999999991
100
AcDbArc
 50
359.9999999999983
 51
180.0000000000033
  0
LINE
  5
2D8
330
1F
100
AcDbEntity
  8
0
  6
SLD-Solid
 62
     7
370
    25
100
AcDbLine
 10
60.20531943204458
 20
48.9391837913324
 30
0.0
 11
60.20531943204458
 21
48.23918379133241
 31
0.0
  0
ARC
  5
2D9
330
1F
100
AcDbEntity
  8
0
  6
SLD-Solid
 62
     7
370
    25
100
AcDbCircle
 10
60.25531943204458
 20
48.23918379133241
 30
0.0
 40
0.0500000000000043
100
AcDbArc
 50
179.9999999999998
 51
0.0000000000002226
  0
LINE
  5
2DA
330
1F
100
AcDbEntity
  8
0
  6
SLD-Solid
 62
     7
370
    25
100
AcDbLine
 10
60.30531943204458
 20
48.23918379133241
 30
0.0
 11
60.30531943204458
 21
48.8391837913324
 31
0.0
  0
LINE
  5
2DB
330
1F
100
AcDbEntity
  8
0
  6
SLD-Solid
 62
     7
370
    25
100
AcDbLine
 10
60.30531943204458
 20
48.8391837913324
 30
0.0
 11
60.53031943204459
 21
48.8391837913324
 31
0.0
  0
ARC
  5
2DC
330
1F
100
AcDbEntity
  8
0
  6
SLD-Solid
 62
     7
370
    25
100
AcDbCircle
 10
60.53031943204459
 20
48.9391837913324
 30
0.0
 40
0.1000000000000014
100
AcDbArc
 50
270.0000000000008
 51
90.0
  0
LINE
  5
2DD
330
1F
100
AcDbEntity
  8
0
  6
SLD-Solid
 62
     7
370
    25
100
AcDbLine
 10
60.53031943204459
 20
49.03918379133241
 30
0.0
 11
60.28572725616618
 21
49.03918379063193
 31
0.0
  0
ARC
  5
2DE
330
1F
100
AcDbEntity
  8
0
  6
SLD-Solid
 62
     7
370
    25
100
AcDbCircle
 10
60.04031943204458
 20
48.93918379133241
 30
0.0
 40
0.2650000000000102
100
AcDbArc
 50
22.1701569999972
 51
67.8298429999988
  0
LINE
  5
2DF
330
1F
100
AcDbEntity
  8
0
  6
SLD-Solid
 62
     7
370
    25
100
AcDbLine
 10
60.14031943134411
 20
49.184591615454
 30
0.0
 11
60.14031943204458
 21
49.42918379133241
 31
0.0
  0
ARC
  5
2E0
330
1F
100
AcDbEntity
  8
0
  6
SLD-Solid
 62
     7
370
    25
100
AcDbCircle
 10
60.04031943204458
 20
49.42918379133241
 30
0.0
 40
0.1000000000000014
100
AcDbArc
 50
359.9999999999968
 51
180.0000000000049
  0
LINE
  5
2E1
330
1F
100
AcDbEntity
  8
0
  6
SLD-Solid
 62
     7
370
    25
100
AcDbLine
 10
59.94031943204457
 20
49.42918379133241
 30
0.0
 11
59.94031943274506
 21
49.184591615454
 31
0.0
  0
ARC
  5
2E2
330
1F
100
AcDbEntity
  8
0
  6
SLD-Solid
 62
     7
370
    25
100
AcDbCircle
 10
60.04031943204458
 20
48.93918379133241
 30
0.0
 40
0.2649999999999905
100
AcDbArc
 50
112.1701569999989
 51
157.8298430000005
  0
LINE
  5
2E3
330
1F
100
AcDbEntity
  8
0
  6
SLD-Solid
 62
     7
370
    25
100
AcDbLine
 10
59.794911607923
 20
49.03918379063193
 30
0.0
 11
59.55031943204459
 21
49.03918379133241
 31
0.0
  0
ARC
  5
2E4
330
1F
100
AcDbEntity
  8
0
  6
SLD-Solid
 62
     7
370
    25
100
AcDbCircle
 10
59.55031943204459
 20
48.9391837913324
 30
0.0
 40
0.1000000000000014
100
AcDbArc
 50
90.0
 51
270.0000000000008
  0
LINE
  5
2E5
330
1F
100
AcDbEntity
  8
0
  6
SLD-Solid
 62
     7
370
    25
100
AcDbLine
 10
59.55031943204459
 20
48.8391837913324
 30
0.0
 11
59.77531943204458
 21
48.8391837913324
 31
0.0
  0
LINE
  5
2E6
330
1F
100
AcDbEntity
  8
0
  6
SLD-Solid
 62
     7
370
    25
100
AcDbLine
 10
59.77531943204458
 20
48.8391837913324
 30
0.0
 11
59.77531943204458
 21
48.23918379133241
 31
0.0
  0
ARC
  5
2E7
330
1F
100
AcDbEntity
  8
0
  6
SLD-Solid
 62
     7
370
    25
100
AcDbCircle
 10
59.82531943204459
 20
48.2391837913324
 30
0.0
 40
0.0500000000000114
100
AcDbArc
 50
179.9999999999918
 51
0.0000000000001908
  0
SPLINE
  5
2E8
330
1F
100
AcDbEntity
  8
0
  6
SLD-Solid
 62
     7
370
    25
100
AcDbSpline
210
0.0
220
0.0
230
1.0
 70
    12
 71
     3
 72
    11
 73
     7
 74
     0
 42
0.00000001
 43
0.00000001
 40
0.0
 40
0.0
 40
0.0
 40
0.0
 40
0.2499999999999927
 40
0.4999999999999916
 40
0.7500000000000016
 40
1.0
 40
1.0
 40
1.0
 40
1.0
 10
37.49976993293326
 20
17.91869567242489
 30
0.0
 41
1.0
 10
37.49373143786853
 20
17.91255003507037
 30
0.0
 41
1.0
 10
37.48165444773905
 20
17.90025876036134
 30
0.0
 41
1.0
 10
37.46353896254482
 20
17.88475620281145
 30
0.0
 41
1.0
 10
37.44542347735062
 20
17.87391061471599
 30
0.0
 41
1.0
 10
37.43334648722113
 20
17.87250065318853
 30
0.0
 41
1.0
 10
37.42730799215639
 20
17.87179567242481
 30
0.0
 41
1.0
  0
LINE
  5
2E9
330
1F
100
AcDbEntity
  8
0
  6
SLD-Solid
 62
     7
370
    25
100
AcDbLine
 10
61.28734605137926
 20
17.91869567242475
 30
0.0
 11
37.49976993293326
 21
17.91869567242459
 31
0.0
  0
SPLINE
  5
2EA
330
1F
100
AcDbEntity
  8
0
  6
SLD-Solid
 62
     7
370
    25
100
AcDbSpline
210
0.0
220
0.0
230
1.0
 70
    12
 71
     3
 72
    11
 73
     7
 74
     0
 42
0.00000001
 43
0.00000001
 40
0.0
 40
0.0
 40
0.0
 40
0.0
 40
0.2500000000000283
 40
0.5000000000000158
 40
0.7500000000000171
 40
1.0
 40
1.0
 40
1.0
 40
1.0
 10
61.33330799215639
 20
17.87179567242497
 30
0.0
 41
1.0
 10
61.32947783042497
 20
17.87250065318869
 30
0.0
 41
1.0
 10
61.32181750696211
 20
17.87391061471615
 30
0.0
 41
1.0
 10
61.31032702176783
 20
17.88475620281156
 30
0.0
 41
1.0
 10
61.29883653657355
 20
17.90025876036137
 30
0.0
 41
1.0
 10
61.2911762131107
 20
17.91255003507038
 30
0.0
 41
1.0
 10
61.28734605137926
 20
17.91869567242489
 30
0.0
 41
1.0
  0
LINE
  5
2EB
330
1F
100
AcDbEntity
  8
0
  6
SLD-Solid
 62
     7
370
    25
100
AcDbLine
 10
61.33330799215639
 20
17.87179567242497
 30
0.0
 11
37.42730799215639
 21
17.87179567242481
 31
0.0
  0
LINE
  5
2EC
330
1F
100
AcDbEntity
  8
0
  6
SLD-Solid
 62
     7
370
    25
100
AcDbLine
 10
61.33330799215639
 20
17.88969567242489
 30
0.0
 11
61.33330799215639
 21
17.87179567242489
 31
0.0
  0
SPLINE
  5
2ED
330
1F
100
AcDbEntity
  8
0
  6
SLD-Solid
 62
     7
370
    25
100
AcDbSpline
210
0.0
220
0.0
230
1.0
 70
    12
 71
     3
 72
    11
 73
     7
 74
     0
 42
0.00000001
 43
0.00000001
 40
0.0
 40
0.0
 40
0.0
 40
0.0
 40
0.2500000000000284
 40
0.5000000000000101
 40
0.7499999999999933
 40
0.9999999999999999
 40
0.9999999999999999
 40
0.9999999999999999
 40
0.9999999999999999
 10
61.33330799215639
 20
17.88969567242497
 30
0.0
 41
1.0
 10
61.32947783042497
 20
17.8901315880358
 30
0.0
 41
1.0
 10
61.32181750696211
 20
17.89100341925746
 30
0.0
 41
1.0
 10
61.31032702176783
 20
17.89770964643801
 30
0.0
 41
1.0
 10
61.29883653657355
 20
17.90729544961379
 30
0.0
 41
1.0
 10
61.2911762131107
 20
17.91489559815454
 30
0.0
 41
1.0
 10
61.28734605137926
 20
17.91869567242492
 30
0.0
 41
1.0
  0
LINE
  5
2EE
330
1F
100
AcDbEntity
  8
0
  6
SLD-Solid
 62
     7
370
    25
100
AcDbLine
 10
60.94634605137925
 20
18.25969567242475
 30
0.0
 11
38.23494523003315
 21
18.25969567242459
 31
0.0
  0
LINE
  5
2EF
330
1F
100
AcDbEntity
  8
0
  6
SLD-Solid
 62
     7
370
    25
100
AcDbLine
 10
38.11084094158778
 20
18.25969567242459
 30
0.0
 11
37.84076993293327
 21
18.25969567242459
 31
0.0
  0
LINE
  5
2F0
330
1F
100
AcDbEntity
  8
0
  6
SLD-Solid
 62
     7
370
    25
100
AcDbLine
 10
37.49976993293333
 20
17.91869567242466
 30
0.0
 11
37.84076993293327
 21
18.25969567242459
 31
0.0
  0
LINE
  5
2F1
330
1F
100
AcDbEntity
  8
0
  6
SLD-Solid
 62
     7
370
    25
100
AcDbLine
 10
60.94634605137926
 20
18.25969567242475
 30
0.0
 11
61.28734605137926
 21
17.91869567242475
 31
0.0
  0
LINE
  5
2F2
330
1F
100
AcDbEntity
  8
0
  6
SLD-Solid
 62
     7
370
    25
100
AcDbLine
 10
37.42730799215639
 20
17.87179567242481
 30
0.0
 11
37.42730799215639
 21
17.88969567242489
 31
0.0
  0
SPLINE
  5
2F3
330
1F
100
AcDbEntity
  8
0
  6
SLD-Solid
 62
     7
370
    25
100
AcDbSpline
210
0.0
220
0.0
230
1.0
 70
    12
 71
     3
 72
    11
 73
     7
 74
     0
 42
0.00000001
 43
0.00000001
 40
0.0
 40
0.0
 40
0.0
 40
0.0
 40
0.2500000000000014
 40
0.4999999999999963
 40
0.7500000000000054
 40
1.0
 40
1.0
 40
1.0
 40
1.0
 10
37.49976993293326
 20
17.91869567242486
 30
0.0
 41
1.0
 10
37.49373143786853
 20
17.91489559815448
 30
0.0
 41
1.0
 10
37.48165444773905
 20
17.90729544961371
 30
0.0
 41
1.0
 10
37.46353896254482
 20
17.89770964643787
 30
0.0
 41
1.0
 10
37.4454234773506
 20
17.8910034192573
 30
0.0
 41
1.0
 10
37.43334648722113
 20
17.89013158803564
 30
0.0
 41
1.0
 10
37.42730799215639
 20
17.88969567242481
 30
0.0
 41
1.0
  0
LINE
  5
2F4
330
1F
100
AcDbEntity
  8
0
  6
SLD-Solid
 62
     7
370
    25
100
AcDbLine
 10
61.33330799215626
 20
53.75223373164783
 30
0.0
 11
61.33330799215634
 21
17.9646576132021
 31
0.0
  0
LINE
  5
2F5
330
1F
100
AcDbEntity
  8
0
  6
SLD-Solid
 62
     7
370
    25
100
AcDbLine
 10
61.33330799215634
 20
17.9646576132021
 30
0.0
 11
60.99230799215639
 21
18.3056576132021
 31
0.0
  0
LINE
  5
2F6
330
1F
100
AcDbEntity
  8
0
  6
SLD-Solid
 62
     7
370
    25
100
AcDbLine
 10
60.99230799215627
 20
53.41123373164783
 30
0.0
 11
60.99230799215633
 21
35.92120676350046
 31
0.0
  0
LINE
  5
2F7
330
1F
100
AcDbEntity
  8
0
  6
SLD-Solid
 62
     7
370
    25
100
AcDbLine
 10
60.99230799215633
 20
35.79318458134922
 30
0.0
 11
60.99230799215639
 21
18.3056576132021
 31
0.0
  0
LINE
  5
2F8
330
1F
100
AcDbEntity
  8
0
  6
SLD-Solid
 62
     7
370
    25
100
AcDbLine
 10
60.99230799215627
 20
53.41123373164783
 30
0.0
 11
61.33330799215626
 21
53.75223373164783
 31
0.0
  0
LINE
  5
2F9
330
1F
100
AcDbEntity
  8
0
  6
SLD-Solid
 62
     7
370
    25
100
AcDbLine
 10
37.8407699329334
 20
53.45719567242495
 30
0.0
 11
60.94634605137914
 21
53.45719567242495
 31
0.0
  0
LINE
  5
2FA
330
1F
100
AcDbEntity
  8
0
  6
SLD-Solid
 62
     7
370
    25
100
AcDbLine
 10
37.8407699329334
 20
53.45719567242495
 30
0.0
 11
37.49976993293339
 21
53.79819567242495
 31
0.0
  0
LINE
  5
2FB
330
1F
100
AcDbEntity
  8
0
  6
SLD-Solid
 62
     7
370
    25
100
AcDbLine
 10
37.49976993293339
 20
53.79819567242495
 30
0.0
 11
61.28734605137914
 21
53.79819567242495
 31
0.0
  0
LINE
  5
2FC
330
1F
100
AcDbEntity
  8
0
  6
SLD-Solid
 62
     7
370
    25
100
AcDbLine
 10
61.28734605137914
 20
53.79819567242495
 30
0.0
 11
60.94634605137914
 21
53.45719567242495
 31
0.0
  0
SPLINE
  5
2FD
330
1F
100
AcDbEntity
  8
0
  6
SLD-Solid
 62
     7
370
    25
100
AcDbSpline
210
0.0
220
0.0
230
1.0
 70
    12
 71
     3
 72
    11
 73
     7
 74
     0
 42
0.00000001
 43
0.00000001
 40
0.0
 40
0.0
 40
0.0
 40
0.0
 40
0.210968946708281
 40
0.4643344536999486
 40
0.7178010815814825
 40
1.0
 40
1.0
 40
1.0
 40
1.0
 10
61.38020799215639
 20
17.91869567242497
 30
0.0
 41
1.0
 10
61.37970434855529
 20
17.92192183088523
 30
0.0
 41
1.0
 10
61.37859584856024
 20
17.92902248029155
 30
0.0
 41
1.0
 10
61.36914389932628
 20
17.94002654892861
 30
0.0
 41
1.0
 10
61.35343728091816
 20
17.95210867778495
 30
0.0
 41
1.0
 10
61.3402534748887
 20
17.960327683055
 30
0.0
 41
1.0
 10
61.33330799215634
 20
17.9646576132021
 30
0.0
 41
1.0
  0
SPLINE
  5
2FE
330
1F
100
AcDbEntity
  8
0
  6
SLD-Solid
 62
     7
370
    25
100
AcDbSpline
210
0.0
220
0.0
230
1.0
 70
    12
 71
     3
 72
    11
 73
     7
 74
     0
 42
0.00000001
 43
0.00000001
 40
0.0
 40
0.0
 40
0.0
 40
0.0
 40
0.2109689467076742
 40
0.464334453698821
 40
0.7178010815798046
 40
1.0
 40
1.0
 40
1.0
 40
1.0
 10
61.33330799215627
 20
53.75223373164783
 30
0.0
 41
1.0
 10
61.33848538642587
 20
53.75545989010809
 30
0.0
 41
1.0
 10
61.34988063002582
 20
53.76256053951438
 30
0.0
 41
1.0
 10
61.36528931241654
 20
53.7735646081514
 30
0.0
 41
1.0
 10
61.37760319489122
 20
53.78564673700772
 30
0.0
 41
1.0
 10
61.37930922346955
 20
53.79386574227782
 30
0.0
 41
1.0
 10
61.38020799215633
 20
53.79819567242495
 30
0.0
 41
1.0
  0
LINE
  5
2FF
330
1F
100
AcDbEntity
  8
0
  6
SLD-Solid
 62
     7
370
    25
100
AcDbLine
 10
61.38020799215639
 20
17.91869567242497
 30
0.0
 11
61.38020799215633
 21
53.79819567242495
 31
0.0
  0
LINE
  5
300
330
1F
100
AcDbEntity
  8
0
  6
SLD-Solid
 62
     7
370
    25
100
AcDbLine
 10
61.36230799215627
 20
53.79819567242495
 30
0.0
 11
61.38020799215633
 21
53.79819567242495
 31
0.0
  0
SPLINE
  5
301
330
1F
100
AcDbEntity
  8
0
  6
SLD-Solid
 62
     7
370
    25
100
AcDbSpline
210
0.0
220
0.0
230
1.0
 70
    12
 71
     3
 72
    11
 73
     7
 74
     0
 42
0.00000001
 43
0.00000001
 40
0.0
 40
0.0
 40
0.0
 40
0.0
 40
0.2865034074513487
 40
0.5922964173352203
 40
0.8982137707276866
 40
1.0
 40
1.0
 40
1.0
 40
1.0
 10
61.33330799215634
 20
53.75223373164783
 30
0.0
 41
1.0
 10
61.33766013369709
 20
53.75662304130552
 30
0.0
 41
1.0
 10
61.34665743626066
 20
53.7656971825451
 30
0.0
 41
1.0
 10
61.3574415894539
 20
53.77946132114538
 30
0.0
 41
1.0
 10
61.36193068102095
 20
53.79042276840657
 30
0.0
 41
1.0
 10
61.36223261267502
 20
53.79664279624963
 30
0.0
 41
1.0
 10
61.36230799215627
 20
53.79819567242495
 30
0.0
 41
1.0
  0
LINE
  5
302
330
1F
100
AcDbEntity
  8
0
  6
SLD-Solid
 62
     7
370
    25
100
AcDbLine
 10
61.3623079921564
 20
17.91869567242497
 30
0.0
 11
61.38020799215639
 21
17.91869567242497
 31
0.0
  0
SPLINE
  5
303
330
1F
100
AcDbEntity
  8
0
  6
SLD-Solid
 62
     7
370
    25
100
AcDbSpline
210
0.0
220
0.0
230
1.0
 70
    12
 71
     3
 72
    11
 73
     7
 74
     0
 42
0.00000001
 43
0.00000001
 40
0.0
 40
0.0
 40
0.0
 40
0.0
 40
0.2865034074520598
 40
0.5922964173367232
 40
0.8982137707299642
 40
1.0
 40
1.0
 40
1.0
 40
1.0
 10
61.3623079921564
 20
17.91869567242497
 30
0.0
 41
1.0
 10
61.36173097108829
 20
17.92308498208268
 30
0.0
 41
1.0
 10
61.36053807947693
 20
17.93215912332226
 30
0.0
 41
1.0
 10
61.35123341338272
 20
17.9459232619226
 30
0.0
 41
1.0
 10
61.34101819249634
 20
17.95688470918384
 30
0.0
 41
1.0
 10
61.33484834134712
 20
17.96310473702682
 30
0.0
 41
1.0
 10
61.33330799215634
 20
17.9646576132021
 30
0.0
 41
1.0
  0
SPLINE
  5
304
330
1F
100
AcDbEntity
  8
0
  6
SLD-Solid
 62
     7
370
    25
100
AcDbSpline
210
0.0
220
0.0
230
1.0
 70
    12
 71
     3
 72
    11
 73
     7
 74
     0
 42
0.00000001
 43
0.00000001
 40
0.0
 40
0.0
 40
0.0
 40
0.0
 40
0.2109689467081752
 40
0.4643344536996396
 40
0.7178010815809654
 40
0.9999999999999999
 40
0.9999999999999999
 40
0.9999999999999999
 40
0.9999999999999999
 10
61.33330799215626
 20
53.84509567242495
 30
0.0
 41
1.0
 10
61.33008183369601
 20
53.84459202882387
 30
0.0
 41
1.0
 10
61.3229811842897
 20
53.84348352882889
 30
0.0
 41
1.0
 10
61.31197711565267
 20
53.83403157959489
 30
0.0
 41
1.0
 10
61.29989498679635
 20
53.81832496118678
 30
0.0
 41
1.0
 10
61.29167598152626
 20
53.80514115515732
 30
0.0
 41
1.0
 10
61.28734605137914
 20
53.79819567242495
 30
0.0
 41
1.0
  0
SPLINE
  5
305
330
1F
100
AcDbEntity
  8
0
  6
SLD-Solid
 62
     7
370
    25
100
AcDbSpline
210
0.0
220
0.0
230
1.0
 70
    12
 71
     3
 72
    11
 73
     7
 74
     0
 42
0.00000001
 43
0.00000001
 40
0.0
 40
0.0
 40
0.0
 40
0.0
 40
0.2109689467081776
 40
0.4643344536995477
 40
0.7178010815808493
 40
1.0
 40
1.0
 40
1.0
 40
1.0
 10
37.49976993293339
 20
53.79819567242495
 30
0.0
 41
1.0
 10
37.49654377447314
 20
53.80337306669457
 30
0.0
 41
1.0
 10
37.48944312506683
 20
53.81476831029453
 30
0.0
 41
1.0
 10
37.4784390564298
 20
53.83017699268523
 30
0.0
 41
1.0
 10
37.46635692757347
 20
53.84249087515985
 30
0.0
 41
1.0
 10
37.45813792230339
 20
53.84419690373819
 30
0.0
 41
1.0
 10
37.45380799215626
 20
53.84509567242495
 30
0.0
 41
1.0
  0
LINE
  5
306
330
1F
100
AcDbEntity
  8
0
  6
SLD-Solid
 62
     7
370
    25
100
AcDbLine
 10
37.45380799215626
 20
53.84509567242495
 30
0.0
 11
61.33330799215626
 21
53.84509567242495
 31
0.0
  0
LINE
  5
307
330
1F
100
AcDbEntity
  8
0
  6
SLD-Solid
 62
     7
370
    25
100
AcDbLine
 10
61.33330799215626
 20
53.82719567242495
 30
0.0
 11
61.33330799215626
 21
53.84509567242495
 31
0.0
  0
SPLINE
  5
308
330
1F
100
AcDbEntity
  8
0
  6
SLD-Solid
 62
     7
370
    25
100
AcDbSpline
210
0.0
220
0.0
230
1.0
 70
    12
 71
     3
 72
    11
 73
     7
 74
     0
 42
0.00000001
 43
0.00000001
 40
0.0
 40
0.0
 40
0.0
 40
0.0
 40
0.2865034074519714
 40
0.5922964173362496
 40
0.8982137707291239
 40
1.0
 40
1.0
 40
1.0
 40
1.0
 10
61.33330799215626
 20
53.82719567242495
 30
0.0
 41
1.0
 10
61.32891868249857
 20
53.82661865135686
 30
0.0
 41
1.0
 10
61.31984454125899
 20
53.82542575974555
 30
0.0
 41
1.0
 10
61.30608040265868
 20
53.81612109365135
 30
0.0
 41
1.0
 10
61.29511895539748
 20
53.80590587276494
 30
0.0
 41
1.0
 10
61.28889892755444
 20
53.79973602161574
 30
0.0
 41
1.0
 10
61.28734605137914
 20
53.79819567242495
 30
0.0
 41
1.0
  0
LINE
  5
309
330
1F
100
AcDbEntity
  8
0
  6
SLD-Solid
 62
     7
370
    25
100
AcDbLine
 10
37.45380799215614
 20
17.96215761320185
 30
0.0
 11
37.45380799215621
 21
53.75223373164783
 31
0.0
  0
LINE
  5
30A
330
1F
100
AcDbEntity
  8
0
  6
SLD-Solid
 62
     7
370
    25
100
AcDbLine
 10
37.79480799215614
 20
18.30315761320185
 30
0.0
 11
37.45380799215614
 21
17.96215761320185
 31
0.0
  0
LINE
  5
30B
330
1F
100
AcDbEntity
  8
0
  6
SLD-Solid
 62
     7
370
    25
100
AcDbLine
 10
37.79480799215614
 20
18.30315761320185
 30
0.0
 11
37.79480799215614
 21
18.57264970025656
 31
0.0
  0
LINE
  5
30C
330
1F
100
AcDbEntity
  8
0
  6
SLD-Solid
 62
     7
370
    25
100
AcDbLine
 10
37.79480799215614
 20
18.70067188240802
 30
0.0
 11
37.79480799215621
 21
35.79318458134921
 31
0.0
  0
LINE
  5
30D
330
1F
100
AcDbEntity
  8
0
  6
SLD-Solid
 62
     7
370
    25
100
AcDbLine
 10
37.79480799215621
 20
35.92120676350046
 30
0.0
 11
37.79480799215627
 21
53.41123373164783
 31
0.0
  0
LINE
  5
30E
330
1F
100
AcDbEntity
  8
0
  6
SLD-Solid
 62
     7
370
    25
100
AcDbLine
 10
37.45380799215621
 20
53.75223373164783
 30
0.0
 11
37.79480799215627
 21
53.41123373164783
 31
0.0
  0
LINE
  5
30F
330
1F
100
AcDbEntity
  8
0
  6
SLD-Solid
 62
     7
370
    25
100
AcDbLine
 10
37.45380799215626
 20
53.82719567242495
 30
0.0
 11
37.45380799215626
 21
53.84509567242495
 31
0.0
  0
SPLINE
  5
310
330
1F
100
AcDbEntity
  8
0
  6
SLD-Solid
 62
     7
370
    25
100
AcDbSpline
210
0.0
220
0.0
230
1.0
 70
    12
 71
     3
 72
    11
 73
     7
 74
     0
 42
0.00000001
 43
0.00000001
 40
0.0
 40
0.0
 40
0.0
 40
0.0
 40
0.2865034074519806
 40
0.592296417336245
 40
0.8982137707291709
 40
1.0
 40
1.0
 40
1.0
 40
1.0
 10
37.49976993293339
 20
53.79819567242495
 30
0.0
 41
1.0
 10
37.49538062327569
 20
53.80254781396574
 30
0.0
 41
1.0
 10
37.48630648203613
 20
53.81154511652932
 30
0.0
 41
1.0
 10
37.4725423434358
 20
53.82232926972257
 30
0.0
 41
1.0
 10
37.46158089617461
 20
53.82681836128953
 30
0.0
 41
1.0
 10
37.45536086833157
 20
53.82712029294368
 30
0.0
 41
1.0
 10
37.45380799215626
 20
53.82719567242495
 30
0.0
 41
1.0
  0
LINE
  5
311
330
1F
100
AcDbEntity
  8
0
  6
SLD-Solid
 62
     7
370
    25
100
AcDbLine
 10
37.40690799215621
 20
17.88969567242497
 30
0.0
 11
37.42480799215614
 21
17.88969567242497
 31
0.0
  0
SPLINE
  5
312
330
1F
100
AcDbEntity
  8
0
  6
SLD-Solid
 62
     7
370
    25
100
AcDbSpline
210
0.0
220
0.0
230
1.0
 70
    12
 71
     3
 72
    11
 73
     7
 74
     0
 42
0.00000001
 43
0.00000001
 40
0.0
 40
0.0
 40
0.0
 40
0.0
 40
0.3014288984304863
 40
0.6028577689366139
 40
0.9049183252112695
 40
1.0
 40
1.0
 40
1.0
 40
1.0
 10
37.45380799215614
 20
17.96215761320185
 30
0.0
 41
1.0
 10
37.44640004211383
 20
17.95487308769365
 30
0.0
 41
1.0
 10
37.43158414271549
 20
17.94030403735212
 30
0.0
 41
1.0
 10
37.41432894869668
 20
17.91845127196889
 30
0.0
 41
1.0
 10
37.40745979237916
 20
17.90153222046301
 30
0.0
 41
1.0
 10
37.40701458204085
 20
17.89198210914166
 30
0.0
 41
1.0
 10
37.40690799215621
 20
17.88969567242497
 30
0.0
 41
1.0
  0
SPLINE
  5
313
330
1F
100
AcDbEntity
  8
0
  6
SLD-Solid
 62
     7
370
    25
100
AcDbSpline
210
0.0
220
0.0
230
1.0
 70
    12
 71
     3
 72
    10
 73
     6
 74
     0
 42
0.00000001
 43
0.00000001
 40
0.0
 40
0.0
 40
0.0
 40
0.0
 40
0.4040975741896625
 40
0.8081952206255311
 40
1.0
 40
1.0
 40
1.0
 40
1.0
 10
37.45380799215621
 20
17.96215761320185
 30
0.0
 41
1.0
 10
37.44770072777234
 20
17.95239353108941
 30
0.0
 41
1.0
 10
37.43548619791272
 20
17.93286536511888
 30
0.0
 41
1.0
 10
37.42589105870406
 20
17.90865346979292
 30
0.0
 41
1.0
 10
37.42507171621364
 20
17.89431184975286
 30
0.0
 41
1.0
 10
37.42480799215614
 20
17.88969567242497
 30
0.0
 41
1.0
  0
SPLINE
  5
314
330
1F
100
AcDbEntity
  8
0
  6
SLD-Solid
 62
     7
370
    25
100
AcDbSpline
210
0.0
220
0.0
230
1.0
 70
    12
 71
     3
 72
    11
 73
     7
 74
     0
 42
0.00000001
 43
0.00000001
 40
0.0
 40
0.0
 40
0.0
 40
0.0
 40
0.2109689467081588
 40
0.4643344536994714
 40
0.7178010815806698
 40
1.0
 40
1.0
 40
1.0
 40
1.0
 10
37.40690799215626
 20
53.79819567242495
 30
0.0
 41
1.0
 10
37.40741163575732
 20
53.79496951396469
 30
0.0
 41
1.0
 10
37.40852013575226
 20
53.78786886455839
 30
0.0
 41
1.0
 10
37.41797208498626
 20
53.77686479592138
 30
0.0
 41
1.0
 10
37.43367870339441
 20
53.76478266706507
 30
0.0
 41
1.0
 10
37.44686250942384
 20
53.75656366179496
 30
0.0
 41
1.0
 10
37.45380799215621
 20
53.75223373164783
 30
0.0
 41
1.0
  0
LINE
  5
315
330
1F
100
AcDbEntity
  8
0
  6
SLD-Solid
 62
     7
370
    25
100
AcDbLine
 10
37.40690799215626
 20
53.79819567242495
 30
0.0
 11
37.40690799215621
 21
17.88969567242497
 31
0.0
  0
LINE
  5
316
330
1F
100
AcDbEntity
  8
0
  6
SLD-Solid
 62
     7
370
    25
100
AcDbLine
 10
37.42480799215627
 20
53.79819567242495
 30
0.0
 11
37.40690799215626
 21
53.79819567242495
 31
0.0
  0
SPLINE
  5
317
330
1F
100
AcDbEntity
  8
0
  6
SLD-Solid
 62
     7
370
    25
100
AcDbSpline
210
0.0
220
0.0
230
1.0
 70
    12
 71
     3
 72
    11
 73
     7
 74
     0
 42
0.00000001
 43
0.00000001
 40
0.0
 40
0.0
 40
0.0
 40
0.0
 40
0.2865034074519017
 40
0.5922964173359536
 40
0.8982137707282897
 40
1.0
 40
1.0
 40
1.0
 40
1.0
 10
37.42480799215627
 20
53.79819567242495
 30
0.0
 41
1.0
 10
37.42538501322433
 20
53.79380636276726
 30
0.0
 41
1.0
 10
37.42657790483557
 20
53.78473222152769
 30
0.0
 41
1.0
 10
37.43588257092983
 20
53.77096808292738
 30
0.0
 41
1.0
 10
37.44609779181626
 20
53.76000663566624
 30
0.0
 41
1.0
 10
37.45226764296542
 20
53.75378660782314
 30
0.0
 41
1.0
 10
37.45380799215621
 20
53.75223373164783
 30
0.0
 41
1.0
  0
ARC
  5
318
330
1F
100
AcDbEntity
  8
0
  6
SLD-Solid
 62
     7
370
    25
100
AcDbCircle
 10
61.33330799215639
 20
17.91869567242497
 30
0.0
 40
0.0290000000000035
100
AcDbArc
 50
270.0000000000008
 51
0.0
  0
ARC
  5
319
330
1F
100
AcDbEntity
  8
0
  6
SLD-Solid
 62
     7
370
    25
100
AcDbCircle
 10
61.33330799215639
 20
17.91869567242497
 30
0.0
 40
0.0469000000000008
100
AcDbArc
 50
270.0000000000008
 51
0.0
  0
ARC
  5
31A
330
1F
100
AcDbEntity
  8
0
  6
SLD-Solid
 62
     7
370
    25
100
AcDbCircle
 10
61.33330799215626
 20
53.79819567242495
 30
0.0
 40
0.0290000000000035
100
AcDbArc
 50
0.0
 51
90.0
  0
ARC
  5
31B
330
1F
100
AcDbEntity
  8
0
  6
SLD-Solid
 62
     7
370
    25
100
AcDbCircle
 10
61.33330799215626
 20
53.79819567242495
 30
0.0
 40
0.0469000000000648
100
AcDbArc
 50
0.0000000000000339
 51
90.0
  0
ARC
  5
31C
330
1F
100
AcDbEntity
  8
0
  6
SLD-Solid
 62
     7
370
    25
100
AcDbCircle
 10
37.45380799215626
 20
53.79819567242495
 30
0.0
 40
0.0289999999999964
100
AcDbArc
 50
90.0
 51
180.0
  0
ARC
  5
31D
330
1F
100
AcDbEntity
  8
0
  6
SLD-Solid
 62
     7
370
    25
100
AcDbCircle
 10
37.45380799215626
 20
53.79819567242495
 30
0.0
 40
0.0469000000000008
100
AcDbArc
 50
90.0
 51
180.0
  0
SPLINE
  5
31E
330
1F
100
AcDbEntity
  8
0
  6
SLD-Solid
 62
     7
370
    25
100
AcDbSpline
210
0.0
220
0.0
230
1.0
 70
    12
 71
     3
 72
    11
 73
     7
 74
     0
 42
0.00000001
 43
0.00000001
 40
0.0
 40
0.0
 40
0.0
 40
0.0
 40
0.2499999999991117
 40
0.4999999999995129
 40
0.7499999999998636
 40
1.0
 40
1.0
 40
1.0
 40
1.0
 10
37.45380799215621
 20
53.79678145886258
 30
0.0
 41
1.0
 10
37.45000791788584
 20
53.79689930999278
 30
0.0
 41
1.0
 10
37.44240776934509
 20
53.79713501225316
 30
0.0
 41
1.0
 10
37.43282196616928
 20
53.79748856564377
 30
0.0
 41
1.0
 10
37.42611573898869
 20
53.79784211903436
 30
0.0
 41
1.0
 10
37.42524390776708
 20
53.79807782129475
 30
0.0
 41
1.0
 10
37.42480799215627
 20
53.79819567242495
 30
0.0
 41
1.0
  0
SPLINE
  5
31F
330
1F
100
AcDbEntity
  8
0
  6
SLD-Solid
 62
     7
370
    25
100
AcDbSpline
210
0.0
220
0.0
230
1.0
 70
    12
 71
     3
 72
    11
 73
     7
 74
     0
 42
0.00000001
 43
0.00000001
 40
0.0
 40
0.0
 40
0.0
 40
0.0
 40
0.2583261309114861
 40
0.5168721566340484
 40
0.7754198087628587
 40
1.0
 40
1.0
 40
1.0
 40
1.0
 10
37.42480799215614
 20
17.88969567242497
 30
0.0
 41
1.0
 10
37.42527416692863
 20
17.89231532964903
 30
0.0
 41
1.0
 10
37.42620691329531
 20
17.89755687402655
 30
0.0
 41
1.0
 10
37.43335753689958
 20
17.90541936306715
 30
0.0
 41
1.0
 10
37.4430624328639
 20
17.91294373458026
 30
0.0
 41
1.0
 10
37.45039805522908
 20
17.91783581875224
 30
0.0
 41
1.0
 10
37.45380799215621
 20
17.92010988598718
 30
0.0
 41
1.0
  0
SPLINE
  5
320
330
1F
100
AcDbEntity
  8
0
  6
SLD-Solid
 62
     7
370
    25
100
AcDbSpline
210
0.0
220
0.0
230
1.0
 70
    12
 71
     3
 72
    11
 73
     7
 74
     0
 42
0.00000001
 43
0.00000001
 40
0.0
 40
0.0
 40
0.0
 40
0.0
 40
0.2499999999999767
 40
0.5000000000000331
 40
0.7500000000000084
 40
1.0
 40
1.0
 40
1.0
 40
1.0
 10
37.42730799215639
 20
17.88969567242481
 30
0.0
 41
1.0
 10
37.42984250995325
 20
17.89013158803564
 30
0.0
 41
1.0
 10
37.43491154554695
 20
17.89100341925731
 30
0.0
 41
1.0
 10
37.4425150989375
 20
17.89770964643787
 30
0.0
 41
1.0
 10
37.45011865232805
 20
17.9072954496137
 30
0.0
 41
1.0
 10
37.45518768792175
 20
17.91489559815447
 30
0.0
 41
1.0
 10
37.4577222057186
 20
17.91869567242486
 30
0.0
 41
1.0
  0
SPLINE
  5
321
330
1F
100
AcDbEntity
  8
0
  6
SLD-Solid
 62
     7
370
    25
100
AcDbSpline
210
0.0
220
0.0
230
1.0
 70
    12
 71
     3
 72
    11
 73
     7
 74
     0
 42
0.00000001
 43
0.00000001
 40
0.0
 40
0.0
 40
0.0
 40
0.0
 40
0.2499999999999387
 40
0.5000000000000093
 40
0.7500000000000023
 40
1.0
 40
1.0
 40
1.0
 40
1.0
 10
61.33189377859402
 20
17.91869567242492
 30
0.0
 41
1.0
 10
61.33201162972421
 20
17.91489559815454
 30
0.0
 41
1.0
 10
61.33224733198461
 20
17.9072954496138
 30
0.0
 41
1.0
 10
61.33260088537521
 20
17.897709646438
 30
0.0
 41
1.0
 10
61.3329544387658
 20
17.89100341925747
 30
0.0
 41
1.0
 10
61.3331901410262
 20
17.8901315880358
 30
0.0
 41
1.0
 10
61.33330799215639
 20
17.88969567242497
 30
0.0
 41
1.0
  0
SPLINE
  5
322
330
1F
100
AcDbEntity
  8
0
  6
SLD-Solid
 62
     7
370
    25
100
AcDbSpline
210
0.0
220
0.0
230
1.0
 70
    12
 71
     3
 72
    11
 73
     7
 74
     0
 42
0.00000001
 43
0.00000001
 40
0.0
 40
0.0
 40
0.0
 40
0.0
 40
0.2500000000009287
 40
0.5000000000005363
 40
0.750000000000127
 40
1.0
 40
1.0
 40
1.0
 40
1.0
 10
61.33330799215634
 20
17.92010988598734
 30
0.0
 41
1.0
 10
61.33710806642672
 20
17.91999203485715
 30
0.0
 41
1.0
 10
61.3447082149675
 20
17.91975633259675
 30
0.0
 41
1.0
 10
61.35429401814331
 20
17.91940277920616
 30
0.0
 41
1.0
 10
61.36100024532382
 20
17.91904922581557
 30
0.0
 41
1.0
 10
61.36187207654553
 20
17.91881352355518
 30
0.0
 41
1.0
 10
61.3623079921564
 20
17.91869567242497
 30
0.0
 41
1.0
  0
SPLINE
  5
323
330
1F
100
AcDbEntity
  8
0
  6
SLD-Solid
 62
     7
370
    25
100
AcDbSpline
210
0.0
220
0.0
230
1.0
 70
    12
 71
     3
 72
    11
 73
     7
 74
     0
 42
0.00000001
 43
0.00000001
 40
0.0
 40
0.0
 40
0.0
 40
0.0
 40
0.2500000000001328
 40
0.5000000000005398
 40
0.7500000000009407
 40
1.0
 40
1.0
 40
1.0
 40
1.0
 10
61.36230799215627
 20
53.79819567242495
 30
0.0
 41
1.0
 10
61.36187207654545
 20
53.79807782129475
 30
0.0
 41
1.0
 10
61.36100024532384
 20
53.79784211903436
 30
0.0
 41
1.0
 10
61.35429401814326
 20
53.79748856564377
 30
0.0
 41
1.0
 10
61.34470821496745
 20
53.79713501225316
 30
0.0
 41
1.0
 10
61.33710806642669
 20
53.79689930999277
 30
0.0
 41
1.0
 10
61.33330799215634
 20
53.79678145886258
 30
0.0
 41
1.0
  0
SPLINE
  5
324
330
1F
100
AcDbEntity
  8
0
  6
SLD-Solid
 62
     7
370
    25
100
AcDbSpline
210
0.0
220
0.0
230
1.0
 70
    12
 71
     3
 72
    11
 73
     7
 74
     0
 42
0.00000001
 43
0.00000001
 40
0.0
 40
0.0
 40
0.0
 40
0.0
 40
0.2500000000000182
 40
0.5000000000000028
 40
0.7499999999999889
 40
1.0
 40
1.0
 40
1.0
 40
1.0
 10
61.33189377859389
 20
53.79819567242495
 30
0.0
 41
1.0
 10
61.33201162972409
 20
53.80199574669533
 30
0.0
 41
1.0
 10
61.33224733198448
 20
53.80959589523609
 30
0.0
 41
1.0
 10
61.33260088537508
 20
53.8191816984119
 30
0.0
 41
1.0
 10
61.33295443876568
 20
53.82588792559245
 30
0.0
 41
1.0
 10
61.33319014102607
 20
53.82675975681411
 30
0.0
 41
1.0
 10
61.33330799215626
 20
53.82719567242495
 30
0.0
 41
1.0
  0
SPLINE
  5
325
330
1F
100
AcDbEntity
  8
0
  6
SLD-Solid
 62
     7
370
    25
100
AcDbSpline
210
0.0
220
0.0
230
1.0
 70
    12
 71
     3
 72
    11
 73
     7
 74
     0
 42
0.00000001
 43
0.00000001
 40
0.0
 40
0.0
 40
0.0
 40
0.0
 40
0.250000000000008
 40
0.4999999999999944
 40
0.7499999999999798
 40
1.0
 40
1.0
 40
1.0
 40
1.0
 10
37.45380799215626
 20
53.82719567242495
 30
0.0
 41
1.0
 10
37.45392584328647
 20
53.82675975681411
 30
0.0
 41
1.0
 10
37.45416154554687
 20
53.82588792559245
 30
0.0
 41
1.0
 10
37.45451509893745
 20
53.8191816984119
 30
0.0
 41
1.0
 10
37.45486865232805
 20
53.80959589523609
 30
0.0
 41
1.0
 10
37.45510435458844
 20
53.80199574669533
 30
0.0
 41
1.0
 10
37.45522220571864
 20
53.79819567242495
 30
0.0
 41
1.0
  0
LINE
  5
326
330
1F
100
AcDbEntity
  8
0
  6
SLD-Solid
 62
     7
370
    25
100
AcDbLine
 10
61.33105799215632
 20
17.91953145886289
 30
0.0
 11
61.33189377859406
 21
17.91869567242515
 31
0.0
  0
LINE
  5
327
330
1F
100
AcDbEntity
  8
0
  6
SLD-Solid
 62
     7
370
    25
100
AcDbLine
 10
37.45522220571864
 20
53.79819567242495
 30
0.0
 11
37.4887222057187
 21
53.76469567242489
 31
0.0
  0
LINE
  5
328
330
1F
100
AcDbEntity
  8
0
  6
SLD-Solid
 62
     7
370
    25
100
AcDbLine
 10
61.32101823292242
 20
53.78732012675348
 30
0.0
 11
61.33189377859389
 21
53.79819567242495
 31
0.0
  0
LINE
  5
329
330
1F
100
AcDbEntity
  8
0
  6
SLD-Solid
 62
     7
370
    25
100
AcDbLine
 10
61.33330799215634
 20
53.79678145886258
 30
0.0
 11
61.32246769239867
 21
53.78594115910497
 31
0.0
  0
LINE
  5
32A
330
1F
100
AcDbEntity
  8
0
  6
SLD-Solid
 62
     7
370
    25
100
AcDbLine
 10
61.33105799215632
 20
17.92235988598735
 30
0.0
 11
61.33330799215634
 21
17.92010988598734
 31
0.0
  0
LINE
  5
32B
330
1F
100
AcDbEntity
  8
0
  6
SLD-Solid
 62
     7
370
    25
100
AcDbLine
 10
37.45380799215621
 20
17.92010988598718
 30
0.0
 11
37.45605799215632
 21
17.92235988598731
 31
0.0
  0
LINE
  5
32C
330
1F
100
AcDbEntity
  8
0
  6
SLD-Solid
 62
     7
370
    25
100
AcDbLine
 10
37.4858937785939
 20
53.76469567242489
 30
0.0
 11
37.45380799215621
 21
53.79678145886258
 31
0.0
  0
LINE
  5
32D
330
1F
100
AcDbEntity
  8
0
  6
SLD-Solid
 62
     8
370
    25
100
AcDbLine
 10
37.45380799215621
 20
17.92010988598718
 30
0.0
 11
37.45380799215614
 21
17.96215761320185
 31
0.0
  0
LINE
  5
32E
330
1F
100
AcDbEntity
  8
0
  6
SLD-Solid
 62
     8
370
    25
100
AcDbLine
 10
37.45380799215626
 20
53.75223373164783
 30
0.0
 11
37.45380799215621
 21
53.79678145886258
 31
0.0
  0
LINE
  5
32F
330
1F
100
AcDbEntity
  8
0
  6
SLD-Solid
 62
     8
370
    25
100
AcDbLine
 10
61.33189377859402
 20
17.91869567242519
 30
0.0
 11
61.33105799215632
 21
17.91869567242519
 31
0.0
  0
LINE
  5
330
330
1F
100
AcDbEntity
  8
0
  6
SLD-Solid
 62
     8
370
    25
100
AcDbLine
 10
61.33330799215634
 20
53.79678145886258
 30
0.0
 11
61.33330799215626
 21
53.7735267916875
 31
0.0
  0
LINE
  5
331
330
1F
100
AcDbEntity
  8
0
  6
SLD-Solid
 62
     8
370
    25
100
AcDbLine
 10
61.33330799215639
 20
17.9646576132021
 30
0.0
 11
61.33330799215634
 21
17.92010988598734
 31
0.0
  0
LINE
  5
332
330
1F
100
AcDbEntity
  8
0
  6
SLD-Solid
 62
     8
370
    25
100
AcDbLine
 10
37.45522220571864
 20
53.79819567242495
 30
0.0
 11
37.49976993293339
 21
53.79819567242495
 31
0.0
  0
LINE
  5
333
330
1F
100
AcDbEntity
  8
0
  6
SLD-Solid
 62
     8
370
    25
100
AcDbLine
 10
61.30705967388855
 20
53.79819567242495
 30
0.0
 11
61.33189377859389
 21
53.79819567242495
 31
0.0
  0
DIMENSION
  5
334
330
1F
100
AcDbEntity
  8
DIMS
100
AcDbDimension
  2
_D_4
 10
38.74031943204483
 20
49.34258125095371
 30
0.0
 11
46.00775500221282
 21
54.56481341967301
 31
0.0
 70
    35
  1
<> mounting hole (4)
 71
     1
 42
-1.0
  3
SLDDIMSTYLE3
100
AcDbDiametricDimension
 15
38.84031943204482
 25
49.51578633171061
 35
0.0
 40
0.0
  0
DIMENSION
  5
342
330
1F
100
AcDbEntity
  8
DIMS
100
AcDbDimension
  2
_D_5
 10
60.0403194320448
 20
55.65611929447218
 30
0.0
 11
49.41531943204481
 21
55.65611929447218
 31
0.0
 70
    32
  1
<>
 71
     2
 42
-1.0
  3
SLDDIMSTYLE1
100
AcDbAlignedDimension
 13
38.79031943204483
 23
49.42918379133216
 33
0.0
 14
60.0403194320448
 24
49.42918379133218
 34
0.0
100
AcDbRotatedDimension
  0
DIMENSION
  5
351
330
1F
100
AcDbEntity
  8
DIMS
100
AcDbDimension
  2
_D_6
 10
62.95501212601467
 20
22.28018379133219
 30
0.0
 11
62.95501212601467
 21
35.90522958811449
 31
0.0
 70
    32
  1
<>
 71
     2
 42
-1.0
  3
SLDDIMSTYLE1
100
AcDbAlignedDimension
 13
60.0403194320448
 23
49.42918379133218
 33
0.0
 14
60.04031943204481
 24
22.28018379133219
 34
0.0
 50
90.0000000000002
100
AcDbRotatedDimension
  0
DIMENSION
  5
360
330
1F
100
AcDbEntity
  8
DIMS
100
AcDbDimension
  2
_D_7
 10
62.95501212601467
 20
17.87179567242498
 30
0.0
 11
62.95501212601465
 21
20.05046394440183
 31
0.0
 70
    32
  1
<>
 71
     2
 42
-1.0
  3
SLDDIMSTYLE1
100
AcDbAlignedDimension
 13
60.04031943204481
 23
22.28018379133219
 33
0.0
 14
61.33330799215639
 24
17.87179567242497
 34
0.0
 50
90.0000000000002
100
AcDbRotatedDimension
  0
DIMENSION
  5
36F
330
1F
100
AcDbEntity
  8
DIMS
100
AcDbDimension
  2
_D_8
 10
62.95501212601467
 20
49.42918379133218
 30
0.0
 11
62.95501212601467
 21
51.49440450834238
 31
0.0
 70
    32
  1
<>
 71
     2
 42
-1.0
  3
SLDDIMSTYLE1
100
AcDbAlignedDimension
 13
61.33330799215626
 23
53.84509567242495
 33
0.0
 14
60.0403194320448
 24
49.42918379133218
 34
0.0
 50
90.0000000000002
100
AcDbRotatedDimension
  0
MTEXT
  5
37E
330
1F
100
AcDbEntity
  8
NOTES
100
AcDbMText
 10
48.10726448230632
 20
17.20564480080743
 30
0.0
 40
0.5
 41
0.0
 71
     1
 72
     1
  1
Back view
  7
SLDTEXTSTYLE0
 73
     1
 44
1.0
  0
LINE
  5
37F
330
1F
100
AcDbEntity
  8
0
  6
SLD-Solid
 62
     7
370
    25
100
AcDbLine
 10
85.24788630320235
 20
16.65582950179656
 30
0.0
 11
85.24788630320235
 21
45.92827127382391
 31
0.0
  0
SPLINE
  5
380
330
1F
100
AcDbEntity
  8
0
  6
SLD-Solid
 62
     7
370
    25
100
AcDbSpline
210
0.0
220
0.0
230
1.0
 70
    12
 71
     3
 72
    11
 73
     7
 74
     0
 42
0.00000001
 43
0.00000001
 40
0.0
 40
0.0
 40
0.0
 40
0.0
 40
0.0057774466714231
 40
0.3606120257788854
 40
0.77289489013865
 40
1.0
 40
1.0
 40
1.0
 40
1.0
 10
85.24207657250452
 20
45.92826540774106
 30
0.0
 41
1.0
 10
85.24207115648187
 20
45.92826586329907
 30
0.0
 41
1.0
 10
85.24173310353049
 20
45.92829429795258
 30
0.0
 41
1.0
 10
85.24154400778392
 20
45.92830717669877
 30
0.0
 41
1.0
 10
85.23832261016713
 20
45.928591079031
 30
0.0
 41
1.0
 10
85.23501575789197
 20
45.92960706917771
 30
0.0
 41
1.0
 10
85.23384119240198
 20
45.92996794014056
 30
0.0
 41
1.0
  0
SPLINE
  5
381
330
1F
100
AcDbEntity
  8
0
  6
SLD-Solid
 62
     7
370
    25
100
AcDbSpline
210
0.0
220
0.0
230
1.0
 70
    12
 71
     3
 72
    11
 73
     7
 74
     0
 42
0.00000001
 43
0.00000001
 40
0.0
 40
0.0
 40
0.0
 40
0.0
 40
0.1600367486138998
 40
0.5656294404077954
 40
0.977787204717261
 40
1.0
 40
1.0
 40
1.0
 40
1.0
 10
85.20258561983906
 20
45.98396096873674
 30
0.0
 41
1.0
 10
85.20278825291633
 20
45.98483942206722
 30
0.0
 41
1.0
 10
85.20350443363793
 20
45.98794420312564
 30
0.0
 41
1.0
 10
85.20478099493432
 20
45.99103854643391
 30
0.0
 41
1.0
 10
85.20553685773747
 20
45.99236887869075
 30
0.0
 41
1.0
 10
85.20528481146127
 20
45.99200382615442
 30
0.0
 41
1.0
 10
85.20527192234572
 20
45.9919851581368
 30
0.0
 41
1.0
  0
LINE
  5
382
330
1F
100
AcDbEntity
  8
0
  6
SLD-Solid
 62
     7
370
    25
100
AcDbLine
 10
85.20817651314282
 20
45.99702830334773
 30
0.0
 11
68.35531678108745
 21
55.72597714016457
 31
0.0
  0
LINE
  5
383
330
1F
100
AcDbEntity
  8
0
  6
SLD-Solid
 62
     7
370
    25
100
AcDbLine
 10
67.98447299582114
 20
55.53063585750706
 30
0.0
 11
67.98447299582114
 21
26.23355979745232
 31
0.0
  0
LINE
  5
384
330
1F
100
AcDbEntity
  8
0
  6
SLD-Solid
 62
     7
370
    25
100
AcDbLine
 10
68.29218182757786
 20
55.73535157962905
 30
0.0
 11
68.00792490154086
 21
55.57125354915269
 31
0.0
  0
LINE
  5
385
330
1F
100
AcDbEntity
  8
0
  6
SLD-Solid
 62
     7
370
    25
100
AcDbLine
 10
68.0078546084454
 20
26.19298268514689
 30
0.0
 11
84.90126766253611
 21
16.44062291383465
 31
0.0
  0
LINE
  5
386
330
1F
100
AcDbEntity
  8
0
  6
SLD-Solid
 62
     7
370
    25
100
AcDbLine
 10
84.87353314635554
 20
45.75683380518576
 30
0.0
 11
84.87153520334121
 21
45.75798719313737
 31
0.0
  0
LINE
  5
387
330
1F
100
AcDbEntity
  8
0
  6
SLD-Solid
 62
     7
370
    25
100
AcDbLine
 10
68.01245788942448
 20
26.22379540062227
 30
0.0
 11
68.01245788942448
 21
26.22148824977284
 31
0.0
  0
SPLINE
  5
388
330
1F
100
AcDbEntity
  8
0
  6
SLD-Solid
 62
     7
370
    25
100
AcDbSpline
210
0.0
220
0.0
230
1.0
 70
    12
 71
     3
 72
    12
 73
     8
 74
     0
 42
0.00000001
 43
0.00000001
 40
0.0
 40
0.0
 40
0.0
 40
0.0
 40
0.2307364642359599
 40
0.4631445665231743
 40
0.6955549229184176
 40
0.9279651631540917
 40
1.0
 40
1.0
 40
1.0
 40
1.0
 10
84.94989268520305
 20
16.44302659055011
 30
0.0
 41
1.0
 10
84.94546204526647
 20
16.44286889387267
 30
0.0
 41
1.0
 10
84.93656866632163
 20
16.44255235803791
 30
0.0
 41
1.0
 10
84.91943194805408
 20
16.44606793719736
 30
0.0
 41
1.0
 10
84.9022606043303
 20
16.45306557127573
 30
0.0
 41
1.0
 10
84.8902997284456
 20
16.46113294463721
 30
0.0
 41
1.0
 10
84.8848544726584
 20
16.46657369878789
 30
0.0
 41
1.0
 10
84.8835660691277
 20
16.46786103718508
 30
0.0
 41
1.0
  0
LINE
  5
389
330
1F
100
AcDbEntity
  8
0
  6
SLD-Solid
 62
     7
370
    25
100
AcDbLine
 10
84.94989268520305
 20
16.44302659055011
 30
0.0
 11
84.949892685203
 21
45.76378233414957
 31
0.0
  0
LINE
  5
38A
330
1F
100
AcDbEntity
  8
0
  6
SLD-Solid
 62
     7
370
    25
100
AcDbLine
 10
84.88356606912767
 20
45.76262757105918
 30
0.0
 11
84.89622328051094
 21
45.76993442365998
 31
0.0
  0
ARC
  5
38B
330
1F
100
AcDbEntity
  8
0
  6
SLD-Solid
 62
     7
370
    25
100
AcDbCircle
 10
85.16214797608572
 20
45.92460389065487
 30
0.0
 40
0.0720761454752371
100
AcDbArc
 50
2.605478485694871
 51
57.394521659928
  0
LINE
  5
38C
330
1F
100
AcDbEntity
  8
0
  6
SLD-Solid
 62
     7
370
    25
100
AcDbLine
 10
85.23414961123996
 20
45.92788036462595
 30
0.0
 11
84.949892685203
 21
45.76378233414957
 31
0.0
  0
ARC
  5
38D
330
1F
100
AcDbEntity
  8
0
  6
SLD-Solid
 62
     7
370
    25
100
AcDbCircle
 10
84.877891050049
 20
45.76050586017863
 30
0.0
 40
0.0720761454749859
100
AcDbArc
 50
2.605478485596394
 51
57.39452166006659
  0
LINE
  5
38E
330
1F
100
AcDbEntity
  8
0
  6
SLD-Solid
 62
     7
370
    25
100
AcDbLine
 10
68.03137299582117
 20
55.56893162158448
 30
0.0
 11
84.91672937716531
 21
45.82122286844927
 31
0.0
  0
LINE
  5
38F
330
1F
100
AcDbEntity
  8
0
  6
SLD-Solid
 62
     7
370
    25
100
AcDbLine
 10
84.88256606912765
 20
45.76435962186167
 30
0.0
 11
84.8952232805109
 21
45.77166647446249
 31
0.0
  0
LINE
  5
390
330
1F
100
AcDbEntity
  8
0
  6
SLD-Solid
 62
     7
370
    25
100
AcDbLine
 10
85.23414961123999
 20
16.60712462102649
 30
0.0
 11
84.94989268520305
 21
16.44302659055011
 31
0.0
  0
LINE
  5
391
330
1F
100
AcDbEntity
  8
0
  6
SLD-Solid
 62
     7
370
    25
100
AcDbLine
 10
84.8835660691277
 20
16.46786103718508
 30
0.0
 11
84.5703177650621
 21
17.01042301361918
 31
0.0
  0
LINE
  5
392
330
1F
100
AcDbEntity
  8
0
  6
SLD-Solid
 62
     7
370
    25
100
AcDbLine
 10
84.57031776506201
 20
45.58173438816254
 30
0.0
 11
84.5703177650621
 21
17.01042301361918
 31
0.0
  0
LINE
  5
393
330
1F
100
AcDbEntity
  8
0
  6
SLD-Solid
 62
     7
370
    25
100
AcDbLine
 10
84.57031776506201
 20
45.58173438816254
 30
0.0
 11
84.88356606912767
 21
45.76262757105918
 31
0.0
  0
LINE
  5
394
330
1F
100
AcDbEntity
  8
0
  6
SLD-Solid
 62
     7
370
    25
100
AcDbLine
 10
84.56931776506202
 20
45.58346643896502
 30
0.0
 11
84.58197497644525
 21
45.59077329156583
 31
0.0
  0
LINE
  5
395
330
1F
100
AcDbEntity
  8
0
  6
SLD-Solid
 62
     7
370
    25
100
AcDbLine
 10
84.88256606912765
 20
45.76435962186167
 30
0.0
 11
84.56931776506202
 21
45.58346643896502
 31
0.0
  0
LINE
  5
396
330
1F
100
AcDbEntity
  8
0
  6
SLD-Solid
 62
     7
370
    25
100
AcDbLine
 10
84.87153520334121
 20
45.75798719313737
 30
0.0
 11
84.58197497644525
 21
45.59077329156583
 31
0.0
  0
LINE
  5
397
330
1F
100
AcDbEntity
  8
0
  6
SLD-Solid
 62
     7
370
    25
100
AcDbLine
 10
68.31245799184917
 20
54.96835182313858
 30
0.0
 11
84.56931776506202
 21
45.58346643896502
 31
0.0
  0
LINE
  5
398
330
1F
100
AcDbEntity
  8
0
  6
SLD-Solid
 62
     7
370
    25
100
AcDbLine
 10
68.31245799184917
 20
54.96835182313858
 30
0.0
 11
67.99920968778353
 21
55.51091379957271
 31
0.0
  0
SPLINE
  5
399
330
1F
100
AcDbEntity
  8
0
  6
SLD-Solid
 62
     7
370
    25
100
AcDbSpline
210
0.0
220
0.0
230
1.0
 70
    12
 71
     3
 72
    10
 73
     6
 74
     0
 42
0.00000001
 43
0.00000001
 40
0.0
 40
0.0
 40
0.0
 40
0.0
 40
0.4219172713090674
 40
0.9286235189422358
 40
1.0
 40
1.0
 40
1.0
 40
1.0
 10
85.23414961123996
 20
45.92788036462595
 30
0.0
 41
1.0
 10
85.23734800001282
 20
45.92755569878388
 30
0.0
 41
1.0
 10
85.24438752941624
 20
45.92684112188158
 30
0.0
 41
1.0
 10
85.24873530353028
 20
45.92777604040623
 30
0.0
 41
1.0
 10
85.24758266138657
 20
45.928183958554
 30
0.0
 41
1.0
 10
85.2474403434517
 20
45.92823432463571
 30
0.0
 41
1.0
  0
LINE
  5
39A
330
1F
100
AcDbEntity
  8
0
  6
SLD-Solid
 62
     7
370
    25
100
AcDbLine
 10
85.2451761424994
 20
45.92916864029981
 30
0.0
 11
85.23816154344229
 21
45.92883240892233
 31
0.0
  0
SPLINE
  5
39B
330
1F
100
AcDbEntity
  8
0
  6
SLD-Solid
 62
     7
370
    25
100
AcDbSpline
210
0.0
220
0.0
230
1.0
 70
    12
 71
     3
 72
    10
 73
     6
 74
     0
 42
0.00000001
 43
0.00000001
 40
0.0
 40
0.0
 40
0.0
 40
0.0
 40
0.2053904215328979
 40
0.8097588128023571
 40
1.0
 40
1.0
 40
1.0
 40
1.0
 10
85.24671185601373
 20
16.65577863132215
 30
0.0
 41
1.0
 10
85.24703252239995
 20
16.65231233767432
 30
0.0
 41
1.0
 10
85.24829676067489
 20
16.63864635555042
 30
0.0
 41
1.0
 10
85.24215647668997
 20
16.62192377191106
 30
0.0
 41
1.0
 10
85.23569627764066
 20
16.60998333640952
 30
0.0
 41
1.0
 10
85.23414961123999
 20
16.60712462102649
 30
0.0
 41
1.0
  0
SPLINE
  5
39C
330
1F
100
AcDbEntity
  8
0
  6
SLD-Solid
 62
     7
370
    25
100
AcDbSpline
210
0.0
220
0.0
230
1.0
 70
    12
 71
     3
 72
    11
 73
     7
 74
     0
 42
0.00000001
 43
0.00000001
 40
0.0
 40
0.0
 40
0.0
 40
0.0
 40
0.2109689467081776
 40
0.4643344536995477
 40
0.7178010815808493
 40
1.0
 40
1.0
 40
1.0
 40
1.0
 10
85.20164961123996
 20
45.98493175571321
 30
0.0
 41
1.0
 10
85.20357471995877
 20
45.9876367891044
 30
0.0
 41
1.0
 10
85.2078118094414
 20
45.99359046248397
 30
0.0
 41
1.0
 10
85.20890932359649
 20
45.99782205105061
 30
0.0
 41
1.0
 10
85.20634642245608
 20
45.99653335930186
 30
0.0
 41
1.0
 10
85.20283577817189
 20
45.98918968688193
 30
0.0
 41
1.0
 10
85.20098630320231
 20
45.98532089892564
 30
0.0
 41
1.0
  0
SPLINE
  5
39D
330
1F
100
AcDbEntity
  8
0
  6
SLD-Solid
 62
     7
370
    25
100
AcDbSpline
210
0.0
220
0.0
230
1.0
 70
    12
 71
     3
 72
    10
 73
     6
 74
     0
 42
0.00000001
 43
0.00000001
 40
0.0
 40
0.0
 40
0.0
 40
0.0
 40
0.4219607731911513
 40
0.9287192648945348
 40
1.0
 40
1.0
 40
1.0
 40
1.0
 10
68.31562992185816
 20
55.73302965206084
 30
0.0
 41
1.0
 10
68.32151073974103
 20
55.73332739239409
 30
0.0
 41
1.0
 10
68.33445419137955
 20
55.73398270729773
 30
0.0
 41
1.0
 10
68.34827826940788
 20
55.73102134289717
 30
0.0
 41
1.0
 10
68.35431739265294
 20
55.72620391059321
 30
0.0
 41
1.0
 10
68.35506210533735
 20
55.72560985036336
 30
0.0
 41
1.0
  0
LINE
  5
39E
330
1F
100
AcDbEntity
  8
0
  6
SLD-Solid
 62
     7
370
    25
100
AcDbLine
 10
68.31145799184917
 20
54.96777434776027
 30
0.0
 11
68.3124581543905
 21
54.96835172930547
 31
0.0
  0
LINE
  5
39F
330
1F
100
AcDbEntity
  8
0
  6
SLD-Solid
 62
     7
370
    25
100
AcDbLine
 10
67.99820968778349
 20
55.51033632419442
 30
0.0
 11
68.31145799184917
 21
54.96777434776027
 31
0.0
  0
LINE
  5
3A0
330
1F
100
AcDbEntity
  8
0
  6
SLD-Solid
 62
     7
370
    25
100
AcDbLine
 10
67.99820968778349
 20
55.51033632419442
 30
0.0
 11
67.99920976904757
 21
55.51091365881926
 31
0.0
  0
LINE
  5
3A1
330
1F
100
AcDbEntity
  8
0
  6
SLD-Solid
 62
     7
370
    25
100
AcDbLine
 10
68.31145799184908
 20
26.39646297321716
 30
0.0
 11
68.31145799184917
 21
54.96777434776027
 31
0.0
  0
LINE
  5
3A2
330
1F
100
AcDbEntity
  8
0
  6
SLD-Solid
 62
     7
370
    25
100
AcDbLine
 10
68.31145799184908
 20
26.39646297321716
 30
0.0
 11
67.99820968778344
 21
26.2155697903205
 31
0.0
  0
SPLINE
  5
3A3
330
1F
100
AcDbEntity
  8
0
  6
SLD-Solid
 62
     7
370
    25
100
AcDbSpline
210
0.0
220
0.0
230
1.0
 70
    12
 71
     3
 72
    11
 73
     7
 74
     0
 42
0.00000001
 43
0.00000001
 40
0.0
 40
0.0
 40
0.0
 40
0.0
 40
0.2500000000002109
 40
0.5000000000005913
 40
0.7500000000009718
 40
1.0
 40
1.0
 40
1.0
 40
1.0
 10
67.99820968778353
 20
55.54978062772928
 30
0.0
 41
1.0
 10
67.99436256261406
 20
55.54688794737039
 30
0.0
 41
1.0
 10
67.9866683122751
 20
55.5411025866526
 30
0.0
 41
1.0
 10
67.98337533759414
 20
55.53005847596183
 30
0.0
 41
1.0
 10
67.98666831227514
 20
55.51901436527108
 30
0.0
 41
1.0
 10
67.99436256261406
 20
55.5132290045533
 30
0.0
 41
1.0
 10
67.99820968778349
 20
55.51033632419442
 30
0.0
 41
1.0
  0
SPLINE
  5
3A4
330
1F
100
AcDbEntity
  8
0
  6
SLD-Solid
 62
     7
370
    25
100
AcDbSpline
210
0.0
220
0.0
230
1.0
 70
    12
 71
     3
 72
     9
 73
     5
 74
     0
 42
0.00000001
 43
0.00000001
 40
0.0
 40
0.0
 40
0.0
 40
0.0
 40
0.5000000000005203
 40
1.0
 40
1.0
 40
1.0
 40
1.0
 10
67.99820968778344
 20
26.2155697903205
 30
0.0
 41
1.0
 10
67.99427109109507
 20
26.21827001016434
 30
0.0
 41
1.0
 10
67.98639389771834
 20
26.223670449852
 30
0.0
 41
1.0
 10
67.98511329645353
 20
26.23064826928237
 30
0.0
 41
1.0
 10
67.98447299582114
 20
26.23413717899754
 30
0.0
 41
1.0
  0
ARC
  5
3A5
330
1F
100
AcDbEntity
  8
0
  6
SLD-Solid
 62
     7
370
    25
100
AcDbCircle
 10
68.01842707561583
 20
55.55306021326393
 30
0.0
 40
0.0204816613593933
100
AcDbArc
 50
50.79671476427841
 51
189.2140369904848
  0
ARC
  5
3A6
330
1F
100
AcDbEntity
  8
0
  6
SLD-Solid
 62
     7
370
    25
100
AcDbCircle
 10
68.30189197128574
 20
55.71385311772568
 30
0.0
 40
0.0235896323633559
100
AcDbArc
 50
54.38242252423103
 51
114.3071190467175
  0
LINE
  5
3A7
330
1F
100
AcDbEntity
  8
0
  6
SLD-Solid
 62
     7
370
    25
100
AcDbLine
 10
68.32411520323232
 20
26.40376982581797
 30
0.0
 11
68.31145799184908
 21
26.39646297321716
 31
0.0
  0
LINE
  5
3A8
330
1F
100
AcDbEntity
  8
0
  6
SLD-Solid
 62
     7
370
    25
100
AcDbLine
 10
68.32411520323232
 20
26.40376982581797
 30
0.0
 11
68.32411520323241
 21
54.96162225824987
 31
0.0
  0
LINE
  5
3A9
330
1F
100
AcDbEntity
  8
0
  6
SLD-Solid
 62
     7
370
    25
100
AcDbLine
 10
84.56754999810909
 20
17.01086604838108
 30
0.0
 11
84.88079830217481
 21
16.46830407194679
 31
0.0
  0
LINE
  5
3AA
330
1F
100
AcDbEntity
  8
0
  6
SLD-Solid
 62
     7
370
    25
100
AcDbLine
 10
67.99920968778349
 20
26.21383773951822
 30
0.0
 11
68.31245799184917
 21
26.39473092241489
 31
0.0
  0
LINE
  5
3AB
330
1F
100
AcDbEntity
  8
0
  6
SLD-Solid
 62
     7
370
    25
100
AcDbLine
 10
84.56754999810909
 20
17.01086604838108
 30
0.0
 11
68.31245799184917
 21
26.39473092241489
 31
0.0
  0
LINE
  5
3AC
330
1F
100
AcDbEntity
  8
0
  6
SLD-Solid
 62
     7
370
    25
100
AcDbLine
 10
84.5703177650621
 20
17.01246384623298
 30
0.0
 11
84.56754999810909
 21
17.01086604838108
 31
0.0
  0
SPLINE
  5
3AD
330
1F
100
AcDbEntity
  8
0
  6
SLD-Solid
 62
     7
370
    25
100
AcDbSpline
210
0.0
220
0.0
230
1.0
 70
    12
 71
     3
 72
    10
 73
     6
 74
     0
 42
0.00000001
 43
0.00000001
 40
0.0
 40
0.0
 40
0.0
 40
0.0
 40
0.4999489370497243
 40
0.9998978740993867
 40
1.0
 40
1.0
 40
1.0
 40
1.0
 10
67.99920968778345
 20
26.21383773951795
 30
0.0
 41
1.0
 10
67.99969356132546
 20
26.2093120226687
 30
0.0
 41
1.0
 10
68.0006613084095
 20
26.20026058897021
 30
0.0
 41
1.0
 10
68.00492063402203
 20
26.19330295228828
 30
0.0
 41
1.0
 10
68.00842442692968
 20
26.19265429720906
 30
0.0
 41
1.0
 10
68.0084251425126
 20
26.19265416473364
 30
0.0
 41
1.0
  0
SPLINE
  5
3AE
330
1F
100
AcDbEntity
  8
0
  6
SLD-Solid
 62
     7
370
    25
100
AcDbSpline
210
0.0
220
0.0
230
1.0
 70
    12
 71
     3
 72
    11
 73
     7
 74
     0
 42
0.00000001
 43
0.00000001
 40
0.0
 40
0.0
 40
0.0
 40
0.0
 40
0.2499999999999939
 40
0.5000000000000266
 40
0.7500000000000189
 40
1.0
 40
1.0
 40
1.0
 40
1.0
 10
84.93546770686666
 20
16.43673787275791
 30
0.0
 41
1.0
 10
84.92932991029738
 20
16.43583944467326
 30
0.0
 41
1.0
 10
84.9170543171588
 20
16.43404258850397
 30
0.0
 41
1.0
 10
84.90071582942599
 20
16.43967404827734
 30
0.0
 41
1.0
 10
84.88767031637418
 20
16.45100910748949
 30
0.0
 41
1.0
 10
84.88308897357453
 20
16.46253908379424
 30
0.0
 41
1.0
 10
84.88079830217472
 20
16.46830407194663
 30
0.0
 41
1.0
  0
LINE
  5
3AF
330
1F
100
AcDbEntity
  8
0
  6
SLD-Solid
 62
     7
370
    25
100
AcDbLine
 10
68.31245799184917
 20
26.39473092241489
 30
0.0
 11
68.3251152032324
 21
26.40203777501571
 31
0.0
  0
LINE
  5
3B0
330
1F
100
AcDbEntity
  8
0
  6
SLD-Solid
 62
     7
370
    25
100
AcDbLine
 10
84.5703177650621
 20
17.02388195573081
 30
0.0
 11
68.3251152032324
 21
26.40203777501571
 31
0.0
  0
LINE
  5
3B1
330
1F
100
AcDbEntity
  8
0
  6
SLD-Solid
 62
     7
370
    25
100
AcDbLine
 10
84.94644137627135
 20
16.44307283726173
 30
0.0
 11
84.93546770686666
 21
16.43673787275791
 31
0.0
  0
LINE
  5
3B2
330
1F
100
AcDbEntity
  8
0
  6
SLD-Solid
 62
     7
370
    25
100
AcDbLine
 10
67.99820968778344
 20
26.2155697903205
 30
0.0
 11
68.01086689916673
 21
26.22287664292129
 31
0.0
  0
LINE
  5
3B3
330
1F
100
AcDbEntity
  8
0
  6
SLD-Solid
 62
     7
370
    25
100
AcDbLine
 10
68.32411520323232
 20
26.40376982581797
 30
0.0
 11
68.01086689916673
 21
26.22287664292129
 31
0.0
  0
LWPOLYLINE
  5
3B4
330
1F
100
AcDbEntity
  8
0
  6
SLD-Solid
 62
     7
370
    25
100
AcDbPolyline
 90
        3
 70
   128
 43
0.0
 10
68.0074264226591
 20
26.22089049810976
 10
68.00792299582109
 20
26.22001799983087
 10
68.00842557483543
 20
26.21915968738005
  0
INSERT
  5
3BA
330
1F
100
AcDbEntity
  8
NOTES
100
AcDbBlockReference
  2
SW_NOTE_0_3
 10
77.33710791309315
 20
16.93396353208319
 30
0.0
  0
MTEXT
  5
3BE
330
1F
100
AcDbEntity
  8
NOTES
100
AcDbMText
 10
80.26613155701669
 20
4.98650087456716
 30
0.0
 40
0.2916666666666666
 41
0.0
 71
     1
 72
     1
  1
FROST PRODUCTS LTD.
  7
SLDTEXTSTYLE1
 73
     1
 44
1.0
  0
MTEXT
  5
3BF
330
1F
100
AcDbEntity
  8
NOTES
100
AcDbMText
 10
80.26613155701669
 20
4.5610085129417
 30
0.0
 40
0.2291666666666666
 41
0.0
 71
     1
 72
     1
  1
5280 JOHN LUCAS DRIVE, BURLINGTON, ON, L7L 5Z9
  7
SLDTEXTSTYLE1
 73
     1
 44
1.0
  0
ENDSEC
  0
SECTION
  2
OBJECTS
  0
DICTIONARY
  5
C
330
0
100
AcDbDictionary
281
     1
  3
ACAD_COLOR
350
6C
  3
ACAD_GROUP
350
D
  3
ACAD_LAYOUT
350
1A
  3
ACAD_MATERIAL
350
6B
  3
ACAD_MLINESTYLE
350
17
  3
ACAD_PLOTSETTINGS
350
19
  3
ACAD_PLOTSTYLENAME
350
E
  3
ACAD_SCALELIST
350
47
  3
ACAD_TABLESTYLE
350
92
  3
AcDbVariableDictionary
350
59
  0
DICTIONARY
  5
6C
102
{ACAD_REACTORS
330
C
102
}
330
C
100
AcDbDictionary
281
     1
  0
DICTIONARY
  5
D
102
{ACAD_REACTORS
330
C
102
}
330
C
100
AcDbDictionary
281
     1
  0
DICTIONARY
  5
1A
102
{ACAD_REACTORS
330
C
102
}
330
C
100
AcDbDictionary
281
     1
  3
Layout1
350
74
  3
Layout2
350
26
  3
Model
350
22
  0
DICTIONARY
  5
6B
102
{ACAD_REACTORS
330
C
102
}
330
C
100
AcDbDictionary
281
     1
  0
DICTIONARY
  5
17
102
{ACAD_REACTORS
330
C
102
}
330
C
100
AcDbDictionary
281
     1
  3
Standard
350
18
  0
DICTIONARY
  5
19
102
{ACAD_REACTORS
330
C
102
}
330
C
100
AcDbDictionary
281
     1
  0
ACDBDICTIONARYWDFLT
  5
E
102
{ACAD_REACTORS
330
C
102
}
330
C
100
AcDbDictionary
281
     1
  3
Normal
350
F
100
AcDbDictionaryWithDefault
340
F
  0
DICTIONARY
  5
47
102
{ACAD_REACTORS
330
C
102
}
330
C
100
AcDbDictionary
281
     1
  3
A0
350
48
  3
A1
350
49
  3
A2
350
4A
  3
A3
350
4B
  3
A4
350
4C
  3
A5
350
4D
  3
A6
350
4E
  3
A7
350
4F
  3
A8
350
50
  3
A9
350
51
  3
B0
350
52
  3
B1
350
53
  3
B2
350
54
  3
B3
350
55
  3
B4
350
56
  3
B5
350
57
  3
B6
350
58
  3
B7
350
3D0
  3
B8
350
3D1
  3
B9
350
5B
  3
C0
350
5C
  3
C1
350
5D
  3
C2
350
3D2
  3
C3
350
5F
  3
C4
350
60
  3
C5
350
61
  3
C6
350
62
  3
C7
350
63
  3
C8
350
64
  3
C9
350
65
  3
D0
350
66
  3
D1
350
67
  3
D2
350
68
  0
DICTIONARY
  5
92
102
{ACAD_REACTORS
330
C
102
}
330
C
100
AcDbDictionary
281
     1
  3
Standard
350
93
  0
DICTIONARY
  5
59
102
{ACAD_REACTORS
330
C
102
}
330
C
100
AcDbDictionary
281
     1
  3
CTABLESTYLE
350
98
  3
HIDETEXT
350
3BD
  0
LAYOUT
  5
74
102
{ACAD_REACTORS
330
1A
102
}
330
1A
100
AcDbPlotSettings
  1

  2
none_device
  4

  6

 40
0.0
 41
0.0
 42
0.0
 43
0.0
 44
0.0
 45
0.0
 46
0.0
 47
0.0
 48
0.0
 49
0.0
140
0.0
141
0.0
142
1.0
143
1.0
 70
   688
 72
     0
 73
     0
 74
     5
  7

 75
    16
 76
     0
 77
     2
 78
   300
147
1.0
148
0.0
149
0.0
100
AcDbLayout
  1
Layout1
 70
     1
 71
     1
 10
0.0
 20
0.0
 11
12.0
 21
9.0
 12
0.0
 22
0.0
 32
0.0
 14
1.000000000000000E+20
 24
1.000000000000000E+20
 34
1.000000000000000E+20
 15
-1.000000000000000E+20
 25
-1.000000000000000E+20
 35
-1.000000000000000E+20
146
0.0
 13
0.0
 23
0.0
 33
0.0
 16
1.0
 26
0.0
 36
0.0
 17
0.0
 27
1.0
 37
0.0
 76
     0
330
73
  0
LAYOUT
  5
26
102
{ACAD_REACTORS
330
1A
102
}
330
1A
100
AcDbPlotSettings
  1

  2
none_device
  4

  6

 40
0.0
 41
0.0
 42
0.0
 43
0.0
 44
0.0
 45
0.0
 46
0.0
 47
0.0
 48
0.0
 49
0.0
140
0.0
141
0.0
142
1.0
143
1.0
 70
   688
 72
     0
 73
     0
 74
     5
  7

 75
    16
 76
     0
 77
     2
 78
   300
147
1.0
148
0.0
149
0.0
100
AcDbLayout
  1
Layout2
 70
     1
 71
     2
 10
0.0
 20
0.0
 11
0.0
 21
0.0
 12
0.0
 22
0.0
 32
0.0
 14
0.0
 24
0.0
 34
0.0
 15
0.0
 25
0.0
 35
0.0
146
0.0
 13
0.0
 23
0.0
 33
0.0
 16
1.0
 26
0.0
 36
0.0
 17
0.0
 27
1.0
 37
0.0
 76
     0
330
23
  0
LAYOUT
  5
22
102
{ACAD_REACTORS
330
1A
102
}
330
1A
100
AcDbPlotSettings
  1

  2
none_device
  4
Letter_(8.50_x_11.00_Inches)
  6

 40
6.35
 41
6.35
 42
6.35000508
 43
6.35000508
 44
215.9
 45
279.4
 46
0.0
 47
0.0
 48
0.0
 49
0.0
140
0.0
141
0.0
142
1.0
143
1.0
 70
 11952
 72
     0
 73
     0
 74
     0
  7

 75
     0
 76
     0
 77
     2
 78
   300
147
1.0
148
0.0
149
0.0
100
AcDbLayout
  1
Model
 70
     1
 71
     0
 10
0.0
 20
0.0
 11
90.0
 21
60.0
 12
0.0
 22
0.0
 32
0.0
 14
0.1653543307086614
 24
0.1653543307086614
 34
-0.8896585697048643
 15
89.83464566929135
 25
59.83464566929134
 35
0.0514002187796652
146
0.0
 13
0.0
 23
0.0
 33
0.0
 16
1.0
 26
0.0
 36
0.0
 17
0.0
 27
1.0
 37
0.0
 76
     0
330
1F
  0
MLINESTYLE
  5
18
102
{ACAD_REACTORS
330
17
102
}
330
17
100
AcDbMlineStyle
  2
Standard
 70
     0
  3

 62
   256
 51
90.0
 52
90.0
 71
     2
 49
0.5
 62
   256
  6
BYLAYER
 49
-0.5
 62
   256
  6
BYLAYER
  0
ACDBPLACEHOLDER
  5
F
102
{ACAD_REACTORS
330
E
102
}
330
E
  0
ACAD_PROXY_OBJECT
  5
48
102
{ACAD_REACTORS
330
47
102
}
330
47
100
AcDbProxyObject
 90
      499
 91
      505
 95
   393239
 70
     0
 93
       41
310
903313A31580
  0
ACAD_PROXY_OBJECT
  5
49
102
{ACAD_REACTORS
330
47
102
}
330
47
100
AcDbProxyObject
 90
      499
 91
      505
 95
   393239
 70
     0
 93
      105
310
903313A324000000000000004000
  0
ACAD_PROXY_OBJECT
  5
4A
102
{ACAD_REACTORS
330
47
102
}
330
47
100
AcDbProxyObject
 90
      499
 91
      505
 95
   393239
 70
     0
 93
      105
310
903313A344000000000000104000
  0
ACAD_PROXY_OBJECT
  5
4B
102
{ACAD_REACTORS
330
47
102
}
330
47
100
AcDbProxyObject
 90
      499
 91
      505
 95
   393239
 70
     0
 93
      105
310
903313A354000000000000144000
  0
ACAD_PROXY_OBJECT
  5
4C
102
{ACAD_REACTORS
330
47
102
}
330
47
100
AcDbProxyObject
 90
      499
 91
      505
 95
   393239
 70
     0
 93
      105
310
903313A384000000000000204000
  0
ACAD_PROXY_OBJECT
  5
4D
102
{ACAD_REACTORS
330
47
102
}
330
47
100
AcDbProxyObject
 90
      499
 91
      505
 95
   393239
 70
     0
 93
      113
310
904313A31304000000000000244000
  0
ACAD_PROXY_OBJECT
  5
4E
102
{ACAD_REACTORS
330
47
102
}
330
47
100
AcDbProxyObject
 90
      499
 91
      505
 95
   393239
 70
     0
 93
      113
310
904313A31364000000000000304000
  0
ACAD_PROXY_OBJECT
  5
4F
102
{ACAD_REACTORS
330
47
102
}
330
47
100
AcDbProxyObject
 90
      499
 91
      505
 95
   393239
 70
     0
 93
      113
310
904313A32304000000000000344000
  0
ACAD_PROXY_OBJECT
  5
50
102
{ACAD_REACTORS
330
47
102
}
330
47
100
AcDbProxyObject
 90
      499
 91
      505
 95
   393239
 70
     0
 93
      113
310
904313A333040000000000003E4000
  0
ACAD_PROXY_OBJECT
  5
51
102
{ACAD_REACTORS
330
47
102
}
330
47
100
AcDbProxyObject
 90
      499
 91
      505
 95
   393239
 70
     0
 93
      113
310
904313A34304000000000000444000
  0
ACAD_PROXY_OBJECT
  5
52
102
{ACAD_REACTORS
330
47
102
}
330
47
100
AcDbProxyObject
 90
      499
 91
      505
 95
   393239
 70
     0
 93
      113
310
904313A35304000000000000494000
  0
ACAD_PROXY_OBJECT
  5
53
102
{ACAD_REACTORS
330
47
102
}
330
47
100
AcDbProxyObject
 90
      499
 91
      505
 95
   393239
 70
     0
 93
      121
310
905313A3130304000000000000594000
  0
ACAD_PROXY_OBJECT
  5
54
102
{ACAD_REACTORS
330
47
102
}
330
47
100
AcDbProxyObject
 90
      499
 91
      505
 95
   393239
 70
     0
 93
      105
310
903323A310000000000000010100
  0
ACAD_PROXY_OBJECT
  5
55
102
{ACAD_REACTORS
330
47
102
}
330
47
100
AcDbProxyObject
 90
      499
 91
      505
 95
   393239
 70
     0
 93
      105
310
903343A310000000000000410100
  0
ACAD_PROXY_OBJECT
  5
56
102
{ACAD_REACTORS
330
47
102
}
330
47
100
AcDbProxyObject
 90
      499
 91
      505
 95
   393239
 70
     0
 93
      105
310
903383A310000000000000810100
  0
ACAD_PROXY_OBJECT
  5
57
102
{ACAD_REACTORS
330
47
102
}
330
47
100
AcDbProxyObject
 90
      499
 91
      505
 95
   393239
 70
     0
 93
      113
310
90431303A310000000000000910100
  0
ACAD_PROXY_OBJECT
  5
58
102
{ACAD_REACTORS
330
47
102
}
330
47
100
AcDbProxyObject
 90
      499
 91
      505
 95
   393239
 70
     0
 93
      121
310
9053130303A310000000000001650100
  0
ACAD_PROXY_OBJECT
  5
3D0
102
{ACAD_REACTORS
330
47
102
}
330
47
100
AcDbProxyObject
 90
      499
 91
      505
 95
   393239
 70
     0
 93
      257
310
90E312F31323822203D2031272D3022000000000000200FC000000000000284000
  0
ACAD_PROXY_OBJECT
  5
3D1
102
{ACAD_REACTORS
330
47
102
}
330
47
100
AcDbProxyObject
 90
      499
 91
      505
 95
   393239
 70
     0
 93
      249
310
90D312F363422203D2031272D3022000000000000240FC000000000000284000
  0
ACAD_PROXY_OBJECT
  5
5B
102
{ACAD_REACTORS
330
47
102
}
330
47
100
AcDbProxyObject
 90
      499
 91
      505
 95
   393239
 70
     0
 93
      249
310
90D312F333222203D2031272D3022000000000000280FC000000000000284000
  0
ACAD_PROXY_OBJECT
  5
5C
102
{ACAD_REACTORS
330
47
102
}
330
47
100
AcDbProxyObject
 90
      499
 91
      505
 95
   393239
 70
     0
 93
      249
310
90D312F313622203D2031272D30220000000000002C0FC000000000000284000
  0
ACAD_PROXY_OBJECT
  5
5D
102
{ACAD_REACTORS
330
47
102
}
330
47
100
AcDbProxyObject
 90
      499
 91
      505
 95
   393239
 70
     0
 93
      249
310
90D332F333222203D2031272D30220000000000002E0FC000000000000284000
  0
ACAD_PROXY_OBJECT
  5
3D2
102
{ACAD_REACTORS
330
47
102
}
330
47
100
AcDbProxyObject
 90
      499
 91
      505
 95
   393239
 70
     0
 93
      241
310
90C312F3822203D2031272D3022000000000000300FC000000000000284000
  0
ACAD_PROXY_OBJECT
  5
5F
102
{ACAD_REACTORS
330
47
102
}
330
47
100
AcDbProxyObject
 90
      499
 91
      505
 95
   393239
 70
     0
 93
      249
310
90D332F313622203D2031272D3022000000000000320FC000000000000284000
  0
ACAD_PROXY_OBJECT
  5
60
102
{ACAD_REACTORS
330
47
102
}
330
47
100
AcDbProxyObject
 90
      499
 91
      505
 95
   393239
 70
     0
 93
      241
310
90C312F3422203D2031272D3022000000000000340FC000000000000284000
  0
ACAD_PROXY_OBJECT
  5
61
102
{ACAD_REACTORS
330
47
102
}
330
47
100
AcDbProxyObject
 90
      499
 91
      505
 95
   393239
 70
     0
 93
      241
310
90C332F3822203D2031272D3022000000000000360FC000000000000284000
  0
ACAD_PROXY_OBJECT
  5
62
102
{ACAD_REACTORS
330
47
102
}
330
47
100
AcDbProxyObject
 90
      499
 91
      505
 95
   393239
 70
     0
 93
      241
310
90C312F3222203D2031272D3022000000000000380FC000000000000284000
  0
ACAD_PROXY_OBJECT
  5
63
102
{ACAD_REACTORS
330
47
102
}
330
47
100
AcDbProxyObject
 90
      499
 91
      505
 95
   393239
 70
     0
 93
      241
310
90C332F3422203D2031272D30220000000000003A0FC000000000000284000
  0
ACAD_PROXY_OBJECT
  5
64
102
{ACAD_REACTORS
330
47
102
}
330
47
100
AcDbProxyObject
 90
      499
 91
      505
 95
   393239
 70
     0
 93
      161
310
90A3122203D2031272D30224000000000000284000
  0
ACAD_PROXY_OBJECT
  5
65
102
{ACAD_REACTORS
330
47
102
}
330
47
100
AcDbProxyObject
 90
      499
 91
      505
 95
   393239
 70
     0
 93
      257
310
90E312D312F3222203D2031272D30220000000000003E0FC000000000000284000
  0
ACAD_PROXY_OBJECT
  5
66
102
{ACAD_REACTORS
330
47
102
}
330
47
100
AcDbProxyObject
 90
      499
 91
      505
 95
   393239
 70
     0
 93
      225
310
90A3322203D2031272D302200000000000002100000000000000284000
  0
ACAD_PROXY_OBJECT
  5
67
102
{ACAD_REACTORS
330
47
102
}
330
47
100
AcDbProxyObject
 90
      499
 91
      505
 95
   393239
 70
     0
 93
      225
310
90A3622203D2031272D302200000000000006100000000000000284000
  0
ACAD_PROXY_OBJECT
  5
68
102
{ACAD_REACTORS
330
47
102
}
330
47
100
AcDbProxyObject
 90
      499
 91
      505
 95
   393239
 70
     0
 93
      249
310
90D31272D3022203D2031272D30220000000000000A100000000000000284000
  0
TABLESTYLE
  5
93
102
{ACAD_REACTORS
330
92
102
}
330
92
100
AcDbTableStyle
  3
Standard
 70
     0
 71
     0
 40
0.06
 41
0.06
280
     0
281
     0
  7
Standard
140
0.18
170
     2
 62
     0
 63
     7
283
     0
274
    -2
284
     1
 64
     0
275
    -2
285
     1
 65
     0
276
    -2
286
     1
 66
     0
277
    -2
287
     1
 67
     0
278
    -2
288
     1
 68
     0
279
    -2
289
     1
 69
     0
  7
Standard
140
0.25
170
     5
 62
     0
 63
     7
283
     0
274
    -2
284
     1
 64
     0
275
    -2
285
     1
 65
     0
276
    -2
286
     1
 66
     0
277
    -2
287
     1
 67
     0
278
    -2
288
     1
 68
     0
279
    -2
289
     1
 69
     0
  7
Standard
140
0.18
170
     5
 62
     0
 63
     7
283
     0
274
    -2
284
     1
 64
     0
275
    -2
285
     1
 65
     0
276
    -2
286
     1
 66
     0
277
    -2
287
     1
 67
     0
278
    -2
288
     1
 68
     0
279
    -2
289
     1
 69
     0
  0
DICTIONARYVAR
  5
98
102
{ACAD_REACTORS
330
59
102
}
330
59
100
DictionaryVariables
280
     0
  1
STANDARD
  0
DICTIONARYVAR
  5
3BD
102
{ACAD_REACTORS
330
59
102
}
330
59
100
DictionaryVariables
280
     0
  1
2
  0
ENDSEC
  0
EOF
