  0
SECTION
  2
HEADER
  9
$ACADVER
  1
AC1018
  9
$ACADMAINTVER
 70
    39
  9
$DWGCODEPAGE
  3
ANSI_1252
  9
$LASTSAVEDBY
  1
fottrem
  9
$INSBASE
 10
0.0
 20
0.0
 30
0.0
  9
$EXTMIN
 10
0.1653543307086614
 20
0.1653543307086614
 30
-1.738706823369688
  9
$EXTMAX
 10
94.83464566929133
 20
49.83464566929134
 30
1.738706823369694
  9
$LIMMIN
 10
0.0
 20
0.0
  9
$LIMMAX
 10
95.0
 20
50.0
  9
$ORTHOMODE
 70
     0
  9
$REGENMODE
 70
     1
  9
$FILLMODE
 70
     1
  9
$QTEXTMODE
 70
     0
  9
$MIRRTEXT
 70
     1
  9
$LTSCALE
 40
1.0
  9
$ATTMODE
 70
     1
  9
$TEXTSIZE
 40
0.5
  9
$TRACEWID
 40
0.05
  9
$TEXTSTYLE
  7
Standard
  9
$CLAYER
  8
0
  9
$CELTYPE
  6
ByLayer
  9
$CECOLOR
 62
   256
  9
$CELTSCALE
 40
1.0
  9
$DISPSILH
 70
     0
  9
$DIMSCALE
 40
1.0
  9
$DIMASZ
 40
0.3
  9
$DIMEXO
 40
0.1666666666666667
  9
$DIMDLI
 40
0.38
  9
$DIMRND
 40
0.0
  9
$DIMDLE
 40
0.0
  9
$DIMEXE
 40
0.3750000000000001
  9
$DIMTP
 40
0.0
  9
$DIMTM
 40
0.0
  9
$DIMTXT
 40
0.5
  9
$DIMCEN
 40
0.09
  9
$DIMTSZ
 40
0.0
  9
$DIMTOL
 70
     0
  9
$DIMLIM
 70
     0
  9
$DIMTIH
 70
     1
  9
$DIMTOH
 70
     1
  9
$DIMSE1
 70
     0
  9
$DIMSE2
 70
     0
  9
$DIMTAD
 70
     0
  9
$DIMZIN
 70
     1
  9
$DIMBLK
  1

  9
$DIMASO
 70
     1
  9
$DIMSHO
 70
     1
  9
$DIMPOST
  1

  9
$DIMAPOST
  1

  9
$DIMALT
 70
     0
  9
$DIMALTD
 70
     2
  9
$DIMALTF
 40
25.4
  9
$DIMLFAC
 40
1.0
  9
$DIMTOFL
 70
     0
  9
$DIMTVP
 40
0.0
  9
$DIMTIX
 70
     0
  9
$DIMSOXD
 70
     0
  9
$DIMSAH
 70
     0
  9
$DIMBLK1
  1

  9
$DIMBLK2
  1

  9
$DIMSTYLE
  2
Standard
  9
$DIMCLRD
 70
     0
  9
$DIMCLRE
 70
     0
  9
$DIMCLRT
 70
     0
  9
$DIMTFAC
 40
1.0
  9
$DIMGAP
 40
0.125
  9
$DIMJUST
 70
     0
  9
$DIMSD1
 70
     0
  9
$DIMSD2
 70
     0
  9
$DIMTOLJ
 70
     1
  9
$DIMTZIN
 70
     1
  9
$DIMALTZ
 70
     0
  9
$DIMALTTZ
 70
     0
  9
$DIMUPT
 70
     0
  9
$DIMDEC
 70
     2
  9
$DIMTDEC
 70
     2
  9
$DIMALTU
 70
     2
  9
$DIMALTTD
 70
     2
  9
$DIMTXSTY
  7
Standard
  9
$DIMAUNIT
 70
     0
  9
$DIMADEC
 70
     2
  9
$DIMALTRND
 40
0.0
  9
$DIMAZIN
 70
     0
  9
$DIMDSEP
 70
    46
  9
$DIMATFIT
 70
     3
  9
$DIMFRAC
 70
     0
  9
$DIMLDRBLK
  1

  9
$DIMLUNIT
 70
     2
  9
$DIMLWD
 70
    -2
  9
$DIMLWE
 70
    -2
  9
$DIMTMOVE
 70
     0
  9
$LUNITS
 70
     2
  9
$LUPREC
 70
     4
  9
$SKETCHINC
 40
0.1
  9
$FILLETRAD
 40
0.5
  9
$AUNITS
 70
     0
  9
$AUPREC
 70
     2
  9
$MENU
  1
.
  9
$ELEVATION
 40
0.0
  9
$PELEVATION
 40
0.0
  9
$THICKNESS
 40
0.0
  9
$LIMCHECK
 70
     0
  9
$CHAMFERA
 40
0.0
  9
$CHAMFERB
 40
0.0
  9
$CHAMFERC
 40
0.0
  9
$CHAMFERD
 40
0.0
  9
$SKPOLY
 70
     0
  9
$TDCREATE
 40
2453353.550459155
  9
$TDUCREATE
 40
2453353.717125822
  9
$TDUPDATE
 40
2459488.651473924
  9
$TDUUPDATE
 40
2459488.81814059
  9
$TDINDWG
 40
0.042719919
  9
$TDUSRTIMER
 40
0.042719919
  9
$USRTIMER
 70
     1
  9
$ANGBASE
 50
0.0
  9
$ANGDIR
 70
     0
  9
$PDMODE
 70
     0
  9
$PDSIZE
 40
-1.0
  9
$PLINEWID
 40
0.0
  9
$SPLFRAME
 70
     0
  9
$SPLINETYPE
 70
     6
  9
$SPLINESEGS
 70
     8
  9
$HANDSEED
  5
424
  9
$SURFTAB1
 70
     6
  9
$SURFTAB2
 70
     6
  9
$SURFTYPE
 70
     6
  9
$SURFU
 70
     6
  9
$SURFV
 70
     6
  9
$UCSBASE
  2

  9
$UCSNAME
  2

  9
$UCSORG
 10
0.0
 20
0.0
 30
0.0
  9
$UCSXDIR
 10
1.0
 20
0.0
 30
0.0
  9
$UCSYDIR
 10
0.0
 20
1.0
 30
0.0
  9
$UCSORTHOREF
  2

  9
$UCSORTHOVIEW
 70
     0
  9
$UCSORGTOP
 10
0.0
 20
0.0
 30
0.0
  9
$UCSORGBOTTOM
 10
0.0
 20
0.0
 30
0.0
  9
$UCSORGLEFT
 10
0.0
 20
0.0
 30
0.0
  9
$UCSORGRIGHT
 10
0.0
 20
0.0
 30
0.0
  9
$UCSORGFRONT
 10
0.0
 20
0.0
 30
0.0
  9
$UCSORGBACK
 10
0.0
 20
0.0
 30
0.0
  9
$PUCSBASE
  2

  9
$PUCSNAME
  2

  9
$PUCSORG
 10
0.0
 20
0.0
 30
0.0
  9
$PUCSXDIR
 10
1.0
 20
0.0
 30
0.0
  9
$PUCSYDIR
 10
0.0
 20
1.0
 30
0.0
  9
$PUCSORTHOREF
  2

  9
$PUCSORTHOVIEW
 70
     0
  9
$PUCSORGTOP
 10
0.0
 20
0.0
 30
0.0
  9
$PUCSORGBOTTOM
 10
0.0
 20
0.0
 30
0.0
  9
$PUCSORGLEFT
 10
0.0
 20
0.0
 30
0.0
  9
$PUCSORGRIGHT
 10
0.0
 20
0.0
 30
0.0
  9
$PUCSORGFRONT
 10
0.0
 20
0.0
 30
0.0
  9
$PUCSORGBACK
 10
0.0
 20
0.0
 30
0.0
  9
$USERI1
 70
     0
  9
$USERI2
 70
     0
  9
$USERI3
 70
     0
  9
$USERI4
 70
     0
  9
$USERI5
 70
     0
  9
$USERR1
 40
0.0
  9
$USERR2
 40
0.0
  9
$USERR3
 40
0.0
  9
$USERR4
 40
0.0
  9
$USERR5
 40
0.0
  9
$WORLDVIEW
 70
     1
  9
$SHADEDGE
 70
     3
  9
$SHADEDIF
 70
    70
  9
$TILEMODE
 70
     1
  9
$MAXACTVP
 70
    64
  9
$PINSBASE
 10
0.0
 20
0.0
 30
0.0
  9
$PLIMCHECK
 70
     0
  9
$PEXTMIN
 10
1.000000000000000E+20
 20
1.000000000000000E+20
 30
1.000000000000000E+20
  9
$PEXTMAX
 10
-1.000000000000000E+20
 20
-1.000000000000000E+20
 30
-1.000000000000000E+20
  9
$PLIMMIN
 10
0.0
 20
0.0
  9
$PLIMMAX
 10
12.0
 20
9.0
  9
$UNITMODE
 70
     0
  9
$VISRETAIN
 70
     1
  9
$PLINEGEN
 70
     0
  9
$PSLTSCALE
 70
     1
  9
$TREEDEPTH
 70
  3020
  9
$CMLSTYLE
  2
Standard
  9
$CMLJUST
 70
     0
  9
$CMLSCALE
 40
1.0
  9
$PROXYGRAPHICS
 70
     1
  9
$MEASUREMENT
 70
     0
  9
$CELWEIGHT
370
    -1
  9
$ENDCAPS
280
     0
  9
$JOINSTYLE
280
     0
  9
$LWDISPLAY
290
     1
  9
$INSUNITS
 70
     1
  9
$HYPERLINKBASE
  1

  9
$STYLESHEET
  1

  9
$XEDIT
290
     0
  9
$CEPSNTYPE
380
     0
  9
$PSTYLEMODE
290
     1
  9
$FINGERPRINTGUID
  2
{69c0395c-2bdd-4bf7-89c7-1369335fdb4b}
  9
$VERSIONGUID
  2
{FAEB1C32-E019-11D5-929B-00C0DF256EC4}
  9
$EXTNAMES
290
     1
  9
$PSVPSCALE
 40
0.0
  9
$OLESTARTUP
290
     0
  9
$SORTENTS
280
   127
  9
$INDEXCTL
280
     0
  9
$HIDETEXT
280
     1
  9
$XCLIPFRAME
290
     0
  9
$HALOGAP
280
     0
  9
$OBSCOLOR
 70
   257
  9
$OBSLTYPE
280
     0
  9
$INTERSECTIONDISPLAY
280
     0
  9
$INTERSECTIONCOLOR
 70
   257
  9
$DIMASSOC
280
     2
  9
$PROJECTNAME
  1

  0
ENDSEC
  0
SECTION
  2
CLASSES
  0
CLASS
  1
ACDBDICTIONARYWDFLT
  2
AcDbDictionaryWithDefault
  3
ObjectDBX Classes
 90
        0
 91
        3
280
     0
281
     0
  0
CLASS
  1
ACDBPLACEHOLDER
  2
AcDbPlaceHolder
  3
ObjectDBX Classes
 90
        0
 91
        1
280
     0
281
     0
  0
CLASS
  1
LAYOUT
  2
AcDbLayout
  3
ObjectDBX Classes
 90
        0
 91
        1
280
     0
281
     0
  0
CLASS
  1
DICTIONARYVAR
  2
AcDbDictionaryVar
  3
ObjectDBX Classes
 90
        0
 91
        3
280
     0
281
     0
  0
CLASS
  1
TABLESTYLE
  2
AcDbTableStyle
  3
ObjectDBX Classes
 90
     2047
 91
        3
280
     0
281
     0
  0
CLASS
  1
SCALE
  2
AcDbScale
  3
ObjectDBX Classes
 90
     1153
 91
       67
280
     1
281
     0
  0
ENDSEC
  0
SECTION
  2
TABLES
  0
TABLE
  2
VPORT
  5
8
330
0
100
AcDbSymbolTable
 70
     2
  0
VPORT
  5
97
330
8
100
AcDbSymbolTableRecord
100
AcDbViewportTableRecord
  2
*Active
 70
     0
 10
0.0
 20
0.0
 11
1.0
 21
1.0
 12
47.5
 22
25.0
 13
0.0
 23
0.0
 14
0.5
 24
0.5
 15
0.5
 25
0.5
 16
0.0
 26
0.0
 36
1.0
 17
0.0
 27
0.0
 37
0.0
 40
50.66267716535433
 41
1.9
 42
50.0
 43
0.0
 44
0.0
 50
0.0
 51
0.0
 71
    16
 72
  2000
 73
     1
 74
     1
 75
     0
 76
     0
 77
     0
 78
     0
281
     0
 65
     0
110
0.0
120
0.0
130
0.0
111
1.0
121
0.0
131
0.0
112
0.0
122
1.0
132
0.0
 79
     0
146
0.0
  0
ENDTAB
  0
TABLE
  2
LTYPE
  5
5
330
0
100
AcDbSymbolTable
 70
     8
  0
LTYPE
  5
14
330
5
100
AcDbSymbolTableRecord
100
AcDbLinetypeTableRecord
  2
ByBlock
 70
     0
  3

 72
    65
 73
     0
 40
0.0
  0
LTYPE
  5
15
330
5
100
AcDbSymbolTableRecord
100
AcDbLinetypeTableRecord
  2
ByLayer
 70
     0
  3

 72
    65
 73
     0
 40
0.0
  0
LTYPE
  5
16
330
5
100
AcDbSymbolTableRecord
100
AcDbLinetypeTableRecord
  2
Continuous
 70
     0
  3
Solid line
 72
    65
 73
     0
 40
0.0
  0
LTYPE
  5
3F0
330
5
100
AcDbSymbolTableRecord
100
AcDbLinetypeTableRecord
  2
SLD-Solid
 70
     0
  3
SolidWorks Line Style
 72
    65
 73
     0
 40
0.0
  0
LTYPE
  5
3F1
330
5
100
AcDbSymbolTableRecord
100
AcDbLinetypeTableRecord
  2
SLD-Dashed
 70
     0
  3
SolidWorks Line Style
 72
    65
 73
     2
 40
0.075
 49
0.05
 74
     4
 75
     0
340
0
 46
1.0
 50
0.0
 44
0.0
 45
0.0
 49
-0.025
 74
     4
 75
     0
340
0
 46
1.0
 50
0.0
 44
0.0
 45
0.0
  0
LTYPE
  5
3F2
330
5
100
AcDbSymbolTableRecord
100
AcDbLinetypeTableRecord
  2
SLD-Phantom
 70
     0
  3
SolidWorks Line Style
 72
    65
 73
     6
 40
0.4999999999999999
 49
0.25
 74
     4
 75
     0
340
0
 46
1.0
 50
0.0
 44
0.0
 45
0.0
 49
-0.05
 74
     4
 75
     0
340
0
 46
1.0
 50
0.0
 44
0.0
 45
0.0
 49
0.05
 74
     4
 75
     0
340
0
 46
1.0
 50
0.0
 44
0.0
 45
0.0
 49
-0.05
 74
     4
 75
     0
340
0
 46
1.0
 50
0.0
 44
0.0
 45
0.0
 49
0.05
 74
     4
 75
     0
340
0
 46
1.0
 50
0.0
 44
0.0
 45
0.0
 49
-0.05
 74
     4
 75
     0
340
0
 46
1.0
 50
0.0
 44
0.0
 45
0.0
  0
LTYPE
  5
3F3
330
5
100
AcDbSymbolTableRecord
100
AcDbLinetypeTableRecord
  2
SLD-Chain
 70
     0
  3
SolidWorks Line Style
 72
    65
 73
     4
 40
0.4
 49
0.25
 74
     4
 75
     0
340
0
 46
1.0
 50
0.0
 44
0.0
 45
0.0
 49
-0.05
 74
     4
 75
     0
340
0
 46
1.0
 50
0.0
 44
0.0
 45
0.0
 49
0.05
 74
     4
 75
     0
340
0
 46
1.0
 50
0.0
 44
0.0
 45
0.0
 49
-0.05
 74
     4
 75
     0
340
0
 46
1.0
 50
0.0
 44
0.0
 45
0.0
  0
LTYPE
  5
3F4
330
5
100
AcDbSymbolTableRecord
100
AcDbLinetypeTableRecord
  2
SLD-Center
 70
     0
  3
SolidWorks Line Style
 72
    65
 73
     4
 40
0.7500000000000002
 49
0.6000000000000001
 74
     4
 75
     0
340
0
 46
1.0
 50
0.0
 44
0.0
 45
0.0
 49
-0.05
 74
     4
 75
     0
340
0
 46
1.0
 50
0.0
 44
0.0
 45
0.0
 49
0.05
 74
     4
 75
     0
340
0
 46
1.0
 50
0.0
 44
0.0
 45
0.0
 49
-0.05
 74
     4
 75
     0
340
0
 46
1.0
 50
0.0
 44
0.0
 45
0.0
  0
LTYPE
  5
3F5
330
5
100
AcDbSymbolTableRecord
100
AcDbLinetypeTableRecord
  2
SLD-Stitch
 70
     0
  3
SolidWorks Line Style
 72
    65
 73
     2
 40
0.025
 49
0.0
 74
     4
 75
     0
340
0
 46
1.0
 50
0.0
 44
0.0
 45
0.0
 49
-0.025
 74
     4
 75
     0
340
0
 46
1.0
 50
0.0
 44
0.0
 45
0.0
  0
LTYPE
  5
3F6
330
5
100
AcDbSymbolTableRecord
100
AcDbLinetypeTableRecord
  2
SLD-Thin-Thick-Chain
 70
     0
  3
SolidWorks Line Style
 72
    65
 73
     4
 40
0.4
 49
0.25
 74
     4
 75
     0
340
0
 46
1.0
 50
0.0
 44
0.0
 45
0.0
 49
-0.05
 74
     4
 75
     0
340
0
 46
1.0
 50
0.0
 44
0.0
 45
0.0
 49
0.05
 74
     4
 75
     0
340
0
 46
1.0
 50
0.0
 44
0.0
 45
0.0
 49
-0.05
 74
     4
 75
     0
340
0
 46
1.0
 50
0.0
 44
0.0
 45
0.0
  0
ENDTAB
  0
TABLE
  2
LAYER
  5
2
330
0
100
AcDbSymbolTable
 70
     6
  0
LAYER
  5
10
330
2
100
AcDbSymbolTableRecord
100
AcDbLayerTableRecord
  2
0
 70
     0
 62
     7
  6
Continuous
370
    -3
390
F
  0
LAYER
  5
3F7
330
2
100
AcDbSymbolTableRecord
100
AcDbLayerTableRecord
  2
FORMAT
 70
     0
 62
     7
  6
SLD-Solid
370
    -3
390
F
  0
LAYER
  5
3F8
330
2
100
AcDbSymbolTableRecord
100
AcDbLayerTableRecord
  2
NOTES
 70
     0
 62
     1
  6
SLD-Solid
370
    -3
390
F
  0
LAYER
  5
77
330
2
100
AcDbSymbolTableRecord
100
AcDbLayerTableRecord
  2
OBJECT
 70
     0
 62
     7
  6
SLD-Solid
370
    25
390
F
  0
LAYER
  5
78
330
2
100
AcDbSymbolTableRecord
100
AcDbLayerTableRecord
  2
DIMS
 70
     0
 62
     5
  6
SLD-Solid
370
    -3
390
F
  0
LAYER
  5
79
330
2
100
AcDbSymbolTableRecord
100
AcDbLayerTableRecord
  2
TITLE
 70
     0
 62
     8
  6
SLD-Solid
370
    -3
390
F
  0
ENDTAB
  0
TABLE
  2
STYLE
  5
3
330
0
100
AcDbSymbolTable
 70
     5
  0
STYLE
  5
11
330
3
100
AcDbSymbolTableRecord
100
AcDbTextStyleTableRecord
  2
Standard
 70
     0
 40
0.0
 41
1.0
 50
0.0
 71
     0
 42
0.5
  3
GOTHIC.TTF
  4

1001
ACAD
1000
CENTURY GOTHIC
1071
       34
  0
STYLE
  5
119
330
3
100
AcDbSymbolTableRecord
100
AcDbTextStyleTableRecord
  2
SLDTEXTSTYLE0
 70
     0
 40
0.0
 41
0.913
 50
0.0
 71
     0
 42
0.5
  3
GOTHIC.TTF
  4

1001
ACAD
1000
Century Gothic
1071
      290
  0
STYLE
  5
121
330
3
100
AcDbSymbolTableRecord
100
AcDbTextStyleTableRecord
  2
SLDTEXTSTYLE1
 70
     0
 40
0.0
 41
0.948
 50
0.0
 71
     0
 42
0.5
  3
ARIAL.TTF
  4

1001
ACAD
1000
Arial
1071
      290
  0
STYLE
  5
133
330
3
100
AcDbSymbolTableRecord
100
AcDbTextStyleTableRecord
  2
SLDTEXTSTYLE2
 70
     0
 40
0.0
 41
0.87
 50
0.0
 71
     0
 42
0.5
  3
ARIALNB.TTF
  4

1001
ACAD
1000
Arial Narrow
1071
 33554722
  0
STYLE
  5
135
330
3
100
AcDbSymbolTableRecord
100
AcDbTextStyleTableRecord
  2
SLDTEXTSTYLE3
 70
     0
 40
0.0
 41
0.87
 50
0.0
 71
     0
 42
0.5
  3
ARIALN.TTF
  4

1001
ACAD
1000
Arial Narrow
1071
      290
  0
ENDTAB
  0
TABLE
  2
VIEW
  5
6
330
0
100
AcDbSymbolTable
 70
     0
  0
ENDTAB
  0
TABLE
  2
UCS
  5
7
330
0
100
AcDbSymbolTable
 70
     0
  0
ENDTAB
  0
TABLE
  2
APPID
  5
9
330
0
100
AcDbSymbolTable
 70
     1
  0
APPID
  5
12
330
9
100
AcDbSymbolTableRecord
100
AcDbRegAppTableRecord
  2
ACAD
 70
     0
  0
ENDTAB
  0
TABLE
  2
DIMSTYLE
  5
A
330
0
100
AcDbSymbolTable
 70
     4
100
AcDbDimStyleTable
  0
DIMSTYLE
105
27
330
A
100
AcDbSymbolTableRecord
100
AcDbDimStyleTableRecord
  2
Standard
 70
     0
340
11
  0
DIMSTYLE
105
21B
102
{ACAD_REACTORS
330
21A
330
27E
330
368
102
}
330
A
100
AcDbSymbolTableRecord
100
AcDbDimStyleTableRecord
  2
SLDDIMSTYLE0
 70
     0
 41
0.3
 44
0.0
 45
0.000000001
 78
    12
 79
     3
140
0.5
147
0.125
173
     1
271
     2
272
     2
276
     2
277
     5
284
    12
340
119
341
3F9
343
3F9
344
3F9
  0
DIMSTYLE
105
22C
102
{ACAD_REACTORS
330
22B
330
23B
330
26F
330
34A
330
359
330
373
102
}
330
A
100
AcDbSymbolTableRecord
100
AcDbDimStyleTableRecord
  2
SLDDIMSTYLE1
 70
     0
 41
0.3
 44
0.0
 45
0.000000001
 78
    12
 79
     3
140
0.5
147
0.125
173
     1
271
     6
272
     2
276
     2
277
     5
284
    12
340
119
341
3F9
343
3F9
344
3F9
  0
DIMSTYLE
105
383
102
{ACAD_REACTORS
330
382
102
}
330
A
100
AcDbSymbolTableRecord
100
AcDbDimStyleTableRecord
  2
SLDDIMSTYLE2
 70
     0
 41
0.3
 44
0.0
 45
0.000000001
 78
    12
 79
     3
140
0.5
141
0.0
147
0.125
173
     1
271
     2
272
     2
276
     2
277
     5
284
    12
340
119
341
3F9
343
3F9
344
3F9
  0
ENDTAB
  0
TABLE
  2
BLOCK_RECORD
  5
1
330
0
100
AcDbSymbolTable
 70
    16
  0
BLOCK_RECORD
  5
1F
330
1
100
AcDbSymbolTableRecord
100
AcDbBlockTableRecord
  2
*Model_Space
340
22
  0
BLOCK_RECORD
  5
73
330
1
100
AcDbSymbolTableRecord
100
AcDbBlockTableRecord
  2
*Paper_Space
340
74
  0
BLOCK_RECORD
  5
3F9
330
1
100
AcDbSymbolTableRecord
100
AcDbBlockTableRecord
  2
_Open90
340
0
102
{BLKREFS
331
225
331
226
331
230
331
231
331
23F
331
240
331
273
331
274
331
282
331
283
331
34E
331
34F
331
35D
331
35E
331
36C
331
36D
331
377
331
378
331
387
102
}
  0
BLOCK_RECORD
  5
23
330
1
100
AcDbSymbolTableRecord
100
AcDbBlockTableRecord
  2
*Paper_Space1
340
26
  0
BLOCK_RECORD
  5
11B
330
1
100
AcDbSymbolTableRecord
100
AcDbBlockTableRecord
  2
SW_NOTE_0
340
0
102
{BLKREFS
331
120
102
}
  0
BLOCK_RECORD
  5
12A
330
1
100
AcDbSymbolTableRecord
100
AcDbBlockTableRecord
  2
SW_NOTE_0_1
340
0
  0
BLOCK_RECORD
  5
130
330
1
100
AcDbSymbolTableRecord
100
AcDbBlockTableRecord
  2
SW_NOTE_0_2
340
0
102
{BLKREFS
331
139
102
}
  0
BLOCK_RECORD
  5
222
330
1
100
AcDbSymbolTableRecord
100
AcDbBlockTableRecord
  2
_D
340
0
  0
BLOCK_RECORD
  5
22D
330
1
100
AcDbSymbolTableRecord
100
AcDbBlockTableRecord
  2
_D_1
340
0
  0
BLOCK_RECORD
  5
23C
330
1
100
AcDbSymbolTableRecord
100
AcDbBlockTableRecord
  2
_D_2
340
0
  0
BLOCK_RECORD
  5
270
330
1
100
AcDbSymbolTableRecord
100
AcDbBlockTableRecord
  2
_D_3
340
0
  0
BLOCK_RECORD
  5
27F
330
1
100
AcDbSymbolTableRecord
100
AcDbBlockTableRecord
  2
_D_4
340
0
  0
BLOCK_RECORD
  5
34B
330
1
100
AcDbSymbolTableRecord
100
AcDbBlockTableRecord
  2
_D_5
340
0
  0
BLOCK_RECORD
  5
35A
330
1
100
AcDbSymbolTableRecord
100
AcDbBlockTableRecord
  2
_D_6
340
0
  0
BLOCK_RECORD
  5
369
330
1
100
AcDbSymbolTableRecord
100
AcDbBlockTableRecord
  2
_D_7
340
0
  0
BLOCK_RECORD
  5
374
330
1
100
AcDbSymbolTableRecord
100
AcDbBlockTableRecord
  2
_D_8
340
0
  0
BLOCK_RECORD
  5
384
330
1
100
AcDbSymbolTableRecord
100
AcDbBlockTableRecord
  2
_D_9
340
0
  0
BLOCK_RECORD
  5
3E4
330
1
100
AcDbSymbolTableRecord
100
AcDbBlockTableRecord
  2
SW_NOTE_0_3
340
0
102
{BLKREFS
331
3E9
102
}
  0
ENDTAB
  0
ENDSEC
  0
SECTION
  2
BLOCKS
  0
BLOCK
  5
20
330
1F
100
AcDbEntity
  8
0
100
AcDbBlockBegin
  2
*Model_Space
 70
     0
 71
     0
 10
0.0
 20
0.0
 30
0.0
  3
*Model_Space
  1

  0
ENDBLK
  5
21
330
1F
100
AcDbEntity
  8
0
100
AcDbBlockEnd
  0
BLOCK
  5
75
330
73
100
AcDbEntity
 67
     1
  8
0
100
AcDbBlockBegin
  2
*Paper_Space
 70
     0
 71
     0
 10
0.0
 20
0.0
 30
0.0
  3
*Paper_Space
  1

  0
ENDBLK
  5
76
330
73
100
AcDbEntity
 67
     1
  8
0
100
AcDbBlockEnd
  0
BLOCK
  5
3FA
330
3F9
100
AcDbEntity
  8
0
100
AcDbBlockBegin
  2
_Open90
 70
     0
 71
     0
 10
0.0
 20
0.0
 30
0.0
  3
_Open90
  1

  0
LINE
  5
21F
330
3F9
100
AcDbEntity
  8
0
  6
ByBlock
 62
     0
370
    -2
100
AcDbLine
 10
-0.5
 20
0.5
 30
0.0
 11
0.0
 21
0.0
 31
0.0
  0
LINE
  5
220
330
3F9
100
AcDbEntity
  8
0
  6
ByBlock
 62
     0
370
    -2
100
AcDbLine
 10
0.0
 20
0.0
 30
0.0
 11
-0.5
 21
-0.5
 31
0.0
  0
LINE
  5
221
330
3F9
100
AcDbEntity
  8
0
  6
ByBlock
 62
     0
370
    -2
100
AcDbLine
 10
0.0
 20
0.0
 30
0.0
 11
-1.0
 21
0.0
 31
0.0
  0
ENDBLK
  5
3FB
330
3F9
100
AcDbEntity
  8
0
100
AcDbBlockEnd
  0
BLOCK
  5
402
330
23
100
AcDbEntity
  8
0
100
AcDbBlockBegin
  2
*Paper_Space1
 70
     0
 71
     0
 10
0.0
 20
0.0
 30
0.0
  3
*Paper_Space1
  1

  0
ENDBLK
  5
403
330
23
100
AcDbEntity
  8
0
100
AcDbBlockEnd
  0
BLOCK
  5
404
330
11B
100
AcDbEntity
  8
0
100
AcDbBlockBegin
  2
SW_NOTE_0
 70
     0
 71
     0
 10
0.0
 20
0.0
 30
0.0
  3
SW_NOTE_0
  1

  0
MTEXT
  5
11E
330
11B
100
AcDbEntity
  8
DIMS
 62
     0
100
AcDbMText
 10
0.0
 20
0.6386718750000004
 30
0.0
 40
0.5
 41
0.0
 71
     1
 72
     1
  1
(1220mm) bottom of mirror from floor. Positions may 
  7
SLDTEXTSTYLE0
 73
     1
 44
1.0
  0
MTEXT
  5
11F
330
11B
100
AcDbEntity
  8
DIMS
 62
     0
100
AcDbMText
 10
0.0
 20
-0.0078559229223743
 30
0.0
 40
0.5
 41
0.0
 71
     1
 72
     1
  1
vary depending on size and the type of installation
  7
SLDTEXTSTYLE0
 73
     1
 44
1.0
  0
ENDBLK
  5
405
330
11B
100
AcDbEntity
  8
0
100
AcDbBlockEnd
  0
BLOCK
  5
406
330
12A
100
AcDbEntity
  8
0
100
AcDbBlockBegin
  2
SW_NOTE_0_1
 70
     0
 71
     0
 10
0.0
 20
0.0
 30
0.0
  3
SW_NOTE_0_1
  1

  0
MTEXT
  5
12D
330
12A
100
AcDbEntity
  8
NOTES
 62
     0
100
AcDbMText
 10
0.0
 20
0.3759780907668229
 30
0.0
 40
0.2916666666666666
 41
0.0
 71
     1
 72
     1
  1
FROST PRODUCTS LTD.
  7
SLDTEXTSTYLE1
 73
     1
 44
1.0
  0
MTEXT
  5
12E
330
12A
100
AcDbEntity
  8
NOTES
 62
     0
100
AcDbMText
 10
0.0
 20
-0.0495142708586375
 30
0.0
 40
0.2291666666666666
 41
0.0
 71
     1
 72
     1
  1
5280 JOHN LUCUS DRIVE, BURLINGTON, ON, L7L 5Z9
  7
SLDTEXTSTYLE1
 73
     1
 44
1.0
  0
ENDBLK
  5
407
330
12A
100
AcDbEntity
  8
0
100
AcDbBlockEnd
  0
BLOCK
  5
408
330
130
100
AcDbEntity
  8
0
100
AcDbBlockBegin
  2
SW_NOTE_0_2
 70
     0
 71
     0
 10
0.0
 20
0.0
 30
0.0
  3
SW_NOTE_0_2
  1

  0
MTEXT
  5
134
330
130
100
AcDbEntity
  8
NOTES
 62
     0
100
AcDbMText
 10
0.0
 20
0.2381282770514712
 30
0.0
 40
0.1847290640394089
 41
0.0
 71
     1
 72
     1
  1
PROPRIETARY AND CONFIDENTIAL
  7
SLDTEXTSTYLE2
 73
     1
 44
1.0
  0
MTEXT
  5
136
330
130
100
AcDbEntity
  8
NOTES
 62
     0
100
AcDbMText
 10
0.0
 20
-0.0504364795553608
 30
0.0
 40
0.25
 41
0.0
 71
     1
 72
     1
  1
THE INFORMATION CONTAINED IN THIS DRAWING IS THE SOLE PROPERTY OF 
  7
SLDTEXTSTYLE3
 73
     1
 44
1.0
  0
MTEXT
  5
137
330
130
100
AcDbEntity
  8
NOTES
 62
     0
100
AcDbMText
 10
0.0
 20
-0.4231398940537119
 30
0.0
 40
0.25
 41
0.0
 71
     1
 72
     1
  1
FROST PRODUCTS LTD.  ANY REPRODUCTION IN PART OR AS A WHOLE WITHOUT 
  7
SLDTEXTSTYLE3
 73
     1
 44
1.0
  0
MTEXT
  5
138
330
130
100
AcDbEntity
  8
NOTES
 62
     0
100
AcDbMText
 10
0.0
 20
-0.7958433085520636
 30
0.0
 40
0.25
 41
0.0
 71
     1
 72
     1
  1
THE WRITTEN PERMISSION OF FROST PRODUCTS LTD. IS PROHIBITED.
  7
SLDTEXTSTYLE3
 73
     1
 44
1.0
  0
ENDBLK
  5
409
330
130
100
AcDbEntity
  8
0
100
AcDbBlockEnd
  0
BLOCK
  5
40A
330
222
100
AcDbEntity
  8
0
100
AcDbBlockBegin
  2
_D
 70
     0
 71
     0
 10
0.0
 20
0.0
 30
0.0
  3
_D
  1

  0
INSERT
  5
225
330
222
100
AcDbEntity
  8
DIMS
100
AcDbBlockReference
  2
_Open90
 10
2.308830909647386
 20
3.860369623504652
 30
-0.0000000000003369
 41
0.3
 42
0.3
 50
270.0000000000004
  0
INSERT
  5
226
330
222
100
AcDbEntity
  8
DIMS
100
AcDbBlockReference
  2
_Open90
 10
2.308830909647386
 20
9.860369623504651
 30
-0.0000000000003369
 41
0.3
 42
0.3
 50
90.00000000000041
  0
LINE
  5
227
330
222
100
AcDbEntity
  8
DIMS
100
AcDbLine
 10
3.327911748880349
 20
9.860369623504651
 30
0.0
 11
1.933830909647386
 21
9.860369623504651
 31
0.0
  0
LINE
  5
228
330
222
100
AcDbEntity
  8
DIMS
100
AcDbLine
 10
2.308830909647386
 20
9.860369623504651
 30
0.0
 11
2.308830909647386
 21
6.797865427353228
 31
0.0
  0
MTEXT
  5
229
330
222
100
AcDbEntity
  8
DIMS
100
AcDbMText
 10
1.836261482143071
 20
6.642787333487269
 30
0.0
 40
0.5
 41
0.0
 71
     1
 72
     1
  1
48"
  7
SLDTEXTSTYLE0
 73
     1
 44
1.0
  0
MTEXT
  5
22A
330
222
100
AcDbEntity
  8
DIMS
100
AcDbMText
 10
2.216469798277492
 20
4.261537261891296
 30
0.0
 40
0.5
 41
0.0
 71
     1
 72
     1
  1
 
  7
SLDTEXTSTYLE0
 73
     1
 44
1.0
  0
ENDBLK
  5
40B
330
222
100
AcDbEntity
  8
0
100
AcDbBlockEnd
  0
BLOCK
  5
40C
330
22D
100
AcDbEntity
  8
0
100
AcDbBlockBegin
  2
_D_1
 70
     0
 71
     0
 10
0.0
 20
0.0
 30
0.0
  3
_D_1
  1

  0
INSERT
  5
230
330
22D
100
AcDbEntity
  8
DIMS
100
AcDbBlockReference
  2
_Open90
 10
27.45567696805772
 20
46.94789080376982
 30
1.738706823369694
 41
0.3
 42
0.3
 50
359.9999999999965
  0
INSERT
  5
231
330
22D
100
AcDbEntity
  8
DIMS
100
AcDbBlockReference
  2
_Open90
 10
3.412809260686311
 20
46.94789080377146
 30
1.738706823369694
 41
0.3
 42
0.3
 50
179.9999999999965
  0
LINE
  5
232
330
22D
100
AcDbEntity
  8
DIMS
100
AcDbLine
 10
15.25785419369846
 20
46.99917550215876
 30
0.0
 11
16.14327088862258
 21
46.99917550215876
 31
0.0
  0
LINE
  5
233
330
22D
100
AcDbEntity
  8
DIMS
100
AcDbLine
 10
27.45567696805767
 20
46.15369659720886
 30
0.0
 11
27.45567696805775
 21
47.32289080376982
 31
0.0
  0
LINE
  5
234
330
22D
100
AcDbEntity
  8
DIMS
100
AcDbLine
 10
3.412809260686256
 20
46.15369659720876
 30
0.0
 11
3.412809260686336
 21
47.32289080377146
 31
0.0
  0
LINE
  5
235
330
22D
100
AcDbEntity
  8
DIMS
100
AcDbLine
 10
27.45567696805772
 20
46.94789080376982
 30
0.0
 11
16.42278482798703
 21
46.94789080377058
 31
0.0
  0
LINE
  5
236
330
22D
100
AcDbEntity
  8
DIMS
100
AcDbLine
 10
3.412809260686311
 20
46.94789080377146
 30
0.0
 11
14.44570140075683
 21
46.9478908037707
 31
0.0
  0
MTEXT
  5
237
330
22D
100
AcDbEntity
  8
DIMS
100
AcDbMText
 10
14.44570140075683
 20
47.22857656259013
 30
0.0
 40
0.5
 41
0.0
 71
     1
 72
     1
  1
24
  7
SLDTEXTSTYLE0
 73
     1
 44
1.0
  0
MTEXT
  5
238
330
22D
100
AcDbEntity
  8
DIMS
100
AcDbMText
 10
15.51584031842073
 20
47.59388906163564
 30
0.0
 40
0.5
 41
0.0
 71
     1
 72
     1
  1
1
  7
SLDTEXTSTYLE0
 73
     1
 44
1.0
  0
MTEXT
  5
239
330
22D
100
AcDbEntity
  8
DIMS
100
AcDbMText
 10
15.33111809568095
 20
46.93270848308759
 30
0.0
 40
0.5
 41
0.0
 71
     1
 72
     1
  1
16
  7
SLDTEXTSTYLE0
 73
     1
 44
1.0
  0
MTEXT
  5
23A
330
22D
100
AcDbEntity
  8
DIMS
100
AcDbMText
 10
16.21653486393755
 20
47.22857656259013
 30
0.0
 40
0.5
 41
0.0
 71
     1
 72
     1
  1
"
  7
SLDTEXTSTYLE0
 73
     1
 44
1.0
  0
ENDBLK
  5
40D
330
22D
100
AcDbEntity
  8
0
100
AcDbBlockEnd
  0
BLOCK
  5
40E
330
23C
100
AcDbEntity
  8
0
100
AcDbBlockBegin
  2
_D_2
 70
     0
 71
     0
 10
0.0
 20
0.0
 30
0.0
  3
_D_2
  1

  0
INSERT
  5
23F
330
23C
100
AcDbEntity
  8
DIMS
100
AcDbBlockReference
  2
_Open90
 10
2.308830909647445
 20
46.07339491112055
 30
1.738706823369694
 41
0.3
 42
0.3
 50
90.00000000000021
  0
INSERT
  5
240
330
23C
100
AcDbEntity
  8
DIMS
100
AcDbBlockReference
  2
_Open90
 10
2.308830909647326
 20
9.860579971185945
 30
1.738706823369694
 41
0.3
 42
0.3
 50
270.0000000000002
  0
LINE
  5
241
330
23C
100
AcDbEntity
  8
DIMS
100
AcDbLine
 10
2.132441988973898
 20
28.01945484760789
 30
0.0
 11
3.017858683898016
 21
28.01945484760789
 31
0.0
  0
LINE
  5
242
330
23C
100
AcDbEntity
  8
DIMS
100
AcDbLine
 10
3.332526447705282
 20
46.07339491112055
 30
0.0
 11
1.933830909647445
 21
46.07339491112055
 31
0.0
  0
LINE
  5
243
330
23C
100
AcDbEntity
  8
DIMS
100
AcDbLine
 10
3.327826447705262
 20
9.860579971185942
 30
0.0
 11
1.933830909647326
 21
9.860579971185947
 31
0.0
  0
LINE
  5
244
330
23C
100
AcDbEntity
  8
DIMS
100
AcDbLine
 10
2.308830909647445
 20
46.07339491112055
 30
0.0
 11
2.308830909647388
 21
28.62202430250747
 31
0.0
  0
LINE
  5
245
330
23C
100
AcDbEntity
  8
DIMS
100
AcDbLine
 10
2.308830909647326
 20
9.860579971185945
 30
0.0
 11
2.308830909647384
 21
27.31431599593209
 31
0.0
  0
MTEXT
  5
246
330
23C
100
AcDbEntity
  8
DIMS
100
AcDbMText
 10
1.320289196032266
 20
28.24885590803926
 30
0.0
 40
0.5
 41
0.0
 71
     1
 72
     1
  1
36
  7
SLDTEXTSTYLE0
 73
     1
 44
1.0
  0
MTEXT
  5
247
330
23C
100
AcDbEntity
  8
DIMS
100
AcDbMText
 10
2.390428113696171
 20
28.61416840708477
 30
0.0
 40
0.5
 41
0.0
 71
     1
 72
     1
  1
3
  7
SLDTEXTSTYLE0
 73
     1
 44
1.0
  0
MTEXT
  5
248
330
23C
100
AcDbEntity
  8
DIMS
100
AcDbMText
 10
2.205705890956384
 20
27.95298782853673
 30
0.0
 40
0.5
 41
0.0
 71
     1
 72
     1
  1
16
  7
SLDTEXTSTYLE0
 73
     1
 44
1.0
  0
MTEXT
  5
249
330
23C
100
AcDbEntity
  8
DIMS
100
AcDbMText
 10
3.091122659212988
 20
28.24885590803926
 30
0.0
 40
0.5
 41
0.0
 71
     1
 72
     1
  1
"
  7
SLDTEXTSTYLE0
 73
     1
 44
1.0
  0
ENDBLK
  5
40F
330
23C
100
AcDbEntity
  8
0
100
AcDbBlockEnd
  0
BLOCK
  5
410
330
270
100
AcDbEntity
  8
0
100
AcDbBlockBegin
  2
_D_3
 70
     0
 71
     0
 10
0.0
 20
0.0
 30
0.0
  3
_D_3
  1

  0
INSERT
  5
273
330
270
100
AcDbEntity
  8
DIMS
100
AcDbBlockReference
  2
_Open90
 10
35.30466859310682
 20
46.94789080377063
 30
-0.8889006933977726
 41
0.3
 42
0.3
 50
0.0000000000004071
  0
INSERT
  5
274
330
270
100
AcDbEntity
  8
DIMS
100
AcDbBlockReference
  2
_Open90
 10
31.33922201516219
 20
46.94789080377063
 30
-0.8889006933977726
 41
0.3
 42
0.3
 50
180.0000000000004
  0
LINE
  5
275
330
270
100
AcDbEntity
  8
DIMS
100
AcDbLine
 10
32.9608341973875
 20
46.99917550215875
 30
0.0
 11
33.84625089231162
 21
46.99917550215875
 31
0.0
  0
LINE
  5
276
330
270
100
AcDbEntity
  8
DIMS
100
AcDbLine
 10
35.30466859310682
 20
46.12528123751854
 30
0.0
 11
35.30466859310682
 21
47.32289080377063
 31
0.0
  0
LINE
  5
277
330
270
100
AcDbEntity
  8
DIMS
100
AcDbLine
 10
31.33922201516219
 20
45.78667102607912
 30
0.0
 11
31.33922201516219
 21
47.32289080377063
 31
0.0
  0
LINE
  5
278
330
270
100
AcDbEntity
  8
DIMS
100
AcDbLine
 10
35.30466859310682
 20
46.94789080377063
 30
0.0
 11
34.12576475834355
 21
46.94789080377063
 31
0.0
  0
LINE
  5
279
330
270
100
AcDbEntity
  8
DIMS
100
AcDbLine
 10
31.33922201516219
 20
46.94789080377063
 30
0.0
 11
32.51812584992545
 21
46.94789080377063
 31
0.0
  0
MTEXT
  5
27A
330
270
100
AcDbEntity
  8
DIMS
100
AcDbMText
 10
32.51812584992544
 20
47.22857656259012
 30
0.0
 40
0.5
 41
0.0
 71
     1
 72
     1
  1
3
  7
SLDTEXTSTYLE0
 73
     1
 44
1.0
  0
MTEXT
  5
27B
330
270
100
AcDbEntity
  8
DIMS
100
AcDbMText
 10
33.03409809936998
 20
47.59388906163562
 30
0.0
 40
0.5
 41
0.0
 71
     1
 72
     1
  1
15
  7
SLDTEXTSTYLE0
 73
     1
 44
1.0
  0
MTEXT
  5
27C
330
270
100
AcDbEntity
  8
DIMS
100
AcDbMText
 10
33.03409809936998
 20
46.93270848308759
 30
0.0
 40
0.5
 41
0.0
 71
     1
 72
     1
  1
16
  7
SLDTEXTSTYLE0
 73
     1
 44
1.0
  0
MTEXT
  5
27D
330
270
100
AcDbEntity
  8
DIMS
100
AcDbMText
 10
33.9195147942941
 20
47.22857656259012
 30
0.0
 40
0.5
 41
0.0
 71
     1
 72
     1
  1
"
  7
SLDTEXTSTYLE0
 73
     1
 44
1.0
  0
ENDBLK
  5
411
330
270
100
AcDbEntity
  8
0
100
AcDbBlockEnd
  0
BLOCK
  5
412
330
27F
100
AcDbEntity
  8
0
100
AcDbBlockBegin
  2
_D_4
 70
     0
 71
     0
 10
0.0
 20
0.0
 30
0.0
  3
_D_4
  1

  0
INSERT
  5
282
330
27F
100
AcDbEntity
  8
DIMS
100
AcDbBlockReference
  2
_Open90
 10
29.23574033897121
 20
45.46864172593811
 30
-0.8889006933977726
 41
0.3
 42
0.3
 50
95.42853354111033
  0
INSERT
  5
283
330
27F
100
AcDbEntity
  8
DIMS
100
AcDbBlockReference
  2
_Open90
 10
32.63896185508152
 20
9.656682882525255
 30
-0.8889006933977726
 41
0.3
 42
0.3
 50
275.4285335411104
  0
LINE
  5
284
330
27F
100
AcDbEntity
  8
DIMS
100
AcDbLine
 10
31.2154217825283
 20
45.65677146531419
 30
0.0
 11
28.86242222341663
 21
45.43316519004784
 31
0.0
  0
LINE
  5
285
330
27F
100
AcDbEntity
  8
DIMS
100
AcDbLine
 10
34.61864329863828
 20
9.844812621901292
 30
0.0
 11
32.26564373952694
 21
9.621206346634986
 31
0.0
  0
LINE
  5
286
330
27F
100
AcDbEntity
  8
DIMS
100
AcDbLine
 10
29.23574033897121
 20
45.46864172593811
 30
0.0
 11
30.89963594199334
 21
27.95953731616434
 31
0.0
  0
LINE
  5
287
330
27F
100
AcDbEntity
  8
DIMS
100
AcDbLine
 10
32.63896185508152
 20
9.656682882525255
 30
0.0
 11
30.9750662520594
 21
27.16578729229902
 31
0.0
  0
MTEXT
  5
288
330
27F
100
AcDbEntity
  8
DIMS
100
AcDbMText
 10
30.46478166952206
 20
27.80445922229837
 30
0.0
 40
0.5
 41
0.0
 71
     1
 72
     1
  1
36"
  7
SLDTEXTSTYLE0
 73
     1
 44
1.0
  0
ENDBLK
  5
413
330
27F
100
AcDbEntity
  8
0
100
AcDbBlockEnd
  0
BLOCK
  5
414
330
34B
100
AcDbEntity
  8
0
100
AcDbBlockBegin
  2
_D_5
 70
     0
 71
     0
 10
0.0
 20
0.0
 30
0.0
  3
_D_5
  1

  0
INSERT
  5
34E
330
34B
100
AcDbEntity
  8
DIMS
100
AcDbBlockReference
  2
_Open90
 10
41.62431182874464
 20
46.94789080377066
 30
-1.738706823369688
 41
0.3
 42
0.3
 50
180.0000000000002
  0
INSERT
  5
34F
330
34B
100
AcDbEntity
  8
DIMS
100
AcDbBlockReference
  2
_Open90
 10
64.79820528838054
 20
46.94789080377058
 30
-1.738706823369688
 41
0.3
 42
0.3
 50
0.0000000000002036
  0
LINE
  5
350
330
34B
100
AcDbEntity
  8
DIMS
100
AcDbLine
 10
53.03486963788912
 20
46.99917550215872
 30
0.0
 11
53.92028633281323
 21
46.99917550215872
 31
0.0
  0
LINE
  5
351
330
34B
100
AcDbEntity
  8
DIMS
100
AcDbLine
 10
41.62431182874462
 20
40.83015524382861
 30
0.0
 11
41.62431182874464
 21
47.32289080377066
 31
0.0
  0
LINE
  5
352
330
34B
100
AcDbEntity
  8
DIMS
100
AcDbLine
 10
64.79820528838053
 20
40.83015524382853
 30
0.0
 11
64.79820528838054
 21
47.32289080377058
 31
0.0
  0
LINE
  5
353
330
34B
100
AcDbEntity
  8
DIMS
100
AcDbLine
 10
41.62431182874464
 20
46.94789080377066
 30
0.0
 11
52.22271684494748
 21
46.94789080377063
 31
0.0
  0
LINE
  5
354
330
34B
100
AcDbEntity
  8
DIMS
100
AcDbLine
 10
64.79820528838054
 20
46.94789080377058
 30
0.0
 11
54.19980027217765
 21
46.94789080377062
 31
0.0
  0
MTEXT
  5
355
330
34B
100
AcDbEntity
  8
DIMS
100
AcDbMText
 10
52.22271684494748
 20
47.22857656259009
 30
0.0
 40
0.5
 41
0.0
 71
     1
 72
     1
  1
23
  7
SLDTEXTSTYLE0
 73
     1
 44
1.0
  0
MTEXT
  5
356
330
34B
100
AcDbEntity
  8
DIMS
100
AcDbMText
 10
53.29285576261139
 20
47.5938890616356
 30
0.0
 40
0.5
 41
0.0
 71
     1
 72
     1
  1
3
  7
SLDTEXTSTYLE0
 73
     1
 44
1.0
  0
MTEXT
  5
357
330
34B
100
AcDbEntity
  8
DIMS
100
AcDbMText
 10
53.1081335398716
 20
46.93270848308757
 30
0.0
 40
0.5
 41
0.0
 71
     1
 72
     1
  1
16
  7
SLDTEXTSTYLE0
 73
     1
 44
1.0
  0
MTEXT
  5
358
330
34B
100
AcDbEntity
  8
DIMS
100
AcDbMText
 10
53.99355030812821
 20
47.22857656259009
 30
0.0
 40
0.5
 41
0.0
 71
     1
 72
     1
  1
"
  7
SLDTEXTSTYLE0
 73
     1
 44
1.0
  0
ENDBLK
  5
415
330
34B
100
AcDbEntity
  8
0
100
AcDbBlockEnd
  0
BLOCK
  5
416
330
35A
100
AcDbEntity
  8
0
100
AcDbBlockBegin
  2
_D_6
 70
     0
 71
     0
 10
0.0
 20
0.0
 30
0.0
  3
_D_6
  1

  0
INSERT
  5
35D
330
35A
100
AcDbEntity
  8
DIMS
100
AcDbBlockReference
  2
_Open90
 10
40.32358356314444
 20
46.07373128800971
 30
-1.738706823369688
 41
0.3
 42
0.3
 50
90.00000000000021
  0
INSERT
  5
35E
330
35A
100
AcDbEntity
  8
DIMS
100
AcDbBlockReference
  2
_Open90
 10
40.32358356314442
 20
40.66348857716194
 30
-1.738706823369688
 41
0.3
 42
0.3
 50
270.0000000000002
  0
LINE
  5
35F
330
35A
100
AcDbEntity
  8
DIMS
100
AcDbLine
 10
39.96247245639742
 20
43.41989463097392
 30
0.0
 11
40.84788915132154
 21
43.41989463097392
 31
0.0
  0
LINE
  5
360
330
35A
100
AcDbEntity
  8
DIMS
100
AcDbLine
 10
41.10954189189589
 20
46.07373128800971
 30
0.0
 11
39.94858356314444
 21
46.07373128800971
 31
0.0
  0
LINE
  5
361
330
35A
100
AcDbEntity
  8
DIMS
100
AcDbLine
 10
41.45764516207795
 20
40.66348857716194
 30
0.0
 11
39.94858356314442
 21
40.66348857716194
 31
0.0
  0
LINE
  5
362
330
35A
100
AcDbEntity
  8
DIMS
100
AcDbLine
 10
40.32358356314444
 20
46.07373128800971
 30
0.0
 11
40.32358356314443
 21
44.0224640858735
 31
0.0
  0
LINE
  5
363
330
35A
100
AcDbEntity
  8
DIMS
100
AcDbLine
 10
40.32358356314442
 20
40.66348857716194
 30
0.0
 11
40.32358356314443
 21
42.71475577929812
 31
0.0
  0
MTEXT
  5
364
330
35A
100
AcDbEntity
  8
DIMS
100
AcDbMText
 10
39.51976410893536
 20
43.64929569140529
 30
0.0
 40
0.5
 41
0.0
 71
     1
 72
     1
  1
5
  7
SLDTEXTSTYLE0
 73
     1
 44
1.0
  0
MTEXT
  5
365
330
35A
100
AcDbEntity
  8
DIMS
100
AcDbMText
 10
40.22045858111969
 20
44.0146081904508
 30
0.0
 40
0.5
 41
0.0
 71
     1
 72
     1
  1
7
  7
SLDTEXTSTYLE0
 73
     1
 44
1.0
  0
MTEXT
  5
366
330
35A
100
AcDbEntity
  8
DIMS
100
AcDbMText
 10
40.03573635837991
 20
43.35342761190277
 30
0.0
 40
0.5
 41
0.0
 71
     1
 72
     1
  1
16
  7
SLDTEXTSTYLE0
 73
     1
 44
1.0
  0
MTEXT
  5
367
330
35A
100
AcDbEntity
  8
DIMS
100
AcDbMText
 10
40.92115305330402
 20
43.64929569140529
 30
0.0
 40
0.5
 41
0.0
 71
     1
 72
     1
  1
"
  7
SLDTEXTSTYLE0
 73
     1
 44
1.0
  0
ENDBLK
  5
417
330
35A
100
AcDbEntity
  8
0
100
AcDbBlockEnd
  0
BLOCK
  5
418
330
369
100
AcDbEntity
  8
0
100
AcDbBlockBegin
  2
_D_7
 70
     0
 71
     0
 10
0.0
 20
0.0
 30
0.0
  3
_D_7
  1

  0
INSERT
  5
36C
330
369
100
AcDbEntity
  8
DIMS
100
AcDbBlockReference
  2
_Open90
 10
40.32358291628424
 20
40.66348850067219
 30
-1.738706823369688
 41
0.3
 42
0.3
 50
90.00000336929567
  0
INSERT
  5
36D
330
369
100
AcDbEntity
  8
DIMS
100
AcDbBlockReference
  2
_Open90
 10
40.32358421000463
 20
18.6634226827649
 30
-1.738706823369688
 41
0.3
 42
0.3
 50
270.0000033692957
  0
LINE
  5
36E
330
369
100
AcDbEntity
  8
DIMS
100
AcDbLine
 10
41.45764516207795
 20
40.66348856736106
 30
0.0
 11
39.94858291628424
 21
40.66348847862021
 31
0.0
  0
LINE
  5
36F
330
369
100
AcDbEntity
  8
DIMS
100
AcDbLine
 10
41.45764645579833
 20
18.66342274945377
 30
0.0
 11
39.94858421000463
 21
18.66342266071292
 31
0.0
  0
LINE
  5
370
330
369
100
AcDbEntity
  8
DIMS
100
AcDbLine
 10
40.32358291628424
 20
40.66348850067219
 30
0.0
 11
40.32358353980607
 21
30.06033068014093
 31
0.0
  0
LINE
  5
371
330
369
100
AcDbEntity
  8
DIMS
100
AcDbLine
 10
40.32358421000463
 20
18.6634226827649
 30
0.0
 11
40.32358358648279
 21
29.26658065627561
 31
0.0
  0
MTEXT
  5
372
330
369
100
AcDbEntity
  8
DIMS
100
AcDbMText
 10
39.85101413564009
 20
29.90525258627498
 30
0.0
 40
0.5
 41
0.0
 71
     1
 72
     1
  1
22"
  7
SLDTEXTSTYLE0
 73
     1
 44
1.0
  0
ENDBLK
  5
419
330
369
100
AcDbEntity
  8
0
100
AcDbBlockEnd
  0
BLOCK
  5
41A
330
374
100
AcDbEntity
  8
0
100
AcDbBlockBegin
  2
_D_8
 70
     0
 71
     0
 10
0.0
 20
0.0
 30
0.0
  3
_D_8
  1

  0
INSERT
  5
377
330
374
100
AcDbEntity
  8
DIMS
100
AcDbBlockReference
  2
_Open90
 10
40.32358356314442
 20
18.66342275925465
 30
-1.738706823369688
 41
0.3
 42
0.3
 50
90.0000000000006
  0
INSERT
  5
378
330
374
100
AcDbEntity
  8
DIMS
100
AcDbBlockReference
  2
_Open90
 10
40.32358356314445
 20
9.860579971185858
 30
-1.738706823369688
 41
0.3
 42
0.3
 50
270.0000000000006
  0
LINE
  5
379
330
374
100
AcDbEntity
  8
DIMS
100
AcDbLine
 10
39.96247245639742
 20
14.31328606360837
 30
0.0
 11
40.84788915132154
 21
14.31328606360837
 31
0.0
  0
LINE
  5
37A
330
374
100
AcDbEntity
  8
DIMS
100
AcDbLine
 10
41.45764645579833
 20
18.66342275925465
 30
0.0
 11
39.94858356314442
 21
18.66342275925465
 31
0.0
  0
LINE
  5
37B
330
374
100
AcDbEntity
  8
DIMS
100
AcDbLine
 10
41.07834189189592
 20
9.86057997118586
 30
0.0
 11
39.94858356314445
 21
9.860579971185857
 31
0.0
  0
LINE
  5
37C
330
374
100
AcDbEntity
  8
DIMS
100
AcDbLine
 10
40.32358356314442
 20
18.66342275925465
 30
0.0
 11
40.32358356314443
 21
14.91585551850793
 31
0.0
  0
LINE
  5
37D
330
374
100
AcDbEntity
  8
DIMS
100
AcDbLine
 10
40.32358356314445
 20
9.860579971185858
 30
0.0
 11
40.32358356314443
 21
13.60814721193255
 31
0.0
  0
MTEXT
  5
37E
330
374
100
AcDbEntity
  8
DIMS
100
AcDbMText
 10
39.51976410893536
 20
14.54268712403975
 30
0.0
 40
0.5
 41
0.0
 71
     1
 72
     1
  1
8
  7
SLDTEXTSTYLE0
 73
     1
 44
1.0
  0
MTEXT
  5
37F
330
374
100
AcDbEntity
  8
DIMS
100
AcDbMText
 10
40.03573635837991
 20
14.90799962308525
 30
0.0
 40
0.5
 41
0.0
 71
     1
 72
     1
  1
13
  7
SLDTEXTSTYLE0
 73
     1
 44
1.0
  0
MTEXT
  5
380
330
374
100
AcDbEntity
  8
DIMS
100
AcDbMText
 10
40.03573635837991
 20
14.24681904453722
 30
0.0
 40
0.5
 41
0.0
 71
     1
 72
     1
  1
16
  7
SLDTEXTSTYLE0
 73
     1
 44
1.0
  0
MTEXT
  5
381
330
374
100
AcDbEntity
  8
DIMS
100
AcDbMText
 10
40.92115305330402
 20
14.54268712403975
 30
0.0
 40
0.5
 41
0.0
 71
     1
 72
     1
  1
"
  7
SLDTEXTSTYLE0
 73
     1
 44
1.0
  0
ENDBLK
  5
41B
330
374
100
AcDbEntity
  8
0
100
AcDbBlockEnd
  0
BLOCK
  5
41C
330
384
100
AcDbEntity
  8
0
100
AcDbBlockBegin
  2
_D_9
 70
     0
 71
     0
 10
0.0
 20
0.0
 30
0.0
  3
_D_9
  1

  0
INSERT
  5
387
330
384
100
AcDbEntity
  8
DIMS
100
AcDbBlockReference
  2
_Open90
 10
41.66852782033935
 20
18.57900714716181
 30
-1.738706823369688
 41
0.3
 42
0.3
 50
117.6443755671723
  0
LINE
  5
388
330
384
100
AcDbEntity
  8
DIMS
100
AcDbLine
 10
48.10078958946375
 20
8.50199991661806
 30
0.0
 11
48.98620628438787
 21
8.50199991661806
 31
0.0
  0
LINE
  5
389
330
384
100
AcDbEntity
  8
DIMS
100
AcDbLine
 10
41.66852782033935
 20
18.57900714716181
 30
0.0
 11
46.9734632051421
 21
8.45071521822994
 31
0.0
  0
LINE
  5
38A
330
384
100
AcDbEntity
  8
DIMS
100
AcDbLine
 10
46.9734632051421
 20
8.45071521822994
 30
0.0
 11
47.27346320514209
 21
8.45071521822994
 31
0.0
  0
MTEXT
  5
38B
330
384
100
AcDbEntity
  8
DIMS
100
AcDbMText
 10
47.27346320514208
 20
8.723762087794535
 30
0.0
 40
0.5
 41
0.0
 71
     1
 72
     1
  1
%%c
  7
SLDTEXTSTYLE0
 73
     1
 44
1.0
  0
MTEXT
  5
38C
330
384
100
AcDbEntity
  8
DIMS
100
AcDbMText
 10
48.35877571418602
 20
9.096713476094939
 30
0.0
 40
0.5
 41
0.0
 71
     1
 72
     1
  1
3
  7
SLDTEXTSTYLE0
 73
     1
 44
1.0
  0
MTEXT
  5
38D
330
384
100
AcDbEntity
  8
DIMS
100
AcDbMText
 10
48.17405349144624
 20
8.435532897546903
 30
0.0
 40
0.5
 41
0.0
 71
     1
 72
     1
  1
16
  7
SLDTEXTSTYLE0
 73
     1
 44
1.0
  0
MTEXT
  5
38E
330
384
100
AcDbEntity
  8
DIMS
100
AcDbMText
 10
49.05947018637035
 20
8.731400977049434
 30
0.0
 40
0.5
 41
0.0
 71
     1
 72
     1
  1
"
  7
SLDTEXTSTYLE0
 73
     1
 44
1.0
  0
MTEXT
  5
38F
330
384
100
AcDbEntity
  8
DIMS
100
AcDbMText
 10
49.26572015041984
 20
8.731400977049434
 30
0.0
 40
0.5
 41
0.0
 71
     1
 72
     1
  1
 mounting hole (4)
  7
SLDTEXTSTYLE0
 73
     1
 44
1.0
  0
ENDBLK
  5
41D
330
384
100
AcDbEntity
  8
0
100
AcDbBlockEnd
  0
BLOCK
  5
41E
330
3E4
100
AcDbEntity
  8
0
100
AcDbBlockBegin
  2
SW_NOTE_0_3
 70
     0
 71
     0
 10
0.0
 20
0.0
 30
0.0
  3
SW_NOTE_0_3
  1

  0
MTEXT
  5
3E7
330
3E4
100
AcDbEntity
  8
NOTES
 62
     0
100
AcDbMText
 10
0.0
 20
0.6386718750000004
 30
0.0
 40
0.5
 41
0.0
 71
     1
 72
     1
  1
3D view
  7
SLDTEXTSTYLE0
 73
     1
 44
1.0
  0
MTEXT
  5
3E8
330
3E4
100
AcDbEntity
  8
NOTES
 62
     0
100
AcDbMText
 10
0.0
 20
-0.3613281862472921
 30
0.0
 40
0.5
 41
0.0
 71
     1
 72
     1
  1
code 941-2436 FT
  7
SLDTEXTSTYLE0
 73
     1
 44
1.0
  0
ENDBLK
  5
41F
330
3E4
100
AcDbEntity
  8
0
100
AcDbBlockEnd
  0
ENDSEC
  0
SECTION
  2
ENTITIES
  0
LINE
  5
7A
330
1F
100
AcDbEntity
  8
TITLE
370
    50
100
AcDbLine
 10
77.51822302401258
 20
1.487611764461632
 30
0.0
 11
94.49998645119503
 21
1.487611764461632
 31
0.0
  0
LINE
  5
7B
330
1F
100
AcDbEntity
  8
TITLE
370
    50
100
AcDbLine
 10
94.49993174424402
 20
5.475360393555793
 30
0.0
 11
84.31053507231782
 21
5.475360393555791
 31
0.0
  0
LINE
  5
7C
330
1F
100
AcDbEntity
  8
TITLE
  6
SLD-Solid
370
    18
100
AcDbLine
 10
0.5
 20
0.5
 30
0.0
 11
0.5
 21
49.50000000000001
 31
0.0
  0
LINE
  5
7D
330
1F
100
AcDbEntity
  8
TITLE
  6
SLD-Solid
370
    18
100
AcDbLine
 10
0.5
 20
49.50000000000001
 30
0.0
 11
94.49999999999999
 21
49.50000000000001
 31
0.0
  0
LINE
  5
7E
330
1F
100
AcDbEntity
  8
TITLE
370
    50
100
AcDbLine
 10
77.51822302401258
 20
2.542787723103445
 30
0.0
 11
70.50597912026431
 21
2.542787723103443
 31
0.0
  0
LINE
  5
7F
330
1F
100
AcDbEntity
  8
TITLE
370
    50
100
AcDbLine
 10
77.51822302401258
 20
1.487611764461632
 30
0.0
 11
70.50597912026431
 21
1.487611764461631
 31
0.0
  0
LINE
  5
80
330
1F
100
AcDbEntity
  8
TITLE
  6
SLD-Solid
370
    18
100
AcDbLine
 10
94.49999999999999
 20
49.50000000000001
 30
0.0
 11
94.49999999999999
 21
0.5
 31
0.0
  0
LINE
  5
81
330
1F
100
AcDbEntity
  8
TITLE
  6
SLD-Solid
370
    18
100
AcDbLine
 10
94.49999999999999
 20
0.5
 30
0.0
 11
0.5
 21
0.5
 31
0.0
  0
LINE
  5
82
330
1F
100
AcDbEntity
  8
TITLE
370
    50
100
AcDbLine
 10
77.51822302401258
 20
1.487611764461632
 30
0.0
 11
77.51822302401258
 21
3.597963681745258
 31
0.0
  0
LINE
  5
83
330
1F
100
AcDbEntity
  8
TITLE
370
    50
100
AcDbLine
 10
70.50597912026431
 20
3.597963681745256
 30
0.0
 11
70.50597912026431
 21
0.5
 31
0.0
  0
LINE
  5
84
330
1F
100
AcDbEntity
  8
TITLE
370
    50
100
AcDbLine
 10
70.50597912026431
 20
0.5
 30
0.0
 11
94.49999999999999
 21
0.5
 31
0.0
  0
LINE
  5
85
330
1F
100
AcDbEntity
  8
TITLE
370
    50
100
AcDbLine
 10
94.49993174424402
 20
5.475360393555793
 30
0.0
 11
94.49999999999999
 21
0.5
 31
0.0
  0
LINE
  5
86
330
1F
100
AcDbEntity
  8
TITLE
  6
SLD-Solid
370
    18
100
AcDbLine
 10
0.4999606299212599
 20
25.0
 30
0.0
 11
0.5000393700787401
 21
25.0
 31
0.0
  0
LINE
  5
87
330
1F
100
AcDbEntity
  8
TITLE
370
    50
100
AcDbLine
 10
77.51822302401258
 20
3.597963681745258
 30
0.0
 11
70.50597912026431
 21
3.597963681745256
 31
0.0
  0
LINE
  5
88
330
1F
100
AcDbEntity
  8
TITLE
370
    50
100
AcDbLine
 10
77.51822302401258
 20
3.597963681745258
 30
0.0
 11
94.49976156426074
 21
3.597964834324632
 31
0.0
  0
LINE
  5
89
330
1F
100
AcDbEntity
  8
TITLE
370
    50
100
AcDbLine
 10
84.31053507231782
 20
5.475360393555791
 30
0.0
 11
84.31053507231782
 21
0.4636772425222311
 31
0.0
  0
LINE
  5
8A
330
1F
100
AcDbEntity
  8
TITLE
  6
SLD-Solid
370
    18
100
AcDbLine
 10
47.5
 20
49.50003937007874
 30
0.0
 11
47.5
 21
49.49996062992127
 31
0.0
  0
LINE
  5
8B
330
1F
100
AcDbEntity
  8
TITLE
  6
SLD-Solid
370
    18
100
AcDbLine
 10
94.50003937007874
 20
25.0
 30
0.0
 11
94.49996062992125
 21
25.0
 31
0.0
  0
LINE
  5
8C
330
1F
100
AcDbEntity
  8
TITLE
  6
SLD-Solid
370
    18
100
AcDbLine
 10
47.5
 20
0.4999606299212599
 30
0.0
 11
47.5
 21
0.5000393700787401
 31
0.0
  0
LINE
  5
8D
330
1F
100
AcDbEntity
  8
TITLE
  6
SLD-Solid
370
    18
100
AcDbLine
 10
0.5
 20
3.346456692913384
 30
0.0
 11
0.1653543307086614
 21
3.346456692913384
 31
0.0
  0
LINE
  5
8E
330
1F
100
AcDbEntity
  8
TITLE
  6
SLD-Solid
370
    18
100
AcDbLine
 10
94.49999999999999
 20
3.346456692913384
 30
0.0
 11
94.83464566929133
 21
3.346456692913384
 31
0.0
  0
LINE
  5
8F
330
1F
100
AcDbEntity
  8
TITLE
  6
SLD-Solid
370
    18
100
AcDbLine
 10
0.5
 20
5.31496062992126
 30
0.0
 11
0.1653543307086614
 21
5.31496062992126
 31
0.0
  0
LINE
  5
90
330
1F
100
AcDbEntity
  8
TITLE
  6
SLD-Solid
370
    18
100
AcDbLine
 10
94.49999999999999
 20
5.31496062992126
 30
0.0
 11
94.83464566929133
 21
5.31496062992126
 31
0.0
  0
LINE
  5
91
330
1F
100
AcDbEntity
  8
TITLE
  6
SLD-Solid
370
    18
100
AcDbLine
 10
0.5
 20
7.283464566929134
 30
0.0
 11
0.1653543307086614
 21
7.283464566929134
 31
0.0
  0
LINE
  5
420
330
1F
100
AcDbEntity
  8
TITLE
  6
SLD-Solid
370
    18
100
AcDbLine
 10
94.49999999999999
 20
7.283464566929134
 30
0.0
 11
94.83464566929133
 21
7.283464566929134
 31
0.0
  0
LINE
  5
421
330
1F
100
AcDbEntity
  8
TITLE
  6
SLD-Solid
370
    18
100
AcDbLine
 10
0.5
 20
9.251968503937007
 30
0.0
 11
0.1653543307086614
 21
9.251968503937007
 31
0.0
  0
LINE
  5
94
330
1F
100
AcDbEntity
  8
TITLE
  6
SLD-Solid
370
    18
100
AcDbLine
 10
94.49999999999999
 20
9.251968503937007
 30
0.0
 11
94.83464566929133
 21
9.251968503937007
 31
0.0
  0
LINE
  5
95
330
1F
100
AcDbEntity
  8
TITLE
  6
SLD-Solid
370
    18
100
AcDbLine
 10
0.5
 20
11.22047244094488
 30
0.0
 11
0.1653543307086614
 21
11.22047244094488
 31
0.0
  0
LINE
  5
96
330
1F
100
AcDbEntity
  8
TITLE
  6
SLD-Solid
370
    18
100
AcDbLine
 10
94.49999999999999
 20
11.22047244094488
 30
0.0
 11
94.83464566929133
 21
11.22047244094488
 31
0.0
  0
LINE
  5
422
330
1F
100
AcDbEntity
  8
TITLE
  6
SLD-Solid
370
    18
100
AcDbLine
 10
0.5
 20
13.18897637795276
 30
0.0
 11
0.1653543307086614
 21
13.18897637795276
 31
0.0
  0
LINE
  5
423
330
1F
100
AcDbEntity
  8
TITLE
  6
SLD-Solid
370
    18
100
AcDbLine
 10
94.49999999999999
 20
13.18897637795276
 30
0.0
 11
94.83464566929133
 21
13.18897637795276
 31
0.0
  0
LINE
  5
99
330
1F
100
AcDbEntity
  8
TITLE
  6
SLD-Solid
370
    18
100
AcDbLine
 10
0.5
 20
15.15748031496063
 30
0.0
 11
0.1653543307086614
 21
15.15748031496063
 31
0.0
  0
LINE
  5
9A
330
1F
100
AcDbEntity
  8
TITLE
  6
SLD-Solid
370
    18
100
AcDbLine
 10
94.49999999999999
 20
15.15748031496063
 30
0.0
 11
94.83464566929133
 21
15.15748031496063
 31
0.0
  0
LINE
  5
9B
330
1F
100
AcDbEntity
  8
TITLE
  6
SLD-Solid
370
    18
100
AcDbLine
 10
0.5
 20
17.1259842519685
 30
0.0
 11
0.1653543307086614
 21
17.1259842519685
 31
0.0
  0
LINE
  5
9C
330
1F
100
AcDbEntity
  8
TITLE
  6
SLD-Solid
370
    18
100
AcDbLine
 10
94.49999999999999
 20
17.1259842519685
 30
0.0
 11
94.83464566929133
 21
17.1259842519685
 31
0.0
  0
LINE
  5
9D
330
1F
100
AcDbEntity
  8
TITLE
  6
SLD-Solid
370
    18
100
AcDbLine
 10
0.5
 20
19.09448818897638
 30
0.0
 11
0.1653543307086614
 21
19.09448818897638
 31
0.0
  0
LINE
  5
9E
330
1F
100
AcDbEntity
  8
TITLE
  6
SLD-Solid
370
    18
100
AcDbLine
 10
94.49999999999999
 20
19.09448818897638
 30
0.0
 11
94.83464566929133
 21
19.09448818897638
 31
0.0
  0
LINE
  5
9F
330
1F
100
AcDbEntity
  8
TITLE
  6
SLD-Solid
370
    18
100
AcDbLine
 10
0.5
 20
21.06299212598426
 30
0.0
 11
0.1653543307086614
 21
21.06299212598426
 31
0.0
  0
LINE
  5
A0
330
1F
100
AcDbEntity
  8
TITLE
  6
SLD-Solid
370
    18
100
AcDbLine
 10
94.49999999999999
 20
21.06299212598426
 30
0.0
 11
94.83464566929133
 21
21.06299212598426
 31
0.0
  0
LINE
  5
A1
330
1F
100
AcDbEntity
  8
TITLE
  6
SLD-Solid
370
    18
100
AcDbLine
 10
0.5
 20
23.03149606299213
 30
0.0
 11
0.1653543307086614
 21
23.03149606299213
 31
0.0
  0
LINE
  5
A2
330
1F
100
AcDbEntity
  8
TITLE
  6
SLD-Solid
370
    18
100
AcDbLine
 10
94.49999999999999
 20
23.03149606299213
 30
0.0
 11
94.83464566929133
 21
23.03149606299213
 31
0.0
  0
LINE
  5
A3
330
1F
100
AcDbEntity
  8
TITLE
  6
SLD-Solid
370
    18
100
AcDbLine
 10
0.5
 20
25.0
 30
0.0
 11
0.1653543307086614
 21
25.0
 31
0.0
  0
LINE
  5
A4
330
1F
100
AcDbEntity
  8
TITLE
  6
SLD-Solid
370
    18
100
AcDbLine
 10
94.49999999999999
 20
25.0
 30
0.0
 11
94.83464566929133
 21
25.0
 31
0.0
  0
LINE
  5
A5
330
1F
100
AcDbEntity
  8
TITLE
  6
SLD-Solid
370
    18
100
AcDbLine
 10
0.5
 20
26.96850393700788
 30
0.0
 11
0.1653543307086614
 21
26.96850393700788
 31
0.0
  0
LINE
  5
A6
330
1F
100
AcDbEntity
  8
TITLE
  6
SLD-Solid
370
    18
100
AcDbLine
 10
94.49999999999999
 20
26.96850393700788
 30
0.0
 11
94.83464566929133
 21
26.96850393700788
 31
0.0
  0
LINE
  5
A7
330
1F
100
AcDbEntity
  8
TITLE
  6
SLD-Solid
370
    18
100
AcDbLine
 10
0.5
 20
28.93700787401575
 30
0.0
 11
0.1653543307086614
 21
28.93700787401575
 31
0.0
  0
LINE
  5
A8
330
1F
100
AcDbEntity
  8
TITLE
  6
SLD-Solid
370
    18
100
AcDbLine
 10
94.49999999999999
 20
28.93700787401575
 30
0.0
 11
94.83464566929133
 21
28.93700787401575
 31
0.0
  0
LINE
  5
A9
330
1F
100
AcDbEntity
  8
TITLE
  6
SLD-Solid
370
    18
100
AcDbLine
 10
0.5
 20
30.90551181102363
 30
0.0
 11
0.1653543307086614
 21
30.90551181102363
 31
0.0
  0
LINE
  5
AA
330
1F
100
AcDbEntity
  8
TITLE
  6
SLD-Solid
370
    18
100
AcDbLine
 10
94.49999999999999
 20
30.90551181102363
 30
0.0
 11
94.83464566929133
 21
30.90551181102363
 31
0.0
  0
LINE
  5
AB
330
1F
100
AcDbEntity
  8
TITLE
  6
SLD-Solid
370
    18
100
AcDbLine
 10
0.5
 20
32.8740157480315
 30
0.0
 11
0.1653543307086614
 21
32.8740157480315
 31
0.0
  0
LINE
  5
AC
330
1F
100
AcDbEntity
  8
TITLE
  6
SLD-Solid
370
    18
100
AcDbLine
 10
94.49999999999999
 20
32.8740157480315
 30
0.0
 11
94.83464566929133
 21
32.8740157480315
 31
0.0
  0
LINE
  5
AD
330
1F
100
AcDbEntity
  8
TITLE
  6
SLD-Solid
370
    18
100
AcDbLine
 10
0.5
 20
34.84251968503937
 30
0.0
 11
0.1653543307086614
 21
34.84251968503937
 31
0.0
  0
LINE
  5
AE
330
1F
100
AcDbEntity
  8
TITLE
  6
SLD-Solid
370
    18
100
AcDbLine
 10
94.49999999999999
 20
34.84251968503937
 30
0.0
 11
94.83464566929133
 21
34.84251968503937
 31
0.0
  0
LINE
  5
AF
330
1F
100
AcDbEntity
  8
TITLE
  6
SLD-Solid
370
    18
100
AcDbLine
 10
0.5
 20
36.81102362204724
 30
0.0
 11
0.1653543307086614
 21
36.81102362204724
 31
0.0
  0
LINE
  5
B0
330
1F
100
AcDbEntity
  8
TITLE
  6
SLD-Solid
370
    18
100
AcDbLine
 10
94.49999999999999
 20
36.81102362204724
 30
0.0
 11
94.83464566929133
 21
36.81102362204724
 31
0.0
  0
LINE
  5
B1
330
1F
100
AcDbEntity
  8
TITLE
  6
SLD-Solid
370
    18
100
AcDbLine
 10
0.5
 20
38.77952755905513
 30
0.0
 11
0.1653543307086614
 21
38.77952755905513
 31
0.0
  0
LINE
  5
B2
330
1F
100
AcDbEntity
  8
TITLE
  6
SLD-Solid
370
    18
100
AcDbLine
 10
94.49999999999999
 20
38.77952755905513
 30
0.0
 11
94.83464566929133
 21
38.77952755905513
 31
0.0
  0
LINE
  5
B3
330
1F
100
AcDbEntity
  8
TITLE
  6
SLD-Solid
370
    18
100
AcDbLine
 10
0.5
 20
40.748031496063
 30
0.0
 11
0.1653543307086614
 21
40.748031496063
 31
0.0
  0
LINE
  5
B4
330
1F
100
AcDbEntity
  8
TITLE
  6
SLD-Solid
370
    18
100
AcDbLine
 10
94.49999999999999
 20
40.748031496063
 30
0.0
 11
94.83464566929133
 21
40.748031496063
 31
0.0
  0
LINE
  5
B5
330
1F
100
AcDbEntity
  8
TITLE
  6
SLD-Solid
370
    18
100
AcDbLine
 10
0.5
 20
42.71653543307087
 30
0.0
 11
0.1653543307086614
 21
42.71653543307087
 31
0.0
  0
LINE
  5
B6
330
1F
100
AcDbEntity
  8
TITLE
  6
SLD-Solid
370
    18
100
AcDbLine
 10
94.49999999999999
 20
42.71653543307087
 30
0.0
 11
94.83464566929133
 21
42.71653543307087
 31
0.0
  0
LINE
  5
B7
330
1F
100
AcDbEntity
  8
TITLE
  6
SLD-Solid
370
    18
100
AcDbLine
 10
0.5
 20
44.68503937007874
 30
0.0
 11
0.1653543307086614
 21
44.68503937007874
 31
0.0
  0
LINE
  5
B8
330
1F
100
AcDbEntity
  8
TITLE
  6
SLD-Solid
370
    18
100
AcDbLine
 10
94.49999999999999
 20
44.68503937007874
 30
0.0
 11
94.83464566929133
 21
44.68503937007874
 31
0.0
  0
LINE
  5
B9
330
1F
100
AcDbEntity
  8
TITLE
  6
SLD-Solid
370
    18
100
AcDbLine
 10
0.5
 20
46.65354330708661
 30
0.0
 11
0.1653543307086614
 21
46.65354330708661
 31
0.0
  0
LINE
  5
BA
330
1F
100
AcDbEntity
  8
TITLE
  6
SLD-Solid
370
    18
100
AcDbLine
 10
94.49999999999999
 20
46.65354330708661
 30
0.0
 11
94.83464566929133
 21
46.65354330708661
 31
0.0
  0
LINE
  5
BB
330
1F
100
AcDbEntity
  8
TITLE
  6
SLD-Solid
370
    18
100
AcDbLine
 10
2.224409448818889
 20
49.50000000000001
 30
0.0
 11
2.224409448818889
 21
49.83464566929134
 31
0.0
  0
LINE
  5
BC
330
1F
100
AcDbEntity
  8
TITLE
  6
SLD-Solid
370
    18
100
AcDbLine
 10
2.224409448818889
 20
0.5
 30
0.0
 11
2.224409448818889
 21
0.1653543307086614
 31
0.0
  0
LINE
  5
BD
330
1F
100
AcDbEntity
  8
TITLE
  6
SLD-Solid
370
    18
100
AcDbLine
 10
4.192913385826764
 20
49.50000000000001
 30
0.0
 11
4.192913385826764
 21
49.83464566929134
 31
0.0
  0
LINE
  5
BE
330
1F
100
AcDbEntity
  8
TITLE
  6
SLD-Solid
370
    18
100
AcDbLine
 10
4.192913385826764
 20
0.5
 30
0.0
 11
4.192913385826764
 21
0.1653543307086614
 31
0.0
  0
LINE
  5
BF
330
1F
100
AcDbEntity
  8
TITLE
  6
SLD-Solid
370
    18
100
AcDbLine
 10
6.16141732283464
 20
49.50000000000001
 30
0.0
 11
6.16141732283464
 21
49.83464566929134
 31
0.0
  0
LINE
  5
C0
330
1F
100
AcDbEntity
  8
TITLE
  6
SLD-Solid
370
    18
100
AcDbLine
 10
6.16141732283464
 20
0.5
 30
0.0
 11
6.16141732283464
 21
0.1653543307086614
 31
0.0
  0
LINE
  5
C1
330
1F
100
AcDbEntity
  8
TITLE
  6
SLD-Solid
370
    18
100
AcDbLine
 10
8.129921259842517
 20
49.50000000000001
 30
0.0
 11
8.129921259842517
 21
49.83464566929134
 31
0.0
  0
LINE
  5
C2
330
1F
100
AcDbEntity
  8
TITLE
  6
SLD-Solid
370
    18
100
AcDbLine
 10
8.129921259842517
 20
0.5
 30
0.0
 11
8.129921259842517
 21
0.1653543307086614
 31
0.0
  0
LINE
  5
C3
330
1F
100
AcDbEntity
  8
TITLE
  6
SLD-Solid
370
    18
100
AcDbLine
 10
10.09842519685039
 20
49.50000000000001
 30
0.0
 11
10.09842519685039
 21
49.83464566929134
 31
0.0
  0
LINE
  5
C4
330
1F
100
AcDbEntity
  8
TITLE
  6
SLD-Solid
370
    18
100
AcDbLine
 10
10.09842519685039
 20
0.5
 30
0.0
 11
10.09842519685039
 21
0.1653543307086614
 31
0.0
  0
LINE
  5
C5
330
1F
100
AcDbEntity
  8
TITLE
  6
SLD-Solid
370
    18
100
AcDbLine
 10
12.06692913385826
 20
49.50000000000001
 30
0.0
 11
12.06692913385826
 21
49.83464566929134
 31
0.0
  0
LINE
  5
C6
330
1F
100
AcDbEntity
  8
TITLE
  6
SLD-Solid
370
    18
100
AcDbLine
 10
12.06692913385826
 20
0.5
 30
0.0
 11
12.06692913385826
 21
0.1653543307086614
 31
0.0
  0
LINE
  5
C7
330
1F
100
AcDbEntity
  8
TITLE
  6
SLD-Solid
370
    18
100
AcDbLine
 10
14.03543307086614
 20
49.50000000000001
 30
0.0
 11
14.03543307086614
 21
49.83464566929134
 31
0.0
  0
LINE
  5
C8
330
1F
100
AcDbEntity
  8
TITLE
  6
SLD-Solid
370
    18
100
AcDbLine
 10
14.03543307086614
 20
0.5
 30
0.0
 11
14.03543307086614
 21
0.1653543307086614
 31
0.0
  0
LINE
  5
C9
330
1F
100
AcDbEntity
  8
TITLE
  6
SLD-Solid
370
    18
100
AcDbLine
 10
16.00393700787401
 20
49.50000000000001
 30
0.0
 11
16.00393700787401
 21
49.83464566929134
 31
0.0
  0
LINE
  5
CA
330
1F
100
AcDbEntity
  8
TITLE
  6
SLD-Solid
370
    18
100
AcDbLine
 10
16.00393700787401
 20
0.5
 30
0.0
 11
16.00393700787401
 21
0.1653543307086614
 31
0.0
  0
LINE
  5
CB
330
1F
100
AcDbEntity
  8
TITLE
  6
SLD-Solid
370
    18
100
AcDbLine
 10
17.97244094488189
 20
49.50000000000001
 30
0.0
 11
17.97244094488189
 21
49.83464566929134
 31
0.0
  0
LINE
  5
CC
330
1F
100
AcDbEntity
  8
TITLE
  6
SLD-Solid
370
    18
100
AcDbLine
 10
17.97244094488189
 20
0.5
 30
0.0
 11
17.97244094488189
 21
0.1653543307086614
 31
0.0
  0
LINE
  5
CD
330
1F
100
AcDbEntity
  8
TITLE
  6
SLD-Solid
370
    18
100
AcDbLine
 10
19.94094488188976
 20
49.50000000000001
 30
0.0
 11
19.94094488188976
 21
49.83464566929134
 31
0.0
  0
LINE
  5
CE
330
1F
100
AcDbEntity
  8
TITLE
  6
SLD-Solid
370
    18
100
AcDbLine
 10
19.94094488188976
 20
0.5
 30
0.0
 11
19.94094488188976
 21
0.1653543307086614
 31
0.0
  0
LINE
  5
CF
330
1F
100
AcDbEntity
  8
TITLE
  6
SLD-Solid
370
    18
100
AcDbLine
 10
21.90944881889763
 20
49.50000000000001
 30
0.0
 11
21.90944881889763
 21
49.83464566929134
 31
0.0
  0
LINE
  5
D0
330
1F
100
AcDbEntity
  8
TITLE
  6
SLD-Solid
370
    18
100
AcDbLine
 10
21.90944881889763
 20
0.5
 30
0.0
 11
21.90944881889763
 21
0.1653543307086614
 31
0.0
  0
LINE
  5
D1
330
1F
100
AcDbEntity
  8
TITLE
  6
SLD-Solid
370
    18
100
AcDbLine
 10
23.8779527559055
 20
49.50000000000001
 30
0.0
 11
23.8779527559055
 21
49.83464566929134
 31
0.0
  0
LINE
  5
D2
330
1F
100
AcDbEntity
  8
TITLE
  6
SLD-Solid
370
    18
100
AcDbLine
 10
23.8779527559055
 20
0.5
 30
0.0
 11
23.8779527559055
 21
0.1653543307086614
 31
0.0
  0
LINE
  5
D3
330
1F
100
AcDbEntity
  8
TITLE
  6
SLD-Solid
370
    18
100
AcDbLine
 10
25.84645669291338
 20
49.50000000000001
 30
0.0
 11
25.84645669291338
 21
49.83464566929134
 31
0.0
  0
LINE
  5
D4
330
1F
100
AcDbEntity
  8
TITLE
  6
SLD-Solid
370
    18
100
AcDbLine
 10
25.84645669291338
 20
0.5
 30
0.0
 11
25.84645669291338
 21
0.1653543307086614
 31
0.0
  0
LINE
  5
D5
330
1F
100
AcDbEntity
  8
TITLE
  6
SLD-Solid
370
    18
100
AcDbLine
 10
27.81496062992126
 20
49.50000000000001
 30
0.0
 11
27.81496062992126
 21
49.83464566929134
 31
0.0
  0
LINE
  5
D6
330
1F
100
AcDbEntity
  8
TITLE
  6
SLD-Solid
370
    18
100
AcDbLine
 10
27.81496062992126
 20
0.5
 30
0.0
 11
27.81496062992126
 21
0.1653543307086614
 31
0.0
  0
LINE
  5
D7
330
1F
100
AcDbEntity
  8
TITLE
  6
SLD-Solid
370
    18
100
AcDbLine
 10
29.78346456692913
 20
49.50000000000001
 30
0.0
 11
29.78346456692913
 21
49.83464566929134
 31
0.0
  0
LINE
  5
D8
330
1F
100
AcDbEntity
  8
TITLE
  6
SLD-Solid
370
    18
100
AcDbLine
 10
29.78346456692913
 20
0.5
 30
0.0
 11
29.78346456692913
 21
0.1653543307086614
 31
0.0
  0
LINE
  5
D9
330
1F
100
AcDbEntity
  8
TITLE
  6
SLD-Solid
370
    18
100
AcDbLine
 10
31.751968503937
 20
49.50000000000001
 30
0.0
 11
31.751968503937
 21
49.83464566929134
 31
0.0
  0
LINE
  5
DA
330
1F
100
AcDbEntity
  8
TITLE
  6
SLD-Solid
370
    18
100
AcDbLine
 10
31.751968503937
 20
0.5
 30
0.0
 11
31.751968503937
 21
0.1653543307086614
 31
0.0
  0
LINE
  5
DB
330
1F
100
AcDbEntity
  8
TITLE
  6
SLD-Solid
370
    18
100
AcDbLine
 10
33.72047244094487
 20
49.50000000000001
 30
0.0
 11
33.72047244094487
 21
49.83464566929134
 31
0.0
  0
LINE
  5
DC
330
1F
100
AcDbEntity
  8
TITLE
  6
SLD-Solid
370
    18
100
AcDbLine
 10
33.72047244094487
 20
0.5
 30
0.0
 11
33.72047244094487
 21
0.1653543307086614
 31
0.0
  0
LINE
  5
DD
330
1F
100
AcDbEntity
  8
TITLE
  6
SLD-Solid
370
    18
100
AcDbLine
 10
35.68897637795275
 20
49.50000000000001
 30
0.0
 11
35.68897637795275
 21
49.83464566929134
 31
0.0
  0
LINE
  5
DE
330
1F
100
AcDbEntity
  8
TITLE
  6
SLD-Solid
370
    18
100
AcDbLine
 10
35.68897637795275
 20
0.5
 30
0.0
 11
35.68897637795275
 21
0.1653543307086614
 31
0.0
  0
LINE
  5
DF
330
1F
100
AcDbEntity
  8
TITLE
  6
SLD-Solid
370
    18
100
AcDbLine
 10
37.65748031496063
 20
49.50000000000001
 30
0.0
 11
37.65748031496063
 21
49.83464566929134
 31
0.0
  0
LINE
  5
E0
330
1F
100
AcDbEntity
  8
TITLE
  6
SLD-Solid
370
    18
100
AcDbLine
 10
37.65748031496063
 20
0.5
 30
0.0
 11
37.65748031496063
 21
0.1653543307086614
 31
0.0
  0
LINE
  5
E1
330
1F
100
AcDbEntity
  8
TITLE
  6
SLD-Solid
370
    18
100
AcDbLine
 10
39.6259842519685
 20
49.50000000000001
 30
0.0
 11
39.6259842519685
 21
49.83464566929134
 31
0.0
  0
LINE
  5
E2
330
1F
100
AcDbEntity
  8
TITLE
  6
SLD-Solid
370
    18
100
AcDbLine
 10
39.6259842519685
 20
0.5
 30
0.0
 11
39.6259842519685
 21
0.1653543307086614
 31
0.0
  0
LINE
  5
E3
330
1F
100
AcDbEntity
  8
TITLE
  6
SLD-Solid
370
    18
100
AcDbLine
 10
41.59448818897637
 20
49.50000000000001
 30
0.0
 11
41.59448818897637
 21
49.83464566929134
 31
0.0
  0
LINE
  5
E4
330
1F
100
AcDbEntity
  8
TITLE
  6
SLD-Solid
370
    18
100
AcDbLine
 10
41.59448818897637
 20
0.5
 30
0.0
 11
41.59448818897637
 21
0.1653543307086614
 31
0.0
  0
LINE
  5
E5
330
1F
100
AcDbEntity
  8
TITLE
  6
SLD-Solid
370
    18
100
AcDbLine
 10
43.56299212598424
 20
49.50000000000001
 30
0.0
 11
43.56299212598424
 21
49.83464566929134
 31
0.0
  0
LINE
  5
E6
330
1F
100
AcDbEntity
  8
TITLE
  6
SLD-Solid
370
    18
100
AcDbLine
 10
43.56299212598424
 20
0.5
 30
0.0
 11
43.56299212598424
 21
0.1653543307086614
 31
0.0
  0
LINE
  5
E7
330
1F
100
AcDbEntity
  8
TITLE
  6
SLD-Solid
370
    18
100
AcDbLine
 10
45.53149606299212
 20
49.50000000000001
 30
0.0
 11
45.53149606299212
 21
49.83464566929134
 31
0.0
  0
LINE
  5
E8
330
1F
100
AcDbEntity
  8
TITLE
  6
SLD-Solid
370
    18
100
AcDbLine
 10
45.53149606299212
 20
0.5
 30
0.0
 11
45.53149606299212
 21
0.1653543307086614
 31
0.0
  0
LINE
  5
E9
330
1F
100
AcDbEntity
  8
TITLE
  6
SLD-Solid
370
    18
100
AcDbLine
 10
47.5
 20
49.50000000000001
 30
0.0
 11
47.5
 21
49.83464566929134
 31
0.0
  0
LINE
  5
EA
330
1F
100
AcDbEntity
  8
TITLE
  6
SLD-Solid
370
    18
100
AcDbLine
 10
47.5
 20
0.5
 30
0.0
 11
47.5
 21
0.1653543307086614
 31
0.0
  0
LINE
  5
EB
330
1F
100
AcDbEntity
  8
TITLE
  6
SLD-Solid
370
    18
100
AcDbLine
 10
49.46850393700787
 20
49.50000000000001
 30
0.0
 11
49.46850393700787
 21
49.83464566929134
 31
0.0
  0
LINE
  5
EC
330
1F
100
AcDbEntity
  8
TITLE
  6
SLD-Solid
370
    18
100
AcDbLine
 10
49.46850393700787
 20
0.5
 30
0.0
 11
49.46850393700787
 21
0.1653543307086614
 31
0.0
  0
LINE
  5
ED
330
1F
100
AcDbEntity
  8
TITLE
  6
SLD-Solid
370
    18
100
AcDbLine
 10
51.43700787401575
 20
49.50000000000001
 30
0.0
 11
51.43700787401575
 21
49.83464566929134
 31
0.0
  0
LINE
  5
EE
330
1F
100
AcDbEntity
  8
TITLE
  6
SLD-Solid
370
    18
100
AcDbLine
 10
51.43700787401575
 20
0.5
 30
0.0
 11
51.43700787401575
 21
0.1653543307086614
 31
0.0
  0
LINE
  5
EF
330
1F
100
AcDbEntity
  8
TITLE
  6
SLD-Solid
370
    18
100
AcDbLine
 10
53.40551181102362
 20
49.50000000000001
 30
0.0
 11
53.40551181102362
 21
49.83464566929134
 31
0.0
  0
LINE
  5
F0
330
1F
100
AcDbEntity
  8
TITLE
  6
SLD-Solid
370
    18
100
AcDbLine
 10
53.40551181102362
 20
0.5
 30
0.0
 11
53.40551181102362
 21
0.1653543307086614
 31
0.0
  0
LINE
  5
F1
330
1F
100
AcDbEntity
  8
TITLE
  6
SLD-Solid
370
    18
100
AcDbLine
 10
55.37401574803149
 20
49.50000000000001
 30
0.0
 11
55.37401574803149
 21
49.83464566929134
 31
0.0
  0
LINE
  5
F2
330
1F
100
AcDbEntity
  8
TITLE
  6
SLD-Solid
370
    18
100
AcDbLine
 10
55.37401574803149
 20
0.5
 30
0.0
 11
55.37401574803149
 21
0.1653543307086614
 31
0.0
  0
LINE
  5
F3
330
1F
100
AcDbEntity
  8
TITLE
  6
SLD-Solid
370
    18
100
AcDbLine
 10
57.34251968503937
 20
49.50000000000001
 30
0.0
 11
57.34251968503937
 21
49.83464566929134
 31
0.0
  0
LINE
  5
F4
330
1F
100
AcDbEntity
  8
TITLE
  6
SLD-Solid
370
    18
100
AcDbLine
 10
57.34251968503937
 20
0.5
 30
0.0
 11
57.34251968503937
 21
0.1653543307086614
 31
0.0
  0
LINE
  5
F5
330
1F
100
AcDbEntity
  8
TITLE
  6
SLD-Solid
370
    18
100
AcDbLine
 10
59.31102362204724
 20
49.50000000000001
 30
0.0
 11
59.31102362204724
 21
49.83464566929134
 31
0.0
  0
LINE
  5
F6
330
1F
100
AcDbEntity
  8
TITLE
  6
SLD-Solid
370
    18
100
AcDbLine
 10
59.31102362204724
 20
0.5
 30
0.0
 11
59.31102362204724
 21
0.1653543307086614
 31
0.0
  0
LINE
  5
F7
330
1F
100
AcDbEntity
  8
TITLE
  6
SLD-Solid
370
    18
100
AcDbLine
 10
61.27952755905512
 20
49.50000000000001
 30
0.0
 11
61.27952755905512
 21
49.83464566929134
 31
0.0
  0
LINE
  5
F8
330
1F
100
AcDbEntity
  8
TITLE
  6
SLD-Solid
370
    18
100
AcDbLine
 10
61.27952755905512
 20
0.5
 30
0.0
 11
61.27952755905512
 21
0.1653543307086614
 31
0.0
  0
LINE
  5
F9
330
1F
100
AcDbEntity
  8
TITLE
  6
SLD-Solid
370
    18
100
AcDbLine
 10
63.24803149606299
 20
49.50000000000001
 30
0.0
 11
63.24803149606299
 21
49.83464566929134
 31
0.0
  0
LINE
  5
FA
330
1F
100
AcDbEntity
  8
TITLE
  6
SLD-Solid
370
    18
100
AcDbLine
 10
63.24803149606299
 20
0.5
 30
0.0
 11
63.24803149606299
 21
0.1653543307086614
 31
0.0
  0
LINE
  5
FB
330
1F
100
AcDbEntity
  8
TITLE
  6
SLD-Solid
370
    18
100
AcDbLine
 10
65.21653543307086
 20
49.50000000000001
 30
0.0
 11
65.21653543307086
 21
49.83464566929134
 31
0.0
  0
LINE
  5
FC
330
1F
100
AcDbEntity
  8
TITLE
  6
SLD-Solid
370
    18
100
AcDbLine
 10
65.21653543307086
 20
0.5
 30
0.0
 11
65.21653543307086
 21
0.1653543307086614
 31
0.0
  0
LINE
  5
FD
330
1F
100
AcDbEntity
  8
TITLE
  6
SLD-Solid
370
    18
100
AcDbLine
 10
67.18503937007874
 20
49.50000000000001
 30
0.0
 11
67.18503937007874
 21
49.83464566929134
 31
0.0
  0
LINE
  5
FE
330
1F
100
AcDbEntity
  8
TITLE
  6
SLD-Solid
370
    18
100
AcDbLine
 10
67.18503937007874
 20
0.5
 30
0.0
 11
67.18503937007874
 21
0.1653543307086614
 31
0.0
  0
LINE
  5
FF
330
1F
100
AcDbEntity
  8
TITLE
  6
SLD-Solid
370
    18
100
AcDbLine
 10
69.15354330708661
 20
49.50000000000001
 30
0.0
 11
69.15354330708661
 21
49.83464566929134
 31
0.0
  0
LINE
  5
100
330
1F
100
AcDbEntity
  8
TITLE
  6
SLD-Solid
370
    18
100
AcDbLine
 10
69.15354330708661
 20
0.5
 30
0.0
 11
69.15354330708661
 21
0.1653543307086614
 31
0.0
  0
LINE
  5
101
330
1F
100
AcDbEntity
  8
TITLE
  6
SLD-Solid
370
    18
100
AcDbLine
 10
71.12204724409449
 20
49.50000000000001
 30
0.0
 11
71.12204724409449
 21
49.83464566929134
 31
0.0
  0
LINE
  5
102
330
1F
100
AcDbEntity
  8
TITLE
  6
SLD-Solid
370
    18
100
AcDbLine
 10
71.12204724409449
 20
0.5
 30
0.0
 11
71.12204724409449
 21
0.1653543307086614
 31
0.0
  0
LINE
  5
103
330
1F
100
AcDbEntity
  8
TITLE
  6
SLD-Solid
370
    18
100
AcDbLine
 10
73.09055118110237
 20
49.50000000000001
 30
0.0
 11
73.09055118110237
 21
49.83464566929134
 31
0.0
  0
LINE
  5
104
330
1F
100
AcDbEntity
  8
TITLE
  6
SLD-Solid
370
    18
100
AcDbLine
 10
73.09055118110237
 20
0.5
 30
0.0
 11
73.09055118110237
 21
0.1653543307086614
 31
0.0
  0
LINE
  5
105
330
1F
100
AcDbEntity
  8
TITLE
  6
SLD-Solid
370
    18
100
AcDbLine
 10
75.05905511811024
 20
49.50000000000001
 30
0.0
 11
75.05905511811024
 21
49.83464566929134
 31
0.0
  0
LINE
  5
106
330
1F
100
AcDbEntity
  8
TITLE
  6
SLD-Solid
370
    18
100
AcDbLine
 10
75.05905511811024
 20
0.5
 30
0.0
 11
75.05905511811024
 21
0.1653543307086614
 31
0.0
  0
LINE
  5
107
330
1F
100
AcDbEntity
  8
TITLE
  6
SLD-Solid
370
    18
100
AcDbLine
 10
77.0275590551181
 20
49.50000000000001
 30
0.0
 11
77.0275590551181
 21
49.83464566929134
 31
0.0
  0
LINE
  5
108
330
1F
100
AcDbEntity
  8
TITLE
  6
SLD-Solid
370
    18
100
AcDbLine
 10
77.0275590551181
 20
0.5
 30
0.0
 11
77.0275590551181
 21
0.1653543307086614
 31
0.0
  0
LINE
  5
109
330
1F
100
AcDbEntity
  8
TITLE
  6
SLD-Solid
370
    18
100
AcDbLine
 10
78.99606299212599
 20
49.50000000000001
 30
0.0
 11
78.99606299212599
 21
49.83464566929134
 31
0.0
  0
LINE
  5
10A
330
1F
100
AcDbEntity
  8
TITLE
  6
SLD-Solid
370
    18
100
AcDbLine
 10
78.99606299212599
 20
0.5
 30
0.0
 11
78.99606299212599
 21
0.1653543307086614
 31
0.0
  0
LINE
  5
10B
330
1F
100
AcDbEntity
  8
TITLE
  6
SLD-Solid
370
    18
100
AcDbLine
 10
80.96456692913385
 20
49.50000000000001
 30
0.0
 11
80.96456692913385
 21
49.83464566929134
 31
0.0
  0
LINE
  5
10C
330
1F
100
AcDbEntity
  8
TITLE
  6
SLD-Solid
370
    18
100
AcDbLine
 10
80.96456692913385
 20
0.5
 30
0.0
 11
80.96456692913385
 21
0.1653543307086614
 31
0.0
  0
LINE
  5
10D
330
1F
100
AcDbEntity
  8
TITLE
  6
SLD-Solid
370
    18
100
AcDbLine
 10
82.93307086614173
 20
49.50000000000001
 30
0.0
 11
82.93307086614173
 21
49.83464566929134
 31
0.0
  0
LINE
  5
10E
330
1F
100
AcDbEntity
  8
TITLE
  6
SLD-Solid
370
    18
100
AcDbLine
 10
82.93307086614173
 20
0.5
 30
0.0
 11
82.93307086614173
 21
0.1653543307086614
 31
0.0
  0
LINE
  5
10F
330
1F
100
AcDbEntity
  8
TITLE
  6
SLD-Solid
370
    18
100
AcDbLine
 10
84.9015748031496
 20
49.50000000000001
 30
0.0
 11
84.9015748031496
 21
49.83464566929134
 31
0.0
  0
LINE
  5
110
330
1F
100
AcDbEntity
  8
TITLE
  6
SLD-Solid
370
    18
100
AcDbLine
 10
84.9015748031496
 20
0.5
 30
0.0
 11
84.9015748031496
 21
0.1653543307086614
 31
0.0
  0
LINE
  5
111
330
1F
100
AcDbEntity
  8
TITLE
  6
SLD-Solid
370
    18
100
AcDbLine
 10
86.87007874015748
 20
49.50000000000001
 30
0.0
 11
86.87007874015748
 21
49.83464566929134
 31
0.0
  0
LINE
  5
112
330
1F
100
AcDbEntity
  8
TITLE
  6
SLD-Solid
370
    18
100
AcDbLine
 10
86.87007874015748
 20
0.5
 30
0.0
 11
86.87007874015748
 21
0.1653543307086614
 31
0.0
  0
LINE
  5
113
330
1F
100
AcDbEntity
  8
TITLE
  6
SLD-Solid
370
    18
100
AcDbLine
 10
88.83858267716535
 20
49.50000000000001
 30
0.0
 11
88.83858267716535
 21
49.83464566929134
 31
0.0
  0
LINE
  5
114
330
1F
100
AcDbEntity
  8
TITLE
  6
SLD-Solid
370
    18
100
AcDbLine
 10
88.83858267716535
 20
0.5
 30
0.0
 11
88.83858267716535
 21
0.1653543307086614
 31
0.0
  0
LINE
  5
115
330
1F
100
AcDbEntity
  8
TITLE
  6
SLD-Solid
370
    18
100
AcDbLine
 10
90.80708661417322
 20
49.50000000000001
 30
0.0
 11
90.80708661417322
 21
49.83464566929134
 31
0.0
  0
LINE
  5
116
330
1F
100
AcDbEntity
  8
TITLE
  6
SLD-Solid
370
    18
100
AcDbLine
 10
90.80708661417322
 20
0.5
 30
0.0
 11
90.80708661417322
 21
0.1653543307086614
 31
0.0
  0
LINE
  5
117
330
1F
100
AcDbEntity
  8
TITLE
  6
SLD-Solid
370
    18
100
AcDbLine
 10
92.77559055118111
 20
49.50000000000001
 30
0.0
 11
92.77559055118111
 21
49.83464566929134
 31
0.0
  0
LINE
  5
118
330
1F
100
AcDbEntity
  8
TITLE
  6
SLD-Solid
370
    18
100
AcDbLine
 10
92.77559055118111
 20
0.5
 30
0.0
 11
92.77559055118111
 21
0.1653543307086614
 31
0.0
  0
MTEXT
  5
11A
330
1F
100
AcDbEntity
  8
NOTES
100
AcDbMText
 10
4.595517549190012
 20
9.305453611995183
 30
0.0
 40
0.5
 41
0.0
 71
     1
 72
     1
  1
Front view
  7
SLDTEXTSTYLE0
 73
     1
 44
1.0
  0
INSERT
  5
120
330
1F
100
AcDbEntity
  8
DIMS
100
AcDbBlockReference
  2
SW_NOTE_0
 10
2.783091608266053
 20
6.008390755021724
 30
0.0
  0
MTEXT
  5
122
330
1F
100
AcDbEntity
  8
NOTES
100
AcDbMText
 10
71.40829780303406
 20
1.070290334694339
 30
0.0
 40
0.25
 41
0.0
 71
     1
 72
     1
  1
UNLESS OTHERWISE SPECIFIED DIMENSIONS ARE IN INCHES.
  7
SLDTEXTSTYLE1
 73
     1
 44
1.0
  0
MTEXT
  5
123
330
1F
100
AcDbEntity
  8
NOTES
100
AcDbMText
 10
71.4300699278903
 20
3.083062777580427
 30
0.0
 40
0.25
 41
0.0
 71
     1
 72
     1
  1
DATE:
  7
SLDTEXTSTYLE1
 73
     1
 44
1.0
  0
MTEXT
  5
124
330
1F
100
AcDbEntity
  8
NOTES
100
AcDbMText
 10
73.5387011880053
 20
2.193032963662708
 30
0.0
 40
0.25
 41
0.0
 71
     2
 72
     1
  1
DO NOT SCALE DRAWING
  7
SLDTEXTSTYLE1
 73
     1
 44
1.0
  0
MTEXT
  5
125
330
1F
100
AcDbEntity
  8
NOTES
100
AcDbMText
 10
77.83073730750537
 20
3.268275555297611
 30
0.0
 40
0.25
 41
0.0
 71
     1
 72
     1
  1
TITLE:
  7
SLDTEXTSTYLE0
 73
     1
 44
1.0
  0
MTEXT
  5
126
330
1F
100
AcDbEntity
  8
NOTES
100
AcDbMText
 10
85.15618310516095
 20
3.2682755552976
 30
0.0
 40
0.25
 41
0.0
 71
     1
 72
     1
  1
DWG NO.
  7
SLDTEXTSTYLE0
 73
     1
 44
1.0
  0
MTEXT
  5
127
330
1F
100
AcDbEntity
  8
NOTES
100
AcDbMText
 10
85.18317532028493
 20
1.064581557673832
 30
0.0
 40
0.25
 41
0.0
 71
     1
 72
     1
  1
SCALE:     1:1
  7
SLDTEXTSTYLE0
 73
     1
 44
1.0
  0
MTEXT
  5
128
330
1F
100
AcDbEntity
  8
NOTES
100
AcDbMText
 10
89.17842722042688
 20
2.651034429460864
 30
0.0
 40
0.25
 41
0.0
 71
     2
 72
     1
  1
941-2436 FT CAD
  7
SLDTEXTSTYLE0
 73
     1
 44
1.0
  0
MTEXT
  5
129
330
1F
100
AcDbEntity
  8
NOTES
100
AcDbMText
 10
81.43917758728624
 20
2.651034429460866
 30
0.0
 40
0.25
 41
0.0
 71
     2
 72
     1
  1
941-2436 FT Mirror
  7
SLDTEXTSTYLE0
 73
     1
 44
1.0
  0
INSERT
  5
139
330
1F
100
AcDbEntity
  8
NOTES
100
AcDbBlockReference
  2
SW_NOTE_0_2
 10
71.6159726245908
 20
5.148152684778705
 30
0.0
  0
MTEXT
  5
13A
330
1F
100
AcDbEntity
  8
NOTES
100
AcDbMText
 10
74.4974132063639
 20
3.086473326765871
 30
0.0
 40
0.25
 41
0.0
 71
     2
 72
     1
  1
August 12, 2021
  7
SLDTEXTSTYLE0
 73
     1
 44
1.0
  0
MTEXT
  5
13B
330
1F
100
AcDbEntity
  8
TITLE
100
AcDbMText
 10
0.3276279775836454
 20
2.003106290974172
 30
0.0
 40
0.125
 41
0.0
 71
     2
 72
     1
  1
A
  7
SLDTEXTSTYLE0
 73
     1
 44
1.0
  0
MTEXT
  5
13C
330
1F
100
AcDbEntity
  8
TITLE
100
AcDbMText
 10
94.66227364687497
 20
2.003106290974172
 30
0.0
 40
0.125
 41
0.0
 71
     2
 72
     1
  1
A
  7
SLDTEXTSTYLE0
 73
     1
 44
1.0
  0
MTEXT
  5
13D
330
1F
100
AcDbEntity
  8
TITLE
100
AcDbMText
 10
0.3317512413046844
 20
4.410586605934803
 30
0.0
 40
0.125
 41
0.0
 71
     2
 72
     1
  1
B
  7
SLDTEXTSTYLE0
 73
     1
 44
1.0
  0
MTEXT
  5
13E
330
1F
100
AcDbEntity
  8
TITLE
100
AcDbMText
 10
94.666396910596
 20
4.410586605934803
 30
0.0
 40
0.125
 41
0.0
 71
     2
 72
     1
  1
B
  7
SLDTEXTSTYLE0
 73
     1
 44
1.0
  0
MTEXT
  5
13F
330
1F
100
AcDbEntity
  8
TITLE
100
AcDbMText
 10
0.3313750816934456
 20
6.379090542942676
 30
0.0
 40
0.125
 41
0.0
 71
     2
 72
     1
  1
C
  7
SLDTEXTSTYLE0
 73
     1
 44
1.0
  0
MTEXT
  5
140
330
1F
100
AcDbEntity
  8
TITLE
100
AcDbMText
 10
94.66602075098476
 20
6.379090542942676
 30
0.0
 40
0.125
 41
0.0
 71
     2
 72
     1
  1
C
  7
SLDTEXTSTYLE0
 73
     1
 44
1.0
  0
MTEXT
  5
141
330
1F
100
AcDbEntity
  8
TITLE
100
AcDbMText
 10
0.3311870028448152
 20
8.34759447995055
 30
0.0
 40
0.125
 41
0.0
 71
     2
 72
     1
  1
D
  7
SLDTEXTSTYLE0
 73
     1
 44
1.0
  0
MTEXT
  5
142
330
1F
100
AcDbEntity
  8
TITLE
100
AcDbMText
 10
94.66583267213613
 20
8.347594479950548
 30
0.0
 40
0.125
 41
0.0
 71
     2
 72
     1
  1
D
  7
SLDTEXTSTYLE0
 73
     1
 44
1.0
  0
MTEXT
  5
143
330
1F
100
AcDbEntity
  8
TITLE
100
AcDbMText
 10
0.3329231160377541
 20
10.31609841695842
 30
0.0
 40
0.125
 41
0.0
 71
     2
 72
     1
  1
E
  7
SLDTEXTSTYLE0
 73
     1
 44
1.0
  0
MTEXT
  5
144
330
1F
100
AcDbEntity
  8
TITLE
100
AcDbMText
 10
94.66756878532908
 20
10.31609841695842
 30
0.0
 40
0.125
 41
0.0
 71
     2
 72
     1
  1
E
  7
SLDTEXTSTYLE0
 73
     1
 44
1.0
  0
MTEXT
  5
145
330
1F
100
AcDbEntity
  8
TITLE
100
AcDbMText
 10
0.3313461474003637
 20
12.28460235396629
 30
0.0
 40
0.125
 41
0.0
 71
     2
 72
     1
  1
F
  7
SLDTEXTSTYLE0
 73
     1
 44
1.0
  0
MTEXT
  5
146
330
1F
100
AcDbEntity
  8
TITLE
100
AcDbMText
 10
94.66599181669169
 20
12.2846023539663
 30
0.0
 40
0.125
 41
0.0
 71
     2
 72
     1
  1
F
  7
SLDTEXTSTYLE0
 73
     1
 44
1.0
  0
MTEXT
  5
147
330
1F
100
AcDbEntity
  8
TITLE
100
AcDbMText
 10
0.332257605436456
 20
14.25310629097417
 30
0.0
 40
0.125
 41
0.0
 71
     2
 72
     1
  1
G
  7
SLDTEXTSTYLE0
 73
     1
 44
1.0
  0
MTEXT
  5
148
330
1F
100
AcDbEntity
  8
TITLE
100
AcDbMText
 10
94.66690327472779
 20
14.25310629097417
 30
0.0
 40
0.125
 41
0.0
 71
     2
 72
     1
  1
G
  7
SLDTEXTSTYLE0
 73
     1
 44
1.0
  0
MTEXT
  5
149
330
1F
100
AcDbEntity
  8
TITLE
100
AcDbMText
 10
0.3323733456814148
 20
16.22161022798205
 30
0.0
 40
0.125
 41
0.0
 71
     2
 72
     1
  1
H
  7
SLDTEXTSTYLE0
 73
     1
 44
1.0
  0
MTEXT
  5
14A
330
1F
100
AcDbEntity
  8
TITLE
100
AcDbMText
 10
94.66701901497274
 20
16.22161022798205
 30
0.0
 40
0.125
 41
0.0
 71
     2
 72
     1
  1
H
  7
SLDTEXTSTYLE0
 73
     1
 44
1.0
  0
MTEXT
  5
14B
330
1F
100
AcDbEntity
  8
TITLE
100
AcDbMText
 10
0.3315776305595838
 20
18.19011416498992
 30
0.0
 40
0.125
 41
0.0
 71
     2
 72
     1
  1
J
  7
SLDTEXTSTYLE0
 73
     1
 44
1.0
  0
MTEXT
  5
14C
330
1F
100
AcDbEntity
  8
TITLE
100
AcDbMText
 10
94.66622329985091
 20
18.19011416498992
 30
0.0
 40
0.125
 41
0.0
 71
     2
 72
     1
  1
J
  7
SLDTEXTSTYLE0
 73
     1
 44
1.0
  0
MTEXT
  5
14D
330
1F
100
AcDbEntity
  8
TITLE
100
AcDbMText
 10
0.3323154765159243
 20
20.1586181019978
 30
0.0
 40
0.125
 41
0.0
 71
     2
 72
     1
  1
K
  7
SLDTEXTSTYLE0
 73
     1
 44
1.0
  0
MTEXT
  5
14E
330
1F
100
AcDbEntity
  8
TITLE
100
AcDbMText
 10
94.66696114580725
 20
20.1586181019978
 30
0.0
 40
0.125
 41
0.0
 71
     2
 72
     1
  1
K
  7
SLDTEXTSTYLE0
 73
     1
 44
1.0
  0
MTEXT
  5
14F
330
1F
100
AcDbEntity
  8
TITLE
100
AcDbMText
 10
0.3312448739242835
 20
22.12712203900567
 30
0.0
 40
0.125
 41
0.0
 71
     2
 72
     1
  1
L
  7
SLDTEXTSTYLE0
 73
     1
 44
1.0
  0
MTEXT
  5
150
330
1F
100
AcDbEntity
  8
TITLE
100
AcDbMText
 10
94.66589054321561
 20
22.12712203900567
 30
0.0
 40
0.125
 41
0.0
 71
     2
 72
     1
  1
L
  7
SLDTEXTSTYLE0
 73
     1
 44
1.0
  0
MTEXT
  5
151
330
1F
100
AcDbEntity
  8
TITLE
100
AcDbMText
 10
0.3283224192293962
 20
24.09562597601354
 30
0.0
 40
0.125
 41
0.0
 71
     2
 72
     1
  1
M
  7
SLDTEXTSTYLE0
 73
     1
 44
1.0
  0
MTEXT
  5
152
330
1F
100
AcDbEntity
  8
TITLE
100
AcDbMText
 10
94.66296808852073
 20
24.09562597601354
 30
0.0
 40
0.125
 41
0.0
 71
     2
 72
     1
  1
M
  7
SLDTEXTSTYLE0
 73
     1
 44
1.0
  0
MTEXT
  5
153
330
1F
100
AcDbEntity
  8
TITLE
100
AcDbMText
 10
0.3315342275836453
 20
26.06412991302142
 30
0.0
 40
0.125
 41
0.0
 71
     2
 72
     1
  1
N
  7
SLDTEXTSTYLE0
 73
     1
 44
1.0
  0
MTEXT
  5
154
330
1F
100
AcDbEntity
  8
TITLE
100
AcDbMText
 10
94.66617989687497
 20
26.06412991302141
 30
0.0
 40
0.125
 41
0.0
 71
     2
 72
     1
  1
N
  7
SLDTEXTSTYLE0
 73
     1
 44
1.0
  0
MTEXT
  5
155
330
1F
100
AcDbEntity
  8
TITLE
100
AcDbMText
 10
0.3321997349363143
 20
28.03263385002929
 30
0.0
 40
0.125
 41
0.0
 71
     2
 72
     1
  1
P
  7
SLDTEXTSTYLE0
 73
     1
 44
1.0
  0
MTEXT
  5
156
330
1F
100
AcDbEntity
  8
TITLE
100
AcDbMText
 10
94.66684540422763
 20
28.03263385002929
 30
0.0
 40
0.125
 41
0.0
 71
     2
 72
     1
  1
P
  7
SLDTEXTSTYLE0
 73
     1
 44
1.0
  0
MTEXT
  5
157
330
1F
100
AcDbEntity
  8
TITLE
100
AcDbMText
 10
0.3309265867271644
 20
30.00113778703717
 30
0.0
 40
0.125
 41
0.0
 71
     2
 72
     1
  1
R
  7
SLDTEXTSTYLE0
 73
     1
 44
1.0
  0
MTEXT
  5
158
330
1F
100
AcDbEntity
  8
TITLE
100
AcDbMText
 10
94.66557225601849
 20
30.00113778703717
 30
0.0
 40
0.125
 41
0.0
 71
     2
 72
     1
  1
R
  7
SLDTEXTSTYLE0
 73
     1
 44
1.0
  0
MTEXT
  5
159
330
1F
100
AcDbEntity
  8
TITLE
100
AcDbMText
 10
0.3323010070777432
 20
31.96964172404504
 30
0.0
 40
0.125
 41
0.0
 71
     2
 72
     1
  1
T
  7
SLDTEXTSTYLE0
 73
     1
 44
1.0
  0
MTEXT
  5
15A
330
1F
100
AcDbEntity
  8
TITLE
100
AcDbMText
 10
94.66694667636907
 20
31.96964172404504
 30
0.0
 40
0.125
 41
0.0
 71
     2
 72
     1
  1
T
  7
SLDTEXTSTYLE0
 73
     1
 44
1.0
  0
MTEXT
  5
15B
330
1F
100
AcDbEntity
  8
TITLE
100
AcDbMText
 10
0.3328507755201046
 20
33.93814566105291
 30
0.0
 40
0.125
 41
0.0
 71
     2
 72
     1
  1
U
  7
SLDTEXTSTYLE0
 73
     1
 44
1.0
  0
MTEXT
  5
15C
330
1F
100
AcDbEntity
  8
TITLE
100
AcDbMText
 10
94.66749644481142
 20
33.93814566105292
 30
0.0
 40
0.125
 41
0.0
 71
     2
 72
     1
  1
U
  7
SLDTEXTSTYLE0
 73
     1
 44
1.0
  0
MTEXT
  5
15D
330
1F
100
AcDbEntity
  8
TITLE
100
AcDbMText
 10
0.3307529773167151
 20
35.90664959806079
 30
0.0
 40
0.125
 41
0.0
 71
     2
 72
     1
  1
V
  7
SLDTEXTSTYLE0
 73
     1
 44
1.0
  0
MTEXT
  5
15E
330
1F
100
AcDbEntity
  8
TITLE
100
AcDbMText
 10
94.66539864660804
 20
35.90664959806079
 30
0.0
 40
0.125
 41
0.0
 71
     2
 72
     1
  1
V
  7
SLDTEXTSTYLE0
 73
     1
 44
1.0
  0
MTEXT
  5
15F
330
1F
100
AcDbEntity
  8
TITLE
100
AcDbMText
 10
0.3327784409203867
 20
37.87515353506867
 30
0.0
 40
0.125
 41
0.0
 71
     2
 72
     1
  1
W
  7
SLDTEXTSTYLE0
 73
     1
 44
1.0
  0
MTEXT
  5
160
330
1F
100
AcDbEntity
  8
TITLE
100
AcDbMText
 10
94.66742411021171
 20
37.87515353506868
 30
0.0
 40
0.125
 41
0.0
 71
     2
 72
     1
  1
W
  7
SLDTEXTSTYLE0
 73
     1
 44
1.0
  0
MTEXT
  5
161
330
1F
100
AcDbEntity
  8
TITLE
100
AcDbMText
 10
0.3321997349363144
 20
39.84365747207655
 30
0.0
 40
0.125
 41
0.0
 71
     2
 72
     1
  1
Y
  7
SLDTEXTSTYLE0
 73
     1
 44
1.0
  0
MTEXT
  5
162
330
1F
100
AcDbEntity
  8
TITLE
100
AcDbMText
 10
94.66684540422763
 20
39.84365747207655
 30
0.0
 40
0.125
 41
0.0
 71
     2
 72
     1
  1
Y
  7
SLDTEXTSTYLE0
 73
     1
 44
1.0
  0
MTEXT
  5
163
330
1F
100
AcDbEntity
  8
TITLE
100
AcDbMText
 10
0.32257878981296
 20
41.81216140908442
 30
0.0
 40
0.125
 41
0.0
 71
     2
 72
     1
  1
AA
  7
SLDTEXTSTYLE0
 73
     1
 44
1.0
  0
MTEXT
  5
164
330
1F
100
AcDbEntity
  8
TITLE
100
AcDbMText
 10
94.65722445910427
 20
41.81216140908442
 30
0.0
 40
0.125
 41
0.0
 71
     2
 72
     1
  1
AA
  7
SLDTEXTSTYLE0
 73
     1
 44
1.0
  0
MTEXT
  5
165
330
1F
100
AcDbEntity
  8
TITLE
100
AcDbMText
 10
0.3267020535339989
 20
43.78066534609228
 30
0.0
 40
0.125
 41
0.0
 71
     2
 72
     1
  1
AB
  7
SLDTEXTSTYLE0
 73
     1
 44
1.0
  0
MTEXT
  5
166
330
1F
100
AcDbEntity
  8
TITLE
100
AcDbMText
 10
94.6613477228253
 20
43.78066534609228
 30
0.0
 40
0.125
 41
0.0
 71
     2
 72
     1
  1
AB
  7
SLDTEXTSTYLE0
 73
     1
 44
1.0
  0
MTEXT
  5
167
330
1F
100
AcDbEntity
  8
TITLE
100
AcDbMText
 10
0.3263258985060407
 20
45.74916928310017
 30
0.0
 40
0.125
 41
0.0
 71
     2
 72
     1
  1
AC
  7
SLDTEXTSTYLE0
 73
     1
 44
1.0
  0
MTEXT
  5
168
330
1F
100
AcDbEntity
  8
TITLE
100
AcDbMText
 10
94.66097156779738
 20
45.74916928310017
 30
0.0
 40
0.125
 41
0.0
 71
     2
 72
     1
  1
AC
  7
SLDTEXTSTYLE0
 73
     1
 44
1.0
  0
MTEXT
  5
169
330
1F
100
AcDbEntity
  8
TITLE
100
AcDbMText
 10
0.3261378196574102
 20
48.15664959806079
 30
0.0
 40
0.125
 41
0.0
 71
     2
 72
     1
  1
AD
  7
SLDTEXTSTYLE0
 73
     1
 44
1.0
  0
MTEXT
  5
16A
330
1F
100
AcDbEntity
  8
TITLE
100
AcDbMText
 10
94.66078348894872
 20
48.1566495980608
 30
0.0
 40
0.125
 41
0.0
 71
     2
 72
     1
  1
AD
  7
SLDTEXTSTYLE0
 73
     1
 44
1.0
  0
MTEXT
  5
16B
330
1F
100
AcDbEntity
  8
TITLE
100
AcDbMText
 10
1.359687363039551
 20
0.4125551098718104
 30
0.0
 40
0.125
 41
0.0
 71
     2
 72
     1
  1
48
  7
SLDTEXTSTYLE0
 73
     1
 44
1.0
  0
MTEXT
  5
16C
330
1F
100
AcDbEntity
  8
TITLE
100
AcDbMText
 10
1.359687363039551
 20
49.74720077916316
 30
0.0
 40
0.125
 41
0.0
 71
     2
 72
     1
  1
48
  7
SLDTEXTSTYLE0
 73
     1
 44
1.0
  0
MTEXT
  5
16D
330
1F
100
AcDbEntity
  8
TITLE
100
AcDbMText
 10
3.206144055952933
 20
0.4125551098718104
 30
0.0
 40
0.125
 41
0.0
 71
     2
 72
     1
  1
47
  7
SLDTEXTSTYLE0
 73
     1
 44
1.0
  0
MTEXT
  5
16E
330
1F
100
AcDbEntity
  8
TITLE
100
AcDbMText
 10
3.206144055952933
 20
49.74720077916315
 30
0.0
 40
0.125
 41
0.0
 71
     2
 72
     1
  1
47
  7
SLDTEXTSTYLE0
 73
     1
 44
1.0
  0
MTEXT
  5
16F
330
1F
100
AcDbEntity
  8
TITLE
100
AcDbMText
 10
5.17464799296081
 20
0.4125551098718104
 30
0.0
 40
0.125
 41
0.0
 71
     2
 72
     1
  1
46
  7
SLDTEXTSTYLE0
 73
     1
 44
1.0
  0
MTEXT
  5
170
330
1F
100
AcDbEntity
  8
TITLE
100
AcDbMText
 10
5.174647992960809
 20
49.74720077916316
 30
0.0
 40
0.125
 41
0.0
 71
     2
 72
     1
  1
46
  7
SLDTEXTSTYLE0
 73
     1
 44
1.0
  0
MTEXT
  5
171
330
1F
100
AcDbEntity
  8
TITLE
100
AcDbMText
 10
7.143151929968686
 20
0.4125551098718104
 30
0.0
 40
0.125
 41
0.0
 71
     2
 72
     1
  1
45
  7
SLDTEXTSTYLE0
 73
     1
 44
1.0
  0
MTEXT
  5
172
330
1F
100
AcDbEntity
  8
TITLE
100
AcDbMText
 10
7.143151929968686
 20
49.74720077916316
 30
0.0
 40
0.125
 41
0.0
 71
     2
 72
     1
  1
45
  7
SLDTEXTSTYLE0
 73
     1
 44
1.0
  0
MTEXT
  5
173
330
1F
100
AcDbEntity
  8
TITLE
100
AcDbMText
 10
9.11165586697656
 20
0.4125551098718105
 30
0.0
 40
0.125
 41
0.0
 71
     2
 72
     1
  1
44
  7
SLDTEXTSTYLE0
 73
     1
 44
1.0
  0
MTEXT
  5
174
330
1F
100
AcDbEntity
  8
TITLE
100
AcDbMText
 10
9.111655866976559
 20
49.74720077916316
 30
0.0
 40
0.125
 41
0.0
 71
     2
 72
     1
  1
44
  7
SLDTEXTSTYLE0
 73
     1
 44
1.0
  0
MTEXT
  5
175
330
1F
100
AcDbEntity
  8
TITLE
100
AcDbMText
 10
11.08015980398443
 20
0.4125551098718105
 30
0.0
 40
0.125
 41
0.0
 71
     2
 72
     1
  1
43
  7
SLDTEXTSTYLE0
 73
     1
 44
1.0
  0
MTEXT
  5
176
330
1F
100
AcDbEntity
  8
TITLE
100
AcDbMText
 10
11.08015980398443
 20
49.74720077916316
 30
0.0
 40
0.125
 41
0.0
 71
     2
 72
     1
  1
43
  7
SLDTEXTSTYLE0
 73
     1
 44
1.0
  0
MTEXT
  5
177
330
1F
100
AcDbEntity
  8
TITLE
100
AcDbMText
 10
13.04866374099231
 20
0.4125551098718104
 30
0.0
 40
0.125
 41
0.0
 71
     2
 72
     1
  1
42
  7
SLDTEXTSTYLE0
 73
     1
 44
1.0
  0
MTEXT
  5
178
330
1F
100
AcDbEntity
  8
TITLE
100
AcDbMText
 10
13.04866374099231
 20
49.74720077916316
 30
0.0
 40
0.125
 41
0.0
 71
     2
 72
     1
  1
42
  7
SLDTEXTSTYLE0
 73
     1
 44
1.0
  0
MTEXT
  5
179
330
1F
100
AcDbEntity
  8
TITLE
100
AcDbMText
 10
15.01716767800018
 20
0.4125551098718104
 30
0.0
 40
0.125
 41
0.0
 71
     2
 72
     1
  1
41
  7
SLDTEXTSTYLE0
 73
     1
 44
1.0
  0
MTEXT
  5
17A
330
1F
100
AcDbEntity
  8
TITLE
100
AcDbMText
 10
15.01716767800018
 20
49.74720077916316
 30
0.0
 40
0.125
 41
0.0
 71
     2
 72
     1
  1
41
  7
SLDTEXTSTYLE0
 73
     1
 44
1.0
  0
MTEXT
  5
17B
330
1F
100
AcDbEntity
  8
TITLE
100
AcDbMText
 10
16.98567161500806
 20
0.4125551098718104
 30
0.0
 40
0.125
 41
0.0
 71
     2
 72
     1
  1
40
  7
SLDTEXTSTYLE0
 73
     1
 44
1.0
  0
MTEXT
  5
17C
330
1F
100
AcDbEntity
  8
TITLE
100
AcDbMText
 10
16.98567161500806
 20
49.74720077916316
 30
0.0
 40
0.125
 41
0.0
 71
     2
 72
     1
  1
40
  7
SLDTEXTSTYLE0
 73
     1
 44
1.0
  0
MTEXT
  5
17D
330
1F
100
AcDbEntity
  8
TITLE
100
AcDbMText
 10
18.95417555201593
 20
0.4125551098718104
 30
0.0
 40
0.125
 41
0.0
 71
     2
 72
     1
  1
39
  7
SLDTEXTSTYLE0
 73
     1
 44
1.0
  0
MTEXT
  5
17E
330
1F
100
AcDbEntity
  8
TITLE
100
AcDbMText
 10
18.95417555201593
 20
49.74720077916316
 30
0.0
 40
0.125
 41
0.0
 71
     2
 72
     1
  1
39
  7
SLDTEXTSTYLE0
 73
     1
 44
1.0
  0
MTEXT
  5
17F
330
1F
100
AcDbEntity
  8
TITLE
100
AcDbMText
 10
20.9226794890238
 20
0.4125551098718104
 30
0.0
 40
0.125
 41
0.0
 71
     2
 72
     1
  1
38
  7
SLDTEXTSTYLE0
 73
     1
 44
1.0
  0
MTEXT
  5
180
330
1F
100
AcDbEntity
  8
TITLE
100
AcDbMText
 10
20.9226794890238
 20
49.74720077916316
 30
0.0
 40
0.125
 41
0.0
 71
     2
 72
     1
  1
38
  7
SLDTEXTSTYLE0
 73
     1
 44
1.0
  0
MTEXT
  5
181
330
1F
100
AcDbEntity
  8
TITLE
100
AcDbMText
 10
22.89118342603168
 20
0.4125551098718104
 30
0.0
 40
0.125
 41
0.0
 71
     2
 72
     1
  1
37
  7
SLDTEXTSTYLE0
 73
     1
 44
1.0
  0
MTEXT
  5
182
330
1F
100
AcDbEntity
  8
TITLE
100
AcDbMText
 10
22.89118342603168
 20
49.74720077916316
 30
0.0
 40
0.125
 41
0.0
 71
     2
 72
     1
  1
37
  7
SLDTEXTSTYLE0
 73
     1
 44
1.0
  0
MTEXT
  5
183
330
1F
100
AcDbEntity
  8
TITLE
100
AcDbMText
 10
24.85968736303955
 20
0.4125551098718105
 30
0.0
 40
0.125
 41
0.0
 71
     2
 72
     1
  1
36
  7
SLDTEXTSTYLE0
 73
     1
 44
1.0
  0
MTEXT
  5
184
330
1F
100
AcDbEntity
  8
TITLE
100
AcDbMText
 10
24.85968736303955
 20
49.74720077916316
 30
0.0
 40
0.125
 41
0.0
 71
     2
 72
     1
  1
36
  7
SLDTEXTSTYLE0
 73
     1
 44
1.0
  0
MTEXT
  5
185
330
1F
100
AcDbEntity
  8
TITLE
100
AcDbMText
 10
26.82819130004743
 20
0.4125551098718104
 30
0.0
 40
0.125
 41
0.0
 71
     2
 72
     1
  1
35
  7
SLDTEXTSTYLE0
 73
     1
 44
1.0
  0
MTEXT
  5
186
330
1F
100
AcDbEntity
  8
TITLE
100
AcDbMText
 10
26.82819130004743
 20
49.74720077916316
 30
0.0
 40
0.125
 41
0.0
 71
     2
 72
     1
  1
35
  7
SLDTEXTSTYLE0
 73
     1
 44
1.0
  0
MTEXT
  5
187
330
1F
100
AcDbEntity
  8
TITLE
100
AcDbMText
 10
28.7966952370553
 20
0.4125551098718104
 30
0.0
 40
0.125
 41
0.0
 71
     2
 72
     1
  1
34
  7
SLDTEXTSTYLE0
 73
     1
 44
1.0
  0
MTEXT
  5
188
330
1F
100
AcDbEntity
  8
TITLE
100
AcDbMText
 10
28.7966952370553
 20
49.74720077916316
 30
0.0
 40
0.125
 41
0.0
 71
     2
 72
     1
  1
34
  7
SLDTEXTSTYLE0
 73
     1
 44
1.0
  0
MTEXT
  5
189
330
1F
100
AcDbEntity
  8
TITLE
100
AcDbMText
 10
30.76519917406317
 20
0.4125551098718104
 30
0.0
 40
0.125
 41
0.0
 71
     2
 72
     1
  1
33
  7
SLDTEXTSTYLE0
 73
     1
 44
1.0
  0
MTEXT
  5
18A
330
1F
100
AcDbEntity
  8
TITLE
100
AcDbMText
 10
30.76519917406318
 20
49.74720077916316
 30
0.0
 40
0.125
 41
0.0
 71
     2
 72
     1
  1
33
  7
SLDTEXTSTYLE0
 73
     1
 44
1.0
  0
MTEXT
  5
18B
330
1F
100
AcDbEntity
  8
TITLE
100
AcDbMText
 10
32.73370311107105
 20
0.4125551098718104
 30
0.0
 40
0.125
 41
0.0
 71
     2
 72
     1
  1
32
  7
SLDTEXTSTYLE0
 73
     1
 44
1.0
  0
MTEXT
  5
18C
330
1F
100
AcDbEntity
  8
TITLE
100
AcDbMText
 10
32.73370311107104
 20
49.74720077916316
 30
0.0
 40
0.125
 41
0.0
 71
     2
 72
     1
  1
32
  7
SLDTEXTSTYLE0
 73
     1
 44
1.0
  0
MTEXT
  5
18D
330
1F
100
AcDbEntity
  8
TITLE
100
AcDbMText
 10
34.70220704807893
 20
0.4125551098718104
 30
0.0
 40
0.125
 41
0.0
 71
     2
 72
     1
  1
31
  7
SLDTEXTSTYLE0
 73
     1
 44
1.0
  0
MTEXT
  5
18E
330
1F
100
AcDbEntity
  8
TITLE
100
AcDbMText
 10
34.70220704807893
 20
49.74720077916316
 30
0.0
 40
0.125
 41
0.0
 71
     2
 72
     1
  1
31
  7
SLDTEXTSTYLE0
 73
     1
 44
1.0
  0
MTEXT
  5
18F
330
1F
100
AcDbEntity
  8
TITLE
100
AcDbMText
 10
36.6707109850868
 20
0.4125551098718104
 30
0.0
 40
0.125
 41
0.0
 71
     2
 72
     1
  1
30
  7
SLDTEXTSTYLE0
 73
     1
 44
1.0
  0
MTEXT
  5
190
330
1F
100
AcDbEntity
  8
TITLE
100
AcDbMText
 10
36.6707109850868
 20
49.74720077916316
 30
0.0
 40
0.125
 41
0.0
 71
     2
 72
     1
  1
30
  7
SLDTEXTSTYLE0
 73
     1
 44
1.0
  0
MTEXT
  5
191
330
1F
100
AcDbEntity
  8
TITLE
100
AcDbMText
 10
38.63921492209467
 20
0.4125551098718104
 30
0.0
 40
0.125
 41
0.0
 71
     2
 72
     1
  1
29
  7
SLDTEXTSTYLE0
 73
     1
 44
1.0
  0
MTEXT
  5
192
330
1F
100
AcDbEntity
  8
TITLE
100
AcDbMText
 10
38.63921492209468
 20
49.74720077916316
 30
0.0
 40
0.125
 41
0.0
 71
     2
 72
     1
  1
29
  7
SLDTEXTSTYLE0
 73
     1
 44
1.0
  0
MTEXT
  5
193
330
1F
100
AcDbEntity
  8
TITLE
100
AcDbMText
 10
40.60771885910255
 20
0.4125551098718104
 30
0.0
 40
0.125
 41
0.0
 71
     2
 72
     1
  1
28
  7
SLDTEXTSTYLE0
 73
     1
 44
1.0
  0
MTEXT
  5
194
330
1F
100
AcDbEntity
  8
TITLE
100
AcDbMText
 10
40.60771885910255
 20
49.74720077916316
 30
0.0
 40
0.125
 41
0.0
 71
     2
 72
     1
  1
28
  7
SLDTEXTSTYLE0
 73
     1
 44
1.0
  0
MTEXT
  5
195
330
1F
100
AcDbEntity
  8
TITLE
100
AcDbMText
 10
42.57622279611041
 20
0.4125551098718104
 30
0.0
 40
0.125
 41
0.0
 71
     2
 72
     1
  1
27
  7
SLDTEXTSTYLE0
 73
     1
 44
1.0
  0
MTEXT
  5
196
330
1F
100
AcDbEntity
  8
TITLE
100
AcDbMText
 10
42.57622279611041
 20
49.74720077916317
 30
0.0
 40
0.125
 41
0.0
 71
     2
 72
     1
  1
27
  7
SLDTEXTSTYLE0
 73
     1
 44
1.0
  0
MTEXT
  5
197
330
1F
100
AcDbEntity
  8
TITLE
100
AcDbMText
 10
44.5447267331183
 20
0.4125551098718104
 30
0.0
 40
0.125
 41
0.0
 71
     2
 72
     1
  1
26
  7
SLDTEXTSTYLE0
 73
     1
 44
1.0
  0
MTEXT
  5
198
330
1F
100
AcDbEntity
  8
TITLE
100
AcDbMText
 10
44.5447267331183
 20
49.74720077916316
 30
0.0
 40
0.125
 41
0.0
 71
     2
 72
     1
  1
26
  7
SLDTEXTSTYLE0
 73
     1
 44
1.0
  0
MTEXT
  5
199
330
1F
100
AcDbEntity
  8
TITLE
100
AcDbMText
 10
46.51323067012616
 20
0.4125551098718104
 30
0.0
 40
0.125
 41
0.0
 71
     2
 72
     1
  1
25
  7
SLDTEXTSTYLE0
 73
     1
 44
1.0
  0
MTEXT
  5
19A
330
1F
100
AcDbEntity
  8
TITLE
100
AcDbMText
 10
46.51323067012616
 20
49.74720077916316
 30
0.0
 40
0.125
 41
0.0
 71
     2
 72
     1
  1
25
  7
SLDTEXTSTYLE0
 73
     1
 44
1.0
  0
MTEXT
  5
19B
330
1F
100
AcDbEntity
  8
TITLE
100
AcDbMText
 10
48.48173460713405
 20
0.4125551098718104
 30
0.0
 40
0.125
 41
0.0
 71
     2
 72
     1
  1
24
  7
SLDTEXTSTYLE0
 73
     1
 44
1.0
  0
MTEXT
  5
19C
330
1F
100
AcDbEntity
  8
TITLE
100
AcDbMText
 10
48.48173460713405
 20
49.74720077916316
 30
0.0
 40
0.125
 41
0.0
 71
     2
 72
     1
  1
24
  7
SLDTEXTSTYLE0
 73
     1
 44
1.0
  0
MTEXT
  5
19D
330
1F
100
AcDbEntity
  8
TITLE
100
AcDbMText
 10
50.45023854414192
 20
0.4125551098718104
 30
0.0
 40
0.125
 41
0.0
 71
     2
 72
     1
  1
23
  7
SLDTEXTSTYLE0
 73
     1
 44
1.0
  0
MTEXT
  5
19E
330
1F
100
AcDbEntity
  8
TITLE
100
AcDbMText
 10
50.45023854414192
 20
49.74720077916317
 30
0.0
 40
0.125
 41
0.0
 71
     2
 72
     1
  1
23
  7
SLDTEXTSTYLE0
 73
     1
 44
1.0
  0
MTEXT
  5
19F
330
1F
100
AcDbEntity
  8
TITLE
100
AcDbMText
 10
52.4187424811498
 20
0.4125551098718104
 30
0.0
 40
0.125
 41
0.0
 71
     2
 72
     1
  1
22
  7
SLDTEXTSTYLE0
 73
     1
 44
1.0
  0
MTEXT
  5
1A0
330
1F
100
AcDbEntity
  8
TITLE
100
AcDbMText
 10
52.4187424811498
 20
49.74720077916316
 30
0.0
 40
0.125
 41
0.0
 71
     2
 72
     1
  1
22
  7
SLDTEXTSTYLE0
 73
     1
 44
1.0
  0
MTEXT
  5
1A1
330
1F
100
AcDbEntity
  8
TITLE
100
AcDbMText
 10
54.38724641815767
 20
0.4125551098718104
 30
0.0
 40
0.125
 41
0.0
 71
     2
 72
     1
  1
21
  7
SLDTEXTSTYLE0
 73
     1
 44
1.0
  0
MTEXT
  5
1A2
330
1F
100
AcDbEntity
  8
TITLE
100
AcDbMText
 10
54.38724641815767
 20
49.74720077916314
 30
0.0
 40
0.125
 41
0.0
 71
     2
 72
     1
  1
21
  7
SLDTEXTSTYLE0
 73
     1
 44
1.0
  0
MTEXT
  5
1A3
330
1F
100
AcDbEntity
  8
TITLE
100
AcDbMText
 10
56.35575035516553
 20
0.4125551098718104
 30
0.0
 40
0.125
 41
0.0
 71
     2
 72
     1
  1
20
  7
SLDTEXTSTYLE0
 73
     1
 44
1.0
  0
MTEXT
  5
1A4
330
1F
100
AcDbEntity
  8
TITLE
100
AcDbMText
 10
56.35575035516553
 20
49.74720077916316
 30
0.0
 40
0.125
 41
0.0
 71
     2
 72
     1
  1
20
  7
SLDTEXTSTYLE0
 73
     1
 44
1.0
  0
MTEXT
  5
1A5
330
1F
100
AcDbEntity
  8
TITLE
100
AcDbMText
 10
58.32425429217342
 20
0.4125551098718104
 30
0.0
 40
0.125
 41
0.0
 71
     2
 72
     1
  1
19
  7
SLDTEXTSTYLE0
 73
     1
 44
1.0
  0
MTEXT
  5
1A6
330
1F
100
AcDbEntity
  8
TITLE
100
AcDbMText
 10
58.32425429217342
 20
49.74720077916316
 30
0.0
 40
0.125
 41
0.0
 71
     2
 72
     1
  1
19
  7
SLDTEXTSTYLE0
 73
     1
 44
1.0
  0
MTEXT
  5
1A7
330
1F
100
AcDbEntity
  8
TITLE
100
AcDbMText
 10
60.29275822918129
 20
0.4125551098718104
 30
0.0
 40
0.125
 41
0.0
 71
     2
 72
     1
  1
18
  7
SLDTEXTSTYLE0
 73
     1
 44
1.0
  0
MTEXT
  5
1A8
330
1F
100
AcDbEntity
  8
TITLE
100
AcDbMText
 10
60.29275822918129
 20
49.74720077916317
 30
0.0
 40
0.125
 41
0.0
 71
     2
 72
     1
  1
18
  7
SLDTEXTSTYLE0
 73
     1
 44
1.0
  0
MTEXT
  5
1A9
330
1F
100
AcDbEntity
  8
TITLE
100
AcDbMText
 10
62.26126216618917
 20
0.4125551098718104
 30
0.0
 40
0.125
 41
0.0
 71
     2
 72
     1
  1
17
  7
SLDTEXTSTYLE0
 73
     1
 44
1.0
  0
MTEXT
  5
1AA
330
1F
100
AcDbEntity
  8
TITLE
100
AcDbMText
 10
62.26126216618917
 20
49.74720077916316
 30
0.0
 40
0.125
 41
0.0
 71
     2
 72
     1
  1
17
  7
SLDTEXTSTYLE0
 73
     1
 44
1.0
  0
MTEXT
  5
1AB
330
1F
100
AcDbEntity
  8
TITLE
100
AcDbMText
 10
64.22976610319704
 20
0.4125551098718104
 30
0.0
 40
0.125
 41
0.0
 71
     2
 72
     1
  1
16
  7
SLDTEXTSTYLE0
 73
     1
 44
1.0
  0
MTEXT
  5
1AC
330
1F
100
AcDbEntity
  8
TITLE
100
AcDbMText
 10
64.22976610319705
 20
49.74720077916317
 30
0.0
 40
0.125
 41
0.0
 71
     2
 72
     1
  1
16
  7
SLDTEXTSTYLE0
 73
     1
 44
1.0
  0
MTEXT
  5
1AD
330
1F
100
AcDbEntity
  8
TITLE
100
AcDbMText
 10
66.1982700402049
 20
0.4125551098718104
 30
0.0
 40
0.125
 41
0.0
 71
     2
 72
     1
  1
15
  7
SLDTEXTSTYLE0
 73
     1
 44
1.0
  0
MTEXT
  5
1AE
330
1F
100
AcDbEntity
  8
TITLE
100
AcDbMText
 10
66.1982700402049
 20
49.74720077916316
 30
0.0
 40
0.125
 41
0.0
 71
     2
 72
     1
  1
15
  7
SLDTEXTSTYLE0
 73
     1
 44
1.0
  0
MTEXT
  5
1AF
330
1F
100
AcDbEntity
  8
TITLE
100
AcDbMText
 10
68.1667739772128
 20
0.4125551098718104
 30
0.0
 40
0.125
 41
0.0
 71
     2
 72
     1
  1
14
  7
SLDTEXTSTYLE0
 73
     1
 44
1.0
  0
MTEXT
  5
1B0
330
1F
100
AcDbEntity
  8
TITLE
100
AcDbMText
 10
68.16677397721278
 20
49.74720077916315
 30
0.0
 40
0.125
 41
0.0
 71
     2
 72
     1
  1
14
  7
SLDTEXTSTYLE0
 73
     1
 44
1.0
  0
MTEXT
  5
1B1
330
1F
100
AcDbEntity
  8
TITLE
100
AcDbMText
 10
70.13527791422065
 20
0.4125551098718104
 30
0.0
 40
0.125
 41
0.0
 71
     2
 72
     1
  1
13
  7
SLDTEXTSTYLE0
 73
     1
 44
1.0
  0
MTEXT
  5
1B2
330
1F
100
AcDbEntity
  8
TITLE
100
AcDbMText
 10
70.13527791422067
 20
49.74720077916316
 30
0.0
 40
0.125
 41
0.0
 71
     2
 72
     1
  1
13
  7
SLDTEXTSTYLE0
 73
     1
 44
1.0
  0
MTEXT
  5
1B3
330
1F
100
AcDbEntity
  8
TITLE
100
AcDbMText
 10
72.10378185122855
 20
0.4125551098718104
 30
0.0
 40
0.125
 41
0.0
 71
     2
 72
     1
  1
12
  7
SLDTEXTSTYLE0
 73
     1
 44
1.0
  0
MTEXT
  5
1B4
330
1F
100
AcDbEntity
  8
TITLE
100
AcDbMText
 10
72.10378185122855
 20
49.74720077916316
 30
0.0
 40
0.125
 41
0.0
 71
     2
 72
     1
  1
12
  7
SLDTEXTSTYLE0
 73
     1
 44
1.0
  0
MTEXT
  5
1B5
330
1F
100
AcDbEntity
  8
TITLE
100
AcDbMText
 10
74.07228578823641
 20
0.4125551098718104
 30
0.0
 40
0.125
 41
0.0
 71
     2
 72
     1
  1
11
  7
SLDTEXTSTYLE0
 73
     1
 44
1.0
  0
MTEXT
  5
1B6
330
1F
100
AcDbEntity
  8
TITLE
100
AcDbMText
 10
74.07228578823639
 20
49.74720077916315
 30
0.0
 40
0.125
 41
0.0
 71
     2
 72
     1
  1
11
  7
SLDTEXTSTYLE0
 73
     1
 44
1.0
  0
MTEXT
  5
1B7
330
1F
100
AcDbEntity
  8
TITLE
100
AcDbMText
 10
76.04078972524427
 20
0.4125551098718104
 30
0.0
 40
0.125
 41
0.0
 71
     2
 72
     1
  1
10
  7
SLDTEXTSTYLE0
 73
     1
 44
1.0
  0
MTEXT
  5
1B8
330
1F
100
AcDbEntity
  8
TITLE
100
AcDbMText
 10
76.04078972524425
 20
49.74720077916316
 30
0.0
 40
0.125
 41
0.0
 71
     2
 72
     1
  1
10
  7
SLDTEXTSTYLE0
 73
     1
 44
1.0
  0
MTEXT
  5
1B9
330
1F
100
AcDbEntity
  8
TITLE
100
AcDbMText
 10
78.0105523429371
 20
0.4125551098718104
 30
0.0
 40
0.125
 41
0.0
 71
     2
 72
     1
  1
9
  7
SLDTEXTSTYLE0
 73
     1
 44
1.0
  0
MTEXT
  5
1BA
330
1F
100
AcDbEntity
  8
TITLE
100
AcDbMText
 10
78.0105523429371
 20
49.74720077916316
 30
0.0
 40
0.125
 41
0.0
 71
     2
 72
     1
  1
9
  7
SLDTEXTSTYLE0
 73
     1
 44
1.0
  0
MTEXT
  5
1BB
330
1F
100
AcDbEntity
  8
TITLE
100
AcDbMText
 10
79.97905627994497
 20
0.4125551098718103
 30
0.0
 40
0.125
 41
0.0
 71
     2
 72
     1
  1
8
  7
SLDTEXTSTYLE0
 73
     1
 44
1.0
  0
MTEXT
  5
1BC
330
1F
100
AcDbEntity
  8
TITLE
100
AcDbMText
 10
79.97905627994497
 20
49.74720077916317
 30
0.0
 40
0.125
 41
0.0
 71
     2
 72
     1
  1
8
  7
SLDTEXTSTYLE0
 73
     1
 44
1.0
  0
MTEXT
  5
1BD
330
1F
100
AcDbEntity
  8
TITLE
100
AcDbMText
 10
81.94756021695285
 20
0.4125551098718103
 30
0.0
 40
0.125
 41
0.0
 71
     2
 72
     1
  1
7
  7
SLDTEXTSTYLE0
 73
     1
 44
1.0
  0
MTEXT
  5
1BE
330
1F
100
AcDbEntity
  8
TITLE
100
AcDbMText
 10
81.94756021695285
 20
49.74720077916316
 30
0.0
 40
0.125
 41
0.0
 71
     2
 72
     1
  1
7
  7
SLDTEXTSTYLE0
 73
     1
 44
1.0
  0
MTEXT
  5
1BF
330
1F
100
AcDbEntity
  8
TITLE
100
AcDbMText
 10
83.91606415396072
 20
0.4125551098718104
 30
0.0
 40
0.125
 41
0.0
 71
     2
 72
     1
  1
6
  7
SLDTEXTSTYLE0
 73
     1
 44
1.0
  0
MTEXT
  5
1C0
330
1F
100
AcDbEntity
  8
TITLE
100
AcDbMText
 10
83.91606415396072
 20
49.74720077916316
 30
0.0
 40
0.125
 41
0.0
 71
     2
 72
     1
  1
6
  7
SLDTEXTSTYLE0
 73
     1
 44
1.0
  0
MTEXT
  5
1C1
330
1F
100
AcDbEntity
  8
TITLE
100
AcDbMText
 10
85.88456809096859
 20
0.4125551098718104
 30
0.0
 40
0.125
 41
0.0
 71
     2
 72
     1
  1
5
  7
SLDTEXTSTYLE0
 73
     1
 44
1.0
  0
MTEXT
  5
1C2
330
1F
100
AcDbEntity
  8
TITLE
100
AcDbMText
 10
85.88456809096859
 20
49.74720077916316
 30
0.0
 40
0.125
 41
0.0
 71
     2
 72
     1
  1
5
  7
SLDTEXTSTYLE0
 73
     1
 44
1.0
  0
MTEXT
  5
1C3
330
1F
100
AcDbEntity
  8
TITLE
100
AcDbMText
 10
87.85307202797648
 20
0.4125551098718104
 30
0.0
 40
0.125
 41
0.0
 71
     2
 72
     1
  1
4
  7
SLDTEXTSTYLE0
 73
     1
 44
1.0
  0
MTEXT
  5
1C4
330
1F
100
AcDbEntity
  8
TITLE
100
AcDbMText
 10
87.8530720279765
 20
49.74720077916317
 30
0.0
 40
0.125
 41
0.0
 71
     2
 72
     1
  1
4
  7
SLDTEXTSTYLE0
 73
     1
 44
1.0
  0
MTEXT
  5
1C5
330
1F
100
AcDbEntity
  8
TITLE
100
AcDbMText
 10
89.82157596498435
 20
0.4125551098718104
 30
0.0
 40
0.125
 41
0.0
 71
     2
 72
     1
  1
3
  7
SLDTEXTSTYLE0
 73
     1
 44
1.0
  0
MTEXT
  5
1C6
330
1F
100
AcDbEntity
  8
TITLE
100
AcDbMText
 10
89.82157596498435
 20
49.74720077916316
 30
0.0
 40
0.125
 41
0.0
 71
     2
 72
     1
  1
3
  7
SLDTEXTSTYLE0
 73
     1
 44
1.0
  0
MTEXT
  5
1C7
330
1F
100
AcDbEntity
  8
TITLE
100
AcDbMText
 10
91.79007990199223
 20
0.4125551098718104
 30
0.0
 40
0.125
 41
0.0
 71
     2
 72
     1
  1
2
  7
SLDTEXTSTYLE0
 73
     1
 44
1.0
  0
MTEXT
  5
1C8
330
1F
100
AcDbEntity
  8
TITLE
100
AcDbMText
 10
91.79007990199223
 20
49.74720077916316
 30
0.0
 40
0.125
 41
0.0
 71
     2
 72
     1
  1
2
  7
SLDTEXTSTYLE0
 73
     1
 44
1.0
  0
MTEXT
  5
1C9
330
1F
100
AcDbEntity
  8
TITLE
100
AcDbMText
 10
93.6365365949056
 20
0.4125551098718104
 30
0.0
 40
0.125
 41
0.0
 71
     2
 72
     1
  1
1
  7
SLDTEXTSTYLE0
 73
     1
 44
1.0
  0
MTEXT
  5
1CA
330
1F
100
AcDbEntity
  8
TITLE
100
AcDbMText
 10
93.6365365949056
 20
49.74720077916316
 30
0.0
 40
0.125
 41
0.0
 71
     2
 72
     1
  1
1
  7
SLDTEXTSTYLE0
 73
     1
 44
1.0
  0
LINE
  5
1CB
330
1F
100
AcDbEntity
  8
0
  6
SLD-Solid
 62
     7
370
    25
100
AcDbLine
 10
27.36929311437201
 20
46.07373128800966
 30
0.0
 11
3.49919311437201
 21
46.07373128800966
 31
0.0
  0
LINE
  5
1CC
330
1F
100
AcDbEntity
  8
0
  6
SLD-Solid
 62
     7
370
    25
100
AcDbLine
 10
3.494393704923048
 20
9.860369623504688
 30
0.0
 11
27.40059252382069
 21
9.860369623504523
 31
0.0
  0
LINE
  5
1CD
330
1F
100
AcDbEntity
  8
0
  6
SLD-Solid
 62
     7
370
    25
100
AcDbLine
 10
27.36929311437198
 20
45.73283747818807
 30
0.0
 11
27.36929311437198
 21
45.75893595440784
 31
0.0
  0
LINE
  5
1CE
330
1F
100
AcDbEntity
  8
0
  6
SLD-Solid
 62
     7
370
    25
100
AcDbLine
 10
3.49919311437201
 20
45.75893595440784
 30
0.0
 11
3.49919311437201
 21
45.73283747818806
 31
0.0
  0
LINE
  5
1CF
330
1F
100
AcDbEntity
  8
0
  6
SLD-Solid
 62
     7
370
    25
100
AcDbLine
 10
27.36929311437198
 20
45.7101737429722
 30
0.0
 11
27.36929311437198
 21
45.73283747818807
 31
0.0
  0
LINE
  5
1D0
330
1F
100
AcDbEntity
  8
0
  6
SLD-Solid
 62
     7
370
    25
100
AcDbLine
 10
3.49919311437201
 20
45.7101737429722
 30
0.0
 11
3.49919311437201
 21
45.73283747818806
 31
0.0
  0
LINE
  5
1D1
330
1F
100
AcDbEntity
  8
0
  6
SLD-Solid
 62
     7
370
    25
100
AcDbLine
 10
27.45567696805758
 20
10.03875877565778
 30
0.0
 11
27.4556769680577
 21
45.67293953448174
 31
0.0
  0
SPLINE
  5
1D2
330
1F
100
AcDbEntity
  8
0
  6
SLD-Solid
 62
     7
370
    25
100
AcDbSpline
210
0.0
220
0.0
230
1.0
 70
    12
 71
     3
 72
    12
 73
     8
 74
     0
 42
0.00000001
 43
0.00000001
 40
0.0
 40
0.0
 40
0.0
 40
0.0
 40
0.1425194206677666
 40
0.2834864123870949
 40
0.4371485203696364
 40
0.6058075353238195
 40
1.0
 40
1.0
 40
1.0
 40
1.0
 10
27.42089311437212
 20
9.970945584960836
 30
0.0
 41
1.0
 10
27.4246350656258
 20
9.972641462012314
 30
0.0
 41
1.0
 10
27.43207820797976
 20
9.97601474334422
 30
0.0
 41
1.0
 10
27.44091483932942
 20
9.982975770164728
 30
0.0
 41
1.0
 10
27.44778281558372
 20
9.992628528250561
 30
0.0
 41
1.0
 10
27.45449847104747
 20
10.01045441568292
 30
0.0
 41
1.0
 10
27.45519156229978
 20
10.02710062193772
 30
0.0
 41
1.0
 10
27.45567696805758
 20
10.03875877565777
 30
0.0
 41
1.0
  0
SPLINE
  5
1D3
330
1F
100
AcDbEntity
  8
0
  6
SLD-Solid
 62
     7
370
    25
100
AcDbSpline
210
0.0
220
0.0
230
1.0
 70
    12
 71
     3
 72
    12
 73
     8
 74
     0
 42
0.00000001
 43
0.00000001
 40
0.0
 40
0.0
 40
0.0
 40
0.0
 40
0.3853168567999984
 40
0.5557855899861591
 40
0.7157370394491279
 40
0.853501687335948
 40
1.0
 40
1.0
 40
1.0
 40
1.0
 10
3.412809260686437
 20
10.03875877565826
 30
0.0
 41
1.0
 10
3.413244816566601
 20
10.02727990491311
 30
0.0
 41
1.0
 10
3.413873067517881
 20
10.01072264603156
 30
0.0
 41
1.0
 10
3.420457020825663
 20
9.99301316977328
 30
0.0
 41
1.0
 10
3.427359635628384
 20
9.983283558734819
 30
0.0
 41
1.0
 10
3.436317226988979
 20
9.976202552293541
 30
0.0
 41
1.0
 10
3.443758279213553
 20
9.972819413386365
 30
0.0
 41
1.0
 10
3.44759311437193
 20
9.971075872333921
 30
0.0
 41
1.0
  0
LINE
  5
1D4
330
1F
100
AcDbEntity
  8
0
  6
SLD-Solid
 62
     7
370
    25
100
AcDbLine
 10
3.412809260686288
 20
45.67293953448173
 30
0.0
 11
3.412809260686437
 21
10.03875877565826
 31
0.0
  0
LINE
  5
1D5
330
1F
100
AcDbEntity
  8
0
  6
SLD-Solid
 62
     7
370
    25
100
AcDbLine
 10
27.3806769680577
 20
45.62668192077767
 30
0.0
 11
27.3806769680577
 21
45.62786853459898
 31
0.0
  0
LINE
  5
1D6
330
1F
100
AcDbEntity
  8
0
  6
SLD-Solid
 62
     7
370
    25
100
AcDbLine
 10
3.487809260686299
 20
45.62786853459903
 30
0.0
 11
3.474142132128957
 21
45.64626248240063
 31
0.0
  0
LINE
  5
1D7
330
1F
100
AcDbEntity
  8
0
  6
SLD-Solid
 62
     7
370
    25
100
AcDbLine
 10
3.487809260686299
 20
45.62786853459903
 30
0.0
 11
3.487809260686299
 21
45.62668176953581
 31
0.0
  0
LINE
  5
1D8
330
1F
100
AcDbEntity
  8
0
  6
SLD-Solid
 62
     7
370
    25
100
AcDbLine
 10
3.487809260686299
 20
45.62786853459903
 30
0.0
 11
3.490927174579482
 21
45.62476460462818
 31
0.0
  0
LINE
  5
1D9
330
1F
100
AcDbEntity
  8
0
  6
SLD-Solid
 62
     7
370
    25
100
AcDbLine
 10
27.36929311437198
 20
45.75893595440784
 30
0.0
 11
27.36929311437198
 21
45.76643217816407
 31
0.0
  0
LINE
  5
1DA
330
1F
100
AcDbEntity
  8
0
  6
SLD-Solid
 62
     7
370
    25
100
AcDbLine
 10
3.49919311437201
 20
45.76643217816406
 30
0.0
 11
3.49919311437201
 21
45.75893595440784
 31
0.0
  0
LINE
  5
1DB
330
1F
100
AcDbEntity
  8
0
  6
SLD-Solid
 62
     7
370
    25
100
AcDbLine
 10
3.497809260686298
 20
45.76643217816406
 30
0.0
 11
3.497809260686298
 21
46.07164870340117
 31
0.0
  0
LINE
  5
1DC
330
1F
100
AcDbEntity
  8
0
  6
SLD-Solid
 62
     7
370
    25
100
AcDbLine
 10
3.499193114371992
 20
46.07164870340117
 30
0.0
 11
3.497809260686298
 21
46.07164870340117
 31
0.0
  0
LINE
  5
1DD
330
1F
100
AcDbEntity
  8
0
  6
SLD-Solid
 62
     7
370
    25
100
AcDbLine
 10
3.499193114371992
 20
46.07339491112059
 30
0.0
 11
3.499193114371992
 21
46.07164870340117
 31
0.0
  0
LINE
  5
1DE
330
1F
100
AcDbEntity
  8
0
  6
SLD-Solid
 62
     7
370
    25
100
AcDbLine
 10
27.36929311437201
 20
46.07339491112059
 30
0.0
 11
3.499193114371992
 21
46.07339491112059
 31
0.0
  0
LINE
  5
1DF
330
1F
100
AcDbEntity
  8
0
  6
SLD-Solid
 62
     7
370
    25
100
AcDbLine
 10
27.36929311437201
 20
46.07164870340119
 30
0.0
 11
27.36929311437201
 21
46.07339491112059
 31
0.0
  0
LINE
  5
1E0
330
1F
100
AcDbEntity
  8
0
  6
SLD-Solid
 62
     7
370
    25
100
AcDbLine
 10
27.37067696805771
 20
46.07164870340119
 30
0.0
 11
27.36929311437201
 21
46.07164870340119
 31
0.0
  0
LINE
  5
1E1
330
1F
100
AcDbEntity
  8
0
  6
SLD-Solid
 62
     7
370
    25
100
AcDbLine
 10
27.37067696805771
 20
45.76643217816407
 30
0.0
 11
27.37067696805771
 21
46.07164870340119
 31
0.0
  0
LINE
  5
1E2
330
1F
100
AcDbEntity
  8
0
  6
SLD-Solid
 62
     7
370
    25
100
AcDbLine
 10
27.4556769680577
 20
45.68043575823797
 30
0.0
 11
27.4556769680577
 21
45.67293953448174
 31
0.0
  0
LINE
  5
1E3
330
1F
100
AcDbEntity
  8
0
  6
SLD-Solid
 62
     7
370
    25
100
AcDbLine
 10
3.412809260686288
 20
45.67293953448173
 30
0.0
 11
3.412809260686288
 21
45.68043575823796
 31
0.0
  0
ARC
  5
1E4
330
1F
100
AcDbEntity
  8
0
  6
SLD-Solid
 62
     7
370
    25
100
AcDbCircle
 10
27.37086715417485
 20
45.98683888759255
 30
0.0
 40
0.0848100290546738
100
AcDbArc
 50
0.1290644997644478
 51
90.12848564124609
  0
LINE
  5
1E5
330
1F
100
AcDbEntity
  8
0
  6
SLD-Solid
 62
     7
370
    25
100
AcDbLine
 10
27.4556769680577
 20
45.68181340530504
 30
0.0
 11
27.45567696805771
 21
45.98702993054215
 31
0.0
  0
LINE
  5
1E6
330
1F
100
AcDbEntity
  8
0
  6
SLD-Solid
 62
     7
370
    25
100
AcDbLine
 10
3.497809260686298
 20
45.76643217816406
 30
0.0
 11
3.497809260686298
 21
45.73158915404564
 31
0.0
  0
ARC
  5
1E7
330
1F
100
AcDbEntity
  8
0
  6
SLD-Solid
 62
     7
370
    25
100
AcDbCircle
 10
3.497619074569149
 20
45.98683888759253
 30
0.0
 40
0.0848100290546738
100
AcDbArc
 50
89.87151435874883
 51
179.870935500226
  0
LINE
  5
1E8
330
1F
100
AcDbEntity
  8
0
  6
SLD-Solid
 62
     7
370
    25
100
AcDbLine
 10
3.412809260686288
 20
45.68181340530503
 30
0.0
 11
3.412809260686288
 21
45.98702993054214
 31
0.0
  0
LINE
  5
1E9
330
1F
100
AcDbEntity
  8
0
  6
SLD-Solid
 62
     7
370
    25
100
AcDbLine
 10
27.4556769680577
 20
45.68181340530504
 30
0.0
 11
27.4556769680577
 21
45.68043575823797
 31
0.0
  0
LINE
  5
1EA
330
1F
100
AcDbEntity
  8
0
  6
SLD-Solid
 62
     7
370
    25
100
AcDbLine
 10
3.412809260686288
 20
45.68043575823796
 30
0.0
 11
3.412809260686288
 21
45.68181340530503
 31
0.0
  0
LINE
  5
1EB
330
1F
100
AcDbEntity
  8
0
  6
SLD-Solid
 62
     7
370
    25
100
AcDbLine
 10
27.4556769680577
 20
45.98864024090698
 30
0.0
 11
27.4556769680577
 21
45.98702993054214
 31
0.0
  0
LINE
  5
1EC
330
1F
100
AcDbEntity
  8
0
  6
SLD-Solid
 62
     7
370
    25
100
AcDbLine
 10
3.412809260686288
 20
45.98702993054214
 30
0.0
 11
3.412809260686288
 21
45.98864024090698
 31
0.0
  0
LINE
  5
1ED
330
1F
100
AcDbEntity
  8
0
  6
SLD-Solid
 62
     7
370
    25
100
AcDbLine
 10
3.49919311437201
 20
46.07373128800967
 30
0.0
 11
3.49919311437201
 21
46.07339491112059
 31
0.0
  0
LINE
  5
1EE
330
1F
100
AcDbEntity
  8
0
  6
SLD-Solid
 62
     7
370
    25
100
AcDbLine
 10
27.36929311437201
 20
46.07339491112059
 30
0.0
 11
27.36929311437201
 21
46.07373128800967
 31
0.0
  0
LINE
  5
1EF
330
1F
100
AcDbEntity
  8
0
  6
SLD-Solid
 62
     7
370
    25
100
AcDbLine
 10
3.494493114371992
 20
45.6725388145987
 30
0.0
 11
27.37399311437199
 21
45.6725388145987
 31
0.0
  0
LINE
  5
1F0
330
1F
100
AcDbEntity
  8
0
  6
SLD-Solid
 62
     7
370
    25
100
AcDbLine
 10
3.938907327934366
 20
45.1803990963495
 30
0.0
 11
26.92957890080962
 21
45.1803990963495
 31
0.0
  0
LINE
  5
1F1
330
1F
100
AcDbEntity
  8
0
  6
SLD-Solid
 62
     7
370
    25
100
AcDbLine
 10
3.938907327934366
 20
45.1803990963495
 30
0.0
 11
3.495907327934368
 21
45.62141223019132
 31
0.0
  0
LINE
  5
1F2
330
1F
100
AcDbEntity
  8
0
  6
SLD-Solid
 62
     7
370
    25
100
AcDbLine
 10
27.37257890080962
 20
45.62141223019132
 30
0.0
 11
26.92957890080962
 21
45.1803990963495
 31
0.0
  0
SPLINE
  5
1F3
330
1F
100
AcDbEntity
  8
0
  6
SLD-Solid
 62
     7
370
    25
100
AcDbSpline
210
0.0
220
0.0
230
1.0
 70
    12
 71
     3
 72
    24
 73
    20
 74
     0
 42
0.00000001
 43
0.00000001
 40
0.0
 40
0.0
 40
0.0
 40
0.0
 40
0.0381041424127209
 40
0.1147060492931842
 40
0.1919358101530849
 40
0.2307887286427394
 40
0.2655873811224636
 40
0.334040897269632
 40
0.3997360816783974
 40
0.4632767773466865
 40
0.4980757637383323
 40
0.5665299431666827
 40
0.6322257721706153
 40
0.6957671005363332
 40
0.7305660697158258
 40
0.79902021555928
 40
0.8647160106546579
 40
0.9282573056319068
 40
1.0
 40
1.0
 40
1.0
 40
1.0
 10
27.42089311437212
 20
9.878399689235135
 30
0.0
 41
1.0
 10
27.42087616612496
 20
9.878695660645977
 30
0.0
 41
1.0
 10
27.4208251463053
 20
9.87958663231184
 30
0.0
 41
1.0
 10
27.42023787210101
 20
9.88108067502382
 30
0.0
 41
1.0
 10
27.41911306291224
 20
9.88259018509861
 30
0.0
 41
1.0
 10
27.41790422255665
 20
9.883781166170639
 30
0.0
 41
1.0
 10
27.41657812787766
 20
9.884909548202762
 30
0.0
 41
1.0
 10
27.41469253477917
 20
9.886264762126528
 30
0.0
 41
1.0
 10
27.41204370870332
 20
9.887874129904251
 30
0.0
 41
1.0
 10
27.40951412082207
 20
9.889232668270358
 30
0.0
 41
1.0
 10
27.40670716856284
 20
9.890633263967908
 30
0.0
 41
1.0
 10
27.40362337172312
 20
9.89207532455393
 30
0.0
 41
1.0
 10
27.3996936531966
 20
9.893799666982336
 30
0.0
 41
1.0
 10
27.39620873792038
 20
9.89526320829392
 30
0.0
 41
1.0
 10
27.39252164409236
 20
9.896777301263255
 30
0.0
 41
1.0
 10
27.38864635620129
 20
9.898340699306459
 30
0.0
 41
1.0
 10
27.38395384677627
 20
9.900216552572884
 30
0.0
 41
1.0
 10
27.37907758626717
 20
9.902166336640791
 30
0.0
 41
1.0
 10
27.37575507909395
 20
9.903521763403718
 30
0.0
 41
1.0
 10
27.37399311437206
 20
9.904240562194776
 30
0.0
 41
1.0
  0
LINE
  5
1F4
330
1F
100
AcDbEntity
  8
0
  6
SLD-Solid
 62
     7
370
    25
100
AcDbLine
 10
27.42089311437212
 20
9.878399689235135
 30
0.0
 11
27.42089311437206
 21
45.62584916228
 31
0.0
  0
LINE
  5
1F5
330
1F
100
AcDbEntity
  8
0
  6
SLD-Solid
 62
     7
370
    25
100
AcDbLine
 10
3.447593114371994
 20
45.62584916228
 30
0.0
 11
3.44759311437193
 21
9.907269623504687
 31
0.0
  0
LINE
  5
1F6
330
1F
100
AcDbEntity
  8
0
  6
SLD-Solid
 62
     7
370
    25
100
AcDbLine
 10
27.37399311437206
 20
9.904240562194776
 30
0.0
 11
26.93099311437212
 21
10.3452536960366
 31
0.0
  0
LINE
  5
1F7
330
1F
100
AcDbEntity
  8
0
  6
SLD-Solid
 62
     7
370
    25
100
AcDbLine
 10
26.93099311437199
 20
45.17899122557058
 30
0.0
 11
26.93099311437212
 21
10.3452536960366
 31
0.0
  0
LINE
  5
1F8
330
1F
100
AcDbEntity
  8
0
  6
SLD-Solid
 62
     7
370
    25
100
AcDbLine
 10
26.93099311437199
 20
45.17899122557058
 30
0.0
 11
27.37399311437199
 21
45.6200043594124
 31
0.0
  0
LINE
  5
1F9
330
1F
100
AcDbEntity
  8
0
  6
SLD-Solid
 62
     7
370
    25
100
AcDbLine
 10
26.93099311437199
 20
45.18068463888374
 30
0.0
 11
26.93099311437199
 21
45.17899122557058
 31
0.0
  0
LINE
  5
1FA
330
1F
100
AcDbEntity
  8
0
  6
SLD-Solid
 62
     7
370
    25
100
AcDbLine
 10
3.937493114371992
 20
45.17899122557058
 30
0.0
 11
3.937493114371992
 21
45.18068463888374
 31
0.0
  0
LINE
  5
1FB
330
1F
100
AcDbEntity
  8
0
  6
SLD-Solid
 62
     7
370
    25
100
AcDbLine
 10
3.494493114371931
 20
45.6200043594124
 30
0.0
 11
3.937493114371992
 21
45.17899122557058
 31
0.0
  0
LINE
  5
1FC
330
1F
100
AcDbEntity
  8
0
  6
SLD-Solid
 62
     7
370
    25
100
AcDbLine
 10
3.937493114371867
 20
10.34525369603676
 30
0.0
 11
3.937493114371992
 21
45.17899122557058
 31
0.0
  0
LINE
  5
1FD
330
1F
100
AcDbEntity
  8
0
  6
SLD-Solid
 62
     7
370
    25
100
AcDbLine
 10
3.937493114371867
 20
10.34525369603676
 30
0.0
 11
3.494493114371868
 21
9.904240562194934
 31
0.0
  0
LINE
  5
1FE
330
1F
100
AcDbEntity
  8
0
  6
SLD-Solid
 62
     7
370
    25
100
AcDbLine
 10
27.37399311437199
 20
45.71056966107306
 30
0.0
 11
3.494493114371992
 21
45.71056966107305
 31
0.0
  0
ARC
  5
1FF
330
1F
100
AcDbEntity
  8
0
  6
SLD-Solid
 62
     7
370
    25
100
AcDbCircle
 10
27.37409805235898
 20
45.66377459799747
 30
0.0
 40
0.0467951807372286
100
AcDbArc
 50
0.1290644997602887
 51
90.12848564124471
  0
LINE
  5
200
330
1F
100
AcDbEntity
  8
0
  6
SLD-Solid
 62
     7
370
    25
100
AcDbLine
 10
27.420893114372
 20
45.66388000875436
 30
0.0
 11
27.42089311437206
 21
45.62584916228
 31
0.0
  0
ARC
  5
201
330
1F
100
AcDbEntity
  8
0
  6
SLD-Solid
 62
     7
370
    25
100
AcDbCircle
 10
27.37409805235909
 20
45.62574375152315
 30
0.0
 40
0.0467951807371778
100
AcDbArc
 50
0.1290644996995369
 51
90.12848564138405
  0
ARC
  5
202
330
1F
100
AcDbEntity
  8
0
  6
SLD-Solid
 62
     7
370
    25
100
AcDbCircle
 10
3.494388176385012
 20
45.6257437515231
 30
0.0
 40
0.0467951807372344
100
AcDbArc
 50
89.87151435876292
 51
179.870935500231
  0
LINE
  5
203
330
1F
100
AcDbEntity
  8
0
  6
SLD-Solid
 62
     7
370
    25
100
AcDbLine
 10
3.44759311437193
 20
45.66388000875436
 30
0.0
 11
3.447593114371994
 21
45.62584916228
 31
0.0
  0
ARC
  5
204
330
1F
100
AcDbEntity
  8
0
  6
SLD-Solid
 62
     7
370
    25
100
AcDbCircle
 10
3.494388176384872
 20
45.66377459799753
 30
0.0
 40
0.0467951807371565
100
AcDbArc
 50
89.87151435859143
 51
179.8709355003178
  0
SPLINE
  5
205
330
1F
100
AcDbEntity
  8
0
  6
SLD-Solid
 62
     7
370
    25
100
AcDbSpline
210
0.0
220
0.0
230
1.0
 70
    12
 71
     3
 72
     9
 73
     5
 74
     0
 42
0.00000001
 43
0.00000001
 40
0.0
 40
0.0
 40
0.0
 40
0.0
 40
0.5747056163064167
 40
1.0
 40
1.0
 40
1.0
 40
1.0
 10
3.494493114371992
 20
45.71056966107305
 30
0.0
 41
1.0
 10
3.495024170407619
 20
45.71064375273935
 30
0.0
 41
1.0
 10
3.495948219208528
 20
45.71077267381513
 30
0.0
 41
1.0
 10
3.496872405589814
 20
45.71075020301271
 30
0.0
 41
1.0
 10
3.497265456867258
 20
45.71074064630665
 30
0.0
 41
1.0
  0
SPLINE
  5
206
330
1F
100
AcDbEntity
  8
0
  6
SLD-Solid
 62
     7
370
    25
100
AcDbSpline
210
0.0
220
0.0
230
1.0
 70
    12
 71
     3
 72
     9
 73
     5
 74
     0
 42
0.00000001
 43
0.00000001
 40
0.0
 40
0.0
 40
0.0
 40
0.0
 40
0.1130573133438027
 40
1.0
 40
1.0
 40
1.0
 40
1.0
 10
27.37122087455988
 20
45.71076170579487
 30
0.0
 41
1.0
 10
27.37132534529751
 20
45.71076770219207
 30
0.0
 41
1.0
 10
27.37224939642294
 20
45.71082074075301
 30
0.0
 41
1.0
 10
27.37317349335571
 20
45.71068767911753
 30
0.0
 41
1.0
 10
27.37399311437199
 20
45.71056966107306
 30
0.0
 41
1.0
  0
SPLINE
  5
207
330
1F
100
AcDbEntity
  8
0
  6
SLD-Solid
 62
     7
370
    25
100
AcDbSpline
210
0.0
220
0.0
230
1.0
 70
    12
 71
     3
 72
     9
 73
     5
 74
     0
 42
0.00000001
 43
0.00000001
 40
0.0
 40
0.0
 40
0.0
 40
0.0
 40
0.8721616003929691
 40
1.0
 40
1.0
 40
1.0
 40
1.0
 10
3.494493114371992
 20
45.62256114052797
 30
0.0
 41
1.0
 10
3.493203685084181
 20
45.62335974336921
 30
0.0
 41
1.0
 10
3.491725255757286
 20
45.62427540262419
 30
0.0
 41
1.0
 10
3.490275370564603
 20
45.62516617022319
 30
0.0
 41
1.0
 10
3.49009001956196
 20
45.62528004452746
 30
0.0
 41
1.0
  0
SPLINE
  5
208
330
1F
100
AcDbEntity
  8
0
  6
SLD-Solid
 62
     7
370
    25
100
AcDbSpline
210
0.0
220
0.0
230
1.0
 70
    12
 71
     3
 72
    15
 73
    11
 74
     0
 42
0.00000001
 43
0.00000001
 40
0.0
 40
0.0
 40
0.0
 40
0.0
 40
0.1499391572905963
 40
0.3260057078157761
 40
0.4285927621726132
 40
0.5315652074297424
 40
0.6719743475861387
 40
0.8133218885827547
 40
0.9558057633220003
 40
0.9999999999999999
 40
0.9999999999999999
 40
0.9999999999999999
 40
0.9999999999999999
 10
3.494493114371931
 20
45.62086772721482
 30
0.0
 41
1.0
 10
3.493266038359032
 20
45.62209600906296
 30
0.0
 41
1.0
 10
3.490598064286367
 20
45.62476660492688
 30
0.0
 41
1.0
 10
3.487150599631522
 20
45.62822152805883
 30
0.0
 41
1.0
 10
3.484183054361874
 20
45.63126566481993
 30
0.0
 41
1.0
 10
3.481581155398113
 20
45.63400313969887
 30
0.0
 41
1.0
 10
3.478822779669381
 20
45.6370208143775
 30
0.0
 41
1.0
 10
3.476027998430783
 20
45.64031309999483
 30
0.0
 41
1.0
 10
3.474005196775695
 20
45.64284082687028
 30
0.0
 41
1.0
 10
3.473034843062782
 20
45.64426381521007
 30
0.0
 41
1.0
 10
3.472805121209888
 20
45.64460069393142
 30
0.0
 41
1.0
  0
LINE
  5
209
330
1F
100
AcDbEntity
  8
0
  6
SLD-Solid
 62
     7
370
    25
100
AcDbLine
 10
3.512480755285702
 20
45.60465417463683
 30
0.0
 11
3.494493114371992
 21
45.62256114052797
 31
0.0
  0
LINE
  5
20A
330
1F
100
AcDbEntity
  8
0
  6
SLD-Solid
 62
     7
370
    25
100
AcDbLine
 10
26.92707890080952
 20
10.34384582525803
 30
0.0
 11
27.37007890080966
 21
9.902832691416073
 31
0.0
  0
LINE
  5
20B
330
1F
100
AcDbEntity
  8
0
  6
SLD-Solid
 62
     7
370
    25
100
AcDbLine
 10
3.495907327934174
 20
9.902832691416178
 30
0.0
 11
3.93890732793423
 21
10.34384582525804
 31
0.0
  0
LINE
  5
20C
330
1F
100
AcDbEntity
  8
0
  6
SLD-Solid
 62
     7
370
    25
100
AcDbLine
 10
26.92707890080952
 20
10.34384582525804
 30
0.0
 11
3.938907327934228
 21
10.34384582525804
 31
0.0
  0
LINE
  5
20D
330
1F
100
AcDbEntity
  8
0
  6
SLD-Solid
 62
     7
370
    25
100
AcDbLine
 10
3.938907327934228
 20
10.34384582525804
 30
0.0
 11
3.938907327934228
 21
10.3455392385712
 31
0.0
  0
LINE
  5
20E
330
1F
100
AcDbEntity
  8
0
  6
SLD-Solid
 62
     7
370
    25
100
AcDbLine
 10
26.92707890080952
 20
10.3455392385712
 30
0.0
 11
26.92707890080952
 21
10.34384582525804
 31
0.0
  0
LINE
  5
20F
330
1F
100
AcDbEntity
  8
0
  6
SLD-Solid
 62
     7
370
    25
100
AcDbLine
 10
26.92707890080952
 20
10.3455392385712
 30
0.0
 11
3.938907327934228
 21
10.3455392385712
 31
0.0
  0
LINE
  5
210
330
1F
100
AcDbEntity
  8
0
  6
SLD-Solid
 62
     7
370
    25
100
AcDbLine
 10
27.42089311437212
 20
9.878399689235135
 30
0.0
 11
27.40299311437212
 21
9.878399689235135
 31
0.0
  0
SPLINE
  5
211
330
1F
100
AcDbEntity
  8
0
  6
SLD-Solid
 62
     7
370
    25
100
AcDbSpline
210
0.0
220
0.0
230
1.0
 70
    12
 71
     3
 72
    11
 73
     7
 74
     0
 42
0.00000001
 43
0.00000001
 40
0.0
 40
0.0
 40
0.0
 40
0.0
 40
0.2499999999999939
 40
0.5000000000000266
 40
0.7500000000000189
 40
1.0
 40
1.0
 40
1.0
 40
1.0
 10
27.40049311437187
 20
9.860579971185828
 30
0.0
 41
1.0
 10
27.39795859657502
 20
9.860700387628603
 30
0.0
 41
1.0
 10
27.39288956098132
 20
9.860941220514148
 30
0.0
 41
1.0
 10
27.38528600759076
 20
9.870271560435684
 30
0.0
 41
1.0
 10
27.3776824542002
 20
9.884678551570289
 30
0.0
 41
1.0
 10
27.37261341860651
 20
9.896781311467384
 30
0.0
 41
1.0
 10
27.37007890080966
 20
9.902832691415929
 30
0.0
 41
1.0
  0
LINE
  5
212
330
1F
100
AcDbEntity
  8
0
  6
SLD-Solid
 62
     7
370
    25
100
AcDbLine
 10
27.40049311437187
 20
9.86057997118591
 30
0.0
 11
27.40049311437187
 21
9.878399689235051
 31
0.0
  0
ARC
  5
213
330
1F
100
AcDbEntity
  8
0
  6
SLD-Solid
 62
     7
370
    25
100
AcDbCircle
 10
3.494388176384875
 20
9.907375034261577
 30
0.0
 40
0.0467951807372184
100
AcDbArc
 50
180.1290644997546
 51
270.1284856412515
  0
LINE
  5
214
330
1F
100
AcDbEntity
  8
DIMS
100
AcDbLine
 10
1.762468823731717
 20
3.860369623504652
 30
0.0
 11
27.94206853686547
 21
3.860369623504652
 31
0.0
  0
LINE
  5
215
330
1F
100
AcDbEntity
  8
DIMS
100
AcDbLine
 10
2.307294533404539
 20
3.860369623504652
 30
0.0
 11
2.307294533404539
 21
4.534394541861829
 31
0.0
  0
LINE
  5
216
330
1F
100
AcDbEntity
  8
DIMS
100
AcDbLine
 10
2.307294533404539
 20
4.534394541861829
 30
0.0
 11
2.06582642006625
 21
4.769525490804489
 31
0.0
  0
LINE
  5
217
330
1F
100
AcDbEntity
  8
DIMS
100
AcDbLine
 10
2.06582642006625
 20
4.769525490804489
 30
0.0
 11
2.54876264674283
 21
5.265477640203353
 31
0.0
  0
LINE
  5
218
330
1F
100
AcDbEntity
  8
DIMS
100
AcDbLine
 10
2.54876264674283
 20
5.265477640203353
 30
0.0
 11
2.307294533404539
 21
5.500608589146013
 31
0.0
  0
LINE
  5
219
330
1F
100
AcDbEntity
  8
DIMS
100
AcDbLine
 10
2.307294533404539
 20
5.500608589146013
 30
0.0
 11
2.307294533404539
 21
5.986942345913925
 31
0.0
  0
DIMENSION
  5
21A
330
1F
100
AcDbEntity
  8
DIMS
100
AcDbDimension
  2
_D
 10
2.308830909647392
 20
9.860369623504651
 30
0.0
 11
2.308830909647392
 21
5.210365379622584
 31
0.0
 70
    32
  1
48"\P^M\P 
 71
     2
 42
-1.0
  3
SLDDIMSTYLE0
100
AcDbAlignedDimension
 13
1.762468823731717
 23
3.860369623504652
 33
0.0
 14
3.494578415547016
 24
9.860369623504651
 34
0.0
 50
90.0000000000002
100
AcDbRotatedDimension
  0
DIMENSION
  5
22B
330
1F
100
AcDbEntity
  8
DIMS
100
AcDbDimension
  2
_D_1
 10
3.412809260686311
 20
46.94789080377146
 30
0.0
 11
15.43424311437195
 21
46.94789080377063
 31
0.0
 70
    32
  1
<>
 71
     2
 42
-1.0
  3
SLDDIMSTYLE1
100
AcDbAlignedDimension
 13
27.45567696805766
 23
45.98702993054219
 33
0.0
 14
3.412809260686245
 24
45.98702993054209
 34
0.0
 50
-0.0000000000039284
100
AcDbRotatedDimension
  0
DIMENSION
  5
23B
330
1F
100
AcDbEntity
  8
DIMS
100
AcDbDimension
  2
_D_2
 10
2.308830909647322
 20
9.860579971185945
 30
0.0
 11
2.308830909647381
 21
27.96817014921977
 31
0.0
 70
    32
  1
<>
 71
     2
 42
-1.0
  3
SLDDIMSTYLE1
100
AcDbAlignedDimension
 13
3.499193114371949
 23
46.07339491112055
 33
0.0
 14
3.494493114371929
 24
9.860579971185942
 34
0.0
 50
90.0000000000002
100
AcDbRotatedDimension
  0
MTEXT
  5
24A
330
1F
100
AcDbEntity
  8
NOTES
100
AcDbMText
 10
2.77006999041713
 20
4.600744377040486
 30
0.0
 40
0.5
 41
0.0
 71
     1
 72
     1
  1
Floor
  7
SLDTEXTSTYLE0
 73
     1
 44
1.0
  0
LINE
  5
24B
330
1F
100
AcDbEntity
  8
0
  6
SLD-Solid
 62
     7
370
    25
100
AcDbLine
 10
35.22043077713841
 20
16.14813635394285
 30
0.0
 11
35.22966859310689
 21
16.14813635394285
 31
0.0
  0
LINE
  5
24C
330
1F
100
AcDbEntity
  8
0
  6
SLD-Solid
 62
     7
370
    25
100
AcDbLine
 10
35.22043077713841
 20
16.07813635394285
 30
0.0
 11
35.22043077713841
 21
16.14813635394285
 31
0.0
  0
LINE
  5
24D
330
1F
100
AcDbEntity
  8
0
  6
SLD-Solid
 62
     7
370
    25
100
AcDbLine
 10
35.29543077713841
 20
16.07813635394285
 30
0.0
 11
35.22043077713841
 21
16.07813635394285
 31
0.0
  0
LINE
  5
24E
330
1F
100
AcDbEntity
  8
0
  6
SLD-Solid
 62
     7
370
    25
100
AcDbLine
 10
35.29543077713841
 20
16.07813635394285
 30
0.0
 11
35.29543077713844
 21
10.05632204162091
 31
0.0
  0
ARC
  5
24F
330
1F
100
AcDbEntity
  8
0
  6
SLD-Solid
 62
     7
370
    25
100
AcDbCircle
 10
35.19543080798095
 20
10.05624350181265
 30
0.0
 40
0.0999999999999993
100
AcDbArc
 50
349.9302302007501
 51
0.0450000000003976
  0
LINE
  5
250
330
1F
100
AcDbEntity
  8
0
  6
SLD-Solid
 62
     7
370
    25
100
AcDbLine
 10
35.30466859310689
 20
16.14814003399552
 30
0.0
 11
35.30466859310689
 21
45.95861457085184
 31
0.0
  0
LINE
  5
251
330
1F
100
AcDbEntity
  8
0
  6
SLD-Solid
 62
     7
370
    25
100
AcDbLine
 10
35.30123628283525
 20
16.14813635394284
 30
0.0
 11
35.30466859310689
 21
16.14814003399554
 31
0.0
  0
LINE
  5
252
330
1F
100
AcDbEntity
  8
0
  6
SLD-Solid
 62
     7
370
    25
100
AcDbLine
 10
35.22966859310689
 20
16.14813635394284
 30
0.0
 11
35.30123628283525
 21
16.14813635394283
 31
0.0
  0
SPLINE
  5
253
330
1F
100
AcDbEntity
  8
0
  6
SLD-Solid
 62
     7
370
    25
100
AcDbSpline
210
0.0
220
0.0
230
1.0
 70
    12
 71
     3
 72
     9
 73
     5
 74
     0
 42
0.00000001
 43
0.00000001
 40
0.0
 40
0.0
 40
0.0
 40
0.0
 40
0.4999999999998036
 40
1.0
 40
1.0
 40
1.0
 40
1.0
 10
35.30466859310689
 20
45.95861457085184
 30
0.0
 41
1.0
 10
35.30387545706312
 20
45.96433831146586
 30
0.0
 41
1.0
 10
35.30228918497558
 20
45.97578579269387
 30
0.0
 41
1.0
 10
35.2922604920817
 20
45.98723327392189
 30
0.0
 41
1.0
 10
35.28724614563475
 20
45.99295701453592
 30
0.0
 41
1.0
  0
SPLINE
  5
254
330
1F
100
AcDbEntity
  8
0
  6
SLD-Solid
 62
     7
370
    25
100
AcDbSpline
210
0.0
220
0.0
230
1.0
 70
    12
 71
     3
 72
    13
 73
     9
 74
     0
 42
0.00000001
 43
0.00000001
 40
0.0
 40
0.0
 40
0.0
 40
0.0
 40
0.1224982927844311
 40
0.2328320172590297
 40
0.3321534656844443
 40
0.4220636194461999
 40
0.6613293318419309
 40
1.0
 40
1.0
 40
1.0
 40
1.0
 10
35.26089751680089
 20
9.963126472542081
 30
0.0
 41
1.0
 10
35.26109596133552
 20
9.964538371152088
 30
0.0
 41
1.0
 10
35.26147314407221
 20
9.967221961217383
 30
0.0
 41
1.0
 10
35.26528813019264
 20
9.972511812306005
 30
0.0
 41
1.0
 10
35.26989934630821
 20
9.978351640067167
 30
0.0
 41
1.0
 10
35.27725818146676
 20
9.98846274797281
 30
0.0
 41
1.0
 10
35.28644973893892
 20
10.00899235354923
 30
0.0
 41
1.0
 10
35.29114118054484
 20
10.02776059047216
 30
0.0
 41
1.0
 10
35.29389036491316
 20
10.03875877565777
 30
0.0
 41
1.0
  0
LINE
  5
255
330
1F
100
AcDbEntity
  8
0
  6
SLD-Solid
 62
     7
370
    25
100
AcDbLine
 10
35.15480082899809
 20
10.70961467643662
 30
0.0
 11
31.83682303280018
 21
45.62455739124923
 31
0.0
  0
LINE
  5
256
330
1F
100
AcDbEntity
  8
0
  6
SLD-Solid
 62
     7
370
    25
100
AcDbLine
 10
35.22605449268246
 20
9.959815329192319
 30
0.0
 11
35.16664711679231
 21
10.5849566813794
 31
0.0
  0
SPLINE
  5
257
330
1F
100
AcDbEntity
  8
0
  6
SLD-Solid
 62
     7
370
    25
100
AcDbSpline
210
0.0
220
0.0
230
1.0
 70
    12
 71
     3
 72
    10
 73
     6
 74
     0
 42
0.00000001
 43
0.00000001
 40
0.0
 40
0.0
 40
0.0
 40
0.0
 40
0.2729913321479742
 40
0.7499058465705798
 40
1.0
 40
1.0
 40
1.0
 40
1.0
 10
35.16664711679231
 20
10.5849566813794
 30
0.0
 41
1.0
 10
35.16577983105995
 20
10.59605865477841
 30
0.0
 41
1.0
 10
35.16339740141932
 20
10.62655572109504
 30
0.0
 41
1.0
 10
35.15918899035753
 20
10.67006946197868
 30
0.0
 41
1.0
 10
35.15592399994436
 20
10.69949288913172
 30
0.0
 41
1.0
 10
35.15480082899821
 20
10.70961467643663
 30
0.0
 41
1.0
  0
LINE
  5
258
330
1F
100
AcDbEntity
  8
0
  6
SLD-Solid
 62
     7
370
    25
100
AcDbLine
 10
31.97827334039251
 20
45.76643217816407
 30
0.0
 11
35.19005417463412
 21
46.07164870340119
 31
0.0
  0
LINE
  5
259
330
1F
100
AcDbEntity
  8
0
  6
SLD-Solid
 62
     7
370
    25
100
AcDbLine
 10
35.2261592368391
 20
9.958713110776914
 30
0.0
 11
35.26100226095753
 21
9.962024254126673
 31
0.0
  0
LINE
  5
25A
330
1F
100
AcDbEntity
  8
0
  6
SLD-Solid
 62
     7
370
    25
100
AcDbLine
 10
35.22605449268246
 20
9.959815329192322
 30
0.0
 11
35.2261592368391
 21
9.958713110776914
 31
0.0
  0
LINE
  5
25B
330
1F
100
AcDbEntity
  8
0
  6
SLD-Solid
 62
     7
370
    25
100
AcDbLine
 10
35.26089751680089
 20
9.963126472542081
 30
0.0
 11
35.26100226095753
 21
9.962024254126673
 31
0.0
  0
ARC
  5
25C
330
1F
100
AcDbEntity
  8
0
  6
SLD-Solid
 62
     7
370
    25
100
AcDbCircle
 10
35.21552475320829
 20
45.99873128800967
 30
0.0
 40
0.0750000000000052
100
AcDbArc
 50
30.56437795586526
 51
95.42853354111068
  0
SPLINE
  5
25D
330
1F
100
AcDbEntity
  8
0
  6
SLD-Solid
 62
     7
370
    25
100
AcDbSpline
210
0.0
220
0.0
230
1.0
 70
    12
 71
     3
 72
     9
 73
     5
 74
     0
 42
0.00000001
 43
0.00000001
 40
0.0
 40
0.0
 40
0.0
 40
0.0
 40
0.5000000000000918
 40
1.0
 40
1.0
 40
1.0
 40
1.0
 10
35.2801041289223
 20
46.0368692511486
 30
0.0
 41
1.0
 10
35.28350533804916
 20
46.02990997815692
 30
0.0
 41
1.0
 10
35.29030775630286
 20
46.01599143217353
 30
0.0
 41
1.0
 10
35.29029335561918
 20
46.00049954368276
 30
0.0
 41
1.0
 10
35.29028615527735
 20
45.9927535994374
 30
0.0
 41
1.0
  0
ARC
  5
25E
330
1F
100
AcDbEntity
  8
0
  6
SLD-Solid
 62
     7
370
    25
100
AcDbCircle
 10
31.90648619593808
 20
45.68427233129693
 30
0.0
 40
0.0749999999999966
100
AcDbArc
 50
95.42853354111169
 51
139.6439698264266
  0
SPLINE
  5
25F
330
1F
100
AcDbEntity
  8
0
  6
SLD-Solid
 62
     7
370
    25
100
AcDbSpline
210
0.0
220
0.0
230
1.0
 70
    12
 71
     3
 72
     9
 73
     5
 74
     0
 42
0.00000001
 43
0.00000001
 40
0.0
 40
0.0
 40
0.0
 40
0.0
 40
0.4999999999998802
 40
1.0
 40
1.0
 40
1.0
 40
1.0
 10
31.83182257282716
 20
45.67717702411887
 30
0.0
 41
1.0
 10
31.83192362418762
 20
45.68734014323243
 30
0.0
 41
1.0
 10
31.83212572690854
 20
45.70766638145955
 30
0.0
 41
1.0
 10
31.8435975998144
 20
45.72444711261189
 30
0.0
 41
1.0
 10
31.84933353626733
 20
45.73283747818807
 30
0.0
 41
1.0
  0
LINE
  5
260
330
1F
100
AcDbEntity
  8
0
  6
SLD-Solid
 62
     7
370
    25
100
AcDbLine
 10
35.19005417463412
 20
46.07164870340119
 30
0.0
 11
35.20842944603023
 21
46.07339491112059
 31
0.0
  0
LINE
  5
261
330
1F
100
AcDbEntity
  8
0
  6
SLD-Solid
 62
     7
370
    25
100
AcDbLine
 10
31.89939088876003
 20
45.75893595440784
 30
0.0
 11
31.97827334039251
 21
45.76643217816407
 31
0.0
  0
LINE
  5
262
330
1F
100
AcDbEntity
  8
0
  6
SLD-Solid
 62
     7
370
    25
100
AcDbLine
 10
31.83182257282716
 20
45.67717702411887
 30
0.0
 11
31.83266454927896
 21
45.66831694084304
 31
0.0
  0
LINE
  5
263
330
1F
100
AcDbEntity
  8
0
  6
SLD-Solid
 62
     7
370
    25
100
AcDbLine
 10
31.33922201516226
 20
45.6200043594124
 30
0.0
 11
34.73330208630448
 21
9.904240562194776
 31
0.0
  0
LINE
  5
264
330
1F
100
AcDbEntity
  8
0
  6
SLD-Solid
 62
     7
370
    25
100
AcDbLine
 10
35.16664711679231
 20
10.5849566813794
 30
0.0
 11
35.15480082899809
 21
10.70961467643662
 31
0.0
  0
LINE
  5
265
330
1F
100
AcDbEntity
  8
0
  6
SLD-Solid
 62
     7
370
    25
100
AcDbLine
 10
31.38134094499707
 20
45.6725388145987
 30
0.0
 11
31.78153796487159
 21
45.71056966107306
 31
0.0
  0
LINE
  5
266
330
1F
100
AcDbEntity
  8
0
  6
SLD-Solid
 62
     7
370
    25
100
AcDbLine
 10
35.18475948098156
 20
9.898610817660192
 30
0.0
 11
34.78456246110705
 21
9.860579971185828
 31
0.0
  0
SPLINE
  5
267
330
1F
100
AcDbEntity
  8
0
  6
SLD-Solid
 62
     7
370
    25
100
AcDbSpline
210
0.0
220
0.0
230
1.0
 70
    12
 71
     3
 72
    11
 73
     7
 74
     0
 42
0.00000001
 43
0.00000001
 40
0.0
 40
0.0
 40
0.0
 40
0.0
 40
0.2499999999999927
 40
0.4999999999999916
 40
0.7500000000000016
 40
1.0
 40
1.0
 40
1.0
 40
1.0
 10
35.22701220121157
 20
9.949737402067642
 30
0.0
 41
1.0
 10
35.2268917847688
 20
9.943552633983813
 30
0.0
 41
1.0
 10
35.22665095188328
 20
9.931183097816152
 30
0.0
 41
1.0
 10
35.21732061196178
 20
9.914724032573165
 30
0.0
 41
1.0
 10
35.2029136208272
 20
9.90246048177534
 30
0.0
 41
1.0
 10
35.19081086093011
 20
9.899894039031905
 30
0.0
 41
1.0
 10
35.18475948098156
 20
9.898610817660192
 30
0.0
 41
1.0
  0
SPLINE
  5
268
330
1F
100
AcDbEntity
  8
0
  6
SLD-Solid
 62
     7
370
    25
100
AcDbSpline
210
0.0
220
0.0
230
1.0
 70
    12
 71
     3
 72
    11
 73
     7
 74
     0
 42
0.00000001
 43
0.00000001
 40
0.0
 40
0.0
 40
0.0
 40
0.0
 40
0.2499999999999939
 40
0.5000000000000266
 40
0.7500000000000189
 40
1.0
 40
1.0
 40
1.0
 40
1.0
 10
34.78456246110705
 20
9.860579971185828
 30
0.0
 41
1.0
 10
34.77837769302322
 20
9.860700387628603
 30
0.0
 41
1.0
 10
34.76600815685555
 20
9.860941220514148
 30
0.0
 41
1.0
 10
34.74954909161259
 20
9.870271560435684
 30
0.0
 41
1.0
 10
34.73728554081478
 20
9.884678551570289
 30
0.0
 41
1.0
 10
34.73471909807137
 20
9.896781311467384
 30
0.0
 41
1.0
 10
34.73343587669967
 20
9.902832691415929
 30
0.0
 41
1.0
  0
SPLINE
  5
269
330
1F
100
AcDbEntity
  8
0
  6
SLD-Solid
 62
     7
370
    25
100
AcDbSpline
210
0.0
220
0.0
230
1.0
 70
    12
 71
     3
 72
    11
 73
     7
 74
     0
 42
0.00000001
 43
0.00000001
 40
0.0
 40
0.0
 40
0.0
 40
0.0
 40
0.2109689467081776
 40
0.4643344536995477
 40
0.7178010815808493
 40
1.0
 40
1.0
 40
1.0
 40
1.0
 10
31.83266454927896
 20
45.66831694084304
 30
0.0
 41
1.0
 10
31.83167336182912
 20
45.6734234676215
 30
0.0
 41
1.0
 10
31.82949179676839
 20
45.6846627346273
 30
0.0
 41
1.0
 10
31.81862451530118
 20
45.6991081155794
 30
0.0
 41
1.0
 10
31.80182339775607
 20
45.70988085954984
 30
0.0
 41
1.0
 10
31.78853732413783
 20
45.71033199449963
 30
0.0
 41
1.0
 10
31.78153796487159
 20
45.71056966107306
 30
0.0
 41
1.0
  0
SPLINE
  5
26A
330
1F
100
AcDbEntity
  8
0
  6
SLD-Solid
 62
     7
370
    25
100
AcDbSpline
210
0.0
220
0.0
230
1.0
 70
    12
 71
     3
 72
    11
 73
     7
 74
     0
 42
0.00000001
 43
0.00000001
 40
0.0
 40
0.0
 40
0.0
 40
0.0
 40
0.2500000000000017
 40
0.5000000000000016
 40
0.7499999999999962
 40
1.0
 40
1.0
 40
1.0
 40
1.0
 10
31.38134094499707
 20
45.6725388145987
 30
0.0
 41
1.0
 10
31.37528956504854
 20
45.67125559322697
 30
0.0
 41
1.0
 10
31.36318680515146
 20
45.66868915048355
 30
0.0
 41
1.0
 10
31.34877981401688
 20
45.65642559968574
 30
0.0
 41
1.0
 10
31.33944947409538
 20
45.6399665344428
 30
0.0
 41
1.0
 10
31.33920864120983
 20
45.62759699827514
 30
0.0
 41
1.0
 10
31.33908822476706
 20
45.62141223019132
 30
0.0
 41
1.0
  0
LINE
  5
26B
330
1F
100
AcDbEntity
  8
0
  6
SLD-Solid
 62
     7
370
    25
100
AcDbLine
 10
31.33908822476706
 20
45.62141223019132
 30
0.0
 11
31.33922201516227
 21
45.62000435941231
 31
0.0
  0
LINE
  5
26C
330
1F
100
AcDbEntity
  8
0
  6
SLD-Solid
 62
     7
370
    25
100
AcDbLine
 10
34.7333020863046
 20
9.904240562194861
 30
0.0
 11
34.73343587669979
 21
9.902832691416073
 31
0.0
  0
LINE
  5
26D
330
1F
100
AcDbEntity
  8
0
  6
SLD-Solid
 62
     7
370
    25
100
AcDbLine
 10
35.22701220121173
 20
9.949737402067427
 30
0.0
 11
35.22615923683924
 21
9.958713110776825
 31
0.0
  0
LINE
  5
26E
330
1F
100
AcDbEntity
  8
0
  6
SLD-Solid
 62
     7
370
    25
100
AcDbLine
 10
31.83682303280023
 20
45.62455739124876
 30
0.0
 11
31.83266454927896
 21
45.66831694084304
 31
0.0
  0
DIMENSION
  5
26F
330
1F
100
AcDbEntity
  8
DIMS
100
AcDbDimension
  2
_D_3
 10
31.33922201516219
 20
46.94789080377063
 30
0.0
 11
33.32194530413451
 21
46.94789080377063
 31
0.0
 70
    32
  1
<>
 71
     2
 42
-1.0
  3
SLDDIMSTYLE1
100
AcDbAlignedDimension
 13
35.30466859310682
 23
45.95861457085188
 33
0.0
 14
31.33922201516219
 24
45.62000435941246
 34
0.0
100
AcDbRotatedDimension
  0
DIMENSION
  5
27E
330
1F
100
AcDbEntity
  8
DIMS
100
AcDbDimension
  2
_D_4
 10
32.63896185508153
 20
9.656682882525256
 30
0.0
 11
30.93735109702638
 21
27.56266230423168
 31
0.0
 70
    32
  1
<>
 71
     2
 42
-1.0
  3
SLDDIMSTYLE0
100
AcDbAlignedDimension
 13
31.38134094499701
 23
45.67253881459875
 33
0.0
 14
34.78456246110698
 24
9.860579971185857
 34
0.0
 50
275.4285335411099
100
AcDbRotatedDimension
  0
MTEXT
  5
289
330
1F
100
AcDbEntity
  8
NOTES
100
AcDbMText
 10
33.49556732980047
 20
9.350008133133061
 30
0.0
 40
0.5
 41
0.0
 71
     1
 72
     1
  1
Side view
  7
SLDTEXTSTYLE0
 73
     1
 44
1.0
  0
LINE
  5
28A
330
1F
100
AcDbEntity
  8
0
  6
SLD-Solid
 62
     7
370
    25
100
AcDbLine
 10
63.83630855856253
 20
10.89632188089644
 30
0.0
 11
63.83630855856253
 21
10.89840317100201
 31
0.0
  0
LINE
  5
28B
330
1F
100
AcDbEntity
  8
0
  6
SLD-Solid
 62
     7
370
    25
100
AcDbLine
 10
63.58230855856252
 20
10.89840317100197
 30
0.0
 11
63.58230855856252
 21
10.89632188089641
 31
0.0
  0
LINE
  5
28C
330
1F
100
AcDbEntity
  8
0
  6
SLD-Solid
 62
     7
370
    25
100
AcDbLine
 10
63.83630855856264
 20
42.66320472715464
 30
0.0
 11
63.83630855856264
 21
42.6652860172602
 31
0.0
  0
LINE
  5
28D
330
1F
100
AcDbEntity
  8
0
  6
SLD-Solid
 62
     7
370
    25
100
AcDbLine
 10
63.58230855856264
 20
42.66528601726016
 30
0.0
 11
63.58230855856264
 21
42.6632047271546
 31
0.0
  0
LINE
  5
28E
330
1F
100
AcDbEntity
  8
0
  6
SLD-Solid
 62
     7
370
    25
100
AcDbLine
 10
42.84606254019649
 20
26.2397326322192
 30
0.0
 11
42.84606254019649
 21
26.24181392232476
 31
0.0
  0
LINE
  5
28F
330
1F
100
AcDbEntity
  8
0
  6
SLD-Solid
 62
     7
370
    25
100
AcDbLine
 10
42.59206254019649
 20
26.24181392232473
 30
0.0
 11
42.59206254019649
 21
26.23973263221917
 31
0.0
  0
LINE
  5
290
330
1F
100
AcDbEntity
  8
0
  6
SLD-Solid
 62
     7
370
    25
100
AcDbLine
 10
42.94630855856263
 20
42.66320472715471
 30
0.0
 11
42.94630855856263
 21
42.66528601726027
 31
0.0
  0
LINE
  5
291
330
1F
100
AcDbEntity
  8
0
  6
SLD-Solid
 62
     7
370
    25
100
AcDbLine
 10
42.69230855856264
 20
42.66528601726024
 30
0.0
 11
42.69230855856264
 21
42.66320472715467
 31
0.0
  0
LINE
  5
292
330
1F
100
AcDbEntity
  8
0
  6
SLD-Solid
 62
     7
370
    25
100
AcDbLine
 10
42.84606254019652
 20
10.8988038453868
 30
0.0
 11
42.84606254019652
 21
10.90088513549236
 31
0.0
  0
LINE
  5
293
330
1F
100
AcDbEntity
  8
0
  6
SLD-Solid
 62
     7
370
    25
100
AcDbLine
 10
42.59206254019652
 20
10.90088513549233
 30
0.0
 11
42.59206254019652
 21
10.89880384538676
 31
0.0
  0
LINE
  5
294
330
1F
100
AcDbEntity
  8
0
  6
SLD-Solid
 62
     7
370
    25
100
AcDbLine
 10
63.83630855856258
 20
26.23720764275287
 30
0.0
 11
63.83630855856258
 21
26.23928893285843
 31
0.0
  0
LINE
  5
295
330
1F
100
AcDbEntity
  8
0
  6
SLD-Solid
 62
     7
370
    25
100
AcDbLine
 10
63.58230855856259
 20
26.2392889328584
 30
0.0
 11
63.58230855856259
 21
26.23720764275284
 31
0.0
  0
LINE
  5
296
330
1F
100
AcDbEntity
  8
0
  6
SLD-Solid
 62
     7
370
    25
100
AcDbLine
 10
65.14630855856251
 20
46.07373128800966
 30
0.0
 11
41.27620855856251
 21
46.07373128800966
 31
0.0
  0
LINE
  5
297
330
1F
100
AcDbEntity
  8
0
  6
SLD-Solid
 62
     7
370
    25
100
AcDbLine
 10
42.09800855856265
 20
10.17183679294837
 30
0.0
 11
42.09800855856265
 21
10.17410729124535
 31
0.0
  0
LINE
  5
298
330
1F
100
AcDbEntity
  8
0
  6
SLD-Solid
 62
     7
370
    25
100
AcDbLine
 10
41.84400855856264
 20
10.17410729124531
 30
0.0
 11
41.84400855856264
 21
10.17183679294833
 31
0.0
  0
LINE
  5
299
330
1F
100
AcDbEntity
  8
0
  6
SLD-Solid
 62
     7
370
    25
100
AcDbLine
 10
41.62160855856253
 20
10.64361133951187
 30
0.0
 11
41.62160855856253
 21
10.64588183780885
 31
0.0
  0
LINE
  5
29A
330
1F
100
AcDbEntity
  8
0
  6
SLD-Solid
 62
     7
370
    25
100
AcDbLine
 10
41.36760855856252
 20
10.64588183780881
 30
0.0
 11
41.36760855856252
 21
10.64361133951183
 31
0.0
  0
SPLINE
  5
29B
330
1F
100
AcDbEntity
  8
0
  6
SLD-Solid
 62
     7
370
    25
100
AcDbSpline
210
0.0
220
0.0
230
1.0
 70
    12
 71
     3
 72
    11
 73
     7
 74
     0
 42
0.00000001
 43
0.00000001
 40
0.0
 40
0.0
 40
0.0
 40
0.0
 40
0.0886357029044078
 40
0.25247934662512
 40
0.4541894009983072
 40
0.9999999999999999
 40
0.9999999999999999
 40
0.9999999999999999
 40
0.9999999999999999
 10
65.118884400113
 20
9.932184562457616
 30
0.0
 41
1.0
 10
65.11878815295331
 20
9.932114231228883
 30
0.0
 41
1.0
 10
65.11851399232506
 20
9.931913892289886
 30
0.0
 41
1.0
 10
65.11753901736773
 20
9.932392911743282
 30
0.0
 41
1.0
 10
65.11538284154143
 20
9.934102337612675
 30
0.0
 41
1.0
 10
65.11339249668875
 20
9.936770269961567
 30
0.0
 41
1.0
 10
65.1119392240449
 20
9.938718290724436
 30
0.0
 41
1.0
  0
LINE
  5
29C
330
1F
100
AcDbEntity
  8
0
  6
SLD-Solid
 62
     7
370
    25
100
AcDbLine
 10
41.24490914911382
 20
9.860369623504523
 30
0.0
 11
65.15110796801147
 21
9.860369623504688
 31
0.0
  0
CIRCLE
  5
29D
330
1F
100
AcDbEntity
  8
0
  6
SLD-Solid
 62
     7
370
    25
100
AcDbCircle
 10
63.70939761466615
 20
10.89795728208786
 30
0.0
 40
0.1268806197315576
  0
ARC
  5
29E
330
1F
100
AcDbEntity
  8
0
  6
SLD-Solid
 62
     7
370
    25
100
AcDbCircle
 10
63.70930855856253
 20
10.89670214035177
 30
0.0
 40
0.1270005692792517
100
AcDbArc
 50
180.1715527307456
 51
359.8284472692713
  0
CIRCLE
  5
29F
330
1F
100
AcDbEntity
  8
0
  6
SLD-Solid
 62
     7
370
    25
100
AcDbCircle
 10
63.70935513435961
 20
42.66484306259173
 30
0.0
 40
0.1268821543816016
  0
ARC
  5
2A0
330
1F
100
AcDbEntity
  8
0
  6
SLD-Solid
 62
     7
370
    25
100
AcDbCircle
 10
63.70930855856264
 20
42.66358318988675
 30
0.0
 40
0.1270005639122923
100
AcDbArc
 50
180.1707421501282
 51
359.8292578498895
  0
CIRCLE
  5
2A1
330
1F
100
AcDbEntity
  8
0
  6
SLD-Solid
 62
     7
370
    25
100
AcDbCircle
 10
42.71895908789964
 20
26.24137994935624
 30
0.0
 40
0.1268669040990624
  0
ARC
  5
2A2
330
1F
100
AcDbEntity
  8
0
  6
SLD-Solid
 62
     7
370
    25
100
AcDbCircle
 10
42.71906254019649
 20
26.24011312493213
 30
0.0
 40
0.1270005699778755
100
AcDbArc
 50
180.1716579634702
 51
359.8283420365458
  0
CIRCLE
  5
2A3
330
1F
100
AcDbEntity
  8
0
  6
SLD-Solid
 62
     7
370
    25
100
AcDbCircle
 10
42.81914347274664
 20
42.66485519029544
 30
0.0
 40
0.1268513073194199
  0
ARC
  5
2A4
330
1F
100
AcDbEntity
  8
0
  6
SLD-Solid
 62
     7
370
    25
100
AcDbCircle
 10
42.81930855856263
 20
42.66358433545692
 30
0.0
 40
0.1270005673312672
100
AcDbArc
 50
180.1712589670367
 51
359.828741032981
  0
CIRCLE
  5
2A5
330
1F
100
AcDbEntity
  8
0
  6
SLD-Solid
 62
     7
370
    25
100
AcDbCircle
 10
42.71944977466276
 20
10.90048090441714
 30
0.0
 40
0.1267268021691025
  0
ARC
  5
2A6
330
1F
100
AcDbEntity
  8
0
  6
SLD-Solid
 62
     7
370
    25
100
AcDbCircle
 10
42.71906254019652
 20
10.89918388781278
 30
0.0
 40
0.1270005686296175
100
AcDbArc
 50
180.1714548192966
 51
359.8285451807211
  0
CIRCLE
  5
2A7
330
1F
100
AcDbEntity
  8
0
  6
SLD-Solid
 62
     7
370
    25
100
AcDbCircle
 10
63.70939125914022
 20
26.23884348620319
 30
0.0
 40
0.1268810263242176
  0
ARC
  5
2A8
330
1F
100
AcDbEntity
  8
0
  6
SLD-Solid
 62
     7
370
    25
100
AcDbCircle
 10
63.70930855856258
 20
26.21955040120244
 30
0.0
 40
0.0312866796360822
100
AcDbArc
 50
19.91400885940845
 51
160.0859911405782
  0
ARC
  5
2A9
330
1F
100
AcDbEntity
  8
0
  6
SLD-Solid
 62
     7
370
    25
100
AcDbCircle
 10
63.70930855856258
 20
26.23758773052439
 30
0.0
 40
0.1270005687653196
100
AcDbArc
 50
180.1714752766551
 51
359.8285247233609
  0
LINE
  5
2AA
330
1F
100
AcDbEntity
  8
0
  6
SLD-Solid
 62
     7
370
    25
100
AcDbLine
 10
65.1801215403398
 20
16.14813635394285
 30
0.0
 11
65.2326924122481
 21
16.14813635394269
 31
0.0
  0
LINE
  5
2AB
330
1F
100
AcDbEntity
  8
0
  6
SLD-Solid
 62
     7
370
    25
100
AcDbLine
 10
65.15769241224811
 20
16.14814003399553
 30
0.0
 11
65.1801215403398
 21
16.14813635394285
 31
0.0
  0
SPLINE
  5
2AC
330
1F
100
AcDbEntity
  8
0
  6
SLD-Solid
 62
     7
370
    25
100
AcDbSpline
210
0.0
220
0.0
230
1.0
 70
    12
 71
     3
 72
    11
 73
     7
 74
     0
 42
0.00000001
 43
0.00000001
 40
0.0
 40
0.0
 40
0.0
 40
0.0
 40
0.2500000000000579
 40
0.5000000000000803
 40
0.750000000000108
 40
1.0
 40
1.0
 40
1.0
 40
1.0
 10
65.23269241224823
 20
45.98864024090698
 30
0.0
 41
1.0
 10
65.23234777237903
 20
45.98899997204273
 30
0.0
 41
1.0
 10
65.23165849264062
 20
45.9897194343142
 30
0.0
 41
1.0
 10
65.2260983650259
 20
45.99079862772144
 30
0.0
 41
1.0
 10
65.21769529374576
 20
45.99187782112866
 30
0.0
 41
1.0
 10
65.20973380168685
 20
45.99259728340014
 30
0.0
 41
1.0
 10
65.20575305565738
 20
45.99295701453589
 30
0.0
 41
1.0
  0
LINE
  5
2AD
330
1F
100
AcDbEntity
  8
0
  6
SLD-Solid
 62
     7
370
    25
100
AcDbLine
 10
65.2326924122481
 20
16.14813635394269
 30
0.0
 11
65.23269241224823
 21
45.98864024090698
 31
0.0
  0
LINE
  5
2AE
330
1F
100
AcDbEntity
  8
0
  6
SLD-Solid
 62
     7
370
    25
100
AcDbLine
 10
41.24239557678542
 20
16.14813635394284
 30
0.0
 11
41.26482470487692
 21
16.14814003399554
 31
0.0
  0
LINE
  5
2AF
330
1F
100
AcDbEntity
  8
0
  6
SLD-Solid
 62
     7
370
    25
100
AcDbLine
 10
41.18982470487693
 20
16.14813635394284
 30
0.0
 11
41.24239557678542
 21
16.14813635394283
 31
0.0
  0
SPLINE
  5
2B0
330
1F
100
AcDbEntity
  8
0
  6
SLD-Solid
 62
     7
370
    25
100
AcDbSpline
210
0.0
220
0.0
230
1.0
 70
    12
 71
     3
 72
    11
 73
     7
 74
     0
 42
0.00000001
 43
0.00000001
 40
0.0
 40
0.0
 40
0.0
 40
0.0
 40
0.2499999999999448
 40
0.4999999999999244
 40
0.74999999999994
 40
0.9999999999999999
 40
0.9999999999999999
 40
0.9999999999999999
 40
0.9999999999999999
 10
41.21676406146767
 20
45.99295701453592
 30
0.0
 41
1.0
 10
41.21278331543822
 20
45.99259728340016
 30
0.0
 41
1.0
 10
41.20482182337928
 20
45.99187782112866
 30
0.0
 41
1.0
 10
41.19641875209915
 20
45.99079862772143
 30
0.0
 41
1.0
 10
41.19085862448442
 20
45.9897194343142
 30
0.0
 41
1.0
 10
41.19016934474601
 20
45.98899997204273
 30
0.0
 41
1.0
 10
41.18982470487682
 20
45.98864024090698
 30
0.0
 41
1.0
  0
SPLINE
  5
2B1
330
1F
100
AcDbEntity
  8
0
  6
SLD-Solid
 62
     7
370
    25
100
AcDbSpline
210
0.0
220
0.0
230
1.0
 70
    12
 71
     3
 72
     9
 73
     5
 74
     0
 42
0.00000001
 43
0.00000001
 40
0.0
 40
0.0
 40
0.0
 40
0.0
 40
0.4999999999998036
 40
1.0
 40
1.0
 40
1.0
 40
1.0
 10
41.26482470487682
 20
45.95861457085184
 30
0.0
 41
1.0
 10
41.25604948286924
 20
45.96433831146586
 30
0.0
 41
1.0
 10
41.23849903885407
 20
45.97578579269387
 30
0.0
 41
1.0
 10
41.22400905392981
 20
45.98723327392189
 30
0.0
 41
1.0
 10
41.21676406146767
 20
45.99295701453592
 30
0.0
 41
1.0
  0
LINE
  5
2B2
330
1F
100
AcDbEntity
  8
0
  6
SLD-Solid
 62
     7
370
    25
100
AcDbLine
 10
41.18982470487693
 20
16.14813635394284
 30
0.0
 11
41.18982470487682
 21
45.98864024090698
 31
0.0
  0
ARC
  5
2B3
330
1F
100
AcDbEntity
  8
0
  6
SLD-Solid
 62
     7
370
    25
100
AcDbCircle
 10
64.89272586832072
 20
16.24820189954668
 30
0.0
 40
0.1000000000000094
100
AcDbArc
 50
199.9999999999972
 51
269.986622919629
  0
LINE
  5
2B4
330
1F
100
AcDbEntity
  8
0
  6
SLD-Solid
 62
     7
370
    25
100
AcDbLine
 10
64.79875660624212
 20
16.21399988521411
 30
0.0
 11
64.39876195614254
 21
17.31297615426543
 31
0.0
  0
ARC
  5
2B5
330
1F
100
AcDbEntity
  8
0
  6
SLD-Solid
 62
     7
370
    25
100
AcDbCircle
 10
65.33845457692844
 20
17.65499629759107
 30
0.0
 40
1.0
100
AcDbArc
 50
179.9999999999993
 51
199.9999999999992
  0
LINE
  5
2B6
330
1F
100
AcDbEntity
  8
0
  6
SLD-Solid
 62
     7
370
    25
100
AcDbLine
 10
64.33845457692844
 20
17.65499629759108
 30
0.0
 11
64.33845457692853
 21
41.77062302048007
 31
0.0
  0
ARC
  5
2B7
330
1F
100
AcDbEntity
  8
0
  6
SLD-Solid
 62
     7
370
    25
100
AcDbCircle
 10
65.33845457692853
 20
41.77062302048007
 30
0.0
 40
1.00000000000001
100
AcDbArc
 50
174.5714664588905
 51
179.9999999999995
  0
LINE
  5
2B8
330
1F
100
AcDbEntity
  8
0
  6
SLD-Solid
 62
     7
370
    25
100
AcDbLine
 10
64.34293960211629
 20
41.86522711618744
 30
0.0
 11
64.68855771540798
 21
45.50215218561024
 31
0.0
  0
ARC
  5
2B9
330
1F
100
AcDbEntity
  8
0
  6
SLD-Solid
 62
     7
370
    25
100
AcDbCircle
 10
64.71842316465235
 20
45.49931406273902
 30
0.0
 40
0.0300000000000017
100
AcDbArc
 50
133.5714664257121
 51
174.5714664588974
  0
LINE
  5
2BA
330
1F
100
AcDbEntity
  8
0
  6
SLD-Solid
 62
     7
370
    25
100
AcDbLine
 10
64.6977454001376
 20
45.52104951890338
 30
0.0
 11
65.15769241224821
 21
45.95861457085181
 31
0.0
  0
LINE
  5
2BB
330
1F
100
AcDbEntity
  8
0
  6
SLD-Solid
 62
     7
370
    25
100
AcDbLine
 10
65.15769241224811
 20
16.14814003399554
 30
0.0
 11
64.89270252091126
 21
16.14820190227217
 31
0.0
  0
LINE
  5
2BC
330
1F
100
AcDbEntity
  8
0
  6
SLD-Solid
 62
     7
370
    25
100
AcDbLine
 10
64.90019925229144
 20
18.34072823433033
 30
0.0
 11
64.95632374363163
 21
18.24351776378021
 31
0.0
  0
ARC
  5
2BD
330
1F
100
AcDbEntity
  8
0
  6
SLD-Solid
 62
     7
370
    25
100
AcDbCircle
 10
64.94350052248068
 20
18.36572823433031
 30
0.0
 40
0.0499999999999994
100
AcDbArc
 50
179.9999999999878
 51
209.9999999999758
  0
LINE
  5
2BE
330
1F
100
AcDbEntity
  8
0
  6
SLD-Solid
 62
     7
370
    25
100
AcDbLine
 10
64.89350052248069
 20
18.66342275925459
 30
0.0
 11
64.89350052248069
 21
18.36572823433032
 31
0.0
  0
ARC
  5
2BF
330
1F
100
AcDbEntity
  8
0
  6
SLD-Solid
 62
     7
370
    25
100
AcDbCircle
 10
64.79820528838044
 20
18.66391931648961
 30
0.0
 40
0.0952965278030047
100
AcDbArc
 50
359.7014501655595
 51
180.2985498344421
  0
LINE
  5
2C0
330
1F
100
AcDbEntity
  8
0
  6
SLD-Solid
 62
     7
370
    25
100
AcDbLine
 10
64.70291005428021
 20
18.36572823433034
 30
0.0
 11
64.70291005428021
 21
18.66342275925459
 31
0.0
  0
ARC
  5
2C1
330
1F
100
AcDbEntity
  8
0
  6
SLD-Solid
 62
     7
370
    25
100
AcDbCircle
 10
64.65291005428021
 20
18.36572823433031
 30
0.0
 40
0.0499999999999972
100
AcDbArc
 50
330.0000000000106
 51
0.0000000000326077
  0
LINE
  5
2C2
330
1F
100
AcDbEntity
  8
0
  6
SLD-Solid
 62
     7
370
    25
100
AcDbLine
 10
64.64008683312926
 20
18.2435177637802
 30
0.0
 11
64.69621132446943
 21
18.34072823433032
 31
0.0
  0
ARC
  5
2C3
330
1F
100
AcDbEntity
  8
0
  6
SLD-Solid
 62
     7
370
    25
100
AcDbCircle
 10
64.79820528838044
 20
18.15222803107706
 30
0.0
 40
0.1825794654062533
100
AcDbArc
 50
149.9999999999946
 51
30.00000000000826
  0
ARC
  5
2C4
330
1F
100
AcDbEntity
  8
0
  6
SLD-Solid
 62
     7
370
    25
100
AcDbCircle
 10
64.79775163197793
 20
40.14468877550824
 30
0.0
 40
0.1875000000000074
100
AcDbArc
 50
125.1240813799406
 51
179.9498999999986
  0
LINE
  5
2C5
330
1F
100
AcDbEntity
  8
0
  6
SLD-Solid
 62
     7
370
    25
100
AcDbLine
 10
64.6101447857383
 20
40.02257839561605
 30
0.0
 11
64.61025170365849
 21
40.14485272735396
 31
0.0
  0
ARC
  5
2C6
330
1F
100
AcDbEntity
  8
0
  6
SLD-Solid
 62
     7
370
    25
100
AcDbCircle
 10
64.56014480485311
 20
40.02262211610826
 30
0.0
 40
0.0500000000000106
100
AcDbArc
 50
340.0042123498467
 51
359.9498999999815
  0
LINE
  5
2C7
330
1F
100
AcDbEntity
  8
0
  6
SLD-Solid
 62
     7
370
    25
100
AcDbLine
 10
64.53796281723329
 20
39.81544390628406
 30
0.0
 11
64.60713069302078
 21
40.00552456326885
 31
0.0
  0
ARC
  5
2C8
330
1F
100
AcDbEntity
  8
0
  6
SLD-Solid
 62
     7
370
    25
100
AcDbCircle
 10
64.58494870540093
 20
39.79834635344466
 30
0.0
 40
0.0499999999999935
100
AcDbArc
 50
160.0042123498501
 51
179.9499000000051
  0
LINE
  5
2C9
330
1F
100
AcDbEntity
  8
0
  6
SLD-Solid
 62
     7
370
    25
100
AcDbLine
 10
64.53411764564659
 20
38.84794497392335
 30
0.0
 11
64.53494872451576
 21
39.79839007393685
 31
0.0
  0
ARC
  5
2CA
330
1F
100
AcDbEntity
  8
0
  6
SLD-Solid
 62
     7
370
    25
100
AcDbCircle
 10
64.55911763608917
 20
38.84792311367725
 30
0.0
 40
0.0250000000000038
100
AcDbArc
 50
179.9498999999888
 51
359.9498999999896
  0
LINE
  5
2CB
330
1F
100
AcDbEntity
  8
0
  6
SLD-Solid
 62
     7
370
    25
100
AcDbLine
 10
64.58494101766303
 20
39.78955444077008
 30
0.0
 11
64.58411762653176
 21
38.84790125343115
 31
0.0
  0
ARC
  5
2CC
330
1F
100
AcDbEntity
  8
0
  6
SLD-Solid
 62
     7
370
    25
100
AcDbCircle
 10
64.6349409985482
 20
39.7895107202779
 30
0.0
 40
0.0499999999999935
100
AcDbArc
 50
160.0042123498557
 51
179.9499000000051
  0
LINE
  5
2CD
330
1F
100
AcDbEntity
  8
0
  6
SLD-Solid
 62
     7
370
    25
100
AcDbLine
 10
64.65712298616802
 20
39.99668893010207
 30
0.0
 11
64.58795511038055
 21
39.80660827311729
 31
0.0
  0
ARC
  5
2CE
330
1F
100
AcDbEntity
  8
0
  6
SLD-Solid
 62
     7
370
    25
100
AcDbCircle
 10
64.61013709800037
 20
40.01378648294147
 30
0.0
 40
0.0499999999999948
100
AcDbArc
 50
340.0042123498488
 51
359.9498999999978
  0
LINE
  5
2CF
330
1F
100
AcDbEntity
  8
0
  6
SLD-Solid
 62
     7
370
    25
100
AcDbLine
 10
64.66025168454368
 20
40.14480900686176
 30
0.0
 11
64.66013707888554
 21
40.01374276244928
 31
0.0
  0
ARC
  5
2D0
330
1F
100
AcDbEntity
  8
0
  6
SLD-Solid
 62
     7
370
    25
100
AcDbCircle
 10
64.79775163197793
 20
40.14468877550824
 30
0.0
 40
0.1374999999999998
100
AcDbArc
 50
359.9499
 51
179.9498999999992
  0
LINE
  5
2D1
330
1F
100
AcDbEntity
  8
0
  6
SLD-Solid
 62
     7
370
    25
100
AcDbLine
 10
64.93411749272805
 20
38.84759520998584
 30
0.0
 11
64.93525157941215
 21
40.14456854415471
 31
0.0
  0
ARC
  5
2D2
330
1F
100
AcDbEntity
  8
0
  6
SLD-Solid
 62
     7
370
    25
100
AcDbCircle
 10
64.95911748317063
 20
38.84757334973975
 30
0.0
 40
0.0250000000000038
100
AcDbArc
 50
179.9499000000051
 51
359.9499000000059
  0
LINE
  5
2D3
330
1F
100
AcDbEntity
  8
0
  6
SLD-Solid
 62
     7
370
    25
100
AcDbLine
 10
64.98525156029734
 20
40.14452482366252
 30
0.0
 11
64.98411747361322
 21
38.84755148949365
 31
0.0
  0
ARC
  5
2D4
330
1F
100
AcDbEntity
  8
0
  6
SLD-Solid
 62
     7
370
    25
100
AcDbCircle
 10
64.79775163197793
 20
40.14468877550824
 30
0.0
 40
0.1874999999999836
100
AcDbArc
 50
359.9499000000016
 51
54.77571051447104
  0
ARC
  5
2D5
330
1F
100
AcDbEntity
  8
0
  6
SLD-Solid
 62
     7
370
    25
100
AcDbCircle
 10
64.923200994404
 20
40.32236462492757
 30
0.0
 40
0.0299999999999933
100
AcDbArc
 50
179.9498999999644
 51
234.7757105144783
  0
LINE
  5
2D6
330
1F
100
AcDbEntity
  8
0
  6
SLD-Solid
 62
     7
370
    25
100
AcDbLine
 10
64.89349919232988
 20
40.66340525120237
 30
0.0
 11
64.8932010058729
 21
40.3223908572229
 31
0.0
  0
ARC
  5
2D7
330
1F
100
AcDbEntity
  8
0
  6
SLD-Solid
 62
     7
370
    25
100
AcDbCircle
 10
64.7982052883805
 20
40.6634885771619
 30
0.0
 40
0.0952939403799236
100
AcDbArc
 50
359.9498999999978
 51
179.9498999999928
  0
LINE
  5
2D8
330
1F
100
AcDbEntity
  8
0
  6
SLD-Solid
 62
     7
370
    25
100
AcDbLine
 10
64.70261319798962
 20
40.32255752686718
 30
0.0
 11
64.7029113844311
 21
40.66357190312144
 31
0.0
  0
ARC
  5
2D9
330
1F
100
AcDbEntity
  8
0
  6
SLD-Solid
 62
     7
370
    25
100
AcDbCircle
 10
64.6726132094585
 20
40.3225837591625
 30
0.0
 40
0.0300000000000074
100
AcDbArc
 50
305.1240813799334
 51
359.9498999999924
  0
ARC
  5
2DA
330
1F
100
AcDbEntity
  8
0
  6
SLD-Solid
 62
     7
370
    25
100
AcDbCircle
 10
41.74990390766658
 20
40.32258375916253
 30
0.0
 40
0.0299999999999954
100
AcDbArc
 50
180.0501000000364
 51
234.8759186200982
  0
LINE
  5
2DB
330
1F
100
AcDbEntity
  8
0
  6
SLD-Solid
 62
     7
370
    25
100
AcDbLine
 10
41.71960573269399
 20
40.66357190312143
 30
0.0
 11
41.71990391913548
 21
40.32255752686719
 31
0.0
  0
ARC
  5
2DC
330
1F
100
AcDbEntity
  8
0
  6
SLD-Solid
 62
     7
370
    25
100
AcDbCircle
 10
41.6243118287446
 20
40.6634885771619
 30
0.0
 40
0.0952939403799165
100
AcDbArc
 50
0.0501000000029653
 51
180.0501000000038
  0
LINE
  5
2DD
330
1F
100
AcDbEntity
  8
0
  6
SLD-Solid
 62
     7
370
    25
100
AcDbLine
 10
41.5293161112522
 20
40.3223908572229
 30
0.0
 11
41.52901792479521
 21
40.66340525120237
 31
0.0
  0
ARC
  5
2DE
330
1F
100
AcDbEntity
  8
0
  6
SLD-Solid
 62
     7
370
    25
100
AcDbCircle
 10
41.49931612272109
 20
40.32236462492759
 30
0.0
 40
0.0300000000000013
100
AcDbArc
 50
305.2242894855377
 51
0.0500999999813092
  0
ARC
  5
2DF
330
1F
100
AcDbEntity
  8
0
  6
SLD-Solid
 62
     7
370
    25
100
AcDbCircle
 10
41.62476548514717
 20
40.14468877550826
 30
0.0
 40
0.1874999999999932
100
AcDbArc
 50
125.2242894855302
 51
180.0501000000022
  0
LINE
  5
2E0
330
1F
100
AcDbEntity
  8
0
  6
SLD-Solid
 62
     7
370
    25
100
AcDbLine
 10
41.43839964351189
 20
38.84755148949365
 30
0.0
 11
41.43726555682775
 21
40.14452482366254
 31
0.0
  0
ARC
  5
2E1
330
1F
100
AcDbEntity
  8
0
  6
SLD-Solid
 62
     7
370
    25
100
AcDbCircle
 10
41.46339963395447
 20
38.84757334973976
 30
0.0
 40
0.0249999999999967
100
AcDbArc
 50
180.0501000000283
 51
0.0500999999786165
  0
LINE
  5
2E2
330
1F
100
AcDbEntity
  8
0
  6
SLD-Solid
 62
     7
370
    25
100
AcDbLine
 10
41.48726553771294
 20
40.14456854415472
 30
0.0
 11
41.48839962439705
 21
38.84759520998585
 31
0.0
  0
ARC
  5
2E3
330
1F
100
AcDbEntity
  8
0
  6
SLD-Solid
 62
     7
370
    25
100
AcDbCircle
 10
41.62476548514717
 20
40.14468877550826
 30
0.0
 40
0.1374999999999856
100
AcDbArc
 50
0.0500999999948854
 51
180.0501000000075
  0
LINE
  5
2E4
330
1F
100
AcDbEntity
  8
0
  6
SLD-Solid
 62
     7
370
    25
100
AcDbLine
 10
41.76238003823955
 20
40.01374276244929
 30
0.0
 11
41.76226543258141
 21
40.14480900686178
 31
0.0
  0
ARC
  5
2E5
330
1F
100
AcDbEntity
  8
0
  6
SLD-Solid
 62
     7
370
    25
100
AcDbCircle
 10
41.81238001912473
 20
40.01378648294148
 30
0.0
 40
0.0500000000000033
100
AcDbArc
 50
180.0500999999957
 51
199.9957876501319
  0
LINE
  5
2E6
330
1F
100
AcDbEntity
  8
0
  6
SLD-Solid
 62
     7
370
    25
100
AcDbLine
 10
41.83456200674455
 20
39.80660827311731
 30
0.0
 11
41.76539413095706
 21
39.99668893010209
 31
0.0
  0
ARC
  5
2E7
330
1F
100
AcDbEntity
  8
0
  6
SLD-Solid
 62
     7
370
    25
100
AcDbCircle
 10
41.78757611857689
 20
39.7895107202779
 30
0.0
 40
0.0500000000000006
100
AcDbArc
 50
0.050100000011164
 51
19.99578765015961
  0
LINE
  5
2E8
330
1F
100
AcDbEntity
  8
0
  6
SLD-Solid
 62
     7
370
    25
100
AcDbLine
 10
41.83839949059334
 20
38.84790125343117
 30
0.0
 11
41.83757609946208
 21
39.7895544407701
 31
0.0
  0
ARC
  5
2E9
330
1F
100
AcDbEntity
  8
0
  6
SLD-Solid
 62
     7
370
    25
100
AcDbCircle
 10
41.86339948103593
 20
38.84792311367727
 30
0.0
 40
0.0250000000000038
100
AcDbArc
 50
180.050100000012
 51
0.0501000000111853
  0
LINE
  5
2EA
330
1F
100
AcDbEntity
  8
0
  6
SLD-Solid
 62
     7
370
    25
100
AcDbLine
 10
41.88756839260933
 20
39.79839007393687
 30
0.0
 11
41.88839947147851
 21
38.84794497392337
 31
0.0
  0
ARC
  5
2EB
330
1F
100
AcDbEntity
  8
0
  6
SLD-Solid
 62
     7
370
    25
100
AcDbCircle
 10
41.83756841172416
 20
39.79834635344469
 30
0.0
 40
0.0499999999999934
100
AcDbArc
 50
0.0500999999867444
 51
19.99578765013665
  0
LINE
  5
2EC
330
1F
100
AcDbEntity
  8
0
  6
SLD-Solid
 62
     7
370
    25
100
AcDbLine
 10
41.81538642410432
 20
40.00552456326887
 30
0.0
 11
41.88455429989181
 21
39.81544390628407
 31
0.0
  0
ARC
  5
2ED
330
1F
100
AcDbEntity
  8
0
  6
SLD-Solid
 62
     7
370
    25
100
AcDbCircle
 10
41.86237231227197
 20
40.02262211610827
 30
0.0
 40
0.0499999999999935
100
AcDbArc
 50
180.0500999999957
 51
199.9957876501451
  0
LINE
  5
2EE
330
1F
100
AcDbEntity
  8
0
  6
SLD-Solid
 62
     7
370
    25
100
AcDbLine
 10
41.8122654134666
 20
40.14485272735398
 30
0.0
 11
41.8123723313868
 21
40.02257839561608
 31
0.0
  0
ARC
  5
2EF
330
1F
100
AcDbEntity
  8
0
  6
SLD-Solid
 62
     7
370
    25
100
AcDbCircle
 10
41.62476548514717
 20
40.14468877550826
 30
0.0
 40
0.1874999999999945
100
AcDbArc
 50
0.0500999999992244
 51
54.87591862005993
  0
LINE
  5
2F0
330
1F
100
AcDbEntity
  8
0
  6
SLD-Solid
 62
     7
370
    25
100
AcDbLine
 10
41.72630579265572
 20
18.34072823433035
 30
0.0
 11
41.78243028399591
 21
18.24351776378021
 31
0.0
  0
ARC
  5
2F1
330
1F
100
AcDbEntity
  8
0
  6
SLD-Solid
 62
     7
370
    25
100
AcDbCircle
 10
41.76960706284495
 20
18.36572823433033
 30
0.0
 40
0.0499999999999994
100
AcDbArc
 50
179.9999999999877
 51
209.9999999999758
  0
LINE
  5
2F2
330
1F
100
AcDbEntity
  8
0
  6
SLD-Solid
 62
     7
370
    25
100
AcDbLine
 10
41.71960706284496
 20
18.66342275925462
 30
0.0
 11
41.71960706284496
 21
18.36572823433034
 31
0.0
  0
ARC
  5
2F3
330
1F
100
AcDbEntity
  8
0
  6
SLD-Solid
 62
     7
370
    25
100
AcDbCircle
 10
41.62431312246503
 20
18.66342275925462
 30
0.0
 40
0.0952939403799249
100
AcDbArc
 50
0.0000000000021361
 51
179.9999999999978
  0
LINE
  5
2F4
330
1F
100
AcDbEntity
  8
0
  6
SLD-Solid
 62
     7
370
    25
100
AcDbLine
 10
41.52901659464448
 20
18.36572823433034
 30
0.0
 11
41.52901918208511
 21
18.66342275925462
 31
0.0
  0
ARC
  5
2F5
330
1F
100
AcDbEntity
  8
0
  6
SLD-Solid
 62
     7
370
    25
100
AcDbCircle
 10
41.47901659464448
 20
18.36572823433034
 30
0.0
 40
0.0499999999999972
100
AcDbArc
 50
330.0000000000329
 51
0.0000000000040711
  0
LINE
  5
2F6
330
1F
100
AcDbEntity
  8
0
  6
SLD-Solid
 62
     7
370
    25
100
AcDbLine
 10
41.46619337349354
 20
18.24351776378021
 30
0.0
 11
41.52231786483372
 21
18.34072823433036
 31
0.0
  0
ARC
  5
2F7
330
1F
100
AcDbEntity
  8
0
  6
SLD-Solid
 62
     7
370
    25
100
AcDbCircle
 10
41.62431182874472
 20
18.15222803107706
 30
0.0
 40
0.1825794654062674
100
AcDbArc
 50
149.9999999999906
 51
30.000000000007
  0
LINE
  5
2F8
330
1F
100
AcDbEntity
  8
0
  6
SLD-Solid
 62
     7
370
    25
100
AcDbLine
 10
41.26482470487682
 20
45.95861457085186
 30
0.0
 11
41.72477171698748
 21
45.52104951890338
 31
0.0
  0
ARC
  5
2F9
330
1F
100
AcDbEntity
  8
0
  6
SLD-Solid
 62
     7
370
    25
100
AcDbCircle
 10
41.70409395247274
 20
45.49931406273902
 30
0.0
 40
0.0300000000000086
100
AcDbArc
 50
5.428533541102563
 51
46.42853357428746
  0
LINE
  5
2FA
330
1F
100
AcDbEntity
  8
0
  6
SLD-Solid
 62
     7
370
    25
100
AcDbLine
 10
41.73395940171711
 20
45.50215218561024
 30
0.0
 11
42.08406254019658
 21
41.81803138218193
 31
0.0
  0
LINE
  5
2FB
330
1F
100
AcDbEntity
  8
0
  6
SLD-Solid
 62
     7
370
    25
100
AcDbLine
 10
42.08406254019658
 20
41.81803138218193
 30
0.0
 11
42.08406254019673
 21
17.6549962975911
 31
0.0
  0
ARC
  5
2FC
330
1F
100
AcDbEntity
  8
0
  6
SLD-Solid
 62
     7
370
    25
100
AcDbCircle
 10
41.08406254019673
 20
17.6549962975911
 30
0.0
 40
0.9999999999999929
100
AcDbArc
 50
340.0000000000009
 51
0.0000000000002133
  0
LINE
  5
2FD
330
1F
100
AcDbEntity
  8
0
  6
SLD-Solid
 62
     7
370
    25
100
AcDbLine
 10
42.02375516098263
 20
17.31297615426544
 30
0.0
 11
41.62376051088305
 21
16.21399988521411
 31
0.0
  0
ARC
  5
2FE
330
1F
100
AcDbEntity
  8
0
  6
SLD-Solid
 62
     7
370
    25
100
AcDbCircle
 10
41.52979124880444
 20
16.2482018995467
 30
0.0
 40
0.1000000000000179
100
AcDbArc
 50
270.0133770803685
 51
339.9999999999911
  0
LINE
  5
2FF
330
1F
100
AcDbEntity
  8
0
  6
SLD-Solid
 62
     7
370
    25
100
AcDbLine
 10
41.5298145962139
 20
16.14820190227219
 30
0.0
 11
41.26482470487692
 21
16.14814003399556
 31
0.0
  0
SPLINE
  5
300
330
1F
100
AcDbEntity
  8
0
  6
SLD-Solid
 62
     7
370
    25
100
AcDbSpline
210
0.0
220
0.0
230
1.0
 70
    12
 71
     3
 72
     9
 73
     5
 74
     0
 42
0.00000001
 43
0.00000001
 40
0.0
 40
0.0
 40
0.0
 40
0.0
 40
0.5000000000000787
 40
1.0
 40
1.0
 40
1.0
 40
1.0
 10
65.18332475539977
 20
45.99295701453589
 30
0.0
 41
1.0
 10
65.17946075941997
 20
45.98723327392187
 30
0.0
 41
1.0
 10
65.17173276746036
 20
45.97578579269384
 30
0.0
 41
1.0
 10
65.16237253065226
 20
45.96433831146582
 30
0.0
 41
1.0
 10
65.15769241224821
 20
45.95861457085181
 30
0.0
 41
1.0
  0
LINE
  5
301
330
1F
100
AcDbEntity
  8
0
  6
SLD-Solid
 62
     7
370
    25
100
AcDbLine
 10
65.15769241224811
 20
16.14814003399553
 30
0.0
 11
65.16965461389701
 21
16.14813635394284
 31
0.0
  0
LINE
  5
302
330
1F
100
AcDbEntity
  8
0
  6
SLD-Solid
 62
     7
370
    25
100
AcDbLine
 10
41.25286250322812
 20
16.14813635394285
 30
0.0
 11
41.26482470487692
 21
16.14814003399554
 31
0.0
  0
LINE
  5
303
330
1F
100
AcDbEntity
  8
0
  6
SLD-Solid
 62
     7
370
    25
100
AcDbLine
 10
65.23269241224808
 20
10.05632204162088
 30
0.0
 11
65.2326924122481
 21
16.07813635394283
 31
0.0
  0
LINE
  5
304
330
1F
100
AcDbEntity
  8
0
  6
SLD-Solid
 62
     7
370
    25
100
AcDbLine
 10
41.18982470487693
 20
16.07813635394285
 30
0.0
 11
41.18982470487694
 21
10.05632204162091
 31
0.0
  0
LINE
  5
305
330
1F
100
AcDbEntity
  8
0
  6
SLD-Solid
 62
     7
370
    25
100
AcDbLine
 10
65.10969583240211
 20
45.9927535994374
 30
0.0
 11
64.62958958476105
 21
45.57673132404034
 31
0.0
  0
ARC
  5
306
330
1F
100
AcDbEntity
  8
0
  6
SLD-Solid
 62
     7
370
    25
100
AcDbCircle
 10
64.6099141540138
 20
45.59945130635281
 30
0.0
 40
0.0300552852485079
100
AcDbArc
 50
269.9879135564233
 51
310.8924563606785
  0
LINE
  5
307
330
1F
100
AcDbEntity
  8
0
  6
SLD-Solid
 62
     7
370
    25
100
AcDbLine
 10
64.60990781390446
 20
45.56939602177303
 30
0.0
 11
41.81260930322057
 21
45.56939602177301
 31
0.0
  0
ARC
  5
308
330
1F
100
AcDbEntity
  8
0
  6
SLD-Solid
 62
     7
370
    25
100
AcDbCircle
 10
41.8126029631112
 20
45.59945130635283
 30
0.0
 40
0.0300552852485362
100
AcDbArc
 50
229.1075436394057
 51
270.012086443646
  0
LINE
  5
309
330
1F
100
AcDbEntity
  8
0
  6
SLD-Solid
 62
     7
370
    25
100
AcDbLine
 10
41.79292753236395
 20
45.5767313240403
 30
0.0
 11
41.31282128472287
 21
45.9927535994374
 31
0.0
  0
LINE
  5
30A
330
1F
100
AcDbEntity
  8
0
  6
SLD-Solid
 62
     7
370
    25
100
AcDbLine
 10
65.18332475539977
 20
45.99295701453589
 30
0.0
 11
65.20575305565738
 21
45.99295701453589
 31
0.0
  0
LINE
  5
30B
330
1F
100
AcDbEntity
  8
0
  6
SLD-Solid
 62
     7
370
    25
100
AcDbLine
 10
65.16965461389701
 20
16.14813635394284
 30
0.0
 11
65.1801215403398
 21
16.14813635394285
 31
0.0
  0
LINE
  5
30C
330
1F
100
AcDbEntity
  8
0
  6
SLD-Solid
 62
     7
370
    25
100
AcDbLine
 10
41.25286250322812
 20
16.14813635394284
 30
0.0
 11
41.24239557678542
 21
16.14813635394283
 31
0.0
  0
SPLINE
  5
30D
330
1F
100
AcDbEntity
  8
0
  6
SLD-Solid
 62
     7
370
    25
100
AcDbSpline
210
0.0
220
0.0
230
1.0
 70
    12
 71
     3
 72
    14
 73
    10
 74
     0
 42
0.00000001
 43
0.00000001
 40
0.0
 40
0.0
 40
0.0
 40
0.0
 40
0.2682644324701965
 40
0.3869477891805301
 40
0.4983088263521817
 40
0.594223018600971
 40
0.7093378315769389
 40
0.8444444423418931
 40
1.0
 40
1.0
 40
1.0
 40
1.0
 10
65.23269241224808
 20
10.03875877565826
 30
0.0
 41
1.0
 10
65.23225920450724
 20
10.02727845730539
 30
0.0
 41
1.0
 10
65.23163434053991
 20
10.01071911037733
 30
0.0
 41
1.0
 10
65.22503587471034
 20
9.993018580964058
 30
0.0
 41
1.0
 10
65.21817162825336
 20
9.98326531617007
 30
0.0
 41
1.0
 10
65.20870273305901
 20
9.975964857898681
 30
0.0
 41
1.0
 10
65.19609496244149
 20
9.969808323120429
 30
0.0
 41
1.0
 10
65.1787396292608
 20
9.964122617639525
 30
0.0
 41
1.0
 10
65.16502966352297
 20
9.961316889119772
 30
0.0
 41
1.0
 10
65.1576924122481
 20
9.959815329192327
 30
0.0
 41
1.0
  0
SPLINE
  5
30E
330
1F
100
AcDbEntity
  8
0
  6
SLD-Solid
 62
     7
370
    25
100
AcDbSpline
210
0.0
220
0.0
230
1.0
 70
    12
 71
     3
 72
    14
 73
    10
 74
     0
 42
0.00000001
 43
0.00000001
 40
0.0
 40
0.0
 40
0.0
 40
0.0
 40
0.1531205174884894
 40
0.287293560474164
 40
0.4030307249166465
 40
0.5011705136018934
 40
0.608148513362021
 40
0.7255672075228607
 40
0.9999999999999999
 40
0.9999999999999999
 40
0.9999999999999999
 40
0.9999999999999999
 10
41.26482470487694
 20
9.959815329192322
 30
0.0
 41
1.0
 10
41.25759400358114
 20
9.96124422893733
 30
0.0
 41
1.0
 10
41.24402734410227
 20
9.963925213184504
 30
0.0
 41
1.0
 10
41.22673943341536
 20
9.96951065695904
 30
0.0
 41
1.0
 10
41.21401586452296
 20
9.975708884787606
 30
0.0
 41
1.0
 10
41.20455603254106
 20
9.982956137273613
 30
0.0
 41
1.0
 10
41.19772806601789
 20
9.992634397942538
 30
0.0
 41
1.0
 10
41.19099688735307
 20
10.01045039073892
 30
0.0
 41
1.0
 10
41.19030750977014
 20
10.0270989641219
 30
0.0
 41
1.0
 10
41.18982470487694
 20
10.03875877565777
 30
0.0
 41
1.0
  0
LINE
  5
30F
330
1F
100
AcDbEntity
  8
0
  6
SLD-Solid
 62
     7
370
    25
100
AcDbLine
 10
65.23269241224808
 20
10.03875877565826
 30
0.0
 11
65.23269241224808
 21
10.05632204162088
 31
0.0
  0
LINE
  5
310
330
1F
100
AcDbEntity
  8
0
  6
SLD-Solid
 62
     7
370
    25
100
AcDbLine
 10
41.18982470487694
 20
10.05632204162091
 30
0.0
 11
41.18982470487694
 21
10.03875877565777
 31
0.0
  0
SPLINE
  5
311
330
1F
100
AcDbEntity
  8
0
  6
SLD-Solid
 62
     7
370
    25
100
AcDbSpline
210
0.0
220
0.0
230
1.0
 70
    12
 71
     3
 72
     9
 73
     5
 74
     0
 42
0.00000001
 43
0.00000001
 40
0.0
 40
0.0
 40
0.0
 40
0.0
 40
0.5000000000000918
 40
1.0
 40
1.0
 40
1.0
 40
1.0
 10
41.27620855856252
 20
46.0368692511486
 30
0.0
 41
1.0
 10
41.28231067958925
 20
46.02990997815692
 30
0.0
 41
1.0
 10
41.29451492164269
 20
46.01599143217353
 30
0.0
 41
1.0
 10
41.30671916369614
 20
46.00049954368276
 30
0.0
 41
1.0
 10
41.31282128472287
 20
45.9927535994374
 30
0.0
 41
1.0
  0
LINE
  5
312
330
1F
100
AcDbEntity
  8
0
  6
SLD-Solid
 62
     7
370
    25
100
AcDbLine
 10
41.27620855856251
 20
46.07373128800967
 30
0.0
 11
41.27620855856251
 21
46.0368692511486
 31
0.0
  0
LINE
  5
313
330
1F
100
AcDbEntity
  8
0
  6
SLD-Solid
 62
     7
370
    25
100
AcDbLine
 10
65.14630855856251
 20
46.03686925114866
 30
0.0
 11
65.14630855856251
 21
46.07373128800967
 31
0.0
  0
SPLINE
  5
314
330
1F
100
AcDbEntity
  8
0
  6
SLD-Solid
 62
     7
370
    25
100
AcDbSpline
210
0.0
220
0.0
230
1.0
 70
    12
 71
     3
 72
     9
 73
     5
 74
     0
 42
0.00000001
 43
0.00000001
 40
0.0
 40
0.0
 40
0.0
 40
0.0
 40
0.4999999999999061
 40
0.9999999999999999
 40
0.9999999999999999
 40
0.9999999999999999
 40
0.9999999999999999
 10
65.10969583240212
 20
45.9927535994374
 30
0.0
 41
1.0
 10
65.11579795342885
 20
46.00049954368278
 30
0.0
 41
1.0
 10
65.12800219548232
 20
46.01599143217356
 30
0.0
 41
1.0
 10
65.14020643753578
 20
46.02990997815695
 30
0.0
 41
1.0
 10
65.14630855856251
 20
46.03686925114866
 30
0.0
 41
1.0
  0
ARC
  5
315
330
1F
100
AcDbEntity
  8
0
  6
SLD-Solid
 62
     7
370
    25
100
AcDbCircle
 10
63.42823082855523
 20
10.06180050801915
 30
0.0
 40
0.0997765047701888
100
AcDbArc
 50
180.1290644997402
 51
270.1284856412644
  0
LINE
  5
316
330
1F
100
AcDbEntity
  8
0
  6
SLD-Solid
 62
     7
370
    25
100
AcDbLine
 10
63.32845457692855
 20
43.76559929663393
 30
0.0
 11
63.32845457692836
 21
10.0615757516079
 31
0.0
  0
ARC
  5
317
330
1F
100
AcDbEntity
  8
0
  6
SLD-Solid
 62
     7
370
    25
100
AcDbCircle
 10
63.4277840180637
 20
43.76556044899367
 30
0.0
 40
0.0993294487317825
100
AcDbArc
 50
134.8400028243969
 51
179.9775916818647
  0
LINE
  5
318
330
1F
100
AcDbEntity
  8
0
  6
SLD-Solid
 62
     7
370
    25
100
AcDbLine
 10
64.65273338694531
 20
45.12517426324341
 30
0.0
 11
63.35774389880989
 21
43.83599283558019
 31
0.0
  0
ARC
  5
319
330
1F
100
AcDbEntity
  8
0
  6
SLD-Solid
 62
     7
370
    25
100
AcDbCircle
 10
65.1428531965457
 20
10.05915473147211
 30
0.0
 40
0.1004416206956411
100
AcDbArc
 50
269.9998336772508
 51
278.4959619657311
  0
LINE
  5
31A
330
1F
100
AcDbEntity
  8
0
  6
SLD-Solid
 62
     7
370
    25
100
AcDbLine
 10
43.06477321831512
 20
43.83599283558018
 30
0.0
 11
41.76978373017973
 21
45.12517426324336
 31
0.0
  0
ARC
  5
31B
330
1F
100
AcDbEntity
  8
0
  6
SLD-Solid
 62
     7
370
    25
100
AcDbCircle
 10
42.99473309906131
 20
43.76556044899367
 30
0.0
 40
0.0993294487317771
100
AcDbArc
 50
0.0224083181312304
 51
45.15999717560018
  0
LINE
  5
31C
330
1F
100
AcDbEntity
  8
0
  6
SLD-Solid
 62
     7
370
    25
100
AcDbLine
 10
43.09406254019652
 20
10.0615757516079
 30
0.0
 11
43.09406254019645
 21
43.76559929663392
 31
0.0
  0
ARC
  5
31D
330
1F
100
AcDbEntity
  8
0
  6
SLD-Solid
 62
     7
370
    25
100
AcDbCircle
 10
42.99428628856964
 20
10.06180050801918
 30
0.0
 40
0.099776504770187
100
AcDbArc
 50
269.8715143587453
 51
359.870935500242
  0
ARC
  5
31E
330
1F
100
AcDbEntity
  8
0
  6
SLD-Solid
 62
     7
370
    25
100
AcDbCircle
 10
41.27966392057923
 20
10.05915473147309
 30
0.0
 40
0.1004416206965969
100
AcDbArc
 50
261.5040380344095
 51
270.0001663227225
  0
LINE
  5
31F
330
1F
100
AcDbEntity
  8
0
  6
SLD-Solid
 62
     7
370
    25
100
AcDbLine
 10
63.42845457692837
 20
9.958713110776893
 30
0.0
 11
65.14285290497577
 21
9.958713110776893
 31
0.0
  0
LINE
  5
320
330
1F
100
AcDbEntity
  8
0
  6
SLD-Solid
 62
     7
370
    25
100
AcDbLine
 10
63.42845457692837
 20
9.958713110776893
 30
0.0
 11
63.42845457692837
 21
9.962024254126652
 31
0.0
  0
ARC
  5
321
330
1F
100
AcDbEntity
  8
0
  6
SLD-Solid
 62
     7
370
    25
100
AcDbCircle
 10
63.42823082855525
 20
10.0584893646694
 30
0.0
 40
0.0997765047701977
100
AcDbArc
 50
180.1290644997443
 51
270.1284856412522
  0
LINE
  5
322
330
1F
100
AcDbEntity
  8
0
  6
SLD-Solid
 62
     7
370
    25
100
AcDbLine
 10
63.32845457692836
 20
10.05826460825814
 30
0.0
 11
63.32845457692836
 21
10.0615757516079
 31
0.0
  0
LINE
  5
323
330
1F
100
AcDbEntity
  8
0
  6
SLD-Solid
 62
     7
370
    25
100
AcDbLine
 10
43.09406254019652
 20
10.05826460825814
 30
0.0
 11
43.09406254019652
 21
10.0615757516079
 31
0.0
  0
ARC
  5
324
330
1F
100
AcDbEntity
  8
0
  6
SLD-Solid
 62
     7
370
    25
100
AcDbCircle
 10
42.99428628856964
 20
10.05848936466943
 30
0.0
 40
0.0997765047701887
100
AcDbArc
 50
269.8715143587453
 51
359.870935500242
  0
LINE
  5
325
330
1F
100
AcDbEntity
  8
0
  6
SLD-Solid
 62
     7
370
    25
100
AcDbLine
 10
42.99406254019652
 20
9.958713110776923
 30
0.0
 11
42.99406254019652
 21
9.962024254126682
 31
0.0
  0
LINE
  5
326
330
1F
100
AcDbEntity
  8
0
  6
SLD-Solid
 62
     7
370
    25
100
AcDbLine
 10
41.27966421214911
 20
9.958713110776914
 30
0.0
 11
42.99406254019652
 21
9.958713110776923
 31
0.0
  0
LINE
  5
327
330
1F
100
AcDbEntity
  8
0
  6
SLD-Solid
 62
     7
370
    25
100
AcDbLine
 10
65.2326924122481
 20
16.14813635394283
 30
0.0
 11
65.2326924122481
 21
16.07813635394283
 31
0.0
  0
LINE
  5
328
330
1F
100
AcDbEntity
  8
0
  6
SLD-Solid
 62
     7
370
    25
100
AcDbLine
 10
41.18982470487693
 20
16.07813635394285
 30
0.0
 11
41.18982470487693
 21
16.14813635394285
 31
0.0
  0
ARC
  5
329
330
1F
100
AcDbEntity
  8
0
  6
SLD-Solid
 62
     7
370
    25
100
AcDbCircle
 10
65.14788259836536
 20
45.98683888759253
 30
0.0
 40
0.0848100290546802
100
AcDbArc
 50
0.1290644997740321
 51
90.12848564124369
  0
ARC
  5
32A
330
1F
100
AcDbEntity
  8
0
  6
SLD-Solid
 62
     7
370
    25
100
AcDbCircle
 10
41.27463451875967
 20
45.98683888759255
 30
0.0
 40
0.0848100290546738
100
AcDbArc
 50
89.87151435875153
 51
179.8709355002356
  0
LINE
  5
32B
330
1F
100
AcDbEntity
  8
0
  6
SLD-Solid
 62
     7
370
    25
100
AcDbLine
 10
65.14630855856252
 20
46.07164870340117
 30
0.0
 11
65.14769241224822
 21
46.07164870340117
 31
0.0
  0
LINE
  5
32C
330
1F
100
AcDbEntity
  8
0
  6
SLD-Solid
 62
     7
370
    25
100
AcDbLine
 10
41.27482470487681
 20
46.07164870340119
 30
0.0
 11
41.27620855856251
 21
46.07164870340119
 31
0.0
  0
LINE
  5
32D
330
1F
100
AcDbEntity
  8
0
  6
SLD-Solid
 62
     7
370
    25
100
AcDbLine
 10
63.27559788044388
 20
43.85945450991479
 30
0.0
 11
64.66377929503768
 21
45.24140989589897
 31
0.0
  0
LINE
  5
32E
330
1F
100
AcDbEntity
  8
0
  6
SLD-Solid
 62
     7
370
    25
100
AcDbLine
 10
43.14691923668116
 20
43.85945450991483
 30
0.0
 11
63.27559788044388
 21
43.85945450991479
 31
0.0
  0
LINE
  5
32F
330
1F
100
AcDbEntity
  8
0
  6
SLD-Solid
 62
     7
370
    25
100
AcDbLine
 10
41.75873782208735
 20
45.24140989589898
 30
0.0
 11
43.14691923668116
 21
43.85945450991483
 31
0.0
  0
LINE
  5
330
330
1F
100
AcDbEntity
  8
0
  6
SLD-Solid
 62
     7
370
    25
100
AcDbLine
 10
63.27559788044388
 20
43.85614336656504
 30
0.0
 11
63.27559788044388
 21
43.85945450991479
 31
0.0
  0
LINE
  5
331
330
1F
100
AcDbEntity
  8
0
  6
SLD-Solid
 62
     7
370
    25
100
AcDbLine
 10
63.27559788044388
 20
43.85614336656504
 30
0.0
 11
64.66343175759654
 21
45.23775277382224
 31
0.0
  0
LINE
  5
332
330
1F
100
AcDbEntity
  8
0
  6
SLD-Solid
 62
     7
370
    25
100
AcDbLine
 10
43.14691923668116
 20
43.85614336656508
 30
0.0
 11
43.14691923668116
 21
43.85945450991483
 31
0.0
  0
LINE
  5
333
330
1F
100
AcDbEntity
  8
0
  6
SLD-Solid
 62
     7
370
    25
100
AcDbLine
 10
41.75908535952849
 20
45.23775277382227
 30
0.0
 11
43.14691923668116
 21
43.85614336656508
 31
0.0
  0
LINE
  5
334
330
1F
100
AcDbEntity
  8
0
  6
SLD-Solid
 62
     7
370
    25
100
AcDbLine
 10
43.14691923668116
 20
43.85614336656508
 30
0.0
 11
63.27559788044388
 21
43.85614336656504
 31
0.0
  0
CIRCLE
  5
335
330
1F
100
AcDbEntity
  8
0
  6
SLD-Solid
 62
     7
370
    25
100
AcDbCircle
 10
41.97056100895912
 20
10.1739633415774
 30
0.0
 40
0.1265581922939548
  0
CIRCLE
  5
336
330
1F
100
AcDbEntity
  8
0
  6
SLD-Solid
 62
     7
370
    25
100
AcDbCircle
 10
41.49416100895899
 20
10.64573788814087
 30
0.0
 40
0.1265581922939657
  0
ARC
  5
337
330
1F
100
AcDbEntity
  8
0
  6
SLD-Solid
 62
     7
370
    25
100
AcDbCircle
 10
41.49460855856253
 20
10.64398869068486
 30
0.0
 40
0.1270005606047013
100
AcDbArc
 50
180.1702406770387
 51
359.8297593229789
  0
LINE
  5
338
330
1F
100
AcDbEntity
  8
0
  6
SLD-Solid
 62
     7
370
    25
100
AcDbLine
 10
65.23430855856263
 20
41.72241609416821
 30
0.0
 11
65.23269241224818
 21
41.97340415994289
 31
0.0
  0
LINE
  5
339
330
1F
100
AcDbEntity
  8
0
  6
SLD-Solid
 62
     7
370
    25
100
AcDbLine
 10
65.23430855856253
 20
13.93759314715893
 30
0.0
 11
65.23430855856263
 21
41.72241609416821
 31
0.0
  0
LINE
  5
33A
330
1F
100
AcDbEntity
  8
0
  6
SLD-Solid
 62
     7
370
    25
100
AcDbLine
 10
65.23430855856253
 20
13.93532264886195
 30
0.0
 11
65.23430855856253
 21
13.93759314715893
 31
0.0
  0
SPLINE
  5
33B
330
1F
100
AcDbEntity
  8
0
  6
SLD-Solid
 62
     7
370
    25
100
AcDbSpline
210
0.0
220
0.0
230
1.0
 70
    12
 71
     3
 72
    11
 73
     7
 74
     0
 42
0.00000001
 43
0.00000001
 40
0.0
 40
0.0
 40
0.0
 40
0.0
 40
0.2499999999999927
 40
0.4999999999999916
 40
0.7500000000000016
 40
1.0
 40
1.0
 40
1.0
 40
1.0
 10
41.31747049933952
 20
9.949737402067642
 30
0.0
 41
1.0
 10
41.31143200427478
 20
9.943552633983813
 30
0.0
 41
1.0
 10
41.29935501414531
 20
9.931183097816152
 30
0.0
 41
1.0
 10
41.28123952895107
 20
9.914724032573165
 30
0.0
 41
1.0
 10
41.26312404375687
 20
9.90246048177534
 30
0.0
 41
1.0
 10
41.25104705362739
 20
9.899894039031905
 30
0.0
 41
1.0
 10
41.24500855856265
 20
9.898610817660192
 30
0.0
 41
1.0
  0
SPLINE
  5
33C
330
1F
100
AcDbEntity
  8
0
  6
SLD-Solid
 62
     7
370
    25
100
AcDbSpline
210
0.0
220
0.0
230
1.0
 70
    12
 71
     3
 72
    11
 73
     7
 74
     0
 42
0.00000001
 43
0.00000001
 40
0.0
 40
0.0
 40
0.0
 40
0.0
 40
0.2500000000000283
 40
0.5000000000000158
 40
0.7500000000000171
 40
1.0
 40
1.0
 40
1.0
 40
1.0
 10
65.15100855856265
 20
9.898610817660359
 30
0.0
 41
1.0
 10
65.14717839683122
 20
9.899894039032066
 30
0.0
 41
1.0
 10
65.13951807336836
 20
9.902460481775494
 30
0.0
 41
1.0
 10
65.12802758817408
 20
9.914724032573272
 30
0.0
 41
1.0
 10
65.1165371029798
 20
9.931183097816183
 30
0.0
 41
1.0
 10
65.10887677951695
 20
9.943552633983822
 30
0.0
 41
1.0
 10
65.10504661778552
 20
9.949737402067639
 30
0.0
 41
1.0
  0
LINE
  5
33D
330
1F
100
AcDbEntity
  8
0
  6
SLD-Solid
 62
     7
370
    25
100
AcDbLine
 10
41.22460855856239
 20
9.970945584960806
 30
0.0
 11
41.22460855856246
 21
9.916430535709496
 31
0.0
  0
LINE
  5
33E
330
1F
100
AcDbEntity
  8
0
  6
SLD-Solid
 62
     7
370
    25
100
AcDbLine
 10
65.19790855856266
 20
9.945300469979053
 30
0.0
 11
65.19790855856266
 21
9.971075872333955
 31
0.0
  0
LINE
  5
33F
330
1F
100
AcDbEntity
  8
0
  6
SLD-Solid
 62
     7
370
    25
100
AcDbLine
 10
41.31747049933959
 20
9.949737402067427
 30
0.0
 11
41.32648664569257
 21
9.958713110776914
 31
0.0
  0
LINE
  5
340
330
1F
100
AcDbEntity
  8
0
  6
SLD-Solid
 62
     7
370
    25
100
AcDbLine
 10
65.09603047143266
 20
9.958713110776893
 30
0.0
 11
65.10504661778552
 21
9.949737402067518
 31
0.0
  0
LINE
  5
341
330
1F
100
AcDbEntity
  8
0
  6
SLD-Solid
 62
     7
370
    25
100
AcDbLine
 10
41.24500855856265
 20
9.860579971185828
 30
0.0
 11
65.15100855856265
 21
9.860579971185993
 31
0.0
  0
LINE
  5
342
330
1F
100
AcDbEntity
  8
0
  6
SLD-Solid
 62
     7
370
    25
100
AcDbLine
 10
41.24500855856265
 20
9.898610817660192
 30
0.0
 11
41.24500855856265
 21
9.860579971185828
 31
0.0
  0
ARC
  5
343
330
1F
100
AcDbEntity
  8
0
  6
SLD-Solid
 62
     7
370
    25
100
AcDbCircle
 10
65.15111349654963
 20
9.945405880735956
 30
0.0
 40
0.0467951807372428
100
AcDbArc
 50
269.8715143587692
 51
359.8709355002297
  0
ARC
  5
344
330
1F
100
AcDbEntity
  8
0
  6
SLD-Solid
 62
     7
370
    25
100
AcDbCircle
 10
65.15111349654963
 20
9.907375034261596
 30
0.0
 40
0.0467951807372428
100
AcDbArc
 50
269.8715143587692
 51
359.8709355002231
  0
LINE
  5
345
330
1F
100
AcDbEntity
  8
0
  6
SLD-Solid
 62
     7
370
    25
100
AcDbLine
 10
65.19790855856266
 20
9.945300469979053
 30
0.0
 11
65.19790855856259
 21
9.907269623504687
 31
0.0
  0
LINE
  5
346
330
1F
100
AcDbEntity
  8
0
  6
SLD-Solid
 62
     7
370
    25
100
AcDbLine
 10
41.22460855856239
 20
9.878399689235135
 30
0.0
 11
41.2425085585624
 21
9.878399689235135
 31
0.0
  0
LINE
  5
347
330
1F
100
AcDbEntity
  8
0
  6
SLD-Solid
 62
     7
370
    25
100
AcDbLine
 10
41.22460855856246
 20
9.916430535709496
 30
0.0
 11
41.22460855856239
 21
9.878399689235135
 31
0.0
  0
SPLINE
  5
348
330
1F
100
AcDbEntity
  8
0
  6
SLD-Solid
 62
     7
370
    25
100
AcDbSpline
210
0.0
220
0.0
230
1.0
 70
    12
 71
     3
 72
     9
 73
     5
 74
     0
 42
0.00000001
 43
0.00000001
 40
0.0
 40
0.0
 40
0.0
 40
0.0
 40
0.9789375474306204
 40
1.0
 40
1.0
 40
1.0
 40
1.0
 10
41.2425085585624
 20
9.878399689235135
 30
0.0
 41
1.0
 10
41.24258729606691
 20
9.880617722980451
 30
0.0
 41
1.0
 10
41.242667727658
 20
9.882883479106704
 30
0.0
 41
1.0
 10
41.24496027195709
 20
9.885239228022083
 30
0.0
 41
1.0
 10
41.24500855856265
 20
9.885288845871875
 30
0.0
 41
1.0
  0
LINE
  5
349
330
1F
100
AcDbEntity
  8
0
  6
SLD-Solid
 62
     7
370
    25
100
AcDbLine
 10
41.31188580716743
 20
9.944436717822796
 30
0.0
 11
41.32622651857346
 21
9.958713110776912
 31
0.0
  0
DIMENSION
  5
34A
330
1F
100
AcDbEntity
  8
DIMS
100
AcDbDimension
  2
_D_5
 10
64.79820528838056
 20
46.94789080377058
 30
0.0
 11
53.21125855856258
 21
46.94789080377063
 31
0.0
 70
    32
  1
<>
 71
     2
 42
-1.0
  3
SLDDIMSTYLE1
100
AcDbAlignedDimension
 13
41.62431182874462
 23
40.66348857716194
 33
0.0
 14
64.79820528838053
 24
40.66348857716186
 34
0.0
 50
-0.0000000000002108
100
AcDbRotatedDimension
  0
DIMENSION
  5
359
330
1F
100
AcDbEntity
  8
DIMS
100
AcDbDimension
  2
_D_6
 10
40.32358356314442
 20
40.66348857716195
 30
0.0
 11
40.32358356314443
 21
43.36860993258583
 31
0.0
 70
    32
  1
<>
 71
     2
 42
-1.0
  3
SLDDIMSTYLE1
100
AcDbAlignedDimension
 13
41.27620855856256
 23
46.07373128800971
 33
0.0
 14
41.62431182874462
 24
40.66348857716194
 34
0.0
 50
90.0000000000002
100
AcDbRotatedDimension
  0
DIMENSION
  5
368
330
1F
100
AcDbEntity
  8
DIMS
100
AcDbDimension
  2
_D_7
 10
40.32358421000463
 20
18.6634226827649
 30
0.0
 11
40.32358356314443
 21
29.66345566820829
 31
0.0
 70
    32
  1
<>
 71
     2
 42
-1.0
  3
SLDDIMSTYLE0
100
AcDbAlignedDimension
 13
41.62431182874462
 23
40.66348857716194
 33
0.0
 14
41.624313122465
 24
18.66342275925465
 34
0.0
 50
270.0000033692953
100
AcDbRotatedDimension
  0
DIMENSION
  5
373
330
1F
100
AcDbEntity
  8
DIMS
100
AcDbDimension
  2
_D_8
 10
40.32358356314445
 20
9.860579971185857
 30
0.0
 11
40.32358356314443
 21
14.26200136522025
 31
0.0
 70
    32
  1
<>
 71
     2
 42
-1.0
  3
SLDDIMSTYLE1
100
AcDbAlignedDimension
 13
41.624313122465
 23
18.66342275925465
 33
0.0
 14
41.24500855856258
 24
9.86057997118586
 34
0.0
 50
90.0000000000002
100
AcDbRotatedDimension
  0
DIMENSION
  5
382
330
1F
100
AcDbEntity
  8
DIMS
100
AcDbDimension
  2
_D_9
 10
41.58009842459064
 20
18.74783837134752
 30
0.0
 11
51.22584162692931
 21
8.450715218229938
 31
0.0
 70
    35
  1
<> mounting hole (4)
 71
     1
 42
-1.0
  3
SLDDIMSTYLE2
100
AcDbDiametricDimension
 15
41.66852782033935
 25
18.57900714716181
 35
0.0
 40
0.0
  0
MTEXT
  5
390
330
1F
100
AcDbEntity
  8
NOTES
100
AcDbMText
 10
41.4390188228149
 20
9.434869842580206
 30
0.0
 40
0.5
 41
0.0
 71
     1
 72
     1
  1
Back view
  7
SLDTEXTSTYLE0
 73
     1
 44
1.0
  0
LINE
  5
391
330
1F
100
AcDbEntity
  8
0
  6
SLD-Solid
 62
     7
370
    25
100
AcDbLine
 10
90.81180741746685
 20
12.67804272623072
 30
0.0
 11
90.81180741746685
 21
37.05175270528387
 31
0.0
  0
LINE
  5
392
330
1F
100
AcDbEntity
  8
0
  6
SLD-Solid
 62
     7
370
    25
100
AcDbLine
 10
90.75625356469921
 20
37.11609877607849
 30
0.0
 11
73.87754398709826
 21
46.85997041108808
 31
0.0
  0
LINE
  5
393
330
1F
100
AcDbEntity
  8
0
  6
SLD-Solid
 62
     7
370
    25
100
AcDbLine
 10
73.77861181535843
 20
46.84897141145889
 30
0.0
 11
71.50753980778123
 21
45.28868769890509
 31
0.0
  0
LINE
  5
394
330
1F
100
AcDbEntity
  8
0
  6
SLD-Solid
 62
     7
370
    25
100
AcDbLine
 10
90.74327047886561
 20
7.607247100064292
 30
0.0
 11
88.34538628470322
 21
35.36092559177995
 31
0.0
  0
LINE
  5
395
330
1F
100
AcDbEntity
  8
0
  6
SLD-Solid
 62
     7
370
    25
100
AcDbLine
 10
71.38510793557536
 20
45.16221554132875
 30
0.0
 11
71.10212590901145
 21
44.96779975639545
 31
0.0
  0
LINE
  5
396
330
1F
100
AcDbEntity
  8
0
  6
SLD-Solid
 62
     7
370
    25
100
AcDbLine
 10
71.08195772085807
 20
44.92510656049097
 30
0.0
 11
73.48212396324435
 21
17.14501510318567
 31
0.0
  0
LINE
  5
397
330
1F
100
AcDbEntity
  8
0
  6
SLD-Solid
 62
     7
370
    25
100
AcDbLine
 10
73.50533150142907
 20
17.10847505423357
 30
0.0
 11
90.39745395831201
 21
7.356860328830669
 31
0.0
  0
ARC
  5
398
330
1F
100
AcDbEntity
  8
0
  6
SLD-Solid
 62
     7
370
    25
100
AcDbCircle
 10
88.44144843763013
 20
35.40852497459321
 30
0.0
 40
0.1150729923195416
100
AcDbArc
 50
125.9473108816843
 51
153.4617357818821
  0
SPLINE
  5
399
330
1F
100
AcDbEntity
  8
0
  6
SLD-Solid
 62
     7
370
    25
100
AcDbSpline
210
0.0
220
0.0
230
1.0
 70
    12
 71
     3
 72
     9
 73
     5
 74
     0
 42
0.00000001
 43
0.00000001
 40
0.0
 40
0.0
 40
0.0
 40
0.0
 40
0.4999999999998802
 40
1.0
 40
1.0
 40
1.0
 40
1.0
 10
88.29679212658388
 20
35.4242713603103
 30
0.0
 41
1.0
 10
88.30175120208247
 20
35.42978964764431
 30
0.0
 41
1.0
 10
88.3116693530797
 20
35.44082622231235
 30
0.0
 41
1.0
 10
88.32955643499707
 20
35.45356811165369
 30
0.0
 41
1.0
 10
88.33849997595577
 20
35.45993905632435
 30
0.0
 41
1.0
  0
SPLINE
  5
39A
330
1F
100
AcDbEntity
  8
0
  6
SLD-Solid
 62
     7
370
    25
100
AcDbSpline
210
0.0
220
0.0
230
1.0
 70
    12
 71
     3
 72
    14
 73
    10
 74
     0
 42
0.00000001
 43
0.00000001
 40
0.0
 40
0.0
 40
0.0
 40
0.0
 40
0.0893828961091399
 40
0.2336540354470542
 40
0.3581017799887
 40
0.4636277396966751
 40
0.5786570896021743
 40
0.7049129187105826
 40
1.0
 40
1.0
 40
1.0
 40
1.0
 10
90.74201266422261
 20
7.621805344073083
 30
0.0
 41
1.0
 10
90.7450003110357
 20
7.620987049892723
 30
0.0
 41
1.0
 10
90.75281025862917
 20
7.618847963493122
 30
0.0
 41
1.0
 10
90.76744004250938
 20
7.61957000481284
 30
0.0
 41
1.0
 10
90.78273540554902
 20
7.623029089603925
 30
0.0
 41
1.0
 10
90.79643188427715
 20
7.629140184066447
 30
0.0
 41
1.0
 10
90.80840240293895
 20
7.638376205269688
 30
0.0
 41
1.0
 10
90.82360438199991
 20
7.656205264782262
 30
0.0
 41
1.0
 10
90.8304545606843
 20
7.673190964354999
 30
0.0
 41
1.0
 10
90.83525207639987
 20
7.685086881877019
 30
0.0
 41
1.0
  0
LINE
  5
39B
330
1F
100
AcDbEntity
  8
0
  6
SLD-Solid
 62
     7
370
    25
100
AcDbLine
 10
88.43065271814291
 20
35.53943935624283
 30
0.0
 11
90.70172472572015
 21
37.09972306879667
 31
0.0
  0
ARC
  5
39C
330
1F
100
AcDbEntity
  8
0
  6
SLD-Solid
 62
     7
370
    25
100
AcDbCircle
 10
90.62611812158305
 20
36.97844673376693
 30
0.0
 40
0.1429136383533472
100
AcDbArc
 50
8.35524678087189
 51
58.05958736029964
  0
LINE
  5
39D
330
1F
100
AcDbEntity
  8
0
  6
SLD-Solid
 62
     7
370
    25
100
AcDbLine
 10
88.37389586935161
 20
35.50168314160153
 30
0.0
 11
88.42967418581757
 21
35.54000425093013
 31
0.0
  0
LINE
  5
39E
330
1F
100
AcDbEntity
  8
0
  6
SLD-Solid
 62
     7
370
    25
100
AcDbLine
 10
71.55096460821665
 20
45.28387588593971
 30
0.0
 11
71.49518629175068
 21
45.24555477661112
 31
0.0
  0
LINE
  5
39F
330
1F
100
AcDbEntity
  8
0
  6
SLD-Solid
 62
     7
370
    25
100
AcDbLine
 10
73.82203661579383
 20
46.84415959849353
 30
0.0
 11
73.82105808346851
 21
46.84472449318082
 31
0.0
  0
LINE
  5
3A0
330
1F
100
AcDbEntity
  8
0
  6
SLD-Solid
 62
     7
370
    25
100
AcDbLine
 10
73.8350298948042
 20
46.85308630867483
 30
0.0
 11
73.82203661579383
 21
46.84415959849353
 31
0.0
  0
LINE
  5
3A1
330
1F
100
AcDbEntity
  8
0
  6
SLD-Solid
 62
     7
370
    25
100
AcDbLine
 10
90.70074619339482
 20
37.10028796348396
 30
0.0
 11
90.71373947240514
 21
37.10921467366524
 31
0.0
  0
LINE
  5
3A2
330
1F
100
AcDbEntity
  8
0
  6
SLD-Solid
 62
     7
370
    25
100
AcDbLine
 10
90.70172472572015
 20
37.09972306879667
 30
0.0
 11
90.70074619339482
 21
37.10028796348396
 31
0.0
  0
LINE
  5
3A3
330
1F
100
AcDbEntity
  8
0
  6
SLD-Solid
 62
     7
370
    25
100
AcDbLine
 10
88.42967418581757
 20
35.54000425093013
 30
0.0
 11
88.43065271814291
 21
35.53943935624283
 31
0.0
  0
LINE
  5
3A4
330
1F
100
AcDbEntity
  8
0
  6
SLD-Solid
 62
     7
370
    25
100
AcDbLine
 10
90.76760746708298
 20
36.99814208977328
 30
0.0
 11
90.76751489391724
 21
36.99921355347686
 31
0.0
  0
LINE
  5
3A5
330
1F
100
AcDbEntity
  8
0
  6
SLD-Solid
 62
     7
370
    25
100
AcDbLine
 10
90.78984042605586
 20
37.01341669297896
 30
0.0
 11
90.76760746708298
 21
36.99814208977328
 31
0.0
  0
LINE
  5
3A6
330
1F
100
AcDbEntity
  8
0
  6
SLD-Solid
 62
     7
370
    25
100
AcDbLine
 10
90.78330830374118
 20
12.64365650809129
 30
0.0
 11
90.78984042605585
 21
12.64742742203738
 31
0.0
  0
LINE
  5
3A7
330
1F
100
AcDbEntity
  8
0
  6
SLD-Solid
 62
     7
370
    25
100
AcDbLine
 10
90.78330830374118
 20
12.58649865125928
 30
0.0
 11
90.78330830374118
 21
12.64365650809129
 31
0.0
  0
LINE
  5
3A8
330
1F
100
AcDbEntity
  8
0
  6
SLD-Solid
 62
     7
370
    25
100
AcDbLine
 10
90.83634131233018
 20
12.61711395545263
 30
0.0
 11
90.78330830374118
 21
12.58649865125928
 31
0.0
  0
LINE
  5
3A9
330
1F
100
AcDbEntity
  8
0
  6
SLD-Solid
 62
     7
370
    25
100
AcDbLine
 10
90.83634131233018
 20
12.61711395545263
 30
0.0
 11
90.83634131233019
 21
7.700056807844056
 31
0.0
  0
ARC
  5
3AA
330
1F
100
AcDbEntity
  8
0
  6
SLD-Solid
 62
     7
370
    25
100
AcDbCircle
 10
90.72960251837922
 20
7.700298704186995
 30
0.0
 40
0.1067390680489004
100
AcDbArc
 50
351.8066473431265
 51
359.8701539029069
  0
ARC
  5
3AB
330
1F
100
AcDbEntity
  8
0
  6
SLD-Solid
 62
     7
370
    25
100
AcDbCircle
 10
90.7746409836832
 20
12.68152176892713
 30
0.0
 40
0.0373289102208756
100
AcDbArc
 50
294.0275686808346
 51
354.6522903615356
  0
SPLINE
  5
3AC
330
1F
100
AcDbEntity
  8
0
  6
SLD-Solid
 62
     7
370
    25
100
AcDbSpline
210
0.0
220
0.0
230
1.0
 70
    12
 71
     3
 72
    11
 73
     7
 74
     0
 42
0.00000001
 43
0.00000001
 40
0.0
 40
0.0
 40
0.0
 40
0.0
 40
0.2499999999999448
 40
0.4999999999999244
 40
0.74999999999994
 40
0.9999999999999999
 40
0.9999999999999999
 40
0.9999999999999999
 40
0.9999999999999999
 10
90.81150490216623
 20
37.051441659918
 30
0.0
 41
1.0
 10
90.81165272063615
 20
37.0479833452011
 30
0.0
 41
1.0
 10
90.81194835757597
 20
37.04106671576728
 30
0.0
 41
1.0
 10
90.80780920853586
 20
37.03093569486969
 30
0.0
 41
1.0
 10
90.80071923308438
 20
37.0214222004142
 30
0.0
 41
1.0
 10
90.79346669506536
 20
37.01608519545737
 30
0.0
 41
1.0
 10
90.78984042605586
 20
37.01341669297896
 30
0.0
 41
1.0
  0
SPLINE
  5
3AD
330
1F
100
AcDbEntity
  8
0
  6
SLD-Solid
 62
     7
370
    25
100
AcDbSpline
210
0.0
220
0.0
230
1.0
 70
    12
 71
     3
 72
     9
 73
     5
 74
     0
 42
0.00000001
 43
0.00000001
 40
0.0
 40
0.0
 40
0.0
 40
0.0
 40
0.4999999999997335
 40
1.0
 40
1.0
 40
1.0
 40
1.0
 10
90.76509168871434
 20
37.03584297440452
 30
0.0
 41
1.0
 10
90.76810192184128
 20
37.03843352617785
 30
0.0
 41
1.0
 10
90.77412238809518
 20
37.04361462972452
 30
0.0
 41
1.0
 10
90.77580484668051
 20
37.04762403268401
 30
0.0
 41
1.0
 10
90.7766460759732
 20
37.04962873416374
 30
0.0
 41
1.0
  0
LINE
  5
3AE
330
1F
100
AcDbEntity
  8
0
  6
SLD-Solid
 62
     7
370
    25
100
AcDbLine
 10
90.76509168871432
 20
37.03584297440453
 30
0.0
 11
90.7585689541535
 21
37.03244278865675
 31
0.0
  0
LWPOLYLINE
  5
3AF
330
1F
100
AcDbEntity
  8
0
  6
SLD-Solid
 62
     7
370
    25
100
AcDbPolyline
 90
        9
 70
   128
 43
0.0
 10
90.71373947240514
 20
37.10921467366524
 10
90.72123584209263
 20
37.11374994550675
 10
90.72868264665297
 20
37.11703361232305
 10
90.73593100847727
 20
37.11900002656556
 10
90.74283601725287
 20
37.11960987539236
 10
90.74925962703165
 20
37.11885096661624
 10
90.75507341606477
 20
37.11673847245279
 10
90.76016115422927
 20
37.11331462619511
 10
90.76442112671754
 20
37.10864787787976
  0
LINE
  5
3B0
330
1F
100
AcDbEntity
  8
0
  6
SLD-Solid
 62
     7
370
    25
100
AcDbLine
 10
90.74311101995451
 20
37.08181325352251
 30
0.0
 11
90.76442112671754
 21
37.10864787787976
 31
0.0
  0
ARC
  5
3B1
330
1F
100
AcDbEntity
  8
0
  6
SLD-Solid
 62
     7
370
    25
100
AcDbCircle
 10
90.7303466264073
 20
37.07131284749335
 30
0.0
 40
0.0165284079513284
100
AcDbArc
 50
39.44182754975194
 51
123.2524711389841
  0
ARC
  5
3B2
330
1F
100
AcDbEntity
  8
0
  6
SLD-Solid
 62
     7
370
    25
100
AcDbCircle
 10
73.86188992432112
 20
46.8219260634876
 30
0.0
 40
0.0411390576675995
100
AcDbArc
 50
67.6343618335231
 51
130.7612308797103
  0
LINE
  5
3B3
330
1F
100
AcDbEntity
  8
0
  6
SLD-Solid
 62
     7
370
    25
100
AcDbLine
 10
90.7766460759732
 20
37.04962873416374
 30
0.0
 11
90.81150490216622
 21
37.05144165991801
 31
0.0
  0
ARC
  5
3B4
330
1F
100
AcDbEntity
  8
0
  6
SLD-Solid
 62
     7
370
    25
100
AcDbCircle
 10
71.4621189679721
 20
45.17569046993608
 30
0.0
 40
0.0442378522838167
100
AcDbArc
 50
120.1761724749019
 51
174.4531784378351
  0
LINE
  5
3B5
330
1F
100
AcDbEntity
  8
0
  6
SLD-Solid
 62
     7
370
    25
100
AcDbLine
 10
71.42194694554664
 20
45.16096655250957
 30
0.0
 11
71.41808825758325
 21
45.1799664630766
 31
0.0
  0
LWPOLYLINE
  5
3B6
330
1F
100
AcDbEntity
  8
0
  6
SLD-Solid
 62
     7
370
    25
100
AcDbPolyline
 90
        9
 70
   128
 43
0.0
 10
71.49556809128667
 20
45.25332595481213
 10
71.4956136727818
 20
45.26549857261053
 10
71.49796726855496
 20
45.27587000403307
 10
71.50253843124051
 20
45.28404168078656
 10
71.50915149361997
 20
45.28969956991607
 10
71.51755231941475
 20
45.29262624191537
 10
71.52741806960081
 20
45.29270922642081
 10
71.53836960893125
 20
45.28994533438437
 10
71.54998607589131
 20
45.28444078062701
  0
ARC
  5
3B7
330
1F
100
AcDbEntity
  8
0
  6
SLD-Solid
 62
     7
370
    25
100
AcDbCircle
 10
73.79663900444272
 20
46.81490574665187
 30
0.0
 40
0.0385415239063703
100
AcDbArc
 50
50.68536958296851
 51
117.8873191850958
  0
LINE
  5
3B8
330
1F
100
AcDbEntity
  8
0
  6
SLD-Solid
 62
     7
370
    25
100
AcDbLine
 10
71.43988234798647
 20
45.21393338177996
 30
0.0
 11
71.49566066445243
 21
45.25225449110856
 31
0.0
  0
LINE
  5
3B9
330
1F
100
AcDbEntity
  8
0
  6
SLD-Solid
 62
     7
370
    25
100
AcDbLine
 10
71.49566066445243
 20
45.25225449110856
 30
0.0
 11
71.49556809128667
 21
45.25332595481213
 31
0.0
  0
LINE
  5
3BA
330
1F
100
AcDbEntity
  8
0
  6
SLD-Solid
 62
     7
370
    25
100
AcDbLine
 10
87.97227341751396
 20
35.1540519792923
 30
0.0
 11
87.97220377184424
 21
35.15485807473698
 31
0.0
  0
LINE
  5
3BB
330
1F
100
AcDbEntity
  8
0
  6
SLD-Solid
 62
     7
370
    25
100
AcDbLine
 10
73.48986962658655
 20
17.12441150077344
 30
0.0
 11
73.4981130778563
 21
17.11965265765023
 31
0.0
  0
LINE
  5
3BC
330
1F
100
AcDbEntity
  8
0
  6
SLD-Solid
 62
     7
370
    25
100
AcDbLine
 10
73.48911051660747
 20
17.13319761911508
 30
0.0
 11
73.48986962658655
 21
17.12441150077344
 31
0.0
  0
LINE
  5
3BD
330
1F
100
AcDbEntity
  8
0
  6
SLD-Solid
 62
     7
370
    25
100
AcDbLine
 10
71.44834450148485
 20
45.15531032340012
 30
0.0
 11
71.459022595954
 21
45.15000203850415
 31
0.0
  0
ARC
  5
3BE
330
1F
100
AcDbEntity
  8
0
  6
SLD-Solid
 62
     7
370
    25
100
AcDbCircle
 10
88.25216761386469
 20
35.34524748725089
 30
0.0
 40
0.0788547016324645
100
AcDbArc
 50
8.355246780825695
 51
58.05958736035274
  0
LINE
  5
3BF
330
1F
100
AcDbEntity
  8
0
  6
SLD-Solid
 62
     7
370
    25
100
AcDbLine
 10
88.01090264299509
 20
35.21774770364568
 30
0.0
 11
88.29388466955902
 21
35.41216348857898
 31
0.0
  0
SPLINE
  5
3C0
330
1F
100
AcDbEntity
  8
0
  6
SLD-Solid
 62
     7
370
    25
100
AcDbSpline
210
0.0
220
0.0
230
1.0
 70
    12
 71
     3
 72
    11
 73
     7
 74
     0
 42
0.00000001
 43
0.00000001
 40
0.0
 40
0.0
 40
0.0
 40
0.0
 40
0.2500000000000017
 40
0.5000000000000016
 40
0.7499999999999962
 40
1.0
 40
1.0
 40
1.0
 40
1.0
 10
88.01090264299509
 20
35.21774770364568
 30
0.0
 41
1.0
 10
88.00654033786462
 20
35.21427781049549
 30
0.0
 41
1.0
 10
87.99781572760365
 20
35.20733802419508
 30
0.0
 41
1.0
 10
87.9873784464759
 20
35.19158766418345
 30
0.0
 41
1.0
 10
87.98053089984664
 20
35.17448380501612
 30
0.0
 41
1.0
 10
87.98019393861347
 20
35.16438147956914
 30
0.0
 41
1.0
 10
87.98002545799689
 20
35.15933031684565
 30
0.0
 41
1.0
  0
LINE
  5
3C1
330
1F
100
AcDbEntity
  8
0
  6
SLD-Solid
 62
     7
370
    25
100
AcDbLine
 10
71.09666907665279
 20
44.90588449455664
 30
0.0
 11
87.98002545799689
 21
35.15933031684565
 31
0.0
  0
SPLINE
  5
3C2
330
1F
100
AcDbEntity
  8
0
  6
SLD-Solid
 62
     7
370
    25
100
AcDbSpline
210
0.0
220
0.0
230
1.0
 70
    12
 71
     3
 72
    11
 73
     7
 74
     0
 42
0.00000001
 43
0.00000001
 40
0.0
 40
0.0
 40
0.0
 40
0.0
 40
0.2500000000000025
 40
0.4999999999999961
 40
0.7499999999999963
 40
1.0
 40
1.0
 40
1.0
 40
1.0
 10
71.09666907665279
 20
44.90588449455664
 30
0.0
 41
1.0
 10
71.0966708906027
 20
44.91103187189881
 30
0.0
 41
1.0
 10
71.09667451850254
 20
44.92132662658315
 30
0.0
 41
1.0
 10
71.10302206513181
 20
44.93871912960651
 30
0.0
 41
1.0
 10
71.11295934625956
 20
44.95475813347421
 30
0.0
 41
1.0
 10
71.12135062318718
 20
44.96189034901197
 30
0.0
 41
1.0
 10
71.125546261651
 20
44.96545645678085
 30
0.0
 41
1.0
  0
SPLINE
  5
3C3
330
1F
100
AcDbEntity
  8
0
  6
SLD-Solid
 62
     7
370
    25
100
AcDbSpline
210
0.0
220
0.0
230
1.0
 70
    12
 71
     3
 72
    12
 73
     8
 74
     0
 42
0.00000001
 43
0.00000001
 40
0.0
 40
0.0
 40
0.0
 40
0.0
 40
0.2307364642359599
 40
0.4631445665231743
 40
0.6955549229184176
 40
0.9279651631540917
 40
1.0
 40
1.0
 40
1.0
 40
1.0
 10
90.44930953891716
 20
7.359745079105598
 30
0.0
 41
1.0
 10
90.44474035392862
 20
7.359061132305335
 30
0.0
 41
1.0
 10
90.43556888114952
 20
7.357688283651444
 30
0.0
 41
1.0
 10
90.418007357483
 20
7.359784292980081
 30
0.0
 41
1.0
 10
90.40039704110966
 20
7.365680844925705
 30
0.0
 41
1.0
 10
90.38808391302983
 20
7.373213269183374
 30
0.0
 41
1.0
 10
90.38243393840175
 20
7.378504566598736
 30
0.0
 41
1.0
 10
90.3810970962875
 20
7.379756541994996
 30
0.0
 41
1.0
  0
LINE
  5
3C4
330
1F
100
AcDbEntity
  8
0
  6
SLD-Solid
 62
     7
370
    25
100
AcDbLine
 10
87.98112006209259
 20
35.15765805896668
 30
0.0
 11
90.3810970962875
 21
7.379756541994996
 31
0.0
  0
LINE
  5
3C5
330
1F
100
AcDbEntity
  8
0
  6
SLD-Solid
 62
     7
370
    25
100
AcDbLine
 10
88.29388466955902
 20
35.41216348857898
 30
0.0
 11
71.40852828821492
 21
45.15987224171414
 31
0.0
  0
LINE
  5
3C6
330
1F
100
AcDbEntity
  8
0
  6
SLD-Solid
 62
     7
370
    25
100
AcDbLine
 10
90.73229156548103
 20
7.554160864038915
 30
0.0
 11
90.44930953891716
 21
7.359745079105598
 31
0.0
  0
LINE
  5
3C7
330
1F
100
AcDbEntity
  8
0
  6
SLD-Solid
 62
     7
370
    25
100
AcDbLine
 10
71.43955195325641
 20
44.38205255000754
 30
0.0
 11
87.69641172646924
 21
34.997167165834
 31
0.0
  0
LINE
  5
3C8
330
1F
100
AcDbEntity
  8
0
  6
SLD-Solid
 62
     7
370
    25
100
AcDbLine
 10
71.43955195325641
 20
44.38205255000754
 30
0.0
 11
71.09666907665279
 21
44.90588449455664
 31
0.0
  0
LINE
  5
3C9
330
1F
100
AcDbEntity
  8
0
  6
SLD-Solid
 62
     7
370
    25
100
AcDbLine
 10
87.98002545799689
 20
35.15933031684565
 30
0.0
 11
87.69641172646924
 21
34.997167165834
 31
0.0
  0
LINE
  5
3CA
330
1F
100
AcDbEntity
  8
0
  6
SLD-Solid
 62
     7
370
    25
100
AcDbLine
 10
90.3810970962875
 20
7.379756541994996
 30
0.0
 11
90.03821421968391
 21
7.903588486544088
 31
0.0
  0
LINE
  5
3CB
330
1F
100
AcDbEntity
  8
0
  6
SLD-Solid
 62
     7
370
    25
100
AcDbLine
 10
87.69750633056495
 20
34.99549490795503
 30
0.0
 11
90.03821421968391
 21
7.903588486544088
 31
0.0
  0
LINE
  5
3CC
330
1F
100
AcDbEntity
  8
0
  6
SLD-Solid
 62
     7
370
    25
100
AcDbLine
 10
87.69750633056495
 20
34.99549490795503
 30
0.0
 11
87.98112006209259
 21
35.15765805896668
 31
0.0
  0
LINE
  5
3CD
330
1F
100
AcDbEntity
  8
0
  6
SLD-Solid
 62
     7
370
    25
100
AcDbLine
 10
87.71010677403632
 20
35.00415173021947
 30
0.0
 11
87.69750633056495
 21
34.99549490795503
 31
0.0
  0
SPLINE
  5
3CE
330
1F
100
AcDbEntity
  8
0
  6
SLD-Solid
 62
     7
370
    25
100
AcDbSpline
210
0.0
220
0.0
230
1.0
 70
    12
 71
     3
 72
    10
 73
     6
 74
     0
 42
0.00000001
 43
0.00000001
 40
0.0
 40
0.0
 40
0.0
 40
0.0
 40
0.3764659478544323
 40
0.828586922203802
 40
1.0
 40
1.0
 40
1.0
 40
1.0
 10
71.40852828821492
 20
45.15987224171414
 30
0.0
 41
1.0
 10
71.41444747907853
 20
45.16060775087423
 30
0.0
 41
1.0
 10
71.42747538815657
 20
45.16222657795456
 30
0.0
 41
1.0
 10
71.44311150367557
 20
45.15973948242164
 30
0.0
 41
1.0
 10
71.45075762113996
 20
45.15439549375422
 30
0.0
 41
1.0
 10
71.45285958256974
 20
45.15292640069981
 30
0.0
 41
1.0
  0
SPLINE
  5
3CF
330
1F
100
AcDbEntity
  8
0
  6
SLD-Solid
 62
     7
370
    25
100
AcDbSpline
210
0.0
220
0.0
230
1.0
 70
    12
 71
     3
 72
    10
 73
     6
 74
     0
 42
0.00000001
 43
0.00000001
 40
0.0
 40
0.0
 40
0.0
 40
0.0
 40
0.2551722243312917
 40
0.8216773065153011
 40
1.0
 40
1.0
 40
1.0
 40
1.0
 10
90.741980233904
 20
7.607116931184035
 30
0.0
 41
1.0
 10
90.74266856763506
 20
7.602508962898461
 30
0.0
 41
1.0
 10
90.74488506360208
 20
7.587670894298634
 30
0.0
 41
1.0
 10
90.73948851679356
 20
7.569361483035403
 30
0.0
 41
1.0
 10
90.73368178277042
 20
7.557097130024431
 30
0.0
 41
1.0
 10
90.73229156548103
 20
7.554160864038915
 30
0.0
 41
1.0
  0
LINE
  5
3D0
330
1F
100
AcDbEntity
  8
0
  6
SLD-Solid
 62
     7
370
    25
100
AcDbLine
 10
71.09576368074845
 20
44.90536681210187
 30
0.0
 11
71.43864655735213
 21
44.38153486755272
 31
0.0
  0
LINE
  5
3D1
330
1F
100
AcDbEntity
  8
0
  6
SLD-Solid
 62
     7
370
    25
100
AcDbLine
 10
73.77935444647089
 20
17.28962844614201
 30
0.0
 11
71.43864655735213
 21
44.38153486755272
 31
0.0
  0
LINE
  5
3D2
330
1F
100
AcDbEntity
  8
0
  6
SLD-Solid
 62
     7
370
    25
100
AcDbLine
 10
73.77935444647089
 20
17.28962844614201
 30
0.0
 11
73.49574071494327
 21
17.12746529513036
 31
0.0
  0
LINE
  5
3D3
330
1F
100
AcDbEntity
  8
0
  6
SLD-Solid
 62
     7
370
    25
100
AcDbLine
 10
71.43864655735213
 20
44.38153486755272
 30
0.0
 11
71.43950483860353
 21
44.38212452840578
 31
0.0
  0
LWPOLYLINE
  5
3D4
330
1F
100
AcDbEntity
  8
0
  6
SLD-Solid
 62
     7
370
    25
100
AcDbPolyline
 90
        9
 70
   128
 43
0.0
 10
71.125546261651
 20
44.96545645678085
 10
71.1191367051754
 20
44.96849367526579
 10
71.11309403229778
 20
44.97001869334238
 10
71.10765045954807
 20
44.96997290542113
 10
71.10301518037424
 20
44.96835807110623
 10
71.09936632595544
 20
44.96523624757477
 10
71.09684411972071
 20
44.96072740475431
 10
71.09554548864118
 20
44.95500481494587
 10
71.09552033838092
 20
44.94828839406653
  0
ARC
  5
3D5
330
1F
100
AcDbEntity
  8
0
  6
SLD-Solid
 62
     7
370
    25
100
AcDbCircle
 10
71.39496361845273
 20
45.14250896320156
 30
0.0
 40
0.0220336947982526
100
AcDbArc
 50
52.00206995718816
 51
116.570618810841
  0
SPLINE
  5
3D6
330
1F
100
AcDbEntity
  8
0
  6
SLD-Solid
 62
     7
370
    25
100
AcDbSpline
210
0.0
220
0.0
230
1.0
 70
    12
 71
     3
 72
    11
 73
     7
 74
     0
 42
0.00000001
 43
0.00000001
 40
0.0
 40
0.0
 40
0.0
 40
0.0
 40
0.2500000000002109
 40
0.5000000000005913
 40
0.7500000000009718
 40
1.0
 40
1.0
 40
1.0
 40
1.0
 10
71.09552033838092
 20
44.94828839406653
 30
0.0
 41
1.0
 10
71.09170058710954
 20
44.94493720907739
 30
0.0
 41
1.0
 10
71.08406108456676
 20
44.9382348390991
 30
0.0
 41
1.0
 10
71.08084092559244
 20
44.92603651561123
 30
0.0
 41
1.0
 10
71.0841919469057
 20
44.91418940818416
 30
0.0
 41
1.0
 10
71.09190643613421
 20
44.90830767746262
 30
0.0
 41
1.0
 10
71.09576368074845
 20
44.90536681210187
 30
0.0
 41
1.0
  0
SPLINE
  5
3D7
330
1F
100
AcDbEntity
  8
0
  6
SLD-Solid
 62
     7
370
    25
100
AcDbSpline
210
0.0
220
0.0
230
1.0
 70
    12
 71
     3
 72
     9
 73
     5
 74
     0
 42
0.00000001
 43
0.00000001
 40
0.0
 40
0.0
 40
0.0
 40
0.0
 40
0.5351913058024466
 40
0.9999999999999999
 40
0.9999999999999999
 40
0.9999999999999999
 40
0.9999999999999999
 10
73.49574071494327
 20
17.12746529513036
 30
0.0
 41
1.0
 10
73.49176940353959
 20
17.13020661785786
 30
0.0
 41
1.0
 10
73.48434904494894
 20
17.13532875399456
 30
0.0
 41
1.0
 10
73.48307197723669
 20
17.1423893342765
 30
0.0
 41
1.0
 10
73.48247838506096
 20
17.14567115337763
 30
0.0
 41
1.0
  0
LINE
  5
3D8
330
1F
100
AcDbEntity
  8
0
  6
SLD-Solid
 62
     7
370
    25
100
AcDbLine
 10
73.79195488994228
 20
17.29828526840646
 30
0.0
 11
73.77935444647089
 21
17.28962844614201
 31
0.0
  0
LINE
  5
3D9
330
1F
100
AcDbEntity
  8
0
  6
SLD-Solid
 62
     7
370
    25
100
AcDbLine
 10
73.79195488994228
 20
17.29828526840646
 30
0.0
 11
71.45260106252759
 21
44.37451945957162
 31
0.0
  0
LINE
  5
3DA
330
1F
100
AcDbEntity
  8
0
  6
SLD-Solid
 62
     7
370
    25
100
AcDbLine
 10
90.03554105682655
 20
7.904091314229487
 30
0.0
 11
90.37842393343031
 21
7.380259369680207
 31
0.0
  0
LINE
  5
3DB
330
1F
100
AcDbEntity
  8
0
  6
SLD-Solid
 62
     7
370
    25
100
AcDbLine
 10
73.496835319039
 20
17.1257930372516
 30
0.0
 11
73.78044905056669
 21
17.28795618826327
 31
0.0
  0
LINE
  5
3DC
330
1F
100
AcDbEntity
  8
0
  6
SLD-Solid
 62
     7
370
    25
100
AcDbLine
 10
90.03554105682655
 20
7.904091314229493
 30
0.0
 11
73.78044905056669
 21
17.28795618826327
 31
0.0
  0
LINE
  5
3DD
330
1F
100
AcDbEntity
  8
0
  6
SLD-Solid
 62
     7
370
    25
100
AcDbLine
 10
90.0380234270865
 20
7.905796765167286
 30
0.0
 11
90.03554105682655
 21
7.904091314229493
 31
0.0
  0
LINE
  5
3DE
330
1F
100
AcDbEntity
  8
0
  6
SLD-Solid
 62
     7
370
    25
100
AcDbLine
 10
73.78044905056669
 20
17.28795618826327
 30
0.0
 11
73.79304949403806
 21
17.29661301052771
 31
0.0
  0
LINE
  5
3DF
330
1F
100
AcDbEntity
  8
0
  6
SLD-Solid
 62
     7
370
    25
100
AcDbLine
 10
90.03686015797979
 20
7.919260716790034
 30
0.0
 11
73.79304949403806
 21
17.29661301052771
 31
0.0
  0
SPLINE
  5
3E0
330
1F
100
AcDbEntity
  8
0
  6
SLD-Solid
 62
     7
370
    25
100
AcDbSpline
210
0.0
220
0.0
230
1.0
 70
    12
 71
     3
 72
     9
 73
     5
 74
     0
 42
0.00000001
 43
0.00000001
 40
0.0
 40
0.0
 40
0.0
 40
0.0
 40
0.5681297722904961
 40
1.0
 40
1.0
 40
1.0
 40
1.0
 10
73.49683531903896
 20
17.12579303725132
 30
0.0
 41
1.0
 10
73.49756750429108
 20
17.12128215441922
 30
0.0
 41
1.0
 10
73.49885626838659
 20
17.11334227333549
 30
0.0
 41
1.0
 10
73.50407088759151
 20
17.11007196050763
 30
0.0
 41
1.0
 10
73.50632292637496
 20
17.10865960976198
 30
0.0
 41
1.0
  0
SPLINE
  5
3E1
330
1F
100
AcDbEntity
  8
0
  6
SLD-Solid
 62
     7
370
    25
100
AcDbSpline
210
0.0
220
0.0
230
1.0
 70
    12
 71
     3
 72
    11
 73
     7
 74
     0
 42
0.00000001
 43
0.00000001
 40
0.0
 40
0.0
 40
0.0
 40
0.0
 40
0.2499999999999939
 40
0.5000000000000266
 40
0.7500000000000189
 40
1.0
 40
1.0
 40
1.0
 40
1.0
 10
90.43608198461787
 20
7.354213172985513
 30
0.0
 41
1.0
 10
90.42991651844454
 20
7.352821450953218
 30
0.0
 41
1.0
 10
90.41758558609786
 20
7.35003800688864
 30
0.0
 41
1.0
 10
90.400570745289
 20
7.354041754368019
 30
0.0
 41
1.0
 10
90.38652258119488
 20
7.363903420763722
 30
0.0
 41
1.0
 10
90.3811234826851
 20
7.374807386707937
 30
0.0
 41
1.0
 10
90.37842393343023
 20
7.380259369680045
 30
0.0
 41
1.0
  0
LINE
  5
3E2
330
1F
100
AcDbEntity
  8
0
  6
SLD-Solid
 62
     7
370
    25
100
AcDbLine
 10
73.49683531903904
 20
17.12579303725162
 30
0.0
 11
73.50943576251042
 21
17.13444985951606
 31
0.0
  0
LINE
  5
3E3
330
1F
100
AcDbEntity
  8
0
  6
SLD-Solid
 62
     7
370
    25
100
AcDbLine
 10
73.79304949403806
 20
17.29661301052771
 30
0.0
 11
73.50943576251039
 21
17.13444985951605
 31
0.0
  0
INSERT
  5
3E9
330
1F
100
AcDbEntity
  8
NOTES
100
AcDbBlockReference
  2
SW_NOTE_0_3
 10
80.77292466674763
 20
8.905678277337154
 30
0.0
  0
MTEXT
  5
3ED
330
1F
100
AcDbEntity
  8
NOTES
100
AcDbMText
 10
85.2661315570167
 20
4.98650087456716
 30
0.0
 40
0.2916666666666666
 41
0.0
 71
     1
 72
     1
  1
FROST PRODUCTS LTD.
  7
SLDTEXTSTYLE1
 73
     1
 44
1.0
  0
MTEXT
  5
3EE
330
1F
100
AcDbEntity
  8
NOTES
100
AcDbMText
 10
85.2661315570167
 20
4.5610085129417
 30
0.0
 40
0.2291666666666666
 41
0.0
 71
     1
 72
     1
  1
5280 JOHN LUCAS DRIVE, BURLINGTON, ON, L7L 5Z9
  7
SLDTEXTSTYLE1
 73
     1
 44
1.0
  0
ENDSEC
  0
SECTION
  2
OBJECTS
  0
DICTIONARY
  5
C
330
0
100
AcDbDictionary
281
     1
  3
ACAD_COLOR
350
6C
  3
ACAD_GROUP
350
D
  3
ACAD_LAYOUT
350
1A
  3
ACAD_MATERIAL
350
6B
  3
ACAD_MLINESTYLE
350
17
  3
ACAD_PLOTSETTINGS
350
19
  3
ACAD_PLOTSTYLENAME
350
E
  3
ACAD_SCALELIST
350
47
  3
ACAD_TABLESTYLE
350
92
  3
AcDbVariableDictionary
350
59
  0
DICTIONARY
  5
6C
102
{ACAD_REACTORS
330
C
102
}
330
C
100
AcDbDictionary
281
     1
  0
DICTIONARY
  5
D
102
{ACAD_REACTORS
330
C
102
}
330
C
100
AcDbDictionary
281
     1
  0
DICTIONARY
  5
1A
102
{ACAD_REACTORS
330
C
102
}
330
C
100
AcDbDictionary
281
     1
  3
Layout1
350
74
  3
Layout2
350
26
  3
Model
350
22
  0
DICTIONARY
  5
6B
102
{ACAD_REACTORS
330
C
102
}
330
C
100
AcDbDictionary
281
     1
  0
DICTIONARY
  5
17
102
{ACAD_REACTORS
330
C
102
}
330
C
100
AcDbDictionary
281
     1
  3
Standard
350
18
  0
DICTIONARY
  5
19
102
{ACAD_REACTORS
330
C
102
}
330
C
100
AcDbDictionary
281
     1
  0
ACDBDICTIONARYWDFLT
  5
E
102
{ACAD_REACTORS
330
C
102
}
330
C
100
AcDbDictionary
281
     1
  3
Normal
350
F
100
AcDbDictionaryWithDefault
340
F
  0
DICTIONARY
  5
47
102
{ACAD_REACTORS
330
C
102
}
330
C
100
AcDbDictionary
281
     1
  3
A0
350
48
  3
A1
350
49
  3
A2
350
4A
  3
A3
350
4B
  3
A4
350
4C
  3
A5
350
4D
  3
A6
350
4E
  3
A7
350
4F
  3
A8
350
50
  3
A9
350
51
  3
B0
350
52
  3
B1
350
53
  3
B2
350
54
  3
B3
350
55
  3
B4
350
56
  3
B5
350
57
  3
B6
350
58
  3
B7
350
3FF
  3
B8
350
400
  3
B9
350
5B
  3
C0
350
5C
  3
C1
350
5D
  3
C2
350
401
  3
C3
350
5F
  3
C4
350
60
  3
C5
350
61
  3
C6
350
62
  3
C7
350
63
  3
C8
350
64
  3
C9
350
65
  3
D0
350
66
  3
D1
350
67
  3
D2
350
68
  0
DICTIONARY
  5
92
102
{ACAD_REACTORS
330
C
102
}
330
C
100
AcDbDictionary
281
     1
  3
Standard
350
93
  0
DICTIONARY
  5
59
102
{ACAD_REACTORS
330
C
102
}
330
C
100
AcDbDictionary
281
     1
  3
CTABLESTYLE
350
98
  3
HIDETEXT
350
3EC
  0
LAYOUT
  5
74
102
{ACAD_REACTORS
330
1A
102
}
330
1A
100
AcDbPlotSettings
  1

  2
none_device
  4

  6

 40
0.0
 41
0.0
 42
0.0
 43
0.0
 44
0.0
 45
0.0
 46
0.0
 47
0.0
 48
0.0
 49
0.0
140
0.0
141
0.0
142
1.0
143
1.0
 70
   688
 72
     0
 73
     0
 74
     5
  7

 75
    16
 76
     0
 77
     2
 78
   300
147
1.0
148
0.0
149
0.0
100
AcDbLayout
  1
Layout1
 70
     1
 71
     1
 10
0.0
 20
0.0
 11
12.0
 21
9.0
 12
0.0
 22
0.0
 32
0.0
 14
1.000000000000000E+20
 24
1.000000000000000E+20
 34
1.000000000000000E+20
 15
-1.000000000000000E+20
 25
-1.000000000000000E+20
 35
-1.000000000000000E+20
146
0.0
 13
0.0
 23
0.0
 33
0.0
 16
1.0
 26
0.0
 36
0.0
 17
0.0
 27
1.0
 37
0.0
 76
     0
330
73
  0
LAYOUT
  5
26
102
{ACAD_REACTORS
330
1A
102
}
330
1A
100
AcDbPlotSettings
  1

  2
none_device
  4

  6

 40
0.0
 41
0.0
 42
0.0
 43
0.0
 44
0.0
 45
0.0
 46
0.0
 47
0.0
 48
0.0
 49
0.0
140
0.0
141
0.0
142
1.0
143
1.0
 70
   688
 72
     0
 73
     0
 74
     5
  7

 75
    16
 76
     0
 77
     2
 78
   300
147
1.0
148
0.0
149
0.0
100
AcDbLayout
  1
Layout2
 70
     1
 71
     2
 10
0.0
 20
0.0
 11
0.0
 21
0.0
 12
0.0
 22
0.0
 32
0.0
 14
0.0
 24
0.0
 34
0.0
 15
0.0
 25
0.0
 35
0.0
146
0.0
 13
0.0
 23
0.0
 33
0.0
 16
1.0
 26
0.0
 36
0.0
 17
0.0
 27
1.0
 37
0.0
 76
     0
330
23
  0
LAYOUT
  5
22
102
{ACAD_REACTORS
330
1A
102
}
330
1A
100
AcDbPlotSettings
  1

  2
none_device
  4
Letter_(8.50_x_11.00_Inches)
  6

 40
6.35
 41
6.35
 42
6.35000508
 43
6.35000508
 44
215.9
 45
279.4
 46
0.0
 47
0.0
 48
0.0
 49
0.0
140
0.0
141
0.0
142
1.0
143
1.0
 70
 11952
 72
     0
 73
     0
 74
     0
  7

 75
     0
 76
     0
 77
     2
 78
   300
147
1.0
148
0.0
149
0.0
100
AcDbLayout
  1
Model
 70
     1
 71
     0
 10
0.0
 20
0.0
 11
95.0
 21
50.0
 12
0.0
 22
0.0
 32
0.0
 14
0.1653543307086614
 24
0.1653543307086614
 34
-1.738706823369688
 15
94.83464566929133
 25
49.83464566929134
 35
1.738706823369694
146
0.0
 13
0.0
 23
0.0
 33
0.0
 16
1.0
 26
0.0
 36
0.0
 17
0.0
 27
1.0
 37
0.0
 76
     0
330
1F
  0
MLINESTYLE
  5
18
102
{ACAD_REACTORS
330
17
102
}
330
17
100
AcDbMlineStyle
  2
Standard
 70
     0
  3

 62
   256
 51
90.0
 52
90.0
 71
     2
 49
0.5
 62
   256
  6
BYLAYER
 49
-0.5
 62
   256
  6
BYLAYER
  0
ACDBPLACEHOLDER
  5
F
102
{ACAD_REACTORS
330
E
102
}
330
E
  0
ACAD_PROXY_OBJECT
  5
48
102
{ACAD_REACTORS
330
47
102
}
330
47
100
AcDbProxyObject
 90
      499
 91
      505
 95
   393239
 70
     0
 93
       41
310
903313A31580
  0
ACAD_PROXY_OBJECT
  5
49
102
{ACAD_REACTORS
330
47
102
}
330
47
100
AcDbProxyObject
 90
      499
 91
      505
 95
   393239
 70
     0
 93
      105
310
903313A324000000000000004000
  0
ACAD_PROXY_OBJECT
  5
4A
102
{ACAD_REACTORS
330
47
102
}
330
47
100
AcDbProxyObject
 90
      499
 91
      505
 95
   393239
 70
     0
 93
      105
310
903313A344000000000000104000
  0
ACAD_PROXY_OBJECT
  5
4B
102
{ACAD_REACTORS
330
47
102
}
330
47
100
AcDbProxyObject
 90
      499
 91
      505
 95
   393239
 70
     0
 93
      105
310
903313A354000000000000144000
  0
ACAD_PROXY_OBJECT
  5
4C
102
{ACAD_REACTORS
330
47
102
}
330
47
100
AcDbProxyObject
 90
      499
 91
      505
 95
   393239
 70
     0
 93
      105
310
903313A384000000000000204000
  0
ACAD_PROXY_OBJECT
  5
4D
102
{ACAD_REACTORS
330
47
102
}
330
47
100
AcDbProxyObject
 90
      499
 91
      505
 95
   393239
 70
     0
 93
      113
310
904313A31304000000000000244000
  0
ACAD_PROXY_OBJECT
  5
4E
102
{ACAD_REACTORS
330
47
102
}
330
47
100
AcDbProxyObject
 90
      499
 91
      505
 95
   393239
 70
     0
 93
      113
310
904313A31364000000000000304000
  0
ACAD_PROXY_OBJECT
  5
4F
102
{ACAD_REACTORS
330
47
102
}
330
47
100
AcDbProxyObject
 90
      499
 91
      505
 95
   393239
 70
     0
 93
      113
310
904313A32304000000000000344000
  0
ACAD_PROXY_OBJECT
  5
50
102
{ACAD_REACTORS
330
47
102
}
330
47
100
AcDbProxyObject
 90
      499
 91
      505
 95
   393239
 70
     0
 93
      113
310
904313A333040000000000003E4000
  0
ACAD_PROXY_OBJECT
  5
51
102
{ACAD_REACTORS
330
47
102
}
330
47
100
AcDbProxyObject
 90
      499
 91
      505
 95
   393239
 70
     0
 93
      113
310
904313A34304000000000000444000
  0
ACAD_PROXY_OBJECT
  5
52
102
{ACAD_REACTORS
330
47
102
}
330
47
100
AcDbProxyObject
 90
      499
 91
      505
 95
   393239
 70
     0
 93
      113
310
904313A35304000000000000494000
  0
ACAD_PROXY_OBJECT
  5
53
102
{ACAD_REACTORS
330
47
102
}
330
47
100
AcDbProxyObject
 90
      499
 91
      505
 95
   393239
 70
     0
 93
      121
310
905313A3130304000000000000594000
  0
ACAD_PROXY_OBJECT
  5
54
102
{ACAD_REACTORS
330
47
102
}
330
47
100
AcDbProxyObject
 90
      499
 91
      505
 95
   393239
 70
     0
 93
      105
310
903323A310000000000000010100
  0
ACAD_PROXY_OBJECT
  5
55
102
{ACAD_REACTORS
330
47
102
}
330
47
100
AcDbProxyObject
 90
      499
 91
      505
 95
   393239
 70
     0
 93
      105
310
903343A310000000000000410100
  0
ACAD_PROXY_OBJECT
  5
56
102
{ACAD_REACTORS
330
47
102
}
330
47
100
AcDbProxyObject
 90
      499
 91
      505
 95
   393239
 70
     0
 93
      105
310
903383A310000000000000810100
  0
ACAD_PROXY_OBJECT
  5
57
102
{ACAD_REACTORS
330
47
102
}
330
47
100
AcDbProxyObject
 90
      499
 91
      505
 95
   393239
 70
     0
 93
      113
310
90431303A310000000000000910100
  0
ACAD_PROXY_OBJECT
  5
58
102
{ACAD_REACTORS
330
47
102
}
330
47
100
AcDbProxyObject
 90
      499
 91
      505
 95
   393239
 70
     0
 93
      121
310
9053130303A310000000000001650100
  0
ACAD_PROXY_OBJECT
  5
3FF
102
{ACAD_REACTORS
330
47
102
}
330
47
100
AcDbProxyObject
 90
      499
 91
      505
 95
   393239
 70
     0
 93
      257
310
90E312F31323822203D2031272D3022000000000000200FC000000000000284000
  0
ACAD_PROXY_OBJECT
  5
400
102
{ACAD_REACTORS
330
47
102
}
330
47
100
AcDbProxyObject
 90
      499
 91
      505
 95
   393239
 70
     0
 93
      249
310
90D312F363422203D2031272D3022000000000000240FC000000000000284000
  0
ACAD_PROXY_OBJECT
  5
5B
102
{ACAD_REACTORS
330
47
102
}
330
47
100
AcDbProxyObject
 90
      499
 91
      505
 95
   393239
 70
     0
 93
      249
310
90D312F333222203D2031272D3022000000000000280FC000000000000284000
  0
ACAD_PROXY_OBJECT
  5
5C
102
{ACAD_REACTORS
330
47
102
}
330
47
100
AcDbProxyObject
 90
      499
 91
      505
 95
   393239
 70
     0
 93
      249
310
90D312F313622203D2031272D30220000000000002C0FC000000000000284000
  0
ACAD_PROXY_OBJECT
  5
5D
102
{ACAD_REACTORS
330
47
102
}
330
47
100
AcDbProxyObject
 90
      499
 91
      505
 95
   393239
 70
     0
 93
      249
310
90D332F333222203D2031272D30220000000000002E0FC000000000000284000
  0
ACAD_PROXY_OBJECT
  5
401
102
{ACAD_REACTORS
330
47
102
}
330
47
100
AcDbProxyObject
 90
      499
 91
      505
 95
   393239
 70
     0
 93
      241
310
90C312F3822203D2031272D3022000000000000300FC000000000000284000
  0
ACAD_PROXY_OBJECT
  5
5F
102
{ACAD_REACTORS
330
47
102
}
330
47
100
AcDbProxyObject
 90
      499
 91
      505
 95
   393239
 70
     0
 93
      249
310
90D332F313622203D2031272D3022000000000000320FC000000000000284000
  0
ACAD_PROXY_OBJECT
  5
60
102
{ACAD_REACTORS
330
47
102
}
330
47
100
AcDbProxyObject
 90
      499
 91
      505
 95
   393239
 70
     0
 93
      241
310
90C312F3422203D2031272D3022000000000000340FC000000000000284000
  0
ACAD_PROXY_OBJECT
  5
61
102
{ACAD_REACTORS
330
47
102
}
330
47
100
AcDbProxyObject
 90
      499
 91
      505
 95
   393239
 70
     0
 93
      241
310
90C332F3822203D2031272D3022000000000000360FC000000000000284000
  0
ACAD_PROXY_OBJECT
  5
62
102
{ACAD_REACTORS
330
47
102
}
330
47
100
AcDbProxyObject
 90
      499
 91
      505
 95
   393239
 70
     0
 93
      241
310
90C312F3222203D2031272D3022000000000000380FC000000000000284000
  0
ACAD_PROXY_OBJECT
  5
63
102
{ACAD_REACTORS
330
47
102
}
330
47
100
AcDbProxyObject
 90
      499
 91
      505
 95
   393239
 70
     0
 93
      241
310
90C332F3422203D2031272D30220000000000003A0FC000000000000284000
  0
ACAD_PROXY_OBJECT
  5
64
102
{ACAD_REACTORS
330
47
102
}
330
47
100
AcDbProxyObject
 90
      499
 91
      505
 95
   393239
 70
     0
 93
      161
310
90A3122203D2031272D30224000000000000284000
  0
ACAD_PROXY_OBJECT
  5
65
102
{ACAD_REACTORS
330
47
102
}
330
47
100
AcDbProxyObject
 90
      499
 91
      505
 95
   393239
 70
     0
 93
      257
310
90E312D312F3222203D2031272D30220000000000003E0FC000000000000284000
  0
ACAD_PROXY_OBJECT
  5
66
102
{ACAD_REACTORS
330
47
102
}
330
47
100
AcDbProxyObject
 90
      499
 91
      505
 95
   393239
 70
     0
 93
      225
310
90A3322203D2031272D302200000000000002100000000000000284000
  0
ACAD_PROXY_OBJECT
  5
67
102
{ACAD_REACTORS
330
47
102
}
330
47
100
AcDbProxyObject
 90
      499
 91
      505
 95
   393239
 70
     0
 93
      225
310
90A3622203D2031272D302200000000000006100000000000000284000
  0
ACAD_PROXY_OBJECT
  5
68
102
{ACAD_REACTORS
330
47
102
}
330
47
100
AcDbProxyObject
 90
      499
 91
      505
 95
   393239
 70
     0
 93
      249
310
90D31272D3022203D2031272D30220000000000000A100000000000000284000
  0
TABLESTYLE
  5
93
102
{ACAD_REACTORS
330
92
102
}
330
92
100
AcDbTableStyle
  3
Standard
 70
     0
 71
     0
 40
0.06
 41
0.06
280
     0
281
     0
  7
Standard
140
0.18
170
     2
 62
     0
 63
     7
283
     0
274
    -2
284
     1
 64
     0
275
    -2
285
     1
 65
     0
276
    -2
286
     1
 66
     0
277
    -2
287
     1
 67
     0
278
    -2
288
     1
 68
     0
279
    -2
289
     1
 69
     0
  7
Standard
140
0.25
170
     5
 62
     0
 63
     7
283
     0
274
    -2
284
     1
 64
     0
275
    -2
285
     1
 65
     0
276
    -2
286
     1
 66
     0
277
    -2
287
     1
 67
     0
278
    -2
288
     1
 68
     0
279
    -2
289
     1
 69
     0
  7
Standard
140
0.18
170
     5
 62
     0
 63
     7
283
     0
274
    -2
284
     1
 64
     0
275
    -2
285
     1
 65
     0
276
    -2
286
     1
 66
     0
277
    -2
287
     1
 67
     0
278
    -2
288
     1
 68
     0
279
    -2
289
     1
 69
     0
  0
DICTIONARYVAR
  5
98
102
{ACAD_REACTORS
330
59
102
}
330
59
100
DictionaryVariables
280
     0
  1
STANDARD
  0
DICTIONARYVAR
  5
3EC
102
{ACAD_REACTORS
330
59
102
}
330
59
100
DictionaryVariables
280
     0
  1
2
  0
ENDSEC
  0
EOF
