  0
SECTION
  2
HEADER
  9
$ACADVER
  1
AC1018
  9
$ACADMAINTVER
 70
    39
  9
$DWGCODEPAGE
  3
ANSI_1252
  9
$LASTSAVEDBY
  1
fottrem
  9
$INSBASE
 10
0.0
 20
0.0
 30
0.0
  9
$EXTMIN
 10
0.1653543307086614
 20
0.1653543307086614
 30
-0.9038876445244654
  9
$EXTMAX
 10
69.83464566929135
 20
49.83464566929134
 30
0.9210008692716899
  9
$LIMMIN
 10
0.0
 20
0.0
  9
$LIMMAX
 10
70.0
 20
50.0
  9
$ORTHOMODE
 70
     0
  9
$REGENMODE
 70
     1
  9
$FILLMODE
 70
     1
  9
$QTEXTMODE
 70
     0
  9
$MIRRTEXT
 70
     1
  9
$LTSCALE
 40
1.0
  9
$ATTMODE
 70
     1
  9
$TEXTSIZE
 40
0.5
  9
$TRACEWID
 40
0.05
  9
$TEXTSTYLE
  7
Standard
  9
$CLAYER
  8
0
  9
$CELTYPE
  6
ByLayer
  9
$CECOLOR
 62
   256
  9
$CELTSCALE
 40
1.0
  9
$DISPSILH
 70
     0
  9
$DIMSCALE
 40
1.0
  9
$DIMASZ
 40
0.3
  9
$DIMEXO
 40
0.1666666666666667
  9
$DIMDLI
 40
0.38
  9
$DIMRND
 40
0.0
  9
$DIMDLE
 40
0.0
  9
$DIMEXE
 40
0.3750000000000001
  9
$DIMTP
 40
0.0
  9
$DIMTM
 40
0.0
  9
$DIMTXT
 40
0.5
  9
$DIMCEN
 40
0.09
  9
$DIMTSZ
 40
0.0
  9
$DIMTOL
 70
     0
  9
$DIMLIM
 70
     0
  9
$DIMTIH
 70
     1
  9
$DIMTOH
 70
     1
  9
$DIMSE1
 70
     0
  9
$DIMSE2
 70
     0
  9
$DIMTAD
 70
     0
  9
$DIMZIN
 70
     1
  9
$DIMBLK
  1

  9
$DIMASO
 70
     1
  9
$DIMSHO
 70
     1
  9
$DIMPOST
  1

  9
$DIMAPOST
  1

  9
$DIMALT
 70
     0
  9
$DIMALTD
 70
     2
  9
$DIMALTF
 40
25.4
  9
$DIMLFAC
 40
1.0
  9
$DIMTOFL
 70
     0
  9
$DIMTVP
 40
0.0
  9
$DIMTIX
 70
     0
  9
$DIMSOXD
 70
     0
  9
$DIMSAH
 70
     0
  9
$DIMBLK1
  1

  9
$DIMBLK2
  1

  9
$DIMSTYLE
  2
Standard
  9
$DIMCLRD
 70
     0
  9
$DIMCLRE
 70
     0
  9
$DIMCLRT
 70
     0
  9
$DIMTFAC
 40
1.0
  9
$DIMGAP
 40
0.125
  9
$DIMJUST
 70
     0
  9
$DIMSD1
 70
     0
  9
$DIMSD2
 70
     0
  9
$DIMTOLJ
 70
     1
  9
$DIMTZIN
 70
     1
  9
$DIMALTZ
 70
     0
  9
$DIMALTTZ
 70
     0
  9
$DIMUPT
 70
     0
  9
$DIMDEC
 70
     2
  9
$DIMTDEC
 70
     2
  9
$DIMALTU
 70
     2
  9
$DIMALTTD
 70
     2
  9
$DIMTXSTY
  7
Standard
  9
$DIMAUNIT
 70
     0
  9
$DIMADEC
 70
     2
  9
$DIMALTRND
 40
0.0
  9
$DIMAZIN
 70
     0
  9
$DIMDSEP
 70
    46
  9
$DIMATFIT
 70
     3
  9
$DIMFRAC
 70
     0
  9
$DIMLDRBLK
  1

  9
$DIMLUNIT
 70
     2
  9
$DIMLWD
 70
    -2
  9
$DIMLWE
 70
    -2
  9
$DIMTMOVE
 70
     0
  9
$LUNITS
 70
     2
  9
$LUPREC
 70
     4
  9
$SKETCHINC
 40
0.1
  9
$FILLETRAD
 40
0.5
  9
$AUNITS
 70
     0
  9
$AUPREC
 70
     2
  9
$MENU
  1
.
  9
$ELEVATION
 40
0.0
  9
$PELEVATION
 40
0.0
  9
$THICKNESS
 40
0.0
  9
$LIMCHECK
 70
     0
  9
$CHAMFERA
 40
0.0
  9
$CHAMFERB
 40
0.0
  9
$CHAMFERC
 40
0.0
  9
$CHAMFERD
 40
0.0
  9
$SKPOLY
 70
     0
  9
$TDCREATE
 40
2453353.550459155
  9
$TDUCREATE
 40
2453353.717125822
  9
$TDUPDATE
 40
2459488.650465474
  9
$TDUUPDATE
 40
2459488.817132141
  9
$TDINDWG
 40
0.0433217708
  9
$TDUSRTIMER
 40
0.0433217708
  9
$USRTIMER
 70
     1
  9
$ANGBASE
 50
0.0
  9
$ANGDIR
 70
     0
  9
$PDMODE
 70
     0
  9
$PDSIZE
 40
-1.0
  9
$PLINEWID
 40
0.0
  9
$SPLFRAME
 70
     0
  9
$SPLINETYPE
 70
     6
  9
$SPLINESEGS
 70
     8
  9
$HANDSEED
  5
3C2
  9
$SURFTAB1
 70
     6
  9
$SURFTAB2
 70
     6
  9
$SURFTYPE
 70
     6
  9
$SURFU
 70
     6
  9
$SURFV
 70
     6
  9
$UCSBASE
  2

  9
$UCSNAME
  2

  9
$UCSORG
 10
0.0
 20
0.0
 30
0.0
  9
$UCSXDIR
 10
1.0
 20
0.0
 30
0.0
  9
$UCSYDIR
 10
0.0
 20
1.0
 30
0.0
  9
$UCSORTHOREF
  2

  9
$UCSORTHOVIEW
 70
     0
  9
$UCSORGTOP
 10
0.0
 20
0.0
 30
0.0
  9
$UCSORGBOTTOM
 10
0.0
 20
0.0
 30
0.0
  9
$UCSORGLEFT
 10
0.0
 20
0.0
 30
0.0
  9
$UCSORGRIGHT
 10
0.0
 20
0.0
 30
0.0
  9
$UCSORGFRONT
 10
0.0
 20
0.0
 30
0.0
  9
$UCSORGBACK
 10
0.0
 20
0.0
 30
0.0
  9
$PUCSBASE
  2

  9
$PUCSNAME
  2

  9
$PUCSORG
 10
0.0
 20
0.0
 30
0.0
  9
$PUCSXDIR
 10
1.0
 20
0.0
 30
0.0
  9
$PUCSYDIR
 10
0.0
 20
1.0
 30
0.0
  9
$PUCSORTHOREF
  2

  9
$PUCSORTHOVIEW
 70
     0
  9
$PUCSORGTOP
 10
0.0
 20
0.0
 30
0.0
  9
$PUCSORGBOTTOM
 10
0.0
 20
0.0
 30
0.0
  9
$PUCSORGLEFT
 10
0.0
 20
0.0
 30
0.0
  9
$PUCSORGRIGHT
 10
0.0
 20
0.0
 30
0.0
  9
$PUCSORGFRONT
 10
0.0
 20
0.0
 30
0.0
  9
$PUCSORGBACK
 10
0.0
 20
0.0
 30
0.0
  9
$USERI1
 70
     0
  9
$USERI2
 70
     0
  9
$USERI3
 70
     0
  9
$USERI4
 70
     0
  9
$USERI5
 70
     0
  9
$USERR1
 40
0.0
  9
$USERR2
 40
0.0
  9
$USERR3
 40
0.0
  9
$USERR4
 40
0.0
  9
$USERR5
 40
0.0
  9
$WORLDVIEW
 70
     1
  9
$SHADEDGE
 70
     3
  9
$SHADEDIF
 70
    70
  9
$TILEMODE
 70
     1
  9
$MAXACTVP
 70
    64
  9
$PINSBASE
 10
0.0
 20
0.0
 30
0.0
  9
$PLIMCHECK
 70
     0
  9
$PEXTMIN
 10
1.000000000000000E+20
 20
1.000000000000000E+20
 30
1.000000000000000E+20
  9
$PEXTMAX
 10
-1.000000000000000E+20
 20
-1.000000000000000E+20
 30
-1.000000000000000E+20
  9
$PLIMMIN
 10
0.0
 20
0.0
  9
$PLIMMAX
 10
12.0
 20
9.0
  9
$UNITMODE
 70
     0
  9
$VISRETAIN
 70
     1
  9
$PLINEGEN
 70
     0
  9
$PSLTSCALE
 70
     1
  9
$TREEDEPTH
 70
  3020
  9
$CMLSTYLE
  2
Standard
  9
$CMLJUST
 70
     0
  9
$CMLSCALE
 40
1.0
  9
$PROXYGRAPHICS
 70
     1
  9
$MEASUREMENT
 70
     0
  9
$CELWEIGHT
370
    -1
  9
$ENDCAPS
280
     0
  9
$JOINSTYLE
280
     0
  9
$LWDISPLAY
290
     1
  9
$INSUNITS
 70
     1
  9
$HYPERLINKBASE
  1

  9
$STYLESHEET
  1

  9
$XEDIT
290
     0
  9
$CEPSNTYPE
380
     0
  9
$PSTYLEMODE
290
     1
  9
$FINGERPRINTGUID
  2
{c458ad4b-37ba-4ae4-bdcb-3528d6973205}
  9
$VERSIONGUID
  2
{FAEB1C32-E019-11D5-929B-00C0DF256EC4}
  9
$EXTNAMES
290
     1
  9
$PSVPSCALE
 40
0.0
  9
$OLESTARTUP
290
     0
  9
$SORTENTS
280
   127
  9
$INDEXCTL
280
     0
  9
$HIDETEXT
280
     1
  9
$XCLIPFRAME
290
     0
  9
$HALOGAP
280
     0
  9
$OBSCOLOR
 70
   257
  9
$OBSLTYPE
280
     0
  9
$INTERSECTIONDISPLAY
280
     0
  9
$INTERSECTIONCOLOR
 70
   257
  9
$DIMASSOC
280
     2
  9
$PROJECTNAME
  1

  0
ENDSEC
  0
SECTION
  2
CLASSES
  0
CLASS
  1
ACDBDICTIONARYWDFLT
  2
AcDbDictionaryWithDefault
  3
ObjectDBX Classes
 90
        0
 91
        3
280
     0
281
     0
  0
CLASS
  1
ACDBPLACEHOLDER
  2
AcDbPlaceHolder
  3
ObjectDBX Classes
 90
        0
 91
        1
280
     0
281
     0
  0
CLASS
  1
LAYOUT
  2
AcDbLayout
  3
ObjectDBX Classes
 90
        0
 91
        1
280
     0
281
     0
  0
CLASS
  1
DICTIONARYVAR
  2
AcDbDictionaryVar
  3
ObjectDBX Classes
 90
        0
 91
        3
280
     0
281
     0
  0
CLASS
  1
TABLESTYLE
  2
AcDbTableStyle
  3
ObjectDBX Classes
 90
     2047
 91
        3
280
     0
281
     0
  0
CLASS
  1
SCALE
  2
AcDbScale
  3
ObjectDBX Classes
 90
     1153
 91
       67
280
     1
281
     0
  0
ENDSEC
  0
SECTION
  2
TABLES
  0
TABLE
  2
VPORT
  5
8
330
0
100
AcDbSymbolTable
 70
     2
  0
VPORT
  5
97
330
8
100
AcDbSymbolTableRecord
100
AcDbViewportTableRecord
  2
*Active
 70
     0
 10
0.0
 20
0.0
 11
1.0
 21
1.0
 12
58.88989476674865
 22
6.244240053002584
 13
0.0
 23
0.0
 14
0.5
 24
0.5
 15
0.5
 25
0.5
 16
0.0
 26
0.0
 36
1.0
 17
0.0
 27
0.0
 37
0.0
 40
12.62135087435529
 41
1.4
 42
50.0
 43
0.0
 44
0.0
 50
0.0
 51
0.0
 71
    16
 72
  2000
 73
     1
 74
     1
 75
     0
 76
     0
 77
     0
 78
     0
281
     0
 65
     0
110
0.0
120
0.0
130
0.0
111
1.0
121
0.0
131
0.0
112
0.0
122
1.0
132
0.0
 79
     0
146
0.0
  0
ENDTAB
  0
TABLE
  2
LTYPE
  5
5
330
0
100
AcDbSymbolTable
 70
     8
  0
LTYPE
  5
14
330
5
100
AcDbSymbolTableRecord
100
AcDbLinetypeTableRecord
  2
ByBlock
 70
     0
  3

 72
    65
 73
     0
 40
0.0
  0
LTYPE
  5
15
330
5
100
AcDbSymbolTableRecord
100
AcDbLinetypeTableRecord
  2
ByLayer
 70
     0
  3

 72
    65
 73
     0
 40
0.0
  0
LTYPE
  5
16
330
5
100
AcDbSymbolTableRecord
100
AcDbLinetypeTableRecord
  2
Continuous
 70
     0
  3
Solid line
 72
    65
 73
     0
 40
0.0
  0
LTYPE
  5
390
330
5
100
AcDbSymbolTableRecord
100
AcDbLinetypeTableRecord
  2
SLD-Solid
 70
     0
  3
SolidWorks Line Style
 72
    65
 73
     0
 40
0.0
  0
LTYPE
  5
391
330
5
100
AcDbSymbolTableRecord
100
AcDbLinetypeTableRecord
  2
SLD-Dashed
 70
     0
  3
SolidWorks Line Style
 72
    65
 73
     2
 40
0.075
 49
0.05
 74
     4
 75
     0
340
0
 46
1.0
 50
0.0
 44
0.0
 45
0.0
 49
-0.025
 74
     4
 75
     0
340
0
 46
1.0
 50
0.0
 44
0.0
 45
0.0
  0
LTYPE
  5
392
330
5
100
AcDbSymbolTableRecord
100
AcDbLinetypeTableRecord
  2
SLD-Phantom
 70
     0
  3
SolidWorks Line Style
 72
    65
 73
     6
 40
0.4999999999999999
 49
0.25
 74
     4
 75
     0
340
0
 46
1.0
 50
0.0
 44
0.0
 45
0.0
 49
-0.05
 74
     4
 75
     0
340
0
 46
1.0
 50
0.0
 44
0.0
 45
0.0
 49
0.05
 74
     4
 75
     0
340
0
 46
1.0
 50
0.0
 44
0.0
 45
0.0
 49
-0.05
 74
     4
 75
     0
340
0
 46
1.0
 50
0.0
 44
0.0
 45
0.0
 49
0.05
 74
     4
 75
     0
340
0
 46
1.0
 50
0.0
 44
0.0
 45
0.0
 49
-0.05
 74
     4
 75
     0
340
0
 46
1.0
 50
0.0
 44
0.0
 45
0.0
  0
LTYPE
  5
393
330
5
100
AcDbSymbolTableRecord
100
AcDbLinetypeTableRecord
  2
SLD-Chain
 70
     0
  3
SolidWorks Line Style
 72
    65
 73
     4
 40
0.4
 49
0.25
 74
     4
 75
     0
340
0
 46
1.0
 50
0.0
 44
0.0
 45
0.0
 49
-0.05
 74
     4
 75
     0
340
0
 46
1.0
 50
0.0
 44
0.0
 45
0.0
 49
0.05
 74
     4
 75
     0
340
0
 46
1.0
 50
0.0
 44
0.0
 45
0.0
 49
-0.05
 74
     4
 75
     0
340
0
 46
1.0
 50
0.0
 44
0.0
 45
0.0
  0
LTYPE
  5
394
330
5
100
AcDbSymbolTableRecord
100
AcDbLinetypeTableRecord
  2
SLD-Center
 70
     0
  3
SolidWorks Line Style
 72
    65
 73
     4
 40
0.7500000000000002
 49
0.6000000000000001
 74
     4
 75
     0
340
0
 46
1.0
 50
0.0
 44
0.0
 45
0.0
 49
-0.05
 74
     4
 75
     0
340
0
 46
1.0
 50
0.0
 44
0.0
 45
0.0
 49
0.05
 74
     4
 75
     0
340
0
 46
1.0
 50
0.0
 44
0.0
 45
0.0
 49
-0.05
 74
     4
 75
     0
340
0
 46
1.0
 50
0.0
 44
0.0
 45
0.0
  0
LTYPE
  5
395
330
5
100
AcDbSymbolTableRecord
100
AcDbLinetypeTableRecord
  2
SLD-Stitch
 70
     0
  3
SolidWorks Line Style
 72
    65
 73
     2
 40
0.025
 49
0.0
 74
     4
 75
     0
340
0
 46
1.0
 50
0.0
 44
0.0
 45
0.0
 49
-0.025
 74
     4
 75
     0
340
0
 46
1.0
 50
0.0
 44
0.0
 45
0.0
  0
LTYPE
  5
396
330
5
100
AcDbSymbolTableRecord
100
AcDbLinetypeTableRecord
  2
SLD-Thin-Thick-Chain
 70
     0
  3
SolidWorks Line Style
 72
    65
 73
     4
 40
0.4
 49
0.25
 74
     4
 75
     0
340
0
 46
1.0
 50
0.0
 44
0.0
 45
0.0
 49
-0.05
 74
     4
 75
     0
340
0
 46
1.0
 50
0.0
 44
0.0
 45
0.0
 49
0.05
 74
     4
 75
     0
340
0
 46
1.0
 50
0.0
 44
0.0
 45
0.0
 49
-0.05
 74
     4
 75
     0
340
0
 46
1.0
 50
0.0
 44
0.0
 45
0.0
  0
ENDTAB
  0
TABLE
  2
LAYER
  5
2
330
0
100
AcDbSymbolTable
 70
     6
  0
LAYER
  5
10
330
2
100
AcDbSymbolTableRecord
100
AcDbLayerTableRecord
  2
0
 70
     0
 62
     7
  6
Continuous
370
    -3
390
F
  0
LAYER
  5
397
330
2
100
AcDbSymbolTableRecord
100
AcDbLayerTableRecord
  2
FORMAT
 70
     0
 62
     7
  6
SLD-Solid
370
    -3
390
F
  0
LAYER
  5
398
330
2
100
AcDbSymbolTableRecord
100
AcDbLayerTableRecord
  2
NOTES
 70
     0
 62
     1
  6
SLD-Solid
370
    -3
390
F
  0
LAYER
  5
77
330
2
100
AcDbSymbolTableRecord
100
AcDbLayerTableRecord
  2
OBJECT
 70
     0
 62
     7
  6
SLD-Solid
370
    25
390
F
  0
LAYER
  5
78
330
2
100
AcDbSymbolTableRecord
100
AcDbLayerTableRecord
  2
DIMS
 70
     0
 62
     5
  6
SLD-Solid
370
    -3
390
F
  0
LAYER
  5
79
330
2
100
AcDbSymbolTableRecord
100
AcDbLayerTableRecord
  2
TITLE
 70
     0
 62
     8
  6
SLD-Solid
370
    -3
390
F
  0
ENDTAB
  0
TABLE
  2
STYLE
  5
3
330
0
100
AcDbSymbolTable
 70
     5
  0
STYLE
  5
11
330
3
100
AcDbSymbolTableRecord
100
AcDbTextStyleTableRecord
  2
Standard
 70
     0
 40
0.0
 41
1.0
 50
0.0
 71
     0
 42
0.5
  3
GOTHIC.TTF
  4

1001
ACAD
1000
CENTURY GOTHIC
1071
       34
  0
STYLE
  5
103
330
3
100
AcDbSymbolTableRecord
100
AcDbTextStyleTableRecord
  2
SLDTEXTSTYLE0
 70
     0
 40
0.0
 41
0.948
 50
0.0
 71
     0
 42
0.5
  3
ARIAL.TTF
  4

1001
ACAD
1000
Arial
1071
      290
  0
STYLE
  5
107
330
3
100
AcDbSymbolTableRecord
100
AcDbTextStyleTableRecord
  2
SLDTEXTSTYLE1
 70
     0
 40
0.0
 41
0.913
 50
0.0
 71
     0
 42
0.5
  3
GOTHIC.TTF
  4

1001
ACAD
1000
Century Gothic
1071
      290
  0
STYLE
  5
116
330
3
100
AcDbSymbolTableRecord
100
AcDbTextStyleTableRecord
  2
SLDTEXTSTYLE2
 70
     0
 40
0.0
 41
0.87
 50
0.0
 71
     0
 42
0.5
  3
ARIALNB.TTF
  4

1001
ACAD
1000
Arial Narrow
1071
 33554722
  0
STYLE
  5
118
330
3
100
AcDbSymbolTableRecord
100
AcDbTextStyleTableRecord
  2
SLDTEXTSTYLE3
 70
     0
 40
0.0
 41
0.87
 50
0.0
 71
     0
 42
0.5
  3
ARIALN.TTF
  4

1001
ACAD
1000
Arial Narrow
1071
      290
  0
ENDTAB
  0
TABLE
  2
VIEW
  5
6
330
0
100
AcDbSymbolTable
 70
     0
  0
ENDTAB
  0
TABLE
  2
UCS
  5
7
330
0
100
AcDbSymbolTable
 70
     0
  0
ENDTAB
  0
TABLE
  2
APPID
  5
9
330
0
100
AcDbSymbolTable
 70
     1
  0
APPID
  5
12
330
9
100
AcDbSymbolTableRecord
100
AcDbRegAppTableRecord
  2
ACAD
 70
     0
  0
ENDTAB
  0
TABLE
  2
DIMSTYLE
  5
A
330
0
100
AcDbSymbolTable
 70
     4
100
AcDbDimStyleTable
  0
DIMSTYLE
105
27
330
A
100
AcDbSymbolTableRecord
100
AcDbDimStyleTableRecord
  2
Standard
 70
     0
340
11
  0
DIMSTYLE
105
1D4
102
{ACAD_REACTORS
330
1D3
330
360
102
}
330
A
100
AcDbSymbolTableRecord
100
AcDbDimStyleTableRecord
  2
SLDDIMSTYLE0
 70
     0
 41
0.3
 44
0.0
 45
0.000000001
 78
    12
 79
     3
140
0.5
147
0.125
173
     1
271
     2
272
     2
276
     2
277
     5
284
    12
340
107
341
399
343
399
344
399
  0
DIMSTYLE
105
1E5
102
{ACAD_REACTORS
330
1E4
330
1F4
330
223
330
232
330
351
330
36B
330
37A
102
}
330
A
100
AcDbSymbolTableRecord
100
AcDbDimStyleTableRecord
  2
SLDDIMSTYLE1
 70
     0
 41
0.3
 44
0.0
 45
0.000000001
 78
    12
 79
     3
140
0.5
147
0.125
173
     1
271
     6
272
     2
276
     2
277
     5
284
    12
340
107
341
399
343
399
344
399
  0
DIMSTYLE
105
344
102
{ACAD_REACTORS
330
343
102
}
330
A
100
AcDbSymbolTableRecord
100
AcDbDimStyleTableRecord
  2
SLDDIMSTYLE2
 70
     0
 41
0.3
 44
0.0
 45
0.000000001
 78
    12
 79
     3
140
0.5
141
0.0
147
0.125
173
     1
271
     2
272
     2
276
     2
277
     5
284
    12
340
107
341
399
343
399
344
399
  0
ENDTAB
  0
TABLE
  2
BLOCK_RECORD
  5
1
330
0
100
AcDbSymbolTable
 70
    15
  0
BLOCK_RECORD
  5
1F
330
1
100
AcDbSymbolTableRecord
100
AcDbBlockTableRecord
  2
*Model_Space
340
22
  0
BLOCK_RECORD
  5
73
330
1
100
AcDbSymbolTableRecord
100
AcDbBlockTableRecord
  2
*Paper_Space
340
74
  0
BLOCK_RECORD
  5
399
330
1
100
AcDbSymbolTableRecord
100
AcDbBlockTableRecord
  2
_Open90
340
0
102
{BLKREFS
331
1DE
331
1DF
331
1E9
331
1EA
331
1F8
331
1F9
331
227
331
228
331
236
331
237
331
348
331
355
331
356
331
364
331
365
331
36F
331
370
331
37E
331
37F
102
}
  0
BLOCK_RECORD
  5
23
330
1
100
AcDbSymbolTableRecord
100
AcDbBlockTableRecord
  2
*Paper_Space1
340
26
  0
BLOCK_RECORD
  5
10D
330
1
100
AcDbSymbolTableRecord
100
AcDbBlockTableRecord
  2
SW_NOTE_0
340
0
  0
BLOCK_RECORD
  5
113
330
1
100
AcDbSymbolTableRecord
100
AcDbBlockTableRecord
  2
SW_NOTE_0_1
340
0
102
{BLKREFS
331
11C
102
}
  0
BLOCK_RECORD
  5
1DB
330
1
100
AcDbSymbolTableRecord
100
AcDbBlockTableRecord
  2
_D
340
0
  0
BLOCK_RECORD
  5
1E6
330
1
100
AcDbSymbolTableRecord
100
AcDbBlockTableRecord
  2
_D_1
340
0
  0
BLOCK_RECORD
  5
1F5
330
1
100
AcDbSymbolTableRecord
100
AcDbBlockTableRecord
  2
_D_2
340
0
  0
BLOCK_RECORD
  5
224
330
1
100
AcDbSymbolTableRecord
100
AcDbBlockTableRecord
  2
_D_3
340
0
  0
BLOCK_RECORD
  5
233
330
1
100
AcDbSymbolTableRecord
100
AcDbBlockTableRecord
  2
_D_4
340
0
  0
BLOCK_RECORD
  5
294
330
1
100
AcDbSymbolTableRecord
100
AcDbBlockTableRecord
  2
SW_NOTE_0_2
340
0
102
{BLKREFS
331
299
102
}
  0
BLOCK_RECORD
  5
345
330
1
100
AcDbSymbolTableRecord
100
AcDbBlockTableRecord
  2
_D_5
340
0
  0
BLOCK_RECORD
  5
352
330
1
100
AcDbSymbolTableRecord
100
AcDbBlockTableRecord
  2
_D_6
340
0
  0
BLOCK_RECORD
  5
361
330
1
100
AcDbSymbolTableRecord
100
AcDbBlockTableRecord
  2
_D_7
340
0
  0
BLOCK_RECORD
  5
36C
330
1
100
AcDbSymbolTableRecord
100
AcDbBlockTableRecord
  2
_D_8
340
0
  0
BLOCK_RECORD
  5
37B
330
1
100
AcDbSymbolTableRecord
100
AcDbBlockTableRecord
  2
_D_9
340
0
  0
ENDTAB
  0
ENDSEC
  0
SECTION
  2
BLOCKS
  0
BLOCK
  5
20
330
1F
100
AcDbEntity
  8
0
100
AcDbBlockBegin
  2
*Model_Space
 70
     0
 71
     0
 10
0.0
 20
0.0
 30
0.0
  3
*Model_Space
  1

  0
ENDBLK
  5
21
330
1F
100
AcDbEntity
  8
0
100
AcDbBlockEnd
  0
BLOCK
  5
75
330
73
100
AcDbEntity
 67
     1
  8
0
100
AcDbBlockBegin
  2
*Paper_Space
 70
     0
 71
     0
 10
0.0
 20
0.0
 30
0.0
  3
*Paper_Space
  1

  0
ENDBLK
  5
76
330
73
100
AcDbEntity
 67
     1
  8
0
100
AcDbBlockEnd
  0
BLOCK
  5
39A
330
399
100
AcDbEntity
  8
0
100
AcDbBlockBegin
  2
_Open90
 70
     0
 71
     0
 10
0.0
 20
0.0
 30
0.0
  3
_Open90
  1

  0
LINE
  5
1D8
330
399
100
AcDbEntity
  8
0
  6
ByBlock
 62
     0
370
    -2
100
AcDbLine
 10
-0.5
 20
0.5
 30
0.0
 11
0.0
 21
0.0
 31
0.0
  0
LINE
  5
1D9
330
399
100
AcDbEntity
  8
0
  6
ByBlock
 62
     0
370
    -2
100
AcDbLine
 10
0.0
 20
0.0
 30
0.0
 11
-0.5
 21
-0.5
 31
0.0
  0
LINE
  5
1DA
330
399
100
AcDbEntity
  8
0
  6
ByBlock
 62
     0
370
    -2
100
AcDbLine
 10
0.0
 20
0.0
 30
0.0
 11
-1.0
 21
0.0
 31
0.0
  0
ENDBLK
  5
39B
330
399
100
AcDbEntity
  8
0
100
AcDbBlockEnd
  0
BLOCK
  5
3A2
330
23
100
AcDbEntity
  8
0
100
AcDbBlockBegin
  2
*Paper_Space1
 70
     0
 71
     0
 10
0.0
 20
0.0
 30
0.0
  3
*Paper_Space1
  1

  0
ENDBLK
  5
3A3
330
23
100
AcDbEntity
  8
0
100
AcDbBlockEnd
  0
BLOCK
  5
3A4
330
10D
100
AcDbEntity
  8
0
100
AcDbBlockBegin
  2
SW_NOTE_0
 70
     0
 71
     0
 10
0.0
 20
0.0
 30
0.0
  3
SW_NOTE_0
  1

  0
MTEXT
  5
110
330
10D
100
AcDbEntity
  8
NOTES
 62
     0
100
AcDbMText
 10
0.0
 20
0.3759780907668229
 30
0.0
 40
0.2916666666666666
 41
0.0
 71
     1
 72
     1
  1
FROST PRODUCTS LTD.
  7
SLDTEXTSTYLE0
 73
     1
 44
1.0
  0
MTEXT
  5
111
330
10D
100
AcDbEntity
  8
NOTES
 62
     0
100
AcDbMText
 10
0.0
 20
-0.0495142708586375
 30
0.0
 40
0.2291666666666666
 41
0.0
 71
     1
 72
     1
  1
5280 JOHN LUCUS DRIVE, BURLINGTON, ON, L7L 5Z9
  7
SLDTEXTSTYLE0
 73
     1
 44
1.0
  0
ENDBLK
  5
3A5
330
10D
100
AcDbEntity
  8
0
100
AcDbBlockEnd
  0
BLOCK
  5
3A6
330
113
100
AcDbEntity
  8
0
100
AcDbBlockBegin
  2
SW_NOTE_0_1
 70
     0
 71
     0
 10
0.0
 20
0.0
 30
0.0
  3
SW_NOTE_0_1
  1

  0
MTEXT
  5
117
330
113
100
AcDbEntity
  8
NOTES
 62
     0
100
AcDbMText
 10
0.0
 20
0.2381282770514712
 30
0.0
 40
0.1847290640394089
 41
0.0
 71
     1
 72
     1
  1
PROPRIETARY AND CONFIDENTIAL
  7
SLDTEXTSTYLE2
 73
     1
 44
1.0
  0
MTEXT
  5
119
330
113
100
AcDbEntity
  8
NOTES
 62
     0
100
AcDbMText
 10
0.0
 20
-0.0504364795553608
 30
0.0
 40
0.25
 41
0.0
 71
     1
 72
     1
  1
THE INFORMATION CONTAINED IN THIS DRAWING IS THE SOLE PROPERTY OF 
  7
SLDTEXTSTYLE3
 73
     1
 44
1.0
  0
MTEXT
  5
11A
330
113
100
AcDbEntity
  8
NOTES
 62
     0
100
AcDbMText
 10
0.0
 20
-0.4231398940537119
 30
0.0
 40
0.25
 41
0.0
 71
     1
 72
     1
  1
FROST PRODUCTS LTD.  ANY REPRODUCTION IN PART OR AS A WHOLE WITHOUT 
  7
SLDTEXTSTYLE3
 73
     1
 44
1.0
  0
MTEXT
  5
11B
330
113
100
AcDbEntity
  8
NOTES
 62
     0
100
AcDbMText
 10
0.0
 20
-0.7958433085520636
 30
0.0
 40
0.25
 41
0.0
 71
     1
 72
     1
  1
THE WRITTEN PERMISSION OF FROST PRODUCTS LTD. IS PROHIBITED.
  7
SLDTEXTSTYLE3
 73
     1
 44
1.0
  0
ENDBLK
  5
3A7
330
113
100
AcDbEntity
  8
0
100
AcDbBlockEnd
  0
BLOCK
  5
3A8
330
1DB
100
AcDbEntity
  8
0
100
AcDbBlockBegin
  2
_D
 70
     0
 71
     0
 10
0.0
 20
0.0
 30
0.0
  3
_D
  1

  0
INSERT
  5
1DE
330
1DB
100
AcDbEntity
  8
DIMS
100
AcDbBlockReference
  2
_Open90
 10
2.387605088128343
 20
7.087143115156152
 30
0.0
 41
0.3
 42
0.3
 50
270.0000000000004
  0
INSERT
  5
1DF
330
1DB
100
AcDbEntity
  8
DIMS
100
AcDbBlockReference
  2
_Open90
 10
2.387605088128344
 20
12.04194901731642
 30
0.0
 41
0.3
 42
0.3
 50
90.00000000000041
  0
LINE
  5
1E0
330
1DB
100
AcDbEntity
  8
DIMS
100
AcDbLine
 10
3.38626073013957
 20
12.04194901731642
 30
0.0
 11
2.012605088128344
 21
12.04194901731642
 31
0.0
  0
LINE
  5
1E1
330
1DB
100
AcDbEntity
  8
DIMS
100
AcDbLine
 10
2.387605088128344
 20
12.04194901731642
 30
0.0
 11
2.387605088128343
 21
9.693700936994992
 31
0.0
  0
MTEXT
  5
1E2
330
1DB
100
AcDbEntity
  8
DIMS
100
AcDbMText
 10
-31.8089547502943
 20
9.538622843129033
 30
0.0
 40
0.5
 41
0.0
 71
     1
 72
     1
  3
                                                                                                                                                                                       48" (1220mm) bottom of mirror from floor. Positions may vary depend
  1
ing on size and the type of installation  
  7
SLDTEXTSTYLE1
 73
     1
 44
1.0
  0
MTEXT
  5
1E3
330
1DB
100
AcDbEntity
  8
DIMS
100
AcDbMText
 10
2.295243976758448
 20
7.15737277153306
 30
0.0
 40
0.5
 41
0.0
 71
     1
 72
     1
  1
 
  7
SLDTEXTSTYLE1
 73
     1
 44
1.0
  0
ENDBLK
  5
3A9
330
1DB
100
AcDbEntity
  8
0
100
AcDbBlockEnd
  0
BLOCK
  5
3AA
330
1E6
100
AcDbEntity
  8
0
100
AcDbBlockBegin
  2
_D_1
 70
     0
 71
     0
 10
0.0
 20
0.0
 30
0.0
  3
_D_1
  1

  0
INSERT
  5
1E9
330
1E6
100
AcDbEntity
  8
DIMS
100
AcDbBlockReference
  2
_Open90
 10
2.387605088128478
 20
42.38217435760397
 30
0.9038876445244574
 41
0.3
 42
0.3
 50
90.00000000000041
  0
INSERT
  5
1EA
330
1E6
100
AcDbEntity
  8
DIMS
100
AcDbBlockReference
  2
_Open90
 10
2.387605088128475
 20
12.04165627511173
 30
0.9038876445244574
 41
0.3
 42
0.3
 50
270.0000000000004
  0
LINE
  5
1EB
330
1E6
100
AcDbEntity
  8
DIMS
100
AcDbLine
 10
2.211216167455006
 20
26.05151553797181
 30
0.0
 11
3.096632862379124
 21
26.05151553797181
 31
0.0
  0
LINE
  5
1EC
330
1E6
100
AcDbEntity
  8
DIMS
100
AcDbLine
 10
3.447460730178164
 20
42.38217435760397
 30
0.0
 11
2.012605088128478
 21
42.38217435760397
 31
0.0
  0
LINE
  5
1ED
330
1E6
100
AcDbEntity
  8
DIMS
100
AcDbLine
 10
3.387357710618933
 20
12.04165627511173
 30
0.0
 11
2.012605088128475
 21
12.04165627511173
 31
0.0
  0
LINE
  5
1EE
330
1E6
100
AcDbEntity
  8
DIMS
100
AcDbLine
 10
2.387605088128478
 20
42.38217435760397
 30
0.0
 11
2.387605088128476
 21
26.65408499287138
 31
0.0
  0
LINE
  5
1EF
330
1E6
100
AcDbEntity
  8
DIMS
100
AcDbLine
 10
2.387605088128475
 20
12.04165627511173
 30
0.0
 11
2.387605088128476
 21
25.346376686296
 31
0.0
  0
MTEXT
  5
1F0
330
1E6
100
AcDbEntity
  8
DIMS
100
AcDbMText
 10
1.399063374513374
 20
26.28091659840318
 30
0.0
 40
0.5
 41
0.0
 71
     1
 72
     1
  1
30
  7
SLDTEXTSTYLE1
 73
     1
 44
1.0
  0
MTEXT
  5
1F1
330
1E6
100
AcDbEntity
  8
DIMS
100
AcDbMText
 10
2.469202292177278
 20
26.64622909744869
 30
0.0
 40
0.5
 41
0.0
 71
     1
 72
     1
  1
5
  7
SLDTEXTSTYLE1
 73
     1
 44
1.0
  0
MTEXT
  5
1F2
330
1E6
100
AcDbEntity
  8
DIMS
100
AcDbMText
 10
2.284480069437492
 20
25.98504851890065
 30
0.0
 40
0.5
 41
0.0
 71
     1
 72
     1
  1
16
  7
SLDTEXTSTYLE1
 73
     1
 44
1.0
  0
MTEXT
  5
1F3
330
1E6
100
AcDbEntity
  8
DIMS
100
AcDbMText
 10
3.169896837694096
 20
26.28091659840318
 30
0.0
 40
0.5
 41
0.0
 71
     1
 72
     1
  1
"
  7
SLDTEXTSTYLE1
 73
     1
 44
1.0
  0
ENDBLK
  5
3AB
330
1E6
100
AcDbEntity
  8
0
100
AcDbBlockEnd
  0
BLOCK
  5
3AC
330
1F5
100
AcDbEntity
  8
0
100
AcDbBlockBegin
  2
_D_2
 70
     0
 71
     0
 10
0.0
 20
0.0
 30
0.0
  3
_D_2
  1

  0
INSERT
  5
1F8
330
1F5
100
AcDbEntity
  8
DIMS
100
AcDbBlockReference
  2
_Open90
 10
3.520027396806336
 20
44.82168232349032
 30
0.9038876445244574
 41
0.3
 42
0.3
 50
180.0000000000005
  0
INSERT
  5
1F9
330
1F5
100
AcDbEntity
  8
DIMS
100
AcDbBlockReference
  2
_Open90
 10
19.64832739680639
 20
44.82168232349036
 30
0.9038876445244574
 41
0.3
 42
0.3
 50
0.0000000000005089
  0
LINE
  5
1FA
330
1F5
100
AcDbEntity
  8
DIMS
100
AcDbLine
 10
11.48458399275314
 20
44.87296702187846
 30
0.0
 11
12.00055624219768
 21
44.87296702187846
 31
0.0
  0
LINE
  5
1FB
330
1F5
100
AcDbEntity
  8
DIMS
100
AcDbLine
 10
3.520027396806341
 20
42.10125869865044
 30
0.0
 11
3.520027396806336
 21
45.19668232349032
 31
0.0
  0
LINE
  5
1FC
330
1F5
100
AcDbEntity
  8
DIMS
100
AcDbLine
 10
19.64832739680639
 20
42.10125869865044
 30
0.0
 11
19.64832739680639
 21
45.19668232349036
 31
0.0
  0
LINE
  5
1FD
330
1F5
100
AcDbEntity
  8
DIMS
100
AcDbLine
 10
3.520027396806336
 20
44.82168232349032
 30
0.0
 11
10.6724311998115
 21
44.82168232349034
 31
0.0
  0
LINE
  5
1FE
330
1F5
100
AcDbEntity
  8
DIMS
100
AcDbLine
 10
19.64832739680639
 20
44.82168232349036
 30
0.0
 11
12.28007010822965
 21
44.82168232349035
 31
0.0
  0
MTEXT
  5
1FF
330
1F5
100
AcDbEntity
  8
DIMS
100
AcDbMText
 10
10.6724311998115
 20
45.10236808230984
 30
0.0
 40
0.5
 41
0.0
 71
     1
 72
     1
  1
16
  7
SLDTEXTSTYLE1
 73
     1
 44
1.0
  0
MTEXT
  5
200
330
1F5
100
AcDbEntity
  8
DIMS
100
AcDbMText
 10
11.55784789473562
 20
45.46768058135534
 30
0.0
 40
0.5
 41
0.0
 71
     1
 72
     1
  1
1
  7
SLDTEXTSTYLE1
 73
     1
 44
1.0
  0
MTEXT
  5
201
330
1F5
100
AcDbEntity
  8
DIMS
100
AcDbMText
 10
11.55784789473562
 20
44.8065000028073
 30
0.0
 40
0.5
 41
0.0
 71
     1
 72
     1
  1
8
  7
SLDTEXTSTYLE1
 73
     1
 44
1.0
  0
MTEXT
  5
202
330
1F5
100
AcDbEntity
  8
DIMS
100
AcDbMText
 10
12.07382014418017
 20
45.10236808230984
 30
0.0
 40
0.5
 41
0.0
 71
     1
 72
     1
  1
"
  7
SLDTEXTSTYLE1
 73
     1
 44
1.0
  0
ENDBLK
  5
3AD
330
1F5
100
AcDbEntity
  8
0
100
AcDbBlockEnd
  0
BLOCK
  5
3AE
330
224
100
AcDbEntity
  8
0
100
AcDbBlockBegin
  2
_D_3
 70
     0
 71
     0
 10
0.0
 20
0.0
 30
0.0
  3
_D_3
  1

  0
INSERT
  5
227
330
224
100
AcDbEntity
  8
DIMS
100
AcDbBlockReference
  2
_Open90
 10
24.99117962108169
 20
11.78616321352914
 30
0.9210008692716899
 41
0.3
 42
0.3
 50
276.4050133173022
  0
INSERT
  5
228
330
224
100
AcDbEntity
  8
DIMS
100
AcDbBlockReference
  2
_Open90
 10
21.63186377808806
 20
41.7115008717247
 30
0.9210008692716899
 41
0.3
 42
0.3
 50
96.40501331730223
  0
LINE
  5
229
330
224
100
AcDbEntity
  8
DIMS
100
AcDbLine
 10
23.42889459036224
 20
25.82877448992998
 30
0.0
 11
23.94486683980678
 21
25.82877448992998
 31
0.0
  0
LINE
  5
22A
330
224
100
AcDbEntity
  8
DIMS
100
AcDbLine
 10
27.10413524121289
 20
12.02335636975423
 30
0.0
 11
24.61852031035111
 21
11.74432975651438
 31
0.0
  0
LINE
  5
22B
330
224
100
AcDbEntity
  8
DIMS
100
AcDbLine
 10
23.74481939821896
 20
41.94869402794976
 30
0.0
 11
21.25920446735748
 21
41.66966741470993
 31
0.0
  0
LINE
  5
22C
330
224
100
AcDbEntity
  8
DIMS
100
AcDbLine
 10
24.99117962108169
 20
11.78616321352914
 30
0.0
 11
23.4939606779364
 21
25.12363563825417
 31
0.0
  0
LINE
  5
22D
330
224
100
AcDbEntity
  8
DIMS
100
AcDbLine
 10
21.63186377808806
 20
41.7115008717247
 30
0.0
 11
23.34716182532296
 21
26.43134394482955
 31
0.0
  0
MTEXT
  5
22E
330
224
100
AcDbEntity
  8
DIMS
100
AcDbMText
 10
22.61674179742061
 20
26.05817555036136
 30
0.0
 40
0.5
 41
0.0
 71
     1
 72
     1
  1
30
  7
SLDTEXTSTYLE1
 73
     1
 44
1.0
  0
MTEXT
  5
22F
330
224
100
AcDbEntity
  8
DIMS
100
AcDbMText
 10
23.50215849234472
 20
26.42348804940686
 30
0.0
 40
0.5
 41
0.0
 71
     1
 72
     1
  1
1
  7
SLDTEXTSTYLE1
 73
     1
 44
1.0
  0
MTEXT
  5
230
330
224
100
AcDbEntity
  8
DIMS
100
AcDbMText
 10
23.50215849234472
 20
25.76230747085882
 30
0.0
 40
0.5
 41
0.0
 71
     1
 72
     1
  1
8
  7
SLDTEXTSTYLE1
 73
     1
 44
1.0
  0
MTEXT
  5
231
330
224
100
AcDbEntity
  8
DIMS
100
AcDbMText
 10
24.01813074178927
 20
26.05817555036136
 30
0.0
 40
0.5
 41
0.0
 71
     1
 72
     1
  1
"
  7
SLDTEXTSTYLE1
 73
     1
 44
1.0
  0
ENDBLK
  5
3AF
330
224
100
AcDbEntity
  8
0
100
AcDbBlockEnd
  0
BLOCK
  5
3B0
330
233
100
AcDbEntity
  8
0
100
AcDbBlockBegin
  2
_D_4
 70
     0
 71
     0
 10
0.0
 20
0.0
 30
0.0
  3
_D_4
  1

  0
INSERT
  5
236
330
233
100
AcDbEntity
  8
DIMS
100
AcDbBlockReference
  2
_Open90
 10
23.86922823561833
 20
44.82168232349032
 30
0.9210008692716899
 41
0.3
 42
0.3
 50
180.0000000000004
  0
INSERT
  5
237
330
233
100
AcDbEntity
  8
DIMS
100
AcDbBlockReference
  2
_Open90
 10
27.76815155432492
 20
44.82168232349032
 30
0.9210008692716899
 41
0.3
 42
0.3
 50
0.0000000000003562
  0
LINE
  5
238
330
233
100
AcDbEntity
  8
DIMS
100
AcDbLine
 10
25.60826621850168
 20
44.87296702187844
 30
0.0
 11
26.12423846794622
 21
44.87296702187844
 31
0.0
  0
LINE
  5
239
330
233
100
AcDbEntity
  8
DIMS
100
AcDbLine
 10
23.86922823561833
 20
42.08070872708885
 30
0.0
 11
23.86922823561833
 21
45.19668232349032
 31
0.0
  0
LINE
  5
23A
330
233
100
AcDbEntity
  8
DIMS
100
AcDbLine
 10
27.76815155432492
 20
42.46617712765926
 30
0.0
 11
27.76815155432492
 21
45.19668232349032
 31
0.0
  0
LINE
  5
23B
330
233
100
AcDbEntity
  8
DIMS
100
AcDbLine
 10
23.86922823561833
 20
44.82168232349032
 30
0.0
 11
25.16555787103962
 21
44.82168232349032
 31
0.0
  0
LINE
  5
23C
330
233
100
AcDbEntity
  8
DIMS
100
AcDbLine
 10
27.76815155432492
 20
44.82168232349032
 30
0.0
 11
26.40375240731068
 21
44.82168232349032
 31
0.0
  0
MTEXT
  5
23D
330
233
100
AcDbEntity
  8
DIMS
100
AcDbMText
 10
25.16555787103962
 20
45.10236808230982
 30
0.0
 40
0.5
 41
0.0
 71
     1
 72
     1
  1
3
  7
SLDTEXTSTYLE1
 73
     1
 44
1.0
  0
MTEXT
  5
23E
330
233
100
AcDbEntity
  8
DIMS
100
AcDbMText
 10
25.68153012048417
 20
45.46768058135532
 30
0.0
 40
0.5
 41
0.0
 71
     1
 72
     1
  1
7
  7
SLDTEXTSTYLE1
 73
     1
 44
1.0
  0
MTEXT
  5
23F
330
233
100
AcDbEntity
  8
DIMS
100
AcDbMText
 10
25.68153012048417
 20
44.80650000280728
 30
0.0
 40
0.5
 41
0.0
 71
     1
 72
     1
  1
8
  7
SLDTEXTSTYLE1
 73
     1
 44
1.0
  0
MTEXT
  5
240
330
233
100
AcDbEntity
  8
DIMS
100
AcDbMText
 10
26.19750236992871
 20
45.10236808230982
 30
0.0
 40
0.5
 41
0.0
 71
     1
 72
     1
  1
"
  7
SLDTEXTSTYLE1
 73
     1
 44
1.0
  0
ENDBLK
  5
3B1
330
233
100
AcDbEntity
  8
0
100
AcDbBlockEnd
  0
BLOCK
  5
3B2
330
294
100
AcDbEntity
  8
0
100
AcDbBlockBegin
  2
SW_NOTE_0_2
 70
     0
 71
     0
 10
0.0
 20
0.0
 30
0.0
  3
SW_NOTE_0_2
  1

  0
MTEXT
  5
297
330
294
100
AcDbEntity
  8
NOTES
 62
     0
100
AcDbMText
 10
0.0
 20
0.6386718750000004
 30
0.0
 40
0.5
 41
0.0
 71
     1
 72
     1
  1
3D view
  7
SLDTEXTSTYLE1
 73
     1
 44
1.0
  0
MTEXT
  5
298
330
294
100
AcDbEntity
  8
NOTES
 62
     0
100
AcDbMText
 10
0.0
 20
-0.3613281862472921
 30
0.0
 40
0.5
 41
0.0
 71
     1
 72
     1
  1
code 941-1630 FT
  7
SLDTEXTSTYLE1
 73
     1
 44
1.0
  0
ENDBLK
  5
3B3
330
294
100
AcDbEntity
  8
0
100
AcDbBlockEnd
  0
BLOCK
  5
3B4
330
345
100
AcDbEntity
  8
0
100
AcDbBlockBegin
  2
_D_5
 70
     0
 71
     0
 10
0.0
 20
0.0
 30
0.0
  3
_D_5
  1

  0
INSERT
  5
348
330
345
100
AcDbEntity
  8
DIMS
100
AcDbBlockReference
  2
_Open90
 10
31.469903601981
 20
37.07175503558752
 30
-0.9038876445244649
 41
0.3
 42
0.3
 50
255.0000000000009
  0
LINE
  5
349
330
345
100
AcDbEntity
  8
DIMS
100
AcDbLine
 10
34.29687069773878
 20
43.46618522366778
 30
0.0
 11
35.18228739266289
 21
43.46618522366778
 31
0.0
  0
LINE
  5
34A
330
345
100
AcDbEntity
  8
DIMS
100
AcDbLine
 10
31.469903601981
 20
37.07175503558752
 30
0.0
 11
33.1695443134171
 21
43.41490052527966
 31
0.0
  0
LINE
  5
34B
330
345
100
AcDbEntity
  8
DIMS
100
AcDbLine
 10
33.1695443134171
 20
43.41490052527966
 30
0.0
 11
33.4695443134171
 21
43.41490052527966
 31
0.0
  0
MTEXT
  5
34C
330
345
100
AcDbEntity
  8
DIMS
100
AcDbMText
 10
33.4695443134171
 20
43.68794739484425
 30
0.0
 40
0.5
 41
0.0
 71
     1
 72
     1
  1
%%c
  7
SLDTEXTSTYLE1
 73
     1
 44
1.0
  0
MTEXT
  5
34D
330
345
100
AcDbEntity
  8
DIMS
100
AcDbMText
 10
34.55485682246105
 20
44.06089878314466
 30
0.0
 40
0.5
 41
0.0
 71
     1
 72
     1
  1
3
  7
SLDTEXTSTYLE1
 73
     1
 44
1.0
  0
MTEXT
  5
34E
330
345
100
AcDbEntity
  8
DIMS
100
AcDbMText
 10
34.37013459972126
 20
43.39971820459662
 30
0.0
 40
0.5
 41
0.0
 71
     1
 72
     1
  1
16
  7
SLDTEXTSTYLE1
 73
     1
 44
1.0
  0
MTEXT
  5
34F
330
345
100
AcDbEntity
  8
DIMS
100
AcDbMText
 10
35.25555129464538
 20
43.69558628409915
 30
0.0
 40
0.5
 41
0.0
 71
     1
 72
     1
  1
"
  7
SLDTEXTSTYLE1
 73
     1
 44
1.0
  0
MTEXT
  5
350
330
345
100
AcDbEntity
  8
DIMS
100
AcDbMText
 10
35.46180125869486
 20
43.69558628409915
 30
0.0
 40
0.5
 41
0.0
 71
     1
 72
     1
  1
 mounting hole (4)
  7
SLDTEXTSTYLE1
 73
     1
 44
1.0
  0
ENDBLK
  5
3B5
330
345
100
AcDbEntity
  8
0
100
AcDbBlockEnd
  0
BLOCK
  5
3B6
330
352
100
AcDbEntity
  8
0
100
AcDbBlockBegin
  2
_D_6
 70
     0
 71
     0
 10
0.0
 20
0.0
 30
0.0
  3
_D_6
  1

  0
INSERT
  5
355
330
352
100
AcDbEntity
  8
DIMS
100
AcDbBlockReference
  2
_Open90
 10
31.44523971532784
 20
44.82168232349031
 30
-0.9038876445244654
 41
0.3
 42
0.3
 50
180.0000000000003
  0
INSERT
  5
356
330
352
100
AcDbEntity
  8
DIMS
100
AcDbBlockReference
  2
_Open90
 10
46.74750778472667
 20
44.82168232349028
 30
-0.9038876445244654
 41
0.3
 42
0.3
 50
0.0000000000003053
  0
LINE
  5
357
330
352
100
AcDbEntity
  8
DIMS
100
AcDbLine
 10
38.67029500692245
 20
44.87296702187841
 30
0.0
 11
39.55571170184657
 21
44.87296702187841
 31
0.0
  0
LINE
  5
358
330
352
100
AcDbEntity
  8
DIMS
100
AcDbLine
 10
31.44523971532782
 20
37.14637482415241
 30
0.0
 11
31.44523971532784
 21
45.19668232349031
 31
0.0
  0
LINE
  5
359
330
352
100
AcDbEntity
  8
DIMS
100
AcDbLine
 10
46.74750778472666
 20
37.14637482415238
 30
0.0
 11
46.74750778472667
 21
45.19668232349028
 31
0.0
  0
LINE
  5
35A
330
352
100
AcDbEntity
  8
DIMS
100
AcDbLine
 10
31.44523971532784
 20
44.82168232349031
 30
0.0
 11
37.85814221398082
 21
44.82168232349031
 31
0.0
  0
LINE
  5
35B
330
352
100
AcDbEntity
  8
DIMS
100
AcDbLine
 10
46.74750778472667
 20
44.82168232349028
 30
0.0
 11
39.83522564121103
 21
44.8216823234903
 31
0.0
  0
MTEXT
  5
35C
330
352
100
AcDbEntity
  8
DIMS
100
AcDbMText
 10
37.85814221398082
 20
45.10236808230978
 30
0.0
 40
0.5
 41
0.0
 71
     1
 72
     1
  1
15
  7
SLDTEXTSTYLE1
 73
     1
 44
1.0
  0
MTEXT
  5
35D
330
352
100
AcDbEntity
  8
DIMS
100
AcDbMText
 10
38.92828113164472
 20
45.46768058135529
 30
0.0
 40
0.5
 41
0.0
 71
     1
 72
     1
  1
5
  7
SLDTEXTSTYLE1
 73
     1
 44
1.0
  0
MTEXT
  5
35E
330
352
100
AcDbEntity
  8
DIMS
100
AcDbMText
 10
38.74355890890494
 20
44.80650000280725
 30
0.0
 40
0.5
 41
0.0
 71
     1
 72
     1
  1
16
  7
SLDTEXTSTYLE1
 73
     1
 44
1.0
  0
MTEXT
  5
35F
330
352
100
AcDbEntity
  8
DIMS
100
AcDbMText
 10
39.62897567716154
 20
45.10236808230978
 30
0.0
 40
0.5
 41
0.0
 71
     1
 72
     1
  1
"
  7
SLDTEXTSTYLE1
 73
     1
 44
1.0
  0
ENDBLK
  5
3B7
330
352
100
AcDbEntity
  8
0
100
AcDbBlockEnd
  0
BLOCK
  5
3B8
330
361
100
AcDbEntity
  8
0
100
AcDbBlockBegin
  2
_D_7
 70
     0
 71
     0
 10
0.0
 20
0.0
 30
0.0
  3
_D_7
  1

  0
INSERT
  5
364
330
361
100
AcDbEntity
  8
DIMS
100
AcDbBlockReference
  2
_Open90
 10
48.41298127145923
 20
36.9797081574857
 30
-0.9038876445244654
 41
0.3
 42
0.3
 50
90.0
  0
INSERT
  5
365
330
361
100
AcDbEntity
  8
DIMS
100
AcDbBlockReference
  2
_Open90
 10
48.41298127145912
 20
20.97970815748568
 30
-0.9038876445244654
 41
0.3
 42
0.3
 50
270.0
  0
LINE
  5
366
330
361
100
AcDbEntity
  8
DIMS
100
AcDbLine
 10
46.91417445139332
 20
36.97970815748571
 30
0.0
 11
48.78798127145923
 21
36.9797081574857
 31
0.0
  0
LINE
  5
367
330
361
100
AcDbEntity
  8
DIMS
100
AcDbLine
 10
46.9141744513932
 20
20.9797081574857
 30
0.0
 11
48.78798127145912
 21
20.97970815748568
 31
0.0
  0
LINE
  5
368
330
361
100
AcDbEntity
  8
DIMS
100
AcDbLine
 10
48.41298127145923
 20
36.9797081574857
 30
0.0
 11
48.41298127145917
 21
29.20979627922427
 31
0.0
  0
LINE
  5
369
330
361
100
AcDbEntity
  8
DIMS
100
AcDbLine
 10
48.41298127145912
 20
20.97970815748568
 30
0.0
 11
48.41298127145916
 21
28.41604625535895
 31
0.0
  0
MTEXT
  5
36A
330
361
100
AcDbEntity
  8
DIMS
100
AcDbMText
 10
47.94041184395486
 20
29.05471818535831
 30
0.0
 40
0.5
 41
0.0
 71
     1
 72
     1
  1
16"
  7
SLDTEXTSTYLE1
 73
     1
 44
1.0
  0
ENDBLK
  5
3B9
330
361
100
AcDbEntity
  8
0
100
AcDbBlockEnd
  0
BLOCK
  5
3BA
330
36C
100
AcDbEntity
  8
0
100
AcDbBlockBegin
  2
_D_8
 70
     0
 71
     0
 10
0.0
 20
0.0
 30
0.0
  3
_D_8
  1

  0
INSERT
  5
36F
330
36C
100
AcDbEntity
  8
DIMS
100
AcDbBlockReference
  2
_Open90
 10
48.41298127145917
 20
20.9797081574857
 30
-0.9038876445244654
 41
0.3
 42
0.3
 50
90.00000000000061
  0
INSERT
  5
370
330
36C
100
AcDbEntity
  8
DIMS
100
AcDbBlockReference
  2
_Open90
 10
48.4129812714592
 20
12.04194901731641
 30
-0.9038876445244654
 41
0.3
 42
0.3
 50
270.0000000000006
  0
LINE
  5
371
330
36C
100
AcDbEntity
  8
DIMS
100
AcDbLine
 10
48.05187016471217
 20
16.03419894131695
 30
0.0
 11
48.93728685963629
 21
16.03419894131695
 31
0.0
  0
LINE
  5
372
330
36C
100
AcDbEntity
  8
DIMS
100
AcDbLine
 10
46.9141744513932
 20
20.9797081574857
 30
0.0
 11
48.78798127145917
 21
20.9797081574857
 31
0.0
  0
LINE
  5
373
330
36C
100
AcDbEntity
  8
DIMS
100
AcDbLine
 10
47.29429041669415
 20
12.0419490173164
 30
0.0
 11
48.7879812714592
 21
12.04194901731641
 31
0.0
  0
LINE
  5
374
330
36C
100
AcDbEntity
  8
DIMS
100
AcDbLine
 10
48.41298127145917
 20
20.9797081574857
 30
0.0
 11
48.41298127145919
 21
16.63676839621652
 31
0.0
  0
LINE
  5
375
330
36C
100
AcDbEntity
  8
DIMS
100
AcDbLine
 10
48.4129812714592
 20
12.04194901731641
 30
0.0
 11
48.41298127145919
 21
15.32906008964114
 31
0.0
  0
MTEXT
  5
376
330
36C
100
AcDbEntity
  8
DIMS
100
AcDbMText
 10
47.60916181725011
 20
16.26360000174833
 30
0.0
 40
0.5
 41
0.0
 71
     1
 72
     1
  1
8
  7
SLDTEXTSTYLE1
 73
     1
 44
1.0
  0
MTEXT
  5
377
330
36C
100
AcDbEntity
  8
DIMS
100
AcDbMText
 10
48.12513406669466
 20
16.62891250079383
 30
0.0
 40
0.5
 41
0.0
 71
     1
 72
     1
  1
15
  7
SLDTEXTSTYLE1
 73
     1
 44
1.0
  0
MTEXT
  5
378
330
36C
100
AcDbEntity
  8
DIMS
100
AcDbMText
 10
48.12513406669466
 20
15.9677319222458
 30
0.0
 40
0.5
 41
0.0
 71
     1
 72
     1
  1
16
  7
SLDTEXTSTYLE1
 73
     1
 44
1.0
  0
MTEXT
  5
379
330
36C
100
AcDbEntity
  8
DIMS
100
AcDbMText
 10
49.01055076161877
 20
16.26360000174833
 30
0.0
 40
0.5
 41
0.0
 71
     1
 72
     1
  1
"
  7
SLDTEXTSTYLE1
 73
     1
 44
1.0
  0
ENDBLK
  5
3BB
330
36C
100
AcDbEntity
  8
0
100
AcDbBlockEnd
  0
BLOCK
  5
3BC
330
37B
100
AcDbEntity
  8
0
100
AcDbBlockBegin
  2
_D_9
 70
     0
 71
     0
 10
0.0
 20
0.0
 30
0.0
  3
_D_9
  1

  0
INSERT
  5
37E
330
37B
100
AcDbEntity
  8
DIMS
100
AcDbBlockReference
  2
_Open90
 10
48.41224533565619
 20
42.38264249545786
 30
-0.9038876445244654
 41
0.3
 42
0.3
 50
90.00000000000038
  0
INSERT
  5
37F
330
37B
100
AcDbEntity
  8
DIMS
100
AcDbBlockReference
  2
_Open90
 10
48.41224533565619
 20
36.9797081551758
 30
-0.9038876445244654
 41
0.3
 42
0.3
 50
270.0000000000004
  0
LINE
  5
380
330
37B
100
AcDbEntity
  8
DIMS
100
AcDbLine
 10
48.23585641498272
 20
39.11329802961986
 30
0.0
 11
48.75182866442726
 21
39.11329802961986
 31
0.0
  0
LINE
  5
381
330
37B
100
AcDbEntity
  8
DIMS
100
AcDbLine
 10
47.23309041665559
 20
42.38264249545786
 30
0.0
 11
48.78724533565619
 21
42.38264249545786
 31
0.0
  0
LINE
  5
382
330
37B
100
AcDbEntity
  8
DIMS
100
AcDbLine
 10
46.8188805110134
 20
36.9797081551758
 30
0.0
 11
48.78724533565619
 21
36.9797081551758
 31
0.0
  0
LINE
  5
383
330
37B
100
AcDbEntity
  8
DIMS
100
AcDbLine
 10
48.41224533565619
 20
42.38264249545786
 30
0.0
 11
48.41224533565619
 21
39.71586748451944
 31
0.0
  0
LINE
  5
384
330
37B
100
AcDbEntity
  8
DIMS
100
AcDbLine
 10
48.41224533565619
 20
36.9797081551758
 30
0.0
 11
48.41224533565619
 21
38.40815917794404
 31
0.0
  0
MTEXT
  5
385
330
37B
100
AcDbEntity
  8
DIMS
100
AcDbMText
 10
47.79314806752066
 20
39.34269909005123
 30
0.0
 40
0.5
 41
0.0
 71
     1
 72
     1
  1
5
  7
SLDTEXTSTYLE1
 73
     1
 44
1.0
  0
MTEXT
  5
386
330
37B
100
AcDbEntity
  8
DIMS
100
AcDbMText
 10
48.30912031696521
 20
39.70801158909674
 30
0.0
 40
0.5
 41
0.0
 71
     1
 72
     1
  1
3
  7
SLDTEXTSTYLE1
 73
     1
 44
1.0
  0
MTEXT
  5
387
330
37B
100
AcDbEntity
  8
DIMS
100
AcDbMText
 10
48.30912031696521
 20
39.0468310105487
 30
0.0
 40
0.5
 41
0.0
 71
     1
 72
     1
  1
8
  7
SLDTEXTSTYLE1
 73
     1
 44
1.0
  0
MTEXT
  5
388
330
37B
100
AcDbEntity
  8
DIMS
100
AcDbMText
 10
48.82509256640975
 20
39.34269909005123
 30
0.0
 40
0.5
 41
0.0
 71
     1
 72
     1
  1
"
  7
SLDTEXTSTYLE1
 73
     1
 44
1.0
  0
ENDBLK
  5
3BD
330
37B
100
AcDbEntity
  8
0
100
AcDbBlockEnd
  0
ENDSEC
  0
SECTION
  2
ENTITIES
  0
LINE
  5
7A
330
1F
100
AcDbEntity
  8
OBJECT
100
AcDbLine
 10
27.76815155432485
 20
18.63119709122106
 30
0.0
 11
27.75328317215426
 21
18.58119709122106
 31
0.0
  0
LINE
  5
7B
330
1F
100
AcDbEntity
  8
OBJECT
100
AcDbLine
 10
65.73477153201488
 20
35.85246525291025
 30
0.0
 11
65.73846649804723
 21
35.82681088634996
 31
0.0
  0
LINE
  5
7C
330
1F
100
AcDbEntity
  8
TITLE
370
    50
100
AcDbLine
 10
52.5182230240126
 20
1.487611764461629
 30
0.0
 11
69.49998645119504
 21
1.487611764461629
 31
0.0
  0
LINE
  5
7D
330
1F
100
AcDbEntity
  8
TITLE
370
    50
100
AcDbLine
 10
69.49993174424404
 20
5.475360393555786
 30
0.0
 11
59.31053507231783
 21
5.475360393555786
 31
0.0
  0
LINE
  5
7E
330
1F
100
AcDbEntity
  8
TITLE
  6
SLD-Solid
370
    18
100
AcDbLine
 10
0.5
 20
0.5
 30
0.0
 11
0.5
 21
49.50000000000001
 31
0.0
  0
LINE
  5
7F
330
1F
100
AcDbEntity
  8
TITLE
  6
SLD-Solid
370
    18
100
AcDbLine
 10
0.5
 20
49.50000000000001
 30
0.0
 11
69.5
 21
49.50000000000001
 31
0.0
  0
LINE
  5
80
330
1F
100
AcDbEntity
  8
TITLE
370
    50
100
AcDbLine
 10
52.5182230240126
 20
2.54278772310344
 30
0.0
 11
45.50597912026433
 21
2.54278772310344
 31
0.0
  0
LINE
  5
81
330
1F
100
AcDbEntity
  8
TITLE
370
    50
100
AcDbLine
 10
52.5182230240126
 20
1.487611764461629
 30
0.0
 11
45.50597912026433
 21
1.487611764461629
 31
0.0
  0
LINE
  5
82
330
1F
100
AcDbEntity
  8
TITLE
  6
SLD-Solid
370
    18
100
AcDbLine
 10
69.5
 20
49.50000000000001
 30
0.0
 11
69.5
 21
0.5
 31
0.0
  0
LINE
  5
83
330
1F
100
AcDbEntity
  8
TITLE
  6
SLD-Solid
370
    18
100
AcDbLine
 10
69.5
 20
0.5
 30
0.0
 11
0.5
 21
0.5
 31
0.0
  0
LINE
  5
84
330
1F
100
AcDbEntity
  8
TITLE
370
    50
100
AcDbLine
 10
52.5182230240126
 20
1.487611764461629
 30
0.0
 11
52.5182230240126
 21
3.597963681745254
 31
0.0
  0
LINE
  5
85
330
1F
100
AcDbEntity
  8
TITLE
370
    50
100
AcDbLine
 10
45.50597912026433
 20
3.597963681745254
 30
0.0
 11
45.50597912026433
 21
0.4999999999999996
 31
0.0
  0
LINE
  5
86
330
1F
100
AcDbEntity
  8
TITLE
370
    50
100
AcDbLine
 10
45.50597912026433
 20
0.4999999999999996
 30
0.0
 11
69.5
 21
0.4999999999999996
 31
0.0
  0
LINE
  5
87
330
1F
100
AcDbEntity
  8
TITLE
370
    50
100
AcDbLine
 10
69.49993174424404
 20
5.475360393555786
 30
0.0
 11
69.5
 21
0.4999999999999996
 31
0.0
  0
LINE
  5
88
330
1F
100
AcDbEntity
  8
TITLE
  6
SLD-Solid
370
    18
100
AcDbLine
 10
0.4999606299212599
 20
25.0
 30
0.0
 11
0.5000393700787401
 21
25.0
 31
0.0
  0
LINE
  5
89
330
1F
100
AcDbEntity
  8
TITLE
370
    50
100
AcDbLine
 10
52.5182230240126
 20
3.597963681745254
 30
0.0
 11
45.50597912026433
 21
3.597963681745254
 31
0.0
  0
LINE
  5
8A
330
1F
100
AcDbEntity
  8
TITLE
370
    50
100
AcDbLine
 10
52.5182230240126
 20
3.597963681745254
 30
0.0
 11
69.49976156426075
 21
3.597964834324629
 31
0.0
  0
LINE
  5
8B
330
1F
100
AcDbEntity
  8
TITLE
370
    50
100
AcDbLine
 10
59.31053507231783
 20
5.475360393555786
 30
0.0
 11
59.31053507231783
 21
0.4636772425222307
 31
0.0
  0
LINE
  5
8C
330
1F
100
AcDbEntity
  8
TITLE
  6
SLD-Solid
370
    18
100
AcDbLine
 10
35.0
 20
49.50003937007874
 30
0.0
 11
35.0
 21
49.49996062992127
 31
0.0
  0
LINE
  5
8D
330
1F
100
AcDbEntity
  8
TITLE
  6
SLD-Solid
370
    18
100
AcDbLine
 10
69.50003937007874
 20
25.0
 30
0.0
 11
69.49996062992126
 21
25.0
 31
0.0
  0
LINE
  5
8E
330
1F
100
AcDbEntity
  8
TITLE
  6
SLD-Solid
370
    18
100
AcDbLine
 10
35.0
 20
0.4999606299212599
 30
0.0
 11
35.0
 21
0.5000393700787401
 31
0.0
  0
LINE
  5
8F
330
1F
100
AcDbEntity
  8
TITLE
  6
SLD-Solid
370
    18
100
AcDbLine
 10
0.5
 20
3.346456692913384
 30
0.0
 11
0.1653543307086614
 21
3.346456692913384
 31
0.0
  0
LINE
  5
90
330
1F
100
AcDbEntity
  8
TITLE
  6
SLD-Solid
370
    18
100
AcDbLine
 10
69.5
 20
3.346456692913384
 30
0.0
 11
69.83464566929135
 21
3.346456692913384
 31
0.0
  0
LINE
  5
91
330
1F
100
AcDbEntity
  8
TITLE
  6
SLD-Solid
370
    18
100
AcDbLine
 10
0.5
 20
5.31496062992126
 30
0.0
 11
0.1653543307086614
 21
5.31496062992126
 31
0.0
  0
LINE
  5
3BE
330
1F
100
AcDbEntity
  8
TITLE
  6
SLD-Solid
370
    18
100
AcDbLine
 10
69.5
 20
5.31496062992126
 30
0.0
 11
69.83464566929135
 21
5.31496062992126
 31
0.0
  0
LINE
  5
3BF
330
1F
100
AcDbEntity
  8
TITLE
  6
SLD-Solid
370
    18
100
AcDbLine
 10
0.5
 20
7.283464566929134
 30
0.0
 11
0.1653543307086614
 21
7.283464566929134
 31
0.0
  0
LINE
  5
94
330
1F
100
AcDbEntity
  8
TITLE
  6
SLD-Solid
370
    18
100
AcDbLine
 10
69.5
 20
7.283464566929134
 30
0.0
 11
69.83464566929135
 21
7.283464566929134
 31
0.0
  0
LINE
  5
95
330
1F
100
AcDbEntity
  8
TITLE
  6
SLD-Solid
370
    18
100
AcDbLine
 10
0.5
 20
9.251968503937007
 30
0.0
 11
0.1653543307086614
 21
9.251968503937007
 31
0.0
  0
LINE
  5
96
330
1F
100
AcDbEntity
  8
TITLE
  6
SLD-Solid
370
    18
100
AcDbLine
 10
69.5
 20
9.251968503937007
 30
0.0
 11
69.83464566929135
 21
9.251968503937007
 31
0.0
  0
LINE
  5
3C0
330
1F
100
AcDbEntity
  8
TITLE
  6
SLD-Solid
370
    18
100
AcDbLine
 10
0.5
 20
11.22047244094488
 30
0.0
 11
0.1653543307086614
 21
11.22047244094488
 31
0.0
  0
LINE
  5
3C1
330
1F
100
AcDbEntity
  8
TITLE
  6
SLD-Solid
370
    18
100
AcDbLine
 10
69.5
 20
11.22047244094488
 30
0.0
 11
69.83464566929135
 21
11.22047244094488
 31
0.0
  0
LINE
  5
99
330
1F
100
AcDbEntity
  8
TITLE
  6
SLD-Solid
370
    18
100
AcDbLine
 10
0.5
 20
13.18897637795276
 30
0.0
 11
0.1653543307086614
 21
13.18897637795276
 31
0.0
  0
LINE
  5
9A
330
1F
100
AcDbEntity
  8
TITLE
  6
SLD-Solid
370
    18
100
AcDbLine
 10
69.5
 20
13.18897637795276
 30
0.0
 11
69.83464566929135
 21
13.18897637795276
 31
0.0
  0
LINE
  5
9B
330
1F
100
AcDbEntity
  8
TITLE
  6
SLD-Solid
370
    18
100
AcDbLine
 10
0.5
 20
15.15748031496063
 30
0.0
 11
0.1653543307086614
 21
15.15748031496063
 31
0.0
  0
LINE
  5
9C
330
1F
100
AcDbEntity
  8
TITLE
  6
SLD-Solid
370
    18
100
AcDbLine
 10
69.5
 20
15.15748031496063
 30
0.0
 11
69.83464566929135
 21
15.15748031496063
 31
0.0
  0
LINE
  5
9D
330
1F
100
AcDbEntity
  8
TITLE
  6
SLD-Solid
370
    18
100
AcDbLine
 10
0.5
 20
17.1259842519685
 30
0.0
 11
0.1653543307086614
 21
17.1259842519685
 31
0.0
  0
LINE
  5
9E
330
1F
100
AcDbEntity
  8
TITLE
  6
SLD-Solid
370
    18
100
AcDbLine
 10
69.5
 20
17.1259842519685
 30
0.0
 11
69.83464566929135
 21
17.1259842519685
 31
0.0
  0
LINE
  5
9F
330
1F
100
AcDbEntity
  8
TITLE
  6
SLD-Solid
370
    18
100
AcDbLine
 10
0.5
 20
19.09448818897638
 30
0.0
 11
0.1653543307086614
 21
19.09448818897638
 31
0.0
  0
LINE
  5
A0
330
1F
100
AcDbEntity
  8
TITLE
  6
SLD-Solid
370
    18
100
AcDbLine
 10
69.5
 20
19.09448818897638
 30
0.0
 11
69.83464566929135
 21
19.09448818897638
 31
0.0
  0
LINE
  5
A1
330
1F
100
AcDbEntity
  8
TITLE
  6
SLD-Solid
370
    18
100
AcDbLine
 10
0.5
 20
21.06299212598426
 30
0.0
 11
0.1653543307086614
 21
21.06299212598426
 31
0.0
  0
LINE
  5
A2
330
1F
100
AcDbEntity
  8
TITLE
  6
SLD-Solid
370
    18
100
AcDbLine
 10
69.5
 20
21.06299212598426
 30
0.0
 11
69.83464566929135
 21
21.06299212598426
 31
0.0
  0
LINE
  5
A3
330
1F
100
AcDbEntity
  8
TITLE
  6
SLD-Solid
370
    18
100
AcDbLine
 10
0.5
 20
23.03149606299213
 30
0.0
 11
0.1653543307086614
 21
23.03149606299213
 31
0.0
  0
LINE
  5
A4
330
1F
100
AcDbEntity
  8
TITLE
  6
SLD-Solid
370
    18
100
AcDbLine
 10
69.5
 20
23.03149606299213
 30
0.0
 11
69.83464566929135
 21
23.03149606299213
 31
0.0
  0
LINE
  5
A5
330
1F
100
AcDbEntity
  8
TITLE
  6
SLD-Solid
370
    18
100
AcDbLine
 10
0.5
 20
25.0
 30
0.0
 11
0.1653543307086614
 21
25.0
 31
0.0
  0
LINE
  5
A6
330
1F
100
AcDbEntity
  8
TITLE
  6
SLD-Solid
370
    18
100
AcDbLine
 10
69.5
 20
25.0
 30
0.0
 11
69.83464566929135
 21
25.0
 31
0.0
  0
LINE
  5
A7
330
1F
100
AcDbEntity
  8
TITLE
  6
SLD-Solid
370
    18
100
AcDbLine
 10
0.5
 20
26.96850393700788
 30
0.0
 11
0.1653543307086614
 21
26.96850393700788
 31
0.0
  0
LINE
  5
A8
330
1F
100
AcDbEntity
  8
TITLE
  6
SLD-Solid
370
    18
100
AcDbLine
 10
69.5
 20
26.96850393700788
 30
0.0
 11
69.83464566929135
 21
26.96850393700788
 31
0.0
  0
LINE
  5
A9
330
1F
100
AcDbEntity
  8
TITLE
  6
SLD-Solid
370
    18
100
AcDbLine
 10
0.5
 20
28.93700787401575
 30
0.0
 11
0.1653543307086614
 21
28.93700787401575
 31
0.0
  0
LINE
  5
AA
330
1F
100
AcDbEntity
  8
TITLE
  6
SLD-Solid
370
    18
100
AcDbLine
 10
69.5
 20
28.93700787401575
 30
0.0
 11
69.83464566929135
 21
28.93700787401575
 31
0.0
  0
LINE
  5
AB
330
1F
100
AcDbEntity
  8
TITLE
  6
SLD-Solid
370
    18
100
AcDbLine
 10
0.5
 20
30.90551181102363
 30
0.0
 11
0.1653543307086614
 21
30.90551181102363
 31
0.0
  0
LINE
  5
AC
330
1F
100
AcDbEntity
  8
TITLE
  6
SLD-Solid
370
    18
100
AcDbLine
 10
69.5
 20
30.90551181102363
 30
0.0
 11
69.83464566929135
 21
30.90551181102363
 31
0.0
  0
LINE
  5
AD
330
1F
100
AcDbEntity
  8
TITLE
  6
SLD-Solid
370
    18
100
AcDbLine
 10
0.5
 20
32.8740157480315
 30
0.0
 11
0.1653543307086614
 21
32.8740157480315
 31
0.0
  0
LINE
  5
AE
330
1F
100
AcDbEntity
  8
TITLE
  6
SLD-Solid
370
    18
100
AcDbLine
 10
69.5
 20
32.8740157480315
 30
0.0
 11
69.83464566929135
 21
32.8740157480315
 31
0.0
  0
LINE
  5
AF
330
1F
100
AcDbEntity
  8
TITLE
  6
SLD-Solid
370
    18
100
AcDbLine
 10
0.5
 20
34.84251968503937
 30
0.0
 11
0.1653543307086614
 21
34.84251968503937
 31
0.0
  0
LINE
  5
B0
330
1F
100
AcDbEntity
  8
TITLE
  6
SLD-Solid
370
    18
100
AcDbLine
 10
69.5
 20
34.84251968503937
 30
0.0
 11
69.83464566929135
 21
34.84251968503937
 31
0.0
  0
LINE
  5
B1
330
1F
100
AcDbEntity
  8
TITLE
  6
SLD-Solid
370
    18
100
AcDbLine
 10
0.5
 20
36.81102362204724
 30
0.0
 11
0.1653543307086614
 21
36.81102362204724
 31
0.0
  0
LINE
  5
B2
330
1F
100
AcDbEntity
  8
TITLE
  6
SLD-Solid
370
    18
100
AcDbLine
 10
69.5
 20
36.81102362204724
 30
0.0
 11
69.83464566929135
 21
36.81102362204724
 31
0.0
  0
LINE
  5
B3
330
1F
100
AcDbEntity
  8
TITLE
  6
SLD-Solid
370
    18
100
AcDbLine
 10
0.5
 20
38.77952755905513
 30
0.0
 11
0.1653543307086614
 21
38.77952755905513
 31
0.0
  0
LINE
  5
B4
330
1F
100
AcDbEntity
  8
TITLE
  6
SLD-Solid
370
    18
100
AcDbLine
 10
69.5
 20
38.77952755905513
 30
0.0
 11
69.83464566929135
 21
38.77952755905513
 31
0.0
  0
LINE
  5
B5
330
1F
100
AcDbEntity
  8
TITLE
  6
SLD-Solid
370
    18
100
AcDbLine
 10
0.5
 20
40.748031496063
 30
0.0
 11
0.1653543307086614
 21
40.748031496063
 31
0.0
  0
LINE
  5
B6
330
1F
100
AcDbEntity
  8
TITLE
  6
SLD-Solid
370
    18
100
AcDbLine
 10
69.5
 20
40.748031496063
 30
0.0
 11
69.83464566929135
 21
40.748031496063
 31
0.0
  0
LINE
  5
B7
330
1F
100
AcDbEntity
  8
TITLE
  6
SLD-Solid
370
    18
100
AcDbLine
 10
0.5
 20
42.71653543307087
 30
0.0
 11
0.1653543307086614
 21
42.71653543307087
 31
0.0
  0
LINE
  5
B8
330
1F
100
AcDbEntity
  8
TITLE
  6
SLD-Solid
370
    18
100
AcDbLine
 10
69.5
 20
42.71653543307087
 30
0.0
 11
69.83464566929135
 21
42.71653543307087
 31
0.0
  0
LINE
  5
B9
330
1F
100
AcDbEntity
  8
TITLE
  6
SLD-Solid
370
    18
100
AcDbLine
 10
0.5
 20
44.68503937007874
 30
0.0
 11
0.1653543307086614
 21
44.68503937007874
 31
0.0
  0
LINE
  5
BA
330
1F
100
AcDbEntity
  8
TITLE
  6
SLD-Solid
370
    18
100
AcDbLine
 10
69.5
 20
44.68503937007874
 30
0.0
 11
69.83464566929135
 21
44.68503937007874
 31
0.0
  0
LINE
  5
BB
330
1F
100
AcDbEntity
  8
TITLE
  6
SLD-Solid
370
    18
100
AcDbLine
 10
0.5
 20
46.65354330708661
 30
0.0
 11
0.1653543307086614
 21
46.65354330708661
 31
0.0
  0
LINE
  5
BC
330
1F
100
AcDbEntity
  8
TITLE
  6
SLD-Solid
370
    18
100
AcDbLine
 10
69.5
 20
46.65354330708661
 30
0.0
 11
69.83464566929135
 21
46.65354330708661
 31
0.0
  0
LINE
  5
BD
330
1F
100
AcDbEntity
  8
TITLE
  6
SLD-Solid
370
    18
100
AcDbLine
 10
1.535433070866139
 20
49.50000000000001
 30
0.0
 11
1.535433070866139
 21
49.83464566929134
 31
0.0
  0
LINE
  5
BE
330
1F
100
AcDbEntity
  8
TITLE
  6
SLD-Solid
370
    18
100
AcDbLine
 10
1.535433070866139
 20
0.5
 30
0.0
 11
1.535433070866139
 21
0.1653543307086614
 31
0.0
  0
LINE
  5
BF
330
1F
100
AcDbEntity
  8
TITLE
  6
SLD-Solid
370
    18
100
AcDbLine
 10
3.503937007874014
 20
49.50000000000001
 30
0.0
 11
3.503937007874014
 21
49.83464566929134
 31
0.0
  0
LINE
  5
C0
330
1F
100
AcDbEntity
  8
TITLE
  6
SLD-Solid
370
    18
100
AcDbLine
 10
3.503937007874014
 20
0.5
 30
0.0
 11
3.503937007874014
 21
0.1653543307086614
 31
0.0
  0
LINE
  5
C1
330
1F
100
AcDbEntity
  8
TITLE
  6
SLD-Solid
370
    18
100
AcDbLine
 10
5.472440944881891
 20
49.50000000000001
 30
0.0
 11
5.472440944881891
 21
49.83464566929134
 31
0.0
  0
LINE
  5
C2
330
1F
100
AcDbEntity
  8
TITLE
  6
SLD-Solid
370
    18
100
AcDbLine
 10
5.472440944881891
 20
0.5
 30
0.0
 11
5.472440944881891
 21
0.1653543307086614
 31
0.0
  0
LINE
  5
C3
330
1F
100
AcDbEntity
  8
TITLE
  6
SLD-Solid
370
    18
100
AcDbLine
 10
7.440944881889762
 20
49.50000000000001
 30
0.0
 11
7.440944881889762
 21
49.83464566929134
 31
0.0
  0
LINE
  5
C4
330
1F
100
AcDbEntity
  8
TITLE
  6
SLD-Solid
370
    18
100
AcDbLine
 10
7.440944881889762
 20
0.5
 30
0.0
 11
7.440944881889762
 21
0.1653543307086614
 31
0.0
  0
LINE
  5
C5
330
1F
100
AcDbEntity
  8
TITLE
  6
SLD-Solid
370
    18
100
AcDbLine
 10
9.409448818897637
 20
49.50000000000001
 30
0.0
 11
9.409448818897637
 21
49.83464566929134
 31
0.0
  0
LINE
  5
C6
330
1F
100
AcDbEntity
  8
TITLE
  6
SLD-Solid
370
    18
100
AcDbLine
 10
9.409448818897637
 20
0.5
 30
0.0
 11
9.409448818897637
 21
0.1653543307086614
 31
0.0
  0
LINE
  5
C7
330
1F
100
AcDbEntity
  8
TITLE
  6
SLD-Solid
370
    18
100
AcDbLine
 10
11.37795275590551
 20
49.50000000000001
 30
0.0
 11
11.37795275590551
 21
49.83464566929134
 31
0.0
  0
LINE
  5
C8
330
1F
100
AcDbEntity
  8
TITLE
  6
SLD-Solid
370
    18
100
AcDbLine
 10
11.37795275590551
 20
0.5
 30
0.0
 11
11.37795275590551
 21
0.1653543307086614
 31
0.0
  0
LINE
  5
C9
330
1F
100
AcDbEntity
  8
TITLE
  6
SLD-Solid
370
    18
100
AcDbLine
 10
13.34645669291339
 20
49.50000000000001
 30
0.0
 11
13.34645669291339
 21
49.83464566929134
 31
0.0
  0
LINE
  5
CA
330
1F
100
AcDbEntity
  8
TITLE
  6
SLD-Solid
370
    18
100
AcDbLine
 10
13.34645669291339
 20
0.5
 30
0.0
 11
13.34645669291339
 21
0.1653543307086614
 31
0.0
  0
LINE
  5
CB
330
1F
100
AcDbEntity
  8
TITLE
  6
SLD-Solid
370
    18
100
AcDbLine
 10
15.31496062992126
 20
49.50000000000001
 30
0.0
 11
15.31496062992126
 21
49.83464566929134
 31
0.0
  0
LINE
  5
CC
330
1F
100
AcDbEntity
  8
TITLE
  6
SLD-Solid
370
    18
100
AcDbLine
 10
15.31496062992126
 20
0.5
 30
0.0
 11
15.31496062992126
 21
0.1653543307086614
 31
0.0
  0
LINE
  5
CD
330
1F
100
AcDbEntity
  8
TITLE
  6
SLD-Solid
370
    18
100
AcDbLine
 10
17.28346456692913
 20
49.50000000000001
 30
0.0
 11
17.28346456692913
 21
49.83464566929134
 31
0.0
  0
LINE
  5
CE
330
1F
100
AcDbEntity
  8
TITLE
  6
SLD-Solid
370
    18
100
AcDbLine
 10
17.28346456692913
 20
0.5
 30
0.0
 11
17.28346456692913
 21
0.1653543307086614
 31
0.0
  0
LINE
  5
CF
330
1F
100
AcDbEntity
  8
TITLE
  6
SLD-Solid
370
    18
100
AcDbLine
 10
19.25196850393701
 20
49.50000000000001
 30
0.0
 11
19.25196850393701
 21
49.83464566929134
 31
0.0
  0
LINE
  5
D0
330
1F
100
AcDbEntity
  8
TITLE
  6
SLD-Solid
370
    18
100
AcDbLine
 10
19.25196850393701
 20
0.5
 30
0.0
 11
19.25196850393701
 21
0.1653543307086614
 31
0.0
  0
LINE
  5
D1
330
1F
100
AcDbEntity
  8
TITLE
  6
SLD-Solid
370
    18
100
AcDbLine
 10
21.22047244094488
 20
49.50000000000001
 30
0.0
 11
21.22047244094488
 21
49.83464566929134
 31
0.0
  0
LINE
  5
D2
330
1F
100
AcDbEntity
  8
TITLE
  6
SLD-Solid
370
    18
100
AcDbLine
 10
21.22047244094488
 20
0.5
 30
0.0
 11
21.22047244094488
 21
0.1653543307086614
 31
0.0
  0
LINE
  5
D3
330
1F
100
AcDbEntity
  8
TITLE
  6
SLD-Solid
370
    18
100
AcDbLine
 10
23.18897637795276
 20
49.50000000000001
 30
0.0
 11
23.18897637795276
 21
49.83464566929134
 31
0.0
  0
LINE
  5
D4
330
1F
100
AcDbEntity
  8
TITLE
  6
SLD-Solid
370
    18
100
AcDbLine
 10
23.18897637795276
 20
0.5
 30
0.0
 11
23.18897637795276
 21
0.1653543307086614
 31
0.0
  0
LINE
  5
D5
330
1F
100
AcDbEntity
  8
TITLE
  6
SLD-Solid
370
    18
100
AcDbLine
 10
25.15748031496063
 20
49.50000000000001
 30
0.0
 11
25.15748031496063
 21
49.83464566929134
 31
0.0
  0
LINE
  5
D6
330
1F
100
AcDbEntity
  8
TITLE
  6
SLD-Solid
370
    18
100
AcDbLine
 10
25.15748031496063
 20
0.5
 30
0.0
 11
25.15748031496063
 21
0.1653543307086614
 31
0.0
  0
LINE
  5
D7
330
1F
100
AcDbEntity
  8
TITLE
  6
SLD-Solid
370
    18
100
AcDbLine
 10
27.12598425196851
 20
49.50000000000001
 30
0.0
 11
27.12598425196851
 21
49.83464566929134
 31
0.0
  0
LINE
  5
D8
330
1F
100
AcDbEntity
  8
TITLE
  6
SLD-Solid
370
    18
100
AcDbLine
 10
27.12598425196851
 20
0.5
 30
0.0
 11
27.12598425196851
 21
0.1653543307086614
 31
0.0
  0
LINE
  5
D9
330
1F
100
AcDbEntity
  8
TITLE
  6
SLD-Solid
370
    18
100
AcDbLine
 10
29.09448818897638
 20
49.50000000000001
 30
0.0
 11
29.09448818897638
 21
49.83464566929134
 31
0.0
  0
LINE
  5
DA
330
1F
100
AcDbEntity
  8
TITLE
  6
SLD-Solid
370
    18
100
AcDbLine
 10
29.09448818897638
 20
0.5
 30
0.0
 11
29.09448818897638
 21
0.1653543307086614
 31
0.0
  0
LINE
  5
DB
330
1F
100
AcDbEntity
  8
TITLE
  6
SLD-Solid
370
    18
100
AcDbLine
 10
31.06299212598426
 20
49.50000000000001
 30
0.0
 11
31.06299212598426
 21
49.83464566929134
 31
0.0
  0
LINE
  5
DC
330
1F
100
AcDbEntity
  8
TITLE
  6
SLD-Solid
370
    18
100
AcDbLine
 10
31.06299212598426
 20
0.5
 30
0.0
 11
31.06299212598426
 21
0.1653543307086614
 31
0.0
  0
LINE
  5
DD
330
1F
100
AcDbEntity
  8
TITLE
  6
SLD-Solid
370
    18
100
AcDbLine
 10
33.03149606299213
 20
49.50000000000001
 30
0.0
 11
33.03149606299213
 21
49.83464566929134
 31
0.0
  0
LINE
  5
DE
330
1F
100
AcDbEntity
  8
TITLE
  6
SLD-Solid
370
    18
100
AcDbLine
 10
33.03149606299213
 20
0.5
 30
0.0
 11
33.03149606299213
 21
0.1653543307086614
 31
0.0
  0
LINE
  5
DF
330
1F
100
AcDbEntity
  8
TITLE
  6
SLD-Solid
370
    18
100
AcDbLine
 10
35.0
 20
49.50000000000001
 30
0.0
 11
35.0
 21
49.83464566929134
 31
0.0
  0
LINE
  5
E0
330
1F
100
AcDbEntity
  8
TITLE
  6
SLD-Solid
370
    18
100
AcDbLine
 10
35.0
 20
0.5
 30
0.0
 11
35.0
 21
0.1653543307086614
 31
0.0
  0
LINE
  5
E1
330
1F
100
AcDbEntity
  8
TITLE
  6
SLD-Solid
370
    18
100
AcDbLine
 10
36.96850393700787
 20
49.50000000000001
 30
0.0
 11
36.96850393700787
 21
49.83464566929134
 31
0.0
  0
LINE
  5
E2
330
1F
100
AcDbEntity
  8
TITLE
  6
SLD-Solid
370
    18
100
AcDbLine
 10
36.96850393700787
 20
0.5
 30
0.0
 11
36.96850393700787
 21
0.1653543307086614
 31
0.0
  0
LINE
  5
E3
330
1F
100
AcDbEntity
  8
TITLE
  6
SLD-Solid
370
    18
100
AcDbLine
 10
38.93700787401575
 20
49.50000000000001
 30
0.0
 11
38.93700787401575
 21
49.83464566929134
 31
0.0
  0
LINE
  5
E4
330
1F
100
AcDbEntity
  8
TITLE
  6
SLD-Solid
370
    18
100
AcDbLine
 10
38.93700787401575
 20
0.5
 30
0.0
 11
38.93700787401575
 21
0.1653543307086614
 31
0.0
  0
LINE
  5
E5
330
1F
100
AcDbEntity
  8
TITLE
  6
SLD-Solid
370
    18
100
AcDbLine
 10
40.90551181102363
 20
49.50000000000001
 30
0.0
 11
40.90551181102363
 21
49.83464566929134
 31
0.0
  0
LINE
  5
E6
330
1F
100
AcDbEntity
  8
TITLE
  6
SLD-Solid
370
    18
100
AcDbLine
 10
40.90551181102363
 20
0.5
 30
0.0
 11
40.90551181102363
 21
0.1653543307086614
 31
0.0
  0
LINE
  5
E7
330
1F
100
AcDbEntity
  8
TITLE
  6
SLD-Solid
370
    18
100
AcDbLine
 10
42.8740157480315
 20
49.50000000000001
 30
0.0
 11
42.8740157480315
 21
49.83464566929134
 31
0.0
  0
LINE
  5
E8
330
1F
100
AcDbEntity
  8
TITLE
  6
SLD-Solid
370
    18
100
AcDbLine
 10
42.8740157480315
 20
0.5
 30
0.0
 11
42.8740157480315
 21
0.1653543307086614
 31
0.0
  0
LINE
  5
E9
330
1F
100
AcDbEntity
  8
TITLE
  6
SLD-Solid
370
    18
100
AcDbLine
 10
44.84251968503937
 20
49.50000000000001
 30
0.0
 11
44.84251968503937
 21
49.83464566929134
 31
0.0
  0
LINE
  5
EA
330
1F
100
AcDbEntity
  8
TITLE
  6
SLD-Solid
370
    18
100
AcDbLine
 10
44.84251968503937
 20
0.5
 30
0.0
 11
44.84251968503937
 21
0.1653543307086614
 31
0.0
  0
LINE
  5
EB
330
1F
100
AcDbEntity
  8
TITLE
  6
SLD-Solid
370
    18
100
AcDbLine
 10
46.81102362204724
 20
49.50000000000001
 30
0.0
 11
46.81102362204724
 21
49.83464566929134
 31
0.0
  0
LINE
  5
EC
330
1F
100
AcDbEntity
  8
TITLE
  6
SLD-Solid
370
    18
100
AcDbLine
 10
46.81102362204724
 20
0.5
 30
0.0
 11
46.81102362204724
 21
0.1653543307086614
 31
0.0
  0
LINE
  5
ED
330
1F
100
AcDbEntity
  8
TITLE
  6
SLD-Solid
370
    18
100
AcDbLine
 10
48.77952755905513
 20
49.50000000000001
 30
0.0
 11
48.77952755905513
 21
49.83464566929134
 31
0.0
  0
LINE
  5
EE
330
1F
100
AcDbEntity
  8
TITLE
  6
SLD-Solid
370
    18
100
AcDbLine
 10
48.77952755905513
 20
0.5
 30
0.0
 11
48.77952755905513
 21
0.1653543307086614
 31
0.0
  0
LINE
  5
EF
330
1F
100
AcDbEntity
  8
TITLE
  6
SLD-Solid
370
    18
100
AcDbLine
 10
50.748031496063
 20
49.50000000000001
 30
0.0
 11
50.748031496063
 21
49.83464566929134
 31
0.0
  0
LINE
  5
F0
330
1F
100
AcDbEntity
  8
TITLE
  6
SLD-Solid
370
    18
100
AcDbLine
 10
50.748031496063
 20
0.5
 30
0.0
 11
50.748031496063
 21
0.1653543307086614
 31
0.0
  0
LINE
  5
F1
330
1F
100
AcDbEntity
  8
TITLE
  6
SLD-Solid
370
    18
100
AcDbLine
 10
52.71653543307087
 20
49.50000000000001
 30
0.0
 11
52.71653543307087
 21
49.83464566929134
 31
0.0
  0
LINE
  5
F2
330
1F
100
AcDbEntity
  8
TITLE
  6
SLD-Solid
370
    18
100
AcDbLine
 10
52.71653543307087
 20
0.5
 30
0.0
 11
52.71653543307087
 21
0.1653543307086614
 31
0.0
  0
LINE
  5
F3
330
1F
100
AcDbEntity
  8
TITLE
  6
SLD-Solid
370
    18
100
AcDbLine
 10
54.68503937007874
 20
49.50000000000001
 30
0.0
 11
54.68503937007874
 21
49.83464566929134
 31
0.0
  0
LINE
  5
F4
330
1F
100
AcDbEntity
  8
TITLE
  6
SLD-Solid
370
    18
100
AcDbLine
 10
54.68503937007874
 20
0.5
 30
0.0
 11
54.68503937007874
 21
0.1653543307086614
 31
0.0
  0
LINE
  5
F5
330
1F
100
AcDbEntity
  8
TITLE
  6
SLD-Solid
370
    18
100
AcDbLine
 10
56.65354330708661
 20
49.50000000000001
 30
0.0
 11
56.65354330708661
 21
49.83464566929134
 31
0.0
  0
LINE
  5
F6
330
1F
100
AcDbEntity
  8
TITLE
  6
SLD-Solid
370
    18
100
AcDbLine
 10
56.65354330708661
 20
0.5
 30
0.0
 11
56.65354330708661
 21
0.1653543307086614
 31
0.0
  0
LINE
  5
F7
330
1F
100
AcDbEntity
  8
TITLE
  6
SLD-Solid
370
    18
100
AcDbLine
 10
58.6220472440945
 20
49.50000000000001
 30
0.0
 11
58.6220472440945
 21
49.83464566929134
 31
0.0
  0
LINE
  5
F8
330
1F
100
AcDbEntity
  8
TITLE
  6
SLD-Solid
370
    18
100
AcDbLine
 10
58.6220472440945
 20
0.5
 30
0.0
 11
58.6220472440945
 21
0.1653543307086614
 31
0.0
  0
LINE
  5
F9
330
1F
100
AcDbEntity
  8
TITLE
  6
SLD-Solid
370
    18
100
AcDbLine
 10
60.59055118110237
 20
49.50000000000001
 30
0.0
 11
60.59055118110237
 21
49.83464566929134
 31
0.0
  0
LINE
  5
FA
330
1F
100
AcDbEntity
  8
TITLE
  6
SLD-Solid
370
    18
100
AcDbLine
 10
60.59055118110237
 20
0.5
 30
0.0
 11
60.59055118110237
 21
0.1653543307086614
 31
0.0
  0
LINE
  5
FB
330
1F
100
AcDbEntity
  8
TITLE
  6
SLD-Solid
370
    18
100
AcDbLine
 10
62.55905511811024
 20
49.50000000000001
 30
0.0
 11
62.55905511811024
 21
49.83464566929134
 31
0.0
  0
LINE
  5
FC
330
1F
100
AcDbEntity
  8
TITLE
  6
SLD-Solid
370
    18
100
AcDbLine
 10
62.55905511811024
 20
0.5
 30
0.0
 11
62.55905511811024
 21
0.1653543307086614
 31
0.0
  0
LINE
  5
FD
330
1F
100
AcDbEntity
  8
TITLE
  6
SLD-Solid
370
    18
100
AcDbLine
 10
64.52755905511812
 20
49.50000000000001
 30
0.0
 11
64.52755905511812
 21
49.83464566929134
 31
0.0
  0
LINE
  5
FE
330
1F
100
AcDbEntity
  8
TITLE
  6
SLD-Solid
370
    18
100
AcDbLine
 10
64.52755905511812
 20
0.5
 30
0.0
 11
64.52755905511812
 21
0.1653543307086614
 31
0.0
  0
LINE
  5
FF
330
1F
100
AcDbEntity
  8
TITLE
  6
SLD-Solid
370
    18
100
AcDbLine
 10
66.49606299212599
 20
49.50000000000001
 30
0.0
 11
66.49606299212599
 21
49.83464566929134
 31
0.0
  0
LINE
  5
100
330
1F
100
AcDbEntity
  8
TITLE
  6
SLD-Solid
370
    18
100
AcDbLine
 10
66.49606299212599
 20
0.5
 30
0.0
 11
66.49606299212599
 21
0.1653543307086614
 31
0.0
  0
LINE
  5
101
330
1F
100
AcDbEntity
  8
TITLE
  6
SLD-Solid
370
    18
100
AcDbLine
 10
68.46456692913387
 20
49.50000000000001
 30
0.0
 11
68.46456692913387
 21
49.83464566929134
 31
0.0
  0
LINE
  5
102
330
1F
100
AcDbEntity
  8
TITLE
  6
SLD-Solid
370
    18
100
AcDbLine
 10
68.46456692913387
 20
0.5
 30
0.0
 11
68.46456692913387
 21
0.1653543307086614
 31
0.0
  0
MTEXT
  5
104
330
1F
100
AcDbEntity
  8
NOTES
100
AcDbMText
 10
46.40829780303407
 20
1.070290334694339
 30
0.0
 40
0.25
 41
0.0
 71
     1
 72
     1
  1
UNLESS OTHERWISE SPECIFIED DIMENSIONS ARE IN INCHES.
  7
SLDTEXTSTYLE0
 73
     1
 44
1.0
  0
MTEXT
  5
105
330
1F
100
AcDbEntity
  8
NOTES
100
AcDbMText
 10
46.43006992789031
 20
3.083062777580424
 30
0.0
 40
0.25
 41
0.0
 71
     1
 72
     1
  1
DATE:
  7
SLDTEXTSTYLE0
 73
     1
 44
1.0
  0
MTEXT
  5
106
330
1F
100
AcDbEntity
  8
NOTES
100
AcDbMText
 10
48.53870118800533
 20
2.193032963662708
 30
0.0
 40
0.25
 41
0.0
 71
     2
 72
     1
  1
DO NOT SCALE DRAWING
  7
SLDTEXTSTYLE0
 73
     1
 44
1.0
  0
MTEXT
  5
108
330
1F
100
AcDbEntity
  8
NOTES
100
AcDbMText
 10
52.83073730750539
 20
3.268275555297609
 30
0.0
 40
0.25
 41
0.0
 71
     1
 72
     1
  1
TITLE:
  7
SLDTEXTSTYLE1
 73
     1
 44
1.0
  0
MTEXT
  5
109
330
1F
100
AcDbEntity
  8
NOTES
100
AcDbMText
 10
60.15618310516096
 20
3.268275555297602
 30
0.0
 40
0.25
 41
0.0
 71
     1
 72
     1
  1
DWG NO.
  7
SLDTEXTSTYLE1
 73
     1
 44
1.0
  0
MTEXT
  5
10A
330
1F
100
AcDbEntity
  8
NOTES
100
AcDbMText
 10
60.18317532028495
 20
1.064581557673832
 30
0.0
 40
0.25
 41
0.0
 71
     1
 72
     1
  1
SCALE:     1:1
  7
SLDTEXTSTYLE1
 73
     1
 44
1.0
  0
MTEXT
  5
10B
330
1F
100
AcDbEntity
  8
NOTES
100
AcDbMText
 10
64.18496657155042
 20
2.651034429460866
 30
0.0
 40
0.25
 41
0.0
 71
     2
 72
     1
  1
941-1630 FT CAD
  7
SLDTEXTSTYLE1
 73
     1
 44
1.0
  0
MTEXT
  5
10C
330
1F
100
AcDbEntity
  8
NOTES
100
AcDbMText
 10
56.44571693840979
 20
2.651034429460864
 30
0.0
 40
0.25
 41
0.0
 71
     2
 72
     1
  1
941-1630 FT Mirror
  7
SLDTEXTSTYLE1
 73
     1
 44
1.0
  0
INSERT
  5
11C
330
1F
100
AcDbEntity
  8
NOTES
100
AcDbBlockReference
  2
SW_NOTE_0_1
 10
46.61597262459082
 20
5.148152684778704
 30
0.0
  0
MTEXT
  5
11D
330
1F
100
AcDbEntity
  8
NOTES
100
AcDbMText
 10
49.49732645403275
 20
3.08647332676587
 30
0.0
 40
0.25
 41
0.0
 71
     2
 72
     1
  1
August 10, 2021
  7
SLDTEXTSTYLE1
 73
     1
 44
1.0
  0
MTEXT
  5
11E
330
1F
100
AcDbEntity
  8
TITLE
100
AcDbMText
 10
0.3276279775836454
 20
2.003106290974172
 30
0.0
 40
0.125
 41
0.0
 71
     2
 72
     1
  1
A
  7
SLDTEXTSTYLE1
 73
     1
 44
1.0
  0
MTEXT
  5
11F
330
1F
100
AcDbEntity
  8
TITLE
100
AcDbMText
 10
69.662273646875
 20
2.003106290974172
 30
0.0
 40
0.125
 41
0.0
 71
     2
 72
     1
  1
A
  7
SLDTEXTSTYLE1
 73
     1
 44
1.0
  0
MTEXT
  5
120
330
1F
100
AcDbEntity
  8
TITLE
100
AcDbMText
 10
0.3317512413046844
 20
4.410586605934803
 30
0.0
 40
0.125
 41
0.0
 71
     2
 72
     1
  1
B
  7
SLDTEXTSTYLE1
 73
     1
 44
1.0
  0
MTEXT
  5
121
330
1F
100
AcDbEntity
  8
TITLE
100
AcDbMText
 10
69.66639691059605
 20
4.410586605934803
 30
0.0
 40
0.125
 41
0.0
 71
     2
 72
     1
  1
B
  7
SLDTEXTSTYLE1
 73
     1
 44
1.0
  0
MTEXT
  5
122
330
1F
100
AcDbEntity
  8
TITLE
100
AcDbMText
 10
0.3313750816934456
 20
6.379090542942676
 30
0.0
 40
0.125
 41
0.0
 71
     2
 72
     1
  1
C
  7
SLDTEXTSTYLE1
 73
     1
 44
1.0
  0
MTEXT
  5
123
330
1F
100
AcDbEntity
  8
TITLE
100
AcDbMText
 10
69.6660207509848
 20
6.379090542942677
 30
0.0
 40
0.125
 41
0.0
 71
     2
 72
     1
  1
C
  7
SLDTEXTSTYLE1
 73
     1
 44
1.0
  0
MTEXT
  5
124
330
1F
100
AcDbEntity
  8
TITLE
100
AcDbMText
 10
0.3311870028448152
 20
8.34759447995055
 30
0.0
 40
0.125
 41
0.0
 71
     2
 72
     1
  1
D
  7
SLDTEXTSTYLE1
 73
     1
 44
1.0
  0
MTEXT
  5
125
330
1F
100
AcDbEntity
  8
TITLE
100
AcDbMText
 10
69.66583267213616
 20
8.34759447995055
 30
0.0
 40
0.125
 41
0.0
 71
     2
 72
     1
  1
D
  7
SLDTEXTSTYLE1
 73
     1
 44
1.0
  0
MTEXT
  5
126
330
1F
100
AcDbEntity
  8
TITLE
100
AcDbMText
 10
0.3329231160377541
 20
10.31609841695842
 30
0.0
 40
0.125
 41
0.0
 71
     2
 72
     1
  1
E
  7
SLDTEXTSTYLE1
 73
     1
 44
1.0
  0
MTEXT
  5
127
330
1F
100
AcDbEntity
  8
TITLE
100
AcDbMText
 10
69.66756878532911
 20
10.31609841695842
 30
0.0
 40
0.125
 41
0.0
 71
     2
 72
     1
  1
E
  7
SLDTEXTSTYLE1
 73
     1
 44
1.0
  0
MTEXT
  5
128
330
1F
100
AcDbEntity
  8
TITLE
100
AcDbMText
 10
0.3313461474003637
 20
12.28460235396629
 30
0.0
 40
0.125
 41
0.0
 71
     2
 72
     1
  1
F
  7
SLDTEXTSTYLE1
 73
     1
 44
1.0
  0
MTEXT
  5
129
330
1F
100
AcDbEntity
  8
TITLE
100
AcDbMText
 10
69.66599181669172
 20
12.2846023539663
 30
0.0
 40
0.125
 41
0.0
 71
     2
 72
     1
  1
F
  7
SLDTEXTSTYLE1
 73
     1
 44
1.0
  0
MTEXT
  5
12A
330
1F
100
AcDbEntity
  8
TITLE
100
AcDbMText
 10
0.332257605436456
 20
14.25310629097417
 30
0.0
 40
0.125
 41
0.0
 71
     2
 72
     1
  1
G
  7
SLDTEXTSTYLE1
 73
     1
 44
1.0
  0
MTEXT
  5
12B
330
1F
100
AcDbEntity
  8
TITLE
100
AcDbMText
 10
69.66690327472782
 20
14.25310629097417
 30
0.0
 40
0.125
 41
0.0
 71
     2
 72
     1
  1
G
  7
SLDTEXTSTYLE1
 73
     1
 44
1.0
  0
MTEXT
  5
12C
330
1F
100
AcDbEntity
  8
TITLE
100
AcDbMText
 10
0.3323733456814148
 20
16.22161022798205
 30
0.0
 40
0.125
 41
0.0
 71
     2
 72
     1
  1
H
  7
SLDTEXTSTYLE1
 73
     1
 44
1.0
  0
MTEXT
  5
12D
330
1F
100
AcDbEntity
  8
TITLE
100
AcDbMText
 10
69.66701901497275
 20
16.22161022798205
 30
0.0
 40
0.125
 41
0.0
 71
     2
 72
     1
  1
H
  7
SLDTEXTSTYLE1
 73
     1
 44
1.0
  0
MTEXT
  5
12E
330
1F
100
AcDbEntity
  8
TITLE
100
AcDbMText
 10
0.3315776305595838
 20
18.19011416498992
 30
0.0
 40
0.125
 41
0.0
 71
     2
 72
     1
  1
J
  7
SLDTEXTSTYLE1
 73
     1
 44
1.0
  0
MTEXT
  5
12F
330
1F
100
AcDbEntity
  8
TITLE
100
AcDbMText
 10
69.66622329985094
 20
18.19011416498992
 30
0.0
 40
0.125
 41
0.0
 71
     2
 72
     1
  1
J
  7
SLDTEXTSTYLE1
 73
     1
 44
1.0
  0
MTEXT
  5
130
330
1F
100
AcDbEntity
  8
TITLE
100
AcDbMText
 10
0.3323154765159243
 20
20.1586181019978
 30
0.0
 40
0.125
 41
0.0
 71
     2
 72
     1
  1
K
  7
SLDTEXTSTYLE1
 73
     1
 44
1.0
  0
MTEXT
  5
131
330
1F
100
AcDbEntity
  8
TITLE
100
AcDbMText
 10
69.66696114580728
 20
20.1586181019978
 30
0.0
 40
0.125
 41
0.0
 71
     2
 72
     1
  1
K
  7
SLDTEXTSTYLE1
 73
     1
 44
1.0
  0
MTEXT
  5
132
330
1F
100
AcDbEntity
  8
TITLE
100
AcDbMText
 10
0.3312448739242835
 20
22.12712203900567
 30
0.0
 40
0.125
 41
0.0
 71
     2
 72
     1
  1
L
  7
SLDTEXTSTYLE1
 73
     1
 44
1.0
  0
MTEXT
  5
133
330
1F
100
AcDbEntity
  8
TITLE
100
AcDbMText
 10
69.66589054321565
 20
22.12712203900567
 30
0.0
 40
0.125
 41
0.0
 71
     2
 72
     1
  1
L
  7
SLDTEXTSTYLE1
 73
     1
 44
1.0
  0
MTEXT
  5
134
330
1F
100
AcDbEntity
  8
TITLE
100
AcDbMText
 10
0.3283224192293962
 20
24.09562597601354
 30
0.0
 40
0.125
 41
0.0
 71
     2
 72
     1
  1
M
  7
SLDTEXTSTYLE1
 73
     1
 44
1.0
  0
MTEXT
  5
135
330
1F
100
AcDbEntity
  8
TITLE
100
AcDbMText
 10
69.66296808852073
 20
24.09562597601354
 30
0.0
 40
0.125
 41
0.0
 71
     2
 72
     1
  1
M
  7
SLDTEXTSTYLE1
 73
     1
 44
1.0
  0
MTEXT
  5
136
330
1F
100
AcDbEntity
  8
TITLE
100
AcDbMText
 10
0.3315342275836453
 20
26.06412991302142
 30
0.0
 40
0.125
 41
0.0
 71
     2
 72
     1
  1
N
  7
SLDTEXTSTYLE1
 73
     1
 44
1.0
  0
MTEXT
  5
137
330
1F
100
AcDbEntity
  8
TITLE
100
AcDbMText
 10
69.666179896875
 20
26.06412991302141
 30
0.0
 40
0.125
 41
0.0
 71
     2
 72
     1
  1
N
  7
SLDTEXTSTYLE1
 73
     1
 44
1.0
  0
MTEXT
  5
138
330
1F
100
AcDbEntity
  8
TITLE
100
AcDbMText
 10
0.3321997349363143
 20
28.03263385002929
 30
0.0
 40
0.125
 41
0.0
 71
     2
 72
     1
  1
P
  7
SLDTEXTSTYLE1
 73
     1
 44
1.0
  0
MTEXT
  5
139
330
1F
100
AcDbEntity
  8
TITLE
100
AcDbMText
 10
69.66684540422766
 20
28.03263385002929
 30
0.0
 40
0.125
 41
0.0
 71
     2
 72
     1
  1
P
  7
SLDTEXTSTYLE1
 73
     1
 44
1.0
  0
MTEXT
  5
13A
330
1F
100
AcDbEntity
  8
TITLE
100
AcDbMText
 10
0.3309265867271644
 20
30.00113778703717
 30
0.0
 40
0.125
 41
0.0
 71
     2
 72
     1
  1
R
  7
SLDTEXTSTYLE1
 73
     1
 44
1.0
  0
MTEXT
  5
13B
330
1F
100
AcDbEntity
  8
TITLE
100
AcDbMText
 10
69.6655722560185
 20
30.00113778703717
 30
0.0
 40
0.125
 41
0.0
 71
     2
 72
     1
  1
R
  7
SLDTEXTSTYLE1
 73
     1
 44
1.0
  0
MTEXT
  5
13C
330
1F
100
AcDbEntity
  8
TITLE
100
AcDbMText
 10
0.3323010070777432
 20
31.96964172404504
 30
0.0
 40
0.125
 41
0.0
 71
     2
 72
     1
  1
T
  7
SLDTEXTSTYLE1
 73
     1
 44
1.0
  0
MTEXT
  5
13D
330
1F
100
AcDbEntity
  8
TITLE
100
AcDbMText
 10
69.6669466763691
 20
31.96964172404504
 30
0.0
 40
0.125
 41
0.0
 71
     2
 72
     1
  1
T
  7
SLDTEXTSTYLE1
 73
     1
 44
1.0
  0
MTEXT
  5
13E
330
1F
100
AcDbEntity
  8
TITLE
100
AcDbMText
 10
0.3328507755201046
 20
33.93814566105291
 30
0.0
 40
0.125
 41
0.0
 71
     2
 72
     1
  1
U
  7
SLDTEXTSTYLE1
 73
     1
 44
1.0
  0
MTEXT
  5
13F
330
1F
100
AcDbEntity
  8
TITLE
100
AcDbMText
 10
69.66749644481145
 20
33.93814566105292
 30
0.0
 40
0.125
 41
0.0
 71
     2
 72
     1
  1
U
  7
SLDTEXTSTYLE1
 73
     1
 44
1.0
  0
MTEXT
  5
140
330
1F
100
AcDbEntity
  8
TITLE
100
AcDbMText
 10
0.3307529773167151
 20
35.90664959806079
 30
0.0
 40
0.125
 41
0.0
 71
     2
 72
     1
  1
V
  7
SLDTEXTSTYLE1
 73
     1
 44
1.0
  0
MTEXT
  5
141
330
1F
100
AcDbEntity
  8
TITLE
100
AcDbMText
 10
69.66539864660804
 20
35.90664959806078
 30
0.0
 40
0.125
 41
0.0
 71
     2
 72
     1
  1
V
  7
SLDTEXTSTYLE1
 73
     1
 44
1.0
  0
MTEXT
  5
142
330
1F
100
AcDbEntity
  8
TITLE
100
AcDbMText
 10
0.3327784409203867
 20
37.87515353506867
 30
0.0
 40
0.125
 41
0.0
 71
     2
 72
     1
  1
W
  7
SLDTEXTSTYLE1
 73
     1
 44
1.0
  0
MTEXT
  5
143
330
1F
100
AcDbEntity
  8
TITLE
100
AcDbMText
 10
69.66742411021175
 20
37.87515353506867
 30
0.0
 40
0.125
 41
0.0
 71
     2
 72
     1
  1
W
  7
SLDTEXTSTYLE1
 73
     1
 44
1.0
  0
MTEXT
  5
144
330
1F
100
AcDbEntity
  8
TITLE
100
AcDbMText
 10
0.3321997349363144
 20
39.84365747207655
 30
0.0
 40
0.125
 41
0.0
 71
     2
 72
     1
  1
Y
  7
SLDTEXTSTYLE1
 73
     1
 44
1.0
  0
MTEXT
  5
145
330
1F
100
AcDbEntity
  8
TITLE
100
AcDbMText
 10
69.66684540422766
 20
39.84365747207655
 30
0.0
 40
0.125
 41
0.0
 71
     2
 72
     1
  1
Y
  7
SLDTEXTSTYLE1
 73
     1
 44
1.0
  0
MTEXT
  5
146
330
1F
100
AcDbEntity
  8
TITLE
100
AcDbMText
 10
0.32257878981296
 20
41.81216140908442
 30
0.0
 40
0.125
 41
0.0
 71
     2
 72
     1
  1
AA
  7
SLDTEXTSTYLE1
 73
     1
 44
1.0
  0
MTEXT
  5
147
330
1F
100
AcDbEntity
  8
TITLE
100
AcDbMText
 10
69.65722445910431
 20
41.81216140908442
 30
0.0
 40
0.125
 41
0.0
 71
     2
 72
     1
  1
AA
  7
SLDTEXTSTYLE1
 73
     1
 44
1.0
  0
MTEXT
  5
148
330
1F
100
AcDbEntity
  8
TITLE
100
AcDbMText
 10
0.3267020535339989
 20
43.78066534609228
 30
0.0
 40
0.125
 41
0.0
 71
     2
 72
     1
  1
AB
  7
SLDTEXTSTYLE1
 73
     1
 44
1.0
  0
MTEXT
  5
149
330
1F
100
AcDbEntity
  8
TITLE
100
AcDbMText
 10
69.66134772282535
 20
43.7806653460923
 30
0.0
 40
0.125
 41
0.0
 71
     2
 72
     1
  1
AB
  7
SLDTEXTSTYLE1
 73
     1
 44
1.0
  0
MTEXT
  5
14A
330
1F
100
AcDbEntity
  8
TITLE
100
AcDbMText
 10
0.3263258985060407
 20
45.74916928310017
 30
0.0
 40
0.125
 41
0.0
 71
     2
 72
     1
  1
AC
  7
SLDTEXTSTYLE1
 73
     1
 44
1.0
  0
MTEXT
  5
14B
330
1F
100
AcDbEntity
  8
TITLE
100
AcDbMText
 10
69.66097156779739
 20
45.74916928310017
 30
0.0
 40
0.125
 41
0.0
 71
     2
 72
     1
  1
AC
  7
SLDTEXTSTYLE1
 73
     1
 44
1.0
  0
MTEXT
  5
14C
330
1F
100
AcDbEntity
  8
TITLE
100
AcDbMText
 10
0.3261378196574102
 20
48.15664959806079
 30
0.0
 40
0.125
 41
0.0
 71
     2
 72
     1
  1
AD
  7
SLDTEXTSTYLE1
 73
     1
 44
1.0
  0
MTEXT
  5
14D
330
1F
100
AcDbEntity
  8
TITLE
100
AcDbMText
 10
69.66078348894875
 20
48.1566495980608
 30
0.0
 40
0.125
 41
0.0
 71
     2
 72
     1
  1
AD
  7
SLDTEXTSTYLE1
 73
     1
 44
1.0
  0
MTEXT
  5
14E
330
1F
100
AcDbEntity
  8
TITLE
100
AcDbMText
 10
1.015199174063176
 20
0.4125551098718105
 30
0.0
 40
0.125
 41
0.0
 71
     2
 72
     1
  1
36
  7
SLDTEXTSTYLE1
 73
     1
 44
1.0
  0
MTEXT
  5
14F
330
1F
100
AcDbEntity
  8
TITLE
100
AcDbMText
 10
1.015199174063176
 20
49.74720077916316
 30
0.0
 40
0.125
 41
0.0
 71
     2
 72
     1
  1
36
  7
SLDTEXTSTYLE1
 73
     1
 44
1.0
  0
MTEXT
  5
150
330
1F
100
AcDbEntity
  8
TITLE
100
AcDbMText
 10
2.517167678000183
 20
0.4125551098718104
 30
0.0
 40
0.125
 41
0.0
 71
     2
 72
     1
  1
35
  7
SLDTEXTSTYLE1
 73
     1
 44
1.0
  0
MTEXT
  5
151
330
1F
100
AcDbEntity
  8
TITLE
100
AcDbMText
 10
2.517167678000183
 20
49.74720077916316
 30
0.0
 40
0.125
 41
0.0
 71
     2
 72
     1
  1
35
  7
SLDTEXTSTYLE1
 73
     1
 44
1.0
  0
MTEXT
  5
152
330
1F
100
AcDbEntity
  8
TITLE
100
AcDbMText
 10
4.48567161500806
 20
0.4125551098718104
 30
0.0
 40
0.125
 41
0.0
 71
     2
 72
     1
  1
34
  7
SLDTEXTSTYLE1
 73
     1
 44
1.0
  0
MTEXT
  5
153
330
1F
100
AcDbEntity
  8
TITLE
100
AcDbMText
 10
4.485671615008059
 20
49.74720077916316
 30
0.0
 40
0.125
 41
0.0
 71
     2
 72
     1
  1
34
  7
SLDTEXTSTYLE1
 73
     1
 44
1.0
  0
MTEXT
  5
154
330
1F
100
AcDbEntity
  8
TITLE
100
AcDbMText
 10
6.454175552015934
 20
0.4125551098718104
 30
0.0
 40
0.125
 41
0.0
 71
     2
 72
     1
  1
33
  7
SLDTEXTSTYLE1
 73
     1
 44
1.0
  0
MTEXT
  5
155
330
1F
100
AcDbEntity
  8
TITLE
100
AcDbMText
 10
6.454175552015932
 20
49.74720077916316
 30
0.0
 40
0.125
 41
0.0
 71
     2
 72
     1
  1
33
  7
SLDTEXTSTYLE1
 73
     1
 44
1.0
  0
MTEXT
  5
156
330
1F
100
AcDbEntity
  8
TITLE
100
AcDbMText
 10
8.422679489023805
 20
0.4125551098718104
 30
0.0
 40
0.125
 41
0.0
 71
     2
 72
     1
  1
32
  7
SLDTEXTSTYLE1
 73
     1
 44
1.0
  0
MTEXT
  5
157
330
1F
100
AcDbEntity
  8
TITLE
100
AcDbMText
 10
8.422679489023807
 20
49.74720077916316
 30
0.0
 40
0.125
 41
0.0
 71
     2
 72
     1
  1
32
  7
SLDTEXTSTYLE1
 73
     1
 44
1.0
  0
MTEXT
  5
158
330
1F
100
AcDbEntity
  8
TITLE
100
AcDbMText
 10
10.39118342603168
 20
0.4125551098718104
 30
0.0
 40
0.125
 41
0.0
 71
     2
 72
     1
  1
31
  7
SLDTEXTSTYLE1
 73
     1
 44
1.0
  0
MTEXT
  5
159
330
1F
100
AcDbEntity
  8
TITLE
100
AcDbMText
 10
10.39118342603168
 20
49.74720077916315
 30
0.0
 40
0.125
 41
0.0
 71
     2
 72
     1
  1
31
  7
SLDTEXTSTYLE1
 73
     1
 44
1.0
  0
MTEXT
  5
15A
330
1F
100
AcDbEntity
  8
TITLE
100
AcDbMText
 10
12.35968736303955
 20
0.4125551098718104
 30
0.0
 40
0.125
 41
0.0
 71
     2
 72
     1
  1
30
  7
SLDTEXTSTYLE1
 73
     1
 44
1.0
  0
MTEXT
  5
15B
330
1F
100
AcDbEntity
  8
TITLE
100
AcDbMText
 10
12.35968736303955
 20
49.74720077916316
 30
0.0
 40
0.125
 41
0.0
 71
     2
 72
     1
  1
30
  7
SLDTEXTSTYLE1
 73
     1
 44
1.0
  0
MTEXT
  5
15C
330
1F
100
AcDbEntity
  8
TITLE
100
AcDbMText
 10
14.32819130004743
 20
0.4125551098718104
 30
0.0
 40
0.125
 41
0.0
 71
     2
 72
     1
  1
29
  7
SLDTEXTSTYLE1
 73
     1
 44
1.0
  0
MTEXT
  5
15D
330
1F
100
AcDbEntity
  8
TITLE
100
AcDbMText
 10
14.32819130004743
 20
49.74720077916316
 30
0.0
 40
0.125
 41
0.0
 71
     2
 72
     1
  1
29
  7
SLDTEXTSTYLE1
 73
     1
 44
1.0
  0
MTEXT
  5
15E
330
1F
100
AcDbEntity
  8
TITLE
100
AcDbMText
 10
16.2966952370553
 20
0.4125551098718104
 30
0.0
 40
0.125
 41
0.0
 71
     2
 72
     1
  1
28
  7
SLDTEXTSTYLE1
 73
     1
 44
1.0
  0
MTEXT
  5
15F
330
1F
100
AcDbEntity
  8
TITLE
100
AcDbMText
 10
16.29669523705531
 20
49.74720077916317
 30
0.0
 40
0.125
 41
0.0
 71
     2
 72
     1
  1
28
  7
SLDTEXTSTYLE1
 73
     1
 44
1.0
  0
MTEXT
  5
160
330
1F
100
AcDbEntity
  8
TITLE
100
AcDbMText
 10
18.26519917406318
 20
0.4125551098718105
 30
0.0
 40
0.125
 41
0.0
 71
     2
 72
     1
  1
27
  7
SLDTEXTSTYLE1
 73
     1
 44
1.0
  0
MTEXT
  5
161
330
1F
100
AcDbEntity
  8
TITLE
100
AcDbMText
 10
18.26519917406317
 20
49.74720077916316
 30
0.0
 40
0.125
 41
0.0
 71
     2
 72
     1
  1
27
  7
SLDTEXTSTYLE1
 73
     1
 44
1.0
  0
MTEXT
  5
162
330
1F
100
AcDbEntity
  8
TITLE
100
AcDbMText
 10
20.23370311107105
 20
0.4125551098718103
 30
0.0
 40
0.125
 41
0.0
 71
     2
 72
     1
  1
26
  7
SLDTEXTSTYLE1
 73
     1
 44
1.0
  0
MTEXT
  5
163
330
1F
100
AcDbEntity
  8
TITLE
100
AcDbMText
 10
20.23370311107105
 20
49.74720077916316
 30
0.0
 40
0.125
 41
0.0
 71
     2
 72
     1
  1
26
  7
SLDTEXTSTYLE1
 73
     1
 44
1.0
  0
MTEXT
  5
164
330
1F
100
AcDbEntity
  8
TITLE
100
AcDbMText
 10
22.20220704807893
 20
0.4125551098718104
 30
0.0
 40
0.125
 41
0.0
 71
     2
 72
     1
  1
25
  7
SLDTEXTSTYLE1
 73
     1
 44
1.0
  0
MTEXT
  5
165
330
1F
100
AcDbEntity
  8
TITLE
100
AcDbMText
 10
22.20220704807893
 20
49.74720077916316
 30
0.0
 40
0.125
 41
0.0
 71
     2
 72
     1
  1
25
  7
SLDTEXTSTYLE1
 73
     1
 44
1.0
  0
MTEXT
  5
166
330
1F
100
AcDbEntity
  8
TITLE
100
AcDbMText
 10
24.1707109850868
 20
0.4125551098718104
 30
0.0
 40
0.125
 41
0.0
 71
     2
 72
     1
  1
24
  7
SLDTEXTSTYLE1
 73
     1
 44
1.0
  0
MTEXT
  5
167
330
1F
100
AcDbEntity
  8
TITLE
100
AcDbMText
 10
24.1707109850868
 20
49.74720077916316
 30
0.0
 40
0.125
 41
0.0
 71
     2
 72
     1
  1
24
  7
SLDTEXTSTYLE1
 73
     1
 44
1.0
  0
MTEXT
  5
168
330
1F
100
AcDbEntity
  8
TITLE
100
AcDbMText
 10
26.13921492209468
 20
0.4125551098718104
 30
0.0
 40
0.125
 41
0.0
 71
     2
 72
     1
  1
23
  7
SLDTEXTSTYLE1
 73
     1
 44
1.0
  0
MTEXT
  5
169
330
1F
100
AcDbEntity
  8
TITLE
100
AcDbMText
 10
26.13921492209468
 20
49.74720077916316
 30
0.0
 40
0.125
 41
0.0
 71
     2
 72
     1
  1
23
  7
SLDTEXTSTYLE1
 73
     1
 44
1.0
  0
MTEXT
  5
16A
330
1F
100
AcDbEntity
  8
TITLE
100
AcDbMText
 10
28.10771885910255
 20
0.4125551098718104
 30
0.0
 40
0.125
 41
0.0
 71
     2
 72
     1
  1
22
  7
SLDTEXTSTYLE1
 73
     1
 44
1.0
  0
MTEXT
  5
16B
330
1F
100
AcDbEntity
  8
TITLE
100
AcDbMText
 10
28.10771885910255
 20
49.74720077916316
 30
0.0
 40
0.125
 41
0.0
 71
     2
 72
     1
  1
22
  7
SLDTEXTSTYLE1
 73
     1
 44
1.0
  0
MTEXT
  5
16C
330
1F
100
AcDbEntity
  8
TITLE
100
AcDbMText
 10
30.07622279611043
 20
0.4125551098718104
 30
0.0
 40
0.125
 41
0.0
 71
     2
 72
     1
  1
21
  7
SLDTEXTSTYLE1
 73
     1
 44
1.0
  0
MTEXT
  5
16D
330
1F
100
AcDbEntity
  8
TITLE
100
AcDbMText
 10
30.07622279611043
 20
49.74720077916316
 30
0.0
 40
0.125
 41
0.0
 71
     2
 72
     1
  1
21
  7
SLDTEXTSTYLE1
 73
     1
 44
1.0
  0
MTEXT
  5
16E
330
1F
100
AcDbEntity
  8
TITLE
100
AcDbMText
 10
32.0447267331183
 20
0.4125551098718104
 30
0.0
 40
0.125
 41
0.0
 71
     2
 72
     1
  1
20
  7
SLDTEXTSTYLE1
 73
     1
 44
1.0
  0
MTEXT
  5
16F
330
1F
100
AcDbEntity
  8
TITLE
100
AcDbMText
 10
32.0447267331183
 20
49.74720077916316
 30
0.0
 40
0.125
 41
0.0
 71
     2
 72
     1
  1
20
  7
SLDTEXTSTYLE1
 73
     1
 44
1.0
  0
MTEXT
  5
170
330
1F
100
AcDbEntity
  8
TITLE
100
AcDbMText
 10
34.01323067012617
 20
0.4125551098718104
 30
0.0
 40
0.125
 41
0.0
 71
     2
 72
     1
  1
19
  7
SLDTEXTSTYLE1
 73
     1
 44
1.0
  0
MTEXT
  5
171
330
1F
100
AcDbEntity
  8
TITLE
100
AcDbMText
 10
34.01323067012617
 20
49.74720077916317
 30
0.0
 40
0.125
 41
0.0
 71
     2
 72
     1
  1
19
  7
SLDTEXTSTYLE1
 73
     1
 44
1.0
  0
MTEXT
  5
172
330
1F
100
AcDbEntity
  8
TITLE
100
AcDbMText
 10
35.98173460713405
 20
0.4125551098718104
 30
0.0
 40
0.125
 41
0.0
 71
     2
 72
     1
  1
18
  7
SLDTEXTSTYLE1
 73
     1
 44
1.0
  0
MTEXT
  5
173
330
1F
100
AcDbEntity
  8
TITLE
100
AcDbMText
 10
35.98173460713404
 20
49.74720077916316
 30
0.0
 40
0.125
 41
0.0
 71
     2
 72
     1
  1
18
  7
SLDTEXTSTYLE1
 73
     1
 44
1.0
  0
MTEXT
  5
174
330
1F
100
AcDbEntity
  8
TITLE
100
AcDbMText
 10
37.95023854414192
 20
0.4125551098718105
 30
0.0
 40
0.125
 41
0.0
 71
     2
 72
     1
  1
17
  7
SLDTEXTSTYLE1
 73
     1
 44
1.0
  0
MTEXT
  5
175
330
1F
100
AcDbEntity
  8
TITLE
100
AcDbMText
 10
37.95023854414192
 20
49.74720077916315
 30
0.0
 40
0.125
 41
0.0
 71
     2
 72
     1
  1
17
  7
SLDTEXTSTYLE1
 73
     1
 44
1.0
  0
MTEXT
  5
176
330
1F
100
AcDbEntity
  8
TITLE
100
AcDbMText
 10
39.91874248114979
 20
0.4125551098718104
 30
0.0
 40
0.125
 41
0.0
 71
     2
 72
     1
  1
16
  7
SLDTEXTSTYLE1
 73
     1
 44
1.0
  0
MTEXT
  5
177
330
1F
100
AcDbEntity
  8
TITLE
100
AcDbMText
 10
39.91874248114979
 20
49.74720077916316
 30
0.0
 40
0.125
 41
0.0
 71
     2
 72
     1
  1
16
  7
SLDTEXTSTYLE1
 73
     1
 44
1.0
  0
MTEXT
  5
178
330
1F
100
AcDbEntity
  8
TITLE
100
AcDbMText
 10
41.88724641815767
 20
0.4125551098718104
 30
0.0
 40
0.125
 41
0.0
 71
     2
 72
     1
  1
15
  7
SLDTEXTSTYLE1
 73
     1
 44
1.0
  0
MTEXT
  5
179
330
1F
100
AcDbEntity
  8
TITLE
100
AcDbMText
 10
41.88724641815768
 20
49.74720077916316
 30
0.0
 40
0.125
 41
0.0
 71
     2
 72
     1
  1
15
  7
SLDTEXTSTYLE1
 73
     1
 44
1.0
  0
MTEXT
  5
17A
330
1F
100
AcDbEntity
  8
TITLE
100
AcDbMText
 10
43.85575035516554
 20
0.4125551098718104
 30
0.0
 40
0.125
 41
0.0
 71
     2
 72
     1
  1
14
  7
SLDTEXTSTYLE1
 73
     1
 44
1.0
  0
MTEXT
  5
17B
330
1F
100
AcDbEntity
  8
TITLE
100
AcDbMText
 10
43.85575035516554
 20
49.74720077916316
 30
0.0
 40
0.125
 41
0.0
 71
     2
 72
     1
  1
14
  7
SLDTEXTSTYLE1
 73
     1
 44
1.0
  0
MTEXT
  5
17C
330
1F
100
AcDbEntity
  8
TITLE
100
AcDbMText
 10
45.82425429217342
 20
0.4125551098718104
 30
0.0
 40
0.125
 41
0.0
 71
     2
 72
     1
  1
13
  7
SLDTEXTSTYLE1
 73
     1
 44
1.0
  0
MTEXT
  5
17D
330
1F
100
AcDbEntity
  8
TITLE
100
AcDbMText
 10
45.82425429217341
 20
49.74720077916315
 30
0.0
 40
0.125
 41
0.0
 71
     2
 72
     1
  1
13
  7
SLDTEXTSTYLE1
 73
     1
 44
1.0
  0
MTEXT
  5
17E
330
1F
100
AcDbEntity
  8
TITLE
100
AcDbMText
 10
47.79275822918129
 20
0.4125551098718104
 30
0.0
 40
0.125
 41
0.0
 71
     2
 72
     1
  1
12
  7
SLDTEXTSTYLE1
 73
     1
 44
1.0
  0
MTEXT
  5
17F
330
1F
100
AcDbEntity
  8
TITLE
100
AcDbMText
 10
47.79275822918129
 20
49.74720077916316
 30
0.0
 40
0.125
 41
0.0
 71
     2
 72
     1
  1
12
  7
SLDTEXTSTYLE1
 73
     1
 44
1.0
  0
MTEXT
  5
180
330
1F
100
AcDbEntity
  8
TITLE
100
AcDbMText
 10
49.76126216618918
 20
0.4125551098718104
 30
0.0
 40
0.125
 41
0.0
 71
     2
 72
     1
  1
11
  7
SLDTEXTSTYLE1
 73
     1
 44
1.0
  0
MTEXT
  5
181
330
1F
100
AcDbEntity
  8
TITLE
100
AcDbMText
 10
49.76126216618918
 20
49.74720077916316
 30
0.0
 40
0.125
 41
0.0
 71
     2
 72
     1
  1
11
  7
SLDTEXTSTYLE1
 73
     1
 44
1.0
  0
MTEXT
  5
182
330
1F
100
AcDbEntity
  8
TITLE
100
AcDbMText
 10
51.72976610319703
 20
0.4125551098718104
 30
0.0
 40
0.125
 41
0.0
 71
     2
 72
     1
  1
10
  7
SLDTEXTSTYLE1
 73
     1
 44
1.0
  0
MTEXT
  5
183
330
1F
100
AcDbEntity
  8
TITLE
100
AcDbMText
 10
51.72976610319704
 20
49.74720077916316
 30
0.0
 40
0.125
 41
0.0
 71
     2
 72
     1
  1
10
  7
SLDTEXTSTYLE1
 73
     1
 44
1.0
  0
MTEXT
  5
184
330
1F
100
AcDbEntity
  8
TITLE
100
AcDbMText
 10
53.69952872088985
 20
0.4125551098718104
 30
0.0
 40
0.125
 41
0.0
 71
     2
 72
     1
  1
9
  7
SLDTEXTSTYLE1
 73
     1
 44
1.0
  0
MTEXT
  5
185
330
1F
100
AcDbEntity
  8
TITLE
100
AcDbMText
 10
53.69952872088985
 20
49.74720077916316
 30
0.0
 40
0.125
 41
0.0
 71
     2
 72
     1
  1
9
  7
SLDTEXTSTYLE1
 73
     1
 44
1.0
  0
MTEXT
  5
186
330
1F
100
AcDbEntity
  8
TITLE
100
AcDbMText
 10
55.66803265789773
 20
0.4125551098718104
 30
0.0
 40
0.125
 41
0.0
 71
     2
 72
     1
  1
8
  7
SLDTEXTSTYLE1
 73
     1
 44
1.0
  0
MTEXT
  5
187
330
1F
100
AcDbEntity
  8
TITLE
100
AcDbMText
 10
55.66803265789774
 20
49.74720077916315
 30
0.0
 40
0.125
 41
0.0
 71
     2
 72
     1
  1
8
  7
SLDTEXTSTYLE1
 73
     1
 44
1.0
  0
MTEXT
  5
188
330
1F
100
AcDbEntity
  8
TITLE
100
AcDbMText
 10
57.63653659490561
 20
0.4125551098718104
 30
0.0
 40
0.125
 41
0.0
 71
     2
 72
     1
  1
7
  7
SLDTEXTSTYLE1
 73
     1
 44
1.0
  0
MTEXT
  5
189
330
1F
100
AcDbEntity
  8
TITLE
100
AcDbMText
 10
57.63653659490561
 20
49.74720077916316
 30
0.0
 40
0.125
 41
0.0
 71
     2
 72
     1
  1
7
  7
SLDTEXTSTYLE1
 73
     1
 44
1.0
  0
MTEXT
  5
18A
330
1F
100
AcDbEntity
  8
TITLE
100
AcDbMText
 10
59.60504053191348
 20
0.4125551098718104
 30
0.0
 40
0.125
 41
0.0
 71
     2
 72
     1
  1
6
  7
SLDTEXTSTYLE1
 73
     1
 44
1.0
  0
MTEXT
  5
18B
330
1F
100
AcDbEntity
  8
TITLE
100
AcDbMText
 10
59.6050405319135
 20
49.74720077916316
 30
0.0
 40
0.125
 41
0.0
 71
     2
 72
     1
  1
6
  7
SLDTEXTSTYLE1
 73
     1
 44
1.0
  0
MTEXT
  5
18C
330
1F
100
AcDbEntity
  8
TITLE
100
AcDbMText
 10
61.57354446892136
 20
0.4125551098718104
 30
0.0
 40
0.125
 41
0.0
 71
     2
 72
     1
  1
5
  7
SLDTEXTSTYLE1
 73
     1
 44
1.0
  0
MTEXT
  5
18D
330
1F
100
AcDbEntity
  8
TITLE
100
AcDbMText
 10
61.57354446892136
 20
49.74720077916314
 30
0.0
 40
0.125
 41
0.0
 71
     2
 72
     1
  1
5
  7
SLDTEXTSTYLE1
 73
     1
 44
1.0
  0
MTEXT
  5
18E
330
1F
100
AcDbEntity
  8
TITLE
100
AcDbMText
 10
63.54204840592922
 20
0.4125551098718104
 30
0.0
 40
0.125
 41
0.0
 71
     2
 72
     1
  1
4
  7
SLDTEXTSTYLE1
 73
     1
 44
1.0
  0
MTEXT
  5
18F
330
1F
100
AcDbEntity
  8
TITLE
100
AcDbMText
 10
63.54204840592922
 20
49.74720077916318
 30
0.0
 40
0.125
 41
0.0
 71
     2
 72
     1
  1
4
  7
SLDTEXTSTYLE1
 73
     1
 44
1.0
  0
MTEXT
  5
190
330
1F
100
AcDbEntity
  8
TITLE
100
AcDbMText
 10
65.5105523429371
 20
0.4125551098718104
 30
0.0
 40
0.125
 41
0.0
 71
     2
 72
     1
  1
3
  7
SLDTEXTSTYLE1
 73
     1
 44
1.0
  0
MTEXT
  5
191
330
1F
100
AcDbEntity
  8
TITLE
100
AcDbMText
 10
65.5105523429371
 20
49.74720077916316
 30
0.0
 40
0.125
 41
0.0
 71
     2
 72
     1
  1
3
  7
SLDTEXTSTYLE1
 73
     1
 44
1.0
  0
MTEXT
  5
192
330
1F
100
AcDbEntity
  8
TITLE
100
AcDbMText
 10
67.47905627994497
 20
0.4125551098718104
 30
0.0
 40
0.125
 41
0.0
 71
     2
 72
     1
  1
2
  7
SLDTEXTSTYLE1
 73
     1
 44
1.0
  0
MTEXT
  5
193
330
1F
100
AcDbEntity
  8
TITLE
100
AcDbMText
 10
67.47905627994498
 20
49.74720077916317
 30
0.0
 40
0.125
 41
0.0
 71
     2
 72
     1
  1
2
  7
SLDTEXTSTYLE1
 73
     1
 44
1.0
  0
MTEXT
  5
194
330
1F
100
AcDbEntity
  8
TITLE
100
AcDbMText
 10
68.98102478388199
 20
0.4125551098718104
 30
0.0
 40
0.125
 41
0.0
 71
     2
 72
     1
  1
1
  7
SLDTEXTSTYLE1
 73
     1
 44
1.0
  0
MTEXT
  5
195
330
1F
100
AcDbEntity
  8
TITLE
100
AcDbMText
 10
68.98102478388199
 20
49.74720077916316
 30
0.0
 40
0.125
 41
0.0
 71
     2
 72
     1
  1
1
  7
SLDTEXTSTYLE1
 73
     1
 44
1.0
  0
LINE
  5
196
330
1F
100
AcDbEntity
  8
0
  6
SLD-Solid
 62
     7
370
    25
100
AcDbLine
 10
19.55422739676771
 20
42.38264249545787
 30
0.0
 11
3.614127396844709
 21
42.38264249545786
 31
0.0
  0
LINE
  5
197
330
1F
100
AcDbEntity
  8
0
  6
SLD-Solid
 62
     7
370
    25
100
AcDbLine
 10
3.552927396806234
 20
12.04165627511174
 30
0.0
 11
19.60042739680624
 21
12.04165627511174
 31
0.0
  0
LINE
  5
198
330
1F
100
AcDbEntity
  8
0
  6
SLD-Solid
 62
     7
370
    25
100
AcDbLine
 10
3.614127396844814
 20
42.37788413509
 30
0.0
 11
3.614127396844788
 21
42.38217435760397
 31
0.0
  0
LINE
  5
199
330
1F
100
AcDbEntity
  8
0
  6
SLD-Solid
 62
     7
370
    25
100
AcDbLine
 10
19.554227396768
 20
42.38217435760394
 30
0.0
 11
3.614127396844788
 21
42.38217435760397
 31
0.0
  0
LINE
  5
19A
330
1F
100
AcDbEntity
  8
0
  6
SLD-Solid
 62
     7
370
    25
100
AcDbLine
 10
19.554227396768
 20
42.38217435760394
 30
0.0
 11
19.55422739676798
 21
42.37788413509
 31
0.0
  0
LINE
  5
19B
330
1F
100
AcDbEntity
  8
0
  6
SLD-Solid
 62
     7
370
    25
100
AcDbLine
 10
19.55422739676798
 20
42.37788413509
 30
0.0
 11
19.58210461188499
 21
42.37788413509
 31
0.0
  0
LINE
  5
19C
330
1F
100
AcDbEntity
  8
0
  6
SLD-Solid
 62
     7
370
    25
100
AcDbLine
 10
3.586250181727761
 20
42.37788413509
 30
0.0
 11
3.614127396844814
 21
42.37788413509
 31
0.0
  0
ARC
  5
19D
330
1F
100
AcDbEntity
  8
0
  6
SLD-Solid
 62
     7
370
    25
100
AcDbCircle
 10
19.58230372733413
 20
42.31408324662362
 30
0.0
 40
0.0638011991741694
100
AcDbArc
 50
0.1799362865512227
 51
90.1788131498924
  0
LINE
  5
19E
330
1F
100
AcDbEntity
  8
0
  6
SLD-Solid
 62
     7
370
    25
100
AcDbLine
 10
19.64610461188511
 20
42.31428361272534
 30
0.0
 11
19.64610461188513
 21
41.9912510412664
 31
0.0
  0
ARC
  5
19F
330
1F
100
AcDbEntity
  8
0
  6
SLD-Solid
 62
     7
370
    25
100
AcDbCircle
 10
3.586051066278765
 20
42.31408324662359
 30
0.0
 40
0.0638011991741954
100
AcDbArc
 50
89.82118685023929
 51
179.8200637134297
  0
LINE
  5
1A0
330
1F
100
AcDbEntity
  8
0
  6
SLD-Solid
 62
     7
370
    25
100
AcDbLine
 10
3.522250181727769
 20
42.31428361272533
 30
0.0
 11
3.522250181727797
 21
41.99125104126702
 31
0.0
  0
LINE
  5
1A1
330
1F
100
AcDbEntity
  8
0
  6
SLD-Solid
 62
     7
370
    25
100
AcDbLine
 10
19.554227396768
 20
42.38264249545786
 30
0.0
 11
19.55422739676797
 21
42.38217435760394
 31
0.0
  0
LINE
  5
1A2
330
1F
100
AcDbEntity
  8
0
  6
SLD-Solid
 62
     7
370
    25
100
AcDbLine
 10
3.614127396844783
 20
42.38217435760396
 30
0.0
 11
3.614127396844809
 21
42.38264249545786
 31
0.0
  0
LINE
  5
1A3
330
1F
100
AcDbEntity
  8
0
  6
SLD-Solid
 62
     7
370
    25
100
AcDbLine
 10
19.58820967505557
 20
12.07637733097831
 30
0.0
 11
19.6004273968064
 21
12.07637733097831
 31
0.0
  0
LINE
  5
1A4
330
1F
100
AcDbEntity
  8
0
  6
SLD-Solid
 62
     7
370
    25
100
AcDbLine
 10
19.6004273968064
 20
12.07637733097831
 30
0.0
 11
19.6004273968064
 21
12.08572344851999
 31
0.0
  0
LINE
  5
1A5
330
1F
100
AcDbEntity
  8
0
  6
SLD-Solid
 62
     7
370
    25
100
AcDbLine
 10
3.552927396806344
 20
41.96728667551186
 30
0.0
 11
19.61542739680634
 21
41.96728667551186
 31
0.0
  0
SPLINE
  5
1A6
330
1F
100
AcDbEntity
  8
0
  6
SLD-Solid
 62
     7
370
    25
100
AcDbSpline
210
0.0
220
0.0
230
1.0
 70
    12
 71
     3
 72
    11
 73
     7
 74
     0
 42
0.00000001
 43
0.00000001
 40
0.0
 40
0.0
 40
0.0
 40
0.0
 40
0.2499999999998307
 40
0.499999999999544
 40
0.7499999999992444
 40
1.0
 40
1.0
 40
1.0
 40
1.0
 10
19.64832739680645
 20
12.07464366084452
 30
0.0
 41
1.0
 10
19.6476224160427
 20
12.07523457887305
 30
0.0
 41
1.0
 10
19.64621245451521
 20
12.07641641493012
 30
0.0
 41
1.0
 10
19.6353668664198
 20
12.07851651353147
 30
0.0
 41
1.0
 10
19.61986430886997
 20
12.08113612448349
 30
0.0
 41
1.0
 10
19.60757303416093
 20
12.08353183506653
 30
0.0
 41
1.0
 10
19.6014273968064
 20
12.08472969035805
 30
0.0
 41
1.0
  0
SPLINE
  5
1A7
330
1F
100
AcDbEntity
  8
0
  6
SLD-Solid
 62
     7
370
    25
100
AcDbSpline
210
0.0
220
0.0
230
1.0
 70
    12
 71
     3
 72
    11
 73
     7
 74
     0
 42
0.00000001
 43
0.00000001
 40
0.0
 40
0.0
 40
0.0
 40
0.0
 40
0.2499999999996931
 40
0.4999999999997854
 40
0.7499999999998942
 40
1.0
 40
1.0
 40
1.0
 40
1.0
 10
19.60142739680634
 20
41.91404206042217
 30
0.0
 41
1.0
 10
19.60757303416085
 20
41.91539720522024
 30
0.0
 41
1.0
 10
19.61986430886988
 20
41.91810749481638
 30
0.0
 41
1.0
 10
19.63536686641975
 20
41.92314688413315
 30
0.0
 41
1.0
 10
19.64621245451521
 20
41.92870578580057
 30
0.0
 41
1.0
 10
19.64762241604267
 20
41.9326299499227
 30
0.0
 41
1.0
 10
19.6483273968064
 20
41.93459203198377
 30
0.0
 41
1.0
  0
LINE
  5
1A8
330
1F
100
AcDbEntity
  8
0
  6
SLD-Solid
 62
     7
370
    25
100
AcDbLine
 10
19.64832739680645
 20
12.07464366084452
 30
0.0
 11
19.6483273968064
 21
41.93459203198377
 31
0.0
  0
SPLINE
  5
1A9
330
1F
100
AcDbEntity
  8
0
  6
SLD-Solid
 62
     7
370
    25
100
AcDbSpline
210
0.0
220
0.0
230
1.0
 70
    12
 71
     3
 72
    11
 73
     7
 74
     0
 42
0.00000001
 43
0.00000001
 40
0.0
 40
0.0
 40
0.0
 40
0.0
 40
0.2500000000001796
 40
0.5000000000004727
 40
0.7500000000007754
 40
1.0
 40
1.0
 40
1.0
 40
1.0
 10
3.520027396806341
 20
41.93459203198377
 30
0.0
 41
1.0
 10
3.520732377570048
 20
41.9326299499227
 30
0.0
 41
1.0
 10
3.52214233909746
 20
41.92870578580057
 30
0.0
 41
1.0
 10
3.532987927192941
 20
41.92314688413315
 30
0.0
 41
1.0
 10
3.548490484742786
 20
41.91810749481639
 30
0.0
 41
1.0
 10
3.560781759451797
 20
41.91539720522024
 30
0.0
 41
1.0
 10
3.56692739680629
 20
41.91404206042217
 30
0.0
 41
1.0
  0
LINE
  5
1AA
330
1F
100
AcDbEntity
  8
0
  6
SLD-Solid
 62
     7
370
    25
100
AcDbLine
 10
3.520027396806341
 20
41.93459203198377
 30
0.0
 11
3.520027396806289
 21
12.07464366084453
 31
0.0
  0
LINE
  5
1AB
330
1F
100
AcDbEntity
  8
0
  6
SLD-Solid
 62
     7
370
    25
100
AcDbLine
 10
4.011341610368715
 20
41.47521258094945
 30
0.0
 11
19.15701318324396
 21
41.47521258094945
 31
0.0
  0
LINE
  5
1AC
330
1F
100
AcDbEntity
  8
0
  6
SLD-Solid
 62
     7
370
    25
100
AcDbLine
 10
19.60001318324397
 20
41.91544744669251
 30
0.0
 11
19.15701318324396
 21
41.47521258094945
 31
0.0
  0
LINE
  5
1AD
330
1F
100
AcDbEntity
  8
0
  6
SLD-Solid
 62
     7
370
    25
100
AcDbLine
 10
19.6014273968064
 20
12.08472969035805
 30
0.0
 11
19.15842739680645
 21
12.52496455610112
 31
0.0
  0
LINE
  5
1AE
330
1F
100
AcDbEntity
  8
0
  6
SLD-Solid
 62
     7
370
    25
100
AcDbLine
 10
19.15842739680635
 20
41.4738071946791
 30
0.0
 11
19.15842739680645
 21
12.52496455610112
 31
0.0
  0
LINE
  5
1AF
330
1F
100
AcDbEntity
  8
0
  6
SLD-Solid
 62
     7
370
    25
100
AcDbLine
 10
19.15842739680635
 20
41.4738071946791
 30
0.0
 11
19.60142739680634
 21
41.91404206042217
 31
0.0
  0
LINE
  5
1B0
330
1F
100
AcDbEntity
  8
0
  6
SLD-Solid
 62
     7
370
    25
100
AcDbLine
 10
19.15842739680635
 20
41.47580404502727
 30
0.0
 11
19.15842739680635
 21
41.4738071946791
 31
0.0
  0
LINE
  5
1B1
330
1F
100
AcDbEntity
  8
0
  6
SLD-Solid
 62
     7
370
    25
100
AcDbLine
 10
4.00992739680634
 20
41.4738071946791
 30
0.0
 11
4.00992739680634
 21
41.47580404502727
 31
0.0
  0
LINE
  5
1B2
330
1F
100
AcDbEntity
  8
0
  6
SLD-Solid
 62
     7
370
    25
100
AcDbLine
 10
3.56692739680629
 20
41.91404206042217
 30
0.0
 11
4.00992739680634
 21
41.4738071946791
 31
0.0
  0
LINE
  5
1B3
330
1F
100
AcDbEntity
  8
0
  6
SLD-Solid
 62
     7
370
    25
100
AcDbLine
 10
4.009927396806239
 20
12.52496455610122
 30
0.0
 11
4.00992739680634
 21
41.4738071946791
 31
0.0
  0
SPLINE
  5
1B4
330
1F
100
AcDbEntity
  8
0
  6
SLD-Solid
 62
     7
370
    25
100
AcDbSpline
210
0.0
220
0.0
230
1.0
 70
    12
 71
     3
 72
    10
 73
     6
 74
     0
 42
0.00000001
 43
0.00000001
 40
0.0
 40
0.0
 40
0.0
 40
0.0
 40
0.3849995252236323
 40
0.769999050446981
 40
0.9999999999999999
 40
0.9999999999999999
 40
0.9999999999999999
 40
0.9999999999999999
 10
19.63042739680645
 20
12.07464366084452
 30
0.0
 41
1.0
 10
19.62997198824503
 20
12.07550030051568
 30
0.0
 41
1.0
 10
19.6290611711222
 20
12.07721357985799
 30
0.0
 41
1.0
 10
19.62350806217716
 20
12.07955058986802
 30
0.0
 41
1.0
 10
19.61827137614092
 20
12.08124879526979
 30
0.0
 41
1.0
 10
19.61631293413926
 20
12.08188389860867
 30
0.0
 41
1.0
  0
ARC
  5
1B5
330
1F
100
AcDbEntity
  8
0
  6
SLD-Solid
 62
     7
370
    25
100
AcDbCircle
 10
19.61552975459195
 20
41.93448903128464
 30
0.0
 40
0.0327978039504442
100
AcDbArc
 50
0.1799362864821452
 51
90.17881314994365
  0
ARC
  5
1B6
330
1F
100
AcDbEntity
  8
0
  6
SLD-Solid
 62
     7
370
    25
100
AcDbCircle
 10
19.61552975459183
 20
41.97933449720442
 30
0.0
 40
0.0327978039504953
100
AcDbArc
 50
0.1799362865687027
 51
90.178813149751
  0
LINE
  5
1B7
330
1F
100
AcDbEntity
  8
0
  6
SLD-Solid
 62
     7
370
    25
100
AcDbLine
 10
19.64832739680634
 20
41.9794374979036
 30
0.0
 11
19.6483273968064
 21
41.93459203198377
 31
0.0
  0
LINE
  5
1B8
330
1F
100
AcDbEntity
  8
0
  6
SLD-Solid
 62
     7
370
    25
100
AcDbLine
 10
19.61542739680634
 20
42.01213214143169
 30
0.0
 11
3.552927396806342
 21
42.01213214143169
 31
0.0
  0
ARC
  5
1B9
330
1F
100
AcDbEntity
  8
0
  6
SLD-Solid
 62
     7
370
    25
100
AcDbCircle
 10
3.552825039020851
 20
41.93448903128459
 30
0.0
 40
0.032797803950494
100
AcDbArc
 50
89.82118685025058
 51
179.8200637134313
  0
LINE
  5
1BA
330
1F
100
AcDbEntity
  8
0
  6
SLD-Solid
 62
     7
370
    25
100
AcDbLine
 10
3.520027396806289
 20
41.9794374979036
 30
0.0
 11
3.520027396806341
 21
41.93459203198377
 31
0.0
  0
ARC
  5
1BB
330
1F
100
AcDbEntity
  8
0
  6
SLD-Solid
 62
     7
370
    25
100
AcDbCircle
 10
3.552825039020745
 20
41.97933449720447
 30
0.0
 40
0.0327978039504442
100
AcDbArc
 50
89.82118685006877
 51
179.8200637135179
  0
LINE
  5
1BC
330
1F
100
AcDbEntity
  8
0
  6
SLD-Solid
 62
     7
370
    25
100
AcDbLine
 10
3.552927396806342
 20
42.01213214143169
 30
0.0
 11
3.557170207623065
 21
42.01158538832527
 31
0.0
  0
LINE
  5
1BD
330
1F
100
AcDbEntity
  8
0
  6
SLD-Solid
 62
     7
370
    25
100
AcDbLine
 10
19.61116229821786
 20
42.01202771678429
 30
0.0
 11
19.61542739680634
 21
42.01213214143169
 31
0.0
  0
LINE
  5
1BE
330
1F
100
AcDbEntity
  8
0
  6
SLD-Solid
 62
     7
370
    25
100
AcDbLine
 10
19.14201318324388
 20
12.52355916983086
 30
0.0
 11
19.58501318324398
 21
12.0833243040877
 31
0.0
  0
LINE
  5
1BF
330
1F
100
AcDbEntity
  8
0
  6
SLD-Solid
 62
     7
370
    25
100
AcDbLine
 10
3.568341610368605
 20
12.08332430408776
 30
0.0
 11
4.011341610368595
 21
12.52355916983086
 31
0.0
  0
LINE
  5
1C0
330
1F
100
AcDbEntity
  8
0
  6
SLD-Solid
 62
     7
370
    25
100
AcDbLine
 10
19.14201318324388
 20
12.52355916983086
 30
0.0
 11
4.011341610368595
 21
12.52355916983086
 31
0.0
  0
LINE
  5
1C1
330
1F
100
AcDbEntity
  8
0
  6
SLD-Solid
 62
     7
370
    25
100
AcDbLine
 10
19.14201318324388
 20
12.52555602017903
 30
0.0
 11
19.14201318324388
 21
12.52355916983086
 31
0.0
  0
LINE
  5
1C2
330
1F
100
AcDbEntity
  8
0
  6
SLD-Solid
 62
     7
370
    25
100
AcDbLine
 10
19.58501318324398
 20
12.08532115443593
 30
0.0
 11
19.14201318324388
 21
12.52555602017903
 31
0.0
  0
LINE
  5
1C3
330
1F
100
AcDbEntity
  8
0
  6
SLD-Solid
 62
     7
370
    25
100
AcDbLine
 10
19.58501318324398
 20
12.0833243040877
 30
0.0
 11
19.58501318324398
 21
12.08532115443593
 31
0.0
  0
LINE
  5
1C4
330
1F
100
AcDbEntity
  8
0
  6
SLD-Solid
 62
     7
370
    25
100
AcDbLine
 10
19.14201318324388
 20
12.52555602017903
 30
0.0
 11
4.011341610368595
 21
12.52555602017903
 31
0.0
  0
LINE
  5
1C5
330
1F
100
AcDbEntity
  8
0
  6
SLD-Solid
 62
     7
370
    25
100
AcDbLine
 10
4.011341610368595
 20
12.52355916983086
 30
0.0
 11
4.011341610368595
 21
12.52555602017903
 31
0.0
  0
LINE
  5
1C6
330
1F
100
AcDbEntity
  8
0
  6
SLD-Solid
 62
     7
370
    25
100
AcDbLine
 10
19.64832739680645
 20
12.07464366084452
 30
0.0
 11
19.63042739680645
 21
12.07464366084452
 31
0.0
  0
SPLINE
  5
1C7
330
1F
100
AcDbEntity
  8
0
  6
SLD-Solid
 62
     7
370
    25
100
AcDbSpline
210
0.0
220
0.0
230
1.0
 70
    12
 71
     3
 72
    11
 73
     7
 74
     0
 42
0.00000001
 43
0.00000001
 40
0.0
 40
0.0
 40
0.0
 40
0.0
 40
0.192781187875607
 40
0.4618541252508024
 40
0.7309270626260411
 40
1.0
 40
1.0
 40
1.0
 40
1.0
 10
3.554020016275239
 20
12.04238724355328
 30
0.0
 41
1.0
 10
3.554940327582433
 20
12.04245361512176
 30
0.0
 41
1.0
 10
3.557145156686493
 20
12.04261262432302
 30
0.0
 41
1.0
 10
3.560634503587423
 20
12.05111416959972
 30
0.0
 41
1.0
 10
3.564488056978001
 20
12.06522048975078
 30
0.0
 41
1.0
 10
3.567057092571738
 20
12.07728969930877
 30
0.0
 41
1.0
 10
3.568341610368605
 20
12.08332430408776
 30
0.0
 41
1.0
  0
SPLINE
  5
1C8
330
1F
100
AcDbEntity
  8
0
  6
SLD-Solid
 62
     7
370
    25
100
AcDbSpline
210
0.0
220
0.0
230
1.0
 70
    12
 71
     3
 72
    11
 73
     7
 74
     0
 42
0.00000001
 43
0.00000001
 40
0.0
 40
0.0
 40
0.0
 40
0.0
 40
0.2690729373752793
 40
0.5381458747500564
 40
0.8072188121248836
 40
0.9999999999999999
 40
0.9999999999999999
 40
0.9999999999999999
 40
0.9999999999999999
 10
19.58501318324398
 20
12.0833243040877
 30
0.0
 41
1.0
 10
19.58629770104083
 20
12.07728969930869
 30
0.0
 41
1.0
 10
19.58886673663453
 20
12.06522048975069
 30
0.0
 41
1.0
 10
19.59272029002511
 20
12.05111416959966
 30
0.0
 41
1.0
 10
19.59620963692601
 20
12.04261262432303
 30
0.0
 41
1.0
 10
19.59841446603005
 20
12.04245361512173
 30
0.0
 41
1.0
 10
19.59933477733724
 20
12.04238724355324
 30
0.0
 41
1.0
  0
LINE
  5
1C9
330
1F
100
AcDbEntity
  8
0
  6
SLD-Solid
 62
     7
370
    25
100
AcDbLine
 10
19.60042739680624
 20
12.04194901731637
 30
0.0
 11
19.60042739680624
 21
12.05973728841524
 31
0.0
  0
SPLINE
  5
1CA
330
1F
100
AcDbEntity
  8
0
  6
SLD-Solid
 62
     7
370
    25
100
AcDbSpline
210
0.0
220
0.0
230
1.0
 70
    12
 71
     3
 72
    11
 73
     7
 74
     0
 42
0.00000001
 43
0.00000001
 40
0.0
 40
0.0
 40
0.0
 40
0.0
 40
0.2690729373757565
 40
0.5381458747503852
 40
0.8072188121249873
 40
1.0
 40
1.0
 40
1.0
 40
1.0
 10
19.58501318324398
 20
12.08532115443593
 30
0.0
 41
1.0
 10
19.58629770104083
 20
12.08158973570263
 30
0.0
 41
1.0
 10
19.58886673663453
 20
12.07412689823604
 30
0.0
 41
1.0
 10
19.59272029002511
 20
12.06540444014692
 30
0.0
 41
1.0
 10
19.59620963692601
 20
12.06014762110592
 30
0.0
 41
1.0
 10
19.59841446603005
 20
12.06004929985139
 30
0.0
 41
1.0
 10
19.59933477733724
 20
12.06000825986234
 30
0.0
 41
1.0
  0
ARC
  5
1CB
330
1F
100
AcDbEntity
  8
0
  6
SLD-Solid
 62
     7
370
    25
100
AcDbCircle
 10
3.552825039020851
 20
12.07474666154375
 30
0.0
 40
0.0327978039505483
100
AcDbArc
 50
180.1799362866499
 51
270.178813149563
  0
LINE
  5
1CC
330
1F
100
AcDbEntity
  8
0
  6
SLD-Solid
 62
     7
370
    25
100
AcDbLine
 10
19.60042739680624
 20
12.07637733097831
 30
0.0
 11
19.60042739680624
 21
12.05973728841524
 31
0.0
  0
LINE
  5
1CD
330
1F
100
AcDbEntity
  8
DIMS
100
AcDbLine
 10
1.373616146945552
 20
7.087143115156152
 30
0.0
 11
47.95202836107998
 21
7.087143115156152
 31
0.0
  0
LINE
  5
1CE
330
1F
100
AcDbEntity
  8
DIMS
100
AcDbLine
 10
2.389414343031828
 20
7.087143115156152
 30
0.0
 11
2.389414343031828
 21
7.623907445000814
 31
0.0
  0
LINE
  5
1CF
330
1F
100
AcDbEntity
  8
DIMS
100
AcDbLine
 10
2.389414343031828
 20
7.623907445000814
 30
0.0
 11
2.658960578314122
 21
7.777933865162125
 31
0.0
  0
LINE
  5
1D0
330
1F
100
AcDbEntity
  8
DIMS
100
AcDbLine
 10
2.658960578314122
 20
7.777933865162125
 30
0.0
 11
2.119868107749535
 21
8.095440507381785
 31
0.0
  0
LINE
  5
1D1
330
1F
100
AcDbEntity
  8
DIMS
100
AcDbLine
 10
2.119868107749535
 20
8.095440507381785
 30
0.0
 11
2.389414343031828
 21
8.249466927543097
 31
0.0
  0
LINE
  5
1D2
330
1F
100
AcDbEntity
  8
DIMS
100
AcDbLine
 10
2.389414343031828
 20
8.249466927543097
 30
0.0
 11
2.389414343031828
 21
8.954605602757137
 31
0.0
  0
DIMENSION
  5
1D3
330
1F
100
AcDbEntity
  8
DIMS
100
AcDbDimension
  2
_D
 10
2.387605088128343
 20
12.04194901731642
 30
0.0
 11
2.387605088128342
 21
8.106200889264343
 31
0.0
 70
    32
  1
                                                                                                                                                                                       48" (1220mm) bottom of mirror from floor. Positions may vary depending on size and the type of installation  \P^M\P 
 71
     2
 42
-1.0
  3
SLDDIMSTYLE0
100
AcDbAlignedDimension
 13
1.373616146945552
 23
7.087143115156152
 33
0.0
 14
3.552927396806237
 24
12.04194901731642
 34
0.0
 50
90.0000000000002
100
AcDbRotatedDimension
  0
DIMENSION
  5
1E4
330
1F
100
AcDbEntity
  8
DIMS
100
AcDbDimension
  2
_D_1
 10
2.387605088128475
 20
12.04165627511173
 30
0.0
 11
2.387605088128477
 21
26.00023083958368
 31
0.0
 70
    32
  1
<>
 71
     2
 42
-1.0
  3
SLDDIMSTYLE1
100
AcDbAlignedDimension
 13
3.614127396844831
 23
42.38217435760397
 33
0.0
 14
3.5540243772856
 24
12.04165627511173
 34
0.0
 50
90.0000000000002
100
AcDbRotatedDimension
  0
DIMENSION
  5
1F4
330
1F
100
AcDbEntity
  8
DIMS
100
AcDbDimension
  2
_D_2
 10
19.64832739680639
 20
44.82168232349036
 30
0.0
 11
11.47625065402058
 21
44.82168232349034
 31
0.0
 70
    32
  1
<>
 71
     2
 42
-1.0
  3
SLDDIMSTYLE1
100
AcDbAlignedDimension
 13
3.520027396806341
 23
41.93459203198378
 33
0.0
 14
19.64832739680639
 24
41.93459203198378
 34
0.0
 50
0.000000000000101
100
AcDbRotatedDimension
  0
MTEXT
  5
203
330
1F
100
AcDbEntity
  8
NOTES
100
AcDbMText
 10
10.09802420691135
 20
11.42941874214184
 30
0.0
 40
0.5
 41
0.0
 71
     1
 72
     1
  1
Front view
  7
SLDTEXTSTYLE1
 73
     1
 44
1.0
  0
LINE
  5
204
330
1F
100
AcDbEntity
  8
0
  6
SLD-Solid
 62
     7
370
    25
100
AcDbLine
 10
27.74510327965428
 20
12.40522279280553
 30
0.0
 11
27.75328317215432
 21
18.58119709122102
 31
0.0
  0
LINE
  5
205
330
1F
100
AcDbEntity
  8
0
  6
SLD-Solid
 62
     7
370
    25
100
AcDbLine
 10
27.71092668152505
 20
12.15758166718233
 30
0.0
 11
27.70853082834481
 21
12.1573127169155
 31
0.0
  0
LINE
  5
206
330
1F
100
AcDbEntity
  8
0
  6
SLD-Solid
 62
     7
370
    25
100
AcDbLine
 10
27.70853082834481
 20
12.1573127169155
 30
0.0
 11
27.70550034441537
 21
12.18430876584185
 31
0.0
  0
SPLINE
  5
207
330
1F
100
AcDbEntity
  8
0
  6
SLD-Solid
 62
     7
370
    25
100
AcDbSpline
210
0.0
220
0.0
230
1.0
 70
    12
 71
     3
 72
     9
 73
     5
 74
     0
 42
0.00000001
 43
0.00000001
 40
0.0
 40
0.0
 40
0.0
 40
0.0
 40
0.4790316539768539
 40
1.0
 40
1.0
 40
1.0
 40
1.0
 10
27.75164295671108
 20
12.21819150237627
 30
0.0
 41
1.0
 10
27.75053461848028
 20
12.20863537132962
 30
0.0
 41
1.0
 10
27.74822091285853
 20
12.18868652041902
 30
0.0
 41
1.0
 10
27.74570742999528
 20
12.17070621234929
 30
0.0
 41
1.0
 10
27.74439798498525
 20
12.16133904099322
 30
0.0
 41
1.0
  0
LINE
  5
208
330
1F
100
AcDbEntity
  8
0
  6
SLD-Solid
 62
     7
370
    25
100
AcDbLine
 10
27.74510327965429
 20
12.40522279280548
 30
0.0
 11
27.75164295671108
 21
12.21819150237626
 31
0.0
  0
LINE
  5
209
330
1F
100
AcDbEntity
  8
0
  6
SLD-Solid
 62
     7
370
    25
100
AcDbLine
 10
27.76815155432489
 20
18.63119709122098
 30
0.0
 11
27.76815155432492
 21
42.29893068514168
 31
0.0
  0
LINE
  5
20A
330
1F
100
AcDbEntity
  8
0
  6
SLD-Solid
 62
     7
370
    25
100
AcDbLine
 10
27.65440809349163
 20
42.37788413509
 30
0.0
 11
24.42801637622597
 21
42.01570045865806
 31
0.0
  0
LINE
  5
20B
330
1F
100
AcDbEntity
  8
0
  6
SLD-Solid
 62
     7
370
    25
100
AcDbLine
 10
24.36690309346315
 20
41.92508180087406
 30
0.0
 11
24.36562703088795
 21
41.93644917602436
 31
0.0
  0
LINE
  5
20C
330
1F
100
AcDbEntity
  8
0
  6
SLD-Solid
 62
     7
370
    25
100
AcDbLine
 10
27.71092668152505
 20
12.15758166718233
 30
0.0
 11
27.74439798498525
 21
12.16133904099322
 31
0.0
  0
LINE
  5
20D
330
1F
100
AcDbEntity
  8
0
  6
SLD-Solid
 62
     7
370
    25
100
AcDbLine
 10
27.77584520858225
 20
42.30293975597873
 30
0.0
 11
27.76815155432493
 21
42.18048164094026
 31
0.0
  0
LINE
  5
20E
330
1F
100
AcDbEntity
  8
0
  6
SLD-Solid
 62
     7
370
    25
100
AcDbLine
 10
27.76815155432492
 20
42.29893068514169
 30
0.0
 11
27.76815155432492
 21
42.2995104609926
 31
0.0
  0
ARC
  5
20F
330
1F
100
AcDbEntity
  8
0
  6
SLD-Solid
 62
     7
370
    25
100
AcDbCircle
 10
24.42835778433156
 20
41.95133679719023
 30
0.0
 40
0.0639999999999794
100
AcDbArc
 50
96.4050133173023
 51
186.4050133173565
  0
ARC
  5
210
330
1F
100
AcDbEntity
  8
0
  6
SLD-Solid
 62
     7
370
    25
100
AcDbCircle
 10
27.70099279217904
 20
42.30764249545786
 30
0.0
 40
0.0750000000000394
100
AcDbArc
 50
10.90458780732579
 51
96.4050133173091
  0
LINE
  5
211
330
1F
100
AcDbEntity
  8
0
  6
SLD-Solid
 62
     7
370
    25
100
AcDbLine
 10
27.69262610077608
 20
42.38217435760394
 30
0.0
 11
27.65440809349161
 21
42.37788413509
 31
0.0
  0
LINE
  5
212
330
1F
100
AcDbEntity
  8
0
  6
SLD-Solid
 62
     7
370
    25
100
AcDbLine
 10
27.77584520858225
 20
42.30293975597873
 30
0.0
 11
27.77463855979657
 21
42.32183055071676
 31
0.0
  0
LINE
  5
213
330
1F
100
AcDbEntity
  8
0
  6
SLD-Solid
 62
     7
370
    25
100
AcDbLine
 10
24.3647572619669
 20
41.94419722052632
 30
0.0
 11
24.36562703088795
 21
41.93644917602436
 31
0.0
  0
LINE
  5
214
330
1F
100
AcDbEntity
  8
0
  6
SLD-Solid
 62
     7
370
    25
100
AcDbLine
 10
24.42801637622598
 20
42.015700458658
 30
0.0
 11
24.42121820766772
 21
42.01493731955485
 31
0.0
  0
LINE
  5
215
330
1F
100
AcDbEntity
  8
0
  6
SLD-Solid
 62
     7
370
    25
100
AcDbLine
 10
27.67023680677853
 20
12.1049174219912
 30
0.0
 11
27.6672555322927
 21
12.10458275433508
 31
0.0
  0
LINE
  5
216
330
1F
100
AcDbEntity
  8
0
  6
SLD-Solid
 62
     7
370
    25
100
AcDbLine
 10
24.34356096882684
 20
41.97255959065411
 30
0.0
 11
24.34398749736734
 21
41.96876000431213
 31
0.0
  0
LINE
  5
217
330
1F
100
AcDbEntity
  8
0
  6
SLD-Solid
 62
     7
370
    25
100
AcDbLine
 10
23.86922823561836
 20
41.91404206042217
 30
0.0
 11
27.21776460887222
 21
12.08472969035805
 31
0.0
  0
LINE
  5
218
330
1F
100
AcDbEntity
  8
0
  6
SLD-Solid
 62
     7
370
    25
100
AcDbLine
 10
27.70550034441536
 20
12.18430876584174
 30
0.0
 11
24.36690309346307
 21
41.92508180087405
 31
0.0
  0
LINE
  5
219
330
1F
100
AcDbEntity
  8
0
  6
SLD-Solid
 62
     7
370
    25
100
AcDbLine
 10
23.91044575854369
 20
41.96728667551186
 30
0.0
 11
24.30993653964688
 21
42.01213214143169
 31
0.0
  0
SPLINE
  5
21A
330
1F
100
AcDbEntity
  8
0
  6
SLD-Solid
 62
     7
370
    25
100
AcDbSpline
210
0.0
220
0.0
230
1.0
 70
    12
 71
     3
 72
    11
 73
     7
 74
     0
 42
0.00000001
 43
0.00000001
 40
0.0
 40
0.0
 40
0.0
 40
0.0
 40
0.2770548345810193
 40
0.5544254065341845
 40
0.8317983235799664
 40
1.0
 40
1.0
 40
1.0
 40
1.0
 10
24.36177576846623
 20
41.9707568546603
 30
0.0
 41
1.0
 10
24.36015164588937
 20
41.97742956799154
 30
0.0
 41
1.0
 10
24.35690154985226
 20
41.99078259901498
 30
0.0
 41
1.0
 10
24.34191368724568
 20
42.00572089722402
 30
0.0
 41
1.0
 10
24.3250173904463
 20
42.01263427864931
 30
0.0
 41
1.0
 10
24.31406935564313
 20
42.01226974910071
 30
0.0
 41
1.0
 10
24.30993653964688
 20
42.01213214143169
 30
0.0
 41
1.0
  0
SPLINE
  5
21B
330
1F
100
AcDbEntity
  8
0
  6
SLD-Solid
 62
     7
370
    25
100
AcDbSpline
210
0.0
220
0.0
230
1.0
 70
    12
 71
     3
 72
    11
 73
     7
 74
     0
 42
0.00000001
 43
0.00000001
 40
0.0
 40
0.0
 40
0.0
 40
0.0
 40
0.2500000000000093
 40
0.5000000000000087
 40
0.7499999999999966
 40
1.0
 40
1.0
 40
1.0
 40
1.0
 10
23.91044575854369
 20
41.96728667551186
 30
0.0
 41
1.0
 10
23.90441712601554
 20
41.96590051310763
 30
0.0
 41
1.0
 10
23.89235986095923
 20
41.96312818829918
 30
0.0
 41
1.0
 10
23.87816395704538
 20
41.95062089507518
 30
0.0
 41
1.0
 10
23.86911546688742
 20
41.93400521279659
 30
0.0
 41
1.0
 10
23.86908547014401
 20
41.9216333687272
 30
0.0
 41
1.0
 10
23.8690704717723
 20
41.91544744669251
 30
0.0
 41
1.0
  0
SPLINE
  5
21C
330
1F
100
AcDbEntity
  8
0
  6
SLD-Solid
 62
     7
370
    25
100
AcDbSpline
210
0.0
220
0.0
230
1.0
 70
    12
 71
     3
 72
    12
 73
     8
 74
     0
 42
0.00000001
 43
0.00000001
 40
0.0
 40
0.0
 40
0.0
 40
0.0
 40
0.212207944000393
 40
0.4639213760439149
 40
0.7157255558819807
 40
0.9675300518436408
 40
1.0
 40
1.0
 40
1.0
 40
1.0
 10
27.66925238264081
 20
12.08679448323614
 30
0.0
 41
1.0
 10
27.67436730659316
 20
12.08788154972559
 30
0.0
 41
1.0
 10
27.68554936940194
 20
12.09025805539326
 30
0.0
 41
1.0
 10
27.69987905528198
 20
12.10137021679055
 30
0.0
 41
1.0
 10
27.7094716104972
 20
12.1175516094661
 30
0.0
 41
1.0
 10
27.71136668997766
 20
12.13092545156261
 30
0.0
 41
1.0
 10
27.71070342753146
 20
12.13784352657892
 30
0.0
 41
1.0
 10
27.71062766941219
 20
12.13863371205555
 30
0.0
 41
1.0
  0
LINE
  5
21D
330
1F
100
AcDbEntity
  8
0
  6
SLD-Solid
 62
     7
370
    25
100
AcDbLine
 10
27.66925238264081
 20
12.08679448323614
 30
0.0
 11
27.26976160153762
 21
12.04194901731637
 31
0.0
  0
SPLINE
  5
21E
330
1F
100
AcDbEntity
  8
0
  6
SLD-Solid
 62
     7
370
    25
100
AcDbSpline
210
0.0
220
0.0
230
1.0
 70
    12
 71
     3
 72
    11
 73
     7
 74
     0
 42
0.00000001
 43
0.00000001
 40
0.0
 40
0.0
 40
0.0
 40
0.0
 40
0.250000000000335
 40
0.5000000000002034
 40
0.7500000000001182
 40
1.0
 40
1.0
 40
1.0
 40
1.0
 10
27.21792237271828
 20
12.0833243040877
 30
0.0
 41
1.0
 10
27.21930853512252
 20
12.07729567155955
 30
0.0
 41
1.0
 10
27.22208085993099
 20
12.06523840650325
 30
0.0
 41
1.0
 10
27.23458815315499
 20
12.05104250258942
 30
0.0
 41
1.0
 10
27.25120383543357
 20
12.04199401243148
 30
0.0
 41
1.0
 10
27.26357567950294
 20
12.04196401568807
 30
0.0
 41
1.0
 10
27.26976160153762
 20
12.04194901731637
 30
0.0
 41
1.0
  0
LINE
  5
21F
330
1F
100
AcDbEntity
  8
0
  6
SLD-Solid
 62
     7
370
    25
100
AcDbLine
 10
23.8690704717723
 20
41.91544744669251
 30
0.0
 11
23.86922823561836
 21
41.91404206042216
 31
0.0
  0
LINE
  5
220
330
1F
100
AcDbEntity
  8
0
  6
SLD-Solid
 62
     7
370
    25
100
AcDbLine
 10
27.2177646088722
 20
12.08472969035816
 30
0.0
 11
27.21792237271828
 21
12.0833243040877
 31
0.0
  0
LINE
  5
221
330
1F
100
AcDbEntity
  8
0
  6
SLD-Solid
 62
     7
370
    25
100
AcDbLine
 10
27.71062766941219
 20
12.13863371205555
 30
0.0
 11
27.70853082834482
 21
12.15731271691548
 31
0.0
  0
LINE
  5
222
330
1F
100
AcDbEntity
  8
0
  6
SLD-Solid
 62
     7
370
    25
100
AcDbLine
 10
24.3647572619668
 20
41.94419722052636
 30
0.0
 11
24.36177576846623
 21
41.9707568546603
 31
0.0
  0
DIMENSION
  5
223
330
1F
100
AcDbEntity
  8
DIMS
100
AcDbDimension
  2
_D_3
 10
21.63186377808806
 20
41.7115008717247
 30
0.0
 11
23.42056125162969
 21
25.77748979154185
 31
0.0
 70
    32
  1
<>
 71
     2
 42
-1.0
  3
SLDDIMSTYLE1
100
AcDbAlignedDimension
 13
27.26976160153759
 23
12.04194901731635
 33
0.0
 14
23.91044575854366
 24
41.96728667551188
 34
0.0
 50
276.4050133173018
100
AcDbRotatedDimension
  0
DIMENSION
  5
232
330
1F
100
AcDbEntity
  8
DIMS
100
AcDbDimension
  2
_D_4
 10
27.76815155432492
 20
44.82168232349032
 30
0.0
 11
25.78465513917515
 21
44.82168232349032
 31
0.0
 70
    32
  1
<>
 71
     2
 42
-1.0
  3
SLDDIMSTYLE1
100
AcDbAlignedDimension
 13
23.86922823561833
 23
41.91404206042218
 33
0.0
 14
27.76815155432492
 24
42.29951046099259
 34
0.0
100
AcDbRotatedDimension
  0
MTEXT
  5
241
330
1F
100
AcDbEntity
  8
NOTES
100
AcDbMText
 10
25.09694215803516
 20
11.36149144383736
 30
0.0
 40
0.5
 41
0.0
 71
     1
 72
     1
  1
Side view
  7
SLDTEXTSTYLE1
 73
     1
 44
1.0
  0
LINE
  5
242
330
1F
100
AcDbEntity
  8
0
  6
SLD-Solid
 62
     7
370
    25
100
AcDbLine
 10
65.76408551112418
 20
16.46794350000465
 30
0.0
 11
65.76408551112422
 21
35.78987755976487
 31
0.0
  0
LINE
  5
243
330
1F
100
AcDbEntity
  8
0
  6
SLD-Solid
 62
     7
370
    25
100
AcDbLine
 10
65.72019306280053
 20
35.87577129038655
 30
0.0
 11
54.44884026006329
 21
42.38258476198769
 31
0.0
  0
LINE
  5
244
330
1F
100
AcDbEntity
  8
0
  6
SLD-Solid
 62
     7
370
    25
100
AcDbLine
 10
54.32679540558227
 20
42.37059221894739
 30
0.0
 11
52.04539194353961
 21
40.75782828079518
 31
0.0
  0
LINE
  5
245
330
1F
100
AcDbEntity
  8
0
  6
SLD-Solid
 62
     7
370
    25
100
AcDbLine
 10
65.73513406688751
 20
11.15681641041205
 30
0.0
 11
63.3700352036751
 21
34.12081877557
 31
0.0
  0
LINE
  5
246
330
1F
100
AcDbEntity
  8
0
  6
SLD-Solid
 62
     7
370
    25
100
AcDbLine
 10
51.65424431756392
 20
40.47529488369079
 30
0.0
 11
54.02313696408844
 21
17.47445665923456
 31
0.0
  0
LINE
  5
247
330
1F
100
AcDbEntity
  8
0
  6
SLD-Solid
 62
     7
370
    25
100
AcDbLine
 10
51.95383328334465
 20
40.71874081509695
 30
0.0
 11
51.67135064300508
 21
40.51904890479987
 31
0.0
  0
LINE
  5
248
330
1F
100
AcDbEntity
  8
0
  6
SLD-Solid
 62
     7
370
    25
100
AcDbLine
 10
54.04221599753804
 20
17.44512050674919
 30
0.0
 11
65.37706850739626
 21
10.90164943450604
 31
0.0
  0
LINE
  5
249
330
1F
100
AcDbEntity
  8
0
  6
SLD-Solid
 62
     7
370
    25
100
AcDbLine
 10
54.37840295124811
 20
42.3559701998149
 30
0.0
 11
54.40542716336233
 21
42.37507408717198
 31
0.0
  0
LINE
  5
24A
330
1F
100
AcDbEntity
  8
0
  6
SLD-Solid
 62
     7
370
    25
100
AcDbLine
 10
65.67677996609973
 20
35.86826061557073
 30
0.0
 11
65.64975575398543
 21
35.84915672821366
 31
0.0
  0
LINE
  5
24B
330
1F
100
AcDbEntity
  8
0
  6
SLD-Solid
 62
     7
370
    25
100
AcDbLine
 10
65.64975575398543
 20
35.84915672821366
 30
0.0
 11
65.66946792183528
 21
35.83777713593539
 31
0.0
  0
LINE
  5
24C
330
1F
100
AcDbEntity
  8
0
  6
SLD-Solid
 62
     7
370
    25
100
AcDbLine
 10
54.35869078339822
 20
42.36734979209318
 30
0.0
 11
54.37840295124811
 21
42.3559701998149
 31
0.0
  0
ARC
  5
24D
330
1F
100
AcDbEntity
  8
0
  6
SLD-Solid
 62
     7
370
    25
100
AcDbCircle
 10
65.61168990006819
 20
35.74468972244919
 30
0.0
 40
0.1095607883728017
100
AcDbArc
 50
9.426618665171421
 51
58.17271907304977
  0
LINE
  5
24E
330
1F
100
AcDbEntity
  8
0
  6
SLD-Solid
 62
     7
370
    25
100
AcDbLine
 10
65.71977119890514
 20
35.76263405834071
 30
0.0
 11
63.43836773686252
 21
34.1498701201885
 31
0.0
  0
LINE
  5
24F
330
1F
100
AcDbEntity
  8
0
  6
SLD-Solid
 62
     7
370
    25
100
AcDbLine
 10
65.7219702072423
 20
35.7412827172024
 30
0.0
 11
65.74211851971324
 21
35.7555259110558
 31
0.0
  0
LINE
  5
250
330
1F
100
AcDbEntity
  8
0
  6
SLD-Solid
 62
     7
370
    25
100
AcDbLine
 10
65.72811627903398
 20
16.42924487432592
 30
0.0
 11
65.74211851971313
 21
16.43732819581168
 31
0.0
  0
LINE
  5
251
330
1F
100
AcDbEntity
  8
0
  6
SLD-Solid
 62
     7
370
    25
100
AcDbLine
 10
65.72811627903398
 20
16.42924487432592
 30
0.0
 11
65.728116279034
 21
16.38841783373164
 31
0.0
  0
LINE
  5
252
330
1F
100
AcDbEntity
  8
0
  6
SLD-Solid
 62
     7
370
    25
100
AcDbLine
 10
65.728116279034
 20
16.38841783373164
 30
0.0
 11
65.78463799444398
 21
16.42104712550384
 31
0.0
  0
LINE
  5
253
330
1F
100
AcDbEntity
  8
0
  6
SLD-Solid
 62
     7
370
    25
100
AcDbLine
 10
65.77885393698776
 20
11.37477299239474
 30
0.0
 11
65.78463799444398
 21
16.42104712550384
 31
0.0
  0
LINE
  5
254
330
1F
100
AcDbEntity
  8
0
  6
SLD-Solid
 62
     7
370
    25
100
AcDbLine
 10
63.43575971411227
 20
34.12512060484914
 30
0.0
 11
63.44056674519947
 21
34.12851877905024
 31
0.0
  0
LINE
  5
255
330
1F
100
AcDbEntity
  8
0
  6
SLD-Solid
 62
     7
370
    25
100
AcDbLine
 10
63.44056674519947
 20
34.12851877905024
 30
0.0
 11
63.43836773686252
 21
34.1498701201885
 31
0.0
  0
LINE
  5
256
330
1F
100
AcDbEntity
  8
0
  6
SLD-Solid
 62
     7
370
    25
100
AcDbLine
 10
65.71977119890514
 20
35.76263405834071
 30
0.0
 11
65.7219702072423
 21
35.7412827172024
 31
0.0
  0
SPLINE
  5
257
330
1F
100
AcDbEntity
  8
0
  6
SLD-Solid
 62
     7
370
    25
100
AcDbSpline
210
0.0
220
0.0
230
1.0
 70
    12
 71
     3
 72
     9
 73
     5
 74
     0
 42
0.00000001
 43
0.00000001
 40
0.0
 40
0.0
 40
0.0
 40
0.0
 40
0.6253638407352337
 40
1.0
 40
1.0
 40
1.0
 40
1.0
 10
65.76535241223647
 20
11.21954197618639
 30
0.0
 41
1.0
 10
65.76068015251019
 20
11.21095800734856
 30
0.0
 41
1.0
 10
65.75320888630975
 20
11.19723164794194
 30
0.0
 41
1.0
 10
65.74124635980023
 20
11.188591234397
 30
0.0
 41
1.0
 10
65.73676476481361
 20
11.18535422305206
 30
0.0
 41
1.0
  0
ARC
  5
258
330
1F
100
AcDbEntity
  8
0
  6
SLD-Solid
 62
     7
370
    25
100
AcDbCircle
 10
63.38506292258982
 20
34.20242665977047
 30
0.0
 40
0.0924466916561718
100
AcDbArc
 50
261.2761720970863
 51
303.2565933606915
  0
LINE
  5
259
330
1F
100
AcDbEntity
  8
0
  6
SLD-Solid
 62
     7
370
    25
100
AcDbLine
 10
65.77885393698776
 20
11.37477299239477
 30
0.0
 11
65.76535241536665
 21
11.21954200366693
 31
0.0
  0
ARC
  5
25A
330
1F
100
AcDbEntity
  8
0
  6
SLD-Solid
 62
     7
370
    25
100
AcDbCircle
 10
65.72655123143727
 20
16.47168647827247
 30
0.0
 40
0.0377204458870718
100
AcDbArc
 50
294.3746582936921
 51
354.3052007487524
  0
SPLINE
  5
25B
330
1F
100
AcDbEntity
  8
0
  6
SLD-Solid
 62
     7
370
    25
100
AcDbSpline
210
0.0
220
0.0
230
1.0
 70
    12
 71
     3
 72
    11
 73
     7
 74
     0
 42
0.00000001
 43
0.00000001
 40
0.0
 40
0.0
 40
0.0
 40
0.0
 40
0.2499999999997129
 40
0.499999999999402
 40
0.7499999999989193
 40
1.0
 40
1.0
 40
1.0
 40
1.0
 10
65.74211851971324
 20
35.7555259110558
 30
0.0
 41
1.0
 10
65.74827063885415
 20
35.76062057027186
 30
0.0
 41
1.0
 10
65.76057487713597
 20
35.77080988870399
 30
0.0
 41
1.0
 10
65.76584082811833
 20
35.78987755976487
 30
0.0
 41
1.0
 10
65.76057487713598
 20
35.80894523082577
 30
0.0
 41
1.0
 10
65.74827063885405
 20
35.81913454925792
 30
0.0
 41
1.0
 10
65.74211851971306
 20
35.82422920847402
 30
0.0
 41
1.0
  0
LWPOLYLINE
  5
25C
330
1F
100
AcDbEntity
  8
0
  6
SLD-Solid
 62
     7
370
    25
100
AcDbPolyline
 90
        9
 70
   128
 43
0.0
 10
65.73477153201489
 20
35.85246525291025
 10
65.73200763207296
 20
35.86182090494057
 10
65.72753292876516
 20
35.8694070601334
 10
65.72150266648892
 20
35.8749605260465
 10
65.7141260578711
 20
35.87828863192382
 10
65.70565902538996
 20
35.87927591317343
 10
65.69639532245559
 20
35.87788811727126
 10
65.68665634199192
 20
35.87417339211088
 10
65.67677996609972
 20
35.86826061557075
  0
ARC
  5
25D
330
1F
100
AcDbEntity
  8
0
  6
SLD-Solid
 62
     7
370
    25
100
AcDbCircle
 10
54.43292349493415
 20
42.34536340121508
 30
0.0
 40
0.0404817626831693
100
AcDbArc
 50
66.84726218623935
 51
132.7833164747486
  0
LINE
  5
25E
330
1F
100
AcDbEntity
  8
0
  6
SLD-Solid
 62
     7
370
    25
100
AcDbLine
 10
65.74211851971309
 20
35.82422920847399
 30
0.0
 11
65.73846649804725
 21
35.82681088634997
 31
0.0
  0
ARC
  5
25F
330
1F
100
AcDbEntity
  8
0
  6
SLD-Solid
 62
     7
370
    25
100
AcDbCircle
 10
54.34019901865164
 20
42.34394522584591
 30
0.0
 40
0.0298281592570878
100
AcDbArc
 50
51.68801264073907
 51
116.7026971974507
  0
LINE
  5
260
330
1F
100
AcDbEntity
  8
0
  6
SLD-Solid
 62
     7
370
    25
100
AcDbLine
 10
52.03447290768341
 20
40.70694338016354
 30
0.0
 11
52.02963854161759
 21
40.70314657971902
 31
0.0
  0
LINE
  5
261
330
1F
100
AcDbEntity
  8
0
  6
SLD-Solid
 62
     7
370
    25
100
AcDbLine
 10
52.03708093043338
 20
40.731692895503
 30
0.0
 11
52.03927993877053
 21
40.71034155436466
 31
0.0
  0
LINE
  5
262
330
1F
100
AcDbEntity
  8
0
  6
SLD-Solid
 62
     7
370
    25
100
AcDbLine
 10
52.03927993877053
 20
40.71034155436466
 30
0.0
 11
52.03447290768341
 21
40.70694338016354
 31
0.0
  0
LINE
  5
263
330
1F
100
AcDbEntity
  8
0
  6
SLD-Solid
 62
     7
370
    25
100
AcDbLine
 10
65.75988925710244
 20
16.43533426746072
 30
0.0
 11
65.78463799444398
 21
16.42104712550384
 31
0.0
  0
LINE
  5
264
330
1F
100
AcDbEntity
  8
0
  6
SLD-Solid
 62
     7
370
    25
100
AcDbLine
 10
65.72811627903398
 20
16.41699211764547
 30
0.0
 11
65.75988925710244
 21
16.43533426746072
 31
0.0
  0
LINE
  5
265
330
1F
100
AcDbEntity
  8
0
  6
SLD-Solid
 62
     7
370
    25
100
AcDbLine
 10
63.00216709134832
 20
33.90522084353763
 30
0.0
 11
63.0016757143671
 21
33.90550450943089
 31
0.0
  0
LINE
  5
266
330
1F
100
AcDbEntity
  8
0
  6
SLD-Solid
 62
     7
370
    25
100
AcDbLine
 10
54.07006597785808
 20
17.4806415789502
 30
0.0
 11
54.07012079385227
 21
17.48010934131741
 31
0.0
  0
SPLINE
  5
267
330
1F
100
AcDbEntity
  8
0
  6
SLD-Solid
 62
     7
370
    25
100
AcDbSpline
210
0.0
220
0.0
230
1.0
 70
    12
 71
     3
 72
    11
 73
     7
 74
     0
 42
0.00000001
 43
0.00000001
 40
0.0
 40
0.0
 40
0.0
 40
0.0
 40
0.2500000000000254
 40
0.5000000000000135
 40
0.7500000000000087
 40
1.0
 40
1.0
 40
1.0
 40
1.0
 10
51.66938960975061
 20
40.45187154438803
 30
0.0
 41
1.0
 10
51.66849192395623
 20
40.45745306995923
 30
0.0
 41
1.0
 10
51.66669655236748
 20
40.46861612110163
 30
0.0
 41
1.0
 10
51.67036992738352
 20
40.4874501703055
 30
0.0
 41
1.0
 10
51.67768307357193
 20
40.50503074734778
 30
0.0
 41
1.0
 10
51.68439226496637
 20
40.51326497894602
 30
0.0
 41
1.0
 10
51.68774686066359
 20
40.51738209474514
 30
0.0
 41
1.0
  0
LINE
  5
268
330
1F
100
AcDbEntity
  8
0
  6
SLD-Solid
 62
     7
370
    25
100
AcDbLine
 10
51.68774686066359
 20
40.51738209474514
 30
0.0
 11
63.04564953347248
 21
33.96060444666899
 31
0.0
  0
SPLINE
  5
269
330
1F
100
AcDbEntity
  8
0
  6
SLD-Solid
 62
     7
370
    25
100
AcDbSpline
210
0.0
220
0.0
230
1.0
 70
    12
 71
     3
 72
    11
 73
     7
 74
     0
 42
0.00000001
 43
0.00000001
 40
0.0
 40
0.0
 40
0.0
 40
0.0
 40
0.2499999999998307
 40
0.499999999999544
 40
0.7499999999992444
 40
1.0
 40
1.0
 40
1.0
 40
1.0
 10
65.44171314403437
 20
10.90839970293527
 30
0.0
 41
1.0
 10
65.43679482494147
 20
10.90661847845979
 30
0.0
 41
1.0
 10
65.42695818675566
 20
10.90305602950885
 30
0.0
 41
1.0
 10
65.40809168139761
 20
10.90273387011122
 30
0.0
 41
1.0
 10
65.38920462182485
 20
10.9066260356937
 30
0.0
 41
1.0
 10
65.37931995737449
 20
10.91291063221004
 30
0.0
 41
1.0
 10
65.37437762514931
 20
10.91605293046823
 30
0.0
 41
1.0
  0
SPLINE
  5
26A
330
1F
100
AcDbEntity
  8
0
  6
SLD-Solid
 62
     7
370
    25
100
AcDbSpline
210
0.0
220
0.0
230
1.0
 70
    12
 71
     3
 72
    11
 73
     7
 74
     0
 42
0.00000001
 43
0.00000001
 40
0.0
 40
0.0
 40
0.0
 40
0.0
 40
0.2499999999996931
 40
0.4999999999997854
 40
0.7499999999998942
 40
1.0
 40
1.0
 40
1.0
 40
1.0
 10
63.00660484857166
 20
33.90601774218513
 30
0.0
 41
1.0
 10
63.01134453032886
 20
33.90484308506785
 30
0.0
 41
1.0
 10
63.02082389384326
 20
33.90249377083329
 30
0.0
 41
1.0
 10
63.03910300201215
 20
33.90450452867348
 30
0.0
 41
1.0
 10
63.05736155596637
 20
33.91072961149379
 30
0.0
 41
1.0
 10
63.06679289321625
 20
33.91822734272657
 30
0.0
 41
1.0
 10
63.07150856184119
 20
33.92197620834296
 30
0.0
 41
1.0
  0
LINE
  5
26B
330
1F
100
AcDbEntity
  8
0
  6
SLD-Solid
 62
     7
370
    25
100
AcDbLine
 10
65.44171314403437
 20
10.90839970293527
 30
0.0
 11
63.07150856184119
 21
33.92197620834296
 31
0.0
  0
ARC
  5
26C
330
1F
100
AcDbEntity
  8
0
  6
SLD-Solid
 62
     7
370
    25
100
AcDbCircle
 10
63.29843065949732
 20
34.11244360847085
 30
0.0
 40
0.0563210927729296
100
AcDbArc
 50
9.426618665148434
 51
58.1727190729596
  0
LINE
  5
26D
330
1F
100
AcDbEntity
  8
0
  6
SLD-Solid
 62
     7
370
    25
100
AcDbLine
 10
63.35399120218073
 20
34.12166811864007
 30
0.0
 11
63.07150856184119
 21
33.92197620834296
 31
0.0
  0
ARC
  5
26E
330
1F
100
AcDbEntity
  8
0
  6
SLD-Solid
 62
     7
370
    25
100
AcDbCircle
 10
63.01594801915795
 20
33.91275169817383
 30
0.0
 40
0.0563210927727557
100
AcDbArc
 50
9.42661866509128
 51
58.17271907309959
  0
LINE
  5
26F
330
1F
100
AcDbEntity
  8
0
  6
SLD-Solid
 62
     7
370
    25
100
AcDbLine
 10
63.32813217381206
 20
34.16029635696608
 30
0.0
 11
51.97022950100317
 21
40.71707400504222
 31
0.0
  0
LINE
  5
270
330
1F
100
AcDbEntity
  8
0
  6
SLD-Solid
 62
     7
370
    25
100
AcDbLine
 10
65.7241957843739
 20
11.10809161323237
 30
0.0
 11
65.44171314403437
 21
10.90839970293527
 31
0.0
  0
LINE
  5
271
330
1F
100
AcDbEntity
  8
0
  6
SLD-Solid
 62
     7
370
    25
100
AcDbLine
 10
52.01758260571779
 20
39.93174055416242
 30
0.0
 11
62.72718968052218
 21
33.74921598861342
 31
0.0
  0
LINE
  5
272
330
1F
100
AcDbEntity
  8
0
  6
SLD-Solid
 62
     7
370
    25
100
AcDbLine
 10
52.01758260571779
 20
39.93174055416242
 30
0.0
 11
51.66938960975061
 21
40.45187154438803
 31
0.0
  0
LINE
  5
273
330
1F
100
AcDbEntity
  8
0
  6
SLD-Solid
 62
     7
370
    25
100
AcDbLine
 10
62.72830123640756
 20
33.74755554549697
 30
0.0
 11
63.00660484857166
 21
33.90601774218513
 31
0.0
  0
LINE
  5
274
330
1F
100
AcDbEntity
  8
0
  6
SLD-Solid
 62
     7
370
    25
100
AcDbLine
 10
62.74087944352716
 20
33.75644729971169
 30
0.0
 11
62.72830123640756
 21
33.74755554549697
 31
0.0
  0
LINE
  5
275
330
1F
100
AcDbEntity
  8
0
  6
SLD-Solid
 62
     7
370
    25
100
AcDbLine
 10
65.37437762514931
 20
10.91605293046823
 30
0.0
 11
65.02618462918215
 21
11.43618392069382
 31
0.0
  0
LINE
  5
276
330
1F
100
AcDbEntity
  8
0
  6
SLD-Solid
 62
     7
370
    25
100
AcDbLine
 10
62.72830123640756
 20
33.74755554549697
 30
0.0
 11
65.02618462918215
 21
11.43618392069382
 31
0.0
  0
SPLINE
  5
277
330
1F
100
AcDbEntity
  8
0
  6
SLD-Solid
 62
     7
370
    25
100
AcDbSpline
210
0.0
220
0.0
230
1.0
 70
    12
 71
     3
 72
    10
 73
     6
 74
     0
 42
0.00000001
 43
0.00000001
 40
0.0
 40
0.0
 40
0.0
 40
0.0
 40
0.4855401754567854
 40
0.971633682456326
 40
1.0
 40
1.0
 40
1.0
 40
1.0
 10
51.97022950100317
 20
40.71707400504223
 30
0.0
 41
1.0
 10
51.97889136330013
 20
40.71737699155609
 30
0.0
 41
1.0
 10
51.99622495913001
 20
40.71798330987344
 30
0.0
 41
1.0
 10
52.01411794115834
 20
40.7135839543454
 30
0.0
 41
1.0
 10
52.02105615269473
 20
40.70791384827474
 30
0.0
 41
1.0
 10
52.02143871223046
 20
40.70760120961641
 30
0.0
 41
1.0
  0
SPLINE
  5
278
330
1F
100
AcDbEntity
  8
0
  6
SLD-Solid
 62
     7
370
    25
100
AcDbSpline
210
0.0
220
0.0
230
1.0
 70
    12
 71
     3
 72
     9
 73
     5
 74
     0
 42
0.00000001
 43
0.00000001
 40
0.0
 40
0.0
 40
0.0
 40
0.0
 40
0.5223487701619679
 40
1.0
 40
1.0
 40
1.0
 40
1.0
 10
63.35399120218073
 20
34.12166811864007
 30
0.0
 41
1.0
 10
63.35874506067775
 20
34.12117330193888
 30
0.0
 41
1.0
 10
63.36784598857989
 20
34.12022601014947
 30
0.0
 41
1.0
 10
63.36908808490396
 20
34.12062399113881
 30
0.0
 41
1.0
 10
63.36968137374073
 20
34.12081408724783
 30
0.0
 41
1.0
  0
SPLINE
  5
279
330
1F
100
AcDbEntity
  8
0
  6
SLD-Solid
 62
     7
370
    25
100
AcDbSpline
210
0.0
220
0.0
230
1.0
 70
    12
 71
     3
 72
    10
 73
     6
 74
     0
 42
0.00000001
 43
0.00000001
 40
0.0
 40
0.0
 40
0.0
 40
0.0
 40
0.1744017299237667
 40
0.688341716263862
 40
1.0
 40
1.0
 40
1.0
 40
1.0
 10
65.73414996891763
 20
11.15667065497431
 30
0.0
 41
1.0
 10
65.7347162176779
 20
11.15380225458364
 30
0.0
 41
1.0
 10
65.73695113039138
 20
11.14248103862606
 30
0.0
 41
1.0
 10
65.73275790788438
 20
11.12537801049112
 30
0.0
 41
1.0
 10
65.72654218256301
 20
11.11282884590304
 30
0.0
 41
1.0
 10
65.7241957843739
 20
11.10809161323237
 30
0.0
 41
1.0
  0
LINE
  5
27A
330
1F
100
AcDbEntity
  8
0
  6
SLD-Solid
 62
     7
370
    25
100
AcDbLine
 10
52.01669416160316
 20
39.93123468647014
 30
0.0
 11
52.01752708340781
 21
39.93182349343576
 31
0.0
  0
LINE
  5
27B
330
1F
100
AcDbEntity
  8
0
  6
SLD-Solid
 62
     7
370
    25
100
AcDbLine
 10
51.66850116563594
 20
40.45136567669578
 30
0.0
 11
52.01669416160316
 21
39.93123468647014
 31
0.0
  0
LINE
  5
27C
330
1F
100
AcDbEntity
  8
0
  6
SLD-Solid
 62
     7
370
    25
100
AcDbLine
 10
54.31457755437762
 20
17.61986306166715
 30
0.0
 11
52.01669416160316
 21
39.93123468647014
 31
0.0
  0
LINE
  5
27D
330
1F
100
AcDbEntity
  8
0
  6
SLD-Solid
 62
     7
370
    25
100
AcDbLine
 10
54.31457755437762
 20
17.61986306166715
 30
0.0
 11
54.03627394221352
 21
17.46140086497901
 31
0.0
  0
SPLINE
  5
27E
330
1F
100
AcDbEntity
  8
0
  6
SLD-Solid
 62
     7
370
    25
100
AcDbSpline
210
0.0
220
0.0
230
1.0
 70
    12
 71
     3
 72
    11
 73
     7
 74
     0
 42
0.00000001
 43
0.00000001
 40
0.0
 40
0.0
 40
0.0
 40
0.0
 40
0.2500000000001796
 40
0.5000000000004727
 40
0.7500000000007754
 40
1.0
 40
1.0
 40
1.0
 40
1.0
 10
51.66707826283018
 20
40.50561368329809
 30
0.0
 41
1.0
 10
51.6633595875625
 20
40.50128926566753
 30
0.0
 41
1.0
 10
51.65592223702713
 20
40.4926404304064
 30
0.0
 41
1.0
 10
51.65300166084944
 20
40.47756092148745
 30
0.0
 41
1.0
 10
51.65664647981905
 20
40.46289374990958
 30
0.0
 41
1.0
 10
51.66454960369699
 20
40.45520836776704
 30
0.0
 41
1.0
 10
51.66850116563594
 20
40.45136567669578
 30
0.0
 41
1.0
  0
LINE
  5
27F
330
1F
100
AcDbEntity
  8
0
  6
SLD-Solid
 62
     7
370
    25
100
AcDbLine
 10
51.67646303391377
 20
40.50019597027081
 30
0.0
 11
51.66707826283018
 21
40.50561368329809
 31
0.0
  0
SPLINE
  5
280
330
1F
100
AcDbEntity
  8
0
  6
SLD-Solid
 62
     7
370
    25
100
AcDbSpline
210
0.0
220
0.0
230
1.0
 70
    12
 71
     3
 72
     9
 73
     5
 74
     0
 42
0.00000001
 43
0.00000001
 40
0.0
 40
0.0
 40
0.0
 40
0.0
 40
0.5428767916920045
 40
1.0
 40
1.0
 40
1.0
 40
1.0
 10
54.03627394221352
 20
17.46140086497901
 30
0.0
 41
1.0
 10
54.03238691264094
 20
17.46325474195828
 30
0.0
 41
1.0
 10
54.02522685416717
 20
17.46666965489552
 30
0.0
 41
1.0
 10
54.02411556881277
 20
17.4720753097156
 30
0.0
 41
1.0
 10
54.02360757448623
 20
17.47454635998996
 30
0.0
 41
1.0
  0
LWPOLYLINE
  5
281
330
1F
100
AcDbEntity
  8
0
  6
SLD-Solid
 62
     7
370
    25
100
AcDbPolyline
 90
        9
 70
   128
 43
0.0
 10
51.68774686066359
 20
40.51738209474514
 10
51.68325818220804
 20
40.51951796213569
 10
51.67904173381559
 20
40.52060339184623
 10
51.67525955123334
 20
40.52059667142169
 10
51.67205698161683
 20
40.51949805912422
 10
51.66955709792045
 20
40.51734977400831
 10
51.66785596927267
 20
40.51423437346617
 10
51.66701896909341
 20
40.51027158059352
 10
51.66707826283018
 20
40.50561368329809
  0
ARC
  5
282
330
1F
100
AcDbEntity
  8
0
  6
SLD-Solid
 62
     7
370
    25
100
AcDbCircle
 10
51.96072357818824
 20
40.70504259520669
 30
0.0
 40
0.0153335381172698
100
AcDbArc
 50
51.6880126388621
 51
116.7026971995349
  0
LINE
  5
283
330
1F
100
AcDbEntity
  8
0
  6
SLD-Solid
 62
     7
370
    25
100
AcDbLine
 10
54.32715576149721
 20
17.62875481588187
 30
0.0
 11
54.31457755437762
 21
17.61986306166715
 31
0.0
  0
LINE
  5
284
330
1F
100
AcDbEntity
  8
0
  6
SLD-Solid
 62
     7
370
    25
100
AcDbLine
 10
54.32715576149721
 20
17.62875481588187
 30
0.0
 11
52.03092960029662
 21
39.92403549819878
 31
0.0
  0
LINE
  5
285
330
1F
100
AcDbEntity
  8
0
  6
SLD-Solid
 62
     7
370
    25
100
AcDbLine
 10
65.0146895833496
 20
11.44180111384035
 30
0.0
 11
65.36288257931685
 21
10.92167012361463
 31
0.0
  0
LINE
  5
286
330
1F
100
AcDbEntity
  8
0
  6
SLD-Solid
 62
     7
370
    25
100
AcDbLine
 10
54.03738549809889
 20
17.45974042186251
 30
0.0
 11
54.31568911026298
 21
17.61820261855069
 31
0.0
  0
LINE
  5
287
330
1F
100
AcDbEntity
  8
0
  6
SLD-Solid
 62
     7
370
    25
100
AcDbLine
 10
65.0146895833496
 20
11.44180111384035
 30
0.0
 11
54.31568911026298
 21
17.61820261855069
 31
0.0
  0
LINE
  5
288
330
1F
100
AcDbEntity
  8
0
  6
SLD-Solid
 62
     7
370
    25
100
AcDbLine
 10
65.02486525042471
 20
11.44899447055189
 30
0.0
 11
65.0146895833496
 21
11.44180111384035
 31
0.0
  0
LINE
  5
289
330
1F
100
AcDbEntity
  8
0
  6
SLD-Solid
 62
     7
370
    25
100
AcDbLine
 10
65.36288257931685
 20
10.92167012361463
 30
0.0
 11
65.3681327360435
 21
10.92538155106678
 31
0.0
  0
LINE
  5
28A
330
1F
100
AcDbEntity
  8
0
  6
SLD-Solid
 62
     7
370
    25
100
AcDbLine
 10
54.31568911026298
 20
17.61820261855069
 30
0.0
 11
54.32826731738258
 21
17.62709437276541
 31
0.0
  0
LINE
  5
28B
330
1F
100
AcDbEntity
  8
0
  6
SLD-Solid
 62
     7
370
    25
100
AcDbLine
 10
65.02452739760828
 20
11.45227486317996
 30
0.0
 11
54.32826731738258
 21
17.62709437276541
 31
0.0
  0
SPLINE
  5
28C
330
1F
100
AcDbEntity
  8
0
  6
SLD-Solid
 62
     7
370
    25
100
AcDbSpline
210
0.0
220
0.0
230
1.0
 70
    12
 71
     3
 72
     9
 73
     5
 74
     0
 42
0.00000001
 43
0.00000001
 40
0.0
 40
0.0
 40
0.0
 40
0.0
 40
0.4174775226430734
 40
1.0
 40
1.0
 40
1.0
 40
1.0
 10
54.04261228728135
 20
17.44573538398638
 30
0.0
 41
1.0
 10
54.04104947114071
 20
17.44666932674529
 30
0.0
 41
1.0
 10
54.03730599740651
 20
17.44890643583081
 30
0.0
 41
1.0
 10
54.03735623409732
 20
17.45575245930707
 30
0.0
 41
1.0
 10
54.03738549809889
 20
17.45974042186251
 30
0.0
 41
1.0
  0
SPLINE
  5
28D
330
1F
100
AcDbEntity
  8
0
  6
SLD-Solid
 62
     7
370
    25
100
AcDbSpline
210
0.0
220
0.0
230
1.0
 70
    12
 71
     3
 72
    11
 73
     7
 74
     0
 42
0.00000001
 43
0.00000001
 40
0.0
 40
0.0
 40
0.0
 40
0.0
 40
0.250000000000335
 40
0.5000000000002034
 40
0.7500000000001182
 40
1.0
 40
1.0
 40
1.0
 40
1.0
 10
65.36288257931685
 20
10.92167012361463
 30
0.0
 41
1.0
 10
65.36477103539742
 20
10.91678899085653
 30
0.0
 41
1.0
 10
65.36854794755857
 20
10.90702672534033
 30
0.0
 41
1.0
 10
65.38011681314569
 20
10.89896768213189
 30
0.0
 41
1.0
 10
65.39459074849304
 20
10.89678877340614
 30
0.0
 41
1.0
 10
65.4051555458197
 20
10.90076582602
 30
0.0
 41
1.0
 10
65.41043794448302
 20
10.90275435232694
 30
0.0
 41
1.0
  0
LINE
  5
28E
330
1F
100
AcDbEntity
  8
0
  6
SLD-Solid
 62
     7
370
    25
100
AcDbLine
 10
54.03738549809889
 20
17.45974042186251
 30
0.0
 11
54.04996370521848
 21
17.46863217607723
 31
0.0
  0
LINE
  5
28F
330
1F
100
AcDbEntity
  8
0
  6
SLD-Solid
 62
     7
370
    25
100
AcDbLine
 10
54.32826731738258
 20
17.62709437276541
 30
0.0
 11
54.04996370521848
 21
17.46863217607723
 31
0.0
  0
LINE
  5
290
330
1F
100
AcDbEntity
  8
0
  6
SLD-Solid
 62
     7
370
    25
100
AcDbLine
 10
54.04763181223836
 20
17.46786787782099
 30
0.0
 11
54.04806388406897
 21
17.46728915933786
 31
0.0
  0
LINE
  5
291
330
1F
100
AcDbEntity
  8
0
  6
SLD-Solid
 62
     7
370
    25
100
AcDbLine
 10
54.05565478487913
 20
17.47243604658724
 30
0.0
 11
54.05597552793497
 21
17.47205522411588
 31
0.0
  0
LINE
  5
292
330
1F
100
AcDbEntity
  8
OBJECT
100
AcDbLine
 10
52.02159133960887
 20
40.70779213055533
 30
0.0
 11
52.02963854161762
 21
40.70314657971901
 31
0.0
  0
ELLIPSE
  5
293
330
1F
100
AcDbEntity
  8
OBJECT
100
AcDbEllipse
 10
52.08233576442941
 20
40.70556783592464
 30
0.0
 11
-0.03694382088976056
 21
0.05226044487052661
 31
0.0
210
0.0
220
0.0
230
1.0
 40
0.5093777812643246
 41
0.0
 42
0.749818965050117
  0
INSERT
  5
299
330
1F
100
AcDbEntity
  8
NOTES
100
AcDbBlockReference
  2
SW_NOTE_0_2
 10
56.21555088643445
 20
11.69864385976412
 30
0.0
  0
LINE
  5
29A
330
1F
100
AcDbEntity
  8
0
  6
SLD-Solid
 62
     7
370
    25
100
AcDbLine
 10
32.71895392333396
 20
28.99532463372278
 30
0.0
 11
32.71895392333396
 21
28.99777886320098
 31
0.0
  0
LINE
  5
29B
330
1F
100
AcDbEntity
  8
0
  6
SLD-Solid
 62
     7
370
    25
100
AcDbLine
 10
32.46495392333396
 20
28.99777886320095
 30
0.0
 11
32.46495392333396
 21
28.99532463372275
 31
0.0
  0
LINE
  5
29C
330
1F
100
AcDbEntity
  8
0
  6
SLD-Solid
 62
     7
370
    25
100
AcDbLine
 10
45.72779357672063
 20
28.99532463372275
 30
0.0
 11
45.72779357672063
 21
28.99777886320095
 31
0.0
  0
LINE
  5
29D
330
1F
100
AcDbEntity
  8
0
  6
SLD-Solid
 62
     7
370
    25
100
AcDbLine
 10
45.47379357672062
 20
28.99777886320092
 30
0.0
 11
45.47379357672062
 21
28.99532463372272
 31
0.0
  0
LINE
  5
29E
330
1F
100
AcDbEntity
  8
0
  6
SLD-Solid
 62
     7
370
    25
100
AcDbLine
 10
32.71895392333409
 20
13.0951510935025
 30
0.0
 11
32.71895392333409
 21
13.0976053229807
 31
0.0
  0
LINE
  5
29F
330
1F
100
AcDbEntity
  8
0
  6
SLD-Solid
 62
     7
370
    25
100
AcDbLine
 10
45.72337375002749
 20
38.93756092142876
 30
0.0
 11
45.72337375002749
 21
38.94001515090695
 31
0.0
  0
LINE
  5
2A0
330
1F
100
AcDbEntity
  8
0
  6
SLD-Solid
 62
     7
370
    25
100
AcDbLine
 10
45.46937375002749
 20
38.94001515090693
 30
0.0
 11
45.46937375002749
 21
38.93756092142873
 31
0.0
  0
LINE
  5
2A1
330
1F
100
AcDbEntity
  8
0
  6
SLD-Solid
 62
     7
370
    25
100
AcDbLine
 10
32.72337375002748
 20
38.93756092142878
 30
0.0
 11
32.72337375002748
 21
38.94001515090698
 31
0.0
  0
LINE
  5
2A2
330
1F
100
AcDbEntity
  8
0
  6
SLD-Solid
 62
     7
370
    25
100
AcDbLine
 10
32.46937375002748
 20
38.94001515090696
 30
0.0
 11
32.46937375002748
 21
38.93756092142876
 31
0.0
  0
LINE
  5
2A3
330
1F
100
AcDbEntity
  8
0
  6
SLD-Solid
 62
     7
370
    25
100
AcDbLine
 10
47.06642374998893
 20
42.38264249545784
 30
0.0
 11
31.12632375006582
 21
42.38264249545784
 31
0.0
  0
LINE
  5
2A4
330
1F
100
AcDbEntity
  8
0
  6
SLD-Solid
 62
     7
370
    25
100
AcDbLine
 10
31.93312375002749
 20
12.36034115798621
 30
0.0
 11
31.93312375002749
 21
12.36301849923515
 31
0.0
  0
LINE
  5
2A5
330
1F
100
AcDbEntity
  8
0
  6
SLD-Solid
 62
     7
370
    25
100
AcDbLine
 10
31.67912375002749
 20
12.36301849923514
 30
0.0
 11
31.67912375002749
 21
12.36034115798619
 31
0.0
  0
LINE
  5
2A6
330
1F
100
AcDbEntity
  8
0
  6
SLD-Solid
 62
     7
370
    25
100
AcDbLine
 10
47.07178101189499
 20
12.13351390468872
 30
0.0
 11
47.07178121926474
 21
12.13358400086532
 31
0.0
  0
LINE
  5
2A7
330
1F
100
AcDbEntity
  8
0
  6
SLD-Solid
 62
     7
370
    25
100
AcDbLine
 10
31.12199676699549
 20
12.13358396370496
 30
0.0
 11
31.12199691358283
 21
12.13351387575998
 31
0.0
  0
LINE
  5
2A8
330
1F
100
AcDbEntity
  8
0
  6
SLD-Solid
 62
     7
370
    25
100
AcDbLine
 10
31.08012375002749
 20
12.04165627511174
 30
0.0
 11
47.12762375002748
 21
12.04165627511174
 31
0.0
  0
CIRCLE
  5
2A9
330
1F
100
AcDbEntity
  8
0
  6
SLD-Solid
 62
     7
370
    25
100
AcDbCircle
 10
45.60139742655394
 20
13.09809480077821
 30
0.0
 40
0.1265224907144117
  0
CIRCLE
  5
2AA
330
1F
100
AcDbEntity
  8
0
  6
SLD-Solid
 62
     7
370
    25
100
AcDbCircle
 10
32.5925817545082
 20
28.99810587554039
 30
0.0
 40
0.1264191356626181
  0
CIRCLE
  5
2AB
330
1F
100
AcDbEntity
  8
0
  6
SLD-Solid
 62
     7
370
    25
100
AcDbCircle
 10
45.60139933753597
 20
28.9982642598721
 30
0.0
 40
0.1265183123476178
  0
CIRCLE
  5
2AC
330
1F
100
AcDbEntity
  8
0
  6
SLD-Solid
 62
     7
370
    25
100
AcDbCircle
 10
32.59257623260924
 20
13.09780583612773
 30
0.0
 40
0.1263857307649798
  0
CIRCLE
  5
2AD
330
1F
100
AcDbEntity
  8
0
  6
SLD-Solid
 62
     7
370
    25
100
AcDbCircle
 10
45.5969885508525
 20
38.94047581130688
 30
0.0
 40
0.126495565839059
  0
CIRCLE
  5
2AE
330
1F
100
AcDbEntity
  8
0
  6
SLD-Solid
 62
     7
370
    25
100
AcDbCircle
 10
32.59699812322078
 20
38.94042583810199
 30
0.0
 40
0.1264597341987939
  0
ARC
  5
2AF
330
1F
100
AcDbEntity
  8
0
  6
SLD-Solid
 62
     7
370
    25
100
AcDbCircle
 10
46.80663187790395
 20
18.68119709122102
 30
0.0
 40
0.0500000000000043
100
AcDbArc
 50
197.3689013888538
 51
270.0000000000008
  0
LINE
  5
2B0
330
1F
100
AcDbEntity
  8
0
  6
SLD-Solid
 62
     7
370
    25
100
AcDbLine
 10
46.26634300482306
 20
20.24105460216412
 30
0.0
 11
46.75891175294083
 21
18.6662709506112
 31
0.0
  0
ARC
  5
2B1
330
1F
100
AcDbEntity
  8
0
  6
SLD-Solid
 62
     7
370
    25
100
AcDbCircle
 10
46.3140631297862
 20
20.25598074277393
 30
0.0
 40
0.0500000000000147
100
AcDbArc
 50
179.9999999999552
 51
197.3689013888232
  0
LINE
  5
2B2
330
1F
100
AcDbEntity
  8
0
  6
SLD-Solid
 62
     7
370
    25
100
AcDbLine
 10
46.26406312978624
 20
39.06212870020597
 30
0.0
 11
46.26406312978619
 21
20.25598074277396
 31
0.0
  0
LINE
  5
2B3
330
1F
100
AcDbEntity
  8
0
  6
SLD-Solid
 62
     7
370
    25
100
AcDbLine
 10
46.57561696314291
 20
41.83750145396084
 30
0.0
 11
46.26406312978624
 21
39.06212870020597
 31
0.0
  0
LINE
  5
2B4
330
1F
100
AcDbEntity
  8
0
  6
SLD-Solid
 62
     7
370
    25
100
AcDbLine
 10
47.07813622653584
 20
42.29951046099254
 30
0.0
 11
46.57561696314291
 21
41.83750145396084
 31
0.0
  0
LINE
  5
2B5
330
1F
100
AcDbEntity
  8
0
  6
SLD-Solid
 62
     7
370
    25
100
AcDbLine
 10
46.80663187790395
 20
18.63119709122102
 30
0.0
 11
47.08330096510587
 21
18.63119709122099
 31
0.0
  0
LINE
  5
2B6
330
1F
100
AcDbEntity
  8
0
  6
SLD-Solid
 62
     7
370
    25
100
AcDbLine
 10
46.65221384434675
 20
36.9797081551758
 30
0.0
 11
46.65221385300811
 21
36.62238669035501
 31
0.0
  0
ARC
  5
2B7
330
1F
100
AcDbEntity
  8
0
  6
SLD-Solid
 62
     7
370
    25
100
AcDbCircle
 10
46.74750778472664
 20
36.46090815748572
 30
0.0
 40
0.1874999999999871
100
AcDbArc
 50
120.5462889310144
 51
180.0000013888399
  0
LINE
  5
2B8
330
1F
100
AcDbEntity
  8
0
  6
SLD-Solid
 62
     7
370
    25
100
AcDbLine
 10
46.56000778472666
 20
36.46090815294075
 30
0.0
 11
46.56000778769052
 21
36.33863377445778
 31
0.0
  0
ARC
  5
2B9
330
1F
100
AcDbEntity
  8
0
  6
SLD-Solid
 62
     7
370
    25
100
AcDbCircle
 10
46.51000778769058
 20
36.33863377324581
 30
0.0
 40
0.0499999999999524
100
AcDbArc
 50
340.0543137386688
 51
0.0000013888184628
  0
LINE
  5
2BA
330
1F
100
AcDbEntity
  8
0
  6
SLD-Solid
 62
     7
370
    25
100
AcDbLine
 10
46.5570086085776
 20
36.32157731300516
 30
0.0
 11
46.48800697223932
 21
36.13143624594348
 31
0.0
  0
ARC
  5
2BB
330
1F
100
AcDbEntity
  8
0
  6
SLD-Solid
 62
     7
370
    25
100
AcDbCircle
 10
46.53500779312643
 20
36.11437978570284
 30
0.0
 40
0.0500000000000302
100
AcDbArc
 50
160.054313738709
 51
180.00000138886
  0
LINE
  5
2BC
330
1F
100
AcDbEntity
  8
0
  6
SLD-Solid
 62
     7
370
    25
100
AcDbLine
 10
46.48500779312641
 20
36.11437978449084
 30
0.0
 11
46.48500781616502
 21
35.1639343211255
 31
0.0
  0
ARC
  5
2BD
330
1F
100
AcDbEntity
  8
0
  6
SLD-Solid
 62
     7
370
    25
100
AcDbCircle
 10
46.51000781616494
 20
35.16393432173149
 30
0.0
 40
0.0249999999999986
100
AcDbArc
 50
180.0000013888356
 51
0.0000013888347473
  0
LINE
  5
2BE
330
1F
100
AcDbEntity
  8
0
  6
SLD-Solid
 62
     7
370
    25
100
AcDbLine
 10
46.53500781616494
 20
35.16393432233748
 30
0.0
 11
46.53500779333955
 21
36.10558786966715
 31
0.0
  0
ARC
  5
2BF
330
1F
100
AcDbEntity
  8
0
  6
SLD-Solid
 62
     7
370
    25
100
AcDbCircle
 10
46.58500779333955
 20
36.10558787087911
 30
0.0
 40
0.050000000000004
100
AcDbArc
 50
160.0543137386721
 51
180.0000013888111
  0
LINE
  5
2C0
330
1F
100
AcDbEntity
  8
0
  6
SLD-Solid
 62
     7
370
    25
100
AcDbLine
 10
46.53800697245247
 20
36.12264433111977
 30
0.0
 11
46.60700860879073
 21
36.31278539818145
 31
0.0
  0
ARC
  5
2C1
330
1F
100
AcDbEntity
  8
0
  6
SLD-Solid
 62
     7
370
    25
100
AcDbCircle
 10
46.56000778790366
 20
36.3298418584221
 30
0.0
 40
0.0499999999999858
100
AcDbArc
 50
340.0543137386827
 51
0.0000013888184628
  0
LINE
  5
2C2
330
1F
100
AcDbEntity
  8
0
  6
SLD-Solid
 62
     7
370
    25
100
AcDbLine
 10
46.61000778790365
 20
36.32984185963407
 30
0.0
 11
46.61000778472663
 21
36.46090815415273
 31
0.0
  0
ARC
  5
2C3
330
1F
100
AcDbEntity
  8
0
  6
SLD-Solid
 62
     7
370
    25
100
AcDbCircle
 10
46.74750778472664
 20
36.46090815748572
 30
0.0
 40
0.1375000000000171
100
AcDbArc
 50
0.0000013888377081
 51
180.0000013888474
  0
LINE
  5
2C4
330
1F
100
AcDbEntity
  8
0
  6
SLD-Solid
 62
     7
370
    25
100
AcDbLine
 10
46.88500778472662
 20
36.46090816081869
 30
0.0
 11
46.88500781616501
 21
35.16393433082143
 31
0.0
  0
ARC
  5
2C5
330
1F
100
AcDbEntity
  8
0
  6
SLD-Solid
 62
     7
370
    25
100
AcDbCircle
 10
46.91000781616503
 20
35.16393433142742
 30
0.0
 40
0.0250000000000554
100
AcDbArc
 50
180.0000013888193
 51
0.0000013888510317
  0
LINE
  5
2C6
330
1F
100
AcDbEntity
  8
0
  6
SLD-Solid
 62
     7
370
    25
100
AcDbLine
 10
46.93500781616508
 20
35.16393433203342
 30
0.0
 11
46.93500778472665
 21
36.46090816203066
 31
0.0
  0
ARC
  5
2C7
330
1F
100
AcDbEntity
  8
0
  6
SLD-Solid
 62
     7
370
    25
100
AcDbCircle
 10
46.74750778472664
 20
36.46090815748572
 30
0.0
 40
0.1875000000000072
100
AcDbArc
 50
0.0000013888304047
 51
59.4537049225242
  0
LINE
  5
2C8
330
1F
100
AcDbEntity
  8
0
  6
SLD-Solid
 62
     7
370
    25
100
AcDbLine
 10
46.84280173376794
 20
36.62238668013224
 30
0.0
 11
46.84280172510654
 21
36.97970815979561
 31
0.0
  0
ARC
  5
2C9
330
1F
100
AcDbEntity
  8
0
  6
SLD-Solid
 62
     7
370
    25
100
AcDbCircle
 10
46.74750778472666
 20
36.97970815748571
 30
0.0
 40
0.0952939403799107
100
AcDbArc
 50
0.0000013888323549
 51
180.0000013888417
  0
LINE
  5
2CA
330
1F
100
AcDbEntity
  8
0
  6
SLD-Solid
 62
     7
370
    25
100
AcDbLine
 10
46.65380778472653
 20
20.97970815748573
 30
0.0
 11
46.65380778472653
 21
20.62331677794653
 31
0.0
  0
ARC
  5
2CB
330
1F
100
AcDbEntity
  8
0
  6
SLD-Solid
 62
     7
370
    25
100
AcDbCircle
 10
46.74750778472654
 20
20.46090815748573
 30
0.0
 40
0.1874999999999651
100
AcDbArc
 50
119.9823590430245
 51
60.01764095698845
  0
LINE
  5
2CC
330
1F
100
AcDbEntity
  8
0
  6
SLD-Solid
 62
     7
370
    25
100
AcDbLine
 10
46.84120778472651
 20
20.62331677794657
 30
0.0
 11
46.84120778472655
 21
20.97970815748567
 31
0.0
  0
ARC
  5
2CD
330
1F
100
AcDbEntity
  8
0
  6
SLD-Solid
 62
     7
370
    25
100
AcDbCircle
 10
46.74750778472654
 20
20.9797081574857
 30
0.0
 40
0.0937000000000126
100
AcDbArc
 50
359.9999999999834
 51
179.9999999999774
  0
LINE
  5
2CE
330
1F
100
AcDbEntity
  8
0
  6
SLD-Solid
 62
     7
370
    25
100
AcDbLine
 10
31.10944653494862
 20
18.63119709122103
 30
0.0
 11
31.03444653494868
 21
18.63119709122105
 31
0.0
  0
SPLINE
  5
2CF
330
1F
100
AcDbEntity
  8
0
  6
SLD-Solid
 62
     7
370
    25
100
AcDbSpline
210
0.0
220
0.0
230
1.0
 70
    12
 71
     3
 72
    11
 73
     7
 74
     0
 42
0.00000001
 43
0.00000001
 40
0.0
 40
0.0
 40
0.0
 40
0.0
 40
0.2499999999999298
 40
0.4999999999999462
 40
0.7499999999998109
 40
1.0
 40
1.0
 40
1.0
 40
1.0
 10
31.03444653494854
 20
42.28977904333438
 30
0.0
 41
1.0
 10
31.0355739029076
 20
42.29054168015165
 30
0.0
 41
1.0
 10
31.03782863882574
 20
42.2920669537862
 30
0.0
 41
1.0
 10
31.05517232980993
 20
42.29435486423802
 30
0.0
 41
1.0
 10
31.07996320009219
 20
42.29664277468986
 30
0.0
 41
1.0
 10
31.09961875666314
 20
42.29816804832443
 30
0.0
 41
1.0
 10
31.10944653494862
 20
42.29893068514171
 30
0.0
 41
1.0
  0
LINE
  5
2D0
330
1F
100
AcDbEntity
  8
0
  6
SLD-Solid
 62
     7
370
    25
100
AcDbLine
 10
31.0344465349487
 20
18.63119709122104
 30
0.0
 11
31.03444653494858
 21
42.2897790433344
 31
0.0
  0
LINE
  5
2D1
330
1F
100
AcDbEntity
  8
0
  6
SLD-Solid
 62
     7
370
    25
100
AcDbLine
 10
31.351539715328
 20
20.97970815748574
 30
0.0
 11
31.35153971532804
 21
20.62331677794661
 31
0.0
  0
ARC
  5
2D2
330
1F
100
AcDbEntity
  8
0
  6
SLD-Solid
 62
     7
370
    25
100
AcDbCircle
 10
31.44523971532801
 20
20.46090815748574
 30
0.0
 40
0.1874999999999918
100
AcDbArc
 50
119.9823590430018
 51
60.01764095699196
  0
LINE
  5
2D3
330
1F
100
AcDbEntity
  8
0
  6
SLD-Solid
 62
     7
370
    25
100
AcDbLine
 10
31.53893971532798
 20
20.62331677794658
 30
0.0
 11
31.53893971532801
 21
20.97970815748578
 31
0.0
  0
ARC
  5
2D4
330
1F
100
AcDbEntity
  8
0
  6
SLD-Solid
 62
     7
370
    25
100
AcDbCircle
 10
31.44523971532796
 20
20.97970815748576
 30
0.0
 40
0.0937000000000445
100
AcDbArc
 50
0.0000000000198095
 51
180.0000000000138
  0
LINE
  5
2D5
330
1F
100
AcDbEntity
  8
0
  6
SLD-Solid
 62
     7
370
    25
100
AcDbLine
 10
31.34994577494795
 20
36.97970815979566
 30
0.0
 11
31.3499457662866
 21
36.6223866801323
 31
0.0
  0
ARC
  5
2D6
330
1F
100
AcDbEntity
  8
0
  6
SLD-Solid
 62
     7
370
    25
100
AcDbCircle
 10
31.44523971532788
 20
36.46090815748577
 30
0.0
 40
0.1874999999999752
100
AcDbArc
 50
120.5462950774691
 51
179.9999986111652
  0
LINE
  5
2D7
330
1F
100
AcDbEntity
  8
0
  6
SLD-Solid
 62
     7
370
    25
100
AcDbLine
 10
31.2577397153279
 20
36.46090816203072
 30
0.0
 11
31.25773968388954
 21
35.16393433203347
 31
0.0
  0
ARC
  5
2D8
330
1F
100
AcDbEntity
  8
0
  6
SLD-Solid
 62
     7
370
    25
100
AcDbCircle
 10
31.28273968388947
 20
35.16393433142751
 30
0.0
 40
0.0249999999999737
100
AcDbArc
 50
179.9999986112467
 51
359.9999986111661
  0
LINE
  5
2D9
330
1F
100
AcDbEntity
  8
0
  6
SLD-Solid
 62
     7
370
    25
100
AcDbLine
 10
31.30773968388944
 20
35.16393433082152
 30
0.0
 11
31.30773971532783
 21
36.46090816081873
 31
0.0
  0
ARC
  5
2DA
330
1F
100
AcDbEntity
  8
0
  6
SLD-Solid
 62
     7
370
    25
100
AcDbCircle
 10
31.44523971532788
 20
36.46090815748577
 30
0.0
 40
0.1375000000000419
100
AcDbArc
 50
359.9999986111571
 51
179.9999986111682
  0
LINE
  5
2DB
330
1F
100
AcDbEntity
  8
0
  6
SLD-Solid
 62
     7
370
    25
100
AcDbLine
 10
31.58273971532786
 20
36.46090815415278
 30
0.0
 11
31.58273971215086
 21
36.32984185963414
 31
0.0
  0
ARC
  5
2DC
330
1F
100
AcDbEntity
  8
0
  6
SLD-Solid
 62
     7
370
    25
100
AcDbCircle
 10
31.63273971215084
 20
36.32984185842216
 30
0.0
 40
0.0500000000000226
100
AcDbArc
 50
179.9999986111652
 51
199.9456862613037
  0
LINE
  5
2DD
330
1F
100
AcDbEntity
  8
0
  6
SLD-Solid
 62
     7
370
    25
100
AcDbLine
 10
31.58573889126374
 20
36.31278539818151
 30
0.0
 11
31.65474052760204
 21
36.12264433111981
 31
0.0
  0
ARC
  5
2DE
330
1F
100
AcDbEntity
  8
0
  6
SLD-Solid
 62
     7
370
    25
100
AcDbCircle
 10
31.60773970671498
 20
36.10558787087918
 30
0.0
 40
0.0499999999999972
100
AcDbArc
 50
359.9999986111661
 51
19.94568626130423
  0
LINE
  5
2DF
330
1F
100
AcDbEntity
  8
0
  6
SLD-Solid
 62
     7
370
    25
100
AcDbLine
 10
31.65773970671497
 20
36.10558786966719
 30
0.0
 11
31.65773968388963
 21
35.16393432233754
 31
0.0
  0
ARC
  5
2E0
330
1F
100
AcDbEntity
  8
0
  6
SLD-Solid
 62
     7
370
    25
100
AcDbCircle
 10
31.68273968388958
 20
35.16393432173154
 30
0.0
 40
0.0249999999999524
100
AcDbArc
 50
179.999998611149
 51
359.9999986111498
  0
LINE
  5
2E1
330
1F
100
AcDbEntity
  8
0
  6
SLD-Solid
 62
     7
370
    25
100
AcDbLine
 10
31.7077396838895
 20
35.16393432112554
 30
0.0
 11
31.70773970692809
 21
36.11437978449089
 31
0.0
  0
ARC
  5
2E2
330
1F
100
AcDbEntity
  8
0
  6
SLD-Solid
 62
     7
370
    25
100
AcDbCircle
 10
31.65773970692808
 20
36.11437978570287
 30
0.0
 40
0.0500000000000508
100
AcDbArc
 50
359.9999986111742
 51
19.94568626130846
  0
LINE
  5
2E3
330
1F
100
AcDbEntity
  8
0
  6
SLD-Solid
 62
     7
370
    25
100
AcDbLine
 10
31.70474052781521
 20
36.13143624594353
 30
0.0
 11
31.63573889147687
 21
36.32157731300521
 31
0.0
  0
ARC
  5
2E4
330
1F
100
AcDbEntity
  8
0
  6
SLD-Solid
 62
     7
370
    25
100
AcDbCircle
 10
31.68273971236398
 20
36.33863377324585
 30
0.0
 40
0.0500000000000201
100
AcDbArc
 50
179.9999986111978
 51
199.945686261296
  0
LINE
  5
2E5
330
1F
100
AcDbEntity
  8
0
  6
SLD-Solid
 62
     7
370
    25
100
AcDbLine
 10
31.63273971236399
 20
36.33863377445781
 30
0.0
 11
31.63273971532788
 21
36.46090815294078
 31
0.0
  0
ARC
  5
2E6
330
1F
100
AcDbEntity
  8
0
  6
SLD-Solid
 62
     7
370
    25
100
AcDbCircle
 10
31.44523971532788
 20
36.46090815748577
 30
0.0
 40
0.1875000000000072
100
AcDbArc
 50
359.9999986111552
 51
59.45371106898838
  0
LINE
  5
2E7
330
1F
100
AcDbEntity
  8
0
  6
SLD-Solid
 62
     7
370
    25
100
AcDbLine
 10
31.5405336470464
 20
36.62238669035506
 30
0.0
 11
31.54053365570783
 21
36.97970815517586
 31
0.0
  0
ARC
  5
2E8
330
1F
100
AcDbEntity
  8
0
  6
SLD-Solid
 62
     7
370
    25
100
AcDbCircle
 10
31.44523971532782
 20
36.97970815748575
 30
0.0
 40
0.0952939403800066
100
AcDbArc
 50
359.9999986111727
 51
179.9999986111548
  0
LINE
  5
2E9
330
1F
100
AcDbEntity
  8
0
  6
SLD-Solid
 62
     7
370
    25
100
AcDbLine
 10
31.10944653494863
 20
42.29893068514171
 30
0.0
 11
31.11461127351864
 21
42.29951046099257
 31
0.0
  0
LINE
  5
2EA
330
1F
100
AcDbEntity
  8
0
  6
SLD-Solid
 62
     7
370
    25
100
AcDbLine
 10
31.61713053691163
 20
41.8375014539609
 30
0.0
 11
31.11461127351864
 21
42.29951046099257
 31
0.0
  0
LINE
  5
2EB
330
1F
100
AcDbEntity
  8
0
  6
SLD-Solid
 62
     7
370
    25
100
AcDbLine
 10
31.92868437026826
 20
39.06212870020603
 30
0.0
 11
31.61713053691163
 21
41.8375014539609
 31
0.0
  0
LINE
  5
2EC
330
1F
100
AcDbEntity
  8
0
  6
SLD-Solid
 62
     7
370
    25
100
AcDbLine
 10
31.92868437026834
 20
20.255980742774
 30
0.0
 11
31.92868437026826
 21
39.06212870020603
 31
0.0
  0
ARC
  5
2ED
330
1F
100
AcDbEntity
  8
0
  6
SLD-Solid
 62
     7
370
    25
100
AcDbCircle
 10
31.87868437026836
 20
20.25598074277398
 30
0.0
 40
0.0499999999999758
100
AcDbArc
 50
342.6310986111595
 51
0.000000000026664
  0
LINE
  5
2EE
330
1F
100
AcDbEntity
  8
0
  6
SLD-Solid
 62
     7
370
    25
100
AcDbLine
 10
31.43383574711372
 20
18.66627095061124
 30
0.0
 11
31.92640449523143
 21
20.24105460216418
 31
0.0
  0
ARC
  5
2EF
330
1F
100
AcDbEntity
  8
0
  6
SLD-Solid
 62
     7
370
    25
100
AcDbCircle
 10
31.3861156221506
 20
18.68119709122106
 30
0.0
 40
0.0500000000000256
100
AcDbArc
 50
269.9999999999479
 51
342.6310986111505
  0
LINE
  5
2F0
330
1F
100
AcDbEntity
  8
0
  6
SLD-Solid
 62
     7
370
    25
100
AcDbLine
 10
31.10944653494862
 20
18.63119709122103
 30
0.0
 11
31.38611562215055
 21
18.63119709122104
 31
0.0
  0
LINE
  5
2F1
330
1F
100
AcDbEntity
  8
0
  6
SLD-Solid
 62
     7
370
    25
100
AcDbLine
 10
47.15830096510584
 20
18.63119709122097
 30
0.0
 11
47.08330096510587
 21
18.63119709122099
 31
0.0
  0
LINE
  5
2F2
330
1F
100
AcDbEntity
  8
0
  6
SLD-Solid
 62
     7
370
    25
100
AcDbLine
 10
47.15830096510584
 20
18.63119709122098
 30
0.0
 11
47.15830096510599
 21
42.28977904333435
 31
0.0
  0
LINE
  5
2F3
330
1F
100
AcDbEntity
  8
0
  6
SLD-Solid
 62
     7
370
    25
100
AcDbLine
 10
46.55123954574387
 20
41.86908646172658
 30
0.0
 11
47.05131470795253
 21
42.30293975597872
 31
0.0
  0
LINE
  5
2F4
330
1F
100
AcDbEntity
  8
0
  6
SLD-Solid
 62
     7
370
    25
100
AcDbLine
 10
31.64150795431075
 20
41.8690864617266
 30
0.0
 11
46.55123954574387
 21
41.86908646172658
 31
0.0
  0
LINE
  5
2F5
330
1F
100
AcDbEntity
  8
0
  6
SLD-Solid
 62
     7
370
    25
100
AcDbLine
 10
31.14143279210201
 20
42.30293975597873
 30
0.0
 11
31.64150795431075
 21
41.8690864617266
 31
0.0
  0
LINE
  5
2F6
330
1F
100
AcDbEntity
  8
0
  6
SLD-Solid
 62
     7
370
    25
100
AcDbLine
 10
31.14143279210197
 20
42.30293975597873
 30
0.0
 11
31.12632375006573
 21
42.32183055071675
 31
0.0
  0
LINE
  5
2F7
330
1F
100
AcDbEntity
  8
0
  6
SLD-Solid
 62
     7
370
    25
100
AcDbLine
 10
31.12632375006572
 20
42.32183055071675
 30
0.0
 11
31.12632375006566
 21
42.38264249545784
 31
0.0
  0
LINE
  5
2F8
330
1F
100
AcDbEntity
  8
0
  6
SLD-Solid
 62
     7
370
    25
100
AcDbLine
 10
47.15830096510587
 20
18.58119709122096
 30
0.0
 11
47.15830096510584
 21
12.40522279280558
 31
0.0
  0
LINE
  5
2F9
330
1F
100
AcDbEntity
  8
0
  6
SLD-Solid
 62
     7
370
    25
100
AcDbLine
 10
47.12330096510585
 20
18.58119709122099
 30
0.0
 11
47.12330096510583
 21
12.40522279280559
 31
0.0
  0
LINE
  5
2FA
330
1F
100
AcDbEntity
  8
0
  6
SLD-Solid
 62
     7
370
    25
100
AcDbLine
 10
31.06944653494863
 20
12.40522279280558
 30
0.0
 11
31.06944653494869
 21
18.58119709122101
 31
0.0
  0
LINE
  5
2FB
330
1F
100
AcDbEntity
  8
0
  6
SLD-Solid
 62
     7
370
    25
100
AcDbLine
 10
31.03444653494871
 20
12.4052227928056
 30
0.0
 11
31.03444653494869
 21
18.58119709122103
 31
0.0
  0
LINE
  5
2FC
330
1F
100
AcDbEntity
  8
0
  6
SLD-Solid
 62
     7
370
    25
100
AcDbLine
 10
31.6708049874012
 20
41.35936062720027
 30
0.0
 11
32.95167908912496
 21
40.08648153418422
 31
0.0
  0
ARC
  5
2FD
330
1F
100
AcDbEntity
  8
0
  6
SLD-Solid
 62
     7
370
    25
100
AcDbCircle
 10
32.91678994978755
 20
40.05131982122368
 30
0.0
 40
0.0495338076673333
100
AcDbArc
 50
0.0312959234968866
 51
45.22294146155465
  0
LINE
  5
2FE
330
1F
100
AcDbEntity
  8
0
  6
SLD-Solid
 62
     7
370
    25
100
AcDbLine
 10
32.96632375006561
 20
40.05134687742557
 30
0.0
 11
32.96632375006575
 21
12.26059298909843
 31
0.0
  0
LINE
  5
2FF
330
1F
100
AcDbEntity
  8
0
  6
SLD-Solid
 62
     7
370
    25
100
AcDbLine
 10
47.09430096510579
 20
12.16121717290357
 30
0.0
 11
45.32642374998878
 21
12.16121717290359
 31
0.0
  0
ARC
  5
300
330
1F
100
AcDbEntity
  8
0
  6
SLD-Solid
 62
     7
370
    25
100
AcDbCircle
 10
45.32611263209978
 20
12.26090606113243
 30
0.0
 40
0.099689373709749
100
AcDbArc
 50
180.1799362866018
 51
270.1788131497283
  0
LINE
  5
301
330
1F
100
AcDbEntity
  8
0
  6
SLD-Solid
 62
     7
370
    25
100
AcDbLine
 10
45.22642374998877
 20
12.2605929890984
 30
0.0
 11
45.22642374998888
 21
40.05134687742553
 31
0.0
  0
ARC
  5
302
330
1F
100
AcDbEntity
  8
0
  6
SLD-Solid
 62
     7
370
    25
100
AcDbCircle
 10
45.2759575502674
 20
40.05131982122343
 30
0.0
 40
0.0495338076678024
100
AcDbArc
 50
134.7770585386392
 51
179.9687040762651
  0
LINE
  5
303
330
1F
100
AcDbEntity
  8
0
  6
SLD-Solid
 62
     7
370
    25
100
AcDbLine
 10
45.24106841092954
 20
40.08648153418418
 30
0.0
 11
46.52194251265328
 21
41.35936062720028
 31
0.0
  0
SPLINE
  5
304
330
1F
100
AcDbEntity
  8
0
  6
SLD-Solid
 62
     7
370
    25
100
AcDbSpline
210
0.0
220
0.0
230
1.0
 70
    12
 71
     3
 72
     9
 73
     5
 74
     0
 42
0.00000001
 43
0.00000001
 40
0.0
 40
0.0
 40
0.0
 40
0.0
 40
0.4677015210007506
 40
1.0
 40
1.0
 40
1.0
 40
1.0
 10
47.10218563909674
 20
12.16133904099318
 30
0.0
 41
1.0
 10
47.10648408889067
 20
12.1696981799152
 30
0.0
 41
1.0
 10
47.11567467220273
 20
12.18757098670901
 30
0.0
 41
1.0
 10
47.11816645614319
 20
12.20755437511997
 30
0.0
 41
1.0
 10
47.11949282894469
 20
12.21819150237637
 30
0.0
 41
1.0
  0
ARC
  5
305
330
1F
100
AcDbEntity
  8
0
  6
SLD-Solid
 62
     7
370
    25
100
AcDbCircle
 10
47.09435938646047
 20
12.41256134876992
 30
0.0
 40
0.2513441826559717
100
AcDbArc
 50
269.9866824167133
 51
271.7843410253158
  0
LINE
  5
306
330
1F
100
AcDbEntity
  8
0
  6
SLD-Solid
 62
     7
370
    25
100
AcDbLine
 10
47.11949282894471
 20
12.21819150237634
 30
0.0
 11
47.12330096510581
 21
12.40522279280556
 31
0.0
  0
ARC
  5
307
330
1F
100
AcDbEntity
  8
0
  6
SLD-Solid
 62
     7
370
    25
100
AcDbCircle
 10
31.09831760506831
 20
12.71200331220655
 30
0.0
 40
0.5546906102749598
100
AcDbArc
 50
268.2156589749785
 51
270.0133175826801
  0
SPLINE
  5
308
330
1F
100
AcDbEntity
  8
0
  6
SLD-Solid
 62
     7
370
    25
100
AcDbSpline
210
0.0
220
0.0
230
1.0
 70
    12
 71
     3
 72
     9
 73
     5
 74
     0
 42
0.00000001
 43
0.00000001
 40
0.0
 40
0.0
 40
0.0
 40
0.0
 40
0.479031653975854
 40
1.0
 40
1.0
 40
1.0
 40
1.0
 10
31.07325467110982
 20
12.21819150237635
 30
0.0
 41
1.0
 10
31.07444094621835
 20
12.20863537132974
 30
0.0
 41
1.0
 10
31.0769173485577
 20
12.18868652041916
 30
0.0
 41
1.0
 10
31.08588828633936
 20
12.17070621234938
 30
0.0
 41
1.0
 10
31.09056186095777
 20
12.16133904099326
 30
0.0
 41
1.0
  0
LINE
  5
309
330
1F
100
AcDbEntity
  8
0
  6
SLD-Solid
 62
     7
370
    25
100
AcDbLine
 10
31.06944653494865
 20
12.4052227928056
 30
0.0
 11
31.07325467110983
 21
12.21819150237635
 31
0.0
  0
LINE
  5
30A
330
1F
100
AcDbEntity
  8
0
  6
SLD-Solid
 62
     7
370
    25
100
AcDbLine
 10
45.32642374998878
 20
12.16121717290359
 30
0.0
 11
45.32642374998876
 21
12.15731271691549
 31
0.0
  0
LINE
  5
30B
330
1F
100
AcDbEntity
  8
0
  6
SLD-Solid
 62
     7
370
    25
100
AcDbLine
 10
32.86632375006577
 20
12.15731271691556
 30
0.0
 11
31.09844653494866
 21
12.15731271691554
 31
0.0
  0
LINE
  5
30C
330
1F
100
AcDbEntity
  8
0
  6
SLD-Solid
 62
     7
370
    25
100
AcDbLine
 10
31.12632375006572
 20
42.32183055071675
 30
0.0
 11
31.12632375006566
 21
42.31520945826259
 31
0.0
  0
LINE
  5
30D
330
1F
100
AcDbEntity
  8
0
  6
SLD-Solid
 62
     7
370
    25
100
AcDbLine
 10
31.08104587510665
 20
12.15758166718235
 30
0.0
 11
31.09056186095777
 21
12.16133904099326
 31
0.0
  0
LINE
  5
30E
330
1F
100
AcDbEntity
  8
0
  6
SLD-Solid
 62
     7
370
    25
100
AcDbLine
 10
32.96632375006575
 20
12.26059298909843
 30
0.0
 11
32.96632375006576
 21
12.25668853311038
 31
0.0
  0
ARC
  5
30F
330
1F
100
AcDbEntity
  8
0
  6
SLD-Solid
 62
     7
370
    25
100
AcDbCircle
 10
32.86663486795486
 20
12.25700160514428
 30
0.0
 40
0.0996893737096321
100
AcDbArc
 50
269.8211868502199
 51
359.8200637134731
  0
LINE
  5
310
330
1F
100
AcDbEntity
  8
0
  6
SLD-Solid
 62
     7
370
    25
100
AcDbLine
 10
45.22642374998877
 20
12.2605929890984
 30
0.0
 11
45.22642374998875
 21
12.25668853311035
 31
0.0
  0
ARC
  5
311
330
1F
100
AcDbEntity
  8
0
  6
SLD-Solid
 62
     7
370
    25
100
AcDbCircle
 10
45.3261126320997
 20
12.25700160514425
 30
0.0
 40
0.0996893737096818
100
AcDbArc
 50
180.1799362865285
 51
270.1788131497653
  0
LINE
  5
312
330
1F
100
AcDbEntity
  8
0
  6
SLD-Solid
 62
     7
370
    25
100
AcDbLine
 10
47.15830096510583
 20
18.58119709122101
 30
0.0
 11
47.15830096510584
 21
18.631197091221
 31
0.0
  0
LINE
  5
313
330
1F
100
AcDbEntity
  8
0
  6
SLD-Solid
 62
     7
370
    25
100
AcDbLine
 10
47.12330096510584
 20
18.581197091221
 30
0.0
 11
47.12330096510586
 21
18.631197091221
 31
0.0
  0
LINE
  5
314
330
1F
100
AcDbEntity
  8
0
  6
SLD-Solid
 62
     7
370
    25
100
AcDbLine
 10
31.06944653494866
 20
18.63119709122106
 30
0.0
 11
31.0694465349487
 21
18.58119709122102
 31
0.0
  0
LINE
  5
315
330
1F
100
AcDbEntity
  8
0
  6
SLD-Solid
 62
     7
370
    25
100
AcDbLine
 10
31.0344465349487
 20
18.63119709122104
 30
0.0
 11
31.0344465349487
 21
18.58119709122103
 31
0.0
  0
ARC
  5
316
330
1F
100
AcDbEntity
  8
0
  6
SLD-Solid
 62
     7
370
    25
100
AcDbCircle
 10
47.09450008055493
 20
42.31408324662358
 30
0.0
 40
0.0638011991742122
100
AcDbArc
 50
0.179936286583007
 51
90.1788131497519
  0
LINE
  5
317
330
1F
100
AcDbEntity
  8
0
  6
SLD-Solid
 62
     7
370
    25
100
AcDbLine
 10
47.15830096510592
 20
42.28977904333436
 30
0.0
 11
47.15830096510595
 21
42.31428361272533
 31
0.0
  0
LINE
  5
318
330
1F
100
AcDbEntity
  8
0
  6
SLD-Solid
 62
     7
370
    25
100
AcDbLine
 10
31.03444653494858
 20
42.31428361272534
 30
0.0
 11
31.03444653494862
 21
42.2897790433344
 31
0.0
  0
ARC
  5
319
330
1F
100
AcDbEntity
  8
0
  6
SLD-Solid
 62
     7
370
    25
100
AcDbCircle
 10
31.09824741949963
 20
42.31408324662355
 30
0.0
 40
0.0638011991742451
100
AcDbArc
 50
89.82118685026097
 51
179.8200637133852
  0
LINE
  5
31A
330
1F
100
AcDbEntity
  8
0
  6
SLD-Solid
 62
     7
370
    25
100
AcDbLine
 10
47.09430096510594
 20
42.37788413509
 30
0.0
 11
47.06642374998891
 21
42.37788413509001
 31
0.0
  0
LINE
  5
31B
330
1F
100
AcDbEntity
  8
0
  6
SLD-Solid
 62
     7
370
    25
100
AcDbLine
 10
31.12632375006564
 20
42.37788413509001
 30
0.0
 11
31.0984465349486
 21
42.37788413509001
 31
0.0
  0
LINE
  5
31C
330
1F
100
AcDbEntity
  8
0
  6
SLD-Solid
 62
     7
370
    25
100
AcDbLine
 10
46.52698525751576
 20
41.40428222724819
 30
0.0
 11
45.22035773284927
 21
40.10581045998468
 31
0.0
  0
ARC
  5
31D
330
1F
100
AcDbEntity
  8
0
  6
SLD-Solid
 62
     7
370
    25
100
AcDbCircle
 10
45.18502928111154
 20
40.14141424468561
 30
0.0
 40
0.0501570432463393
100
AcDbArc
 50
269.969285866481
 51
314.7775998852626
  0
LINE
  5
31E
330
1F
100
AcDbEntity
  8
0
  6
SLD-Solid
 62
     7
370
    25
100
AcDbLine
 10
45.18500239378995
 20
40.09125720864591
 30
0.0
 11
33.00774510626459
 21
40.09125720864592
 31
0.0
  0
ARC
  5
31F
330
1F
100
AcDbEntity
  8
0
  6
SLD-Solid
 62
     7
370
    25
100
AcDbCircle
 10
33.00771821894302
 20
40.14141424468579
 30
0.0
 40
0.0501570432465162
100
AcDbArc
 50
225.2224001148358
 51
270.0307141335043
  0
LINE
  5
320
330
1F
100
AcDbEntity
  8
0
  6
SLD-Solid
 62
     7
370
    25
100
AcDbLine
 10
32.97238976720522
 20
40.10581045998468
 30
0.0
 11
31.66576224253872
 21
41.40428222724825
 31
0.0
  0
LINE
  5
321
330
1F
100
AcDbEntity
  8
0
  6
SLD-Solid
 62
     7
370
    25
100
AcDbLine
 10
33.00774510626459
 20
40.09125720864592
 30
0.0
 11
33.00774510626459
 21
40.08735275265787
 31
0.0
  0
LINE
  5
322
330
1F
100
AcDbEntity
  8
0
  6
SLD-Solid
 62
     7
370
    25
100
AcDbLine
 10
45.18500239378995
 20
40.09125720864591
 30
0.0
 11
45.18500239378994
 21
40.0873527526579
 31
0.0
  0
LINE
  5
323
330
1F
100
AcDbEntity
  8
0
  6
SLD-Solid
 62
     7
370
    25
100
AcDbLine
 10
45.18500239378994
 20
40.0873527526579
 30
0.0
 11
33.00774510626459
 21
40.08735275265787
 31
0.0
  0
LINE
  5
324
330
1F
100
AcDbEntity
  8
0
  6
SLD-Solid
 62
     7
370
    25
100
AcDbLine
 10
45.22035773284927
 20
40.10581045998468
 30
0.0
 11
45.22035773284931
 21
40.10190600399665
 31
0.0
  0
LINE
  5
325
330
1F
100
AcDbEntity
  8
0
  6
SLD-Solid
 62
     7
370
    25
100
AcDbLine
 10
46.52649192221156
 20
41.39988751527504
 30
0.0
 11
45.22035773284931
 21
40.10190600399665
 31
0.0
  0
LINE
  5
326
330
1F
100
AcDbEntity
  8
0
  6
SLD-Solid
 62
     7
370
    25
100
AcDbLine
 10
32.97238976720522
 20
40.10581045998468
 30
0.0
 11
32.97238976720521
 21
40.10190600399664
 31
0.0
  0
LINE
  5
327
330
1F
100
AcDbEntity
  8
0
  6
SLD-Solid
 62
     7
370
    25
100
AcDbLine
 10
32.97238976720521
 20
40.10190600399664
 30
0.0
 11
31.66625557784292
 21
41.39988751527511
 31
0.0
  0
ARC
  5
328
330
1F
100
AcDbEntity
  8
0
  6
SLD-Solid
 62
     7
370
    25
100
AcDbCircle
 10
45.18502928111175
 20
40.13750978869722
 30
0.0
 40
0.0501570432459693
100
AcDbArc
 50
269.9692858662291
 51
314.7775998853987
  0
ARC
  5
329
330
1F
100
AcDbEntity
  8
0
  6
SLD-Solid
 62
     7
370
    25
100
AcDbCircle
 10
33.00771821894306
 20
40.13750978869783
 30
0.0
 40
0.050157043246606
100
AcDbArc
 50
225.2224001148583
 51
270.0307141334555
  0
CIRCLE
  5
32A
330
1F
100
AcDbEntity
  8
0
  6
SLD-Solid
 62
     7
370
    25
100
AcDbCircle
 10
31.80674605930263
 20
12.36321901238215
 30
0.0
 40
0.1263857307649761
  0
CIRCLE
  5
32B
330
1F
100
AcDbEntity
  8
0
  6
SLD-Solid
 62
     7
370
    25
100
AcDbCircle
 10
31.30284605930253
 20
12.84906737775871
 30
0.0
 40
0.1263857307649784
  0
LINE
  5
32C
330
1F
100
AcDbEntity
  8
0
  6
SLD-Solid
 62
     7
370
    25
100
AcDbLine
 10
31.08012375002732
 20
12.10458275433507
 30
0.0
 11
31.08012375002732
 21
12.15843580552677
 31
0.0
  0
LINE
  5
32D
330
1F
100
AcDbEntity
  8
0
  6
SLD-Solid
 62
     7
370
    25
100
AcDbLine
 10
31.08012375002749
 20
12.08679448323614
 30
0.0
 11
31.08012375002749
 21
12.10458275433507
 31
0.0
  0
SPLINE
  5
32E
330
1F
100
AcDbEntity
  8
0
  6
SLD-Solid
 62
     7
370
    25
100
AcDbSpline
210
0.0
220
0.0
230
1.0
 70
    12
 71
     3
 72
     9
 73
     5
 74
     0
 42
0.00000001
 43
0.00000001
 40
0.0
 40
0.0
 40
0.0
 40
0.0
 40
0.0957800048844953
 40
1.0
 40
1.0
 40
1.0
 40
1.0
 10
47.15830096510596
 20
41.96986948208705
 30
0.0
 41
1.0
 10
47.15850898617083
 20
41.97018091128551
 30
0.0
 41
1.0
 10
47.16068084933912
 20
41.97343241663705
 30
0.0
 41
1.0
 10
47.16059834872885
 20
41.97658598149928
 30
0.0
 41
1.0
 10
47.16052375002744
 20
41.9794374979036
 30
0.0
 41
1.0
  0
LINE
  5
32F
330
1F
100
AcDbEntity
  8
0
  6
SLD-Solid
 62
     7
370
    25
100
AcDbLine
 10
47.16052375002748
 20
12.11948912676435
 30
0.0
 11
47.16052375002743
 21
41.9794374979036
 31
0.0
  0
LINE
  5
330
330
1F
100
AcDbEntity
  8
0
  6
SLD-Solid
 62
     7
370
    25
100
AcDbLine
 10
31.03222375002738
 20
41.9794374979036
 30
0.0
 11
31.03444653494856
 21
41.97216841721724
 31
0.0
  0
LINE
  5
331
330
1F
100
AcDbEntity
  8
0
  6
SLD-Solid
 62
     7
370
    25
100
AcDbLine
 10
31.03222375002738
 20
41.9794374979036
 30
0.0
 11
31.03222375002732
 21
12.11948912676435
 31
0.0
  0
LINE
  5
332
330
1F
100
AcDbEntity
  8
0
  6
SLD-Solid
 62
     7
370
    25
100
AcDbLine
 10
31.08012375002749
 20
12.04194901731637
 30
0.0
 11
47.12762375002748
 21
12.04194901731642
 31
0.0
  0
LINE
  5
333
330
1F
100
AcDbEntity
  8
0
  6
SLD-Solid
 62
     7
370
    25
100
AcDbLine
 10
31.08012375002749
 20
12.08679448323614
 30
0.0
 11
31.08012375002749
 21
12.04194901731637
 31
0.0
  0
ARC
  5
334
330
1F
100
AcDbEntity
  8
0
  6
SLD-Solid
 62
     7
370
    25
100
AcDbCircle
 10
47.12772610781288
 20
12.07474666154374
 30
0.0
 40
0.0327978039505381
100
AcDbArc
 50
269.8211868504238
 51
359.8200637133703
  0
LINE
  5
335
330
1F
100
AcDbEntity
  8
0
  6
SLD-Solid
 62
     7
370
    25
100
AcDbLine
 10
47.16052375002743
 20
12.07464366084453
 30
0.0
 11
47.16052375002748
 21
12.11948912676435
 31
0.0
  0
LINE
  5
336
330
1F
100
AcDbEntity
  8
0
  6
SLD-Solid
 62
     7
370
    25
100
AcDbLine
 10
31.03222375002727
 20
12.07464366084452
 30
0.0
 11
31.05012375002727
 21
12.07464366084452
 31
0.0
  0
LINE
  5
337
330
1F
100
AcDbEntity
  8
0
  6
SLD-Solid
 62
     7
370
    25
100
AcDbLine
 10
31.03222375002732
 20
12.11948912676435
 30
0.0
 11
31.03222375002727
 21
12.07464366084452
 31
0.0
  0
LINE
  5
338
330
1F
100
AcDbEntity
  8
0
  6
SLD-Solid
 62
     7
370
    25
100
AcDbLine
 10
31.08121636949648
 20
12.04238724355323
 30
0.0
 11
31.08012375002749
 21
12.04194901731637
 31
0.0
  0
LINE
  5
339
330
1F
100
AcDbEntity
  8
0
  6
SLD-Solid
 62
     7
370
    25
100
AcDbLine
 10
47.12762375002748
 20
12.04194901731642
 30
0.0
 11
47.12653113055848
 21
12.04238724355328
 31
0.0
  0
LINE
  5
33A
330
1F
100
AcDbEntity
  8
0
  6
SLD-Solid
 62
     7
370
    25
100
AcDbLine
 10
31.06423821269446
 20
12.08188389860866
 30
0.0
 11
31.07912375002732
 21
12.08472969035805
 31
0.0
  0
SPLINE
  5
33B
330
1F
100
AcDbEntity
  8
0
  6
SLD-Solid
 62
     7
370
    25
100
AcDbSpline
210
0.0
220
0.0
230
1.0
 70
    12
 71
     3
 72
    11
 73
     7
 74
     0
 42
0.00000001
 43
0.00000001
 40
0.0
 40
0.0
 40
0.0
 40
0.0
 40
0.2499999999998922
 40
0.4999999999996002
 40
0.7499999999993073
 40
1.0
 40
1.0
 40
1.0
 40
1.0
 10
31.05012375002727
 20
12.07464366084452
 30
0.0
 41
1.0
 10
31.05055966563813
 20
12.0754962402396
 30
0.0
 41
1.0
 10
31.05143149685983
 20
12.07720139902976
 30
0.0
 41
1.0
 10
31.05813772404035
 20
12.07996154640384
 30
0.0
 41
1.0
 10
31.06772352721616
 20
12.0830429274276
 30
0.0
 41
1.0
 10
31.07532367575693
 20
12.08549866961335
 30
0.0
 41
1.0
 10
31.07912375002732
 20
12.08672654070622
 30
0.0
 41
1.0
  0
LINE
  5
33C
330
1F
100
AcDbEntity
  8
0
  6
SLD-Solid
 62
     7
370
    25
100
AcDbLine
 10
31.07912375002732
 20
12.08472969035805
 30
0.0
 11
31.07912375002732
 21
12.08672654070622
 31
0.0
  0
LINE
  5
33D
330
1F
100
AcDbEntity
  8
0
  6
SLD-Solid
 62
     7
370
    25
100
AcDbLine
 10
31.07912375002732
 20
12.08472969035805
 30
0.0
 11
31.08012375002748
 21
12.08572344852016
 31
0.0
  0
LINE
  5
33E
330
1F
100
AcDbEntity
  8
0
  6
SLD-Solid
 62
     7
370
    25
100
AcDbLine
 10
47.15830096510596
 20
41.9794374979036
 30
0.0
 11
47.16052375002743
 21
41.9794374979036
 31
0.0
  0
LINE
  5
33F
330
1F
100
AcDbEntity
  8
0
  6
SLD-Solid
 62
     7
370
    25
100
AcDbLine
 10
31.03444653494856
 20
41.9794374979036
 30
0.0
 11
31.03222375002738
 21
41.9794374979036
 31
0.0
  0
LWPOLYLINE
  5
340
330
1F
100
AcDbEntity
  8
0
  6
SLD-Solid
 62
     7
370
    25
100
AcDbPolyline
 90
        3
 70
   128
 43
0.0
 10
47.16052375002743
 20
41.9794374979036
 10
47.1598915857527
 20
41.98581590643771
 10
47.15830096510589
 20
41.9912510412671
  0
LWPOLYLINE
  5
341
330
1F
100
AcDbEntity
  8
0
  6
SLD-Solid
 62
     7
370
    25
100
AcDbPolyline
 90
        3
 70
   128
 43
0.0
 10
31.03444653494858
 20
41.99125104126638
 10
31.03285591430211
 20
41.9858159064377
 10
31.03222375002738
 20
41.9794374979036
  0
LINE
  5
342
330
1F
100
AcDbEntity
  8
0
  6
SLD-Solid
 62
     8
370
    25
100
AcDbLine
 10
31.07912375002732
 20
12.08672654070622
 30
0.0
 11
31.07912375002728
 21
12.15936207720461
 31
0.0
  0
DIMENSION
  5
343
330
1F
100
AcDbEntity
  8
DIMS
100
AcDbDimension
  2
_D_5
 10
31.42057582867465
 20
36.88766127938398
 30
0.0
 11
37.4219227352043
 21
43.41490052527966
 31
0.0
 70
    35
  1
<> mounting hole (4)
 71
     1
 42
-1.0
  3
SLDDIMSTYLE2
100
AcDbDiametricDimension
 15
31.469903601981
 25
37.07175503558752
 35
0.0
 40
0.0
  0
DIMENSION
  5
351
330
1F
100
AcDbEntity
  8
DIMS
100
AcDbDimension
  2
_D_6
 10
46.74750778472667
 20
44.82168232349027
 30
0.0
 11
38.84668392759593
 21
44.82168232349029
 31
0.0
 70
    32
  1
<>
 71
     2
 42
-1.0
  3
SLDDIMSTYLE1
100
AcDbAlignedDimension
 13
31.44523971532782
 23
36.97970815748575
 33
0.0
 14
46.74750778472666
 24
36.97970815748571
 34
0.0
 50
-0.0000000000001064
100
AcDbRotatedDimension
  0
DIMENSION
  5
360
330
1F
100
AcDbEntity
  8
DIMS
100
AcDbDimension
  2
_D_7
 10
48.4129812714591
 20
20.97970815748569
 30
0.0
 11
48.41298127145916
 21
28.81292126729162
 31
0.0
 70
    32
  1
<>
 71
     2
 42
-1.0
  3
SLDDIMSTYLE0
100
AcDbAlignedDimension
 13
46.74750778472666
 23
36.97970815748571
 33
0.0
 14
46.74750778472654
 24
20.9797081574857
 34
0.0
 50
90.0000000000002
100
AcDbRotatedDimension
  0
DIMENSION
  5
36B
330
1F
100
AcDbEntity
  8
DIMS
100
AcDbDimension
  2
_D_8
 10
48.4129812714592
 20
12.04194901731641
 30
0.0
 11
48.41298127145919
 21
15.98291424292883
 31
0.0
 70
    32
  1
<>
 71
     2
 42
-1.0
  3
SLDDIMSTYLE1
100
AcDbAlignedDimension
 13
46.74750778472654
 23
20.9797081574857
 33
0.0
 14
47.12762375002748
 24
12.0419490173164
 34
0.0
 50
90.0000000000002
100
AcDbRotatedDimension
  0
DIMENSION
  5
37A
330
1F
100
AcDbEntity
  8
DIMS
100
AcDbDimension
  2
_D_9
 10
48.41224533565619
 20
36.9797081551758
 30
0.0
 11
48.41224533565619
 21
39.06201333123174
 31
0.0
 70
    32
  1
<>
 71
     2
 42
-1.0
  3
SLDDIMSTYLE1
100
AcDbAlignedDimension
 13
47.06642374998892
 23
42.38264249545786
 33
0.0
 14
46.65221384434674
 24
36.9797081551758
 34
0.0
 50
90.0000000000002
100
AcDbRotatedDimension
  0
MTEXT
  5
389
330
1F
100
AcDbEntity
  8
NOTES
100
AcDbMText
 10
37.75456361064443
 20
11.45971385493969
 30
0.0
 40
0.5
 41
0.0
 71
     1
 72
     1
  1
Back view
  7
SLDTEXTSTYLE1
 73
     1
 44
1.0
  0
MTEXT
  5
38D
330
1F
100
AcDbEntity
  8
NOTES
100
AcDbMText
 10
60.2661315570167
 20
4.98650087456716
 30
0.0
 40
0.2916666666666666
 41
0.0
 71
     1
 72
     1
  1
FROST PRODUCTS LTD.
  7
SLDTEXTSTYLE0
 73
     1
 44
1.0
  0
MTEXT
  5
38E
330
1F
100
AcDbEntity
  8
NOTES
100
AcDbMText
 10
60.2661315570167
 20
4.5610085129417
 30
0.0
 40
0.2291666666666666
 41
0.0
 71
     1
 72
     1
  1
5280 JOHN LUCAS DRIVE, BURLINGTON, ON, L7L 5Z9
  7
SLDTEXTSTYLE0
 73
     1
 44
1.0
  0
ENDSEC
  0
SECTION
  2
OBJECTS
  0
DICTIONARY
  5
C
330
0
100
AcDbDictionary
281
     1
  3
ACAD_COLOR
350
6C
  3
ACAD_GROUP
350
D
  3
ACAD_LAYOUT
350
1A
  3
ACAD_MATERIAL
350
6B
  3
ACAD_MLINESTYLE
350
17
  3
ACAD_PLOTSETTINGS
350
19
  3
ACAD_PLOTSTYLENAME
350
E
  3
ACAD_SCALELIST
350
47
  3
ACAD_TABLESTYLE
350
92
  3
AcDbVariableDictionary
350
59
  0
DICTIONARY
  5
6C
102
{ACAD_REACTORS
330
C
102
}
330
C
100
AcDbDictionary
281
     1
  0
DICTIONARY
  5
D
102
{ACAD_REACTORS
330
C
102
}
330
C
100
AcDbDictionary
281
     1
  0
DICTIONARY
  5
1A
102
{ACAD_REACTORS
330
C
102
}
330
C
100
AcDbDictionary
281
     1
  3
Layout1
350
74
  3
Layout2
350
26
  3
Model
350
22
  0
DICTIONARY
  5
6B
102
{ACAD_REACTORS
330
C
102
}
330
C
100
AcDbDictionary
281
     1
  0
DICTIONARY
  5
17
102
{ACAD_REACTORS
330
C
102
}
330
C
100
AcDbDictionary
281
     1
  3
Standard
350
18
  0
DICTIONARY
  5
19
102
{ACAD_REACTORS
330
C
102
}
330
C
100
AcDbDictionary
281
     1
  0
ACDBDICTIONARYWDFLT
  5
E
102
{ACAD_REACTORS
330
C
102
}
330
C
100
AcDbDictionary
281
     1
  3
Normal
350
F
100
AcDbDictionaryWithDefault
340
F
  0
DICTIONARY
  5
47
102
{ACAD_REACTORS
330
C
102
}
330
C
100
AcDbDictionary
281
     1
  3
A0
350
48
  3
A1
350
49
  3
A2
350
4A
  3
A3
350
4B
  3
A4
350
4C
  3
A5
350
4D
  3
A6
350
4E
  3
A7
350
4F
  3
A8
350
50
  3
A9
350
51
  3
B0
350
52
  3
B1
350
53
  3
B2
350
54
  3
B3
350
55
  3
B4
350
56
  3
B5
350
57
  3
B6
350
58
  3
B7
350
39F
  3
B8
350
3A0
  3
B9
350
5B
  3
C0
350
5C
  3
C1
350
5D
  3
C2
350
3A1
  3
C3
350
5F
  3
C4
350
60
  3
C5
350
61
  3
C6
350
62
  3
C7
350
63
  3
C8
350
64
  3
C9
350
65
  3
D0
350
66
  3
D1
350
67
  3
D2
350
68
  0
DICTIONARY
  5
92
102
{ACAD_REACTORS
330
C
102
}
330
C
100
AcDbDictionary
281
     1
  3
Standard
350
93
  0
DICTIONARY
  5
59
102
{ACAD_REACTORS
330
C
102
}
330
C
100
AcDbDictionary
281
     1
  3
CTABLESTYLE
350
98
  3
HIDETEXT
350
38C
  0
LAYOUT
  5
74
102
{ACAD_REACTORS
330
1A
102
}
330
1A
100
AcDbPlotSettings
  1

  2
none_device
  4

  6

 40
0.0
 41
0.0
 42
0.0
 43
0.0
 44
0.0
 45
0.0
 46
0.0
 47
0.0
 48
0.0
 49
0.0
140
0.0
141
0.0
142
1.0
143
1.0
 70
   688
 72
     0
 73
     0
 74
     5
  7

 75
    16
 76
     0
 77
     2
 78
   300
147
1.0
148
0.0
149
0.0
100
AcDbLayout
  1
Layout1
 70
     1
 71
     1
 10
0.0
 20
0.0
 11
12.0
 21
9.0
 12
0.0
 22
0.0
 32
0.0
 14
1.000000000000000E+20
 24
1.000000000000000E+20
 34
1.000000000000000E+20
 15
-1.000000000000000E+20
 25
-1.000000000000000E+20
 35
-1.000000000000000E+20
146
0.0
 13
0.0
 23
0.0
 33
0.0
 16
1.0
 26
0.0
 36
0.0
 17
0.0
 27
1.0
 37
0.0
 76
     0
330
73
  0
LAYOUT
  5
26
102
{ACAD_REACTORS
330
1A
102
}
330
1A
100
AcDbPlotSettings
  1

  2
none_device
  4

  6

 40
0.0
 41
0.0
 42
0.0
 43
0.0
 44
0.0
 45
0.0
 46
0.0
 47
0.0
 48
0.0
 49
0.0
140
0.0
141
0.0
142
1.0
143
1.0
 70
   688
 72
     0
 73
     0
 74
     5
  7

 75
    16
 76
     0
 77
     2
 78
   300
147
1.0
148
0.0
149
0.0
100
AcDbLayout
  1
Layout2
 70
     1
 71
     2
 10
0.0
 20
0.0
 11
0.0
 21
0.0
 12
0.0
 22
0.0
 32
0.0
 14
0.0
 24
0.0
 34
0.0
 15
0.0
 25
0.0
 35
0.0
146
0.0
 13
0.0
 23
0.0
 33
0.0
 16
1.0
 26
0.0
 36
0.0
 17
0.0
 27
1.0
 37
0.0
 76
     0
330
23
  0
LAYOUT
  5
22
102
{ACAD_REACTORS
330
1A
102
}
330
1A
100
AcDbPlotSettings
  1

  2
none_device
  4
Letter_(8.50_x_11.00_Inches)
  6

 40
6.35
 41
6.35
 42
6.35000508
 43
6.35000508
 44
215.9
 45
279.4
 46
0.0
 47
0.0
 48
0.0
 49
0.0
140
0.0
141
0.0
142
1.0
143
1.0
 70
 11952
 72
     0
 73
     0
 74
     0
  7

 75
     0
 76
     0
 77
     2
 78
   300
147
1.0
148
0.0
149
0.0
100
AcDbLayout
  1
Model
 70
     1
 71
     0
 10
0.0
 20
0.0
 11
70.0
 21
50.0
 12
0.0
 22
0.0
 32
0.0
 14
0.1653543307086614
 24
0.1653543307086614
 34
-0.9038876445244654
 15
69.83464566929135
 25
49.83464566929134
 35
0.9210008692716899
146
0.0
 13
0.0
 23
0.0
 33
0.0
 16
1.0
 26
0.0
 36
0.0
 17
0.0
 27
1.0
 37
0.0
 76
     0
330
1F
  0
MLINESTYLE
  5
18
102
{ACAD_REACTORS
330
17
102
}
330
17
100
AcDbMlineStyle
  2
Standard
 70
     0
  3

 62
   256
 51
90.0
 52
90.0
 71
     2
 49
0.5
 62
   256
  6
BYLAYER
 49
-0.5
 62
   256
  6
BYLAYER
  0
ACDBPLACEHOLDER
  5
F
102
{ACAD_REACTORS
330
E
102
}
330
E
  0
ACAD_PROXY_OBJECT
  5
48
102
{ACAD_REACTORS
330
47
102
}
330
47
100
AcDbProxyObject
 90
      499
 91
      505
 95
   393239
 70
     0
 93
       41
310
903313A31580
  0
ACAD_PROXY_OBJECT
  5
49
102
{ACAD_REACTORS
330
47
102
}
330
47
100
AcDbProxyObject
 90
      499
 91
      505
 95
   393239
 70
     0
 93
      105
310
903313A324000000000000004000
  0
ACAD_PROXY_OBJECT
  5
4A
102
{ACAD_REACTORS
330
47
102
}
330
47
100
AcDbProxyObject
 90
      499
 91
      505
 95
   393239
 70
     0
 93
      105
310
903313A344000000000000104000
  0
ACAD_PROXY_OBJECT
  5
4B
102
{ACAD_REACTORS
330
47
102
}
330
47
100
AcDbProxyObject
 90
      499
 91
      505
 95
   393239
 70
     0
 93
      105
310
903313A354000000000000144000
  0
ACAD_PROXY_OBJECT
  5
4C
102
{ACAD_REACTORS
330
47
102
}
330
47
100
AcDbProxyObject
 90
      499
 91
      505
 95
   393239
 70
     0
 93
      105
310
903313A384000000000000204000
  0
ACAD_PROXY_OBJECT
  5
4D
102
{ACAD_REACTORS
330
47
102
}
330
47
100
AcDbProxyObject
 90
      499
 91
      505
 95
   393239
 70
     0
 93
      113
310
904313A31304000000000000244000
  0
ACAD_PROXY_OBJECT
  5
4E
102
{ACAD_REACTORS
330
47
102
}
330
47
100
AcDbProxyObject
 90
      499
 91
      505
 95
   393239
 70
     0
 93
      113
310
904313A31364000000000000304000
  0
ACAD_PROXY_OBJECT
  5
4F
102
{ACAD_REACTORS
330
47
102
}
330
47
100
AcDbProxyObject
 90
      499
 91
      505
 95
   393239
 70
     0
 93
      113
310
904313A32304000000000000344000
  0
ACAD_PROXY_OBJECT
  5
50
102
{ACAD_REACTORS
330
47
102
}
330
47
100
AcDbProxyObject
 90
      499
 91
      505
 95
   393239
 70
     0
 93
      113
310
904313A333040000000000003E4000
  0
ACAD_PROXY_OBJECT
  5
51
102
{ACAD_REACTORS
330
47
102
}
330
47
100
AcDbProxyObject
 90
      499
 91
      505
 95
   393239
 70
     0
 93
      113
310
904313A34304000000000000444000
  0
ACAD_PROXY_OBJECT
  5
52
102
{ACAD_REACTORS
330
47
102
}
330
47
100
AcDbProxyObject
 90
      499
 91
      505
 95
   393239
 70
     0
 93
      113
310
904313A35304000000000000494000
  0
ACAD_PROXY_OBJECT
  5
53
102
{ACAD_REACTORS
330
47
102
}
330
47
100
AcDbProxyObject
 90
      499
 91
      505
 95
   393239
 70
     0
 93
      121
310
905313A3130304000000000000594000
  0
ACAD_PROXY_OBJECT
  5
54
102
{ACAD_REACTORS
330
47
102
}
330
47
100
AcDbProxyObject
 90
      499
 91
      505
 95
   393239
 70
     0
 93
      105
310
903323A310000000000000010100
  0
ACAD_PROXY_OBJECT
  5
55
102
{ACAD_REACTORS
330
47
102
}
330
47
100
AcDbProxyObject
 90
      499
 91
      505
 95
   393239
 70
     0
 93
      105
310
903343A310000000000000410100
  0
ACAD_PROXY_OBJECT
  5
56
102
{ACAD_REACTORS
330
47
102
}
330
47
100
AcDbProxyObject
 90
      499
 91
      505
 95
   393239
 70
     0
 93
      105
310
903383A310000000000000810100
  0
ACAD_PROXY_OBJECT
  5
57
102
{ACAD_REACTORS
330
47
102
}
330
47
100
AcDbProxyObject
 90
      499
 91
      505
 95
   393239
 70
     0
 93
      113
310
90431303A310000000000000910100
  0
ACAD_PROXY_OBJECT
  5
58
102
{ACAD_REACTORS
330
47
102
}
330
47
100
AcDbProxyObject
 90
      499
 91
      505
 95
   393239
 70
     0
 93
      121
310
9053130303A310000000000001650100
  0
ACAD_PROXY_OBJECT
  5
39F
102
{ACAD_REACTORS
330
47
102
}
330
47
100
AcDbProxyObject
 90
      499
 91
      505
 95
   393239
 70
     0
 93
      257
310
90E312F31323822203D2031272D3022000000000000200FC000000000000284000
  0
ACAD_PROXY_OBJECT
  5
3A0
102
{ACAD_REACTORS
330
47
102
}
330
47
100
AcDbProxyObject
 90
      499
 91
      505
 95
   393239
 70
     0
 93
      249
310
90D312F363422203D2031272D3022000000000000240FC000000000000284000
  0
ACAD_PROXY_OBJECT
  5
5B
102
{ACAD_REACTORS
330
47
102
}
330
47
100
AcDbProxyObject
 90
      499
 91
      505
 95
   393239
 70
     0
 93
      249
310
90D312F333222203D2031272D3022000000000000280FC000000000000284000
  0
ACAD_PROXY_OBJECT
  5
5C
102
{ACAD_REACTORS
330
47
102
}
330
47
100
AcDbProxyObject
 90
      499
 91
      505
 95
   393239
 70
     0
 93
      249
310
90D312F313622203D2031272D30220000000000002C0FC000000000000284000
  0
ACAD_PROXY_OBJECT
  5
5D
102
{ACAD_REACTORS
330
47
102
}
330
47
100
AcDbProxyObject
 90
      499
 91
      505
 95
   393239
 70
     0
 93
      249
310
90D332F333222203D2031272D30220000000000002E0FC000000000000284000
  0
ACAD_PROXY_OBJECT
  5
3A1
102
{ACAD_REACTORS
330
47
102
}
330
47
100
AcDbProxyObject
 90
      499
 91
      505
 95
   393239
 70
     0
 93
      241
310
90C312F3822203D2031272D3022000000000000300FC000000000000284000
  0
ACAD_PROXY_OBJECT
  5
5F
102
{ACAD_REACTORS
330
47
102
}
330
47
100
AcDbProxyObject
 90
      499
 91
      505
 95
   393239
 70
     0
 93
      249
310
90D332F313622203D2031272D3022000000000000320FC000000000000284000
  0
ACAD_PROXY_OBJECT
  5
60
102
{ACAD_REACTORS
330
47
102
}
330
47
100
AcDbProxyObject
 90
      499
 91
      505
 95
   393239
 70
     0
 93
      241
310
90C312F3422203D2031272D3022000000000000340FC000000000000284000
  0
ACAD_PROXY_OBJECT
  5
61
102
{ACAD_REACTORS
330
47
102
}
330
47
100
AcDbProxyObject
 90
      499
 91
      505
 95
   393239
 70
     0
 93
      241
310
90C332F3822203D2031272D3022000000000000360FC000000000000284000
  0
ACAD_PROXY_OBJECT
  5
62
102
{ACAD_REACTORS
330
47
102
}
330
47
100
AcDbProxyObject
 90
      499
 91
      505
 95
   393239
 70
     0
 93
      241
310
90C312F3222203D2031272D3022000000000000380FC000000000000284000
  0
ACAD_PROXY_OBJECT
  5
63
102
{ACAD_REACTORS
330
47
102
}
330
47
100
AcDbProxyObject
 90
      499
 91
      505
 95
   393239
 70
     0
 93
      241
310
90C332F3422203D2031272D30220000000000003A0FC000000000000284000
  0
ACAD_PROXY_OBJECT
  5
64
102
{ACAD_REACTORS
330
47
102
}
330
47
100
AcDbProxyObject
 90
      499
 91
      505
 95
   393239
 70
     0
 93
      161
310
90A3122203D2031272D30224000000000000284000
  0
ACAD_PROXY_OBJECT
  5
65
102
{ACAD_REACTORS
330
47
102
}
330
47
100
AcDbProxyObject
 90
      499
 91
      505
 95
   393239
 70
     0
 93
      257
310
90E312D312F3222203D2031272D30220000000000003E0FC000000000000284000
  0
ACAD_PROXY_OBJECT
  5
66
102
{ACAD_REACTORS
330
47
102
}
330
47
100
AcDbProxyObject
 90
      499
 91
      505
 95
   393239
 70
     0
 93
      225
310
90A3322203D2031272D302200000000000002100000000000000284000
  0
ACAD_PROXY_OBJECT
  5
67
102
{ACAD_REACTORS
330
47
102
}
330
47
100
AcDbProxyObject
 90
      499
 91
      505
 95
   393239
 70
     0
 93
      225
310
90A3622203D2031272D302200000000000006100000000000000284000
  0
ACAD_PROXY_OBJECT
  5
68
102
{ACAD_REACTORS
330
47
102
}
330
47
100
AcDbProxyObject
 90
      499
 91
      505
 95
   393239
 70
     0
 93
      249
310
90D31272D3022203D2031272D30220000000000000A100000000000000284000
  0
TABLESTYLE
  5
93
102
{ACAD_REACTORS
330
92
102
}
330
92
100
AcDbTableStyle
  3
Standard
 70
     0
 71
     0
 40
0.06
 41
0.06
280
     0
281
     0
  7
Standard
140
0.18
170
     2
 62
     0
 63
     7
283
     0
274
    -2
284
     1
 64
     0
275
    -2
285
     1
 65
     0
276
    -2
286
     1
 66
     0
277
    -2
287
     1
 67
     0
278
    -2
288
     1
 68
     0
279
    -2
289
     1
 69
     0
  7
Standard
140
0.25
170
     5
 62
     0
 63
     7
283
     0
274
    -2
284
     1
 64
     0
275
    -2
285
     1
 65
     0
276
    -2
286
     1
 66
     0
277
    -2
287
     1
 67
     0
278
    -2
288
     1
 68
     0
279
    -2
289
     1
 69
     0
  7
Standard
140
0.18
170
     5
 62
     0
 63
     7
283
     0
274
    -2
284
     1
 64
     0
275
    -2
285
     1
 65
     0
276
    -2
286
     1
 66
     0
277
    -2
287
     1
 67
     0
278
    -2
288
     1
 68
     0
279
    -2
289
     1
 69
     0
  0
DICTIONARYVAR
  5
98
102
{ACAD_REACTORS
330
59
102
}
330
59
100
DictionaryVariables
280
     0
  1
STANDARD
  0
DICTIONARYVAR
  5
38C
102
{ACAD_REACTORS
330
59
102
}
330
59
100
DictionaryVariables
280
     0
  1
2
  0
ENDSEC
  0
EOF
