  0
SECTION
  2
HEADER
  9
$ACADVER
  1
AC1018
  9
$ACADMAINTVER
 70
    39
  9
$DWGCODEPAGE
  3
ANSI_1252
  9
$LASTSAVEDBY
  1
fottrem
  9
$INSBASE
 10
0.0
 20
0.0
 30
0.0
  9
$EXTMIN
 10
0.1653543307086614
 20
0.1653543307086614
 30
-0.7411391670766869
  9
$EXTMAX
 10
69.83464566929135
 20
49.83464566929134
 30
0.9147626772685735
  9
$LIMMIN
 10
0.0
 20
0.0
  9
$LIMMAX
 10
70.0
 20
50.0
  9
$ORTHOMODE
 70
     0
  9
$REGENMODE
 70
     1
  9
$FILLMODE
 70
     1
  9
$QTEXTMODE
 70
     0
  9
$MIRRTEXT
 70
     1
  9
$LTSCALE
 40
1.0
  9
$ATTMODE
 70
     1
  9
$TEXTSIZE
 40
0.5
  9
$TRACEWID
 40
0.05
  9
$TEXTSTYLE
  7
Standard
  9
$CLAYER
  8
0
  9
$CELTYPE
  6
ByLayer
  9
$CECOLOR
 62
   256
  9
$CELTSCALE
 40
1.0
  9
$DISPSILH
 70
     0
  9
$DIMSCALE
 40
1.0
  9
$DIMASZ
 40
0.3
  9
$DIMEXO
 40
0.1666666666666667
  9
$DIMDLI
 40
0.38
  9
$DIMRND
 40
0.0
  9
$DIMDLE
 40
0.0
  9
$DIMEXE
 40
0.3750000000000001
  9
$DIMTP
 40
0.0
  9
$DIMTM
 40
0.0
  9
$DIMTXT
 40
0.5
  9
$DIMCEN
 40
0.09
  9
$DIMTSZ
 40
0.0
  9
$DIMTOL
 70
     0
  9
$DIMLIM
 70
     0
  9
$DIMTIH
 70
     1
  9
$DIMTOH
 70
     1
  9
$DIMSE1
 70
     0
  9
$DIMSE2
 70
     0
  9
$DIMTAD
 70
     0
  9
$DIMZIN
 70
     1
  9
$DIMBLK
  1

  9
$DIMASO
 70
     1
  9
$DIMSHO
 70
     1
  9
$DIMPOST
  1

  9
$DIMAPOST
  1

  9
$DIMALT
 70
     0
  9
$DIMALTD
 70
     2
  9
$DIMALTF
 40
25.4
  9
$DIMLFAC
 40
1.0
  9
$DIMTOFL
 70
     0
  9
$DIMTVP
 40
0.0
  9
$DIMTIX
 70
     0
  9
$DIMSOXD
 70
     0
  9
$DIMSAH
 70
     0
  9
$DIMBLK1
  1

  9
$DIMBLK2
  1

  9
$DIMSTYLE
  2
Standard
  9
$DIMCLRD
 70
     0
  9
$DIMCLRE
 70
     0
  9
$DIMCLRT
 70
     0
  9
$DIMTFAC
 40
1.0
  9
$DIMGAP
 40
0.125
  9
$DIMJUST
 70
     0
  9
$DIMSD1
 70
     0
  9
$DIMSD2
 70
     0
  9
$DIMTOLJ
 70
     1
  9
$DIMTZIN
 70
     1
  9
$DIMALTZ
 70
     0
  9
$DIMALTTZ
 70
     0
  9
$DIMUPT
 70
     0
  9
$DIMDEC
 70
     2
  9
$DIMTDEC
 70
     2
  9
$DIMALTU
 70
     2
  9
$DIMALTTD
 70
     2
  9
$DIMTXSTY
  7
Standard
  9
$DIMAUNIT
 70
     0
  9
$DIMADEC
 70
     2
  9
$DIMALTRND
 40
0.0
  9
$DIMAZIN
 70
     0
  9
$DIMDSEP
 70
    46
  9
$DIMATFIT
 70
     3
  9
$DIMFRAC
 70
     0
  9
$DIMLDRBLK
  1

  9
$DIMLUNIT
 70
     2
  9
$DIMLWD
 70
    -2
  9
$DIMLWE
 70
    -2
  9
$DIMTMOVE
 70
     0
  9
$LUNITS
 70
     2
  9
$LUPREC
 70
     4
  9
$SKETCHINC
 40
0.1
  9
$FILLETRAD
 40
0.5
  9
$AUNITS
 70
     0
  9
$AUPREC
 70
     2
  9
$MENU
  1
.
  9
$ELEVATION
 40
0.0
  9
$PELEVATION
 40
0.0
  9
$THICKNESS
 40
0.0
  9
$LIMCHECK
 70
     0
  9
$CHAMFERA
 40
0.0
  9
$CHAMFERB
 40
0.0
  9
$CHAMFERC
 40
0.0
  9
$CHAMFERD
 40
0.0
  9
$SKPOLY
 70
     0
  9
$TDCREATE
 40
2453353.550459155
  9
$TDUCREATE
 40
2453353.717125822
  9
$TDUPDATE
 40
2459488.646942176
  9
$TDUUPDATE
 40
2459488.813608842
  9
$TDINDWG
 40
0.042719919
  9
$TDUSRTIMER
 40
0.042719919
  9
$USRTIMER
 70
     1
  9
$ANGBASE
 50
0.0
  9
$ANGDIR
 70
     0
  9
$PDMODE
 70
     0
  9
$PDSIZE
 40
-1.0
  9
$PLINEWID
 40
0.0
  9
$SPLFRAME
 70
     0
  9
$SPLINETYPE
 70
     6
  9
$SPLINESEGS
 70
     8
  9
$HANDSEED
  5
3A1
  9
$SURFTAB1
 70
     6
  9
$SURFTAB2
 70
     6
  9
$SURFTYPE
 70
     6
  9
$SURFU
 70
     6
  9
$SURFV
 70
     6
  9
$UCSBASE
  2

  9
$UCSNAME
  2

  9
$UCSORG
 10
0.0
 20
0.0
 30
0.0
  9
$UCSXDIR
 10
1.0
 20
0.0
 30
0.0
  9
$UCSYDIR
 10
0.0
 20
1.0
 30
0.0
  9
$UCSORTHOREF
  2

  9
$UCSORTHOVIEW
 70
     0
  9
$UCSORGTOP
 10
0.0
 20
0.0
 30
0.0
  9
$UCSORGBOTTOM
 10
0.0
 20
0.0
 30
0.0
  9
$UCSORGLEFT
 10
0.0
 20
0.0
 30
0.0
  9
$UCSORGRIGHT
 10
0.0
 20
0.0
 30
0.0
  9
$UCSORGFRONT
 10
0.0
 20
0.0
 30
0.0
  9
$UCSORGBACK
 10
0.0
 20
0.0
 30
0.0
  9
$PUCSBASE
  2

  9
$PUCSNAME
  2

  9
$PUCSORG
 10
0.0
 20
0.0
 30
0.0
  9
$PUCSXDIR
 10
1.0
 20
0.0
 30
0.0
  9
$PUCSYDIR
 10
0.0
 20
1.0
 30
0.0
  9
$PUCSORTHOREF
  2

  9
$PUCSORTHOVIEW
 70
     0
  9
$PUCSORGTOP
 10
0.0
 20
0.0
 30
0.0
  9
$PUCSORGBOTTOM
 10
0.0
 20
0.0
 30
0.0
  9
$PUCSORGLEFT
 10
0.0
 20
0.0
 30
0.0
  9
$PUCSORGRIGHT
 10
0.0
 20
0.0
 30
0.0
  9
$PUCSORGFRONT
 10
0.0
 20
0.0
 30
0.0
  9
$PUCSORGBACK
 10
0.0
 20
0.0
 30
0.0
  9
$USERI1
 70
     0
  9
$USERI2
 70
     0
  9
$USERI3
 70
     0
  9
$USERI4
 70
     0
  9
$USERI5
 70
     0
  9
$USERR1
 40
0.0
  9
$USERR2
 40
0.0
  9
$USERR3
 40
0.0
  9
$USERR4
 40
0.0
  9
$USERR5
 40
0.0
  9
$WORLDVIEW
 70
     1
  9
$SHADEDGE
 70
     3
  9
$SHADEDIF
 70
    70
  9
$TILEMODE
 70
     1
  9
$MAXACTVP
 70
    64
  9
$PINSBASE
 10
0.0
 20
0.0
 30
0.0
  9
$PLIMCHECK
 70
     0
  9
$PEXTMIN
 10
1.000000000000000E+20
 20
1.000000000000000E+20
 30
1.000000000000000E+20
  9
$PEXTMAX
 10
-1.000000000000000E+20
 20
-1.000000000000000E+20
 30
-1.000000000000000E+20
  9
$PLIMMIN
 10
0.0
 20
0.0
  9
$PLIMMAX
 10
12.0
 20
9.0
  9
$UNITMODE
 70
     0
  9
$VISRETAIN
 70
     1
  9
$PLINEGEN
 70
     0
  9
$PSLTSCALE
 70
     1
  9
$TREEDEPTH
 70
  3020
  9
$CMLSTYLE
  2
Standard
  9
$CMLJUST
 70
     0
  9
$CMLSCALE
 40
1.0
  9
$PROXYGRAPHICS
 70
     1
  9
$MEASUREMENT
 70
     0
  9
$CELWEIGHT
370
    -1
  9
$ENDCAPS
280
     0
  9
$JOINSTYLE
280
     0
  9
$LWDISPLAY
290
     1
  9
$INSUNITS
 70
     1
  9
$HYPERLINKBASE
  1

  9
$STYLESHEET
  1

  9
$XEDIT
290
     0
  9
$CEPSNTYPE
380
     0
  9
$PSTYLEMODE
290
     1
  9
$FINGERPRINTGUID
  2
{c8dc40bb-1502-4de9-b9d1-d2bb9cdfab91}
  9
$VERSIONGUID
  2
{FAEB1C32-E019-11D5-929B-00C0DF256EC4}
  9
$EXTNAMES
290
     1
  9
$PSVPSCALE
 40
0.0
  9
$OLESTARTUP
290
     0
  9
$SORTENTS
280
   127
  9
$INDEXCTL
280
     0
  9
$HIDETEXT
280
     1
  9
$XCLIPFRAME
290
     0
  9
$HALOGAP
280
     0
  9
$OBSCOLOR
 70
   257
  9
$OBSLTYPE
280
     0
  9
$INTERSECTIONDISPLAY
280
     0
  9
$INTERSECTIONCOLOR
 70
   257
  9
$DIMASSOC
280
     2
  9
$PROJECTNAME
  1

  0
ENDSEC
  0
SECTION
  2
CLASSES
  0
CLASS
  1
ACDBDICTIONARYWDFLT
  2
AcDbDictionaryWithDefault
  3
ObjectDBX Classes
 90
        0
 91
        3
280
     0
281
     0
  0
CLASS
  1
ACDBPLACEHOLDER
  2
AcDbPlaceHolder
  3
ObjectDBX Classes
 90
        0
 91
        1
280
     0
281
     0
  0
CLASS
  1
LAYOUT
  2
AcDbLayout
  3
ObjectDBX Classes
 90
        0
 91
        1
280
     0
281
     0
  0
CLASS
  1
DICTIONARYVAR
  2
AcDbDictionaryVar
  3
ObjectDBX Classes
 90
        0
 91
        3
280
     0
281
     0
  0
CLASS
  1
TABLESTYLE
  2
AcDbTableStyle
  3
ObjectDBX Classes
 90
     2047
 91
        3
280
     0
281
     0
  0
CLASS
  1
SCALE
  2
AcDbScale
  3
ObjectDBX Classes
 90
     1153
 91
       67
280
     1
281
     0
  0
ENDSEC
  0
SECTION
  2
TABLES
  0
TABLE
  2
VPORT
  5
8
330
0
100
AcDbSymbolTable
 70
     2
  0
VPORT
  5
97
330
8
100
AcDbSymbolTableRecord
100
AcDbViewportTableRecord
  2
*Active
 70
     0
 10
0.0
 20
0.0
 11
1.0
 21
1.0
 12
35.00000000000001
 22
25.0
 13
0.0
 23
0.0
 14
0.5
 24
0.5
 15
0.5
 25
0.5
 16
0.0
 26
0.0
 36
1.0
 17
0.0
 27
0.0
 37
0.0
 40
50.66267716535433
 41
1.4
 42
50.0
 43
0.0
 44
0.0
 50
0.0
 51
0.0
 71
    16
 72
  2000
 73
     1
 74
     1
 75
     0
 76
     0
 77
     0
 78
     0
281
     0
 65
     0
110
0.0
120
0.0
130
0.0
111
1.0
121
0.0
131
0.0
112
0.0
122
1.0
132
0.0
 79
     0
146
0.0
  0
ENDTAB
  0
TABLE
  2
LTYPE
  5
5
330
0
100
AcDbSymbolTable
 70
     8
  0
LTYPE
  5
14
330
5
100
AcDbSymbolTableRecord
100
AcDbLinetypeTableRecord
  2
ByBlock
 70
     0
  3

 72
    65
 73
     0
 40
0.0
  0
LTYPE
  5
15
330
5
100
AcDbSymbolTableRecord
100
AcDbLinetypeTableRecord
  2
ByLayer
 70
     0
  3

 72
    65
 73
     0
 40
0.0
  0
LTYPE
  5
16
330
5
100
AcDbSymbolTableRecord
100
AcDbLinetypeTableRecord
  2
Continuous
 70
     0
  3
Solid line
 72
    65
 73
     0
 40
0.0
  0
LTYPE
  5
371
330
5
100
AcDbSymbolTableRecord
100
AcDbLinetypeTableRecord
  2
SLD-Solid
 70
     0
  3
SolidWorks Line Style
 72
    65
 73
     0
 40
0.0
  0
LTYPE
  5
372
330
5
100
AcDbSymbolTableRecord
100
AcDbLinetypeTableRecord
  2
SLD-Dashed
 70
     0
  3
SolidWorks Line Style
 72
    65
 73
     2
 40
0.075
 49
0.05
 74
     4
 75
     0
340
0
 46
1.0
 50
0.0
 44
0.0
 45
0.0
 49
-0.025
 74
     4
 75
     0
340
0
 46
1.0
 50
0.0
 44
0.0
 45
0.0
  0
LTYPE
  5
373
330
5
100
AcDbSymbolTableRecord
100
AcDbLinetypeTableRecord
  2
SLD-Phantom
 70
     0
  3
SolidWorks Line Style
 72
    65
 73
     6
 40
0.4999999999999999
 49
0.25
 74
     4
 75
     0
340
0
 46
1.0
 50
0.0
 44
0.0
 45
0.0
 49
-0.05
 74
     4
 75
     0
340
0
 46
1.0
 50
0.0
 44
0.0
 45
0.0
 49
0.05
 74
     4
 75
     0
340
0
 46
1.0
 50
0.0
 44
0.0
 45
0.0
 49
-0.05
 74
     4
 75
     0
340
0
 46
1.0
 50
0.0
 44
0.0
 45
0.0
 49
0.05
 74
     4
 75
     0
340
0
 46
1.0
 50
0.0
 44
0.0
 45
0.0
 49
-0.05
 74
     4
 75
     0
340
0
 46
1.0
 50
0.0
 44
0.0
 45
0.0
  0
LTYPE
  5
374
330
5
100
AcDbSymbolTableRecord
100
AcDbLinetypeTableRecord
  2
SLD-Chain
 70
     0
  3
SolidWorks Line Style
 72
    65
 73
     4
 40
0.4
 49
0.25
 74
     4
 75
     0
340
0
 46
1.0
 50
0.0
 44
0.0
 45
0.0
 49
-0.05
 74
     4
 75
     0
340
0
 46
1.0
 50
0.0
 44
0.0
 45
0.0
 49
0.05
 74
     4
 75
     0
340
0
 46
1.0
 50
0.0
 44
0.0
 45
0.0
 49
-0.05
 74
     4
 75
     0
340
0
 46
1.0
 50
0.0
 44
0.0
 45
0.0
  0
LTYPE
  5
375
330
5
100
AcDbSymbolTableRecord
100
AcDbLinetypeTableRecord
  2
SLD-Center
 70
     0
  3
SolidWorks Line Style
 72
    65
 73
     4
 40
0.7500000000000002
 49
0.6000000000000001
 74
     4
 75
     0
340
0
 46
1.0
 50
0.0
 44
0.0
 45
0.0
 49
-0.05
 74
     4
 75
     0
340
0
 46
1.0
 50
0.0
 44
0.0
 45
0.0
 49
0.05
 74
     4
 75
     0
340
0
 46
1.0
 50
0.0
 44
0.0
 45
0.0
 49
-0.05
 74
     4
 75
     0
340
0
 46
1.0
 50
0.0
 44
0.0
 45
0.0
  0
LTYPE
  5
376
330
5
100
AcDbSymbolTableRecord
100
AcDbLinetypeTableRecord
  2
SLD-Stitch
 70
     0
  3
SolidWorks Line Style
 72
    65
 73
     2
 40
0.025
 49
0.0
 74
     4
 75
     0
340
0
 46
1.0
 50
0.0
 44
0.0
 45
0.0
 49
-0.025
 74
     4
 75
     0
340
0
 46
1.0
 50
0.0
 44
0.0
 45
0.0
  0
LTYPE
  5
377
330
5
100
AcDbSymbolTableRecord
100
AcDbLinetypeTableRecord
  2
SLD-Thin-Thick-Chain
 70
     0
  3
SolidWorks Line Style
 72
    65
 73
     4
 40
0.4
 49
0.25
 74
     4
 75
     0
340
0
 46
1.0
 50
0.0
 44
0.0
 45
0.0
 49
-0.05
 74
     4
 75
     0
340
0
 46
1.0
 50
0.0
 44
0.0
 45
0.0
 49
0.05
 74
     4
 75
     0
340
0
 46
1.0
 50
0.0
 44
0.0
 45
0.0
 49
-0.05
 74
     4
 75
     0
340
0
 46
1.0
 50
0.0
 44
0.0
 45
0.0
  0
ENDTAB
  0
TABLE
  2
LAYER
  5
2
330
0
100
AcDbSymbolTable
 70
     6
  0
LAYER
  5
10
330
2
100
AcDbSymbolTableRecord
100
AcDbLayerTableRecord
  2
0
 70
     0
 62
     7
  6
Continuous
370
    -3
390
F
  0
LAYER
  5
378
330
2
100
AcDbSymbolTableRecord
100
AcDbLayerTableRecord
  2
FORMAT
 70
     0
 62
     7
  6
SLD-Solid
370
    -3
390
F
  0
LAYER
  5
379
330
2
100
AcDbSymbolTableRecord
100
AcDbLayerTableRecord
  2
NOTES
 70
     0
 62
     1
  6
SLD-Solid
370
    -3
390
F
  0
LAYER
  5
77
330
2
100
AcDbSymbolTableRecord
100
AcDbLayerTableRecord
  2
OBJECT
 70
     0
 62
     7
  6
SLD-Solid
370
    25
390
F
  0
LAYER
  5
78
330
2
100
AcDbSymbolTableRecord
100
AcDbLayerTableRecord
  2
DIMS
 70
     0
 62
     5
  6
SLD-Solid
370
    -3
390
F
  0
LAYER
  5
79
330
2
100
AcDbSymbolTableRecord
100
AcDbLayerTableRecord
  2
TITLE
 70
     0
 62
     8
  6
SLD-Solid
370
    -3
390
F
  0
ENDTAB
  0
TABLE
  2
STYLE
  5
3
330
0
100
AcDbSymbolTable
 70
     5
  0
STYLE
  5
11
330
3
100
AcDbSymbolTableRecord
100
AcDbTextStyleTableRecord
  2
Standard
 70
     0
 40
0.0
 41
1.0
 50
0.0
 71
     0
 42
0.5
  3
GOTHIC.TTF
  4

1001
ACAD
1000
CENTURY GOTHIC
1071
       34
  0
STYLE
  5
101
330
3
100
AcDbSymbolTableRecord
100
AcDbTextStyleTableRecord
  2
SLDTEXTSTYLE0
 70
     0
 40
0.0
 41
0.948
 50
0.0
 71
     0
 42
0.5
  3
ARIAL.TTF
  4

1001
ACAD
1000
Arial
1071
      290
  0
STYLE
  5
105
330
3
100
AcDbSymbolTableRecord
100
AcDbTextStyleTableRecord
  2
SLDTEXTSTYLE1
 70
     0
 40
0.0
 41
0.913
 50
0.0
 71
     0
 42
0.5
  3
GOTHIC.TTF
  4

1001
ACAD
1000
Century Gothic
1071
      290
  0
STYLE
  5
114
330
3
100
AcDbSymbolTableRecord
100
AcDbTextStyleTableRecord
  2
SLDTEXTSTYLE2
 70
     0
 40
0.0
 41
0.87
 50
0.0
 71
     0
 42
0.5
  3
ARIALNB.TTF
  4

1001
ACAD
1000
Arial Narrow
1071
 33554722
  0
STYLE
  5
116
330
3
100
AcDbSymbolTableRecord
100
AcDbTextStyleTableRecord
  2
SLDTEXTSTYLE3
 70
     0
 40
0.0
 41
0.87
 50
0.0
 71
     0
 42
0.5
  3
ARIALN.TTF
  4

1001
ACAD
1000
Arial Narrow
1071
      290
  0
ENDTAB
  0
TABLE
  2
VIEW
  5
6
330
0
100
AcDbSymbolTable
 70
     0
  0
ENDTAB
  0
TABLE
  2
UCS
  5
7
330
0
100
AcDbSymbolTable
 70
     0
  0
ENDTAB
  0
TABLE
  2
APPID
  5
9
330
0
100
AcDbSymbolTable
 70
     1
  0
APPID
  5
12
330
9
100
AcDbSymbolTableRecord
100
AcDbRegAppTableRecord
  2
ACAD
 70
     0
  0
ENDTAB
  0
TABLE
  2
DIMSTYLE
  5
A
330
0
100
AcDbSymbolTable
 70
     5
100
AcDbDimStyleTable
  0
DIMSTYLE
105
27
330
A
100
AcDbSymbolTableRecord
100
AcDbDimStyleTableRecord
  2
Standard
 70
     0
340
11
  0
DIMSTYLE
105
1CF
102
{ACAD_REACTORS
330
1CE
102
}
330
A
100
AcDbSymbolTableRecord
100
AcDbDimStyleTableRecord
  2
SLDDIMSTYLE0
 70
     0
 41
0.3
 44
0.0
 45
0.000000001
 78
    12
 79
     3
140
0.5
147
0.125
173
     1
271
     2
272
     2
276
     2
277
     5
284
    12
340
105
341
37A
343
37A
344
37A
  0
DIMSTYLE
105
1E0
102
{ACAD_REACTORS
330
1DF
330
1EF
330
2E9
330
2F8
330
307
330
316
102
}
330
A
100
AcDbSymbolTableRecord
100
AcDbDimStyleTableRecord
  2
SLDDIMSTYLE1
 70
     0
 41
0.3
 44
0.0
 45
0.000000001
 78
    12
 79
     3
140
0.5
147
0.125
173
     1
271
     6
272
     2
276
     2
277
     5
284
    12
340
105
341
37A
343
37A
344
37A
  0
DIMSTYLE
105
22B
102
{ACAD_REACTORS
330
22A
102
}
330
A
100
AcDbSymbolTableRecord
100
AcDbDimStyleTableRecord
  2
SLDDIMSTYLE2
 70
     0
 41
0.3
 44
0.0
 45
0.000000001
 78
    12
 79
     3
140
0.5
147
0.125
172
     1
173
     1
271
     6
272
     2
276
     2
277
     5
284
    12
289
     0
340
105
341
37A
343
37A
344
37A
  0
DIMSTYLE
105
2DC
102
{ACAD_REACTORS
330
2DB
102
}
330
A
100
AcDbSymbolTableRecord
100
AcDbDimStyleTableRecord
  2
SLDDIMSTYLE3
 70
     0
 41
0.3
 44
0.0
 45
0.000000001
 78
    12
 79
     3
140
0.5
141
0.0
147
0.125
173
     1
271
     2
272
     2
276
     2
277
     5
284
    12
340
105
341
37A
343
37A
344
37A
  0
ENDTAB
  0
TABLE
  2
BLOCK_RECORD
  5
1
330
0
100
AcDbSymbolTable
 70
    14
  0
BLOCK_RECORD
  5
1F
330
1
100
AcDbSymbolTableRecord
100
AcDbBlockTableRecord
  2
*Model_Space
340
22
  0
BLOCK_RECORD
  5
73
330
1
100
AcDbSymbolTableRecord
100
AcDbBlockTableRecord
  2
*Paper_Space
340
74
  0
BLOCK_RECORD
  5
37A
330
1
100
AcDbSymbolTableRecord
100
AcDbBlockTableRecord
  2
_Open90
340
0
102
{BLKREFS
331
1D9
331
1DA
331
1E4
331
1E5
331
1F3
331
1F4
331
22F
331
230
331
2E0
331
2ED
331
2EE
331
2FC
331
2FD
331
30B
331
30C
331
31A
331
31B
102
}
  0
BLOCK_RECORD
  5
23
330
1
100
AcDbSymbolTableRecord
100
AcDbBlockTableRecord
  2
*Paper_Space1
340
26
  0
BLOCK_RECORD
  5
10B
330
1
100
AcDbSymbolTableRecord
100
AcDbBlockTableRecord
  2
SW_NOTE_0
340
0
  0
BLOCK_RECORD
  5
111
330
1
100
AcDbSymbolTableRecord
100
AcDbBlockTableRecord
  2
SW_NOTE_0_1
340
0
102
{BLKREFS
331
11A
102
}
  0
BLOCK_RECORD
  5
1D6
330
1
100
AcDbSymbolTableRecord
100
AcDbBlockTableRecord
  2
_D
340
0
  0
BLOCK_RECORD
  5
1E1
330
1
100
AcDbSymbolTableRecord
100
AcDbBlockTableRecord
  2
_D_1
340
0
  0
BLOCK_RECORD
  5
1F0
330
1
100
AcDbSymbolTableRecord
100
AcDbBlockTableRecord
  2
_D_2
340
0
  0
BLOCK_RECORD
  5
22C
330
1
100
AcDbSymbolTableRecord
100
AcDbBlockTableRecord
  2
_D_3
340
0
  0
BLOCK_RECORD
  5
2DD
330
1
100
AcDbSymbolTableRecord
100
AcDbBlockTableRecord
  2
_D_4
340
0
  0
BLOCK_RECORD
  5
2EA
330
1
100
AcDbSymbolTableRecord
100
AcDbBlockTableRecord
  2
_D_5
340
0
  0
BLOCK_RECORD
  5
2F9
330
1
100
AcDbSymbolTableRecord
100
AcDbBlockTableRecord
  2
_D_6
340
0
  0
BLOCK_RECORD
  5
308
330
1
100
AcDbSymbolTableRecord
100
AcDbBlockTableRecord
  2
_D_7
340
0
  0
BLOCK_RECORD
  5
317
330
1
100
AcDbSymbolTableRecord
100
AcDbBlockTableRecord
  2
_D_8
340
0
  0
BLOCK_RECORD
  5
365
330
1
100
AcDbSymbolTableRecord
100
AcDbBlockTableRecord
  2
SW_NOTE_0_2
340
0
102
{BLKREFS
331
36A
102
}
  0
ENDTAB
  0
ENDSEC
  0
SECTION
  2
BLOCKS
  0
BLOCK
  5
20
330
1F
100
AcDbEntity
  8
0
100
AcDbBlockBegin
  2
*Model_Space
 70
     0
 71
     0
 10
0.0
 20
0.0
 30
0.0
  3
*Model_Space
  1

  0
ENDBLK
  5
21
330
1F
100
AcDbEntity
  8
0
100
AcDbBlockEnd
  0
BLOCK
  5
75
330
73
100
AcDbEntity
 67
     1
  8
0
100
AcDbBlockBegin
  2
*Paper_Space
 70
     0
 71
     0
 10
0.0
 20
0.0
 30
0.0
  3
*Paper_Space
  1

  0
ENDBLK
  5
76
330
73
100
AcDbEntity
 67
     1
  8
0
100
AcDbBlockEnd
  0
BLOCK
  5
37B
330
37A
100
AcDbEntity
  8
0
100
AcDbBlockBegin
  2
_Open90
 70
     0
 71
     0
 10
0.0
 20
0.0
 30
0.0
  3
_Open90
  1

  0
LINE
  5
1D3
330
37A
100
AcDbEntity
  8
0
  6
ByBlock
 62
     0
370
    -2
100
AcDbLine
 10
-0.5
 20
0.5
 30
0.0
 11
0.0
 21
0.0
 31
0.0
  0
LINE
  5
1D4
330
37A
100
AcDbEntity
  8
0
  6
ByBlock
 62
     0
370
    -2
100
AcDbLine
 10
0.0
 20
0.0
 30
0.0
 11
-0.5
 21
-0.5
 31
0.0
  0
LINE
  5
1D5
330
37A
100
AcDbEntity
  8
0
  6
ByBlock
 62
     0
370
    -2
100
AcDbLine
 10
0.0
 20
0.0
 30
0.0
 11
-1.0
 21
0.0
 31
0.0
  0
ENDBLK
  5
37C
330
37A
100
AcDbEntity
  8
0
100
AcDbBlockEnd
  0
BLOCK
  5
383
330
23
100
AcDbEntity
  8
0
100
AcDbBlockBegin
  2
*Paper_Space1
 70
     0
 71
     0
 10
0.0
 20
0.0
 30
0.0
  3
*Paper_Space1
  1

  0
ENDBLK
  5
384
330
23
100
AcDbEntity
  8
0
100
AcDbBlockEnd
  0
BLOCK
  5
385
330
10B
100
AcDbEntity
  8
0
100
AcDbBlockBegin
  2
SW_NOTE_0
 70
     0
 71
     0
 10
0.0
 20
0.0
 30
0.0
  3
SW_NOTE_0
  1

  0
MTEXT
  5
10E
330
10B
100
AcDbEntity
  8
NOTES
 62
     0
100
AcDbMText
 10
0.0
 20
0.3759780907668229
 30
0.0
 40
0.2916666666666666
 41
0.0
 71
     1
 72
     1
  1
FROST PRODUCTS LTD.
  7
SLDTEXTSTYLE0
 73
     1
 44
1.0
  0
MTEXT
  5
10F
330
10B
100
AcDbEntity
  8
NOTES
 62
     0
100
AcDbMText
 10
0.0
 20
-0.0495142708586375
 30
0.0
 40
0.2291666666666666
 41
0.0
 71
     1
 72
     1
  1
5280 JOHN LUCUS DRIVE, BURLINGTON, ON, L7L 5Z9
  7
SLDTEXTSTYLE0
 73
     1
 44
1.0
  0
ENDBLK
  5
386
330
10B
100
AcDbEntity
  8
0
100
AcDbBlockEnd
  0
BLOCK
  5
387
330
111
100
AcDbEntity
  8
0
100
AcDbBlockBegin
  2
SW_NOTE_0_1
 70
     0
 71
     0
 10
0.0
 20
0.0
 30
0.0
  3
SW_NOTE_0_1
  1

  0
MTEXT
  5
115
330
111
100
AcDbEntity
  8
NOTES
 62
     0
100
AcDbMText
 10
0.0
 20
0.2381282770514712
 30
0.0
 40
0.1847290640394089
 41
0.0
 71
     1
 72
     1
  1
PROPRIETARY AND CONFIDENTIAL
  7
SLDTEXTSTYLE2
 73
     1
 44
1.0
  0
MTEXT
  5
117
330
111
100
AcDbEntity
  8
NOTES
 62
     0
100
AcDbMText
 10
0.0
 20
-0.0504364795553608
 30
0.0
 40
0.25
 41
0.0
 71
     1
 72
     1
  1
THE INFORMATION CONTAINED IN THIS DRAWING IS THE SOLE PROPERTY OF 
  7
SLDTEXTSTYLE3
 73
     1
 44
1.0
  0
MTEXT
  5
118
330
111
100
AcDbEntity
  8
NOTES
 62
     0
100
AcDbMText
 10
0.0
 20
-0.4231398940537119
 30
0.0
 40
0.25
 41
0.0
 71
     1
 72
     1
  1
FROST PRODUCTS LTD.  ANY REPRODUCTION IN PART OR AS A WHOLE WITHOUT 
  7
SLDTEXTSTYLE3
 73
     1
 44
1.0
  0
MTEXT
  5
119
330
111
100
AcDbEntity
  8
NOTES
 62
     0
100
AcDbMText
 10
0.0
 20
-0.7958433085520636
 30
0.0
 40
0.25
 41
0.0
 71
     1
 72
     1
  1
THE WRITTEN PERMISSION OF FROST PRODUCTS LTD. IS PROHIBITED.
  7
SLDTEXTSTYLE3
 73
     1
 44
1.0
  0
ENDBLK
  5
388
330
111
100
AcDbEntity
  8
0
100
AcDbBlockEnd
  0
BLOCK
  5
389
330
1D6
100
AcDbEntity
  8
0
100
AcDbBlockBegin
  2
_D
 70
     0
 71
     0
 10
0.0
 20
0.0
 30
0.0
  3
_D
  1

  0
INSERT
  5
1D9
330
1D6
100
AcDbEntity
  8
DIMS
100
AcDbBlockReference
  2
_Open90
 10
2.647647472519645
 20
7.234063259920653
 30
0.0
 41
0.3
 42
0.3
 50
270.0000000000004
  0
INSERT
  5
1DA
330
1D6
100
AcDbEntity
  8
DIMS
100
AcDbBlockReference
  2
_Open90
 10
2.647647472519645
 20
12.23406325992071
 30
0.0
 41
0.3
 42
0.3
 50
90.00000000000041
  0
LINE
  5
1DB
330
1D6
100
AcDbEntity
  8
DIMS
100
AcDbLine
 10
3.380022538136447
 20
12.23406325992071
 30
0.0
 11
2.272647472519645
 21
12.23406325992071
 31
0.0
  0
LINE
  5
1DC
330
1D6
100
AcDbEntity
  8
DIMS
100
AcDbLine
 10
2.647647472519645
 20
12.23406325992071
 30
0.0
 11
2.647647472519645
 21
9.64833496119455
 31
0.0
  0
MTEXT
  5
1DD
330
1D6
100
AcDbEntity
  8
DIMS
100
AcDbMText
 10
-31.548912365903
 20
9.493256867328592
 30
0.0
 40
0.5
 41
0.0
 71
     1
 72
     1
  3
                                                                                                                                                                                       48" (1220mm) bottom of mirror from floor. Positions may vary depend
  1
ing on size and the type of installation  
  7
SLDTEXTSTYLE1
 73
     1
 44
1.0
  0
MTEXT
  5
1DE
330
1D6
100
AcDbEntity
  8
DIMS
100
AcDbMText
 10
2.555286361149748
 20
7.112006795732619
 30
0.0
 40
0.5
 41
0.0
 71
     1
 72
     1
  1
 
  7
SLDTEXTSTYLE1
 73
     1
 44
1.0
  0
ENDBLK
  5
38A
330
1D6
100
AcDbEntity
  8
0
100
AcDbBlockEnd
  0
BLOCK
  5
38B
330
1E1
100
AcDbEntity
  8
0
100
AcDbBlockBegin
  2
_D_1
 70
     0
 71
     0
 10
0.0
 20
0.0
 30
0.0
  3
_D_1
  1

  0
INSERT
  5
1E4
330
1E1
100
AcDbEntity
  8
DIMS
100
AcDbBlockReference
  2
_Open90
 10
3.513789204803218
 20
43.21350499220416
 30
-0.7411391670766869
 41
0.3
 42
0.3
 50
180.0000000000005
  0
INSERT
  5
1E5
330
1E1
100
AcDbEntity
  8
DIMS
100
AcDbBlockReference
  2
_Open90
 10
19.64208920480327
 20
43.2135049922042
 30
-0.7411391670766869
 41
0.3
 42
0.3
 50
0.0000000000004834
  0
LINE
  5
1E6
330
1E1
100
AcDbEntity
  8
DIMS
100
AcDbLine
 10
11.58627254353581
 20
43.2647896905923
 30
0.0
 11
12.10224479298036
 21
43.2647896905923
 31
0.0
  0
LINE
  5
1E7
330
1E1
100
AcDbEntity
  8
DIMS
100
AcDbLine
 10
3.51378920480322
 20
42.48112992658738
 30
0.0
 11
3.513789204803218
 21
43.58850499220416
 31
0.0
  0
LINE
  5
1E8
330
1E1
100
AcDbEntity
  8
DIMS
100
AcDbLine
 10
19.64208920480327
 20
42.48112992658737
 30
0.0
 11
19.64208920480327
 21
43.5885049922042
 31
0.0
  0
LINE
  5
1E9
330
1E1
100
AcDbEntity
  8
DIMS
100
AcDbLine
 10
3.513789204803218
 20
43.21350499220416
 30
0.0
 11
10.77411975059418
 21
43.21350499220419
 31
0.0
  0
LINE
  5
1EA
330
1E1
100
AcDbEntity
  8
DIMS
100
AcDbLine
 10
19.64208920480327
 20
43.2135049922042
 30
0.0
 11
12.38175865901232
 21
43.21350499220419
 31
0.0
  0
MTEXT
  5
1EB
330
1E1
100
AcDbEntity
  8
DIMS
100
AcDbMText
 10
10.77411975059418
 20
43.49419075102367
 30
0.0
 40
0.5
 41
0.0
 71
     1
 72
     1
  1
16
  7
SLDTEXTSTYLE1
 73
     1
 44
1.0
  0
MTEXT
  5
1EC
330
1E1
100
AcDbEntity
  8
DIMS
100
AcDbMText
 10
11.6595364455183
 20
43.85950325006918
 30
0.0
 40
0.5
 41
0.0
 71
     1
 72
     1
  1
1
  7
SLDTEXTSTYLE1
 73
     1
 44
1.0
  0
MTEXT
  5
1ED
330
1E1
100
AcDbEntity
  8
DIMS
100
AcDbMText
 10
11.6595364455183
 20
43.19832267152115
 30
0.0
 40
0.5
 41
0.0
 71
     1
 72
     1
  1
8
  7
SLDTEXTSTYLE1
 73
     1
 44
1.0
  0
MTEXT
  5
1EE
330
1E1
100
AcDbEntity
  8
DIMS
100
AcDbMText
 10
12.17550869496284
 20
43.49419075102367
 30
0.0
 40
0.5
 41
0.0
 71
     1
 72
     1
  1
"
  7
SLDTEXTSTYLE1
 73
     1
 44
1.0
  0
ENDBLK
  5
38C
330
1E1
100
AcDbEntity
  8
0
100
AcDbBlockEnd
  0
BLOCK
  5
38D
330
1F0
100
AcDbEntity
  8
0
100
AcDbBlockBegin
  2
_D_2
 70
     0
 71
     0
 10
0.0
 20
0.0
 30
0.0
  3
_D_2
  1

  0
INSERT
  5
1F3
330
1F0
100
AcDbEntity
  8
DIMS
100
AcDbBlockReference
  2
_Open90
 10
21.21689235440963
 20
42.34736325992071
 30
-0.7411391670766869
 41
0.3
 42
0.3
 50
90.00000000000041
  0
INSERT
  5
1F4
330
1F0
100
AcDbEntity
  8
DIMS
100
AcDbBlockReference
  2
_Open90
 10
21.21689235440963
 20
12.23406325992065
 30
-0.7411391670766869
 41
0.3
 42
0.3
 50
270.0000000000004
  0
LINE
  5
1F5
330
1F0
100
AcDbEntity
  8
DIMS
100
AcDbLine
 10
21.22522569314218
 20
27.91975610873489
 30
0.0
 11
21.74119794258673
 21
27.91975610873489
 31
0.0
  0
LINE
  5
1F6
330
1F0
100
AcDbEntity
  8
DIMS
100
AcDbLine
 10
19.77585587146989
 20
42.34736325992071
 30
0.0
 11
21.59189235440963
 21
42.34736325992071
 31
0.0
  0
LINE
  5
1F7
330
1F0
100
AcDbEntity
  8
DIMS
100
AcDbLine
 10
19.76085587146978
 20
12.23406325992065
 30
0.0
 11
21.59189235440963
 21
12.23406325992065
 31
0.0
  0
LINE
  5
1F8
330
1F0
100
AcDbEntity
  8
DIMS
100
AcDbLine
 10
21.21689235440963
 20
42.34736325992071
 30
0.0
 11
21.21689235440963
 21
28.52232556363447
 31
0.0
  0
LINE
  5
1F9
330
1F0
100
AcDbEntity
  8
DIMS
100
AcDbLine
 10
21.21689235440963
 20
12.23406325992065
 30
0.0
 11
21.21689235440963
 21
27.21461725705908
 31
0.0
  0
MTEXT
  5
1FA
330
1F0
100
AcDbEntity
  8
DIMS
100
AcDbMText
 10
20.41307290020055
 20
28.14915716916627
 30
0.0
 40
0.5
 41
0.0
 71
     1
 72
     1
  1
30
  7
SLDTEXTSTYLE1
 73
     1
 44
1.0
  0
MTEXT
  5
1FB
330
1F0
100
AcDbEntity
  8
DIMS
100
AcDbMText
 10
21.29848959512467
 20
28.51446966821177
 30
0.0
 40
0.5
 41
0.0
 71
     1
 72
     1
  1
1
  7
SLDTEXTSTYLE1
 73
     1
 44
1.0
  0
MTEXT
  5
1FC
330
1F0
100
AcDbEntity
  8
DIMS
100
AcDbMText
 10
21.29848959512467
 20
27.85328908966373
 30
0.0
 40
0.5
 41
0.0
 71
     1
 72
     1
  1
8
  7
SLDTEXTSTYLE1
 73
     1
 44
1.0
  0
MTEXT
  5
1FD
330
1F0
100
AcDbEntity
  8
DIMS
100
AcDbMText
 10
21.81446184456921
 20
28.14915716916627
 30
0.0
 40
0.5
 41
0.0
 71
     1
 72
     1
  1
"
  7
SLDTEXTSTYLE1
 73
     1
 44
1.0
  0
ENDBLK
  5
38E
330
1F0
100
AcDbEntity
  8
0
100
AcDbBlockEnd
  0
BLOCK
  5
38F
330
22C
100
AcDbEntity
  8
0
100
AcDbBlockBegin
  2
_D_3
 70
     0
 71
     0
 10
0.0
 20
0.0
 30
0.0
  3
_D_3
  1

  0
INSERT
  5
22F
330
22C
100
AcDbEntity
  8
DIMS
100
AcDbBlockReference
  2
_Open90
 10
25.05793003228917
 20
43.21350499220419
 30
0.9147626772685735
 41
0.3
 42
0.3
 50
0.0000000000004071
  0
INSERT
  5
230
330
22C
100
AcDbEntity
  8
DIMS
100
AcDbBlockReference
  2
_Open90
 10
25.55373003228916
 20
43.21350499220419
 30
0.9147626772685735
 41
0.3
 42
0.3
 50
180.0000000000004
  0
LINE
  5
231
330
22C
100
AcDbEntity
  8
DIMS
100
AcDbLine
 10
23.35823624837679
 20
43.2647896905923
 30
0.0
 11
23.87420849782134
 21
43.2647896905923
 31
0.0
  0
LINE
  5
232
330
22C
100
AcDbEntity
  8
DIMS
100
AcDbLine
 10
25.05793003228917
 20
42.46571571302501
 30
0.0
 11
25.05793003228917
 21
43.58850499220419
 31
0.0
  0
LINE
  5
233
330
22C
100
AcDbEntity
  8
DIMS
100
AcDbLine
 10
25.55373003228916
 20
42.42116798581025
 30
0.0
 11
25.55373003228916
 21
43.58850499220419
 31
0.0
  0
LINE
  5
234
330
22C
100
AcDbEntity
  8
DIMS
100
AcDbLine
 10
25.05793003228917
 20
43.21350499220419
 30
0.0
 11
24.1537223638533
 21
43.21350499220419
 31
0.0
  0
LINE
  5
235
330
22C
100
AcDbEntity
  8
DIMS
100
AcDbLine
 10
25.55373003228916
 20
43.21350499220419
 30
0.0
 11
25.85373003228916
 21
43.21350499220419
 31
0.0
  0
MTEXT
  5
236
330
22C
100
AcDbEntity
  8
DIMS
100
AcDbMText
 10
23.43150015035928
 20
43.85950325006918
 30
0.0
 40
0.5
 41
0.0
 71
     1
 72
     1
  1
1
  7
SLDTEXTSTYLE1
 73
     1
 44
1.0
  0
MTEXT
  5
237
330
22C
100
AcDbEntity
  8
DIMS
100
AcDbMText
 10
23.43150015035928
 20
43.19832267152115
 30
0.0
 40
0.5
 41
0.0
 71
     1
 72
     1
  1
2
  7
SLDTEXTSTYLE1
 73
     1
 44
1.0
  0
MTEXT
  5
238
330
22C
100
AcDbEntity
  8
DIMS
100
AcDbMText
 10
23.94747239980382
 20
43.49419075102367
 30
0.0
 40
0.5
 41
0.0
 71
     1
 72
     1
  1
"
  7
SLDTEXTSTYLE1
 73
     1
 44
1.0
  0
ENDBLK
  5
390
330
22C
100
AcDbEntity
  8
0
100
AcDbBlockEnd
  0
BLOCK
  5
391
330
2DD
100
AcDbEntity
  8
0
100
AcDbBlockBegin
  2
_D_4
 70
     0
 71
     0
 10
0.0
 20
0.0
 30
0.0
  3
_D_4
  1

  0
INSERT
  5
2E0
330
2DD
100
AcDbEntity
  8
DIMS
100
AcDbBlockReference
  2
_Open90
 10
31.33890710942647
 20
38.0083397808879
 30
0.7411391670766806
 41
0.3
 42
0.3
 50
242.9399142560506
  0
LINE
  5
2E1
330
2DD
100
AcDbEntity
  8
DIMS
100
AcDbLine
 10
35.18089519870566
 20
43.37366396653514
 30
0.0
 11
36.06631189362978
 21
43.37366396653514
 31
0.0
  0
LINE
  5
2E2
330
2DD
100
AcDbEntity
  8
DIMS
100
AcDbLine
 10
31.33890710942647
 20
38.0083397808879
 30
0.0
 11
34.05356881438399
 21
43.32237926814702
 31
0.0
  0
LINE
  5
2E3
330
2DD
100
AcDbEntity
  8
DIMS
100
AcDbLine
 10
34.05356881438399
 20
43.32237926814702
 30
0.0
 11
34.35356881438399
 21
43.32237926814702
 31
0.0
  0
MTEXT
  5
2E4
330
2DD
100
AcDbEntity
  8
DIMS
100
AcDbMText
 10
34.35356881438399
 20
43.59542613771161
 30
0.0
 40
0.5
 41
0.0
 71
     1
 72
     1
  1
%%c
  7
SLDTEXTSTYLE1
 73
     1
 44
1.0
  0
MTEXT
  5
2E5
330
2DD
100
AcDbEntity
  8
DIMS
100
AcDbMText
 10
35.43888132342794
 20
43.96837752601201
 30
0.0
 40
0.5
 41
0.0
 71
     1
 72
     1
  1
3
  7
SLDTEXTSTYLE1
 73
     1
 44
1.0
  0
MTEXT
  5
2E6
330
2DD
100
AcDbEntity
  8
DIMS
100
AcDbMText
 10
35.25415910068815
 20
43.30719694746398
 30
0.0
 40
0.5
 41
0.0
 71
     1
 72
     1
  1
16
  7
SLDTEXTSTYLE1
 73
     1
 44
1.0
  0
MTEXT
  5
2E7
330
2DD
100
AcDbEntity
  8
DIMS
100
AcDbMText
 10
36.13957579561227
 20
43.60306502696651
 30
0.0
 40
0.5
 41
0.0
 71
     1
 72
     1
  1
"
  7
SLDTEXTSTYLE1
 73
     1
 44
1.0
  0
MTEXT
  5
2E8
330
2DD
100
AcDbEntity
  8
DIMS
100
AcDbMText
 10
36.34582575966175
 20
43.60306502696651
 30
0.0
 40
0.5
 41
0.0
 71
     1
 72
     1
  1
 mounting hole (4)
  7
SLDTEXTSTYLE1
 73
     1
 44
1.0
  0
ENDBLK
  5
392
330
2DD
100
AcDbEntity
  8
0
100
AcDbBlockEnd
  0
BLOCK
  5
393
330
2EA
100
AcDbEntity
  8
0
100
AcDbBlockBegin
  2
_D_5
 70
     0
 71
     0
 10
0.0
 20
0.0
 30
0.0
  3
_D_5
  1

  0
INSERT
  5
2ED
330
2EA
100
AcDbEntity
  8
DIMS
100
AcDbBlockReference
  2
_Open90
 10
31.29341464510822
 20
44.63082782684969
 30
0.7411391670766805
 41
0.3
 42
0.3
 50
180.0000000000004
  0
INSERT
  5
2EE
330
2EA
100
AcDbEntity
  8
DIMS
100
AcDbBlockReference
  2
_Open90
 10
44.66841464510822
 20
44.63082782684969
 30
0.7411391670766805
 41
0.3
 42
0.3
 50
0.0000000000004071
  0
LINE
  5
2EF
330
2EA
100
AcDbEntity
  8
DIMS
100
AcDbLine
 10
37.98924798384078
 20
44.68211252523781
 30
0.0
 11
38.50522023328532
 21
44.68211252523781
 31
0.0
  0
LINE
  5
2F0
330
2EA
100
AcDbEntity
  8
DIMS
100
AcDbLine
 10
31.29341464510822
 20
38.08595345383588
 30
0.0
 11
31.29341464510822
 21
45.00582782684969
 31
0.0
  0
LINE
  5
2F1
330
2EA
100
AcDbEntity
  8
DIMS
100
AcDbLine
 10
44.66841464510822
 20
38.08595345383589
 30
0.0
 11
44.66841464510822
 21
45.00582782684969
 31
0.0
  0
LINE
  5
2F2
330
2EA
100
AcDbEntity
  8
DIMS
100
AcDbLine
 10
31.29341464510822
 20
44.63082782684969
 30
0.0
 11
37.17709519089914
 21
44.63082782684969
 31
0.0
  0
LINE
  5
2F3
330
2EA
100
AcDbEntity
  8
DIMS
100
AcDbLine
 10
44.66841464510822
 20
44.63082782684969
 30
0.0
 11
38.7847340993173
 21
44.63082782684969
 31
0.0
  0
MTEXT
  5
2F4
330
2EA
100
AcDbEntity
  8
DIMS
100
AcDbMText
 10
37.17709519089914
 20
44.91151358566918
 30
0.0
 40
0.5
 41
0.0
 71
     1
 72
     1
  1
13
  7
SLDTEXTSTYLE1
 73
     1
 44
1.0
  0
MTEXT
  5
2F5
330
2EA
100
AcDbEntity
  8
DIMS
100
AcDbMText
 10
38.06251188582326
 20
45.27682608471468
 30
0.0
 40
0.5
 41
0.0
 71
     1
 72
     1
  1
3
  7
SLDTEXTSTYLE1
 73
     1
 44
1.0
  0
MTEXT
  5
2F6
330
2EA
100
AcDbEntity
  8
DIMS
100
AcDbMText
 10
38.06251188582326
 20
44.61564550616665
 30
0.0
 40
0.5
 41
0.0
 71
     1
 72
     1
  1
8
  7
SLDTEXTSTYLE1
 73
     1
 44
1.0
  0
MTEXT
  5
2F7
330
2EA
100
AcDbEntity
  8
DIMS
100
AcDbMText
 10
38.57848413526781
 20
44.91151358566918
 30
0.0
 40
0.5
 41
0.0
 71
     1
 72
     1
  1
"
  7
SLDTEXTSTYLE1
 73
     1
 44
1.0
  0
ENDBLK
  5
394
330
2EA
100
AcDbEntity
  8
0
100
AcDbBlockEnd
  0
BLOCK
  5
395
330
2F9
100
AcDbEntity
  8
0
100
AcDbBlockBegin
  2
_D_6
 70
     0
 71
     0
 10
0.0
 20
0.0
 30
0.0
  3
_D_6
  1

  0
INSERT
  5
2FC
330
2F9
100
AcDbEntity
  8
DIMS
100
AcDbBlockReference
  2
_Open90
 10
47.61986779471462
 20
37.91928678716922
 30
0.7411391670766805
 41
0.3
 42
0.3
 50
90.00000000000036
  0
INSERT
  5
2FD
330
2F9
100
AcDbEntity
  8
DIMS
100
AcDbBlockReference
  2
_Open90
 10
47.61986779471459
 20
16.64528678716923
 30
0.7411391670766805
 41
0.3
 42
0.3
 50
270.0000000000003
  0
LINE
  5
2FE
330
2F9
100
AcDbEntity
  8
DIMS
100
AcDbLine
 10
47.62820113344716
 20
27.65819267442975
 30
0.0
 11
48.14417338289171
 21
27.65819267442975
 31
0.0
  0
LINE
  5
2FF
330
2F9
100
AcDbEntity
  8
DIMS
100
AcDbLine
 10
44.83508131177489
 20
37.91928678716923
 30
0.0
 11
47.99486779471462
 21
37.91928678716922
 31
0.0
  0
LINE
  5
300
330
2F9
100
AcDbEntity
  8
DIMS
100
AcDbLine
 10
44.83508131177487
 20
16.64528678716923
 30
0.0
 11
47.9948677947146
 21
16.64528678716923
 31
0.0
  0
LINE
  5
301
330
2F9
100
AcDbEntity
  8
DIMS
100
AcDbLine
 10
47.61986779471462
 20
37.91928678716922
 30
0.0
 11
47.61986779471461
 21
28.26076212932933
 31
0.0
  0
LINE
  5
302
330
2F9
100
AcDbEntity
  8
DIMS
100
AcDbLine
 10
47.61986779471459
 20
16.64528678716923
 30
0.0
 11
47.61986779471461
 21
26.95305382275394
 31
0.0
  0
MTEXT
  5
303
330
2F9
100
AcDbEntity
  8
DIMS
100
AcDbMText
 10
46.81604834050553
 20
27.88759373486112
 30
0.0
 40
0.5
 41
0.0
 71
     1
 72
     1
  1
21
  7
SLDTEXTSTYLE1
 73
     1
 44
1.0
  0
MTEXT
  5
304
330
2F9
100
AcDbEntity
  8
DIMS
100
AcDbMText
 10
47.70146503542965
 20
28.25290623390663
 30
0.0
 40
0.5
 41
0.0
 71
     1
 72
     1
  1
1
  7
SLDTEXTSTYLE1
 73
     1
 44
1.0
  0
MTEXT
  5
305
330
2F9
100
AcDbEntity
  8
DIMS
100
AcDbMText
 10
47.70146503542965
 20
27.59172565535859
 30
0.0
 40
0.5
 41
0.0
 71
     1
 72
     1
  1
4
  7
SLDTEXTSTYLE1
 73
     1
 44
1.0
  0
MTEXT
  5
306
330
2F9
100
AcDbEntity
  8
DIMS
100
AcDbMText
 10
48.21743728487419
 20
27.88759373486112
 30
0.0
 40
0.5
 41
0.0
 71
     1
 72
     1
  1
"
  7
SLDTEXTSTYLE1
 73
     1
 44
1.0
  0
ENDBLK
  5
396
330
2F9
100
AcDbEntity
  8
0
100
AcDbBlockEnd
  0
BLOCK
  5
397
330
308
100
AcDbEntity
  8
0
100
AcDbBlockBegin
  2
_D_7
 70
     0
 71
     0
 10
0.0
 20
0.0
 30
0.0
  3
_D_7
  1

  0
INSERT
  5
30B
330
308
100
AcDbEntity
  8
DIMS
100
AcDbBlockReference
  2
_Open90
 10
47.61986779471459
 20
16.64528678716925
 30
0.7411391670766805
 41
0.3
 42
0.3
 50
90.00000000000074
  0
INSERT
  5
30C
330
308
100
AcDbEntity
  8
DIMS
100
AcDbBlockReference
  2
_Open90
 10
47.61986779471462
 20
12.25196325992073
 30
0.7411391670766805
 41
0.3
 42
0.3
 50
270.0000000000007
  0
LINE
  5
30D
330
308
100
AcDbEntity
  8
DIMS
100
AcDbLine
 10
47.44347887404113
 20
14.77417859320247
 30
0.0
 11
47.95945112348568
 21
14.77417859320247
 31
0.0
  0
LINE
  5
30E
330
308
100
AcDbEntity
  8
DIMS
100
AcDbLine
 10
44.83508131177487
 20
16.64528678716923
 30
0.0
 11
47.9948677947146
 21
16.64528678716925
 31
0.0
  0
LINE
  5
30F
330
308
100
AcDbEntity
  8
DIMS
100
AcDbLine
 10
46.14758131177501
 20
12.25196325992072
 30
0.0
 11
47.99486779471462
 21
12.25196325992073
 31
0.0
  0
LINE
  5
310
330
308
100
AcDbEntity
  8
DIMS
100
AcDbLine
 10
47.61986779471459
 20
16.64528678716925
 30
0.0
 11
47.61986779471461
 21
15.37674804810204
 31
0.0
  0
LINE
  5
311
330
308
100
AcDbEntity
  8
DIMS
100
AcDbLine
 10
47.61986779471462
 20
12.25196325992073
 30
0.0
 11
47.61986779471461
 21
14.06903974152665
 31
0.0
  0
MTEXT
  5
312
330
308
100
AcDbEntity
  8
DIMS
100
AcDbMText
 10
47.00077052657907
 20
15.00357965363384
 30
0.0
 40
0.5
 41
0.0
 71
     1
 72
     1
  1
4
  7
SLDTEXTSTYLE1
 73
     1
 44
1.0
  0
MTEXT
  5
313
330
308
100
AcDbEntity
  8
DIMS
100
AcDbMText
 10
47.51674277602362
 20
15.36889215267935
 30
0.0
 40
0.5
 41
0.0
 71
     1
 72
     1
  1
3
  7
SLDTEXTSTYLE1
 73
     1
 44
1.0
  0
MTEXT
  5
314
330
308
100
AcDbEntity
  8
DIMS
100
AcDbMText
 10
47.51674277602362
 20
14.70771157413131
 30
0.0
 40
0.5
 41
0.0
 71
     1
 72
     1
  1
8
  7
SLDTEXTSTYLE1
 73
     1
 44
1.0
  0
MTEXT
  5
315
330
308
100
AcDbEntity
  8
DIMS
100
AcDbMText
 10
48.03271502546816
 20
15.00357965363384
 30
0.0
 40
0.5
 41
0.0
 71
     1
 72
     1
  1
"
  7
SLDTEXTSTYLE1
 73
     1
 44
1.0
  0
ENDBLK
  5
398
330
308
100
AcDbEntity
  8
0
100
AcDbBlockEnd
  0
BLOCK
  5
399
330
317
100
AcDbEntity
  8
0
100
AcDbBlockBegin
  2
_D_8
 70
     0
 71
     0
 10
0.0
 20
0.0
 30
0.0
  3
_D_8
  1

  0
INSERT
  5
31A
330
317
100
AcDbEntity
  8
DIMS
100
AcDbBlockReference
  2
_Open90
 10
47.61986779471462
 20
37.91928678716923
 30
0.7411391670766805
 41
0.3
 42
0.3
 50
270.0000000000004
  0
INSERT
  5
31B
330
317
100
AcDbEntity
  8
DIMS
100
AcDbBlockReference
  2
_Open90
 10
47.61986779471462
 20
42.34736325992071
 30
0.7411391670766805
 41
0.3
 42
0.3
 50
90.00000000000041
  0
LINE
  5
31C
330
317
100
AcDbEntity
  8
DIMS
100
AcDbLine
 10
47.25875668796761
 20
39.9633695622091
 30
0.0
 11
48.14417338289173
 21
39.9633695622091
 31
0.0
  0
LINE
  5
31D
330
317
100
AcDbEntity
  8
DIMS
100
AcDbLine
 10
44.83508131177489
 20
37.91928678716923
 30
0.0
 11
47.99486779471462
 21
37.91928678716923
 31
0.0
  0
LINE
  5
31E
330
317
100
AcDbEntity
  8
DIMS
100
AcDbLine
 10
46.17883131177488
 20
42.34736325992071
 30
0.0
 11
47.99486779471462
 21
42.34736325992071
 31
0.0
  0
LINE
  5
31F
330
317
100
AcDbEntity
  8
DIMS
100
AcDbLine
 10
47.61986779471462
 20
37.91928678716923
 30
0.0
 11
47.61986779471462
 21
39.25823071053329
 31
0.0
  0
LINE
  5
320
330
317
100
AcDbEntity
  8
DIMS
100
AcDbLine
 10
47.61986779471462
 20
42.34736325992071
 30
0.0
 11
47.61986779471462
 21
40.56593901710866
 31
0.0
  0
MTEXT
  5
321
330
317
100
AcDbEntity
  8
DIMS
100
AcDbMText
 10
46.81604834050555
 20
40.19277062264047
 30
0.0
 40
0.5
 41
0.0
 71
     1
 72
     1
  1
4
  7
SLDTEXTSTYLE1
 73
     1
 44
1.0
  0
MTEXT
  5
322
330
317
100
AcDbEntity
  8
DIMS
100
AcDbMText
 10
47.51674281268988
 20
40.55808312168597
 30
0.0
 40
0.5
 41
0.0
 71
     1
 72
     1
  1
7
  7
SLDTEXTSTYLE1
 73
     1
 44
1.0
  0
MTEXT
  5
323
330
317
100
AcDbEntity
  8
DIMS
100
AcDbMText
 10
47.3320205899501
 20
39.89690254313793
 30
0.0
 40
0.5
 41
0.0
 71
     1
 72
     1
  1
16
  7
SLDTEXTSTYLE1
 73
     1
 44
1.0
  0
MTEXT
  5
324
330
317
100
AcDbEntity
  8
DIMS
100
AcDbMText
 10
48.21743728487422
 20
40.19277062264047
 30
0.0
 40
0.5
 41
0.0
 71
     1
 72
     1
  1
"
  7
SLDTEXTSTYLE1
 73
     1
 44
1.0
  0
ENDBLK
  5
39A
330
317
100
AcDbEntity
  8
0
100
AcDbBlockEnd
  0
BLOCK
  5
39B
330
365
100
AcDbEntity
  8
0
100
AcDbBlockBegin
  2
SW_NOTE_0_2
 70
     0
 71
     0
 10
0.0
 20
0.0
 30
0.0
  3
SW_NOTE_0_2
  1

  0
MTEXT
  5
368
330
365
100
AcDbEntity
  8
NOTES
 62
     0
100
AcDbMText
 10
0.0
 20
0.6386718750000004
 30
0.0
 40
0.5
 41
0.0
 71
     1
 72
     1
  1
3D view
  7
SLDTEXTSTYLE1
 73
     1
 44
1.0
  0
MTEXT
  5
369
330
365
100
AcDbEntity
  8
NOTES
 62
     0
100
AcDbMText
 10
0.0
 20
-0.3613281862472921
 30
0.0
 40
0.5
 41
0.0
 71
     1
 72
     1
  1
code 941-1630
  7
SLDTEXTSTYLE1
 73
     1
 44
1.0
  0
ENDBLK
  5
39C
330
365
100
AcDbEntity
  8
0
100
AcDbBlockEnd
  0
ENDSEC
  0
SECTION
  2
ENTITIES
  0
LINE
  5
7A
330
1F
100
AcDbEntity
  8
TITLE
370
    50
100
AcDbLine
 10
52.5182230240126
 20
1.487611764461629
 30
0.0
 11
69.49998645119504
 21
1.487611764461629
 31
0.0
  0
LINE
  5
7B
330
1F
100
AcDbEntity
  8
TITLE
370
    50
100
AcDbLine
 10
69.49993174424404
 20
5.475360393555786
 30
0.0
 11
59.31053507231783
 21
5.475360393555786
 31
0.0
  0
LINE
  5
7C
330
1F
100
AcDbEntity
  8
TITLE
  6
SLD-Solid
370
    18
100
AcDbLine
 10
0.5
 20
0.5
 30
0.0
 11
0.5
 21
49.50000000000001
 31
0.0
  0
LINE
  5
7D
330
1F
100
AcDbEntity
  8
TITLE
  6
SLD-Solid
370
    18
100
AcDbLine
 10
0.5
 20
49.50000000000001
 30
0.0
 11
69.5
 21
49.50000000000001
 31
0.0
  0
LINE
  5
7E
330
1F
100
AcDbEntity
  8
TITLE
370
    50
100
AcDbLine
 10
52.5182230240126
 20
2.54278772310344
 30
0.0
 11
45.50597912026433
 21
2.54278772310344
 31
0.0
  0
LINE
  5
7F
330
1F
100
AcDbEntity
  8
TITLE
370
    50
100
AcDbLine
 10
52.5182230240126
 20
1.487611764461629
 30
0.0
 11
45.50597912026433
 21
1.487611764461629
 31
0.0
  0
LINE
  5
80
330
1F
100
AcDbEntity
  8
TITLE
  6
SLD-Solid
370
    18
100
AcDbLine
 10
69.5
 20
49.50000000000001
 30
0.0
 11
69.5
 21
0.5
 31
0.0
  0
LINE
  5
81
330
1F
100
AcDbEntity
  8
TITLE
  6
SLD-Solid
370
    18
100
AcDbLine
 10
69.5
 20
0.5
 30
0.0
 11
0.5
 21
0.5
 31
0.0
  0
LINE
  5
82
330
1F
100
AcDbEntity
  8
TITLE
370
    50
100
AcDbLine
 10
52.5182230240126
 20
1.487611764461629
 30
0.0
 11
52.5182230240126
 21
3.597963681745254
 31
0.0
  0
LINE
  5
83
330
1F
100
AcDbEntity
  8
TITLE
370
    50
100
AcDbLine
 10
45.50597912026433
 20
3.597963681745254
 30
0.0
 11
45.50597912026433
 21
0.4999999999999996
 31
0.0
  0
LINE
  5
84
330
1F
100
AcDbEntity
  8
TITLE
370
    50
100
AcDbLine
 10
45.50597912026433
 20
0.4999999999999996
 30
0.0
 11
69.5
 21
0.4999999999999996
 31
0.0
  0
LINE
  5
85
330
1F
100
AcDbEntity
  8
TITLE
370
    50
100
AcDbLine
 10
69.49993174424404
 20
5.475360393555786
 30
0.0
 11
69.5
 21
0.4999999999999996
 31
0.0
  0
LINE
  5
86
330
1F
100
AcDbEntity
  8
TITLE
  6
SLD-Solid
370
    18
100
AcDbLine
 10
0.4999606299212599
 20
25.0
 30
0.0
 11
0.5000393700787401
 21
25.0
 31
0.0
  0
LINE
  5
87
330
1F
100
AcDbEntity
  8
TITLE
370
    50
100
AcDbLine
 10
52.5182230240126
 20
3.597963681745254
 30
0.0
 11
45.50597912026433
 21
3.597963681745254
 31
0.0
  0
LINE
  5
88
330
1F
100
AcDbEntity
  8
TITLE
370
    50
100
AcDbLine
 10
52.5182230240126
 20
3.597963681745254
 30
0.0
 11
69.49976156426075
 21
3.597964834324629
 31
0.0
  0
LINE
  5
89
330
1F
100
AcDbEntity
  8
TITLE
370
    50
100
AcDbLine
 10
59.31053507231783
 20
5.475360393555786
 30
0.0
 11
59.31053507231783
 21
0.4636772425222307
 31
0.0
  0
LINE
  5
8A
330
1F
100
AcDbEntity
  8
TITLE
  6
SLD-Solid
370
    18
100
AcDbLine
 10
35.0
 20
49.50003937007874
 30
0.0
 11
35.0
 21
49.49996062992127
 31
0.0
  0
LINE
  5
8B
330
1F
100
AcDbEntity
  8
TITLE
  6
SLD-Solid
370
    18
100
AcDbLine
 10
69.50003937007874
 20
25.0
 30
0.0
 11
69.49996062992126
 21
25.0
 31
0.0
  0
LINE
  5
8C
330
1F
100
AcDbEntity
  8
TITLE
  6
SLD-Solid
370
    18
100
AcDbLine
 10
35.0
 20
0.4999606299212599
 30
0.0
 11
35.0
 21
0.5000393700787401
 31
0.0
  0
LINE
  5
8D
330
1F
100
AcDbEntity
  8
TITLE
  6
SLD-Solid
370
    18
100
AcDbLine
 10
0.5
 20
3.346456692913384
 30
0.0
 11
0.1653543307086614
 21
3.346456692913384
 31
0.0
  0
LINE
  5
8E
330
1F
100
AcDbEntity
  8
TITLE
  6
SLD-Solid
370
    18
100
AcDbLine
 10
69.5
 20
3.346456692913384
 30
0.0
 11
69.83464566929135
 21
3.346456692913384
 31
0.0
  0
LINE
  5
8F
330
1F
100
AcDbEntity
  8
TITLE
  6
SLD-Solid
370
    18
100
AcDbLine
 10
0.5
 20
5.31496062992126
 30
0.0
 11
0.1653543307086614
 21
5.31496062992126
 31
0.0
  0
LINE
  5
90
330
1F
100
AcDbEntity
  8
TITLE
  6
SLD-Solid
370
    18
100
AcDbLine
 10
69.5
 20
5.31496062992126
 30
0.0
 11
69.83464566929135
 21
5.31496062992126
 31
0.0
  0
LINE
  5
91
330
1F
100
AcDbEntity
  8
TITLE
  6
SLD-Solid
370
    18
100
AcDbLine
 10
0.5
 20
7.283464566929134
 30
0.0
 11
0.1653543307086614
 21
7.283464566929134
 31
0.0
  0
LINE
  5
39D
330
1F
100
AcDbEntity
  8
TITLE
  6
SLD-Solid
370
    18
100
AcDbLine
 10
69.5
 20
7.283464566929134
 30
0.0
 11
69.83464566929135
 21
7.283464566929134
 31
0.0
  0
LINE
  5
39E
330
1F
100
AcDbEntity
  8
TITLE
  6
SLD-Solid
370
    18
100
AcDbLine
 10
0.5
 20
9.251968503937007
 30
0.0
 11
0.1653543307086614
 21
9.251968503937007
 31
0.0
  0
LINE
  5
94
330
1F
100
AcDbEntity
  8
TITLE
  6
SLD-Solid
370
    18
100
AcDbLine
 10
69.5
 20
9.251968503937007
 30
0.0
 11
69.83464566929135
 21
9.251968503937007
 31
0.0
  0
LINE
  5
95
330
1F
100
AcDbEntity
  8
TITLE
  6
SLD-Solid
370
    18
100
AcDbLine
 10
0.5
 20
11.22047244094488
 30
0.0
 11
0.1653543307086614
 21
11.22047244094488
 31
0.0
  0
LINE
  5
96
330
1F
100
AcDbEntity
  8
TITLE
  6
SLD-Solid
370
    18
100
AcDbLine
 10
69.5
 20
11.22047244094488
 30
0.0
 11
69.83464566929135
 21
11.22047244094488
 31
0.0
  0
LINE
  5
39F
330
1F
100
AcDbEntity
  8
TITLE
  6
SLD-Solid
370
    18
100
AcDbLine
 10
0.5
 20
13.18897637795276
 30
0.0
 11
0.1653543307086614
 21
13.18897637795276
 31
0.0
  0
LINE
  5
3A0
330
1F
100
AcDbEntity
  8
TITLE
  6
SLD-Solid
370
    18
100
AcDbLine
 10
69.5
 20
13.18897637795276
 30
0.0
 11
69.83464566929135
 21
13.18897637795276
 31
0.0
  0
LINE
  5
99
330
1F
100
AcDbEntity
  8
TITLE
  6
SLD-Solid
370
    18
100
AcDbLine
 10
0.5
 20
15.15748031496063
 30
0.0
 11
0.1653543307086614
 21
15.15748031496063
 31
0.0
  0
LINE
  5
9A
330
1F
100
AcDbEntity
  8
TITLE
  6
SLD-Solid
370
    18
100
AcDbLine
 10
69.5
 20
15.15748031496063
 30
0.0
 11
69.83464566929135
 21
15.15748031496063
 31
0.0
  0
LINE
  5
9B
330
1F
100
AcDbEntity
  8
TITLE
  6
SLD-Solid
370
    18
100
AcDbLine
 10
0.5
 20
17.1259842519685
 30
0.0
 11
0.1653543307086614
 21
17.1259842519685
 31
0.0
  0
LINE
  5
9C
330
1F
100
AcDbEntity
  8
TITLE
  6
SLD-Solid
370
    18
100
AcDbLine
 10
69.5
 20
17.1259842519685
 30
0.0
 11
69.83464566929135
 21
17.1259842519685
 31
0.0
  0
LINE
  5
9D
330
1F
100
AcDbEntity
  8
TITLE
  6
SLD-Solid
370
    18
100
AcDbLine
 10
0.5
 20
19.09448818897638
 30
0.0
 11
0.1653543307086614
 21
19.09448818897638
 31
0.0
  0
LINE
  5
9E
330
1F
100
AcDbEntity
  8
TITLE
  6
SLD-Solid
370
    18
100
AcDbLine
 10
69.5
 20
19.09448818897638
 30
0.0
 11
69.83464566929135
 21
19.09448818897638
 31
0.0
  0
LINE
  5
9F
330
1F
100
AcDbEntity
  8
TITLE
  6
SLD-Solid
370
    18
100
AcDbLine
 10
0.5
 20
21.06299212598426
 30
0.0
 11
0.1653543307086614
 21
21.06299212598426
 31
0.0
  0
LINE
  5
A0
330
1F
100
AcDbEntity
  8
TITLE
  6
SLD-Solid
370
    18
100
AcDbLine
 10
69.5
 20
21.06299212598426
 30
0.0
 11
69.83464566929135
 21
21.06299212598426
 31
0.0
  0
LINE
  5
A1
330
1F
100
AcDbEntity
  8
TITLE
  6
SLD-Solid
370
    18
100
AcDbLine
 10
0.5
 20
23.03149606299213
 30
0.0
 11
0.1653543307086614
 21
23.03149606299213
 31
0.0
  0
LINE
  5
A2
330
1F
100
AcDbEntity
  8
TITLE
  6
SLD-Solid
370
    18
100
AcDbLine
 10
69.5
 20
23.03149606299213
 30
0.0
 11
69.83464566929135
 21
23.03149606299213
 31
0.0
  0
LINE
  5
A3
330
1F
100
AcDbEntity
  8
TITLE
  6
SLD-Solid
370
    18
100
AcDbLine
 10
0.5
 20
25.0
 30
0.0
 11
0.1653543307086614
 21
25.0
 31
0.0
  0
LINE
  5
A4
330
1F
100
AcDbEntity
  8
TITLE
  6
SLD-Solid
370
    18
100
AcDbLine
 10
69.5
 20
25.0
 30
0.0
 11
69.83464566929135
 21
25.0
 31
0.0
  0
LINE
  5
A5
330
1F
100
AcDbEntity
  8
TITLE
  6
SLD-Solid
370
    18
100
AcDbLine
 10
0.5
 20
26.96850393700788
 30
0.0
 11
0.1653543307086614
 21
26.96850393700788
 31
0.0
  0
LINE
  5
A6
330
1F
100
AcDbEntity
  8
TITLE
  6
SLD-Solid
370
    18
100
AcDbLine
 10
69.5
 20
26.96850393700788
 30
0.0
 11
69.83464566929135
 21
26.96850393700788
 31
0.0
  0
LINE
  5
A7
330
1F
100
AcDbEntity
  8
TITLE
  6
SLD-Solid
370
    18
100
AcDbLine
 10
0.5
 20
28.93700787401575
 30
0.0
 11
0.1653543307086614
 21
28.93700787401575
 31
0.0
  0
LINE
  5
A8
330
1F
100
AcDbEntity
  8
TITLE
  6
SLD-Solid
370
    18
100
AcDbLine
 10
69.5
 20
28.93700787401575
 30
0.0
 11
69.83464566929135
 21
28.93700787401575
 31
0.0
  0
LINE
  5
A9
330
1F
100
AcDbEntity
  8
TITLE
  6
SLD-Solid
370
    18
100
AcDbLine
 10
0.5
 20
30.90551181102363
 30
0.0
 11
0.1653543307086614
 21
30.90551181102363
 31
0.0
  0
LINE
  5
AA
330
1F
100
AcDbEntity
  8
TITLE
  6
SLD-Solid
370
    18
100
AcDbLine
 10
69.5
 20
30.90551181102363
 30
0.0
 11
69.83464566929135
 21
30.90551181102363
 31
0.0
  0
LINE
  5
AB
330
1F
100
AcDbEntity
  8
TITLE
  6
SLD-Solid
370
    18
100
AcDbLine
 10
0.5
 20
32.8740157480315
 30
0.0
 11
0.1653543307086614
 21
32.8740157480315
 31
0.0
  0
LINE
  5
AC
330
1F
100
AcDbEntity
  8
TITLE
  6
SLD-Solid
370
    18
100
AcDbLine
 10
69.5
 20
32.8740157480315
 30
0.0
 11
69.83464566929135
 21
32.8740157480315
 31
0.0
  0
LINE
  5
AD
330
1F
100
AcDbEntity
  8
TITLE
  6
SLD-Solid
370
    18
100
AcDbLine
 10
0.5
 20
34.84251968503937
 30
0.0
 11
0.1653543307086614
 21
34.84251968503937
 31
0.0
  0
LINE
  5
AE
330
1F
100
AcDbEntity
  8
TITLE
  6
SLD-Solid
370
    18
100
AcDbLine
 10
69.5
 20
34.84251968503937
 30
0.0
 11
69.83464566929135
 21
34.84251968503937
 31
0.0
  0
LINE
  5
AF
330
1F
100
AcDbEntity
  8
TITLE
  6
SLD-Solid
370
    18
100
AcDbLine
 10
0.5
 20
36.81102362204724
 30
0.0
 11
0.1653543307086614
 21
36.81102362204724
 31
0.0
  0
LINE
  5
B0
330
1F
100
AcDbEntity
  8
TITLE
  6
SLD-Solid
370
    18
100
AcDbLine
 10
69.5
 20
36.81102362204724
 30
0.0
 11
69.83464566929135
 21
36.81102362204724
 31
0.0
  0
LINE
  5
B1
330
1F
100
AcDbEntity
  8
TITLE
  6
SLD-Solid
370
    18
100
AcDbLine
 10
0.5
 20
38.77952755905513
 30
0.0
 11
0.1653543307086614
 21
38.77952755905513
 31
0.0
  0
LINE
  5
B2
330
1F
100
AcDbEntity
  8
TITLE
  6
SLD-Solid
370
    18
100
AcDbLine
 10
69.5
 20
38.77952755905513
 30
0.0
 11
69.83464566929135
 21
38.77952755905513
 31
0.0
  0
LINE
  5
B3
330
1F
100
AcDbEntity
  8
TITLE
  6
SLD-Solid
370
    18
100
AcDbLine
 10
0.5
 20
40.748031496063
 30
0.0
 11
0.1653543307086614
 21
40.748031496063
 31
0.0
  0
LINE
  5
B4
330
1F
100
AcDbEntity
  8
TITLE
  6
SLD-Solid
370
    18
100
AcDbLine
 10
69.5
 20
40.748031496063
 30
0.0
 11
69.83464566929135
 21
40.748031496063
 31
0.0
  0
LINE
  5
B5
330
1F
100
AcDbEntity
  8
TITLE
  6
SLD-Solid
370
    18
100
AcDbLine
 10
0.5
 20
42.71653543307087
 30
0.0
 11
0.1653543307086614
 21
42.71653543307087
 31
0.0
  0
LINE
  5
B6
330
1F
100
AcDbEntity
  8
TITLE
  6
SLD-Solid
370
    18
100
AcDbLine
 10
69.5
 20
42.71653543307087
 30
0.0
 11
69.83464566929135
 21
42.71653543307087
 31
0.0
  0
LINE
  5
B7
330
1F
100
AcDbEntity
  8
TITLE
  6
SLD-Solid
370
    18
100
AcDbLine
 10
0.5
 20
44.68503937007874
 30
0.0
 11
0.1653543307086614
 21
44.68503937007874
 31
0.0
  0
LINE
  5
B8
330
1F
100
AcDbEntity
  8
TITLE
  6
SLD-Solid
370
    18
100
AcDbLine
 10
69.5
 20
44.68503937007874
 30
0.0
 11
69.83464566929135
 21
44.68503937007874
 31
0.0
  0
LINE
  5
B9
330
1F
100
AcDbEntity
  8
TITLE
  6
SLD-Solid
370
    18
100
AcDbLine
 10
0.5
 20
46.65354330708661
 30
0.0
 11
0.1653543307086614
 21
46.65354330708661
 31
0.0
  0
LINE
  5
BA
330
1F
100
AcDbEntity
  8
TITLE
  6
SLD-Solid
370
    18
100
AcDbLine
 10
69.5
 20
46.65354330708661
 30
0.0
 11
69.83464566929135
 21
46.65354330708661
 31
0.0
  0
LINE
  5
BB
330
1F
100
AcDbEntity
  8
TITLE
  6
SLD-Solid
370
    18
100
AcDbLine
 10
1.535433070866139
 20
49.50000000000001
 30
0.0
 11
1.535433070866139
 21
49.83464566929134
 31
0.0
  0
LINE
  5
BC
330
1F
100
AcDbEntity
  8
TITLE
  6
SLD-Solid
370
    18
100
AcDbLine
 10
1.535433070866139
 20
0.5
 30
0.0
 11
1.535433070866139
 21
0.1653543307086614
 31
0.0
  0
LINE
  5
BD
330
1F
100
AcDbEntity
  8
TITLE
  6
SLD-Solid
370
    18
100
AcDbLine
 10
3.503937007874014
 20
49.50000000000001
 30
0.0
 11
3.503937007874014
 21
49.83464566929134
 31
0.0
  0
LINE
  5
BE
330
1F
100
AcDbEntity
  8
TITLE
  6
SLD-Solid
370
    18
100
AcDbLine
 10
3.503937007874014
 20
0.5
 30
0.0
 11
3.503937007874014
 21
0.1653543307086614
 31
0.0
  0
LINE
  5
BF
330
1F
100
AcDbEntity
  8
TITLE
  6
SLD-Solid
370
    18
100
AcDbLine
 10
5.472440944881891
 20
49.50000000000001
 30
0.0
 11
5.472440944881891
 21
49.83464566929134
 31
0.0
  0
LINE
  5
C0
330
1F
100
AcDbEntity
  8
TITLE
  6
SLD-Solid
370
    18
100
AcDbLine
 10
5.472440944881891
 20
0.5
 30
0.0
 11
5.472440944881891
 21
0.1653543307086614
 31
0.0
  0
LINE
  5
C1
330
1F
100
AcDbEntity
  8
TITLE
  6
SLD-Solid
370
    18
100
AcDbLine
 10
7.440944881889762
 20
49.50000000000001
 30
0.0
 11
7.440944881889762
 21
49.83464566929134
 31
0.0
  0
LINE
  5
C2
330
1F
100
AcDbEntity
  8
TITLE
  6
SLD-Solid
370
    18
100
AcDbLine
 10
7.440944881889762
 20
0.5
 30
0.0
 11
7.440944881889762
 21
0.1653543307086614
 31
0.0
  0
LINE
  5
C3
330
1F
100
AcDbEntity
  8
TITLE
  6
SLD-Solid
370
    18
100
AcDbLine
 10
9.409448818897637
 20
49.50000000000001
 30
0.0
 11
9.409448818897637
 21
49.83464566929134
 31
0.0
  0
LINE
  5
C4
330
1F
100
AcDbEntity
  8
TITLE
  6
SLD-Solid
370
    18
100
AcDbLine
 10
9.409448818897637
 20
0.5
 30
0.0
 11
9.409448818897637
 21
0.1653543307086614
 31
0.0
  0
LINE
  5
C5
330
1F
100
AcDbEntity
  8
TITLE
  6
SLD-Solid
370
    18
100
AcDbLine
 10
11.37795275590551
 20
49.50000000000001
 30
0.0
 11
11.37795275590551
 21
49.83464566929134
 31
0.0
  0
LINE
  5
C6
330
1F
100
AcDbEntity
  8
TITLE
  6
SLD-Solid
370
    18
100
AcDbLine
 10
11.37795275590551
 20
0.5
 30
0.0
 11
11.37795275590551
 21
0.1653543307086614
 31
0.0
  0
LINE
  5
C7
330
1F
100
AcDbEntity
  8
TITLE
  6
SLD-Solid
370
    18
100
AcDbLine
 10
13.34645669291339
 20
49.50000000000001
 30
0.0
 11
13.34645669291339
 21
49.83464566929134
 31
0.0
  0
LINE
  5
C8
330
1F
100
AcDbEntity
  8
TITLE
  6
SLD-Solid
370
    18
100
AcDbLine
 10
13.34645669291339
 20
0.5
 30
0.0
 11
13.34645669291339
 21
0.1653543307086614
 31
0.0
  0
LINE
  5
C9
330
1F
100
AcDbEntity
  8
TITLE
  6
SLD-Solid
370
    18
100
AcDbLine
 10
15.31496062992126
 20
49.50000000000001
 30
0.0
 11
15.31496062992126
 21
49.83464566929134
 31
0.0
  0
LINE
  5
CA
330
1F
100
AcDbEntity
  8
TITLE
  6
SLD-Solid
370
    18
100
AcDbLine
 10
15.31496062992126
 20
0.5
 30
0.0
 11
15.31496062992126
 21
0.1653543307086614
 31
0.0
  0
LINE
  5
CB
330
1F
100
AcDbEntity
  8
TITLE
  6
SLD-Solid
370
    18
100
AcDbLine
 10
17.28346456692913
 20
49.50000000000001
 30
0.0
 11
17.28346456692913
 21
49.83464566929134
 31
0.0
  0
LINE
  5
CC
330
1F
100
AcDbEntity
  8
TITLE
  6
SLD-Solid
370
    18
100
AcDbLine
 10
17.28346456692913
 20
0.5
 30
0.0
 11
17.28346456692913
 21
0.1653543307086614
 31
0.0
  0
LINE
  5
CD
330
1F
100
AcDbEntity
  8
TITLE
  6
SLD-Solid
370
    18
100
AcDbLine
 10
19.25196850393701
 20
49.50000000000001
 30
0.0
 11
19.25196850393701
 21
49.83464566929134
 31
0.0
  0
LINE
  5
CE
330
1F
100
AcDbEntity
  8
TITLE
  6
SLD-Solid
370
    18
100
AcDbLine
 10
19.25196850393701
 20
0.5
 30
0.0
 11
19.25196850393701
 21
0.1653543307086614
 31
0.0
  0
LINE
  5
CF
330
1F
100
AcDbEntity
  8
TITLE
  6
SLD-Solid
370
    18
100
AcDbLine
 10
21.22047244094488
 20
49.50000000000001
 30
0.0
 11
21.22047244094488
 21
49.83464566929134
 31
0.0
  0
LINE
  5
D0
330
1F
100
AcDbEntity
  8
TITLE
  6
SLD-Solid
370
    18
100
AcDbLine
 10
21.22047244094488
 20
0.5
 30
0.0
 11
21.22047244094488
 21
0.1653543307086614
 31
0.0
  0
LINE
  5
D1
330
1F
100
AcDbEntity
  8
TITLE
  6
SLD-Solid
370
    18
100
AcDbLine
 10
23.18897637795276
 20
49.50000000000001
 30
0.0
 11
23.18897637795276
 21
49.83464566929134
 31
0.0
  0
LINE
  5
D2
330
1F
100
AcDbEntity
  8
TITLE
  6
SLD-Solid
370
    18
100
AcDbLine
 10
23.18897637795276
 20
0.5
 30
0.0
 11
23.18897637795276
 21
0.1653543307086614
 31
0.0
  0
LINE
  5
D3
330
1F
100
AcDbEntity
  8
TITLE
  6
SLD-Solid
370
    18
100
AcDbLine
 10
25.15748031496063
 20
49.50000000000001
 30
0.0
 11
25.15748031496063
 21
49.83464566929134
 31
0.0
  0
LINE
  5
D4
330
1F
100
AcDbEntity
  8
TITLE
  6
SLD-Solid
370
    18
100
AcDbLine
 10
25.15748031496063
 20
0.5
 30
0.0
 11
25.15748031496063
 21
0.1653543307086614
 31
0.0
  0
LINE
  5
D5
330
1F
100
AcDbEntity
  8
TITLE
  6
SLD-Solid
370
    18
100
AcDbLine
 10
27.12598425196851
 20
49.50000000000001
 30
0.0
 11
27.12598425196851
 21
49.83464566929134
 31
0.0
  0
LINE
  5
D6
330
1F
100
AcDbEntity
  8
TITLE
  6
SLD-Solid
370
    18
100
AcDbLine
 10
27.12598425196851
 20
0.5
 30
0.0
 11
27.12598425196851
 21
0.1653543307086614
 31
0.0
  0
LINE
  5
D7
330
1F
100
AcDbEntity
  8
TITLE
  6
SLD-Solid
370
    18
100
AcDbLine
 10
29.09448818897638
 20
49.50000000000001
 30
0.0
 11
29.09448818897638
 21
49.83464566929134
 31
0.0
  0
LINE
  5
D8
330
1F
100
AcDbEntity
  8
TITLE
  6
SLD-Solid
370
    18
100
AcDbLine
 10
29.09448818897638
 20
0.5
 30
0.0
 11
29.09448818897638
 21
0.1653543307086614
 31
0.0
  0
LINE
  5
D9
330
1F
100
AcDbEntity
  8
TITLE
  6
SLD-Solid
370
    18
100
AcDbLine
 10
31.06299212598426
 20
49.50000000000001
 30
0.0
 11
31.06299212598426
 21
49.83464566929134
 31
0.0
  0
LINE
  5
DA
330
1F
100
AcDbEntity
  8
TITLE
  6
SLD-Solid
370
    18
100
AcDbLine
 10
31.06299212598426
 20
0.5
 30
0.0
 11
31.06299212598426
 21
0.1653543307086614
 31
0.0
  0
LINE
  5
DB
330
1F
100
AcDbEntity
  8
TITLE
  6
SLD-Solid
370
    18
100
AcDbLine
 10
33.03149606299213
 20
49.50000000000001
 30
0.0
 11
33.03149606299213
 21
49.83464566929134
 31
0.0
  0
LINE
  5
DC
330
1F
100
AcDbEntity
  8
TITLE
  6
SLD-Solid
370
    18
100
AcDbLine
 10
33.03149606299213
 20
0.5
 30
0.0
 11
33.03149606299213
 21
0.1653543307086614
 31
0.0
  0
LINE
  5
DD
330
1F
100
AcDbEntity
  8
TITLE
  6
SLD-Solid
370
    18
100
AcDbLine
 10
35.0
 20
49.50000000000001
 30
0.0
 11
35.0
 21
49.83464566929134
 31
0.0
  0
LINE
  5
DE
330
1F
100
AcDbEntity
  8
TITLE
  6
SLD-Solid
370
    18
100
AcDbLine
 10
35.0
 20
0.5
 30
0.0
 11
35.0
 21
0.1653543307086614
 31
0.0
  0
LINE
  5
DF
330
1F
100
AcDbEntity
  8
TITLE
  6
SLD-Solid
370
    18
100
AcDbLine
 10
36.96850393700787
 20
49.50000000000001
 30
0.0
 11
36.96850393700787
 21
49.83464566929134
 31
0.0
  0
LINE
  5
E0
330
1F
100
AcDbEntity
  8
TITLE
  6
SLD-Solid
370
    18
100
AcDbLine
 10
36.96850393700787
 20
0.5
 30
0.0
 11
36.96850393700787
 21
0.1653543307086614
 31
0.0
  0
LINE
  5
E1
330
1F
100
AcDbEntity
  8
TITLE
  6
SLD-Solid
370
    18
100
AcDbLine
 10
38.93700787401575
 20
49.50000000000001
 30
0.0
 11
38.93700787401575
 21
49.83464566929134
 31
0.0
  0
LINE
  5
E2
330
1F
100
AcDbEntity
  8
TITLE
  6
SLD-Solid
370
    18
100
AcDbLine
 10
38.93700787401575
 20
0.5
 30
0.0
 11
38.93700787401575
 21
0.1653543307086614
 31
0.0
  0
LINE
  5
E3
330
1F
100
AcDbEntity
  8
TITLE
  6
SLD-Solid
370
    18
100
AcDbLine
 10
40.90551181102363
 20
49.50000000000001
 30
0.0
 11
40.90551181102363
 21
49.83464566929134
 31
0.0
  0
LINE
  5
E4
330
1F
100
AcDbEntity
  8
TITLE
  6
SLD-Solid
370
    18
100
AcDbLine
 10
40.90551181102363
 20
0.5
 30
0.0
 11
40.90551181102363
 21
0.1653543307086614
 31
0.0
  0
LINE
  5
E5
330
1F
100
AcDbEntity
  8
TITLE
  6
SLD-Solid
370
    18
100
AcDbLine
 10
42.8740157480315
 20
49.50000000000001
 30
0.0
 11
42.8740157480315
 21
49.83464566929134
 31
0.0
  0
LINE
  5
E6
330
1F
100
AcDbEntity
  8
TITLE
  6
SLD-Solid
370
    18
100
AcDbLine
 10
42.8740157480315
 20
0.5
 30
0.0
 11
42.8740157480315
 21
0.1653543307086614
 31
0.0
  0
LINE
  5
E7
330
1F
100
AcDbEntity
  8
TITLE
  6
SLD-Solid
370
    18
100
AcDbLine
 10
44.84251968503937
 20
49.50000000000001
 30
0.0
 11
44.84251968503937
 21
49.83464566929134
 31
0.0
  0
LINE
  5
E8
330
1F
100
AcDbEntity
  8
TITLE
  6
SLD-Solid
370
    18
100
AcDbLine
 10
44.84251968503937
 20
0.5
 30
0.0
 11
44.84251968503937
 21
0.1653543307086614
 31
0.0
  0
LINE
  5
E9
330
1F
100
AcDbEntity
  8
TITLE
  6
SLD-Solid
370
    18
100
AcDbLine
 10
46.81102362204724
 20
49.50000000000001
 30
0.0
 11
46.81102362204724
 21
49.83464566929134
 31
0.0
  0
LINE
  5
EA
330
1F
100
AcDbEntity
  8
TITLE
  6
SLD-Solid
370
    18
100
AcDbLine
 10
46.81102362204724
 20
0.5
 30
0.0
 11
46.81102362204724
 21
0.1653543307086614
 31
0.0
  0
LINE
  5
EB
330
1F
100
AcDbEntity
  8
TITLE
  6
SLD-Solid
370
    18
100
AcDbLine
 10
48.77952755905513
 20
49.50000000000001
 30
0.0
 11
48.77952755905513
 21
49.83464566929134
 31
0.0
  0
LINE
  5
EC
330
1F
100
AcDbEntity
  8
TITLE
  6
SLD-Solid
370
    18
100
AcDbLine
 10
48.77952755905513
 20
0.5
 30
0.0
 11
48.77952755905513
 21
0.1653543307086614
 31
0.0
  0
LINE
  5
ED
330
1F
100
AcDbEntity
  8
TITLE
  6
SLD-Solid
370
    18
100
AcDbLine
 10
50.748031496063
 20
49.50000000000001
 30
0.0
 11
50.748031496063
 21
49.83464566929134
 31
0.0
  0
LINE
  5
EE
330
1F
100
AcDbEntity
  8
TITLE
  6
SLD-Solid
370
    18
100
AcDbLine
 10
50.748031496063
 20
0.5
 30
0.0
 11
50.748031496063
 21
0.1653543307086614
 31
0.0
  0
LINE
  5
EF
330
1F
100
AcDbEntity
  8
TITLE
  6
SLD-Solid
370
    18
100
AcDbLine
 10
52.71653543307087
 20
49.50000000000001
 30
0.0
 11
52.71653543307087
 21
49.83464566929134
 31
0.0
  0
LINE
  5
F0
330
1F
100
AcDbEntity
  8
TITLE
  6
SLD-Solid
370
    18
100
AcDbLine
 10
52.71653543307087
 20
0.5
 30
0.0
 11
52.71653543307087
 21
0.1653543307086614
 31
0.0
  0
LINE
  5
F1
330
1F
100
AcDbEntity
  8
TITLE
  6
SLD-Solid
370
    18
100
AcDbLine
 10
54.68503937007874
 20
49.50000000000001
 30
0.0
 11
54.68503937007874
 21
49.83464566929134
 31
0.0
  0
LINE
  5
F2
330
1F
100
AcDbEntity
  8
TITLE
  6
SLD-Solid
370
    18
100
AcDbLine
 10
54.68503937007874
 20
0.5
 30
0.0
 11
54.68503937007874
 21
0.1653543307086614
 31
0.0
  0
LINE
  5
F3
330
1F
100
AcDbEntity
  8
TITLE
  6
SLD-Solid
370
    18
100
AcDbLine
 10
56.65354330708661
 20
49.50000000000001
 30
0.0
 11
56.65354330708661
 21
49.83464566929134
 31
0.0
  0
LINE
  5
F4
330
1F
100
AcDbEntity
  8
TITLE
  6
SLD-Solid
370
    18
100
AcDbLine
 10
56.65354330708661
 20
0.5
 30
0.0
 11
56.65354330708661
 21
0.1653543307086614
 31
0.0
  0
LINE
  5
F5
330
1F
100
AcDbEntity
  8
TITLE
  6
SLD-Solid
370
    18
100
AcDbLine
 10
58.6220472440945
 20
49.50000000000001
 30
0.0
 11
58.6220472440945
 21
49.83464566929134
 31
0.0
  0
LINE
  5
F6
330
1F
100
AcDbEntity
  8
TITLE
  6
SLD-Solid
370
    18
100
AcDbLine
 10
58.6220472440945
 20
0.5
 30
0.0
 11
58.6220472440945
 21
0.1653543307086614
 31
0.0
  0
LINE
  5
F7
330
1F
100
AcDbEntity
  8
TITLE
  6
SLD-Solid
370
    18
100
AcDbLine
 10
60.59055118110237
 20
49.50000000000001
 30
0.0
 11
60.59055118110237
 21
49.83464566929134
 31
0.0
  0
LINE
  5
F8
330
1F
100
AcDbEntity
  8
TITLE
  6
SLD-Solid
370
    18
100
AcDbLine
 10
60.59055118110237
 20
0.5
 30
0.0
 11
60.59055118110237
 21
0.1653543307086614
 31
0.0
  0
LINE
  5
F9
330
1F
100
AcDbEntity
  8
TITLE
  6
SLD-Solid
370
    18
100
AcDbLine
 10
62.55905511811024
 20
49.50000000000001
 30
0.0
 11
62.55905511811024
 21
49.83464566929134
 31
0.0
  0
LINE
  5
FA
330
1F
100
AcDbEntity
  8
TITLE
  6
SLD-Solid
370
    18
100
AcDbLine
 10
62.55905511811024
 20
0.5
 30
0.0
 11
62.55905511811024
 21
0.1653543307086614
 31
0.0
  0
LINE
  5
FB
330
1F
100
AcDbEntity
  8
TITLE
  6
SLD-Solid
370
    18
100
AcDbLine
 10
64.52755905511812
 20
49.50000000000001
 30
0.0
 11
64.52755905511812
 21
49.83464566929134
 31
0.0
  0
LINE
  5
FC
330
1F
100
AcDbEntity
  8
TITLE
  6
SLD-Solid
370
    18
100
AcDbLine
 10
64.52755905511812
 20
0.5
 30
0.0
 11
64.52755905511812
 21
0.1653543307086614
 31
0.0
  0
LINE
  5
FD
330
1F
100
AcDbEntity
  8
TITLE
  6
SLD-Solid
370
    18
100
AcDbLine
 10
66.49606299212599
 20
49.50000000000001
 30
0.0
 11
66.49606299212599
 21
49.83464566929134
 31
0.0
  0
LINE
  5
FE
330
1F
100
AcDbEntity
  8
TITLE
  6
SLD-Solid
370
    18
100
AcDbLine
 10
66.49606299212599
 20
0.5
 30
0.0
 11
66.49606299212599
 21
0.1653543307086614
 31
0.0
  0
LINE
  5
FF
330
1F
100
AcDbEntity
  8
TITLE
  6
SLD-Solid
370
    18
100
AcDbLine
 10
68.46456692913387
 20
49.50000000000001
 30
0.0
 11
68.46456692913387
 21
49.83464566929134
 31
0.0
  0
LINE
  5
100
330
1F
100
AcDbEntity
  8
TITLE
  6
SLD-Solid
370
    18
100
AcDbLine
 10
68.46456692913387
 20
0.5
 30
0.0
 11
68.46456692913387
 21
0.1653543307086614
 31
0.0
  0
MTEXT
  5
102
330
1F
100
AcDbEntity
  8
NOTES
100
AcDbMText
 10
46.40829780303407
 20
1.070290334694339
 30
0.0
 40
0.25
 41
0.0
 71
     1
 72
     1
  1
UNLESS OTHERWISE SPECIFIED DIMENSIONS ARE IN INCHES.
  7
SLDTEXTSTYLE0
 73
     1
 44
1.0
  0
MTEXT
  5
103
330
1F
100
AcDbEntity
  8
NOTES
100
AcDbMText
 10
46.43006992789031
 20
3.083062777580424
 30
0.0
 40
0.25
 41
0.0
 71
     1
 72
     1
  1
DATE:
  7
SLDTEXTSTYLE0
 73
     1
 44
1.0
  0
MTEXT
  5
104
330
1F
100
AcDbEntity
  8
NOTES
100
AcDbMText
 10
48.53870118800533
 20
2.193032963662708
 30
0.0
 40
0.25
 41
0.0
 71
     2
 72
     1
  1
DO NOT SCALE DRAWING
  7
SLDTEXTSTYLE0
 73
     1
 44
1.0
  0
MTEXT
  5
106
330
1F
100
AcDbEntity
  8
NOTES
100
AcDbMText
 10
52.83073730750539
 20
3.268275555297609
 30
0.0
 40
0.25
 41
0.0
 71
     1
 72
     1
  1
TITLE:
  7
SLDTEXTSTYLE1
 73
     1
 44
1.0
  0
MTEXT
  5
107
330
1F
100
AcDbEntity
  8
NOTES
100
AcDbMText
 10
60.15618310516096
 20
3.268275555297602
 30
0.0
 40
0.25
 41
0.0
 71
     1
 72
     1
  1
DWG NO.
  7
SLDTEXTSTYLE1
 73
     1
 44
1.0
  0
MTEXT
  5
108
330
1F
100
AcDbEntity
  8
NOTES
100
AcDbMText
 10
60.18317532028495
 20
1.064581557673832
 30
0.0
 40
0.25
 41
0.0
 71
     1
 72
     1
  1
SCALE:     1:1
  7
SLDTEXTSTYLE1
 73
     1
 44
1.0
  0
MTEXT
  5
109
330
1F
100
AcDbEntity
  8
NOTES
100
AcDbMText
 10
64.18424321697334
 20
2.651034429460866
 30
0.0
 40
0.25
 41
0.0
 71
     2
 72
     1
  1
941-1630 CAD
  7
SLDTEXTSTYLE1
 73
     1
 44
1.0
  0
MTEXT
  5
10A
330
1F
100
AcDbEntity
  8
NOTES
100
AcDbMText
 10
56.44510935224468
 20
2.651034429460864
 30
0.0
 40
0.25
 41
0.0
 71
     2
 72
     1
  1
941 1630 Mirror
  7
SLDTEXTSTYLE1
 73
     1
 44
1.0
  0
INSERT
  5
11A
330
1F
100
AcDbEntity
  8
NOTES
100
AcDbBlockReference
  2
SW_NOTE_0_1
 10
46.61597262459082
 20
5.148152684778704
 30
0.0
  0
MTEXT
  5
11B
330
1F
100
AcDbEntity
  8
NOTES
100
AcDbMText
 10
49.49732645403275
 20
3.08647332676587
 30
0.0
 40
0.25
 41
0.0
 71
     2
 72
     1
  1
August 10, 2021
  7
SLDTEXTSTYLE1
 73
     1
 44
1.0
  0
MTEXT
  5
11C
330
1F
100
AcDbEntity
  8
TITLE
100
AcDbMText
 10
0.3276279775836454
 20
2.003106290974172
 30
0.0
 40
0.125
 41
0.0
 71
     2
 72
     1
  1
A
  7
SLDTEXTSTYLE1
 73
     1
 44
1.0
  0
MTEXT
  5
11D
330
1F
100
AcDbEntity
  8
TITLE
100
AcDbMText
 10
69.662273646875
 20
2.003106290974172
 30
0.0
 40
0.125
 41
0.0
 71
     2
 72
     1
  1
A
  7
SLDTEXTSTYLE1
 73
     1
 44
1.0
  0
MTEXT
  5
11E
330
1F
100
AcDbEntity
  8
TITLE
100
AcDbMText
 10
0.3317512413046844
 20
4.410586605934803
 30
0.0
 40
0.125
 41
0.0
 71
     2
 72
     1
  1
B
  7
SLDTEXTSTYLE1
 73
     1
 44
1.0
  0
MTEXT
  5
11F
330
1F
100
AcDbEntity
  8
TITLE
100
AcDbMText
 10
69.66639691059605
 20
4.410586605934803
 30
0.0
 40
0.125
 41
0.0
 71
     2
 72
     1
  1
B
  7
SLDTEXTSTYLE1
 73
     1
 44
1.0
  0
MTEXT
  5
120
330
1F
100
AcDbEntity
  8
TITLE
100
AcDbMText
 10
0.3313750816934456
 20
6.379090542942676
 30
0.0
 40
0.125
 41
0.0
 71
     2
 72
     1
  1
C
  7
SLDTEXTSTYLE1
 73
     1
 44
1.0
  0
MTEXT
  5
121
330
1F
100
AcDbEntity
  8
TITLE
100
AcDbMText
 10
69.6660207509848
 20
6.379090542942677
 30
0.0
 40
0.125
 41
0.0
 71
     2
 72
     1
  1
C
  7
SLDTEXTSTYLE1
 73
     1
 44
1.0
  0
MTEXT
  5
122
330
1F
100
AcDbEntity
  8
TITLE
100
AcDbMText
 10
0.3311870028448152
 20
8.34759447995055
 30
0.0
 40
0.125
 41
0.0
 71
     2
 72
     1
  1
D
  7
SLDTEXTSTYLE1
 73
     1
 44
1.0
  0
MTEXT
  5
123
330
1F
100
AcDbEntity
  8
TITLE
100
AcDbMText
 10
69.66583267213616
 20
8.34759447995055
 30
0.0
 40
0.125
 41
0.0
 71
     2
 72
     1
  1
D
  7
SLDTEXTSTYLE1
 73
     1
 44
1.0
  0
MTEXT
  5
124
330
1F
100
AcDbEntity
  8
TITLE
100
AcDbMText
 10
0.3329231160377541
 20
10.31609841695842
 30
0.0
 40
0.125
 41
0.0
 71
     2
 72
     1
  1
E
  7
SLDTEXTSTYLE1
 73
     1
 44
1.0
  0
MTEXT
  5
125
330
1F
100
AcDbEntity
  8
TITLE
100
AcDbMText
 10
69.66756878532911
 20
10.31609841695842
 30
0.0
 40
0.125
 41
0.0
 71
     2
 72
     1
  1
E
  7
SLDTEXTSTYLE1
 73
     1
 44
1.0
  0
MTEXT
  5
126
330
1F
100
AcDbEntity
  8
TITLE
100
AcDbMText
 10
0.3313461474003637
 20
12.28460235396629
 30
0.0
 40
0.125
 41
0.0
 71
     2
 72
     1
  1
F
  7
SLDTEXTSTYLE1
 73
     1
 44
1.0
  0
MTEXT
  5
127
330
1F
100
AcDbEntity
  8
TITLE
100
AcDbMText
 10
69.66599181669172
 20
12.2846023539663
 30
0.0
 40
0.125
 41
0.0
 71
     2
 72
     1
  1
F
  7
SLDTEXTSTYLE1
 73
     1
 44
1.0
  0
MTEXT
  5
128
330
1F
100
AcDbEntity
  8
TITLE
100
AcDbMText
 10
0.332257605436456
 20
14.25310629097417
 30
0.0
 40
0.125
 41
0.0
 71
     2
 72
     1
  1
G
  7
SLDTEXTSTYLE1
 73
     1
 44
1.0
  0
MTEXT
  5
129
330
1F
100
AcDbEntity
  8
TITLE
100
AcDbMText
 10
69.66690327472782
 20
14.25310629097417
 30
0.0
 40
0.125
 41
0.0
 71
     2
 72
     1
  1
G
  7
SLDTEXTSTYLE1
 73
     1
 44
1.0
  0
MTEXT
  5
12A
330
1F
100
AcDbEntity
  8
TITLE
100
AcDbMText
 10
0.3323733456814148
 20
16.22161022798205
 30
0.0
 40
0.125
 41
0.0
 71
     2
 72
     1
  1
H
  7
SLDTEXTSTYLE1
 73
     1
 44
1.0
  0
MTEXT
  5
12B
330
1F
100
AcDbEntity
  8
TITLE
100
AcDbMText
 10
69.66701901497275
 20
16.22161022798205
 30
0.0
 40
0.125
 41
0.0
 71
     2
 72
     1
  1
H
  7
SLDTEXTSTYLE1
 73
     1
 44
1.0
  0
MTEXT
  5
12C
330
1F
100
AcDbEntity
  8
TITLE
100
AcDbMText
 10
0.3315776305595838
 20
18.19011416498992
 30
0.0
 40
0.125
 41
0.0
 71
     2
 72
     1
  1
J
  7
SLDTEXTSTYLE1
 73
     1
 44
1.0
  0
MTEXT
  5
12D
330
1F
100
AcDbEntity
  8
TITLE
100
AcDbMText
 10
69.66622329985094
 20
18.19011416498992
 30
0.0
 40
0.125
 41
0.0
 71
     2
 72
     1
  1
J
  7
SLDTEXTSTYLE1
 73
     1
 44
1.0
  0
MTEXT
  5
12E
330
1F
100
AcDbEntity
  8
TITLE
100
AcDbMText
 10
0.3323154765159243
 20
20.1586181019978
 30
0.0
 40
0.125
 41
0.0
 71
     2
 72
     1
  1
K
  7
SLDTEXTSTYLE1
 73
     1
 44
1.0
  0
MTEXT
  5
12F
330
1F
100
AcDbEntity
  8
TITLE
100
AcDbMText
 10
69.66696114580728
 20
20.1586181019978
 30
0.0
 40
0.125
 41
0.0
 71
     2
 72
     1
  1
K
  7
SLDTEXTSTYLE1
 73
     1
 44
1.0
  0
MTEXT
  5
130
330
1F
100
AcDbEntity
  8
TITLE
100
AcDbMText
 10
0.3312448739242835
 20
22.12712203900567
 30
0.0
 40
0.125
 41
0.0
 71
     2
 72
     1
  1
L
  7
SLDTEXTSTYLE1
 73
     1
 44
1.0
  0
MTEXT
  5
131
330
1F
100
AcDbEntity
  8
TITLE
100
AcDbMText
 10
69.66589054321565
 20
22.12712203900567
 30
0.0
 40
0.125
 41
0.0
 71
     2
 72
     1
  1
L
  7
SLDTEXTSTYLE1
 73
     1
 44
1.0
  0
MTEXT
  5
132
330
1F
100
AcDbEntity
  8
TITLE
100
AcDbMText
 10
0.3283224192293962
 20
24.09562597601354
 30
0.0
 40
0.125
 41
0.0
 71
     2
 72
     1
  1
M
  7
SLDTEXTSTYLE1
 73
     1
 44
1.0
  0
MTEXT
  5
133
330
1F
100
AcDbEntity
  8
TITLE
100
AcDbMText
 10
69.66296808852073
 20
24.09562597601354
 30
0.0
 40
0.125
 41
0.0
 71
     2
 72
     1
  1
M
  7
SLDTEXTSTYLE1
 73
     1
 44
1.0
  0
MTEXT
  5
134
330
1F
100
AcDbEntity
  8
TITLE
100
AcDbMText
 10
0.3315342275836453
 20
26.06412991302142
 30
0.0
 40
0.125
 41
0.0
 71
     2
 72
     1
  1
N
  7
SLDTEXTSTYLE1
 73
     1
 44
1.0
  0
MTEXT
  5
135
330
1F
100
AcDbEntity
  8
TITLE
100
AcDbMText
 10
69.666179896875
 20
26.06412991302141
 30
0.0
 40
0.125
 41
0.0
 71
     2
 72
     1
  1
N
  7
SLDTEXTSTYLE1
 73
     1
 44
1.0
  0
MTEXT
  5
136
330
1F
100
AcDbEntity
  8
TITLE
100
AcDbMText
 10
0.3321997349363143
 20
28.03263385002929
 30
0.0
 40
0.125
 41
0.0
 71
     2
 72
     1
  1
P
  7
SLDTEXTSTYLE1
 73
     1
 44
1.0
  0
MTEXT
  5
137
330
1F
100
AcDbEntity
  8
TITLE
100
AcDbMText
 10
69.66684540422766
 20
28.03263385002929
 30
0.0
 40
0.125
 41
0.0
 71
     2
 72
     1
  1
P
  7
SLDTEXTSTYLE1
 73
     1
 44
1.0
  0
MTEXT
  5
138
330
1F
100
AcDbEntity
  8
TITLE
100
AcDbMText
 10
0.3309265867271644
 20
30.00113778703717
 30
0.0
 40
0.125
 41
0.0
 71
     2
 72
     1
  1
R
  7
SLDTEXTSTYLE1
 73
     1
 44
1.0
  0
MTEXT
  5
139
330
1F
100
AcDbEntity
  8
TITLE
100
AcDbMText
 10
69.6655722560185
 20
30.00113778703717
 30
0.0
 40
0.125
 41
0.0
 71
     2
 72
     1
  1
R
  7
SLDTEXTSTYLE1
 73
     1
 44
1.0
  0
MTEXT
  5
13A
330
1F
100
AcDbEntity
  8
TITLE
100
AcDbMText
 10
0.3323010070777432
 20
31.96964172404504
 30
0.0
 40
0.125
 41
0.0
 71
     2
 72
     1
  1
T
  7
SLDTEXTSTYLE1
 73
     1
 44
1.0
  0
MTEXT
  5
13B
330
1F
100
AcDbEntity
  8
TITLE
100
AcDbMText
 10
69.6669466763691
 20
31.96964172404504
 30
0.0
 40
0.125
 41
0.0
 71
     2
 72
     1
  1
T
  7
SLDTEXTSTYLE1
 73
     1
 44
1.0
  0
MTEXT
  5
13C
330
1F
100
AcDbEntity
  8
TITLE
100
AcDbMText
 10
0.3328507755201046
 20
33.93814566105291
 30
0.0
 40
0.125
 41
0.0
 71
     2
 72
     1
  1
U
  7
SLDTEXTSTYLE1
 73
     1
 44
1.0
  0
MTEXT
  5
13D
330
1F
100
AcDbEntity
  8
TITLE
100
AcDbMText
 10
69.66749644481145
 20
33.93814566105292
 30
0.0
 40
0.125
 41
0.0
 71
     2
 72
     1
  1
U
  7
SLDTEXTSTYLE1
 73
     1
 44
1.0
  0
MTEXT
  5
13E
330
1F
100
AcDbEntity
  8
TITLE
100
AcDbMText
 10
0.3307529773167151
 20
35.90664959806079
 30
0.0
 40
0.125
 41
0.0
 71
     2
 72
     1
  1
V
  7
SLDTEXTSTYLE1
 73
     1
 44
1.0
  0
MTEXT
  5
13F
330
1F
100
AcDbEntity
  8
TITLE
100
AcDbMText
 10
69.66539864660804
 20
35.90664959806078
 30
0.0
 40
0.125
 41
0.0
 71
     2
 72
     1
  1
V
  7
SLDTEXTSTYLE1
 73
     1
 44
1.0
  0
MTEXT
  5
140
330
1F
100
AcDbEntity
  8
TITLE
100
AcDbMText
 10
0.3327784409203867
 20
37.87515353506867
 30
0.0
 40
0.125
 41
0.0
 71
     2
 72
     1
  1
W
  7
SLDTEXTSTYLE1
 73
     1
 44
1.0
  0
MTEXT
  5
141
330
1F
100
AcDbEntity
  8
TITLE
100
AcDbMText
 10
69.66742411021175
 20
37.87515353506867
 30
0.0
 40
0.125
 41
0.0
 71
     2
 72
     1
  1
W
  7
SLDTEXTSTYLE1
 73
     1
 44
1.0
  0
MTEXT
  5
142
330
1F
100
AcDbEntity
  8
TITLE
100
AcDbMText
 10
0.3321997349363144
 20
39.84365747207655
 30
0.0
 40
0.125
 41
0.0
 71
     2
 72
     1
  1
Y
  7
SLDTEXTSTYLE1
 73
     1
 44
1.0
  0
MTEXT
  5
143
330
1F
100
AcDbEntity
  8
TITLE
100
AcDbMText
 10
69.66684540422766
 20
39.84365747207655
 30
0.0
 40
0.125
 41
0.0
 71
     2
 72
     1
  1
Y
  7
SLDTEXTSTYLE1
 73
     1
 44
1.0
  0
MTEXT
  5
144
330
1F
100
AcDbEntity
  8
TITLE
100
AcDbMText
 10
0.32257878981296
 20
41.81216140908442
 30
0.0
 40
0.125
 41
0.0
 71
     2
 72
     1
  1
AA
  7
SLDTEXTSTYLE1
 73
     1
 44
1.0
  0
MTEXT
  5
145
330
1F
100
AcDbEntity
  8
TITLE
100
AcDbMText
 10
69.65722445910431
 20
41.81216140908442
 30
0.0
 40
0.125
 41
0.0
 71
     2
 72
     1
  1
AA
  7
SLDTEXTSTYLE1
 73
     1
 44
1.0
  0
MTEXT
  5
146
330
1F
100
AcDbEntity
  8
TITLE
100
AcDbMText
 10
0.3267020535339989
 20
43.78066534609228
 30
0.0
 40
0.125
 41
0.0
 71
     2
 72
     1
  1
AB
  7
SLDTEXTSTYLE1
 73
     1
 44
1.0
  0
MTEXT
  5
147
330
1F
100
AcDbEntity
  8
TITLE
100
AcDbMText
 10
69.66134772282535
 20
43.7806653460923
 30
0.0
 40
0.125
 41
0.0
 71
     2
 72
     1
  1
AB
  7
SLDTEXTSTYLE1
 73
     1
 44
1.0
  0
MTEXT
  5
148
330
1F
100
AcDbEntity
  8
TITLE
100
AcDbMText
 10
0.3263258985060407
 20
45.74916928310017
 30
0.0
 40
0.125
 41
0.0
 71
     2
 72
     1
  1
AC
  7
SLDTEXTSTYLE1
 73
     1
 44
1.0
  0
MTEXT
  5
149
330
1F
100
AcDbEntity
  8
TITLE
100
AcDbMText
 10
69.66097156779739
 20
45.74916928310017
 30
0.0
 40
0.125
 41
0.0
 71
     2
 72
     1
  1
AC
  7
SLDTEXTSTYLE1
 73
     1
 44
1.0
  0
MTEXT
  5
14A
330
1F
100
AcDbEntity
  8
TITLE
100
AcDbMText
 10
0.3261378196574102
 20
48.15664959806079
 30
0.0
 40
0.125
 41
0.0
 71
     2
 72
     1
  1
AD
  7
SLDTEXTSTYLE1
 73
     1
 44
1.0
  0
MTEXT
  5
14B
330
1F
100
AcDbEntity
  8
TITLE
100
AcDbMText
 10
69.66078348894875
 20
48.1566495980608
 30
0.0
 40
0.125
 41
0.0
 71
     2
 72
     1
  1
AD
  7
SLDTEXTSTYLE1
 73
     1
 44
1.0
  0
MTEXT
  5
14C
330
1F
100
AcDbEntity
  8
TITLE
100
AcDbMText
 10
1.015199174063176
 20
0.4125551098718105
 30
0.0
 40
0.125
 41
0.0
 71
     2
 72
     1
  1
36
  7
SLDTEXTSTYLE1
 73
     1
 44
1.0
  0
MTEXT
  5
14D
330
1F
100
AcDbEntity
  8
TITLE
100
AcDbMText
 10
1.015199174063176
 20
49.74720077916316
 30
0.0
 40
0.125
 41
0.0
 71
     2
 72
     1
  1
36
  7
SLDTEXTSTYLE1
 73
     1
 44
1.0
  0
MTEXT
  5
14E
330
1F
100
AcDbEntity
  8
TITLE
100
AcDbMText
 10
2.517167678000183
 20
0.4125551098718104
 30
0.0
 40
0.125
 41
0.0
 71
     2
 72
     1
  1
35
  7
SLDTEXTSTYLE1
 73
     1
 44
1.0
  0
MTEXT
  5
14F
330
1F
100
AcDbEntity
  8
TITLE
100
AcDbMText
 10
2.517167678000183
 20
49.74720077916316
 30
0.0
 40
0.125
 41
0.0
 71
     2
 72
     1
  1
35
  7
SLDTEXTSTYLE1
 73
     1
 44
1.0
  0
MTEXT
  5
150
330
1F
100
AcDbEntity
  8
TITLE
100
AcDbMText
 10
4.48567161500806
 20
0.4125551098718104
 30
0.0
 40
0.125
 41
0.0
 71
     2
 72
     1
  1
34
  7
SLDTEXTSTYLE1
 73
     1
 44
1.0
  0
MTEXT
  5
151
330
1F
100
AcDbEntity
  8
TITLE
100
AcDbMText
 10
4.485671615008059
 20
49.74720077916316
 30
0.0
 40
0.125
 41
0.0
 71
     2
 72
     1
  1
34
  7
SLDTEXTSTYLE1
 73
     1
 44
1.0
  0
MTEXT
  5
152
330
1F
100
AcDbEntity
  8
TITLE
100
AcDbMText
 10
6.454175552015934
 20
0.4125551098718104
 30
0.0
 40
0.125
 41
0.0
 71
     2
 72
     1
  1
33
  7
SLDTEXTSTYLE1
 73
     1
 44
1.0
  0
MTEXT
  5
153
330
1F
100
AcDbEntity
  8
TITLE
100
AcDbMText
 10
6.454175552015932
 20
49.74720077916316
 30
0.0
 40
0.125
 41
0.0
 71
     2
 72
     1
  1
33
  7
SLDTEXTSTYLE1
 73
     1
 44
1.0
  0
MTEXT
  5
154
330
1F
100
AcDbEntity
  8
TITLE
100
AcDbMText
 10
8.422679489023805
 20
0.4125551098718104
 30
0.0
 40
0.125
 41
0.0
 71
     2
 72
     1
  1
32
  7
SLDTEXTSTYLE1
 73
     1
 44
1.0
  0
MTEXT
  5
155
330
1F
100
AcDbEntity
  8
TITLE
100
AcDbMText
 10
8.422679489023807
 20
49.74720077916316
 30
0.0
 40
0.125
 41
0.0
 71
     2
 72
     1
  1
32
  7
SLDTEXTSTYLE1
 73
     1
 44
1.0
  0
MTEXT
  5
156
330
1F
100
AcDbEntity
  8
TITLE
100
AcDbMText
 10
10.39118342603168
 20
0.4125551098718104
 30
0.0
 40
0.125
 41
0.0
 71
     2
 72
     1
  1
31
  7
SLDTEXTSTYLE1
 73
     1
 44
1.0
  0
MTEXT
  5
157
330
1F
100
AcDbEntity
  8
TITLE
100
AcDbMText
 10
10.39118342603168
 20
49.74720077916315
 30
0.0
 40
0.125
 41
0.0
 71
     2
 72
     1
  1
31
  7
SLDTEXTSTYLE1
 73
     1
 44
1.0
  0
MTEXT
  5
158
330
1F
100
AcDbEntity
  8
TITLE
100
AcDbMText
 10
12.35968736303955
 20
0.4125551098718104
 30
0.0
 40
0.125
 41
0.0
 71
     2
 72
     1
  1
30
  7
SLDTEXTSTYLE1
 73
     1
 44
1.0
  0
MTEXT
  5
159
330
1F
100
AcDbEntity
  8
TITLE
100
AcDbMText
 10
12.35968736303955
 20
49.74720077916316
 30
0.0
 40
0.125
 41
0.0
 71
     2
 72
     1
  1
30
  7
SLDTEXTSTYLE1
 73
     1
 44
1.0
  0
MTEXT
  5
15A
330
1F
100
AcDbEntity
  8
TITLE
100
AcDbMText
 10
14.32819130004743
 20
0.4125551098718104
 30
0.0
 40
0.125
 41
0.0
 71
     2
 72
     1
  1
29
  7
SLDTEXTSTYLE1
 73
     1
 44
1.0
  0
MTEXT
  5
15B
330
1F
100
AcDbEntity
  8
TITLE
100
AcDbMText
 10
14.32819130004743
 20
49.74720077916316
 30
0.0
 40
0.125
 41
0.0
 71
     2
 72
     1
  1
29
  7
SLDTEXTSTYLE1
 73
     1
 44
1.0
  0
MTEXT
  5
15C
330
1F
100
AcDbEntity
  8
TITLE
100
AcDbMText
 10
16.2966952370553
 20
0.4125551098718104
 30
0.0
 40
0.125
 41
0.0
 71
     2
 72
     1
  1
28
  7
SLDTEXTSTYLE1
 73
     1
 44
1.0
  0
MTEXT
  5
15D
330
1F
100
AcDbEntity
  8
TITLE
100
AcDbMText
 10
16.29669523705531
 20
49.74720077916317
 30
0.0
 40
0.125
 41
0.0
 71
     2
 72
     1
  1
28
  7
SLDTEXTSTYLE1
 73
     1
 44
1.0
  0
MTEXT
  5
15E
330
1F
100
AcDbEntity
  8
TITLE
100
AcDbMText
 10
18.26519917406318
 20
0.4125551098718105
 30
0.0
 40
0.125
 41
0.0
 71
     2
 72
     1
  1
27
  7
SLDTEXTSTYLE1
 73
     1
 44
1.0
  0
MTEXT
  5
15F
330
1F
100
AcDbEntity
  8
TITLE
100
AcDbMText
 10
18.26519917406317
 20
49.74720077916316
 30
0.0
 40
0.125
 41
0.0
 71
     2
 72
     1
  1
27
  7
SLDTEXTSTYLE1
 73
     1
 44
1.0
  0
MTEXT
  5
160
330
1F
100
AcDbEntity
  8
TITLE
100
AcDbMText
 10
20.23370311107105
 20
0.4125551098718103
 30
0.0
 40
0.125
 41
0.0
 71
     2
 72
     1
  1
26
  7
SLDTEXTSTYLE1
 73
     1
 44
1.0
  0
MTEXT
  5
161
330
1F
100
AcDbEntity
  8
TITLE
100
AcDbMText
 10
20.23370311107105
 20
49.74720077916316
 30
0.0
 40
0.125
 41
0.0
 71
     2
 72
     1
  1
26
  7
SLDTEXTSTYLE1
 73
     1
 44
1.0
  0
MTEXT
  5
162
330
1F
100
AcDbEntity
  8
TITLE
100
AcDbMText
 10
22.20220704807893
 20
0.4125551098718104
 30
0.0
 40
0.125
 41
0.0
 71
     2
 72
     1
  1
25
  7
SLDTEXTSTYLE1
 73
     1
 44
1.0
  0
MTEXT
  5
163
330
1F
100
AcDbEntity
  8
TITLE
100
AcDbMText
 10
22.20220704807893
 20
49.74720077916316
 30
0.0
 40
0.125
 41
0.0
 71
     2
 72
     1
  1
25
  7
SLDTEXTSTYLE1
 73
     1
 44
1.0
  0
MTEXT
  5
164
330
1F
100
AcDbEntity
  8
TITLE
100
AcDbMText
 10
24.1707109850868
 20
0.4125551098718104
 30
0.0
 40
0.125
 41
0.0
 71
     2
 72
     1
  1
24
  7
SLDTEXTSTYLE1
 73
     1
 44
1.0
  0
MTEXT
  5
165
330
1F
100
AcDbEntity
  8
TITLE
100
AcDbMText
 10
24.1707109850868
 20
49.74720077916316
 30
0.0
 40
0.125
 41
0.0
 71
     2
 72
     1
  1
24
  7
SLDTEXTSTYLE1
 73
     1
 44
1.0
  0
MTEXT
  5
166
330
1F
100
AcDbEntity
  8
TITLE
100
AcDbMText
 10
26.13921492209468
 20
0.4125551098718104
 30
0.0
 40
0.125
 41
0.0
 71
     2
 72
     1
  1
23
  7
SLDTEXTSTYLE1
 73
     1
 44
1.0
  0
MTEXT
  5
167
330
1F
100
AcDbEntity
  8
TITLE
100
AcDbMText
 10
26.13921492209468
 20
49.74720077916316
 30
0.0
 40
0.125
 41
0.0
 71
     2
 72
     1
  1
23
  7
SLDTEXTSTYLE1
 73
     1
 44
1.0
  0
MTEXT
  5
168
330
1F
100
AcDbEntity
  8
TITLE
100
AcDbMText
 10
28.10771885910255
 20
0.4125551098718104
 30
0.0
 40
0.125
 41
0.0
 71
     2
 72
     1
  1
22
  7
SLDTEXTSTYLE1
 73
     1
 44
1.0
  0
MTEXT
  5
169
330
1F
100
AcDbEntity
  8
TITLE
100
AcDbMText
 10
28.10771885910255
 20
49.74720077916316
 30
0.0
 40
0.125
 41
0.0
 71
     2
 72
     1
  1
22
  7
SLDTEXTSTYLE1
 73
     1
 44
1.0
  0
MTEXT
  5
16A
330
1F
100
AcDbEntity
  8
TITLE
100
AcDbMText
 10
30.07622279611043
 20
0.4125551098718104
 30
0.0
 40
0.125
 41
0.0
 71
     2
 72
     1
  1
21
  7
SLDTEXTSTYLE1
 73
     1
 44
1.0
  0
MTEXT
  5
16B
330
1F
100
AcDbEntity
  8
TITLE
100
AcDbMText
 10
30.07622279611043
 20
49.74720077916316
 30
0.0
 40
0.125
 41
0.0
 71
     2
 72
     1
  1
21
  7
SLDTEXTSTYLE1
 73
     1
 44
1.0
  0
MTEXT
  5
16C
330
1F
100
AcDbEntity
  8
TITLE
100
AcDbMText
 10
32.0447267331183
 20
0.4125551098718104
 30
0.0
 40
0.125
 41
0.0
 71
     2
 72
     1
  1
20
  7
SLDTEXTSTYLE1
 73
     1
 44
1.0
  0
MTEXT
  5
16D
330
1F
100
AcDbEntity
  8
TITLE
100
AcDbMText
 10
32.0447267331183
 20
49.74720077916316
 30
0.0
 40
0.125
 41
0.0
 71
     2
 72
     1
  1
20
  7
SLDTEXTSTYLE1
 73
     1
 44
1.0
  0
MTEXT
  5
16E
330
1F
100
AcDbEntity
  8
TITLE
100
AcDbMText
 10
34.01323067012617
 20
0.4125551098718104
 30
0.0
 40
0.125
 41
0.0
 71
     2
 72
     1
  1
19
  7
SLDTEXTSTYLE1
 73
     1
 44
1.0
  0
MTEXT
  5
16F
330
1F
100
AcDbEntity
  8
TITLE
100
AcDbMText
 10
34.01323067012617
 20
49.74720077916317
 30
0.0
 40
0.125
 41
0.0
 71
     2
 72
     1
  1
19
  7
SLDTEXTSTYLE1
 73
     1
 44
1.0
  0
MTEXT
  5
170
330
1F
100
AcDbEntity
  8
TITLE
100
AcDbMText
 10
35.98173460713405
 20
0.4125551098718104
 30
0.0
 40
0.125
 41
0.0
 71
     2
 72
     1
  1
18
  7
SLDTEXTSTYLE1
 73
     1
 44
1.0
  0
MTEXT
  5
171
330
1F
100
AcDbEntity
  8
TITLE
100
AcDbMText
 10
35.98173460713404
 20
49.74720077916316
 30
0.0
 40
0.125
 41
0.0
 71
     2
 72
     1
  1
18
  7
SLDTEXTSTYLE1
 73
     1
 44
1.0
  0
MTEXT
  5
172
330
1F
100
AcDbEntity
  8
TITLE
100
AcDbMText
 10
37.95023854414192
 20
0.4125551098718105
 30
0.0
 40
0.125
 41
0.0
 71
     2
 72
     1
  1
17
  7
SLDTEXTSTYLE1
 73
     1
 44
1.0
  0
MTEXT
  5
173
330
1F
100
AcDbEntity
  8
TITLE
100
AcDbMText
 10
37.95023854414192
 20
49.74720077916315
 30
0.0
 40
0.125
 41
0.0
 71
     2
 72
     1
  1
17
  7
SLDTEXTSTYLE1
 73
     1
 44
1.0
  0
MTEXT
  5
174
330
1F
100
AcDbEntity
  8
TITLE
100
AcDbMText
 10
39.91874248114979
 20
0.4125551098718104
 30
0.0
 40
0.125
 41
0.0
 71
     2
 72
     1
  1
16
  7
SLDTEXTSTYLE1
 73
     1
 44
1.0
  0
MTEXT
  5
175
330
1F
100
AcDbEntity
  8
TITLE
100
AcDbMText
 10
39.91874248114979
 20
49.74720077916316
 30
0.0
 40
0.125
 41
0.0
 71
     2
 72
     1
  1
16
  7
SLDTEXTSTYLE1
 73
     1
 44
1.0
  0
MTEXT
  5
176
330
1F
100
AcDbEntity
  8
TITLE
100
AcDbMText
 10
41.88724641815767
 20
0.4125551098718104
 30
0.0
 40
0.125
 41
0.0
 71
     2
 72
     1
  1
15
  7
SLDTEXTSTYLE1
 73
     1
 44
1.0
  0
MTEXT
  5
177
330
1F
100
AcDbEntity
  8
TITLE
100
AcDbMText
 10
41.88724641815768
 20
49.74720077916316
 30
0.0
 40
0.125
 41
0.0
 71
     2
 72
     1
  1
15
  7
SLDTEXTSTYLE1
 73
     1
 44
1.0
  0
MTEXT
  5
178
330
1F
100
AcDbEntity
  8
TITLE
100
AcDbMText
 10
43.85575035516554
 20
0.4125551098718104
 30
0.0
 40
0.125
 41
0.0
 71
     2
 72
     1
  1
14
  7
SLDTEXTSTYLE1
 73
     1
 44
1.0
  0
MTEXT
  5
179
330
1F
100
AcDbEntity
  8
TITLE
100
AcDbMText
 10
43.85575035516554
 20
49.74720077916316
 30
0.0
 40
0.125
 41
0.0
 71
     2
 72
     1
  1
14
  7
SLDTEXTSTYLE1
 73
     1
 44
1.0
  0
MTEXT
  5
17A
330
1F
100
AcDbEntity
  8
TITLE
100
AcDbMText
 10
45.82425429217342
 20
0.4125551098718104
 30
0.0
 40
0.125
 41
0.0
 71
     2
 72
     1
  1
13
  7
SLDTEXTSTYLE1
 73
     1
 44
1.0
  0
MTEXT
  5
17B
330
1F
100
AcDbEntity
  8
TITLE
100
AcDbMText
 10
45.82425429217341
 20
49.74720077916315
 30
0.0
 40
0.125
 41
0.0
 71
     2
 72
     1
  1
13
  7
SLDTEXTSTYLE1
 73
     1
 44
1.0
  0
MTEXT
  5
17C
330
1F
100
AcDbEntity
  8
TITLE
100
AcDbMText
 10
47.79275822918129
 20
0.4125551098718104
 30
0.0
 40
0.125
 41
0.0
 71
     2
 72
     1
  1
12
  7
SLDTEXTSTYLE1
 73
     1
 44
1.0
  0
MTEXT
  5
17D
330
1F
100
AcDbEntity
  8
TITLE
100
AcDbMText
 10
47.79275822918129
 20
49.74720077916316
 30
0.0
 40
0.125
 41
0.0
 71
     2
 72
     1
  1
12
  7
SLDTEXTSTYLE1
 73
     1
 44
1.0
  0
MTEXT
  5
17E
330
1F
100
AcDbEntity
  8
TITLE
100
AcDbMText
 10
49.76126216618918
 20
0.4125551098718104
 30
0.0
 40
0.125
 41
0.0
 71
     2
 72
     1
  1
11
  7
SLDTEXTSTYLE1
 73
     1
 44
1.0
  0
MTEXT
  5
17F
330
1F
100
AcDbEntity
  8
TITLE
100
AcDbMText
 10
49.76126216618918
 20
49.74720077916316
 30
0.0
 40
0.125
 41
0.0
 71
     2
 72
     1
  1
11
  7
SLDTEXTSTYLE1
 73
     1
 44
1.0
  0
MTEXT
  5
180
330
1F
100
AcDbEntity
  8
TITLE
100
AcDbMText
 10
51.72976610319703
 20
0.4125551098718104
 30
0.0
 40
0.125
 41
0.0
 71
     2
 72
     1
  1
10
  7
SLDTEXTSTYLE1
 73
     1
 44
1.0
  0
MTEXT
  5
181
330
1F
100
AcDbEntity
  8
TITLE
100
AcDbMText
 10
51.72976610319704
 20
49.74720077916316
 30
0.0
 40
0.125
 41
0.0
 71
     2
 72
     1
  1
10
  7
SLDTEXTSTYLE1
 73
     1
 44
1.0
  0
MTEXT
  5
182
330
1F
100
AcDbEntity
  8
TITLE
100
AcDbMText
 10
53.69952872088985
 20
0.4125551098718104
 30
0.0
 40
0.125
 41
0.0
 71
     2
 72
     1
  1
9
  7
SLDTEXTSTYLE1
 73
     1
 44
1.0
  0
MTEXT
  5
183
330
1F
100
AcDbEntity
  8
TITLE
100
AcDbMText
 10
53.69952872088985
 20
49.74720077916316
 30
0.0
 40
0.125
 41
0.0
 71
     2
 72
     1
  1
9
  7
SLDTEXTSTYLE1
 73
     1
 44
1.0
  0
MTEXT
  5
184
330
1F
100
AcDbEntity
  8
TITLE
100
AcDbMText
 10
55.66803265789773
 20
0.4125551098718104
 30
0.0
 40
0.125
 41
0.0
 71
     2
 72
     1
  1
8
  7
SLDTEXTSTYLE1
 73
     1
 44
1.0
  0
MTEXT
  5
185
330
1F
100
AcDbEntity
  8
TITLE
100
AcDbMText
 10
55.66803265789774
 20
49.74720077916315
 30
0.0
 40
0.125
 41
0.0
 71
     2
 72
     1
  1
8
  7
SLDTEXTSTYLE1
 73
     1
 44
1.0
  0
MTEXT
  5
186
330
1F
100
AcDbEntity
  8
TITLE
100
AcDbMText
 10
57.63653659490561
 20
0.4125551098718104
 30
0.0
 40
0.125
 41
0.0
 71
     2
 72
     1
  1
7
  7
SLDTEXTSTYLE1
 73
     1
 44
1.0
  0
MTEXT
  5
187
330
1F
100
AcDbEntity
  8
TITLE
100
AcDbMText
 10
57.63653659490561
 20
49.74720077916316
 30
0.0
 40
0.125
 41
0.0
 71
     2
 72
     1
  1
7
  7
SLDTEXTSTYLE1
 73
     1
 44
1.0
  0
MTEXT
  5
188
330
1F
100
AcDbEntity
  8
TITLE
100
AcDbMText
 10
59.60504053191348
 20
0.4125551098718104
 30
0.0
 40
0.125
 41
0.0
 71
     2
 72
     1
  1
6
  7
SLDTEXTSTYLE1
 73
     1
 44
1.0
  0
MTEXT
  5
189
330
1F
100
AcDbEntity
  8
TITLE
100
AcDbMText
 10
59.6050405319135
 20
49.74720077916316
 30
0.0
 40
0.125
 41
0.0
 71
     2
 72
     1
  1
6
  7
SLDTEXTSTYLE1
 73
     1
 44
1.0
  0
MTEXT
  5
18A
330
1F
100
AcDbEntity
  8
TITLE
100
AcDbMText
 10
61.57354446892136
 20
0.4125551098718104
 30
0.0
 40
0.125
 41
0.0
 71
     2
 72
     1
  1
5
  7
SLDTEXTSTYLE1
 73
     1
 44
1.0
  0
MTEXT
  5
18B
330
1F
100
AcDbEntity
  8
TITLE
100
AcDbMText
 10
61.57354446892136
 20
49.74720077916314
 30
0.0
 40
0.125
 41
0.0
 71
     2
 72
     1
  1
5
  7
SLDTEXTSTYLE1
 73
     1
 44
1.0
  0
MTEXT
  5
18C
330
1F
100
AcDbEntity
  8
TITLE
100
AcDbMText
 10
63.54204840592922
 20
0.4125551098718104
 30
0.0
 40
0.125
 41
0.0
 71
     2
 72
     1
  1
4
  7
SLDTEXTSTYLE1
 73
     1
 44
1.0
  0
MTEXT
  5
18D
330
1F
100
AcDbEntity
  8
TITLE
100
AcDbMText
 10
63.54204840592922
 20
49.74720077916318
 30
0.0
 40
0.125
 41
0.0
 71
     2
 72
     1
  1
4
  7
SLDTEXTSTYLE1
 73
     1
 44
1.0
  0
MTEXT
  5
18E
330
1F
100
AcDbEntity
  8
TITLE
100
AcDbMText
 10
65.5105523429371
 20
0.4125551098718104
 30
0.0
 40
0.125
 41
0.0
 71
     2
 72
     1
  1
3
  7
SLDTEXTSTYLE1
 73
     1
 44
1.0
  0
MTEXT
  5
18F
330
1F
100
AcDbEntity
  8
TITLE
100
AcDbMText
 10
65.5105523429371
 20
49.74720077916316
 30
0.0
 40
0.125
 41
0.0
 71
     2
 72
     1
  1
3
  7
SLDTEXTSTYLE1
 73
     1
 44
1.0
  0
MTEXT
  5
190
330
1F
100
AcDbEntity
  8
TITLE
100
AcDbMText
 10
67.47905627994497
 20
0.4125551098718104
 30
0.0
 40
0.125
 41
0.0
 71
     2
 72
     1
  1
2
  7
SLDTEXTSTYLE1
 73
     1
 44
1.0
  0
MTEXT
  5
191
330
1F
100
AcDbEntity
  8
TITLE
100
AcDbMText
 10
67.47905627994498
 20
49.74720077916317
 30
0.0
 40
0.125
 41
0.0
 71
     2
 72
     1
  1
2
  7
SLDTEXTSTYLE1
 73
     1
 44
1.0
  0
MTEXT
  5
192
330
1F
100
AcDbEntity
  8
TITLE
100
AcDbMText
 10
68.98102478388199
 20
0.4125551098718104
 30
0.0
 40
0.125
 41
0.0
 71
     2
 72
     1
  1
1
  7
SLDTEXTSTYLE1
 73
     1
 44
1.0
  0
MTEXT
  5
193
330
1F
100
AcDbEntity
  8
TITLE
100
AcDbMText
 10
68.98102478388199
 20
49.74720077916316
 30
0.0
 40
0.125
 41
0.0
 71
     2
 72
     1
  1
1
  7
SLDTEXTSTYLE1
 73
     1
 44
1.0
  0
LINE
  5
194
330
1F
100
AcDbEntity
  8
0
  6
SLD-Solid
 62
     7
370
    25
100
AcDbLine
 10
3.577939204803088
 20
12.29679904635826
 30
0.0
 11
3.577939204803087
 21
12.29962747348306
 31
0.0
  0
LINE
  5
195
330
1F
100
AcDbEntity
  8
0
  6
SLD-Solid
 62
     7
370
    25
100
AcDbLine
 10
19.56810341836546
 20
42.27196325992058
 30
0.0
 11
19.56527499124071
 21
42.27196325992058
 31
0.0
  0
LINE
  5
196
330
1F
100
AcDbEntity
  8
0
  6
SLD-Solid
 62
     7
370
    25
100
AcDbLine
 10
3.594189204803279
 20
42.26837747348303
 30
0.0
 11
3.594189204803279
 21
42.26554904635823
 31
0.0
  0
LINE
  5
197
330
1F
100
AcDbEntity
  8
0
  6
SLD-Solid
 62
     7
370
    25
100
AcDbLine
 10
3.594189204803279
 20
12.31587747348325
 30
0.0
 11
3.594189204803279
 21
12.31304904635845
 31
0.0
  0
LINE
  5
198
330
1F
100
AcDbEntity
  8
0
  6
SLD-Solid
 62
     7
370
    25
100
AcDbLine
 10
19.58190010788153
 20
12.27196325992058
 30
0.0
 11
19.59418920480328
 21
12.27196325992058
 31
0.0
  0
LINE
  5
199
330
1F
100
AcDbEntity
  8
0
  6
SLD-Solid
 62
     7
370
    25
100
AcDbLine
 10
19.59418920480328
 20
12.27196325992058
 30
0.0
 11
19.59418920480328
 21
12.28337747348297
 31
0.0
  0
LINE
  5
19A
330
1F
100
AcDbEntity
  8
0
  6
SLD-Solid
 62
     7
370
    25
100
AcDbLine
 10
4.005103418365593
 20
41.85746325992071
 30
0.0
 11
19.15077499124084
 21
41.85746325992071
 31
0.0
  0
LINE
  5
19B
330
1F
100
AcDbEntity
  8
0
  6
SLD-Solid
 62
     7
370
    25
100
AcDbLine
 10
4.005103418365593
 20
41.85746325992071
 30
0.0
 11
3.562103418365594
 21
42.30046325992071
 31
0.0
  0
LINE
  5
19C
330
1F
100
AcDbEntity
  8
0
  6
SLD-Solid
 62
     7
370
    25
100
AcDbLine
 10
19.59377499124085
 20
42.30046325992071
 30
0.0
 11
19.15077499124084
 21
41.85746325992071
 31
0.0
  0
LINE
  5
19D
330
1F
100
AcDbEntity
  8
0
  6
SLD-Solid
 62
     7
370
    25
100
AcDbLine
 10
3.560689204803167
 20
42.29904904635834
 30
0.0
 11
4.003689204803217
 21
41.85604904635834
 31
0.0
  0
LINE
  5
19E
330
1F
100
AcDbEntity
  8
0
  6
SLD-Solid
 62
     7
370
    25
100
AcDbLine
 10
4.003689204803116
 20
12.72537747348309
 30
0.0
 11
4.003689204803217
 21
41.85604904635834
 31
0.0
  0
LINE
  5
19F
330
1F
100
AcDbEntity
  8
0
  6
SLD-Solid
 62
     7
370
    25
100
AcDbLine
 10
4.003689204803116
 20
12.72537747348309
 30
0.0
 11
3.560689204803115
 21
12.28237747348309
 31
0.0
  0
LINE
  5
1A0
330
1F
100
AcDbEntity
  8
0
  6
SLD-Solid
 62
     7
370
    25
100
AcDbLine
 10
19.15218920480322
 20
41.85604904635834
 30
0.0
 11
19.15218920480332
 21
12.72537747348298
 31
0.0
  0
LINE
  5
1A1
330
1F
100
AcDbEntity
  8
0
  6
SLD-Solid
 62
     7
370
    25
100
AcDbLine
 10
19.59518920480327
 20
12.28237747348298
 30
0.0
 11
19.15218920480332
 21
12.72537747348298
 31
0.0
  0
LINE
  5
1A2
330
1F
100
AcDbEntity
  8
0
  6
SLD-Solid
 62
     7
370
    25
100
AcDbLine
 10
19.15218920480322
 20
41.85604904635834
 30
0.0
 11
19.59518920480322
 21
42.29904904635834
 31
0.0
  0
SPLINE
  5
1A3
330
1F
100
AcDbEntity
  8
0
  6
SLD-Solid
 62
     7
370
    25
100
AcDbSpline
210
0.0
220
0.0
230
1.0
 70
    12
 71
     3
 72
    11
 73
     7
 74
     0
 42
0.00000001
 43
0.00000001
 40
0.0
 40
0.0
 40
0.0
 40
0.0
 40
0.2500000000000093
 40
0.5000000000000087
 40
0.7499999999999966
 40
1.0
 40
1.0
 40
1.0
 40
1.0
 10
19.60918920480322
 20
42.34736325992072
 30
0.0
 41
1.0
 10
19.60790468700635
 20
42.34665827915698
 30
0.0
 41
1.0
 10
19.60533565141262
 20
42.34524831762954
 30
0.0
 41
1.0
 10
19.60148209802203
 20
42.33440272953409
 30
0.0
 41
1.0
 10
19.59762854463144
 20
42.31890017198425
 30
0.0
 41
1.0
 10
19.59505950903771
 20
42.30660889727523
 30
0.0
 41
1.0
 10
19.59377499124085
 20
42.30046325992071
 30
0.0
 41
1.0
  0
LINE
  5
1A4
330
1F
100
AcDbEntity
  8
0
  6
SLD-Solid
 62
     7
370
    25
100
AcDbLine
 10
19.60918920480322
 20
42.34736325992072
 30
0.0
 11
19.60918920480322
 21
42.32946325992071
 31
0.0
  0
SPLINE
  5
1A5
330
1F
100
AcDbEntity
  8
0
  6
SLD-Solid
 62
     7
370
    25
100
AcDbSpline
210
0.0
220
0.0
230
1.0
 70
    12
 71
     3
 72
    11
 73
     7
 74
     0
 42
0.00000001
 43
0.00000001
 40
0.0
 40
0.0
 40
0.0
 40
0.0
 40
0.2500000000000051
 40
0.4999999999999991
 40
0.749999999999977
 40
1.0
 40
1.0
 40
1.0
 40
1.0
 10
19.60918920480322
 20
42.32946325992071
 30
0.0
 41
1.0
 10
19.60790468700635
 20
42.32902734430988
 30
0.0
 41
1.0
 10
19.60533565141262
 20
42.32815551308821
 30
0.0
 41
1.0
 10
19.60148209802203
 20
42.32144928590767
 30
0.0
 41
1.0
 10
19.59762854463144
 20
42.31186348273186
 30
0.0
 41
1.0
 10
19.59505950903771
 20
42.30426333419109
 30
0.0
 41
1.0
 10
19.59377499124085
 20
42.30046325992071
 30
0.0
 41
1.0
  0
LINE
  5
1A6
330
1F
100
AcDbEntity
  8
0
  6
SLD-Solid
 62
     7
370
    25
100
AcDbLine
 10
3.513789204803167
 20
12.26696325992072
 30
0.0
 11
3.531689204803115
 21
12.26696325992071
 31
0.0
  0
SPLINE
  5
1A7
330
1F
100
AcDbEntity
  8
0
  6
SLD-Solid
 62
     7
370
    25
100
AcDbSpline
210
0.0
220
0.0
230
1.0
 70
    12
 71
     3
 72
    11
 73
     7
 74
     0
 42
0.00000001
 43
0.00000001
 40
0.0
 40
0.0
 40
0.0
 40
0.0
 40
0.2500000000002994
 40
0.5000000000002013
 40
0.7500000000001068
 40
1.0
 40
1.0
 40
1.0
 40
1.0
 10
3.560689204803115
 20
12.28237747348309
 30
0.0
 41
1.0
 10
3.554543567448599
 20
12.28109295568622
 30
0.0
 41
1.0
 10
3.542252292739577
 20
12.2785239200925
 30
0.0
 41
1.0
 10
3.526749735189753
 20
12.2746703667019
 30
0.0
 41
1.0
 10
3.51590414709434
 20
12.27081681331131
 30
0.0
 41
1.0
 10
3.514494185566892
 20
12.26824777771758
 30
0.0
 41
1.0
 10
3.513789204803167
 20
12.26696325992072
 30
0.0
 41
1.0
  0
SPLINE
  5
1A8
330
1F
100
AcDbEntity
  8
0
  6
SLD-Solid
 62
     7
370
    25
100
AcDbSpline
210
0.0
220
0.0
230
1.0
 70
    12
 71
     3
 72
    11
 73
     7
 74
     0
 42
0.00000001
 43
0.00000001
 40
0.0
 40
0.0
 40
0.0
 40
0.0
 40
0.250000000000681
 40
0.5000000000003448
 40
0.7500000000000638
 40
1.0
 40
1.0
 40
1.0
 40
1.0
 10
3.560689204803167
 20
12.28237747348309
 30
0.0
 41
1.0
 10
3.556889130532773
 20
12.28109295568623
 30
0.0
 41
1.0
 10
3.549288981992
 20
12.27852392009251
 30
0.0
 41
1.0
 10
3.539703178816193
 20
12.2746703667019
 30
0.0
 41
1.0
 10
3.532996951635674
 20
12.27081681331131
 30
0.0
 41
1.0
 10
3.532125120413967
 20
12.26824777771758
 30
0.0
 41
1.0
 10
3.531689204803115
 20
12.26696325992071
 30
0.0
 41
1.0
  0
LINE
  5
1A9
330
1F
100
AcDbEntity
  8
0
  6
SLD-Solid
 62
     7
370
    25
100
AcDbLine
 10
19.62418920480322
 20
42.31446325992071
 30
0.0
 11
19.64208920480327
 21
42.31446325992071
 31
0.0
  0
SPLINE
  5
1AA
330
1F
100
AcDbEntity
  8
0
  6
SLD-Solid
 62
     7
370
    25
100
AcDbSpline
210
0.0
220
0.0
230
1.0
 70
    12
 71
     3
 72
    11
 73
     7
 74
     0
 42
0.00000001
 43
0.00000001
 40
0.0
 40
0.0
 40
0.0
 40
0.0
 40
0.2499999999996931
 40
0.4999999999997854
 40
0.7499999999998942
 40
1.0
 40
1.0
 40
1.0
 40
1.0
 10
19.59518920480322
 20
42.29904904635834
 30
0.0
 41
1.0
 10
19.60133484215773
 20
42.3003335641552
 30
0.0
 41
1.0
 10
19.61362611686676
 20
42.30290259974893
 30
0.0
 41
1.0
 10
19.62912867441663
 20
42.30675615313953
 30
0.0
 41
1.0
 10
19.63997426251209
 20
42.31060970653012
 30
0.0
 41
1.0
 10
19.64138422403954
 20
42.31317874212384
 30
0.0
 41
1.0
 10
19.64208920480327
 20
42.31446325992071
 30
0.0
 41
1.0
  0
SPLINE
  5
1AB
330
1F
100
AcDbEntity
  8
0
  6
SLD-Solid
 62
     7
370
    25
100
AcDbSpline
210
0.0
220
0.0
230
1.0
 70
    12
 71
     3
 72
    11
 73
     7
 74
     0
 42
0.00000001
 43
0.00000001
 40
0.0
 40
0.0
 40
0.0
 40
0.0
 40
0.2499999999992953
 40
0.4999999999995735
 40
0.7499999999998931
 40
1.0
 40
1.0
 40
1.0
 40
1.0
 10
19.59518920480327
 20
42.29904904635834
 30
0.0
 41
1.0
 10
19.59898927907364
 20
42.30033356415521
 30
0.0
 41
1.0
 10
19.6065894276144
 20
42.30290259974895
 30
0.0
 41
1.0
 10
19.6161752307902
 20
42.30675615313952
 30
0.0
 41
1.0
 10
19.62288145797078
 20
42.31060970653012
 30
0.0
 41
1.0
 10
19.62375328919241
 20
42.31317874212385
 30
0.0
 41
1.0
 10
19.62418920480322
 20
42.31446325992071
 30
0.0
 41
1.0
  0
SPLINE
  5
1AC
330
1F
100
AcDbEntity
  8
0
  6
SLD-Solid
 62
     7
370
    25
100
AcDbSpline
210
0.0
220
0.0
230
1.0
 70
    12
 71
     3
 72
    11
 73
     7
 74
     0
 42
0.00000001
 43
0.00000001
 40
0.0
 40
0.0
 40
0.0
 40
0.0
 40
0.2500000000001796
 40
0.5000000000004727
 40
0.7500000000007754
 40
1.0
 40
1.0
 40
1.0
 40
1.0
 10
3.51378920480322
 20
42.31446325992071
 30
0.0
 41
1.0
 10
3.514494185566927
 20
42.31317874212385
 30
0.0
 41
1.0
 10
3.515904147094338
 20
42.31060970653012
 30
0.0
 41
1.0
 10
3.526749735189818
 20
42.30675615313952
 30
0.0
 41
1.0
 10
3.542252292739665
 20
42.30290259974895
 30
0.0
 41
1.0
 10
3.554543567448675
 20
42.30033356415521
 30
0.0
 41
1.0
 10
3.560689204803167
 20
42.29904904635834
 30
0.0
 41
1.0
  0
LINE
  5
1AD
330
1F
100
AcDbEntity
  8
0
  6
SLD-Solid
 62
     7
370
    25
100
AcDbLine
 10
3.531689204803219
 20
42.31446325992071
 30
0.0
 11
3.51378920480322
 21
42.31446325992071
 31
0.0
  0
SPLINE
  5
1AE
330
1F
100
AcDbEntity
  8
0
  6
SLD-Solid
 62
     7
370
    25
100
AcDbSpline
210
0.0
220
0.0
230
1.0
 70
    12
 71
     3
 72
    11
 73
     7
 74
     0
 42
0.00000001
 43
0.00000001
 40
0.0
 40
0.0
 40
0.0
 40
0.0
 40
0.2500000000001197
 40
0.5000000000004063
 40
0.7500000000006963
 40
1.0
 40
1.0
 40
1.0
 40
1.0
 10
3.531689204803219
 20
42.31446325992071
 30
0.0
 41
1.0
 10
3.532125120414033
 20
42.31317874212385
 30
0.0
 41
1.0
 10
3.532996951635655
 20
42.31060970653012
 30
0.0
 41
1.0
 10
3.539703178816233
 20
42.30675615313953
 30
0.0
 41
1.0
 10
3.54928898199205
 20
42.30290259974895
 30
0.0
 41
1.0
 10
3.556889130532801
 20
42.3003335641552
 30
0.0
 41
1.0
 10
3.560689204803167
 20
42.29904904635834
 30
0.0
 41
1.0
  0
SPLINE
  5
1AF
330
1F
100
AcDbEntity
  8
0
  6
SLD-Solid
 62
     7
370
    25
100
AcDbSpline
210
0.0
220
0.0
230
1.0
 70
    12
 71
     3
 72
    11
 73
     7
 74
     0
 42
0.00000001
 43
0.00000001
 40
0.0
 40
0.0
 40
0.0
 40
0.0
 40
0.2499999999998307
 40
0.499999999999544
 40
0.7499999999992444
 40
1.0
 40
1.0
 40
1.0
 40
1.0
 10
19.64208920480333
 20
12.26696325992071
 30
0.0
 41
1.0
 10
19.64138422403958
 20
12.26824777771757
 30
0.0
 41
1.0
 10
19.63997426251209
 20
12.27081681331128
 30
0.0
 41
1.0
 10
19.62912867441668
 20
12.27467036670184
 30
0.0
 41
1.0
 10
19.61362611686685
 20
12.27852392009242
 30
0.0
 41
1.0
 10
19.60133484215781
 20
12.28109295568612
 30
0.0
 41
1.0
 10
19.59518920480327
 20
12.28237747348298
 30
0.0
 41
1.0
  0
LINE
  5
1B0
330
1F
100
AcDbEntity
  8
0
  6
SLD-Solid
 62
     7
370
    25
100
AcDbLine
 10
19.64208920480333
 20
12.26696325992071
 30
0.0
 11
19.62418920480333
 21
12.26696325992071
 31
0.0
  0
SPLINE
  5
1B1
330
1F
100
AcDbEntity
  8
0
  6
SLD-Solid
 62
     7
370
    25
100
AcDbSpline
210
0.0
220
0.0
230
1.0
 70
    12
 71
     3
 72
    11
 73
     7
 74
     0
 42
0.00000001
 43
0.00000001
 40
0.0
 40
0.0
 40
0.0
 40
0.0
 40
0.2499999999998922
 40
0.4999999999996002
 40
0.7499999999993073
 40
1.0
 40
1.0
 40
1.0
 40
1.0
 10
19.62418920480333
 20
12.26696325992071
 30
0.0
 41
1.0
 10
19.62375328919247
 20
12.26824777771757
 30
0.0
 41
1.0
 10
19.62288145797077
 20
12.27081681331128
 30
0.0
 41
1.0
 10
19.61617523079025
 20
12.27467036670184
 30
0.0
 41
1.0
 10
19.60658942761444
 20
12.27852392009242
 30
0.0
 41
1.0
 10
19.59898927907367
 20
12.28109295568612
 30
0.0
 41
1.0
 10
19.59518920480327
 20
12.28237747348298
 30
0.0
 41
1.0
  0
LINE
  5
1B2
330
1F
100
AcDbEntity
  8
0
  6
SLD-Solid
 62
     7
370
    25
100
AcDbLine
 10
3.51378920480322
 20
42.31446325992071
 30
0.0
 11
3.513789204803167
 21
12.26696325992072
 31
0.0
  0
LINE
  5
1B3
330
1F
100
AcDbEntity
  8
0
  6
SLD-Solid
 62
     7
370
    25
100
AcDbLine
 10
19.64208920480333
 20
12.26696325992071
 30
0.0
 11
19.64208920480327
 21
42.31446325992071
 31
0.0
  0
SPLINE
  5
1B4
330
1F
100
AcDbEntity
  8
0
  6
SLD-Solid
 62
     7
370
    25
100
AcDbSpline
210
0.0
220
0.0
230
1.0
 70
    12
 71
     3
 72
    11
 73
     7
 74
     0
 42
0.00000001
 43
0.00000001
 40
0.0
 40
0.0
 40
0.0
 40
0.0
 40
0.2500000000000254
 40
0.5000000000000135
 40
0.7500000000000087
 40
1.0
 40
1.0
 40
1.0
 40
1.0
 10
3.562103418365594
 20
42.30046325992071
 30
0.0
 41
1.0
 10
3.560818900568729
 20
42.30660889727522
 30
0.0
 41
1.0
 10
3.558249864975001
 20
42.31890017198425
 30
0.0
 41
1.0
 10
3.554396311584406
 20
42.3344027295341
 30
0.0
 41
1.0
 10
3.550542758193817
 20
42.34524831762953
 30
0.0
 41
1.0
 10
3.547973722600087
 20
42.34665827915698
 30
0.0
 41
1.0
 10
3.546689204803221
 20
42.34736325992072
 30
0.0
 41
1.0
  0
LINE
  5
1B5
330
1F
100
AcDbEntity
  8
0
  6
SLD-Solid
 62
     7
370
    25
100
AcDbLine
 10
3.546689204803221
 20
42.34736325992072
 30
0.0
 11
19.60918920480322
 21
42.34736325992072
 31
0.0
  0
LINE
  5
1B6
330
1F
100
AcDbEntity
  8
0
  6
SLD-Solid
 62
     7
370
    25
100
AcDbLine
 10
3.546689204803221
 20
42.34736325992072
 30
0.0
 11
3.546689204803221
 21
42.32946325992071
 31
0.0
  0
SPLINE
  5
1B7
330
1F
100
AcDbEntity
  8
0
  6
SLD-Solid
 62
     7
370
    25
100
AcDbSpline
210
0.0
220
0.0
230
1.0
 70
    12
 71
     3
 72
    11
 73
     7
 74
     0
 42
0.00000001
 43
0.00000001
 40
0.0
 40
0.0
 40
0.0
 40
0.0
 40
0.2500000000000191
 40
0.5000000000000062
 40
0.7499999999999963
 40
1.0
 40
1.0
 40
1.0
 40
1.0
 10
3.562103418365594
 20
42.30046325992071
 30
0.0
 41
1.0
 10
3.560818900568729
 20
42.30426333419109
 30
0.0
 41
1.0
 10
3.558249864975004
 20
42.31186348273186
 30
0.0
 41
1.0
 10
3.554396311584406
 20
42.32144928590767
 30
0.0
 41
1.0
 10
3.550542758193814
 20
42.32815551308821
 30
0.0
 41
1.0
 10
3.547973722600087
 20
42.32902734430989
 30
0.0
 41
1.0
 10
3.546689204803221
 20
42.32946325992071
 30
0.0
 41
1.0
  0
LINE
  5
1B8
330
1F
100
AcDbEntity
  8
0
  6
SLD-Solid
 62
     7
370
    25
100
AcDbLine
 10
19.13577499124075
 20
12.72396325992069
 30
0.0
 11
19.57877499124085
 21
12.2809632599206
 31
0.0
  0
LINE
  5
1B9
330
1F
100
AcDbEntity
  8
0
  6
SLD-Solid
 62
     7
370
    25
100
AcDbLine
 10
19.13577499124075
 20
12.72396325992069
 30
0.0
 11
4.005103418365473
 21
12.72396325992069
 31
0.0
  0
LINE
  5
1BA
330
1F
100
AcDbEntity
  8
0
  6
SLD-Solid
 62
     7
370
    25
100
AcDbLine
 10
3.562103418365482
 20
12.28096325992066
 30
0.0
 11
4.005103418365473
 21
12.72396325992069
 31
0.0
  0
SPLINE
  5
1BB
330
1F
100
AcDbEntity
  8
0
  6
SLD-Solid
 62
     7
370
    25
100
AcDbSpline
210
0.0
220
0.0
230
1.0
 70
    12
 71
     3
 72
    11
 73
     7
 74
     0
 42
0.00000001
 43
0.00000001
 40
0.0
 40
0.0
 40
0.0
 40
0.0
 40
0.2500000000001915
 40
0.5000000000004972
 40
0.7500000000008431
 40
1.0
 40
1.0
 40
1.0
 40
1.0
 10
3.546689204803114
 20
12.23406325992071
 30
0.0
 41
1.0
 10
3.547973722599979
 20
12.23476824068442
 30
0.0
 41
1.0
 10
3.550542758193706
 20
12.23617820221183
 30
0.0
 41
1.0
 10
3.554396311584298
 20
12.24702379030731
 30
0.0
 41
1.0
 10
3.55824986497488
 20
12.26252634785716
 30
0.0
 41
1.0
 10
3.560818900568618
 20
12.27481762256617
 30
0.0
 41
1.0
 10
3.562103418365482
 20
12.28096325992066
 30
0.0
 41
1.0
  0
LINE
  5
1BC
330
1F
100
AcDbEntity
  8
0
  6
SLD-Solid
 62
     7
370
    25
100
AcDbLine
 10
3.546689204803114
 20
12.25196325992066
 30
0.0
 11
3.546689204803114
 21
12.23406325992071
 31
0.0
  0
SPLINE
  5
1BD
330
1F
100
AcDbEntity
  8
0
  6
SLD-Solid
 62
     7
370
    25
100
AcDbSpline
210
0.0
220
0.0
230
1.0
 70
    12
 71
     3
 72
    11
 73
     7
 74
     0
 42
0.00000001
 43
0.00000001
 40
0.0
 40
0.0
 40
0.0
 40
0.0
 40
0.2500000000002771
 40
0.5000000000005368
 40
0.7500000000008539
 40
1.0
 40
1.0
 40
1.0
 40
1.0
 10
3.546689204803114
 20
12.25196325992066
 30
0.0
 41
1.0
 10
3.547973722599979
 20
12.25239917553149
 30
0.0
 41
1.0
 10
3.550542758193704
 20
12.25327100675316
 30
0.0
 41
1.0
 10
3.5543963115843
 20
12.25997723393372
 30
0.0
 41
1.0
 10
3.558249864974881
 20
12.26956303710954
 30
0.0
 41
1.0
 10
3.560818900568617
 20
12.27716318565029
 30
0.0
 41
1.0
 10
3.562103418365482
 20
12.28096325992066
 30
0.0
 41
1.0
  0
LINE
  5
1BE
330
1F
100
AcDbEntity
  8
0
  6
SLD-Solid
 62
     7
370
    25
100
AcDbLine
 10
19.59418920480311
 20
12.23406325992065
 30
0.0
 11
19.59418920480311
 21
12.25196325992066
 31
0.0
  0
SPLINE
  5
1BF
330
1F
100
AcDbEntity
  8
0
  6
SLD-Solid
 62
     7
370
    25
100
AcDbSpline
210
0.0
220
0.0
230
1.0
 70
    12
 71
     3
 72
    11
 73
     7
 74
     0
 42
0.00000001
 43
0.00000001
 40
0.0
 40
0.0
 40
0.0
 40
0.0
 40
0.250000000000335
 40
0.5000000000002034
 40
0.7500000000001182
 40
1.0
 40
1.0
 40
1.0
 40
1.0
 10
19.57877499124085
 20
12.2809632599206
 30
0.0
 41
1.0
 10
19.58005950903771
 20
12.27481762256608
 30
0.0
 41
1.0
 10
19.58262854463142
 20
12.26252634785706
 30
0.0
 41
1.0
 10
19.58648209802199
 20
12.24702379030725
 30
0.0
 41
1.0
 10
19.59033565141255
 20
12.23617820221183
 30
0.0
 41
1.0
 10
19.59290468700626
 20
12.23476824068438
 30
0.0
 41
1.0
 10
19.59418920480311
 20
12.23406325992065
 30
0.0
 41
1.0
  0
SPLINE
  5
1C0
330
1F
100
AcDbEntity
  8
0
  6
SLD-Solid
 62
     7
370
    25
100
AcDbSpline
210
0.0
220
0.0
230
1.0
 70
    12
 71
     3
 72
    11
 73
     7
 74
     0
 42
0.00000001
 43
0.00000001
 40
0.0
 40
0.0
 40
0.0
 40
0.0
 40
0.2500000000008008
 40
0.5000000000005538
 40
0.7500000000002819
 40
1.0
 40
1.0
 40
1.0
 40
1.0
 10
19.57877499124085
 20
12.28096325992066
 30
0.0
 41
1.0
 10
19.58005950903771
 20
12.27716318565026
 30
0.0
 41
1.0
 10
19.58262854463141
 20
12.26956303710949
 30
0.0
 41
1.0
 10
19.58648209802198
 20
12.25997723393369
 30
0.0
 41
1.0
 10
19.59033565141255
 20
12.25327100675315
 30
0.0
 41
1.0
 10
19.59290468700626
 20
12.25239917553149
 30
0.0
 41
1.0
 10
19.59418920480311
 20
12.25196325992066
 30
0.0
 41
1.0
  0
LINE
  5
1C1
330
1F
100
AcDbEntity
  8
0
  6
SLD-Solid
 62
     7
370
    25
100
AcDbLine
 10
19.59418920480311
 20
12.23406325992065
 30
0.0
 11
3.546689204803114
 21
12.23406325992071
 31
0.0
  0
ARC
  5
1C2
330
1F
100
AcDbEntity
  8
0
  6
SLD-Solid
 62
     7
370
    25
100
AcDbCircle
 10
3.546689204803114
 20
12.26696325992071
 30
0.0
 40
0.0150000000000556
100
AcDbArc
 50
180.0
 51
270.0000000000008
  0
ARC
  5
1C3
330
1F
100
AcDbEntity
  8
0
  6
SLD-Solid
 62
     7
370
    25
100
AcDbCircle
 10
3.546689204803114
 20
12.26696325992071
 30
0.0
 40
0.0329000000000015
100
AcDbArc
 50
179.9999999999845
 51
270.0000000000008
  0
ARC
  5
1C4
330
1F
100
AcDbEntity
  8
0
  6
SLD-Solid
 62
     7
370
    25
100
AcDbCircle
 10
3.546689204803219
 20
42.31446325992071
 30
0.0
 40
0.032900000000005
100
AcDbArc
 50
89.99999999999613
 51
180.0
  0
ARC
  5
1C5
330
1F
100
AcDbEntity
  8
0
  6
SLD-Solid
 62
     7
370
    25
100
AcDbCircle
 10
3.546689204803219
 20
42.31446325992071
 30
0.0
 40
0.0149999999999997
100
AcDbArc
 50
89.99999999999153
 51
180.0
  0
ARC
  5
1C6
330
1F
100
AcDbEntity
  8
0
  6
SLD-Solid
 62
     7
370
    25
100
AcDbCircle
 10
19.60918920480322
 20
42.31446325992071
 30
0.0
 40
0.0329000000000548
100
AcDbArc
 50
0.0
 51
90.0
  0
ARC
  5
1C7
330
1F
100
AcDbEntity
  8
0
  6
SLD-Solid
 62
     7
370
    25
100
AcDbCircle
 10
19.60918920480322
 20
42.31446325992071
 30
0.0
 40
0.0150000000000006
100
AcDbArc
 50
0.0
 51
90.00000000001357
  0
LINE
  5
1C8
330
1F
100
AcDbEntity
  8
DIMS
100
AcDbLine
 10
1.373616146945552
 20
7.234063259920653
 30
0.0
 11
47.95202836107998
 21
7.234063259920653
 31
0.0
  0
LINE
  5
1C9
330
1F
100
AcDbEntity
  8
DIMS
100
AcDbLine
 10
2.648150239199087
 20
7.234063259920653
 30
0.0
 11
2.648150239199087
 21
7.661568284300476
 31
0.0
  0
LINE
  5
1CA
330
1F
100
AcDbEntity
  8
DIMS
100
AcDbLine
 10
2.648150239199087
 20
7.661568284300476
 30
0.0
 11
2.91769647448138
 21
7.815594704461787
 31
0.0
  0
LINE
  5
1CB
330
1F
100
AcDbEntity
  8
DIMS
100
AcDbLine
 10
2.91769647448138
 20
7.815594704461787
 30
0.0
 11
2.378604003916793
 21
8.133101346681448
 31
0.0
  0
LINE
  5
1CC
330
1F
100
AcDbEntity
  8
DIMS
100
AcDbLine
 10
2.378604003916793
 20
8.133101346681448
 30
0.0
 11
2.648150239199087
 21
8.287127766842758
 31
0.0
  0
LINE
  5
1CD
330
1F
100
AcDbEntity
  8
DIMS
100
AcDbLine
 10
2.648150239199087
 20
8.287127766842758
 30
0.0
 11
2.648150239199087
 21
8.954605602757137
 31
0.0
  0
DIMENSION
  5
1CE
330
1F
100
AcDbEntity
  8
DIMS
100
AcDbDimension
  2
_D
 10
2.647647472519652
 20
12.23406325992071
 30
0.0
 11
2.647647472519651
 21
8.0608349134639
 31
0.0
 70
    32
  1
                                                                                                                                                                                       48" (1220mm) bottom of mirror from floor. Positions may vary depending on size and the type of installation  \P^M\P 
 71
     2
 42
-1.0
  3
SLDDIMSTYLE0
100
AcDbAlignedDimension
 13
1.373616146945552
 23
7.234063259920653
 33
0.0
 14
3.546689204803114
 24
12.23406325992071
 34
0.0
 50
90.0000000000002
100
AcDbRotatedDimension
  0
DIMENSION
  5
1DF
330
1F
100
AcDbEntity
  8
DIMS
100
AcDbDimension
  2
_D_1
 10
19.64208920480327
 20
43.2135049922042
 30
0.0
 11
11.57793920480325
 21
43.21350499220419
 31
0.0
 70
    32
  1
<>
 71
     2
 42
-1.0
  3
SLDDIMSTYLE1
100
AcDbAlignedDimension
 13
3.51378920480322
 23
42.31446325992071
 33
0.0
 14
19.64208920480327
 24
42.3144632599207
 34
0.0
 50
0.000000000000101
100
AcDbRotatedDimension
  0
DIMENSION
  5
1EF
330
1F
100
AcDbEntity
  8
DIMS
100
AcDbDimension
  2
_D_2
 10
21.21689235440962
 20
12.23406325992065
 30
0.0
 11
21.21689235440962
 21
27.86847141034677
 31
0.0
 70
    32
  1
<>
 71
     2
 42
-1.0
  3
SLDDIMSTYLE1
100
AcDbAlignedDimension
 13
19.60918920480322
 23
42.34736325992071
 33
0.0
 14
19.59418920480311
 24
12.23406325992065
 34
0.0
 50
90.0000000000002
100
AcDbRotatedDimension
  0
MTEXT
  5
1FE
330
1F
100
AcDbEntity
  8
NOTES
100
AcDbMText
 10
3.506519442180193
 20
11.88625747033343
 30
0.0
 40
0.5
 41
0.0
 71
     1
 72
     1
  1
Front view
  7
SLDTEXTSTYLE1
 73
     1
 44
1.0
  0
LINE
  5
1FF
330
1F
100
AcDbEntity
  8
0
  6
SLD-Solid
 62
     7
370
    25
100
AcDbLine
 10
25.57773003228918
 20
12.37706325992066
 30
0.0
 11
25.59273003228919
 21
12.42612604919792
 31
0.0
  0
LINE
  5
200
330
1F
100
AcDbEntity
  8
0
  6
SLD-Solid
 62
     7
370
    25
100
AcDbLine
 10
25.59273003228919
 20
12.5820004706434
 30
0.0
 11
25.57773003228919
 21
12.63106325992066
 31
0.0
  0
LINE
  5
201
330
1F
100
AcDbEntity
  8
0
  6
SLD-Solid
 62
     7
370
    25
100
AcDbLine
 10
25.55373003228918
 20
12.37706325992066
 30
0.0
 11
25.57773003228918
 21
12.37706325992066
 31
0.0
  0
LINE
  5
202
330
1F
100
AcDbEntity
  8
0
  6
SLD-Solid
 62
     7
370
    25
100
AcDbLine
 10
25.57773003228919
 20
12.63106325992066
 30
0.0
 11
25.55373003228919
 21
12.63106325992066
 31
0.0
  0
LINE
  5
203
330
1F
100
AcDbEntity
  8
0
  6
SLD-Solid
 62
     7
370
    25
100
AcDbLine
 10
25.57773003228917
 20
12.86596325992072
 30
0.0
 11
25.59273003228917
 21
12.91502604919798
 31
0.0
  0
LINE
  5
204
330
1F
100
AcDbEntity
  8
0
  6
SLD-Solid
 62
     7
370
    25
100
AcDbLine
 10
25.59273003228917
 20
13.07090047064345
 30
0.0
 11
25.57773003228917
 21
13.11996325992072
 31
0.0
  0
LINE
  5
205
330
1F
100
AcDbEntity
  8
0
  6
SLD-Solid
 62
     7
370
    25
100
AcDbLine
 10
25.55373003228917
 20
12.86596325992072
 30
0.0
 11
25.57773003228917
 21
12.86596325992072
 31
0.0
  0
LINE
  5
206
330
1F
100
AcDbEntity
  8
0
  6
SLD-Solid
 62
     7
370
    25
100
AcDbLine
 10
25.57773003228917
 20
13.11996325992072
 30
0.0
 11
25.55373003228917
 21
13.11996325992072
 31
0.0
  0
LINE
  5
207
330
1F
100
AcDbEntity
  8
0
  6
SLD-Solid
 62
     7
370
    25
100
AcDbLine
 10
25.50983003228923
 20
12.26943350144192
 30
0.0
 11
25.50983003228923
 21
12.25196325992063
 31
0.0
  0
LINE
  5
208
330
1F
100
AcDbEntity
  8
0
  6
SLD-Solid
 62
     7
370
    25
100
AcDbLine
 10
25.50983003228923
 20
12.25196325992063
 30
0.0
 11
25.50683003228924
 21
12.25196325992063
 31
0.0
  0
LINE
  5
209
330
1F
100
AcDbEntity
  8
0
  6
SLD-Solid
 62
     7
370
    25
100
AcDbLine
 10
25.59273003228919
 20
12.5820004706434
 30
0.0
 11
25.59273003228919
 21
12.42612604919792
 31
0.0
  0
LINE
  5
20A
330
1F
100
AcDbEntity
  8
0
  6
SLD-Solid
 62
     7
370
    25
100
AcDbLine
 10
25.57773003228918
 20
12.37706325992066
 30
0.0
 11
25.57773003228919
 21
12.63106325992066
 31
0.0
  0
LINE
  5
20B
330
1F
100
AcDbEntity
  8
0
  6
SLD-Solid
 62
     7
370
    25
100
AcDbLine
 10
25.59273003228917
 20
13.07090047064345
 30
0.0
 11
25.59273003228917
 21
12.91502604919798
 31
0.0
  0
LINE
  5
20C
330
1F
100
AcDbEntity
  8
0
  6
SLD-Solid
 62
     7
370
    25
100
AcDbLine
 10
25.57773003228917
 20
12.86596325992072
 30
0.0
 11
25.57773003228917
 21
13.11996325992072
 31
0.0
  0
LINE
  5
20D
330
1F
100
AcDbEntity
  8
0
  6
SLD-Solid
 62
     7
370
    25
100
AcDbLine
 10
25.07583003228919
 20
12.27196325992058
 30
0.0
 11
25.08235552427523
 21
12.27196325992058
 31
0.0
  0
LINE
  5
20E
330
1F
100
AcDbEntity
  8
0
  6
SLD-Solid
 62
     7
370
    25
100
AcDbLine
 10
25.51894175782309
 20
42.30428671163011
 30
0.0
 11
25.53583003228917
 21
42.30428671163011
 31
0.0
  0
LINE
  5
20F
330
1F
100
AcDbEntity
  8
0
  6
SLD-Solid
 62
     7
370
    25
100
AcDbLine
 10
25.53583003228917
 20
42.30428671163011
 30
0.0
 11
25.53583003228917
 21
42.30046325992071
 31
0.0
  0
LINE
  5
210
330
1F
100
AcDbEntity
  8
0
  6
SLD-Solid
 62
     7
370
    25
100
AcDbLine
 10
25.50983003228917
 20
42.3442867116301
 30
0.0
 11
25.53583003228917
 21
42.3442867116301
 31
0.0
  0
LINE
  5
211
330
1F
100
AcDbEntity
  8
0
  6
SLD-Solid
 62
     7
370
    25
100
AcDbLine
 10
25.50983003228917
 20
42.32877520198148
 30
0.0
 11
25.50983003228917
 21
42.31194259143411
 31
0.0
  0
LINE
  5
212
330
1F
100
AcDbEntity
  8
0
  6
SLD-Solid
 62
     7
370
    25
100
AcDbLine
 10
25.53583003228917
 20
42.3442867116301
 30
0.0
 11
25.53583003228917
 21
42.33697469668193
 31
0.0
  0
LINE
  5
213
330
1F
100
AcDbEntity
  8
0
  6
SLD-Solid
 62
     7
370
    25
100
AcDbLine
 10
25.50683003228918
 20
12.26696325992072
 30
0.0
 11
25.10483003228919
 21
12.26696325992071
 31
0.0
  0
LINE
  5
214
330
1F
100
AcDbEntity
  8
0
  6
SLD-Solid
 62
     7
370
    25
100
AcDbLine
 10
25.05793003228919
 20
42.29904904635834
 30
0.0
 11
25.05793003228919
 21
12.28237747348298
 31
0.0
  0
SPLINE
  5
215
330
1F
100
AcDbEntity
  8
0
  6
SLD-Solid
 62
     7
370
    25
100
AcDbSpline
210
0.0
220
0.0
230
1.0
 70
    12
 71
     3
 72
    11
 73
     7
 74
     0
 42
0.00000001
 43
0.00000001
 40
0.0
 40
0.0
 40
0.0
 40
0.0
 40
0.2499999999996931
 40
0.4999999999997854
 40
0.7499999999998942
 40
1.0
 40
1.0
 40
1.0
 40
1.0
 10
25.05793003228919
 20
42.29904904635834
 30
0.0
 41
1.0
 10
25.05863501305291
 20
42.3003335641552
 30
0.0
 41
1.0
 10
25.06004497458034
 20
42.30290259974893
 30
0.0
 41
1.0
 10
25.07089056267577
 20
42.30675615313953
 30
0.0
 41
1.0
 10
25.08639312022563
 20
42.31060970653012
 30
0.0
 41
1.0
 10
25.09868439493466
 20
42.31317874212384
 30
0.0
 41
1.0
 10
25.10483003228919
 20
42.31446325992071
 30
0.0
 41
1.0
  0
SPLINE
  5
216
330
1F
100
AcDbEntity
  8
0
  6
SLD-Solid
 62
     7
370
    25
100
AcDbSpline
210
0.0
220
0.0
230
1.0
 70
    12
 71
     3
 72
    11
 73
     7
 74
     0
 42
0.00000001
 43
0.00000001
 40
0.0
 40
0.0
 40
0.0
 40
0.0
 40
0.2499999999998307
 40
0.499999999999544
 40
0.7499999999992444
 40
1.0
 40
1.0
 40
1.0
 40
1.0
 10
25.10483003228919
 20
12.26696325992071
 30
0.0
 41
1.0
 10
25.09868439493468
 20
12.26824777771757
 30
0.0
 41
1.0
 10
25.08639312022567
 20
12.27081681331128
 30
0.0
 41
1.0
 10
25.07089056267584
 20
12.27467036670184
 30
0.0
 41
1.0
 10
25.06004497458038
 20
12.27852392009242
 30
0.0
 41
1.0
 10
25.05863501305292
 20
12.28109295568612
 30
0.0
 41
1.0
 10
25.05793003228919
 20
12.28237747348298
 30
0.0
 41
1.0
  0
LINE
  5
217
330
1F
100
AcDbEntity
  8
0
  6
SLD-Solid
 62
     7
370
    25
100
AcDbLine
 10
25.10483003228919
 20
42.34736325992072
 30
0.0
 11
25.50683003228919
 21
42.34736325992072
 31
0.0
  0
SPLINE
  5
218
330
1F
100
AcDbEntity
  8
0
  6
SLD-Solid
 62
     7
370
    25
100
AcDbSpline
210
0.0
220
0.0
230
1.0
 70
    12
 71
     3
 72
    11
 73
     7
 74
     0
 42
0.00000001
 43
0.00000001
 40
0.0
 40
0.0
 40
0.0
 40
0.0
 40
0.2770548345807112
 40
0.5544254065336209
 40
0.8317983235791997
 40
1.0
 40
1.0
 40
1.0
 40
1.0
 10
25.50683003228919
 20
42.31446325992071
 30
0.0
 41
1.0
 10
25.51364227605645
 20
42.30892254717086
 30
0.0
 41
1.0
 10
25.5272745269637
 20
42.29783480736126
 30
0.0
 41
1.0
 10
25.54379156701747
 20
42.28120648996472
 30
0.0
 41
1.0
 10
25.55254667758451
 20
42.26673067195565
 30
0.0
 41
1.0
 10
25.55340574108588
 20
42.25785269935401
 30
0.0
 41
1.0
 10
25.55373003228919
 20
42.25450131914359
 30
0.0
 41
1.0
  0
LINE
  5
219
330
1F
100
AcDbEntity
  8
0
  6
SLD-Solid
 62
     7
370
    25
100
AcDbLine
 10
25.55373003228918
 20
12.32692520069772
 30
0.0
 11
25.55373003228919
 21
42.25450131914359
 31
0.0
  0
SPLINE
  5
21A
330
1F
100
AcDbEntity
  8
0
  6
SLD-Solid
 62
     7
370
    25
100
AcDbSpline
210
0.0
220
0.0
230
1.0
 70
    12
 71
     3
 72
    11
 73
     7
 74
     0
 42
0.00000001
 43
0.00000001
 40
0.0
 40
0.0
 40
0.0
 40
0.0
 40
0.2770548345815267
 40
0.5544254065347897
 40
0.8317983235805806
 40
1.0
 40
1.0
 40
1.0
 40
1.0
 10
25.55373003228918
 20
12.32692520069772
 30
0.0
 41
1.0
 10
25.55286042766592
 20
12.32138448794786
 30
0.0
 41
1.0
 10
25.55112022740014
 20
12.31029674813826
 30
0.0
 41
1.0
 10
25.53789237168733
 20
12.29366843074173
 30
0.0
 41
1.0
 10
25.52187276722207
 20
12.27919261273266
 30
0.0
 41
1.0
 10
25.51095240286262
 20
12.2703146401311
 30
0.0
 41
1.0
 10
25.50683003228918
 20
12.26696325992072
 30
0.0
 41
1.0
  0
LINE
  5
21B
330
1F
100
AcDbEntity
  8
0
  6
SLD-Solid
 62
     7
370
    25
100
AcDbLine
 10
25.55373003228919
 20
42.30046325992071
 30
0.0
 11
25.53583003228919
 21
42.30046325992071
 31
0.0
  0
SPLINE
  5
21C
330
1F
100
AcDbEntity
  8
0
  6
SLD-Solid
 62
     7
370
    25
100
AcDbSpline
210
0.0
220
0.0
230
1.0
 70
    12
 71
     3
 72
    10
 73
     6
 74
     0
 42
0.00000001
 43
0.00000001
 40
0.0
 40
0.0
 40
0.0
 40
0.0
 40
0.3557668174052199
 40
0.7126021682752582
 40
1.0
 40
1.0
 40
1.0
 40
1.0
 10
25.53583003228919
 20
42.30046325992071
 30
0.0
 41
1.0
 10
25.53493583048208
 20
42.3058346287844
 30
0.0
 41
1.0
 10
25.53314474116334
 20
42.31659349923438
 30
0.0
 41
1.0
 10
25.52087390660496
 20
42.32757063399401
 30
0.0
 41
1.0
 10
25.51116241170264
 20
42.32887940582049
 30
0.0
 41
1.0
 10
25.50683003228919
 20
42.32946325992071
 30
0.0
 41
1.0
  0
SPLINE
  5
21D
330
1F
100
AcDbEntity
  8
0
  6
SLD-Solid
 62
     7
370
    25
100
AcDbSpline
210
0.0
220
0.0
230
1.0
 70
    12
 71
     3
 72
    11
 73
     7
 74
     0
 42
0.00000001
 43
0.00000001
 40
0.0
 40
0.0
 40
0.0
 40
0.0
 40
0.2770548345810193
 40
0.5544254065341845
 40
0.8317983235799664
 40
1.0
 40
1.0
 40
1.0
 40
1.0
 10
25.55373003228919
 20
42.30046325992071
 30
0.0
 41
1.0
 10
25.55286042766593
 20
42.30727550368798
 30
0.0
 41
1.0
 10
25.55112022740017
 20
42.32090775459524
 30
0.0
 41
1.0
 10
25.53789237168739
 20
42.33742479464901
 30
0.0
 41
1.0
 10
25.52187276722213
 20
42.34617990521603
 30
0.0
 41
1.0
 10
25.51095240286265
 20
42.34703896871741
 30
0.0
 41
1.0
 10
25.50683003228919
 20
42.34736325992072
 30
0.0
 41
1.0
  0
SPLINE
  5
21E
330
1F
100
AcDbEntity
  8
0
  6
SLD-Solid
 62
     7
370
    25
100
AcDbSpline
210
0.0
220
0.0
230
1.0
 70
    12
 71
     3
 72
    11
 73
     7
 74
     0
 42
0.00000001
 43
0.00000001
 40
0.0
 40
0.0
 40
0.0
 40
0.0
 40
0.3027708731586213
 40
0.6055417463172292
 40
0.9083126194758175
 40
1.0
 40
1.0
 40
1.0
 40
1.0
 10
25.10483003228919
 20
42.32946325992071
 30
0.0
 41
1.0
 10
25.10101803874388
 20
42.32903135035696
 30
0.0
 41
1.0
 10
25.09339405165326
 20
42.32816753122947
 30
0.0
 41
1.0
 10
25.08398703760137
 20
42.32140121334264
 30
0.0
 41
1.0
 10
25.07831776322032
 20
42.31421834207797
 30
0.0
 41
1.0
 10
25.0775479664396
 20
42.30933534984445
 30
0.0
 41
1.0
 10
25.07736903584377
 20
42.3082003532692
 30
0.0
 41
1.0
  0
SPLINE
  5
21F
330
1F
100
AcDbEntity
  8
0
  6
SLD-Solid
 62
     7
370
    25
100
AcDbSpline
210
0.0
220
0.0
230
1.0
 70
    12
 71
     3
 72
    11
 73
     7
 74
     0
 42
0.00000001
 43
0.00000001
 40
0.0
 40
0.0
 40
0.0
 40
0.0
 40
0.2500000000000093
 40
0.5000000000000087
 40
0.7499999999999966
 40
1.0
 40
1.0
 40
1.0
 40
1.0
 10
25.10483003228919
 20
42.34736325992072
 30
0.0
 41
1.0
 10
25.09868439493468
 20
42.34665827915698
 30
0.0
 41
1.0
 10
25.08639312022565
 20
42.34524831762954
 30
0.0
 41
1.0
 10
25.0708905626758
 20
42.33440272953409
 30
0.0
 41
1.0
 10
25.06004497458036
 20
42.31890017198425
 30
0.0
 41
1.0
 10
25.05863501305291
 20
42.30660889727523
 30
0.0
 41
1.0
 10
25.05793003228919
 20
42.30046325992071
 30
0.0
 41
1.0
  0
SPLINE
  5
220
330
1F
100
AcDbEntity
  8
0
  6
SLD-Solid
 62
     7
370
    25
100
AcDbSpline
210
0.0
220
0.0
230
1.0
 70
    12
 71
     3
 72
    11
 73
     7
 74
     0
 42
0.00000001
 43
0.00000001
 40
0.0
 40
0.0
 40
0.0
 40
0.0
 40
0.2898480140643126
 40
0.592319239864147
 40
0.8948684545000413
 40
1.0
 40
1.0
 40
1.0
 40
1.0
 10
25.50683003228919
 20
12.25196325992066
 30
0.0
 41
1.0
 10
25.5112337732281
 20
12.25255354999132
 30
0.0
 41
1.0
 10
25.52023304304858
 20
12.25375983793874
 30
0.0
 41
1.0
 10
25.53094367821639
 20
12.26305367571585
 30
0.0
 41
1.0
 10
25.53543853497333
 20
12.27320264463621
 30
0.0
 41
1.0
 10
25.53574977150483
 20
12.27937225777442
 30
0.0
 41
1.0
 10
25.53583003228919
 20
12.28096325992066
 30
0.0
 41
1.0
  0
SPLINE
  5
221
330
1F
100
AcDbEntity
  8
0
  6
SLD-Solid
 62
     7
370
    25
100
AcDbSpline
210
0.0
220
0.0
230
1.0
 70
    12
 71
     3
 72
    12
 73
     8
 74
     0
 42
0.00000001
 43
0.00000001
 40
0.0
 40
0.0
 40
0.0
 40
0.0
 40
0.212207944000393
 40
0.4639213760439149
 40
0.7157255558819807
 40
0.9675300518436408
 40
1.0
 40
1.0
 40
1.0
 40
1.0
 10
25.50683003228919
 20
12.2340632599206
 30
0.0
 41
1.0
 10
25.51203429837927
 20
12.23457294124696
 30
0.0
 41
1.0
 10
25.52341167775676
 20
12.23568718823419
 30
0.0
 41
1.0
 10
25.53889154706128
 20
12.24513142852417
 30
0.0
 41
1.0
 10
25.55022935668684
 20
12.26014171357717
 30
0.0
 41
1.0
 10
25.55360453818399
 20
12.27322067104789
 30
0.0
 41
1.0
 10
25.55371716769809
 20
12.28016955538973
 30
0.0
 41
1.0
 10
25.55373003228918
 20
12.28096325992066
 30
0.0
 41
1.0
  0
LINE
  5
222
330
1F
100
AcDbEntity
  8
0
  6
SLD-Solid
 62
     7
370
    25
100
AcDbLine
 10
25.50683003228919
 20
12.2340632599206
 30
0.0
 11
25.10483003228919
 21
12.23406325992065
 31
0.0
  0
LINE
  5
223
330
1F
100
AcDbEntity
  8
0
  6
SLD-Solid
 62
     7
370
    25
100
AcDbLine
 10
25.50683003228919
 20
12.25196325992066
 30
0.0
 11
25.10483003228919
 21
12.25196325992066
 31
0.0
  0
SPLINE
  5
224
330
1F
100
AcDbEntity
  8
0
  6
SLD-Solid
 62
     7
370
    25
100
AcDbSpline
210
0.0
220
0.0
230
1.0
 70
    12
 71
     3
 72
    11
 73
     7
 74
     0
 42
0.00000001
 43
0.00000001
 40
0.0
 40
0.0
 40
0.0
 40
0.0
 40
0.250000000000335
 40
0.5000000000002034
 40
0.7500000000001182
 40
1.0
 40
1.0
 40
1.0
 40
1.0
 10
25.05793003228919
 20
12.2809632599206
 30
0.0
 41
1.0
 10
25.05863501305292
 20
12.27481762256608
 30
0.0
 41
1.0
 10
25.06004497458039
 20
12.26252634785706
 30
0.0
 41
1.0
 10
25.07089056267584
 20
12.24702379030725
 30
0.0
 41
1.0
 10
25.08639312022567
 20
12.23617820221183
 30
0.0
 41
1.0
 10
25.09868439493468
 20
12.23476824068438
 30
0.0
 41
1.0
 10
25.10483003228919
 20
12.23406325992065
 30
0.0
 41
1.0
  0
SPLINE
  5
225
330
1F
100
AcDbEntity
  8
0
  6
SLD-Solid
 62
     7
370
    25
100
AcDbSpline
210
0.0
220
0.0
230
1.0
 70
    12
 71
     3
 72
    11
 73
     7
 74
     0
 42
0.00000001
 43
0.00000001
 40
0.0
 40
0.0
 40
0.0
 40
0.0
 40
0.0592750431164611
 40
0.3728500287443324
 40
0.6864250143721724
 40
1.0
 40
1.0
 40
1.0
 40
1.0
 10
25.07762024359563
 20
12.27196325992057
 30
0.0
 41
1.0
 10
25.07774038862124
 20
12.2712576179964
 30
0.0
 41
1.0
 10
25.07849612111668
 20
12.26681901115823
 30
0.0
 41
1.0
 10
25.08402831878749
 20
12.26003918103189
 30
0.0
 41
1.0
 10
25.09338373135675
 20
12.2532555199786
 30
0.0
 41
1.0
 10
25.10101459864504
 20
12.2523940132733
 30
0.0
 41
1.0
 10
25.10483003228919
 20
12.25196325992066
 30
0.0
 41
1.0
  0
LINE
  5
226
330
1F
100
AcDbEntity
  8
0
  6
SLD-Solid
 62
     7
370
    25
100
AcDbLine
 10
25.05793003228919
 20
42.30046325992071
 30
0.0
 11
25.05793003228919
 21
42.29904904635834
 31
0.0
  0
LINE
  5
227
330
1F
100
AcDbEntity
  8
0
  6
SLD-Solid
 62
     7
370
    25
100
AcDbLine
 10
25.05793003228919
 20
12.28237747348309
 30
0.0
 11
25.05793003228919
 21
12.2809632599206
 31
0.0
  0
LINE
  5
228
330
1F
100
AcDbEntity
  8
0
  6
SLD-Solid
 62
     7
370
    25
100
AcDbLine
 10
25.55373003228918
 20
12.28096325992066
 30
0.0
 11
25.55373003228918
 21
12.32692520069746
 31
0.0
  0
LINE
  5
229
330
1F
100
AcDbEntity
  8
0
  6
SLD-Solid
 62
     7
370
    25
100
AcDbLine
 10
25.55373003228919
 20
42.2545013191438
 30
0.0
 11
25.55373003228919
 21
42.30046325992071
 31
0.0
  0
DIMENSION
  5
22A
330
1F
100
AcDbEntity
  8
DIMS
100
AcDbDimension
  2
_D_3
 10
25.55373003228916
 20
43.21350499220419
 30
0.0
 11
23.7193473551238
 21
43.21350499220419
 31
0.0
 70
    32
  1
<>
 71
     2
 42
-1.0
  3
SLDDIMSTYLE2
100
AcDbAlignedDimension
 13
25.05793003228917
 23
42.29904904635834
 33
0.0
 14
25.55373003228916
 24
42.25450131914359
 34
0.0
100
AcDbRotatedDimension
  0
MTEXT
  5
239
330
1F
100
AcDbEntity
  8
NOTES
100
AcDbMText
 10
23.88446283183997
 20
11.82243116939366
 30
0.0
 40
0.5
 41
0.0
 71
     1
 72
     1
  1
Side view
  7
SLDTEXTSTYLE1
 73
     1
 44
1.0
  0
LINE
  5
23A
330
1F
100
AcDbEntity
  8
0
  6
SLD-Solid
 62
     7
370
    25
100
AcDbLine
 10
29.98091464510813
 20
42.25196325992061
 30
0.0
 11
29.98091464510813
 21
42.23725131914362
 31
0.0
  0
LINE
  5
23B
330
1F
100
AcDbEntity
  8
0
  6
SLD-Solid
 62
     7
370
    25
100
AcDbLine
 10
29.98091464510834
 20
12.34417520069797
 30
0.0
 11
29.98091464510834
 21
12.25196325992063
 31
0.0
  0
LINE
  5
23C
330
1F
100
AcDbEntity
  8
0
  6
SLD-Solid
 62
     7
370
    25
100
AcDbLine
 10
45.98091464510813
 20
42.25196325992073
 30
0.0
 11
45.96881769820145
 21
42.25196325992073
 31
0.0
  0
LINE
  5
23D
330
1F
100
AcDbEntity
  8
0
  6
SLD-Solid
 62
     7
370
    25
100
AcDbLine
 10
29.99301159201514
 20
42.25196325992061
 30
0.0
 11
29.98091464510813
 21
42.25196325992061
 31
0.0
  0
LINE
  5
23E
330
1F
100
AcDbEntity
  8
0
  6
SLD-Solid
 62
     7
370
    25
100
AcDbLine
 10
45.98091464510834
 20
12.26189086297552
 30
0.0
 11
45.98091464510834
 21
12.34417520069777
 31
0.0
  0
LINE
  5
23F
330
1F
100
AcDbEntity
  8
0
  6
SLD-Solid
 62
     7
370
    25
100
AcDbLine
 10
45.98091464510813
 20
42.23725131914351
 30
0.0
 11
45.98091464510813
 21
42.25196325992073
 31
0.0
  0
CIRCLE
  5
240
330
1F
100
AcDbEntity
  8
0
  6
SLD-Solid
 62
     7
370
    25
100
AcDbCircle
 10
30.69066464510831
 20
12.50406325992066
 30
0.0
 40
0.1270000000000027
  0
CIRCLE
  5
241
330
1F
100
AcDbEntity
  8
0
  6
SLD-Solid
 62
     7
370
    25
100
AcDbCircle
 10
30.69066464510831
 20
12.50406325992066
 30
0.0
 40
0.0312499999999966
  0
CIRCLE
  5
242
330
1F
100
AcDbEntity
  8
0
  6
SLD-Solid
 62
     7
370
    25
100
AcDbCircle
 10
30.18676464510821
 20
12.99296325992072
 30
0.0
 40
0.1269999999999928
  0
CIRCLE
  5
243
330
1F
100
AcDbEntity
  8
0
  6
SLD-Solid
 62
     7
370
    25
100
AcDbCircle
 10
30.18676464510821
 20
12.99296325992072
 30
0.0
 40
0.0312500000000038
  0
LINE
  5
244
330
1F
100
AcDbEntity
  8
0
  6
SLD-Solid
 62
     7
370
    25
100
AcDbLine
 10
29.98091464510834
 20
12.27196325992058
 30
0.0
 11
29.96466464510814
 21
12.27196325992058
 31
0.0
  0
LINE
  5
245
330
1F
100
AcDbEntity
  8
0
  6
SLD-Solid
 62
     7
370
    25
100
AcDbLine
 10
29.96466464510814
 20
12.27196325992058
 30
0.0
 11
29.96466464510814
 21
12.3236159870969
 31
0.0
  0
LINE
  5
246
330
1F
100
AcDbEntity
  8
0
  6
SLD-Solid
 62
     7
370
    25
100
AcDbLine
 10
29.96466464510814
 20
42.25777943400763
 30
0.0
 11
29.96466464510814
 21
42.27196325992058
 31
0.0
  0
LINE
  5
247
330
1F
100
AcDbEntity
  8
0
  6
SLD-Solid
 62
     7
370
    25
100
AcDbLine
 10
29.96466464510814
 20
42.27196325992058
 30
0.0
 11
30.00729477814642
 21
42.27196325992058
 31
0.0
  0
LINE
  5
248
330
1F
100
AcDbEntity
  8
0
  6
SLD-Solid
 62
     7
370
    25
100
AcDbLine
 10
45.9545345120702
 20
42.27196325992058
 30
0.0
 11
45.96466464510815
 21
42.27196325992058
 31
0.0
  0
LINE
  5
249
330
1F
100
AcDbEntity
  8
0
  6
SLD-Solid
 62
     7
370
    25
100
AcDbLine
 10
45.96466464510815
 20
42.27196325992058
 30
0.0
 11
45.96466464510815
 21
42.25893044411635
 31
0.0
  0
ARC
  5
24A
330
1F
100
AcDbEntity
  8
0
  6
SLD-Solid
 62
     7
370
    25
100
AcDbCircle
 10
45.8809146451082
 20
12.40428671163006
 30
0.0
 40
0.1000000000000017
100
AcDbArc
 50
293.4110155736184
 51
331.3828447790609
  0
ARC
  5
24B
330
1F
100
AcDbEntity
  8
0
  6
SLD-Solid
 62
     7
370
    25
100
AcDbCircle
 10
30.0809146451082
 20
12.40428671163011
 30
0.0
 40
0.1000000000000006
100
AcDbArc
 50
208.6171552210155
 51
246.588984426463
  0
ARC
  5
24C
330
1F
100
AcDbEntity
  8
0
  6
SLD-Solid
 62
     7
370
    25
100
AcDbCircle
 10
30.08091464510833
 20
42.2042867116301
 30
0.0
 40
0.1000000000000082
100
AcDbArc
 50
124.8638299910519
 51
163.2950283037137
  0
LINE
  5
24D
330
1F
100
AcDbEntity
  8
0
  6
SLD-Solid
 62
     7
370
    25
100
AcDbLine
 10
33.98091464510833
 20
42.3442867116301
 30
0.0
 11
33.30191250327967
 21
42.33732258709853
 31
0.0
  0
LINE
  5
24E
330
1F
100
AcDbEntity
  8
0
  6
SLD-Solid
 62
     7
370
    25
100
AcDbLine
 10
41.98091464510832
 20
42.34428671163007
 30
0.0
 11
33.98091464510833
 21
42.3442867116301
 31
0.0
  0
LINE
  5
24F
330
1F
100
AcDbEntity
  8
0
  6
SLD-Solid
 62
     7
370
    25
100
AcDbLine
 10
42.65991678693795
 20
42.33732258709848
 30
0.0
 11
41.98091464510832
 21
42.34428671163007
 31
0.0
  0
ARC
  5
250
330
1F
100
AcDbEntity
  8
0
  6
SLD-Solid
 62
     7
370
    25
100
AcDbCircle
 10
45.88091464510835
 20
42.20428671163005
 30
0.0
 40
0.1000000000000058
100
AcDbArc
 50
16.70497169642674
 51
55.13617000908017
  0
LINE
  5
251
330
1F
100
AcDbEntity
  8
0
  6
SLD-Solid
 62
     7
370
    25
100
AcDbLine
 10
31.12841461432719
 20
15.45528678716922
 30
0.0
 11
31.12841461432719
 21
16.15528678716922
 31
0.0
  0
ARC
  5
252
330
1F
100
AcDbEntity
  8
0
  6
SLD-Solid
 62
     7
370
    25
100
AcDbCircle
 10
31.29341461432719
 20
16.15528678716922
 30
0.0
 40
0.1650000000000027
100
AcDbArc
 50
0.0
 51
180.0
  0
LINE
  5
253
330
1F
100
AcDbEntity
  8
0
  6
SLD-Solid
 62
     7
370
    25
100
AcDbLine
 10
31.45841461432719
 20
16.15528678716922
 30
0.0
 11
31.45841461432718
 21
15.45528678716922
 31
0.0
  0
ARC
  5
254
330
1F
100
AcDbEntity
  8
0
  6
SLD-Solid
 62
     7
370
    25
100
AcDbCircle
 10
31.50841461432718
 20
15.45528678716922
 30
0.0
 40
0.0500000000000007
100
AcDbArc
 50
180.0
 51
0.0000000000007633
  0
LINE
  5
255
330
1F
100
AcDbEntity
  8
0
  6
SLD-Solid
 62
     7
370
    25
100
AcDbLine
 10
31.55841461432718
 20
15.45528678716922
 30
0.0
 11
31.55841461432718
 21
16.05528675638819
 31
0.0
  0
LINE
  5
256
330
1F
100
AcDbEntity
  8
0
  6
SLD-Solid
 62
     7
370
    25
100
AcDbLine
 10
31.55841461432718
 20
16.05528675638819
 30
0.0
 11
31.78341453878807
 21
16.05528675638819
 31
0.0
  0
ARC
  5
257
330
1F
100
AcDbEntity
  8
0
  6
SLD-Solid
 62
     7
370
    25
100
AcDbCircle
 10
31.78341453878808
 20
16.15528675638819
 30
0.0
 40
0.1000000000000014
100
AcDbArc
 50
269.9999999999927
 51
90.00000000000814
  0
LINE
  5
258
330
1F
100
AcDbEntity
  8
0
  6
SLD-Solid
 62
     7
370
    25
100
AcDbLine
 10
31.78341453878807
 20
16.25528675638819
 30
0.0
 11
31.53882253878807
 21
16.25528675638819
 31
0.0
  0
ARC
  5
259
330
1F
100
AcDbEntity
  8
0
  6
SLD-Solid
 62
     7
370
    25
100
AcDbCircle
 10
31.29341461432719
 20
16.15528678716922
 30
0.0
 40
0.2650000815697844
100
AcDbArc
 50
22.17014279054207
 51
67.82985700000114
  0
LINE
  5
25A
330
1F
100
AcDbEntity
  8
0
  6
SLD-Solid
 62
     7
370
    25
100
AcDbLine
 10
31.3934145844433
 20
16.40069471126453
 30
0.0
 11
31.39341464510822
 21
16.64528686270834
 31
0.0
  0
ARC
  5
25B
330
1F
100
AcDbEntity
  8
0
  6
SLD-Solid
 62
     7
370
    25
100
AcDbCircle
 10
31.29341464510822
 20
16.64528678716922
 30
0.0
 40
0.10000000000003
100
AcDbArc
 50
0.0000432807255188
 51
180.0000432807263
  0
LINE
  5
25C
330
1F
100
AcDbEntity
  8
0
  6
SLD-Solid
 62
     7
370
    25
100
AcDbLine
 10
31.19341464510822
 20
16.64528671163011
 30
0.0
 11
31.19341464510822
 21
16.40069471163011
 31
0.0
  0
ARC
  5
25D
330
1F
100
AcDbEntity
  8
0
  6
SLD-Solid
 62
     7
370
    25
100
AcDbCircle
 10
31.29341461432719
 20
16.15528678716922
 30
0.0
 40
0.2650000815697937
100
AcDbArc
 50
112.1701427905429
 51
157.8298570000003
  0
LINE
  5
25E
330
1F
100
AcDbEntity
  8
0
  6
SLD-Solid
 62
     7
370
    25
100
AcDbLine
 10
31.04800669023187
 20
16.25528675728534
 30
0.0
 11
30.80341453878807
 21
16.25528681795026
 31
0.0
  0
ARC
  5
25F
330
1F
100
AcDbEntity
  8
0
  6
SLD-Solid
 62
     7
370
    25
100
AcDbCircle
 10
30.80341453878808
 20
16.15528681795026
 30
0.0
 40
0.1000000000000014
100
AcDbArc
 50
90.00000000000611
 51
269.9999999999927
  0
LINE
  5
260
330
1F
100
AcDbEntity
  8
0
  6
SLD-Solid
 62
     7
370
    25
100
AcDbLine
 10
30.80341453878806
 20
16.05528681795026
 30
0.0
 11
31.02841461432718
 21
16.05528681795027
 31
0.0
  0
LINE
  5
261
330
1F
100
AcDbEntity
  8
0
  6
SLD-Solid
 62
     7
370
    25
100
AcDbLine
 10
31.02841461432718
 20
16.05528681795027
 30
0.0
 11
31.02841461432719
 21
15.45528678716924
 31
0.0
  0
ARC
  5
262
330
1F
100
AcDbEntity
  8
0
  6
SLD-Solid
 62
     7
370
    25
100
AcDbCircle
 10
31.07841461432719
 20
15.45528678716922
 30
0.0
 40
0.0500000000000043
100
AcDbArc
 50
179.9999999999878
 51
359.9999999999986
  0
LINE
  5
263
330
1F
100
AcDbEntity
  8
0
  6
SLD-Solid
 62
     7
370
    25
100
AcDbLine
 10
31.12841461432727
 20
36.72928678716923
 30
0.0
 11
31.12841461432728
 21
37.42928678716923
 31
0.0
  0
ARC
  5
264
330
1F
100
AcDbEntity
  8
0
  6
SLD-Solid
 62
     7
370
    25
100
AcDbCircle
 10
31.29341461432728
 20
37.42928678716923
 30
0.0
 40
0.1650000000000027
100
AcDbArc
 50
0.0000000000000289
 51
180.0
  0
LINE
  5
265
330
1F
100
AcDbEntity
  8
0
  6
SLD-Solid
 62
     7
370
    25
100
AcDbLine
 10
31.45841461432728
 20
37.42928678716923
 30
0.0
 11
31.45841461432727
 21
36.72928678716923
 31
0.0
  0
ARC
  5
266
330
1F
100
AcDbEntity
  8
0
  6
SLD-Solid
 62
     7
370
    25
100
AcDbCircle
 10
31.50841461432727
 20
36.72928678716923
 30
0.0
 40
0.0500000000000007
100
AcDbArc
 50
179.9999999999991
 51
0.0
  0
LINE
  5
267
330
1F
100
AcDbEntity
  8
0
  6
SLD-Solid
 62
     7
370
    25
100
AcDbLine
 10
31.55841461432727
 20
36.72928678716923
 30
0.0
 11
31.55841461432726
 21
37.32928675638819
 31
0.0
  0
LINE
  5
268
330
1F
100
AcDbEntity
  8
0
  6
SLD-Solid
 62
     7
370
    25
100
AcDbLine
 10
31.55841461432726
 20
37.32928675638819
 30
0.0
 11
31.78341453878815
 21
37.32928675638819
 31
0.0
  0
ARC
  5
269
330
1F
100
AcDbEntity
  8
0
  6
SLD-Solid
 62
     7
370
    25
100
AcDbCircle
 10
31.78341453878816
 20
37.42928675638819
 30
0.0
 40
0.1000000000000085
100
AcDbArc
 50
269.9999999999947
 51
90.0
  0
LINE
  5
26A
330
1F
100
AcDbEntity
  8
0
  6
SLD-Solid
 62
     7
370
    25
100
AcDbLine
 10
31.78341453878816
 20
37.5292867563882
 30
0.0
 11
31.53882253878816
 21
37.5292867563882
 31
0.0
  0
ARC
  5
26B
330
1F
100
AcDbEntity
  8
0
  6
SLD-Solid
 62
     7
370
    25
100
AcDbCircle
 10
31.29341461432728
 20
37.42928678716923
 30
0.0
 40
0.2650000815697882
100
AcDbArc
 50
22.1701427905422
 51
67.82985700000185
  0
LINE
  5
26C
330
1F
100
AcDbEntity
  8
0
  6
SLD-Solid
 62
     7
370
    25
100
AcDbLine
 10
31.39341458444338
 20
37.67469471126454
 30
0.0
 11
31.39341464510831
 21
37.91928686270833
 31
0.0
  0
ARC
  5
26D
330
1F
100
AcDbEntity
  8
0
  6
SLD-Solid
 62
     7
370
    25
100
AcDbCircle
 10
31.29341464510831
 20
37.91928678716922
 30
0.0
 40
0.10000000000003
100
AcDbArc
 50
0.0000432807234832
 51
180.0000432807284
  0
LINE
  5
26E
330
1F
100
AcDbEntity
  8
0
  6
SLD-Solid
 62
     7
370
    25
100
AcDbLine
 10
31.19341464510831
 20
37.9192867116301
 30
0.0
 11
31.1934146451083
 21
37.67469471163011
 31
0.0
  0
ARC
  5
26F
330
1F
100
AcDbEntity
  8
0
  6
SLD-Solid
 62
     7
370
    25
100
AcDbCircle
 10
31.29341461432728
 20
37.42928678716923
 30
0.0
 40
0.2650000815697895
100
AcDbArc
 50
112.1701427905429
 51
157.8298569999997
  0
LINE
  5
270
330
1F
100
AcDbEntity
  8
0
  6
SLD-Solid
 62
     7
370
    25
100
AcDbLine
 10
31.04800669023196
 20
37.52928675728534
 30
0.0
 11
30.80341453878816
 21
37.52928681795026
 31
0.0
  0
ARC
  5
271
330
1F
100
AcDbEntity
  8
0
  6
SLD-Solid
 62
     7
370
    25
100
AcDbCircle
 10
30.80341453878816
 20
37.42928681795026
 30
0.0
 40
0.1000000000000085
100
AcDbArc
 50
90.0
 51
269.9999999999927
  0
LINE
  5
272
330
1F
100
AcDbEntity
  8
0
  6
SLD-Solid
 62
     7
370
    25
100
AcDbLine
 10
30.80341453878815
 20
37.32928681795025
 30
0.0
 11
31.02841461432726
 21
37.32928681795025
 31
0.0
  0
LINE
  5
273
330
1F
100
AcDbEntity
  8
0
  6
SLD-Solid
 62
     7
370
    25
100
AcDbLine
 10
31.02841461432726
 20
37.32928681795025
 30
0.0
 11
31.02841461432727
 21
36.72928678716923
 31
0.0
  0
ARC
  5
274
330
1F
100
AcDbEntity
  8
0
  6
SLD-Solid
 62
     7
370
    25
100
AcDbCircle
 10
31.07841461432727
 20
36.72928678716923
 30
0.0
 40
0.0500000000000007
100
AcDbArc
 50
180.0
 51
0.0
  0
LINE
  5
275
330
1F
100
AcDbEntity
  8
0
  6
SLD-Solid
 62
     7
370
    25
100
AcDbLine
 10
44.50341461432718
 20
15.4552867871692
 30
0.0
 11
44.50341461432718
 21
16.1552867871692
 31
0.0
  0
ARC
  5
276
330
1F
100
AcDbEntity
  8
0
  6
SLD-Solid
 62
     7
370
    25
100
AcDbCircle
 10
44.66841461432718
 20
16.15528678716919
 30
0.0
 40
0.1649999999999991
100
AcDbArc
 50
0.0000000000049348
 51
179.9999999999951
  0
LINE
  5
277
330
1F
100
AcDbEntity
  8
0
  6
SLD-Solid
 62
     7
370
    25
100
AcDbLine
 10
44.83341461432718
 20
16.1552867871692
 30
0.0
 11
44.83341461432718
 21
15.4552867871692
 31
0.0
  0
ARC
  5
278
330
1F
100
AcDbEntity
  8
0
  6
SLD-Solid
 62
     7
370
    25
100
AcDbCircle
 10
44.88341461432718
 20
15.4552867871692
 30
0.0
 40
0.0499999999999972
100
AcDbArc
 50
179.9999999999999
 51
359.9999999999886
  0
LINE
  5
279
330
1F
100
AcDbEntity
  8
0
  6
SLD-Solid
 62
     7
370
    25
100
AcDbLine
 10
44.93341461432718
 20
15.45528678716919
 30
0.0
 11
44.93341461432718
 21
16.05528675638816
 31
0.0
  0
LINE
  5
27A
330
1F
100
AcDbEntity
  8
0
  6
SLD-Solid
 62
     7
370
    25
100
AcDbLine
 10
44.93341461432718
 20
16.05528675638816
 30
0.0
 11
45.15841453878807
 21
16.05528675638817
 31
0.0
  0
ARC
  5
27B
330
1F
100
AcDbEntity
  8
0
  6
SLD-Solid
 62
     7
370
    25
100
AcDbCircle
 10
45.15841453878807
 20
16.15528675638817
 30
0.0
 40
0.1000000000000014
100
AcDbArc
 50
270.0000000000008
 51
90.0
  0
LINE
  5
27C
330
1F
100
AcDbEntity
  8
0
  6
SLD-Solid
 62
     7
370
    25
100
AcDbLine
 10
45.15841453878807
 20
16.25528675638817
 30
0.0
 11
44.91382253878807
 21
16.25528675638816
 31
0.0
  0
ARC
  5
27D
330
1F
100
AcDbEntity
  8
0
  6
SLD-Solid
 62
     7
370
    25
100
AcDbCircle
 10
44.66841461432718
 20
16.15528678716919
 30
0.0
 40
0.2650000815697882
100
AcDbArc
 50
22.1701427905422
 51
67.82985700000027
  0
LINE
  5
27E
330
1F
100
AcDbEntity
  8
0
  6
SLD-Solid
 62
     7
370
    25
100
AcDbLine
 10
44.76841458444329
 20
16.40069471126449
 30
0.0
 11
44.76841464510822
 21
16.6452868627083
 31
0.0
  0
ARC
  5
27F
330
1F
100
AcDbEntity
  8
0
  6
SLD-Solid
 62
     7
370
    25
100
AcDbCircle
 10
44.66841464510821
 20
16.64528678716919
 30
0.0
 40
0.1000000000000371
100
AcDbArc
 50
0.0000432807194121
 51
180.0000432807263
  0
LINE
  5
280
330
1F
100
AcDbEntity
  8
0
  6
SLD-Solid
 62
     7
370
    25
100
AcDbLine
 10
44.56841464510823
 20
16.64528671163007
 30
0.0
 11
44.56841464510821
 21
16.40069471163007
 31
0.0
  0
ARC
  5
281
330
1F
100
AcDbEntity
  8
0
  6
SLD-Solid
 62
     7
370
    25
100
AcDbCircle
 10
44.66841461432718
 20
16.15528678716919
 30
0.0
 40
0.2650000815697882
100
AcDbArc
 50
112.1701427905422
 51
157.8298570000011
  0
LINE
  5
282
330
1F
100
AcDbEntity
  8
0
  6
SLD-Solid
 62
     7
370
    25
100
AcDbLine
 10
44.42300669023187
 20
16.2552867572853
 30
0.0
 11
44.17841453878807
 21
16.25528681795024
 31
0.0
  0
ARC
  5
283
330
1F
100
AcDbEntity
  8
0
  6
SLD-Solid
 62
     7
370
    25
100
AcDbCircle
 10
44.17841453878807
 20
16.15528681795023
 30
0.0
 40
0.1000000000000014
100
AcDbArc
 50
90.0
 51
270.0000000000008
  0
LINE
  5
284
330
1F
100
AcDbEntity
  8
0
  6
SLD-Solid
 62
     7
370
    25
100
AcDbLine
 10
44.17841453878807
 20
16.05528681795024
 30
0.0
 11
44.40341461432718
 21
16.05528681795021
 31
0.0
  0
LINE
  5
285
330
1F
100
AcDbEntity
  8
0
  6
SLD-Solid
 62
     7
370
    25
100
AcDbLine
 10
44.40341461432718
 20
16.05528681795021
 30
0.0
 11
44.40341461432718
 21
15.45528678716918
 31
0.0
  0
ARC
  5
286
330
1F
100
AcDbEntity
  8
0
  6
SLD-Solid
 62
     7
370
    25
100
AcDbCircle
 10
44.45341461432719
 20
15.4552867871692
 30
0.0
 40
0.0500000000000043
100
AcDbArc
 50
180.0000000000273
 51
359.9999999999968
  0
LINE
  5
287
330
1F
100
AcDbEntity
  8
0
  6
SLD-Solid
 62
     7
370
    25
100
AcDbLine
 10
44.50341461432726
 20
36.72928678716919
 30
0.0
 11
44.50341461432726
 21
37.42928678716918
 31
0.0
  0
ARC
  5
288
330
1F
100
AcDbEntity
  8
0
  6
SLD-Solid
 62
     7
370
    25
100
AcDbCircle
 10
44.66841461432725
 20
37.42928678716918
 30
0.0
 40
0.1649999999999991
100
AcDbArc
 50
0.0000000000000289
 51
180.0
  0
LINE
  5
289
330
1F
100
AcDbEntity
  8
0
  6
SLD-Solid
 62
     7
370
    25
100
AcDbLine
 10
44.83341461432725
 20
37.42928678716918
 30
0.0
 11
44.83341461432725
 21
36.72928678716919
 31
0.0
  0
ARC
  5
28A
330
1F
100
AcDbEntity
  8
0
  6
SLD-Solid
 62
     7
370
    25
100
AcDbCircle
 10
44.88341461432725
 20
36.72928678716919
 30
0.0
 40
0.0500000000000043
100
AcDbArc
 50
180.0
 51
0.0
  0
LINE
  5
28B
330
1F
100
AcDbEntity
  8
0
  6
SLD-Solid
 62
     7
370
    25
100
AcDbLine
 10
44.93341461432725
 20
36.72928678716919
 30
0.0
 11
44.93341461432725
 21
37.32928675638814
 31
0.0
  0
LINE
  5
28C
330
1F
100
AcDbEntity
  8
0
  6
SLD-Solid
 62
     7
370
    25
100
AcDbLine
 10
44.93341461432725
 20
37.32928675638814
 30
0.0
 11
45.15841453878814
 21
37.32928675638814
 31
0.0
  0
ARC
  5
28D
330
1F
100
AcDbEntity
  8
0
  6
SLD-Solid
 62
     7
370
    25
100
AcDbCircle
 10
45.15841453878814
 20
37.42928675638815
 30
0.0
 40
0.1000000000000085
100
AcDbArc
 50
270.0000000000008
 51
90.0
  0
LINE
  5
28E
330
1F
100
AcDbEntity
  8
0
  6
SLD-Solid
 62
     7
370
    25
100
AcDbLine
 10
45.15841453878814
 20
37.52928675638815
 30
0.0
 11
44.91382253878814
 21
37.52928675638815
 31
0.0
  0
ARC
  5
28F
330
1F
100
AcDbEntity
  8
0
  6
SLD-Solid
 62
     7
370
    25
100
AcDbCircle
 10
44.66841461432725
 20
37.42928678716918
 30
0.0
 40
0.2650000815697952
100
AcDbArc
 50
22.1701427905422
 51
67.82985699999546
  0
LINE
  5
290
330
1F
100
AcDbEntity
  8
0
  6
SLD-Solid
 62
     7
370
    25
100
AcDbLine
 10
44.76841458444339
 20
37.67469471126449
 30
0.0
 11
44.76841464510831
 21
37.91928686270829
 31
0.0
  0
ARC
  5
291
330
1F
100
AcDbEntity
  8
0
  6
SLD-Solid
 62
     7
370
    25
100
AcDbCircle
 10
44.66841464510831
 20
37.91928678716918
 30
0.0
 40
0.10000000000003
100
AcDbArc
 50
0.0000432807234832
 51
180.0000432807284
  0
LINE
  5
292
330
1F
100
AcDbEntity
  8
0
  6
SLD-Solid
 62
     7
370
    25
100
AcDbLine
 10
44.56841464510831
 20
37.91928671163006
 30
0.0
 11
44.56841464510831
 21
37.67469471163007
 31
0.0
  0
ARC
  5
293
330
1F
100
AcDbEntity
  8
0
  6
SLD-Solid
 62
     7
370
    25
100
AcDbCircle
 10
44.66841461432725
 20
37.42928678716918
 30
0.0
 40
0.2650000815697871
100
AcDbArc
 50
112.1701427905365
 51
157.8298569999997
  0
LINE
  5
294
330
1F
100
AcDbEntity
  8
0
  6
SLD-Solid
 62
     7
370
    25
100
AcDbLine
 10
44.42300669023194
 20
37.5292867572853
 30
0.0
 11
44.17841453878814
 21
37.52928681795022
 31
0.0
  0
ARC
  5
295
330
1F
100
AcDbEntity
  8
0
  6
SLD-Solid
 62
     7
370
    25
100
AcDbCircle
 10
44.17841453878814
 20
37.42928681795022
 30
0.0
 40
0.1000000000000085
100
AcDbArc
 50
90.0
 51
270.0000000000008
  0
LINE
  5
296
330
1F
100
AcDbEntity
  8
0
  6
SLD-Solid
 62
     7
370
    25
100
AcDbLine
 10
44.17841453878814
 20
37.32928681795021
 30
0.0
 11
44.40341461432725
 21
37.32928681795021
 31
0.0
  0
LINE
  5
297
330
1F
100
AcDbEntity
  8
0
  6
SLD-Solid
 62
     7
370
    25
100
AcDbLine
 10
44.40341461432725
 20
37.32928681795021
 30
0.0
 11
44.40341461432725
 21
36.72928678716919
 31
0.0
  0
ARC
  5
298
330
1F
100
AcDbEntity
  8
0
  6
SLD-Solid
 62
     7
370
    25
100
AcDbCircle
 10
44.45341461432725
 20
36.72928678716919
 30
0.0
 40
0.0500000000000043
100
AcDbArc
 50
180.0
 51
0.0000000000007633
  0
LINE
  5
299
330
1F
100
AcDbEntity
  8
0
  6
SLD-Solid
 62
     7
370
    25
100
AcDbLine
 10
45.61120270433119
 20
12.62196325992071
 30
0.0
 11
30.73787258935516
 21
12.62196325992061
 31
0.0
  0
LINE
  5
29A
330
1F
100
AcDbEntity
  8
0
  6
SLD-Solid
 62
     7
370
    25
100
AcDbLine
 10
30.64345670086147
 20
12.62196325992061
 30
0.0
 11
30.35062658588522
 21
12.62196325992061
 31
0.0
  0
LINE
  5
29B
330
1F
100
AcDbEntity
  8
0
  6
SLD-Solid
 62
     7
370
    25
100
AcDbLine
 10
45.61120270433119
 20
12.62196325992071
 30
0.0
 11
45.95220270433119
 21
12.28096325992072
 31
0.0
  0
LINE
  5
29C
330
1F
100
AcDbEntity
  8
0
  6
SLD-Solid
 62
     7
370
    25
100
AcDbLine
 10
30.00962658588523
 20
12.28096325992066
 30
0.0
 11
30.35062658588522
 21
12.62196325992061
 31
0.0
  0
LINE
  5
29D
330
1F
100
AcDbEntity
  8
0
  6
SLD-Solid
 62
     7
370
    25
100
AcDbLine
 10
45.99816464510825
 20
12.32692520069784
 30
0.0
 11
45.65716464510831
 21
12.66792520069784
 31
0.0
  0
LINE
  5
29E
330
1F
100
AcDbEntity
  8
0
  6
SLD-Solid
 62
     7
370
    25
100
AcDbLine
 10
45.6571646451082
 20
41.91350131914358
 30
0.0
 11
45.65716464510831
 21
12.66792520069784
 31
0.0
  0
LINE
  5
29F
330
1F
100
AcDbEntity
  8
0
  6
SLD-Solid
 62
     7
370
    25
100
AcDbLine
 10
45.6571646451082
 20
41.91350131914358
 30
0.0
 11
45.9981646451082
 21
42.25450131914359
 31
0.0
  0
LINE
  5
2A0
330
1F
100
AcDbEntity
  8
0
  6
SLD-Solid
 62
     7
370
    25
100
AcDbLine
 10
30.35062658588533
 20
41.95946325992071
 30
0.0
 11
45.61120270433108
 21
41.95946325992071
 31
0.0
  0
LINE
  5
2A1
330
1F
100
AcDbEntity
  8
0
  6
SLD-Solid
 62
     7
370
    25
100
AcDbLine
 10
30.35062658588533
 20
41.95946325992071
 30
0.0
 11
30.00962658588533
 21
42.30046325992071
 31
0.0
  0
LINE
  5
2A2
330
1F
100
AcDbEntity
  8
0
  6
SLD-Solid
 62
     7
370
    25
100
AcDbLine
 10
45.95220270433108
 20
42.30046325992071
 30
0.0
 11
45.61120270433108
 21
41.95946325992071
 31
0.0
  0
LINE
  5
2A3
330
1F
100
AcDbEntity
  8
0
  6
SLD-Solid
 62
     7
370
    25
100
AcDbLine
 10
46.0271646451082
 20
42.31446325992071
 30
0.0
 11
46.04506464510826
 21
42.31446325992071
 31
0.0
  0
SPLINE
  5
2A4
330
1F
100
AcDbEntity
  8
0
  6
SLD-Solid
 62
     7
370
    25
100
AcDbSpline
210
0.0
220
0.0
230
1.0
 70
    12
 71
     3
 72
    11
 73
     7
 74
     0
 42
0.00000001
 43
0.00000001
 40
0.0
 40
0.0
 40
0.0
 40
0.0
 40
0.2770548345804021
 40
0.5544254065331574
 40
0.8317983235785582
 40
1.0
 40
1.0
 40
1.0
 40
1.0
 10
45.9981646451082
 20
42.25450131914359
 30
0.0
 41
1.0
 10
46.00497688887546
 20
42.26004203189345
 30
0.0
 41
1.0
 10
46.01860913978269
 20
42.27112977170306
 30
0.0
 41
1.0
 10
46.0351261798365
 20
42.28775808909955
 30
0.0
 41
1.0
 10
46.04388129040356
 20
42.30223390710868
 30
0.0
 41
1.0
 10
46.04474035390494
 20
42.3111118797103
 30
0.0
 41
1.0
 10
46.04506464510826
 20
42.31446325992072
 30
0.0
 41
1.0
  0
SPLINE
  5
2A5
330
1F
100
AcDbEntity
  8
0
  6
SLD-Solid
 62
     7
370
    25
100
AcDbSpline
210
0.0
220
0.0
230
1.0
 70
    12
 71
     3
 72
    10
 73
     6
 74
     0
 42
0.00000001
 43
0.00000001
 40
0.0
 40
0.0
 40
0.0
 40
0.0
 40
0.3557668174043797
 40
0.7126021682739339
 40
0.9999999999999999
 40
0.9999999999999999
 40
0.9999999999999999
 40
0.9999999999999999
 10
45.99816464510825
 20
42.25450131914359
 30
0.0
 41
1.0
 10
46.00353601397192
 20
42.26161451364505
 30
0.0
 41
1.0
 10
46.01429488442187
 20
42.2758622668843
 30
0.0
 41
1.0
 10
46.02527201918155
 20
42.29587202185525
 30
0.0
 41
1.0
 10
46.026580791008
 20
42.30872806924224
 30
0.0
 41
1.0
 10
46.0271646451082
 20
42.31446325992071
 30
0.0
 41
1.0
  0
SPLINE
  5
2A6
330
1F
100
AcDbEntity
  8
0
  6
SLD-Solid
 62
     7
370
    25
100
AcDbSpline
210
0.0
220
0.0
230
1.0
 70
    12
 71
     3
 72
    11
 73
     7
 74
     0
 42
0.00000001
 43
0.00000001
 40
0.0
 40
0.0
 40
0.0
 40
0.0
 40
0.2770548345813509
 40
0.554425406534661
 40
0.8317983235805873
 40
1.0
 40
1.0
 40
1.0
 40
1.0
 10
46.0450646451083
 20
12.26696325992071
 30
0.0
 41
1.0
 10
46.04419504048504
 20
12.27250397267059
 30
0.0
 41
1.0
 10
46.04245484021922
 20
12.28359171248023
 30
0.0
 41
1.0
 10
46.02922698450644
 20
12.30022002987679
 30
0.0
 41
1.0
 10
46.01320738004122
 20
12.31469584788593
 30
0.0
 41
1.0
 10
46.00228701568172
 20
12.32357382048747
 30
0.0
 41
1.0
 10
45.99816464510825
 20
12.32692520069784
 30
0.0
 41
1.0
  0
SPLINE
  5
2A7
330
1F
100
AcDbEntity
  8
0
  6
SLD-Solid
 62
     7
370
    25
100
AcDbSpline
210
0.0
220
0.0
230
1.0
 70
    12
 71
     3
 72
    10
 73
     6
 74
     0
 42
0.00000001
 43
0.00000001
 40
0.0
 40
0.0
 40
0.0
 40
0.0
 40
0.3557668174058338
 40
0.7126021682763644
 40
0.9999999999999999
 40
0.9999999999999999
 40
0.9999999999999999
 40
0.9999999999999999
 10
46.02716464510831
 20
12.26696325992071
 30
0.0
 41
1.0
 10
46.02627044330119
 20
12.27407645442219
 30
0.0
 41
1.0
 10
46.0244793539824
 20
12.28832420766148
 30
0.0
 41
1.0
 10
46.01220851942404
 20
12.30833396263247
 30
0.0
 41
1.0
 10
46.0024970245217
 20
12.32119001001942
 30
0.0
 41
1.0
 10
45.99816464510825
 20
12.32692520069784
 30
0.0
 41
1.0
  0
LINE
  5
2A8
330
1F
100
AcDbEntity
  8
0
  6
SLD-Solid
 62
     7
370
    25
100
AcDbLine
 10
46.0450646451083
 20
12.26696325992071
 30
0.0
 11
46.04506464510826
 21
42.31446325992071
 31
0.0
  0
SPLINE
  5
2A9
330
1F
100
AcDbEntity
  8
0
  6
SLD-Solid
 62
     7
370
    25
100
AcDbSpline
210
0.0
220
0.0
230
1.0
 70
    12
 71
     3
 72
    12
 73
     8
 74
     0
 42
0.00000001
 43
0.00000001
 40
0.0
 40
0.0
 40
0.0
 40
0.0
 40
0.212207944000393
 40
0.4639213760439149
 40
0.7157255558819807
 40
0.9675300518436408
 40
1.0
 40
1.0
 40
1.0
 40
1.0
 10
29.96466464510831
 20
12.2340632599206
 30
0.0
 41
1.0
 10
29.96784086488431
 20
12.23457294124696
 30
0.0
 41
1.0
 10
29.97478460233977
 20
12.23568718823419
 30
0.0
 41
1.0
 10
29.985523949025
 20
12.24513142852417
 30
0.0
 41
1.0
 10
29.99683870845372
 20
12.26014171357717
 30
0.0
 41
1.0
 10
30.0049007997426
 20
12.27322067104789
 30
0.0
 41
1.0
 10
30.00914213837868
 20
12.28016955538973
 30
0.0
 41
1.0
 10
30.00962658588523
 20
12.28096325992066
 30
0.0
 41
1.0
  0
SPLINE
  5
2AA
330
1F
100
AcDbEntity
  8
0
  6
SLD-Solid
 62
     7
370
    25
100
AcDbSpline
210
0.0
220
0.0
230
1.0
 70
    12
 71
     3
 72
    11
 73
     7
 74
     0
 42
0.00000001
 43
0.00000001
 40
0.0
 40
0.0
 40
0.0
 40
0.0
 40
0.2770548345806201
 40
0.5544254065332813
 40
0.8317983235786904
 40
1.0
 40
1.0
 40
1.0
 40
1.0
 10
45.95220270433119
 20
12.28096325992072
 30
0.0
 41
1.0
 10
45.95774341708105
 20
12.27415101615346
 30
0.0
 41
1.0
 10
45.96883115689067
 20
12.26051876524623
 30
0.0
 41
1.0
 10
45.98545947428718
 20
12.24400172519243
 30
0.0
 41
1.0
 10
45.99993529229629
 20
12.23524661462535
 30
0.0
 41
1.0
 10
46.00881326489788
 20
12.23438755112398
 30
0.0
 41
1.0
 10
46.01216464510831
 20
12.23406325992066
 30
0.0
 41
1.0
  0
LINE
  5
2AB
330
1F
100
AcDbEntity
  8
0
  6
SLD-Solid
 62
     7
370
    25
100
AcDbLine
 10
46.01216464510831
 20
12.23406325992066
 30
0.0
 11
29.96466464510831
 21
12.2340632599206
 31
0.0
  0
SPLINE
  5
2AC
330
1F
100
AcDbEntity
  8
0
  6
SLD-Solid
 62
     7
370
    25
100
AcDbSpline
210
0.0
220
0.0
230
1.0
 70
    12
 71
     3
 72
    11
 73
     7
 74
     0
 42
0.00000001
 43
0.00000001
 40
0.0
 40
0.0
 40
0.0
 40
0.0
 40
0.2770548345810362
 40
0.55442540653417
 40
0.8317983235799611
 40
1.0
 40
1.0
 40
1.0
 40
1.0
 10
46.01216464510821
 20
42.34736325992072
 30
0.0
 41
1.0
 10
46.00662393235834
 20
42.34649365529746
 30
0.0
 41
1.0
 10
45.99553619254871
 20
42.34475345503169
 30
0.0
 41
1.0
 10
45.97890787515218
 20
42.33152559931893
 30
0.0
 41
1.0
 10
45.96443205714306
 20
42.31550599485366
 30
0.0
 41
1.0
 10
45.95555408454148
 20
42.30458563049417
 30
0.0
 41
1.0
 10
45.95220270433108
 20
42.30046325992071
 30
0.0
 41
1.0
  0
LINE
  5
2AD
330
1F
100
AcDbEntity
  8
0
  6
SLD-Solid
 62
     7
370
    25
100
AcDbLine
 10
46.01216464510821
 20
42.34736325992072
 30
0.0
 11
46.01216464510821
 21
42.32946325992071
 31
0.0
  0
SPLINE
  5
2AE
330
1F
100
AcDbEntity
  8
0
  6
SLD-Solid
 62
     7
370
    25
100
AcDbSpline
210
0.0
220
0.0
230
1.0
 70
    12
 71
     3
 72
    10
 73
     6
 74
     0
 42
0.00000001
 43
0.00000001
 40
0.0
 40
0.0
 40
0.0
 40
0.0
 40
0.3557668174052976
 40
0.7126021682753375
 40
1.0
 40
1.0
 40
1.0
 40
1.0
 10
46.01216464510821
 20
42.32946325992071
 30
0.0
 41
1.0
 10
46.00505145060674
 20
42.32856905811362
 30
0.0
 41
1.0
 10
45.99080369736748
 20
42.32677796879486
 30
0.0
 41
1.0
 10
45.9707939423965
 20
42.31450713423649
 30
0.0
 41
1.0
 10
45.95793789500953
 20
42.30479563933417
 30
0.0
 41
1.0
 10
45.95220270433108
 20
42.30046325992071
 30
0.0
 41
1.0
  0
SPLINE
  5
2AF
330
1F
100
AcDbEntity
  8
0
  6
SLD-Solid
 62
     7
370
    25
100
AcDbSpline
210
0.0
220
0.0
230
1.0
 70
    12
 71
     3
 72
    10
 73
     6
 74
     0
 42
0.00000001
 43
0.00000001
 40
0.0
 40
0.0
 40
0.0
 40
0.0
 40
0.3557668174038335
 40
0.7126021682733286
 40
1.0
 40
1.0
 40
1.0
 40
1.0
 10
45.95220270433119
 20
12.28096325992066
 30
0.0
 41
1.0
 10
45.95931589883264
 20
12.275591891057
 30
0.0
 41
1.0
 10
45.97356365207188
 20
12.26483302060707
 30
0.0
 41
1.0
 10
45.99357340704283
 20
12.2538558858474
 30
0.0
 41
1.0
 10
46.00642945442983
 20
12.25254711402089
 30
0.0
 41
1.0
 10
46.01216464510831
 20
12.25196325992066
 30
0.0
 41
1.0
  0
SPLINE
  5
2B0
330
1F
100
AcDbEntity
  8
0
  6
SLD-Solid
 62
     7
370
    25
100
AcDbSpline
210
0.0
220
0.0
230
1.0
 70
    12
 71
     3
 72
    11
 73
     7
 74
     0
 42
0.00000001
 43
0.00000001
 40
0.0
 40
0.0
 40
0.0
 40
0.0
 40
0.2770548345810193
 40
0.5544254065341845
 40
0.8317983235799664
 40
1.0
 40
1.0
 40
1.0
 40
1.0
 10
30.00962658588533
 20
42.30046325992071
 30
0.0
 41
1.0
 10
30.00408587313547
 20
42.30727550368798
 30
0.0
 41
1.0
 10
29.99299813332584
 20
42.32090775459524
 30
0.0
 41
1.0
 10
29.9763698159293
 20
42.33742479464901
 30
0.0
 41
1.0
 10
29.96189399792019
 20
42.34617990521603
 30
0.0
 41
1.0
 10
29.9530160253186
 20
42.34703896871741
 30
0.0
 41
1.0
 10
29.94966464510821
 20
42.34736325992072
 30
0.0
 41
1.0
  0
LINE
  5
2B1
330
1F
100
AcDbEntity
  8
0
  6
SLD-Solid
 62
     7
370
    25
100
AcDbLine
 10
29.94966464510821
 20
42.34736325992072
 30
0.0
 11
46.01216464510821
 21
42.34736325992072
 31
0.0
  0
LINE
  5
2B2
330
1F
100
AcDbEntity
  8
0
  6
SLD-Solid
 62
     7
370
    25
100
AcDbLine
 10
30.3046646451081
 20
12.66792520069773
 30
0.0
 11
29.9636646451081
 21
12.32692520069772
 31
0.0
  0
LINE
  5
2B3
330
1F
100
AcDbEntity
  8
0
  6
SLD-Solid
 62
     7
370
    25
100
AcDbLine
 10
30.3046646451081
 20
12.66792520069773
 30
0.0
 11
30.3046646451081
 21
12.94575531567375
 31
0.0
  0
LINE
  5
2B4
330
1F
100
AcDbEntity
  8
0
  6
SLD-Solid
 62
     7
370
    25
100
AcDbLine
 10
30.3046646451081
 20
13.04017120416768
 30
0.0
 11
30.3046646451082
 21
41.91350131914358
 31
0.0
  0
LINE
  5
2B5
330
1F
100
AcDbEntity
  8
0
  6
SLD-Solid
 62
     7
370
    25
100
AcDbLine
 10
29.96366464510815
 20
42.25450131914359
 30
0.0
 11
30.3046646451082
 21
41.91350131914358
 31
0.0
  0
SPLINE
  5
2B6
330
1F
100
AcDbEntity
  8
0
  6
SLD-Solid
 62
     7
370
    25
100
AcDbSpline
210
0.0
220
0.0
230
1.0
 70
    12
 71
     3
 72
    10
 73
     6
 74
     0
 42
0.00000001
 43
0.00000001
 40
0.0
 40
0.0
 40
0.0
 40
0.0
 40
0.3557668174052199
 40
0.7126021682752582
 40
1.0
 40
1.0
 40
1.0
 40
1.0
 10
30.00962658588533
 20
42.30046325992071
 30
0.0
 41
1.0
 10
30.00251339138386
 20
42.3058346287844
 30
0.0
 41
1.0
 10
29.9882656381446
 20
42.31659349923438
 30
0.0
 41
1.0
 10
29.96825588317363
 20
42.32757063399401
 30
0.0
 41
1.0
 10
29.95539983578666
 20
42.32887940582049
 30
0.0
 41
1.0
 10
29.94966464510821
 20
42.32946325992071
 30
0.0
 41
1.0
  0
LINE
  5
2B7
330
1F
100
AcDbEntity
  8
0
  6
SLD-Solid
 62
     7
370
    25
100
AcDbLine
 10
29.91676464510815
 20
12.26696325992072
 30
0.0
 11
29.9346646451081
 21
12.26696325992071
 31
0.0
  0
SPLINE
  5
2B8
330
1F
100
AcDbEntity
  8
0
  6
SLD-Solid
 62
     7
370
    25
100
AcDbSpline
210
0.0
220
0.0
230
1.0
 70
    12
 71
     3
 72
    11
 73
     7
 74
     0
 42
0.00000001
 43
0.00000001
 40
0.0
 40
0.0
 40
0.0
 40
0.0
 40
0.2770548345815267
 40
0.5544254065347897
 40
0.8317983235805806
 40
1.0
 40
1.0
 40
1.0
 40
1.0
 10
29.9636646451081
 20
12.32692520069772
 30
0.0
 41
1.0
 10
29.95685240134082
 20
12.32138448794786
 30
0.0
 41
1.0
 10
29.94322015043355
 20
12.31029674813826
 30
0.0
 41
1.0
 10
29.9267031103798
 20
12.29366843074173
 30
0.0
 41
1.0
 10
29.91794799981282
 20
12.27919261273266
 30
0.0
 41
1.0
 10
29.91708893631146
 20
12.2703146401311
 30
0.0
 41
1.0
 10
29.91676464510815
 20
12.26696325992072
 30
0.0
 41
1.0
  0
SPLINE
  5
2B9
330
1F
100
AcDbEntity
  8
0
  6
SLD-Solid
 62
     7
370
    25
100
AcDbSpline
210
0.0
220
0.0
230
1.0
 70
    12
 71
     3
 72
    10
 73
     6
 74
     0
 42
0.00000001
 43
0.00000001
 40
0.0
 40
0.0
 40
0.0
 40
0.0
 40
0.3557668174057685
 40
0.7126021682757174
 40
1.0
 40
1.0
 40
1.0
 40
1.0
 10
29.96366464510815
 20
12.32692520069772
 30
0.0
 41
1.0
 10
29.95829327624445
 20
12.31981200619627
 30
0.0
 41
1.0
 10
29.94753440579443
 20
12.30556425295703
 30
0.0
 41
1.0
 10
29.93655727103486
 20
12.28555449798608
 30
0.0
 41
1.0
 10
29.93524849920833
 20
12.27269845059914
 30
0.0
 41
1.0
 10
29.9346646451081
 20
12.26696325992071
 30
0.0
 41
1.0
  0
SPLINE
  5
2BA
330
1F
100
AcDbEntity
  8
0
  6
SLD-Solid
 62
     7
370
    25
100
AcDbSpline
210
0.0
220
0.0
230
1.0
 70
    12
 71
     3
 72
    11
 73
     7
 74
     0
 42
0.00000001
 43
0.00000001
 40
0.0
 40
0.0
 40
0.0
 40
0.0
 40
0.2770548345807112
 40
0.5544254065336209
 40
0.8317983235791997
 40
1.0
 40
1.0
 40
1.0
 40
1.0
 10
29.9167646451082
 20
42.31446325992071
 30
0.0
 41
1.0
 10
29.91763424973143
 20
42.30892254717086
 30
0.0
 41
1.0
 10
29.91937444999715
 20
42.29783480736126
 30
0.0
 41
1.0
 10
29.93260230570993
 20
42.28120648996472
 30
0.0
 41
1.0
 10
29.94862191017522
 20
42.26673067195565
 30
0.0
 41
1.0
 10
29.95954227453469
 20
42.25785269935401
 30
0.0
 41
1.0
 10
29.96366464510815
 20
42.25450131914359
 30
0.0
 41
1.0
  0
LINE
  5
2BB
330
1F
100
AcDbEntity
  8
0
  6
SLD-Solid
 62
     7
370
    25
100
AcDbLine
 10
29.91676464510821
 20
42.31446325992071
 30
0.0
 11
29.91676464510815
 21
12.26696325992072
 31
0.0
  0
SPLINE
  5
2BC
330
1F
100
AcDbEntity
  8
0
  6
SLD-Solid
 62
     7
370
    25
100
AcDbSpline
210
0.0
220
0.0
230
1.0
 70
    12
 71
     3
 72
    10
 73
     6
 74
     0
 42
0.00000001
 43
0.00000001
 40
0.0
 40
0.0
 40
0.0
 40
0.0
 40
0.3557668174046744
 40
0.7126021682742699
 40
1.0
 40
1.0
 40
1.0
 40
1.0
 10
29.9346646451082
 20
42.31446325992071
 30
0.0
 41
1.0
 10
29.93555884691528
 20
42.30735006541926
 30
0.0
 41
1.0
 10
29.93734993623396
 20
42.29310231218001
 30
0.0
 41
1.0
 10
29.94962077079239
 20
42.27309255720908
 30
0.0
 41
1.0
 10
29.9593322656947
 20
42.26023650982207
 30
0.0
 41
1.0
 10
29.96366464510815
 20
42.25450131914359
 30
0.0
 41
1.0
  0
LINE
  5
2BD
330
1F
100
AcDbEntity
  8
0
  6
SLD-Solid
 62
     7
370
    25
100
AcDbLine
 10
29.96466464510831
 20
12.2340632599206
 30
0.0
 11
29.96466464510831
 21
12.25196325992066
 31
0.0
  0
SPLINE
  5
2BE
330
1F
100
AcDbEntity
  8
0
  6
SLD-Solid
 62
     7
370
    25
100
AcDbSpline
210
0.0
220
0.0
230
1.0
 70
    12
 71
     3
 72
    11
 73
     7
 74
     0
 42
0.00000001
 43
0.00000001
 40
0.0
 40
0.0
 40
0.0
 40
0.0
 40
0.2898480140643126
 40
0.592319239864147
 40
0.8948684545000413
 40
1.0
 40
1.0
 40
1.0
 40
1.0
 10
29.96466464510831
 20
12.25196325992066
 30
0.0
 41
1.0
 10
29.96900943713346
 20
12.25255354999132
 30
0.0
 41
1.0
 10
29.97788824183395
 20
12.25375983793874
 30
0.0
 41
1.0
 10
29.99130143608956
 20
12.26305367571585
 30
0.0
 41
1.0
 10
30.00197330434341
 20
12.27320264463621
 30
0.0
 41
1.0
 10
30.00805758820753
 20
12.27937225777442
 30
0.0
 41
1.0
 10
30.00962658588523
 20
12.28096325992066
 30
0.0
 41
1.0
  0
ARC
  5
2BF
330
1F
100
AcDbEntity
  8
0
  6
SLD-Solid
 62
     7
370
    25
100
AcDbCircle
 10
46.01216464510831
 20
12.26696325992071
 30
0.0
 40
0.032900000000053
100
AcDbArc
 50
270.0000000000008
 51
0.0
  0
ARC
  5
2C0
330
1F
100
AcDbEntity
  8
0
  6
SLD-Solid
 62
     7
370
    25
100
AcDbCircle
 10
46.01216464510831
 20
12.26696325992071
 30
0.0
 40
0.0150000000000503
100
AcDbArc
 50
270.0000000000008
 51
0.0
  0
ARC
  5
2C1
330
1F
100
AcDbEntity
  8
0
  6
SLD-Solid
 62
     7
370
    25
100
AcDbCircle
 10
46.01216464510821
 20
42.31446325992071
 30
0.0
 40
0.0329000000000548
100
AcDbArc
 50
0.0
 51
90.0
  0
ARC
  5
2C2
330
1F
100
AcDbEntity
  8
0
  6
SLD-Solid
 62
     7
370
    25
100
AcDbCircle
 10
46.01216464510821
 20
42.31446325992071
 30
0.0
 40
0.0149999999999935
100
AcDbArc
 50
0.0
 51
90.0
  0
ARC
  5
2C3
330
1F
100
AcDbEntity
  8
0
  6
SLD-Solid
 62
     7
370
    25
100
AcDbCircle
 10
29.94966464510821
 20
42.31446325992071
 30
0.0
 40
0.032900000000005
100
AcDbArc
 50
90.0
 51
180.0
  0
ARC
  5
2C4
330
1F
100
AcDbEntity
  8
0
  6
SLD-Solid
 62
     7
370
    25
100
AcDbCircle
 10
29.94966464510821
 20
42.31446325992071
 30
0.0
 40
0.0150000000000041
100
AcDbArc
 50
90.0
 51
180.0
  0
SPLINE
  5
2C5
330
1F
100
AcDbEntity
  8
0
  6
SLD-Solid
 62
     7
370
    25
100
AcDbSpline
210
0.0
220
0.0
230
1.0
 70
    12
 71
     3
 72
    11
 73
     7
 74
     0
 42
0.00000001
 43
0.00000001
 40
0.0
 40
0.0
 40
0.0
 40
0.0
 40
0.2500000000001197
 40
0.5000000000004063
 40
0.7500000000006963
 40
1.0
 40
1.0
 40
1.0
 40
1.0
 10
46.0271646451082
 20
42.31446325992071
 30
0.0
 41
1.0
 10
46.02672872949739
 20
42.31317874212385
 30
0.0
 41
1.0
 10
46.02585689827577
 20
42.31060970653012
 30
0.0
 41
1.0
 10
46.0191506710952
 20
42.30675615313953
 30
0.0
 41
1.0
 10
46.00956486791937
 20
42.30290259974895
 30
0.0
 41
1.0
 10
46.00196471937862
 20
42.3003335641552
 30
0.0
 41
1.0
 10
45.99816464510825
 20
42.29904904635834
 30
0.0
 41
1.0
  0
SPLINE
  5
2C6
330
1F
100
AcDbEntity
  8
0
  6
SLD-Solid
 62
     7
370
    25
100
AcDbSpline
210
0.0
220
0.0
230
1.0
 70
    12
 71
     3
 72
    11
 73
     7
 74
     0
 42
0.00000001
 43
0.00000001
 40
0.0
 40
0.0
 40
0.0
 40
0.0
 40
0.250000000000681
 40
0.5000000000003448
 40
0.7500000000000638
 40
1.0
 40
1.0
 40
1.0
 40
1.0
 10
45.99816464510825
 20
12.28237747348309
 30
0.0
 41
1.0
 10
46.00196471937866
 20
12.28109295568623
 30
0.0
 41
1.0
 10
46.00956486791943
 20
12.27852392009251
 30
0.0
 41
1.0
 10
46.01915067109523
 20
12.2746703667019
 30
0.0
 41
1.0
 10
46.02585689827575
 20
12.27081681331131
 30
0.0
 41
1.0
 10
46.02672872949746
 20
12.26824777771758
 30
0.0
 41
1.0
 10
46.02716464510831
 20
12.26696325992071
 30
0.0
 41
1.0
  0
SPLINE
  5
2C7
330
1F
100
AcDbEntity
  8
0
  6
SLD-Solid
 62
     7
370
    25
100
AcDbSpline
210
0.0
220
0.0
230
1.0
 70
    12
 71
     3
 72
    11
 73
     7
 74
     0
 42
0.00000001
 43
0.00000001
 40
0.0
 40
0.0
 40
0.0
 40
0.0
 40
0.0592750431164611
 40
0.3728500287443324
 40
0.6864250143721724
 40
1.0
 40
1.0
 40
1.0
 40
1.0
 10
29.97695374202989
 20
12.27196325992057
 30
0.0
 41
1.0
 10
29.97671092977993
 20
12.2712576179964
 30
0.0
 41
1.0
 10
29.97518359973312
 20
12.26681901115823
 30
0.0
 41
1.0
 10
29.97237175188944
 20
12.26003918103189
 30
0.0
 41
1.0
 10
29.96851819849887
 20
12.2532555199786
 30
0.0
 41
1.0
 10
29.96594916290516
 20
12.2523940132733
 30
0.0
 41
1.0
 10
29.96466464510831
 20
12.25196325992066
 30
0.0
 41
1.0
  0
SPLINE
  5
2C8
330
1F
100
AcDbEntity
  8
0
  6
SLD-Solid
 62
     7
370
    25
100
AcDbSpline
210
0.0
220
0.0
230
1.0
 70
    12
 71
     3
 72
    11
 73
     7
 74
     0
 42
0.00000001
 43
0.00000001
 40
0.0
 40
0.0
 40
0.0
 40
0.0
 40
0.2500000000002771
 40
0.5000000000005368
 40
0.7500000000008539
 40
1.0
 40
1.0
 40
1.0
 40
1.0
 10
46.01216464510831
 20
12.25196325992066
 30
0.0
 41
1.0
 10
46.01088012731145
 20
12.25239917553149
 30
0.0
 41
1.0
 10
46.00831109171772
 20
12.25327100675316
 30
0.0
 41
1.0
 10
46.00445753832713
 20
12.25997723393372
 30
0.0
 41
1.0
 10
46.00060398493654
 20
12.26956303710954
 30
0.0
 41
1.0
 10
45.99803494934281
 20
12.27716318565029
 30
0.0
 41
1.0
 10
45.99675043154595
 20
12.28096325992066
 30
0.0
 41
1.0
  0
SPLINE
  5
2C9
330
1F
100
AcDbEntity
  8
0
  6
SLD-Solid
 62
     7
370
    25
100
AcDbSpline
210
0.0
220
0.0
230
1.0
 70
    12
 71
     3
 72
    11
 73
     7
 74
     0
 42
0.00000001
 43
0.00000001
 40
0.0
 40
0.0
 40
0.0
 40
0.0
 40
0.2500000000000191
 40
0.5000000000000062
 40
0.7499999999999963
 40
1.0
 40
1.0
 40
1.0
 40
1.0
 10
45.99675043154583
 20
42.30046325992071
 30
0.0
 41
1.0
 10
45.9980349493427
 20
42.30426333419109
 30
0.0
 41
1.0
 10
46.00060398493642
 20
42.31186348273186
 30
0.0
 41
1.0
 10
46.00445753832702
 20
42.32144928590767
 30
0.0
 41
1.0
 10
46.00831109171761
 20
42.32815551308821
 30
0.0
 41
1.0
 10
46.01088012731133
 20
42.32902734430989
 30
0.0
 41
1.0
 10
46.01216464510821
 20
42.32946325992071
 30
0.0
 41
1.0
  0
SPLINE
  5
2CA
330
1F
100
AcDbEntity
  8
0
  6
SLD-Solid
 62
     7
370
    25
100
AcDbSpline
210
0.0
220
0.0
230
1.0
 70
    12
 71
     3
 72
    11
 73
     7
 74
     0
 42
0.00000001
 43
0.00000001
 40
0.0
 40
0.0
 40
0.0
 40
0.0
 40
0.2500000000000051
 40
0.4999999999999991
 40
0.749999999999977
 40
1.0
 40
1.0
 40
1.0
 40
1.0
 10
29.94966464510821
 20
42.32946325992071
 30
0.0
 41
1.0
 10
29.95094916290507
 20
42.32902734430988
 30
0.0
 41
1.0
 10
29.9535181984988
 20
42.32815551308821
 30
0.0
 41
1.0
 10
29.9573717518894
 20
42.32144928590767
 30
0.0
 41
1.0
 10
29.96122530527999
 20
42.31186348273186
 30
0.0
 41
1.0
 10
29.96379434087372
 20
42.30426333419109
 30
0.0
 41
1.0
 10
29.96507885867058
 20
42.30046325992071
 30
0.0
 41
1.0
  0
SPLINE
  5
2CB
330
1F
100
AcDbEntity
  8
0
  6
SLD-Solid
 62
     7
370
    25
100
AcDbSpline
210
0.0
220
0.0
230
1.0
 70
    12
 71
     3
 72
    11
 73
     7
 74
     0
 42
0.00000001
 43
0.00000001
 40
0.0
 40
0.0
 40
0.0
 40
0.0
 40
0.2499999999998922
 40
0.4999999999996002
 40
0.7499999999993073
 40
1.0
 40
1.0
 40
1.0
 40
1.0
 10
29.9346646451081
 20
12.26696325992071
 30
0.0
 41
1.0
 10
29.93510056071895
 20
12.26824777771757
 30
0.0
 41
1.0
 10
29.93597239194066
 20
12.27081681331128
 30
0.0
 41
1.0
 10
29.94267861912117
 20
12.27467036670184
 30
0.0
 41
1.0
 10
29.95226442229698
 20
12.27852392009242
 30
0.0
 41
1.0
 10
29.95986457083776
 20
12.28109295568612
 30
0.0
 41
1.0
 10
29.96366464510815
 20
12.28237747348298
 30
0.0
 41
1.0
  0
SPLINE
  5
2CC
330
1F
100
AcDbEntity
  8
0
  6
SLD-Solid
 62
     7
370
    25
100
AcDbSpline
210
0.0
220
0.0
230
1.0
 70
    12
 71
     3
 72
    11
 73
     7
 74
     0
 42
0.00000001
 43
0.00000001
 40
0.0
 40
0.0
 40
0.0
 40
0.0
 40
0.2499999999992953
 40
0.4999999999995735
 40
0.7499999999998931
 40
1.0
 40
1.0
 40
1.0
 40
1.0
 10
29.96366464510815
 20
42.29904904635834
 30
0.0
 41
1.0
 10
29.95986457083778
 20
42.30033356415521
 30
0.0
 41
1.0
 10
29.95226442229703
 20
42.30290259974895
 30
0.0
 41
1.0
 10
29.94267861912122
 20
42.30675615313952
 30
0.0
 41
1.0
 10
29.93597239194064
 20
42.31060970653012
 30
0.0
 41
1.0
 10
29.93510056071901
 20
42.31317874212385
 30
0.0
 41
1.0
 10
29.9346646451082
 20
42.31446325992071
 30
0.0
 41
1.0
  0
LINE
  5
2CD
330
1F
100
AcDbEntity
  8
0
  6
SLD-Solid
 62
     7
370
    25
100
AcDbLine
 10
45.98091464510834
 20
12.29679904635827
 30
0.0
 11
45.99675043154595
 21
12.28096325992066
 31
0.0
  0
LINE
  5
2CE
330
1F
100
AcDbEntity
  8
0
  6
SLD-Solid
 62
     7
370
    25
100
AcDbLine
 10
45.96466464510815
 20
42.26837747348303
 30
0.0
 11
45.99675043154583
 21
42.30046325992071
 31
0.0
  0
LINE
  5
2CF
330
1F
100
AcDbEntity
  8
0
  6
SLD-Solid
 62
     7
370
    25
100
AcDbLine
 10
29.96507885867058
 20
42.30046325992071
 30
0.0
 11
29.99357885867072
 21
42.27196325992058
 31
0.0
  0
LINE
  5
2D0
330
1F
100
AcDbEntity
  8
0
  6
SLD-Solid
 62
     7
370
    25
100
AcDbLine
 10
45.98091464510834
 20
12.29962747348301
 30
0.0
 11
45.99816464510825
 21
12.28237747348309
 31
0.0
  0
LINE
  5
2D1
330
1F
100
AcDbEntity
  8
0
  6
SLD-Solid
 62
     7
370
    25
100
AcDbLine
 10
45.99816464510825
 20
42.29904904635834
 30
0.0
 11
45.96466464510815
 21
42.26554904635823
 31
0.0
  0
LINE
  5
2D2
330
1F
100
AcDbEntity
  8
0
  6
SLD-Solid
 62
     7
370
    25
100
AcDbLine
 10
29.96366464510815
 20
12.28237747348298
 30
0.0
 11
29.96466464510814
 21
12.28337747348297
 31
0.0
  0
LINE
  5
2D3
330
1F
100
AcDbEntity
  8
0
  6
SLD-Solid
 62
     7
370
    25
100
AcDbLine
 10
29.99075043154592
 20
42.27196325992058
 30
0.0
 11
29.96366464510815
 21
42.29904904635834
 31
0.0
  0
LINE
  5
2D4
330
1F
100
AcDbEntity
  8
0
  6
SLD-Solid
 62
     8
370
    25
100
AcDbLine
 10
45.99816464510825
 20
42.29904904635834
 30
0.0
 11
45.9981646451082
 21
42.25450131914359
 31
0.0
  0
LINE
  5
2D5
330
1F
100
AcDbEntity
  8
0
  6
SLD-Solid
 62
     8
370
    25
100
AcDbLine
 10
45.99816464510831
 20
12.32692520069784
 30
0.0
 11
45.99816464510825
 21
12.28237747348309
 31
0.0
  0
LINE
  5
2D6
330
1F
100
AcDbEntity
  8
0
  6
SLD-Solid
 62
     8
370
    25
100
AcDbLine
 10
45.99675043154595
 20
12.28096325992066
 30
0.0
 11
45.98091464510834
 21
12.28096325992066
 31
0.0
  0
LINE
  5
2D7
330
1F
100
AcDbEntity
  8
0
  6
SLD-Solid
 62
     8
370
    25
100
AcDbLine
 10
29.96507885867058
 20
42.30046325992071
 30
0.0
 11
30.00962658588533
 21
42.30046325992071
 31
0.0
  0
LINE
  5
2D8
330
1F
100
AcDbEntity
  8
0
  6
SLD-Solid
 62
     8
370
    25
100
AcDbLine
 10
45.95220270433108
 20
42.30046325992071
 30
0.0
 11
45.99675043154583
 21
42.30046325992071
 31
0.0
  0
LINE
  5
2D9
330
1F
100
AcDbEntity
  8
0
  6
SLD-Solid
 62
     8
370
    25
100
AcDbLine
 10
29.96366464510815
 20
12.28237747348298
 30
0.0
 11
29.9636646451081
 21
12.32692520069773
 31
0.0
  0
LINE
  5
2DA
330
1F
100
AcDbEntity
  8
0
  6
SLD-Solid
 62
     8
370
    25
100
AcDbLine
 10
29.9636646451082
 20
42.25450131914359
 30
0.0
 11
29.96366464510815
 21
42.29904904635834
 31
0.0
  0
DIMENSION
  5
2DB
330
1F
100
AcDbEntity
  8
DIMS
100
AcDbDimension
  2
_D_4
 10
31.24792218078998
 20
37.83023379345055
 30
0.0
 11
38.30594723617119
 21
43.32237926814702
 31
0.0
 70
    35
  1
<> mounting hole (4)
 71
     1
 42
-1.0
  3
SLDDIMSTYLE3
100
AcDbDiametricDimension
 15
31.33890710942647
 25
38.0083397808879
 35
0.0
 40
0.0
  0
DIMENSION
  5
2E9
330
1F
100
AcDbEntity
  8
DIMS
100
AcDbDimension
  2
_D_5
 10
44.66841464510822
 20
44.63082782684969
 30
0.0
 11
37.98091464510822
 21
44.63082782684969
 31
0.0
 70
    32
  1
<>
 71
     2
 42
-1.0
  3
SLDDIMSTYLE1
100
AcDbAlignedDimension
 13
31.29341464510822
 23
37.91928678716922
 33
0.0
 14
44.66841464510822
 24
37.91928678716923
 34
0.0
100
AcDbRotatedDimension
  0
DIMENSION
  5
2F8
330
1F
100
AcDbEntity
  8
DIMS
100
AcDbDimension
  2
_D_6
 10
47.6198677947146
 20
16.64528678716923
 30
0.0
 11
47.61986779471461
 21
27.60690797604163
 31
0.0
 70
    32
  1
<>
 71
     2
 42
-1.0
  3
SLDDIMSTYLE1
100
AcDbAlignedDimension
 13
44.66841464510822
 23
37.91928678716923
 33
0.0
 14
44.66841464510821
 24
16.64528678716923
 34
0.0
 50
90.0000000000002
100
AcDbRotatedDimension
  0
DIMENSION
  5
307
330
1F
100
AcDbEntity
  8
DIMS
100
AcDbDimension
  2
_D_7
 10
47.61986779471462
 20
12.25196325992073
 30
0.0
 11
47.61986779471461
 21
14.72289389481434
 31
0.0
 70
    32
  1
<>
 71
     2
 42
-1.0
  3
SLDDIMSTYLE1
100
AcDbAlignedDimension
 13
44.66841464510821
 23
16.64528678716923
 33
0.0
 14
45.98091464510834
 24
12.25196325992072
 34
0.0
 50
90.0000000000002
100
AcDbRotatedDimension
  0
DIMENSION
  5
316
330
1F
100
AcDbEntity
  8
DIMS
100
AcDbDimension
  2
_D_8
 10
47.61986779471462
 20
42.34736325992071
 30
0.0
 11
47.61986779471462
 21
39.91208486382097
 31
0.0
 70
    32
  1
<>
 71
     2
 42
-1.0
  3
SLDDIMSTYLE1
100
AcDbAlignedDimension
 13
44.66841464510822
 23
37.91928678716923
 33
0.0
 14
46.01216464510821
 24
42.34736325992071
 34
0.0
 50
90.0000000000002
100
AcDbRotatedDimension
  0
MTEXT
  5
325
330
1F
100
AcDbEntity
  8
NOTES
100
AcDbMText
 10
29.8617238105775
 20
11.90607863663029
 30
0.0
 40
0.5
 41
0.0
 71
     1
 72
     1
  1
Back view
  7
SLDTEXTSTYLE1
 73
     1
 44
1.0
  0
LINE
  5
326
330
1F
100
AcDbEntity
  8
0
  6
SLD-Solid
 62
     7
370
    25
100
AcDbLine
 10
65.90397156196423
 20
35.09100033096308
 30
0.0
 11
65.89606658085502
 21
35.09452598267428
 31
0.0
  0
LINE
  5
327
330
1F
100
AcDbEntity
  8
0
  6
SLD-Solid
 62
     7
370
    25
100
AcDbLine
 10
65.87361732194081
 20
35.13339616057402
 30
0.0
 11
65.87451913739794
 21
35.14202438700683
 31
0.0
  0
LINE
  5
328
330
1F
100
AcDbEntity
  8
0
  6
SLD-Solid
 62
     7
370
    25
100
AcDbLine
 10
65.90993130922168
 20
10.60225396686047
 30
0.0
 11
65.90993130922168
 21
35.08830264019318
 31
0.0
  0
LINE
  5
329
330
1F
100
AcDbEntity
  8
0
  6
SLD-Solid
 62
     7
370
    25
100
AcDbLine
 10
65.87519935046744
 20
35.14850207709305
 30
0.0
 11
63.49087008278509
 21
36.52494606489199
 31
0.0
  0
LINE
  5
32A
330
1F
100
AcDbEntity
  8
0
  6
SLD-Solid
 62
     7
370
    25
100
AcDbLine
 10
56.93810104603297
 20
40.30777910994363
 30
0.0
 11
54.55969178912022
 21
41.68080554826987
 31
0.0
  0
LINE
  5
32B
330
1F
100
AcDbEntity
  8
0
  6
SLD-Solid
 62
     7
370
    25
100
AcDbLine
 10
54.19377070024893
 20
41.48776085761119
 30
0.0
 11
54.19377070024893
 21
16.96533714693092
 31
0.0
  0
LINE
  5
32C
330
1F
100
AcDbEntity
  8
0
  6
SLD-Solid
 62
     7
370
    25
100
AcDbLine
 10
54.49857946819748
 20
41.69235991967101
 30
0.0
 11
54.2143225421605
 21
41.52826188919464
 31
0.0
  0
LINE
  5
32D
330
1F
100
AcDbEntity
  8
0
  6
SLD-Solid
 62
     7
370
    25
100
AcDbLine
 10
54.21277230188304
 20
16.93242696528686
 30
0.0
 11
65.54916999127202
 21
10.38806387988764
 31
0.0
  0
LINE
  5
32E
330
1F
100
AcDbEntity
  8
0
  6
SLD-Solid
 62
     7
370
    25
100
AcDbLine
 10
65.53911368628064
 20
34.91322290355625
 30
0.0
 11
65.53711574326633
 21
34.91437629150786
 31
0.0
  0
LINE
  5
32F
330
1F
100
AcDbEntity
  8
0
  6
SLD-Solid
 62
     7
370
    25
100
AcDbLine
 10
54.24385268076435
 20
16.97347167786308
 30
0.0
 11
54.24385268076435
 21
16.97116452701341
 31
0.0
  0
LINE
  5
330
330
1F
100
AcDbEntity
  8
0
  6
SLD-Solid
 62
     7
370
    25
100
AcDbLine
 10
63.04291268915429
 20
36.78885184750868
 30
0.0
 11
63.52303970808154
 21
36.50599392734264
 31
0.0
  0
LINE
  5
331
330
1F
100
AcDbEntity
  8
0
  6
SLD-Solid
 62
     7
370
    25
100
AcDbLine
 10
57.38605843966193
 20
40.0544842947995
 30
0.0
 11
63.04291268915429
 21
36.78885184750868
 31
0.0
  0
LINE
  5
332
330
1F
100
AcDbEntity
  8
0
  6
SLD-Solid
 62
     7
370
    25
100
AcDbLine
 10
56.905931420734
 20
40.32596923116778
 30
0.0
 11
57.38605843966193
 21
40.0544842947995
 31
0.0
  0
SPLINE
  5
333
330
1F
100
AcDbEntity
  8
0
  6
SLD-Solid
 62
     7
370
    25
100
AcDbSpline
210
0.0
220
0.0
230
1.0
 70
    12
 71
     3
 72
    11
 73
     7
 74
     0
 42
0.00000001
 43
0.00000001
 40
0.0
 40
0.0
 40
0.0
 40
0.0
 40
0.2499999999998307
 40
0.499999999999544
 40
0.7499999999992444
 40
1.0
 40
1.0
 40
1.0
 40
1.0
 10
65.61193769122238
 20
10.39455127496958
 30
0.0
 41
1.0
 10
65.60709357269563
 20
10.39337923808714
 30
0.0
 41
1.0
 10
65.59740533564216
 20
10.39103516432225
 30
0.0
 41
1.0
 10
65.57877438318472
 20
10.39228075411687
 30
0.0
 41
1.0
 10
65.56014343072725
 20
10.39732833155059
 30
0.0
 41
1.0
 10
65.55045519367377
 20
10.4038678501344
 30
0.0
 41
1.0
 10
65.54561107514704
 20
10.40713760942631
 30
0.0
 41
1.0
  0
LINE
  5
334
330
1F
100
AcDbEntity
  8
0
  6
SLD-Solid
 62
     7
370
    25
100
AcDbLine
 10
65.545611075147
 20
34.91697498564989
 30
0.0
 11
65.54561107514704
 21
10.40713760942631
 31
0.0
  0
SPLINE
  5
335
330
1F
100
AcDbEntity
  8
0
  6
SLD-Solid
 62
     7
370
    25
100
AcDbSpline
210
0.0
220
0.0
230
1.0
 70
    12
 71
     3
 72
    11
 73
     7
 74
     0
 42
0.00000001
 43
0.00000001
 40
0.0
 40
0.0
 40
0.0
 40
0.0
 40
0.2500000000000093
 40
0.5000000000000087
 40
0.7499999999999966
 40
1.0
 40
1.0
 40
1.0
 40
1.0
 10
65.58867387812126
 20
34.96985542625722
 30
0.0
 41
1.0
 10
65.58341996502845
 20
34.96729545197234
 30
0.0
 41
1.0
 10
65.57291213884284
 20
34.96217550340259
 30
0.0
 41
1.0
 10
65.55922530153946
 20
34.94856446734862
 30
0.0
 41
1.0
 10
65.54883143891706
 20
34.93305181949498
 30
0.0
 41
1.0
 10
65.54601786307035
 20
34.92348863079991
 30
0.0
 41
1.0
 10
65.54461107514699
 20
34.91870703645238
 30
0.0
 41
1.0
  0
LINE
  5
336
330
1F
100
AcDbEntity
  8
0
  6
SLD-Solid
 62
     7
370
    25
100
AcDbLine
 10
54.20850739221132
 20
41.46290039553883
 30
0.0
 11
65.54461107514699
 21
34.91870703645238
 31
0.0
  0
SPLINE
  5
337
330
1F
100
AcDbEntity
  8
0
  6
SLD-Solid
 62
     7
370
    25
100
AcDbSpline
210
0.0
220
0.0
230
1.0
 70
    12
 71
     3
 72
    11
 73
     7
 74
     0
 42
0.00000001
 43
0.00000001
 40
0.0
 40
0.0
 40
0.0
 40
0.0
 40
0.2500000000000254
 40
0.5000000000000135
 40
0.7500000000000087
 40
1.0
 40
1.0
 40
1.0
 40
1.0
 10
54.20850739221132
 20
41.46290039553883
 30
0.0
 41
1.0
 10
54.20809759764524
 20
41.4687306806355
 30
0.0
 41
1.0
 10
54.20727800851307
 20
41.48039125082884
 30
0.0
 41
1.0
 10
54.21222212366716
 20
41.49904997092992
 30
0.0
 41
1.0
 10
54.22045921350225
 20
41.5158070792313
 30
0.0
 41
1.0
 10
54.22733387470899
 20
41.52302440929934
 30
0.0
 41
1.0
 10
54.23077120531237
 20
41.52663307433335
 30
0.0
 41
1.0
  0
ARC
  5
338
330
1F
100
AcDbEntity
  8
0
  6
SLD-Solid
 62
     7
370
    25
100
AcDbCircle
 10
65.84568600752431
 20
35.09136092854369
 30
0.0
 40
0.0505608781691081
100
AcDbArc
 50
2.605478485647662
 51
57.39452165998684
  0
LINE
  5
339
330
1F
100
AcDbEntity
  8
0
  6
SLD-Solid
 62
     7
370
    25
100
AcDbLine
 10
65.58867387812126
 20
34.96985542625722
 30
0.0
 11
65.87293080415824
 21
35.13395345673359
 31
0.0
  0
LINE
  5
33A
330
1F
100
AcDbEntity
  8
0
  6
SLD-Solid
 62
     7
370
    25
100
AcDbLine
 10
65.89619461725933
 20
10.55864930544597
 30
0.0
 11
65.61193769122238
 21
10.39455127496958
 31
0.0
  0
LINE
  5
33B
330
1F
100
AcDbEntity
  8
0
  6
SLD-Solid
 62
     7
370
    25
100
AcDbLine
 10
65.54561107514704
 20
10.40713760942631
 30
0.0
 11
65.23236277108143
 21
10.94969958586041
 31
0.0
  0
LINE
  5
33C
330
1F
100
AcDbEntity
  8
0
  6
SLD-Solid
 62
     7
370
    25
100
AcDbLine
 10
65.23236277108136
 20
34.73608180275323
 30
0.0
 11
65.23236277108143
 21
10.94969958586041
 31
0.0
  0
LINE
  5
33D
330
1F
100
AcDbEntity
  8
0
  6
SLD-Solid
 62
     7
370
    25
100
AcDbLine
 10
65.23236277108136
 20
34.73608180275323
 30
0.0
 11
65.545611075147
 21
34.91697498564989
 31
0.0
  0
LINE
  5
33E
330
1F
100
AcDbEntity
  8
0
  6
SLD-Solid
 62
     7
370
    25
100
AcDbLine
 10
65.23136277108135
 20
34.73781385355573
 30
0.0
 11
65.2440199824646
 21
34.74512070615654
 31
0.0
  0
LINE
  5
33F
330
1F
100
AcDbEntity
  8
0
  6
SLD-Solid
 62
     7
370
    25
100
AcDbLine
 10
65.54461107514699
 20
34.91870703645238
 30
0.0
 11
65.23136277108135
 21
34.73781385355573
 31
0.0
  0
LINE
  5
340
330
1F
100
AcDbEntity
  8
0
  6
SLD-Solid
 62
     7
370
    25
100
AcDbLine
 10
65.55726828653023
 20
34.92601388905319
 30
0.0
 11
65.2440199824646
 21
34.74512070615654
 31
0.0
  0
LINE
  5
341
330
1F
100
AcDbEntity
  8
0
  6
SLD-Solid
 62
     7
370
    25
100
AcDbLine
 10
54.52175569627695
 20
40.92033841910471
 30
0.0
 11
65.23136277108135
 21
34.73781385355573
 31
0.0
  0
LINE
  5
342
330
1F
100
AcDbEntity
  8
0
  6
SLD-Solid
 62
     7
370
    25
100
AcDbLine
 10
54.52175569627695
 20
40.92033841910471
 30
0.0
 11
54.20850739221132
 21
41.46290039553883
 31
0.0
  0
LINE
  5
343
330
1F
100
AcDbEntity
  8
0
  6
SLD-Solid
 62
     7
370
    25
100
AcDbLine
 10
65.89619461725928
 20
35.09365935058306
 30
0.0
 11
65.90227282605633
 21
35.09158901676053
 31
0.0
  0
LINE
  5
344
330
1F
100
AcDbEntity
  8
0
  6
SLD-Solid
 62
     7
370
    25
100
AcDbLine
 10
65.90708813299983
 20
35.08994884723627
 30
0.0
 11
65.90923598915697
 21
35.08835594619908
 31
0.0
  0
LINE
  5
345
330
1F
100
AcDbEntity
  8
0
  6
SLD-Solid
 62
     7
370
    25
100
AcDbLine
 10
65.87480580287287
 20
35.14792698571052
 30
0.0
 11
65.87540147424339
 21
35.14818596169611
 31
0.0
  0
SPLINE
  5
346
330
1F
100
AcDbEntity
  8
0
  6
SLD-Solid
 62
     7
370
    25
100
AcDbSpline
210
0.0
220
0.0
230
1.0
 70
    12
 71
     3
 72
     9
 73
     5
 74
     0
 42
0.00000001
 43
0.00000001
 40
0.0
 40
0.0
 40
0.0
 40
0.0
 40
0.0179084095276377
 40
0.9999999999999999
 40
0.9999999999999999
 40
0.9999999999999999
 40
0.9999999999999999
 10
65.87446684832588
 20
35.1417966908134
 30
0.0
 41
1.0
 10
65.87446341665732
 20
35.14177308667451
 30
0.0
 41
1.0
 10
65.87427179335518
 20
35.14045503892429
 30
0.0
 41
1.0
 10
65.87359524076629
 20
35.13717487658368
 30
0.0
 41
1.0
 10
65.87293080415824
 20
35.13395345673359
 30
0.0
 41
1.0
  0
SPLINE
  5
347
330
1F
100
AcDbEntity
  8
0
  6
SLD-Solid
 62
     7
370
    25
100
AcDbSpline
210
0.0
220
0.0
230
1.0
 70
    12
 71
     3
 72
    10
 73
     6
 74
     0
 42
0.00000001
 43
0.00000001
 40
0.0
 40
0.0
 40
0.0
 40
0.0
 40
0.108544217114844
 40
0.6634809090685364
 40
1.0
 40
1.0
 40
1.0
 40
1.0
 10
65.90923598915694
 20
10.60220066085457
 30
0.0
 41
1.0
 10
65.90945166373234
 20
10.60055894290915
 30
0.0
 41
1.0
 10
65.9107699832813
 20
10.59052387569124
 30
0.0
 41
1.0
 10
65.90573190274728
 20
10.57523691868394
 30
0.0
 41
1.0
 10
65.8988082526934
 20
10.56319504057996
 30
0.0
 41
1.0
 10
65.89619461725933
 20
10.55864930544597
 30
0.0
 41
1.0
  0
SPLINE
  5
348
330
1F
100
AcDbEntity
  8
0
  6
SLD-Solid
 62
     7
370
    25
100
AcDbSpline
210
0.0
220
0.0
230
1.0
 70
    12
 71
     3
 72
     9
 73
     5
 74
     0
 42
0.00000001
 43
0.00000001
 40
0.0
 40
0.0
 40
0.0
 40
0.0
 40
0.5539763854889546
 40
0.9999999999999999
 40
0.9999999999999999
 40
0.9999999999999999
 40
0.9999999999999999
 10
54.51502813134935
 20
41.69073110480972
 30
0.0
 41
1.0
 10
54.52384954825778
 20
41.69070792185769
 30
0.0
 41
1.0
 10
54.53977336223161
 20
41.69066607359007
 30
0.0
 41
1.0
 10
54.55333933752028
 20
41.68341183417964
 30
0.0
 41
1.0
 10
54.55939008285291
 20
41.68017627209727
 30
0.0
 41
1.0
  0
LINE
  5
349
330
1F
100
AcDbEntity
  8
0
  6
SLD-Solid
 62
     7
370
    25
100
AcDbLine
 10
54.20750739221128
 20
41.46232292016055
 30
0.0
 11
54.52075569627696
 21
40.9197609437264
 31
0.0
  0
LINE
  5
34A
330
1F
100
AcDbEntity
  8
0
  6
SLD-Solid
 62
     7
370
    25
100
AcDbLine
 10
54.52075569627688
 20
17.13337872683375
 30
0.0
 11
54.52075569627696
 21
40.9197609437264
 31
0.0
  0
LINE
  5
34B
330
1F
100
AcDbEntity
  8
0
  6
SLD-Solid
 62
     7
370
    25
100
AcDbLine
 10
54.52075569627688
 20
17.13337872683375
 30
0.0
 11
54.20750739221125
 21
16.95248554393709
 31
0.0
  0
LINE
  5
34C
330
1F
100
AcDbEntity
  8
0
  6
SLD-Solid
 62
     7
370
    25
100
AcDbLine
 10
54.52075569627696
 20
40.9197609437264
 30
0.0
 11
54.5217558588183
 21
40.9203383252716
 31
0.0
  0
LINE
  5
34D
330
1F
100
AcDbEntity
  8
0
  6
SLD-Solid
 62
     7
370
    25
100
AcDbLine
 10
54.20750739221128
 20
41.46232292016055
 30
0.0
 11
54.20850747347536
 21
41.46290025478538
 31
0.0
  0
SPLINE
  5
34E
330
1F
100
AcDbEntity
  8
0
  6
SLD-Solid
 62
     7
370
    25
100
AcDbSpline
210
0.0
220
0.0
230
1.0
 70
    12
 71
     3
 72
    11
 73
     7
 74
     0
 42
0.00000001
 43
0.00000001
 40
0.0
 40
0.0
 40
0.0
 40
0.0
 40
0.2500000000001796
 40
0.5000000000004727
 40
0.7500000000007754
 40
1.0
 40
1.0
 40
1.0
 40
1.0
 10
54.20750739221132
 20
41.51319879506181
 30
0.0
 41
1.0
 10
54.20366026704185
 20
41.50935348375571
 30
0.0
 41
1.0
 10
54.1959660167029
 20
41.50166286114352
 30
0.0
 41
1.0
 10
54.19267304202194
 20
41.48776085761115
 30
0.0
 41
1.0
 10
54.19596601670294
 20
41.47385885407883
 30
0.0
 41
1.0
 10
54.20366026704184
 20
41.46616823146663
 30
0.0
 41
1.0
 10
54.20750739221128
 20
41.46232292016055
 30
0.0
 41
1.0
  0
LINE
  5
34F
330
1F
100
AcDbEntity
  8
0
  6
SLD-Solid
 62
     7
370
    25
100
AcDbLine
 10
54.21720103364139
 20
41.50760277497886
 30
0.0
 11
54.20750739221132
 21
41.51319879506181
 31
0.0
  0
SPLINE
  5
350
330
1F
100
AcDbEntity
  8
0
  6
SLD-Solid
 62
     7
370
    25
100
AcDbSpline
210
0.0
220
0.0
230
1.0
 70
    12
 71
     3
 72
     9
 73
     5
 74
     0
 42
0.00000001
 43
0.00000001
 40
0.0
 40
0.0
 40
0.0
 40
0.0
 40
0.5000000000003975
 40
1.0
 40
1.0
 40
1.0
 40
1.0
 10
54.20750739221125
 20
16.95248554393709
 30
0.0
 41
1.0
 10
54.20356879552288
 20
16.95423313283373
 30
0.0
 41
1.0
 10
54.19569160214616
 20
16.957728310627
 30
0.0
 41
1.0
 10
54.19441100088133
 20
16.96280086816297
 30
0.0
 41
1.0
 10
54.19377070024893
 20
16.96533714693094
 30
0.0
 41
1.0
  0
LINE
  5
351
330
1F
100
AcDbEntity
  8
0
  6
SLD-Solid
 62
     7
370
    25
100
AcDbLine
 10
54.53341290766012
 20
17.14068557943456
 30
0.0
 11
54.52075569627688
 21
17.13337872683375
 31
0.0
  0
LINE
  5
352
330
1F
100
AcDbEntity
  8
0
  6
SLD-Solid
 62
     7
370
    25
100
AcDbLine
 10
54.53341290766012
 20
17.14068557943456
 30
0.0
 11
54.53341290766019
 21
40.91360885421599
 31
0.0
  0
ARC
  5
353
330
1F
100
AcDbEntity
  8
0
  6
SLD-Solid
 62
     7
370
    25
100
AcDbCircle
 10
54.22168973889965
 20
41.51549939983983
 30
0.0
 40
0.0143677325954025
100
AcDbArc
 50
50.79671476423451
 51
189.2140369904232
  0
ARC
  5
354
330
1F
100
AcDbEntity
  8
0
  6
SLD-Solid
 62
     7
370
    25
100
AcDbCircle
 10
54.50539106154481
 20
41.6772789090822
 30
0.0
 40
0.0165479510607568
100
AcDbArc
 50
54.38242252395882
 51
114.3071190469086
  0
LINE
  5
355
330
1F
100
AcDbEntity
  8
0
  6
SLD-Solid
 62
     7
370
    25
100
AcDbLine
 10
65.2207561693635
 20
10.95524517132092
 30
0.0
 11
65.5340044734292
 21
10.41268319488668
 31
0.0
  0
LINE
  5
356
330
1F
100
AcDbEntity
  8
0
  6
SLD-Solid
 62
     7
370
    25
100
AcDbLine
 10
65.23236277108143
 20
10.96194551987175
 30
0.0
 11
65.2207561693635
 21
10.95524517132092
 31
0.0
  0
LINE
  5
357
330
1F
100
AcDbEntity
  8
0
  6
SLD-Solid
 62
     7
370
    25
100
AcDbLine
 10
65.5340044734292
 20
10.41268319488668
 30
0.0
 11
65.54030828651995
 21
10.41632230872328
 31
0.0
  0
LINE
  5
358
330
1F
100
AcDbEntity
  8
0
  6
SLD-Solid
 62
     7
370
    25
100
AcDbLine
 10
54.20850739221124
 20
16.95075349313456
 30
0.0
 11
54.52175569627687
 21
17.13164667603125
 31
0.0
  0
LINE
  5
359
330
1F
100
AcDbEntity
  8
0
  6
SLD-Solid
 62
     7
370
    25
100
AcDbLine
 10
65.2207561693635
 20
10.95524517132092
 30
0.0
 11
54.52175569627687
 21
17.13164667603125
 31
0.0
  0
SPLINE
  5
35A
330
1F
100
AcDbEntity
  8
0
  6
SLD-Solid
 62
     7
370
    25
100
AcDbSpline
210
0.0
220
0.0
230
1.0
 70
    12
 71
     3
 72
    10
 73
     6
 74
     0
 42
0.00000001
 43
0.00000001
 40
0.0
 40
0.0
 40
0.0
 40
0.0
 40
0.0001021259030249
 40
0.5000510629527014
 40
1.0
 40
1.0
 40
1.0
 40
1.0
 10
54.21277259392305
 20
16.93242763858882
 30
0.0
 41
1.0
 10
54.21277204685645
 20
16.93242767378185
 30
0.0
 41
1.0
 10
54.21009338037506
 20
16.932599993512
 30
0.0
 41
1.0
 10
54.20748413910374
 20
16.93860505678313
 30
0.0
 41
1.0
 10
54.20816630784208
 20
16.94670401435075
 30
0.0
 41
1.0
 10
54.20850739221124
 20
16.95075349313456
 30
0.0
 41
1.0
  0
SPLINE
  5
35B
330
1F
100
AcDbEntity
  8
0
  6
SLD-Solid
 62
     7
370
    25
100
AcDbSpline
210
0.0
220
0.0
230
1.0
 70
    12
 71
     3
 72
    11
 73
     7
 74
     0
 42
0.00000001
 43
0.00000001
 40
0.0
 40
0.0
 40
0.0
 40
0.0
 40
0.250000000000335
 40
0.5000000000002034
 40
0.7500000000001182
 40
1.0
 40
1.0
 40
1.0
 40
1.0
 10
65.5340044734292
 20
10.41268319488668
 30
0.0
 41
1.0
 10
65.53541126135255
 20
10.4074284618042
 30
0.0
 41
1.0
 10
65.53822483719927
 20
10.39691899563925
 30
0.0
 41
1.0
 10
65.54861869982165
 20
10.38711470163682
 30
0.0
 41
1.0
 10
65.562305537125
 20
10.38301400707315
 30
0.0
 41
1.0
 10
65.57281336331059
 20
10.3858313733822
 30
0.0
 41
1.0
 10
65.57806727640339
 20
10.38724005653673
 30
0.0
 41
1.0
  0
LINE
  5
35C
330
1F
100
AcDbEntity
  8
0
  6
SLD-Solid
 62
     7
370
    25
100
AcDbLine
 10
54.52175569627687
 20
17.13164667603125
 30
0.0
 11
54.53441290766011
 21
17.13895352863207
 31
0.0
  0
LINE
  5
35D
330
1F
100
AcDbEntity
  8
0
  6
SLD-Solid
 62
     7
370
    25
100
AcDbLine
 10
65.23236277108143
 20
10.96315852797171
 30
0.0
 11
54.53441290766011
 21
17.13895352863207
 31
0.0
  0
LINE
  5
35E
330
1F
100
AcDbEntity
  8
0
  6
SLD-Solid
 62
     7
370
    25
100
AcDbLine
 10
65.58703144657339
 20
10.39241496182488
 30
0.0
 11
65.57806727640339
 21
10.38724005653673
 31
0.0
  0
LINE
  5
35F
330
1F
100
AcDbEntity
  8
0
  6
SLD-Solid
 62
     7
370
    25
100
AcDbLine
 10
54.20750739221125
 20
16.95248554393709
 30
0.0
 11
54.22016460359452
 21
16.95979239653789
 31
0.0
  0
LINE
  5
360
330
1F
100
AcDbEntity
  8
0
  6
SLD-Solid
 62
     7
370
    25
100
AcDbLine
 10
54.53341290766012
 20
17.14068557943456
 30
0.0
 11
54.22016460359452
 21
16.95979239653789
 31
0.0
  0
LWPOLYLINE
  5
361
330
1F
100
AcDbEntity
  8
0
  6
SLD-Solid
 62
     7
370
    25
100
AcDbPolyline
 90
        3
 70
   128
 43
0.0
 10
54.22278633578433
 20
16.96130638232609
 10
54.22327120531229
 20
16.96042777114793
 10
54.22378501620831
 20
16.95957594483206
  0
LWPOLYLINE
  5
362
330
1F
100
AcDbEntity
  8
0
  6
SLD-Solid
 62
     7
370
    25
100
AcDbPolyline
 90
        3
 70
   128
 43
0.0
 10
54.21382669105203
 20
16.95613359750687
 10
54.2143212053123
 20
16.95525936651204
 10
54.21482602936158
 20
16.95440235051343
  0
LINE
  5
363
330
1F
100
AcDbEntity
  8
0
  6
SLD-Solid
 62
     8
370
    25
100
AcDbLine
 10
63.03422003992805
 20
36.7838336879249
 30
0.0
 11
63.04291268915429
 21
36.78885184750868
 31
0.0
  0
LINE
  5
364
330
1F
100
AcDbEntity
  8
0
  6
SLD-Solid
 62
     8
370
    25
100
AcDbLine
 10
57.37736579043573
 20
40.04946613521575
 30
0.0
 11
57.38605843966193
 21
40.0544842947995
 31
0.0
  0
INSERT
  5
36A
330
1F
100
AcDbEntity
  8
NOTES
100
AcDbBlockReference
  2
SW_NOTE_0_2
 10
57.30851138976229
 20
11.85543760904679
 30
0.0
  0
MTEXT
  5
36E
330
1F
100
AcDbEntity
  8
NOTES
100
AcDbMText
 10
60.2661315570167
 20
4.98650087456716
 30
0.0
 40
0.2916666666666666
 41
0.0
 71
     1
 72
     1
  1
FROST PRODUCTS LTD.
  7
SLDTEXTSTYLE0
 73
     1
 44
1.0
  0
MTEXT
  5
36F
330
1F
100
AcDbEntity
  8
NOTES
100
AcDbMText
 10
60.2661315570167
 20
4.5610085129417
 30
0.0
 40
0.2291666666666666
 41
0.0
 71
     1
 72
     1
  1
5280 JOHN LUCAS DRIVE, BURLINGTON, ON, L7L 5Z9
  7
SLDTEXTSTYLE0
 73
     1
 44
1.0
  0
ENDSEC
  0
SECTION
  2
OBJECTS
  0
DICTIONARY
  5
C
330
0
100
AcDbDictionary
281
     1
  3
ACAD_COLOR
350
6C
  3
ACAD_GROUP
350
D
  3
ACAD_LAYOUT
350
1A
  3
ACAD_MATERIAL
350
6B
  3
ACAD_MLINESTYLE
350
17
  3
ACAD_PLOTSETTINGS
350
19
  3
ACAD_PLOTSTYLENAME
350
E
  3
ACAD_SCALELIST
350
47
  3
ACAD_TABLESTYLE
350
92
  3
AcDbVariableDictionary
350
59
  0
DICTIONARY
  5
6C
102
{ACAD_REACTORS
330
C
102
}
330
C
100
AcDbDictionary
281
     1
  0
DICTIONARY
  5
D
102
{ACAD_REACTORS
330
C
102
}
330
C
100
AcDbDictionary
281
     1
  0
DICTIONARY
  5
1A
102
{ACAD_REACTORS
330
C
102
}
330
C
100
AcDbDictionary
281
     1
  3
Layout1
350
74
  3
Layout2
350
26
  3
Model
350
22
  0
DICTIONARY
  5
6B
102
{ACAD_REACTORS
330
C
102
}
330
C
100
AcDbDictionary
281
     1
  0
DICTIONARY
  5
17
102
{ACAD_REACTORS
330
C
102
}
330
C
100
AcDbDictionary
281
     1
  3
Standard
350
18
  0
DICTIONARY
  5
19
102
{ACAD_REACTORS
330
C
102
}
330
C
100
AcDbDictionary
281
     1
  0
ACDBDICTIONARYWDFLT
  5
E
102
{ACAD_REACTORS
330
C
102
}
330
C
100
AcDbDictionary
281
     1
  3
Normal
350
F
100
AcDbDictionaryWithDefault
340
F
  0
DICTIONARY
  5
47
102
{ACAD_REACTORS
330
C
102
}
330
C
100
AcDbDictionary
281
     1
  3
A0
350
48
  3
A1
350
49
  3
A2
350
4A
  3
A3
350
4B
  3
A4
350
4C
  3
A5
350
4D
  3
A6
350
4E
  3
A7
350
4F
  3
A8
350
50
  3
A9
350
51
  3
B0
350
52
  3
B1
350
53
  3
B2
350
54
  3
B3
350
55
  3
B4
350
56
  3
B5
350
57
  3
B6
350
58
  3
B7
350
380
  3
B8
350
381
  3
B9
350
5B
  3
C0
350
5C
  3
C1
350
5D
  3
C2
350
382
  3
C3
350
5F
  3
C4
350
60
  3
C5
350
61
  3
C6
350
62
  3
C7
350
63
  3
C8
350
64
  3
C9
350
65
  3
D0
350
66
  3
D1
350
67
  3
D2
350
68
  0
DICTIONARY
  5
92
102
{ACAD_REACTORS
330
C
102
}
330
C
100
AcDbDictionary
281
     1
  3
Standard
350
93
  0
DICTIONARY
  5
59
102
{ACAD_REACTORS
330
C
102
}
330
C
100
AcDbDictionary
281
     1
  3
CTABLESTYLE
350
98
  3
HIDETEXT
350
36D
  0
LAYOUT
  5
74
102
{ACAD_REACTORS
330
1A
102
}
330
1A
100
AcDbPlotSettings
  1

  2
none_device
  4

  6

 40
0.0
 41
0.0
 42
0.0
 43
0.0
 44
0.0
 45
0.0
 46
0.0
 47
0.0
 48
0.0
 49
0.0
140
0.0
141
0.0
142
1.0
143
1.0
 70
   688
 72
     0
 73
     0
 74
     5
  7

 75
    16
 76
     0
 77
     2
 78
   300
147
1.0
148
0.0
149
0.0
100
AcDbLayout
  1
Layout1
 70
     1
 71
     1
 10
0.0
 20
0.0
 11
12.0
 21
9.0
 12
0.0
 22
0.0
 32
0.0
 14
1.000000000000000E+20
 24
1.000000000000000E+20
 34
1.000000000000000E+20
 15
-1.000000000000000E+20
 25
-1.000000000000000E+20
 35
-1.000000000000000E+20
146
0.0
 13
0.0
 23
0.0
 33
0.0
 16
1.0
 26
0.0
 36
0.0
 17
0.0
 27
1.0
 37
0.0
 76
     0
330
73
  0
LAYOUT
  5
26
102
{ACAD_REACTORS
330
1A
102
}
330
1A
100
AcDbPlotSettings
  1

  2
none_device
  4

  6

 40
0.0
 41
0.0
 42
0.0
 43
0.0
 44
0.0
 45
0.0
 46
0.0
 47
0.0
 48
0.0
 49
0.0
140
0.0
141
0.0
142
1.0
143
1.0
 70
   688
 72
     0
 73
     0
 74
     5
  7

 75
    16
 76
     0
 77
     2
 78
   300
147
1.0
148
0.0
149
0.0
100
AcDbLayout
  1
Layout2
 70
     1
 71
     2
 10
0.0
 20
0.0
 11
0.0
 21
0.0
 12
0.0
 22
0.0
 32
0.0
 14
0.0
 24
0.0
 34
0.0
 15
0.0
 25
0.0
 35
0.0
146
0.0
 13
0.0
 23
0.0
 33
0.0
 16
1.0
 26
0.0
 36
0.0
 17
0.0
 27
1.0
 37
0.0
 76
     0
330
23
  0
LAYOUT
  5
22
102
{ACAD_REACTORS
330
1A
102
}
330
1A
100
AcDbPlotSettings
  1

  2
none_device
  4
Letter_(8.50_x_11.00_Inches)
  6

 40
6.35
 41
6.35
 42
6.35000508
 43
6.35000508
 44
215.9
 45
279.4
 46
0.0
 47
0.0
 48
0.0
 49
0.0
140
0.0
141
0.0
142
1.0
143
1.0
 70
 11952
 72
     0
 73
     0
 74
     0
  7

 75
     0
 76
     0
 77
     2
 78
   300
147
1.0
148
0.0
149
0.0
100
AcDbLayout
  1
Model
 70
     1
 71
     0
 10
0.0
 20
0.0
 11
70.0
 21
50.0
 12
0.0
 22
0.0
 32
0.0
 14
0.1653543307086614
 24
0.1653543307086614
 34
-0.7411391670766869
 15
69.83464566929135
 25
49.83464566929134
 35
0.9147626772685735
146
0.0
 13
0.0
 23
0.0
 33
0.0
 16
1.0
 26
0.0
 36
0.0
 17
0.0
 27
1.0
 37
0.0
 76
     0
330
1F
  0
MLINESTYLE
  5
18
102
{ACAD_REACTORS
330
17
102
}
330
17
100
AcDbMlineStyle
  2
Standard
 70
     0
  3

 62
   256
 51
90.0
 52
90.0
 71
     2
 49
0.5
 62
   256
  6
BYLAYER
 49
-0.5
 62
   256
  6
BYLAYER
  0
ACDBPLACEHOLDER
  5
F
102
{ACAD_REACTORS
330
E
102
}
330
E
  0
ACAD_PROXY_OBJECT
  5
48
102
{ACAD_REACTORS
330
47
102
}
330
47
100
AcDbProxyObject
 90
      499
 91
      505
 95
   393239
 70
     0
 93
       41
310
903313A31580
  0
ACAD_PROXY_OBJECT
  5
49
102
{ACAD_REACTORS
330
47
102
}
330
47
100
AcDbProxyObject
 90
      499
 91
      505
 95
   393239
 70
     0
 93
      105
310
903313A324000000000000004000
  0
ACAD_PROXY_OBJECT
  5
4A
102
{ACAD_REACTORS
330
47
102
}
330
47
100
AcDbProxyObject
 90
      499
 91
      505
 95
   393239
 70
     0
 93
      105
310
903313A344000000000000104000
  0
ACAD_PROXY_OBJECT
  5
4B
102
{ACAD_REACTORS
330
47
102
}
330
47
100
AcDbProxyObject
 90
      499
 91
      505
 95
   393239
 70
     0
 93
      105
310
903313A354000000000000144000
  0
ACAD_PROXY_OBJECT
  5
4C
102
{ACAD_REACTORS
330
47
102
}
330
47
100
AcDbProxyObject
 90
      499
 91
      505
 95
   393239
 70
     0
 93
      105
310
903313A384000000000000204000
  0
ACAD_PROXY_OBJECT
  5
4D
102
{ACAD_REACTORS
330
47
102
}
330
47
100
AcDbProxyObject
 90
      499
 91
      505
 95
   393239
 70
     0
 93
      113
310
904313A31304000000000000244000
  0
ACAD_PROXY_OBJECT
  5
4E
102
{ACAD_REACTORS
330
47
102
}
330
47
100
AcDbProxyObject
 90
      499
 91
      505
 95
   393239
 70
     0
 93
      113
310
904313A31364000000000000304000
  0
ACAD_PROXY_OBJECT
  5
4F
102
{ACAD_REACTORS
330
47
102
}
330
47
100
AcDbProxyObject
 90
      499
 91
      505
 95
   393239
 70
     0
 93
      113
310
904313A32304000000000000344000
  0
ACAD_PROXY_OBJECT
  5
50
102
{ACAD_REACTORS
330
47
102
}
330
47
100
AcDbProxyObject
 90
      499
 91
      505
 95
   393239
 70
     0
 93
      113
310
904313A333040000000000003E4000
  0
ACAD_PROXY_OBJECT
  5
51
102
{ACAD_REACTORS
330
47
102
}
330
47
100
AcDbProxyObject
 90
      499
 91
      505
 95
   393239
 70
     0
 93
      113
310
904313A34304000000000000444000
  0
ACAD_PROXY_OBJECT
  5
52
102
{ACAD_REACTORS
330
47
102
}
330
47
100
AcDbProxyObject
 90
      499
 91
      505
 95
   393239
 70
     0
 93
      113
310
904313A35304000000000000494000
  0
ACAD_PROXY_OBJECT
  5
53
102
{ACAD_REACTORS
330
47
102
}
330
47
100
AcDbProxyObject
 90
      499
 91
      505
 95
   393239
 70
     0
 93
      121
310
905313A3130304000000000000594000
  0
ACAD_PROXY_OBJECT
  5
54
102
{ACAD_REACTORS
330
47
102
}
330
47
100
AcDbProxyObject
 90
      499
 91
      505
 95
   393239
 70
     0
 93
      105
310
903323A310000000000000010100
  0
ACAD_PROXY_OBJECT
  5
55
102
{ACAD_REACTORS
330
47
102
}
330
47
100
AcDbProxyObject
 90
      499
 91
      505
 95
   393239
 70
     0
 93
      105
310
903343A310000000000000410100
  0
ACAD_PROXY_OBJECT
  5
56
102
{ACAD_REACTORS
330
47
102
}
330
47
100
AcDbProxyObject
 90
      499
 91
      505
 95
   393239
 70
     0
 93
      105
310
903383A310000000000000810100
  0
ACAD_PROXY_OBJECT
  5
57
102
{ACAD_REACTORS
330
47
102
}
330
47
100
AcDbProxyObject
 90
      499
 91
      505
 95
   393239
 70
     0
 93
      113
310
90431303A310000000000000910100
  0
ACAD_PROXY_OBJECT
  5
58
102
{ACAD_REACTORS
330
47
102
}
330
47
100
AcDbProxyObject
 90
      499
 91
      505
 95
   393239
 70
     0
 93
      121
310
9053130303A310000000000001650100
  0
ACAD_PROXY_OBJECT
  5
380
102
{ACAD_REACTORS
330
47
102
}
330
47
100
AcDbProxyObject
 90
      499
 91
      505
 95
   393239
 70
     0
 93
      257
310
90E312F31323822203D2031272D3022000000000000200FC000000000000284000
  0
ACAD_PROXY_OBJECT
  5
381
102
{ACAD_REACTORS
330
47
102
}
330
47
100
AcDbProxyObject
 90
      499
 91
      505
 95
   393239
 70
     0
 93
      249
310
90D312F363422203D2031272D3022000000000000240FC000000000000284000
  0
ACAD_PROXY_OBJECT
  5
5B
102
{ACAD_REACTORS
330
47
102
}
330
47
100
AcDbProxyObject
 90
      499
 91
      505
 95
   393239
 70
     0
 93
      249
310
90D312F333222203D2031272D3022000000000000280FC000000000000284000
  0
ACAD_PROXY_OBJECT
  5
5C
102
{ACAD_REACTORS
330
47
102
}
330
47
100
AcDbProxyObject
 90
      499
 91
      505
 95
   393239
 70
     0
 93
      249
310
90D312F313622203D2031272D30220000000000002C0FC000000000000284000
  0
ACAD_PROXY_OBJECT
  5
5D
102
{ACAD_REACTORS
330
47
102
}
330
47
100
AcDbProxyObject
 90
      499
 91
      505
 95
   393239
 70
     0
 93
      249
310
90D332F333222203D2031272D30220000000000002E0FC000000000000284000
  0
ACAD_PROXY_OBJECT
  5
382
102
{ACAD_REACTORS
330
47
102
}
330
47
100
AcDbProxyObject
 90
      499
 91
      505
 95
   393239
 70
     0
 93
      241
310
90C312F3822203D2031272D3022000000000000300FC000000000000284000
  0
ACAD_PROXY_OBJECT
  5
5F
102
{ACAD_REACTORS
330
47
102
}
330
47
100
AcDbProxyObject
 90
      499
 91
      505
 95
   393239
 70
     0
 93
      249
310
90D332F313622203D2031272D3022000000000000320FC000000000000284000
  0
ACAD_PROXY_OBJECT
  5
60
102
{ACAD_REACTORS
330
47
102
}
330
47
100
AcDbProxyObject
 90
      499
 91
      505
 95
   393239
 70
     0
 93
      241
310
90C312F3422203D2031272D3022000000000000340FC000000000000284000
  0
ACAD_PROXY_OBJECT
  5
61
102
{ACAD_REACTORS
330
47
102
}
330
47
100
AcDbProxyObject
 90
      499
 91
      505
 95
   393239
 70
     0
 93
      241
310
90C332F3822203D2031272D3022000000000000360FC000000000000284000
  0
ACAD_PROXY_OBJECT
  5
62
102
{ACAD_REACTORS
330
47
102
}
330
47
100
AcDbProxyObject
 90
      499
 91
      505
 95
   393239
 70
     0
 93
      241
310
90C312F3222203D2031272D3022000000000000380FC000000000000284000
  0
ACAD_PROXY_OBJECT
  5
63
102
{ACAD_REACTORS
330
47
102
}
330
47
100
AcDbProxyObject
 90
      499
 91
      505
 95
   393239
 70
     0
 93
      241
310
90C332F3422203D2031272D30220000000000003A0FC000000000000284000
  0
ACAD_PROXY_OBJECT
  5
64
102
{ACAD_REACTORS
330
47
102
}
330
47
100
AcDbProxyObject
 90
      499
 91
      505
 95
   393239
 70
     0
 93
      161
310
90A3122203D2031272D30224000000000000284000
  0
ACAD_PROXY_OBJECT
  5
65
102
{ACAD_REACTORS
330
47
102
}
330
47
100
AcDbProxyObject
 90
      499
 91
      505
 95
   393239
 70
     0
 93
      257
310
90E312D312F3222203D2031272D30220000000000003E0FC000000000000284000
  0
ACAD_PROXY_OBJECT
  5
66
102
{ACAD_REACTORS
330
47
102
}
330
47
100
AcDbProxyObject
 90
      499
 91
      505
 95
   393239
 70
     0
 93
      225
310
90A3322203D2031272D302200000000000002100000000000000284000
  0
ACAD_PROXY_OBJECT
  5
67
102
{ACAD_REACTORS
330
47
102
}
330
47
100
AcDbProxyObject
 90
      499
 91
      505
 95
   393239
 70
     0
 93
      225
310
90A3622203D2031272D302200000000000006100000000000000284000
  0
ACAD_PROXY_OBJECT
  5
68
102
{ACAD_REACTORS
330
47
102
}
330
47
100
AcDbProxyObject
 90
      499
 91
      505
 95
   393239
 70
     0
 93
      249
310
90D31272D3022203D2031272D30220000000000000A100000000000000284000
  0
TABLESTYLE
  5
93
102
{ACAD_REACTORS
330
92
102
}
330
92
100
AcDbTableStyle
  3
Standard
 70
     0
 71
     0
 40
0.06
 41
0.06
280
     0
281
     0
  7
Standard
140
0.18
170
     2
 62
     0
 63
     7
283
     0
274
    -2
284
     1
 64
     0
275
    -2
285
     1
 65
     0
276
    -2
286
     1
 66
     0
277
    -2
287
     1
 67
     0
278
    -2
288
     1
 68
     0
279
    -2
289
     1
 69
     0
  7
Standard
140
0.25
170
     5
 62
     0
 63
     7
283
     0
274
    -2
284
     1
 64
     0
275
    -2
285
     1
 65
     0
276
    -2
286
     1
 66
     0
277
    -2
287
     1
 67
     0
278
    -2
288
     1
 68
     0
279
    -2
289
     1
 69
     0
  7
Standard
140
0.18
170
     5
 62
     0
 63
     7
283
     0
274
    -2
284
     1
 64
     0
275
    -2
285
     1
 65
     0
276
    -2
286
     1
 66
     0
277
    -2
287
     1
 67
     0
278
    -2
288
     1
 68
     0
279
    -2
289
     1
 69
     0
  0
DICTIONARYVAR
  5
98
102
{ACAD_REACTORS
330
59
102
}
330
59
100
DictionaryVariables
280
     0
  1
STANDARD
  0
DICTIONARYVAR
  5
36D
102
{ACAD_REACTORS
330
59
102
}
330
59
100
DictionaryVariables
280
     0
  1
2
  0
ENDSEC
  0
EOF
