  0
SECTION
  2
HEADER
  9
$ACADVER
  1
AC1018
  9
$ACADMAINTVER
 70
    39
  9
$DWGCODEPAGE
  3
ANSI_1252
  9
$LASTSAVEDBY
  1
fottrem
  9
$INSBASE
 10
0.0
 20
0.0
 30
0.0
  9
$EXTMIN
 10
0.4640507178713819
 20
0.3573773641115478
 30
-4.860190937100326
  9
$EXTMAX
 10
46.47898481890242
 20
83.97406777218433
 30
4.537999999999986
  9
$LIMMIN
 10
0.0
 20
0.0
  9
$LIMMAX
 10
46.81102362204724
 20
33.11023622047244
  9
$ORTHOMODE
 70
     1
  9
$REGENMODE
 70
     1
  9
$FILLMODE
 70
     1
  9
$QTEXTMODE
 70
     0
  9
$MIRRTEXT
 70
     1
  9
$LTSCALE
 40
1.0
  9
$ATTMODE
 70
     1
  9
$TEXTSIZE
 40
0.7500000000000001
  9
$TRACEWID
 40
0.05
  9
$TEXTSTYLE
  7
Standard
  9
$CLAYER
  8
0
  9
$CELTYPE
  6
ByLayer
  9
$CECOLOR
 62
   256
  9
$CELTSCALE
 40
1.0
  9
$DISPSILH
 70
     0
  9
$DIMSCALE
 40
1.0
  9
$DIMASZ
 40
0.7500000000000001
  9
$DIMEXO
 40
0.1666666666666667
  9
$DIMDLI
 40
0.38
  9
$DIMRND
 40
0.0
  9
$DIMDLE
 40
0.0
  9
$DIMEXE
 40
0.3750000000000001
  9
$DIMTP
 40
0.0
  9
$DIMTM
 40
0.0
  9
$DIMTXT
 40
0.7500000000000001
  9
$DIMCEN
 40
0.09
  9
$DIMTSZ
 40
0.0
  9
$DIMTOL
 70
     0
  9
$DIMLIM
 70
     0
  9
$DIMTIH
 70
     1
  9
$DIMTOH
 70
     1
  9
$DIMSE1
 70
     0
  9
$DIMSE2
 70
     0
  9
$DIMTAD
 70
     0
  9
$DIMZIN
 70
     1
  9
$DIMBLK
  1

  9
$DIMASO
 70
     1
  9
$DIMSHO
 70
     1
  9
$DIMPOST
  1

  9
$DIMAPOST
  1

  9
$DIMALT
 70
     0
  9
$DIMALTD
 70
     2
  9
$DIMALTF
 40
25.4
  9
$DIMLFAC
 40
1.0
  9
$DIMTOFL
 70
     0
  9
$DIMTVP
 40
0.0
  9
$DIMTIX
 70
     0
  9
$DIMSOXD
 70
     0
  9
$DIMSAH
 70
     0
  9
$DIMBLK1
  1

  9
$DIMBLK2
  1

  9
$DIMSTYLE
  2
Standard
  9
$DIMCLRD
 70
     0
  9
$DIMCLRE
 70
     0
  9
$DIMCLRT
 70
     0
  9
$DIMTFAC
 40
1.0
  9
$DIMGAP
 40
0.125
  9
$DIMJUST
 70
     0
  9
$DIMSD1
 70
     0
  9
$DIMSD2
 70
     0
  9
$DIMTOLJ
 70
     1
  9
$DIMTZIN
 70
     1
  9
$DIMALTZ
 70
     0
  9
$DIMALTTZ
 70
     0
  9
$DIMUPT
 70
     0
  9
$DIMDEC
 70
     2
  9
$DIMTDEC
 70
     2
  9
$DIMALTU
 70
     2
  9
$DIMALTTD
 70
     2
  9
$DIMTXSTY
  7
Standard
  9
$DIMAUNIT
 70
     0
  9
$DIMADEC
 70
     2
  9
$DIMALTRND
 40
0.0
  9
$DIMAZIN
 70
     0
  9
$DIMDSEP
 70
    46
  9
$DIMATFIT
 70
     3
  9
$DIMFRAC
 70
     0
  9
$DIMLDRBLK
  1

  9
$DIMLUNIT
 70
     2
  9
$DIMLWD
 70
    -2
  9
$DIMLWE
 70
    -2
  9
$DIMTMOVE
 70
     0
  9
$LUNITS
 70
     2
  9
$LUPREC
 70
     4
  9
$SKETCHINC
 40
0.1
  9
$FILLETRAD
 40
0.5
  9
$AUNITS
 70
     0
  9
$AUPREC
 70
     2
  9
$MENU
  1
.
  9
$ELEVATION
 40
0.0
  9
$PELEVATION
 40
0.0
  9
$THICKNESS
 40
0.0
  9
$LIMCHECK
 70
     0
  9
$CHAMFERA
 40
0.0
  9
$CHAMFERB
 40
0.0
  9
$CHAMFERC
 40
0.0
  9
$CHAMFERD
 40
0.0
  9
$SKPOLY
 70
     0
  9
$TDCREATE
 40
2453353.550459155
  9
$TDUCREATE
 40
2453353.717125822
  9
$TDUPDATE
 40
2459488.477120937
  9
$TDUUPDATE
 40
2459488.643787604
  9
$TDINDWG
 40
0.0429051042
  9
$TDUSRTIMER
 40
0.0429051042
  9
$USRTIMER
 70
     1
  9
$ANGBASE
 50
0.0
  9
$ANGDIR
 70
     0
  9
$PDMODE
 70
     0
  9
$PDSIZE
 40
-1.0
  9
$PLINEWID
 40
0.0
  9
$SPLFRAME
 70
     0
  9
$SPLINETYPE
 70
     6
  9
$SPLINESEGS
 70
     8
  9
$HANDSEED
  5
4A0
  9
$SURFTAB1
 70
     6
  9
$SURFTAB2
 70
     6
  9
$SURFTYPE
 70
     6
  9
$SURFU
 70
     6
  9
$SURFV
 70
     6
  9
$UCSBASE
  2

  9
$UCSNAME
  2

  9
$UCSORG
 10
0.0
 20
0.0
 30
0.0
  9
$UCSXDIR
 10
1.0
 20
0.0
 30
0.0
  9
$UCSYDIR
 10
0.0
 20
1.0
 30
0.0
  9
$UCSORTHOREF
  2

  9
$UCSORTHOVIEW
 70
     0
  9
$UCSORGTOP
 10
0.0
 20
0.0
 30
0.0
  9
$UCSORGBOTTOM
 10
0.0
 20
0.0
 30
0.0
  9
$UCSORGLEFT
 10
0.0
 20
0.0
 30
0.0
  9
$UCSORGRIGHT
 10
0.0
 20
0.0
 30
0.0
  9
$UCSORGFRONT
 10
0.0
 20
0.0
 30
0.0
  9
$UCSORGBACK
 10
0.0
 20
0.0
 30
0.0
  9
$PUCSBASE
  2

  9
$PUCSNAME
  2

  9
$PUCSORG
 10
0.0
 20
0.0
 30
0.0
  9
$PUCSXDIR
 10
1.0
 20
0.0
 30
0.0
  9
$PUCSYDIR
 10
0.0
 20
1.0
 30
0.0
  9
$PUCSORTHOREF
  2

  9
$PUCSORTHOVIEW
 70
     0
  9
$PUCSORGTOP
 10
0.0
 20
0.0
 30
0.0
  9
$PUCSORGBOTTOM
 10
0.0
 20
0.0
 30
0.0
  9
$PUCSORGLEFT
 10
0.0
 20
0.0
 30
0.0
  9
$PUCSORGRIGHT
 10
0.0
 20
0.0
 30
0.0
  9
$PUCSORGFRONT
 10
0.0
 20
0.0
 30
0.0
  9
$PUCSORGBACK
 10
0.0
 20
0.0
 30
0.0
  9
$USERI1
 70
     0
  9
$USERI2
 70
     0
  9
$USERI3
 70
     0
  9
$USERI4
 70
     0
  9
$USERI5
 70
     0
  9
$USERR1
 40
0.0
  9
$USERR2
 40
0.0
  9
$USERR3
 40
0.0
  9
$USERR4
 40
0.0
  9
$USERR5
 40
0.0
  9
$WORLDVIEW
 70
     1
  9
$SHADEDGE
 70
     3
  9
$SHADEDIF
 70
    70
  9
$TILEMODE
 70
     1
  9
$MAXACTVP
 70
    64
  9
$PINSBASE
 10
0.0
 20
0.0
 30
0.0
  9
$PLIMCHECK
 70
     0
  9
$PEXTMIN
 10
1.000000000000000E+20
 20
1.000000000000000E+20
 30
1.000000000000000E+20
  9
$PEXTMAX
 10
-1.000000000000000E+20
 20
-1.000000000000000E+20
 30
-1.000000000000000E+20
  9
$PLIMMIN
 10
0.0
 20
0.0
  9
$PLIMMAX
 10
12.0
 20
9.0
  9
$UNITMODE
 70
     0
  9
$VISRETAIN
 70
     1
  9
$PLINEGEN
 70
     0
  9
$PSLTSCALE
 70
     1
  9
$TREEDEPTH
 70
  3020
  9
$CMLSTYLE
  2
Standard
  9
$CMLJUST
 70
     0
  9
$CMLSCALE
 40
1.0
  9
$PROXYGRAPHICS
 70
     1
  9
$MEASUREMENT
 70
     0
  9
$CELWEIGHT
370
    -1
  9
$ENDCAPS
280
     0
  9
$JOINSTYLE
280
     0
  9
$LWDISPLAY
290
     1
  9
$INSUNITS
 70
     1
  9
$HYPERLINKBASE
  1

  9
$STYLESHEET
  1

  9
$XEDIT
290
     0
  9
$CEPSNTYPE
380
     0
  9
$PSTYLEMODE
290
     1
  9
$FINGERPRINTGUID
  2
{d66df1ed-edea-425e-a516-a3c8644a20d3}
  9
$VERSIONGUID
  2
{FAEB1C32-E019-11D5-929B-00C0DF256EC4}
  9
$EXTNAMES
290
     1
  9
$PSVPSCALE
 40
0.0
  9
$OLESTARTUP
290
     0
  9
$SORTENTS
280
   127
  9
$INDEXCTL
280
     0
  9
$HIDETEXT
280
     1
  9
$XCLIPFRAME
290
     0
  9
$HALOGAP
280
     0
  9
$OBSCOLOR
 70
   257
  9
$OBSLTYPE
280
     0
  9
$INTERSECTIONDISPLAY
280
     0
  9
$INTERSECTIONCOLOR
 70
   257
  9
$DIMASSOC
280
     2
  9
$PROJECTNAME
  1

  0
ENDSEC
  0
SECTION
  2
CLASSES
  0
CLASS
  1
ACDBDICTIONARYWDFLT
  2
AcDbDictionaryWithDefault
  3
ObjectDBX Classes
 90
        0
 91
        3
280
     0
281
     0
  0
CLASS
  1
ACDBPLACEHOLDER
  2
AcDbPlaceHolder
  3
ObjectDBX Classes
 90
        0
 91
        1
280
     0
281
     0
  0
CLASS
  1
LAYOUT
  2
AcDbLayout
  3
ObjectDBX Classes
 90
        0
 91
        1
280
     0
281
     0
  0
CLASS
  1
DICTIONARYVAR
  2
AcDbDictionaryVar
  3
ObjectDBX Classes
 90
        0
 91
        3
280
     0
281
     0
  0
CLASS
  1
TABLESTYLE
  2
AcDbTableStyle
  3
ObjectDBX Classes
 90
     2047
 91
        3
280
     0
281
     0
  0
CLASS
  1
SCALE
  2
AcDbScale
  3
ObjectDBX Classes
 90
     1153
 91
       67
280
     1
281
     0
  0
ENDSEC
  0
SECTION
  2
TABLES
  0
TABLE
  2
VPORT
  5
8
330
0
100
AcDbSymbolTable
 70
     2
  0
VPORT
  5
97
330
8
100
AcDbSymbolTableRecord
100
AcDbViewportTableRecord
  2
*Active
 70
     0
 10
0.0
 20
0.0
 11
1.0
 21
1.0
 12
23.4715177683869
 22
42.16572256814793
 13
0.0
 23
0.0
 14
0.5
 24
0.5
 15
0.5
 25
0.5
 16
0.0
 26
0.0
 36
1.0
 17
0.0
 27
0.0
 37
0.0
 40
85.28902421623424
 41
1.413793103448276
 42
50.0
 43
0.0
 44
0.0
 50
0.0
 51
0.0
 71
    16
 72
  2000
 73
     1
 74
     1
 75
     0
 76
     0
 77
     0
 78
     0
281
     0
 65
     0
110
0.0
120
0.0
130
0.0
111
1.0
121
0.0
131
0.0
112
0.0
122
1.0
132
0.0
 79
     0
146
0.0
  0
ENDTAB
  0
TABLE
  2
LTYPE
  5
5
330
0
100
AcDbSymbolTable
 70
     8
  0
LTYPE
  5
14
330
5
100
AcDbSymbolTableRecord
100
AcDbLinetypeTableRecord
  2
ByBlock
 70
     0
  3

 72
    65
 73
     0
 40
0.0
  0
LTYPE
  5
15
330
5
100
AcDbSymbolTableRecord
100
AcDbLinetypeTableRecord
  2
ByLayer
 70
     0
  3

 72
    65
 73
     0
 40
0.0
  0
LTYPE
  5
16
330
5
100
AcDbSymbolTableRecord
100
AcDbLinetypeTableRecord
  2
Continuous
 70
     0
  3
Solid line
 72
    65
 73
     0
 40
0.0
  0
LTYPE
  5
472
330
5
100
AcDbSymbolTableRecord
100
AcDbLinetypeTableRecord
  2
SLD-Solid
 70
     0
  3
SolidWorks Line Style
 72
    65
 73
     0
 40
0.0
  0
LTYPE
  5
473
330
5
100
AcDbSymbolTableRecord
100
AcDbLinetypeTableRecord
  2
SLD-Dashed
 70
     0
  3
SolidWorks Line Style
 72
    65
 73
     2
 40
0.075
 49
0.05
 74
     4
 75
     0
340
0
 46
1.0
 50
0.0
 44
0.0
 45
0.0
 49
-0.025
 74
     4
 75
     0
340
0
 46
1.0
 50
0.0
 44
0.0
 45
0.0
  0
LTYPE
  5
474
330
5
100
AcDbSymbolTableRecord
100
AcDbLinetypeTableRecord
  2
SLD-Phantom
 70
     0
  3
SolidWorks Line Style
 72
    65
 73
     6
 40
0.4999999999999999
 49
0.25
 74
     4
 75
     0
340
0
 46
1.0
 50
0.0
 44
0.0
 45
0.0
 49
-0.05
 74
     4
 75
     0
340
0
 46
1.0
 50
0.0
 44
0.0
 45
0.0
 49
0.05
 74
     4
 75
     0
340
0
 46
1.0
 50
0.0
 44
0.0
 45
0.0
 49
-0.05
 74
     4
 75
     0
340
0
 46
1.0
 50
0.0
 44
0.0
 45
0.0
 49
0.05
 74
     4
 75
     0
340
0
 46
1.0
 50
0.0
 44
0.0
 45
0.0
 49
-0.05
 74
     4
 75
     0
340
0
 46
1.0
 50
0.0
 44
0.0
 45
0.0
  0
LTYPE
  5
475
330
5
100
AcDbSymbolTableRecord
100
AcDbLinetypeTableRecord
  2
SLD-Chain
 70
     0
  3
SolidWorks Line Style
 72
    65
 73
     4
 40
0.4
 49
0.25
 74
     4
 75
     0
340
0
 46
1.0
 50
0.0
 44
0.0
 45
0.0
 49
-0.05
 74
     4
 75
     0
340
0
 46
1.0
 50
0.0
 44
0.0
 45
0.0
 49
0.05
 74
     4
 75
     0
340
0
 46
1.0
 50
0.0
 44
0.0
 45
0.0
 49
-0.05
 74
     4
 75
     0
340
0
 46
1.0
 50
0.0
 44
0.0
 45
0.0
  0
LTYPE
  5
476
330
5
100
AcDbSymbolTableRecord
100
AcDbLinetypeTableRecord
  2
SLD-Center
 70
     0
  3
SolidWorks Line Style
 72
    65
 73
     4
 40
0.7500000000000002
 49
0.6000000000000001
 74
     4
 75
     0
340
0
 46
1.0
 50
0.0
 44
0.0
 45
0.0
 49
-0.05
 74
     4
 75
     0
340
0
 46
1.0
 50
0.0
 44
0.0
 45
0.0
 49
0.05
 74
     4
 75
     0
340
0
 46
1.0
 50
0.0
 44
0.0
 45
0.0
 49
-0.05
 74
     4
 75
     0
340
0
 46
1.0
 50
0.0
 44
0.0
 45
0.0
  0
LTYPE
  5
477
330
5
100
AcDbSymbolTableRecord
100
AcDbLinetypeTableRecord
  2
SLD-Stitch
 70
     0
  3
SolidWorks Line Style
 72
    65
 73
     2
 40
0.025
 49
0.0
 74
     4
 75
     0
340
0
 46
1.0
 50
0.0
 44
0.0
 45
0.0
 49
-0.025
 74
     4
 75
     0
340
0
 46
1.0
 50
0.0
 44
0.0
 45
0.0
  0
LTYPE
  5
478
330
5
100
AcDbSymbolTableRecord
100
AcDbLinetypeTableRecord
  2
SLD-Thin-Thick-Chain
 70
     0
  3
SolidWorks Line Style
 72
    65
 73
     4
 40
0.4
 49
0.25
 74
     4
 75
     0
340
0
 46
1.0
 50
0.0
 44
0.0
 45
0.0
 49
-0.05
 74
     4
 75
     0
340
0
 46
1.0
 50
0.0
 44
0.0
 45
0.0
 49
0.05
 74
     4
 75
     0
340
0
 46
1.0
 50
0.0
 44
0.0
 45
0.0
 49
-0.05
 74
     4
 75
     0
340
0
 46
1.0
 50
0.0
 44
0.0
 45
0.0
  0
ENDTAB
  0
TABLE
  2
LAYER
  5
2
330
0
100
AcDbSymbolTable
 70
     6
  0
LAYER
  5
10
330
2
100
AcDbSymbolTableRecord
100
AcDbLayerTableRecord
  2
0
 70
     0
 62
     7
  6
Continuous
370
    -3
390
F
  0
LAYER
  5
479
330
2
100
AcDbSymbolTableRecord
100
AcDbLayerTableRecord
  2
FORMAT
 70
     0
 62
     7
  6
SLD-Solid
370
    -3
390
F
  0
LAYER
  5
47A
330
2
100
AcDbSymbolTableRecord
100
AcDbLayerTableRecord
  2
NOTES
 70
     0
 62
     1
  6
SLD-Solid
370
    -3
390
F
  0
LAYER
  5
77
330
2
100
AcDbSymbolTableRecord
100
AcDbLayerTableRecord
  2
OBJECT
 70
     0
 62
     7
  6
SLD-Solid
370
    -3
390
F
  0
LAYER
  5
78
330
2
100
AcDbSymbolTableRecord
100
AcDbLayerTableRecord
  2
DIMS
 70
     0
 62
     5
  6
SLD-Solid
370
    -3
390
F
  0
LAYER
  5
79
330
2
100
AcDbSymbolTableRecord
100
AcDbLayerTableRecord
  2
TITLE
 70
     0
 62
     8
  6
SLD-Solid
370
    -3
390
F
  0
ENDTAB
  0
TABLE
  2
STYLE
  5
3
330
0
100
AcDbSymbolTable
 70
     5
  0
STYLE
  5
11
330
3
100
AcDbSymbolTableRecord
100
AcDbTextStyleTableRecord
  2
Standard
 70
     0
 40
0.0
 41
1.0
 50
0.0
 71
     0
 42
0.7500000000000001
  3
GOTHIC.TTF
  4

1001
ACAD
1000
CENTURY GOTHIC
1071
       34
  0
STYLE
  5
8C
330
3
100
AcDbSymbolTableRecord
100
AcDbTextStyleTableRecord
  2
SLDTEXTSTYLE0
 70
     0
 40
0.0
 41
0.948
 50
0.0
 71
     0
 42
0.7500000000000001
  3
ARIAL.TTF
  4

1001
ACAD
1000
Arial
1071
      290
  0
STYLE
  5
90
330
3
100
AcDbSymbolTableRecord
100
AcDbTextStyleTableRecord
  2
SLDTEXTSTYLE1
 70
     0
 40
0.0
 41
0.913
 50
0.0
 71
     0
 42
0.7500000000000001
  3
GOTHIC.TTF
  4

1001
ACAD
1000
Century Gothic
1071
      290
  0
STYLE
  5
9F
330
3
100
AcDbSymbolTableRecord
100
AcDbTextStyleTableRecord
  2
SLDTEXTSTYLE2
 70
     0
 40
0.0
 41
0.87
 50
0.0
 71
     0
 42
0.7500000000000001
  3
ARIALNB.TTF
  4

1001
ACAD
1000
Arial Narrow
1071
 33554722
  0
STYLE
  5
A1
330
3
100
AcDbSymbolTableRecord
100
AcDbTextStyleTableRecord
  2
SLDTEXTSTYLE3
 70
     0
 40
0.0
 41
0.87
 50
0.0
 71
     0
 42
0.7500000000000001
  3
ARIALN.TTF
  4

1001
ACAD
1000
Arial Narrow
1071
      290
  0
ENDTAB
  0
TABLE
  2
VIEW
  5
6
330
0
100
AcDbSymbolTable
 70
     0
  0
ENDTAB
  0
TABLE
  2
UCS
  5
7
330
0
100
AcDbSymbolTable
 70
     0
  0
ENDTAB
  0
TABLE
  2
APPID
  5
9
330
0
100
AcDbSymbolTable
 70
     1
  0
APPID
  5
12
330
9
100
AcDbSymbolTableRecord
100
AcDbRegAppTableRecord
  2
ACAD
 70
     0
  0
ENDTAB
  0
TABLE
  2
DIMSTYLE
  5
A
330
0
100
AcDbSymbolTable
 70
     5
100
AcDbDimStyleTable
  0
DIMSTYLE
105
27
330
A
100
AcDbSymbolTableRecord
100
AcDbDimStyleTableRecord
  2
Standard
 70
     0
340
11
  0
DIMSTYLE
105
1E0
102
{ACAD_REACTORS
330
1DF
330
1F3
330
3DF
102
}
330
A
100
AcDbSymbolTableRecord
100
AcDbDimStyleTableRecord
  2
SLDDIMSTYLE0
 70
     0
 41
0.7500000000000001
 44
0.0
 45
0.000000001
 78
    12
 79
     3
140
0.7500000000000001
147
0.1875
173
     1
271
     2
272
     2
276
     2
277
     5
284
    12
340
90
341
47B
343
47B
344
47B
  0
DIMSTYLE
105
1FF
102
{ACAD_REACTORS
330
1FE
330
29B
330
3EA
330
406
330
45C
102
}
330
A
100
AcDbSymbolTableRecord
100
AcDbDimStyleTableRecord
  2
SLDDIMSTYLE1
 70
     0
 41
0.7500000000000001
 44
0.0
 45
0.000000001
 78
    12
 79
     3
140
0.7500000000000001
147
0.1875
173
     1
271
     6
272
     2
276
     2
277
     5
284
    12
340
90
341
47B
343
47B
344
47B
  0
DIMSTYLE
105
211
330
A
100
AcDbSymbolTableRecord
100
AcDbDimStyleTableRecord
  2
SLDDIMSTYLE2
 70
     0
 41
0.7500000000000001
 44
0.0
 45
0.000000001
146
0.7500000000000001
147
0.0
173
     1
271
     0
272
     0
276
     2
277
     5
340
11
341
47B
343
47B
344
47B
  0
DIMSTYLE
105
3FA
102
{ACAD_REACTORS
330
3F9
102
}
330
A
100
AcDbSymbolTableRecord
100
AcDbDimStyleTableRecord
  2
SLDDIMSTYLE3
 70
     0
 41
0.7500000000000001
 44
0.0
 45
0.000000001
 78
    12
 79
     3
140
0.7500000000000001
141
0.0
147
0.1875
173
     1
271
     2
272
     2
276
     2
277
     5
284
    12
340
90
341
47B
343
47B
344
47B
  0
ENDTAB
  0
TABLE
  2
BLOCK_RECORD
  5
1
330
0
100
AcDbSymbolTable
 70
    14
  0
BLOCK_RECORD
  5
1F
330
1
100
AcDbSymbolTableRecord
100
AcDbBlockTableRecord
  2
*Model_Space
340
22
  0
BLOCK_RECORD
  5
73
330
1
100
AcDbSymbolTableRecord
100
AcDbBlockTableRecord
  2
*Paper_Space
340
74
  0
BLOCK_RECORD
  5
47B
330
1
100
AcDbSymbolTableRecord
100
AcDbBlockTableRecord
  2
_Open90
340
0
102
{BLKREFS
331
1EA
331
1EB
331
1F7
331
1F8
331
203
331
204
331
29F
331
2A0
331
3E3
331
3E4
331
3EE
331
3EF
331
3FE
331
40A
331
40B
331
460
331
461
102
}
  0
BLOCK_RECORD
  5
23
330
1
100
AcDbSymbolTableRecord
100
AcDbBlockTableRecord
  2
*Paper_Space1
340
26
  0
BLOCK_RECORD
  5
7A
330
1
100
AcDbSymbolTableRecord
100
AcDbBlockTableRecord
  2
Block1
340
0
102
{BLKREFS
331
1DE
102
}
  0
BLOCK_RECORD
  5
96
330
1
100
AcDbSymbolTableRecord
100
AcDbBlockTableRecord
  2
SW_NOTE_0
340
0
  0
BLOCK_RECORD
  5
9C
330
1
100
AcDbSymbolTableRecord
100
AcDbBlockTableRecord
  2
SW_NOTE_0_1
340
0
102
{BLKREFS
331
A5
102
}
  0
BLOCK_RECORD
  5
1E7
330
1
100
AcDbSymbolTableRecord
100
AcDbBlockTableRecord
  2
_D
340
0
  0
BLOCK_RECORD
  5
1F4
330
1
100
AcDbSymbolTableRecord
100
AcDbBlockTableRecord
  2
_D_1
340
0
  0
BLOCK_RECORD
  5
200
330
1
100
AcDbSymbolTableRecord
100
AcDbBlockTableRecord
  2
_D_2
340
0
  0
BLOCK_RECORD
  5
29C
330
1
100
AcDbSymbolTableRecord
100
AcDbBlockTableRecord
  2
_D_3
340
0
  0
BLOCK_RECORD
  5
3E0
330
1
100
AcDbSymbolTableRecord
100
AcDbBlockTableRecord
  2
_D_4
340
0
  0
BLOCK_RECORD
  5
3EB
330
1
100
AcDbSymbolTableRecord
100
AcDbBlockTableRecord
  2
_D_5
340
0
  0
BLOCK_RECORD
  5
3FB
330
1
100
AcDbSymbolTableRecord
100
AcDbBlockTableRecord
  2
_D_6
340
0
  0
BLOCK_RECORD
  5
407
330
1
100
AcDbSymbolTableRecord
100
AcDbBlockTableRecord
  2
_D_7
340
0
  0
BLOCK_RECORD
  5
45D
330
1
100
AcDbSymbolTableRecord
100
AcDbBlockTableRecord
  2
_D_8
340
0
  0
ENDTAB
  0
ENDSEC
  0
SECTION
  2
BLOCKS
  0
BLOCK
  5
20
330
1F
100
AcDbEntity
  8
0
100
AcDbBlockBegin
  2
*Model_Space
 70
     0
 71
     0
 10
0.0
 20
0.0
 30
0.0
  3
*Model_Space
  1

  0
ENDBLK
  5
21
330
1F
100
AcDbEntity
  8
0
100
AcDbBlockEnd
  0
BLOCK
  5
75
330
73
100
AcDbEntity
 67
     1
  8
0
100
AcDbBlockBegin
  2
*Paper_Space
 70
     0
 71
     0
 10
0.0
 20
0.0
 30
0.0
  3
*Paper_Space
  1

  0
ENDBLK
  5
76
330
73
100
AcDbEntity
 67
     1
  8
0
100
AcDbBlockEnd
  0
BLOCK
  5
47C
330
47B
100
AcDbEntity
  8
0
100
AcDbBlockBegin
  2
_Open90
 70
     0
 71
     0
 10
0.0
 20
0.0
 30
0.0
  3
_Open90
  1

  0
LINE
  5
1E4
330
47B
100
AcDbEntity
  8
0
  6
ByBlock
 62
     0
370
    -2
100
AcDbLine
 10
-0.5
 20
0.5
 30
0.0
 11
0.0
 21
0.0
 31
0.0
  0
LINE
  5
1E5
330
47B
100
AcDbEntity
  8
0
  6
ByBlock
 62
     0
370
    -2
100
AcDbLine
 10
0.0
 20
0.0
 30
0.0
 11
-0.5
 21
-0.5
 31
0.0
  0
LINE
  5
1E6
330
47B
100
AcDbEntity
  8
0
  6
ByBlock
 62
     0
370
    -2
100
AcDbLine
 10
0.0
 20
0.0
 30
0.0
 11
-1.0
 21
0.0
 31
0.0
  0
ENDBLK
  5
47D
330
47B
100
AcDbEntity
  8
0
100
AcDbBlockEnd
  0
BLOCK
  5
484
330
23
100
AcDbEntity
  8
0
100
AcDbBlockBegin
  2
*Paper_Space1
 70
     0
 71
     0
 10
0.0
 20
0.0
 30
0.0
  3
*Paper_Space1
  1

  0
ENDBLK
  5
485
330
23
100
AcDbEntity
  8
0
100
AcDbBlockEnd
  0
BLOCK
  5
486
330
7A
100
AcDbEntity
  8
0
100
AcDbBlockBegin
  2
Block1
 70
     0
 71
     0
 10
0.0
 20
0.0
 30
0.0
  3
Block1
  1

  0
LINE
  5
7D
330
7A
100
AcDbEntity
  8
DIMS
100
AcDbLine
 10
-7.177791272313863
 20
-8.403501600032246
 30
0.0
 11
-7.177791272313863
 21
-7.955075865864434
 31
0.0
  0
LINE
  5
7E
330
7A
100
AcDbEntity
  8
DIMS
100
AcDbLine
 10
-7.177791272313863
 20
-8.403501600032246
 30
0.0
 11
-7.560593728310775
 21
-8.665994712715843
 31
0.0
  0
LINE
  5
7F
330
7A
100
AcDbEntity
  8
DIMS
100
AcDbLine
 10
-7.560593728310775
 20
-8.665994712715843
 30
0.0
 11
-6.791864715931306
 21
-8.820701312879212
 31
0.0
  0
LINE
  5
80
330
7A
100
AcDbEntity
  8
DIMS
100
AcDbLine
 10
-6.791864715931306
 20
-8.820701312879212
 30
0.0
 11
-7.177791272313863
 21
-9.059110307023234
 31
0.0
  0
ENDBLK
  5
487
330
7A
100
AcDbEntity
  8
0
100
AcDbBlockEnd
  0
BLOCK
  5
488
330
96
100
AcDbEntity
  8
0
100
AcDbBlockBegin
  2
SW_NOTE_0
 70
     0
 71
     0
 10
0.0
 20
0.0
 30
0.0
  3
SW_NOTE_0
  1

  0
MTEXT
  5
99
330
96
100
AcDbEntity
  8
NOTES
 62
     0
100
AcDbMText
 10
0.0
 20
0.3759780907668229
 30
0.0
 40
0.2916666666666666
 41
0.0
 71
     1
 72
     1
  1
FROST PRODUCTS LTD.
  7
SLDTEXTSTYLE0
 73
     1
 44
1.0
  0
MTEXT
  5
9A
330
96
100
AcDbEntity
  8
NOTES
 62
     0
100
AcDbMText
 10
0.0
 20
-0.0495142708586375
 30
0.0
 40
0.2291666666666666
 41
0.0
 71
     1
 72
     1
  1
5280 JOHN LUCUS DRIVE, BURLINGTON, ON, L7L 5Z9
  7
SLDTEXTSTYLE0
 73
     1
 44
1.0
  0
ENDBLK
  5
489
330
96
100
AcDbEntity
  8
0
100
AcDbBlockEnd
  0
BLOCK
  5
48A
330
9C
100
AcDbEntity
  8
0
100
AcDbBlockBegin
  2
SW_NOTE_0_1
 70
     0
 71
     0
 10
0.0
 20
0.0
 30
0.0
  3
SW_NOTE_0_1
  1

  0
MTEXT
  5
A0
330
9C
100
AcDbEntity
  8
NOTES
 62
     0
100
AcDbMText
 10
0.0
 20
0.2381282770514712
 30
0.0
 40
0.1847290640394089
 41
0.0
 71
     1
 72
     1
  1
PROPRIETARY AND CONFIDENTIAL
  7
SLDTEXTSTYLE2
 73
     1
 44
1.0
  0
MTEXT
  5
A2
330
9C
100
AcDbEntity
  8
NOTES
 62
     0
100
AcDbMText
 10
0.0
 20
-0.0504364795553608
 30
0.0
 40
0.25
 41
0.0
 71
     1
 72
     1
  1
THE INFORMATION CONTAINED IN THIS DRAWING IS THE SOLE PROPERTY OF 
  7
SLDTEXTSTYLE3
 73
     1
 44
1.0
  0
MTEXT
  5
A3
330
9C
100
AcDbEntity
  8
NOTES
 62
     0
100
AcDbMText
 10
0.0
 20
-0.4231398940537119
 30
0.0
 40
0.25
 41
0.0
 71
     1
 72
     1
  1
FROST PRODUCTS LTD.  ANY REPRODUCTION IN PART OR AS A WHOLE WITHOUT 
  7
SLDTEXTSTYLE3
 73
     1
 44
1.0
  0
MTEXT
  5
A4
330
9C
100
AcDbEntity
  8
NOTES
 62
     0
100
AcDbMText
 10
0.0
 20
-0.7958433085520636
 30
0.0
 40
0.25
 41
0.0
 71
     1
 72
     1
  1
THE WRITTEN PERMISSION OF FROST PRODUCTS LTD. IS PROHIBITED.
  7
SLDTEXTSTYLE3
 73
     1
 44
1.0
  0
ENDBLK
  5
48B
330
9C
100
AcDbEntity
  8
0
100
AcDbBlockEnd
  0
BLOCK
  5
48C
330
1E7
100
AcDbEntity
  8
0
100
AcDbBlockBegin
  2
_D
 70
     0
 71
     0
 10
0.0
 20
0.0
 30
0.0
  3
_D
  1

  0
INSERT
  5
1EA
330
1E7
100
AcDbEntity
  8
DIMS
100
AcDbBlockReference
  2
_Open90
 10
2.754345735152182
 20
16.32748667204039
 30
0.0
 41
0.7500000000000001
 42
0.7500000000000001
 50
90.00000000000041
  0
INSERT
  5
1EB
330
1E7
100
AcDbEntity
  8
DIMS
100
AcDbBlockReference
  2
_Open90
 10
2.754345735152183
 20
4.327486672040388
 30
0.0
 41
0.7500000000000001
 42
0.7500000000000001
 50
270.0000000000004
  0
LINE
  5
1EC
330
1E7
100
AcDbEntity
  8
DIMS
100
AcDbLine
 10
7.712783871901205
 20
16.32748667204039
 30
0.0
 11
2.379345735152182
 21
16.32748667204039
 31
0.0
  0
LINE
  5
1ED
330
1E7
100
AcDbEntity
  8
DIMS
100
AcDbLine
 10
2.754345735152182
 20
16.32748667204039
 30
0.0
 11
2.754345735152183
 21
10.49419852969771
 31
0.0
  0
LINE
  5
1EE
330
1E7
100
AcDbEntity
  8
DIMS
100
AcDbLine
 10
2.754345735152183
 20
4.327486672040388
 30
0.0
 11
2.754345735152183
 21
5.731698533170738
 31
0.0
  0
MTEXT
  5
1EF
330
1E7
100
AcDbEntity
  8
DIMS
100
AcDbMText
 10
1.906949917674311
 20
10.26158134306597
 30
0.0
 40
0.7500000000000001
 41
0.0
 71
     1
 72
     1
  1
48" 
  7
SLDTEXTSTYLE1
 73
     1
 44
1.0
  0
MTEXT
  5
1F0
330
1E7
100
AcDbEntity
  8
DIMS
100
AcDbMText
 10
0.3397623086259706
 20
9.070956343934228
 30
0.0
 40
0.7500000000000001
 41
0.0
 71
     1
 72
     1
  1
(1220mm)
  7
SLDTEXTSTYLE1
 73
     1
 44
1.0
  0
MTEXT
  5
1F1
330
1E7
100
AcDbEntity
  8
DIMS
100
AcDbMText
 10
1.436116563448063
 20
7.880331344802483
 30
0.0
 40
0.7500000000000001
 41
0.0
 71
     1
 72
     1
  1
 Max.
  7
SLDTEXTSTYLE1
 73
     1
 44
1.0
  0
MTEXT
  5
1F2
330
1E7
100
AcDbEntity
  8
DIMS
100
AcDbMText
 10
2.615804068097343
 20
6.68970634567074
 30
0.0
 40
0.7500000000000001
 41
0.0
 71
     1
 72
     1
  1
 
  7
SLDTEXTSTYLE1
 73
     1
 44
1.0
  0
ENDBLK
  5
48D
330
1E7
100
AcDbEntity
  8
0
100
AcDbBlockEnd
  0
BLOCK
  5
48E
330
1F4
100
AcDbEntity
  8
0
100
AcDbBlockBegin
  2
_D_1
 70
     0
 71
     0
 10
0.0
 20
0.0
 30
0.0
  3
_D_1
  1

  0
INSERT
  5
1F7
330
1F4
100
AcDbEntity
  8
DIMS
100
AcDbBlockReference
  2
_Open90
 10
2.765054142478901
 20
16.32748667204039
 30
0.0
 41
0.7500000000000001
 42
0.7500000000000001
 50
270.0000000000004
  0
INSERT
  5
1F8
330
1F4
100
AcDbEntity
  8
DIMS
100
AcDbBlockReference
  2
_Open90
 10
2.765054142478901
 20
21.32239654332943
 30
0.0
 41
0.7500000000000001
 42
0.7500000000000001
 50
90.00000000000041
  0
LINE
  5
1F9
330
1F4
100
AcDbEntity
  8
DIMS
100
AcDbLine
 10
7.745581758337873
 20
16.32748667204039
 30
0.0
 11
2.390054142478901
 21
16.32748667204039
 31
0.0
  0
LINE
  5
1FA
330
1F4
100
AcDbEntity
  8
DIMS
100
AcDbLine
 10
5.17858175833786
 20
21.32239654332943
 30
0.0
 11
2.390054142478901
 21
21.32239654332943
 31
0.0
  0
LINE
  5
1FB
330
1F4
100
AcDbEntity
  8
DIMS
100
AcDbLine
 10
2.765054142478901
 20
16.32748667204039
 30
0.0
 11
2.765054142478901
 21
18.30735918901438
 31
0.0
  0
LINE
  5
1FC
330
1F4
100
AcDbEntity
  8
DIMS
100
AcDbLine
 10
2.765054142478901
 20
21.32239654332943
 30
0.0
 11
2.765054142478901
 21
19.49798418814612
 31
0.0
  0
MTEXT
  5
1FD
330
1F4
100
AcDbEntity
  8
DIMS
100
AcDbMText
 10
2.333283316998988
 20
19.26536700151438
 30
0.0
 40
0.7500000000000001
 41
0.0
 71
     1
 72
     1
  1
5"
  7
SLDTEXTSTYLE1
 73
     1
 44
1.0
  0
ENDBLK
  5
48F
330
1F4
100
AcDbEntity
  8
0
100
AcDbBlockEnd
  0
BLOCK
  5
490
330
200
100
AcDbEntity
  8
0
100
AcDbBlockBegin
  2
_D_2
 70
     0
 71
     0
 10
0.0
 20
0.0
 30
0.0
  3
_D_2
  1

  0
INSERT
  5
203
330
200
100
AcDbEntity
  8
DIMS
100
AcDbBlockReference
  2
_Open90
 10
5.265248425004529
 20
22.4905222702187
 30
2.042651981713167
 41
0.7500000000000001
 42
0.7500000000000001
 50
180.0000000000004
  0
INSERT
  5
204
330
200
100
AcDbEntity
  8
DIMS
100
AcDbBlockReference
  2
_Open90
 10
14.34124842500453
 20
22.4905222702187
 30
2.042651981713156
 41
0.7500000000000001
 42
0.7500000000000001
 50
0.0000000000004071
  0
LINE
  5
205
330
200
100
AcDbEntity
  8
DIMS
100
AcDbLine
 10
9.06272381916405
 20
22.56744938655008
 30
0.0
 11
10.39084891654959
 21
22.56744938655008
 31
0.0
  0
LINE
  5
206
330
200
100
AcDbEntity
  8
DIMS
100
AcDbLine
 10
5.265248425004529
 20
21.40906320999609
 30
0.0
 11
5.265248425004529
 21
22.8655222702187
 31
0.0
  0
LINE
  5
207
330
200
100
AcDbEntity
  8
DIMS
100
AcDbLine
 10
14.34124842500453
 20
21.40906320999609
 30
0.0
 11
14.34124842500453
 21
22.8655222702187
 31
0.0
  0
LINE
  5
208
330
200
100
AcDbEntity
  8
DIMS
100
AcDbLine
 10
5.265248425004529
 20
22.4905222702187
 30
0.0
 11
8.398661307137523
 21
22.4905222702187
 31
0.0
  0
LINE
  5
209
330
200
100
AcDbEntity
  8
DIMS
100
AcDbLine
 10
14.34124842500453
 20
22.4905222702187
 30
0.0
 11
10.81011974309722
 21
22.4905222702187
 31
0.0
  0
MTEXT
  5
20A
330
200
100
AcDbEntity
  8
DIMS
100
AcDbMText
 10
8.398661307137523
 20
22.91155097261387
 30
0.0
 40
0.7500000000000001
 41
0.0
 71
     1
 72
     1
  1
9
  7
SLDTEXTSTYLE1
 73
     1
 44
1.0
  0
MTEXT
  5
20B
330
200
100
AcDbEntity
  8
DIMS
100
AcDbMText
 10
9.449703033747141
 20
23.45951970743228
 30
0.0
 40
0.7500000000000001
 41
0.0
 71
     1
 72
     1
  1
1
  7
SLDTEXTSTYLE1
 73
     1
 44
1.0
  0
MTEXT
  5
20C
330
200
100
AcDbEntity
  8
DIMS
100
AcDbMText
 10
9.172619699637462
 20
22.46774884132896
 30
0.0
 40
0.7500000000000001
 41
0.0
 71
     1
 72
     1
  1
16
  7
SLDTEXTSTYLE1
 73
     1
 44
1.0
  0
MTEXT
  5
20D
330
200
100
AcDbEntity
  8
DIMS
100
AcDbMText
 10
10.500744797023
 20
22.91155097261387
 30
0.0
 40
0.7500000000000001
 41
0.0
 71
     1
 72
     1
  1
"
  7
SLDTEXTSTYLE1
 73
     1
 44
1.0
  0
ENDBLK
  5
491
330
200
100
AcDbEntity
  8
0
100
AcDbBlockEnd
  0
BLOCK
  5
492
330
29C
100
AcDbEntity
  8
0
100
AcDbBlockBegin
  2
_D_3
 70
     0
 71
     0
 10
0.0
 20
0.0
 30
0.0
  3
_D_3
  1

  0
INSERT
  5
29F
330
29C
100
AcDbEntity
  8
DIMS
100
AcDbBlockReference
  2
_Open90
 10
16.1082117387294
 20
21.32239654332943
 30
4.537999999999986
 41
0.7500000000000001
 42
0.7500000000000001
 50
90.00000000000036
  0
INSERT
  5
2A0
330
29C
100
AcDbEntity
  8
DIMS
100
AcDbBlockReference
  2
_Open90
 10
16.10821173872939
 20
8.399396543329422
 30
4.537999999999986
 41
0.7500000000000001
 42
0.7500000000000001
 50
270.0000000000003
  0
LINE
  5
2A1
330
29C
100
AcDbEntity
  8
DIMS
100
AcDbLine
 10
15.84362827522015
 20
15.32856690716422
 30
0.0
 11
17.17175337260569
 21
15.32856690716422
 31
0.0
  0
LINE
  5
2A2
330
29C
100
AcDbEntity
  8
DIMS
100
AcDbLine
 10
17.63442802968132
 20
21.32239654332943
 30
0.0
 11
15.7332117387294
 21
21.32239654332943
 31
0.0
  0
LINE
  5
2A3
330
29C
100
AcDbEntity
  8
DIMS
100
AcDbLine
 10
17.7114280296813
 20
8.399396543329425
 30
0.0
 11
15.73321173872939
 21
8.399396543329422
 31
0.0
  0
LINE
  5
2A4
330
29C
100
AcDbEntity
  8
DIMS
100
AcDbLine
 10
16.1082117387294
 20
21.32239654332943
 30
0.0
 11
16.1082117387294
 21
16.23242109409688
 31
0.0
  0
LINE
  5
2A5
330
29C
100
AcDbEntity
  8
DIMS
100
AcDbLine
 10
16.10821173872939
 20
8.399396543329422
 30
0.0
 11
16.1082117387294
 21
14.27085848756883
 31
0.0
  0
MTEXT
  5
2A6
330
29C
100
AcDbEntity
  8
DIMS
100
AcDbMText
 10
14.62539909497426
 20
15.672668493228
 30
0.0
 40
0.7500000000000001
 41
0.0
 71
     1
 72
     1
  1
12
  7
SLDTEXTSTYLE1
 73
     1
 44
1.0
  0
MTEXT
  5
2A7
330
29C
100
AcDbEntity
  8
DIMS
100
AcDbMText
 10
15.95352415569356
 20
16.22063722804641
 30
0.0
 40
0.7500000000000001
 41
0.0
 71
     1
 72
     1
  1
15
  7
SLDTEXTSTYLE1
 73
     1
 44
1.0
  0
MTEXT
  5
2A8
330
29C
100
AcDbEntity
  8
DIMS
100
AcDbMText
 10
15.95352415569356
 20
15.22886636194309
 30
0.0
 40
0.7500000000000001
 41
0.0
 71
     1
 72
     1
  1
16
  7
SLDTEXTSTYLE1
 73
     1
 44
1.0
  0
MTEXT
  5
2A9
330
29C
100
AcDbEntity
  8
DIMS
100
AcDbMText
 10
17.28164928974534
 20
15.672668493228
 30
0.0
 40
0.7500000000000001
 41
0.0
 71
     1
 72
     1
  1
"
  7
SLDTEXTSTYLE1
 73
     1
 44
1.0
  0
ENDBLK
  5
493
330
29C
100
AcDbEntity
  8
0
100
AcDbBlockEnd
  0
BLOCK
  5
494
330
3E0
100
AcDbEntity
  8
0
100
AcDbBlockBegin
  2
_D_4
 70
     0
 71
     0
 10
0.0
 20
0.0
 30
0.0
  3
_D_4
  1

  0
INSERT
  5
3E3
330
3E0
100
AcDbEntity
  8
DIMS
100
AcDbBlockReference
  2
_Open90
 10
26.63017354312435
 20
7.922016544227556
 30
-4.860190937100326
 41
0.7500000000000001
 42
0.7500000000000001
 50
180.0000000000004
  0
INSERT
  5
3E4
330
3E0
100
AcDbEntity
  8
DIMS
100
AcDbBlockReference
  2
_Open90
 10
31.63017354312435
 20
7.922016544227556
 30
-4.860190937100326
 41
0.7500000000000001
 42
0.7500000000000001
 50
0.0000000000004071
  0
LINE
  5
3E5
330
3E0
100
AcDbEntity
  8
DIMS
100
AcDbLine
 10
26.63017354312435
 20
16.24374333556897
 30
0.0
 11
26.63017354312435
 21
7.547016544227556
 31
0.0
  0
LINE
  5
3E6
330
3E0
100
AcDbEntity
  8
DIMS
100
AcDbLine
 10
31.63017354312435
 20
16.24374333556897
 30
0.0
 11
31.63017354312435
 21
7.547016544227556
 31
0.0
  0
LINE
  5
3E7
330
3E0
100
AcDbEntity
  8
DIMS
100
AcDbLine
 10
26.63017354312435
 20
7.922016544227556
 30
0.0
 11
28.74757844275082
 21
7.922016544227556
 31
0.0
  0
LINE
  5
3E8
330
3E0
100
AcDbEntity
  8
DIMS
100
AcDbLine
 10
31.63017354312435
 20
7.922016544227556
 30
0.0
 11
29.61112009371065
 21
7.922016544227556
 31
0.0
  0
MTEXT
  5
3E9
330
3E0
100
AcDbEntity
  8
DIMS
100
AcDbMText
 10
28.74757844275082
 20
8.284711857161684
 30
0.0
 40
0.7500000000000001
 41
0.0
 71
     1
 72
     1
  1
5"
  7
SLDTEXTSTYLE1
 73
     1
 44
1.0
  0
ENDBLK
  5
495
330
3E0
100
AcDbEntity
  8
0
100
AcDbBlockEnd
  0
BLOCK
  5
496
330
3EB
100
AcDbEntity
  8
0
100
AcDbBlockBegin
  2
_D_5
 70
     0
 71
     0
 10
0.0
 20
0.0
 30
0.0
  3
_D_5
  1

  0
INSERT
  5
3EE
330
3EB
100
AcDbEntity
  8
DIMS
100
AcDbBlockReference
  2
_Open90
 10
35.60372811352507
 20
16.41041000223564
 30
-4.860190937100326
 41
0.7500000000000001
 42
0.7500000000000001
 50
90.00000000000041
  0
INSERT
  5
3EF
330
3EB
100
AcDbEntity
  8
DIMS
100
AcDbBlockReference
  2
_Open90
 10
35.60372811352507
 20
10.19739654332937
 30
-4.860190937100326
 41
0.7500000000000001
 42
0.7500000000000001
 50
270.0000000000004
  0
LINE
  5
3F0
330
3EB
100
AcDbEntity
  8
DIMS
100
AcDbLine
 10
35.06206140757175
 20
13.82081793297056
 30
0.0
 11
36.39018650495729
 21
13.82081793297056
 31
0.0
  0
LINE
  5
3F1
330
3EB
100
AcDbEntity
  8
DIMS
100
AcDbLine
 10
26.79684020979101
 20
16.41041000223564
 30
0.0
 11
35.97872811352507
 21
16.41041000223564
 31
0.0
  0
LINE
  5
3F2
330
3EB
100
AcDbEntity
  8
DIMS
100
AcDbLine
 10
26.79684020979101
 20
10.19739654332937
 30
0.0
 11
35.97872811352507
 21
10.19739654332937
 31
0.0
  0
LINE
  5
3F3
330
3EB
100
AcDbEntity
  8
DIMS
100
AcDbLine
 10
35.60372811352507
 20
16.41041000223564
 30
0.0
 11
35.60372811352507
 21
14.72467211990317
 31
0.0
  0
LINE
  5
3F4
330
3EB
100
AcDbEntity
  8
DIMS
100
AcDbLine
 10
35.60372811352507
 20
10.19739654332937
 30
0.0
 11
35.60372811352507
 21
12.76310951337512
 31
0.0
  0
MTEXT
  5
3F5
330
3EB
100
AcDbEntity
  8
DIMS
100
AcDbMText
 10
34.39799889554522
 20
14.16491951903435
 30
0.0
 40
0.7500000000000001
 41
0.0
 71
     1
 72
     1
  1
6
  7
SLDTEXTSTYLE1
 73
     1
 44
1.0
  0
MTEXT
  5
3F6
330
3EB
100
AcDbEntity
  8
DIMS
100
AcDbMText
 10
35.44904062215484
 20
14.71288825385276
 30
0.0
 40
0.7500000000000001
 41
0.0
 71
     1
 72
     1
  1
3
  7
SLDTEXTSTYLE1
 73
     1
 44
1.0
  0
MTEXT
  5
3F7
330
3EB
100
AcDbEntity
  8
DIMS
100
AcDbMText
 10
35.17195728804516
 20
13.72111738774944
 30
0.0
 40
0.7500000000000001
 41
0.0
 71
     1
 72
     1
  1
16
  7
SLDTEXTSTYLE1
 73
     1
 44
1.0
  0
MTEXT
  5
3F8
330
3EB
100
AcDbEntity
  8
DIMS
100
AcDbMText
 10
36.5000823854307
 20
14.16491951903435
 30
0.0
 40
0.7500000000000001
 41
0.0
 71
     1
 72
     1
  1
"
  7
SLDTEXTSTYLE1
 73
     1
 44
1.0
  0
ENDBLK
  5
497
330
3EB
100
AcDbEntity
  8
0
100
AcDbBlockEnd
  0
BLOCK
  5
498
330
3FB
100
AcDbEntity
  8
0
100
AcDbBlockBegin
  2
_D_6
 70
     0
 71
     0
 10
0.0
 20
0.0
 30
0.0
  3
_D_6
  1

  0
INSERT
  5
3FE
330
3FB
100
AcDbEntity
  8
DIMS
100
AcDbBlockReference
  2
_Open90
 10
26.59782116248653
 20
16.53115073052177
 30
-4.860190937100326
 41
0.7500000000000001
 42
0.7500000000000001
 50
285.0000000000011
  0
LINE
  5
3FF
330
3FB
100
AcDbEntity
  8
DIMS
100
AcDbLine
 10
23.45120178114312
 20
22.96521661449443
 30
0.0
 11
24.22516017364306
 21
22.96521661449443
 31
0.0
  0
LINE
  5
400
330
3FB
100
AcDbEntity
  8
DIMS
100
AcDbLine
 10
26.59782116248653
 20
16.53115073052177
 30
0.0
 11
24.89443096352445
 21
22.88828949816304
 31
0.0
  0
LINE
  5
401
330
3FB
100
AcDbEntity
  8
DIMS
100
AcDbLine
 10
24.89443096352445
 20
22.88828949816304
 30
0.0
 11
24.64443096352445
 21
22.88828949816304
 31
0.0
  0
MTEXT
  5
402
330
3FB
100
AcDbEntity
  8
DIMS
100
AcDbMText
 10
22.21021217716092
 20
23.29785987125915
 30
0.0
 40
0.7500000000000001
 41
0.0
 71
     1
 72
     1
  1
%%c
  7
SLDTEXTSTYLE1
 73
     1
 44
1.0
  0
MTEXT
  5
403
330
3FB
100
AcDbEntity
  8
DIMS
100
AcDbMText
 10
23.56109764328341
 20
23.85728693537663
 30
0.0
 40
0.7500000000000001
 41
0.0
 71
     1
 72
     1
  1
1
  7
SLDTEXTSTYLE1
 73
     1
 44
1.0
  0
MTEXT
  5
404
330
3FB
100
AcDbEntity
  8
DIMS
100
AcDbMText
 10
23.56109764328341
 20
22.8655160692733
 30
0.0
 40
0.7500000000000001
 41
0.0
 71
     1
 72
     1
  1
4
  7
SLDTEXTSTYLE1
 73
     1
 44
1.0
  0
MTEXT
  5
405
330
3FB
100
AcDbEntity
  8
DIMS
100
AcDbMText
 10
24.33505601745022
 20
23.30931820055821
 30
0.0
 40
0.7500000000000001
 41
0.0
 71
     1
 72
     1
  1
"
  7
SLDTEXTSTYLE1
 73
     1
 44
1.0
  0
ENDBLK
  5
499
330
3FB
100
AcDbEntity
  8
0
100
AcDbBlockEnd
  0
BLOCK
  5
49A
330
407
100
AcDbEntity
  8
0
100
AcDbBlockBegin
  2
_D_7
 70
     0
 71
     0
 10
0.0
 20
0.0
 30
0.0
  3
_D_7
  1

  0
INSERT
  5
40A
330
407
100
AcDbEntity
  8
DIMS
100
AcDbBlockReference
  2
_Open90
 10
35.59272154936701
 20
16.41041000223564
 30
-4.860190937100326
 41
0.7500000000000001
 42
0.7500000000000001
 50
270.0000000000004
  0
INSERT
  5
40B
330
407
100
AcDbEntity
  8
DIMS
100
AcDbBlockReference
  2
_Open90
 10
35.59272154936701
 20
21.32239654332943
 30
-4.860190937100326
 41
0.7500000000000001
 42
0.7500000000000001
 50
90.0000000000004
  0
LINE
  5
40C
330
407
100
AcDbEntity
  8
DIMS
100
AcDbLine
 10
35.05105484341368
 20
18.46961187829519
 30
0.0
 11
36.37917994079923
 21
18.46961187829519
 31
0.0
  0
LINE
  5
40D
330
407
100
AcDbEntity
  8
DIMS
100
AcDbLine
 10
31.79684020979101
 20
16.41041000223564
 30
0.0
 11
35.96772154936701
 21
16.41041000223564
 31
0.0
  0
LINE
  5
40E
330
407
100
AcDbEntity
  8
DIMS
100
AcDbLine
 10
33.77984020979103
 20
21.32239654332943
 30
0.0
 11
35.96772154936701
 21
21.32239654332943
 31
0.0
  0
LINE
  5
40F
330
407
100
AcDbEntity
  8
DIMS
100
AcDbLine
 10
35.59272154936701
 20
16.41041000223564
 30
0.0
 11
35.59272154936701
 21
17.41190345869974
 31
0.0
  0
LINE
  5
410
330
407
100
AcDbEntity
  8
DIMS
100
AcDbLine
 10
35.59272154936701
 20
21.32239654332943
 30
0.0
 11
35.59272154936701
 21
19.3734660652278
 31
0.0
  0
MTEXT
  5
411
330
407
100
AcDbEntity
  8
DIMS
100
AcDbMText
 10
34.38699233138716
 20
18.81371346435898
 30
0.0
 40
0.7500000000000001
 41
0.0
 71
     1
 72
     1
  1
4
  7
SLDTEXTSTYLE1
 73
     1
 44
1.0
  0
MTEXT
  5
412
330
407
100
AcDbEntity
  8
DIMS
100
AcDbMText
 10
35.16095072388709
 20
19.36168219917739
 30
0.0
 40
0.7500000000000001
 41
0.0
 71
     1
 72
     1
  1
15
  7
SLDTEXTSTYLE1
 73
     1
 44
1.0
  0
MTEXT
  5
413
330
407
100
AcDbEntity
  8
DIMS
100
AcDbMText
 10
35.16095072388709
 20
18.36991133307407
 30
0.0
 40
0.7500000000000001
 41
0.0
 71
     1
 72
     1
  1
16
  7
SLDTEXTSTYLE1
 73
     1
 44
1.0
  0
MTEXT
  5
414
330
407
100
AcDbEntity
  8
DIMS
100
AcDbMText
 10
36.48907582127264
 20
18.81371346435898
 30
0.0
 40
0.7500000000000001
 41
0.0
 71
     1
 72
     1
  1
"
  7
SLDTEXTSTYLE1
 73
     1
 44
1.0
  0
ENDBLK
  5
49B
330
407
100
AcDbEntity
  8
0
100
AcDbBlockEnd
  0
BLOCK
  5
49C
330
45D
100
AcDbEntity
  8
0
100
AcDbBlockBegin
  2
_D_8
 70
     0
 71
     0
 10
0.0
 20
0.0
 30
0.0
  3
_D_8
  1

  0
INSERT
  5
460
330
45D
100
AcDbEntity
  8
DIMS
100
AcDbBlockReference
  2
_Open90
 10
16.61894780541513
 20
31.66431143436386
 30
3.454326157415427
 41
0.7500000000000001
 42
0.7500000000000001
 50
90.00000000471506
  0
INSERT
  5
461
330
45D
100
AcDbEntity
  8
DIMS
100
AcDbBlockReference
  2
_Open90
 10
16.61894780586211
 20
26.23231143497626
 30
3.454326157415427
 41
0.7500000000000001
 42
0.7500000000000001
 50
270.000000004715
  0
LINE
  5
462
330
45D
100
AcDbEntity
  8
DIMS
100
AcDbLine
 10
16.07728109969851
 20
28.8646862883687
 30
0.0
 11
17.40540619708406
 21
28.8646862883687
 31
0.0
  0
LINE
  5
463
330
45D
100
AcDbEntity
  8
DIMS
100
AcDbLine
 10
12.86589585437617
 20
31.66431143405504
 30
0.0
 11
16.99394780541513
 21
31.66431143439472
 31
0.0
  0
LINE
  5
464
330
45D
100
AcDbEntity
  8
DIMS
100
AcDbLine
 10
14.51536627277356
 20
26.23231143480316
 30
0.0
 11
16.99394780586211
 21
26.23231143500712
 31
0.0
  0
LINE
  5
465
330
45D
100
AcDbEntity
  8
DIMS
100
AcDbLine
 10
16.61894780541513
 20
31.66431143436386
 30
0.0
 11
16.61894780557112
 21
29.76854047530136
 31
0.0
  0
LINE
  5
466
330
45D
100
AcDbEntity
  8
DIMS
100
AcDbLine
 10
16.61894780586211
 20
26.23231143497626
 30
0.0
 11
16.61894780573254
 21
27.80697786877331
 31
0.0
  0
MTEXT
  5
467
330
45D
100
AcDbEntity
  8
DIMS
100
AcDbMText
 10
15.41321858767198
 20
29.20878787443248
 30
0.0
 40
0.7500000000000001
 41
0.0
 71
     1
 72
     1
  1
5
  7
SLDTEXTSTYLE1
 73
     1
 44
1.0
  0
MTEXT
  5
468
330
45D
100
AcDbEntity
  8
DIMS
100
AcDbMText
 10
16.4642603142816
 20
29.7567566092509
 30
0.0
 40
0.7500000000000001
 41
0.0
 71
     1
 72
     1
  1
7
  7
SLDTEXTSTYLE1
 73
     1
 44
1.0
  0
MTEXT
  5
469
330
45D
100
AcDbEntity
  8
DIMS
100
AcDbMText
 10
16.18717698017192
 20
28.76498574314758
 30
0.0
 40
0.7500000000000001
 41
0.0
 71
     1
 72
     1
  1
16
  7
SLDTEXTSTYLE1
 73
     1
 44
1.0
  0
MTEXT
  5
46A
330
45D
100
AcDbEntity
  8
DIMS
100
AcDbMText
 10
17.51530207755746
 20
29.20878787443248
 30
0.0
 40
0.7500000000000001
 41
0.0
 71
     1
 72
     1
  1
"
  7
SLDTEXTSTYLE1
 73
     1
 44
1.0
  0
ENDBLK
  5
49D
330
45D
100
AcDbEntity
  8
0
100
AcDbBlockEnd
  0
ENDSEC
  0
SECTION
  2
ENTITIES
  0
LINE
  5
81
330
1F
100
AcDbEntity
  8
TITLE
370
    50
100
AcDbLine
 10
29.43391070279198
 20
1.381311886050946
 30
0.0
 11
46.41567412997442
 21
1.381311886050946
 31
0.0
  0
LINE
  5
82
330
1F
100
AcDbEntity
  8
TITLE
370
    50
100
AcDbLine
 10
46.4156194230234
 20
5.369060515145104
 30
0.0
 11
36.22622275109721
 21
5.369060515145103
 31
0.0
  0
LINE
  5
83
330
1F
100
AcDbEntity
  8
TITLE
370
    50
100
AcDbLine
 10
29.43391070279198
 20
2.436487844692758
 30
0.0
 11
22.42166679904371
 21
2.436487844692757
 31
0.0
  0
LINE
  5
84
330
1F
100
AcDbEntity
  8
TITLE
370
    50
100
AcDbLine
 10
29.43391070279198
 20
1.381311886050946
 30
0.0
 11
22.42166679904371
 21
1.381311886050945
 31
0.0
  0
LINE
  5
85
330
1F
100
AcDbEntity
  8
TITLE
370
    50
100
AcDbLine
 10
29.43391070279198
 20
1.381311886050946
 30
0.0
 11
29.43391070279198
 21
3.491663803334569
 31
0.0
  0
LINE
  5
86
330
1F
100
AcDbEntity
  8
TITLE
370
    50
100
AcDbLine
 10
22.42166679904371
 20
3.491663803334568
 30
0.0
 11
22.42166679904371
 21
0.3937001215893171
 31
0.0
  0
LINE
  5
87
330
1F
100
AcDbEntity
  8
TITLE
370
    50
100
AcDbLine
 10
22.42166679904371
 20
0.3937001215893171
 30
0.0
 11
46.41568767877938
 21
0.3937001215893171
 31
0.0
  0
LINE
  5
88
330
1F
100
AcDbEntity
  8
TITLE
370
    50
100
AcDbLine
 10
46.4156194230234
 20
5.369060515145104
 30
0.0
 11
46.41568767877938
 21
0.3937001215893171
 31
0.0
  0
LINE
  5
89
330
1F
100
AcDbEntity
  8
TITLE
370
    50
100
AcDbLine
 10
29.43391070279198
 20
3.491663803334569
 30
0.0
 11
22.42166679904371
 21
3.491663803334568
 31
0.0
  0
LINE
  5
8A
330
1F
100
AcDbEntity
  8
TITLE
370
    50
100
AcDbLine
 10
29.43391070279198
 20
3.491663803334569
 30
0.0
 11
46.41544924304012
 21
3.491664955913943
 31
0.0
  0
LINE
  5
8B
330
1F
100
AcDbEntity
  8
TITLE
370
    50
100
AcDbLine
 10
36.22622275109721
 20
5.369060515145103
 30
0.0
 11
36.22622275109721
 21
0.3573773641115478
 31
0.0
  0
MTEXT
  5
8D
330
1F
100
AcDbEntity
  8
NOTES
100
AcDbMText
 10
23.32398548181345
 20
0.9639904562836571
 30
0.0
 40
0.25
 41
0.0
 71
     1
 72
     1
  1
UNLESS OTHERWISE SPECIFIED DIMENSIONS ARE IN INCHES.
  7
SLDTEXTSTYLE0
 73
     1
 44
1.0
  0
MTEXT
  5
8E
330
1F
100
AcDbEntity
  8
NOTES
100
AcDbMText
 10
23.34575760666969
 20
2.976762899169739
 30
0.0
 40
0.25
 41
0.0
 71
     1
 72
     1
  1
DATE:
  7
SLDTEXTSTYLE0
 73
     1
 44
1.0
  0
MTEXT
  5
8F
330
1F
100
AcDbEntity
  8
NOTES
100
AcDbMText
 10
25.4543888667847
 20
2.086733085252027
 30
0.0
 40
0.25
 41
0.0
 71
     2
 72
     1
  1
DO NOT SCALE DRAWING
  7
SLDTEXTSTYLE0
 73
     1
 44
1.0
  0
MTEXT
  5
91
330
1F
100
AcDbEntity
  8
NOTES
100
AcDbMText
 10
29.74642498628476
 20
3.161975676886921
 30
0.0
 40
0.25
 41
0.0
 71
     1
 72
     1
  1
TITLE:
  7
SLDTEXTSTYLE1
 73
     1
 44
1.0
  0
MTEXT
  5
49E
330
1F
100
AcDbEntity
  8
NOTES
100
AcDbMText
 10
37.07187078394034
 20
3.161975676886921
 30
0.0
 40
0.25
 41
0.0
 71
     1
 72
     1
  1
DWG NO.
  7
SLDTEXTSTYLE1
 73
     1
 44
1.0
  0
MTEXT
  5
49F
330
1F
100
AcDbEntity
  8
NOTES
100
AcDbMText
 10
37.09886299906432
 20
0.9582816792631479
 30
0.0
 40
0.25
 41
0.0
 71
     1
 72
     1
  1
SCALE:     1:1
  7
SLDTEXTSTYLE1
 73
     1
 44
1.0
  0
MTEXT
  5
94
330
1F
100
AcDbEntity
  8
NOTES
100
AcDbMText
 10
41.09284170762094
 20
2.544734551050183
 30
0.0
 40
0.25
 41
0.0
 71
     2
 72
     1
  1
909 - CAD
  7
SLDTEXTSTYLE1
 73
     1
 44
1.0
  0
MTEXT
  5
95
330
1F
100
AcDbEntity
  8
NOTES
100
AcDbMText
 10
33.36941944773715
 20
2.544734551050181
 30
0.0
 40
0.25
 41
0.0
 71
     2
 72
     1
  1
909 - HD Outdoor Ash Bin
  7
SLDTEXTSTYLE1
 73
     1
 44
1.0
  0
INSERT
  5
A5
330
1F
100
AcDbEntity
  8
NOTES
100
AcDbBlockReference
  2
SW_NOTE_0_1
 10
23.53166030337019
 20
5.041852806368022
 30
0.0
  0
MTEXT
  5
A6
330
1F
100
AcDbEntity
  8
NOTES
100
AcDbMText
 10
26.42021889998205
 20
2.980173448355186
 30
0.0
 40
0.25
 41
0.0
 71
     2
 72
     1
  1
May 11, 2021
  7
SLDTEXTSTYLE1
 73
     1
 44
1.0
  0
LINE
  5
A7
330
1F
100
AcDbEntity
  8
0
  6
SLD-Solid
 62
     7
370
    25
100
AcDbLine
 10
9.472248425004523
 20
9.770316419965216
 30
0.0
 11
9.472248425004523
 21
9.770163707454776
 31
0.0
  0
LINE
  5
A8
330
1F
100
AcDbEntity
  8
0
  6
SLD-Solid
 62
     7
370
    25
100
AcDbLine
 10
10.10224842500452
 20
9.770163707454758
 30
0.0
 11
10.10224842500452
 21
9.770316419965198
 31
0.0
  0
LINE
  5
A9
330
1F
100
AcDbEntity
  8
0
  6
SLD-Solid
 62
     7
370
    25
100
AcDbLine
 10
10.23724842500452
 20
9.767262169756393
 30
0.0
 11
10.23724842500452
 21
9.769705569923433
 31
0.0
  0
LINE
  5
AA
330
1F
100
AcDbEntity
  8
0
  6
SLD-Solid
 62
     7
370
    25
100
AcDbLine
 10
9.337248425004523
 20
9.76970556992346
 30
0.0
 11
9.337248425004523
 21
9.76726216975642
 31
0.0
  0
LINE
  5
AB
330
1F
100
AcDbEntity
  8
0
  6
SLD-Solid
 62
     7
370
    25
100
AcDbLine
 10
5.653248425004535
 20
18.40789654332941
 30
0.0
 11
5.428248425004535
 21
18.40789654332941
 31
0.0
  0
LINE
  5
AC
330
1F
100
AcDbEntity
  8
0
  6
SLD-Solid
 62
     7
370
    25
100
AcDbLine
 10
7.153248425004535
 20
18.40789654332941
 30
0.0
 11
6.928248425004534
 21
18.40789654332941
 31
0.0
  0
LINE
  5
AD
330
1F
100
AcDbEntity
  8
0
  6
SLD-Solid
 62
     7
370
    25
100
AcDbLine
 10
6.653248425004534
 20
18.40789654332941
 30
0.0
 11
6.428248425004535
 21
18.40789654332941
 31
0.0
  0
LINE
  5
AE
330
1F
100
AcDbEntity
  8
0
  6
SLD-Solid
 62
     7
370
    25
100
AcDbLine
 10
7.653248425004534
 20
18.40789654332941
 30
0.0
 11
7.428248425004535
 21
18.40789654332941
 31
0.0
  0
LINE
  5
AF
330
1F
100
AcDbEntity
  8
0
  6
SLD-Solid
 62
     7
370
    25
100
AcDbLine
 10
6.153248425004535
 20
18.40789654332941
 30
0.0
 11
5.928248425004535
 21
18.40789654332941
 31
0.0
  0
LINE
  5
B0
330
1F
100
AcDbEntity
  8
0
  6
SLD-Solid
 62
     7
370
    25
100
AcDbLine
 10
8.153248425004536
 20
18.40789654332941
 30
0.0
 11
7.928248425004535
 21
18.40789654332941
 31
0.0
  0
LINE
  5
B1
330
1F
100
AcDbEntity
  8
0
  6
SLD-Solid
 62
     7
370
    25
100
AcDbLine
 10
11.15324842500453
 20
18.40789654332941
 30
0.0
 11
10.92824842500453
 21
18.40789654332941
 31
0.0
  0
LINE
  5
B2
330
1F
100
AcDbEntity
  8
0
  6
SLD-Solid
 62
     7
370
    25
100
AcDbLine
 10
9.653248425004534
 20
18.40789654332941
 30
0.0
 11
9.428248425004533
 21
18.40789654332941
 31
0.0
  0
LINE
  5
B3
330
1F
100
AcDbEntity
  8
0
  6
SLD-Solid
 62
     7
370
    25
100
AcDbLine
 10
10.15324842500453
 20
18.40789654332941
 30
0.0
 11
9.928248425004533
 21
18.40789654332941
 31
0.0
  0
LINE
  5
B4
330
1F
100
AcDbEntity
  8
0
  6
SLD-Solid
 62
     7
370
    25
100
AcDbLine
 10
8.653248425004534
 20
18.40789654332941
 30
0.0
 11
8.428248425004535
 21
18.40789654332941
 31
0.0
  0
LINE
  5
B5
330
1F
100
AcDbEntity
  8
0
  6
SLD-Solid
 62
     7
370
    25
100
AcDbLine
 10
9.153248425004534
 20
18.40789654332941
 30
0.0
 11
8.928248425004535
 21
18.40789654332941
 31
0.0
  0
LINE
  5
B6
330
1F
100
AcDbEntity
  8
0
  6
SLD-Solid
 62
     7
370
    25
100
AcDbLine
 10
11.65324842500453
 20
18.40789654332941
 30
0.0
 11
11.42824842500453
 21
18.40789654332941
 31
0.0
  0
LINE
  5
B7
330
1F
100
AcDbEntity
  8
0
  6
SLD-Solid
 62
     7
370
    25
100
AcDbLine
 10
10.65324842500453
 20
18.40789654332941
 30
0.0
 11
10.42824842500453
 21
18.40789654332941
 31
0.0
  0
LINE
  5
B8
330
1F
100
AcDbEntity
  8
0
  6
SLD-Solid
 62
     7
370
    25
100
AcDbLine
 10
12.15324842500453
 20
18.40789654332941
 30
0.0
 11
11.92824842500453
 21
18.40789654332941
 31
0.0
  0
LINE
  5
B9
330
1F
100
AcDbEntity
  8
0
  6
SLD-Solid
 62
     7
370
    25
100
AcDbLine
 10
14.15324842500453
 20
18.40789654332941
 30
0.0
 11
13.92824842500453
 21
18.40789654332941
 31
0.0
  0
LINE
  5
BA
330
1F
100
AcDbEntity
  8
0
  6
SLD-Solid
 62
     7
370
    25
100
AcDbLine
 10
12.65324842500453
 20
18.40789654332941
 30
0.0
 11
12.42824842500453
 21
18.40789654332941
 31
0.0
  0
LINE
  5
BB
330
1F
100
AcDbEntity
  8
0
  6
SLD-Solid
 62
     7
370
    25
100
AcDbLine
 10
13.65324842500453
 20
18.40789654332941
 30
0.0
 11
13.42824842500453
 21
18.40789654332941
 31
0.0
  0
LINE
  5
BC
330
1F
100
AcDbEntity
  8
0
  6
SLD-Solid
 62
     7
370
    25
100
AcDbLine
 10
13.15324842500453
 20
18.40789654332941
 30
0.0
 11
12.92824842500453
 21
18.40789654332941
 31
0.0
  0
LINE
  5
BD
330
1F
100
AcDbEntity
  8
0
  6
SLD-Solid
 62
     7
370
    25
100
AcDbLine
 10
6.42824842500453
 20
18.40789654332941
 30
0.0
 11
6.203248425004531
 21
18.40789654332941
 31
0.0
  0
LINE
  5
BE
330
1F
100
AcDbEntity
  8
0
  6
SLD-Solid
 62
     7
370
    25
100
AcDbLine
 10
7.42824842500453
 20
18.40789654332941
 30
0.0
 11
7.20324842500453
 21
18.40789654332941
 31
0.0
  0
LINE
  5
BF
330
1F
100
AcDbEntity
  8
0
  6
SLD-Solid
 62
     7
370
    25
100
AcDbLine
 10
9.42824842500453
 20
18.40789654332941
 30
0.0
 11
9.20324842500453
 21
18.40789654332941
 31
0.0
  0
LINE
  5
C0
330
1F
100
AcDbEntity
  8
0
  6
SLD-Solid
 62
     7
370
    25
100
AcDbLine
 10
8.42824842500453
 20
18.40789654332941
 30
0.0
 11
8.203248425004531
 21
18.40789654332941
 31
0.0
  0
LINE
  5
C1
330
1F
100
AcDbEntity
  8
0
  6
SLD-Solid
 62
     7
370
    25
100
AcDbLine
 10
5.928248425004529
 20
18.40789654332941
 30
0.0
 11
5.70324842500453
 21
18.40789654332941
 31
0.0
  0
LINE
  5
C2
330
1F
100
AcDbEntity
  8
0
  6
SLD-Solid
 62
     7
370
    25
100
AcDbLine
 10
13.42824842500453
 20
18.40789654332942
 30
0.0
 11
13.20324842500453
 21
18.40789654332942
 31
0.0
  0
LINE
  5
C3
330
1F
100
AcDbEntity
  8
0
  6
SLD-Solid
 62
     7
370
    25
100
AcDbLine
 10
12.92824842500453
 20
18.40789654332942
 30
0.0
 11
12.70324842500453
 21
18.40789654332941
 31
0.0
  0
LINE
  5
C4
330
1F
100
AcDbEntity
  8
0
  6
SLD-Solid
 62
     7
370
    25
100
AcDbLine
 10
10.92824842500453
 20
18.40789654332941
 30
0.0
 11
10.70324842500453
 21
18.40789654332941
 31
0.0
  0
LINE
  5
C5
330
1F
100
AcDbEntity
  8
0
  6
SLD-Solid
 62
     7
370
    25
100
AcDbLine
 10
10.42824842500453
 20
18.40789654332941
 30
0.0
 11
10.20324842500453
 21
18.40789654332941
 31
0.0
  0
LINE
  5
C6
330
1F
100
AcDbEntity
  8
0
  6
SLD-Solid
 62
     7
370
    25
100
AcDbLine
 10
13.92824842500453
 20
18.40789654332942
 30
0.0
 11
13.70324842500453
 21
18.40789654332942
 31
0.0
  0
LINE
  5
C7
330
1F
100
AcDbEntity
  8
0
  6
SLD-Solid
 62
     7
370
    25
100
AcDbLine
 10
9.928248425004531
 20
18.40789654332941
 30
0.0
 11
9.70324842500453
 21
18.40789654332941
 31
0.0
  0
LINE
  5
C8
330
1F
100
AcDbEntity
  8
0
  6
SLD-Solid
 62
     7
370
    25
100
AcDbLine
 10
7.92824842500453
 20
18.40789654332941
 30
0.0
 11
7.70324842500453
 21
18.40789654332941
 31
0.0
  0
LINE
  5
C9
330
1F
100
AcDbEntity
  8
0
  6
SLD-Solid
 62
     7
370
    25
100
AcDbLine
 10
8.92824842500453
 20
18.40789654332941
 30
0.0
 11
8.70324842500453
 21
18.40789654332941
 31
0.0
  0
LINE
  5
CA
330
1F
100
AcDbEntity
  8
0
  6
SLD-Solid
 62
     7
370
    25
100
AcDbLine
 10
11.92824842500453
 20
18.40789654332941
 30
0.0
 11
11.70324842500453
 21
18.40789654332941
 31
0.0
  0
LINE
  5
CB
330
1F
100
AcDbEntity
  8
0
  6
SLD-Solid
 62
     7
370
    25
100
AcDbLine
 10
12.42824842500453
 20
18.40789654332941
 30
0.0
 11
12.20324842500453
 21
18.40789654332941
 31
0.0
  0
LINE
  5
CC
330
1F
100
AcDbEntity
  8
0
  6
SLD-Solid
 62
     7
370
    25
100
AcDbLine
 10
11.42824842500453
 20
18.40789654332941
 30
0.0
 11
11.20324842500453
 21
18.40789654332941
 31
0.0
  0
LINE
  5
CD
330
1F
100
AcDbEntity
  8
0
  6
SLD-Solid
 62
     7
370
    25
100
AcDbLine
 10
6.928248425004529
 20
18.40789654332941
 30
0.0
 11
6.70324842500453
 21
18.40789654332941
 31
0.0
  0
LINE
  5
CE
330
1F
100
AcDbEntity
  8
0
  6
SLD-Solid
 62
     7
370
    25
100
AcDbLine
 10
5.381248425004522
 20
8.515618034440692
 30
0.0
 11
14.19324842500452
 21
8.515618034440692
 31
0.0
  0
CIRCLE
  5
CF
330
1F
100
AcDbEntity
  8
0
  6
SLD-Solid
 62
     7
370
    25
100
AcDbCircle
 10
9.787244744095196
 20
9.770337035874087
 30
0.0
 40
0.3999907637899983
  0
ARC
  5
D0
330
1F
100
AcDbEntity
  8
0
  6
SLD-Solid
 62
     7
370
    25
100
AcDbCircle
 10
9.787230427518452
 20
9.769721156000186
 30
0.0
 40
0.4499820027838579
100
AcDbArc
 50
180.0019845602948
 51
270.0022916027486
  0
ARC
  5
D1
330
1F
100
AcDbEntity
  8
0
  6
SLD-Solid
 62
     7
370
    25
100
AcDbCircle
 10
9.78726500377738
 20
9.769722574819285
 30
0.0
 40
0.4499834215484513
100
AcDbArc
 50
269.9978890473104
 51
359.9978347896464
  0
CIRCLE
  5
D2
330
1F
100
AcDbEntity
  8
0
  6
SLD-Solid
 62
     7
370
    25
100
AcDbCircle
 10
9.787245238918507
 20
9.770334085603587
 30
0.0
 40
0.3249934107936434
  0
CIRCLE
  5
D3
330
1F
100
AcDbEntity
  8
0
  6
SLD-Solid
 62
     7
370
    25
100
AcDbCircle
 10
9.787245142263506
 20
9.7703327026382
 30
0.0
 40
0.3149927741331413
  0
LINE
  5
D4
330
1F
100
AcDbEntity
  8
0
  6
SLD-Solid
 62
     7
370
    25
100
AcDbLine
 10
9.742248425004524
 20
9.85185956138351
 30
0.0
 11
9.742248425004524
 21
9.476887547760839
 31
0.0
  0
LINE
  5
D5
330
1F
100
AcDbEntity
  8
0
  6
SLD-Solid
 62
     7
370
    25
100
AcDbLine
 10
9.742248425004524
 20
9.476887547760839
 30
0.0
 11
9.832248425004524
 21
9.476887547760839
 31
0.0
  0
LINE
  5
D6
330
1F
100
AcDbEntity
  8
0
  6
SLD-Solid
 62
     7
370
    25
100
AcDbLine
 10
9.832248425004524
 20
9.476887547760839
 30
0.0
 11
9.832248425004524
 21
9.85185956138351
 31
0.0
  0
LINE
  5
D7
330
1F
100
AcDbEntity
  8
0
  6
SLD-Solid
 62
     7
370
    25
100
AcDbLine
 10
9.832248425004524
 20
9.85185956138351
 30
0.0
 11
9.742248425004524
 21
9.85185956138351
 31
0.0
  0
LINE
  5
D8
330
1F
100
AcDbEntity
  8
0
  6
SLD-Solid
 62
     7
370
    25
100
AcDbLine
 10
9.832248425004524
 20
9.850332436279107
 30
0.0
 11
9.742248425004524
 21
9.850332436279107
 31
0.0
  0
ARC
  5
D9
330
1F
100
AcDbEntity
  8
0
  6
SLD-Solid
 62
     7
370
    25
100
AcDbCircle
 10
9.787266422490601
 20
9.767277755833142
 30
0.0
 40
0.4499820027838526
100
AcDbArc
 50
269.9977083972523
 51
359.9980154397039
  0
ARC
  5
DA
330
1F
100
AcDbEntity
  8
0
  6
SLD-Solid
 62
     7
370
    25
100
AcDbCircle
 10
9.787231846231665
 20
9.767279174652247
 30
0.0
 40
0.4499834215484501
100
AcDbArc
 50
180.0021652103522
 51
270.0021109526917
  0
LINE
  5
DB
330
1F
100
AcDbEntity
  8
0
  6
SLD-Solid
 62
     7
370
    25
100
AcDbLine
 10
5.428248425004535
 20
18.39511363588284
 30
0.0
 11
5.653248425004535
 21
18.39511363588284
 31
0.0
  0
LINE
  5
DC
330
1F
100
AcDbEntity
  8
0
  6
SLD-Solid
 62
     7
370
    25
100
AcDbLine
 10
5.653248425004535
 20
18.3726975229373
 30
0.0
 11
5.653248425004535
 21
18.39511363588284
 31
0.0
  0
LINE
  5
DD
330
1F
100
AcDbEntity
  8
0
  6
SLD-Solid
 62
     7
370
    25
100
AcDbLine
 10
5.928248425004535
 20
18.39511363588284
 30
0.0
 11
5.928248425004536
 21
18.3726975229373
 31
0.0
  0
LINE
  5
DE
330
1F
100
AcDbEntity
  8
0
  6
SLD-Solid
 62
     7
370
    25
100
AcDbLine
 10
5.928248425004535
 20
18.39511363588284
 30
0.0
 11
6.153248425004535
 21
18.39511363588284
 31
0.0
  0
LINE
  5
DF
330
1F
100
AcDbEntity
  8
0
  6
SLD-Solid
 62
     7
370
    25
100
AcDbLine
 10
6.153248425004535
 20
18.3726975229373
 30
0.0
 11
6.153248425004535
 21
18.39511363588284
 31
0.0
  0
LINE
  5
E0
330
1F
100
AcDbEntity
  8
0
  6
SLD-Solid
 62
     7
370
    25
100
AcDbLine
 10
6.428248425004535
 20
18.39511363588284
 30
0.0
 11
6.428248425004535
 21
18.3726975229373
 31
0.0
  0
LINE
  5
E1
330
1F
100
AcDbEntity
  8
0
  6
SLD-Solid
 62
     7
370
    25
100
AcDbLine
 10
6.428248425004535
 20
18.39511363588284
 30
0.0
 11
6.653248425004534
 21
18.39511363588284
 31
0.0
  0
LINE
  5
E2
330
1F
100
AcDbEntity
  8
0
  6
SLD-Solid
 62
     7
370
    25
100
AcDbLine
 10
6.653248425004534
 20
18.3726975229373
 30
0.0
 11
6.653248425004534
 21
18.39511363588284
 31
0.0
  0
LINE
  5
E3
330
1F
100
AcDbEntity
  8
0
  6
SLD-Solid
 62
     7
370
    25
100
AcDbLine
 10
6.928248425004534
 20
18.39511363588284
 30
0.0
 11
6.928248425004533
 21
18.3726975229373
 31
0.0
  0
LINE
  5
E4
330
1F
100
AcDbEntity
  8
0
  6
SLD-Solid
 62
     7
370
    25
100
AcDbLine
 10
6.928248425004534
 20
18.39511363588284
 30
0.0
 11
7.153248425004535
 21
18.39511363588284
 31
0.0
  0
LINE
  5
E5
330
1F
100
AcDbEntity
  8
0
  6
SLD-Solid
 62
     7
370
    25
100
AcDbLine
 10
7.153248425004535
 20
18.3726975229373
 30
0.0
 11
7.153248425004535
 21
18.39511363588284
 31
0.0
  0
LINE
  5
E6
330
1F
100
AcDbEntity
  8
0
  6
SLD-Solid
 62
     7
370
    25
100
AcDbLine
 10
7.428248425004535
 20
18.39511363588284
 30
0.0
 11
7.428248425004535
 21
18.3726975229373
 31
0.0
  0
LINE
  5
E7
330
1F
100
AcDbEntity
  8
0
  6
SLD-Solid
 62
     7
370
    25
100
AcDbLine
 10
7.428248425004535
 20
18.39511363588284
 30
0.0
 11
7.653248425004534
 21
18.39511363588284
 31
0.0
  0
LINE
  5
E8
330
1F
100
AcDbEntity
  8
0
  6
SLD-Solid
 62
     7
370
    25
100
AcDbLine
 10
7.653248425004534
 20
18.3726975229373
 30
0.0
 11
7.653248425004534
 21
18.39511363588284
 31
0.0
  0
LINE
  5
E9
330
1F
100
AcDbEntity
  8
0
  6
SLD-Solid
 62
     7
370
    25
100
AcDbLine
 10
7.928248425004535
 20
18.39511363588284
 30
0.0
 11
7.928248425004535
 21
18.3726975229373
 31
0.0
  0
LINE
  5
EA
330
1F
100
AcDbEntity
  8
0
  6
SLD-Solid
 62
     7
370
    25
100
AcDbLine
 10
7.928248425004535
 20
18.39511363588284
 30
0.0
 11
8.153248425004536
 21
18.39511363588284
 31
0.0
  0
LINE
  5
EB
330
1F
100
AcDbEntity
  8
0
  6
SLD-Solid
 62
     7
370
    25
100
AcDbLine
 10
8.153248425004536
 20
18.3726975229373
 30
0.0
 11
8.153248425004536
 21
18.39511363588284
 31
0.0
  0
LINE
  5
EC
330
1F
100
AcDbEntity
  8
0
  6
SLD-Solid
 62
     7
370
    25
100
AcDbLine
 10
8.428248425004535
 20
18.39511363588284
 30
0.0
 11
8.428248425004535
 21
18.3726975229373
 31
0.0
  0
LINE
  5
ED
330
1F
100
AcDbEntity
  8
0
  6
SLD-Solid
 62
     7
370
    25
100
AcDbLine
 10
8.428248425004535
 20
18.39511363588284
 30
0.0
 11
8.653248425004534
 21
18.39511363588284
 31
0.0
  0
LINE
  5
EE
330
1F
100
AcDbEntity
  8
0
  6
SLD-Solid
 62
     7
370
    25
100
AcDbLine
 10
8.653248425004534
 20
18.3726975229373
 30
0.0
 11
8.653248425004534
 21
18.39511363588284
 31
0.0
  0
LINE
  5
EF
330
1F
100
AcDbEntity
  8
0
  6
SLD-Solid
 62
     7
370
    25
100
AcDbLine
 10
8.928248425004535
 20
18.39511363588284
 30
0.0
 11
8.928248425004535
 21
18.3726975229373
 31
0.0
  0
LINE
  5
F0
330
1F
100
AcDbEntity
  8
0
  6
SLD-Solid
 62
     7
370
    25
100
AcDbLine
 10
8.928248425004535
 20
18.39511363588284
 30
0.0
 11
9.153248425004534
 21
18.39511363588284
 31
0.0
  0
LINE
  5
F1
330
1F
100
AcDbEntity
  8
0
  6
SLD-Solid
 62
     7
370
    25
100
AcDbLine
 10
9.153248425004534
 20
18.3726975229373
 30
0.0
 11
9.153248425004534
 21
18.39511363588284
 31
0.0
  0
LINE
  5
F2
330
1F
100
AcDbEntity
  8
0
  6
SLD-Solid
 62
     7
370
    25
100
AcDbLine
 10
9.428248425004533
 20
18.39511363588284
 30
0.0
 11
9.428248425004533
 21
18.3726975229373
 31
0.0
  0
LINE
  5
F3
330
1F
100
AcDbEntity
  8
0
  6
SLD-Solid
 62
     7
370
    25
100
AcDbLine
 10
9.428248425004533
 20
18.39511363588284
 30
0.0
 11
9.653248425004534
 21
18.39511363588284
 31
0.0
  0
LINE
  5
F4
330
1F
100
AcDbEntity
  8
0
  6
SLD-Solid
 62
     7
370
    25
100
AcDbLine
 10
9.653248425004534
 20
18.3726975229373
 30
0.0
 11
9.653248425004534
 21
18.39511363588284
 31
0.0
  0
LINE
  5
F5
330
1F
100
AcDbEntity
  8
0
  6
SLD-Solid
 62
     7
370
    25
100
AcDbLine
 10
9.928248425004533
 20
18.39511363588284
 30
0.0
 11
9.928248425004533
 21
18.3726975229373
 31
0.0
  0
LINE
  5
F6
330
1F
100
AcDbEntity
  8
0
  6
SLD-Solid
 62
     7
370
    25
100
AcDbLine
 10
9.928248425004533
 20
18.39511363588284
 30
0.0
 11
10.15324842500453
 21
18.39511363588284
 31
0.0
  0
LINE
  5
F7
330
1F
100
AcDbEntity
  8
0
  6
SLD-Solid
 62
     7
370
    25
100
AcDbLine
 10
10.15324842500453
 20
18.3726975229373
 30
0.0
 11
10.15324842500453
 21
18.39511363588284
 31
0.0
  0
LINE
  5
F8
330
1F
100
AcDbEntity
  8
0
  6
SLD-Solid
 62
     7
370
    25
100
AcDbLine
 10
10.42824842500453
 20
18.39511363588284
 30
0.0
 11
10.42824842500453
 21
18.3726975229373
 31
0.0
  0
LINE
  5
F9
330
1F
100
AcDbEntity
  8
0
  6
SLD-Solid
 62
     7
370
    25
100
AcDbLine
 10
10.42824842500453
 20
18.39511363588284
 30
0.0
 11
10.65324842500453
 21
18.39511363588284
 31
0.0
  0
LINE
  5
FA
330
1F
100
AcDbEntity
  8
0
  6
SLD-Solid
 62
     7
370
    25
100
AcDbLine
 10
10.65324842500453
 20
18.3726975229373
 30
0.0
 11
10.65324842500453
 21
18.39511363588284
 31
0.0
  0
LINE
  5
FB
330
1F
100
AcDbEntity
  8
0
  6
SLD-Solid
 62
     7
370
    25
100
AcDbLine
 10
10.92824842500453
 20
18.39511363588284
 30
0.0
 11
10.92824842500453
 21
18.3726975229373
 31
0.0
  0
LINE
  5
FC
330
1F
100
AcDbEntity
  8
0
  6
SLD-Solid
 62
     7
370
    25
100
AcDbLine
 10
10.92824842500453
 20
18.39511363588284
 30
0.0
 11
11.15324842500453
 21
18.39511363588284
 31
0.0
  0
LINE
  5
FD
330
1F
100
AcDbEntity
  8
0
  6
SLD-Solid
 62
     7
370
    25
100
AcDbLine
 10
11.15324842500453
 20
18.3726975229373
 30
0.0
 11
11.15324842500453
 21
18.39511363588284
 31
0.0
  0
LINE
  5
FE
330
1F
100
AcDbEntity
  8
0
  6
SLD-Solid
 62
     7
370
    25
100
AcDbLine
 10
11.42824842500453
 20
18.39511363588284
 30
0.0
 11
11.42824842500453
 21
18.3726975229373
 31
0.0
  0
LINE
  5
FF
330
1F
100
AcDbEntity
  8
0
  6
SLD-Solid
 62
     7
370
    25
100
AcDbLine
 10
11.42824842500453
 20
18.39511363588284
 30
0.0
 11
11.65324842500453
 21
18.39511363588284
 31
0.0
  0
LINE
  5
100
330
1F
100
AcDbEntity
  8
0
  6
SLD-Solid
 62
     7
370
    25
100
AcDbLine
 10
11.65324842500453
 20
18.3726975229373
 30
0.0
 11
11.65324842500453
 21
18.39511363588284
 31
0.0
  0
LINE
  5
101
330
1F
100
AcDbEntity
  8
0
  6
SLD-Solid
 62
     7
370
    25
100
AcDbLine
 10
11.92824842500453
 20
18.39511363588284
 30
0.0
 11
11.92824842500453
 21
18.3726975229373
 31
0.0
  0
LINE
  5
102
330
1F
100
AcDbEntity
  8
0
  6
SLD-Solid
 62
     7
370
    25
100
AcDbLine
 10
11.92824842500453
 20
18.39511363588284
 30
0.0
 11
12.15324842500453
 21
18.39511363588284
 31
0.0
  0
LINE
  5
103
330
1F
100
AcDbEntity
  8
0
  6
SLD-Solid
 62
     7
370
    25
100
AcDbLine
 10
12.15324842500453
 20
18.3726975229373
 30
0.0
 11
12.15324842500453
 21
18.39511363588284
 31
0.0
  0
LINE
  5
104
330
1F
100
AcDbEntity
  8
0
  6
SLD-Solid
 62
     7
370
    25
100
AcDbLine
 10
12.42824842500453
 20
18.39511363588284
 30
0.0
 11
12.42824842500453
 21
18.3726975229373
 31
0.0
  0
LINE
  5
105
330
1F
100
AcDbEntity
  8
0
  6
SLD-Solid
 62
     7
370
    25
100
AcDbLine
 10
12.42824842500453
 20
18.39511363588284
 30
0.0
 11
12.65324842500453
 21
18.39511363588284
 31
0.0
  0
LINE
  5
106
330
1F
100
AcDbEntity
  8
0
  6
SLD-Solid
 62
     7
370
    25
100
AcDbLine
 10
12.65324842500453
 20
18.3726975229373
 30
0.0
 11
12.65324842500453
 21
18.39511363588284
 31
0.0
  0
LINE
  5
107
330
1F
100
AcDbEntity
  8
0
  6
SLD-Solid
 62
     7
370
    25
100
AcDbLine
 10
12.92824842500453
 20
18.39511363588284
 30
0.0
 11
12.92824842500453
 21
18.3726975229373
 31
0.0
  0
LINE
  5
108
330
1F
100
AcDbEntity
  8
0
  6
SLD-Solid
 62
     7
370
    25
100
AcDbLine
 10
12.92824842500453
 20
18.39511363588284
 30
0.0
 11
13.15324842500453
 21
18.39511363588284
 31
0.0
  0
LINE
  5
109
330
1F
100
AcDbEntity
  8
0
  6
SLD-Solid
 62
     7
370
    25
100
AcDbLine
 10
13.15324842500453
 20
18.3726975229373
 30
0.0
 11
13.15324842500453
 21
18.39511363588284
 31
0.0
  0
LINE
  5
10A
330
1F
100
AcDbEntity
  8
0
  6
SLD-Solid
 62
     7
370
    25
100
AcDbLine
 10
13.42824842500453
 20
18.39511363588284
 30
0.0
 11
13.42824842500453
 21
18.3726975229373
 31
0.0
  0
LINE
  5
10B
330
1F
100
AcDbEntity
  8
0
  6
SLD-Solid
 62
     7
370
    25
100
AcDbLine
 10
13.42824842500453
 20
18.39511363588284
 30
0.0
 11
13.65324842500453
 21
18.39511363588284
 31
0.0
  0
LINE
  5
10C
330
1F
100
AcDbEntity
  8
0
  6
SLD-Solid
 62
     7
370
    25
100
AcDbLine
 10
13.65324842500453
 20
18.3726975229373
 30
0.0
 11
13.65324842500453
 21
18.39511363588284
 31
0.0
  0
LINE
  5
10D
330
1F
100
AcDbEntity
  8
0
  6
SLD-Solid
 62
     7
370
    25
100
AcDbLine
 10
13.92824842500453
 20
18.39511363588284
 30
0.0
 11
13.92824842500453
 21
18.3726975229373
 31
0.0
  0
LINE
  5
10E
330
1F
100
AcDbEntity
  8
0
  6
SLD-Solid
 62
     7
370
    25
100
AcDbLine
 10
13.92824842500453
 20
18.39511363588284
 30
0.0
 11
14.15324842500453
 21
18.39511363588284
 31
0.0
  0
LINE
  5
10F
330
1F
100
AcDbEntity
  8
0
  6
SLD-Solid
 62
     7
370
    25
100
AcDbLine
 10
14.15324842500453
 20
18.3726975229373
 30
0.0
 11
14.15324842500453
 21
18.39511363588284
 31
0.0
  0
LINE
  5
110
330
1F
100
AcDbEntity
  8
0
  6
SLD-Solid
 62
     7
370
    25
100
AcDbLine
 10
5.428248425004535
 20
18.3726975229373
 30
0.0
 11
5.428248425004535
 21
18.39511363588284
 31
0.0
  0
LINE
  5
111
330
1F
100
AcDbEntity
  8
0
  6
SLD-Solid
 62
     7
370
    25
100
AcDbLine
 10
5.653248425004535
 20
18.39511363588284
 30
0.0
 11
5.653248425004535
 21
18.40789654332941
 31
0.0
  0
LINE
  5
112
330
1F
100
AcDbEntity
  8
0
  6
SLD-Solid
 62
     7
370
    25
100
AcDbLine
 10
5.428248425004535
 20
18.39511363588284
 30
0.0
 11
5.428248425004535
 21
18.40789654332941
 31
0.0
  0
LINE
  5
113
330
1F
100
AcDbEntity
  8
0
  6
SLD-Solid
 62
     7
370
    25
100
AcDbLine
 10
7.153248425004535
 20
18.39511363588284
 30
0.0
 11
7.153248425004535
 21
18.40789654332941
 31
0.0
  0
LINE
  5
114
330
1F
100
AcDbEntity
  8
0
  6
SLD-Solid
 62
     7
370
    25
100
AcDbLine
 10
6.928248425004534
 20
18.40789654332941
 30
0.0
 11
6.928248425004534
 21
18.39511363588284
 31
0.0
  0
LINE
  5
115
330
1F
100
AcDbEntity
  8
0
  6
SLD-Solid
 62
     7
370
    25
100
AcDbLine
 10
6.653248425004534
 20
18.39511363588284
 30
0.0
 11
6.653248425004534
 21
18.40789654332941
 31
0.0
  0
LINE
  5
116
330
1F
100
AcDbEntity
  8
0
  6
SLD-Solid
 62
     7
370
    25
100
AcDbLine
 10
6.428248425004535
 20
18.40789654332941
 30
0.0
 11
6.428248425004535
 21
18.39511363588284
 31
0.0
  0
LINE
  5
117
330
1F
100
AcDbEntity
  8
0
  6
SLD-Solid
 62
     7
370
    25
100
AcDbLine
 10
7.653248425004534
 20
18.39511363588284
 30
0.0
 11
7.653248425004534
 21
18.40789654332941
 31
0.0
  0
LINE
  5
118
330
1F
100
AcDbEntity
  8
0
  6
SLD-Solid
 62
     7
370
    25
100
AcDbLine
 10
7.428248425004535
 20
18.40789654332941
 30
0.0
 11
7.428248425004535
 21
18.39511363588284
 31
0.0
  0
LINE
  5
119
330
1F
100
AcDbEntity
  8
0
  6
SLD-Solid
 62
     7
370
    25
100
AcDbLine
 10
5.928248425004535
 20
18.40789654332941
 30
0.0
 11
5.928248425004535
 21
18.39511363588284
 31
0.0
  0
LINE
  5
11A
330
1F
100
AcDbEntity
  8
0
  6
SLD-Solid
 62
     7
370
    25
100
AcDbLine
 10
6.153248425004535
 20
18.39511363588284
 30
0.0
 11
6.153248425004535
 21
18.40789654332941
 31
0.0
  0
LINE
  5
11B
330
1F
100
AcDbEntity
  8
0
  6
SLD-Solid
 62
     7
370
    25
100
AcDbLine
 10
7.928248425004535
 20
18.40789654332941
 30
0.0
 11
7.928248425004535
 21
18.39511363588284
 31
0.0
  0
LINE
  5
11C
330
1F
100
AcDbEntity
  8
0
  6
SLD-Solid
 62
     7
370
    25
100
AcDbLine
 10
8.153248425004536
 20
18.39511363588284
 30
0.0
 11
8.153248425004536
 21
18.40789654332941
 31
0.0
  0
LINE
  5
11D
330
1F
100
AcDbEntity
  8
0
  6
SLD-Solid
 62
     7
370
    25
100
AcDbLine
 10
11.15324842500453
 20
18.39511363588284
 30
0.0
 11
11.15324842500453
 21
18.40789654332941
 31
0.0
  0
LINE
  5
11E
330
1F
100
AcDbEntity
  8
0
  6
SLD-Solid
 62
     7
370
    25
100
AcDbLine
 10
10.92824842500453
 20
18.40789654332941
 30
0.0
 11
10.92824842500453
 21
18.39511363588284
 31
0.0
  0
LINE
  5
11F
330
1F
100
AcDbEntity
  8
0
  6
SLD-Solid
 62
     7
370
    25
100
AcDbLine
 10
9.428248425004533
 20
18.40789654332941
 30
0.0
 11
9.428248425004533
 21
18.39511363588284
 31
0.0
  0
LINE
  5
120
330
1F
100
AcDbEntity
  8
0
  6
SLD-Solid
 62
     7
370
    25
100
AcDbLine
 10
9.653248425004534
 20
18.39511363588284
 30
0.0
 11
9.653248425004534
 21
18.40789654332941
 31
0.0
  0
LINE
  5
121
330
1F
100
AcDbEntity
  8
0
  6
SLD-Solid
 62
     7
370
    25
100
AcDbLine
 10
10.15324842500453
 20
18.39511363588284
 30
0.0
 11
10.15324842500453
 21
18.40789654332941
 31
0.0
  0
LINE
  5
122
330
1F
100
AcDbEntity
  8
0
  6
SLD-Solid
 62
     7
370
    25
100
AcDbLine
 10
9.928248425004533
 20
18.40789654332941
 30
0.0
 11
9.928248425004533
 21
18.39511363588284
 31
0.0
  0
LINE
  5
123
330
1F
100
AcDbEntity
  8
0
  6
SLD-Solid
 62
     7
370
    25
100
AcDbLine
 10
8.653248425004534
 20
18.39511363588284
 30
0.0
 11
8.653248425004534
 21
18.40789654332941
 31
0.0
  0
LINE
  5
124
330
1F
100
AcDbEntity
  8
0
  6
SLD-Solid
 62
     7
370
    25
100
AcDbLine
 10
8.428248425004535
 20
18.40789654332941
 30
0.0
 11
8.428248425004535
 21
18.39511363588284
 31
0.0
  0
LINE
  5
125
330
1F
100
AcDbEntity
  8
0
  6
SLD-Solid
 62
     7
370
    25
100
AcDbLine
 10
9.153248425004534
 20
18.39511363588284
 30
0.0
 11
9.153248425004534
 21
18.40789654332941
 31
0.0
  0
LINE
  5
126
330
1F
100
AcDbEntity
  8
0
  6
SLD-Solid
 62
     7
370
    25
100
AcDbLine
 10
8.928248425004535
 20
18.40789654332941
 30
0.0
 11
8.928248425004535
 21
18.39511363588284
 31
0.0
  0
LINE
  5
127
330
1F
100
AcDbEntity
  8
0
  6
SLD-Solid
 62
     7
370
    25
100
AcDbLine
 10
11.42824842500453
 20
18.40789654332941
 30
0.0
 11
11.42824842500453
 21
18.39511363588284
 31
0.0
  0
LINE
  5
128
330
1F
100
AcDbEntity
  8
0
  6
SLD-Solid
 62
     7
370
    25
100
AcDbLine
 10
11.65324842500453
 20
18.39511363588284
 30
0.0
 11
11.65324842500453
 21
18.40789654332941
 31
0.0
  0
LINE
  5
129
330
1F
100
AcDbEntity
  8
0
  6
SLD-Solid
 62
     7
370
    25
100
AcDbLine
 10
10.65324842500453
 20
18.39511363588284
 30
0.0
 11
10.65324842500453
 21
18.40789654332941
 31
0.0
  0
LINE
  5
12A
330
1F
100
AcDbEntity
  8
0
  6
SLD-Solid
 62
     7
370
    25
100
AcDbLine
 10
10.42824842500453
 20
18.40789654332941
 30
0.0
 11
10.42824842500453
 21
18.39511363588284
 31
0.0
  0
LINE
  5
12B
330
1F
100
AcDbEntity
  8
0
  6
SLD-Solid
 62
     7
370
    25
100
AcDbLine
 10
12.15324842500453
 20
18.39511363588284
 30
0.0
 11
12.15324842500453
 21
18.40789654332941
 31
0.0
  0
LINE
  5
12C
330
1F
100
AcDbEntity
  8
0
  6
SLD-Solid
 62
     7
370
    25
100
AcDbLine
 10
11.92824842500453
 20
18.40789654332941
 30
0.0
 11
11.92824842500453
 21
18.39511363588284
 31
0.0
  0
LINE
  5
12D
330
1F
100
AcDbEntity
  8
0
  6
SLD-Solid
 62
     7
370
    25
100
AcDbLine
 10
13.92824842500453
 20
18.40789654332941
 30
0.0
 11
13.92824842500453
 21
18.39511363588284
 31
0.0
  0
LINE
  5
12E
330
1F
100
AcDbEntity
  8
0
  6
SLD-Solid
 62
     7
370
    25
100
AcDbLine
 10
14.15324842500453
 20
18.39511363588284
 30
0.0
 11
14.15324842500453
 21
18.40789654332941
 31
0.0
  0
LINE
  5
12F
330
1F
100
AcDbEntity
  8
0
  6
SLD-Solid
 62
     7
370
    25
100
AcDbLine
 10
12.42824842500453
 20
18.40789654332941
 30
0.0
 11
12.42824842500453
 21
18.39511363588284
 31
0.0
  0
LINE
  5
130
330
1F
100
AcDbEntity
  8
0
  6
SLD-Solid
 62
     7
370
    25
100
AcDbLine
 10
12.65324842500453
 20
18.39511363588284
 30
0.0
 11
12.65324842500453
 21
18.40789654332941
 31
0.0
  0
LINE
  5
131
330
1F
100
AcDbEntity
  8
0
  6
SLD-Solid
 62
     7
370
    25
100
AcDbLine
 10
13.42824842500453
 20
18.40789654332941
 30
0.0
 11
13.42824842500453
 21
18.39511363588284
 31
0.0
  0
LINE
  5
132
330
1F
100
AcDbEntity
  8
0
  6
SLD-Solid
 62
     7
370
    25
100
AcDbLine
 10
13.65324842500453
 20
18.39511363588284
 30
0.0
 11
13.65324842500453
 21
18.40789654332941
 31
0.0
  0
LINE
  5
133
330
1F
100
AcDbEntity
  8
0
  6
SLD-Solid
 62
     7
370
    25
100
AcDbLine
 10
12.92824842500453
 20
18.40789654332941
 30
0.0
 11
12.92824842500453
 21
18.39511363588284
 31
0.0
  0
LINE
  5
134
330
1F
100
AcDbEntity
  8
0
  6
SLD-Solid
 62
     7
370
    25
100
AcDbLine
 10
13.15324842500453
 20
18.39511363588284
 30
0.0
 11
13.15324842500453
 21
18.40789654332941
 31
0.0
  0
LINE
  5
135
330
1F
100
AcDbEntity
  8
0
  6
SLD-Solid
 62
     7
370
    25
100
AcDbLine
 10
6.203248425004531
 20
18.40789654332941
 30
0.0
 11
6.203248425004531
 21
18.3726975229373
 31
0.0
  0
LINE
  5
136
330
1F
100
AcDbEntity
  8
0
  6
SLD-Solid
 62
     7
370
    25
100
AcDbLine
 10
7.20324842500453
 20
18.40789654332941
 30
0.0
 11
7.20324842500453
 21
18.3726975229373
 31
0.0
  0
LINE
  5
137
330
1F
100
AcDbEntity
  8
0
  6
SLD-Solid
 62
     7
370
    25
100
AcDbLine
 10
9.20324842500453
 20
18.40789654332941
 30
0.0
 11
9.20324842500453
 21
18.3726975229373
 31
0.0
  0
LINE
  5
138
330
1F
100
AcDbEntity
  8
0
  6
SLD-Solid
 62
     7
370
    25
100
AcDbLine
 10
8.203248425004531
 20
18.40789654332941
 30
0.0
 11
8.203248425004531
 21
18.3726975229373
 31
0.0
  0
LINE
  5
139
330
1F
100
AcDbEntity
  8
0
  6
SLD-Solid
 62
     7
370
    25
100
AcDbLine
 10
5.70324842500453
 20
18.40789654332941
 30
0.0
 11
5.70324842500453
 21
18.3726975229373
 31
0.0
  0
LINE
  5
13A
330
1F
100
AcDbEntity
  8
0
  6
SLD-Solid
 62
     7
370
    25
100
AcDbLine
 10
13.20324842500453
 20
18.40789654332942
 30
0.0
 11
13.20324842500453
 21
18.3726975229373
 31
0.0
  0
LINE
  5
13B
330
1F
100
AcDbEntity
  8
0
  6
SLD-Solid
 62
     7
370
    25
100
AcDbLine
 10
12.70324842500453
 20
18.40789654332941
 30
0.0
 11
12.70324842500453
 21
18.3726975229373
 31
0.0
  0
LINE
  5
13C
330
1F
100
AcDbEntity
  8
0
  6
SLD-Solid
 62
     7
370
    25
100
AcDbLine
 10
10.70324842500453
 20
18.40789654332941
 30
0.0
 11
10.70324842500453
 21
18.3726975229373
 31
0.0
  0
LINE
  5
13D
330
1F
100
AcDbEntity
  8
0
  6
SLD-Solid
 62
     7
370
    25
100
AcDbLine
 10
10.20324842500453
 20
18.40789654332941
 30
0.0
 11
10.20324842500453
 21
18.3726975229373
 31
0.0
  0
LINE
  5
13E
330
1F
100
AcDbEntity
  8
0
  6
SLD-Solid
 62
     7
370
    25
100
AcDbLine
 10
13.70324842500453
 20
18.40789654332942
 30
0.0
 11
13.70324842500453
 21
18.3726975229373
 31
0.0
  0
LINE
  5
13F
330
1F
100
AcDbEntity
  8
0
  6
SLD-Solid
 62
     7
370
    25
100
AcDbLine
 10
9.70324842500453
 20
18.40789654332941
 30
0.0
 11
9.70324842500453
 21
18.3726975229373
 31
0.0
  0
LINE
  5
140
330
1F
100
AcDbEntity
  8
0
  6
SLD-Solid
 62
     7
370
    25
100
AcDbLine
 10
7.70324842500453
 20
18.40789654332941
 30
0.0
 11
7.70324842500453
 21
18.3726975229373
 31
0.0
  0
LINE
  5
141
330
1F
100
AcDbEntity
  8
0
  6
SLD-Solid
 62
     7
370
    25
100
AcDbLine
 10
8.70324842500453
 20
18.40789654332941
 30
0.0
 11
8.70324842500453
 21
18.3726975229373
 31
0.0
  0
LINE
  5
142
330
1F
100
AcDbEntity
  8
0
  6
SLD-Solid
 62
     7
370
    25
100
AcDbLine
 10
11.70324842500453
 20
18.40789654332941
 30
0.0
 11
11.70324842500453
 21
18.3726975229373
 31
0.0
  0
LINE
  5
143
330
1F
100
AcDbEntity
  8
0
  6
SLD-Solid
 62
     7
370
    25
100
AcDbLine
 10
12.20324842500453
 20
18.40789654332941
 30
0.0
 11
12.20324842500453
 21
18.3726975229373
 31
0.0
  0
LINE
  5
144
330
1F
100
AcDbEntity
  8
0
  6
SLD-Solid
 62
     7
370
    25
100
AcDbLine
 10
11.20324842500453
 20
18.40789654332941
 30
0.0
 11
11.20324842500453
 21
18.3726975229373
 31
0.0
  0
LINE
  5
145
330
1F
100
AcDbEntity
  8
0
  6
SLD-Solid
 62
     7
370
    25
100
AcDbLine
 10
6.70324842500453
 20
18.40789654332941
 30
0.0
 11
6.70324842500453
 21
18.3726975229373
 31
0.0
  0
LINE
  5
146
330
1F
100
AcDbEntity
  8
0
  6
SLD-Solid
 62
     7
370
    25
100
AcDbLine
 10
5.328248425004515
 20
8.572396543329424
 30
0.0
 11
5.328248425004515
 21
8.534283720982438
 31
0.0
  0
LINE
  5
147
330
1F
100
AcDbEntity
  8
0
  6
SLD-Solid
 62
     7
370
    25
100
AcDbLine
 10
14.27824842500451
 20
8.534283720982438
 30
0.0
 11
14.27824842500451
 21
8.572396543329427
 31
0.0
  0
LINE
  5
148
330
1F
100
AcDbEntity
  8
0
  6
SLD-Solid
 62
     7
370
    25
100
AcDbLine
 10
14.27824842500451
 20
8.534283720982438
 30
0.0
 11
14.2782484250045
 21
8.452285659905955
 31
0.0
  0
LINE
  5
149
330
1F
100
AcDbEntity
  8
0
  6
SLD-Solid
 62
     7
370
    25
100
AcDbLine
 10
14.26191945865546
 20
8.447403579824316
 30
0.0
 11
5.34457739135365
 21
8.447403579824316
 31
0.0
  0
LINE
  5
14A
330
1F
100
AcDbEntity
  8
0
  6
SLD-Solid
 62
     7
370
    25
100
AcDbLine
 10
5.328248425004513
 20
8.452285659905984
 30
0.0
 11
5.328248425004515
 21
8.534283720982438
 31
0.0
  0
LINE
  5
14B
330
1F
100
AcDbEntity
  8
0
  6
SLD-Solid
 62
     7
370
    25
100
AcDbLine
 10
14.24424842500453
 20
9.132612805674611
 30
0.0
 11
14.19324842500452
 21
9.132612805674611
 31
0.0
  0
LINE
  5
14C
330
1F
100
AcDbEntity
  8
0
  6
SLD-Solid
 62
     7
370
    25
100
AcDbLine
 10
5.381248425004522
 20
9.132612805674611
 30
0.0
 11
5.362248425004533
 21
9.132612805674611
 31
0.0
  0
LINE
  5
14D
330
1F
100
AcDbEntity
  8
0
  6
SLD-Solid
 62
     7
370
    25
100
AcDbLine
 10
5.381248425004522
 20
8.576351054490804
 30
0.0
 11
5.381248425004522
 21
8.515618034440692
 31
0.0
  0
LINE
  5
14E
330
1F
100
AcDbEntity
  8
0
  6
SLD-Solid
 62
     7
370
    25
100
AcDbLine
 10
14.19324842500452
 20
8.576351054490802
 30
0.0
 11
5.381248425004522
 21
8.576351054490804
 31
0.0
  0
LINE
  5
14F
330
1F
100
AcDbEntity
  8
0
  6
SLD-Solid
 62
     7
370
    25
100
AcDbLine
 10
14.19324842500452
 20
8.515618034440692
 30
0.0
 11
14.19324842500452
 21
8.576351054490802
 31
0.0
  0
LINE
  5
150
330
1F
100
AcDbEntity
  8
0
  6
SLD-Solid
 62
     7
370
    25
100
AcDbLine
 10
5.381248425004522
 20
8.576351054490804
 30
0.0
 11
5.381248425004524
 21
14.82756045121642
 31
0.0
  0
LINE
  5
151
330
1F
100
AcDbEntity
  8
0
  6
SLD-Solid
 62
     7
370
    25
100
AcDbLine
 10
5.381248425004524
 20
14.82756045121642
 30
0.0
 11
14.19324842500452
 21
14.82756045121642
 31
0.0
  0
LINE
  5
152
330
1F
100
AcDbEntity
  8
0
  6
SLD-Solid
 62
     7
370
    25
100
AcDbLine
 10
14.19324842500452
 20
14.82756045121642
 30
0.0
 11
14.19324842500452
 21
8.576351054490802
 31
0.0
  0
LINE
  5
153
330
1F
100
AcDbEntity
  8
0
  6
SLD-Solid
 62
     7
370
    25
100
AcDbLine
 10
14.19324842500452
 20
14.90275307329831
 30
0.0
 11
5.381248425004524
 21
14.90275307329831
 31
0.0
  0
LINE
  5
154
330
1F
100
AcDbEntity
  8
0
  6
SLD-Solid
 62
     7
370
    25
100
AcDbLine
 10
14.19324842500452
 20
14.82756045121642
 30
0.0
 11
14.19324842500452
 21
14.90275307329831
 31
0.0
  0
LINE
  5
155
330
1F
100
AcDbEntity
  8
0
  6
SLD-Solid
 62
     7
370
    25
100
AcDbLine
 10
5.381248425004524
 20
14.90275307329831
 30
0.0
 11
5.381248425004524
 21
14.82756045121642
 31
0.0
  0
LWPOLYLINE
  5
156
330
1F
100
AcDbEntity
  8
0
  6
SLD-Solid
 62
     7
370
    25
100
AcDbPolyline
 90
       33
 70
   128
 43
0.0
 10
8.287248425004526
 20
16.55473232214005
 10
8.360407295760574
 20
16.5503658606938
 10
8.430754712141436
 20
16.53743427701969
 10
8.495587262386877
 20
16.5164345246262
 10
8.552413467949481
 20
16.48817361222101
 10
8.59904952961798
 20
16.45373759081895
 10
8.633703249696259
 20
16.41444981741057
 10
8.655042905155737
 20
16.3718200990951
 10
8.662248425004526
 20
16.3274866720404
 10
8.655042905155735
 20
16.28315324498569
 10
8.633703249696257
 20
16.24052352667022
 10
8.599049529617977
 20
16.20123575326184
 10
8.552413467949478
 20
16.16679973185978
 10
8.495587262386872
 20
16.1385388194546
 10
8.430754712141429
 20
16.1175390670611
 10
8.360407295760568
 20
16.10460748338699
 10
8.287248425004522
 20
16.10024102194074
 10
8.214089554248472
 20
16.10460748338699
 10
8.143742137867612
 20
16.1175390670611
 10
8.07890958762217
 20
16.1385388194546
 10
8.022083382059567
 20
16.16679973185979
 10
7.975447320391067
 20
16.20123575326184
 10
7.940793600312791
 20
16.24052352667023
 10
7.919453944853313
 20
16.28315324498569
 10
7.912248425004525
 20
16.3274866720404
 10
7.919453944853314
 20
16.37182009909511
 10
7.940793600312793
 20
16.41444981741057
 10
7.975447320391074
 20
16.45373759081896
 10
8.022083382059574
 20
16.48817361222101
 10
8.07890958762218
 20
16.5164345246262
 10
8.143742137867623
 20
16.53743427701969
 10
8.214089554248483
 20
16.5503658606938
 10
8.287248425004526
 20
16.55473232214005
  0
LWPOLYLINE
  5
157
330
1F
100
AcDbEntity
  8
0
  6
SLD-Solid
 62
     7
370
    25
100
AcDbPolyline
 90
       33
 70
   128
 43
0.0
 10
10.41224842500453
 20
15.94874392187431
 10
10.48540729576058
 20
15.94437746042806
 10
10.55575471214144
 20
15.93144587675395
 10
10.62058726238688
 20
15.91044612436045
 10
10.67741346794948
 20
15.88218521195526
 10
10.72404952961798
 20
15.84774919055321
 10
10.75870324969626
 20
15.80846141714482
 10
10.78004290515574
 20
15.76583169882936
 10
10.78724842500453
 20
15.72149827177465
 10
10.78004290515574
 20
15.67716484471994
 10
10.75870324969626
 20
15.63453512640448
 10
10.72404952961798
 20
15.5952473529961
 10
10.67741346794948
 20
15.56081133159404
 10
10.62058726238688
 20
15.53255041918885
 10
10.55575471214143
 20
15.51155066679536
 10
10.48540729576057
 20
15.49861908312125
 10
10.41224842500452
 20
15.494252621675
 10
10.33908955424848
 20
15.49861908312125
 10
10.26874213786761
 20
15.51155066679536
 10
10.20390958762217
 20
15.53255041918885
 10
10.14708338205957
 20
15.56081133159404
 10
10.10044732039107
 20
15.5952473529961
 10
10.06579360031279
 20
15.63453512640448
 10
10.04445394485331
 20
15.67716484471995
 10
10.03724842500453
 20
15.72149827177466
 10
10.04445394485331
 20
15.76583169882936
 10
10.0657936003128
 20
15.80846141714483
 10
10.10044732039107
 20
15.84774919055321
 10
10.14708338205957
 20
15.88218521195527
 10
10.20390958762218
 20
15.91044612436045
 10
10.26874213786762
 20
15.93144587675395
 10
10.33908955424848
 20
15.94437746042806
 10
10.41224842500453
 20
15.94874392187431
  0
LWPOLYLINE
  5
158
330
1F
100
AcDbEntity
  8
0
  6
SLD-Solid
 62
     7
370
    25
100
AcDbPolyline
 90
       33
 70
   128
 43
0.0
 10
9.162248425004528
 20
17.16072072240581
 10
9.235407295760577
 20
17.15635426095956
 10
9.305754712141438
 20
17.14342267728544
 10
9.37058726238688
 20
17.12242292489195
 10
9.427413467949485
 20
17.09416201248676
 10
9.474049529617984
 20
17.05972599108471
 10
9.50870324969626
 20
17.02043821767632
 10
9.53004290515574
 20
16.97780849936086
 10
9.53724842500453
 20
16.93347507230615
 10
9.53004290515574
 20
16.88914164525145
 10
9.50870324969626
 20
16.84651192693597
 10
9.474049529617982
 20
16.8072241535276
 10
9.427413467949481
 20
16.77278813212554
 10
9.370587262386877
 20
16.74452721972035
 10
9.305754712141434
 20
16.72352746732686
 10
9.235407295760574
 20
16.71059588365275
 10
9.162248425004526
 20
16.70622942220649
 10
9.089089554248478
 20
16.71059588365275
 10
9.018742137867616
 20
16.72352746732686
 10
8.953909587622173
 20
16.74452721972035
 10
8.897083382059568
 20
16.77278813212554
 10
8.850447320391071
 20
16.8072241535276
 10
8.815793600312793
 20
16.84651192693598
 10
8.794453944853315
 20
16.88914164525145
 10
8.787248425004528
 20
16.93347507230615
 10
8.794453944853316
 20
16.97780849936086
 10
8.815793600312796
 20
17.02043821767633
 10
8.850447320391076
 20
17.05972599108471
 10
8.897083382059575
 20
17.09416201248677
 10
8.953909587622181
 20
17.12242292489195
 10
9.018742137867624
 20
17.14342267728544
 10
9.089089554248485
 20
17.15635426095956
 10
9.162248425004528
 20
17.16072072240581
  0
LWPOLYLINE
  5
159
330
1F
100
AcDbEntity
  8
0
  6
SLD-Solid
 62
     7
370
    25
100
AcDbPolyline
 90
       33
 70
   128
 43
0.0
 10
9.787248425004528
 20
16.55473232214005
 10
9.860407295760574
 20
16.5503658606938
 10
9.930754712141438
 20
16.53743427701969
 10
9.995587262386879
 20
16.5164345246262
 10
10.05241346794948
 20
16.48817361222101
 10
10.09904952961798
 20
16.45373759081895
 10
10.13370324969626
 20
16.41444981741057
 10
10.15504290515574
 20
16.3718200990951
 10
10.16224842500453
 20
16.3274866720404
 10
10.15504290515574
 20
16.28315324498569
 10
10.13370324969626
 20
16.24052352667022
 10
10.09904952961798
 20
16.20123575326184
 10
10.05241346794948
 20
16.16679973185979
 10
9.995587262386875
 20
16.1385388194546
 10
9.930754712141432
 20
16.1175390670611
 10
9.860407295760572
 20
16.10460748338699
 10
9.787248425004524
 20
16.10024102194074
 10
9.714089554248474
 20
16.10460748338699
 10
9.643742137867614
 20
16.11753906706111
 10
9.578909587622173
 20
16.1385388194546
 10
9.522083382059568
 20
16.16679973185979
 10
9.47544732039107
 20
16.20123575326184
 10
9.440793600312793
 20
16.24052352667023
 10
9.419453944853315
 20
16.28315324498569
 10
9.412248425004526
 20
16.3274866720404
 10
9.419453944853316
 20
16.37182009909511
 10
9.440793600312796
 20
16.41444981741057
 10
9.475447320391075
 20
16.45373759081896
 10
9.522083382059575
 20
16.48817361222101
 10
9.57890958762218
 20
16.5164345246262
 10
9.643742137867623
 20
16.53743427701969
 10
9.714089554248483
 20
16.5503658606938
 10
9.787248425004528
 20
16.55473232214005
  0
LWPOLYLINE
  5
15A
330
1F
100
AcDbEntity
  8
0
  6
SLD-Solid
 62
     7
370
    25
100
AcDbPolyline
 90
       33
 70
   128
 43
0.0
 10
10.41224842500453
 20
17.1607207224058
 10
10.48540729576058
 20
17.15635426095956
 10
10.55575471214144
 20
17.14342267728544
 10
10.62058726238688
 20
17.12242292489195
 10
10.67741346794948
 20
17.09416201248676
 10
10.72404952961798
 20
17.05972599108471
 10
10.75870324969626
 20
17.02043821767632
 10
10.78004290515574
 20
16.97780849936086
 10
10.78724842500453
 20
16.93347507230615
 10
10.78004290515574
 20
16.88914164525145
 10
10.75870324969626
 20
16.84651192693598
 10
10.72404952961798
 20
16.8072241535276
 10
10.67741346794948
 20
16.77278813212554
 10
10.62058726238688
 20
16.74452721972035
 10
10.55575471214143
 20
16.72352746732686
 10
10.48540729576057
 20
16.71059588365275
 10
10.41224842500452
 20
16.7062294222065
 10
10.33908955424848
 20
16.71059588365275
 10
10.26874213786762
 20
16.72352746732686
 10
10.20390958762217
 20
16.74452721972035
 10
10.14708338205957
 20
16.77278813212554
 10
10.10044732039107
 20
16.8072241535276
 10
10.06579360031279
 20
16.84651192693598
 10
10.04445394485331
 20
16.88914164525145
 10
10.03724842500453
 20
16.93347507230615
 10
10.04445394485332
 20
16.97780849936086
 10
10.0657936003128
 20
17.02043821767633
 10
10.10044732039108
 20
17.05972599108471
 10
10.14708338205958
 20
17.09416201248677
 10
10.20390958762218
 20
17.12242292489195
 10
10.26874213786762
 20
17.14342267728544
 10
10.33908955424848
 20
17.15635426095956
 10
10.41224842500453
 20
17.1607207224058
  0
LWPOLYLINE
  5
15B
330
1F
100
AcDbEntity
  8
0
  6
SLD-Solid
 62
     7
370
    25
100
AcDbPolyline
 90
       33
 70
   128
 43
0.0
 10
9.162248425004526
 20
15.94874392187431
 10
9.235407295760574
 20
15.94437746042806
 10
9.305754712141434
 20
15.93144587675395
 10
9.370587262386877
 20
15.91044612436045
 10
9.427413467949481
 20
15.88218521195527
 10
9.47404952961798
 20
15.84774919055321
 10
9.508703249696259
 20
15.80846141714482
 10
9.530042905155737
 20
15.76583169882936
 10
9.537248425004526
 20
15.72149827177465
 10
9.530042905155737
 20
15.67716484471994
 10
9.508703249696259
 20
15.63453512640448
 10
9.47404952961798
 20
15.5952473529961
 10
9.42741346794948
 20
15.56081133159404
 10
9.370587262386875
 20
15.53255041918885
 10
9.305754712141432
 20
15.51155066679536
 10
9.235407295760572
 20
15.49861908312125
 10
9.162248425004524
 20
15.494252621675
 10
9.089089554248474
 20
15.49861908312125
 10
9.018742137867614
 20
15.51155066679536
 10
8.953909587622173
 20
15.53255041918885
 10
8.897083382059568
 20
15.56081133159404
 10
8.85044732039107
 20
15.5952473529961
 10
8.815793600312793
 20
15.63453512640448
 10
8.794453944853315
 20
15.67716484471995
 10
8.787248425004526
 20
15.72149827177466
 10
8.794453944853315
 20
15.76583169882936
 10
8.815793600312794
 20
15.80846141714483
 10
8.850447320391075
 20
15.84774919055321
 10
8.897083382059574
 20
15.88218521195527
 10
8.95390958762218
 20
15.91044612436046
 10
9.018742137867621
 20
15.93144587675395
 10
9.089089554248483
 20
15.94437746042806
 10
9.162248425004526
 20
15.94874392187431
  0
LWPOLYLINE
  5
15C
330
1F
100
AcDbEntity
  8
0
  6
SLD-Solid
 62
     7
370
    25
100
AcDbPolyline
 90
       33
 70
   128
 43
0.0
 10
11.28724842500453
 20
16.55473232214005
 10
11.36040729576058
 20
16.5503658606938
 10
11.43075471214144
 20
16.53743427701969
 10
11.49558726238688
 20
16.5164345246262
 10
11.55241346794948
 20
16.48817361222101
 10
11.59904952961798
 20
16.45373759081895
 10
11.63370324969626
 20
16.41444981741057
 10
11.65504290515574
 20
16.3718200990951
 10
11.66224842500453
 20
16.3274866720404
 10
11.65504290515574
 20
16.28315324498569
 10
11.63370324969626
 20
16.24052352667022
 10
11.59904952961798
 20
16.20123575326184
 10
11.55241346794948
 20
16.16679973185978
 10
11.49558726238688
 20
16.1385388194546
 10
11.43075471214143
 20
16.1175390670611
 10
11.36040729576057
 20
16.10460748338699
 10
11.28724842500452
 20
16.10024102194074
 10
11.21408955424848
 20
16.10460748338699
 10
11.14374213786762
 20
16.1175390670611
 10
11.07890958762217
 20
16.1385388194546
 10
11.02208338205957
 20
16.16679973185979
 10
10.97544732039107
 20
16.20123575326184
 10
10.94079360031279
 20
16.24052352667023
 10
10.91945394485331
 20
16.28315324498569
 10
10.91224842500453
 20
16.3274866720404
 10
10.91945394485331
 20
16.37182009909511
 10
10.9407936003128
 20
16.41444981741057
 10
10.97544732039108
 20
16.45373759081896
 10
11.02208338205958
 20
16.48817361222101
 10
11.07890958762218
 20
16.5164345246262
 10
11.14374213786762
 20
16.53743427701969
 10
11.21408955424848
 20
16.5503658606938
 10
11.28724842500453
 20
16.55473232214005
  0
LINE
  5
15D
330
1F
100
AcDbEntity
  8
0
  6
SLD-Solid
 62
     7
370
    25
100
AcDbLine
 10
14.19324842500453
 20
18.3726975229373
 30
0.0
 11
5.381248425004529
 21
18.3726975229373
 31
0.0
  0
LINE
  5
15E
330
1F
100
AcDbEntity
  8
0
  6
SLD-Solid
 62
     7
370
    25
100
AcDbLine
 10
14.19324842500453
 20
18.3726975229373
 30
0.0
 11
14.19324842500452
 21
14.90275307329831
 31
0.0
  0
LINE
  5
15F
330
1F
100
AcDbEntity
  8
0
  6
SLD-Solid
 62
     7
370
    25
100
AcDbLine
 10
5.381248425004524
 20
14.90275307329831
 30
0.0
 11
5.381248425004529
 21
18.3726975229373
 31
0.0
  0
LWPOLYLINE
  5
160
330
1F
100
AcDbEntity
  8
0
  6
SLD-Solid
 62
     7
370
    25
100
AcDbPolyline
 90
        9
 70
   128
 43
0.0
 10
9.162248425004526
 20
15.91056119479327
 10
9.235407295760574
 20
15.90619473334702
 10
9.305754712141434
 20
15.89326314967291
 10
9.370587262386877
 20
15.87226339727942
 10
9.427413467949481
 20
15.84400248487423
 10
9.47404952961798
 20
15.80956646347217
 10
9.508703249696259
 20
15.77027869006379
 10
9.530042905155737
 20
15.72764897174832
 10
9.535922703318205
 20
15.70240690823581
  0
LWPOLYLINE
  5
161
330
1F
100
AcDbEntity
  8
0
  6
SLD-Solid
 62
     7
370
    25
100
AcDbPolyline
 90
        9
 70
   128
 43
0.0
 10
8.788574146690923
 20
15.70240690823636
 10
8.794453944853316
 20
15.72764897174833
 10
8.815793600312796
 20
15.77027869006379
 10
8.850447320391075
 20
15.80956646347218
 10
8.897083382059575
 20
15.84400248487423
 10
8.95390958762218
 20
15.87226339727942
 10
9.018742137867621
 20
15.89326314967291
 10
9.089089554248483
 20
15.90619473334702
 10
9.162248425004526
 20
15.91056119479327
  0
LWPOLYLINE
  5
162
330
1F
100
AcDbEntity
  8
0
  6
SLD-Solid
 62
     7
370
    25
100
AcDbPolyline
 90
        9
 70
   128
 43
0.0
 10
10.41224842500453
 20
15.91056119479327
 10
10.48540729576058
 20
15.90619473334702
 10
10.55575471214144
 20
15.89326314967291
 10
10.62058726238688
 20
15.87226339727941
 10
10.67741346794948
 20
15.84400248487423
 10
10.72404952961798
 20
15.80956646347217
 10
10.75870324969626
 20
15.77027869006379
 10
10.78004290515574
 20
15.72764897174832
 10
10.78592270331839
 20
15.70240690823452
  0
LWPOLYLINE
  5
163
330
1F
100
AcDbEntity
  8
0
  6
SLD-Solid
 62
     7
370
    25
100
AcDbPolyline
 90
        9
 70
   128
 43
0.0
 10
10.03857414669069
 20
15.70240690823471
 10
10.04445394485331
 20
15.72764897174833
 10
10.0657936003128
 20
15.77027869006379
 10
10.10044732039108
 20
15.80956646347218
 10
10.14708338205958
 20
15.84400248487423
 10
10.20390958762218
 20
15.87226339727942
 10
10.26874213786762
 20
15.89326314967291
 10
10.33908955424848
 20
15.90619473334702
 10
10.41224842500453
 20
15.91056119479327
  0
LWPOLYLINE
  5
164
330
1F
100
AcDbEntity
  8
0
  6
SLD-Solid
 62
     7
370
    25
100
AcDbPolyline
 90
        9
 70
   128
 43
0.0
 10
8.287248425004526
 20
16.51654959505902
 10
8.360407295760574
 20
16.51218313361277
 10
8.430754712141436
 20
16.49925154993866
 10
8.495587262386877
 20
16.47825179754517
 10
8.552413467949481
 20
16.44999088513998
 10
8.59904952961798
 20
16.41555486373792
 10
8.633703249696257
 20
16.37626709032954
 10
8.655042905155737
 20
16.33363737201407
 10
8.660922703318441
 20
16.30839530849986
  0
LWPOLYLINE
  5
165
330
1F
100
AcDbEntity
  8
0
  6
SLD-Solid
 62
     7
370
    25
100
AcDbPolyline
 90
        9
 70
   128
 43
0.0
 10
7.91357414669061
 20
16.30839530849987
 10
7.919453944853315
 20
16.33363737201408
 10
7.940793600312794
 20
16.37626709032954
 10
7.975447320391074
 20
16.41555486373793
 10
8.022083382059574
 20
16.44999088513998
 10
8.07890958762218
 20
16.47825179754517
 10
8.143742137867623
 20
16.49925154993866
 10
8.214089554248483
 20
16.51218313361277
 10
8.287248425004526
 20
16.51654959505902
  0
LWPOLYLINE
  5
166
330
1F
100
AcDbEntity
  8
0
  6
SLD-Solid
 62
     7
370
    25
100
AcDbPolyline
 90
        9
 70
   128
 43
0.0
 10
11.28724842500453
 20
16.51654959505902
 10
11.36040729576058
 20
16.51218313361277
 10
11.43075471214144
 20
16.49925154993866
 10
11.49558726238688
 20
16.47825179754517
 10
11.55241346794948
 20
16.44999088513998
 10
11.59904952961798
 20
16.41555486373792
 10
11.63370324969626
 20
16.37626709032954
 10
11.65504290515574
 20
16.33363737201407
 10
11.66092270331847
 20
16.30839530849967
  0
LWPOLYLINE
  5
167
330
1F
100
AcDbEntity
  8
0
  6
SLD-Solid
 62
     7
370
    25
100
AcDbPolyline
 90
        9
 70
   128
 43
0.0
 10
10.91357414669056
 20
16.30839530849953
 10
10.91945394485332
 20
16.33363737201408
 10
10.9407936003128
 20
16.37626709032954
 10
10.97544732039108
 20
16.41555486373793
 10
11.02208338205958
 20
16.44999088513998
 10
11.07890958762218
 20
16.47825179754517
 10
11.14374213786762
 20
16.49925154993866
 10
11.21408955424848
 20
16.51218313361277
 10
11.28724842500453
 20
16.51654959505902
  0
LWPOLYLINE
  5
168
330
1F
100
AcDbEntity
  8
0
  6
SLD-Solid
 62
     7
370
    25
100
AcDbPolyline
 90
        9
 70
   128
 43
0.0
 10
9.787248425004528
 20
16.51654959505902
 10
9.860407295760574
 20
16.51218313361277
 10
9.930754712141438
 20
16.49925154993866
 10
9.995587262386879
 20
16.47825179754517
 10
10.05241346794948
 20
16.44999088513998
 10
10.09904952961798
 20
16.41555486373792
 10
10.13370324969626
 20
16.37626709032954
 10
10.15504290515574
 20
16.33363737201407
 10
10.16092270331828
 20
16.30839530850106
  0
LWPOLYLINE
  5
169
330
1F
100
AcDbEntity
  8
0
  6
SLD-Solid
 62
     7
370
    25
100
AcDbPolyline
 90
        9
 70
   128
 43
0.0
 10
9.41357414669084
 20
16.30839530850151
 10
9.419453944853316
 20
16.33363737201408
 10
9.440793600312796
 20
16.37626709032954
 10
9.475447320391076
 20
16.41555486373793
 10
9.522083382059575
 20
16.44999088513998
 10
9.578909587622181
 20
16.47825179754517
 10
9.643742137867623
 20
16.49925154993866
 10
9.714089554248485
 20
16.51218313361277
 10
9.787248425004528
 20
16.51654959505902
  0
LWPOLYLINE
  5
16A
330
1F
100
AcDbEntity
  8
0
  6
SLD-Solid
 62
     7
370
    25
100
AcDbPolyline
 90
        9
 70
   128
 43
0.0
 10
10.41224842500453
 20
17.12253799532477
 10
10.48540729576058
 20
17.11817153387852
 10
10.55575471214144
 20
17.10523995020441
 10
10.62058726238688
 20
17.08424019781092
 10
10.67741346794948
 20
17.05597928540573
 10
10.72404952961798
 20
17.02154326400367
 10
10.75870324969626
 20
16.98225549059529
 10
10.78004290515574
 20
16.93962577227982
 10
10.78592270331842
 20
16.91438370876577
  0
LWPOLYLINE
  5
16B
330
1F
100
AcDbEntity
  8
0
  6
SLD-Solid
 62
     7
370
    25
100
AcDbPolyline
 90
        9
 70
   128
 43
0.0
 10
10.03857414669064
 20
16.91438370876583
 10
10.04445394485332
 20
16.93962577227983
 10
10.0657936003128
 20
16.98225549059529
 10
10.10044732039108
 20
17.02154326400368
 10
10.14708338205958
 20
17.05597928540573
 10
10.20390958762218
 20
17.08424019781092
 10
10.26874213786762
 20
17.10523995020441
 10
10.33908955424848
 20
17.11817153387852
 10
10.41224842500453
 20
17.12253799532477
  0
LWPOLYLINE
  5
16C
330
1F
100
AcDbEntity
  8
0
  6
SLD-Solid
 62
     7
370
    25
100
AcDbPolyline
 90
        9
 70
   128
 43
0.0
 10
9.162248425004528
 20
17.12253799532477
 10
9.235407295760577
 20
17.11817153387852
 10
9.305754712141438
 20
17.10523995020441
 10
9.370587262386879
 20
17.08424019781092
 10
9.427413467949485
 20
17.05597928540573
 10
9.474049529617982
 20
17.02154326400367
 10
9.50870324969626
 20
16.98225549059529
 10
9.53004290515574
 20
16.93962577227982
 10
9.535922703318567
 20
16.91438370876472
  0
LWPOLYLINE
  5
16D
330
1F
100
AcDbEntity
  8
0
  6
SLD-Solid
 62
     7
370
    25
100
AcDbPolyline
 90
        9
 70
   128
 43
0.0
 10
8.788574146690449
 20
16.91438370876443
 10
8.794453944853316
 20
16.93962577227983
 10
8.815793600312796
 20
16.98225549059529
 10
8.850447320391076
 20
17.02154326400368
 10
8.897083382059575
 20
17.05597928540573
 10
8.953909587622181
 20
17.08424019781092
 10
9.018742137867624
 20
17.10523995020441
 10
9.089089554248485
 20
17.11817153387852
 10
9.162248425004528
 20
17.12253799532477
  0
LINE
  5
16E
330
1F
100
AcDbEntity
  8
0
  6
SLD-Solid
 62
     7
370
    25
100
AcDbLine
 10
5.938248425004535
 20
8.44739654332937
 30
0.0
 11
13.66824842500453
 21
8.447396543329369
 31
0.0
  0
LINE
  5
16F
330
1F
100
AcDbEntity
  8
0
  6
SLD-Solid
 62
     7
370
    25
100
AcDbLine
 10
14.27824842500451
 20
8.495396543329369
 30
0.0
 11
14.29324842500453
 21
8.495396543329369
 31
0.0
  0
LINE
  5
170
330
1F
100
AcDbEntity
  8
0
  6
SLD-Solid
 62
     7
370
    25
100
AcDbLine
 10
14.24424842500454
 20
21.2164234611419
 30
0.0
 11
5.362248425004532
 21
21.2164234611419
 31
0.0
  0
LINE
  5
171
330
1F
100
AcDbEntity
  8
0
  6
SLD-Solid
 62
     7
370
    25
100
AcDbLine
 10
5.362248425004527
 20
21.22639654332943
 30
0.0
 11
5.265248425004528
 21
21.22639654332943
 31
0.0
  0
LINE
  5
172
330
1F
100
AcDbEntity
  8
0
  6
SLD-Solid
 62
     7
370
    25
100
AcDbLine
 10
5.362248425004533
 20
8.572396543329427
 30
0.0
 11
5.362248425004527
 21
21.22639654332943
 31
0.0
  0
LINE
  5
173
330
1F
100
AcDbEntity
  8
0
  6
SLD-Solid
 62
     7
370
    25
100
AcDbLine
 10
5.265248425004532
 20
8.572396543329427
 30
0.0
 11
5.362248425004533
 21
8.572396543329427
 31
0.0
  0
LINE
  5
174
330
1F
100
AcDbEntity
  8
0
  6
SLD-Solid
 62
     7
370
    25
100
AcDbLine
 10
5.265248425004532
 20
8.572396543329427
 30
0.0
 11
5.265248425004528
 21
21.22639654332943
 31
0.0
  0
LINE
  5
175
330
1F
100
AcDbEntity
  8
0
  6
SLD-Solid
 62
     7
370
    25
100
AcDbLine
 10
14.23624842500453
 20
21.22539654332942
 30
0.0
 11
14.23624842500453
 21
21.32239654332943
 31
0.0
  0
LINE
  5
176
330
1F
100
AcDbEntity
  8
0
  6
SLD-Solid
 62
     7
370
    25
100
AcDbLine
 10
5.37024842500453
 20
21.22539654332942
 30
0.0
 11
14.23624842500453
 21
21.22539654332942
 31
0.0
  0
LINE
  5
177
330
1F
100
AcDbEntity
  8
0
  6
SLD-Solid
 62
     7
370
    25
100
AcDbLine
 10
5.37024842500453
 20
21.32239654332943
 30
0.0
 11
14.23624842500453
 21
21.32239654332943
 31
0.0
  0
LINE
  5
178
330
1F
100
AcDbEntity
  8
0
  6
SLD-Solid
 62
     7
370
    25
100
AcDbLine
 10
5.37024842500453
 20
21.32239654332943
 30
0.0
 11
5.37024842500453
 21
21.22539654332942
 31
0.0
  0
LINE
  5
179
330
1F
100
AcDbEntity
  8
0
  6
SLD-Solid
 62
     7
370
    25
100
AcDbLine
 10
14.24424842500453
 20
21.22639654332942
 30
0.0
 11
14.24424842500453
 21
8.572396543329424
 31
0.0
  0
LINE
  5
17A
330
1F
100
AcDbEntity
  8
0
  6
SLD-Solid
 62
     7
370
    25
100
AcDbLine
 10
14.34124842500453
 20
21.22639654332942
 30
0.0
 11
14.24424842500453
 21
21.22639654332942
 31
0.0
  0
LINE
  5
17B
330
1F
100
AcDbEntity
  8
0
  6
SLD-Solid
 62
     7
370
    25
100
AcDbLine
 10
14.34124842500453
 20
8.572396543329424
 30
0.0
 11
14.34124842500453
 21
21.22639654332942
 31
0.0
  0
LINE
  5
17C
330
1F
100
AcDbEntity
  8
0
  6
SLD-Solid
 62
     7
370
    25
100
AcDbLine
 10
14.24424842500453
 20
8.572396543329424
 30
0.0
 11
14.34124842500453
 21
8.572396543329424
 31
0.0
  0
LINE
  5
17D
330
1F
100
AcDbEntity
  8
0
  6
SLD-Solid
 62
     7
370
    25
100
AcDbLine
 10
5.37004842500453
 20
21.27439654332943
 30
0.0
 11
5.37004842500453
 21
21.32239654332943
 31
0.0
  0
LINE
  5
17E
330
1F
100
AcDbEntity
  8
0
  6
SLD-Solid
 62
     7
370
    25
100
AcDbLine
 10
5.265248425004531
 20
21.22659654332942
 30
0.0
 11
5.313248425004528
 21
21.22659654332942
 31
0.0
  0
ARC
  5
17F
330
1F
100
AcDbEntity
  8
0
  6
SLD-Solid
 62
     7
370
    25
100
AcDbCircle
 10
5.34524842500453
 20
21.24239654332943
 30
0.0
 40
0.032
100
AcDbArc
 50
90.0
 51
179.9999999999992
  0
ARC
  5
180
330
1F
100
AcDbEntity
  8
0
  6
SLD-Solid
 62
     7
370
    25
100
AcDbCircle
 10
5.34524842500453
 20
21.24239654332943
 30
0.0
 40
0.0799999999999992
100
AcDbArc
 50
90.0
 51
180.0
  0
LINE
  5
181
330
1F
100
AcDbEntity
  8
0
  6
SLD-Solid
 62
     7
370
    25
100
AcDbLine
 10
5.37004842500453
 20
21.32239654332943
 30
0.0
 11
5.34524842500453
 21
21.32239654332943
 31
0.0
  0
LINE
  5
182
330
1F
100
AcDbEntity
  8
0
  6
SLD-Solid
 62
     7
370
    25
100
AcDbLine
 10
5.34524842500453
 20
21.27439654332943
 30
0.0
 11
5.37004842500453
 21
21.27439654332943
 31
0.0
  0
LINE
  5
183
330
1F
100
AcDbEntity
  8
0
  6
SLD-Solid
 62
     7
370
    25
100
AcDbLine
 10
5.313248425004528
 20
21.22659654332942
 30
0.0
 11
5.313248425004531
 21
21.24239654332943
 31
0.0
  0
LINE
  5
184
330
1F
100
AcDbEntity
  8
0
  6
SLD-Solid
 62
     7
370
    25
100
AcDbLine
 10
5.265248425004531
 20
21.24239654332943
 30
0.0
 11
5.265248425004531
 21
21.22659654332942
 31
0.0
  0
LINE
  5
185
330
1F
100
AcDbEntity
  8
0
  6
SLD-Solid
 62
     7
370
    25
100
AcDbLine
 10
14.29324842500453
 20
21.22659654332943
 30
0.0
 11
14.34124842500453
 21
21.22659654332943
 31
0.0
  0
LINE
  5
186
330
1F
100
AcDbEntity
  8
0
  6
SLD-Solid
 62
     7
370
    25
100
AcDbLine
 10
14.23644842500453
 20
21.32239654332943
 30
0.0
 11
14.23644842500453
 21
21.27439654332943
 31
0.0
  0
ARC
  5
187
330
1F
100
AcDbEntity
  8
0
  6
SLD-Solid
 62
     7
370
    25
100
AcDbCircle
 10
14.26124842500453
 20
21.24239654332943
 30
0.0
 40
0.032
100
AcDbArc
 50
0.0
 51
90.0
  0
ARC
  5
188
330
1F
100
AcDbEntity
  8
0
  6
SLD-Solid
 62
     7
370
    25
100
AcDbCircle
 10
14.26124842500453
 20
21.24239654332943
 30
0.0
 40
0.0799999999999983
100
AcDbArc
 50
0.0
 51
90.0
  0
LINE
  5
189
330
1F
100
AcDbEntity
  8
0
  6
SLD-Solid
 62
     7
370
    25
100
AcDbLine
 10
14.26124842500453
 20
21.32239654332943
 30
0.0
 11
14.23644842500453
 21
21.32239654332943
 31
0.0
  0
LINE
  5
18A
330
1F
100
AcDbEntity
  8
0
  6
SLD-Solid
 62
     7
370
    25
100
AcDbLine
 10
14.26124842500453
 20
21.27439654332943
 30
0.0
 11
14.23644842500453
 21
21.27439654332943
 31
0.0
  0
LINE
  5
18B
330
1F
100
AcDbEntity
  8
0
  6
SLD-Solid
 62
     7
370
    25
100
AcDbLine
 10
14.34124842500453
 20
21.22659654332943
 30
0.0
 11
14.34124842500453
 21
21.24239654332943
 31
0.0
  0
LINE
  5
18C
330
1F
100
AcDbEntity
  8
0
  6
SLD-Solid
 62
     7
370
    25
100
AcDbLine
 10
14.29324842500453
 20
21.24239654332943
 30
0.0
 11
14.29324842500453
 21
21.22659654332943
 31
0.0
  0
LINE
  5
18D
330
1F
100
AcDbEntity
  8
0
  6
SLD-Solid
 62
     7
370
    25
100
AcDbLine
 10
5.313248425004537
 20
8.572196543329428
 30
0.0
 11
5.265248425004533
 21
8.57219654332942
 31
0.0
  0
LINE
  5
18E
330
1F
100
AcDbEntity
  8
0
  6
SLD-Solid
 62
     7
370
    25
100
AcDbLine
 10
5.313248425004532
 20
8.572396543329427
 30
0.0
 11
5.313248425004537
 21
8.572196543329428
 31
0.0
  0
LINE
  5
18F
330
1F
100
AcDbEntity
  8
0
  6
SLD-Solid
 62
     7
370
    25
100
AcDbLine
 10
5.265248425004533
 20
8.57219654332942
 30
0.0
 11
5.265248425004533
 21
8.57239654332942
 31
0.0
  0
LINE
  5
190
330
1F
100
AcDbEntity
  8
0
  6
SLD-Solid
 62
     7
370
    25
100
AcDbLine
 10
14.29324842500453
 20
8.57219654332942
 30
0.0
 11
14.34124842500453
 21
8.572196543329424
 31
0.0
  0
LINE
  5
191
330
1F
100
AcDbEntity
  8
0
  6
SLD-Solid
 62
     7
370
    25
100
AcDbLine
 10
14.34124842500453
 20
8.572196543329424
 30
0.0
 11
14.34124842500453
 21
8.572396543329427
 31
0.0
  0
LINE
  5
192
330
1F
100
AcDbEntity
  8
0
  6
SLD-Solid
 62
     7
370
    25
100
AcDbLine
 10
14.29324842500453
 20
8.57219654332942
 30
0.0
 11
14.29324842500453
 21
8.572396543329424
 31
0.0
  0
LINE
  5
193
330
1F
100
AcDbEntity
  8
0
  6
SLD-Solid
 62
     7
370
    25
100
AcDbLine
 10
5.313248425004528
 20
21.22659654332943
 30
0.0
 11
5.31324842500453
 21
21.22639654332942
 31
0.0
  0
LINE
  5
194
330
1F
100
AcDbEntity
  8
0
  6
SLD-Solid
 62
     7
370
    25
100
AcDbLine
 10
5.265248425004531
 20
21.22639654332942
 30
0.0
 11
5.265248425004531
 21
21.22659654332942
 31
0.0
  0
LINE
  5
195
330
1F
100
AcDbEntity
  8
0
  6
SLD-Solid
 62
     7
370
    25
100
AcDbLine
 10
5.37004842500453
 20
21.32239654332943
 30
0.0
 11
5.370248425004532
 21
21.32239654332943
 31
0.0
  0
LINE
  5
196
330
1F
100
AcDbEntity
  8
0
  6
SLD-Solid
 62
     7
370
    25
100
AcDbLine
 10
5.370248425004532
 20
21.27439654332943
 30
0.0
 11
5.37004842500453
 21
21.27439654332943
 31
0.0
  0
LINE
  5
197
330
1F
100
AcDbEntity
  8
0
  6
SLD-Solid
 62
     7
370
    25
100
AcDbLine
 10
14.34124842500453
 20
21.22639654332943
 30
0.0
 11
14.34124842500453
 21
21.22659654332943
 31
0.0
  0
LINE
  5
198
330
1F
100
AcDbEntity
  8
0
  6
SLD-Solid
 62
     7
370
    25
100
AcDbLine
 10
14.29324842500453
 20
21.22639654332943
 30
0.0
 11
14.29324842500453
 21
21.22659654332943
 31
0.0
  0
LINE
  5
199
330
1F
100
AcDbEntity
  8
0
  6
SLD-Solid
 62
     7
370
    25
100
AcDbLine
 10
14.23624842500453
 20
21.32239654332943
 30
0.0
 11
14.23644842500453
 21
21.32239654332943
 31
0.0
  0
LINE
  5
19A
330
1F
100
AcDbEntity
  8
0
  6
SLD-Solid
 62
     7
370
    25
100
AcDbLine
 10
14.23644842500453
 20
21.27439654332943
 30
0.0
 11
14.23624842500453
 21
21.27439654332943
 31
0.0
  0
LINE
  5
19B
330
1F
100
AcDbEntity
  8
0
  6
SLD-Solid
 62
     7
370
    25
100
AcDbLine
 10
5.313248425004531
 20
8.479596543329425
 30
0.0
 11
5.265248425004533
 21
8.479596543329423
 31
0.0
  0
LINE
  5
19C
330
1F
100
AcDbEntity
  8
0
  6
SLD-Solid
 62
     7
370
    25
100
AcDbLine
 10
5.313248425004533
 20
8.57219654332942
 30
0.0
 11
5.313248425004531
 21
8.479596543329425
 31
0.0
  0
LINE
  5
19D
330
1F
100
AcDbEntity
  8
0
  6
SLD-Solid
 62
     7
370
    25
100
AcDbLine
 10
5.265248425004533
 20
8.479596543329423
 30
0.0
 11
5.265248425004532
 21
8.572196543329424
 31
0.0
  0
LINE
  5
19E
330
1F
100
AcDbEntity
  8
0
  6
SLD-Solid
 62
     7
370
    25
100
AcDbLine
 10
14.29324842500453
 20
8.479596543329425
 30
0.0
 11
14.34124842500453
 21
8.479596543329425
 31
0.0
  0
LINE
  5
19F
330
1F
100
AcDbEntity
  8
0
  6
SLD-Solid
 62
     7
370
    25
100
AcDbLine
 10
14.34124842500453
 20
8.479596543329425
 30
0.0
 11
14.34124842500453
 21
8.572196543329422
 31
0.0
  0
LINE
  5
1A0
330
1F
100
AcDbEntity
  8
0
  6
SLD-Solid
 62
     7
370
    25
100
AcDbLine
 10
14.29324842500453
 20
8.479596543329425
 30
0.0
 11
14.29324842500453
 21
8.57219654332942
 31
0.0
  0
LINE
  5
1A1
330
1F
100
AcDbEntity
  8
0
  6
SLD-Solid
 62
     7
370
    25
100
AcDbLine
 10
5.813248425004534
 20
8.447396543329422
 30
0.0
 11
5.813248425004534
 21
8.399396543329422
 31
0.0
  0
LINE
  5
1A2
330
1F
100
AcDbEntity
  8
0
  6
SLD-Solid
 62
     7
370
    25
100
AcDbLine
 10
5.345248425004535
 20
8.447396543329422
 30
0.0
 11
5.345248425004528
 21
8.399396543329425
 31
0.0
  0
LINE
  5
1A3
330
1F
100
AcDbEntity
  8
0
  6
SLD-Solid
 62
     7
370
    25
100
AcDbLine
 10
5.345248425004535
 20
8.447396543329422
 30
0.0
 11
5.813248425004534
 21
8.447396543329422
 31
0.0
  0
LINE
  5
1A4
330
1F
100
AcDbEntity
  8
0
  6
SLD-Solid
 62
     7
370
    25
100
AcDbLine
 10
5.813248425004534
 20
8.399396543329422
 30
0.0
 11
5.345248425004528
 21
8.399396543329425
 31
0.0
  0
LINE
  5
1A5
330
1F
100
AcDbEntity
  8
0
  6
SLD-Solid
 62
     7
370
    25
100
AcDbLine
 10
5.313248425004532
 20
8.479396543329425
 30
0.0
 11
5.265248425004532
 21
8.47939654332943
 31
0.0
  0
LINE
  5
1A6
330
1F
100
AcDbEntity
  8
0
  6
SLD-Solid
 62
     7
370
    25
100
AcDbLine
 10
5.313248425004532
 20
8.479396543329425
 30
0.0
 11
5.313248425004533
 21
8.479596543329425
 31
0.0
  0
LINE
  5
1A7
330
1F
100
AcDbEntity
  8
0
  6
SLD-Solid
 62
     7
370
    25
100
AcDbLine
 10
5.265248425004532
 20
8.47939654332943
 30
0.0
 11
5.265248425004533
 21
8.479596543329423
 31
0.0
  0
LINE
  5
1A8
330
1F
100
AcDbEntity
  8
0
  6
SLD-Solid
 62
     7
370
    25
100
AcDbLine
 10
5.938248425004532
 20
8.447396543329422
 30
0.0
 11
5.938248425004532
 21
8.399396543329422
 31
0.0
  0
LINE
  5
1A9
330
1F
100
AcDbEntity
  8
0
  6
SLD-Solid
 62
     7
370
    25
100
AcDbLine
 10
5.813248425004534
 20
8.447396543329422
 30
0.0
 11
5.938248425004532
 21
8.447396543329422
 31
0.0
  0
LINE
  5
1AA
330
1F
100
AcDbEntity
  8
0
  6
SLD-Solid
 62
     7
370
    25
100
AcDbLine
 10
5.813248425004534
 20
8.399396543329422
 30
0.0
 11
5.938248425004532
 21
8.399396543329422
 31
0.0
  0
ARC
  5
1AB
330
1F
100
AcDbEntity
  8
0
  6
SLD-Solid
 62
     7
370
    25
100
AcDbCircle
 10
5.345248425004528
 20
8.479396543329424
 30
0.0
 40
0.0799999999999983
100
AcDbArc
 50
179.9999999999949
 51
270.0000000000008
  0
ARC
  5
1AC
330
1F
100
AcDbEntity
  8
0
  6
SLD-Solid
 62
     7
370
    25
100
AcDbCircle
 10
5.345248425004528
 20
8.479396543329424
 30
0.0
 40
0.0320000000000018
100
AcDbArc
 50
179.9999999999967
 51
270.0000000000135
  0
LINE
  5
1AD
330
1F
100
AcDbEntity
  8
0
  6
SLD-Solid
 62
     7
370
    25
100
AcDbLine
 10
13.79324842500453
 20
8.447396543329425
 30
0.0
 11
14.26124842500453
 21
8.447396543329425
 31
0.0
  0
LINE
  5
1AE
330
1F
100
AcDbEntity
  8
0
  6
SLD-Solid
 62
     7
370
    25
100
AcDbLine
 10
14.26124842500453
 20
8.447396543329425
 30
0.0
 11
14.26124842500453
 21
8.399396543329424
 31
0.0
  0
LINE
  5
1AF
330
1F
100
AcDbEntity
  8
0
  6
SLD-Solid
 62
     7
370
    25
100
AcDbLine
 10
13.79324842500453
 20
8.447396543329425
 30
0.0
 11
13.79324842500453
 21
8.399396543329422
 31
0.0
  0
LINE
  5
1B0
330
1F
100
AcDbEntity
  8
0
  6
SLD-Solid
 62
     7
370
    25
100
AcDbLine
 10
14.26124842500453
 20
8.399396543329424
 30
0.0
 11
13.79324842500453
 21
8.399396543329422
 31
0.0
  0
ARC
  5
1B1
330
1F
100
AcDbEntity
  8
0
  6
SLD-Solid
 62
     7
370
    25
100
AcDbCircle
 10
14.26124842500453
 20
8.479396543329425
 30
0.0
 40
0.0800000000000018
100
AcDbArc
 50
270.0000000000021
 51
0.0000000000020674
  0
ARC
  5
1B2
330
1F
100
AcDbEntity
  8
0
  6
SLD-Solid
 62
     7
370
    25
100
AcDbCircle
 10
14.26124842500453
 20
8.479396543329425
 30
0.0
 40
0.032
100
AcDbArc
 50
269.9999999999944
 51
0.0
  0
LINE
  5
1B3
330
1F
100
AcDbEntity
  8
0
  6
SLD-Solid
 62
     7
370
    25
100
AcDbLine
 10
14.29324842500453
 20
8.479396543329425
 30
0.0
 11
14.34124842500453
 21
8.479396543329425
 31
0.0
  0
LINE
  5
1B4
330
1F
100
AcDbEntity
  8
0
  6
SLD-Solid
 62
     7
370
    25
100
AcDbLine
 10
13.66824842500453
 20
8.447396543329425
 30
0.0
 11
13.66824842500453
 21
8.399396543329424
 31
0.0
  0
LINE
  5
1B5
330
1F
100
AcDbEntity
  8
0
  6
SLD-Solid
 62
     7
370
    25
100
AcDbLine
 10
13.66824842500453
 20
8.447396543329425
 30
0.0
 11
13.79324842500453
 21
8.447396543329425
 31
0.0
  0
LINE
  5
1B6
330
1F
100
AcDbEntity
  8
0
  6
SLD-Solid
 62
     7
370
    25
100
AcDbLine
 10
13.66824842500453
 20
8.399396543329424
 30
0.0
 11
13.79324842500453
 21
8.399396543329422
 31
0.0
  0
LINE
  5
1B7
330
1F
100
AcDbEntity
  8
0
  6
SLD-Solid
 62
     7
370
    25
100
AcDbLine
 10
14.34124842500453
 20
8.479596543329425
 30
0.0
 11
14.34124842500453
 21
8.479396543329425
 31
0.0
  0
LINE
  5
1B8
330
1F
100
AcDbEntity
  8
0
  6
SLD-Solid
 62
     7
370
    25
100
AcDbLine
 10
14.29324842500453
 20
8.479396543329425
 30
0.0
 11
14.29324842500453
 21
8.479596543329425
 31
0.0
  0
LINE
  5
1B9
330
1F
100
AcDbEntity
  8
0
  6
SLD-Solid
 62
     7
370
    25
100
AcDbLine
 10
5.313248425004532
 20
8.54739654332942
 30
0.0
 11
5.328248425004516
 21
8.547396543329418
 31
0.0
  0
SPLINE
  5
1BA
330
1F
100
AcDbEntity
  8
0
  6
SLD-Solid
 62
     7
370
    25
100
AcDbSpline
210
0.0
220
0.0
230
1.0
 70
    12
 71
     3
 72
    12
 73
     8
 74
     0
 42
0.00000001
 43
0.00000001
 40
0.0
 40
0.0
 40
0.0
 40
0.0
 40
0.2052648446723952
 40
0.4279042970398239
 40
0.6211490475556877
 40
0.8131278847826753
 40
0.9999999999999999
 40
0.9999999999999999
 40
0.9999999999999999
 40
0.9999999999999999
 10
5.328162379045608
 20
21.22639654332943
 30
0.0
 41
1.0
 10
5.326561721099238
 20
21.22814014992084
 30
0.0
 41
1.0
 10
5.323224917788199
 20
21.23177495038559
 30
0.0
 41
1.0
 10
5.319244172729041
 20
21.23628185983936
 30
0.0
 41
1.0
 10
5.315927692669431
 20
21.23986854480808
 30
0.0
 41
1.0
 10
5.313685691307133
 20
21.24202565338656
 30
0.0
 41
1.0
 10
5.31339286471992
 20
21.24227402934317
 30
0.0
 41
1.0
 10
5.313248425004532
 20
21.24239654332942
 30
0.0
 41
1.0
  0
SPLINE
  5
1BB
330
1F
100
AcDbEntity
  8
0
  6
SLD-Solid
 62
     7
370
    25
100
AcDbSpline
210
0.0
220
0.0
230
1.0
 70
    12
 71
     3
 72
    12
 73
     8
 74
     0
 42
0.00000001
 43
0.00000001
 40
0.0
 40
0.0
 40
0.0
 40
0.0
 40
0.2052648446726719
 40
0.4279042971315692
 40
0.6211490475550352
 40
0.8131278847823767
 40
1.0
 40
1.0
 40
1.0
 40
1.0
 10
14.27833447096345
 20
21.22639654332943
 30
0.0
 41
1.0
 10
14.2799351289098
 20
21.22814014992089
 30
0.0
 41
1.0
 10
14.28327193222149
 20
21.2317749503865
 30
0.0
 41
1.0
 10
14.28725267728086
 20
21.23628185983937
 30
0.0
 41
1.0
 10
14.29056915733993
 20
21.2398685448086
 30
0.0
 41
1.0
 10
14.29281115870194
 20
21.24202565338652
 30
0.0
 41
1.0
 10
14.29310398528915
 20
21.24227402934316
 30
0.0
 41
1.0
 10
14.29324842500453
 20
21.24239654332942
 30
0.0
 41
1.0
  0
SPLINE
  5
1BC
330
1F
100
AcDbEntity
  8
0
  6
SLD-Solid
 62
     7
370
    25
100
AcDbSpline
210
0.0
220
0.0
230
1.0
 70
    12
 71
     3
 72
    13
 73
     9
 74
     0
 42
0.00000001
 43
0.00000001
 40
0.0
 40
0.0
 40
0.0
 40
0.0
 40
0.083955385115756
 40
0.4141269795284205
 40
0.578255176761477
 40
0.7207138122332196
 40
0.8622392254203349
 40
1.0
 40
1.0
 40
1.0
 40
1.0
 10
5.370248425004533
 20
21.25108927422097
 30
0.0
 41
1.0
 10
5.369259826402864
 20
21.25205644679664
 30
0.0
 41
1.0
 10
5.364383363120489
 20
21.25682722185641
 30
0.0
 41
1.0
 10
5.35771652076697
 20
21.26273498662584
 30
0.0
 41
1.0
 10
5.351349351894371
 20
21.26842158848603
 30
0.0
 41
1.0
 10
5.347779848281823
 20
21.27171209920127
 30
0.0
 41
1.0
 10
5.345618487557658
 20
21.27396052761312
 30
0.0
 41
1.0
 10
5.345370665683797
 20
21.27425251671316
 30
0.0
 41
1.0
 10
5.345248425004536
 20
21.27439654332942
 30
0.0
 41
1.0
  0
SPLINE
  5
1BD
330
1F
100
AcDbEntity
  8
0
  6
SLD-Solid
 62
     7
370
    25
100
AcDbSpline
210
0.0
220
0.0
230
1.0
 70
    12
 71
     3
 72
    13
 73
     9
 74
     0
 42
0.00000001
 43
0.00000001
 40
0.0
 40
0.0
 40
0.0
 40
0.0
 40
0.0839553851161195
 40
0.414126979532519
 40
0.5782551765172251
 40
0.7207138122301121
 40
0.8622392254188171
 40
1.0
 40
1.0
 40
1.0
 40
1.0
 10
14.23624842500454
 20
21.25108927422099
 30
0.0
 41
1.0
 10
14.23723702360616
 20
21.25205644679666
 30
0.0
 41
1.0
 10
14.24211348688835
 20
21.2568272218565
 30
0.0
 41
1.0
 10
14.24878032924243
 20
21.26273498662204
 30
0.0
 41
1.0
 10
14.25514749810704
 20
21.2684215884858
 30
0.0
 41
1.0
 10
14.25871700172738
 20
21.27171209919957
 30
0.0
 41
1.0
 10
14.26087836245109
 20
21.27396052761323
 30
0.0
 41
1.0
 10
14.26112618432517
 20
21.2742525167132
 30
0.0
 41
1.0
 10
14.26124842500454
 20
21.27439654332942
 30
0.0
 41
1.0
  0
LINE
  5
1BE
330
1F
100
AcDbEntity
  8
0
  6
SLD-Solid
 62
     7
370
    25
100
AcDbLine
 10
14.21030729950758
 20
21.22539654332942
 30
0.0
 11
14.20133421732006
 21
21.2164234611419
 31
0.0
  0
LINE
  5
1BF
330
1F
100
AcDbEntity
  8
0
  6
SLD-Solid
 62
     7
370
    25
100
AcDbLine
 10
5.405162632688999
 20
21.2164234611419
 30
0.0
 11
5.396189550501477
 21
21.22539654332942
 31
0.0
  0
LINE
  5
1C0
330
1F
100
AcDbEntity
  8
0
  6
SLD-Solid
 62
     8
370
    25
100
AcDbLine
 10
14.24424842500453
 20
9.126945270678654
 30
0.0
 11
14.19324842500452
 21
9.126945270678654
 31
0.0
  0
LINE
  5
1C1
330
1F
100
AcDbEntity
  8
0
  6
SLD-Solid
 62
     8
370
    25
100
AcDbLine
 10
5.381248425004522
 20
9.126945270678654
 30
0.0
 11
5.362248425004533
 21
9.126945270678654
 31
0.0
  0
LINE
  5
1C2
330
1F
100
AcDbEntity
  8
0
  6
SLD-Solid
 62
     8
370
    25
100
AcDbLine
 10
14.24424842500453
 20
9.037839484826415
 30
0.0
 11
14.19324842500452
 21
9.037839484826415
 31
0.0
  0
LINE
  5
1C3
330
1F
100
AcDbEntity
  8
0
  6
SLD-Solid
 62
     8
370
    25
100
AcDbLine
 10
5.381248425004522
 20
9.037839484826419
 30
0.0
 11
5.362248425004533
 21
9.037839484826419
 31
0.0
  0
LINE
  5
1C4
330
1F
100
AcDbEntity
  8
0
  6
SLD-Solid
 62
     8
370
    25
100
AcDbLine
 10
14.27824842500451
 20
8.534283720982438
 30
0.0
 11
14.19324842500452
 21
8.534283720982438
 31
0.0
  0
LINE
  5
1C5
330
1F
100
AcDbEntity
  8
0
  6
SLD-Solid
 62
     8
370
    25
100
AcDbLine
 10
5.381248425004522
 20
8.534283720982438
 30
0.0
 11
5.328248425004515
 21
8.534283720982438
 31
0.0
  0
LINE
  5
1C6
330
1F
100
AcDbEntity
  8
0
  6
SLD-Solid
 62
     8
370
    25
100
AcDbLine
 10
14.24424842500454
 20
18.41983347056809
 30
0.0
 11
5.36224842500453
 21
18.41983347056809
 31
0.0
  0
LINE
  5
1C7
330
1F
100
AcDbEntity
  8
0
  6
SLD-Solid
 62
     8
370
    25
100
AcDbLine
 10
14.24424842500454
 20
18.51599999280946
 30
0.0
 11
5.362248425004531
 21
18.51599999280946
 31
0.0
  0
LINE
  5
1C8
330
1F
100
AcDbEntity
  8
0
  6
SLD-Solid
 62
     8
370
    25
100
AcDbLine
 10
14.24424842500454
 20
14.78299999280946
 30
0.0
 11
14.19324842500453
 21
14.78299999280946
 31
0.0
  0
LINE
  5
1C9
330
1F
100
AcDbEntity
  8
0
  6
SLD-Solid
 62
     8
370
    25
100
AcDbLine
 10
5.381248425004529
 20
14.78299999280945
 30
0.0
 11
5.362248425004533
 21
14.78299999280945
 31
0.0
  0
LINE
  5
1CA
330
1F
100
AcDbEntity
  8
0
  6
SLD-Solid
 62
     8
370
    25
100
AcDbLine
 10
14.24424842500454
 20
14.68683347056808
 30
0.0
 11
14.19324842500453
 21
14.68683347056808
 31
0.0
  0
LINE
  5
1CB
330
1F
100
AcDbEntity
  8
0
  6
SLD-Solid
 62
     8
370
    25
100
AcDbLine
 10
5.381248425004529
 20
14.68683347056808
 30
0.0
 11
5.362248425004533
 21
14.68683347056808
 31
0.0
  0
LINE
  5
1CC
330
1F
100
AcDbEntity
  8
0
  6
SLD-Solid
 62
     8
370
    25
100
AcDbLine
 10
14.24424842500454
 20
18.57441220927402
 30
0.0
 11
5.362248425004531
 21
18.57441220927402
 31
0.0
  0
LINE
  5
1CD
330
1F
100
AcDbEntity
  8
0
  6
SLD-Solid
 62
     8
370
    25
100
AcDbLine
 10
14.24424842500454
 20
14.84141220927402
 30
0.0
 11
14.19324842500453
 21
14.84141220927402
 31
0.0
  0
LINE
  5
1CE
330
1F
100
AcDbEntity
  8
0
  6
SLD-Solid
 62
     8
370
    25
100
AcDbLine
 10
5.381248425004529
 20
14.84141220927402
 30
0.0
 11
5.362248425004533
 21
14.84141220927402
 31
0.0
  0
LINE
  5
1CF
330
1F
100
AcDbEntity
  8
0
  6
SLD-Solid
 62
     8
370
    25
100
AcDbLine
 10
5.362248425004533
 20
18.36142125410353
 30
0.0
 11
5.381248425004529
 21
18.36142125410353
 31
0.0
  0
LINE
  5
1D0
330
1F
100
AcDbEntity
  8
0
  6
SLD-Solid
 62
     8
370
    25
100
AcDbLine
 10
14.19324842500453
 20
18.36142125410352
 30
0.0
 11
14.24424842500454
 21
18.36142125410352
 31
0.0
  0
LINE
  5
1D1
330
1F
100
AcDbEntity
  8
0
  6
SLD-Solid
 62
     8
370
    25
100
AcDbLine
 10
14.24424842500454
 20
14.62842125410352
 30
0.0
 11
14.19324842500453
 21
14.62842125410352
 31
0.0
  0
LINE
  5
1D2
330
1F
100
AcDbEntity
  8
0
  6
SLD-Solid
 62
     8
370
    25
100
AcDbLine
 10
5.381248425004529
 20
14.62842125410352
 30
0.0
 11
5.362248425004533
 21
14.62842125410352
 31
0.0
  0
LINE
  5
1D3
330
1F
100
AcDbEntity
  8
0
  6
SLD-Solid
 62
     8
370
    25
100
AcDbLine
 10
14.27824842500451
 20
8.515396543329372
 30
0.0
 11
14.29324842500453
 21
8.51539654332937
 31
0.0
  0
LINE
  5
1D4
330
1F
100
AcDbEntity
  8
0
  6
SLD-Solid
 62
     8
370
    25
100
AcDbLine
 10
5.362248425004533
 20
18.58855434489776
 30
0.0
 11
14.24424842500454
 21
18.58855434489776
 31
0.0
  0
LINE
  5
1D5
330
1F
100
AcDbEntity
  8
0
  6
SLD-Solid
 62
     8
370
    25
100
AcDbLine
 10
5.362248425004535
 20
14.85555434489775
 30
0.0
 11
5.381248425004529
 21
14.85555434489775
 31
0.0
  0
LINE
  5
1D6
330
1F
100
AcDbEntity
  8
0
  6
SLD-Solid
 62
     8
370
    25
100
AcDbLine
 10
14.19324842500453
 20
14.85555434489775
 30
0.0
 11
14.24424842500454
 21
14.85555434489775
 31
0.0
  0
LINE
  5
1D7
330
1F
100
AcDbEntity
  8
0
  6
SLD-Solid
 62
     8
370
    25
100
AcDbLine
 10
14.24424842500454
 20
18.34727911847979
 30
0.0
 11
14.19324842500453
 21
18.34727911847979
 31
0.0
  0
LINE
  5
1D8
330
1F
100
AcDbEntity
  8
0
  6
SLD-Solid
 62
     8
370
    25
100
AcDbLine
 10
5.381248425004529
 20
18.34727911847979
 30
0.0
 11
5.362248425004531
 21
18.34727911847979
 31
0.0
  0
LINE
  5
1D9
330
1F
100
AcDbEntity
  8
0
  6
SLD-Solid
 62
     8
370
    25
100
AcDbLine
 10
14.24424842500454
 20
14.61427911847979
 30
0.0
 11
14.19324842500453
 21
14.61427911847979
 31
0.0
  0
LINE
  5
1DA
330
1F
100
AcDbEntity
  8
0
  6
SLD-Solid
 62
     8
370
    25
100
AcDbLine
 10
5.381248425004528
 20
14.61427911847979
 30
0.0
 11
5.362248425004532
 21
14.61427911847979
 31
0.0
  0
LINE
  5
1DB
330
1F
100
AcDbEntity
  8
OBJECT
100
AcDbLine
 10
1.47581845978339
 20
4.327486672040388
 30
0.0
 11
17.09932840301087
 21
4.327486672040388
 31
0.0
  0
LINE
  5
1DC
330
1F
100
AcDbEntity
  8
0
  6
SLD-Center
 62
     7
370
    18
100
AcDbLine
 10
7.91224842500454
 20
16.32748667204039
 30
0.0
 11
7.879450538567872
 21
16.32748667204039
 31
0.0
  0
ELLIPSE
  5
1DD
330
1F
100
AcDbEntity
  8
OBJECT
100
AcDbEllipse
 10
9.78724842500452
 20
9.769705569923447
 30
0.0
 11
-0.4499999999999993
 21
1.243449787580175E-14
 31
0.0
210
0.0
220
0.0
230
1.0
 40
0.9999253696604542
 41
0.0
 42
6.283185307179586
  0
INSERT
  5
1DE
330
1F
100
AcDbEntity
  8
0
  6
Continuous
 62
     7
100
AcDbBlockReference
  2
Block1
 10
9.925766273673672
 20
14.80119733621006
 30
0.0
  0
DIMENSION
  5
1DF
330
1F
100
AcDbEntity
  8
DIMS
100
AcDbDimension
  2
_D
 10
2.754345735152183
 20
4.327486672040388
 30
0.0
 11
2.754345735152183
 21
6.326937391753304
 31
0.0
 70
    32
  1
48" \P(1220mm)\P Max.\P 
 71
     2
 42
-1.0
  3
SLDDIMSTYLE0
100
AcDbAlignedDimension
 13
7.879450538567872
 23
16.32748667204039
 33
0.0
 14
1.47581845978339
 24
4.327486672040388
 34
0.0
 50
90.0000000000002
100
AcDbRotatedDimension
  0
DIMENSION
  5
1F3
330
1F
100
AcDbEntity
  8
DIMS
100
AcDbDimension
  2
_D_1
 10
2.765054142478901
 20
21.32239654332943
 30
0.0
 11
2.765054142478901
 21
18.90267168858025
 31
0.0
 70
    32
  1
<>
 71
     2
 42
-1.0
  3
SLDDIMSTYLE0
100
AcDbAlignedDimension
 13
7.91224842500454
 23
16.32748667204039
 33
0.0
 14
5.345248425004527
 24
21.32239654332943
 34
0.0
 50
90.0000000000002
100
AcDbRotatedDimension
  0
DIMENSION
  5
1FE
330
1F
100
AcDbEntity
  8
DIMS
100
AcDbDimension
  2
_D_2
 10
14.34124842500453
 20
22.49052227021869
 30
0.0
 11
9.60439052511737
 21
22.49052227021869
 31
0.0
 70
    32
  1
<>
 71
     2
 42
-1.0
  3
SLDDIMSTYLE1
100
AcDbAlignedDimension
 13
5.265248425004529
 23
21.24239654332943
 33
0.0
 14
14.34124842500453
 24
21.24239654332943
 34
0.0
100
AcDbRotatedDimension
  0
MTEXT
  5
20E
330
1F
100
AcDbEntity
  8
NOTES
100
AcDbMText
 10
5.129153684110159
 20
7.745592021715561
 30
0.0
 40
0.7500000000000001
 41
0.0
 71
     1
 72
     1
  1
Front view
  7
SLDTEXTSTYLE1
 73
     1
 44
1.0
  0
MTEXT
  5
20F
330
1F
100
AcDbEntity
  8
NOTES
100
AcDbMText
 10
3.277495980052605
 20
5.220918983751865
 30
0.0
 40
0.7500000000000001
 41
0.0
 71
     1
 72
     1
  1
Floor
  7
SLDTEXTSTYLE1
 73
     1
 44
1.0
  0
MTEXT
  5
210
330
1F
100
AcDbEntity
  8
NOTES
100
AcDbMText
 10
12.9203006834597
 20
6.083471553576405
 30
0.0
 40
0.7500000000000001
 41
0.0
 71
     1
 72
     1
  1
Lock
  7
SLDTEXTSTYLE1
 73
     1
 44
1.0
  0
LEADER
  5
212
330
1F
100
AcDbEntity
  8
NOTES
100
AcDbLeader
  3
SLDDIMSTYLE2
 76
     3
 10
10.17040919259117
 20
9.655486729414513
 30
0.0
 10
12.39979059605341
 20
5.717479615874182
 30
0.0
 10
12.89979059605341
 20
5.717479615874182
 30
0.0
1001
ACAD
1000
DSTYLE
1002
{
1070
   176
1070
     0
1070
    77
1070
     0
1070
    40
1040
1.0
1070
   147
1040
0.0
1002
}
  0
SPLINE
  5
213
330
1F
100
AcDbEntity
  8
0
  6
SLD-Solid
 62
     7
370
    25
100
AcDbSpline
210
0.0
220
0.0
230
1.0
 70
    12
 71
     3
 72
    14
 73
    10
 74
     0
 42
0.00000001
 43
0.00000001
 40
0.0
 40
0.0
 40
0.0
 40
0.0
 40
0.1591050011342551
 40
0.3704689054814589
 40
0.5442408581645243
 40
0.6925064485220056
 40
0.8152875973361344
 40
0.9132821352356744
 40
1.0
 40
1.0
 40
1.0
 40
1.0
 10
9.337990925768317
 20
37.79213342545761
 30
0.0
 41
1.0
 10
9.338012515228355
 20
37.78808368657253
 30
0.0
 41
1.0
 10
9.338062785324034
 20
37.77865405003343
 30
0.0
 41
1.0
 10
9.344215907651806
 20
37.7658911619874
 30
0.0
 41
1.0
 10
9.352819222547474
 20
37.75558220514797
 30
0.0
 41
1.0
 10
9.361790508038482
 20
37.7491099418716
 30
0.0
 41
1.0
 10
9.369494373160025
 20
37.74558056417946
 30
0.0
 41
1.0
 10
9.374878416334383
 20
37.74394115066492
 30
0.0
 41
1.0
 10
9.37693806760312
 20
37.74351071181596
 30
0.0
 41
1.0
 10
9.377905022488706
 20
37.74330863151514
 30
0.0
 41
1.0
  0
SPLINE
  5
214
330
1F
100
AcDbEntity
  8
0
  6
SLD-Solid
 62
     7
370
    25
100
AcDbSpline
210
0.0
220
0.0
230
1.0
 70
    12
 71
     3
 72
    14
 73
    10
 74
     0
 42
0.00000001
 43
0.00000001
 40
0.0
 40
0.0
 40
0.0
 40
0.0
 40
0.0160215064161938
 40
0.1370012597302149
 40
0.2835857937056505
 40
0.4814916200169264
 40
0.7058029893426019
 40
0.9514803002293316
 40
1.0
 40
1.0
 40
1.0
 40
1.0
 10
10.1983713824949
 20
37.74370696817048
 30
0.0
 41
1.0
 10
10.19852758521928
 20
37.74373773846913
 30
0.0
 41
1.0
 10
10.19986328795894
 20
37.74400085790172
 30
0.0
 41
1.0
 10
10.2049374638626
 20
37.74549797067943
 30
0.0
 41
1.0
 10
10.2142807588187
 20
37.74987754840961
 30
0.0
 41
1.0
 10
10.22520969773452
 20
37.75868295591311
 30
0.0
 41
1.0
 10
10.23379452170853
 20
37.77248561184485
 30
0.0
 41
1.0
 10
10.23810911580101
 20
37.78520884334592
 30
0.0
 41
1.0
 10
10.23687376888942
 20
37.79231178212448
 30
0.0
 41
1.0
 10
10.2366700324166
 20
37.79348321638296
 30
0.0
 41
1.0
  0
LINE
  5
215
330
1F
100
AcDbEntity
  8
0
  6
SLD-Solid
 62
     7
370
    25
100
AcDbLine
 10
9.337248425004523
 20
37.97215355040812
 30
0.0
 11
9.337248425004523
 21
37.7925620004774
 31
0.0
  0
LINE
  5
216
330
1F
100
AcDbEntity
  8
0
  6
SLD-Solid
 62
     7
370
    25
100
AcDbLine
 10
10.23724842500452
 20
37.7925620004774
 30
0.0
 11
10.23724842500452
 21
37.97215355040813
 31
0.0
  0
LINE
  5
217
330
1F
100
AcDbEntity
  8
0
  6
SLD-Solid
 62
     7
370
    25
100
AcDbLine
 10
10.10224842500452
 20
37.74256573199437
 30
0.0
 11
10.10224842500452
 21
37.74354309206119
 31
0.0
  0
LINE
  5
218
330
1F
100
AcDbEntity
  8
0
  6
SLD-Solid
 62
     7
370
    25
100
AcDbLine
 10
9.472248425004523
 20
37.74354309206119
 30
0.0
 11
9.472248425004523
 21
37.74256573199437
 31
0.0
  0
LINE
  5
219
330
1F
100
AcDbEntity
  8
0
  6
SLD-Solid
 62
     7
370
    25
100
AcDbLine
 10
13.48613539002553
 20
42.95215355040812
 30
0.0
 11
12.70672918711808
 21
43.4021439314648
 31
0.0
  0
LINE
  5
21A
330
1F
100
AcDbEntity
  8
0
  6
SLD-Solid
 62
     7
370
    25
100
AcDbLine
 10
11.94976766289101
 20
43.4021439314648
 30
0.0
 11
11.17036145998356
 21
42.95215355040812
 31
0.0
  0
LINE
  5
21B
330
1F
100
AcDbEntity
  8
0
  6
SLD-Solid
 62
     7
370
    25
100
AcDbLine
 10
8.486135390025531
 20
42.95215355040812
 30
0.0
 11
7.706729187118077
 21
43.4021439314648
 31
0.0
  0
LINE
  5
21C
330
1F
100
AcDbEntity
  8
0
  6
SLD-Solid
 62
     7
370
    25
100
AcDbLine
 10
6.949767662891011
 20
43.4021439314648
 30
0.0
 11
6.170361459983552
 21
42.95215355040812
 31
0.0
  0
ARC
  5
21D
330
1F
100
AcDbEntity
  8
0
  6
SLD-Solid
 62
     7
370
    25
100
AcDbCircle
 10
7.699229187118077
 20
43.38915355040805
 30
0.0
 40
0.0150000000000031
100
AcDbArc
 50
59.99999999998198
 51
90.00000000000658
  0
ARC
  5
21E
330
1F
100
AcDbEntity
  8
0
  6
SLD-Solid
 62
     7
370
    25
100
AcDbCircle
 10
6.95726766289101
 20
43.38915355040805
 30
0.0
 40
0.0150000000000006
100
AcDbArc
 50
90.0
 51
120.0000000000246
  0
ARC
  5
21F
330
1F
100
AcDbEntity
  8
0
  6
SLD-Solid
 62
     7
370
    25
100
AcDbCircle
 10
12.69922918711808
 20
43.38915355040803
 30
0.0
 40
0.0149999999999995
100
AcDbArc
 50
60.00000000000548
 51
90.0
  0
ARC
  5
220
330
1F
100
AcDbEntity
  8
0
  6
SLD-Solid
 62
     7
370
    25
100
AcDbCircle
 10
11.95726766289101
 20
43.38915355040803
 30
0.0
 40
0.0150000000000148
100
AcDbArc
 50
90.0
 51
120.0000000000004
  0
LINE
  5
221
330
1F
100
AcDbEntity
  8
0
  6
SLD-Solid
 62
     7
370
    25
100
AcDbLine
 10
5.370248425004529
 20
37.97215355040812
 30
0.0
 11
14.23624842500453
 21
37.97215355040812
 31
0.0
  0
ARC
  5
222
330
1F
100
AcDbEntity
  8
0
  6
SLD-Solid
 62
     7
370
    25
100
AcDbCircle
 10
9.880273843218731
 20
46.97724790008032
 30
0.0
 40
9.24003725374656
100
AcDbArc
 50
269.4231566662058
 51
271.8998927587407
  0
ARC
  5
223
330
1F
100
AcDbEntity
  8
0
  6
SLD-Solid
 62
     7
370
    25
100
AcDbCircle
 10
9.787472633298941
 20
24.64007275937275
 30
0.0
 40
13.10874792065296
100
AcDbArc
 50
88.25337819116129
 51
91.74875388101869
  0
ARC
  5
224
330
1F
100
AcDbEntity
  8
0
  6
SLD-Solid
 62
     7
370
    25
100
AcDbCircle
 10
9.69470473199872
 20
47.0781092991868
 30
0.0
 40
9.340888811335164
100
AcDbArc
 50
268.1187223788691
 51
270.5676600893049
  0
LWPOLYLINE
  5
225
330
1F
100
AcDbEntity
  8
0
  6
SLD-Solid
 62
     7
370
    25
100
AcDbPolyline
 90
       31
 70
   128
 43
0.0
 10
9.787248425004524
 20
37.73859520672294
 10
9.854819724520295
 20
37.73868197222647
 10
9.919437834004158
 20
37.7389384766682
 10
9.97827863199958
 20
37.73935350957318
 10
10.02877049328468
 20
37.73990893201194
 10
10.06870668123447
 20
37.74058046935865
 10
10.09634179280045
 20
37.7413387722089
 10
10.11046804099921
 20
37.74215069908939
 10
10.11046804099921
 20
37.74298076489936
 10
10.09634179280045
 20
37.74379269177984
 10
10.06870668123447
 20
37.7445509946301
 10
10.02877049328468
 20
37.74522253197681
 10
9.978278631999576
 20
37.74577795441557
 10
9.919437834004158
 20
37.74619298732055
 10
9.854819724520295
 20
37.74644949176228
 10
9.78724842500452
 20
37.74653625726581
 10
9.719677125488749
 20
37.74644949176228
 10
9.655059016004886
 20
37.74619298732055
 10
9.596218218009467
 20
37.74577795441557
 10
9.545726356724368
 20
37.74522253197681
 10
9.50579016877458
 20
37.7445509946301
 10
9.478155057208598
 20
37.74379269177984
 10
9.464028809009834
 20
37.74298076489936
 10
9.464028809009834
 20
37.74215069908939
 10
9.4781550572086
 20
37.7413387722089
 10
9.505790168774581
 20
37.74058046935865
 10
9.545726356724373
 20
37.73990893201194
 10
9.596218218009472
 20
37.73935350957318
 10
9.655059016004891
 20
37.7389384766682
 10
9.719677125488756
 20
37.73868197222647
 10
9.787248425004524
 20
37.73859520672294
  0
LWPOLYLINE
  5
226
330
1F
100
AcDbEntity
  8
0
  6
SLD-Solid
 62
     7
370
    25
100
AcDbPolyline
 90
       30
 70
   128
 43
0.0
 10
9.787248425004524
 20
37.73871737673129
 10
9.854964113670997
 20
37.73880734913876
 10
9.919513491996007
 20
37.73907305935143
 10
9.97787830279056
 20
37.73950208305506
 10
10.02732947236973
 20
37.74007435957808
 10
10.06555471900502
 20
37.74076312990633
 10
10.09076667264808
 20
37.74153618790476
 10
10.10178645036763
 20
37.74235738624058
 10
10.0980987796051
 20
37.74318832659228
 10
10.07987609174681
 20
37.74399015511255
 10
10.04797045942394
 20
37.74472537919095
 10
10.00387375454335
 20
37.7453596205667
 10
9.949647890015283
 20
37.745863222818
 10
9.887828406997356
 20
37.74621263806328
 10
9.821305915808063
 20
37.74639152803403
 10
9.75319093420098
 20
37.74639152803403
 10
9.686668443011687
 20
37.74621263806328
 10
9.62484895999376
 20
37.745863222818
 10
9.570623095465693
 20
37.7453596205667
 10
9.526526390585103
 20
37.74472537919095
 10
9.494620758262233
 20
37.74399015511255
 10
9.476398070403942
 20
37.74318832659228
 10
9.47271039964142
 20
37.74235738624058
 10
9.48373017736097
 20
37.74153618790476
 10
9.508942131004028
 20
37.74076312990633
 10
9.54716737763932
 20
37.74007435957808
 10
9.59661854721849
 20
37.73950208305506
 10
9.654983358013045
 20
37.73907305935143
 10
9.719532736338055
 20
37.73880734913876
 10
9.787248425004524
 20
37.73871737673129
  0
LINE
  5
227
330
1F
100
AcDbEntity
  8
0
  6
SLD-Solid
 62
     7
370
    25
100
AcDbLine
 10
9.742248425004524
 20
37.74356201897442
 30
0.0
 11
9.742248425004524
 21
37.73898064366123
 31
0.0
  0
LINE
  5
228
330
1F
100
AcDbEntity
  8
0
  6
SLD-Solid
 62
     7
370
    25
100
AcDbLine
 10
9.742248425004524
 20
37.73898064366123
 30
0.0
 11
9.832248425004524
 21
37.73898064366123
 31
0.0
  0
LINE
  5
229
330
1F
100
AcDbEntity
  8
0
  6
SLD-Solid
 62
     7
370
    25
100
AcDbLine
 10
9.832248425004524
 20
37.73898064366123
 30
0.0
 11
9.832248425004524
 21
37.74356201897442
 31
0.0
  0
LINE
  5
22A
330
1F
100
AcDbEntity
  8
0
  6
SLD-Solid
 62
     7
370
    25
100
AcDbLine
 10
9.832248425004524
 20
37.74356201897442
 30
0.0
 11
9.742248425004524
 21
37.74356201897442
 31
0.0
  0
LINE
  5
22B
330
1F
100
AcDbEntity
  8
0
  6
SLD-Solid
 62
     7
370
    25
100
AcDbLine
 10
14.26935158660051
 20
42.90415355040802
 30
0.0
 11
14.25863133258627
 21
42.90415355040802
 31
0.0
  0
SPLINE
  5
22C
330
1F
100
AcDbEntity
  8
0
  6
SLD-Solid
 62
     7
370
    25
100
AcDbSpline
210
0.0
220
0.0
230
1.0
 70
    28
 71
     3
 72
    23
 73
    19
 74
     0
 42
0.00000001
 43
0.00000001
 40
0.0
 40
0.0
 40
0.0
 40
0.0
 40
0.0582580162109012
 40
0.1200056648645977
 40
0.1843204068813883
 40
0.2500000000000004
 40
0.3156795931186113
 40
0.3799943351354035
 40
0.4417419837890981
 40
0.5
 40
0.5582580162109019
 40
0.620005664864596
 40
0.6843204068813891
 40
0.7499999999999997
 40
0.8156795931186112
 40
0.879994335135402
 40
0.9417419837890971
 40
1.0
 40
1.0
 40
1.0
 40
1.0
 10
7.699229187118076
 20
43.40415355040805
 30
0.0
 41
1.0
 10
7.69802563160479
 20
43.40415355040805
 30
0.0
 41
1.0
 10
7.695546428072515
 20
43.40415355040805
 30
0.0
 41
1.0
 10
7.674906330055012
 20
43.40415355040805
 30
0.0
 41
1.0
 10
7.640681195801167
 20
43.40415355040805
 30
0.0
 41
1.0
 10
7.592427392752549
 20
43.40415355040805
 30
0.0
 41
1.0
 10
7.533114993841878
 20
43.40415355040805
 30
0.0
 41
1.0
 10
7.466624565470037
 20
43.40415355040805
 30
0.0
 41
1.0
 10
7.397484109211044
 20
43.40415355040805
 30
0.0
 41
1.0
 10
7.328248425004544
 20
43.40415355040805
 30
0.0
 41
1.0
 10
7.259012740798044
 20
43.40415355040805
 30
0.0
 41
1.0
 10
7.189872284539048
 20
43.40415355040805
 30
0.0
 41
1.0
 10
7.123381856167211
 20
43.40415355040805
 30
0.0
 41
1.0
 10
7.064069457256538
 20
43.40415355040805
 30
0.0
 41
1.0
 10
7.01581565420792
 20
43.40415355040805
 30
0.0
 41
1.0
 10
6.981590519954076
 20
43.40415355040805
 30
0.0
 41
1.0
 10
6.960950421936569
 20
43.40415355040805
 30
0.0
 41
1.0
 10
6.958471218404295
 20
43.40415355040805
 30
0.0
 41
1.0
 10
6.95726766289101
 20
43.40415355040805
 30
0.0
 41
1.0
  0
LINE
  5
22D
330
1F
100
AcDbEntity
  8
0
  6
SLD-Solid
 62
     7
370
    25
100
AcDbLine
 10
12.69922918711808
 20
43.40415355040803
 30
0.0
 11
11.95726766289101
 21
43.40415355040805
 31
0.0
  0
LINE
  5
22E
330
1F
100
AcDbEntity
  8
0
  6
SLD-Solid
 62
     7
370
    25
100
AcDbLine
 10
14.26124842500453
 20
42.87215355040812
 30
0.0
 11
5.345248425004536
 21
42.87215355040814
 31
0.0
  0
SPLINE
  5
22F
330
1F
100
AcDbEntity
  8
0
  6
SLD-Solid
 62
     7
370
    25
100
AcDbSpline
210
0.0
220
0.0
230
1.0
 70
    12
 71
     3
 72
    13
 73
     9
 74
     0
 42
0.00000001
 43
0.00000001
 40
0.0
 40
0.0
 40
0.0
 40
0.0
 40
0.2428929592196754
 40
0.4878250543426467
 40
0.6185792846745276
 40
0.7404698712374749
 40
0.8697704297992482
 40
0.9999999999999999
 40
0.9999999999999999
 40
0.9999999999999999
 40
0.9999999999999999
 10
5.379189550501476
 20
42.95215355040812
 30
0.0
 41
1.0
 10
5.3751945155748
 20
42.95109769372561
 30
0.0
 41
1.0
 10
5.367170906588913
 20
42.94897711622848
 30
0.0
 41
1.0
 10
5.357418002113708
 20
42.93479721720872
 30
0.0
 41
1.0
 10
5.351198710410986
 20
42.91918761624328
 30
0.0
 41
1.0
 10
5.347685837679503
 20
42.90497100850953
 30
0.0
 41
1.0
 10
5.345605784397315
 20
42.88917293070349
 30
0.0
 41
1.0
 10
5.345367828730094
 20
42.87784019935322
 30
0.0
 41
1.0
 10
5.345248425004536
 20
42.87215355040814
 30
0.0
 41
1.0
  0
LINE
  5
230
330
1F
100
AcDbEntity
  8
0
  6
SLD-Solid
 62
     7
370
    25
100
AcDbLine
 10
14.22730729950758
 20
42.95215355040812
 30
0.0
 11
5.379189550501476
 21
42.95215355040812
 31
0.0
  0
SPLINE
  5
231
330
1F
100
AcDbEntity
  8
0
  6
SLD-Solid
 62
     7
370
    25
100
AcDbSpline
210
0.0
220
0.0
230
1.0
 70
    12
 71
     3
 72
    13
 73
     9
 74
     0
 42
0.00000001
 43
0.00000001
 40
0.0
 40
0.0
 40
0.0
 40
0.0
 40
0.2428929592202722
 40
0.4878250543437911
 40
0.6185792845026395
 40
0.7404698712368402
 40
0.8697704297989184
 40
0.9999999999999999
 40
0.9999999999999999
 40
0.9999999999999999
 40
0.9999999999999999
 10
14.22730729950758
 20
42.95215355040812
 30
0.0
 41
1.0
 10
14.23130233443387
 20
42.95109769372554
 30
0.0
 41
1.0
 10
14.23932594341897
 20
42.94897711622826
 30
0.0
 41
1.0
 10
14.24907884789639
 20
42.93479721721341
 30
0.0
 41
1.0
 10
14.25529813958923
 20
42.91918761624799
 30
0.0
 41
1.0
 10
14.25881101233056
 20
42.90497100851695
 30
0.0
 41
1.0
 10
14.26089106561126
 20
42.88917293070342
 30
0.0
 41
1.0
 10
14.26112902127882
 20
42.87784019935318
 30
0.0
 41
1.0
 10
14.26124842500454
 20
42.87215355040814
 30
0.0
 41
1.0
  0
LINE
  5
232
330
1F
100
AcDbEntity
  8
0
  6
SLD-Solid
 62
     7
370
    25
100
AcDbLine
 10
14.26124842500453
 20
42.87215355040814
 30
0.0
 11
14.26124842500453
 21
38.02015355040812
 31
0.0
  0
LINE
  5
233
330
1F
100
AcDbEntity
  8
0
  6
SLD-Solid
 62
     7
370
    25
100
AcDbLine
 10
14.26124842500453
 20
38.02015355040812
 30
0.0
 11
14.23644842500453
 21
38.02015355040812
 31
0.0
  0
LINE
  5
234
330
1F
100
AcDbEntity
  8
0
  6
SLD-Solid
 62
     7
370
    25
100
AcDbLine
 10
14.23644842500453
 20
38.02085355040813
 30
0.0
 11
14.23644842500453
 21
38.02015355040812
 31
0.0
  0
LINE
  5
235
330
1F
100
AcDbEntity
  8
0
  6
SLD-Solid
 62
     7
370
    25
100
AcDbLine
 10
14.23624842500453
 20
38.02085355040813
 30
0.0
 11
14.23644842500453
 21
38.02085355040813
 31
0.0
  0
LINE
  5
236
330
1F
100
AcDbEntity
  8
0
  6
SLD-Solid
 62
     7
370
    25
100
AcDbLine
 10
14.23624842500453
 20
38.02065355040812
 30
0.0
 11
14.23624842500453
 21
38.02085355040813
 31
0.0
  0
LINE
  5
237
330
1F
100
AcDbEntity
  8
0
  6
SLD-Solid
 62
     7
370
    25
100
AcDbLine
 10
5.37024842500453
 20
38.02065355040812
 30
0.0
 11
14.23624842500453
 21
38.02065355040812
 31
0.0
  0
LINE
  5
238
330
1F
100
AcDbEntity
  8
0
  6
SLD-Solid
 62
     7
370
    25
100
AcDbLine
 10
5.37024842500453
 20
38.02065355040812
 30
0.0
 11
5.370248425004532
 21
38.02085355040811
 31
0.0
  0
LINE
  5
239
330
1F
100
AcDbEntity
  8
0
  6
SLD-Solid
 62
     7
370
    25
100
AcDbLine
 10
5.37004842500453
 20
38.02085355040811
 30
0.0
 11
5.370248425004532
 21
38.02085355040811
 31
0.0
  0
LINE
  5
23A
330
1F
100
AcDbEntity
  8
0
  6
SLD-Solid
 62
     7
370
    25
100
AcDbLine
 10
5.37004842500453
 20
38.02015355040812
 30
0.0
 11
5.37004842500453
 21
38.02085355040811
 31
0.0
  0
LINE
  5
23B
330
1F
100
AcDbEntity
  8
0
  6
SLD-Solid
 62
     7
370
    25
100
AcDbLine
 10
5.37004842500453
 20
38.02015355040812
 30
0.0
 11
5.34524842500453
 21
38.02015355040812
 31
0.0
  0
LINE
  5
23C
330
1F
100
AcDbEntity
  8
0
  6
SLD-Solid
 62
     7
370
    25
100
AcDbLine
 10
5.345248425004528
 20
42.87215355040814
 30
0.0
 11
5.345248425004528
 21
38.02015355040812
 31
0.0
  0
LINE
  5
23D
330
1F
100
AcDbEntity
  8
0
  6
SLD-Solid
 62
     7
370
    25
100
AcDbLine
 10
14.34124842500453
 20
38.02015355040812
 30
0.0
 11
14.34124842500453
 21
42.87215355040812
 31
0.0
  0
LINE
  5
23E
330
1F
100
AcDbEntity
  8
0
  6
SLD-Solid
 62
     7
370
    25
100
AcDbLine
 10
14.34124842500453
 20
38.02015355040812
 30
0.0
 11
14.26124842500453
 21
38.02015355040812
 31
0.0
  0
LINE
  5
23F
330
1F
100
AcDbEntity
  8
0
  6
SLD-Solid
 62
     7
370
    25
100
AcDbLine
 10
14.34124842500453
 20
42.87215355040812
 30
0.0
 11
14.26124842500453
 21
42.87215355040814
 31
0.0
  0
LINE
  5
240
330
1F
100
AcDbEntity
  8
0
  6
SLD-Solid
 62
     7
370
    25
100
AcDbLine
 10
5.265248425004531
 20
38.02015355040812
 30
0.0
 11
5.34524842500453
 21
38.02015355040812
 31
0.0
  0
LINE
  5
241
330
1F
100
AcDbEntity
  8
0
  6
SLD-Solid
 62
     7
370
    25
100
AcDbLine
 10
5.265248425004531
 20
42.87215355040812
 30
0.0
 11
5.265248425004531
 21
38.02015355040812
 31
0.0
  0
LINE
  5
242
330
1F
100
AcDbEntity
  8
0
  6
SLD-Solid
 62
     7
370
    25
100
AcDbLine
 10
5.345248425004536
 20
42.87215355040814
 30
0.0
 11
5.265248425004529
 21
42.87215355040814
 31
0.0
  0
LINE
  5
243
330
1F
100
AcDbEntity
  8
0
  6
SLD-Solid
 62
     7
370
    25
100
AcDbLine
 10
5.37024842500453
 20
38.02065355040812
 30
0.0
 11
5.370248425004529
 21
37.97215355040812
 31
0.0
  0
LINE
  5
244
330
1F
100
AcDbEntity
  8
0
  6
SLD-Solid
 62
     7
370
    25
100
AcDbLine
 10
14.23624842500453
 20
37.97215355040813
 30
0.0
 11
14.23624842500453
 21
38.02065355040812
 31
0.0
  0
LINE
  5
245
330
1F
100
AcDbEntity
  8
0
  6
SLD-Solid
 62
     7
370
    25
100
AcDbLine
 10
14.26124842500453
 20
42.9041535504081
 30
0.0
 11
14.26124842500453
 21
42.95215355040812
 31
0.0
  0
SPLINE
  5
246
330
1F
100
AcDbEntity
  8
0
  6
SLD-Solid
 62
     7
370
    25
100
AcDbSpline
210
0.0
220
0.0
230
1.0
 70
    12
 71
     3
 72
    13
 73
     9
 74
     0
 42
0.00000001
 43
0.00000001
 40
0.0
 40
0.0
 40
0.0
 40
0.0
 40
0.2691884684738555
 40
0.5325961722688624
 40
0.6635360603381059
 40
0.7771881813389376
 40
0.8900957867996205
 40
1.0
 40
1.0
 40
1.0
 40
1.0
 10
14.26124842500453
 20
42.90415355040813
 30
0.0
 41
1.0
 10
14.26517557579653
 20
42.90373412596482
 30
0.0
 41
1.0
 10
14.27294554265878
 20
42.9029042841283
 30
0.0
 41
1.0
 10
14.28160458322062
 20
42.89744509259192
 30
0.0
 41
1.0
 10
14.28727064199551
 20
42.89115571400556
 30
0.0
 41
1.0
 10
14.29056468495993
 20
42.88548477225377
 30
0.0
 41
1.0
 10
14.29281223918832
 20
42.87907690385547
 30
0.0
 41
1.0
 10
14.29310434220013
 20
42.87444050276532
 30
0.0
 41
1.0
 10
14.29324842500453
 20
42.87215355040812
 30
0.0
 41
1.0
  0
SPLINE
  5
247
330
1F
100
AcDbEntity
  8
0
  6
SLD-Solid
 62
     7
370
    25
100
AcDbSpline
210
0.0
220
0.0
230
1.0
 70
    12
 71
     3
 72
    13
 73
     9
 74
     0
 42
0.00000001
 43
0.00000001
 40
0.0
 40
0.0
 40
0.0
 40
0.0
 40
0.2428929592199912
 40
0.4878250543432113
 40
0.6185792848632963
 40
0.7404698712371491
 40
0.8697704297990809
 40
1.0
 40
1.0
 40
1.0
 40
1.0
 10
14.26124842500452
 20
42.95215355040812
 30
0.0
 41
1.0
 10
14.27109861981099
 20
42.95109769372555
 30
0.0
 41
1.0
 10
14.29088170381716
 20
42.94897711622831
 30
0.0
 41
1.0
 10
14.31279397063643
 20
42.93479721720498
 30
0.0
 41
1.0
 10
14.32664308460257
 20
42.91918761623591
 30
0.0
 41
1.0
 10
14.33476973038502
 20
42.90497100850188
 30
0.0
 41
1.0
 10
14.34019582818151
 20
42.88917293070345
 30
0.0
 41
1.0
 10
14.34089672309122
 20
42.87784019935321
 30
0.0
 41
1.0
 10
14.34124842500453
 20
42.87215355040814
 30
0.0
 41
1.0
  0
SPLINE
  5
248
330
1F
100
AcDbEntity
  8
0
  6
SLD-Solid
 62
     7
370
    25
100
AcDbSpline
210
0.0
220
0.0
230
1.0
 70
    12
 71
     3
 72
    13
 73
     9
 74
     0
 42
0.00000001
 43
0.00000001
 40
0.0
 40
0.0
 40
0.0
 40
0.0
 40
0.2428929592198988
 40
0.4878250543430528
 40
0.6185792848035945
 40
0.7404698712372153
 40
0.8697704297991224
 40
0.9999999999999999
 40
0.9999999999999999
 40
0.9999999999999999
 40
0.9999999999999999
 10
5.345248425004517
 20
42.95215355040812
 30
0.0
 41
1.0
 10
5.335398230198059
 20
42.95109769372555
 30
0.0
 41
1.0
 10
5.315615146191909
 20
42.94897711622837
 30
0.0
 41
1.0
 10
5.293702879374641
 20
42.93479721720619
 30
0.0
 41
1.0
 10
5.279853765408156
 20
42.9191876162382
 30
0.0
 41
1.0
 10
5.271727119624838
 20
42.9049710085043
 30
0.0
 41
1.0
 10
5.266301021827563
 20
42.88917293070345
 30
0.0
 41
1.0
 10
5.265600126917845
 20
42.87784019935321
 30
0.0
 41
1.0
 10
5.265248425004532
 20
42.87215355040814
 30
0.0
 41
1.0
  0
LINE
  5
249
330
1F
100
AcDbEntity
  8
0
  6
SLD-Solid
 62
     7
370
    25
100
AcDbLine
 10
5.345248425004532
 20
42.9041535504081
 30
0.0
 11
5.345248425004532
 21
42.95215355040812
 31
0.0
  0
SPLINE
  5
24A
330
1F
100
AcDbEntity
  8
0
  6
SLD-Solid
 62
     7
370
    25
100
AcDbSpline
210
0.0
220
0.0
230
1.0
 70
    12
 71
     3
 72
    13
 73
     9
 74
     0
 42
0.00000001
 43
0.00000001
 40
0.0
 40
0.0
 40
0.0
 40
0.0
 40
0.269188468473594
 40
0.5325961722683692
 40
0.6635360602839104
 40
0.7771881813391641
 40
0.8900957867997187
 40
1.0
 40
1.0
 40
1.0
 40
1.0
 10
5.345248425004526
 20
42.90415355040813
 30
0.0
 41
1.0
 10
5.341321274212541
 20
42.90373412596487
 30
0.0
 41
1.0
 10
5.333551307350326
 20
42.90290428412838
 30
0.0
 41
1.0
 10
5.324892266788971
 20
42.8974450925921
 30
0.0
 41
1.0
 10
5.319226208014386
 20
42.89115571400666
 30
0.0
 41
1.0
 10
5.315932165049433
 20
42.88548477225472
 30
0.0
 41
1.0
 10
5.313684610820758
 20
42.87907690385548
 30
0.0
 41
1.0
 10
5.313392507808938
 20
42.87444050276532
 30
0.0
 41
1.0
 10
5.313248425004532
 20
42.87215355040812
 30
0.0
 41
1.0
  0
ARC
  5
24B
330
1F
100
AcDbEntity
  8
0
  6
SLD-Solid
 62
     7
370
    25
100
AcDbCircle
 10
14.29274842500453
 20
38.02065355040812
 30
0.0
 40
0.0485000000000007
100
AcDbArc
 50
180.0
 51
360.0000000000041
  0
ARC
  5
24C
330
1F
100
AcDbEntity
  8
0
  6
SLD-Solid
 62
     7
370
    25
100
AcDbCircle
 10
5.313748425004528
 20
38.02065355040812
 30
0.0
 40
0.0484999999999998
100
AcDbArc
 50
180.0
 51
360.0
  0
LINE
  5
24D
330
1F
100
AcDbEntity
  8
0
  6
SLD-Solid
 62
     7
370
    25
100
AcDbLine
 10
5.345248425004532
 20
42.95215355040812
 30
0.0
 11
5.379189550501476
 21
42.95215355040812
 31
0.0
  0
LINE
  5
24E
330
1F
100
AcDbEntity
  8
0
  6
SLD-Solid
 62
     7
370
    25
100
AcDbLine
 10
14.22730729950759
 20
42.95215355040812
 30
0.0
 11
14.26124842500453
 21
42.95215355040812
 31
0.0
  0
LINE
  5
24F
330
1F
100
AcDbEntity
  8
0
  6
SLD-Solid
 62
     7
370
    25
100
AcDbLine
 10
14.29324842500453
 20
42.95215355040816
 30
0.0
 11
14.34124842500453
 21
42.95215355040816
 31
0.0
  0
LINE
  5
250
330
1F
100
AcDbEntity
  8
0
  6
SLD-Solid
 62
     7
370
    25
100
AcDbLine
 10
14.34124842500453
 20
42.87215355040812
 30
0.0
 11
14.34124842500453
 21
42.95215355040816
 31
0.0
  0
LINE
  5
251
330
1F
100
AcDbEntity
  8
0
  6
SLD-Solid
 62
     7
370
    25
100
AcDbLine
 10
14.29324842500453
 20
42.94482029646654
 30
0.0
 11
14.29324842500453
 21
42.95215355040816
 31
0.0
  0
LWPOLYLINE
  5
252
330
1F
100
AcDbEntity
  8
0
  6
SLD-Solid
 62
     8
370
    25
100
AcDbPolyline
 90
        3
 70
   128
 43
0.0
 10
10.18661164149252
 20
37.7422900981208
 10
10.18679536067773
 20
37.74233320867223
 10
10.1870217655309
 20
37.74273022029097
  0
LWPOLYLINE
  5
253
330
1F
100
AcDbEntity
  8
0
  6
SLD-Solid
 62
     8
370
    25
100
AcDbPolyline
 90
        3
 70
   128
 43
0.0
 10
9.387435929454604
 20
37.74271534332507
 10
9.387701489331322
 20
37.74233320867223
 10
9.388056531190625
 20
37.74225525862534
  0
ARC
  5
254
330
1F
100
AcDbEntity
  8
0
  6
SLD-Solid
 62
     8
370
    25
100
AcDbCircle
 10
9.78728918488036
 20
24.05396794622521
 30
0.0
 40
13.74596233509171
100
AcDbArc
 50
88.12414950574637
 51
91.87619055041876
  0
LINE
  5
255
330
1F
100
AcDbEntity
  8
0
  6
SLD-Solid
 62
     8
370
    25
100
AcDbLine
 10
12.70672918711808
 20
43.4021439314648
 30
0.0
 11
11.94976766289101
 21
43.4021439314648
 31
0.0
  0
LINE
  5
256
330
1F
100
AcDbEntity
  8
0
  6
SLD-Solid
 62
     8
370
    25
100
AcDbLine
 10
7.706729187118077
 20
43.4021439314648
 30
0.0
 11
6.949767662891011
 21
43.4021439314648
 31
0.0
  0
LINE
  5
257
330
1F
100
AcDbEntity
  8
0
  6
SLD-Solid
 62
     7
370
    25
100
AcDbLine
 10
17.75309469634796
 20
10.21754492221087
 30
0.0
 11
17.57900079679306
 21
10.21967198627065
 31
0.0
  0
LINE
  5
258
330
1F
100
AcDbEntity
  8
0
  6
SLD-Solid
 62
     7
370
    25
100
AcDbLine
 10
17.56800549604138
 20
9.319739153576242
 30
0.0
 11
17.75309469634796
 21
9.317477749892186
 31
0.0
  0
ARC
  5
259
330
1F
100
AcDbEntity
  8
0
  6
SLD-Solid
 62
     7
370
    25
100
AcDbCircle
 10
17.56861634608314
 20
9.369735422059266
 30
0.0
 40
0.0500000000000018
100
AcDbArc
 50
179.3000000000031
 51
269.3000000000039
  0
ARC
  5
25A
330
1F
100
AcDbEntity
  8
0
  6
SLD-Solid
 62
     7
370
    25
100
AcDbCircle
 10
17.57838994675129
 20
10.16967571778763
 30
0.0
 40
0.0500000000000018
100
AcDbArc
 50
89.29999999999906
 51
179.3000000000011
  0
LINE
  5
25B
330
1F
100
AcDbEntity
  8
0
  6
SLD-Solid
 62
     7
370
    25
100
AcDbLine
 10
22.73309469634797
 20
15.25252303721466
 30
0.0
 11
23.18308507740465
 21
16.0319292401221
 31
0.0
  0
LINE
  5
25C
330
1F
100
AcDbEntity
  8
0
  6
SLD-Solid
 62
     7
370
    25
100
AcDbLine
 10
23.18308507740465
 20
16.78889076434917
 30
0.0
 11
22.73309469634797
 21
17.56829696725661
 31
0.0
  0
LINE
  5
25D
330
1F
100
AcDbEntity
  8
0
  6
SLD-Solid
 62
     7
370
    25
100
AcDbLine
 10
22.73309469634797
 20
9.03950957830839
 30
0.0
 11
23.18308507740464
 21
9.818915781215837
 31
0.0
  0
LINE
  5
25E
330
1F
100
AcDbEntity
  8
0
  6
SLD-Solid
 62
     7
370
    25
100
AcDbLine
 10
23.18308507740464
 20
10.5758773054429
 30
0.0
 11
22.73309469634797
 21
11.35528350835034
 31
0.0
  0
ARC
  5
25F
330
1F
100
AcDbEntity
  8
0
  6
SLD-Solid
 62
     7
370
    25
100
AcDbCircle
 10
23.17009469634788
 20
16.03942924012211
 30
0.0
 40
0.0150000000000022
100
AcDbArc
 50
329.9999999999887
 51
359.9999999999872
  0
ARC
  5
260
330
1F
100
AcDbEntity
  8
0
  6
SLD-Solid
 62
     7
370
    25
100
AcDbCircle
 10
23.17009469634788
 20
16.78139076434917
 30
0.0
 40
0.0150000000000004
100
AcDbArc
 50
359.9999999999872
 51
30.0000000000004
  0
ARC
  5
261
330
1F
100
AcDbEntity
  8
0
  6
SLD-Solid
 62
     7
370
    25
100
AcDbCircle
 10
23.17009469634788
 20
9.826415781215836
 30
0.0
 40
0.0150000000000006
100
AcDbArc
 50
329.9999999999995
 51
0.0
  0
ARC
  5
262
330
1F
100
AcDbEntity
  8
0
  6
SLD-Solid
 62
     7
370
    25
100
AcDbCircle
 10
23.17009469634788
 20
10.5683773054429
 30
0.0
 40
0.0150000000000006
100
AcDbArc
 50
0.0
 51
30.00000000000719
  0
LINE
  5
263
330
1F
100
AcDbEntity
  8
0
  6
SLD-Solid
 62
     7
370
    25
100
AcDbLine
 10
17.75309469634798
 20
21.22639654332943
 30
0.0
 11
17.75309469634797
 21
8.572396543329424
 31
0.0
  0
LINE
  5
264
330
1F
100
AcDbEntity
  8
0
  6
SLD-Solid
 62
     7
370
    25
100
AcDbLine
 10
17.51862007760011
 20
9.370346272101026
 30
0.0
 11
17.52839367824168
 21
10.17028656565276
 31
0.0
  0
LINE
  5
265
330
1F
100
AcDbEntity
  8
0
  6
SLD-Solid
 62
     7
370
    25
100
AcDbLine
 10
17.87799469634797
 20
8.542190909759961
 30
0.0
 11
17.8776152235101
 21
8.572196543329422
 31
0.0
  0
ARC
  5
266
330
1F
100
AcDbEntity
  8
0
  6
SLD-Solid
 62
     7
370
    25
100
AcDbCircle
 10
17.81893329453421
 20
8.575618034440692
 30
0.0
 40
0.0600000000000009
100
AcDbArc
 50
183.0777773752823
 51
348.4750294736432
  0
ARC
  5
267
330
1F
100
AcDbEntity
  8
0
  6
SLD-Solid
 62
     7
370
    25
100
AcDbCircle
 10
17.81893329453421
 20
8.575618034440692
 30
0.0
 40
0.0120000000000009
100
AcDbArc
 50
195.5725052218643
 51
344.4274947781328
  0
LINE
  5
268
330
1F
100
AcDbEntity
  8
0
  6
SLD-Solid
 62
     7
370
    25
100
AcDbLine
 10
22.68509469634787
 20
8.51539654332937
 30
0.0
 11
22.68509469634788
 21
8.547316244077544
 31
0.0
  0
LINE
  5
269
330
1F
100
AcDbEntity
  8
0
  6
SLD-Solid
 62
     7
370
    25
100
AcDbLine
 10
22.68509469634787
 20
8.572196543329419
 30
0.0
 11
22.68509469634787
 21
8.572396543329429
 31
0.0
  0
ARC
  5
26A
330
1F
100
AcDbEntity
  8
0
  6
SLD-Solid
 62
     7
370
    25
100
AcDbCircle
 10
22.61709469634788
 20
8.51539654332937
 30
0.0
 40
0.0679999999999996
100
AcDbArc
 50
270.0000000000008
 51
0.0
  0
LINE
  5
26B
330
1F
100
AcDbEntity
  8
0
  6
SLD-Solid
 62
     7
370
    25
100
AcDbLine
 10
22.60809469634799
 20
8.44739654332937
 30
0.0
 11
22.61709469634788
 21
8.44739654332937
 31
0.0
  0
ARC
  5
26C
330
1F
100
AcDbEntity
  8
0
  6
SLD-Solid
 62
     7
370
    25
100
AcDbCircle
 10
22.61709469634788
 20
8.51539654332937
 30
0.0
 40
0.0200000000000009
100
AcDbArc
 50
274.2327456558612
 51
0.0
  0
LINE
  5
26D
330
1F
100
AcDbEntity
  8
0
  6
SLD-Solid
 62
     7
370
    25
100
AcDbLine
 10
22.63709469634787
 20
8.51539654332937
 30
0.0
 11
22.63709469634787
 21
8.523484936186415
 31
0.0
  0
SPLINE
  5
26E
330
1F
100
AcDbEntity
  8
0
  6
SLD-Solid
 62
     7
370
    25
100
AcDbSpline
210
0.0
220
0.0
230
1.0
 70
    28
 71
     3
 72
    23
 73
    19
 74
     0
 42
0.00000001
 43
0.00000001
 40
0.0
 40
0.0
 40
0.0
 40
0.0
 40
0.058258016210902
 40
0.1200056648645991
 40
0.1843204068813886
 40
0.2500000000000002
 40
0.3156795931186113
 40
0.3799943351354054
 40
0.4417419837890982
 40
0.4999999999999997
 40
0.5582580162109008
 40
0.6200056648645964
 40
0.6843204068813878
 40
0.75
 40
0.8156795931186105
 40
0.8799943351354019
 40
0.9417419837890981
 40
1.0
 40
1.0
 40
1.0
 40
1.0
 10
23.18509469634788
 20
16.0394292401221
 30
0.0
 41
1.0
 10
23.18509469634788
 20
16.04063279563539
 30
0.0
 41
1.0
 10
23.18509469634788
 20
16.04311199916766
 30
0.0
 41
1.0
 10
23.18509469634787
 20
16.06375209718517
 30
0.0
 41
1.0
 10
23.18509469634788
 20
16.09797723143901
 30
0.0
 41
1.0
 10
23.18509469634787
 20
16.14623103448763
 30
0.0
 41
1.0
 10
23.18509469634788
 20
16.2055434333983
 30
0.0
 41
1.0
 10
23.18509469634788
 20
16.27203386177014
 30
0.0
 41
1.0
 10
23.18509469634788
 20
16.34117431802914
 30
0.0
 41
1.0
 10
23.18509469634787
 20
16.41041000223564
 30
0.0
 41
1.0
 10
23.18509469634787
 20
16.47964568644214
 30
0.0
 41
1.0
 10
23.18509469634788
 20
16.54878614270114
 30
0.0
 41
1.0
 10
23.18509469634787
 20
16.61527657107297
 30
0.0
 41
1.0
 10
23.18509469634788
 20
16.67458896998365
 30
0.0
 41
1.0
 10
23.18509469634788
 20
16.72284277303226
 30
0.0
 41
1.0
 10
23.18509469634787
 20
16.75706790728611
 30
0.0
 41
1.0
 10
23.18509469634788
 20
16.77770800530361
 30
0.0
 41
1.0
 10
23.18509469634788
 20
16.78018720883588
 30
0.0
 41
1.0
 10
23.18509469634788
 20
16.78139076434917
 30
0.0
 41
1.0
  0
LINE
  5
26F
330
1F
100
AcDbEntity
  8
0
  6
SLD-Solid
 62
     7
370
    25
100
AcDbLine
 10
23.18509469634787
 20
9.826415781215836
 30
0.0
 11
23.18509469634788
 21
10.5683773054429
 31
0.0
  0
LINE
  5
270
330
1F
100
AcDbEntity
  8
0
  6
SLD-Solid
 62
     7
370
    25
100
AcDbLine
 10
22.60809469634797
 20
8.47939654332942
 30
0.0
 11
22.60809469634797
 21
8.479596543329418
 31
0.0
  0
LINE
  5
271
330
1F
100
AcDbEntity
  8
0
  6
SLD-Solid
 62
     7
370
    25
100
AcDbLine
 10
22.60809469634797
 20
8.47939654332942
 30
0.0
 11
17.87809469634797
 21
8.479396543329425
 31
0.0
  0
LINE
  5
272
330
1F
100
AcDbEntity
  8
0
  6
SLD-Solid
 62
     7
370
    25
100
AcDbLine
 10
17.87809469634797
 20
8.479596543329425
 30
0.0
 11
17.87809469634797
 21
8.479396543329425
 31
0.0
  0
LINE
  5
273
330
1F
100
AcDbEntity
  8
0
  6
SLD-Solid
 62
     7
370
    25
100
AcDbLine
 10
17.87809469634797
 20
8.479596543329425
 30
0.0
 11
17.87799469634797
 21
8.479596543329425
 31
0.0
  0
LINE
  5
274
330
1F
100
AcDbEntity
  8
0
  6
SLD-Solid
 62
     7
370
    25
100
AcDbLine
 10
17.87799469634797
 20
8.479596543329425
 30
0.0
 11
17.87799469634797
 21
8.572196543329422
 31
0.0
  0
LINE
  5
275
330
1F
100
AcDbEntity
  8
0
  6
SLD-Solid
 62
     7
370
    25
100
AcDbLine
 10
17.87799469634797
 20
8.572196543329422
 30
0.0
 11
17.80179469634797
 21
8.572196543329424
 31
0.0
  0
LINE
  5
276
330
1F
100
AcDbEntity
  8
0
  6
SLD-Solid
 62
     7
370
    25
100
AcDbLine
 10
17.80179469634797
 20
8.572196543329424
 30
0.0
 11
17.80179469634797
 21
8.572396543329427
 31
0.0
  0
LINE
  5
277
330
1F
100
AcDbEntity
  8
0
  6
SLD-Solid
 62
     7
370
    25
100
AcDbLine
 10
17.80159469634797
 20
8.572396543329424
 30
0.0
 11
17.80179469634797
 21
8.572396543329427
 31
0.0
  0
LINE
  5
278
330
1F
100
AcDbEntity
  8
0
  6
SLD-Solid
 62
     7
370
    25
100
AcDbLine
 10
17.80159469634797
 20
8.572396543329424
 30
0.0
 11
17.80159469634798
 21
21.22639654332942
 31
0.0
  0
LINE
  5
279
330
1F
100
AcDbEntity
  8
0
  6
SLD-Solid
 62
     7
370
    25
100
AcDbLine
 10
17.80159469634798
 20
21.22639654332942
 30
0.0
 11
17.80179469634798
 21
21.22639654332943
 31
0.0
  0
LINE
  5
27A
330
1F
100
AcDbEntity
  8
0
  6
SLD-Solid
 62
     7
370
    25
100
AcDbLine
 10
17.80179469634798
 20
21.22639654332943
 30
0.0
 11
17.80179469634798
 21
21.22659654332943
 31
0.0
  0
LINE
  5
27B
330
1F
100
AcDbEntity
  8
0
  6
SLD-Solid
 62
     7
370
    25
100
AcDbLine
 10
17.80179469634798
 20
21.22659654332943
 30
0.0
 11
17.80109469634798
 21
21.22659654332943
 31
0.0
  0
LINE
  5
27C
330
1F
100
AcDbEntity
  8
0
  6
SLD-Solid
 62
     7
370
    25
100
AcDbLine
 10
17.80109469634798
 20
21.22659654332943
 30
0.0
 11
17.80109469634798
 21
21.24239654332943
 31
0.0
  0
LINE
  5
27D
330
1F
100
AcDbEntity
  8
0
  6
SLD-Solid
 62
     7
370
    25
100
AcDbLine
 10
17.80109469634798
 20
21.24239654332943
 30
0.0
 11
22.65309469634798
 21
21.24239654332942
 31
0.0
  0
LINE
  5
27E
330
1F
100
AcDbEntity
  8
0
  6
SLD-Solid
 62
     7
370
    25
100
AcDbLine
 10
22.65309469634798
 20
21.24239654332942
 30
0.0
 11
22.65309469634797
 21
8.572396543329422
 31
0.0
  0
LINE
  5
27F
330
1F
100
AcDbEntity
  8
0
  6
SLD-Solid
 62
     7
370
    25
100
AcDbLine
 10
22.65289469634797
 20
8.572396543329424
 30
0.0
 11
22.65309469634797
 21
8.572396543329422
 31
0.0
  0
LINE
  5
280
330
1F
100
AcDbEntity
  8
0
  6
SLD-Solid
 62
     7
370
    25
100
AcDbLine
 10
22.65289469634797
 20
8.572396543329424
 30
0.0
 11
22.65289469634797
 21
8.572196543329419
 31
0.0
  0
LINE
  5
281
330
1F
100
AcDbEntity
  8
0
  6
SLD-Solid
 62
     7
370
    25
100
AcDbLine
 10
22.65289469634797
 20
8.572196543329419
 30
0.0
 11
22.73309469634797
 21
8.572196543329419
 31
0.0
  0
LINE
  5
282
330
1F
100
AcDbEntity
  8
0
  6
SLD-Solid
 62
     7
370
    25
100
AcDbLine
 10
22.73309469634797
 20
8.572196543329419
 30
0.0
 11
22.73309469634797
 21
8.547196543329413
 31
0.0
  0
LINE
  5
283
330
1F
100
AcDbEntity
  8
0
  6
SLD-Solid
 62
     7
370
    25
100
AcDbLine
 10
22.73309469634797
 20
8.547196543329413
 30
0.0
 11
22.65289469634797
 21
8.547396543329413
 31
0.0
  0
LINE
  5
284
330
1F
100
AcDbEntity
  8
0
  6
SLD-Solid
 62
     7
370
    25
100
AcDbLine
 10
22.65289469634797
 20
8.547396543329413
 30
0.0
 11
22.60809469634797
 21
8.479596543329418
 31
0.0
  0
LINE
  5
285
330
1F
100
AcDbEntity
  8
0
  6
SLD-Solid
 62
     7
370
    25
100
AcDbLine
 10
22.73309469634797
 20
8.572396543329422
 30
0.0
 11
22.65309469634797
 21
8.572396543329422
 31
0.0
  0
SPLINE
  5
286
330
1F
100
AcDbEntity
  8
0
  6
SLD-Solid
 62
     7
370
    25
100
AcDbSpline
210
0.0
220
0.0
230
1.0
 70
    12
 71
     3
 72
    13
 73
     9
 74
     0
 42
0.00000001
 43
0.00000001
 40
0.0
 40
0.0
 40
0.0
 40
0.0
 40
0.2428929592199912
 40
0.4878250543432113
 40
0.6185792848632963
 40
0.7404698712371491
 40
0.8697704297990809
 40
1.0
 40
1.0
 40
1.0
 40
1.0
 10
22.73309469634798
 20
21.20845541783247
 30
0.0
 41
1.0
 10
22.7320388396654
 20
21.21245045275896
 30
0.0
 41
1.0
 10
22.72991826216817
 20
21.22047406174448
 30
0.0
 41
1.0
 10
22.71573836314484
 20
21.23022696622501
 30
0.0
 41
1.0
 10
22.70012876217575
 20
21.23644625792183
 30
0.0
 41
1.0
 10
22.68591215444175
 20
21.23995913065639
 30
0.0
 41
1.0
 10
22.6701140766433
 20
21.24203918393642
 30
0.0
 41
1.0
 10
22.65878134529306
 20
21.24227713960379
 30
0.0
 41
1.0
 10
22.65309469634798
 20
21.24239654332942
 30
0.0
 41
1.0
  0
LINE
  5
287
330
1F
100
AcDbEntity
  8
0
  6
SLD-Solid
 62
     7
370
    25
100
AcDbLine
 10
22.73309469634797
 20
8.572396543329422
 30
0.0
 11
22.73309469634798
 21
21.20845541783247
 31
0.0
  0
LINE
  5
288
330
1F
100
AcDbEntity
  8
0
  6
SLD-Solid
 62
     7
370
    25
100
AcDbLine
 10
22.65309469634798
 20
21.32239654332942
 30
0.0
 11
17.80109469634798
 21
21.32239654332943
 31
0.0
  0
LINE
  5
289
330
1F
100
AcDbEntity
  8
0
  6
SLD-Solid
 62
     7
370
    25
100
AcDbLine
 10
17.80109469634798
 20
21.24239654332943
 30
0.0
 11
17.80109469634798
 21
21.32239654332943
 31
0.0
  0
LINE
  5
28A
330
1F
100
AcDbEntity
  8
0
  6
SLD-Solid
 62
     7
370
    25
100
AcDbLine
 10
22.65309469634798
 20
21.24239654332942
 30
0.0
 11
22.65309469634798
 21
21.32239654332942
 31
0.0
  0
LINE
  5
28B
330
1F
100
AcDbEntity
  8
0
  6
SLD-Solid
 62
     7
370
    25
100
AcDbLine
 10
17.87809469634797
 20
8.399396543329424
 30
0.0
 11
22.60809469634797
 21
8.399396543329416
 31
0.0
  0
LINE
  5
28C
330
1F
100
AcDbEntity
  8
0
  6
SLD-Solid
 62
     7
370
    25
100
AcDbLine
 10
17.87809469634797
 20
8.479396543329425
 30
0.0
 11
17.87809469634797
 21
8.399396543329424
 31
0.0
  0
LINE
  5
28D
330
1F
100
AcDbEntity
  8
0
  6
SLD-Solid
 62
     7
370
    25
100
AcDbLine
 10
22.60809469634797
 20
8.399396543329416
 30
0.0
 11
22.60809469634797
 21
8.47939654332942
 31
0.0
  0
LINE
  5
28E
330
1F
100
AcDbEntity
  8
0
  6
SLD-Solid
 62
     7
370
    25
100
AcDbLine
 10
17.80159469634798
 20
21.22639654332942
 30
0.0
 11
17.75309469634798
 21
21.22639654332943
 31
0.0
  0
LINE
  5
28F
330
1F
100
AcDbEntity
  8
0
  6
SLD-Solid
 62
     7
370
    25
100
AcDbLine
 10
17.75309469634797
 20
8.572396543329424
 30
0.0
 11
17.80159469634797
 21
8.572396543329424
 31
0.0
  0
SPLINE
  5
290
330
1F
100
AcDbEntity
  8
0
  6
SLD-Solid
 62
     7
370
    25
100
AcDbSpline
210
0.0
220
0.0
230
1.0
 70
    12
 71
     3
 72
    13
 73
     9
 74
     0
 42
0.00000001
 43
0.00000001
 40
0.0
 40
0.0
 40
0.0
 40
0.0
 40
0.2428929592202722
 40
0.4878250543437911
 40
0.6185792845026395
 40
0.7404698712368402
 40
0.8697704297989184
 40
0.9999999999999999
 40
0.9999999999999999
 40
0.9999999999999999
 40
0.9999999999999999
 10
22.73309469634798
 20
21.24239654332944
 30
0.0
 41
1.0
 10
22.73203883966539
 20
21.25224673813592
 30
0.0
 41
1.0
 10
22.72991826216812
 20
21.27202982214214
 30
0.0
 41
1.0
 10
22.71573836315326
 20
21.29394208894833
 30
0.0
 41
1.0
 10
22.70012876218784
 20
21.30779120291863
 30
0.0
 41
1.0
 10
22.68591215445679
 20
21.31591784870476
 30
0.0
 41
1.0
 10
22.67011407664327
 20
21.32134394650641
 30
0.0
 41
1.0
 10
22.65878134529304
 20
21.32204484141612
 30
0.0
 41
1.0
 10
22.65309469634798
 20
21.32239654332942
 30
0.0
 41
1.0
  0
LINE
  5
291
330
1F
100
AcDbEntity
  8
0
  6
SLD-Solid
 62
     7
370
    25
100
AcDbLine
 10
22.68509469634797
 20
21.24239654332942
 30
0.0
 11
22.73309469634798
 21
21.24239654332942
 31
0.0
  0
SPLINE
  5
292
330
1F
100
AcDbEntity
  8
0
  6
SLD-Solid
 62
     7
370
    25
100
AcDbSpline
210
0.0
220
0.0
230
1.0
 70
    12
 71
     3
 72
    13
 73
     9
 74
     0
 42
0.00000001
 43
0.00000001
 40
0.0
 40
0.0
 40
0.0
 40
0.0
 40
0.2691884684749875
 40
0.5325961722712604
 40
0.6635360599753509
 40
0.777188181337907
 40
0.890095786799087
 40
1.0
 40
1.0
 40
1.0
 40
1.0
 10
22.68509469634798
 20
21.24239654332943
 30
0.0
 41
1.0
 10
22.68467527190461
 20
21.24632369412149
 30
0.0
 41
1.0
 10
22.68384543006792
 20
21.25409366098387
 30
0.0
 41
1.0
 10
22.67838623853552
 20
21.26275270154019
 30
0.0
 41
1.0
 10
22.6720968599492
 20
21.26841876031738
 30
0.0
 41
1.0
 10
22.6664259182008
 20
21.27171280328221
 30
0.0
 41
1.0
 10
22.66001804979526
 20
21.27396035751326
 30
0.0
 41
1.0
 10
22.65538164870514
 20
21.27425246052504
 30
0.0
 41
1.0
 10
22.65309469634798
 20
21.27439654332942
 30
0.0
 41
1.0
  0
LINE
  5
293
330
1F
100
AcDbEntity
  8
0
  6
SLD-Solid
 62
     7
370
    25
100
AcDbLine
 10
17.80159469634798
 20
21.22659654332943
 30
0.0
 11
17.80159469634798
 21
21.22639654332942
 31
0.0
  0
ARC
  5
294
330
1F
100
AcDbEntity
  8
0
  6
SLD-Solid
 62
     7
370
    25
100
AcDbCircle
 10
17.80159469634798
 20
21.27389654332943
 30
0.0
 40
0.0485000000000007
100
AcDbArc
 50
90.0
 51
258.3449052555957
  0
LINE
  5
295
330
1F
100
AcDbEntity
  8
0
  6
SLD-Solid
 62
     7
370
    25
100
AcDbLine
 10
22.73309469634798
 20
21.24239654332942
 30
0.0
 11
22.73309469634798
 21
21.20845541783251
 31
0.0
  0
LINE
  5
296
330
1F
100
AcDbEntity
  8
0
  6
SLD-Solid
 62
     8
370
    25
100
AcDbLine
 10
17.57900079679306
 20
10.21967198627065
 30
0.0
 11
17.56800549604138
 21
9.319739153576242
 31
0.0
  0
LINE
  5
297
330
1F
100
AcDbEntity
  8
0
  6
SLD-Solid
 62
     8
370
    25
100
AcDbLine
 10
23.18308507740465
 20
16.41041000223564
 30
0.0
 11
23.18308507740464
 21
16.75534413157357
 31
0.0
  0
LINE
  5
298
330
1F
100
AcDbEntity
  8
0
  6
SLD-Solid
 62
     8
370
    25
100
AcDbLine
 10
23.18308507740465
 20
16.0319292401221
 30
0.0
 11
23.18308507740465
 21
16.41041000223564
 31
0.0
  0
LINE
  5
299
330
1F
100
AcDbEntity
  8
0
  6
SLD-Solid
 62
     8
370
    25
100
AcDbLine
 10
23.18308507740464
 20
10.19739654332937
 30
0.0
 11
23.18308507740464
 21
10.5423306726673
 31
0.0
  0
LINE
  5
29A
330
1F
100
AcDbEntity
  8
0
  6
SLD-Solid
 62
     8
370
    25
100
AcDbLine
 10
23.18308507740464
 20
9.818915781215837
 30
0.0
 11
23.18308507740464
 21
10.19739654332937
 31
0.0
  0
DIMENSION
  5
29B
330
1F
100
AcDbEntity
  8
DIMS
100
AcDbDimension
  2
_D_3
 10
16.10821173872939
 20
8.399396543329425
 30
0.0
 11
16.1082117387294
 21
15.25163979083282
 31
0.0
 70
    32
  1
<>
 71
     2
 42
-1.0
  3
SLDDIMSTYLE1
100
AcDbAlignedDimension
 13
17.80109469634798
 23
21.32239654332943
 33
0.0
 14
17.87809469634797
 24
8.399396543329425
 34
0.0
 50
90.0000000000002
100
AcDbRotatedDimension
  0
MTEXT
  5
2AA
330
1F
100
AcDbEntity
  8
NOTES
100
AcDbMText
 10
17.60256985959366
 20
7.8697856614217
 30
0.0
 40
0.7500000000000001
 41
0.0
 71
     1
 72
     1
  1
Side view
  7
SLDTEXTSTYLE1
 73
     1
 44
1.0
  0
SPLINE
  5
2AB
330
1F
100
AcDbEntity
  8
0
  6
SLD-Solid
 62
     7
370
    25
100
AcDbSpline
210
0.0
220
0.0
230
1.0
 70
    12
 71
     3
 72
    22
 73
    18
 74
     0
 42
0.00000001
 43
0.00000001
 40
0.0
 40
0.0
 40
0.0
 40
0.0
 40
0.0248806043001382
 40
0.0906420334586987
 40
0.1561936661417165
 40
0.2231100069258284
 40
0.2922225152653552
 40
0.363163536895525
 40
0.4349884340677438
 40
0.506882361957859
 40
0.5786011327839204
 40
0.6501673044003333
 40
0.7216849126416112
 40
0.7932781388156873
 40
0.86505218008973
 40
0.9371516333725908
 40
1.0
 40
1.0
 40
1.0
 40
1.0
 10
39.39943212951648
 20
20.05895421348827
 30
0.0
 41
1.0
 10
39.3937963945565
 20
20.05662643828559
 30
0.0
 41
1.0
 10
39.37326496088858
 20
20.04814616685569
 30
0.0
 41
1.0
 10
39.34423879538578
 20
20.02201441695611
 30
0.0
 41
1.0
 10
39.31415780167391
 20
19.98266910693208
 30
0.0
 41
1.0
 10
39.29276678612287
 20
19.93460963997889
 30
0.0
 41
1.0
 10
39.27986685313204
 20
19.87936348316389
 30
0.0
 41
1.0
 10
39.27605408913735
 20
19.81765766130351
 30
0.0
 41
1.0
 10
39.28155356815511
 20
19.75130079487126
 30
0.0
 41
1.0
 10
39.2961856453144
 20
19.6823869210211
 30
0.0
 41
1.0
 10
39.31939555931987
 20
19.61300302223328
 30
0.0
 41
1.0
 10
39.35044222857137
 20
19.54503220928397
 30
0.0
 41
1.0
 10
39.38845684019464
 20
19.48027022264145
 30
0.0
 41
1.0
 10
39.43244452965082
 20
19.42035443175392
 30
0.0
 41
1.0
 10
39.48136044842479
 20
19.36711476959491
 30
0.0
 41
1.0
 10
39.53162371374598
 20
19.32318663937868
 30
0.0
 41
1.0
 10
39.56598298660232
 20
19.3015778998554
 30
0.0
 41
1.0
 10
39.5819849062996
 20
19.29151420275516
 30
0.0
 41
1.0
  0
SPLINE
  5
2AC
330
1F
100
AcDbEntity
  8
0
  6
SLD-Solid
 62
     7
370
    25
100
AcDbSpline
210
0.0
220
0.0
230
1.0
 70
    12
 71
     3
 72
    13
 73
     9
 74
     0
 42
0.00000001
 43
0.00000001
 40
0.0
 40
0.0
 40
0.0
 40
0.0
 40
0.1166659939248669
 40
0.3365271801640009
 40
0.5556996167671479
 40
0.7696256249725445
 40
0.9754457337161817
 40
1.0
 40
1.0
 40
1.0
 40
1.0
 10
39.5819849062996
 20
19.29151420275516
 30
0.0
 41
1.0
 10
39.59192669873066
 20
19.28609691912926
 30
0.0
 41
1.0
 10
39.620604150146
 20
19.27047057316983
 30
0.0
 41
1.0
 10
39.66865095413579
 20
19.25323040738943
 30
0.0
 41
1.0
 10
39.72489527701632
 20
19.24425467463361
 30
0.0
 41
1.0
 10
39.77751954685245
 20
19.24958941459161
 30
0.0
 41
1.0
 10
39.81325266091094
 20
19.25945637556656
 30
0.0
 41
1.0
 10
39.82847797709406
 20
19.270282310448
 30
0.0
 41
1.0
 10
39.83010075509517
 20
19.2714361839542
 30
0.0
 41
1.0
  0
LINE
  5
2AD
330
1F
100
AcDbEntity
  8
0
  6
SLD-Solid
 62
     7
370
    25
100
AcDbLine
 10
39.53102942024242
 20
20.13513818147434
 30
0.0
 11
39.38961861832895
 21
20.05549859912969
 31
0.0
  0
LINE
  5
2AE
330
1F
100
AcDbEntity
  8
0
  6
SLD-Solid
 62
     7
370
    25
100
AcDbLine
 10
39.83125811021112
 20
19.27130821458646
 30
0.0
 11
39.97266891212459
 21
19.35094779693111
 31
0.0
  0
LINE
  5
2AF
330
1F
100
AcDbEntity
  8
0
  6
SLD-Solid
 62
     7
370
    25
100
AcDbLine
 10
39.72965948595042
 20
19.36902687668178
 30
0.0
 11
39.73849766107001
 21
19.37400435057832
 31
0.0
  0
LINE
  5
2B0
330
1F
100
AcDbEntity
  8
0
  6
SLD-Solid
 62
     7
370
    25
100
AcDbLine
 10
39.42935001675249
 20
19.92293761975858
 30
0.0
 11
39.4205118416329
 21
19.91796014586204
 31
0.0
  0
LINE
  5
2B1
330
1F
100
AcDbEntity
  8
0
  6
SLD-Solid
 62
     7
370
    25
100
AcDbLine
 10
42.99416890620215
 20
16.92105193566782
 30
0.0
 11
43.01196956006666
 21
16.91077583692475
 31
0.0
  0
LINE
  5
2B2
330
1F
100
AcDbEntity
  8
0
  6
SLD-Solid
 62
     7
370
    25
100
AcDbLine
 10
36.63847364642417
 20
20.5351519216792
 30
0.0
 11
42.86949860224002
 21
16.93805778098834
 31
0.0
  0
LINE
  5
2B3
330
1F
100
AcDbEntity
  8
0
  6
SLD-Solid
 62
     7
370
    25
100
AcDbLine
 10
42.90909304859342
 20
27.27220367769937
 30
0.0
 11
42.90909304859341
 21
16.93969624409708
 31
0.0
  0
LINE
  5
2B4
330
1F
100
AcDbEntity
  8
0
  6
SLD-Solid
 62
     7
370
    25
100
AcDbLine
 10
36.62418476419003
 20
30.91118668530754
 30
0.0
 11
42.89339348618996
 21
27.29204952559747
 31
0.0
  0
LINE
  5
2B5
330
1F
100
AcDbEntity
  8
0
  6
SLD-Solid
 62
     7
370
    25
100
AcDbLine
 10
46.44584773391257
 20
18.93295664911222
 30
0.0
 11
46.44584773391258
 21
29.27036429633195
 31
0.0
  0
LINE
  5
2B6
330
1F
100
AcDbEntity
  8
0
  6
SLD-Solid
 62
     7
370
    25
100
AcDbLine
 10
46.39877560531983
 20
29.35189342104399
 30
0.0
 11
40.1083493000565
 21
32.98327923085218
 31
0.0
  0
LINE
  5
2B7
330
1F
100
AcDbEntity
  8
0
  6
SLD-Solid
 62
     7
370
    25
100
AcDbLine
 10
40.02128692354788
 20
32.98736000720078
 30
0.0
 11
36.59040482123076
 21
31.00675392791889
 31
0.0
  0
LINE
  5
2B8
330
1F
100
AcDbEntity
  8
0
  6
SLD-Solid
 62
     7
370
    25
100
AcDbLine
 10
36.55998126031941
 20
30.93746789572742
 30
0.0
 11
36.5599812603194
 21
20.60496046212514
 31
0.0
  0
LINE
  5
2B9
330
1F
100
AcDbEntity
  8
0
  6
SLD-Solid
 62
     7
370
    25
100
AcDbLine
 10
43.02940960305225
 20
16.83856007763968
 30
0.0
 11
46.37402467806462
 21
18.76936526210038
 31
0.0
  0
LINE
  5
2BA
330
1F
100
AcDbEntity
  8
0
  6
SLD-Solid
 62
     7
370
    25
100
AcDbLine
 10
40.09926066599574
 20
24.99744412659873
 30
0.0
 11
40.09223957318289
 21
25.63448198664177
 31
0.0
  0
LINE
  5
2BB
330
1F
100
AcDbEntity
  8
0
  6
SLD-Solid
 62
     7
370
    25
100
AcDbLine
 10
40.08621834956387
 20
26.18079970545541
 30
0.0
 11
40.07910401109386
 21
26.8262979313524
 31
0.0
  0
LINE
  5
2BC
330
1F
100
AcDbEntity
  8
0
  6
SLD-Solid
 62
     7
370
    25
100
AcDbLine
 10
40.97385765336051
 20
27.02426294203109
 30
0.0
 11
41.45922364961952
 21
26.74406711652661
 31
0.0
  0
LINE
  5
2BD
330
1F
100
AcDbEntity
  8
0
  6
SLD-Solid
 62
     7
370
    25
100
AcDbLine
 10
41.8577411298437
 20
26.5140078721419
 30
0.0
 11
42.3431071261027
 21
26.23381204663742
 31
0.0
  0
LINE
  5
2BE
330
1F
100
AcDbEntity
  8
0
  6
SLD-Solid
 62
     7
370
    25
100
AcDbLine
 10
40.98224118138797
 20
27.04414062452312
 30
0.0
 11
41.4754322404233
 21
26.75942748643157
 31
0.0
  0
LINE
  5
2BF
330
1F
100
AcDbEntity
  8
0
  6
SLD-Solid
 62
     7
370
    25
100
AcDbLine
 10
41.86612465787115
 20
26.53388555463393
 30
0.0
 11
42.35931571690648
 21
26.24917241654238
 31
0.0
  0
LWPOLYLINE
  5
2C0
330
1F
100
AcDbEntity
  8
0
  6
SLD-Solid
 62
     7
370
    25
100
AcDbPolyline
 90
       34
 70
   128
 43
0.0
 10
39.57163017413713
 20
19.31490675028803
 10
39.62522095463088
 20
19.28994349090756
 10
39.67699971508747
 20
19.27775845042865
 10
39.72509503619577
 20
19.27879202796202
 10
39.76776862773976
 20
19.29300686732266
 10
39.80347815493612
 20
19.31988920717967
 10
39.83093298243167
 20
19.35846744972936
 10
39.84914082122789
 20
19.40734727677136
 10
39.85744359259061
 20
19.46476204400123
 10
39.85554121273014
 20
19.52863663213855
 10
39.84350243861122
 20
19.59666244714443
 10
39.82176238289725
 20
19.66638085882503
 10
39.79110678784487
 20
19.73527206213265
 10
39.75264362653166
 20
19.80084614948548
 10
39.70776305782226
 20
19.86073310251498
 10
39.65808718240503
 20
19.91276845070471
 10
39.60541141584675
 20
19.95507150099434
 10
39.55163959759623
 20
19.98611331092686
 10
39.49871518126614
 20
20.00477194861267
 10
39.44855099315588
 20
20.0103730422712
 10
39.40296009772526
 20
20.00271415378412
 10
39.36359026872108
 20
19.98207209533639
 10
39.33186443434061
 20
19.94919292470268
 10
39.30892924889925
 20
19.90526498077552
 10
39.29561364975586
 20
19.8518759339016
 10
39.29239889735696
 20
19.79095540333873
 10
39.2994011812302
 20
19.72470521578835
 10
39.31636742059213
 20
19.65551982564172
 10
39.34268441134709
 20
19.5858997731595
 10
39.37740098888096
 20
19.51836130843169
 10
39.41926240562849
 20
19.4553454475433
 10
39.46675568091958
 20
19.39912974789306
 10
39.51816428404269
 20
19.35174599133491
 10
39.57163017413713
 20
19.31490675028803
  0
LINE
  5
2C1
330
1F
100
AcDbEntity
  8
0
  6
SLD-Solid
 62
     7
370
    25
100
AcDbLine
 10
39.38961861832895
 20
20.05549859912969
 30
0.0
 11
39.39712144601626
 21
20.05945551034688
 31
0.0
  0
LWPOLYLINE
  5
2C2
330
1F
100
AcDbEntity
  8
0
  6
SLD-Solid
 62
     7
370
    25
100
AcDbPolyline
 90
       19
 70
   128
 43
0.0
 10
39.97266891212459
 20
19.35094779693111
 10
39.9982026501527
 20
19.36894763090889
 10
40.03021081931644
 20
19.40611444867764
 10
40.05327221591175
 20
19.45411042696459
 10
40.0666456276771
 20
19.51139293553637
 10
40.06990122215464
 20
19.5761208674353
 10
40.06293436185917
 20
19.6462138136718
 10
40.04596896741293
 20
19.71941892928119
 10
40.0195503205526
 20
19.79338334161439
 10
39.98452753832561
 20
19.8657297736009
 10
39.94202628176956
 20
19.93413295138983
 10
39.89341257624032
 20
19.99639434056472
 10
39.84024890623311
 20
20.05051280884866
 10
39.78424399584515
 20
20.09474894414216
 10
39.7271978889773
 20
20.12768096065929
 10
39.670944094442
 20
20.14825039629262
 10
39.61729065548139
 20
20.15579613245632
 10
39.56796203776985
 20
20.15007564298143
 10
39.53102942024242
 20
20.13513818147434
  0
LWPOLYLINE
  5
2C3
330
1F
100
AcDbEntity
  8
0
  6
SLD-Solid
 62
     7
370
    25
100
AcDbPolyline
 90
       31
 70
   128
 43
0.0
 10
39.57227807844736
 20
19.3765167679725
 10
39.62011955502447
 20
19.35476797183633
 10
39.66599283445811
 20
19.34563786723235
 10
39.70789303431263
 20
19.34952548354285
 10
39.74398891479492
 20
19.36626091328021
 10
39.77270291272065
 20
19.39511273785941
 10
39.7927800885954
 20
19.43481999409992
 10
39.80334297349248
 20
19.48364728436748
 10
39.80392991865555
 20
19.53946062177806
 10
39.7945152717645
 20
19.59982069566471
 10
39.77551049806495
 20
19.66208948115882
 10
39.7477461973626
 20
19.7235455335355
 10
39.71243580282604
 20
19.78150292840704
 10
39.67112254813458
 20
19.83342864950712
 10
39.62561202076125
 20
19.87705329365641
 10
39.57789324913598
 20
19.91047025457132
 10
39.53005177255886
 20
19.93221905070749
 10
39.48417849312521
 20
19.94134915531147
 10
39.44227829327069
 20
19.93746153900097
 10
39.4061824127884
 20
19.92072610926361
 10
39.37746841486268
 20
19.89187428468441
 10
39.35739123898793
 20
19.8521670284439
 10
39.34682835409084
 20
19.80333973817634
 10
39.34624140892777
 20
19.74752640076576
 10
39.35565605581883
 20
19.68716632687911
 10
39.37466082951838
 20
19.624897541385
 10
39.40242513022073
 20
19.56344148900832
 10
39.43773552475729
 20
19.50548409413678
 10
39.47904877944875
 20
19.4535583730367
 10
39.52455930682208
 20
19.40993372888741
 10
39.57227807844736
 20
19.3765167679725
  0
ARC
  5
2C4
330
1F
100
AcDbEntity
  8
0
  6
SLD-Solid
 62
     7
370
    25
100
AcDbCircle
 10
39.67909382156344
 20
19.50314831193846
 30
0.0
 40
0.1524758002744646
100
AcDbArc
 50
244.6989675834141
 51
293.1053398114141
  0
ARC
  5
2C5
330
1F
100
AcDbEntity
  8
0
  6
SLD-Solid
 62
     7
370
    25
100
AcDbCircle
 10
39.50344196988136
 20
19.80841003379646
 30
0.0
 40
0.1466485207844168
100
AcDbArc
 50
124.6416990208883
 51
175.1031712890467
  0
ARC
  5
2C6
330
1F
100
AcDbEntity
  8
0
  6
SLD-Solid
 62
     7
370
    25
100
AcDbCircle
 10
39.66354835421142
 20
19.49189526766736
 30
0.0
 40
0.1396984857852008
100
AcDbArc
 50
302.4462146651658
 51
351.4128074500129
  0
ARC
  5
2C7
330
1F
100
AcDbEntity
  8
0
  6
SLD-Solid
 62
     7
370
    25
100
AcDbCircle
 10
39.49118145808214
 20
19.8016712293003
 30
0.0
 40
0.1361200374363772
100
AcDbArc
 50
66.67398028827314
 51
117.0161753279542
  0
LWPOLYLINE
  5
2C8
330
1F
100
AcDbEntity
  8
0
  6
SLD-Solid
 62
     7
370
    25
100
AcDbPolyline
 90
       30
 70
   128
 43
0.0
 10
39.57236446568871
 20
19.3847314369971
 10
39.62031030843694
 20
19.36313933173447
 10
39.66614149706515
 20
19.35465627631571
 10
39.70771501613076
 20
19.35967892898398
 10
39.74308693408795
 20
19.37797243608278
 10
39.77060329936608
 20
19.40868141355194
 10
39.78897747730699
 20
19.45036994373559
 10
39.7973503117716
 20
19.5010887172958
 10
39.79533029832609
 20
19.55846618075078
 10
39.78301189055407
 20
19.61981942767984
 10
39.76097108351205
 20
19.6822796484458
 10
39.73023848084071
 20
19.74292627254522
 10
39.69225110488412
 20
19.79892353123907
 10
39.64878520312209
 20
19.8476530549473
 10
39.60187319281212
 20
19.88683630530032
 10
39.55370862741735
 20
19.91464111706066
 10
39.50654362848459
 20
19.92976736813324
 10
39.46258357894376
 20
19.93150777182952
 10
39.42388400185335
 20
19.91978094880698
 10
39.3922544464266
 20
19.89513523227674
 10
39.36917387552153
 20
19.85872302855199
 10
39.35572151098146
 20
19.81224693180966
 10
39.35252637042105
 20
19.75788011267894
 10
39.35973785506176
 20
19.698164703198
 10
39.37701876389679
 20
19.63589292954526
 10
39.40356106083534
 20
19.57397655064662
 10
39.43812365757223
 20
19.51531070756427
 10
39.47909044549761
 20
19.46263854991833
 10
39.52454586313939
 20
19.41842296925944
 10
39.57236446568871
 20
19.3847314369971
  0
LINE
  5
2C9
330
1F
100
AcDbEntity
  8
0
  6
SLD-Solid
 62
     7
370
    25
100
AcDbLine
 10
39.54397033991787
 20
19.72885268507144
 30
0.0
 11
39.54073081836674
 21
19.42080259664905
 31
0.0
  0
LINE
  5
2CA
330
1F
100
AcDbEntity
  8
0
  6
SLD-Solid
 62
     7
370
    25
100
AcDbLine
 10
39.54073081836674
 20
19.42080259664905
 30
0.0
 11
39.60437042867353
 21
19.38406423161703
 31
0.0
  0
LINE
  5
2CB
330
1F
100
AcDbEntity
  8
0
  6
SLD-Solid
 62
     7
370
    25
100
AcDbLine
 10
39.60437042867353
 20
19.38406423161703
 30
0.0
 11
39.60760995022466
 21
19.69211432003942
 31
0.0
  0
LINE
  5
2CC
330
1F
100
AcDbEntity
  8
0
  6
SLD-Solid
 62
     7
370
    25
100
AcDbLine
 10
39.60760995022466
 20
19.69211432003942
 30
0.0
 11
39.54397033991787
 21
19.72885268507144
 31
0.0
  0
LINE
  5
2CD
330
1F
100
AcDbEntity
  8
0
  6
SLD-Solid
 62
     7
370
    25
100
AcDbLine
 10
39.60513823094131
 20
19.45707549354187
 30
0.0
 11
39.54073081836674
 21
19.42080259664905
 31
0.0
  0
LINE
  5
2CE
330
1F
100
AcDbEntity
  8
0
  6
SLD-Solid
 62
     7
370
    25
100
AcDbLine
 10
42.90909304859341
 20
17.91918718457871
 30
0.0
 11
42.90088292539728
 21
17.92392678781455
 31
0.0
  0
LWPOLYLINE
  5
2CF
330
1F
100
AcDbEntity
  8
0
  6
SLD-Solid
 62
     7
370
    25
100
AcDbPolyline
 90
        3
 70
   128
 43
0.0
 10
43.00424829761605
 20
16.92687064447637
 10
43.00647104413277
 20
16.92120357539755
 10
43.01196956006666
 20
16.91269905543579
  0
LWPOLYLINE
  5
2D0
330
1F
100
AcDbEntity
  8
0
  6
SLD-Solid
 62
     7
370
    25
100
AcDbPolyline
 90
       33
 70
   128
 43
0.0
 10
40.29503230878483
 20
26.82347449945017
 10
40.34271044778345
 20
26.78770561371777
 10
40.38045035340471
 20
26.74150103027686
 10
40.40680170224037
 20
26.68663636535725
 10
40.42075182673266
 20
26.62522003726334
 10
40.42176463142069
 20
26.55961224104109
 10
40.40980119478826
 20
26.49233424750608
 10
40.38532126499601
 20
26.4259715122199
 10
40.34926559201732
 20
26.36307431788296
 10
40.30301977514454
 20
26.30605976840047
 10
40.24836101518512
 20
26.25711890093491
 10
40.18738981763131
 20
26.21813248557663
 10
40.12244927141208
 20
26.19059874840402
 10
40.05603500529953
 20
26.17557579549552
 10
39.99069928229486
 20
26.17364095050645
 10
39.9289529175924
 20
26.18486856844464
 10
39.87316878935992
 20
26.20882717824926
 10
39.8254906503613
 20
26.24459606398167
 10
39.78775074474003
 20
26.29080064742258
 10
39.76139939590438
 20
26.34566531234219
 10
39.74744927141208
 20
26.40708164043611
 10
39.74643646672406
 20
26.47268943665834
 10
39.75839990335648
 20
26.53996743019336
 10
39.78287983314874
 20
26.60633016547953
 10
39.81893550612742
 20
26.66922735981648
 10
39.86518132300021
 20
26.72624190929898
 10
39.91984008295962
 20
26.77518277676453
 10
39.98081128051343
 20
26.81416919212281
 10
40.04575182673266
 20
26.84170292929542
 10
40.11216609284521
 20
26.85672588220391
 10
40.17750181584989
 20
26.85866072719299
 10
40.23924818055234
 20
26.8474331092548
 10
40.29503230878483
 20
26.82347449945017
  0
LWPOLYLINE
  5
2D1
330
1F
100
AcDbEntity
  8
0
  6
SLD-Solid
 62
     7
370
    25
100
AcDbPolyline
 90
       33
 70
   128
 43
0.0
 10
41.2351495262397
 20
25.13651111903733
 10
41.28282766523832
 20
25.10074223330492
 10
41.32056757085957
 20
25.05453764986401
 10
41.34691891969523
 20
24.9996729849444
 10
41.36086904418752
 20
24.93825665685048
 10
41.36188184887555
 20
24.87264886062825
 10
41.34991841224313
 20
24.80537086709323
 10
41.32543848245086
 20
24.73900813180705
 10
41.28938280947219
 20
24.67611093747011
 10
41.2431369925994
 20
24.61909638798762
 10
41.18847823263998
 20
24.57015552052206
 10
41.12750703508618
 20
24.53116910516378
 10
41.06256648886695
 20
24.50363536799117
 10
40.9961522227544
 20
24.48861241508267
 10
40.93081649974972
 20
24.4866775700936
 10
40.86907013504725
 20
24.49790518803179
 10
40.81328600681478
 20
24.52186379783641
 10
40.76560786781615
 20
24.55763268356882
 10
40.7278679621949
 20
24.60383726700973
 10
40.70151661335925
 20
24.65870193192934
 10
40.68756648886695
 20
24.72011826002325
 10
40.68655368417893
 20
24.78572605624549
 10
40.69851712081135
 20
24.85300404978051
 10
40.7229970506036
 20
24.91936678506669
 10
40.75905272358229
 20
24.98226397940363
 10
40.80529854045507
 20
25.03927852888612
 10
40.85995730041449
 20
25.08821939635168
 10
40.9209284979683
 20
25.12720581170996
 10
40.98586904418753
 20
25.15473954888257
 10
41.05228331030006
 20
25.16976250179107
 10
41.11761903330476
 20
25.17169734678014
 10
41.17936539800721
 20
25.16046972884195
 10
41.2351495262397
 20
25.13651111903733
  0
LWPOLYLINE
  5
2D2
330
1F
100
AcDbEntity
  8
0
  6
SLD-Solid
 62
     7
370
    25
100
AcDbPolyline
 90
       33
 70
   128
 43
0.0
 10
41.4762354348896
 20
27.28582571212896
 10
41.52391357388822
 20
27.25005682639656
 10
41.56165347950949
 20
27.20385224295565
 10
41.58800482834513
 20
27.14898757803604
 10
41.60195495283743
 20
27.08757124994212
 10
41.60296775752546
 20
27.02196345371988
 10
41.59100432089303
 20
26.95468546018487
 10
41.56652439110077
 20
26.88832272489869
 10
41.53046871812209
 20
26.82542553056175
 10
41.48422290124931
 20
26.76841098107925
 10
41.42956414128989
 20
26.7194701136137
 10
41.36859294373609
 20
26.68048369825542
 10
41.30365239751686
 20
26.65294996108281
 10
41.23723813140431
 20
26.63792700817431
 10
41.17190240839963
 20
26.63599216318523
 10
41.11015604369716
 20
26.64721978112343
 10
41.05437191546469
 20
26.67117839092804
 10
41.00669377646606
 20
26.70694727666045
 10
40.96895387084481
 20
26.75315186010137
 10
40.94260252200915
 20
26.80801652502098
 10
40.92865239751686
 20
26.86943285311489
 10
40.92763959282883
 20
26.93504064933713
 10
40.93960302946125
 20
27.00231864287214
 10
40.96408295925351
 20
27.06868137815832
 10
41.00013863223219
 20
27.13157857249526
 10
41.04638444910498
 20
27.18859312197776
 10
41.10104320906439
 20
27.23753398944332
 10
41.1620144066182
 20
27.27652040480159
 10
41.22695495283744
 20
27.3040541419742
 10
41.29336921894997
 20
27.3190770948827
 10
41.35870494195466
 20
27.32101193987178
 10
41.42045130665712
 20
27.30978432193358
 10
41.4762354348896
 20
27.28582571212896
  0
LWPOLYLINE
  5
2D3
330
1F
100
AcDbEntity
  8
0
  6
SLD-Solid
 62
     7
370
    25
100
AcDbPolyline
 90
       33
 70
   128
 43
0.0
 10
41.35569248056465
 20
26.21116841558314
 10
41.40337061956327
 20
26.17539952985074
 10
41.44111052518453
 20
26.12919494640983
 10
41.46746187402018
 20
26.07433028149022
 10
41.48141199851248
 20
26.0129139533963
 10
41.48242480320051
 20
25.94730615717406
 10
41.47046136656808
 20
25.88002816363905
 10
41.44598143677583
 20
25.81366542835287
 10
41.40992576379715
 20
25.75076823401593
 10
41.36367994692436
 20
25.69375368453343
 10
41.30902118696494
 20
25.64481281706787
 10
41.24804998941114
 20
25.6058264017096
 10
41.1831094431919
 20
25.57829266453699
 10
41.11669517707936
 20
25.56326971162849
 10
41.05135945407468
 20
25.56133486663941
 10
40.98961308937222
 20
25.57256248457761
 10
40.93382896113974
 20
25.59652109438223
 10
40.8861508221411
 20
25.63228998011463
 10
40.84841091651985
 20
25.67849456355555
 10
40.8220595676842
 20
25.73335922847516
 10
40.8081094431919
 20
25.79477555656907
 10
40.80709663850388
 20
25.86038335279131
 10
40.8190600751363
 20
25.92766134632632
 10
40.84354000492856
 20
25.9940240816125
 10
40.87959567790724
 20
26.05692127594945
 10
40.92584149478002
 20
26.11393582543194
 10
40.98050025473944
 20
26.1628766928975
 10
41.04147145229325
 20
26.20186310825578
 10
41.10641199851248
 20
26.22939684542839
 10
41.17282626462502
 20
26.24441979833688
 10
41.23816198762971
 20
26.24635464332596
 10
41.29990835233217
 20
26.23512702538777
 10
41.35569248056465
 20
26.21116841558314
  0
LWPOLYLINE
  5
2D4
330
1F
100
AcDbEntity
  8
0
  6
SLD-Solid
 62
     7
370
    25
100
AcDbPolyline
 90
       33
 70
   128
 43
0.0
 10
42.36011891137278
 20
26.77557064223977
 10
42.4077970503714
 20
26.73980175650737
 10
42.44553695599267
 20
26.69359717306645
 10
42.47188830482832
 20
26.63873250814684
 10
42.48583842932062
 20
26.57731618005293
 10
42.48685123400864
 20
26.51170838383069
 10
42.47488779737622
 20
26.44443039029567
 10
42.45040786758396
 20
26.3780676550095
 10
42.41435219460528
 20
26.31517046067255
 10
42.3681063777325
 20
26.25815591119006
 10
42.31344761777308
 20
26.2092150437245
 10
42.25247642021927
 20
26.17022862836622
 10
42.18753587400003
 20
26.14269489119362
 10
42.1211216078875
 20
26.12767193828512
 10
42.05578588488281
 20
26.12573709329604
 10
41.99403952018035
 20
26.13696471123423
 10
41.93825539194787
 20
26.16092332103885
 10
41.89057725294925
 20
26.19669220677126
 10
41.85283734732798
 20
26.24289679021217
 10
41.82648599849234
 20
26.29776145513179
 10
41.81253587400003
 20
26.3591777832257
 10
41.81152306931201
 20
26.42478557944793
 10
41.82348650594444
 20
26.49206357298295
 10
41.8479664357367
 20
26.55842630826913
 10
41.88402210871537
 20
26.62132350260607
 10
41.93026792558816
 20
26.67833805208856
 10
41.98492668554758
 20
26.72727891955412
 10
42.04589788310138
 20
26.7662653349124
 10
42.11083842932062
 20
26.79379907208501
 10
42.17725269543316
 20
26.80882202499351
 10
42.24258841843784
 20
26.81075686998258
 10
42.30433478314031
 20
26.79952925204439
 10
42.36011891137278
 20
26.77557064223977
  0
LWPOLYLINE
  5
2D5
330
1F
100
AcDbEntity
  8
0
  6
SLD-Solid
 62
     7
370
    25
100
AcDbPolyline
 90
       33
 70
   128
 43
0.0
 10
40.3512660497565
 20
25.64676618892652
 10
40.39894418875513
 20
25.61099730319412
 10
40.43668409437639
 20
25.56479271975321
 10
40.46303544321204
 20
25.50992805483359
 10
40.47698556770434
 20
25.44851172673968
 10
40.47799837239237
 20
25.38290393051744
 10
40.46603493575994
 20
25.31562593698243
 10
40.44155500596769
 20
25.24926320169625
 10
40.40549933298901
 20
25.18636600735931
 10
40.35925351611623
 20
25.12935145787681
 10
40.3045947561568
 20
25.08041059041125
 10
40.24362355860299
 20
25.04142417505298
 10
40.17868301238376
 20
25.01389043788037
 10
40.11226874627123
 20
24.99886748497187
 10
40.04693302326653
 20
24.99693263998279
 10
39.98518665856407
 20
25.00816025792098
 10
39.92940253033159
 20
25.0321188677256
 10
39.88172439133297
 20
25.06788775345801
 10
39.84398448571172
 20
25.11409233689892
 10
39.81763313687607
 20
25.16895700181854
 10
39.80368301238376
 20
25.23037332991245
 10
39.80267020769575
 20
25.29598112613468
 10
39.81463364432817
 20
25.3632591196697
 10
39.83911357412042
 20
25.42962185495588
 10
39.87516924709909
 20
25.49251904929282
 10
39.92141506397189
 20
25.54953359877532
 10
39.9760738239313
 20
25.59847446624088
 10
40.03704502148511
 20
25.63746088159915
 10
40.10198556770434
 20
25.66499461877176
 10
40.16839983381688
 20
25.68001757168026
 10
40.23373555682157
 20
25.68195241666934
 10
40.29548192152403
 20
25.67072479873114
 10
40.3512660497565
 20
25.64676618892652
  0
LWPOLYLINE
  5
2D6
330
1F
100
AcDbEntity
  8
0
  6
SLD-Solid
 62
     7
370
    25
100
AcDbPolyline
 90
       33
 70
   128
 43
0.0
 10
42.41635265234447
 20
25.59886233171611
 10
42.46403079134309
 20
25.56309344598371
 10
42.50177069696435
 20
25.5168888625428
 10
42.5281220458
 20
25.46202419762318
 10
42.54207217029231
 20
25.40060786952927
 10
42.54308497498032
 20
25.33500007330703
 10
42.5311215383479
 20
25.26772207977201
 10
42.50664160855564
 20
25.20135934448584
 10
42.47058593557697
 20
25.13846215014889
 10
42.42434011870418
 20
25.0814476006664
 10
42.36968135874476
 20
25.03250673320084
 10
42.30871016119096
 20
24.99352031784257
 10
42.24376961497173
 20
24.96598658066996
 10
42.17735534885918
 20
24.95096362776146
 10
42.1120196258545
 20
24.94902878277238
 10
42.05027326115203
 20
24.96025640071057
 10
41.99448913291955
 20
24.9842150105152
 10
41.94681099392093
 20
25.0199838962476
 10
41.90907108829968
 20
25.06618847968851
 10
41.88271973946402
 20
25.12105314460813
 10
41.86876961497173
 20
25.18246947270204
 10
41.8677568102837
 20
25.24807726892428
 10
41.87972024691612
 20
25.31535526245929
 10
41.90420017670838
 20
25.38171799774547
 10
41.94025584968706
 20
25.44461519208241
 10
41.98650166655984
 20
25.5016297415649
 10
42.04116042651926
 20
25.55057060903047
 10
42.10213162407307
 20
25.58955702438874
 10
42.16707217029231
 20
25.61709076156135
 10
42.23348643640485
 20
25.63211371446985
 10
42.29882215940953
 20
25.63404855945893
 10
42.36056852411199
 20
25.62282094152073
 10
42.41635265234447
 20
25.59886233171611
  0
LINE
  5
2D7
330
1F
100
AcDbEntity
  8
0
  6
SLD-Solid
 62
     7
370
    25
100
AcDbLine
 10
36.70679580008193
 20
25.77560315080841
 30
0.0
 11
39.20788724832648
 21
29.41964698953067
 31
0.0
  0
ARC
  5
2D8
330
1F
100
AcDbEntity
  8
0
  6
SLD-Solid
 62
     7
370
    25
100
AcDbCircle
 10
36.82430283519724
 20
25.69163555669034
 30
0.0
 40
0.1444245829613751
100
AcDbArc
 50
144.4513470181059
 51
177.1693357476934
  0
LINE
  5
2D9
330
1F
100
AcDbEntity
  8
0
  6
SLD-Solid
 62
     7
370
    25
100
AcDbLine
 10
42.89101151610429
 20
16.9852423377905
 30
0.0
 11
42.90909304859341
 21
18.70463749975563
 31
0.0
  0
LINE
  5
2DA
330
1F
100
AcDbEntity
  8
0
  6
SLD-Solid
 62
     7
370
    25
100
AcDbLine
 10
42.89101151610429
 20
16.9852423377905
 30
0.0
 11
42.85707292364506
 21
16.96612883802779
 31
0.0
  0
LINE
  5
2DB
330
1F
100
AcDbEntity
  8
0
  6
SLD-Solid
 62
     7
370
    25
100
AcDbLine
 10
42.90909304859341
 20
21.91278649632345
 30
0.0
 11
42.85707292364506
 21
16.96612883802779
 31
0.0
  0
LINE
  5
2DC
330
1F
100
AcDbEntity
  8
0
  6
SLD-Solid
 62
     7
370
    25
100
AcDbLine
 10
42.85707292364506
 20
16.96612883802779
 30
0.0
 11
36.62604796782921
 21
20.56322297871864
 31
0.0
  0
LINE
  5
2DD
330
1F
100
AcDbEntity
  8
0
  6
SLD-Solid
 62
     7
370
    25
100
AcDbLine
 10
36.62604796782921
 20
20.56322297871864
 30
0.0
 11
36.68005447184971
 21
25.69876786593254
 31
0.0
  0
LINE
  5
2DE
330
1F
100
AcDbEntity
  8
0
  6
SLD-Solid
 62
     7
370
    25
100
AcDbLine
 10
42.43692058068758
 20
25.57955818904089
 30
0.0
 11
42.47205893324099
 21
25.55502342658822
 31
0.0
  0
LWPOLYLINE
  5
2DF
330
1F
100
AcDbEntity
  8
0
  6
SLD-Solid
 62
     7
370
    25
100
AcDbPolyline
 90
       16
 70
   128
 43
0.0
 10
41.95935078036733
 20
25.00874977296678
 10
41.9296390166428
 20
25.04688433701329
 10
41.90328766780713
 20
25.10174900193291
 10
41.88933754331484
 20
25.16316533002682
 10
41.88832473862681
 20
25.22877312624906
 10
41.90028817525923
 20
25.29605111978407
 10
41.9247681050515
 20
25.36241385507025
 10
41.96082377803017
 20
25.4253110494072
 10
42.00706959490296
 20
25.48232559888969
 10
42.06172835486238
 20
25.53126646635525
 10
42.12269955241618
 20
25.57025288171352
 10
42.18764009863542
 20
25.59778661888613
 10
42.25405436474796
 20
25.61280957179462
 10
42.31939008775265
 20
25.6147444167837
 10
42.38113645245511
 20
25.60351679884551
 10
42.43692058068758
 20
25.57955818904089
  0
LINE
  5
2E0
330
1F
100
AcDbEntity
  8
0
  6
SLD-Solid
 62
     7
370
    25
100
AcDbLine
 10
41.25571745458281
 20
25.1172069763621
 30
0.0
 11
41.29085580713446
 21
25.09267221391092
 31
0.0
  0
LWPOLYLINE
  5
2E1
330
1F
100
AcDbEntity
  8
0
  6
SLD-Solid
 62
     7
370
    25
100
AcDbPolyline
 90
       16
 70
   128
 43
0.0
 10
40.77814765426194
 20
24.54639856028865
 10
40.74843589053802
 20
24.58453312433451
 10
40.72208454170237
 20
24.63939778925412
 10
40.70813441721007
 20
24.70081411734803
 10
40.70712161252204
 20
24.76642191357027
 10
40.71908504915447
 20
24.83369990710528
 10
40.74356497894672
 20
24.90006264239146
 10
40.7796206519254
 20
24.96295983672841
 10
40.82586646879818
 20
25.0199743862109
 10
40.88052522875761
 20
25.06891525367646
 10
40.94149642631142
 20
25.10790166903474
 10
41.00643697253065
 20
25.13543540620734
 10
41.07285123864318
 20
25.15045835911584
 10
41.13818696164788
 20
25.15239320410492
 10
41.19993332635033
 20
25.14116558616672
 10
41.25571745458281
 20
25.1172069763621
  0
LINE
  5
2E2
330
1F
100
AcDbEntity
  8
0
  6
SLD-Solid
 62
     7
370
    25
100
AcDbLine
 10
42.3806868397159
 20
26.75626649956455
 30
0.0
 11
42.41582519226081
 21
26.731731737119
 31
0.0
  0
LWPOLYLINE
  5
2E3
330
1F
100
AcDbEntity
  8
0
  6
SLD-Solid
 62
     7
370
    25
100
AcDbPolyline
 90
       16
 70
   128
 43
0.0
 10
41.90311703939084
 20
26.1854580834955
 10
41.8734052756711
 20
26.22359264753695
 10
41.84705392683546
 20
26.27845731245656
 10
41.83310380234316
 20
26.33987364055047
 10
41.83209099765514
 20
26.40548143677271
 10
41.84405443428756
 20
26.47275943030773
 10
41.86853436407981
 20
26.53912216559391
 10
41.90459003705849
 20
26.60201935993085
 10
41.95083585393128
 20
26.65903390941334
 10
42.0054946138907
 20
26.7079747768789
 10
42.0664658114445
 20
26.74696119223718
 10
42.13140635766374
 20
26.77449492940979
 10
42.19782062377627
 20
26.78951788231828
 10
42.26315634678096
 20
26.79145272730736
 10
42.32490271148342
 20
26.78022510936917
 10
42.3806868397159
 20
26.75626649956455
  0
LINE
  5
2E4
330
1F
100
AcDbEntity
  8
0
  6
SLD-Solid
 62
     7
370
    25
100
AcDbLine
 10
41.37626040890777
 20
26.19186427290792
 30
0.0
 11
41.41139876146015
 21
26.16732951045612
 31
0.0
  0
LWPOLYLINE
  5
2E5
330
1F
100
AcDbEntity
  8
0
  6
SLD-Solid
 62
     7
370
    25
100
AcDbPolyline
 90
       16
 70
   128
 43
0.0
 10
40.89869060858705
 20
25.62105585683429
 10
40.86897884486297
 20
25.65919042088032
 10
40.84262749602732
 20
25.71405508579994
 10
40.82867737153502
 20
25.77547141389385
 10
40.827664566847
 20
25.84107921011609
 10
40.83962800347942
 20
25.90835720365111
 10
40.86410793327168
 20
25.97471993893728
 10
40.90016360625035
 20
26.03761713327423
 10
40.94640942312314
 20
26.09463168275672
 10
41.00106818308256
 20
26.14357255022228
 10
41.06203938063637
 20
26.18255896558055
 10
41.1269799268556
 20
26.21009270275316
 10
41.19339419296814
 20
26.22511565566166
 10
41.25872991597283
 20
26.22705050065074
 10
41.32047628067529
 20
26.21582288271254
 10
41.37626040890777
 20
26.19186427290792
  0
LINE
  5
2E6
330
1F
100
AcDbEntity
  8
0
  6
SLD-Solid
 62
     7
370
    25
100
AcDbLine
 10
40.37183397809962
 20
25.6274620462513
 30
0.0
 11
40.40697233065178
 21
25.60292728379969
 31
0.0
  0
LWPOLYLINE
  5
2E7
330
1F
100
AcDbEntity
  8
0
  6
SLD-Solid
 62
     7
370
    25
100
AcDbPolyline
 90
       16
 70
   128
 43
0.0
 10
39.89426417777887
 20
25.05665363017773
 10
39.86455241405483
 20
25.0947881942237
 10
39.83820106521918
 20
25.14965285914332
 10
39.82425094072688
 20
25.21106918723723
 10
39.82323813603886
 20
25.27667698345947
 10
39.83520157267128
 20
25.34395497699448
 10
39.85968150246354
 20
25.41031771228066
 10
39.89573717544222
 20
25.4732149066176
 10
39.941982992315
 20
25.53022945610009
 10
39.99664175227443
 20
25.57917032356565
 10
40.05761294982823
 20
25.61815673892393
 10
40.12255349604746
 20
25.64569047609654
 10
40.18896776216
 20
25.66071342900504
 10
40.25430348516468
 20
25.66264827399412
 10
40.31604984986716
 20
25.65142065605592
 10
40.37183397809962
 20
25.6274620462513
  0
LINE
  5
2E8
330
1F
100
AcDbEntity
  8
0
  6
SLD-Solid
 62
     7
370
    25
100
AcDbLine
 10
41.49680336323272
 20
27.26652156945374
 30
0.0
 11
41.53194171578588
 21
27.24198680700129
 31
0.0
  0
LWPOLYLINE
  5
2E9
330
1F
100
AcDbEntity
  8
0
  6
SLD-Solid
 62
     7
370
    25
100
AcDbPolyline
 90
       16
 70
   128
 43
0.0
 10
41.01923356291245
 20
26.69571315337965
 10
40.98952179918793
 20
26.73384771742614
 10
40.96317045035227
 20
26.78871238234576
 10
40.94922032585998
 20
26.85012871043967
 10
40.94820752117195
 20
26.91573650666191
 10
40.96017095780437
 20
26.98301450019692
 10
40.98465088759663
 20
27.0493772354831
 10
41.02070656057531
 20
27.11227442982004
 10
41.06695237744809
 20
27.16928897930254
 10
41.12161113740751
 20
27.2182298467681
 10
41.18258233496132
 20
27.25721626212637
 10
41.24752288118056
 20
27.28474999929898
 10
41.31393714729309
 20
27.29977295220748
 10
41.37927287029778
 20
27.30170779719656
 10
41.44101923500024
 20
27.29048017925836
 10
41.49680336323272
 20
27.26652156945374
  0
LINE
  5
2EA
330
1F
100
AcDbEntity
  8
0
  6
SLD-Solid
 62
     7
370
    25
100
AcDbLine
 10
40.31560023712795
 20
26.80417035677496
 30
0.0
 11
40.35073858968028
 21
26.7796355943232
 31
0.0
  0
LWPOLYLINE
  5
2EB
330
1F
100
AcDbEntity
  8
0
  6
SLD-Solid
 62
     7
370
    25
100
AcDbPolyline
 90
       16
 70
   128
 43
0.0
 10
39.83803043680719
 20
26.23336194070138
 10
39.80831867308315
 20
26.27149650474736
 10
39.7819673242475
 20
26.32636116966697
 10
39.7680171997552
 20
26.38777749776089
 10
39.76700439506718
 20
26.45338529398312
 10
39.7789678316996
 20
26.52066328751814
 10
39.80344776149185
 20
26.58702602280432
 10
39.83950343447054
 20
26.64992321714126
 10
39.88574925134332
 20
26.70693776662375
 10
39.94040801130274
 20
26.75587863408931
 10
40.00137920885655
 20
26.79486504944759
 10
40.06631975507578
 20
26.82239878662019
 10
40.13273402118831
 20
26.83742173952869
 10
40.19806974419301
 20
26.83935658451777
 10
40.25981610889546
 20
26.82812896657958
 10
40.31560023712795
 20
26.80417035677496
  0
LINE
  5
2EC
330
1F
100
AcDbEntity
  8
0
  6
SLD-Solid
 62
     7
370
    25
100
AcDbLine
 10
42.90909304859341
 20
17.30490368568495
 30
0.0
 11
42.89446196775576
 21
17.31335002886706
 31
0.0
  0
LINE
  5
2ED
330
1F
100
AcDbEntity
  8
0
  6
SLD-Solid
 62
     7
370
    25
100
AcDbLine
 10
42.90909304859341
 20
17.1005630014721
 30
0.0
 11
42.9079808123339
 21
16.99479908767186
 31
0.0
  0
LWPOLYLINE
  5
2EE
330
1F
100
AcDbEntity
  8
0
  6
SLD-Solid
 62
     7
370
    25
100
AcDbPolyline
 90
        6
 70
   128
 43
0.0
 10
42.90909304859341
 20
16.94783827696904
 10
42.89897784077092
 20
16.9407326985836
 10
42.88278262447918
 20
16.93534150064497
 10
42.86913189310423
 20
16.93827471707818
 10
42.86010384675372
 20
16.94908579227094
 10
42.85707292364506
 20
16.96612883802779
  0
LWPOLYLINE
  5
2EF
330
1F
100
AcDbEntity
  8
0
  6
SLD-Solid
 62
     7
370
    25
100
AcDbPolyline
 90
        9
 70
   128
 43
0.0
 10
42.9079808123339
 20
16.99479908767186
 10
42.90729528619369
 20
16.99066301425185
 10
42.90542241443205
 20
16.98642915624779
 10
42.90264732479708
 20
16.98274208016079
 10
42.89939249952946
 20
16.98016310990167
 10
42.89615345627112
 20
16.97908487031394
 10
42.89342330999613
 20
16.97967151360059
 10
42.89161770072602
 20
16.98183372863913
 10
42.89101151610429
 20
16.9852423377905
  0
ARC
  5
2F0
330
1F
100
AcDbEntity
  8
0
  6
SLD-Solid
 62
     7
370
    25
100
AcDbCircle
 10
36.65391441518368
 20
20.55877243924153
 30
0.0
 40
0.0282196064784182
100
AcDbArc
 50
170.9259465547275
 51
236.8272929615618
  0
ARC
  5
2F1
330
1F
100
AcDbEntity
  8
0
  6
SLD-Solid
 62
     7
370
    25
100
AcDbCircle
 10
46.30809267117838
 20
18.8905943522408
 30
0.0
 40
0.1109887919466638
100
AcDbArc
 50
326.2934007731874
 51
347.1589649863033
  0
ARC
  5
2F2
330
1F
100
AcDbEntity
  8
0
  6
SLD-Solid
 62
     7
370
    25
100
AcDbCircle
 10
42.05021969157244
 20
28.19860815201194
 30
0.0
 40
1.212843275117066
100
AcDbArc
 50
228.8044458590657
 51
248.3855755978756
  0
LINE
  5
2F3
330
1F
100
AcDbEntity
  8
0
  6
SLD-Solid
 62
     7
370
    25
100
AcDbLine
 10
46.36584773391259
 20
29.34385200065554
 30
0.0
 11
42.93496563159545
 21
27.36324592137365
 31
0.0
  0
ARC
  5
2F4
330
1F
100
AcDbEntity
  8
0
  6
SLD-Solid
 62
     7
370
    25
100
AcDbCircle
 10
46.2995989882981
 20
29.24028354305092
 30
0.0
 40
0.1229443846057703
100
AcDbArc
 50
2.605478485652975
 51
57.39452165996965
  0
LINE
  5
2F5
330
1F
100
AcDbEntity
  8
0
  6
SLD-Solid
 62
     7
370
    25
100
AcDbLine
 10
42.99153417409037
 20
27.26526633194988
 30
0.0
 11
46.4224162764075
 21
29.24587241123177
 31
0.0
  0
ARC
  5
2F6
330
1F
100
AcDbEntity
  8
0
  6
SLD-Solid
 62
     7
370
    25
100
AcDbCircle
 10
42.86871688598101
 20
27.25967746376907
 30
0.0
 40
0.1229443846057236
100
AcDbArc
 50
2.605478485642301
 51
57.39452165998293
  0
LINE
  5
2F7
330
1F
100
AcDbEntity
  8
0
  6
SLD-Solid
 62
     7
370
    25
100
AcDbLine
 10
42.99153417409038
 20
27.25236498712209
 30
0.0
 11
42.99153417409037
 21
27.26526633194988
 31
0.0
  0
LINE
  5
2F8
330
1F
100
AcDbEntity
  8
0
  6
SLD-Solid
 62
     7
370
    25
100
AcDbLine
 10
42.95759304859342
 20
27.27195878180583
 30
0.0
 11
42.99153417409038
 21
27.25236498712209
 31
0.0
  0
LINE
  5
2F9
330
1F
100
AcDbEntity
  8
0
  6
SLD-Solid
 62
     7
370
    25
100
AcDbLine
 10
42.95759304859342
 20
27.28486012663363
 30
0.0
 11
42.95759304859342
 21
27.27195878180583
 31
0.0
  0
ARC
  5
2FA
330
1F
100
AcDbEntity
  8
0
  6
SLD-Solid
 62
     7
370
    25
100
AcDbCircle
 10
42.90846613334965
 20
27.28262457936128
 30
0.0
 40
0.0491777538423215
100
AcDbArc
 50
2.60547848566132
 51
57.39452165997176
  0
LINE
  5
2FB
330
1F
100
AcDbEntity
  8
0
  6
SLD-Solid
 62
     7
370
    25
100
AcDbLine
 10
42.93496563159545
 20
27.32405196240314
 30
0.0
 11
42.91742938342203
 21
27.33417542298974
 31
0.0
  0
LINE
  5
2FC
330
1F
100
AcDbEntity
  8
0
  6
SLD-Solid
 62
     7
370
    25
100
AcDbLine
 10
42.91742938342203
 20
27.37336938196026
 30
0.0
 11
42.91742938342203
 21
27.33417542298974
 31
0.0
  0
LINE
  5
2FD
330
1F
100
AcDbEntity
  8
0
  6
SLD-Solid
 62
     7
370
    25
100
AcDbLine
 10
42.93496563159545
 20
27.36324592137365
 30
0.0
 11
42.91742938342203
 21
27.37336938196026
 31
0.0
  0
LWPOLYLINE
  5
2FE
330
1F
100
AcDbEntity
  8
0
  6
SLD-Solid
 62
     7
370
    25
100
AcDbPolyline
 90
        9
 70
   128
 43
0.0
 10
42.99188772748096
 20
27.25240578098767
 10
42.97615319506313
 20
27.24633647907341
 10
42.95759304859342
 20
27.24420522366322
 10
42.93903290212371
 20
27.24633647907342
 10
42.92329836970588
 20
27.25240578098767
 10
42.91278489126663
 20
27.2614891332079
 10
42.90909304859342
 20
27.27220367769937
 10
42.91278489126663
 20
27.28291822219084
 10
42.92329836970588
 20
27.29200157441107
  0
LINE
  5
2FF
330
1F
100
AcDbEntity
  8
0
  6
SLD-Solid
 62
     7
370
    25
100
AcDbLine
 10
42.95723949520283
 20
27.27240777972732
 30
0.0
 11
42.92329836970588
 21
27.29200157441107
 31
0.0
  0
LWPOLYLINE
  5
300
330
1F
100
AcDbEntity
  8
0
  6
SLD-Solid
 62
     7
370
    25
100
AcDbPolyline
 90
        8
 70
   128
 43
0.0
 10
42.957663799497
 20
27.27191793817858
 10
42.95759304859342
 20
27.27191503384333
 10
42.95740170687724
 20
27.27193700554859
 10
42.95723949520283
 20
27.27199957567142
 10
42.95713110882717
 20
27.27209321847781
 10
42.95709304859342
 20
27.27220367769937
 10
42.95713110882717
 20
27.27231413692093
 10
42.95723949520283
 20
27.27240777972732
  0
LINE
  5
301
330
1F
100
AcDbEntity
  8
0
  6
SLD-Solid
 62
     7
370
    25
100
AcDbLine
 10
42.99188772748096
 20
16.91989834738538
 30
0.0
 11
42.99188772748096
 21
27.25240578098767
 31
0.0
  0
LWPOLYLINE
  5
302
330
1F
100
AcDbEntity
  8
0
  6
SLD-Solid
 62
     7
370
    25
100
AcDbPolyline
 90
        7
 70
   128
 43
0.0
 10
42.90909304859341
 20
16.93969624409708
 10
42.91278489126662
 20
16.92898169960561
 10
42.92329836970586
 20
16.91989834738538
 10
42.93903290212371
 20
16.91382904547113
 10
42.95759304859342
 20
16.91169779006093
 10
42.97615319506312
 20
16.91382904547113
 10
42.99188772748096
 20
16.91989834738538
  0
LWPOLYLINE
  5
303
330
1F
100
AcDbEntity
  8
0
  6
SLD-Solid
 62
     7
370
    25
100
AcDbPolyline
 90
        9
 70
   128
 43
0.0
 10
42.91764151545638
 20
27.29445066604648
 10
42.90451751002784
 20
27.28988887919297
 10
42.89339151545638
 20
27.29205066346266
 10
42.88595736355813
 20
27.30060690679712
 10
42.88334683656883
 20
27.31425499871123
 10
42.88595736355813
 20
27.33091714093131
 10
42.89339151545638
 20
27.34805667334705
 10
42.90451751002784
 20
27.36306425751842
 10
42.91764151545638
 20
27.37365512479939
  0
LWPOLYLINE
  5
304
330
1F
100
AcDbEntity
  8
0
  6
SLD-Solid
 62
     7
370
    25
100
AcDbPolyline
 90
        8
 70
   128
 43
0.0
 10
36.64843279345645
 20
30.99279228450946
 10
36.63530878802791
 20
30.98220141722849
 10
36.62418279345645
 20
30.96719383305713
 10
36.6167486415582
 20
30.95005430064139
 10
36.6141381145689
 20
30.93339215842131
 10
36.6167486415582
 20
30.9197440665072
 10
36.62418279345645
 20
30.91118782317273
 10
36.62418476419003
 20
30.91118668530754
  0
LINE
  5
305
330
1F
100
AcDbEntity
  8
0
  6
SLD-Solid
 62
     7
370
    25
100
AcDbLine
 10
36.64843279345645
 20
30.99279228450946
 30
0.0
 11
42.91764151545638
 21
27.37365512479939
 31
0.0
  0
LWPOLYLINE
  5
306
330
1F
100
AcDbEntity
  8
0
  6
SLD-Solid
 62
     7
370
    25
100
AcDbPolyline
 90
        8
 70
   128
 43
0.0
 10
42.91764151545638
 20
27.33364462501699
 10
42.91750621643134
 20
27.33359759628654
 10
42.91739151545638
 20
27.33361988272231
 10
42.91731487471516
 20
27.33370809141648
 10
42.91728796206579
 20
27.33384879339497
 10
42.91731487471516
 20
27.33402056805704
 10
42.91739151545638
 20
27.33419726426751
 10
42.91742938342203
 20
27.33425705053092
  0
LINE
  5
307
330
1F
100
AcDbEntity
  8
0
  6
SLD-Solid
 62
     7
370
    25
100
AcDbLine
 10
42.91764151545638
 20
27.33364462501699
 30
0.0
 11
42.91764151545638
 21
27.29445066604648
 31
0.0
  0
LINE
  5
308
330
1F
100
AcDbEntity
  8
0
  6
SLD-Solid
 62
     7
370
    25
100
AcDbLine
 10
46.3905964712541
 20
18.80599284661793
 30
0.0
 11
46.39059647125411
 21
18.8061561547803
 31
0.0
  0
LINE
  5
309
330
1F
100
AcDbEntity
  8
0
  6
SLD-Solid
 62
     7
370
    25
100
AcDbLine
 10
46.3905964712541
 20
18.80599284661793
 30
0.0
 11
43.04598139624173
 21
16.87518766215722
 31
0.0
  0
LINE
  5
30A
330
1F
100
AcDbEntity
  8
0
  6
SLD-Solid
 62
     7
370
    25
100
AcDbLine
 10
43.04598139624173
 20
16.8753509703196
 30
0.0
 11
43.04598139624173
 21
16.87518766215722
 31
0.0
  0
LINE
  5
30B
330
1F
100
AcDbEntity
  8
0
  6
SLD-Solid
 62
     7
370
    25
100
AcDbLine
 10
43.04598139624173
 20
16.8753509703196
 30
0.0
 11
43.04591068556361
 21
16.87531014991401
 31
0.0
  0
LINE
  5
30C
330
1F
100
AcDbEntity
  8
0
  6
SLD-Solid
 62
     7
370
    25
100
AcDbLine
 10
43.04591068556361
 20
16.87531014991401
 30
0.0
 11
43.04591068556361
 21
16.95092182909463
 31
0.0
  0
LINE
  5
30D
330
1F
100
AcDbEntity
  8
0
  6
SLD-Solid
 62
     7
370
    25
100
AcDbLine
 10
43.04591068556361
 20
16.95092182909463
 30
0.0
 11
42.9920291488372
 21
16.91981668003418
 31
0.0
  0
LINE
  5
30E
330
1F
100
AcDbEntity
  8
0
  6
SLD-Solid
 62
     7
370
    25
100
AcDbLine
 10
42.9920291488372
 20
16.91981668003418
 30
0.0
 11
42.9920291488372
 21
16.91997998819656
 31
0.0
  0
LINE
  5
30F
330
1F
100
AcDbEntity
  8
0
  6
SLD-Solid
 62
     7
370
    25
100
AcDbLine
 10
42.99188772748096
 20
16.91989834738538
 30
0.0
 11
42.9920291488372
 21
16.91997998819656
 31
0.0
  0
LINE
  5
310
330
1F
100
AcDbEntity
  8
0
  6
SLD-Solid
 62
     7
370
    25
100
AcDbLine
 10
42.99188772748096
 20
27.25240578098767
 30
0.0
 11
42.9920291488372
 21
27.25248742179885
 31
0.0
  0
LINE
  5
311
330
1F
100
AcDbEntity
  8
0
  6
SLD-Solid
 62
     7
370
    25
100
AcDbLine
 10
42.9920291488372
 20
27.25248742179885
 30
0.0
 11
42.9920291488372
 21
27.25265072996123
 31
0.0
  0
LINE
  5
312
330
1F
100
AcDbEntity
  8
0
  6
SLD-Solid
 62
     7
370
    25
100
AcDbLine
 10
42.9920291488372
 20
27.25265072996123
 30
0.0
 11
42.99153417409038
 21
27.25236498712209
 31
0.0
  0
LINE
  5
313
330
1F
100
AcDbEntity
  8
0
  6
SLD-Solid
 62
     7
370
    25
100
AcDbLine
 10
46.4224162764075
 20
29.24587241123177
 30
0.0
 11
46.4224162764075
 21
18.90030032463931
 31
0.0
  0
LINE
  5
314
330
1F
100
AcDbEntity
  8
0
  6
SLD-Solid
 62
     7
370
    25
100
AcDbLine
 10
46.42227485505126
 20
18.90021868382813
 30
0.0
 11
46.4224162764075
 21
18.90030032463931
 31
0.0
  0
LINE
  5
315
330
1F
100
AcDbEntity
  8
0
  6
SLD-Solid
 62
     7
370
    25
100
AcDbLine
 10
46.42227485505126
 20
18.90021868382813
 30
0.0
 11
46.42227485505126
 21
18.90005537566575
 31
0.0
  0
LINE
  5
316
330
1F
100
AcDbEntity
  8
0
  6
SLD-Solid
 62
     7
370
    25
100
AcDbLine
 10
46.42227485505126
 20
18.90005537566575
 30
0.0
 11
46.47898481890242
 21
18.93279334094984
 31
0.0
  0
LINE
  5
317
330
1F
100
AcDbEntity
  8
0
  6
SLD-Solid
 62
     7
370
    25
100
AcDbLine
 10
46.47898481890242
 20
18.93279334094984
 30
0.0
 11
46.47898481890242
 21
18.9123798206527
 31
0.0
  0
LINE
  5
318
330
1F
100
AcDbEntity
  8
0
  6
SLD-Solid
 62
     7
370
    25
100
AcDbLine
 10
46.47898481890242
 20
18.9123798206527
 30
0.0
 11
46.42227485505126
 21
18.87980516353098
 31
0.0
  0
LINE
  5
319
330
1F
100
AcDbEntity
  8
0
  6
SLD-Solid
 62
     7
370
    25
100
AcDbLine
 10
46.42227485505126
 20
18.87980516353098
 30
0.0
 11
46.39059647125411
 21
18.8061561547803
 31
0.0
  0
LINE
  5
31A
330
1F
100
AcDbEntity
  8
0
  6
SLD-Solid
 62
     7
370
    25
100
AcDbLine
 10
46.36584773391259
 20
29.34385200065554
 30
0.0
 11
40.06128367285333
 21
32.98339936316118
 31
0.0
  0
LINE
  5
31B
330
1F
100
AcDbEntity
  8
0
  6
SLD-Solid
 62
     7
370
    25
100
AcDbLine
 10
42.91792435816885
 20
27.37365512479939
 30
0.0
 11
42.91742938342203
 21
27.37336938196026
 31
0.0
  0
LINE
  5
31C
330
1F
100
AcDbEntity
  8
0
  6
SLD-Solid
 62
     7
370
    25
100
AcDbLine
 10
42.91778293681261
 20
27.37373676561058
 30
0.0
 11
42.91792435816885
 21
27.37365512479939
 31
0.0
  0
LINE
  5
31D
330
1F
100
AcDbEntity
  8
0
  6
SLD-Solid
 62
     7
370
    25
100
AcDbLine
 10
42.91764151545638
 20
27.37365512479939
 30
0.0
 11
42.91778293681261
 21
27.37373676561058
 31
0.0
  0
LINE
  5
31E
330
1F
100
AcDbEntity
  8
0
  6
SLD-Solid
 62
     7
370
    25
100
AcDbLine
 10
36.64843279345645
 20
30.99279228450946
 30
0.0
 11
36.64857421481269
 21
30.99287392532064
 31
0.0
  0
LINE
  5
31F
330
1F
100
AcDbEntity
  8
0
  6
SLD-Solid
 62
     7
370
    25
100
AcDbLine
 10
36.64843279345645
 20
30.99295556613183
 30
0.0
 11
36.64857421481269
 21
30.99287392532064
 31
0.0
  0
LINE
  5
320
330
1F
100
AcDbEntity
  8
0
  6
SLD-Solid
 62
     7
370
    25
100
AcDbLine
 10
36.64793781870962
 20
30.99266982329269
 30
0.0
 11
36.64843279345645
 21
30.99295556613183
 31
0.0
  0
LINE
  5
321
330
1F
100
AcDbEntity
  8
0
  6
SLD-Solid
 62
     7
370
    25
100
AcDbLine
 10
36.64793781870962
 20
30.99266982329269
 30
0.0
 11
36.6304015705362
 21
31.00279328387929
 31
0.0
  0
LINE
  5
322
330
1F
100
AcDbEntity
  8
0
  6
SLD-Solid
 62
     7
370
    25
100
AcDbLine
 10
40.06128367285333
 20
32.98339936316118
 30
0.0
 11
36.63040157053619
 21
31.00279328387929
 31
0.0
  0
LINE
  5
323
330
1F
100
AcDbEntity
  8
0
  6
SLD-Solid
 62
     7
370
    25
100
AcDbLine
 10
42.99188770449415
 20
27.25256907588004
 30
0.0
 11
42.9920291488372
 21
27.25248742179885
 31
0.0
  0
LINE
  5
324
330
1F
100
AcDbEntity
  8
0
  6
SLD-Solid
 62
     7
370
    25
100
AcDbLine
 10
42.91778293681261
 20
27.37357348398821
 30
0.0
 11
42.91778293681261
 21
27.37373676561058
 31
0.0
  0
LINE
  5
325
330
1F
100
AcDbEntity
  8
0
  6
SLD-Solid
 62
     7
370
    25
100
AcDbLine
 10
42.95759304859342
 20
27.27220361134934
 30
0.0
 11
42.95723949520283
 21
27.27240777972732
 31
0.0
  0
LINE
  5
326
330
1F
100
AcDbEntity
  8
0
  6
SLD-Solid
 62
     7
370
    25
100
AcDbLine
 10
42.91764151545638
 20
27.33364462501699
 30
0.0
 11
42.91764151545638
 21
27.33405296177297
 31
0.0
  0
ARC
  5
327
330
1F
100
AcDbEntity
  8
0
  6
SLD-Solid
 62
     7
370
    25
100
AcDbCircle
 10
46.40581116891334
 20
18.93694915926415
 30
0.0
 40
0.0402351422794926
100
AcDbArc
 50
294.3746582935773
 51
354.3052007488142
  0
SPLINE
  5
328
330
1F
100
AcDbEntity
  8
0
  6
SLD-Solid
 62
     7
370
    25
100
AcDbSpline
210
0.0
220
0.0
230
1.0
 70
    12
 71
     3
 72
    13
 73
     9
 74
     0
 42
0.00000001
 43
0.00000001
 40
0.0
 40
0.0
 40
0.0
 40
0.0
 40
0.2428929592199912
 40
0.4878250543432113
 40
0.6185792848632963
 40
0.7404698712371491
 40
0.8697704297990809
 40
1.0
 40
1.0
 40
1.0
 40
1.0
 10
46.4224162764075
 20
29.28347074600799
 30
0.0
 41
1.0
 10
46.42863481253094
 20
29.28228096061857
 30
0.0
 41
1.0
 10
46.44112409065617
 20
29.27989140134887
 30
0.0
 41
1.0
 10
46.44659170035931
 20
29.27312207740807
 30
0.0
 41
1.0
 10
46.44534684806134
 20
29.26617521598105
 30
0.0
 41
1.0
 10
46.44104059466822
 20
29.2599230132281
 30
0.0
 41
1.0
 10
46.43370649727451
 20
29.25295766706092
 30
0.0
 41
1.0
 10
46.42618865363094
 20
29.24823979252811
 30
0.0
 41
1.0
 10
46.4224162764075
 20
29.24587241123177
 30
0.0
 41
1.0
  0
SPLINE
  5
329
330
1F
100
AcDbEntity
  8
0
  6
SLD-Solid
 62
     7
370
    25
100
AcDbSpline
210
0.0
220
0.0
230
1.0
 70
    12
 71
     3
 72
    13
 73
     9
 74
     0
 42
0.00000001
 43
0.00000001
 40
0.0
 40
0.0
 40
0.0
 40
0.0
 40
0.2428929592202722
 40
0.4878250543437911
 40
0.6185792845026395
 40
0.7404698712368402
 40
0.8697704297989184
 40
0.9999999999999999
 40
0.9999999999999999
 40
0.9999999999999999
 40
0.9999999999999999
 10
46.39841627640751
 20
29.32503996526765
 30
0.0
 41
1.0
 10
46.40049458927474
 20
29.33102125689146
 30
0.0
 41
1.0
 10
46.40466866286935
 20
29.34303405430147
 30
0.0
 41
1.0
 10
46.40153830501163
 20
29.35115684697478
 30
0.0
 41
1.0
 10
46.39489835364757
 20
29.35355457122083
 30
0.0
 41
1.0
 10
46.38732967005232
 20
29.35295306333092
 30
0.0
 41
1.0
 10
46.37762956188067
 20
29.35008576801047
 30
0.0
 41
1.0
 10
46.36978437075972
 20
29.34593487593876
 30
0.0
 41
1.0
 10
46.3658477339126
 20
29.34385200065553
 30
0.0
 41
1.0
  0
SPLINE
  5
32A
330
1F
100
AcDbEntity
  8
0
  6
SLD-Solid
 62
     7
370
    25
100
AcDbSpline
210
0.0
220
0.0
230
1.0
 70
    12
 71
     3
 72
    11
 73
     7
 74
     0
 42
0.00000001
 43
0.00000001
 40
0.0
 40
0.0
 40
0.0
 40
0.0
 40
0.2183324134392484
 40
0.4681298596577401
 40
0.7331129911211005
 40
1.0
 40
1.0
 40
1.0
 40
1.0
 10
40.10823056256363
 20
32.98305459345487
 30
0.0
 41
1.0
 10
40.1049792306879
 20
32.98480939469388
 30
0.0
 41
1.0
 10
40.09800800039412
 20
32.98857189081073
 30
0.0
 41
1.0
 10
40.08619650995727
 20
32.99045514616848
 30
0.0
 41
1.0
 10
40.0735750467398
 20
32.98935567564594
 30
0.0
 41
1.0
 10
40.0653905631826
 20
32.98538953304516
 30
0.0
 41
1.0
 10
40.06128367285333
 20
32.98339936316118
 30
0.0
 41
1.0
  0
LINE
  5
32B
330
1F
100
AcDbEntity
  8
0
  6
SLD-Solid
 62
     7
370
    25
100
AcDbLine
 10
46.39841627640751
 20
29.32503996526764
 30
0.0
 11
46.39201134384991
 21
29.32134127441587
 31
0.0
  0
LINE
  5
32C
330
1F
100
AcDbEntity
  8
0
  6
SLD-Solid
 62
     7
370
    25
100
AcDbLine
 10
36.64843279345646
 20
30.99279228450946
 30
0.0
 11
36.64843279345645
 21
30.99295556613183
 31
0.0
  0
LINE
  5
32D
330
1F
100
AcDbEntity
  8
0
  6
SLD-Solid
 62
     7
370
    25
100
AcDbLine
 10
36.64793781870962
 20
30.9925024166617
 30
0.0
 11
36.64793781870962
 21
30.99266982329269
 31
0.0
  0
ARC
  5
32E
330
1F
100
AcDbEntity
  8
0
  6
SLD-Solid
 62
     7
370
    25
100
AcDbCircle
 10
36.6083189774354
 20
30.97572051915338
 30
0.0
 40
0.0349367357942864
100
AcDbArc
 50
50.79671476429632
 51
189.2140369904456
  0
LWPOLYLINE
  5
32F
330
1F
100
AcDbEntity
  8
0
  6
SLD-Solid
 62
     7
370
    25
100
AcDbPolyline
 90
        8
 70
   128
 43
0.0
 10
36.60777415353823
 20
30.95053254871759
 10
36.60820893301104
 20
30.95537913058824
 10
36.60949656309818
 20
30.95953747534134
 10
36.61158756089748
 20
30.96284778012006
 10
36.6144015705362
 20
30.9651828317682
 10
36.617830451202
 20
30.96645289556044
 10
36.62174243293386
 20
30.96660916365748
 10
36.62367473426693
 20
30.96630129118513
  0
LINE
  5
330
330
1F
100
AcDbEntity
  8
0
  6
SLD-Solid
 62
     7
370
    25
100
AcDbLine
 10
36.60777415353823
 20
30.9376312038898
 30
0.0
 11
36.60777415353823
 21
30.95053254871759
 31
0.0
  0
LINE
  5
331
330
1F
100
AcDbEntity
  8
0
  6
SLD-Solid
 62
     7
370
    25
100
AcDbLine
 10
36.57383302804128
 20
30.95722499857354
 30
0.0
 11
36.60777415353823
 21
30.9376312038898
 31
0.0
  0
LINE
  5
332
330
1F
100
AcDbEntity
  8
0
  6
SLD-Solid
 62
     7
370
    25
100
AcDbLine
 10
36.57383302804127
 20
30.97012634340134
 30
0.0
 11
36.57383302804128
 21
30.95722499857354
 31
0.0
  0
ARC
  5
333
330
1F
100
AcDbEntity
  8
0
  6
SLD-Solid
 62
     7
370
    25
100
AcDbCircle
 10
40.03785006846528
 20
32.9506888568317
 30
0.0
 40
0.0402381788721419
100
AcDbArc
 50
54.38242252479316
 51
114.3071190460972
  0
LWPOLYLINE
  5
334
330
1F
100
AcDbEntity
  8
0
  6
SLD-Solid
 62
     7
370
    25
100
AcDbPolyline
 90
        8
 70
   128
 43
0.0
 10
36.6244538367541
 20
30.91103135302264
 10
36.60848126031942
 20
30.90946944169128
 10
36.58992111384971
 20
30.91160069710147
 10
36.57418658143187
 20
30.91766999901573
 10
36.56367310299262
 20
30.92675335123595
 10
36.55998126031941
 20
30.93746789572742
 10
36.56367310299261
 20
30.94818244021889
 10
36.57418658143187
 20
30.95726579243913
  0
LWPOLYLINE
  5
335
330
1F
100
AcDbEntity
  8
0
  6
SLD-Solid
 62
     7
370
    25
100
AcDbPolyline
 90
        6
 70
   128
 43
0.0
 10
36.5599812603194
 20
20.60496046212513
 10
36.56367310299261
 20
20.59424591763367
 10
36.57418658143186
 20
20.58516256541343
 10
36.5899211138497
 20
20.57909326349918
 10
36.60848126031941
 20
20.57696200808898
 10
36.62621283370033
 20
20.57890027716376
  0
LWPOLYLINE
  5
336
330
1F
100
AcDbEntity
  8
0
  6
SLD-Solid
 62
     7
370
    25
100
AcDbPolyline
 90
        9
 70
   128
 43
0.0
 10
36.60883481371
 20
30.93726379369947
 10
36.6086726020356
 20
30.93720122357664
 10
36.60848126031941
 20
30.93717925187138
 10
36.60828991860323
 20
30.93720122357664
 10
36.60812770692882
 20
30.93726379369947
 10
36.60801932055315
 20
30.93735743650586
 10
36.60798126031941
 20
30.93746789572742
 10
36.60801932055315
 20
30.93757835494899
 10
36.60812770692882
 20
30.93767199775538
  0
LINE
  5
337
330
1F
100
AcDbEntity
  8
0
  6
SLD-Solid
 62
     7
370
    25
100
AcDbLine
 10
36.60883481371
 20
30.93726379369947
 30
0.0
 11
36.61414514746716
 21
30.93419820327439
 31
0.0
  0
LINE
  5
338
330
1F
100
AcDbEntity
  8
0
  6
SLD-Solid
 62
     7
370
    25
100
AcDbLine
 10
36.96203465091268
 20
26.1474814211632
 30
0.0
 11
36.96203465091268
 21
30.71615009717306
 31
0.0
  0
LINE
  5
339
330
1F
100
AcDbEntity
  8
0
  6
SLD-Solid
 62
     7
370
    25
100
AcDbLine
 10
36.60812770692882
 20
30.93767199775538
 30
0.0
 11
36.60826912828506
 21
30.93775363856656
 31
0.0
  0
LINE
  5
33A
330
1F
100
AcDbEntity
  8
0
  6
SLD-Solid
 62
     7
370
    25
100
AcDbLine
 10
36.60826912828505
 20
30.93791694672894
 30
0.0
 11
36.60826912828506
 21
30.93775363856656
 31
0.0
  0
LINE
  5
33B
330
1F
100
AcDbEntity
  8
0
  6
SLD-Solid
 62
     7
370
    25
100
AcDbLine
 10
36.60777415353823
 20
30.9376312038898
 30
0.0
 11
36.60826912828505
 21
30.93791694672894
 31
0.0
  0
LINE
  5
33C
330
1F
100
AcDbEntity
  8
0
  6
SLD-Solid
 62
     7
370
    25
100
AcDbLine
 10
36.60826912828506
 20
30.93775363856656
 30
0.0
 11
36.608127683942
 21
30.93783529264775
 31
0.0
  0
LINE
  5
33D
330
1F
100
AcDbEntity
  8
0
  6
SLD-Solid
 62
     7
370
    25
100
AcDbLine
 10
42.99188770449414
 20
16.91989833411537
 30
0.0
 11
42.9920291488372
 21
16.91981668003418
 31
0.0
  0
LINE
  5
33E
330
1F
100
AcDbEntity
  8
0
  6
SLD-Solid
 62
     7
370
    25
100
AcDbLine
 10
43.01196956006666
 20
16.89490394459776
 30
0.0
 11
43.04591068556361
 21
16.87531014991401
 31
0.0
  0
LINE
  5
33F
330
1F
100
AcDbEntity
  8
0
  6
SLD-Solid
 62
     7
370
    25
100
AcDbLine
 10
43.01196956006666
 20
16.89490394459776
 30
0.0
 11
43.01196956006665
 21
16.93132803441089
 31
0.0
  0
LINE
  5
340
330
1F
100
AcDbEntity
  8
0
  6
SLD-Solid
 62
     7
370
    25
100
AcDbLine
 10
43.01204027074478
 20
16.89478145684097
 30
0.0
 11
43.04598139624173
 21
16.87518766215722
 31
0.0
  0
LINE
  5
341
330
1F
100
AcDbEntity
  8
0
  6
SLD-Solid
 62
     7
370
    25
100
AcDbLine
 10
43.01204027074478
 20
16.89478145684097
 30
0.0
 11
43.01204027074478
 21
16.89486312419216
 31
0.0
  0
ARC
  5
342
330
1F
100
AcDbEntity
  8
0
  6
SLD-Solid
 62
     7
370
    25
100
AcDbCircle
 10
43.0114954468476
 20
16.86959348640517
 30
0.0
 40
0.0349367357942815
100
AcDbArc
 50
230.7967147642988
 51
9.214036990456297
  0
ARC
  5
343
330
1F
100
AcDbEntity
  8
0
  6
SLD-Solid
 62
     7
370
    25
100
AcDbCircle
 10
46.35139631907563
 20
18.80166590762529
 30
0.0
 40
0.0394382343907647
100
AcDbArc
 50
305.0133328668647
 51
6.298847526530054
  0
LINE
  5
344
330
1F
100
AcDbEntity
  8
0
  6
SLD-Solid
 62
     7
370
    25
100
AcDbLine
 10
42.98941285374681
 20
16.88171468064979
 30
0.0
 11
42.98941285374681
 21
16.84252072167927
 31
0.0
  0
ARC
  5
345
330
1F
100
AcDbEntity
  8
0
  6
SLD-Solid
 62
     7
370
    25
100
AcDbCircle
 10
42.99824589098712
 20
16.89254378654015
 30
0.0
 40
0.0139746943177156
100
AcDbArc
 50
230.7967147642996
 51
9.214036990460182
  0
LINE
  5
346
330
1F
100
AcDbEntity
  8
0
  6
SLD-Solid
 62
     7
370
    25
100
AcDbLine
 10
42.89250115847878
 20
16.9376606114854
 30
0.0
 11
42.98941285374681
 21
16.88171468064979
 31
0.0
  0
LINE
  5
347
330
1F
100
AcDbEntity
  8
0
  6
SLD-Solid
 62
     7
370
    25
100
AcDbLine
 10
42.98941285374681
 20
16.84252072167927
 30
0.0
 11
42.6584868801515
 21
17.03356021984579
 31
0.0
  0
ARC
  5
348
330
1F
100
AcDbEntity
  8
0
  6
SLD-Solid
 62
     7
370
    25
100
AcDbCircle
 10
42.68543639368287
 20
17.09200925976086
 30
0.0
 40
0.0643627729869649
100
AcDbArc
 50
189.9263650644789
 51
245.2466554795921
  0
LINE
  5
349
330
1F
100
AcDbEntity
  8
0
  6
SLD-Solid
 62
     7
370
    25
100
AcDbLine
 10
46.44584773391257
 20
18.95192297292881
 30
0.0
 11
46.47898481890242
 21
18.93279334094984
 31
0.0
  0
ARC
  5
34A
330
1F
100
AcDbEntity
  8
0
  6
SLD-Solid
 62
     7
370
    25
100
AcDbCircle
 10
37.09987759959267
 20
20.44848080681186
 30
0.0
 40
0.1785062699277924
100
AcDbArc
 50
241.8911725702767
 51
269.3341714448103
  0
LINE
  5
34B
330
1F
100
AcDbEntity
  8
0
  6
SLD-Solid
 62
     7
370
    25
100
AcDbLine
 10
37.01577476628285
 20
20.29102858601839
 30
0.0
 11
36.68484879268755
 21
20.48206808418491
 31
0.0
  0
ARC
  5
34C
330
1F
100
AcDbEntity
  8
0
  6
SLD-Solid
 62
     7
370
    25
100
AcDbCircle
 10
36.74991378320477
 20
20.58415221422746
 30
0.0
 40
0.1210562786374592
100
AcDbArc
 50
204.1766592031189
 51
237.4879340381059
  0
LINE
  5
34D
330
1F
100
AcDbEntity
  8
0
  6
SLD-Solid
 62
     8
370
    25
100
AcDbLine
 10
40.04567427668251
 20
26.81506937368001
 30
0.0
 11
40.05272694953236
 21
26.17516619341846
 31
0.0
  0
LINE
  5
34E
330
1F
100
AcDbEntity
  8
0
  6
SLD-Solid
 62
     8
370
    25
100
AcDbLine
 10
40.05885878653772
 20
25.61881229978094
 30
0.0
 11
40.06572164855714
 21
24.99613103759648
 31
0.0
  0
LWPOLYLINE
  5
34F
330
1F
100
AcDbEntity
  8
0
  6
SLD-Solid
 62
     8
370
    25
100
AcDbPolyline
 90
       19
 70
   128
 43
0.0
 10
39.39712144601626
 20
20.05945551034688
 10
39.42655123585639
 20
20.07043606063678
 10
39.47587985356792
 20
20.07615655011166
 10
39.52953329252853
 20
20.06861081394796
 10
39.58578708706384
 20
20.04804137831463
 10
39.64283319393167
 20
20.0151093617975
 10
39.69883810431963
 20
19.970873226504
 10
39.75200177432686
 20
19.91675475822007
 10
39.8006154798561
 20
19.85449336904517
 10
39.84311673641214
 20
19.78609019125624
 10
39.87813951863913
 20
19.71374375926973
 10
39.90455816549947
 20
19.63977934693653
 10
39.9215235599457
 20
19.56657423132715
 10
39.92849042024118
 20
19.49648128509064
 10
39.92523482576362
 20
19.43175335319171
 10
39.91186141399829
 20
19.37447084461993
 10
39.88880001740296
 20
19.32647486633298
 10
39.85679184823923
 20
19.28930804856424
 10
39.83054016213507
 20
19.27090640887043
  0
LINE
  5
350
330
1F
100
AcDbEntity
  8
0
  6
SLD-Solid
 62
     8
370
    25
100
AcDbLine
 10
42.90909304859341
 20
17.54869208360943
 30
0.0
 11
42.89701022923337
 21
17.55566734675333
 31
0.0
  0
LINE
  5
351
330
1F
100
AcDbEntity
  8
0
  6
SLD-Solid
 62
     8
370
    25
100
AcDbLine
 10
42.90909304859341
 20
17.40500392088814
 30
0.0
 11
42.89550829143417
 21
17.41284623426784
 31
0.0
  0
LINE
  5
352
330
1F
100
AcDbEntity
  8
0
  6
SLD-Solid
 62
     8
370
    25
100
AcDbLine
 10
42.90909304859342
 20
22.19509316254075
 30
0.0
 11
36.70679580008193
 21
25.77560315080841
 31
0.0
  0
LINE
  5
353
330
1F
100
AcDbEntity
  8
0
  6
SLD-Solid
 62
     8
370
    25
100
AcDbLine
 10
36.68005447184971
 20
25.69876786593254
 30
0.0
 11
42.90909304859342
 21
22.10282043747156
 31
0.0
  0
LINE
  5
354
330
1F
100
AcDbEntity
  8
0
  6
SLD-Solid
 62
     8
370
    25
100
AcDbLine
 10
42.8912138074805
 20
17.00447847354221
 30
0.0
 11
42.9079808123339
 21
16.99479908767186
 31
0.0
  0
LINE
  5
355
330
1F
100
AcDbEntity
  8
0
  6
SLD-Solid
 62
     8
370
    25
100
AcDbLine
 10
42.9079808123339
 20
16.99479908767186
 30
0.0
 11
42.90909304859341
 21
16.99542547568449
 31
0.0
  0
LINE
  5
356
330
1F
100
AcDbEntity
  8
0
  6
SLD-Solid
 62
     8
370
    25
100
AcDbLine
 10
41.0327926185194
 20
27.12905607781331
 30
0.0
 11
41.53830325755887
 21
26.83723099756731
 31
0.0
  0
LINE
  5
357
330
1F
100
AcDbEntity
  8
0
  6
SLD-Solid
 62
     8
370
    25
100
AcDbLine
 10
41.91667609500258
 20
26.61880100792411
 30
0.0
 11
42.42218673404205
 21
26.32697592767811
 31
0.0
  0
LINE
  5
358
330
1F
100
AcDbEntity
  8
0
  6
SLD-Solid
 62
     8
370
    25
100
AcDbLine
 10
42.4143513153946
 20
26.31516917968359
 30
0.0
 11
41.90828157783065
 21
26.60731702063762
 31
0.0
  0
LINE
  5
359
330
1F
100
AcDbEntity
  8
0
  6
SLD-Solid
 62
     8
370
    25
100
AcDbLine
 10
41.53046783891142
 20
26.82542424957278
 30
0.0
 11
41.02439810134747
 21
27.11757209052681
 31
0.0
  0
LINE
  5
35A
330
1F
100
AcDbEntity
  8
0
  6
SLD-Solid
 62
     8
370
    25
100
AcDbLine
 10
42.36082794098878
 20
26.25068340003019
 30
0.0
 11
41.86698366171313
 21
26.53577363413977
 31
0.0
  0
LINE
  5
35B
330
1F
100
AcDbEntity
  8
0
  6
SLD-Solid
 62
     8
370
    25
100
AcDbLine
 10
41.4769444645056
 20
26.76093846991938
 30
0.0
 11
40.98310018522994
 21
27.04602870402896
 31
0.0
  0
LINE
  5
35C
330
1F
100
AcDbEntity
  8
0
  6
SLD-Solid
 62
     8
370
    25
100
AcDbLine
 10
42.99174628313791
 20
27.25248743506885
 30
0.0
 11
42.99188772748096
 21
27.25240578098767
 31
0.0
  0
LINE
  5
35D
330
1F
100
AcDbEntity
  8
0
  6
SLD-Solid
 62
     8
370
    25
100
AcDbLine
 10
42.91764151545638
 20
27.37349184317702
 30
0.0
 11
42.91764151545638
 21
27.37365512479939
 31
0.0
  0
LINE
  5
35E
330
1F
100
AcDbEntity
  8
0
  6
SLD-Solid
 62
     8
370
    25
100
AcDbLine
 10
42.95723949520283
 20
27.27199957567142
 30
0.0
 11
42.95723949520283
 21
27.27240777972732
 31
0.0
  0
LINE
  5
35F
330
1F
100
AcDbEntity
  8
0
  6
SLD-Solid
 62
     8
370
    25
100
AcDbLine
 10
42.91764151545638
 20
27.33364462501699
 30
0.0
 11
42.91728796207045
 21
27.33384872704225
 31
0.0
  0
LINE
  5
360
330
1F
100
AcDbEntity
  8
0
  6
SLD-Solid
 62
     8
370
    25
100
AcDbLine
 10
36.64277593920696
 20
22.15390634992573
 30
0.0
 11
36.64277593920696
 21
30.90045422841703
 31
0.0
  0
LINE
  5
361
330
1F
100
AcDbEntity
  8
0
  6
SLD-Solid
 62
     8
370
    25
100
AcDbLine
 10
36.60812770692882
 20
30.93767199775538
 30
0.0
 11
36.60798626258577
 21
30.93775365183657
 31
0.0
  0
LINE
  5
362
330
1F
100
AcDbEntity
  8
0
  6
SLD-Solid
 62
     8
370
    25
100
AcDbLine
 10
36.60777415353823
 20
30.95053254871759
 30
0.0
 11
36.61925684150063
 21
30.95716136338
 31
0.0
  0
LINE
  5
363
330
1F
100
AcDbEntity
  8
0
  6
SLD-Solid
 62
     8
370
    25
100
AcDbLine
 10
36.60812770692882
 20
30.93726379369947
 30
0.0
 11
36.60812770692882
 21
30.93767199775538
 31
0.0
  0
LINE
  5
364
330
1F
100
AcDbEntity
  8
0
  6
SLD-Solid
 62
     8
370
    25
100
AcDbLine
 10
43.01204027044592
 20
16.89477721026643
 30
0.0
 11
42.98941285374681
 21
16.88171468064979
 31
0.0
  0
LINE
  5
365
330
1F
100
AcDbEntity
  8
0
  6
SLD-Solid
 62
     8
370
    25
100
AcDbLine
 10
42.6584868801515
 20
17.05987225525605
 30
0.0
 11
42.6584868801515
 21
17.03356021984579
 31
0.0
  0
LINE
  5
366
330
1F
100
AcDbEntity
  8
0
  6
SLD-Solid
 62
     8
370
    25
100
AcDbLine
 10
37.01577476628285
 20
20.31734062142867
 30
0.0
 11
37.01577476628285
 21
20.29102858601839
 31
0.0
  0
LINE
  5
367
330
1F
100
AcDbEntity
  8
0
  6
SLD-Solid
 62
     8
370
    25
100
AcDbLine
 10
36.68484879268755
 20
20.50838011959518
 30
0.0
 11
36.68484879268755
 21
20.48206808418491
 31
0.0
  0
MTEXT
  5
368
330
1F
100
AcDbEntity
  8
NOTES
100
AcDbMText
 10
41.28898422294606
 20
16.27181848237239
 30
0.0
 40
0.7500000000000001
 41
0.0
 71
     1
 72
     1
  1
3D view
  7
SLDTEXTSTYLE1
 73
     1
 44
1.0
  0
LINE
  5
369
330
1F
100
AcDbEntity
  8
0
  6
SLD-Solid
 62
     7
370
    25
100
AcDbLine
 10
33.63017354312443
 20
8.506063664292276
 30
0.0
 11
33.60517354312439
 21
8.506063664292276
 31
0.0
  0
LINE
  5
36A
330
1F
100
AcDbEntity
  8
0
  6
SLD-Solid
 62
     7
370
    25
100
AcDbLine
 10
33.63017354312443
 20
8.547396543329418
 30
0.0
 11
33.63017354312443
 21
8.506063664292276
 31
0.0
  0
LINE
  5
36B
330
1F
100
AcDbEntity
  8
0
  6
SLD-Solid
 62
     7
370
    25
100
AcDbLine
 10
33.60517354312437
 20
8.447403579824316
 30
0.0
 11
33.61384457677559
 21
8.447403579824316
 31
0.0
  0
LINE
  5
36C
330
1F
100
AcDbEntity
  8
0
  6
SLD-Solid
 62
     7
370
    25
100
AcDbLine
 10
33.63017354312443
 20
8.452285659905993
 30
0.0
 11
33.63017354312443
 21
8.506063664292276
 31
0.0
  0
CIRCLE
  5
36D
330
1F
100
AcDbEntity
  8
0
  6
SLD-Solid
 62
     7
370
    25
100
AcDbCircle
 10
31.6301735431244
 20
16.41041000223564
 30
0.0
 40
0.125
  0
SPLINE
  5
36E
330
1F
100
AcDbEntity
  8
0
  6
SLD-Solid
 62
     7
370
    25
100
AcDbSpline
210
0.0
220
0.0
230
1.0
 70
    15
 71
     3
 72
    39
 73
    35
 74
     0
 42
0.00000001
 43
0.00000001
 40
0.0
 40
0.0
 40
0.0
 40
0.0
 40
0.0291290081054508
 40
0.0600028324322978
 40
0.092160203440694
 40
0.1249999999999999
 40
0.1578397965593057
 40
0.1899971675677014
 40
0.2208709918945486
 40
0.2499999999999996
 40
0.2791290081054507
 40
0.3100028324322984
 40
0.3421602034406936
 40
0.3749999999999994
 40
0.4078397965593052
 40
0.4399971675677019
 40
0.4708709918945487
 40
0.4999999999999993
 40
0.52912900810545
 40
0.5600028324322983
 40
0.5921602034406936
 40
0.6249999999999998
 40
0.6578397965593052
 40
0.6899971675677015
 40
0.7208709918945486
 40
0.7499999999999997
 40
0.7791290081054506
 40
0.8100028324322976
 40
0.8421602034406942
 40
0.8749999999999997
 40
0.9078397965593054
 40
0.9399971675677009
 40
0.9708709918945485
 40
1.0
 40
1.0
 40
1.0
 40
1.0
 10
32.00115430523793
 20
16.41041000223564
 30
0.0
 41
1.0
 10
31.99995074972634
 20
16.38778328318937
 30
0.0
 41
1.0
 10
31.99747154619755
 20
16.34117451345333
 30
0.0
 41
1.0
 10
31.97683144815228
 20
16.27203301056385
 30
0.0
 41
1.0
 10
31.94260631401027
 20
16.20554679731651
 30
0.0
 41
1.0
 10
31.89435251053182
 20
16.14621819822604
 30
0.0
 41
1.0
 10
31.83504011322063
 20
16.09802467908077
 30
0.0
 41
1.0
 10
31.7685496790777
 20
16.06358203327205
 30
0.0
 41
1.0
 10
31.69940924305195
 20
16.04370452388543
 30
0.0
 41
1.0
 10
31.63017348805708
 20
16.03735375850987
 30
0.0
 41
1.0
 10
31.56093807006313
 20
16.04370452388544
 30
0.0
 41
1.0
 10
31.49179654694042
 20
16.06358203327205
 30
0.0
 41
1.0
 10
31.42531033946417
 20
16.09802467908077
 30
0.0
 41
1.0
 10
31.3659817387742
 20
16.14621819822604
 30
0.0
 41
1.0
 10
31.31778822005884
 20
16.20554679731651
 30
0.0
 41
1.0
 10
31.28334557413798
 20
16.27203301056385
 30
0.0
 41
1.0
 10
31.26346806478022
 20
16.34117451345333
 30
0.0
 41
1.0
 10
31.2571172993957
 20
16.41041000223564
 30
0.0
 41
1.0
 10
31.26346806478022
 20
16.47964549101795
 30
0.0
 41
1.0
 10
31.28334557413798
 20
16.54878699390743
 30
0.0
 41
1.0
 10
31.31778822005884
 20
16.61527320715477
 30
0.0
 41
1.0
 10
31.3659817387742
 20
16.67460180624524
 30
0.0
 41
1.0
 10
31.42531033946417
 20
16.72279532539051
 30
0.0
 41
1.0
 10
31.49179654694042
 20
16.75723797119923
 30
0.0
 41
1.0
 10
31.56093807006313
 20
16.77711548058584
 30
0.0
 41
1.0
 10
31.63017348805708
 20
16.7834662459614
 30
0.0
 41
1.0
 10
31.69940924305194
 20
16.77711548058584
 30
0.0
 41
1.0
 10
31.7685496790777
 20
16.75723797119923
 30
0.0
 41
1.0
 10
31.83504011322063
 20
16.72279532539051
 30
0.0
 41
1.0
 10
31.89435251053182
 20
16.67460180624524
 30
0.0
 41
1.0
 10
31.94260631401027
 20
16.61527320715477
 30
0.0
 41
1.0
 10
31.97683144815228
 20
16.54878699390743
 30
0.0
 41
1.0
 10
31.99747154619756
 20
16.47964549101795
 30
0.0
 41
1.0
 10
31.99995074972634
 20
16.43303672128191
 30
0.0
 41
1.0
 10
32.00115430523793
 20
16.41041000223564
 30
0.0
 41
1.0
  0
CIRCLE
  5
36F
330
1F
100
AcDbEntity
  8
0
  6
SLD-Solid
 62
     7
370
    25
100
AcDbCircle
 10
31.6301735431244
 20
10.19739654332937
 30
0.0
 40
0.125
  0
SPLINE
  5
370
330
1F
100
AcDbEntity
  8
0
  6
SLD-Solid
 62
     7
370
    25
100
AcDbSpline
210
0.0
220
0.0
230
1.0
 70
    15
 71
     3
 72
    39
 73
    35
 74
     0
 42
0.00000001
 43
0.00000001
 40
0.0
 40
0.0
 40
0.0
 40
0.0
 40
0.029129008105451
 40
0.0600028324322984
 40
0.0921602034406939
 40
0.1250000000000002
 40
0.1578397965593062
 40
0.1899971675677016
 40
0.2208709918945491
 40
0.2500000000000002
 40
0.2791290081054512
 40
0.3100028324322988
 40
0.3421602034406938
 40
0.375
 40
0.407839796559306
 40
0.4399971675677019
 40
0.4708709918945488
 40
0.5000000000000002
 40
0.5291290081054508
 40
0.5600028324322982
 40
0.5921602034406935
 40
0.6249999999999999
 40
0.657839796559306
 40
0.6899971675677014
 40
0.7208709918945488
 40
0.7499999999999999
 40
0.7791290081054508
 40
0.8100028324322981
 40
0.842160203440694
 40
0.8749999999999997
 40
0.9078397965593058
 40
0.9399971675677015
 40
0.9708709918945488
 40
0.9999999999999999
 40
0.9999999999999999
 40
0.9999999999999999
 40
0.9999999999999999
 10
32.00115430523793
 20
10.19739654332937
 30
0.0
 41
1.0
 10
31.99995074972634
 20
10.1747698242831
 30
0.0
 41
1.0
 10
31.99747154619756
 20
10.12816105454706
 30
0.0
 41
1.0
 10
31.97683144815228
 20
10.05901955165758
 30
0.0
 41
1.0
 10
31.94260631401028
 20
9.992533338410242
 30
0.0
 41
1.0
 10
31.89435251053183
 20
9.933204739319768
 30
0.0
 41
1.0
 10
31.83504011322063
 20
9.8850112201745
 30
0.0
 41
1.0
 10
31.7685496790777
 20
9.850568574365777
 30
0.0
 41
1.0
 10
31.69940924305195
 20
9.83069106497917
 30
0.0
 41
1.0
 10
31.63017348805708
 20
9.824340299603607
 30
0.0
 41
1.0
 10
31.56093807006314
 20
9.830691064979169
 30
0.0
 41
1.0
 10
31.49179654694042
 20
9.850568574365777
 30
0.0
 41
1.0
 10
31.42531033946417
 20
9.885011220174501
 30
0.0
 41
1.0
 10
31.3659817387742
 20
9.933204739319768
 30
0.0
 41
1.0
 10
31.31778822005884
 20
9.992533338410247
 30
0.0
 41
1.0
 10
31.28334557413798
 20
10.05901955165758
 30
0.0
 41
1.0
 10
31.26346806478022
 20
10.12816105454706
 30
0.0
 41
1.0
 10
31.25711729939571
 20
10.19739654332937
 30
0.0
 41
1.0
 10
31.26346806478021
 20
10.26663203211168
 30
0.0
 41
1.0
 10
31.28334557413798
 20
10.33577353500116
 30
0.0
 41
1.0
 10
31.31778822005884
 20
10.4022597482485
 30
0.0
 41
1.0
 10
31.3659817387742
 20
10.46158834733897
 30
0.0
 41
1.0
 10
31.42531033946417
 20
10.50978186648424
 30
0.0
 41
1.0
 10
31.49179654694042
 20
10.54422451229297
 30
0.0
 41
1.0
 10
31.56093807006314
 20
10.56410202167958
 30
0.0
 41
1.0
 10
31.63017348805708
 20
10.57045278705514
 30
0.0
 41
1.0
 10
31.69940924305194
 20
10.56410202167958
 30
0.0
 41
1.0
 10
31.7685496790777
 20
10.54422451229296
 30
0.0
 41
1.0
 10
31.83504011322063
 20
10.50978186648424
 30
0.0
 41
1.0
 10
31.89435251053182
 20
10.46158834733897
 30
0.0
 41
1.0
 10
31.94260631401027
 20
10.4022597482485
 30
0.0
 41
1.0
 10
31.97683144815228
 20
10.33577353500116
 30
0.0
 41
1.0
 10
31.99747154619755
 20
10.26663203211168
 30
0.0
 41
1.0
 10
31.99995074972634
 20
10.22002326237564
 30
0.0
 41
1.0
 10
32.00115430523793
 20
10.19739654332937
 30
0.0
 41
1.0
  0
CIRCLE
  5
371
330
1F
100
AcDbEntity
  8
0
  6
SLD-Solid
 62
     7
370
    25
100
AcDbCircle
 10
26.6301735431244
 20
16.41041000223564
 30
0.0
 40
0.125
  0
SPLINE
  5
372
330
1F
100
AcDbEntity
  8
0
  6
SLD-Solid
 62
     7
370
    25
100
AcDbSpline
210
0.0
220
0.0
230
1.0
 70
    15
 71
     3
 72
    39
 73
    35
 74
     0
 42
0.00000001
 43
0.00000001
 40
0.0
 40
0.0
 40
0.0
 40
0.0
 40
0.0291290081054507
 40
0.0600028324322976
 40
0.0921602034406936
 40
0.1249999999999999
 40
0.1578397965593053
 40
0.1899971675677009
 40
0.2208709918945486
 40
0.2499999999999992
 40
0.2791290081054502
 40
0.3100028324322988
 40
0.3421602034406936
 40
0.3749999999999994
 40
0.4078397965593051
 40
0.4399971675677021
 40
0.4708709918945486
 40
0.4999999999999994
 40
0.5291290081054499
 40
0.5600028324322978
 40
0.5921602034406935
 40
0.6249999999999996
 40
0.657839796559305
 40
0.6899971675677007
 40
0.7208709918945488
 40
0.7499999999999998
 40
0.7791290081054512
 40
0.8100028324322976
 40
0.8421602034406943
 40
0.8749999999999998
 40
0.9078397965593054
 40
0.9399971675677006
 40
0.9708709918945484
 40
1.0
 40
1.0
 40
1.0
 40
1.0
 10
27.00115430523793
 20
16.41041000223564
 30
0.0
 41
1.0
 10
26.99995074972634
 20
16.38778328318936
 30
0.0
 41
1.0
 10
26.99747154619755
 20
16.34117451345333
 30
0.0
 41
1.0
 10
26.97683144815228
 20
16.27203301056385
 30
0.0
 41
1.0
 10
26.94260631401028
 20
16.20554679731651
 30
0.0
 41
1.0
 10
26.89435251053182
 20
16.14621819822604
 30
0.0
 41
1.0
 10
26.83504011322063
 20
16.09802467908076
 30
0.0
 41
1.0
 10
26.7685496790777
 20
16.06358203327205
 30
0.0
 41
1.0
 10
26.69940924305194
 20
16.04370452388543
 30
0.0
 41
1.0
 10
26.63017348805708
 20
16.03735375850987
 30
0.0
 41
1.0
 10
26.56093807006313
 20
16.04370452388543
 30
0.0
 41
1.0
 10
26.49179654694042
 20
16.06358203327205
 30
0.0
 41
1.0
 10
26.42531033946416
 20
16.09802467908077
 30
0.0
 41
1.0
 10
26.3659817387742
 20
16.14621819822604
 30
0.0
 41
1.0
 10
26.31778822005884
 20
16.20554679731651
 30
0.0
 41
1.0
 10
26.28334557413798
 20
16.27203301056385
 30
0.0
 41
1.0
 10
26.26346806478022
 20
16.34117451345333
 30
0.0
 41
1.0
 10
26.25711729939571
 20
16.41041000223564
 30
0.0
 41
1.0
 10
26.26346806478021
 20
16.47964549101795
 30
0.0
 41
1.0
 10
26.28334557413798
 20
16.54878699390743
 30
0.0
 41
1.0
 10
26.31778822005884
 20
16.61527320715476
 30
0.0
 41
1.0
 10
26.3659817387742
 20
16.67460180624524
 30
0.0
 41
1.0
 10
26.42531033946416
 20
16.72279532539051
 30
0.0
 41
1.0
 10
26.49179654694041
 20
16.75723797119923
 30
0.0
 41
1.0
 10
26.56093807006313
 20
16.77711548058584
 30
0.0
 41
1.0
 10
26.63017348805708
 20
16.7834662459614
 30
0.0
 41
1.0
 10
26.69940924305194
 20
16.77711548058584
 30
0.0
 41
1.0
 10
26.7685496790777
 20
16.75723797119923
 30
0.0
 41
1.0
 10
26.83504011322062
 20
16.72279532539051
 30
0.0
 41
1.0
 10
26.89435251053182
 20
16.67460180624524
 30
0.0
 41
1.0
 10
26.94260631401027
 20
16.61527320715477
 30
0.0
 41
1.0
 10
26.97683144815228
 20
16.54878699390743
 30
0.0
 41
1.0
 10
26.99747154619756
 20
16.47964549101795
 30
0.0
 41
1.0
 10
26.99995074972634
 20
16.43303672128191
 30
0.0
 41
1.0
 10
27.00115430523793
 20
16.41041000223564
 30
0.0
 41
1.0
  0
CIRCLE
  5
373
330
1F
100
AcDbEntity
  8
0
  6
SLD-Solid
 62
     7
370
    25
100
AcDbCircle
 10
26.6301735431244
 20
10.19739654332937
 30
0.0
 40
0.125
  0
SPLINE
  5
374
330
1F
100
AcDbEntity
  8
0
  6
SLD-Solid
 62
     7
370
    25
100
AcDbSpline
210
0.0
220
0.0
230
1.0
 70
    15
 71
     3
 72
    39
 73
    35
 74
     0
 42
0.00000001
 43
0.00000001
 40
0.0
 40
0.0
 40
0.0
 40
0.0
 40
0.0291290081054507
 40
0.0600028324322981
 40
0.0921602034406935
 40
0.1249999999999998
 40
0.1578397965593057
 40
0.1899971675677015
 40
0.2208709918945491
 40
0.2499999999999996
 40
0.2791290081054505
 40
0.3100028324322991
 40
0.3421602034406939
 40
0.3750000000000001
 40
0.4078397965593058
 40
0.4399971675677022
 40
0.4708709918945493
 40
0.4999999999999997
 40
0.529129008105451
 40
0.560002832432298
 40
0.5921602034406938
 40
0.6249999999999996
 40
0.6578397965593055
 40
0.6899971675677005
 40
0.720870991894549
 40
0.7499999999999999
 40
0.7791290081054514
 40
0.810002832432298
 40
0.8421602034406941
 40
0.8749999999999998
 40
0.9078397965593058
 40
0.9399971675677009
 40
0.9708709918945491
 40
1.0
 40
1.0
 40
1.0
 40
1.0
 10
27.00115430523793
 20
10.19739654332937
 30
0.0
 41
1.0
 10
26.99995074972634
 20
10.1747698242831
 30
0.0
 41
1.0
 10
26.99747154619755
 20
10.12816105454706
 30
0.0
 41
1.0
 10
26.97683144815228
 20
10.05901955165758
 30
0.0
 41
1.0
 10
26.94260631401028
 20
9.992533338410238
 30
0.0
 41
1.0
 10
26.89435251053182
 20
9.933204739319772
 30
0.0
 41
1.0
 10
26.83504011322063
 20
9.885011220174496
 30
0.0
 41
1.0
 10
26.7685496790777
 20
9.850568574365777
 30
0.0
 41
1.0
 10
26.69940924305195
 20
9.830691064979167
 30
0.0
 41
1.0
 10
26.63017348805708
 20
9.8243402996036
 30
0.0
 41
1.0
 10
26.56093807006314
 20
9.830691064979169
 30
0.0
 41
1.0
 10
26.49179654694042
 20
9.85056857436578
 30
0.0
 41
1.0
 10
26.42531033946416
 20
9.885011220174494
 30
0.0
 41
1.0
 10
26.3659817387742
 20
9.933204739319768
 30
0.0
 41
1.0
 10
26.31778822005884
 20
9.992533338410242
 30
0.0
 41
1.0
 10
26.28334557413798
 20
10.05901955165757
 30
0.0
 41
1.0
 10
26.26346806478022
 20
10.12816105454706
 30
0.0
 41
1.0
 10
26.25711729939571
 20
10.19739654332937
 30
0.0
 41
1.0
 10
26.26346806478022
 20
10.26663203211168
 30
0.0
 41
1.0
 10
26.28334557413798
 20
10.33577353500116
 30
0.0
 41
1.0
 10
26.31778822005884
 20
10.4022597482485
 30
0.0
 41
1.0
 10
26.3659817387742
 20
10.46158834733897
 30
0.0
 41
1.0
 10
26.42531033946416
 20
10.50978186648424
 30
0.0
 41
1.0
 10
26.49179654694041
 20
10.54422451229296
 30
0.0
 41
1.0
 10
26.56093807006313
 20
10.56410202167957
 30
0.0
 41
1.0
 10
26.63017348805708
 20
10.57045278705514
 30
0.0
 41
1.0
 10
26.69940924305195
 20
10.56410202167957
 30
0.0
 41
1.0
 10
26.7685496790777
 20
10.54422451229296
 30
0.0
 41
1.0
 10
26.83504011322063
 20
10.50978186648424
 30
0.0
 41
1.0
 10
26.89435251053182
 20
10.46158834733897
 30
0.0
 41
1.0
 10
26.94260631401027
 20
10.4022597482485
 30
0.0
 41
1.0
 10
26.97683144815228
 20
10.33577353500116
 30
0.0
 41
1.0
 10
26.99747154619756
 20
10.26663203211168
 30
0.0
 41
1.0
 10
26.99995074972634
 20
10.22002326237564
 30
0.0
 41
1.0
 10
27.00115430523793
 20
10.19739654332937
 30
0.0
 41
1.0
  0
CIRCLE
  5
375
330
1F
100
AcDbEntity
  8
0
  6
SLD-Solid
 62
     7
370
    25
100
AcDbCircle
 10
31.6301735431244
 20
16.41041000223564
 30
0.0
 40
0.3784807621135329
  0
CIRCLE
  5
376
330
1F
100
AcDbEntity
  8
0
  6
SLD-Solid
 62
     7
370
    25
100
AcDbCircle
 10
31.6301735431244
 20
10.19739654332937
 30
0.0
 40
0.3784807621135293
  0
CIRCLE
  5
377
330
1F
100
AcDbEntity
  8
0
  6
SLD-Solid
 62
     7
370
    25
100
AcDbCircle
 10
26.6301735431244
 20
16.41041000223564
 30
0.0
 40
0.3784807621135329
  0
CIRCLE
  5
378
330
1F
100
AcDbEntity
  8
0
  6
SLD-Solid
 62
     7
370
    25
100
AcDbCircle
 10
26.6301735431244
 20
10.19739654332937
 30
0.0
 40
0.3784807621135293
  0
CIRCLE
  5
379
330
1F
100
AcDbEntity
  8
0
  6
SLD-Solid
 62
     7
370
    25
100
AcDbCircle
 10
31.6301735431244
 20
16.41041000223564
 30
0.0
 40
1.237544641670905
  0
CIRCLE
  5
37A
330
1F
100
AcDbEntity
  8
0
  6
SLD-Solid
 62
     7
370
    25
100
AcDbCircle
 10
31.6301735431244
 20
10.19739654332937
 30
0.0
 40
1.237544641670905
  0
CIRCLE
  5
37B
330
1F
100
AcDbEntity
  8
0
  6
SLD-Solid
 62
     7
370
    25
100
AcDbCircle
 10
26.6301735431244
 20
16.41041000223564
 30
0.0
 40
1.237544641670905
  0
CIRCLE
  5
37C
330
1F
100
AcDbEntity
  8
0
  6
SLD-Solid
 62
     7
370
    25
100
AcDbCircle
 10
26.6301735431244
 20
10.19739654332937
 30
0.0
 40
1.237544641670905
  0
SPLINE
  5
37D
330
1F
100
AcDbEntity
  8
0
  6
SLD-Solid
 62
     7
370
    25
100
AcDbSpline
210
0.0
220
0.0
230
1.0
 70
    15
 71
     3
 72
    59
 73
    55
 74
     0
 42
0.00000001
 43
0.00000001
 40
0.0
 40
0.0
 40
0.0
 40
0.0
 40
0.0194114414257923
 40
0.03942244898975
 40
0.0599983720196703
 40
0.0760818161741896
 40
0.0921679122382578
 40
0.1249780118397944
 40
0.1414036823337839
 40
0.1578320611679777
 40
0.1739155055336143
 40
0.1900016018135015
 40
0.2105751754395542
 40
0.2305879479378829
 40
0.2499999866443177
 40
0.269409645666942
 40
0.2894224489860829
 40
0.3099983720180055
 40
0.326081816171253
 40
0.3421679122365943
 40
0.3749780118381307
 40
0.3914036823308227
 40
0.4078320611663158
 40
0.4239155055319923
 40
0.4400016018118516
 40
0.4605751754391887
 40
0.4805879479369786
 40
0.4999999866426643
 40
0.5194096456658334
 40
0.5394224489855087
 40
0.5599983720163557
 40
0.5760818161712095
 40
0.5921679122349489
 40
0.6249780118364854
 40
0.6414036823288152
 40
0.6578320611646744
 40
0.6739155055326619
 40
0.6900016018102337
 40
0.710575175439192
 40
0.730587947935393
 40
0.7499999866410322
 40
0.7694096456660418
 40
0.789422448986273
 40
0.8099983720147272
 40
0.826081816170012
 40
0.8421679122333013
 40
0.8749780118348377
 40
0.8914036823282379
 40
0.9078320611630145
 40
0.9239155055312257
 40
0.9400016018085771
 40
0.960575175437876
 40
0.9805897433693113
 40
1.0
 40
1.0
 40
1.0
 40
1.0
 10
32.8752181847953
 20
10.19739654332937
 30
0.0
 41
1.0
 10
32.87343241955658
 20
10.24800912350604
 30
0.0
 41
1.0
 10
32.86980573169311
 20
10.35079756752149
 30
0.0
 41
1.0
 10
32.8399152473566
 20
10.5048829112397
 30
0.0
 41
1.0
 10
32.79467261646516
 20
10.64580190401609
 30
0.0
 41
1.0
 10
32.73756207473918
 20
10.77110493186414
 30
0.0
 41
1.0
 10
32.65207536211582
 20
10.91750593202615
 30
0.0
 41
1.0
 10
32.54383386616531
 20
11.05074043670922
 30
0.0
 41
1.0
 10
32.41661209609978
 20
11.16550300056227
 30
0.0
 41
1.0
 10
32.31340151545769
 20
11.24080355129345
 30
0.0
 41
1.0
 10
32.20388247692705
 20
11.30480404966389
 30
0.0
 41
1.0
 10
32.07859313340491
 20
11.3618379257383
 30
0.0
 41
1.0
 10
31.93766641460166
 20
11.40737682776534
 30
0.0
 41
1.0
 10
31.78358268978893
 20
11.43617560027811
 30
0.0
 41
1.0
 10
31.63017966438661
 20
11.44552608222905
 30
0.0
 41
1.0
 10
31.47677706441011
 20
11.4361758527798
 30
0.0
 41
1.0
 10
31.32269168876298
 20
11.40738048337563
 30
0.0
 41
1.0
 10
31.18176817254155
 20
11.36184607195152
 30
0.0
 41
1.0
 10
31.05646515691682
 20
11.30479670215971
 30
0.0
 41
1.0
 10
30.9100641530416
 20
11.21929141571642
 30
0.0
 41
1.0
 10
30.77682964997122
 20
11.11105798633041
 30
0.0
 41
1.0
 10
30.66206708585115
 20
10.98383488504012
 30
0.0
 41
1.0
 10
30.58676653517346
 20
10.88062457092352
 30
0.0
 41
1.0
 10
30.52276603678544
 20
10.77110546257513
 30
0.0
 41
1.0
 10
30.46573216071583
 20
10.64581613873944
 30
0.0
 41
1.0
 10
30.42019325868542
 20
10.50488941333075
 30
0.0
 41
1.0
 10
30.39139448617669
 20
10.35080569036494
 30
0.0
 41
1.0
 10
30.38204400422461
 20
10.19740266448882
 30
0.0
 41
1.0
 10
30.39139423367343
 20
10.0440000646383
 30
0.0
 41
1.0
 10
30.42018960307991
 20
9.889914688956237
 30
0.0
 41
1.0
 10
30.46572401450473
 20
9.748991172741626
 30
0.0
 41
1.0
 10
30.52277338429556
 20
9.623688157117442
 30
0.0
 41
1.0
 10
30.60827867074023
 20
9.477287153243646
 30
0.0
 41
1.0
 10
30.71651210012296
 20
9.344052650177197
 30
0.0
 41
1.0
 10
30.84373520141252
 20
9.229290086056166
 30
0.0
 41
1.0
 10
30.94694551553468
 20
9.153989535376168
 30
0.0
 41
1.0
 10
31.05646462388298
 20
9.089989036984965
 30
0.0
 41
1.0
 10
31.18175394772257
 20
9.032955160917648
 30
0.0
 41
1.0
 10
31.32268067313568
 20
8.987416258891807
 30
0.0
 41
1.0
 10
31.47676439606538
 20
8.958617486379596
 30
0.0
 41
1.0
 10
31.63016742206964
 20
8.949267004430313
 30
0.0
 41
1.0
 10
31.78357002144913
 20
8.958617233877021
 30
0.0
 41
1.0
 10
31.93765539898343
 20
8.987412603289878
 30
0.0
 41
1.0
 10
32.07857890856981
 20
9.032947014712468
 30
0.0
 41
1.0
 10
32.20388194393819
 20
9.089996384500424
 30
0.0
 41
1.0
 10
32.35028285415631
 20
9.175501670960436
 30
0.0
 41
1.0
 10
32.48351794134539
 20
9.283735100228776
 30
0.0
 41
1.0
 10
32.59827913578079
 20
9.41095820179276
 30
0.0
 41
1.0
 10
32.67358381772829
 20
9.51416851509195
 30
0.0
 41
1.0
 10
32.73756912454357
 20
9.623687626462733
 30
0.0
 41
1.0
 10
32.79466472608964
 20
9.748976938013202
 30
0.0
 41
1.0
 10
32.83991370484708
 20
9.889908186128785
 30
0.0
 41
1.0
 10
32.86980950955542
 20
10.04399194093425
 30
0.0
 41
1.0
 10
32.87343381104567
 20
10.14678689615204
 30
0.0
 41
1.0
 10
32.8752181847953
 20
10.19739654332937
 30
0.0
 41
1.0
  0
SPLINE
  5
37E
330
1F
100
AcDbEntity
  8
0
  6
SLD-Solid
 62
     7
370
    25
100
AcDbSpline
210
0.0
220
0.0
230
1.0
 70
    15
 71
     3
 72
    59
 73
    55
 74
     0
 42
0.00000001
 43
0.00000001
 40
0.0
 40
0.0
 40
0.0
 40
0.0
 40
0.0194114414256226
 40
0.0394224489899339
 40
0.0599983720196742
 40
0.0760818161740143
 40
0.0921679122382521
 40
0.124978011839789
 40
0.1414036823318912
 40
0.1578320611679679
 40
0.173915505530949
 40
0.1900016018134887
 40
0.2105751754387585
 40
0.2305879479379598
 40
0.2499999866443139
 40
0.2694096456669346
 40
0.2894224489860961
 40
0.3099983720180015
 40
0.3260818161703137
 40
0.3421679122365914
 40
0.3749780118381282
 40
0.3914036823285874
 40
0.4078320611662975
 40
0.4239155055289311
 40
0.4400016018118404
 40
0.4605751754369509
 40
0.480587947935801
 40
0.4999999866426613
 40
0.5194096456660857
 40
0.5394224489856678
 40
0.5599983720163522
 40
0.5760818161696544
 40
0.592167912234932
 40
0.6249780118364688
 40
0.6414036823303995
 40
0.6578320611646598
 40
0.6739155055357207
 40
0.6900016018102328
 40
0.7105751754430623
 40
0.7305879479382362
 40
0.7499999866410247
 40
0.7694096456669612
 40
0.789422448986975
 40
0.8099983720147196
 40
0.8260818161740024
 40
0.8421679122333183
 40
0.8749780118348552
 40
0.8914036823307155
 40
0.9078320611630275
 40
0.9239155055309421
 40
0.9400016018085665
 40
0.9605751754367217
 40
0.9805897433693109
 40
1.0
 40
1.0
 40
1.0
 40
1.0
 10
32.8752181847953
 20
16.41041000223564
 30
0.0
 41
1.0
 10
32.87343241955649
 20
16.46102258241185
 30
0.0
 41
1.0
 10
32.86980573169278
 20
16.56381102642776
 30
0.0
 41
1.0
 10
32.83991524735717
 20
16.71789637014613
 30
0.0
 41
1.0
 10
32.79467261646538
 20
16.8588153629225
 30
0.0
 41
1.0
 10
32.73756207473829
 20
16.98411839076943
 30
0.0
 41
1.0
 10
32.65207536211671
 20
17.1305193909324
 30
0.0
 41
1.0
 10
32.54383386616855
 20
17.26375389561187
 30
0.0
 41
1.0
 10
32.41661209610326
 20
17.37851645946494
 30
0.0
 41
1.0
 10
32.31340151546766
 20
17.45381701019335
 30
0.0
 41
1.0
 10
32.20388247693305
 20
17.51781750856662
 30
0.0
 41
1.0
 10
32.07859313341329
 20
17.57485138464127
 30
0.0
 41
1.0
 10
31.93766641460408
 20
17.6203902866735
 30
0.0
 41
1.0
 10
31.78358268979055
 20
17.64918905918259
 30
0.0
 41
1.0
 10
31.63017966438651
 20
17.65853954113541
 30
0.0
 41
1.0
 10
31.4767770644099
 20
17.64918931168737
 30
0.0
 41
1.0
 10
31.32269168876333
 20
17.62039394228047
 30
0.0
 41
1.0
 10
31.18176817254377
 20
17.57485953085878
 30
0.0
 41
1.0
 10
31.05646515691896
 20
17.51781016106714
 30
0.0
 41
1.0
 10
30.91006415304365
 20
17.43230487462411
 30
0.0
 41
1.0
 10
30.77682964997488
 20
17.32407144524112
 30
0.0
 41
1.0
 10
30.66206708585639
 20
17.19684834394967
 30
0.0
 41
1.0
 10
30.58676653518082
 20
17.09363802984139
 30
0.0
 41
1.0
 10
30.52276603678851
 20
16.98411892148883
 30
0.0
 41
1.0
 10
30.46573216072059
 20
16.85882959765854
 30
0.0
 41
1.0
 10
30.42019325868938
 20
16.71790287224526
 30
0.0
 41
1.0
 10
30.39139448617519
 20
16.56381914928032
 30
0.0
 41
1.0
 10
30.38204400422511
 20
16.41041612339744
 30
0.0
 41
1.0
 10
30.39139423367278
 20
16.25701352354341
 30
0.0
 41
1.0
 10
30.42018960308106
 20
16.1029281478617
 30
0.0
 41
1.0
 10
30.46572401450295
 20
15.96200463165106
 30
0.0
 41
1.0
 10
30.5227733842953
 20
15.83670161602815
 30
0.0
 41
1.0
 10
30.60827867073672
 20
15.69030061215249
 30
0.0
 41
1.0
 10
30.71651210012586
 20
15.55706610908046
 30
0.0
 41
1.0
 10
30.84373520141558
 20
15.44230354495948
 30
0.0
 41
1.0
 10
30.94694551554503
 20
15.36700299427612
 30
0.0
 41
1.0
 10
31.05646462388928
 20
15.30300249588579
 30
0.0
 41
1.0
 10
31.18175394773975
 20
15.24596861981833
 30
0.0
 41
1.0
 10
31.32268067315201
 20
15.20042971779081
 30
0.0
 41
1.0
 10
31.47676439608326
 20
15.17163094528724
 30
0.0
 41
1.0
 10
31.63016742207943
 20
15.16228046333587
 30
0.0
 41
1.0
 10
31.78357002145329
 20
15.17163069278491
 30
0.0
 41
1.0
 10
31.9376553989879
 20
15.20042606219618
 30
0.0
 41
1.0
 10
32.07857890858089
 20
15.2459604736239
 30
0.0
 41
1.0
 10
32.20388194394898
 20
15.30300984340865
 30
0.0
 41
1.0
 10
32.3502828541634
 20
15.388515129875
 30
0.0
 41
1.0
 10
32.48351794135093
 20
15.49674855913854
 30
0.0
 41
1.0
 10
32.59827913578417
 20
15.62397166070461
 30
0.0
 41
1.0
 10
32.67358381773195
 20
15.72718197400262
 30
0.0
 41
1.0
 10
32.73756912454046
 20
15.83670108536979
 30
0.0
 41
1.0
 10
32.79466472608898
 20
15.96199039691565
 30
0.0
 41
1.0
 10
32.83991370484704
 20
16.10292164503199
 30
0.0
 41
1.0
 10
32.86980950955513
 20
16.25700539983754
 30
0.0
 41
1.0
 10
32.87343381104561
 20
16.35980035505832
 30
0.0
 41
1.0
 10
32.8752181847953
 20
16.41041000223564
 30
0.0
 41
1.0
  0
SPLINE
  5
37F
330
1F
100
AcDbEntity
  8
0
  6
SLD-Solid
 62
     7
370
    25
100
AcDbSpline
210
0.0
220
0.0
230
1.0
 70
    15
 71
     3
 72
    59
 73
    55
 74
     0
 42
0.00000001
 43
0.00000001
 40
0.0
 40
0.0
 40
0.0
 40
0.0
 40
0.0194114414265417
 40
0.0394224489912982
 40
0.0599983720196758
 40
0.0760818161755233
 40
0.0921679122382583
 40
0.1249780118397948
 40
0.1414036823350058
 40
0.1578320611679831
 40
0.1739155055363731
 40
0.1900016018135173
 40
0.2105751754413334
 40
0.2305879479379694
 40
0.249999986644319
 40
0.2694096456676924
 40
0.2894224489870142
 40
0.3099983720180072
 40
0.3260818161714563
 40
0.3421679122365935
 40
0.37497801183813
 40
0.3914036823297937
 40
0.4078320611663195
 40
0.4239155055289869
 40
0.4400016018118304
 40
0.4605751754364036
 40
0.4805879479370693
 40
0.4999999866426657
 40
0.5194096456673873
 40
0.5394224489853496
 40
0.5599983720163417
 40
0.576081816169235
 40
0.592167912234943
 40
0.6249780118364793
 40
0.6414036823296092
 40
0.6578320611646533
 40
0.6739155055303594
 40
0.6900016018101948
 40
0.7105751754381836
 40
0.7305879479361614
 40
0.7499999866410088
 40
0.7694096456647584
 40
0.7894224489849905
 40
0.8099983720147049
 40
0.8260818161720109
 40
0.8421679122332993
 40
0.8749780118348356
 40
0.8914036823301225
 40
0.9078320611630324
 40
0.9239155055333195
 40
0.9400016018085772
 40
0.9605751754394403
 40
0.98058974337069
 40
1.0
 40
1.0
 40
1.0
 40
1.0
 10
27.8752181847953
 20
10.19739654332937
 30
0.0
 41
1.0
 10
27.87343241955687
 20
10.24800912350804
 30
0.0
 41
1.0
 10
27.86980573169399
 20
10.35079756752762
 30
0.0
 41
1.0
 10
27.83991524735405
 20
10.50488291124525
 30
0.0
 41
1.0
 10
27.79467261646281
 20
10.64580190402319
 30
0.0
 41
1.0
 10
27.73756207473697
 20
10.77110493186695
 30
0.0
 41
1.0
 10
27.652075362114
 20
10.91750593202909
 30
0.0
 41
1.0
 10
27.54383386616295
 20
11.05074043671133
 30
0.0
 41
1.0
 10
27.41661209609777
 20
11.1655030005649
 30
0.0
 41
1.0
 10
27.31340151544886
 20
11.24080355129882
 30
0.0
 41
1.0
 10
27.20388247692128
 20
11.30480404966845
 30
0.0
 41
1.0
 10
27.07859313339376
 20
11.36183792574221
 30
0.0
 41
1.0
 10
26.93766641459665
 20
11.4073768277654
 30
0.0
 41
1.0
 10
26.78358268978411
 20
11.43617560027869
 30
0.0
 41
1.0
 10
26.63017966438447
 20
11.44552608222871
 30
0.0
 41
1.0
 10
26.47677706440555
 20
11.43617585278094
 30
0.0
 41
1.0
 10
26.32269168875913
 20
11.40738048337293
 30
0.0
 41
1.0
 10
26.18176817253872
 20
11.36184607195074
 30
0.0
 41
1.0
 10
26.05646515691649
 20
11.30479670215915
 30
0.0
 41
1.0
 10
25.91006415304107
 20
11.21929141571628
 30
0.0
 41
1.0
 10
25.77682964997346
 20
11.11105798633191
 30
0.0
 41
1.0
 10
25.66206708585261
 20
10.98383488504248
 30
0.0
 41
1.0
 10
25.5867665351788
 20
10.88062457093251
 30
0.0
 41
1.0
 10
25.52276603679187
 20
10.77110546258067
 30
0.0
 41
1.0
 10
25.4657321607204
 20
10.64581613875382
 30
0.0
 41
1.0
 10
25.42019325868634
 20
10.5048894133378
 30
0.0
 41
1.0
 10
25.39139448617624
 20
10.35080569037198
 30
0.0
 41
1.0
 10
25.38204400422511
 20
10.1974026644846
 30
0.0
 41
1.0
 10
25.39139423367173
 20
10.04400006463437
 30
0.0
 41
1.0
 10
25.42018960308428
 20
9.889914688953578
 30
0.0
 41
1.0
 10
25.46572401450268
 20
9.748991172746821
 30
0.0
 41
1.0
 10
25.52277338429234
 20
9.623688157121547
 30
0.0
 41
1.0
 10
25.60827867073757
 20
9.477287153248078
 30
0.0
 41
1.0
 10
25.71651210012343
 20
9.34405265017461
 30
0.0
 41
1.0
 10
25.84373520141546
 20
9.229290086056436
 30
0.0
 41
1.0
 10
25.94694551553111
 20
9.1539895353777
 30
0.0
 41
1.0
 10
26.05646462387877
 20
9.089989036989717
 30
0.0
 41
1.0
 10
26.18175394771445
 20
9.032955160920402
 30
0.0
 41
1.0
 10
26.32268067313442
 20
8.987416258888752
 30
0.0
 41
1.0
 10
26.47676439606511
 20
8.958617486381673
 30
0.0
 41
1.0
 10
26.63016742206844
 20
8.949267004429405
 30
0.0
 41
1.0
 10
26.78357002144224
 20
8.958617233879238
 30
0.0
 41
1.0
 10
26.9376553989779
 20
8.98741260328505
 30
0.0
 41
1.0
 10
27.07857890857129
 20
9.032947014714129
 30
0.0
 41
1.0
 10
27.20388194394411
 20
9.08999638450038
 30
0.0
 41
1.0
 10
27.35028285415975
 20
9.175501670965069
 30
0.0
 41
1.0
 10
27.48351794134829
 20
9.283735100232589
 30
0.0
 41
1.0
 10
27.59827913578575
 20
9.41095820179509
 30
0.0
 41
1.0
 10
27.67358381773391
 20
9.51416851510063
 30
0.0
 41
1.0
 10
27.73756912454436
 20
9.623687626468508
 30
0.0
 41
1.0
 10
27.79466472609309
 20
9.748976938021954
 30
0.0
 41
1.0
 10
27.83991370485177
 20
9.889908186135571
 30
0.0
 41
1.0
 10
27.86980950955347
 20
10.04399194094221
 30
0.0
 41
1.0
 10
27.87343381104506
 20
10.14678689615572
 30
0.0
 41
1.0
 10
27.8752181847953
 20
10.19739654332937
 30
0.0
 41
1.0
  0
SPLINE
  5
380
330
1F
100
AcDbEntity
  8
0
  6
SLD-Solid
 62
     7
370
    25
100
AcDbSpline
210
0.0
220
0.0
230
1.0
 70
    15
 71
     3
 72
    59
 73
    55
 74
     0
 42
0.00000001
 43
0.00000001
 40
0.0
 40
0.0
 40
0.0
 40
0.0
 40
0.0194114414265419
 40
0.0394224489912985
 40
0.0599983720196764
 40
0.0760818161749515
 40
0.0921679122382534
 40
0.1249780118397901
 40
0.1414036823337627
 40
0.1578320611679731
 40
0.173915505532485
 40
0.190001601813486
 40
0.2105751754391062
 40
0.2305879479379537
 40
0.2499999866443077
 40
0.2694096456667582
 40
0.2894224489856548
 40
0.309998372017993
 40
0.3260818161700096
 40
0.3421679122365855
 40
0.3749780118381222
 40
0.3914036823277807
 40
0.4078320611662904
 40
0.4239155055259806
 40
0.440001601811812
 40
0.4605751754351687
 40
0.4805879479367182
 40
0.4999999866426551
 40
0.5194096456674617
 40
0.5394224489861309
 40
0.5599983720163372
 40
0.5760818161700179
 40
0.5921679122349311
 40
0.6249780118364676
 40
0.6414036823304738
 40
0.6578320611646512
 40
0.6739155055342362
 40
0.6900016018102146
 40
0.7105751754417795
 40
0.7305879479380138
 40
0.7499999866410149
 40
0.7694096456666113
 40
0.7894224489868017
 40
0.809998372014711
 40
0.8260818161747632
 40
0.8421679122333133
 40
0.87497801183485
 40
0.8914036823315863
 40
0.9078320611630314
 40
0.9239155055333188
 40
0.9400016018085767
 40
0.96057517543944
 40
0.9805897433706899
 40
1.0
 40
1.0
 40
1.0
 40
1.0
 10
27.8752181847953
 20
16.41041000223564
 30
0.0
 41
1.0
 10
27.87343241955687
 20
16.46102258241431
 30
0.0
 41
1.0
 10
27.869805731694
 20
16.5638110264339
 30
0.0
 41
1.0
 10
27.83991524735398
 20
16.71789637015149
 30
0.0
 41
1.0
 10
27.7946726164635
 20
16.85881536292815
 30
0.0
 41
1.0
 10
27.737562074737
 20
16.98411839077155
 30
0.0
 41
1.0
 10
27.65207536211528
 20
17.13051939093437
 30
0.0
 41
1.0
 10
27.54383386616525
 20
17.26375389561545
 30
0.0
 41
1.0
 10
27.41661209609977
 20
17.37851645946841
 30
0.0
 41
1.0
 10
27.31340151546028
 20
17.45381701019829
 30
0.0
 41
1.0
 10
27.203882476929
 20
17.5178175085676
 30
0.0
 41
1.0
 10
27.0785931334088
 20
17.57485138464325
 30
0.0
 41
1.0
 10
26.93766641460306
 20
17.62039028667335
 30
0.0
 41
1.0
 10
26.78358268978966
 20
17.64918905918272
 30
0.0
 41
1.0
 10
26.63017966438694
 20
17.65853954113543
 30
0.0
 41
1.0
 10
26.47677706441151
 20
17.64918931168719
 30
0.0
 41
1.0
 10
26.32269168876481
 20
17.62039394228105
 30
0.0
 41
1.0
 10
26.1817681725456
 20
17.57485953085933
 30
0.0
 41
1.0
 10
26.05646515691947
 20
17.51781016106786
 30
0.0
 41
1.0
 10
25.9100641530444
 20
17.43230487462438
 30
0.0
 41
1.0
 10
25.77682964997635
 20
17.32407144524257
 30
0.0
 41
1.0
 10
25.66206708585796
 20
17.19684834395114
 30
0.0
 41
1.0
 10
25.58676653518574
 20
17.09363802984977
 30
0.0
 41
1.0
 10
25.52276603679442
 20
16.98411892149443
 30
0.0
 41
1.0
 10
25.46573216072449
 20
16.85882959767022
 30
0.0
 41
1.0
 10
25.42019325868728
 20
16.7179028722481
 30
0.0
 41
1.0
 10
25.39139448617605
 20
16.56381914928235
 30
0.0
 41
1.0
 10
25.38204400422519
 20
16.41041612339153
 30
0.0
 41
1.0
 10
25.3913942336718
 20
16.25701352353836
 30
0.0
 41
1.0
 10
25.42018960308455
 20
16.10292814785755
 30
0.0
 41
1.0
 10
25.4657240145039
 20
15.96200463164913
 30
0.0
 41
1.0
 10
25.52277338429423
 20
15.83670161602646
 30
0.0
 41
1.0
 10
25.60827867073827
 20
15.69030061215233
 30
0.0
 41
1.0
 10
25.71651210012548
 20
15.55706610907978
 30
0.0
 41
1.0
 10
25.84373520141637
 20
15.44230354496014
 30
0.0
 41
1.0
 10
25.9469455155418
 20
15.3670029942778
 30
0.0
 41
1.0
 10
26.05646462388644
 20
15.30300249588869
 30
0.0
 41
1.0
 10
26.18175394773294
 20
15.24596861982055
 30
0.0
 41
1.0
 10
26.32268067314818
 20
15.20042971779147
 30
0.0
 41
1.0
 10
26.47676439607937
 20
15.17163094528733
 30
0.0
 41
1.0
 10
26.63016742207802
 20
15.16228046333575
 30
0.0
 41
1.0
 10
26.78357002145188
 20
15.17163069278551
 30
0.0
 41
1.0
 10
26.93765539898689
 20
15.20042606219488
 30
0.0
 41
1.0
 10
27.07857890858229
 20
15.24596047362467
 30
0.0
 41
1.0
 10
27.20388194395099
 20
15.30300984340911
 30
0.0
 41
1.0
 10
27.3502828541649
 20
15.38851512987647
 30
0.0
 41
1.0
 10
27.48351794135217
 20
15.49674855914041
 30
0.0
 41
1.0
 10
27.5982791357866
 20
15.62397166070561
 30
0.0
 41
1.0
 10
27.67358381773625
 20
15.72718197400988
 30
0.0
 41
1.0
 10
27.73756912454424
 20
15.83670108537486
 30
0.0
 41
1.0
 10
27.79466472609313
 20
15.96199039692819
 30
0.0
 41
1.0
 10
27.83991370485176
 20
16.10292164504185
 30
0.0
 41
1.0
 10
27.86980950955348
 20
16.25700539984848
 30
0.0
 41
1.0
 10
27.87343381104506
 20
16.359800355062
 30
0.0
 41
1.0
 10
27.8752181847953
 20
16.41041000223564
 30
0.0
 41
1.0
  0
LINE
  5
381
330
1F
100
AcDbEntity
  8
0
  6
SLD-Solid
 62
     7
370
    25
100
AcDbLine
 10
33.60517354312439
 20
8.547396543329418
 30
0.0
 11
33.60517354312439
 21
8.515396543329372
 31
0.0
  0
LINE
  5
382
330
1F
100
AcDbEntity
  8
0
  6
SLD-Solid
 62
     7
370
    25
100
AcDbLine
 10
33.60517354312439
 20
8.515396543329372
 30
0.0
 11
24.65517354312439
 21
8.51539654332937
 31
0.0
  0
LINE
  5
383
330
1F
100
AcDbEntity
  8
0
  6
SLD-Solid
 62
     7
370
    25
100
AcDbLine
 10
24.65517354312439
 20
8.51539654332937
 30
0.0
 11
24.65517354312439
 21
8.547196543329413
 31
0.0
  0
LINE
  5
384
330
1F
100
AcDbEntity
  8
0
  6
SLD-Solid
 62
     7
370
    25
100
AcDbLine
 10
24.65517354312439
 20
8.572196543329415
 30
0.0
 11
24.65517354312439
 21
8.572396543329429
 31
0.0
  0
LINE
  5
385
330
1F
100
AcDbEntity
  8
0
  6
SLD-Solid
 62
     7
370
    25
100
AcDbLine
 10
24.68907038152844
 20
21.2164234611419
 30
0.0
 11
24.75708775080888
 21
21.21642346114191
 31
0.0
  0
LINE
  5
386
330
1F
100
AcDbEntity
  8
0
  6
SLD-Solid
 62
     7
370
    25
100
AcDbLine
 10
33.55325933543995
 20
21.21642346114191
 30
0.0
 11
33.60517354312439
 21
21.21642346114191
 31
0.0
  0
LINE
  5
387
330
1F
100
AcDbEntity
  8
0
  6
SLD-Solid
 62
     7
370
    25
100
AcDbLine
 10
33.60517354312439
 20
21.21642346114191
 30
0.0
 11
33.60517354312439
 21
21.20045541783245
 31
0.0
  0
LINE
  5
388
330
1F
100
AcDbEntity
  8
0
  6
SLD-Solid
 62
     7
370
    25
100
AcDbLine
 10
24.65517354312439
 20
8.44739654332937
 30
0.0
 11
33.60517354312439
 21
8.44739654332937
 31
0.0
  0
LINE
  5
389
330
1F
100
AcDbEntity
  8
0
  6
SLD-Solid
 62
     7
370
    25
100
AcDbLine
 10
24.65517354312439
 20
8.44739654332937
 30
0.0
 11
24.65517354312439
 21
8.51539654332937
 31
0.0
  0
LINE
  5
38A
330
1F
100
AcDbEntity
  8
0
  6
SLD-Solid
 62
     7
370
    25
100
AcDbLine
 10
33.60517354312439
 20
8.515396543329372
 30
0.0
 11
33.60517354312439
 21
8.44739654332937
 31
0.0
  0
LINE
  5
38B
330
1F
100
AcDbEntity
  8
0
  6
SLD-Solid
 62
     7
370
    25
100
AcDbLine
 10
24.73111466862137
 20
21.24239654332942
 30
0.0
 11
25.27611466862136
 21
20.69739654332942
 31
0.0
  0
LINE
  5
38C
330
1F
100
AcDbEntity
  8
0
  6
SLD-Solid
 62
     7
370
    25
100
AcDbLine
 10
24.73111466862137
 20
21.24239654332942
 30
0.0
 11
33.57923241762747
 21
21.24239654332942
 31
0.0
  0
LINE
  5
38D
330
1F
100
AcDbEntity
  8
0
  6
SLD-Solid
 62
     7
370
    25
100
AcDbLine
 10
33.03423241762746
 20
20.69739654332942
 30
0.0
 11
33.57923241762747
 21
21.24239654332943
 31
0.0
  0
LINE
  5
38E
330
1F
100
AcDbEntity
  8
0
  6
SLD-Solid
 62
     7
370
    25
100
AcDbLine
 10
25.27611466862136
 20
20.69739654332942
 30
0.0
 11
33.03423241762746
 21
20.69739654332942
 31
0.0
  0
SPLINE
  5
38F
330
1F
100
AcDbEntity
  8
0
  6
SLD-Solid
 62
     7
370
    25
100
AcDbSpline
210
0.0
220
0.0
230
1.0
 70
    12
 71
     3
 72
    13
 73
     9
 74
     0
 42
0.00000001
 43
0.00000001
 40
0.0
 40
0.0
 40
0.0
 40
0.0
 40
0.2428929592196754
 40
0.4878250543426467
 40
0.6185792846745276
 40
0.7404698712374749
 40
0.8697704297992482
 40
0.9999999999999999
 40
0.9999999999999999
 40
0.9999999999999999
 40
0.9999999999999999
 10
33.57923241762747
 20
21.24239654332943
 30
0.0
 41
1.0
 10
33.58322745255414
 20
21.25224673813587
 30
0.0
 41
1.0
 10
33.59125106154003
 20
21.27202982214196
 30
0.0
 41
1.0
 10
33.60100396601523
 20
21.29394208895502
 30
0.0
 41
1.0
 10
33.60722325771795
 20
21.30779120292208
 30
0.0
 41
1.0
 10
33.61073613044944
 20
21.3159178487074
 30
0.0
 41
1.0
 10
33.61281618373163
 20
21.32134394650636
 30
0.0
 41
1.0
 10
33.61305413939885
 20
21.3220448414161
 30
0.0
 41
1.0
 10
33.6131735431244
 20
21.32239654332942
 30
0.0
 41
1.0
  0
LINE
  5
390
330
1F
100
AcDbEntity
  8
0
  6
SLD-Solid
 62
     7
370
    25
100
AcDbLine
 10
33.61317354312441
 20
21.27439654332942
 30
0.0
 11
33.61317354312441
 21
21.32239654332941
 31
0.0
  0
SPLINE
  5
391
330
1F
100
AcDbEntity
  8
0
  6
SLD-Solid
 62
     7
370
    25
100
AcDbSpline
210
0.0
220
0.0
230
1.0
 70
    12
 71
     3
 72
    13
 73
     9
 74
     0
 42
0.00000001
 43
0.00000001
 40
0.0
 40
0.0
 40
0.0
 40
0.0
 40
0.2691884684727887
 40
0.5325961722667699
 40
0.6635360601693338
 40
0.777188181339804
 40
0.8900957868000108
 40
1.0
 40
1.0
 40
1.0
 40
1.0
 10
33.57923241762747
 20
21.24239654332943
 30
0.0
 41
1.0
 10
33.58321316973872
 20
21.24632369412135
 30
0.0
 41
1.0
 10
33.59108918816264
 20
21.25409366098346
 30
0.0
 41
1.0
 10
33.6007087910833
 20
21.26275270154399
 30
0.0
 41
1.0
 10
33.60707208241291
 20
21.26841876031763
 30
0.0
 41
1.0
 10
33.61064225274393
 20
21.27171280328392
 30
0.0
 41
1.0
 10
33.61280344846462
 20
21.27396035751315
 30
0.0
 41
1.0
 10
33.61305129183953
 20
21.274252460525
 30
0.0
 41
1.0
 10
33.6131735431244
 20
21.27439654332942
 30
0.0
 41
1.0
  0
SPLINE
  5
392
330
1F
100
AcDbEntity
  8
0
  6
SLD-Solid
 62
     7
370
    25
100
AcDbSpline
210
0.0
220
0.0
230
1.0
 70
    12
 71
     3
 72
    13
 73
     9
 74
     0
 42
0.00000001
 43
0.00000001
 40
0.0
 40
0.0
 40
0.0
 40
0.0
 40
0.2428929592202722
 40
0.4878250543437911
 40
0.6185792845026395
 40
0.7404698712368402
 40
0.8697704297989184
 40
0.9999999999999999
 40
0.9999999999999999
 40
0.9999999999999999
 40
0.9999999999999999
 10
24.73111466862136
 20
21.24239654332944
 30
0.0
 41
1.0
 10
24.72711963369507
 20
21.25224673813592
 30
0.0
 41
1.0
 10
24.71909602470997
 20
21.27202982214214
 30
0.0
 41
1.0
 10
24.70934312023255
 20
21.29394208894833
 30
0.0
 41
1.0
 10
24.70312382853971
 20
21.30779120291863
 30
0.0
 41
1.0
 10
24.69961095579838
 20
21.31591784870476
 30
0.0
 41
1.0
 10
24.69753090251768
 20
21.32134394650641
 30
0.0
 41
1.0
 10
24.69729294685013
 20
21.32204484141612
 30
0.0
 41
1.0
 10
24.6971735431244
 20
21.32239654332942
 30
0.0
 41
1.0
  0
LINE
  5
393
330
1F
100
AcDbEntity
  8
0
  6
SLD-Solid
 62
     7
370
    25
100
AcDbLine
 10
24.69717354312441
 20
21.32239654332942
 30
0.0
 11
33.6131735431244
 21
21.32239654332942
 31
0.0
  0
SPLINE
  5
394
330
1F
100
AcDbEntity
  8
0
  6
SLD-Solid
 62
     7
370
    25
100
AcDbSpline
210
0.0
220
0.0
230
1.0
 70
    12
 71
     3
 72
    13
 73
     9
 74
     0
 42
0.00000001
 43
0.00000001
 40
0.0
 40
0.0
 40
0.0
 40
0.0
 40
0.2428929592198988
 40
0.4878250543430528
 40
0.6185792848035945
 40
0.7404698712372153
 40
0.8697704297991224
 40
0.9999999999999999
 40
0.9999999999999999
 40
0.9999999999999999
 40
0.9999999999999999
 10
33.61317354312443
 20
21.20845541783247
 30
0.0
 41
1.0
 10
33.62302373793088
 20
21.212450452759
 30
0.0
 41
1.0
 10
33.64280682193703
 20
21.22047406174462
 30
0.0
 41
1.0
 10
33.6647190887543
 20
21.23022696622363
 30
0.0
 41
1.0
 10
33.67856820272078
 20
21.23644625792199
 30
0.0
 41
1.0
 10
33.6866948485041
 20
21.23995913065583
 30
0.0
 41
1.0
 10
33.69212094630138
 20
21.24203918393647
 30
0.0
 41
1.0
 10
33.6928218412111
 20
21.24227713960381
 30
0.0
 41
1.0
 10
33.69317354312441
 20
21.24239654332942
 30
0.0
 41
1.0
  0
SPLINE
  5
395
330
1F
100
AcDbEntity
  8
0
  6
SLD-Solid
 62
     7
370
    25
100
AcDbSpline
210
0.0
220
0.0
230
1.0
 70
    12
 71
     3
 72
    13
 73
     9
 74
     0
 42
0.00000001
 43
0.00000001
 40
0.0
 40
0.0
 40
0.0
 40
0.0
 40
0.269188468473594
 40
0.5325961722683692
 40
0.6635360602839104
 40
0.7771881813391641
 40
0.8900957867997187
 40
1.0
 40
1.0
 40
1.0
 40
1.0
 10
33.61317354312441
 20
21.20845541783247
 30
0.0
 41
1.0
 10
33.6171006939164
 20
21.21243616994361
 30
0.0
 41
1.0
 10
33.62487066077861
 20
21.22031218836729
 30
0.0
 41
1.0
 10
33.63352970133997
 20
21.22993179129105
 30
0.0
 41
1.0
 10
33.63919576011455
 20
21.23629508261744
 30
0.0
 41
1.0
 10
33.64248980307951
 20
21.23986525295016
 30
0.0
 41
1.0
 10
33.64473735730818
 20
21.24202644866952
 30
0.0
 41
1.0
 10
33.64502946032
 20
21.24227429204451
 30
0.0
 41
1.0
 10
33.64517354312441
 20
21.24239654332942
 30
0.0
 41
1.0
  0
LINE
  5
396
330
1F
100
AcDbEntity
  8
0
  6
SLD-Solid
 62
     7
370
    25
100
AcDbLine
 10
33.64517354312441
 20
21.24239654332942
 30
0.0
 11
33.69317354312441
 21
21.24239654332942
 31
0.0
  0
LINE
  5
397
330
1F
100
AcDbEntity
  8
0
  6
SLD-Solid
 62
     7
370
    25
100
AcDbLine
 10
33.69317354312441
 20
21.24239654332942
 30
0.0
 11
33.69317354312441
 21
8.547396543329418
 31
0.0
  0
LINE
  5
398
330
1F
100
AcDbEntity
  8
0
  6
SLD-Solid
 62
     7
370
    25
100
AcDbLine
 10
33.69317354312441
 20
8.54739654332942
 30
0.0
 11
33.6131735431244
 21
8.547396543329418
 31
0.0
  0
LINE
  5
399
330
1F
100
AcDbEntity
  8
0
  6
SLD-Solid
 62
     7
370
    25
100
AcDbLine
 10
33.6131735431244
 20
21.20845541783247
 30
0.0
 11
33.6131735431244
 21
8.547396543329418
 31
0.0
  0
LINE
  5
39A
330
1F
100
AcDbEntity
  8
0
  6
SLD-Solid
 62
     7
370
    25
100
AcDbLine
 10
33.1931735431244
 20
8.547396543329425
 30
0.0
 11
33.6131735431244
 21
8.547396543329418
 31
0.0
  0
ARC
  5
39B
330
1F
100
AcDbEntity
  8
0
  6
SLD-Solid
 62
     7
370
    25
100
AcDbCircle
 10
33.1931735431244
 20
8.672396543329421
 30
0.0
 40
0.1249999999999964
100
AcDbArc
 50
180.0000000000021
 51
270.0000000000008
  0
LINE
  5
39C
330
1F
100
AcDbEntity
  8
0
  6
SLD-Solid
 62
     7
370
    25
100
AcDbLine
 10
33.06817354312441
 20
20.66345541783247
 30
0.0
 11
33.06817354312441
 21
8.67239654332942
 31
0.0
  0
LINE
  5
39D
330
1F
100
AcDbEntity
  8
0
  6
SLD-Solid
 62
     7
370
    25
100
AcDbLine
 10
33.61317354312441
 20
21.20845541783247
 30
0.0
 11
33.06817354312441
 21
20.66345541783247
 31
0.0
  0
SPLINE
  5
39E
330
1F
100
AcDbEntity
  8
0
  6
SLD-Solid
 62
     7
370
    25
100
AcDbSpline
210
0.0
220
0.0
230
1.0
 70
    12
 71
     3
 72
    13
 73
     9
 74
     0
 42
0.00000001
 43
0.00000001
 40
0.0
 40
0.0
 40
0.0
 40
0.0
 40
0.2691884684749875
 40
0.5325961722712604
 40
0.6635360599753509
 40
0.777188181337907
 40
0.890095786799087
 40
1.0
 40
1.0
 40
1.0
 40
1.0
 10
24.73111466862136
 20
21.24239654332943
 30
0.0
 41
1.0
 10
24.72713391651045
 20
21.24632369412149
 30
0.0
 41
1.0
 10
24.71925789808721
 20
21.25409366098387
 30
0.0
 41
1.0
 10
24.70963829516527
 20
21.26275270154019
 30
0.0
 41
1.0
 10
24.70327500384355
 20
21.26841876031738
 30
0.0
 41
1.0
 10
24.69970483350475
 20
21.27171280328221
 30
0.0
 41
1.0
 10
24.69754363778451
 20
21.27396035751326
 30
0.0
 41
1.0
 10
24.69729579440938
 20
21.27425246052504
 30
0.0
 41
1.0
 10
24.6971735431244
 20
21.27439654332942
 30
0.0
 41
1.0
  0
LINE
  5
39F
330
1F
100
AcDbEntity
  8
0
  6
SLD-Solid
 62
     7
370
    25
100
AcDbLine
 10
24.69717354312441
 20
21.27439654332942
 30
0.0
 11
24.69717354312441
 21
21.32239654332942
 31
0.0
  0
SPLINE
  5
3A0
330
1F
100
AcDbEntity
  8
0
  6
SLD-Solid
 62
     7
370
    25
100
AcDbSpline
210
0.0
220
0.0
230
1.0
 70
    12
 71
     3
 72
    13
 73
     9
 74
     0
 42
0.00000001
 43
0.00000001
 40
0.0
 40
0.0
 40
0.0
 40
0.0
 40
0.2428929592199912
 40
0.4878250543432113
 40
0.6185792848632963
 40
0.7404698712371491
 40
0.8697704297990809
 40
1.0
 40
1.0
 40
1.0
 40
1.0
 10
24.69717354312442
 20
21.20845541783247
 30
0.0
 41
1.0
 10
24.68732334831796
 20
21.21245045275896
 30
0.0
 41
1.0
 10
24.66754026431178
 20
21.22047406174448
 30
0.0
 41
1.0
 10
24.64562799749251
 20
21.23022696622501
 30
0.0
 41
1.0
 10
24.63177888352637
 20
21.23644625792183
 30
0.0
 41
1.0
 10
24.62365223774392
 20
21.23995913065639
 30
0.0
 41
1.0
 10
24.61822613994743
 20
21.24203918393642
 30
0.0
 41
1.0
 10
24.61752524503772
 20
21.24227713960379
 30
0.0
 41
1.0
 10
24.61717354312441
 20
21.24239654332942
 30
0.0
 41
1.0
  0
LINE
  5
3A1
330
1F
100
AcDbEntity
  8
0
  6
SLD-Solid
 62
     7
370
    25
100
AcDbLine
 10
24.66517354312441
 20
21.24239654332942
 30
0.0
 11
24.61717354312441
 21
21.24239654332942
 31
0.0
  0
SPLINE
  5
3A2
330
1F
100
AcDbEntity
  8
0
  6
SLD-Solid
 62
     7
370
    25
100
AcDbSpline
210
0.0
220
0.0
230
1.0
 70
    12
 71
     3
 72
    13
 73
     9
 74
     0
 42
0.00000001
 43
0.00000001
 40
0.0
 40
0.0
 40
0.0
 40
0.0
 40
0.2691884684738555
 40
0.5325961722688624
 40
0.6635360603381059
 40
0.7771881813389376
 40
0.8900957867996205
 40
1.0
 40
1.0
 40
1.0
 40
1.0
 10
24.69717354312441
 20
21.20845541783247
 30
0.0
 41
1.0
 10
24.69324639233241
 20
21.21243616994357
 30
0.0
 41
1.0
 10
24.68547642547016
 20
21.22031218836717
 30
0.0
 41
1.0
 10
24.67681738490832
 20
21.22993179129219
 30
0.0
 41
1.0
 10
24.67115132613343
 20
21.23629508261746
 30
0.0
 41
1.0
 10
24.66785728316901
 20
21.23986525295067
 30
0.0
 41
1.0
 10
24.66560972894062
 20
21.24202644866949
 30
0.0
 41
1.0
 10
24.66531762592881
 20
21.2422742920445
 30
0.0
 41
1.0
 10
24.66517354312441
 20
21.24239654332942
 30
0.0
 41
1.0
  0
LINE
  5
3A3
330
1F
100
AcDbEntity
  8
0
  6
SLD-Solid
 62
     7
370
    25
100
AcDbLine
 10
25.24217354312441
 20
8.697396543329422
 30
0.0
 11
25.24217354312441
 21
20.66345541783247
 31
0.0
  0
ARC
  5
3A4
330
1F
100
AcDbEntity
  8
0
  6
SLD-Solid
 62
     7
370
    25
100
AcDbCircle
 10
25.11717354312441
 20
8.697396543329422
 30
0.0
 40
0.125
100
AcDbArc
 50
270.0000000000008
 51
0.0
  0
LINE
  5
3A5
330
1F
100
AcDbEntity
  8
0
  6
SLD-Solid
 62
     7
370
    25
100
AcDbLine
 10
24.69717354312441
 20
8.572396543329422
 30
0.0
 11
25.11717354312441
 21
8.572396543329422
 31
0.0
  0
LINE
  5
3A6
330
1F
100
AcDbEntity
  8
0
  6
SLD-Solid
 62
     7
370
    25
100
AcDbLine
 10
24.69717354312441
 20
8.572396543329422
 30
0.0
 11
24.69717354312441
 21
21.20845541783247
 31
0.0
  0
LINE
  5
3A7
330
1F
100
AcDbEntity
  8
0
  6
SLD-Solid
 62
     7
370
    25
100
AcDbLine
 10
25.24217354312441
 20
20.66345541783247
 30
0.0
 11
24.69717354312441
 21
21.20845541783247
 31
0.0
  0
LINE
  5
3A8
330
1F
100
AcDbEntity
  8
0
  6
SLD-Solid
 62
     7
370
    25
100
AcDbLine
 10
24.69717354312441
 20
8.572396543329422
 30
0.0
 11
24.61717354312441
 21
8.572396543329422
 31
0.0
  0
LINE
  5
3A9
330
1F
100
AcDbEntity
  8
0
  6
SLD-Solid
 62
     7
370
    25
100
AcDbLine
 10
24.61717354312441
 20
21.24239654332942
 30
0.0
 11
24.61717354312441
 21
8.572396543329422
 31
0.0
  0
LINE
  5
3AA
330
1F
100
AcDbEntity
  8
0
  6
SLD-Solid
 62
     7
370
    25
100
AcDbLine
 10
24.66517354312441
 20
8.572196543329415
 30
0.0
 11
24.61717354312441
 21
8.572196543329419
 31
0.0
  0
LINE
  5
3AB
330
1F
100
AcDbEntity
  8
0
  6
SLD-Solid
 62
     7
370
    25
100
AcDbLine
 10
24.61717354312441
 20
8.547196543329413
 30
0.0
 11
24.66517354312441
 21
8.547196543329413
 31
0.0
  0
LINE
  5
3AC
330
1F
100
AcDbEntity
  8
0
  6
SLD-Solid
 62
     7
370
    25
100
AcDbLine
 10
24.61717354312441
 20
8.572196543329419
 30
0.0
 11
24.61717354312441
 21
8.547196543329413
 31
0.0
  0
LINE
  5
3AD
330
1F
100
AcDbEntity
  8
0
  6
SLD-Solid
 62
     7
370
    25
100
AcDbLine
 10
24.66517354312441
 20
8.547196543329413
 30
0.0
 11
24.66517354312441
 21
8.572196543329415
 31
0.0
  0
ARC
  5
3AE
330
1F
100
AcDbEntity
  8
0
  6
SLD-Solid
 62
     7
370
    25
100
AcDbCircle
 10
33.61317354312441
 20
21.24239654332942
 30
0.0
 40
0.0320000000000036
100
AcDbArc
 50
0.0
 51
90.0
  0
ARC
  5
3AF
330
1F
100
AcDbEntity
  8
0
  6
SLD-Solid
 62
     7
370
    25
100
AcDbCircle
 10
33.61317354312441
 20
21.24239654332942
 30
0.0
 40
0.0800000000000018
100
AcDbArc
 50
0.0
 51
90.00000000000509
  0
ARC
  5
3B0
330
1F
100
AcDbEntity
  8
0
  6
SLD-Solid
 62
     7
370
    25
100
AcDbCircle
 10
24.69717354312441
 20
21.24239654332942
 30
0.0
 40
0.0800000000000018
100
AcDbArc
 50
90.0
 51
179.9999999999974
  0
ARC
  5
3B1
330
1F
100
AcDbEntity
  8
0
  6
SLD-Solid
 62
     7
370
    25
100
AcDbCircle
 10
24.69717354312441
 20
21.24239654332942
 30
0.0
 40
0.0320000000000036
100
AcDbArc
 50
90.0
 51
179.9999999999936
  0
LINE
  5
3B2
330
1F
100
AcDbEntity
  8
0
  6
SLD-Solid
 62
     7
370
    25
100
AcDbLine
 10
33.64517354312441
 20
8.479596543329418
 30
0.0
 11
33.69317354312441
 21
8.479596543329418
 31
0.0
  0
LINE
  5
3B3
330
1F
100
AcDbEntity
  8
0
  6
SLD-Solid
 62
     7
370
    25
100
AcDbLine
 10
33.64517354312441
 20
8.479596543329418
 30
0.0
 11
33.64517354312441
 21
8.547396543329413
 31
0.0
  0
LINE
  5
3B4
330
1F
100
AcDbEntity
  8
0
  6
SLD-Solid
 62
     7
370
    25
100
AcDbLine
 10
33.69317354312441
 20
8.479596543329418
 30
0.0
 11
33.69317354312441
 21
8.547396543329413
 31
0.0
  0
LINE
  5
3B5
330
1F
100
AcDbEntity
  8
0
  6
SLD-Solid
 62
     7
370
    25
100
AcDbLine
 10
24.65517354312439
 20
8.479596543329418
 30
0.0
 11
24.61717354312441
 21
8.479596543329418
 31
0.0
  0
LINE
  5
3B6
330
1F
100
AcDbEntity
  8
0
  6
SLD-Solid
 62
     7
370
    25
100
AcDbLine
 10
24.61717354312441
 20
8.547196543329417
 30
0.0
 11
24.61717354312441
 21
8.479596543329418
 31
0.0
  0
LINE
  5
3B7
330
1F
100
AcDbEntity
  8
0
  6
SLD-Solid
 62
     7
370
    25
100
AcDbLine
 10
24.61717354312441
 20
8.572396543329424
 30
0.0
 11
24.61717354312441
 21
8.572196543329419
 31
0.0
  0
LINE
  5
3B8
330
1F
100
AcDbEntity
  8
0
  6
SLD-Solid
 62
     7
370
    25
100
AcDbLine
 10
33.64517354312441
 20
8.47939654332942
 30
0.0
 11
33.69317354312441
 21
8.47939654332942
 31
0.0
  0
ARC
  5
3B9
330
1F
100
AcDbEntity
  8
0
  6
SLD-Solid
 62
     7
370
    25
100
AcDbCircle
 10
33.61317354312441
 20
8.479396543329417
 30
0.0
 40
0.0799999999999983
100
AcDbArc
 50
269.9999999999957
 51
0.0000000000027175
  0
LINE
  5
3BA
330
1F
100
AcDbEntity
  8
0
  6
SLD-Solid
 62
     7
370
    25
100
AcDbLine
 10
33.6131735431244
 20
8.447396543329418
 30
0.0
 11
33.6131735431244
 21
8.39939654332942
 31
0.0
  0
ARC
  5
3BB
330
1F
100
AcDbEntity
  8
0
  6
SLD-Solid
 62
     7
370
    25
100
AcDbCircle
 10
33.61317354312441
 20
8.479396543329417
 30
0.0
 40
0.0319999999999983
100
AcDbArc
 50
269.9999999999881
 51
0.0000000000067937
  0
LINE
  5
3BC
330
1F
100
AcDbEntity
  8
0
  6
SLD-Solid
 62
     7
370
    25
100
AcDbLine
 10
33.60517354312439
 20
8.447396543329418
 30
0.0
 11
33.6131735431244
 21
8.447396543329418
 31
0.0
  0
LINE
  5
3BD
330
1F
100
AcDbEntity
  8
0
  6
SLD-Solid
 62
     7
370
    25
100
AcDbLine
 10
33.14517354312441
 20
8.447396543329418
 30
0.0
 11
33.14517354312441
 21
8.399396543329415
 31
0.0
  0
LINE
  5
3BE
330
1F
100
AcDbEntity
  8
0
  6
SLD-Solid
 62
     7
370
    25
100
AcDbLine
 10
33.6131735431244
 20
8.39939654332942
 30
0.0
 11
33.14517354312441
 21
8.399396543329415
 31
0.0
  0
LINE
  5
3BF
330
1F
100
AcDbEntity
  8
0
  6
SLD-Solid
 62
     7
370
    25
100
AcDbLine
 10
33.64517354312441
 20
8.479596543329418
 30
0.0
 11
33.64517354312441
 21
8.47939654332942
 31
0.0
  0
LINE
  5
3C0
330
1F
100
AcDbEntity
  8
0
  6
SLD-Solid
 62
     7
370
    25
100
AcDbLine
 10
33.69317354312441
 20
8.479596543329418
 30
0.0
 11
33.69317354312441
 21
8.47939654332942
 31
0.0
  0
LINE
  5
3C1
330
1F
100
AcDbEntity
  8
0
  6
SLD-Solid
 62
     7
370
    25
100
AcDbLine
 10
33.02017354312441
 20
8.447396543329418
 30
0.0
 11
33.02017354312441
 21
8.399396543329416
 31
0.0
  0
LINE
  5
3C2
330
1F
100
AcDbEntity
  8
0
  6
SLD-Solid
 62
     7
370
    25
100
AcDbLine
 10
33.02017354312441
 20
8.399396543329416
 30
0.0
 11
33.14517354312441
 21
8.399396543329415
 31
0.0
  0
LINE
  5
3C3
330
1F
100
AcDbEntity
  8
0
  6
SLD-Solid
 62
     7
370
    25
100
AcDbLine
 10
25.29017354312441
 20
8.447396543329418
 30
0.0
 11
25.29017354312441
 21
8.399396543329416
 31
0.0
  0
LINE
  5
3C4
330
1F
100
AcDbEntity
  8
0
  6
SLD-Solid
 62
     7
370
    25
100
AcDbLine
 10
25.16517354312441
 20
8.44739654332942
 30
0.0
 11
25.16517354312441
 21
8.399396543329416
 31
0.0
  0
LINE
  5
3C5
330
1F
100
AcDbEntity
  8
0
  6
SLD-Solid
 62
     7
370
    25
100
AcDbLine
 10
25.16517354312441
 20
8.399396543329416
 30
0.0
 11
25.29017354312441
 21
8.399396543329416
 31
0.0
  0
LINE
  5
3C6
330
1F
100
AcDbEntity
  8
0
  6
SLD-Solid
 62
     7
370
    25
100
AcDbLine
 10
24.69717354312441
 20
8.44739654332942
 30
0.0
 11
24.69717354312441
 21
8.399396543329416
 31
0.0
  0
LINE
  5
3C7
330
1F
100
AcDbEntity
  8
0
  6
SLD-Solid
 62
     7
370
    25
100
AcDbLine
 10
25.16517354312441
 20
8.399396543329416
 30
0.0
 11
24.69717354312441
 21
8.399396543329416
 31
0.0
  0
ARC
  5
3C8
330
1F
100
AcDbEntity
  8
0
  6
SLD-Solid
 62
     7
370
    25
100
AcDbCircle
 10
24.69717354312441
 20
8.47939654332942
 30
0.0
 40
0.0800000000000036
100
AcDbArc
 50
180.0
 51
270.0000000000008
  0
LINE
  5
3C9
330
1F
100
AcDbEntity
  8
0
  6
SLD-Solid
 62
     7
370
    25
100
AcDbLine
 10
24.61717354312441
 20
8.47939654332942
 30
0.0
 11
24.61717354312441
 21
8.479596543329418
 31
0.0
  0
LINE
  5
3CA
330
1F
100
AcDbEntity
  8
0
  6
SLD-Solid
 62
     7
370
    25
100
AcDbLine
 10
33.58817354312441
 20
21.251089274221
 30
0.0
 11
33.58817354312441
 21
21.22539654332942
 31
0.0
  0
LINE
  5
3CB
330
1F
100
AcDbEntity
  8
0
  6
SLD-Solid
 62
     7
370
    25
100
AcDbLine
 10
33.58817354312441
 20
21.22539654332942
 30
0.0
 11
33.56223241762743
 21
21.22539654332942
 31
0.0
  0
LINE
  5
3CC
330
1F
100
AcDbEntity
  8
0
  6
SLD-Solid
 62
     7
370
    25
100
AcDbLine
 10
33.6302595890833
 20
21.22639654332943
 30
0.0
 11
33.59617354312442
 21
21.22639654332943
 31
0.0
  0
LINE
  5
3CD
330
1F
100
AcDbEntity
  8
0
  6
SLD-Solid
 62
     7
370
    25
100
AcDbLine
 10
33.59617354312442
 20
21.21642346114191
 30
0.0
 11
33.59617354312442
 21
21.22639654332943
 31
0.0
  0
LINE
  5
3CE
330
1F
100
AcDbEntity
  8
0
  6
SLD-Solid
 62
     7
370
    25
100
AcDbLine
 10
24.68008749716547
 20
21.22639654332942
 30
0.0
 11
24.71417354312441
 21
21.22639654332942
 31
0.0
  0
LINE
  5
3CF
330
1F
100
AcDbEntity
  8
0
  6
SLD-Solid
 62
     7
370
    25
100
AcDbLine
 10
24.71417354312441
 20
21.22639654332942
 30
0.0
 11
24.71417354312441
 21
21.21642346114191
 31
0.0
  0
LINE
  5
3D0
330
1F
100
AcDbEntity
  8
0
  6
SLD-Solid
 62
     7
370
    25
100
AcDbLine
 10
24.72217354312441
 20
21.25108927422096
 30
0.0
 11
24.72217354312441
 21
21.22539654332942
 31
0.0
  0
LINE
  5
3D1
330
1F
100
AcDbEntity
  8
0
  6
SLD-Solid
 62
     7
370
    25
100
AcDbLine
 10
24.74811466862133
 20
21.22539654332942
 30
0.0
 11
24.72217354312441
 21
21.22539654332942
 31
0.0
  0
LINE
  5
3D2
330
1F
100
AcDbEntity
  8
0
  6
SLD-Solid
 62
     8
370
    25
100
AcDbLine
 10
25.24217354312441
 20
14.61427911847979
 30
0.0
 11
33.06817354312441
 21
14.61427911847979
 31
0.0
  0
LINE
  5
3D3
330
1F
100
AcDbEntity
  8
0
  6
SLD-Solid
 62
     8
370
    25
100
AcDbLine
 10
33.06817354312441
 20
14.85555434489775
 30
0.0
 11
25.24217354312441
 21
14.85555434489775
 31
0.0
  0
LINE
  5
3D4
330
1F
100
AcDbEntity
  8
0
  6
SLD-Solid
 62
     8
370
    25
100
AcDbLine
 10
25.24217354312441
 20
18.34727911847979
 30
0.0
 11
33.06817354312441
 21
18.34727911847979
 31
0.0
  0
LINE
  5
3D5
330
1F
100
AcDbEntity
  8
0
  6
SLD-Solid
 62
     8
370
    25
100
AcDbLine
 10
33.06817354312441
 20
18.58855434489776
 30
0.0
 11
25.24217354312441
 21
18.58855434489776
 31
0.0
  0
LINE
  5
3D6
330
1F
100
AcDbEntity
  8
0
  6
SLD-Solid
 62
     8
370
    25
100
AcDbLine
 10
33.06817354312441
 20
14.66236237960047
 30
0.0
 11
25.24217354312441
 21
14.66236237960048
 31
0.0
  0
LINE
  5
3D7
330
1F
100
AcDbEntity
  8
0
  6
SLD-Solid
 62
     8
370
    25
100
AcDbLine
 10
33.06817354312441
 20
18.39536237960048
 30
0.0
 11
25.24217354312441
 21
18.39536237960048
 31
0.0
  0
LINE
  5
3D8
330
1F
100
AcDbEntity
  8
0
  6
SLD-Solid
 62
     8
370
    25
100
AcDbLine
 10
25.24217354312441
 20
14.80747108377707
 30
0.0
 11
33.06817354312441
 21
14.80747108377707
 31
0.0
  0
LINE
  5
3D9
330
1F
100
AcDbEntity
  8
0
  6
SLD-Solid
 62
     8
370
    25
100
AcDbLine
 10
25.24217354312441
 20
18.54047108377707
 30
0.0
 11
33.06817354312441
 21
18.54047108377707
 31
0.0
  0
LINE
  5
3DA
330
1F
100
AcDbEntity
  8
0
  6
SLD-Solid
 62
     8
370
    25
100
AcDbLine
 10
33.06817354312441
 20
18.48205886731251
 30
0.0
 11
25.24217354312441
 21
18.4820588673125
 31
0.0
  0
LINE
  5
3DB
330
1F
100
AcDbEntity
  8
0
  6
SLD-Solid
 62
     8
370
    25
100
AcDbLine
 10
33.06817354312441
 20
14.7490588673125
 30
0.0
 11
25.24217354312441
 21
14.7490588673125
 31
0.0
  0
LINE
  5
3DC
330
1F
100
AcDbEntity
  8
0
  6
SLD-Solid
 62
     8
370
    25
100
AcDbLine
 10
25.24217354312441
 20
14.72077459606504
 30
0.0
 11
33.06817354312441
 21
14.72077459606504
 31
0.0
  0
LINE
  5
3DD
330
1F
100
AcDbEntity
  8
0
  6
SLD-Solid
 62
     8
370
    25
100
AcDbLine
 10
25.24217354312441
 20
18.45377459606504
 30
0.0
 11
33.06817354312441
 21
18.45377459606505
 31
0.0
  0
LINE
  5
3DE
330
1F
100
AcDbEntity
  8
0
  6
SLD-Solid
 62
     8
370
    25
100
AcDbLine
 10
24.65517354312439
 20
8.479396543329418
 30
0.0
 11
24.61717354312441
 21
8.47939654332942
 31
0.0
  0
DIMENSION
  5
3DF
330
1F
100
AcDbEntity
  8
DIMS
100
AcDbDimension
  2
_D_4
 10
31.63017354312435
 20
7.922016544227557
 30
0.0
 11
29.17934926823073
 21
7.922016544227556
 31
0.0
 70
    32
  1
<>
 71
     2
 42
-1.0
  3
SLDDIMSTYLE0
100
AcDbAlignedDimension
 13
26.63017354312435
 23
16.41041000223564
 33
0.0
 14
31.63017354312435
 24
16.41041000223564
 34
0.0
100
AcDbRotatedDimension
  0
DIMENSION
  5
3EA
330
1F
100
AcDbEntity
  8
DIMS
100
AcDbDimension
  2
_D_5
 10
35.60372811352507
 20
10.19739654332937
 30
0.0
 11
35.60372811352507
 21
13.74389081663917
 31
0.0
 70
    32
  1
<>
 71
     2
 42
-1.0
  3
SLDDIMSTYLE1
100
AcDbAlignedDimension
 13
26.63017354312435
 23
16.41041000223564
 33
0.0
 14
26.63017354312435
 24
10.19739654332937
 34
0.0
 50
90.0000000000002
100
AcDbRotatedDimension
  0
DIMENSION
  5
3F9
330
1F
100
AcDbEntity
  8
DIMS
100
AcDbDimension
  2
_D_6
 10
26.66252592376217
 20
16.2896692739495
 30
0.0
 11
23.42732157034268
 21
22.88828949816304
 31
0.0
 70
    35
  1
<>
 71
     1
 42
-1.0
  3
SLDDIMSTYLE3
100
AcDbDiametricDimension
 15
26.59782116248653
 25
16.53115073052177
 35
0.0
 40
0.0
  0
DIMENSION
  5
406
330
1F
100
AcDbEntity
  8
DIMS
100
AcDbDimension
  2
_D_7
 10
35.59272154936701
 20
21.32239654332943
 30
0.0
 11
35.59272154936701
 21
18.3926847619638
 31
0.0
 70
    32
  1
<>
 71
     2
 42
-1.0
  3
SLDDIMSTYLE1
100
AcDbAlignedDimension
 13
31.63017354312435
 23
16.41041000223564
 33
0.0
 14
33.61317354312435
 24
21.32239654332943
 34
0.0
 50
90.0000000000002
100
AcDbRotatedDimension
  0
MTEXT
  5
415
330
1F
100
AcDbEntity
  8
NOTES
100
AcDbMText
 10
24.72524223314785
 20
7.183907390043194
 30
0.0
 40
0.7500000000000001
 41
0.0
 71
     1
 72
     1
  1
Back view
  7
SLDTEXTSTYLE1
 73
     1
 44
1.0
  0
MTEXT
  5
416
330
1F
100
AcDbEntity
  8
NOTES
100
AcDbMText
 10
20.53267862883472
 20
25.32778939928507
 30
0.0
 40
0.7500000000000001
 41
0.0
 71
     1
 72
     1
  1
mounting hole (4)
  7
SLDTEXTSTYLE1
 73
     1
 44
1.0
  0
LEADER
  5
417
330
1F
100
AcDbEntity
  8
NOTES
100
AcDbLeader
  3
SLDDIMSTYLE2
 76
     3
 10
31.58389948346254
 20
16.52652938650207
 30
0.0
 10
29.64308725122319
 20
24.96448011801636
 30
0.0
 10
29.14308725122319
 20
24.96448011801636
 30
0.0
1001
ACAD
1000
DSTYLE
1002
{
1070
   176
1070
     0
1070
    77
1070
     0
1070
    40
1040
1.0
1070
   147
1040
0.0
1002
}
  0
SPLINE
  5
418
330
1F
100
AcDbEntity
  8
0
  6
SLD-Solid
 62
     7
370
    25
100
AcDbSpline
210
0.0
220
0.0
230
1.0
 70
    12
 71
     3
 72
    14
 73
    10
 74
     0
 42
0.00000001
 43
0.00000001
 40
0.0
 40
0.0
 40
0.0
 40
0.0
 40
0.1591050011342551
 40
0.3704689054814589
 40
0.5442408581645243
 40
0.6925064485220056
 40
0.8152875973361344
 40
0.9132821352356744
 40
1.0
 40
1.0
 40
1.0
 40
1.0
 10
9.337990925768317
 20
26.0522913090909
 30
0.0
 41
1.0
 10
9.338012515228355
 20
26.04824157020581
 30
0.0
 41
1.0
 10
9.338062785324034
 20
26.03881193366673
 30
0.0
 41
1.0
 10
9.344215907651806
 20
26.02604904562069
 30
0.0
 41
1.0
 10
9.352819222547474
 20
26.01574008878125
 30
0.0
 41
1.0
 10
9.361790508038482
 20
26.00926782550489
 30
0.0
 41
1.0
 10
9.369494373160025
 20
26.00573844781275
 30
0.0
 41
1.0
 10
9.374878416334383
 20
26.00409903429821
 30
0.0
 41
1.0
 10
9.37693806760312
 20
26.00366859544924
 30
0.0
 41
1.0
 10
9.377905022488706
 20
26.00346651514844
 30
0.0
 41
1.0
  0
SPLINE
  5
419
330
1F
100
AcDbEntity
  8
0
  6
SLD-Solid
 62
     7
370
    25
100
AcDbSpline
210
0.0
220
0.0
230
1.0
 70
    12
 71
     3
 72
    14
 73
    10
 74
     0
 42
0.00000001
 43
0.00000001
 40
0.0
 40
0.0
 40
0.0
 40
0.0
 40
0.0160215064161938
 40
0.1370012597302149
 40
0.2835857937056505
 40
0.4814916200169264
 40
0.7058029893426019
 40
0.9514803002293316
 40
1.0
 40
1.0
 40
1.0
 40
1.0
 10
10.1983713824949
 20
26.00386485180377
 30
0.0
 41
1.0
 10
10.19852758521928
 20
26.00389562210242
 30
0.0
 41
1.0
 10
10.19986328795894
 20
26.004158741535
 30
0.0
 41
1.0
 10
10.2049374638626
 20
26.00565585431273
 30
0.0
 41
1.0
 10
10.2142807588187
 20
26.0100354320429
 30
0.0
 41
1.0
 10
10.22520969773452
 20
26.01884083954639
 30
0.0
 41
1.0
 10
10.23379452170853
 20
26.03264349547813
 30
0.0
 41
1.0
 10
10.23810911580101
 20
26.0453667269792
 30
0.0
 41
1.0
 10
10.23687376888942
 20
26.05246966575777
 30
0.0
 41
1.0
 10
10.2366700324166
 20
26.05364110001624
 30
0.0
 41
1.0
  0
LINE
  5
41A
330
1F
100
AcDbEntity
  8
0
  6
SLD-Solid
 62
     7
370
    25
100
AcDbLine
 10
9.337248425004523
 20
26.23231143404141
 30
0.0
 11
9.337248425004523
 21
26.05271988411069
 31
0.0
  0
LINE
  5
41B
330
1F
100
AcDbEntity
  8
0
  6
SLD-Solid
 62
     7
370
    25
100
AcDbLine
 10
10.23724842500452
 20
26.05271988411069
 30
0.0
 11
10.23724842500452
 21
26.23231143404141
 31
0.0
  0
LINE
  5
41C
330
1F
100
AcDbEntity
  8
0
  6
SLD-Solid
 62
     7
370
    25
100
AcDbLine
 10
10.10224842500452
 20
26.00272361562766
 30
0.0
 11
10.10224842500452
 21
26.00370097569448
 31
0.0
  0
LINE
  5
41D
330
1F
100
AcDbEntity
  8
0
  6
SLD-Solid
 62
     7
370
    25
100
AcDbLine
 10
9.472248425004523
 20
26.00370097569448
 30
0.0
 11
9.472248425004523
 21
26.00272361562766
 31
0.0
  0
LINE
  5
41E
330
1F
100
AcDbEntity
  8
0
  6
SLD-Solid
 62
     7
370
    25
100
AcDbLine
 10
13.48613539002553
 20
31.21231143404141
 30
0.0
 11
12.70672918711808
 21
31.66230181509809
 31
0.0
  0
LINE
  5
41F
330
1F
100
AcDbEntity
  8
0
  6
SLD-Solid
 62
     7
370
    25
100
AcDbLine
 10
11.94976766289101
 20
31.66230181509809
 30
0.0
 11
11.17036145998356
 21
31.21231143404141
 31
0.0
  0
LINE
  5
420
330
1F
100
AcDbEntity
  8
0
  6
SLD-Solid
 62
     7
370
    25
100
AcDbLine
 10
8.486135390025531
 20
31.21231143404141
 30
0.0
 11
7.706729187118077
 21
31.6623018150981
 31
0.0
  0
LINE
  5
421
330
1F
100
AcDbEntity
  8
0
  6
SLD-Solid
 62
     7
370
    25
100
AcDbLine
 10
6.949767662891011
 20
31.6623018150981
 30
0.0
 11
6.170361459983552
 21
31.21231143404141
 31
0.0
  0
ARC
  5
422
330
1F
100
AcDbEntity
  8
0
  6
SLD-Solid
 62
     7
370
    25
100
AcDbCircle
 10
7.699229187118077
 20
31.64931143404133
 30
0.0
 40
0.0150000000000061
100
AcDbArc
 50
60.00000000001612
 51
90.0
  0
ARC
  5
423
330
1F
100
AcDbEntity
  8
0
  6
SLD-Solid
 62
     7
370
    25
100
AcDbCircle
 10
6.95726766289101
 20
31.64931143404133
 30
0.0
 40
0.0149999999999999
100
AcDbArc
 50
90.0
 51
119.9999999999975
  0
ARC
  5
424
330
1F
100
AcDbEntity
  8
0
  6
SLD-Solid
 62
     7
370
    25
100
AcDbCircle
 10
12.69922918711808
 20
31.64931143404133
 30
0.0
 40
0.0150000000000006
100
AcDbArc
 50
60.00000000000548
 51
90.0
  0
ARC
  5
425
330
1F
100
AcDbEntity
  8
0
  6
SLD-Solid
 62
     7
370
    25
100
AcDbCircle
 10
11.95726766289101
 20
31.64931143404133
 30
0.0
 40
0.0150000000000006
100
AcDbArc
 50
90.0
 51
120.0000000000004
  0
LINE
  5
426
330
1F
100
AcDbEntity
  8
0
  6
SLD-Solid
 62
     7
370
    25
100
AcDbLine
 10
5.370248425004529
 20
26.23231143404141
 30
0.0
 11
14.23624842500453
 21
26.23231143404141
 31
0.0
  0
ARC
  5
427
330
1F
100
AcDbEntity
  8
0
  6
SLD-Solid
 62
     7
370
    25
100
AcDbCircle
 10
9.880273843219353
 20
35.23740578367404
 30
0.0
 40
9.240037253706994
100
AcDbArc
 50
269.4231566661995
 51
271.899892758745
  0
ARC
  5
428
330
1F
100
AcDbEntity
  8
0
  6
SLD-Solid
 62
     7
370
    25
100
AcDbCircle
 10
9.787472633299057
 20
12.90023064301517
 30
0.0
 40
13.10874792064383
100
AcDbArc
 50
88.25337819116058
 51
91.7487538810204
  0
ARC
  5
429
330
1F
100
AcDbEntity
  8
0
  6
SLD-Solid
 62
     7
370
    25
100
AcDbCircle
 10
9.694704731997964
 20
35.33826718275414
 30
0.0
 40
9.340888811269227
100
AcDbArc
 50
268.1187223788604
 51
270.5676600893135
  0
LWPOLYLINE
  5
42A
330
1F
100
AcDbEntity
  8
0
  6
SLD-Solid
 62
     7
370
    25
100
AcDbPolyline
 90
       31
 70
   128
 43
0.0
 10
9.787248425004524
 20
25.99875309035622
 10
9.854819724520295
 20
25.99883985585976
 10
9.919437834004158
 20
25.99909636030149
 10
9.97827863199958
 20
25.99951139320648
 10
10.02877049328468
 20
26.00006681564522
 10
10.06870668123447
 20
26.00073835299195
 10
10.09634179280045
 20
26.0014966558422
 10
10.11046804099921
 20
26.00230858272267
 10
10.11046804099921
 20
26.00313864853265
 10
10.09634179280045
 20
26.00395057541313
 10
10.06870668123447
 20
26.00470887826339
 10
10.02877049328468
 20
26.00538041561011
 10
9.978278631999576
 20
26.00593583804886
 10
9.919437834004158
 20
26.00635087095384
 10
9.854819724520295
 20
26.00660737539558
 10
9.78724842500452
 20
26.00669414089911
 10
9.719677125488749
 20
26.00660737539557
 10
9.655059016004886
 20
26.00635087095384
 10
9.596218218009467
 20
26.00593583804886
 10
9.545726356724368
 20
26.00538041561011
 10
9.50579016877458
 20
26.00470887826338
 10
9.478155057208598
 20
26.00395057541313
 10
9.464028809009834
 20
26.00313864853265
 10
9.464028809009834
 20
26.00230858272268
 10
9.4781550572086
 20
26.0014966558422
 10
9.505790168774581
 20
26.00073835299195
 10
9.545726356724373
 20
26.00006681564523
 10
9.596218218009472
 20
25.99951139320648
 10
9.655059016004891
 20
25.99909636030149
 10
9.719677125488756
 20
25.99883985585976
 10
9.787248425004524
 20
25.99875309035622
  0
LWPOLYLINE
  5
42B
330
1F
100
AcDbEntity
  8
0
  6
SLD-Solid
 62
     7
370
    25
100
AcDbPolyline
 90
       30
 70
   128
 43
0.0
 10
9.787248425004524
 20
25.99887526036458
 10
9.854964113670997
 20
25.99896523277206
 10
9.919513491996007
 20
25.99923094298472
 10
9.97787830279056
 20
25.99965996668835
 10
10.02732947236973
 20
26.00023224321137
 10
10.06555471900502
 20
26.00092101353962
 10
10.09076667264808
 20
26.00169407153806
 10
10.10178645036763
 20
26.00251526987388
 10
10.0980987796051
 20
26.00334621022557
 10
10.07987609174681
 20
26.00414803874584
 10
10.04797045942394
 20
26.00488326282423
 10
10.00387375454335
 20
26.00551750419999
 10
9.949647890015283
 20
26.00602110645128
 10
9.887828406997356
 20
26.00637052169657
 10
9.821305915808063
 20
26.00654941166732
 10
9.75319093420098
 20
26.00654941166732
 10
9.686668443011687
 20
26.00637052169657
 10
9.62484895999376
 20
26.00602110645128
 10
9.570623095465693
 20
26.00551750419999
 10
9.526526390585103
 20
26.00488326282423
 10
9.494620758262233
 20
26.00414803874584
 10
9.476398070403942
 20
26.00334621022557
 10
9.47271039964142
 20
26.00251526987388
 10
9.48373017736097
 20
26.00169407153806
 10
9.508942131004028
 20
26.00092101353962
 10
9.54716737763932
 20
26.00023224321137
 10
9.59661854721849
 20
25.99965996668835
 10
9.654983358013045
 20
25.99923094298472
 10
9.719532736338055
 20
25.99896523277206
 10
9.787248425004524
 20
25.99887526036458
  0
LINE
  5
42C
330
1F
100
AcDbEntity
  8
0
  6
SLD-Solid
 62
     7
370
    25
100
AcDbLine
 10
9.742248425004524
 20
26.00371990260771
 30
0.0
 11
9.742248425004524
 21
25.99913852729452
 31
0.0
  0
LINE
  5
42D
330
1F
100
AcDbEntity
  8
0
  6
SLD-Solid
 62
     7
370
    25
100
AcDbLine
 10
9.742248425004524
 20
25.99913852729452
 30
0.0
 11
9.832248425004524
 21
25.99913852729452
 31
0.0
  0
LINE
  5
42E
330
1F
100
AcDbEntity
  8
0
  6
SLD-Solid
 62
     7
370
    25
100
AcDbLine
 10
9.832248425004524
 20
25.99913852729452
 30
0.0
 11
9.832248425004524
 21
26.00371990260771
 31
0.0
  0
LINE
  5
42F
330
1F
100
AcDbEntity
  8
0
  6
SLD-Solid
 62
     7
370
    25
100
AcDbLine
 10
9.832248425004524
 20
26.00371990260771
 30
0.0
 11
9.742248425004524
 21
26.00371990260771
 31
0.0
  0
LINE
  5
430
330
1F
100
AcDbEntity
  8
0
  6
SLD-Solid
 62
     7
370
    25
100
AcDbLine
 10
14.26935158660051
 20
31.16431143404131
 30
0.0
 11
14.25863133258627
 21
31.16431143404131
 31
0.0
  0
SPLINE
  5
431
330
1F
100
AcDbEntity
  8
0
  6
SLD-Solid
 62
     7
370
    25
100
AcDbSpline
210
0.0
220
0.0
230
1.0
 70
    28
 71
     3
 72
    23
 73
    19
 74
     0
 42
0.00000001
 43
0.00000001
 40
0.0
 40
0.0
 40
0.0
 40
0.0
 40
0.0582580162109012
 40
0.1200056648645977
 40
0.1843204068813883
 40
0.2500000000000004
 40
0.3156795931186113
 40
0.3799943351354035
 40
0.4417419837890981
 40
0.5
 40
0.5582580162109019
 40
0.620005664864596
 40
0.6843204068813891
 40
0.7499999999999997
 40
0.8156795931186112
 40
0.879994335135402
 40
0.9417419837890971
 40
1.0
 40
1.0
 40
1.0
 40
1.0
 10
7.699229187118076
 20
31.66431143404133
 30
0.0
 41
1.0
 10
7.69802563160479
 20
31.66431143404133
 30
0.0
 41
1.0
 10
7.695546428072515
 20
31.66431143404133
 30
0.0
 41
1.0
 10
7.674906330055012
 20
31.66431143404133
 30
0.0
 41
1.0
 10
7.640681195801167
 20
31.66431143404133
 30
0.0
 41
1.0
 10
7.592427392752549
 20
31.66431143404133
 30
0.0
 41
1.0
 10
7.533114993841878
 20
31.66431143404133
 30
0.0
 41
1.0
 10
7.466624565470037
 20
31.66431143404133
 30
0.0
 41
1.0
 10
7.397484109211044
 20
31.66431143404133
 30
0.0
 41
1.0
 10
7.328248425004544
 20
31.66431143404133
 30
0.0
 41
1.0
 10
7.259012740798044
 20
31.66431143404133
 30
0.0
 41
1.0
 10
7.189872284539048
 20
31.66431143404133
 30
0.0
 41
1.0
 10
7.123381856167211
 20
31.66431143404133
 30
0.0
 41
1.0
 10
7.064069457256538
 20
31.66431143404133
 30
0.0
 41
1.0
 10
7.01581565420792
 20
31.66431143404133
 30
0.0
 41
1.0
 10
6.981590519954076
 20
31.66431143404133
 30
0.0
 41
1.0
 10
6.960950421936569
 20
31.66431143404133
 30
0.0
 41
1.0
 10
6.958471218404295
 20
31.66431143404133
 30
0.0
 41
1.0
 10
6.95726766289101
 20
31.66431143404133
 30
0.0
 41
1.0
  0
LINE
  5
432
330
1F
100
AcDbEntity
  8
0
  6
SLD-Solid
 62
     7
370
    25
100
AcDbLine
 10
12.69922918711808
 20
31.66431143404133
 30
0.0
 11
11.95726766289101
 21
31.66431143404133
 31
0.0
  0
LINE
  5
433
330
1F
100
AcDbEntity
  8
0
  6
SLD-Solid
 62
     7
370
    25
100
AcDbLine
 10
14.26124842500453
 20
31.13231143404142
 30
0.0
 11
5.345248425004536
 21
31.13231143404142
 31
0.0
  0
SPLINE
  5
434
330
1F
100
AcDbEntity
  8
0
  6
SLD-Solid
 62
     7
370
    25
100
AcDbSpline
210
0.0
220
0.0
230
1.0
 70
    12
 71
     3
 72
    13
 73
     9
 74
     0
 42
0.00000001
 43
0.00000001
 40
0.0
 40
0.0
 40
0.0
 40
0.0
 40
0.2428929592196754
 40
0.4878250543426467
 40
0.6185792846745276
 40
0.7404698712374749
 40
0.8697704297992482
 40
0.9999999999999999
 40
0.9999999999999999
 40
0.9999999999999999
 40
0.9999999999999999
 10
5.379189550501476
 20
31.21231143404141
 30
0.0
 41
1.0
 10
5.3751945155748
 20
31.21125557735889
 30
0.0
 41
1.0
 10
5.367170906588913
 20
31.20913499986177
 30
0.0
 41
1.0
 10
5.357418002113708
 20
31.19495510084201
 30
0.0
 41
1.0
 10
5.351198710410986
 20
31.17934549987657
 30
0.0
 41
1.0
 10
5.347685837679503
 20
31.16512889214281
 30
0.0
 41
1.0
 10
5.345605784397315
 20
31.14933081433678
 30
0.0
 41
1.0
 10
5.345367828730094
 20
31.13799808298651
 30
0.0
 41
1.0
 10
5.345248425004536
 20
31.13231143404142
 30
0.0
 41
1.0
  0
LINE
  5
435
330
1F
100
AcDbEntity
  8
0
  6
SLD-Solid
 62
     7
370
    25
100
AcDbLine
 10
14.22730729950758
 20
31.21231143404141
 30
0.0
 11
5.379189550501476
 21
31.21231143404141
 31
0.0
  0
SPLINE
  5
436
330
1F
100
AcDbEntity
  8
0
  6
SLD-Solid
 62
     7
370
    25
100
AcDbSpline
210
0.0
220
0.0
230
1.0
 70
    12
 71
     3
 72
    13
 73
     9
 74
     0
 42
0.00000001
 43
0.00000001
 40
0.0
 40
0.0
 40
0.0
 40
0.0
 40
0.2428929592202722
 40
0.4878250543437911
 40
0.6185792845026395
 40
0.7404698712368402
 40
0.8697704297989184
 40
0.9999999999999999
 40
0.9999999999999999
 40
0.9999999999999999
 40
0.9999999999999999
 10
14.22730729950758
 20
31.21231143404141
 30
0.0
 41
1.0
 10
14.23130233443387
 20
31.21125557735882
 30
0.0
 41
1.0
 10
14.23932594341897
 20
31.20913499986155
 30
0.0
 41
1.0
 10
14.24907884789639
 20
31.19495510084669
 30
0.0
 41
1.0
 10
14.25529813958923
 20
31.17934549988127
 30
0.0
 41
1.0
 10
14.25881101233056
 20
31.16512889215022
 30
0.0
 41
1.0
 10
14.26089106561126
 20
31.1493308143367
 30
0.0
 41
1.0
 10
14.26112902127882
 20
31.13799808298648
 30
0.0
 41
1.0
 10
14.26124842500454
 20
31.13231143404142
 30
0.0
 41
1.0
  0
LINE
  5
437
330
1F
100
AcDbEntity
  8
0
  6
SLD-Solid
 62
     7
370
    25
100
AcDbLine
 10
14.26124842500453
 20
31.13231143404142
 30
0.0
 11
14.26124842500453
 21
26.28031143404141
 31
0.0
  0
LINE
  5
438
330
1F
100
AcDbEntity
  8
0
  6
SLD-Solid
 62
     7
370
    25
100
AcDbLine
 10
14.26124842500453
 20
26.28031143404141
 30
0.0
 11
14.23644842500453
 21
26.28031143404141
 31
0.0
  0
LINE
  5
439
330
1F
100
AcDbEntity
  8
0
  6
SLD-Solid
 62
     7
370
    25
100
AcDbLine
 10
14.23644842500453
 20
26.28101143404141
 30
0.0
 11
14.23644842500453
 21
26.28031143404141
 31
0.0
  0
LINE
  5
43A
330
1F
100
AcDbEntity
  8
0
  6
SLD-Solid
 62
     7
370
    25
100
AcDbLine
 10
14.23624842500453
 20
26.28101143404141
 30
0.0
 11
14.23644842500453
 21
26.28101143404141
 31
0.0
  0
LINE
  5
43B
330
1F
100
AcDbEntity
  8
0
  6
SLD-Solid
 62
     7
370
    25
100
AcDbLine
 10
14.23624842500453
 20
26.28081143404141
 30
0.0
 11
14.23624842500453
 21
26.28101143404141
 31
0.0
  0
LINE
  5
43C
330
1F
100
AcDbEntity
  8
0
  6
SLD-Solid
 62
     7
370
    25
100
AcDbLine
 10
5.37024842500453
 20
26.28081143404141
 30
0.0
 11
14.23624842500453
 21
26.28081143404141
 31
0.0
  0
LINE
  5
43D
330
1F
100
AcDbEntity
  8
0
  6
SLD-Solid
 62
     7
370
    25
100
AcDbLine
 10
5.37024842500453
 20
26.28081143404141
 30
0.0
 11
5.370248425004532
 21
26.28101143404141
 31
0.0
  0
LINE
  5
43E
330
1F
100
AcDbEntity
  8
0
  6
SLD-Solid
 62
     7
370
    25
100
AcDbLine
 10
5.37004842500453
 20
26.28101143404141
 30
0.0
 11
5.370248425004532
 21
26.28101143404141
 31
0.0
  0
LINE
  5
43F
330
1F
100
AcDbEntity
  8
0
  6
SLD-Solid
 62
     7
370
    25
100
AcDbLine
 10
5.37004842500453
 20
26.28031143404141
 30
0.0
 11
5.37004842500453
 21
26.28101143404141
 31
0.0
  0
LINE
  5
440
330
1F
100
AcDbEntity
  8
0
  6
SLD-Solid
 62
     7
370
    25
100
AcDbLine
 10
5.37004842500453
 20
26.28031143404141
 30
0.0
 11
5.34524842500453
 21
26.28031143404141
 31
0.0
  0
LINE
  5
441
330
1F
100
AcDbEntity
  8
0
  6
SLD-Solid
 62
     7
370
    25
100
AcDbLine
 10
5.345248425004528
 20
31.13231143404142
 30
0.0
 11
5.345248425004528
 21
26.28031143404141
 31
0.0
  0
LINE
  5
442
330
1F
100
AcDbEntity
  8
0
  6
SLD-Solid
 62
     7
370
    25
100
AcDbLine
 10
14.34124842500453
 20
26.28031143404141
 30
0.0
 11
14.34124842500453
 21
31.13231143404142
 31
0.0
  0
LINE
  5
443
330
1F
100
AcDbEntity
  8
0
  6
SLD-Solid
 62
     7
370
    25
100
AcDbLine
 10
14.34124842500453
 20
26.28031143404141
 30
0.0
 11
14.26124842500453
 21
26.28031143404141
 31
0.0
  0
LINE
  5
444
330
1F
100
AcDbEntity
  8
0
  6
SLD-Solid
 62
     7
370
    25
100
AcDbLine
 10
14.34124842500453
 20
31.13231143404142
 30
0.0
 11
14.26124842500453
 21
31.13231143404142
 31
0.0
  0
LINE
  5
445
330
1F
100
AcDbEntity
  8
0
  6
SLD-Solid
 62
     7
370
    25
100
AcDbLine
 10
5.265248425004531
 20
26.28031143404141
 30
0.0
 11
5.34524842500453
 21
26.28031143404141
 31
0.0
  0
LINE
  5
446
330
1F
100
AcDbEntity
  8
0
  6
SLD-Solid
 62
     7
370
    25
100
AcDbLine
 10
5.265248425004531
 20
31.13231143404142
 30
0.0
 11
5.265248425004531
 21
26.28031143404141
 31
0.0
  0
LINE
  5
447
330
1F
100
AcDbEntity
  8
0
  6
SLD-Solid
 62
     7
370
    25
100
AcDbLine
 10
5.345248425004536
 20
31.13231143404142
 30
0.0
 11
5.265248425004529
 21
31.13231143404142
 31
0.0
  0
LINE
  5
448
330
1F
100
AcDbEntity
  8
0
  6
SLD-Solid
 62
     7
370
    25
100
AcDbLine
 10
5.37024842500453
 20
26.28081143404141
 30
0.0
 11
5.370248425004529
 21
26.23231143404141
 31
0.0
  0
LINE
  5
449
330
1F
100
AcDbEntity
  8
0
  6
SLD-Solid
 62
     7
370
    25
100
AcDbLine
 10
14.23624842500453
 20
26.23231143404141
 30
0.0
 11
14.23624842500453
 21
26.28081143404141
 31
0.0
  0
LINE
  5
44A
330
1F
100
AcDbEntity
  8
0
  6
SLD-Solid
 62
     7
370
    25
100
AcDbLine
 10
14.26124842500453
 20
31.16431143404141
 30
0.0
 11
14.26124842500453
 21
31.21231143404141
 31
0.0
  0
SPLINE
  5
44B
330
1F
100
AcDbEntity
  8
0
  6
SLD-Solid
 62
     7
370
    25
100
AcDbSpline
210
0.0
220
0.0
230
1.0
 70
    12
 71
     3
 72
    13
 73
     9
 74
     0
 42
0.00000001
 43
0.00000001
 40
0.0
 40
0.0
 40
0.0
 40
0.0
 40
0.2691884684738555
 40
0.5325961722688624
 40
0.6635360603381059
 40
0.7771881813389376
 40
0.8900957867996205
 40
1.0
 40
1.0
 40
1.0
 40
1.0
 10
14.26124842500453
 20
31.16431143404141
 30
0.0
 41
1.0
 10
14.26517557579653
 20
31.16389200959813
 30
0.0
 41
1.0
 10
14.27294554265878
 20
31.1630621677616
 30
0.0
 41
1.0
 10
14.28160458322062
 20
31.15760297622519
 30
0.0
 41
1.0
 10
14.28727064199551
 20
31.15131359763885
 30
0.0
 41
1.0
 10
14.29056468495993
 20
31.14564265588705
 30
0.0
 41
1.0
 10
14.29281223918832
 20
31.13923478748877
 30
0.0
 41
1.0
 10
14.29310434220013
 20
31.1345983863986
 30
0.0
 41
1.0
 10
14.29324842500453
 20
31.13231143404142
 30
0.0
 41
1.0
  0
SPLINE
  5
44C
330
1F
100
AcDbEntity
  8
0
  6
SLD-Solid
 62
     7
370
    25
100
AcDbSpline
210
0.0
220
0.0
230
1.0
 70
    12
 71
     3
 72
    13
 73
     9
 74
     0
 42
0.00000001
 43
0.00000001
 40
0.0
 40
0.0
 40
0.0
 40
0.0
 40
0.2428929592199912
 40
0.4878250543432113
 40
0.6185792848632963
 40
0.7404698712371491
 40
0.8697704297990809
 40
1.0
 40
1.0
 40
1.0
 40
1.0
 10
14.26124842500452
 20
31.21231143404141
 30
0.0
 41
1.0
 10
14.27109861981099
 20
31.21125557735883
 30
0.0
 41
1.0
 10
14.29088170381716
 20
31.2091349998616
 30
0.0
 41
1.0
 10
14.31279397063643
 20
31.19495510083827
 30
0.0
 41
1.0
 10
14.32664308460257
 20
31.17934549986919
 30
0.0
 41
1.0
 10
14.33476973038502
 20
31.16512889213518
 30
0.0
 41
1.0
 10
14.34019582818151
 20
31.14933081433674
 30
0.0
 41
1.0
 10
14.34089672309122
 20
31.13799808298649
 30
0.0
 41
1.0
 10
14.34124842500453
 20
31.13231143404142
 30
0.0
 41
1.0
  0
SPLINE
  5
44D
330
1F
100
AcDbEntity
  8
0
  6
SLD-Solid
 62
     7
370
    25
100
AcDbSpline
210
0.0
220
0.0
230
1.0
 70
    12
 71
     3
 72
    13
 73
     9
 74
     0
 42
0.00000001
 43
0.00000001
 40
0.0
 40
0.0
 40
0.0
 40
0.0
 40
0.2428929592198988
 40
0.4878250543430528
 40
0.6185792848035945
 40
0.7404698712372153
 40
0.8697704297991224
 40
0.9999999999999999
 40
0.9999999999999999
 40
0.9999999999999999
 40
0.9999999999999999
 10
5.345248425004517
 20
31.21231143404141
 30
0.0
 41
1.0
 10
5.335398230198059
 20
31.21125557735885
 30
0.0
 41
1.0
 10
5.315615146191909
 20
31.20913499986164
 30
0.0
 41
1.0
 10
5.293702879374641
 20
31.19495510083948
 30
0.0
 41
1.0
 10
5.279853765408156
 20
31.17934549987148
 30
0.0
 41
1.0
 10
5.271727119624838
 20
31.1651288921376
 30
0.0
 41
1.0
 10
5.266301021827563
 20
31.14933081433674
 30
0.0
 41
1.0
 10
5.265600126917845
 20
31.1379980829865
 30
0.0
 41
1.0
 10
5.265248425004532
 20
31.13231143404142
 30
0.0
 41
1.0
  0
LINE
  5
44E
330
1F
100
AcDbEntity
  8
0
  6
SLD-Solid
 62
     7
370
    25
100
AcDbLine
 10
5.345248425004532
 20
31.1643114340414
 30
0.0
 11
5.345248425004532
 21
31.21231143404141
 31
0.0
  0
SPLINE
  5
44F
330
1F
100
AcDbEntity
  8
0
  6
SLD-Solid
 62
     7
370
    25
100
AcDbSpline
210
0.0
220
0.0
230
1.0
 70
    12
 71
     3
 72
    13
 73
     9
 74
     0
 42
0.00000001
 43
0.00000001
 40
0.0
 40
0.0
 40
0.0
 40
0.0
 40
0.269188468473594
 40
0.5325961722683692
 40
0.6635360602839104
 40
0.7771881813391641
 40
0.8900957867997187
 40
1.0
 40
1.0
 40
1.0
 40
1.0
 10
5.345248425004526
 20
31.16431143404141
 30
0.0
 41
1.0
 10
5.341321274212541
 20
31.16389200959815
 30
0.0
 41
1.0
 10
5.333551307350326
 20
31.16306216776168
 30
0.0
 41
1.0
 10
5.324892266788971
 20
31.1576029762254
 30
0.0
 41
1.0
 10
5.319226208014386
 20
31.15131359763994
 30
0.0
 41
1.0
 10
5.315932165049433
 20
31.14564265588801
 30
0.0
 41
1.0
 10
5.313684610820758
 20
31.13923478748879
 30
0.0
 41
1.0
 10
5.313392507808938
 20
31.1345983863986
 30
0.0
 41
1.0
 10
5.313248425004532
 20
31.13231143404142
 30
0.0
 41
1.0
  0
ARC
  5
450
330
1F
100
AcDbEntity
  8
0
  6
SLD-Solid
 62
     7
370
    25
100
AcDbCircle
 10
14.29274842500453
 20
26.28081143404141
 30
0.0
 40
0.0485000000000007
100
AcDbArc
 50
179.9999999999979
 51
0.0000000000020985
  0
ARC
  5
451
330
1F
100
AcDbEntity
  8
0
  6
SLD-Solid
 62
     7
370
    25
100
AcDbCircle
 10
5.313748425004528
 20
26.28081143404141
 30
0.0
 40
0.0484999999999998
100
AcDbArc
 50
180.0
 51
0.000000000008394
  0
LINE
  5
452
330
1F
100
AcDbEntity
  8
0
  6
SLD-Solid
 62
     7
370
    25
100
AcDbLine
 10
5.345248425004532
 20
31.21231143404141
 30
0.0
 11
5.379189550501476
 21
31.21231143404141
 31
0.0
  0
LINE
  5
453
330
1F
100
AcDbEntity
  8
0
  6
SLD-Solid
 62
     7
370
    25
100
AcDbLine
 10
14.22730729950759
 20
31.21231143404141
 30
0.0
 11
14.26124842500453
 21
31.21231143404141
 31
0.0
  0
LINE
  5
454
330
1F
100
AcDbEntity
  8
0
  6
SLD-Solid
 62
     7
370
    25
100
AcDbLine
 10
14.29324842500453
 20
31.21231143404145
 30
0.0
 11
14.34124842500453
 21
31.21231143404144
 31
0.0
  0
LINE
  5
455
330
1F
100
AcDbEntity
  8
0
  6
SLD-Solid
 62
     7
370
    25
100
AcDbLine
 10
14.34124842500453
 20
31.13231143404141
 30
0.0
 11
14.34124842500453
 21
31.21231143404144
 31
0.0
  0
LINE
  5
456
330
1F
100
AcDbEntity
  8
0
  6
SLD-Solid
 62
     7
370
    25
100
AcDbLine
 10
14.29324842500453
 20
31.20497818009983
 30
0.0
 11
14.29324842500453
 21
31.21231143404145
 31
0.0
  0
LWPOLYLINE
  5
457
330
1F
100
AcDbEntity
  8
0
  6
SLD-Solid
 62
     8
370
    25
100
AcDbPolyline
 90
        3
 70
   128
 43
0.0
 10
10.18661164149252
 20
26.00244798175409
 10
10.18679536067773
 20
26.00249109230552
 10
10.1870217655309
 20
26.00288810392426
  0
LWPOLYLINE
  5
458
330
1F
100
AcDbEntity
  8
0
  6
SLD-Solid
 62
     8
370
    25
100
AcDbPolyline
 90
        3
 70
   128
 43
0.0
 10
9.387435929454604
 20
26.00287322695835
 10
9.387701489331322
 20
26.00249109230552
 10
9.388056531190625
 20
26.00241314225864
  0
ARC
  5
459
330
1F
100
AcDbEntity
  8
0
  6
SLD-Solid
 62
     8
370
    25
100
AcDbCircle
 10
9.787289184880196
 20
12.3141258298458
 30
0.0
 40
13.7459623351044
100
AcDbArc
 50
88.12414950574743
 51
91.87619055041635
  0
LINE
  5
45A
330
1F
100
AcDbEntity
  8
0
  6
SLD-Solid
 62
     8
370
    25
100
AcDbLine
 10
12.70672918711808
 20
31.66230181509809
 30
0.0
 11
11.94976766289101
 21
31.66230181509809
 31
0.0
  0
LINE
  5
45B
330
1F
100
AcDbEntity
  8
0
  6
SLD-Solid
 62
     8
370
    25
100
AcDbLine
 10
7.706729187118077
 20
31.6623018150981
 30
0.0
 11
6.949767662891011
 21
31.6623018150981
 31
0.0
  0
DIMENSION
  5
45C
330
1F
100
AcDbEntity
  8
DIMS
100
AcDbDimension
  2
_D_8
 10
16.61894780586211
 20
26.23231143497625
 30
0.0
 11
16.61894780565183
 21
28.78775917203731
 31
0.0
 70
    32
  1
<>
 71
     2
 42
-1.0
  3
SLDDIMSTYLE1
100
AcDbAlignedDimension
 13
12.6992291877095
 23
31.66431143404133
 33
0.0
 14
14.34869960610689
 24
26.23231143478944
 34
0.0
 50
90.0000000000002
100
AcDbRotatedDimension
  0
MTEXT
  5
46B
330
1F
100
AcDbEntity
  8
NOTES
100
AcDbMText
 10
5.107950937033316
 20
25.98404431134071
 30
0.0
 40
0.7500000000000001
 41
0.0
 71
     1
 72
     1
  1
Top view
  7
SLDTEXTSTYLE1
 73
     1
 44
1.0
  0
MTEXT
  5
46F
330
1F
100
AcDbEntity
  8
NOTES
100
AcDbMText
 10
37.18181923579608
 20
4.88020099615648
 30
0.0
 40
0.2916666666666666
 41
0.0
 71
     1
 72
     1
  1
FROST PRODUCTS LTD.
  7
SLDTEXTSTYLE0
 73
     1
 44
1.0
  0
MTEXT
  5
470
330
1F
100
AcDbEntity
  8
NOTES
100
AcDbMText
 10
37.18181923579608
 20
4.454708634531021
 30
0.0
 40
0.2291666666666666
 41
0.0
 71
     1
 72
     1
  1
5280 JOHN LUCAS DRIVE, BURLINGTON, ON, L7L 5Z9
  7
SLDTEXTSTYLE0
 73
     1
 44
1.0
  0
ENDSEC
  0
SECTION
  2
OBJECTS
  0
DICTIONARY
  5
C
330
0
100
AcDbDictionary
281
     1
  3
ACAD_COLOR
350
6C
  3
ACAD_GROUP
350
D
  3
ACAD_LAYOUT
350
1A
  3
ACAD_MATERIAL
350
6B
  3
ACAD_MLINESTYLE
350
17
  3
ACAD_PLOTSETTINGS
350
19
  3
ACAD_PLOTSTYLENAME
350
E
  3
ACAD_SCALELIST
350
47
  3
ACAD_TABLESTYLE
350
92
  3
AcDbVariableDictionary
350
59
  0
DICTIONARY
  5
6C
102
{ACAD_REACTORS
330
C
102
}
330
C
100
AcDbDictionary
281
     1
  0
DICTIONARY
  5
D
102
{ACAD_REACTORS
330
C
102
}
330
C
100
AcDbDictionary
281
     1
  0
DICTIONARY
  5
1A
102
{ACAD_REACTORS
330
C
102
}
330
C
100
AcDbDictionary
281
     1
  3
Layout1
350
74
  3
Layout2
350
26
  3
Model
350
22
  0
DICTIONARY
  5
6B
102
{ACAD_REACTORS
330
C
102
}
330
C
100
AcDbDictionary
281
     1
  0
DICTIONARY
  5
17
102
{ACAD_REACTORS
330
C
102
}
330
C
100
AcDbDictionary
281
     1
  3
Standard
350
18
  0
DICTIONARY
  5
19
102
{ACAD_REACTORS
330
C
102
}
330
C
100
AcDbDictionary
281
     1
  0
ACDBDICTIONARYWDFLT
  5
E
102
{ACAD_REACTORS
330
C
102
}
330
C
100
AcDbDictionary
281
     1
  3
Normal
350
F
100
AcDbDictionaryWithDefault
340
F
  0
DICTIONARY
  5
47
102
{ACAD_REACTORS
330
C
102
}
330
C
100
AcDbDictionary
281
     1
  3
A0
350
48
  3
A1
350
49
  3
A2
350
4A
  3
A3
350
4B
  3
A4
350
4C
  3
A5
350
4D
  3
A6
350
4E
  3
A7
350
4F
  3
A8
350
50
  3
A9
350
51
  3
B0
350
52
  3
B1
350
53
  3
B2
350
54
  3
B3
350
55
  3
B4
350
56
  3
B5
350
57
  3
B6
350
58
  3
B7
350
481
  3
B8
350
482
  3
B9
350
5B
  3
C0
350
5C
  3
C1
350
5D
  3
C2
350
483
  3
C3
350
5F
  3
C4
350
60
  3
C5
350
61
  3
C6
350
62
  3
C7
350
63
  3
C8
350
64
  3
C9
350
65
  3
D0
350
66
  3
D1
350
67
  3
D2
350
68
  0
DICTIONARY
  5
92
102
{ACAD_REACTORS
330
C
102
}
330
C
100
AcDbDictionary
281
     1
  3
Standard
350
93
  0
DICTIONARY
  5
59
102
{ACAD_REACTORS
330
C
102
}
330
C
100
AcDbDictionary
281
     1
  3
CTABLESTYLE
350
98
  3
HIDETEXT
350
46E
  0
LAYOUT
  5
74
102
{ACAD_REACTORS
330
1A
102
}
330
1A
100
AcDbPlotSettings
  1

  2
none_device
  4

  6

 40
0.0
 41
0.0
 42
0.0
 43
0.0
 44
0.0
 45
0.0
 46
0.0
 47
0.0
 48
0.0
 49
0.0
140
0.0
141
0.0
142
1.0
143
1.0
 70
   688
 72
     0
 73
     0
 74
     5
  7

 75
    16
 76
     0
 77
     2
 78
   300
147
1.0
148
0.0
149
0.0
100
AcDbLayout
  1
Layout1
 70
     1
 71
     1
 10
0.0
 20
0.0
 11
12.0
 21
9.0
 12
0.0
 22
0.0
 32
0.0
 14
1.000000000000000E+20
 24
1.000000000000000E+20
 34
1.000000000000000E+20
 15
-1.000000000000000E+20
 25
-1.000000000000000E+20
 35
-1.000000000000000E+20
146
0.0
 13
0.0
 23
0.0
 33
0.0
 16
1.0
 26
0.0
 36
0.0
 17
0.0
 27
1.0
 37
0.0
 76
     0
330
73
  0
LAYOUT
  5
26
102
{ACAD_REACTORS
330
1A
102
}
330
1A
100
AcDbPlotSettings
  1

  2
none_device
  4

  6

 40
0.0
 41
0.0
 42
0.0
 43
0.0
 44
0.0
 45
0.0
 46
0.0
 47
0.0
 48
0.0
 49
0.0
140
0.0
141
0.0
142
1.0
143
1.0
 70
   688
 72
     0
 73
     0
 74
     5
  7

 75
    16
 76
     0
 77
     2
 78
   300
147
1.0
148
0.0
149
0.0
100
AcDbLayout
  1
Layout2
 70
     1
 71
     2
 10
0.0
 20
0.0
 11
0.0
 21
0.0
 12
0.0
 22
0.0
 32
0.0
 14
0.0
 24
0.0
 34
0.0
 15
0.0
 25
0.0
 35
0.0
146
0.0
 13
0.0
 23
0.0
 33
0.0
 16
1.0
 26
0.0
 36
0.0
 17
0.0
 27
1.0
 37
0.0
 76
     0
330
23
  0
LAYOUT
  5
22
102
{ACAD_REACTORS
330
1A
102
}
330
1A
100
AcDbPlotSettings
  1

  2
none_device
  4
Letter_(8.50_x_11.00_Inches)
  6

 40
6.35
 41
6.35
 42
6.35000508
 43
6.35000508
 44
215.9
 45
279.4
 46
0.0
 47
0.0
 48
0.0
 49
0.0
140
0.0
141
0.0
142
1.0
143
1.0
 70
 11952
 72
     0
 73
     0
 74
     0
  7

 75
     0
 76
     0
 77
     2
 78
   300
147
1.0
148
0.0
149
0.0
100
AcDbLayout
  1
Model
 70
     1
 71
     0
 10
0.0
 20
0.0
 11
46.81102362204724
 21
33.11023622047244
 12
0.0
 22
0.0
 32
0.0
 14
0.4640507178713819
 24
0.3573773641115478
 34
-4.860190937100326
 15
46.47898481890242
 25
83.97406777218433
 35
4.537999999999986
146
0.0
 13
0.0
 23
0.0
 33
0.0
 16
1.0
 26
0.0
 36
0.0
 17
0.0
 27
1.0
 37
0.0
 76
     0
330
1F
  0
MLINESTYLE
  5
18
102
{ACAD_REACTORS
330
17
102
}
330
17
100
AcDbMlineStyle
  2
Standard
 70
     0
  3

 62
   256
 51
90.0
 52
90.0
 71
     2
 49
0.5
 62
   256
  6
BYLAYER
 49
-0.5
 62
   256
  6
BYLAYER
  0
ACDBPLACEHOLDER
  5
F
102
{ACAD_REACTORS
330
E
102
}
330
E
  0
ACAD_PROXY_OBJECT
  5
48
102
{ACAD_REACTORS
330
47
102
}
330
47
100
AcDbProxyObject
 90
      499
 91
      505
 95
   393239
 70
     0
 93
       41
310
903313A31580
  0
ACAD_PROXY_OBJECT
  5
49
102
{ACAD_REACTORS
330
47
102
}
330
47
100
AcDbProxyObject
 90
      499
 91
      505
 95
   393239
 70
     0
 93
      105
310
903313A324000000000000004000
  0
ACAD_PROXY_OBJECT
  5
4A
102
{ACAD_REACTORS
330
47
102
}
330
47
100
AcDbProxyObject
 90
      499
 91
      505
 95
   393239
 70
     0
 93
      105
310
903313A344000000000000104000
  0
ACAD_PROXY_OBJECT
  5
4B
102
{ACAD_REACTORS
330
47
102
}
330
47
100
AcDbProxyObject
 90
      499
 91
      505
 95
   393239
 70
     0
 93
      105
310
903313A354000000000000144000
  0
ACAD_PROXY_OBJECT
  5
4C
102
{ACAD_REACTORS
330
47
102
}
330
47
100
AcDbProxyObject
 90
      499
 91
      505
 95
   393239
 70
     0
 93
      105
310
903313A384000000000000204000
  0
ACAD_PROXY_OBJECT
  5
4D
102
{ACAD_REACTORS
330
47
102
}
330
47
100
AcDbProxyObject
 90
      499
 91
      505
 95
   393239
 70
     0
 93
      113
310
904313A31304000000000000244000
  0
ACAD_PROXY_OBJECT
  5
4E
102
{ACAD_REACTORS
330
47
102
}
330
47
100
AcDbProxyObject
 90
      499
 91
      505
 95
   393239
 70
     0
 93
      113
310
904313A31364000000000000304000
  0
ACAD_PROXY_OBJECT
  5
4F
102
{ACAD_REACTORS
330
47
102
}
330
47
100
AcDbProxyObject
 90
      499
 91
      505
 95
   393239
 70
     0
 93
      113
310
904313A32304000000000000344000
  0
ACAD_PROXY_OBJECT
  5
50
102
{ACAD_REACTORS
330
47
102
}
330
47
100
AcDbProxyObject
 90
      499
 91
      505
 95
   393239
 70
     0
 93
      113
310
904313A333040000000000003E4000
  0
ACAD_PROXY_OBJECT
  5
51
102
{ACAD_REACTORS
330
47
102
}
330
47
100
AcDbProxyObject
 90
      499
 91
      505
 95
   393239
 70
     0
 93
      113
310
904313A34304000000000000444000
  0
ACAD_PROXY_OBJECT
  5
52
102
{ACAD_REACTORS
330
47
102
}
330
47
100
AcDbProxyObject
 90
      499
 91
      505
 95
   393239
 70
     0
 93
      113
310
904313A35304000000000000494000
  0
ACAD_PROXY_OBJECT
  5
53
102
{ACAD_REACTORS
330
47
102
}
330
47
100
AcDbProxyObject
 90
      499
 91
      505
 95
   393239
 70
     0
 93
      121
310
905313A3130304000000000000594000
  0
ACAD_PROXY_OBJECT
  5
54
102
{ACAD_REACTORS
330
47
102
}
330
47
100
AcDbProxyObject
 90
      499
 91
      505
 95
   393239
 70
     0
 93
      105
310
903323A310000000000000010100
  0
ACAD_PROXY_OBJECT
  5
55
102
{ACAD_REACTORS
330
47
102
}
330
47
100
AcDbProxyObject
 90
      499
 91
      505
 95
   393239
 70
     0
 93
      105
310
903343A310000000000000410100
  0
ACAD_PROXY_OBJECT
  5
56
102
{ACAD_REACTORS
330
47
102
}
330
47
100
AcDbProxyObject
 90
      499
 91
      505
 95
   393239
 70
     0
 93
      105
310
903383A310000000000000810100
  0
ACAD_PROXY_OBJECT
  5
57
102
{ACAD_REACTORS
330
47
102
}
330
47
100
AcDbProxyObject
 90
      499
 91
      505
 95
   393239
 70
     0
 93
      113
310
90431303A310000000000000910100
  0
ACAD_PROXY_OBJECT
  5
58
102
{ACAD_REACTORS
330
47
102
}
330
47
100
AcDbProxyObject
 90
      499
 91
      505
 95
   393239
 70
     0
 93
      121
310
9053130303A310000000000001650100
  0
ACAD_PROXY_OBJECT
  5
481
102
{ACAD_REACTORS
330
47
102
}
330
47
100
AcDbProxyObject
 90
      499
 91
      505
 95
   393239
 70
     0
 93
      257
310
90E312F31323822203D2031272D3022000000000000200FC000000000000284000
  0
ACAD_PROXY_OBJECT
  5
482
102
{ACAD_REACTORS
330
47
102
}
330
47
100
AcDbProxyObject
 90
      499
 91
      505
 95
   393239
 70
     0
 93
      249
310
90D312F363422203D2031272D3022000000000000240FC000000000000284000
  0
ACAD_PROXY_OBJECT
  5
5B
102
{ACAD_REACTORS
330
47
102
}
330
47
100
AcDbProxyObject
 90
      499
 91
      505
 95
   393239
 70
     0
 93
      249
310
90D312F333222203D2031272D3022000000000000280FC000000000000284000
  0
ACAD_PROXY_OBJECT
  5
5C
102
{ACAD_REACTORS
330
47
102
}
330
47
100
AcDbProxyObject
 90
      499
 91
      505
 95
   393239
 70
     0
 93
      249
310
90D312F313622203D2031272D30220000000000002C0FC000000000000284000
  0
ACAD_PROXY_OBJECT
  5
5D
102
{ACAD_REACTORS
330
47
102
}
330
47
100
AcDbProxyObject
 90
      499
 91
      505
 95
   393239
 70
     0
 93
      249
310
90D332F333222203D2031272D30220000000000002E0FC000000000000284000
  0
ACAD_PROXY_OBJECT
  5
483
102
{ACAD_REACTORS
330
47
102
}
330
47
100
AcDbProxyObject
 90
      499
 91
      505
 95
   393239
 70
     0
 93
      241
310
90C312F3822203D2031272D3022000000000000300FC000000000000284000
  0
ACAD_PROXY_OBJECT
  5
5F
102
{ACAD_REACTORS
330
47
102
}
330
47
100
AcDbProxyObject
 90
      499
 91
      505
 95
   393239
 70
     0
 93
      249
310
90D332F313622203D2031272D3022000000000000320FC000000000000284000
  0
ACAD_PROXY_OBJECT
  5
60
102
{ACAD_REACTORS
330
47
102
}
330
47
100
AcDbProxyObject
 90
      499
 91
      505
 95
   393239
 70
     0
 93
      241
310
90C312F3422203D2031272D3022000000000000340FC000000000000284000
  0
ACAD_PROXY_OBJECT
  5
61
102
{ACAD_REACTORS
330
47
102
}
330
47
100
AcDbProxyObject
 90
      499
 91
      505
 95
   393239
 70
     0
 93
      241
310
90C332F3822203D2031272D3022000000000000360FC000000000000284000
  0
ACAD_PROXY_OBJECT
  5
62
102
{ACAD_REACTORS
330
47
102
}
330
47
100
AcDbProxyObject
 90
      499
 91
      505
 95
   393239
 70
     0
 93
      241
310
90C312F3222203D2031272D3022000000000000380FC000000000000284000
  0
ACAD_PROXY_OBJECT
  5
63
102
{ACAD_REACTORS
330
47
102
}
330
47
100
AcDbProxyObject
 90
      499
 91
      505
 95
   393239
 70
     0
 93
      241
310
90C332F3422203D2031272D30220000000000003A0FC000000000000284000
  0
ACAD_PROXY_OBJECT
  5
64
102
{ACAD_REACTORS
330
47
102
}
330
47
100
AcDbProxyObject
 90
      499
 91
      505
 95
   393239
 70
     0
 93
      161
310
90A3122203D2031272D30224000000000000284000
  0
ACAD_PROXY_OBJECT
  5
65
102
{ACAD_REACTORS
330
47
102
}
330
47
100
AcDbProxyObject
 90
      499
 91
      505
 95
   393239
 70
     0
 93
      257
310
90E312D312F3222203D2031272D30220000000000003E0FC000000000000284000
  0
ACAD_PROXY_OBJECT
  5
66
102
{ACAD_REACTORS
330
47
102
}
330
47
100
AcDbProxyObject
 90
      499
 91
      505
 95
   393239
 70
     0
 93
      225
310
90A3322203D2031272D302200000000000002100000000000000284000
  0
ACAD_PROXY_OBJECT
  5
67
102
{ACAD_REACTORS
330
47
102
}
330
47
100
AcDbProxyObject
 90
      499
 91
      505
 95
   393239
 70
     0
 93
      225
310
90A3622203D2031272D302200000000000006100000000000000284000
  0
ACAD_PROXY_OBJECT
  5
68
102
{ACAD_REACTORS
330
47
102
}
330
47
100
AcDbProxyObject
 90
      499
 91
      505
 95
   393239
 70
     0
 93
      249
310
90D31272D3022203D2031272D30220000000000000A100000000000000284000
  0
TABLESTYLE
  5
93
102
{ACAD_REACTORS
330
92
102
}
330
92
100
AcDbTableStyle
  3
Standard
 70
     0
 71
     0
 40
0.06
 41
0.06
280
     0
281
     0
  7
Standard
140
0.18
170
     2
 62
     0
 63
     7
283
     0
274
    -2
284
     1
 64
     0
275
    -2
285
     1
 65
     0
276
    -2
286
     1
 66
     0
277
    -2
287
     1
 67
     0
278
    -2
288
     1
 68
     0
279
    -2
289
     1
 69
     0
  7
Standard
140
0.25
170
     5
 62
     0
 63
     7
283
     0
274
    -2
284
     1
 64
     0
275
    -2
285
     1
 65
     0
276
    -2
286
     1
 66
     0
277
    -2
287
     1
 67
     0
278
    -2
288
     1
 68
     0
279
    -2
289
     1
 69
     0
  7
Standard
140
0.18
170
     5
 62
     0
 63
     7
283
     0
274
    -2
284
     1
 64
     0
275
    -2
285
     1
 65
     0
276
    -2
286
     1
 66
     0
277
    -2
287
     1
 67
     0
278
    -2
288
     1
 68
     0
279
    -2
289
     1
 69
     0
  0
DICTIONARYVAR
  5
98
102
{ACAD_REACTORS
330
59
102
}
330
59
100
DictionaryVariables
280
     0
  1
STANDARD
  0
DICTIONARYVAR
  5
46E
102
{ACAD_REACTORS
330
59
102
}
330
59
100
DictionaryVariables
280
     0
  1
2
  0
ENDSEC
  0
EOF
