  0
SECTION
  2
HEADER
  9
$ACADVER
  1
AC1018
  9
$ACADMAINTVER
 70
     0
  9
$DWGCODEPAGE
  3
ANSI_1252
  9
$LASTSAVEDBY
  1
carl
  9
$INSBASE
 10
0.0
 20
0.0
 30
0.0
  9
$EXTMIN
 10
0.0
 20
0.0
 30
0.0
  9
$EXTMAX
 10
46.811023622
 20
33.1102362205
 30
0.0
  9
$LIMMIN
 10
0.0
 20
0.0
  9
$LIMMAX
 10
46.811023622
 20
33.1102362205
  9
$ORTHOMODE
 70
     0
  9
$REGENMODE
 70
     1
  9
$FILLMODE
 70
     1
  9
$QTEXTMODE
 70
     0
  9
$MIRRTEXT
 70
     1
  9
$LTSCALE
 40
1.0
  9
$ATTMODE
 70
     1
  9
$TEXTSIZE
 40
0.75
  9
$TRACEWID
 40
0.05
  9
$TEXTSTYLE
  7
Standard
  9
$CLAYER
  8
0
  9
$CELTYPE
  6
ByLayer
  9
$CECOLOR
 62
   256
  9
$CELTSCALE
 40
1.0
  9
$DISPSILH
 70
     0
  9
$DIMSCALE
 40
1.0
  9
$DIMASZ
 40
0.75
  9
$DIMEXO
 40
0.1666666667
  9
$DIMDLI
 40
0.38
  9
$DIMRND
 40
0.0
  9
$DIMDLE
 40
0.0
  9
$DIMEXE
 40
0.375
  9
$DIMTP
 40
0.0
  9
$DIMTM
 40
0.0
  9
$DIMTXT
 40
0.75
  9
$DIMCEN
 40
0.09
  9
$DIMTSZ
 40
0.0
  9
$DIMTOL
 70
     0
  9
$DIMLIM
 70
     0
  9
$DIMTIH
 70
     1
  9
$DIMTOH
 70
     1
  9
$DIMSE1
 70
     0
  9
$DIMSE2
 70
     0
  9
$DIMTAD
 70
     0
  9
$DIMZIN
 70
     1
  9
$DIMBLK
  1

  9
$DIMASO
 70
     1
  9
$DIMSHO
 70
     1
  9
$DIMPOST
  1

  9
$DIMAPOST
  1

  9
$DIMALT
 70
     0
  9
$DIMALTD
 70
     2
  9
$DIMALTF
 40
25.4
  9
$DIMLFAC
 40
1.0
  9
$DIMTOFL
 70
     0
  9
$DIMTVP
 40
0.0
  9
$DIMTIX
 70
     0
  9
$DIMSOXD
 70
     0
  9
$DIMSAH
 70
     0
  9
$DIMBLK1
  1

  9
$DIMBLK2
  1

  9
$DIMSTYLE
  2
Standard
  9
$DIMCLRD
 70
     0
  9
$DIMCLRE
 70
     0
  9
$DIMCLRT
 70
     0
  9
$DIMTFAC
 40
1.0
  9
$DIMGAP
 40
0.125
  9
$DIMJUST
 70
     0
  9
$DIMSD1
 70
     0
  9
$DIMSD2
 70
     0
  9
$DIMTOLJ
 70
     1
  9
$DIMTZIN
 70
     1
  9
$DIMALTZ
 70
     0
  9
$DIMALTTZ
 70
     0
  9
$DIMUPT
 70
     0
  9
$DIMDEC
 70
     2
  9
$DIMTDEC
 70
     2
  9
$DIMALTU
 70
     2
  9
$DIMALTTD
 70
     2
  9
$DIMTXSTY
  7
Standard
  9
$DIMAUNIT
 70
     0
  9
$DIMADEC
 70
     2
  9
$DIMALTRND
 40
0.0
  9
$DIMAZIN
 70
     0
  9
$DIMDSEP
 70
    46
  9
$DIMATFIT
 70
     3
  9
$DIMFRAC
 70
     0
  9
$DIMLDRBLK
  1

  9
$DIMLUNIT
 70
     2
  9
$DIMLWD
 70
    -2
  9
$DIMLWE
 70
    -2
  9
$DIMTMOVE
 70
     0
  9
$LUNITS
 70
     2
  9
$LUPREC
 70
     4
  9
$SKETCHINC
 40
0.1
  9
$FILLETRAD
 40
0.5
  9
$AUNITS
 70
     0
  9
$AUPREC
 70
     2
  9
$MENU
  1
.
  9
$ELEVATION
 40
0.0
  9
$PELEVATION
 40
0.0
  9
$THICKNESS
 40
0.0
  9
$LIMCHECK
 70
     0
  9
$CHAMFERA
 40
0.0
  9
$CHAMFERB
 40
0.0
  9
$CHAMFERC
 40
0.0
  9
$CHAMFERD
 40
0.0
  9
$SKPOLY
 70
     0
  9
$TDCREATE
 40
2460096.336685972
  9
$TDUCREATE
 40
2460096.503352639
  9
$TDUPDATE
 40
2460096.336691041
  9
$TDUUPDATE
 40
2460096.503357708
  9
$TDINDWG
 40
0.0000000116
  9
$TDUSRTIMER
 40
0.0000000116
  9
$USRTIMER
 70
     1
  9
$ANGBASE
 50
0.0
  9
$ANGDIR
 70
     0
  9
$PDMODE
 70
     0
  9
$PDSIZE
 40
-1.0
  9
$PLINEWID
 40
0.0
  9
$SPLFRAME
 70
     0
  9
$SPLINETYPE
 70
     6
  9
$SPLINESEGS
 70
     8
  9
$HANDSEED
  5
518
  9
$SURFTAB1
 70
     6
  9
$SURFTAB2
 70
     6
  9
$SURFTYPE
 70
     6
  9
$SURFU
 70
     6
  9
$SURFV
 70
     6
  9
$UCSBASE
  2

  9
$UCSNAME
  2

  9
$UCSORG
 10
0.0
 20
0.0
 30
0.0
  9
$UCSXDIR
 10
1.0
 20
0.0
 30
0.0
  9
$UCSYDIR
 10
0.0
 20
1.0
 30
0.0
  9
$UCSORTHOREF
  2

  9
$UCSORTHOVIEW
 70
     0
  9
$UCSORGTOP
 10
0.0
 20
0.0
 30
0.0
  9
$UCSORGBOTTOM
 10
0.0
 20
0.0
 30
0.0
  9
$UCSORGLEFT
 10
0.0
 20
0.0
 30
0.0
  9
$UCSORGRIGHT
 10
0.0
 20
0.0
 30
0.0
  9
$UCSORGFRONT
 10
0.0
 20
0.0
 30
0.0
  9
$UCSORGBACK
 10
0.0
 20
0.0
 30
0.0
  9
$PUCSBASE
  2

  9
$PUCSNAME
  2

  9
$PUCSORG
 10
0.0
 20
0.0
 30
0.0
  9
$PUCSXDIR
 10
1.0
 20
0.0
 30
0.0
  9
$PUCSYDIR
 10
0.0
 20
1.0
 30
0.0
  9
$PUCSORTHOREF
  2

  9
$PUCSORTHOVIEW
 70
     0
  9
$PUCSORGTOP
 10
0.0
 20
0.0
 30
0.0
  9
$PUCSORGBOTTOM
 10
0.0
 20
0.0
 30
0.0
  9
$PUCSORGLEFT
 10
0.0
 20
0.0
 30
0.0
  9
$PUCSORGRIGHT
 10
0.0
 20
0.0
 30
0.0
  9
$PUCSORGFRONT
 10
0.0
 20
0.0
 30
0.0
  9
$PUCSORGBACK
 10
0.0
 20
0.0
 30
0.0
  9
$USERI1
 70
     0
  9
$USERI2
 70
     0
  9
$USERI3
 70
     0
  9
$USERI4
 70
     0
  9
$USERI5
 70
     0
  9
$USERR1
 40
0.0
  9
$USERR2
 40
0.0
  9
$USERR3
 40
0.0
  9
$USERR4
 40
0.0
  9
$USERR5
 40
0.0
  9
$WORLDVIEW
 70
     1
  9
$SHADEDGE
 70
     3
  9
$SHADEDIF
 70
    70
  9
$TILEMODE
 70
     1
  9
$MAXACTVP
 70
    64
  9
$PINSBASE
 10
0.0
 20
0.0
 30
0.0
  9
$PLIMCHECK
 70
     0
  9
$PEXTMIN
 10
1.0000000000E+20
 20
1.0000000000E+20
 30
1.0000000000E+20
  9
$PEXTMAX
 10
-1.0000000000E+20
 20
-1.0000000000E+20
 30
-1.0000000000E+20
  9
$PLIMMIN
 10
0.0
 20
0.0
  9
$PLIMMAX
 10
12.0
 20
9.0
  9
$UNITMODE
 70
     0
  9
$VISRETAIN
 70
     1
  9
$PLINEGEN
 70
     0
  9
$PSLTSCALE
 70
     1
  9
$TREEDEPTH
 70
  3020
  9
$CMLSTYLE
  2
Standard
  9
$CMLJUST
 70
     0
  9
$CMLSCALE
 40
1.0
  9
$PROXYGRAPHICS
 70
     1
  9
$MEASUREMENT
 70
     0
  9
$CELWEIGHT
370
    -1
  9
$ENDCAPS
280
     0
  9
$JOINSTYLE
280
     0
  9
$LWDISPLAY
290
     1
  9
$INSUNITS
 70
     1
  9
$HYPERLINKBASE
  1

  9
$STYLESHEET
  1

  9
$XEDIT
290
     1
  9
$CEPSNTYPE
380
     0
  9
$PSTYLEMODE
290
     1
  9
$FINGERPRINTGUID
  2
{52477dee-11c6-4eb4-81bc-17753e200e9f}
  9
$VERSIONGUID
  2
{FAEB1C32-E019-11D5-929B-00C0DF256EC4}
  9
$EXTNAMES
290
     1
  9
$PSVPSCALE
 40
0.0
  9
$OLESTARTUP
290
     0
  9
$SORTENTS
280
   127
  9
$INDEXCTL
280
     0
  9
$HIDETEXT
280
     1
  9
$XCLIPFRAME
290
     0
  9
$HALOGAP
280
     0
  9
$OBSCOLOR
 70
   257
  9
$OBSLTYPE
280
     0
  9
$INTERSECTIONDISPLAY
280
     0
  9
$INTERSECTIONCOLOR
 70
   257
  9
$DIMASSOC
280
     2
  9
$PROJECTNAME
  1

  0
ENDSEC
  0
SECTION
  2
CLASSES
  0
CLASS
  1
ACDBDICTIONARYWDFLT
  2
AcDbDictionaryWithDefault
  3
ObjectDBX Classes
 90
        0
 91
        3
280
     0
281
     0
  0
CLASS
  1
VISUALSTYLE
  2
AcDbVisualStyle
  3
ObjectDBX Classes
 90
     4095
 91
        3
280
     0
281
     0
  0
CLASS
  1
MATERIAL
  2
AcDbMaterial
  3
ObjectDBX Classes
 90
     1153
 91
        3
280
     0
281
     0
  0
CLASS
  1
SCALE
  2
AcDbScale
  3
ObjectDBX Classes
 90
     1153
 91
        3
280
     0
281
     0
  0
CLASS
  1
TABLESTYLE
  2
AcDbTableStyle
  3
ObjectDBX Classes
 90
     4095
 91
        3
280
     0
281
     0
  0
CLASS
  1
MLEADERSTYLE
  2
AcDbMLeaderStyle
  3
ACDB_MLEADERSTYLE_CLASS
 90
     4095
 91
        3
280
     0
281
     0
  0
CLASS
  1
SUN
  2
AcDbSun
  3
SCENEOE
 90
     1153
 91
        3
280
     0
281
     0
  0
CLASS
  1
DICTIONARYVAR
  2
AcDbDictionaryVar
  3
ObjectDBX Classes
 90
        0
 91
        3
280
     0
281
     0
  0
CLASS
  1
CELLSTYLEMAP
  2
AcDbCellStyleMap
  3
ObjectDBX Classes
 90
     1152
 91
        3
280
     0
281
     0
  0
ENDSEC
  0
SECTION
  2
TABLES
  0
TABLE
  2
VPORT
  5
8
330
0
100
AcDbSymbolTable
 70
     1
  0
VPORT
  5
29
330
8
100
AcDbSymbolTableRecord
100
AcDbViewportTableRecord
  2
*Active
 70
     0
 10
0.0
 20
0.0
 11
1.0
 21
1.0
 12
23.405511811
 22
16.5551181102
 13
0.0
 23
0.0
 14
0.5
 24
0.5
 15
0.5
 25
0.5
 16
0.0
 26
0.0
 36
1.0
 17
0.0
 27
0.0
 37
0.0
 40
33.1102362205
 41
1.4137931034
 42
50.0
 43
0.0
 44
0.0
 50
0.0
 51
0.0
 71
     0
 72
  2000
 73
     1
 74
     3
 75
     0
 76
     0
 77
     0
 78
     0
281
     0
 65
     1
110
0.0
120
0.0
130
0.0
111
1.0
121
0.0
131
0.0
112
0.0
122
1.0
132
0.0
 79
     0
146
0.0
  0
ENDTAB
  0
TABLE
  2
LTYPE
  5
5
330
0
100
AcDbSymbolTable
 70
     6
  0
LTYPE
  5
14
330
5
100
AcDbSymbolTableRecord
100
AcDbLinetypeTableRecord
  2
ByBlock
 70
     0
  3

 72
    65
 73
     0
 40
0.0
  0
LTYPE
  5
15
330
5
100
AcDbSymbolTableRecord
100
AcDbLinetypeTableRecord
  2
ByLayer
 70
     0
  3

 72
    65
 73
     0
 40
0.0
  0
LTYPE
  5
16
330
5
100
AcDbSymbolTableRecord
100
AcDbLinetypeTableRecord
  2
Continuous
 70
     0
  3
Solid line
 72
    65
 73
     0
 40
0.0
  0
LTYPE
  5
6E
330
5
100
AcDbSymbolTableRecord
100
AcDbLinetypeTableRecord
  2
HIDDEN
 70
     0
  3
Hidden __ __ __ __ __ __ __ __ __ __ __ __ __ __
 72
    65
 73
     2
 40
0.075
 49
0.05
 74
     0
 49
-0.025
 74
     0
  0
LTYPE
  5
6F
330
5
100
AcDbSymbolTableRecord
100
AcDbLinetypeTableRecord
  2
PHANTOM
 70
     0
  3
Phantom ______  __  __  ______  __  __  ______
 72
    65
 73
     6
 40
0.5
 49
0.25
 74
     0
 49
-0.05
 74
     0
 49
0.05
 74
     0
 49
-0.05
 74
     0
 49
0.05
 74
     0
 49
-0.05
 74
     0
  0
LTYPE
  5
70
330
5
100
AcDbSymbolTableRecord
100
AcDbLinetypeTableRecord
  2
CENTER
 70
     0
  3
Center ____ _ ____ _ ____ _ ____ _ ____ _ ____
 72
    65
 73
     4
 40
0.4
 49
0.25
 74
     0
 49
-0.05
 74
     0
 49
0.05
 74
     0
 49
-0.05
 74
     0
  0
LTYPE
  5
71
330
5
100
AcDbSymbolTableRecord
100
AcDbLinetypeTableRecord
  2
CENTERX2
 70
     0
  3
Center (2x) ________  __  ________  __  _____
 72
    65
 73
     4
 40
0.8
 49
0.5
 74
     0
 49
-0.1
 74
     0
 49
0.1
 74
     0
 49
-0.1
 74
     0
  0
LTYPE
  5
72
330
5
100
AcDbSymbolTableRecord
100
AcDbLinetypeTableRecord
  2
DOT2
 70
     0
  3
Dot (.5x) ........................................
 72
    65
 73
     2
 40
0.025
 49
0.0
 74
     0
 49
-0.025
 74
     0
  0
ENDTAB
  0
TABLE
  2
LAYER
  5
2
330
0
100
AcDbSymbolTable
 70
     6
  0
LAYER
  5
10
330
2
100
AcDbSymbolTableRecord
100
AcDbLayerTableRecord
  2
0
 70
     0
 62
     7
  6
Continuous
370
    -3
390
F
  0
LAYER
  5
73
330
2
100
AcDbSymbolTableRecord
100
AcDbLayerTableRecord
  2
FORMAT
 70
     0
 62
     7
  6
Continuous
370
    -3
390
F
  0
LAYER
  5
74
330
2
100
AcDbSymbolTableRecord
100
AcDbLayerTableRecord
  2
NOTES
 70
     0
 62
     1
  6
Continuous
370
    -3
390
F
  0
LAYER
  5
75
330
2
100
AcDbSymbolTableRecord
100
AcDbLayerTableRecord
  2
OBJECT
 70
     0
 62
     7
  6
Continuous
370
    -3
390
F
  0
LAYER
  5
76
330
2
100
AcDbSymbolTableRecord
100
AcDbLayerTableRecord
  2
DIMS
 70
     0
 62
     5
  6
Continuous
370
    -3
390
F
  0
LAYER
  5
77
330
2
100
AcDbSymbolTableRecord
100
AcDbLayerTableRecord
  2
TITLE
 70
     0
 62
     8
  6
Continuous
370
    -3
390
F
  0
ENDTAB
  0
TABLE
  2
STYLE
  5
3
330
0
100
AcDbSymbolTable
 70
     6
  0
STYLE
  5
11
330
3
100
AcDbSymbolTableRecord
100
AcDbTextStyleTableRecord
  2
Standard
 70
     0
 40
0.0
 41
1.0
 50
0.0
 71
     0
 42
0.75
  3
txt
  4

  0
STYLE
  5
8A
330
3
100
AcDbSymbolTableRecord
100
AcDbTextStyleTableRecord
  2
SLDTEXTSTYLE0
 70
     0
 40
0.0
 41
0.605
 50
0.0
 71
     0
 42
0.75
  3
TXT
  4

  0
STYLE
  5
8E
330
3
100
AcDbSymbolTableRecord
100
AcDbTextStyleTableRecord
  2
SLDTEXTSTYLE1
 70
     0
 40
0.0
 41
0.75
 50
0.0
 71
     0
 42
0.75
  3
TXT
  4

  0
STYLE
  5
91
330
3
100
AcDbSymbolTableRecord
100
AcDbTextStyleTableRecord
  2
SLDTEXTSTYLE2
 70
     0
 40
0.0
 41
0.6607142857
 50
0.0
 71
     0
 42
0.75
  3
TXT
  4

  0
STYLE
  5
93
330
3
100
AcDbSymbolTableRecord
100
AcDbTextStyleTableRecord
  2
SLDTEXTSTYLE3
 70
     0
 40
0.0
 41
0.6944444444
 50
0.0
 71
     0
 42
0.75
  3
TXT
  4

  0
STYLE
  5
95
330
3
100
AcDbSymbolTableRecord
100
AcDbTextStyleTableRecord
  2
SLDTEXTSTYLE4
 70
     0
 40
0.0
 41
0.6979166667
 50
0.0
 71
     0
 42
0.75
  3
TXT
  4

  0
ENDTAB
  0
TABLE
  2
VIEW
  5
6
330
0
100
AcDbSymbolTable
 70
     0
  0
ENDTAB
  0
TABLE
  2
UCS
  5
7
330
0
100
AcDbSymbolTable
 70
     0
  0
ENDTAB
  0
TABLE
  2
APPID
  5
9
330
0
100
AcDbSymbolTable
 70
     2
  0
APPID
  5
12
330
9
100
AcDbSymbolTableRecord
100
AcDbRegAppTableRecord
  2
ACAD
 70
     0
  0
APPID
  5
512
330
9
100
AcDbSymbolTableRecord
100
AcDbRegAppTableRecord
  2
ACAD_MLEADERVER
 70
     0
  0
ENDTAB
  0
TABLE
  2
DIMSTYLE
  5
A
330
0
100
AcDbSymbolTable
 70
     5
100
AcDbDimStyleTable
  0
DIMSTYLE
105
27
330
A
100
AcDbSymbolTableRecord
100
AcDbDimStyleTableRecord
  2
Standard
 70
     0
178
     0
340
11
  0
DIMSTYLE
105
1CC
102
{ACAD_REACTORS
330
1CB
330
1DF
330
468
102
}
330
A
100
AcDbSymbolTableRecord
100
AcDbDimStyleTableRecord
  2
SLDDIMSTYLE0
 70
     0
 41
0.75
 44
0.0
 45
0.000000001
 78
    12
 79
     3
140
0.75
147
0.1875
173
     1
178
     0
271
     2
272
     2
276
     2
277
     5
284
    12
340
8E
341
1CD
343
1CD
344
1CD
  0
DIMSTYLE
105
1EB
102
{ACAD_REACTORS
330
1EA
330
2D0
330
473
330
482
330
4FD
102
}
330
A
100
AcDbSymbolTableRecord
100
AcDbDimStyleTableRecord
  2
SLDDIMSTYLE1
 70
     0
 41
0.75
 44
0.0
 45
0.000000001
 78
    12
 79
     3
140
0.75
147
0.1875
173
     1
178
     0
271
     6
272
     2
276
     2
277
     5
284
    12
340
8E
341
1CD
343
1CD
344
1CD
  0
DIMSTYLE
105
1FD
330
A
100
AcDbSymbolTableRecord
100
AcDbDimStyleTableRecord
  2
SLDDIMSTYLE2
 70
     0
 41
0.75
 44
0.0
 45
0.000000001
146
0.75
147
0.0
173
     1
178
     0
271
     0
272
     0
276
     2
277
     5
340
11
341
1CD
343
1CD
344
1CD
  0
DIMSTYLE
105
45F
102
{ACAD_REACTORS
330
45E
102
}
330
A
100
AcDbSymbolTableRecord
100
AcDbDimStyleTableRecord
  2
SLDDIMSTYLE3
 70
     0
 41
0.75
 44
0.0
 45
0.000000001
 78
    12
 79
     3
140
0.75
141
0.0
147
0.1875
173
     1
178
     0
271
     2
272
     2
276
     2
277
     5
284
    12
340
8E
341
1CD
343
1CD
344
1CD
  0
ENDTAB
  0
TABLE
  2
BLOCK_RECORD
  5
1
330
0
100
AcDbSymbolTable
 70
    14
  0
BLOCK_RECORD
  5
1F
330
1
100
AcDbSymbolTableRecord
100
AcDbBlockTableRecord
  2
*Model_Space
340
22
  0
BLOCK_RECORD
  5
1B
330
1
100
AcDbSymbolTableRecord
100
AcDbBlockTableRecord
  2
*Paper_Space
340
1E
  0
BLOCK_RECORD
  5
23
330
1
100
AcDbSymbolTableRecord
100
AcDbBlockTableRecord
  2
*Paper_Space0
340
26
  0
BLOCK_RECORD
  5
78
330
1
100
AcDbSymbolTableRecord
100
AcDbBlockTableRecord
  2
Block1
340
0
102
{BLKREFS
331
1CA
102
}
  0
BLOCK_RECORD
  5
97
330
1
100
AcDbSymbolTableRecord
100
AcDbBlockTableRecord
  2
SW_NOTE_0
340
0
102
{BLKREFS
331
9C
102
}
  0
BLOCK_RECORD
  5
9D
330
1
100
AcDbSymbolTableRecord
100
AcDbBlockTableRecord
  2
SW_NOTE_0_1
340
0
102
{BLKREFS
331
A4
102
}
  0
BLOCK_RECORD
  5
1CD
330
1
100
AcDbSymbolTableRecord
100
AcDbBlockTableRecord
  2
_Open90
340
0
102
{BLKREFS
331
1D6
331
1D7
331
1E3
331
1E4
331
1EF
331
1F0
331
2D4
331
2D5
331
463
331
46C
331
46D
331
477
331
478
331
486
331
487
331
501
331
502
102
}
  0
BLOCK_RECORD
  5
1D3
330
1
100
AcDbSymbolTableRecord
100
AcDbBlockTableRecord
  2
_D
340
0
  0
BLOCK_RECORD
  5
1E0
330
1
100
AcDbSymbolTableRecord
100
AcDbBlockTableRecord
  2
_D_1
340
0
  0
BLOCK_RECORD
  5
1EC
330
1
100
AcDbSymbolTableRecord
100
AcDbBlockTableRecord
  2
_D_2
340
0
  0
BLOCK_RECORD
  5
2D1
330
1
100
AcDbSymbolTableRecord
100
AcDbBlockTableRecord
  2
_D_3
340
0
  0
BLOCK_RECORD
  5
460
330
1
100
AcDbSymbolTableRecord
100
AcDbBlockTableRecord
  2
_D_4
340
0
  0
BLOCK_RECORD
  5
469
330
1
100
AcDbSymbolTableRecord
100
AcDbBlockTableRecord
  2
_D_5
340
0
  0
BLOCK_RECORD
  5
474
330
1
100
AcDbSymbolTableRecord
100
AcDbBlockTableRecord
  2
_D_6
340
0
  0
BLOCK_RECORD
  5
483
330
1
100
AcDbSymbolTableRecord
100
AcDbBlockTableRecord
  2
_D_7
340
0
  0
BLOCK_RECORD
  5
4FE
330
1
100
AcDbSymbolTableRecord
100
AcDbBlockTableRecord
  2
_D_8
340
0
  0
ENDTAB
  0
ENDSEC
  0
SECTION
  2
BLOCKS
  0
BLOCK
  5
20
330
1F
100
AcDbEntity
  8
0
100
AcDbBlockBegin
  2
*Model_Space
 70
     0
 10
0.0
 20
0.0
 30
0.0
  3
*Model_Space
  1

  0
ENDBLK
  5
21
330
1F
100
AcDbEntity
  8
0
100
AcDbBlockEnd
  0
BLOCK
  5
1C
330
1B
100
AcDbEntity
 67
     1
  8
0
100
AcDbBlockBegin
  2
*Paper_Space
 70
     0
 10
0.0
 20
0.0
 30
0.0
  3
*Paper_Space
  1

  0
ENDBLK
  5
1D
330
1B
100
AcDbEntity
 67
     1
  8
0
100
AcDbBlockEnd
  0
BLOCK
  5
24
330
23
100
AcDbEntity
  8
0
100
AcDbBlockBegin
  2
*Paper_Space0
 70
     0
 10
0.0
 20
0.0
 30
0.0
  3
*Paper_Space0
  1

  0
ENDBLK
  5
25
330
23
100
AcDbEntity
  8
0
100
AcDbBlockEnd
  0
BLOCK
  5
79
330
78
100
AcDbEntity
  8
0
100
AcDbBlockBegin
  2
Block1
 70
     0
 10
0.0
 20
0.0
 30
0.0
  3
Block1
  1

  0
LINE
  5
7B
330
78
100
AcDbEntity
  8
DIMS
100
AcDbLine
 10
-7.1777912723
 20
-8.4035016
 30
0.0
 11
-7.1777912723
 21
-7.9550758659
 31
0.0
  0
LINE
  5
7C
330
78
100
AcDbEntity
  8
DIMS
100
AcDbLine
 10
-7.1777912723
 20
-8.4035016
 30
0.0
 11
-7.5605937283
 21
-8.6659947127
 31
0.0
  0
LINE
  5
7D
330
78
100
AcDbEntity
  8
DIMS
100
AcDbLine
 10
-7.5605937283
 20
-8.6659947127
 30
0.0
 11
-6.7918647159
 21
-8.8207013129
 31
0.0
  0
LINE
  5
7E
330
78
100
AcDbEntity
  8
DIMS
100
AcDbLine
 10
-6.7918647159
 20
-8.8207013129
 30
0.0
 11
-7.1777912723
 21
-9.059110307
 31
0.0
  0
ENDBLK
  5
7A
330
78
100
AcDbEntity
  8
0
100
AcDbBlockEnd
  0
BLOCK
  5
98
330
97
100
AcDbEntity
  8
0
100
AcDbBlockBegin
  2
SW_NOTE_0
 70
     0
 10
0.0
 20
0.0
 30
0.0
  3
SW_NOTE_0
  1

  0
MTEXT
  5
9A
330
97
100
AcDbEntity
  8
NOTES
 62
     0
100
AcDbMText
 10
0.0
 20
0.3759780908
 30
0.0
 40
0.2916666667
 41
0.0
 71
     1
 72
     1
  1
FROST PRODUCTS LTD.
  7
SLDTEXTSTYLE0
 73
     1
 44
1.0
  0
MTEXT
  5
9B
330
97
100
AcDbEntity
  8
NOTES
 62
     0
100
AcDbMText
 10
0.0
 20
-0.0495142709
 30
0.0
 40
0.2291666667
 41
0.0
 71
     1
 72
     1
  1
5280 JOHN LUCAS DRIVE, BURLINGTON, ON, L7L 5Z9
  7
SLDTEXTSTYLE0
 73
     1
 44
1.0
  0
ENDBLK
  5
99
330
97
100
AcDbEntity
  8
0
100
AcDbBlockEnd
  0
BLOCK
  5
9E
330
9D
100
AcDbEntity
  8
0
100
AcDbBlockBegin
  2
SW_NOTE_0_1
 70
     0
 10
0.0
 20
0.0
 30
0.0
  3
SW_NOTE_0_1
  1

  0
MTEXT
  5
A0
330
9D
100
AcDbEntity
  8
NOTES
 62
     0
100
AcDbMText
 10
0.0
 20
0.2381282771
 30
0.0
 40
0.184729064
 41
0.0
 71
     1
 72
     1
  1
PROPRIETARY AND CONFIDENTIAL
  7
SLDTEXTSTYLE0
 73
     1
 44
1.0
  0
MTEXT
  5
A1
330
9D
100
AcDbEntity
  8
NOTES
 62
     0
100
AcDbMText
 10
0.0
 20
-0.0504364796
 30
0.0
 40
0.25
 41
0.0
 71
     1
 72
     1
  1
THE INFORMATION CONTAINED IN THIS DRAWING IS THE SOLE PROPERTY OF
  7
SLDTEXTSTYLE0
 73
     1
 44
1.0
  0
MTEXT
  5
A2
330
9D
100
AcDbEntity
  8
NOTES
 62
     0
100
AcDbMText
 10
0.0
 20
-0.4231398941
 30
0.0
 40
0.25
 41
0.0
 71
     1
 72
     1
  1
FROST PRODUCTS LTD.  ANY REPRODUCTION IN PART OR AS A WHOLE WITHOUT
  7
SLDTEXTSTYLE0
 73
     1
 44
1.0
  0
MTEXT
  5
A3
330
9D
100
AcDbEntity
  8
NOTES
 62
     0
100
AcDbMText
 10
0.0
 20
-0.7958433086
 30
0.0
 40
0.25
 41
0.0
 71
     1
 72
     1
  1
THE WRITTEN PERMISSION OF FROST PRODUCTS LTD. IS PROHIBITED.
  7
SLDTEXTSTYLE0
 73
     1
 44
1.0
  0
ENDBLK
  5
9F
330
9D
100
AcDbEntity
  8
0
100
AcDbBlockEnd
  0
BLOCK
  5
1CE
330
1CD
100
AcDbEntity
  8
0
100
AcDbBlockBegin
  2
_Open90
 70
     0
 10
0.0
 20
0.0
 30
0.0
  3
_Open90
  1

  0
LINE
  5
1D0
330
1CD
100
AcDbEntity
  8
0
  6
ByBlock
 62
     0
370
    -2
100
AcDbLine
 10
-0.5
 20
0.5
 30
0.0
 11
0.0
 21
0.0
 31
0.0
  0
LINE
  5
1D1
330
1CD
100
AcDbEntity
  8
0
  6
ByBlock
 62
     0
370
    -2
100
AcDbLine
 10
0.0
 20
0.0
 30
0.0
 11
-0.5
 21
-0.5
 31
0.0
  0
LINE
  5
1D2
330
1CD
100
AcDbEntity
  8
0
  6
ByBlock
 62
     0
370
    -2
100
AcDbLine
 10
0.0
 20
0.0
 30
0.0
 11
-1.0
 21
0.0
 31
0.0
  0
ENDBLK
  5
1CF
330
1CD
100
AcDbEntity
  8
0
100
AcDbBlockEnd
  0
BLOCK
  5
1D4
330
1D3
100
AcDbEntity
  8
0
100
AcDbBlockBegin
  2
_D
 70
     0
 10
0.0
 20
0.0
 30
0.0
  3
_D
  1

  0
INSERT
  5
1D6
330
1D3
100
AcDbEntity
  8
DIMS
100
AcDbBlockReference
  2
_Open90
 10
2.7543457352
 20
16.309486672
 30
0.0
 41
0.75
 42
0.75
 50
90.0
  0
INSERT
  5
1D7
330
1D3
100
AcDbEntity
  8
DIMS
100
AcDbBlockReference
  2
_Open90
 10
2.7543457352
 20
4.309486672
 30
0.0
 41
0.75
 42
0.75
 50
270.0
  0
LINE
  5
1D8
330
1D3
100
AcDbEntity
  8
DIMS
100
AcDbLine
 10
7.7127838719
 20
16.309486672
 30
0.0
 11
2.3793457352
 21
16.309486672
 31
0.0
  0
LINE
  5
1D9
330
1D3
100
AcDbEntity
  8
DIMS
100
AcDbLine
 10
2.7543457352
 20
16.309486672
 30
0.0
 11
2.7543457352
 21
10.4765338833
 31
0.0
  0
LINE
  5
1DA
330
1D3
100
AcDbEntity
  8
DIMS
100
AcDbLine
 10
2.7543457352
 20
4.309486672
 30
0.0
 11
2.7543457352
 21
5.7140338867
 31
0.0
  0
MTEXT
  5
1DB
330
1D3
100
AcDbEntity
  8
DIMS
100
AcDbMText
 10
1.9069499177
 20
10.252709689
 30
0.0
 40
0.75
 41
0.0
 71
     1
 72
     1
  1
48"
  7
SLDTEXTSTYLE1
 73
     1
 44
1.0
  0
MTEXT
  5
1DC
330
1D3
100
AcDbEntity
  8
DIMS
100
AcDbMText
 10
0.3397623086
 20
9.0620846898
 30
0.0
 40
0.75
 41
0.0
 71
     1
 72
     1
  1
(1220mm)
  7
SLDTEXTSTYLE1
 73
     1
 44
1.0
  0
MTEXT
  5
1DD
330
1D3
100
AcDbEntity
  8
DIMS
100
AcDbMText
 10
1.7173665634
 20
7.8714596907
 30
0.0
 40
0.75
 41
0.0
 71
     1
 72
     1
  1
Max.
  7
SLDTEXTSTYLE1
 73
     1
 44
1.0
  0
MTEXT
  5
1DE
330
1D3
100
AcDbEntity
  8
DIMS
100
AcDbMText
 10
2.8970540681
 20
6.6808346916
 30
0.0
 40
0.75
 41
0.0
 71
     1
 72
     1
  1

  7
SLDTEXTSTYLE1
 73
     1
 44
1.0
  0
ENDBLK
  5
1D5
330
1D3
100
AcDbEntity
  8
0
100
AcDbBlockEnd
  0
BLOCK
  5
1E1
330
1E0
100
AcDbEntity
  8
0
100
AcDbBlockBegin
  2
_D_1
 70
     0
 10
0.0
 20
0.0
 30
0.0
  3
_D_1
  1

  0
INSERT
  5
1E3
330
1E0
100
AcDbEntity
  8
DIMS
100
AcDbBlockReference
  2
_Open90
 10
2.7650541425
 20
16.309486672
 30
0.0
 41
0.75
 42
0.75
 50
270.0
  0
INSERT
  5
1E4
330
1E0
100
AcDbEntity
  8
DIMS
100
AcDbBlockReference
  2
_Open90
 10
2.7650541425
 20
21.3223965433
 30
0.0
 41
0.75
 42
0.75
 50
90.0
  0
LINE
  5
1E5
330
1E0
100
AcDbEntity
  8
DIMS
100
AcDbLine
 10
7.7455817583
 20
16.309486672
 30
0.0
 11
2.3900541425
 21
16.309486672
 31
0.0
  0
LINE
  5
1E6
330
1E0
100
AcDbEntity
  8
DIMS
100
AcDbLine
 10
5.1785817583
 20
21.3223965433
 30
0.0
 11
2.3900541425
 21
21.3223965433
 31
0.0
  0
LINE
  5
1E7
330
1E0
100
AcDbEntity
  8
DIMS
100
AcDbLine
 10
2.7650541425
 20
16.309486672
 30
0.0
 11
2.7650541425
 21
18.2986393025
 31
0.0
  0
LINE
  5
1E8
330
1E0
100
AcDbEntity
  8
DIMS
100
AcDbLine
 10
2.7650541425
 20
21.3223965433
 30
0.0
 11
2.7650541425
 21
19.4892643016
 31
0.0
  0
MTEXT
  5
1E9
330
1E0
100
AcDbEntity
  8
DIMS
100
AcDbMText
 10
2.333283317
 20
19.2654401073
 30
0.0
 40
0.75
 41
0.0
 71
     1
 72
     1
  1
5"
  7
SLDTEXTSTYLE1
 73
     1
 44
1.0
  0
ENDBLK
  5
1E2
330
1E0
100
AcDbEntity
  8
0
100
AcDbBlockEnd
  0
BLOCK
  5
1ED
330
1EC
100
AcDbEntity
  8
0
100
AcDbBlockBegin
  2
_D_2
 70
     0
 10
0.0
 20
0.0
 30
0.0
  3
_D_2
  1

  0
INSERT
  5
1EF
330
1EC
100
AcDbEntity
  8
DIMS
100
AcDbBlockReference
  2
_Open90
 10
5.265248425
 20
22.4905222702
 30
2.0426519817
 41
0.75
 42
0.75
 50
180.0
  0
INSERT
  5
1F0
330
1EC
100
AcDbEntity
  8
DIMS
100
AcDbBlockReference
  2
_Open90
 10
14.341248425
 20
22.4905222702
 30
2.0426519817
 41
0.75
 42
0.75
 50
0.0
  0
LINE
  5
1F1
330
1EC
100
AcDbEntity
  8
DIMS
100
AcDbLine
 10
9.0627238192
 20
22.5674493865
 30
0.0
 11
10.3908489165
 21
22.5674493865
 31
0.0
  0
LINE
  5
1F2
330
1EC
100
AcDbEntity
  8
DIMS
100
AcDbLine
 10
5.265248425
 20
21.40906321
 30
0.0
 11
5.265248425
 21
22.8655222702
 31
0.0
  0
LINE
  5
1F3
330
1EC
100
AcDbEntity
  8
DIMS
100
AcDbLine
 10
14.341248425
 20
21.40906321
 30
0.0
 11
14.341248425
 21
22.8655222702
 31
0.0
  0
LINE
  5
1F4
330
1EC
100
AcDbEntity
  8
DIMS
100
AcDbLine
 10
5.265248425
 20
22.4905222702
 30
0.0
 11
8.3986613071
 21
22.4905222702
 31
0.0
  0
LINE
  5
1F5
330
1EC
100
AcDbEntity
  8
DIMS
100
AcDbLine
 10
14.341248425
 20
22.4905222702
 30
0.0
 11
10.8101197431
 21
22.4905222702
 31
0.0
  0
MTEXT
  5
1F6
330
1EC
100
AcDbEntity
  8
DIMS
100
AcDbMText
 10
8.3986613071
 20
22.9203439649
 30
0.0
 40
0.75
 41
0.0
 71
     1
 72
     1
  1
9
  7
SLDTEXTSTYLE1
 73
     1
 44
1.0
  0
MTEXT
  5
1F7
330
1EC
100
AcDbEntity
  8
DIMS
100
AcDbMText
 10
9.4497030337
 20
23.4683126998
 30
0.0
 40
0.75
 41
0.0
 71
     1
 72
     1
  1
1
  7
SLDTEXTSTYLE1
 73
     1
 44
1.0
  0
MTEXT
  5
1F8
330
1EC
100
AcDbEntity
  8
DIMS
100
AcDbMText
 10
9.1726196996
 20
22.4765418337
 30
0.0
 40
0.75
 41
0.0
 71
     1
 72
     1
  1
16
  7
SLDTEXTSTYLE1
 73
     1
 44
1.0
  0
MTEXT
  5
1F9
330
1EC
100
AcDbEntity
  8
DIMS
100
AcDbMText
 10
10.500744797
 20
22.9203439649
 30
0.0
 40
0.75
 41
0.0
 71
     1
 72
     1
  1
"
  7
SLDTEXTSTYLE1
 73
     1
 44
1.0
  0
ENDBLK
  5
1EE
330
1EC
100
AcDbEntity
  8
0
100
AcDbBlockEnd
  0
BLOCK
  5
2D2
330
2D1
100
AcDbEntity
  8
0
100
AcDbBlockBegin
  2
_D_3
 70
     0
 10
0.0
 20
0.0
 30
0.0
  3
_D_3
  1

  0
INSERT
  5
2D4
330
2D1
100
AcDbEntity
  8
DIMS
100
AcDbBlockReference
  2
_Open90
 10
16.1082117387
 20
21.3223965433
 30
4.538
 41
0.75
 42
0.75
 50
90.0
  0
INSERT
  5
2D5
330
2D1
100
AcDbEntity
  8
DIMS
100
AcDbBlockReference
  2
_Open90
 10
16.1082117387
 20
8.3993965433
 30
4.538
 41
0.75
 42
0.75
 50
270.0
  0
LINE
  5
2D6
330
2D1
100
AcDbEntity
  8
DIMS
100
AcDbLine
 10
15.8436282752
 20
15.3285669072
 30
0.0
 11
17.1717533726
 21
15.3285669072
 31
0.0
  0
LINE
  5
2D7
330
2D1
100
AcDbEntity
  8
DIMS
100
AcDbLine
 10
17.6344280297
 20
21.3223965433
 30
0.0
 11
15.7332117387
 21
21.3223965433
 31
0.0
  0
LINE
  5
2D8
330
2D1
100
AcDbEntity
  8
DIMS
100
AcDbLine
 10
17.7114280297
 20
8.3993965433
 30
0.0
 11
15.7332117387
 21
8.3993965433
 31
0.0
  0
LINE
  5
2D9
330
2D1
100
AcDbEntity
  8
DIMS
100
AcDbLine
 10
16.1082117387
 20
21.3223965433
 30
0.0
 11
16.1082117387
 21
16.2324210941
 31
0.0
  0
LINE
  5
2DA
330
2D1
100
AcDbEntity
  8
DIMS
100
AcDbLine
 10
16.1082117387
 20
8.3993965433
 30
0.0
 11
16.1082117387
 21
14.2708584876
 31
0.0
  0
MTEXT
  5
2DB
330
2D1
100
AcDbEntity
  8
DIMS
100
AcDbMText
 10
14.625399095
 20
15.6814614856
 30
0.0
 40
0.75
 41
0.0
 71
     1
 72
     1
  1
12
  7
SLDTEXTSTYLE1
 73
     1
 44
1.0
  0
MTEXT
  5
2DC
330
2D1
100
AcDbEntity
  8
DIMS
100
AcDbMText
 10
15.9535241557
 20
16.2294302204
 30
0.0
 40
0.75
 41
0.0
 71
     1
 72
     1
  1
15
  7
SLDTEXTSTYLE1
 73
     1
 44
1.0
  0
MTEXT
  5
2DD
330
2D1
100
AcDbEntity
  8
DIMS
100
AcDbMText
 10
15.9535241557
 20
15.2376593543
 30
0.0
 40
0.75
 41
0.0
 71
     1
 72
     1
  1
16
  7
SLDTEXTSTYLE1
 73
     1
 44
1.0
  0
MTEXT
  5
2DE
330
2D1
100
AcDbEntity
  8
DIMS
100
AcDbMText
 10
17.2816492897
 20
15.6814614856
 30
0.0
 40
0.75
 41
0.0
 71
     1
 72
     1
  1
"
  7
SLDTEXTSTYLE1
 73
     1
 44
1.0
  0
ENDBLK
  5
2D3
330
2D1
100
AcDbEntity
  8
0
100
AcDbBlockEnd
  0
BLOCK
  5
461
330
460
100
AcDbEntity
  8
0
100
AcDbBlockBegin
  2
_D_4
 70
     0
 10
0.0
 20
0.0
 30
0.0
  3
_D_4
  1

  0
INSERT
  5
463
330
460
100
AcDbEntity
  8
DIMS
100
AcDbBlockReference
  2
_Open90
 10
27.3037112018
 20
16.2027537429
 30
-4.8601909371
 41
0.75
 42
0.75
 50
296.3416871805
  0
LINE
  5
464
330
460
100
AcDbEntity
  8
DIMS
100
AcDbLine
 10
27.3037112018
 20
16.2027537429
 30
0.0
 11
23.993459035
 21
22.8882894982
 31
0.0
  0
LINE
  5
465
330
460
100
AcDbEntity
  8
DIMS
100
AcDbLine
 10
23.993459035
 20
22.8882894982
 30
0.0
 11
23.743459035
 21
22.8882894982
 31
0.0
  0
MTEXT
  5
466
330
460
100
AcDbEntity
  8
DIMS
100
AcDbMText
 10
20.2029903615
 20
23.2540486479
 30
0.0
 40
0.75
 41
0.0
 71
     1
 72
     1
  1
%%c
  7
SLDTEXTSTYLE1
 73
     1
 44
1.0
  0
MTEXT
  5
467
330
460
100
AcDbEntity
  8
DIMS
100
AcDbMText
 10
21.3340841217
 20
23.2655069772
 30
0.0
 40
0.75
 41
0.0
 71
     1
 72
     1
  1
3/16"
  7
SLDTEXTSTYLE1
 73
     1
 44
1.0
  0
ENDBLK
  5
462
330
460
100
AcDbEntity
  8
0
100
AcDbBlockEnd
  0
BLOCK
  5
46A
330
469
100
AcDbEntity
  8
0
100
AcDbBlockBegin
  2
_D_5
 70
     0
 10
0.0
 20
0.0
 30
0.0
  3
_D_5
  1

  0
INSERT
  5
46C
330
469
100
AcDbEntity
  8
DIMS
100
AcDbBlockReference
  2
_Open90
 10
27.3246771295
 20
7.7808491118
 30
-4.8601909371
 41
0.75
 42
0.75
 50
180.0
  0
INSERT
  5
46D
330
469
100
AcDbEntity
  8
DIMS
100
AcDbBlockReference
  2
_Open90
 10
32.3246771295
 20
7.7808491118
 30
-4.8601909371
 41
0.75
 42
0.75
 50
0.0
  0
LINE
  5
46E
330
469
100
AcDbEntity
  8
DIMS
100
AcDbLine
 10
27.3246771295
 20
9.7807298767
 30
0.0
 11
27.3246771295
 21
7.4058491118
 31
0.0
  0
LINE
  5
46F
330
469
100
AcDbEntity
  8
DIMS
100
AcDbLine
 10
32.3246771295
 20
9.7807298767
 30
0.0
 11
32.3246771295
 21
7.4058491118
 31
0.0
  0
LINE
  5
470
330
469
100
AcDbEntity
  8
DIMS
100
AcDbLine
 10
27.3246771295
 20
7.7808491118
 30
0.0
 11
29.5771090802
 21
7.7808491118
 31
0.0
  0
LINE
  5
471
330
469
100
AcDbEntity
  8
DIMS
100
AcDbLine
 10
32.3246771295
 20
7.7808491118
 30
0.0
 11
30.4406507312
 21
7.7808491118
 31
0.0
  0
MTEXT
  5
472
330
469
100
AcDbEntity
  8
DIMS
100
AcDbMText
 10
29.5771090802
 20
8.152337417
 30
0.0
 40
0.75
 41
0.0
 71
     1
 72
     1
  1
5"
  7
SLDTEXTSTYLE1
 73
     1
 44
1.0
  0
ENDBLK
  5
46B
330
469
100
AcDbEntity
  8
0
100
AcDbBlockEnd
  0
BLOCK
  5
475
330
474
100
AcDbEntity
  8
0
100
AcDbBlockBegin
  2
_D_6
 70
     0
 10
0.0
 20
0.0
 30
0.0
  3
_D_6
  1

  0
INSERT
  5
477
330
474
100
AcDbEntity
  8
DIMS
100
AcDbBlockReference
  2
_Open90
 10
36.1190801508
 20
9.9473965433
 30
-4.8601909371
 41
0.75
 42
0.75
 50
270.0
  0
INSERT
  5
478
330
474
100
AcDbEntity
  8
DIMS
100
AcDbBlockReference
  2
_Open90
 10
36.1190801508
 20
16.1604100022
 30
-4.8601909371
 41
0.75
 42
0.75
 50
90.0
  0
LINE
  5
479
330
474
100
AcDbEntity
  8
DIMS
100
AcDbLine
 10
35.5774134448
 20
13.8632961194
 30
0.0
 11
36.9055385422
 21
13.8632961194
 31
0.0
  0
LINE
  5
47A
330
474
100
AcDbEntity
  8
DIMS
100
AcDbLine
 10
32.4913437962
 20
9.9473965433
 30
0.0
 11
36.4940801508
 21
9.9473965433
 31
0.0
  0
LINE
  5
47B
330
474
100
AcDbEntity
  8
DIMS
100
AcDbLine
 10
32.4913437962
 20
16.1604100022
 30
0.0
 11
36.4940801508
 21
16.1604100022
 31
0.0
  0
LINE
  5
47C
330
474
100
AcDbEntity
  8
DIMS
100
AcDbLine
 10
36.1190801508
 20
9.9473965433
 30
0.0
 11
36.1190801508
 21
12.8055876998
 31
0.0
  0
LINE
  5
47D
330
474
100
AcDbEntity
  8
DIMS
100
AcDbLine
 10
36.1190801508
 20
16.1604100022
 30
0.0
 11
36.1190801508
 21
14.7671503064
 31
0.0
  0
MTEXT
  5
47E
330
474
100
AcDbEntity
  8
DIMS
100
AcDbMText
 10
34.9133509328
 20
14.2161906978
 30
0.0
 40
0.75
 41
0.0
 71
     1
 72
     1
  1
6
  7
SLDTEXTSTYLE1
 73
     1
 44
1.0
  0
MTEXT
  5
47F
330
474
100
AcDbEntity
  8
DIMS
100
AcDbMText
 10
35.9643926594
 20
14.7641594326
 30
0.0
 40
0.75
 41
0.0
 71
     1
 72
     1
  1
3
  7
SLDTEXTSTYLE1
 73
     1
 44
1.0
  0
MTEXT
  5
480
330
474
100
AcDbEntity
  8
DIMS
100
AcDbMText
 10
35.6873093253
 20
13.7723885665
 30
0.0
 40
0.75
 41
0.0
 71
     1
 72
     1
  1
16
  7
SLDTEXTSTYLE1
 73
     1
 44
1.0
  0
MTEXT
  5
481
330
474
100
AcDbEntity
  8
DIMS
100
AcDbMText
 10
37.0154344227
 20
14.2161906978
 30
0.0
 40
0.75
 41
0.0
 71
     1
 72
     1
  1
"
  7
SLDTEXTSTYLE1
 73
     1
 44
1.0
  0
ENDBLK
  5
476
330
474
100
AcDbEntity
  8
0
100
AcDbBlockEnd
  0
BLOCK
  5
484
330
483
100
AcDbEntity
  8
0
100
AcDbBlockBegin
  2
_D_7
 70
     0
 10
0.0
 20
0.0
 30
0.0
  3
_D_7
  1

  0
INSERT
  5
486
330
483
100
AcDbEntity
  8
DIMS
100
AcDbBlockReference
  2
_Open90
 10
36.1190801508
 20
21.3223965433
 30
-4.8601909371
 41
0.75
 42
0.75
 50
90.0
  0
INSERT
  5
487
330
483
100
AcDbEntity
  8
DIMS
100
AcDbBlockReference
  2
_Open90
 10
36.1190801508
 20
16.1604100022
 30
-4.8601909371
 41
0.75
 42
0.75
 50
270.0
  0
LINE
  5
488
330
483
100
AcDbEntity
  8
DIMS
100
AcDbLine
 10
35.5774134448
 20
19.0791503314
 30
0.0
 11
36.9055385422
 21
19.0791503314
 31
0.0
  0
LINE
  5
489
330
483
100
AcDbEntity
  8
DIMS
100
AcDbLine
 10
34.4743437962
 20
21.3223965433
 30
0.0
 11
36.4940801508
 21
21.3223965433
 31
0.0
  0
LINE
  5
48A
330
483
100
AcDbEntity
  8
DIMS
100
AcDbLine
 10
32.4913437962
 20
16.1604100022
 30
0.0
 11
36.4940801508
 21
16.1604100022
 31
0.0
  0
LINE
  5
48B
330
483
100
AcDbEntity
  8
DIMS
100
AcDbLine
 10
36.1190801508
 20
21.3223965433
 30
0.0
 11
36.1190801508
 21
19.9830045184
 31
0.0
  0
LINE
  5
48C
330
483
100
AcDbEntity
  8
DIMS
100
AcDbLine
 10
36.1190801508
 20
16.1604100022
 30
0.0
 11
36.1190801508
 21
18.0214419118
 31
0.0
  0
MTEXT
  5
48D
330
483
100
AcDbEntity
  8
DIMS
100
AcDbMText
 10
34.9133509328
 20
19.4320449098
 30
0.0
 40
0.75
 41
0.0
 71
     1
 72
     1
  1
5
  7
SLDTEXTSTYLE1
 73
     1
 44
1.0
  0
MTEXT
  5
48E
330
483
100
AcDbEntity
  8
DIMS
100
AcDbMText
 10
35.9643926594
 20
19.9800136446
 30
0.0
 40
0.75
 41
0.0
 71
     1
 72
     1
  1
3
  7
SLDTEXTSTYLE1
 73
     1
 44
1.0
  0
MTEXT
  5
48F
330
483
100
AcDbEntity
  8
DIMS
100
AcDbMText
 10
35.6873093253
 20
18.9882427785
 30
0.0
 40
0.75
 41
0.0
 71
     1
 72
     1
  1
16
  7
SLDTEXTSTYLE1
 73
     1
 44
1.0
  0
MTEXT
  5
490
330
483
100
AcDbEntity
  8
DIMS
100
AcDbMText
 10
37.0154344227
 20
19.4320449098
 30
0.0
 40
0.75
 41
0.0
 71
     1
 72
     1
  1
"
  7
SLDTEXTSTYLE1
 73
     1
 44
1.0
  0
ENDBLK
  5
485
330
483
100
AcDbEntity
  8
0
100
AcDbBlockEnd
  0
BLOCK
  5
4FF
330
4FE
100
AcDbEntity
  8
0
100
AcDbBlockBegin
  2
_D_8
 70
     0
 10
0.0
 20
0.0
 30
0.0
  3
_D_8
  1

  0
INSERT
  5
501
330
4FE
100
AcDbEntity
  8
DIMS
100
AcDbBlockReference
  2
_Open90
 10
16.2472774433
 20
31.7443114343
 30
3.4543261574
 41
0.75
 42
0.75
 50
90.0000000047
  0
INSERT
  5
502
330
4FE
100
AcDbEntity
  8
DIMS
100
AcDbBlockReference
  2
_Open90
 10
16.2472774437
 20
26.2323114349
 30
3.4543261574
 41
0.75
 42
0.75
 50
270.0000000047
  0
LINE
  5
503
330
4FE
100
AcDbEntity
  8
DIMS
100
AcDbLine
 10
15.98269409
 20
28.9154930503
 30
0.0
 11
16.7566524825
 21
28.9154930503
 31
0.0
  0
LINE
  5
504
330
4FE
100
AcDbEntity
  8
DIMS
100
AcDbLine
 10
12.6872367435
 20
31.7443114341
 30
0.0
 11
16.6222774433
 21
31.7443114344
 31
0.0
  0
LINE
  5
505
330
4FE
100
AcDbEntity
  8
DIMS
100
AcDbLine
 10
14.5153662728
 20
26.2323114348
 30
0.0
 11
16.6222774437
 21
26.232311435
 31
0.0
  0
LINE
  5
506
330
4FE
100
AcDbEntity
  8
DIMS
100
AcDbLine
 10
16.2472774433
 20
31.7443114343
 30
0.0
 11
16.2472774434
 21
29.8193472373
 31
0.0
  0
LINE
  5
507
330
4FE
100
AcDbEntity
  8
DIMS
100
AcDbLine
 10
16.2472774437
 20
26.2323114349
 30
0.0
 11
16.2472774436
 21
27.8577846307
 31
0.0
  0
MTEXT
  5
508
330
4FE
100
AcDbEntity
  8
DIMS
100
AcDbMText
 10
15.318631578
 20
29.2683876287
 30
0.0
 40
0.75
 41
0.0
 71
     1
 72
     1
  1
5
  7
SLDTEXTSTYLE1
 73
     1
 44
1.0
  0
MTEXT
  5
509
330
4FE
100
AcDbEntity
  8
DIMS
100
AcDbMText
 10
16.0925899522
 20
29.8163563635
 30
0.0
 40
0.75
 41
0.0
 71
     1
 72
     1
  1
1
  7
SLDTEXTSTYLE1
 73
     1
 44
1.0
  0
MTEXT
  5
50A
330
4FE
100
AcDbEntity
  8
DIMS
100
AcDbMText
 10
16.0925899522
 20
28.8245854974
 30
0.0
 40
0.75
 41
0.0
 71
     1
 72
     1
  1
2
  7
SLDTEXTSTYLE1
 73
     1
 44
1.0
  0
MTEXT
  5
50B
330
4FE
100
AcDbEntity
  8
DIMS
100
AcDbMText
 10
16.866548363
 20
29.2683876287
 30
0.0
 40
0.75
 41
0.0
 71
     1
 72
     1
  1
"
  7
SLDTEXTSTYLE1
 73
     1
 44
1.0
  0
ENDBLK
  5
500
330
4FE
100
AcDbEntity
  8
0
100
AcDbBlockEnd
  0
ENDSEC
  0
SECTION
  2
ENTITIES
  0
LINE
  5
7F
330
1F
100
AcDbEntity
  8
TITLE
370
    50
100
AcDbLine
 10
29.4339107028
 20
1.3813118861
 30
0.0
 11
46.41567413
 21
1.3813118861
 31
0.0
  0
LINE
  5
80
330
1F
100
AcDbEntity
  8
TITLE
370
    50
100
AcDbLine
 10
46.415619423
 20
5.3690605151
 30
0.0
 11
36.2262227511
 21
5.3690605151
 31
0.0
  0
LINE
  5
81
330
1F
100
AcDbEntity
  8
TITLE
370
    50
100
AcDbLine
 10
29.4339107028
 20
2.4364878447
 30
0.0
 11
22.421666799
 21
2.4364878447
 31
0.0
  0
LINE
  5
82
330
1F
100
AcDbEntity
  8
TITLE
370
    50
100
AcDbLine
 10
29.4339107028
 20
1.3813118861
 30
0.0
 11
22.421666799
 21
1.3813118861
 31
0.0
  0
LINE
  5
83
330
1F
100
AcDbEntity
  8
TITLE
370
    50
100
AcDbLine
 10
29.4339107028
 20
1.3813118861
 30
0.0
 11
29.4339107028
 21
3.4916638033
 31
0.0
  0
LINE
  5
84
330
1F
100
AcDbEntity
  8
TITLE
370
    50
100
AcDbLine
 10
22.421666799
 20
3.4916638033
 30
0.0
 11
22.421666799
 21
0.3937001216
 31
0.0
  0
LINE
  5
85
330
1F
100
AcDbEntity
  8
TITLE
370
    50
100
AcDbLine
 10
22.421666799
 20
0.3937001216
 30
0.0
 11
46.4156876788
 21
0.3937001216
 31
0.0
  0
LINE
  5
86
330
1F
100
AcDbEntity
  8
TITLE
370
    50
100
AcDbLine
 10
46.415619423
 20
5.3690605151
 30
0.0
 11
46.4156876788
 21
0.3937001216
 31
0.0
  0
LINE
  5
87
330
1F
100
AcDbEntity
  8
TITLE
370
    50
100
AcDbLine
 10
29.4339107028
 20
3.4916638033
 30
0.0
 11
22.421666799
 21
3.4916638033
 31
0.0
  0
LINE
  5
88
330
1F
100
AcDbEntity
  8
TITLE
370
    50
100
AcDbLine
 10
29.4339107028
 20
3.4916638033
 30
0.0
 11
46.415449243
 21
3.4916649559
 31
0.0
  0
LINE
  5
89
330
1F
100
AcDbEntity
  8
TITLE
370
    50
100
AcDbLine
 10
36.2262227511
 20
5.3690605151
 30
0.0
 11
36.2262227511
 21
0.3573773641
 31
0.0
  0
MTEXT
  5
8B
330
1F
100
AcDbEntity
  8
NOTES
100
AcDbMText
 10
23.3239854818
 20
0.9639904563
 30
0.0
 40
0.25
 41
0.0
 71
     1
 72
     1
  1
UNLESS OTHERWISE SPECIFIED DIMENSIONS ARE IN INCHES.
  7
SLDTEXTSTYLE0
 73
     1
 44
1.0
  0
MTEXT
  5
8C
330
1F
100
AcDbEntity
  8
NOTES
100
AcDbMText
 10
23.3457576067
 20
2.9767628992
 30
0.0
 40
0.25
 41
0.0
 71
     1
 72
     1
  1
DATE:
  7
SLDTEXTSTYLE0
 73
     1
 44
1.0
  0
MTEXT
  5
8D
330
1F
100
AcDbEntity
  8
NOTES
100
AcDbMText
 10
25.4543888668
 20
2.0867330853
 30
0.0
 40
0.25
 41
0.0
 71
     2
 72
     1
  1
DO NOT SCALE DRAWING
  7
SLDTEXTSTYLE0
 73
     1
 44
1.0
  0
MTEXT
  5
8F
330
1F
100
AcDbEntity
  8
NOTES
100
AcDbMText
 10
29.7464249863
 20
3.1649066743
 30
0.0
 40
0.25
 41
0.0
 71
     1
 72
     1
  1
TITLE:
  7
SLDTEXTSTYLE1
 73
     1
 44
1.0
  0
MTEXT
  5
90
330
1F
100
AcDbEntity
  8
NOTES
100
AcDbMText
 10
37.0718707839
 20
3.1649066743
 30
0.0
 40
0.25
 41
0.0
 71
     1
 72
     1
  1
DWG NO.
  7
SLDTEXTSTYLE1
 73
     1
 44
1.0
  0
MTEXT
  5
92
330
1F
100
AcDbEntity
  8
NOTES
100
AcDbMText
 10
37.0988629991
 20
0.9612126767
 30
0.0
 40
0.25
 41
0.0
 71
     1
 72
     1
  1
SCALE:     1:1
  7
SLDTEXTSTYLE2
 73
     1
 44
1.0
  0
MTEXT
  5
94
330
1F
100
AcDbEntity
  8
NOTES
100
AcDbMText
 10
41.0928417076
 20
2.5476655485
 30
0.0
 40
0.25
 41
0.0
 71
     2
 72
     1
  1
909 - CAD
  7
SLDTEXTSTYLE3
 73
     1
 44
1.0
  0
MTEXT
  5
96
330
1F
100
AcDbEntity
  8
NOTES
100
AcDbMText
 10
33.3694194477
 20
2.5476655485
 30
0.0
 40
0.25
 41
0.0
 71
     2
 72
     1
  1
909 - HD Outdoor Ash Bin
  7
SLDTEXTSTYLE4
 73
     1
 44
1.0
  0
INSERT
  5
9C
330
1F
100
AcDbEntity
  8
NOTES
100
AcDbBlockReference
  2
SW_NOTE_0
 10
37.1818192358
 20
4.5042229054
 30
0.0
  0
INSERT
  5
A4
330
1F
100
AcDbEntity
  8
NOTES
100
AcDbBlockReference
  2
SW_NOTE_0_1
 10
23.5316603034
 20
5.0418528064
 30
0.0
  0
MTEXT
  5
A5
330
1F
100
AcDbEntity
  8
NOTES
100
AcDbMText
 10
26.4078925157
 20
2.9831044458
 30
0.0
 40
0.25
 41
0.0
 71
     2
 72
     1
  1
May 31, 2023
  7
SLDTEXTSTYLE1
 73
     1
 44
1.0
  0
LINE
  5
A6
330
1F
100
AcDbEntity
  8
0
  6
Continuous
 62
     7
370
    25
100
AcDbLine
 10
9.472248425
 20
9.75231642
 30
0.0
 11
9.472248425
 21
9.7521637075
 31
0.0
  0
LINE
  5
A7
330
1F
100
AcDbEntity
  8
0
  6
Continuous
 62
     7
370
    25
100
AcDbLine
 10
10.102248425
 20
9.7521637075
 30
0.0
 11
10.102248425
 21
9.75231642
 31
0.0
  0
LINE
  5
A8
330
1F
100
AcDbEntity
  8
0
  6
Continuous
 62
     7
370
    25
100
AcDbLine
 10
10.237248425
 20
9.7492621698
 30
0.0
 11
10.237248425
 21
9.7517055699
 31
0.0
  0
LINE
  5
A9
330
1F
100
AcDbEntity
  8
0
  6
Continuous
 62
     7
370
    25
100
AcDbLine
 10
9.337248425
 20
9.7517055699
 30
0.0
 11
9.337248425
 21
9.7492621698
 31
0.0
  0
LINE
  5
AA
330
1F
100
AcDbEntity
  8
0
  6
Continuous
 62
     7
370
    25
100
AcDbLine
 10
6.153248425
 20
18.3898965433
 30
0.0
 11
5.928248425
 21
18.3898965433
 31
0.0
  0
LINE
  5
AB
330
1F
100
AcDbEntity
  8
0
  6
Continuous
 62
     7
370
    25
100
AcDbLine
 10
6.653248425
 20
18.3898965433
 30
0.0
 11
6.428248425
 21
18.3898965433
 31
0.0
  0
LINE
  5
AC
330
1F
100
AcDbEntity
  8
0
  6
Continuous
 62
     7
370
    25
100
AcDbLine
 10
5.653248425
 20
18.3898965433
 30
0.0
 11
5.428248425
 21
18.3898965433
 31
0.0
  0
LINE
  5
AD
330
1F
100
AcDbEntity
  8
0
  6
Continuous
 62
     7
370
    25
100
AcDbLine
 10
7.153248425
 20
18.3898965433
 30
0.0
 11
6.928248425
 21
18.3898965433
 31
0.0
  0
LINE
  5
AE
330
1F
100
AcDbEntity
  8
0
  6
Continuous
 62
     7
370
    25
100
AcDbLine
 10
7.653248425
 20
18.3898965433
 30
0.0
 11
7.428248425
 21
18.3898965433
 31
0.0
  0
LINE
  5
AF
330
1F
100
AcDbEntity
  8
0
  6
Continuous
 62
     7
370
    25
100
AcDbLine
 10
11.653248425
 20
18.3898965433
 30
0.0
 11
11.428248425
 21
18.3898965433
 31
0.0
  0
LINE
  5
B0
330
1F
100
AcDbEntity
  8
0
  6
Continuous
 62
     7
370
    25
100
AcDbLine
 10
10.653248425
 20
18.3898965433
 30
0.0
 11
10.428248425
 21
18.3898965433
 31
0.0
  0
LINE
  5
B1
330
1F
100
AcDbEntity
  8
0
  6
Continuous
 62
     7
370
    25
100
AcDbLine
 10
9.653248425
 20
18.3898965433
 30
0.0
 11
9.428248425
 21
18.3898965433
 31
0.0
  0
LINE
  5
B2
330
1F
100
AcDbEntity
  8
0
  6
Continuous
 62
     7
370
    25
100
AcDbLine
 10
9.153248425
 20
18.3898965433
 30
0.0
 11
8.928248425
 21
18.3898965433
 31
0.0
  0
LINE
  5
B3
330
1F
100
AcDbEntity
  8
0
  6
Continuous
 62
     7
370
    25
100
AcDbLine
 10
12.653248425
 20
18.3898965433
 30
0.0
 11
12.428248425
 21
18.3898965433
 31
0.0
  0
LINE
  5
B4
330
1F
100
AcDbEntity
  8
0
  6
Continuous
 62
     7
370
    25
100
AcDbLine
 10
8.153248425
 20
18.3898965433
 30
0.0
 11
7.928248425
 21
18.3898965433
 31
0.0
  0
LINE
  5
B5
330
1F
100
AcDbEntity
  8
0
  6
Continuous
 62
     7
370
    25
100
AcDbLine
 10
10.153248425
 20
18.3898965433
 30
0.0
 11
9.928248425
 21
18.3898965433
 31
0.0
  0
LINE
  5
B6
330
1F
100
AcDbEntity
  8
0
  6
Continuous
 62
     7
370
    25
100
AcDbLine
 10
8.653248425
 20
18.3898965433
 30
0.0
 11
8.428248425
 21
18.3898965433
 31
0.0
  0
LINE
  5
B7
330
1F
100
AcDbEntity
  8
0
  6
Continuous
 62
     7
370
    25
100
AcDbLine
 10
13.653248425
 20
18.3898965433
 30
0.0
 11
13.428248425
 21
18.3898965433
 31
0.0
  0
LINE
  5
B8
330
1F
100
AcDbEntity
  8
0
  6
Continuous
 62
     7
370
    25
100
AcDbLine
 10
12.153248425
 20
18.3898965433
 30
0.0
 11
11.928248425
 21
18.3898965433
 31
0.0
  0
LINE
  5
B9
330
1F
100
AcDbEntity
  8
0
  6
Continuous
 62
     7
370
    25
100
AcDbLine
 10
14.153248425
 20
18.3898965433
 30
0.0
 11
13.928248425
 21
18.3898965433
 31
0.0
  0
LINE
  5
BA
330
1F
100
AcDbEntity
  8
0
  6
Continuous
 62
     7
370
    25
100
AcDbLine
 10
11.153248425
 20
18.3898965433
 30
0.0
 11
10.928248425
 21
18.3898965433
 31
0.0
  0
LINE
  5
BB
330
1F
100
AcDbEntity
  8
0
  6
Continuous
 62
     7
370
    25
100
AcDbLine
 10
13.153248425
 20
18.3898965433
 30
0.0
 11
12.928248425
 21
18.3898965433
 31
0.0
  0
LINE
  5
BC
330
1F
100
AcDbEntity
  8
0
  6
Continuous
 62
     7
370
    25
100
AcDbLine
 10
5.928248425
 20
18.3898965433
 30
0.0
 11
5.703248425
 21
18.3898965433
 31
0.0
  0
LINE
  5
BD
330
1F
100
AcDbEntity
  8
0
  6
Continuous
 62
     7
370
    25
100
AcDbLine
 10
6.428248425
 20
18.3898965433
 30
0.0
 11
6.203248425
 21
18.3898965433
 31
0.0
  0
LINE
  5
BE
330
1F
100
AcDbEntity
  8
0
  6
Continuous
 62
     7
370
    25
100
AcDbLine
 10
6.928248425
 20
18.3898965433
 30
0.0
 11
6.703248425
 21
18.3898965433
 31
0.0
  0
LINE
  5
BF
330
1F
100
AcDbEntity
  8
0
  6
Continuous
 62
     7
370
    25
100
AcDbLine
 10
13.428248425
 20
18.3898965433
 30
0.0
 11
13.203248425
 21
18.3898965433
 31
0.0
  0
LINE
  5
C0
330
1F
100
AcDbEntity
  8
0
  6
Continuous
 62
     7
370
    25
100
AcDbLine
 10
13.928248425
 20
18.3898965433
 30
0.0
 11
13.703248425
 21
18.3898965433
 31
0.0
  0
LINE
  5
C1
330
1F
100
AcDbEntity
  8
0
  6
Continuous
 62
     7
370
    25
100
AcDbLine
 10
7.428248425
 20
18.3898965433
 30
0.0
 11
7.203248425
 21
18.3898965433
 31
0.0
  0
LINE
  5
C2
330
1F
100
AcDbEntity
  8
0
  6
Continuous
 62
     7
370
    25
100
AcDbLine
 10
8.428248425
 20
18.3898965433
 30
0.0
 11
8.203248425
 21
18.3898965433
 31
0.0
  0
LINE
  5
C3
330
1F
100
AcDbEntity
  8
0
  6
Continuous
 62
     7
370
    25
100
AcDbLine
 10
8.928248425
 20
18.3898965433
 30
0.0
 11
8.703248425
 21
18.3898965433
 31
0.0
  0
LINE
  5
C4
330
1F
100
AcDbEntity
  8
0
  6
Continuous
 62
     7
370
    25
100
AcDbLine
 10
12.928248425
 20
18.3898965433
 30
0.0
 11
12.703248425
 21
18.3898965433
 31
0.0
  0
LINE
  5
C5
330
1F
100
AcDbEntity
  8
0
  6
Continuous
 62
     7
370
    25
100
AcDbLine
 10
9.928248425
 20
18.3898965433
 30
0.0
 11
9.703248425
 21
18.3898965433
 31
0.0
  0
LINE
  5
C6
330
1F
100
AcDbEntity
  8
0
  6
Continuous
 62
     7
370
    25
100
AcDbLine
 10
7.928248425
 20
18.3898965433
 30
0.0
 11
7.703248425
 21
18.3898965433
 31
0.0
  0
LINE
  5
C7
330
1F
100
AcDbEntity
  8
0
  6
Continuous
 62
     7
370
    25
100
AcDbLine
 10
9.428248425
 20
18.3898965433
 30
0.0
 11
9.203248425
 21
18.3898965433
 31
0.0
  0
LINE
  5
C8
330
1F
100
AcDbEntity
  8
0
  6
Continuous
 62
     7
370
    25
100
AcDbLine
 10
10.928248425
 20
18.3898965433
 30
0.0
 11
10.703248425
 21
18.3898965433
 31
0.0
  0
LINE
  5
C9
330
1F
100
AcDbEntity
  8
0
  6
Continuous
 62
     7
370
    25
100
AcDbLine
 10
10.428248425
 20
18.3898965433
 30
0.0
 11
10.203248425
 21
18.3898965433
 31
0.0
  0
LINE
  5
CA
330
1F
100
AcDbEntity
  8
0
  6
Continuous
 62
     7
370
    25
100
AcDbLine
 10
11.928248425
 20
18.3898965433
 30
0.0
 11
11.703248425
 21
18.3898965433
 31
0.0
  0
LINE
  5
CB
330
1F
100
AcDbEntity
  8
0
  6
Continuous
 62
     7
370
    25
100
AcDbLine
 10
11.428248425
 20
18.3898965433
 30
0.0
 11
11.203248425
 21
18.3898965433
 31
0.0
  0
LINE
  5
CC
330
1F
100
AcDbEntity
  8
0
  6
Continuous
 62
     7
370
    25
100
AcDbLine
 10
12.428248425
 20
18.3898965433
 30
0.0
 11
12.203248425
 21
18.3898965433
 31
0.0
  0
LINE
  5
CD
330
1F
100
AcDbEntity
  8
0
  6
Continuous
 62
     7
370
    25
100
AcDbLine
 10
5.381248425
 20
8.4976180344
 30
0.0
 11
14.193248425
 21
8.4976180344
 31
0.0
  0
CIRCLE
  5
CE
330
1F
100
AcDbEntity
  8
0
  6
Continuous
 62
     7
370
    25
100
AcDbCircle
 10
9.7872447441
 20
9.7523370359
 30
0.0
 40
0.3999907637899983
  0
ARC
  5
CF
330
1F
100
AcDbEntity
  8
0
  6
Continuous
 62
     7
370
    25
100
AcDbCircle
 10
9.7872304275
 20
9.751721156
 30
0.0
 40
0.4499820027838596
100
AcDbArc
 50
180.0019845603
 51
270.0022916027
  0
ARC
  5
D0
330
1F
100
AcDbEntity
  8
0
  6
Continuous
 62
     7
370
    25
100
AcDbCircle
 10
9.7872650038
 20
9.7517225748
 30
0.0
 40
0.4499834215484518
100
AcDbArc
 50
269.9978890473
 51
359.9978347896
  0
CIRCLE
  5
D1
330
1F
100
AcDbEntity
  8
0
  6
Continuous
 62
     7
370
    25
100
AcDbCircle
 10
9.7872452389
 20
9.7523340856
 30
0.0
 40
0.3249934107936451
  0
LINE
  5
D2
330
1F
100
AcDbEntity
  8
0
  6
Continuous
 62
     7
370
    25
100
AcDbLine
 10
9.742248425
 20
9.8338595614
 30
0.0
 11
9.742248425
 21
9.4588875478
 31
0.0
  0
LINE
  5
D3
330
1F
100
AcDbEntity
  8
0
  6
Continuous
 62
     7
370
    25
100
AcDbLine
 10
9.742248425
 20
9.4588875478
 30
0.0
 11
9.832248425
 21
9.4588875478
 31
0.0
  0
LINE
  5
D4
330
1F
100
AcDbEntity
  8
0
  6
Continuous
 62
     7
370
    25
100
AcDbLine
 10
9.832248425
 20
9.4588875478
 30
0.0
 11
9.832248425
 21
9.8338595614
 31
0.0
  0
LINE
  5
D5
330
1F
100
AcDbEntity
  8
0
  6
Continuous
 62
     7
370
    25
100
AcDbLine
 10
9.832248425
 20
9.8338595614
 30
0.0
 11
9.742248425
 21
9.8338595614
 31
0.0
  0
LINE
  5
D6
330
1F
100
AcDbEntity
  8
0
  6
Continuous
 62
     7
370
    25
100
AcDbLine
 10
9.832248425
 20
9.8323324363
 30
0.0
 11
9.742248425
 21
9.8323324363
 31
0.0
  0
ARC
  5
D7
330
1F
100
AcDbEntity
  8
0
  6
Continuous
 62
     7
370
    25
100
AcDbCircle
 10
9.7872664225
 20
9.7492777558
 30
0.0
 40
0.4499820027838573
100
AcDbArc
 50
269.9977083973
 51
359.9980154397
  0
ARC
  5
D8
330
1F
100
AcDbEntity
  8
0
  6
Continuous
 62
     7
370
    25
100
AcDbCircle
 10
9.7872318462
 20
9.7492791747
 30
0.0
 40
0.4499834215484518
100
AcDbArc
 50
180.0021652103
 51
270.0021109527
  0
LINE
  5
D9
330
1F
100
AcDbEntity
  8
0
  6
Continuous
 62
     7
370
    25
100
AcDbLine
 10
5.428248425
 20
18.3546975229
 30
0.0
 11
5.428248425
 21
18.3771136359
 31
0.0
  0
LINE
  5
DA
330
1F
100
AcDbEntity
  8
0
  6
Continuous
 62
     7
370
    25
100
AcDbLine
 10
5.428248425
 20
18.3771136359
 30
0.0
 11
5.653248425
 21
18.3771136359
 31
0.0
  0
LINE
  5
DB
330
1F
100
AcDbEntity
  8
0
  6
Continuous
 62
     7
370
    25
100
AcDbLine
 10
5.653248425
 20
18.3546975229
 30
0.0
 11
5.653248425
 21
18.3771136359
 31
0.0
  0
LINE
  5
DC
330
1F
100
AcDbEntity
  8
0
  6
Continuous
 62
     7
370
    25
100
AcDbLine
 10
5.928248425
 20
18.3771136359
 30
0.0
 11
5.928248425
 21
18.3546975229
 31
0.0
  0
LINE
  5
DD
330
1F
100
AcDbEntity
  8
0
  6
Continuous
 62
     7
370
    25
100
AcDbLine
 10
5.928248425
 20
18.3771136359
 30
0.0
 11
6.153248425
 21
18.3771136359
 31
0.0
  0
LINE
  5
DE
330
1F
100
AcDbEntity
  8
0
  6
Continuous
 62
     7
370
    25
100
AcDbLine
 10
6.153248425
 20
18.3546975229
 30
0.0
 11
6.153248425
 21
18.3771136359
 31
0.0
  0
LINE
  5
DF
330
1F
100
AcDbEntity
  8
0
  6
Continuous
 62
     7
370
    25
100
AcDbLine
 10
6.428248425
 20
18.3771136359
 30
0.0
 11
6.428248425
 21
18.3546975229
 31
0.0
  0
LINE
  5
E0
330
1F
100
AcDbEntity
  8
0
  6
Continuous
 62
     7
370
    25
100
AcDbLine
 10
6.428248425
 20
18.3771136359
 30
0.0
 11
6.653248425
 21
18.3771136359
 31
0.0
  0
LINE
  5
E1
330
1F
100
AcDbEntity
  8
0
  6
Continuous
 62
     7
370
    25
100
AcDbLine
 10
6.653248425
 20
18.3546975229
 30
0.0
 11
6.653248425
 21
18.3771136359
 31
0.0
  0
LINE
  5
E2
330
1F
100
AcDbEntity
  8
0
  6
Continuous
 62
     7
370
    25
100
AcDbLine
 10
6.928248425
 20
18.3771136359
 30
0.0
 11
6.928248425
 21
18.3546975229
 31
0.0
  0
LINE
  5
E3
330
1F
100
AcDbEntity
  8
0
  6
Continuous
 62
     7
370
    25
100
AcDbLine
 10
6.928248425
 20
18.3771136359
 30
0.0
 11
7.153248425
 21
18.3771136359
 31
0.0
  0
LINE
  5
E4
330
1F
100
AcDbEntity
  8
0
  6
Continuous
 62
     7
370
    25
100
AcDbLine
 10
7.153248425
 20
18.3546975229
 30
0.0
 11
7.153248425
 21
18.3771136359
 31
0.0
  0
LINE
  5
E5
330
1F
100
AcDbEntity
  8
0
  6
Continuous
 62
     7
370
    25
100
AcDbLine
 10
7.428248425
 20
18.3771136359
 30
0.0
 11
7.428248425
 21
18.3546975229
 31
0.0
  0
LINE
  5
E6
330
1F
100
AcDbEntity
  8
0
  6
Continuous
 62
     7
370
    25
100
AcDbLine
 10
7.428248425
 20
18.3771136359
 30
0.0
 11
7.653248425
 21
18.3771136359
 31
0.0
  0
LINE
  5
E7
330
1F
100
AcDbEntity
  8
0
  6
Continuous
 62
     7
370
    25
100
AcDbLine
 10
7.653248425
 20
18.3546975229
 30
0.0
 11
7.653248425
 21
18.3771136359
 31
0.0
  0
LINE
  5
E8
330
1F
100
AcDbEntity
  8
0
  6
Continuous
 62
     7
370
    25
100
AcDbLine
 10
7.928248425
 20
18.3771136359
 30
0.0
 11
7.928248425
 21
18.3546975229
 31
0.0
  0
LINE
  5
E9
330
1F
100
AcDbEntity
  8
0
  6
Continuous
 62
     7
370
    25
100
AcDbLine
 10
7.928248425
 20
18.3771136359
 30
0.0
 11
8.153248425
 21
18.3771136359
 31
0.0
  0
LINE
  5
EA
330
1F
100
AcDbEntity
  8
0
  6
Continuous
 62
     7
370
    25
100
AcDbLine
 10
8.153248425
 20
18.3546975229
 30
0.0
 11
8.153248425
 21
18.3771136359
 31
0.0
  0
LINE
  5
EB
330
1F
100
AcDbEntity
  8
0
  6
Continuous
 62
     7
370
    25
100
AcDbLine
 10
8.428248425
 20
18.3771136359
 30
0.0
 11
8.428248425
 21
18.3546975229
 31
0.0
  0
LINE
  5
EC
330
1F
100
AcDbEntity
  8
0
  6
Continuous
 62
     7
370
    25
100
AcDbLine
 10
8.428248425
 20
18.3771136359
 30
0.0
 11
8.653248425
 21
18.3771136359
 31
0.0
  0
LINE
  5
ED
330
1F
100
AcDbEntity
  8
0
  6
Continuous
 62
     7
370
    25
100
AcDbLine
 10
8.653248425
 20
18.3546975229
 30
0.0
 11
8.653248425
 21
18.3771136359
 31
0.0
  0
LINE
  5
EE
330
1F
100
AcDbEntity
  8
0
  6
Continuous
 62
     7
370
    25
100
AcDbLine
 10
8.928248425
 20
18.3771136359
 30
0.0
 11
8.928248425
 21
18.3546975229
 31
0.0
  0
LINE
  5
EF
330
1F
100
AcDbEntity
  8
0
  6
Continuous
 62
     7
370
    25
100
AcDbLine
 10
8.928248425
 20
18.3771136359
 30
0.0
 11
9.153248425
 21
18.3771136359
 31
0.0
  0
LINE
  5
F0
330
1F
100
AcDbEntity
  8
0
  6
Continuous
 62
     7
370
    25
100
AcDbLine
 10
9.153248425
 20
18.3546975229
 30
0.0
 11
9.153248425
 21
18.3771136359
 31
0.0
  0
LINE
  5
F1
330
1F
100
AcDbEntity
  8
0
  6
Continuous
 62
     7
370
    25
100
AcDbLine
 10
9.428248425
 20
18.3771136359
 30
0.0
 11
9.428248425
 21
18.3546975229
 31
0.0
  0
LINE
  5
F2
330
1F
100
AcDbEntity
  8
0
  6
Continuous
 62
     7
370
    25
100
AcDbLine
 10
9.428248425
 20
18.3771136359
 30
0.0
 11
9.653248425
 21
18.3771136359
 31
0.0
  0
LINE
  5
F3
330
1F
100
AcDbEntity
  8
0
  6
Continuous
 62
     7
370
    25
100
AcDbLine
 10
9.653248425
 20
18.3546975229
 30
0.0
 11
9.653248425
 21
18.3771136359
 31
0.0
  0
LINE
  5
F4
330
1F
100
AcDbEntity
  8
0
  6
Continuous
 62
     7
370
    25
100
AcDbLine
 10
9.928248425
 20
18.3771136359
 30
0.0
 11
9.928248425
 21
18.3546975229
 31
0.0
  0
LINE
  5
F5
330
1F
100
AcDbEntity
  8
0
  6
Continuous
 62
     7
370
    25
100
AcDbLine
 10
9.928248425
 20
18.3771136359
 30
0.0
 11
10.153248425
 21
18.3771136359
 31
0.0
  0
LINE
  5
F6
330
1F
100
AcDbEntity
  8
0
  6
Continuous
 62
     7
370
    25
100
AcDbLine
 10
10.153248425
 20
18.3546975229
 30
0.0
 11
10.153248425
 21
18.3771136359
 31
0.0
  0
LINE
  5
F7
330
1F
100
AcDbEntity
  8
0
  6
Continuous
 62
     7
370
    25
100
AcDbLine
 10
10.428248425
 20
18.3771136359
 30
0.0
 11
10.428248425
 21
18.3546975229
 31
0.0
  0
LINE
  5
F8
330
1F
100
AcDbEntity
  8
0
  6
Continuous
 62
     7
370
    25
100
AcDbLine
 10
10.428248425
 20
18.3771136359
 30
0.0
 11
10.653248425
 21
18.3771136359
 31
0.0
  0
LINE
  5
F9
330
1F
100
AcDbEntity
  8
0
  6
Continuous
 62
     7
370
    25
100
AcDbLine
 10
10.653248425
 20
18.3546975229
 30
0.0
 11
10.653248425
 21
18.3771136359
 31
0.0
  0
LINE
  5
FA
330
1F
100
AcDbEntity
  8
0
  6
Continuous
 62
     7
370
    25
100
AcDbLine
 10
10.928248425
 20
18.3771136359
 30
0.0
 11
10.928248425
 21
18.3546975229
 31
0.0
  0
LINE
  5
FB
330
1F
100
AcDbEntity
  8
0
  6
Continuous
 62
     7
370
    25
100
AcDbLine
 10
10.928248425
 20
18.3771136359
 30
0.0
 11
11.153248425
 21
18.3771136359
 31
0.0
  0
LINE
  5
FC
330
1F
100
AcDbEntity
  8
0
  6
Continuous
 62
     7
370
    25
100
AcDbLine
 10
11.153248425
 20
18.3546975229
 30
0.0
 11
11.153248425
 21
18.3771136359
 31
0.0
  0
LINE
  5
FD
330
1F
100
AcDbEntity
  8
0
  6
Continuous
 62
     7
370
    25
100
AcDbLine
 10
11.428248425
 20
18.3771136359
 30
0.0
 11
11.428248425
 21
18.3546975229
 31
0.0
  0
LINE
  5
FE
330
1F
100
AcDbEntity
  8
0
  6
Continuous
 62
     7
370
    25
100
AcDbLine
 10
11.428248425
 20
18.3771136359
 30
0.0
 11
11.653248425
 21
18.3771136359
 31
0.0
  0
LINE
  5
FF
330
1F
100
AcDbEntity
  8
0
  6
Continuous
 62
     7
370
    25
100
AcDbLine
 10
11.653248425
 20
18.3546975229
 30
0.0
 11
11.653248425
 21
18.3771136359
 31
0.0
  0
LINE
  5
100
330
1F
100
AcDbEntity
  8
0
  6
Continuous
 62
     7
370
    25
100
AcDbLine
 10
11.928248425
 20
18.3771136359
 30
0.0
 11
11.928248425
 21
18.3546975229
 31
0.0
  0
LINE
  5
101
330
1F
100
AcDbEntity
  8
0
  6
Continuous
 62
     7
370
    25
100
AcDbLine
 10
11.928248425
 20
18.3771136359
 30
0.0
 11
12.153248425
 21
18.3771136359
 31
0.0
  0
LINE
  5
102
330
1F
100
AcDbEntity
  8
0
  6
Continuous
 62
     7
370
    25
100
AcDbLine
 10
12.153248425
 20
18.3546975229
 30
0.0
 11
12.153248425
 21
18.3771136359
 31
0.0
  0
LINE
  5
103
330
1F
100
AcDbEntity
  8
0
  6
Continuous
 62
     7
370
    25
100
AcDbLine
 10
12.428248425
 20
18.3771136359
 30
0.0
 11
12.428248425
 21
18.3546975229
 31
0.0
  0
LINE
  5
104
330
1F
100
AcDbEntity
  8
0
  6
Continuous
 62
     7
370
    25
100
AcDbLine
 10
12.428248425
 20
18.3771136359
 30
0.0
 11
12.653248425
 21
18.3771136359
 31
0.0
  0
LINE
  5
105
330
1F
100
AcDbEntity
  8
0
  6
Continuous
 62
     7
370
    25
100
AcDbLine
 10
12.653248425
 20
18.3546975229
 30
0.0
 11
12.653248425
 21
18.3771136359
 31
0.0
  0
LINE
  5
106
330
1F
100
AcDbEntity
  8
0
  6
Continuous
 62
     7
370
    25
100
AcDbLine
 10
12.928248425
 20
18.3771136359
 30
0.0
 11
12.928248425
 21
18.3546975229
 31
0.0
  0
LINE
  5
107
330
1F
100
AcDbEntity
  8
0
  6
Continuous
 62
     7
370
    25
100
AcDbLine
 10
12.928248425
 20
18.3771136359
 30
0.0
 11
13.153248425
 21
18.3771136359
 31
0.0
  0
LINE
  5
108
330
1F
100
AcDbEntity
  8
0
  6
Continuous
 62
     7
370
    25
100
AcDbLine
 10
13.153248425
 20
18.3546975229
 30
0.0
 11
13.153248425
 21
18.3771136359
 31
0.0
  0
LINE
  5
109
330
1F
100
AcDbEntity
  8
0
  6
Continuous
 62
     7
370
    25
100
AcDbLine
 10
13.428248425
 20
18.3771136359
 30
0.0
 11
13.428248425
 21
18.3546975229
 31
0.0
  0
LINE
  5
10A
330
1F
100
AcDbEntity
  8
0
  6
Continuous
 62
     7
370
    25
100
AcDbLine
 10
13.428248425
 20
18.3771136359
 30
0.0
 11
13.653248425
 21
18.3771136359
 31
0.0
  0
LINE
  5
10B
330
1F
100
AcDbEntity
  8
0
  6
Continuous
 62
     7
370
    25
100
AcDbLine
 10
13.653248425
 20
18.3546975229
 30
0.0
 11
13.653248425
 21
18.3771136359
 31
0.0
  0
LINE
  5
10C
330
1F
100
AcDbEntity
  8
0
  6
Continuous
 62
     7
370
    25
100
AcDbLine
 10
13.928248425
 20
18.3771136359
 30
0.0
 11
13.928248425
 21
18.3546975229
 31
0.0
  0
LINE
  5
10D
330
1F
100
AcDbEntity
  8
0
  6
Continuous
 62
     7
370
    25
100
AcDbLine
 10
13.928248425
 20
18.3771136359
 30
0.0
 11
14.153248425
 21
18.3771136359
 31
0.0
  0
LINE
  5
10E
330
1F
100
AcDbEntity
  8
0
  6
Continuous
 62
     7
370
    25
100
AcDbLine
 10
14.153248425
 20
18.3546975229
 30
0.0
 11
14.153248425
 21
18.3771136359
 31
0.0
  0
LINE
  5
10F
330
1F
100
AcDbEntity
  8
0
  6
Continuous
 62
     7
370
    25
100
AcDbLine
 10
6.153248425
 20
18.3771136359
 30
0.0
 11
6.153248425
 21
18.3898965433
 31
0.0
  0
LINE
  5
110
330
1F
100
AcDbEntity
  8
0
  6
Continuous
 62
     7
370
    25
100
AcDbLine
 10
5.928248425
 20
18.3898965433
 30
0.0
 11
5.928248425
 21
18.3771136359
 31
0.0
  0
LINE
  5
111
330
1F
100
AcDbEntity
  8
0
  6
Continuous
 62
     7
370
    25
100
AcDbLine
 10
6.428248425
 20
18.3898965433
 30
0.0
 11
6.428248425
 21
18.3771136359
 31
0.0
  0
LINE
  5
112
330
1F
100
AcDbEntity
  8
0
  6
Continuous
 62
     7
370
    25
100
AcDbLine
 10
6.653248425
 20
18.3771136359
 30
0.0
 11
6.653248425
 21
18.3898965433
 31
0.0
  0
LINE
  5
113
330
1F
100
AcDbEntity
  8
0
  6
Continuous
 62
     7
370
    25
100
AcDbLine
 10
5.653248425
 20
18.3771136359
 30
0.0
 11
5.653248425
 21
18.3898965433
 31
0.0
  0
LINE
  5
114
330
1F
100
AcDbEntity
  8
0
  6
Continuous
 62
     7
370
    25
100
AcDbLine
 10
5.428248425
 20
18.3771136359
 30
0.0
 11
5.428248425
 21
18.3898965433
 31
0.0
  0
LINE
  5
115
330
1F
100
AcDbEntity
  8
0
  6
Continuous
 62
     7
370
    25
100
AcDbLine
 10
7.153248425
 20
18.3771136359
 30
0.0
 11
7.153248425
 21
18.3898965433
 31
0.0
  0
LINE
  5
116
330
1F
100
AcDbEntity
  8
0
  6
Continuous
 62
     7
370
    25
100
AcDbLine
 10
6.928248425
 20
18.3898965433
 30
0.0
 11
6.928248425
 21
18.3771136359
 31
0.0
  0
LINE
  5
117
330
1F
100
AcDbEntity
  8
0
  6
Continuous
 62
     7
370
    25
100
AcDbLine
 10
7.428248425
 20
18.3898965433
 30
0.0
 11
7.428248425
 21
18.3771136359
 31
0.0
  0
LINE
  5
118
330
1F
100
AcDbEntity
  8
0
  6
Continuous
 62
     7
370
    25
100
AcDbLine
 10
7.653248425
 20
18.3771136359
 30
0.0
 11
7.653248425
 21
18.3898965433
 31
0.0
  0
LINE
  5
119
330
1F
100
AcDbEntity
  8
0
  6
Continuous
 62
     7
370
    25
100
AcDbLine
 10
11.428248425
 20
18.3898965433
 30
0.0
 11
11.428248425
 21
18.3771136359
 31
0.0
  0
LINE
  5
11A
330
1F
100
AcDbEntity
  8
0
  6
Continuous
 62
     7
370
    25
100
AcDbLine
 10
11.653248425
 20
18.3771136359
 30
0.0
 11
11.653248425
 21
18.3898965433
 31
0.0
  0
LINE
  5
11B
330
1F
100
AcDbEntity
  8
0
  6
Continuous
 62
     7
370
    25
100
AcDbLine
 10
10.428248425
 20
18.3898965433
 30
0.0
 11
10.428248425
 21
18.3771136359
 31
0.0
  0
LINE
  5
11C
330
1F
100
AcDbEntity
  8
0
  6
Continuous
 62
     7
370
    25
100
AcDbLine
 10
10.653248425
 20
18.3771136359
 30
0.0
 11
10.653248425
 21
18.3898965433
 31
0.0
  0
LINE
  5
11D
330
1F
100
AcDbEntity
  8
0
  6
Continuous
 62
     7
370
    25
100
AcDbLine
 10
9.428248425
 20
18.3898965433
 30
0.0
 11
9.428248425
 21
18.3771136359
 31
0.0
  0
LINE
  5
11E
330
1F
100
AcDbEntity
  8
0
  6
Continuous
 62
     7
370
    25
100
AcDbLine
 10
9.653248425
 20
18.3771136359
 30
0.0
 11
9.653248425
 21
18.3898965433
 31
0.0
  0
LINE
  5
11F
330
1F
100
AcDbEntity
  8
0
  6
Continuous
 62
     7
370
    25
100
AcDbLine
 10
9.153248425
 20
18.3771136359
 30
0.0
 11
9.153248425
 21
18.3898965433
 31
0.0
  0
LINE
  5
120
330
1F
100
AcDbEntity
  8
0
  6
Continuous
 62
     7
370
    25
100
AcDbLine
 10
8.928248425
 20
18.3898965433
 30
0.0
 11
8.928248425
 21
18.3771136359
 31
0.0
  0
LINE
  5
121
330
1F
100
AcDbEntity
  8
0
  6
Continuous
 62
     7
370
    25
100
AcDbLine
 10
12.653248425
 20
18.3771136359
 30
0.0
 11
12.653248425
 21
18.3898965433
 31
0.0
  0
LINE
  5
122
330
1F
100
AcDbEntity
  8
0
  6
Continuous
 62
     7
370
    25
100
AcDbLine
 10
12.428248425
 20
18.3898965433
 30
0.0
 11
12.428248425
 21
18.3771136359
 31
0.0
  0
LINE
  5
123
330
1F
100
AcDbEntity
  8
0
  6
Continuous
 62
     7
370
    25
100
AcDbLine
 10
7.928248425
 20
18.3898965433
 30
0.0
 11
7.928248425
 21
18.3771136359
 31
0.0
  0
LINE
  5
124
330
1F
100
AcDbEntity
  8
0
  6
Continuous
 62
     7
370
    25
100
AcDbLine
 10
8.153248425
 20
18.3771136359
 30
0.0
 11
8.153248425
 21
18.3898965433
 31
0.0
  0
LINE
  5
125
330
1F
100
AcDbEntity
  8
0
  6
Continuous
 62
     7
370
    25
100
AcDbLine
 10
10.153248425
 20
18.3771136359
 30
0.0
 11
10.153248425
 21
18.3898965433
 31
0.0
  0
LINE
  5
126
330
1F
100
AcDbEntity
  8
0
  6
Continuous
 62
     7
370
    25
100
AcDbLine
 10
9.928248425
 20
18.3898965433
 30
0.0
 11
9.928248425
 21
18.3771136359
 31
0.0
  0
LINE
  5
127
330
1F
100
AcDbEntity
  8
0
  6
Continuous
 62
     7
370
    25
100
AcDbLine
 10
8.428248425
 20
18.3898965433
 30
0.0
 11
8.428248425
 21
18.3771136359
 31
0.0
  0
LINE
  5
128
330
1F
100
AcDbEntity
  8
0
  6
Continuous
 62
     7
370
    25
100
AcDbLine
 10
8.653248425
 20
18.3771136359
 30
0.0
 11
8.653248425
 21
18.3898965433
 31
0.0
  0
LINE
  5
129
330
1F
100
AcDbEntity
  8
0
  6
Continuous
 62
     7
370
    25
100
AcDbLine
 10
13.653248425
 20
18.3771136359
 30
0.0
 11
13.653248425
 21
18.3898965433
 31
0.0
  0
LINE
  5
12A
330
1F
100
AcDbEntity
  8
0
  6
Continuous
 62
     7
370
    25
100
AcDbLine
 10
13.428248425
 20
18.3898965433
 30
0.0
 11
13.428248425
 21
18.3771136359
 31
0.0
  0
LINE
  5
12B
330
1F
100
AcDbEntity
  8
0
  6
Continuous
 62
     7
370
    25
100
AcDbLine
 10
12.153248425
 20
18.3771136359
 30
0.0
 11
12.153248425
 21
18.3898965433
 31
0.0
  0
LINE
  5
12C
330
1F
100
AcDbEntity
  8
0
  6
Continuous
 62
     7
370
    25
100
AcDbLine
 10
11.928248425
 20
18.3898965433
 30
0.0
 11
11.928248425
 21
18.3771136359
 31
0.0
  0
LINE
  5
12D
330
1F
100
AcDbEntity
  8
0
  6
Continuous
 62
     7
370
    25
100
AcDbLine
 10
13.928248425
 20
18.3898965433
 30
0.0
 11
13.928248425
 21
18.3771136359
 31
0.0
  0
LINE
  5
12E
330
1F
100
AcDbEntity
  8
0
  6
Continuous
 62
     7
370
    25
100
AcDbLine
 10
14.153248425
 20
18.3771136359
 30
0.0
 11
14.153248425
 21
18.3898965433
 31
0.0
  0
LINE
  5
12F
330
1F
100
AcDbEntity
  8
0
  6
Continuous
 62
     7
370
    25
100
AcDbLine
 10
11.153248425
 20
18.3771136359
 30
0.0
 11
11.153248425
 21
18.3898965433
 31
0.0
  0
LINE
  5
130
330
1F
100
AcDbEntity
  8
0
  6
Continuous
 62
     7
370
    25
100
AcDbLine
 10
10.928248425
 20
18.3898965433
 30
0.0
 11
10.928248425
 21
18.3771136359
 31
0.0
  0
LINE
  5
131
330
1F
100
AcDbEntity
  8
0
  6
Continuous
 62
     7
370
    25
100
AcDbLine
 10
13.153248425
 20
18.3771136359
 30
0.0
 11
13.153248425
 21
18.3898965433
 31
0.0
  0
LINE
  5
132
330
1F
100
AcDbEntity
  8
0
  6
Continuous
 62
     7
370
    25
100
AcDbLine
 10
12.928248425
 20
18.3898965433
 30
0.0
 11
12.928248425
 21
18.3771136359
 31
0.0
  0
LINE
  5
133
330
1F
100
AcDbEntity
  8
0
  6
Continuous
 62
     7
370
    25
100
AcDbLine
 10
5.703248425
 20
18.3898965433
 30
0.0
 11
5.703248425
 21
18.3546975229
 31
0.0
  0
LINE
  5
134
330
1F
100
AcDbEntity
  8
0
  6
Continuous
 62
     7
370
    25
100
AcDbLine
 10
6.203248425
 20
18.3898965433
 30
0.0
 11
6.203248425
 21
18.3546975229
 31
0.0
  0
LINE
  5
135
330
1F
100
AcDbEntity
  8
0
  6
Continuous
 62
     7
370
    25
100
AcDbLine
 10
6.703248425
 20
18.3898965433
 30
0.0
 11
6.703248425
 21
18.3546975229
 31
0.0
  0
LINE
  5
136
330
1F
100
AcDbEntity
  8
0
  6
Continuous
 62
     7
370
    25
100
AcDbLine
 10
13.203248425
 20
18.3898965433
 30
0.0
 11
13.203248425
 21
18.3546975229
 31
0.0
  0
LINE
  5
137
330
1F
100
AcDbEntity
  8
0
  6
Continuous
 62
     7
370
    25
100
AcDbLine
 10
13.703248425
 20
18.3898965433
 30
0.0
 11
13.703248425
 21
18.3546975229
 31
0.0
  0
LINE
  5
138
330
1F
100
AcDbEntity
  8
0
  6
Continuous
 62
     7
370
    25
100
AcDbLine
 10
7.203248425
 20
18.3898965433
 30
0.0
 11
7.203248425
 21
18.3546975229
 31
0.0
  0
LINE
  5
139
330
1F
100
AcDbEntity
  8
0
  6
Continuous
 62
     7
370
    25
100
AcDbLine
 10
8.203248425
 20
18.3898965433
 30
0.0
 11
8.203248425
 21
18.3546975229
 31
0.0
  0
LINE
  5
13A
330
1F
100
AcDbEntity
  8
0
  6
Continuous
 62
     7
370
    25
100
AcDbLine
 10
8.703248425
 20
18.3898965433
 30
0.0
 11
8.703248425
 21
18.3546975229
 31
0.0
  0
LINE
  5
13B
330
1F
100
AcDbEntity
  8
0
  6
Continuous
 62
     7
370
    25
100
AcDbLine
 10
12.703248425
 20
18.3898965433
 30
0.0
 11
12.703248425
 21
18.3546975229
 31
0.0
  0
LINE
  5
13C
330
1F
100
AcDbEntity
  8
0
  6
Continuous
 62
     7
370
    25
100
AcDbLine
 10
9.703248425
 20
18.3898965433
 30
0.0
 11
9.703248425
 21
18.3546975229
 31
0.0
  0
LINE
  5
13D
330
1F
100
AcDbEntity
  8
0
  6
Continuous
 62
     7
370
    25
100
AcDbLine
 10
7.703248425
 20
18.3898965433
 30
0.0
 11
7.703248425
 21
18.3546975229
 31
0.0
  0
LINE
  5
13E
330
1F
100
AcDbEntity
  8
0
  6
Continuous
 62
     7
370
    25
100
AcDbLine
 10
9.203248425
 20
18.3898965433
 30
0.0
 11
9.203248425
 21
18.3546975229
 31
0.0
  0
LINE
  5
13F
330
1F
100
AcDbEntity
  8
0
  6
Continuous
 62
     7
370
    25
100
AcDbLine
 10
10.703248425
 20
18.3898965433
 30
0.0
 11
10.703248425
 21
18.3546975229
 31
0.0
  0
LINE
  5
140
330
1F
100
AcDbEntity
  8
0
  6
Continuous
 62
     7
370
    25
100
AcDbLine
 10
10.203248425
 20
18.3898965433
 30
0.0
 11
10.203248425
 21
18.3546975229
 31
0.0
  0
LINE
  5
141
330
1F
100
AcDbEntity
  8
0
  6
Continuous
 62
     7
370
    25
100
AcDbLine
 10
11.703248425
 20
18.3898965433
 30
0.0
 11
11.703248425
 21
18.3546975229
 31
0.0
  0
LINE
  5
142
330
1F
100
AcDbEntity
  8
0
  6
Continuous
 62
     7
370
    25
100
AcDbLine
 10
11.203248425
 20
18.3898965433
 30
0.0
 11
11.203248425
 21
18.3546975229
 31
0.0
  0
LINE
  5
143
330
1F
100
AcDbEntity
  8
0
  6
Continuous
 62
     7
370
    25
100
AcDbLine
 10
12.203248425
 20
18.3898965433
 30
0.0
 11
12.203248425
 21
18.3546975229
 31
0.0
  0
LINE
  5
144
330
1F
100
AcDbEntity
  8
0
  6
Continuous
 62
     7
370
    25
100
AcDbLine
 10
14.193248425
 20
8.4976180344
 30
0.0
 11
14.193248425
 21
8.5583510545
 31
0.0
  0
LINE
  5
145
330
1F
100
AcDbEntity
  8
0
  6
Continuous
 62
     7
370
    25
100
AcDbLine
 10
5.381248425
 20
8.5583510545
 30
0.0
 11
5.381248425
 21
8.4976180344
 31
0.0
  0
LINE
  5
146
330
1F
100
AcDbEntity
  8
0
  6
Continuous
 62
     7
370
    25
100
AcDbLine
 10
5.381248425
 20
8.5583510545
 30
0.0
 11
5.381248425
 21
14.8095604512
 31
0.0
  0
LINE
  5
147
330
1F
100
AcDbEntity
  8
0
  6
Continuous
 62
     7
370
    25
100
AcDbLine
 10
5.381248425
 20
14.8095604512
 30
0.0
 11
14.193248425
 21
14.8095604512
 31
0.0
  0
LINE
  5
148
330
1F
100
AcDbEntity
  8
0
  6
Continuous
 62
     7
370
    25
100
AcDbLine
 10
14.193248425
 20
14.8095604512
 30
0.0
 11
14.193248425
 21
8.5583510545
 31
0.0
  0
LINE
  5
149
330
1F
100
AcDbEntity
  8
0
  6
Continuous
 62
     7
370
    25
100
AcDbLine
 10
14.193248425
 20
14.8095604512
 30
0.0
 11
14.193248425
 21
14.8847530733
 31
0.0
  0
LINE
  5
14A
330
1F
100
AcDbEntity
  8
0
  6
Continuous
 62
     7
370
    25
100
AcDbLine
 10
5.381248425
 20
14.8847530733
 30
0.0
 11
5.381248425
 21
14.8095604512
 31
0.0
  0
LWPOLYLINE
  5
14B
330
1F
100
AcDbEntity
  8
0
  6
Continuous
 62
     7
370
    25
100
AcDbPolyline
 90
       33
 70
   128
 43
0.0
 10
8.287248425
 20
16.5367323221
 10
8.3604072958
 20
16.5323658607
 10
8.4307547121
 20
16.519434277
 10
8.4955872624
 20
16.4984345246
 10
8.5524134679
 20
16.4701736122
 10
8.5990495296
 20
16.4357375908
 10
8.6337032497
 20
16.3964498174
 10
8.6550429052
 20
16.3538200991
 10
8.662248425
 20
16.309486672
 10
8.6550429052
 20
16.265153245
 10
8.6337032497
 20
16.2225235267
 10
8.5990495296
 20
16.1832357533
 10
8.5524134679
 20
16.1487997319
 10
8.4955872624
 20
16.1205388195
 10
8.4307547121
 20
16.0995390671
 10
8.3604072958
 20
16.0866074834
 10
8.287248425
 20
16.0822410219
 10
8.2140895542
 20
16.0866074834
 10
8.1437421379
 20
16.0995390671
 10
8.0789095876
 20
16.1205388195
 10
8.0220833821
 20
16.1487997319
 10
7.9754473204
 20
16.1832357533
 10
7.9407936003
 20
16.2225235267
 10
7.9194539449
 20
16.265153245
 10
7.912248425
 20
16.309486672
 10
7.9194539449
 20
16.3538200991
 10
7.9407936003
 20
16.3964498174
 10
7.9754473204
 20
16.4357375908
 10
8.0220833821
 20
16.4701736122
 10
8.0789095876
 20
16.4984345246
 10
8.1437421379
 20
16.519434277
 10
8.2140895542
 20
16.5323658607
 10
8.287248425
 20
16.5367323221
  0
LWPOLYLINE
  5
14C
330
1F
100
AcDbEntity
  8
0
  6
Continuous
 62
     7
370
    25
100
AcDbPolyline
 90
       33
 70
   128
 43
0.0
 10
10.412248425
 20
15.9307439219
 10
10.4854072958
 20
15.9263774604
 10
10.5557547121
 20
15.9134458768
 10
10.6205872624
 20
15.8924461244
 10
10.6774134679
 20
15.864185212
 10
10.7240495296
 20
15.8297491906
 10
10.7587032497
 20
15.7904614171
 10
10.7800429052
 20
15.7478316988
 10
10.787248425
 20
15.7034982718
 10
10.7800429052
 20
15.6591648447
 10
10.7587032497
 20
15.6165351264
 10
10.7240495296
 20
15.577247353
 10
10.6774134679
 20
15.5428113316
 10
10.6205872624
 20
15.5145504192
 10
10.5557547121
 20
15.4935506668
 10
10.4854072958
 20
15.4806190831
 10
10.412248425
 20
15.4762526217
 10
10.3390895542
 20
15.4806190831
 10
10.2687421379
 20
15.4935506668
 10
10.2039095876
 20
15.5145504192
 10
10.1470833821
 20
15.5428113316
 10
10.1004473204
 20
15.577247353
 10
10.0657936003
 20
15.6165351264
 10
10.0444539449
 20
15.6591648447
 10
10.037248425
 20
15.7034982718
 10
10.0444539449
 20
15.7478316988
 10
10.0657936003
 20
15.7904614171
 10
10.1004473204
 20
15.8297491906
 10
10.1470833821
 20
15.864185212
 10
10.2039095876
 20
15.8924461244
 10
10.2687421379
 20
15.9134458768
 10
10.3390895542
 20
15.9263774604
 10
10.412248425
 20
15.9307439219
  0
LWPOLYLINE
  5
14D
330
1F
100
AcDbEntity
  8
0
  6
Continuous
 62
     7
370
    25
100
AcDbPolyline
 90
       33
 70
   128
 43
0.0
 10
9.162248425
 20
17.1427207224
 10
9.2354072958
 20
17.138354261
 10
9.3057547121
 20
17.1254226773
 10
9.3705872624
 20
17.1044229249
 10
9.4274134679
 20
17.0761620125
 10
9.4740495296
 20
17.0417259911
 10
9.5087032497
 20
17.0024382177
 10
9.5300429052
 20
16.9598084994
 10
9.537248425
 20
16.9154750723
 10
9.5300429052
 20
16.8711416453
 10
9.5087032497
 20
16.8285119269
 10
9.4740495296
 20
16.7892241535
 10
9.4274134679
 20
16.7547881321
 10
9.3705872624
 20
16.7265272197
 10
9.3057547121
 20
16.7055274673
 10
9.2354072958
 20
16.6925958837
 10
9.162248425
 20
16.6882294222
 10
9.0890895542
 20
16.6925958837
 10
9.0187421379
 20
16.7055274673
 10
8.9539095876
 20
16.7265272197
 10
8.8970833821
 20
16.7547881321
 10
8.8504473204
 20
16.7892241535
 10
8.8157936003
 20
16.8285119269
 10
8.7944539449
 20
16.8711416453
 10
8.787248425
 20
16.9154750723
 10
8.7944539449
 20
16.9598084994
 10
8.8157936003
 20
17.0024382177
 10
8.8504473204
 20
17.0417259911
 10
8.8970833821
 20
17.0761620125
 10
8.9539095876
 20
17.1044229249
 10
9.0187421379
 20
17.1254226773
 10
9.0890895542
 20
17.138354261
 10
9.162248425
 20
17.1427207224
  0
LWPOLYLINE
  5
14E
330
1F
100
AcDbEntity
  8
0
  6
Continuous
 62
     7
370
    25
100
AcDbPolyline
 90
       33
 70
   128
 43
0.0
 10
9.787248425
 20
16.5367323221
 10
9.8604072958
 20
16.5323658607
 10
9.9307547121
 20
16.519434277
 10
9.9955872624
 20
16.4984345246
 10
10.0524134679
 20
16.4701736122
 10
10.0990495296
 20
16.4357375908
 10
10.1337032497
 20
16.3964498174
 10
10.1550429052
 20
16.3538200991
 10
10.162248425
 20
16.309486672
 10
10.1550429052
 20
16.265153245
 10
10.1337032497
 20
16.2225235267
 10
10.0990495296
 20
16.1832357533
 10
10.0524134679
 20
16.1487997319
 10
9.9955872624
 20
16.1205388195
 10
9.9307547121
 20
16.0995390671
 10
9.8604072958
 20
16.0866074834
 10
9.787248425
 20
16.0822410219
 10
9.7140895542
 20
16.0866074834
 10
9.6437421379
 20
16.0995390671
 10
9.5789095876
 20
16.1205388195
 10
9.5220833821
 20
16.1487997319
 10
9.4754473204
 20
16.1832357533
 10
9.4407936003
 20
16.2225235267
 10
9.4194539449
 20
16.265153245
 10
9.412248425
 20
16.309486672
 10
9.4194539449
 20
16.3538200991
 10
9.4407936003
 20
16.3964498174
 10
9.4754473204
 20
16.4357375908
 10
9.5220833821
 20
16.4701736122
 10
9.5789095876
 20
16.4984345246
 10
9.6437421379
 20
16.519434277
 10
9.7140895542
 20
16.5323658607
 10
9.787248425
 20
16.5367323221
  0
LWPOLYLINE
  5
14F
330
1F
100
AcDbEntity
  8
0
  6
Continuous
 62
     7
370
    25
100
AcDbPolyline
 90
       33
 70
   128
 43
0.0
 10
10.412248425
 20
17.1427207224
 10
10.4854072958
 20
17.138354261
 10
10.5557547121
 20
17.1254226773
 10
10.6205872624
 20
17.1044229249
 10
10.6774134679
 20
17.0761620125
 10
10.7240495296
 20
17.0417259911
 10
10.7587032497
 20
17.0024382177
 10
10.7800429052
 20
16.9598084994
 10
10.787248425
 20
16.9154750723
 10
10.7800429052
 20
16.8711416453
 10
10.7587032497
 20
16.8285119269
 10
10.7240495296
 20
16.7892241535
 10
10.6774134679
 20
16.7547881321
 10
10.6205872624
 20
16.7265272197
 10
10.5557547121
 20
16.7055274673
 10
10.4854072958
 20
16.6925958837
 10
10.412248425
 20
16.6882294222
 10
10.3390895542
 20
16.6925958837
 10
10.2687421379
 20
16.7055274673
 10
10.2039095876
 20
16.7265272197
 10
10.1470833821
 20
16.7547881321
 10
10.1004473204
 20
16.7892241535
 10
10.0657936003
 20
16.8285119269
 10
10.0444539449
 20
16.8711416453
 10
10.037248425
 20
16.9154750723
 10
10.0444539449
 20
16.9598084994
 10
10.0657936003
 20
17.0024382177
 10
10.1004473204
 20
17.0417259911
 10
10.1470833821
 20
17.0761620125
 10
10.2039095876
 20
17.1044229249
 10
10.2687421379
 20
17.1254226773
 10
10.3390895542
 20
17.138354261
 10
10.412248425
 20
17.1427207224
  0
LWPOLYLINE
  5
150
330
1F
100
AcDbEntity
  8
0
  6
Continuous
 62
     7
370
    25
100
AcDbPolyline
 90
       33
 70
   128
 43
0.0
 10
9.162248425
 20
15.9307439219
 10
9.2354072958
 20
15.9263774604
 10
9.3057547121
 20
15.9134458768
 10
9.3705872624
 20
15.8924461244
 10
9.4274134679
 20
15.864185212
 10
9.4740495296
 20
15.8297491906
 10
9.5087032497
 20
15.7904614171
 10
9.5300429052
 20
15.7478316988
 10
9.537248425
 20
15.7034982718
 10
9.5300429052
 20
15.6591648447
 10
9.5087032497
 20
15.6165351264
 10
9.4740495296
 20
15.577247353
 10
9.4274134679
 20
15.5428113316
 10
9.3705872624
 20
15.5145504192
 10
9.3057547121
 20
15.4935506668
 10
9.2354072958
 20
15.4806190831
 10
9.162248425
 20
15.4762526217
 10
9.0890895542
 20
15.4806190831
 10
9.0187421379
 20
15.4935506668
 10
8.9539095876
 20
15.5145504192
 10
8.8970833821
 20
15.5428113316
 10
8.8504473204
 20
15.577247353
 10
8.8157936003
 20
15.6165351264
 10
8.7944539449
 20
15.6591648447
 10
8.787248425
 20
15.7034982718
 10
8.7944539449
 20
15.7478316988
 10
8.8157936003
 20
15.7904614171
 10
8.8504473204
 20
15.8297491906
 10
8.8970833821
 20
15.864185212
 10
8.9539095876
 20
15.8924461244
 10
9.0187421379
 20
15.9134458768
 10
9.0890895542
 20
15.9263774604
 10
9.162248425
 20
15.9307439219
  0
LWPOLYLINE
  5
151
330
1F
100
AcDbEntity
  8
0
  6
Continuous
 62
     7
370
    25
100
AcDbPolyline
 90
       33
 70
   128
 43
0.0
 10
11.287248425
 20
16.5367323221
 10
11.3604072958
 20
16.5323658607
 10
11.4307547121
 20
16.519434277
 10
11.4955872624
 20
16.4984345246
 10
11.5524134679
 20
16.4701736122
 10
11.5990495296
 20
16.4357375908
 10
11.6337032497
 20
16.3964498174
 10
11.6550429052
 20
16.3538200991
 10
11.662248425
 20
16.309486672
 10
11.6550429052
 20
16.265153245
 10
11.6337032497
 20
16.2225235267
 10
11.5990495296
 20
16.1832357533
 10
11.5524134679
 20
16.1487997319
 10
11.4955872624
 20
16.1205388195
 10
11.4307547121
 20
16.0995390671
 10
11.3604072958
 20
16.0866074834
 10
11.287248425
 20
16.0822410219
 10
11.2140895542
 20
16.0866074834
 10
11.1437421379
 20
16.0995390671
 10
11.0789095876
 20
16.1205388195
 10
11.0220833821
 20
16.1487997319
 10
10.9754473204
 20
16.1832357533
 10
10.9407936003
 20
16.2225235267
 10
10.9194539449
 20
16.265153245
 10
10.912248425
 20
16.309486672
 10
10.9194539449
 20
16.3538200991
 10
10.9407936003
 20
16.3964498174
 10
10.9754473204
 20
16.4357375908
 10
11.0220833821
 20
16.4701736122
 10
11.0789095876
 20
16.4984345246
 10
11.1437421379
 20
16.519434277
 10
11.2140895542
 20
16.5323658607
 10
11.287248425
 20
16.5367323221
  0
LINE
  5
152
330
1F
100
AcDbEntity
  8
0
  6
Continuous
 62
     7
370
    25
100
AcDbLine
 10
14.193248425
 20
18.3546975229
 30
0.0
 11
5.381248425
 21
18.3546975229
 31
0.0
  0
LINE
  5
153
330
1F
100
AcDbEntity
  8
0
  6
Continuous
 62
     7
370
    25
100
AcDbLine
 10
14.193248425
 20
18.3546975229
 30
0.0
 11
14.193248425
 21
14.8847530733
 31
0.0
  0
LINE
  5
154
330
1F
100
AcDbEntity
  8
0
  6
Continuous
 62
     7
370
    25
100
AcDbLine
 10
5.381248425
 20
14.8847530733
 30
0.0
 11
5.381248425
 21
18.3546975229
 31
0.0
  0
LWPOLYLINE
  5
155
330
1F
100
AcDbEntity
  8
0
  6
Continuous
 62
     7
370
    25
100
AcDbPolyline
 90
        9
 70
   128
 43
0.0
 10
9.162248425
 20
15.8925611948
 10
9.2354072958
 20
15.8881947333
 10
9.3057547121
 20
15.8752631497
 10
9.3705872624
 20
15.8542633973
 10
9.4274134679
 20
15.8260024849
 10
9.4740495296
 20
15.7915664635
 10
9.5087032497
 20
15.7522786901
 10
9.5300429052
 20
15.7096489717
 10
9.5359227033
 20
15.6844069082
  0
LWPOLYLINE
  5
156
330
1F
100
AcDbEntity
  8
0
  6
Continuous
 62
     7
370
    25
100
AcDbPolyline
 90
        9
 70
   128
 43
0.0
 10
8.7885741467
 20
15.6844069082
 10
8.7944539449
 20
15.7096489717
 10
8.8157936003
 20
15.7522786901
 10
8.8504473204
 20
15.7915664635
 10
8.8970833821
 20
15.8260024849
 10
8.9539095876
 20
15.8542633973
 10
9.0187421379
 20
15.8752631497
 10
9.0890895542
 20
15.8881947333
 10
9.162248425
 20
15.8925611948
  0
LWPOLYLINE
  5
157
330
1F
100
AcDbEntity
  8
0
  6
Continuous
 62
     7
370
    25
100
AcDbPolyline
 90
        9
 70
   128
 43
0.0
 10
10.412248425
 20
15.8925611948
 10
10.4854072958
 20
15.8881947333
 10
10.5557547121
 20
15.8752631497
 10
10.6205872624
 20
15.8542633973
 10
10.6774134679
 20
15.8260024849
 10
10.7240495296
 20
15.7915664635
 10
10.7587032497
 20
15.7522786901
 10
10.7800429052
 20
15.7096489717
 10
10.7859227033
 20
15.6844069082
  0
LWPOLYLINE
  5
158
330
1F
100
AcDbEntity
  8
0
  6
Continuous
 62
     7
370
    25
100
AcDbPolyline
 90
        9
 70
   128
 43
0.0
 10
10.0385741467
 20
15.6844069082
 10
10.0444539449
 20
15.7096489717
 10
10.0657936003
 20
15.7522786901
 10
10.1004473204
 20
15.7915664635
 10
10.1470833821
 20
15.8260024849
 10
10.2039095876
 20
15.8542633973
 10
10.2687421379
 20
15.8752631497
 10
10.3390895542
 20
15.8881947333
 10
10.412248425
 20
15.8925611948
  0
LWPOLYLINE
  5
159
330
1F
100
AcDbEntity
  8
0
  6
Continuous
 62
     7
370
    25
100
AcDbPolyline
 90
        9
 70
   128
 43
0.0
 10
8.287248425
 20
16.4985495951
 10
8.3604072958
 20
16.4941831336
 10
8.4307547121
 20
16.4812515499
 10
8.4955872624
 20
16.4602517975
 10
8.5524134679
 20
16.4319908851
 10
8.5990495296
 20
16.3975548637
 10
8.6337032497
 20
16.3582670903
 10
8.6550429052
 20
16.315637372
 10
8.6609227033
 20
16.2903953085
  0
LWPOLYLINE
  5
15A
330
1F
100
AcDbEntity
  8
0
  6
Continuous
 62
     7
370
    25
100
AcDbPolyline
 90
        9
 70
   128
 43
0.0
 10
7.9135741467
 20
16.2903953085
 10
7.9194539449
 20
16.315637372
 10
7.9407936003
 20
16.3582670903
 10
7.9754473204
 20
16.3975548637
 10
8.0220833821
 20
16.4319908851
 10
8.0789095876
 20
16.4602517975
 10
8.1437421379
 20
16.4812515499
 10
8.2140895542
 20
16.4941831336
 10
8.287248425
 20
16.4985495951
  0
LWPOLYLINE
  5
15B
330
1F
100
AcDbEntity
  8
0
  6
Continuous
 62
     7
370
    25
100
AcDbPolyline
 90
        9
 70
   128
 43
0.0
 10
9.787248425
 20
16.4985495951
 10
9.8604072958
 20
16.4941831336
 10
9.9307547121
 20
16.4812515499
 10
9.9955872624
 20
16.4602517975
 10
10.0524134679
 20
16.4319908851
 10
10.0990495296
 20
16.3975548637
 10
10.1337032497
 20
16.3582670903
 10
10.1550429052
 20
16.315637372
 10
10.1609227033
 20
16.2903953085
  0
LWPOLYLINE
  5
15C
330
1F
100
AcDbEntity
  8
0
  6
Continuous
 62
     7
370
    25
100
AcDbPolyline
 90
        9
 70
   128
 43
0.0
 10
9.4135741467
 20
16.2903953085
 10
9.4194539449
 20
16.315637372
 10
9.4407936003
 20
16.3582670903
 10
9.4754473204
 20
16.3975548637
 10
9.5220833821
 20
16.4319908851
 10
9.5789095876
 20
16.4602517975
 10
9.6437421379
 20
16.4812515499
 10
9.7140895542
 20
16.4941831336
 10
9.787248425
 20
16.4985495951
  0
LWPOLYLINE
  5
15D
330
1F
100
AcDbEntity
  8
0
  6
Continuous
 62
     7
370
    25
100
AcDbPolyline
 90
        9
 70
   128
 43
0.0
 10
11.287248425
 20
16.4985495951
 10
11.3604072958
 20
16.4941831336
 10
11.4307547121
 20
16.4812515499
 10
11.4955872624
 20
16.4602517975
 10
11.5524134679
 20
16.4319908851
 10
11.5990495296
 20
16.3975548637
 10
11.6337032497
 20
16.3582670903
 10
11.6550429052
 20
16.315637372
 10
11.6609227033
 20
16.2903953085
  0
LWPOLYLINE
  5
15E
330
1F
100
AcDbEntity
  8
0
  6
Continuous
 62
     7
370
    25
100
AcDbPolyline
 90
        9
 70
   128
 43
0.0
 10
10.9135741467
 20
16.2903953085
 10
10.9194539449
 20
16.315637372
 10
10.9407936003
 20
16.3582670903
 10
10.9754473204
 20
16.3975548637
 10
11.0220833821
 20
16.4319908851
 10
11.0789095876
 20
16.4602517975
 10
11.1437421379
 20
16.4812515499
 10
11.2140895542
 20
16.4941831336
 10
11.287248425
 20
16.4985495951
  0
LWPOLYLINE
  5
15F
330
1F
100
AcDbEntity
  8
0
  6
Continuous
 62
     7
370
    25
100
AcDbPolyline
 90
        9
 70
   128
 43
0.0
 10
9.162248425
 20
17.1045379953
 10
9.2354072958
 20
17.1001715339
 10
9.3057547121
 20
17.0872399502
 10
9.3705872624
 20
17.0662401978
 10
9.4274134679
 20
17.0379792854
 10
9.4740495296
 20
17.003543264
 10
9.5087032497
 20
16.9642554906
 10
9.5300429052
 20
16.9216257723
 10
9.5359227033
 20
16.8963837088
  0
LWPOLYLINE
  5
160
330
1F
100
AcDbEntity
  8
0
  6
Continuous
 62
     7
370
    25
100
AcDbPolyline
 90
        9
 70
   128
 43
0.0
 10
8.7885741467
 20
16.8963837088
 10
8.7944539449
 20
16.9216257723
 10
8.8157936003
 20
16.9642554906
 10
8.8504473204
 20
17.003543264
 10
8.8970833821
 20
17.0379792854
 10
8.9539095876
 20
17.0662401978
 10
9.0187421379
 20
17.0872399502
 10
9.0890895542
 20
17.1001715339
 10
9.162248425
 20
17.1045379953
  0
LWPOLYLINE
  5
161
330
1F
100
AcDbEntity
  8
0
  6
Continuous
 62
     7
370
    25
100
AcDbPolyline
 90
        9
 70
   128
 43
0.0
 10
10.412248425
 20
17.1045379953
 10
10.4854072958
 20
17.1001715339
 10
10.5557547121
 20
17.0872399502
 10
10.6205872624
 20
17.0662401978
 10
10.6774134679
 20
17.0379792854
 10
10.7240495296
 20
17.003543264
 10
10.7587032497
 20
16.9642554906
 10
10.7800429052
 20
16.9216257723
 10
10.7859227033
 20
16.8963837088
  0
LWPOLYLINE
  5
162
330
1F
100
AcDbEntity
  8
0
  6
Continuous
 62
     7
370
    25
100
AcDbPolyline
 90
        9
 70
   128
 43
0.0
 10
10.0385741467
 20
16.8963837088
 10
10.0444539449
 20
16.9216257723
 10
10.0657936003
 20
16.9642554906
 10
10.1004473204
 20
17.003543264
 10
10.1470833821
 20
17.0379792854
 10
10.2039095876
 20
17.0662401978
 10
10.2687421379
 20
17.0872399502
 10
10.3390895542
 20
17.1001715339
 10
10.412248425
 20
17.1045379953
  0
LINE
  5
163
330
1F
100
AcDbEntity
  8
0
  6
Continuous
 62
     7
370
    25
100
AcDbLine
 10
14.268248425
 20
8.5723965433
 30
0.0
 11
14.268248425
 21
8.5063965433
 31
0.0
  0
LINE
  5
164
330
1F
100
AcDbEntity
  8
0
  6
Continuous
 62
     7
370
    25
100
AcDbLine
 10
14.193248425
 20
9.1348965433
 30
0.0
 11
14.244248425
 21
9.1348965433
 31
0.0
  0
LINE
  5
165
330
1F
100
AcDbEntity
  8
0
  6
Continuous
 62
     7
370
    25
100
AcDbLine
 10
14.268248425
 20
8.5063965433
 30
0.0
 11
14.268248425
 21
8.4481715533
 31
0.0
  0
LINE
  5
166
330
1F
100
AcDbEntity
  8
0
  6
Continuous
 62
     7
370
    25
100
AcDbLine
 10
13.6907167226
 20
8.4473965433
 30
0.0
 11
5.9157801274
 21
8.4473965433
 31
0.0
  0
LINE
  5
167
330
1F
100
AcDbEntity
  8
0
  6
Continuous
 62
     7
370
    25
100
AcDbLine
 10
5.388248425
 20
8.4473965433
 30
0.0
 11
5.388248425
 21
8.4976180344
 31
0.0
  0
LINE
  5
168
330
1F
100
AcDbEntity
  8
0
  6
Continuous
 62
     7
370
    25
100
AcDbLine
 10
5.353248425
 20
8.4773965433
 30
0.0
 11
5.353248425
 21
8.4473965433
 31
0.0
  0
LINE
  5
169
330
1F
100
AcDbEntity
  8
0
  6
Continuous
 62
     7
370
    25
100
AcDbLine
 10
5.353248425
 20
8.4773965433
 30
0.0
 11
5.388248425
 21
8.4773965433
 31
0.0
  0
LINE
  5
16A
330
1F
100
AcDbEntity
  8
0
  6
Continuous
 62
     7
370
    25
100
AcDbLine
 10
14.268248425
 20
8.4773965433
 30
0.0
 11
14.2931858638
 21
8.4773965433
 31
0.0
  0
LINE
  5
16B
330
1F
100
AcDbEntity
  8
0
  6
Continuous
 62
     7
370
    25
100
AcDbLine
 10
5.362248425
 20
17.2646574175
 30
0.0
 11
5.381248425
 21
17.2646574175
 31
0.0
  0
LINE
  5
16C
330
1F
100
AcDbEntity
  8
0
  6
Continuous
 62
     7
370
    25
100
AcDbLine
 10
5.388248425
 20
8.4798965433
 30
0.0
 11
5.353248425
 21
8.4798965433
 31
0.0
  0
LINE
  5
16D
330
1F
100
AcDbEntity
  8
0
  6
Continuous
 62
     7
370
    25
100
AcDbLine
 10
5.353248425
 20
8.4798965433
 30
0.0
 11
5.353248425
 21
8.5723965433
 31
0.0
  0
LINE
  5
16E
330
1F
100
AcDbEntity
  8
0
  6
Continuous
 62
     7
370
    25
100
AcDbLine
 10
14.244248425
 20
17.2646574175
 30
0.0
 11
14.193248425
 21
17.2646574175
 31
0.0
  0
LINE
  5
16F
330
1F
100
AcDbEntity
  8
0
  6
Continuous
 62
     7
370
    25
100
AcDbLine
 10
14.293248425
 20
8.4798965433
 30
0.0
 11
14.268248425
 21
8.4798965433
 31
0.0
  0
LINE
  5
170
330
1F
100
AcDbEntity
  8
0
  6
Continuous
 62
     7
370
    25
100
AcDbLine
 10
14.193248425
 20
17.2655142289
 30
0.0
 11
14.244248425
 21
17.2655142289
 31
0.0
  0
LINE
  5
171
330
1F
100
AcDbEntity
  8
0
  6
Continuous
 62
     7
370
    25
100
AcDbLine
 10
5.381248425
 20
17.2655142289
 30
0.0
 11
5.362248425
 21
17.2655142289
 31
0.0
  0
ARC
  5
172
330
1F
100
AcDbEntity
  8
0
  6
Continuous
 62
     7
370
    25
100
AcDbCircle
 10
5.403248425
 20
21.1664234611
 30
0.0
 40
0.0500000000000007
100
AcDbArc
 50
90.0
 51
145.0847937525
  0
LINE
  5
173
330
1F
100
AcDbEntity
  8
0
  6
Continuous
 62
     7
370
    25
100
AcDbLine
 10
5.403248425
 20
21.2164234611
 30
0.0
 11
14.244248425
 21
21.2164234611
 31
0.0
  0
LINE
  5
174
330
1F
100
AcDbEntity
  8
0
  6
Continuous
 62
     7
370
    25
100
AcDbLine
 10
5.362248425
 20
21.2263965433
 30
0.0
 11
5.265248425
 21
21.2263965433
 31
0.0
  0
LINE
  5
175
330
1F
100
AcDbEntity
  8
0
  6
Continuous
 62
     7
370
    25
100
AcDbLine
 10
5.362248425
 20
8.5723965433
 30
0.0
 11
5.362248425
 21
21.2263965433
 31
0.0
  0
LINE
  5
176
330
1F
100
AcDbEntity
  8
0
  6
Continuous
 62
     7
370
    25
100
AcDbLine
 10
5.265248425
 20
8.5723965433
 30
0.0
 11
5.265248425
 21
21.2263965433
 31
0.0
  0
LINE
  5
177
330
1F
100
AcDbEntity
  8
0
  6
Continuous
 62
     7
370
    25
100
AcDbLine
 10
5.265248425
 20
8.5723965433
 30
0.0
 11
5.362248425
 21
8.5723965433
 31
0.0
  0
LINE
  5
178
330
1F
100
AcDbEntity
  8
0
  6
Continuous
 62
     7
370
    25
100
AcDbLine
 10
14.244248425
 20
21.2263965433
 30
0.0
 11
14.244248425
 21
8.5723965433
 31
0.0
  0
LINE
  5
179
330
1F
100
AcDbEntity
  8
0
  6
Continuous
 62
     7
370
    25
100
AcDbLine
 10
14.341248425
 20
21.2263965433
 30
0.0
 11
14.244248425
 21
21.2263965433
 31
0.0
  0
LINE
  5
17A
330
1F
100
AcDbEntity
  8
0
  6
Continuous
 62
     7
370
    25
100
AcDbLine
 10
14.341248425
 20
8.5723965433
 30
0.0
 11
14.341248425
 21
21.2263965433
 31
0.0
  0
LINE
  5
17B
330
1F
100
AcDbEntity
  8
0
  6
Continuous
 62
     7
370
    25
100
AcDbLine
 10
14.244248425
 20
8.5723965433
 30
0.0
 11
14.341248425
 21
8.5723965433
 31
0.0
  0
LINE
  5
17C
330
1F
100
AcDbEntity
  8
0
  6
Continuous
 62
     7
370
    25
100
AcDbLine
 10
14.236248425
 20
21.2253965433
 30
0.0
 11
14.236248425
 21
21.3223965433
 31
0.0
  0
LINE
  5
17D
330
1F
100
AcDbEntity
  8
0
  6
Continuous
 62
     7
370
    25
100
AcDbLine
 10
5.370248425
 20
21.2253965433
 30
0.0
 11
14.236248425
 21
21.2253965433
 31
0.0
  0
LINE
  5
17E
330
1F
100
AcDbEntity
  8
0
  6
Continuous
 62
     7
370
    25
100
AcDbLine
 10
5.370248425
 20
21.3223965433
 30
0.0
 11
14.236248425
 21
21.3223965433
 31
0.0
  0
LINE
  5
17F
330
1F
100
AcDbEntity
  8
0
  6
Continuous
 62
     7
370
    25
100
AcDbLine
 10
5.370248425
 20
21.3223965433
 30
0.0
 11
5.370248425
 21
21.2253965433
 31
0.0
  0
LINE
  5
180
330
1F
100
AcDbEntity
  8
0
  6
Continuous
 62
     7
370
    25
100
AcDbLine
 10
5.370048425
 20
21.2743965433
 30
0.0
 11
5.370048425
 21
21.3223965433
 31
0.0
  0
LINE
  5
181
330
1F
100
AcDbEntity
  8
0
  6
Continuous
 62
     7
370
    25
100
AcDbLine
 10
5.265248425
 20
21.2265965433
 30
0.0
 11
5.313248425
 21
21.2265965433
 31
0.0
  0
ARC
  5
182
330
1F
100
AcDbEntity
  8
0
  6
Continuous
 62
     7
370
    25
100
AcDbCircle
 10
5.345248425
 20
21.2423965433
 30
0.0
 40
0.032
100
AcDbArc
 50
90.0
 51
180.0
  0
LINE
  5
183
330
1F
100
AcDbEntity
  8
0
  6
Continuous
 62
     7
370
    25
100
AcDbLine
 10
5.370048425
 20
21.3223965433
 30
0.0
 11
5.345248425
 21
21.3223965433
 31
0.0
  0
ARC
  5
184
330
1F
100
AcDbEntity
  8
0
  6
Continuous
 62
     7
370
    25
100
AcDbCircle
 10
5.345248425
 20
21.2423965433
 30
0.0
 40
0.0800000000000018
100
AcDbArc
 50
90.0
 51
180.0
  0
LINE
  5
185
330
1F
100
AcDbEntity
  8
0
  6
Continuous
 62
     7
370
    25
100
AcDbLine
 10
5.345248425
 20
21.2743965433
 30
0.0
 11
5.370048425
 21
21.2743965433
 31
0.0
  0
LINE
  5
186
330
1F
100
AcDbEntity
  8
0
  6
Continuous
 62
     7
370
    25
100
AcDbLine
 10
5.313248425
 20
21.2265965433
 30
0.0
 11
5.313248425
 21
21.2423965433
 31
0.0
  0
LINE
  5
187
330
1F
100
AcDbEntity
  8
0
  6
Continuous
 62
     7
370
    25
100
AcDbLine
 10
5.265248425
 20
21.2423965433
 30
0.0
 11
5.265248425
 21
21.2265965433
 31
0.0
  0
LINE
  5
188
330
1F
100
AcDbEntity
  8
0
  6
Continuous
 62
     7
370
    25
100
AcDbLine
 10
14.293248425
 20
21.2265965433
 30
0.0
 11
14.341248425
 21
21.2265965433
 31
0.0
  0
LINE
  5
189
330
1F
100
AcDbEntity
  8
0
  6
Continuous
 62
     7
370
    25
100
AcDbLine
 10
14.236448425
 20
21.3223965433
 30
0.0
 11
14.236448425
 21
21.2743965433
 31
0.0
  0
ARC
  5
18A
330
1F
100
AcDbEntity
  8
0
  6
Continuous
 62
     7
370
    25
100
AcDbCircle
 10
14.261248425
 20
21.2423965433
 30
0.0
 40
0.0800000000000018
100
AcDbArc
 50
0.0
 51
90.0
  0
ARC
  5
18B
330
1F
100
AcDbEntity
  8
0
  6
Continuous
 62
     7
370
    25
100
AcDbCircle
 10
14.261248425
 20
21.2423965433
 30
0.0
 40
0.0320000000000018
100
AcDbArc
 50
0.0
 51
90.0
  0
LINE
  5
18C
330
1F
100
AcDbEntity
  8
0
  6
Continuous
 62
     7
370
    25
100
AcDbLine
 10
14.261248425
 20
21.3223965433
 30
0.0
 11
14.236448425
 21
21.3223965433
 31
0.0
  0
LINE
  5
18D
330
1F
100
AcDbEntity
  8
0
  6
Continuous
 62
     7
370
    25
100
AcDbLine
 10
14.261248425
 20
21.2743965433
 30
0.0
 11
14.236448425
 21
21.2743965433
 31
0.0
  0
LINE
  5
18E
330
1F
100
AcDbEntity
  8
0
  6
Continuous
 62
     7
370
    25
100
AcDbLine
 10
14.341248425
 20
21.2265965433
 30
0.0
 11
14.341248425
 21
21.2423965433
 31
0.0
  0
LINE
  5
18F
330
1F
100
AcDbEntity
  8
0
  6
Continuous
 62
     7
370
    25
100
AcDbLine
 10
14.293248425
 20
21.2423965433
 30
0.0
 11
14.293248425
 21
21.2265965433
 31
0.0
  0
LINE
  5
190
330
1F
100
AcDbEntity
  8
0
  6
Continuous
 62
     7
370
    25
100
AcDbLine
 10
5.313248425
 20
8.5721965433
 30
0.0
 11
5.265248425
 21
8.5721965433
 31
0.0
  0
LINE
  5
191
330
1F
100
AcDbEntity
  8
0
  6
Continuous
 62
     7
370
    25
100
AcDbLine
 10
5.313248425
 20
8.5723965433
 30
0.0
 11
5.313248425
 21
8.5721965433
 31
0.0
  0
LINE
  5
192
330
1F
100
AcDbEntity
  8
0
  6
Continuous
 62
     7
370
    25
100
AcDbLine
 10
5.265248425
 20
8.5721965433
 30
0.0
 11
5.265248425
 21
8.5723965433
 31
0.0
  0
LINE
  5
193
330
1F
100
AcDbEntity
  8
0
  6
Continuous
 62
     7
370
    25
100
AcDbLine
 10
14.293248425
 20
8.5721965433
 30
0.0
 11
14.341248425
 21
8.5721965433
 31
0.0
  0
LINE
  5
194
330
1F
100
AcDbEntity
  8
0
  6
Continuous
 62
     7
370
    25
100
AcDbLine
 10
14.341248425
 20
8.5721965433
 30
0.0
 11
14.341248425
 21
8.5723965433
 31
0.0
  0
LINE
  5
195
330
1F
100
AcDbEntity
  8
0
  6
Continuous
 62
     7
370
    25
100
AcDbLine
 10
14.293248425
 20
8.5721965433
 30
0.0
 11
14.293248425
 21
8.5723965433
 31
0.0
  0
LINE
  5
196
330
1F
100
AcDbEntity
  8
0
  6
Continuous
 62
     7
370
    25
100
AcDbLine
 10
5.313248425
 20
21.2265965433
 30
0.0
 11
5.313248425
 21
21.2263965433
 31
0.0
  0
LINE
  5
197
330
1F
100
AcDbEntity
  8
0
  6
Continuous
 62
     7
370
    25
100
AcDbLine
 10
5.265248425
 20
21.2263965433
 30
0.0
 11
5.265248425
 21
21.2265965433
 31
0.0
  0
LINE
  5
198
330
1F
100
AcDbEntity
  8
0
  6
Continuous
 62
     7
370
    25
100
AcDbLine
 10
5.370048425
 20
21.3223965433
 30
0.0
 11
5.370248425
 21
21.3223965433
 31
0.0
  0
LINE
  5
199
330
1F
100
AcDbEntity
  8
0
  6
Continuous
 62
     7
370
    25
100
AcDbLine
 10
5.370248425
 20
21.2743965433
 30
0.0
 11
5.370048425
 21
21.2743965433
 31
0.0
  0
LINE
  5
19A
330
1F
100
AcDbEntity
  8
0
  6
Continuous
 62
     7
370
    25
100
AcDbLine
 10
14.236248425
 20
21.3223965433
 30
0.0
 11
14.236448425
 21
21.3223965433
 31
0.0
  0
LINE
  5
19B
330
1F
100
AcDbEntity
  8
0
  6
Continuous
 62
     7
370
    25
100
AcDbLine
 10
14.236448425
 20
21.2743965433
 30
0.0
 11
14.236248425
 21
21.2743965433
 31
0.0
  0
LINE
  5
19C
330
1F
100
AcDbEntity
  8
0
  6
Continuous
 62
     7
370
    25
100
AcDbLine
 10
14.341248425
 20
21.2263965433
 30
0.0
 11
14.341248425
 21
21.2265965433
 31
0.0
  0
LINE
  5
19D
330
1F
100
AcDbEntity
  8
0
  6
Continuous
 62
     7
370
    25
100
AcDbLine
 10
14.293248425
 20
21.2263965433
 30
0.0
 11
14.293248425
 21
21.2265965433
 31
0.0
  0
LINE
  5
19E
330
1F
100
AcDbEntity
  8
0
  6
Continuous
 62
     7
370
    25
100
AcDbLine
 10
5.313248425
 20
8.4795965433
 30
0.0
 11
5.265248425
 21
8.4795965433
 31
0.0
  0
LINE
  5
19F
330
1F
100
AcDbEntity
  8
0
  6
Continuous
 62
     7
370
    25
100
AcDbLine
 10
5.313248425
 20
8.5721965433
 30
0.0
 11
5.313248425
 21
8.4795965433
 31
0.0
  0
LINE
  5
1A0
330
1F
100
AcDbEntity
  8
0
  6
Continuous
 62
     7
370
    25
100
AcDbLine
 10
5.265248425
 20
8.4795965433
 30
0.0
 11
5.265248425
 21
8.5721965433
 31
0.0
  0
LINE
  5
1A1
330
1F
100
AcDbEntity
  8
0
  6
Continuous
 62
     7
370
    25
100
AcDbLine
 10
14.293248425
 20
8.4795965433
 30
0.0
 11
14.341248425
 21
8.4795965433
 31
0.0
  0
LINE
  5
1A2
330
1F
100
AcDbEntity
  8
0
  6
Continuous
 62
     7
370
    25
100
AcDbLine
 10
14.341248425
 20
8.4795965433
 30
0.0
 11
14.341248425
 21
8.5721965433
 31
0.0
  0
LINE
  5
1A3
330
1F
100
AcDbEntity
  8
0
  6
Continuous
 62
     7
370
    25
100
AcDbLine
 10
14.293248425
 20
8.4795965433
 30
0.0
 11
14.293248425
 21
8.5721965433
 31
0.0
  0
LINE
  5
1A4
330
1F
100
AcDbEntity
  8
0
  6
Continuous
 62
     7
370
    25
100
AcDbLine
 10
5.345248425
 20
8.4473965433
 30
0.0
 11
5.813248425
 21
8.4473965433
 31
0.0
  0
LINE
  5
1A5
330
1F
100
AcDbEntity
  8
0
  6
Continuous
 62
     7
370
    25
100
AcDbLine
 10
5.813248425
 20
8.4473965433
 30
0.0
 11
5.813248425
 21
8.3993965433
 31
0.0
  0
LINE
  5
1A6
330
1F
100
AcDbEntity
  8
0
  6
Continuous
 62
     7
370
    25
100
AcDbLine
 10
5.813248425
 20
8.3993965433
 30
0.0
 11
5.345248425
 21
8.3993965433
 31
0.0
  0
LINE
  5
1A7
330
1F
100
AcDbEntity
  8
0
  6
Continuous
 62
     7
370
    25
100
AcDbLine
 10
5.345248425
 20
8.4473965433
 30
0.0
 11
5.345248425
 21
8.3993965433
 31
0.0
  0
ARC
  5
1A8
330
1F
100
AcDbEntity
  8
0
  6
Continuous
 62
     7
370
    25
100
AcDbCircle
 10
5.345248425
 20
8.4793965433
 30
0.0
 40
0.0799999999999983
100
AcDbArc
 50
180.0
 51
270.0
  0
LINE
  5
1A9
330
1F
100
AcDbEntity
  8
0
  6
Continuous
 62
     7
370
    25
100
AcDbLine
 10
5.313248425
 20
8.4793965433
 30
0.0
 11
5.265248425
 21
8.4793965433
 31
0.0
  0
ARC
  5
1AA
330
1F
100
AcDbEntity
  8
0
  6
Continuous
 62
     7
370
    25
100
AcDbCircle
 10
5.345248425
 20
8.4793965433
 30
0.0
 40
0.0320000000000018
100
AcDbArc
 50
180.0
 51
270.0
  0
LINE
  5
1AB
330
1F
100
AcDbEntity
  8
0
  6
Continuous
 62
     7
370
    25
100
AcDbLine
 10
5.313248425
 20
8.4793965433
 30
0.0
 11
5.313248425
 21
8.4795965433
 31
0.0
  0
LINE
  5
1AC
330
1F
100
AcDbEntity
  8
0
  6
Continuous
 62
     7
370
    25
100
AcDbLine
 10
5.265248425
 20
8.4793965433
 30
0.0
 11
5.265248425
 21
8.4795965433
 31
0.0
  0
LINE
  5
1AD
330
1F
100
AcDbEntity
  8
0
  6
Continuous
 62
     7
370
    25
100
AcDbLine
 10
5.938248425
 20
8.4473965433
 30
0.0
 11
5.938248425
 21
8.3993965433
 31
0.0
  0
LINE
  5
1AE
330
1F
100
AcDbEntity
  8
0
  6
Continuous
 62
     7
370
    25
100
AcDbLine
 10
5.813248425
 20
8.4473965433
 30
0.0
 11
5.9157801274
 21
8.4473965433
 31
0.0
  0
LINE
  5
1AF
330
1F
100
AcDbEntity
  8
0
  6
Continuous
 62
     7
370
    25
100
AcDbLine
 10
5.813248425
 20
8.3993965433
 30
0.0
 11
5.938248425
 21
8.3993965433
 31
0.0
  0
LINE
  5
1B0
330
1F
100
AcDbEntity
  8
0
  6
Continuous
 62
     7
370
    25
100
AcDbLine
 10
13.793248425
 20
8.4473965433
 30
0.0
 11
14.261248425
 21
8.4473965433
 31
0.0
  0
LINE
  5
1B1
330
1F
100
AcDbEntity
  8
0
  6
Continuous
 62
     7
370
    25
100
AcDbLine
 10
14.261248425
 20
8.4473965433
 30
0.0
 11
14.261248425
 21
8.3993965433
 31
0.0
  0
LINE
  5
1B2
330
1F
100
AcDbEntity
  8
0
  6
Continuous
 62
     7
370
    25
100
AcDbLine
 10
14.261248425
 20
8.3993965433
 30
0.0
 11
13.793248425
 21
8.3993965433
 31
0.0
  0
LINE
  5
1B3
330
1F
100
AcDbEntity
  8
0
  6
Continuous
 62
     7
370
    25
100
AcDbLine
 10
13.793248425
 20
8.4473965433
 30
0.0
 11
13.793248425
 21
8.3993965433
 31
0.0
  0
ARC
  5
1B4
330
1F
100
AcDbEntity
  8
0
  6
Continuous
 62
     7
370
    25
100
AcDbCircle
 10
14.261248425
 20
8.4793965433
 30
0.0
 40
0.0320000000000036
100
AcDbArc
 50
270.0
 51
0.0
  0
LINE
  5
1B5
330
1F
100
AcDbEntity
  8
0
  6
Continuous
 62
     7
370
    25
100
AcDbLine
 10
14.293248425
 20
8.4793965433
 30
0.0
 11
14.341248425
 21
8.4793965433
 31
0.0
  0
ARC
  5
1B6
330
1F
100
AcDbEntity
  8
0
  6
Continuous
 62
     7
370
    25
100
AcDbCircle
 10
14.261248425
 20
8.4793965433
 30
0.0
 40
0.0800000000000018
100
AcDbArc
 50
270.0
 51
360.0
  0
LINE
  5
1B7
330
1F
100
AcDbEntity
  8
0
  6
Continuous
 62
     7
370
    25
100
AcDbLine
 10
13.668248425
 20
8.4473965433
 30
0.0
 11
13.668248425
 21
8.3993965433
 31
0.0
  0
LINE
  5
1B8
330
1F
100
AcDbEntity
  8
0
  6
Continuous
 62
     7
370
    25
100
AcDbLine
 10
13.6907167226
 20
8.4473965433
 30
0.0
 11
13.793248425
 21
8.4473965433
 31
0.0
  0
LINE
  5
1B9
330
1F
100
AcDbEntity
  8
0
  6
Continuous
 62
     7
370
    25
100
AcDbLine
 10
13.668248425
 20
8.3993965433
 30
0.0
 11
13.793248425
 21
8.3993965433
 31
0.0
  0
LINE
  5
1BA
330
1F
100
AcDbEntity
  8
0
  6
Continuous
 62
     7
370
    25
100
AcDbLine
 10
14.341248425
 20
8.4795965433
 30
0.0
 11
14.341248425
 21
8.4793965433
 31
0.0
  0
LINE
  5
1BB
330
1F
100
AcDbEntity
  8
0
  6
Continuous
 62
     7
370
    25
100
AcDbLine
 10
14.293248425
 20
8.4793965433
 30
0.0
 11
14.293248425
 21
8.4795965433
 31
0.0
  0
LINE
  5
1BC
330
1F
100
AcDbEntity
  8
0
  6
Continuous
 62
     7
370
    25
100
AcDbLine
 10
5.313248425
 20
8.5473965433
 30
0.0
 11
5.345248425
 21
8.5473965433
 31
0.0
  0
ARC
  5
1BD
330
1F
100
AcDbEntity
  8
0
  6
Continuous
 62
     7
370
    25
100
AcDbCircle
 10
5.0709036378
 20
21.0015507914
 30
0.0
 40
0.3416689509964049
100
AcDbArc
 50
41.1536619229
 51
44.8222479304
  0
ARC
  5
1BE
330
1F
100
AcDbEntity
  8
0
  6
Continuous
 62
     7
370
    25
100
AcDbCircle
 10
14.5355932122
 20
21.0015507914
 30
0.0
 40
0.3416689510003001
100
AcDbArc
 50
135.1777520696
 51
138.8463380771
  0
LWPOLYLINE
  5
1BF
330
1F
100
AcDbEntity
  8
0
  6
Continuous
 62
     7
370
    25
100
AcDbPolyline
 90
        7
 70
   128
 43
0.0
 10
5.370248425
 20
21.2510892742
 10
5.3672868169
 20
21.2539686055
 10
5.3561395703
 20
21.2641477622
 10
5.3513113603
 20
21.268475625
 10
5.3479754306
 20
21.2715751821
 10
5.345903091
 20
21.2736732372
 10
5.345248425
 20
21.2743965433
  0
LWPOLYLINE
  5
1C0
330
1F
100
AcDbEntity
  8
0
  6
Continuous
 62
     7
370
    25
100
AcDbPolyline
 90
        7
 70
   128
 43
0.0
 10
14.236248425
 20
21.2510892742
 10
14.2392100331
 20
21.2539686055
 10
14.2503572797
 20
21.2641477622
 10
14.2551854897
 20
21.268475625
 10
14.2585214194
 20
21.2715751821
 10
14.260593759
 20
21.2736732372
 10
14.261248425
 20
21.2743965433
  0
LINE
  5
1C1
330
1F
100
AcDbEntity
  8
0
  6
Continuous
 62
     7
370
    25
100
AcDbLine
 10
5.345248425
 20
8.5473965433
 30
0.0
 11
5.353248425
 21
8.5473965433
 31
0.0
  0
LINE
  5
1C2
330
1F
100
AcDbEntity
  8
0
  6
Continuous
 62
     7
370
    25
100
AcDbLine
 10
14.2103072995
 20
21.2253965433
 30
0.0
 11
14.2013342173
 21
21.2164234611
 31
0.0
  0
LINE
  5
1C3
330
1F
100
AcDbEntity
  8
0
  6
Continuous
 62
     7
370
    25
100
AcDbLine
 10
5.4051626327
 20
21.2164234611
 30
0.0
 11
5.3961895505
 21
21.2253965433
 31
0.0
  0
LINE
  5
1C4
330
1F
100
AcDbEntity
  8
0
  6
Continuous
 62
     8
370
    25
100
AcDbLine
 10
14.268248425
 20
8.5063965433
 30
0.0
 11
14.193248425
 21
8.5063965433
 31
0.0
  0
LINE
  5
1C5
330
1F
100
AcDbEntity
  8
0
  6
Continuous
 62
     8
370
    25
100
AcDbLine
 10
14.244248425
 20
9.0758965433
 30
0.0
 11
14.193248425
 21
9.0758965433
 31
0.0
  0
LINE
  5
1C6
330
1F
100
AcDbEntity
  8
0
  6
Continuous
 62
     8
370
    25
100
AcDbLine
 10
5.345248425
 20
8.5473965433
 30
0.0
 11
5.345248425
 21
8.5723965433
 31
0.0
  0
LINE
  5
1C7
330
1F
100
AcDbEntity
  8
OBJECT
100
AcDbLine
 10
1.4758184598
 20
4.309486672
 30
0.0
 11
17.099328403
 21
4.309486672
 31
0.0
  0
LINE
  5
1C8
330
1F
100
AcDbEntity
  8
0
  6
CENTERX2
 62
     7
370
    18
100
AcDbLine
 10
7.912248425
 20
16.309486672
 30
0.0
 11
7.8794505386
 21
16.309486672
 31
0.0
  0
ELLIPSE
  5
1C9
330
1F
100
AcDbEntity
  8
OBJECT
100
AcDbEllipse
 10
9.787248425
 20
9.7697055699
 30
0.0
 11
-0.4499999999999993
 21
1.243449787580175E-14
 31
0.0
210
0.0
220
0.0
230
1.0
 40
0.9999253697
 41
0.0
 42
6.283185307179586
  0
INSERT
  5
1CA
330
1F
100
AcDbEntity
  8
0
  6
Continuous
 62
     7
100
AcDbBlockReference
  2
Block1
 10
9.9257662737
 20
14.8011973362
 30
0.0
  0
DIMENSION
  5
1CB
330
1F
100
AcDbEntity
  8
DIMS
100
AcDbDimension
  2
_D
 10
2.7543457352
 20
4.309486672
 30
0.0
 11
2.7543457352
 21
6.3089373918
 31
0.0
 70
   160
  1
48" \P(1220mm)\P Max.\P 
 71
     2
 42
-1.0
  3
SLDDIMSTYLE0
100
AcDbAlignedDimension
 13
7.8794505386
 23
16.309486672
 33
0.0
 14
1.4758184598
 24
4.309486672
 34
0.0
 50
90.0
100
AcDbRotatedDimension
  0
DIMENSION
  5
1DF
330
1F
100
AcDbEntity
  8
DIMS
100
AcDbDimension
  2
_D_1
 10
2.7650541425
 20
21.3223965433
 30
0.0
 11
2.7650541425
 21
18.893951802
 31
0.0
 70
   160
  1
<>
 71
     2
 42
-1.0
  3
SLDDIMSTYLE0
100
AcDbAlignedDimension
 13
7.912248425
 23
16.309486672
 33
0.0
 14
5.345248425
 24
21.3223965433
 34
0.0
 50
90.0
100
AcDbRotatedDimension
  0
DIMENSION
  5
1EA
330
1F
100
AcDbEntity
  8
DIMS
100
AcDbDimension
  2
_D_2
 10
14.341248425
 20
22.4905222702
 30
0.0
 11
9.6043905251
 21
22.4905222702
 31
0.0
 70
   160
  1
<>
 71
     2
 42
-1.0
  3
SLDDIMSTYLE1
100
AcDbAlignedDimension
 13
5.265248425
 23
21.2423965433
 33
0.0
 14
14.341248425
 24
21.2423965433
 34
0.0
100
AcDbRotatedDimension
  0
MTEXT
  5
1FA
330
1F
100
AcDbEntity
  8
NOTES
100
AcDbMText
 10
7.0548264916
 20
7.736385014
 30
0.0
 40
0.75
 41
0.0
 71
     1
 72
     1
  1
Front view
  7
SLDTEXTSTYLE1
 73
     1
 44
1.0
  0
MTEXT
  5
1FB
330
1F
100
AcDbEntity
  8
NOTES
100
AcDbMText
 10
3.2774959801
 20
5.2297119761
 30
0.0
 40
0.75
 41
0.0
 71
     1
 72
     1
  1
Floor
  7
SLDTEXTSTYLE1
 73
     1
 44
1.0
  0
MTEXT
  5
1FC
330
1F
100
AcDbEntity
  8
NOTES
100
AcDbMText
 10
13.9057387997
 20
7.736385014
 30
0.0
 40
0.75
 41
0.0
 71
     1
 72
     1
  1
Lock
  7
SLDTEXTSTYLE1
 73
     1
 44
1.0
  0
LEADER
  5
1FE
330
1F
100
AcDbEntity
  8
NOTES
100
AcDbLeader
  3
SLDDIMSTYLE2
 76
     3
 10
9.357370595
 20
9.6366551708
 30
0.0
 10
13.3841167581
 20
7.3598285963
 30
0.0
 10
13.8841167581
 20
7.3598285963
 30
0.0
  0
ARC
  5
1FF
330
1F
100
AcDbEntity
  8
0
  6
Continuous
 62
     7
370
    25
100
AcDbCircle
 10
9.3869696627
 20
78.3793603783
 30
0.0
 40
0.0489835586052419
100
AcDbArc
 50
179.1960791667
 51
259.3356754756
  0
ARC
  5
200
330
1F
100
AcDbEntity
  8
0
  6
Continuous
 62
     7
370
    25
100
AcDbCircle
 10
10.190057972
 20
78.3776395866
 30
0.0
 40
0.0467632935374943
100
AcDbArc
 50
280.2402687165
 51
4.6092014474
  0
LINE
  5
201
330
1F
100
AcDbEntity
  8
0
  6
Continuous
 62
     7
370
    25
100
AcDbLine
 10
9.337248425
 20
78.5420677722
 30
0.0
 11
9.337248425
 21
78.3804762223
 31
0.0
  0
LINE
  5
202
330
1F
100
AcDbEntity
  8
0
  6
Continuous
 62
     7
370
    25
100
AcDbLine
 10
10.237248425
 20
78.3804762223
 30
0.0
 11
10.237248425
 21
78.5420677722
 31
0.0
  0
LINE
  5
203
330
1F
100
AcDbEntity
  8
0
  6
Continuous
 62
     7
370
    25
100
AcDbLine
 10
10.102248425
 20
78.3304799538
 30
0.0
 11
10.102248425
 21
78.3314573138
 31
0.0
  0
LINE
  5
204
330
1F
100
AcDbEntity
  8
0
  6
Continuous
 62
     7
370
    25
100
AcDbLine
 10
9.472248425
 20
78.3314573138
 30
0.0
 11
9.472248425
 21
78.3304799538
 31
0.0
  0
ARC
  5
205
330
1F
100
AcDbEntity
  8
0
  6
Continuous
 62
     7
370
    25
100
AcDbCircle
 10
12.7477320098
 20
84.0440677722
 30
0.0
 40
0.0699999999999994
100
AcDbArc
 50
246.1718108779
 51
270.0
  0
ARC
  5
206
330
1F
100
AcDbEntity
  8
0
  6
Continuous
 62
     7
370
    25
100
AcDbCircle
 10
11.9087648402
 20
84.0440677722
 30
0.0
 40
0.0700000000000001
100
AcDbArc
 50
270.0
 51
293.8281891221
  0
ARC
  5
207
330
1F
100
AcDbEntity
  8
0
  6
Continuous
 62
     7
370
    25
100
AcDbCircle
 10
7.7477320098
 20
84.0440677722
 30
0.0
 40
0.069999999999999
100
AcDbArc
 50
246.1718108779
 51
270.0
  0
ARC
  5
208
330
1F
100
AcDbEntity
  8
0
  6
Continuous
 62
     7
370
    25
100
AcDbCircle
 10
6.9087648402
 20
84.0440677722
 30
0.0
 40
0.069999999999999
100
AcDbArc
 50
270.0
 51
293.8281891221
  0
LINE
  5
209
330
1F
100
AcDbEntity
  8
0
  6
Continuous
 62
     7
370
    25
100
AcDbLine
 10
12.7194523317
 20
83.9800345011
 30
0.0
 11
12.5804059311
 21
84.0414430061
 31
0.0
  0
LINE
  5
20A
330
1F
100
AcDbEntity
  8
0
  6
Continuous
 62
     7
370
    25
100
AcDbLine
 10
12.0760909189
 20
84.0414430061
 30
0.0
 11
11.9370445183
 21
83.9800345011
 31
0.0
  0
LINE
  5
20B
330
1F
100
AcDbEntity
  8
0
  6
Continuous
 62
     7
370
    25
100
AcDbLine
 10
7.7194523317
 20
83.9800345011
 30
0.0
 11
7.5804059311
 21
84.0414430061
 31
0.0
  0
LINE
  5
20C
330
1F
100
AcDbEntity
  8
0
  6
Continuous
 62
     7
370
    25
100
AcDbLine
 10
7.0760909189
 20
84.0414430061
 30
0.0
 11
6.9370445183
 21
83.9800345011
 31
0.0
  0
ARC
  5
20D
330
1F
100
AcDbEntity
  8
0
  6
Continuous
 62
     7
370
    25
100
AcDbCircle
 10
12.1359267732
 20
83.905957536
 30
0.0
 40
0.1481102362204775
100
AcDbArc
 50
90.0
 51
113.8281891221
  0
ARC
  5
20E
330
1F
100
AcDbEntity
  8
0
  6
Continuous
 62
     7
370
    25
100
AcDbCircle
 10
12.5205700768
 20
83.905957536
 30
0.0
 40
0.1481102362204751
100
AcDbArc
 50
66.1718108779
 51
90.0
  0
ARC
  5
20F
330
1F
100
AcDbEntity
  8
0
  6
Continuous
 62
     7
370
    25
100
AcDbCircle
 10
7.1359267732
 20
83.905957536
 30
0.0
 40
0.1481102362204771
100
AcDbArc
 50
90.0
 51
113.8281891221
  0
ARC
  5
210
330
1F
100
AcDbEntity
  8
0
  6
Continuous
 62
     7
370
    25
100
AcDbCircle
 10
7.5205700768
 20
83.905957536
 30
0.0
 40
0.1481102362204775
100
AcDbArc
 50
66.1718108779
 51
90.0
  0
LINE
  5
211
330
1F
100
AcDbEntity
  8
0
  6
Continuous
 62
     7
370
    25
100
AcDbLine
 10
5.370248425
 20
78.5420677722
 30
0.0
 11
14.236248425
 21
78.5420677722
 31
0.0
  0
ARC
  5
212
330
1F
100
AcDbEntity
  8
0
  6
Continuous
 62
     7
370
    25
100
AcDbCircle
 10
9.8802738432
 20
87.5651621218
 30
0.0
 40
9.240037253707877
100
AcDbArc
 50
269.4231566662
 51
271.8998927587
  0
ARC
  5
213
330
1F
100
AcDbEntity
  8
0
  6
Continuous
 62
     7
370
    25
100
AcDbCircle
 10
9.7874726333
 20
65.2279869811
 30
0.0
 40
13.10874792067802
100
AcDbArc
 50
88.2533781912
 51
91.748753881
  0
ARC
  5
214
330
1F
100
AcDbEntity
  8
0
  6
Continuous
 62
     7
370
    25
100
AcDbCircle
 10
9.694704732
 20
87.6660235209
 30
0.0
 40
9.34088881124486
100
AcDbArc
 50
268.1187223789
 51
270.5676600893
  0
ARC
  5
215
330
1F
100
AcDbEntity
  8
0
  6
Continuous
 62
     7
370
    25
100
AcDbCircle
 10
9.787248425
 20
67.9648498478
 30
0.0
 40
10.37072381721316
100
AcDbArc
 50
88.2041583658
 51
91.7958416342
  0
ARC
  5
216
330
1F
100
AcDbEntity
  8
0
  6
Continuous
 62
     7
370
    25
100
AcDbCircle
 10
9.8713598135
 20
84.6513705931
 30
0.0
 40
6.325298259813183
100
AcDbArc
 50
269.2380802596
 51
272.0876759039
  0
LINE
  5
217
330
1F
100
AcDbEntity
  8
0
  6
Continuous
 62
     7
370
    25
100
AcDbLine
 10
9.742248425
 20
78.3314762408
 30
0.0
 11
9.742248425
 21
78.3268948654
 31
0.0
  0
LINE
  5
218
330
1F
100
AcDbEntity
  8
0
  6
Continuous
 62
     7
370
    25
100
AcDbLine
 10
9.742248425
 20
78.3268948654
 30
0.0
 11
9.832248425
 21
78.3268948654
 31
0.0
  0
LINE
  5
219
330
1F
100
AcDbEntity
  8
0
  6
Continuous
 62
     7
370
    25
100
AcDbLine
 10
9.832248425
 20
78.3268948654
 30
0.0
 11
9.832248425
 21
78.3314762408
 31
0.0
  0
LINE
  5
21A
330
1F
100
AcDbEntity
  8
0
  6
Continuous
 62
     7
370
    25
100
AcDbLine
 10
9.832248425
 20
78.3314762408
 30
0.0
 11
9.742248425
 21
78.3314762408
 31
0.0
  0
LINE
  5
21B
330
1F
100
AcDbEntity
  8
0
  6
Continuous
 62
     7
370
    25
100
AcDbLine
 10
14.2613511344
 20
83.4440677722
 30
0.0
 11
14.293248425
 21
83.4440677722
 31
0.0
  0
LINE
  5
21C
330
1F
100
AcDbEntity
  8
0
  6
Continuous
 62
     7
370
    25
100
AcDbLine
 10
14.2672619507
 20
83.4740677722
 30
0.0
 11
14.261248425
 21
83.4740677722
 31
0.0
  0
LINE
  5
21D
330
1F
100
AcDbEntity
  8
0
  6
Continuous
 62
     7
370
    25
100
AcDbLine
 10
12.999248425
 20
83.9529922412
 30
0.0
 11
12.994248425
 21
83.9529922412
 31
0.0
  0
LINE
  5
21E
330
1F
100
AcDbEntity
  8
0
  6
Continuous
 62
     7
370
    25
100
AcDbLine
 10
12.999248425
 20
83.9731054468
 30
0.0
 11
12.999248425
 21
83.9529922412
 31
0.0
  0
LINE
  5
21F
330
1F
100
AcDbEntity
  8
0
  6
Continuous
 62
     7
370
    25
100
AcDbLine
 10
12.999248425
 20
83.9731054468
 30
0.0
 11
13.022248425
 21
83.9731054468
 31
0.0
  0
LINE
  5
220
330
1F
100
AcDbEntity
  8
0
  6
Continuous
 62
     7
370
    25
100
AcDbLine
 10
6.657248425
 20
83.9731054468
 30
0.0
 11
6.634248425
 21
83.9731054468
 31
0.0
  0
LINE
  5
221
330
1F
100
AcDbEntity
  8
0
  6
Continuous
 62
     7
370
    25
100
AcDbLine
 10
6.657248425
 20
83.9731054468
 30
0.0
 11
6.657248425
 21
83.9529922412
 31
0.0
  0
LINE
  5
222
330
1F
100
AcDbEntity
  8
0
  6
Continuous
 62
     7
370
    25
100
AcDbLine
 10
6.657248425
 20
83.9529922412
 30
0.0
 11
6.662248425
 21
83.9529922412
 31
0.0
  0
LINE
  5
223
330
1F
100
AcDbEntity
  8
0
  6
Continuous
 62
     7
370
    25
100
AcDbLine
 10
12.994248425
 20
83.9529922412
 30
0.0
 11
6.662248425
 21
83.9529922412
 31
0.0
  0
LINE
  5
224
330
1F
100
AcDbEntity
  8
0
  6
Continuous
 62
     7
370
    25
100
AcDbLine
 10
6.634248425
 20
83.9731054468
 30
0.0
 11
6.634248425
 21
83.5220677722
 31
0.0
  0
LINE
  5
225
330
1F
100
AcDbEntity
  8
0
  6
Continuous
 62
     7
370
    25
100
AcDbLine
 10
13.022248425
 20
83.9731054468
 30
0.0
 11
13.022248425
 21
83.5220677722
 31
0.0
  0
LINE
  5
226
330
1F
100
AcDbEntity
  8
0
  6
Continuous
 62
     7
370
    25
100
AcDbLine
 10
13.023248425
 20
83.9351374624
 30
0.0
 11
13.053248425
 21
83.9351374624
 31
0.0
  0
LINE
  5
227
330
1F
100
AcDbEntity
  8
0
  6
Continuous
 62
     7
370
    25
100
AcDbLine
 10
13.053248425
 20
83.5220677722
 30
0.0
 11
13.053248425
 21
83.9351374624
 31
0.0
  0
LINE
  5
228
330
1F
100
AcDbEntity
  8
0
  6
Continuous
 62
     7
370
    25
100
AcDbLine
 10
13.023248425
 20
83.5220677722
 30
0.0
 11
13.023248425
 21
83.9351374624
 31
0.0
  0
LINE
  5
229
330
1F
100
AcDbEntity
  8
0
  6
Continuous
 62
     7
370
    25
100
AcDbLine
 10
6.633248425
 20
83.9351374624
 30
0.0
 11
6.603248425
 21
83.9351374624
 31
0.0
  0
LINE
  5
22A
330
1F
100
AcDbEntity
  8
0
  6
Continuous
 62
     7
370
    25
100
AcDbLine
 10
6.633248425
 20
83.5220677722
 30
0.0
 11
6.633248425
 21
83.9351374624
 31
0.0
  0
LINE
  5
22B
330
1F
100
AcDbEntity
  8
0
  6
Continuous
 62
     7
370
    25
100
AcDbLine
 10
6.603248425
 20
83.5220677722
 30
0.0
 11
6.603248425
 21
83.9351374624
 31
0.0
  0
LINE
  5
22C
330
1F
100
AcDbEntity
  8
0
  6
Continuous
 62
     7
370
    25
100
AcDbLine
 10
13.053248425
 20
83.9440677722
 30
0.0
 11
13.023248425
 21
83.9440677722
 31
0.0
  0
LINE
  5
22D
330
1F
100
AcDbEntity
  8
0
  6
Continuous
 62
     7
370
    25
100
AcDbLine
 10
13.053248425
 20
83.9351374624
 30
0.0
 11
13.053248425
 21
83.9440677722
 31
0.0
  0
LINE
  5
22E
330
1F
100
AcDbEntity
  8
0
  6
Continuous
 62
     7
370
    25
100
AcDbLine
 10
13.023248425
 20
83.9440677722
 30
0.0
 11
13.023248425
 21
83.9351374624
 31
0.0
  0
LINE
  5
22F
330
1F
100
AcDbEntity
  8
0
  6
Continuous
 62
     7
370
    25
100
AcDbLine
 10
6.603248425
 20
83.9440677722
 30
0.0
 11
6.633248425
 21
83.9440677722
 31
0.0
  0
LINE
  5
230
330
1F
100
AcDbEntity
  8
0
  6
Continuous
 62
     7
370
    25
100
AcDbLine
 10
6.633248425
 20
83.9440677722
 30
0.0
 11
6.633248425
 21
83.9351374624
 31
0.0
  0
LINE
  5
231
330
1F
100
AcDbEntity
  8
0
  6
Continuous
 62
     7
370
    25
100
AcDbLine
 10
6.603248425
 20
83.9351374624
 30
0.0
 11
6.603248425
 21
83.9440677722
 31
0.0
  0
LINE
  5
232
330
1F
100
AcDbEntity
  8
0
  6
Continuous
 62
     7
370
    25
100
AcDbLine
 10
12.994248425
 20
83.9740677722
 30
0.0
 11
6.662248425
 21
83.9740677722
 31
0.0
  0
LINE
  5
233
330
1F
100
AcDbEntity
  8
0
  6
Continuous
 62
     7
370
    25
100
AcDbLine
 10
12.994248425
 20
83.9740677722
 30
0.0
 11
12.994248425
 21
83.9529922412
 31
0.0
  0
LINE
  5
234
330
1F
100
AcDbEntity
  8
0
  6
Continuous
 62
     7
370
    25
100
AcDbLine
 10
6.662248425
 20
83.9740677722
 30
0.0
 11
6.662248425
 21
83.9529922412
 31
0.0
  0
LINE
  5
235
330
1F
100
AcDbEntity
  8
0
  6
Continuous
 62
     7
370
    25
100
AcDbLine
 10
12.994248425
 20
83.9740677722
 30
0.0
 11
13.0048610742
 21
83.9731054468
 31
0.0
  0
ARC
  5
236
330
1F
100
AcDbEntity
  8
0
  6
Continuous
 62
     7
370
    25
100
AcDbCircle
 10
12.994248425
 20
83.9150677722
 30
0.0
 40
0.059000000000013
100
AcDbArc
 50
29.4408926488
 51
61.6682353255
  0
LWPOLYLINE
  5
237
330
1F
100
AcDbEntity
  8
0
  6
Continuous
 62
     7
370
    25
100
AcDbPolyline
 90
        3
 70
   128
 43
0.0
 10
13.022248425
 20
83.9226176066
 10
13.0226911981
 20
83.9207253915
 10
13.023248425
 20
83.9150677722
  0
LWPOLYLINE
  5
238
330
1F
100
AcDbEntity
  8
0
  6
Continuous
 62
     7
370
    25
100
AcDbPolyline
 90
        3
 70
   128
 43
0.0
 10
6.634248425
 20
83.9226176066
 10
6.6338056519
 20
83.9207253915
 10
6.633248425
 20
83.9150677722
  0
LINE
  5
239
330
1F
100
AcDbEntity
  8
0
  6
Continuous
 62
     7
370
    25
100
AcDbLine
 10
6.662248425
 20
83.9740677722
 30
0.0
 11
6.6516357758
 21
83.9731054468
 31
0.0
  0
ARC
  5
23A
330
1F
100
AcDbEntity
  8
0
  6
Continuous
 62
     7
370
    25
100
AcDbCircle
 10
6.662248425
 20
83.9150677722
 30
0.0
 40
0.0590000000000138
100
AcDbArc
 50
118.3317646745
 51
150.5591073512
  0
LINE
  5
23B
330
1F
100
AcDbEntity
  8
0
  6
Continuous
 62
     7
370
    25
100
AcDbLine
 10
12.1359267732
 20
84.0540677722
 30
0.0
 11
12.5205700536
 21
84.0540677722
 31
0.0
  0
LINE
  5
23C
330
1F
100
AcDbEntity
  8
0
  6
Continuous
 62
     7
370
    25
100
AcDbLine
 10
7.1359267732
 20
84.0540677722
 30
0.0
 11
7.5205700536
 21
84.0540677722
 31
0.0
  0
LINE
  5
23D
330
1F
100
AcDbEntity
  8
0
  6
Continuous
 62
     7
370
    25
100
AcDbLine
 10
14.261248425
 20
83.4420677722
 30
0.0
 11
5.345248425
 21
83.4420677722
 31
0.0
  0
LWPOLYLINE
  5
23E
330
1F
100
AcDbEntity
  8
0
  6
Continuous
 62
     7
370
    25
100
AcDbPolyline
 90
        7
 70
   128
 43
0.0
 10
5.3791895505
 20
83.5220677722
 10
5.3672868169
 20
83.5166536027
 10
5.3561395703
 20
83.5007450931
 10
5.3513113603
 20
83.4884278775
 10
5.3479754306
 20
83.474912772
 10
5.345903091
 20
83.4589808623
 10
5.345248425
 20
83.4420677722
  0
LINE
  5
23F
330
1F
100
AcDbEntity
  8
0
  6
Continuous
 62
     7
370
    25
100
AcDbLine
 10
14.2273072995
 20
83.5220677722
 30
0.0
 11
5.3791895505
 21
83.5220677722
 31
0.0
  0
LWPOLYLINE
  5
240
330
1F
100
AcDbEntity
  8
0
  6
Continuous
 62
     7
370
    25
100
AcDbPolyline
 90
        7
 70
   128
 43
0.0
 10
14.2273072995
 20
83.5220677722
 10
14.2392100331
 20
83.5166536027
 10
14.2503572797
 20
83.5007450931
 10
14.2551854897
 20
83.4884278776
 10
14.2585214194
 20
83.474912772
 10
14.260593759
 20
83.4589808623
 10
14.261248425
 20
83.4420677722
  0
LINE
  5
241
330
1F
100
AcDbEntity
  8
0
  6
Continuous
 62
     7
370
    25
100
AcDbLine
 10
14.261248425
 20
83.4420677722
 30
0.0
 11
14.261248425
 21
78.5900677722
 31
0.0
  0
LINE
  5
242
330
1F
100
AcDbEntity
  8
0
  6
Continuous
 62
     7
370
    25
100
AcDbLine
 10
14.341248425
 20
78.5900677722
 30
0.0
 11
14.341248425
 21
83.4420677722
 31
0.0
  0
LINE
  5
243
330
1F
100
AcDbEntity
  8
0
  6
Continuous
 62
     7
370
    25
100
AcDbLine
 10
14.341248425
 20
78.5900677722
 30
0.0
 11
14.261248425
 21
78.5900677722
 31
0.0
  0
LINE
  5
244
330
1F
100
AcDbEntity
  8
0
  6
Continuous
 62
     7
370
    25
100
AcDbLine
 10
14.341248425
 20
83.4420677722
 30
0.0
 11
14.261248425
 21
83.4420677722
 31
0.0
  0
LINE
  5
245
330
1F
100
AcDbEntity
  8
0
  6
Continuous
 62
     7
370
    25
100
AcDbLine
 10
14.261248425
 20
78.5900677722
 30
0.0
 11
14.236448425
 21
78.5900677722
 31
0.0
  0
LINE
  5
246
330
1F
100
AcDbEntity
  8
0
  6
Continuous
 62
     7
370
    25
100
AcDbLine
 10
14.236448425
 20
78.5907677722
 30
0.0
 11
14.236448425
 21
78.5900677722
 31
0.0
  0
LINE
  5
247
330
1F
100
AcDbEntity
  8
0
  6
Continuous
 62
     7
370
    25
100
AcDbLine
 10
14.236248425
 20
78.5907677722
 30
0.0
 11
14.236448425
 21
78.5907677722
 31
0.0
  0
LINE
  5
248
330
1F
100
AcDbEntity
  8
0
  6
Continuous
 62
     7
370
    25
100
AcDbLine
 10
14.236248425
 20
78.5905677722
 30
0.0
 11
14.236248425
 21
78.5907677722
 31
0.0
  0
LINE
  5
249
330
1F
100
AcDbEntity
  8
0
  6
Continuous
 62
     7
370
    25
100
AcDbLine
 10
5.370248425
 20
78.5905677722
 30
0.0
 11
14.236248425
 21
78.5905677722
 31
0.0
  0
LINE
  5
24A
330
1F
100
AcDbEntity
  8
0
  6
Continuous
 62
     7
370
    25
100
AcDbLine
 10
5.370248425
 20
78.5905677722
 30
0.0
 11
5.370248425
 21
78.5907677722
 31
0.0
  0
LINE
  5
24B
330
1F
100
AcDbEntity
  8
0
  6
Continuous
 62
     7
370
    25
100
AcDbLine
 10
5.370048425
 20
78.5907677722
 30
0.0
 11
5.370248425
 21
78.5907677722
 31
0.0
  0
LINE
  5
24C
330
1F
100
AcDbEntity
  8
0
  6
Continuous
 62
     7
370
    25
100
AcDbLine
 10
5.370048425
 20
78.5900677722
 30
0.0
 11
5.370048425
 21
78.5907677722
 31
0.0
  0
LINE
  5
24D
330
1F
100
AcDbEntity
  8
0
  6
Continuous
 62
     7
370
    25
100
AcDbLine
 10
5.370048425
 20
78.5900677722
 30
0.0
 11
5.345248425
 21
78.5900677722
 31
0.0
  0
LINE
  5
24E
330
1F
100
AcDbEntity
  8
0
  6
Continuous
 62
     7
370
    25
100
AcDbLine
 10
5.345248425
 20
83.4420677722
 30
0.0
 11
5.345248425
 21
78.5900677722
 31
0.0
  0
LINE
  5
24F
330
1F
100
AcDbEntity
  8
0
  6
Continuous
 62
     7
370
    25
100
AcDbLine
 10
5.265248425
 20
78.5900677722
 30
0.0
 11
5.345248425
 21
78.5900677722
 31
0.0
  0
LINE
  5
250
330
1F
100
AcDbEntity
  8
0
  6
Continuous
 62
     7
370
    25
100
AcDbLine
 10
5.265248425
 20
83.4420677722
 30
0.0
 11
5.265248425
 21
78.5900677722
 31
0.0
  0
LINE
  5
251
330
1F
100
AcDbEntity
  8
0
  6
Continuous
 62
     7
370
    25
100
AcDbLine
 10
5.345248425
 20
83.4420677722
 30
0.0
 11
5.265248425
 21
83.4420677722
 31
0.0
  0
LINE
  5
252
330
1F
100
AcDbEntity
  8
0
  6
Continuous
 62
     7
370
    25
100
AcDbLine
 10
5.370248425
 20
78.5905677722
 30
0.0
 11
5.370248425
 21
78.5420677722
 31
0.0
  0
LINE
  5
253
330
1F
100
AcDbEntity
  8
0
  6
Continuous
 62
     7
370
    25
100
AcDbLine
 10
14.236248425
 20
78.5420677722
 30
0.0
 11
14.236248425
 21
78.5905677722
 31
0.0
  0
LINE
  5
254
330
1F
100
AcDbEntity
  8
0
  6
Continuous
 62
     7
370
    25
100
AcDbLine
 10
14.261248425
 20
83.4740677722
 30
0.0
 11
14.261248425
 21
83.5220677722
 31
0.0
  0
ARC
  5
255
330
1F
100
AcDbEntity
  8
0
  6
Continuous
 62
     7
370
    25
100
AcDbCircle
 10
14.261248425
 20
83.4420677722
 30
0.0
 40
0.0799999999999841
100
AcDbArc
 50
0.0
 51
90.0
  0
ARC
  5
256
330
1F
100
AcDbEntity
  8
0
  6
Continuous
 62
     7
370
    25
100
AcDbCircle
 10
14.261248425
 20
83.4420677722
 30
0.0
 40
0.0319999999999876
100
AcDbArc
 50
0.0
 51
90.0
  0
ARC
  5
257
330
1F
100
AcDbEntity
  8
0
  6
Continuous
 62
     7
370
    25
100
AcDbCircle
 10
5.345248425
 20
83.4420677722
 30
0.0
 40
0.0799999999999841
100
AcDbArc
 50
90.0
 51
180.0
  0
LINE
  5
258
330
1F
100
AcDbEntity
  8
0
  6
Continuous
 62
     7
370
    25
100
AcDbLine
 10
5.345248425
 20
83.4740677722
 30
0.0
 11
5.345248425
 21
83.5220677722
 31
0.0
  0
ARC
  5
259
330
1F
100
AcDbEntity
  8
0
  6
Continuous
 62
     7
370
    25
100
AcDbCircle
 10
5.345248425
 20
83.4420677722
 30
0.0
 40
0.0320000000000391
100
AcDbArc
 50
90.0000000001
 51
179.9999999999
  0
ARC
  5
25A
330
1F
100
AcDbEntity
  8
0
  6
Continuous
 62
     7
370
    25
100
AcDbCircle
 10
14.292748425
 20
78.5905677722
 30
0.0
 40
0.0485000000000007
100
AcDbArc
 50
180.0
 51
0.0
  0
ARC
  5
25B
330
1F
100
AcDbEntity
  8
0
  6
Continuous
 62
     7
370
    25
100
AcDbCircle
 10
5.313748425
 20
78.5905677722
 30
0.0
 40
0.0484999999999989
100
AcDbArc
 50
180.0
 51
0.0
  0
LINE
  5
25C
330
1F
100
AcDbEntity
  8
0
  6
Continuous
 62
     7
370
    25
100
AcDbLine
 10
5.345248425
 20
83.5220677722
 30
0.0
 11
5.3791895505
 21
83.5220677722
 31
0.0
  0
LINE
  5
25D
330
1F
100
AcDbEntity
  8
0
  6
Continuous
 62
     7
370
    25
100
AcDbLine
 10
14.2273072995
 20
83.5220677722
 30
0.0
 11
14.261248425
 21
83.5220677722
 31
0.0
  0
LINE
  5
25E
330
1F
100
AcDbEntity
  8
0
  6
Continuous
 62
     7
370
    25
100
AcDbLine
 10
14.293248425
 20
83.5220677722
 30
0.0
 11
14.341248425
 21
83.5220677722
 31
0.0
  0
LINE
  5
25F
330
1F
100
AcDbEntity
  8
0
  6
Continuous
 62
     7
370
    25
100
AcDbLine
 10
14.293248425
 20
83.5147345182
 30
0.0
 11
14.293248425
 21
83.5220677722
 31
0.0
  0
LINE
  5
260
330
1F
100
AcDbEntity
  8
0
  6
Continuous
 62
     7
370
    25
100
AcDbLine
 10
14.341248425
 20
83.4420677722
 30
0.0
 11
14.341248425
 21
83.5220677722
 31
0.0
  0
LWPOLYLINE
  5
261
330
1F
100
AcDbEntity
  8
0
  6
Continuous
 62
     8
370
    25
100
AcDbPolyline
 90
        3
 70
   128
 43
0.0
 10
10.1866116415
 20
78.3302043199
 10
10.1867953607
 20
78.3302474304
 10
10.1870217655
 20
78.3306444421
  0
LWPOLYLINE
  5
262
330
1F
100
AcDbEntity
  8
0
  6
Continuous
 62
     8
370
    25
100
AcDbPolyline
 90
        3
 70
   128
 43
0.0
 10
9.3874359295
 20
78.3306295651
 10
9.3877014893
 20
78.3302474304
 10
9.3880565312
 20
78.3301694804
  0
ARC
  5
263
330
1F
100
AcDbEntity
  8
0
  6
Continuous
 62
     8
370
    25
100
AcDbCircle
 10
9.7872891849
 20
64.641882168
 30
0.0
 40
13.74596233511389
100
AcDbArc
 50
88.1241495057
 51
91.8761905504
  0
LINE
  5
264
330
1F
100
AcDbEntity
  8
0
  6
Continuous
 62
     8
370
    25
100
AcDbLine
 10
11.9370445183
 20
83.9800345011
 30
0.0
 11
12.7194523317
 21
83.9800345011
 31
0.0
  0
LINE
  5
265
330
1F
100
AcDbEntity
  8
0
  6
Continuous
 62
     8
370
    25
100
AcDbLine
 10
6.9370445183
 20
83.9800345011
 30
0.0
 11
7.7194523317
 21
83.9800345011
 31
0.0
  0
LINE
  5
266
330
1F
100
AcDbEntity
  8
0
  6
Continuous
 62
     8
370
    25
100
AcDbLine
 10
12.5804059311
 20
84.0414430061
 30
0.0
 11
12.0760909189
 21
84.0414430061
 31
0.0
  0
LINE
  5
267
330
1F
100
AcDbEntity
  8
0
  6
Continuous
 62
     8
370
    25
100
AcDbLine
 10
7.5804059311
 20
84.0414430061
 30
0.0
 11
7.0760909189
 21
84.0414430061
 31
0.0
  0
ARC
  5
268
330
1F
100
AcDbEntity
  8
0
  6
Continuous
 62
     7
370
    25
100
AcDbCircle
 10
17.5866163461
 20
9.3517354221
 30
0.0
 40
0.05
100
AcDbArc
 50
179.3
 51
269.3
  0
ARC
  5
269
330
1F
100
AcDbEntity
  8
0
  6
Continuous
 62
     7
370
    25
100
AcDbCircle
 10
17.5963899468
 20
10.1516757178
 30
0.0
 40
0.05
100
AcDbArc
 50
89.3
 51
179.3
  0
LINE
  5
26A
330
1F
100
AcDbEntity
  8
0
  6
Continuous
 62
     7
370
    25
100
AcDbLine
 10
17.7530946963
 20
10.1997648446
 30
0.0
 11
17.5970007968
 21
10.2016719863
 31
0.0
  0
LINE
  5
26B
330
1F
100
AcDbEntity
  8
0
  6
Continuous
 62
     7
370
    25
100
AcDbLine
 10
17.586005496
 20
9.3017391536
 30
0.0
 11
17.7530946963
 21
9.2996976723
 31
0.0
  0
ARC
  5
26C
330
1F
100
AcDbEntity
  8
0
  6
Continuous
 62
     7
370
    25
100
AcDbCircle
 10
23.2550946963
 20
9.5279129585
 30
0.0
 40
0.0700000000000003
100
AcDbArc
 50
156.1718108779
 51
180.0
  0
ARC
  5
26D
330
1F
100
AcDbEntity
  8
0
  6
Continuous
 62
     7
370
    25
100
AcDbCircle
 10
23.2550946963
 20
10.3668801281
 30
0.0
 40
0.0700000000000026
100
AcDbArc
 50
180.0
 51
203.8281891221
  0
ARC
  5
26E
330
1F
100
AcDbEntity
  8
0
  6
Continuous
 62
     7
370
    25
100
AcDbCircle
 10
23.2550946963
 20
15.7409264175
 30
0.0
 40
0.0700000000000001
100
AcDbArc
 50
156.1718108779
 51
180.0
  0
ARC
  5
26F
330
1F
100
AcDbEntity
  8
0
  6
Continuous
 62
     7
370
    25
100
AcDbCircle
 10
23.2550946963
 20
16.579893587
 30
0.0
 40
0.0700000000000038
100
AcDbArc
 50
180.0
 51
203.8281891221
  0
LINE
  5
270
330
1F
100
AcDbEntity
  8
0
  6
Continuous
 62
     7
370
    25
100
AcDbLine
 10
23.1910614253
 20
9.5561926366
 30
0.0
 11
23.2524699302
 21
9.6952390372
 31
0.0
  0
LINE
  5
271
330
1F
100
AcDbEntity
  8
0
  6
Continuous
 62
     7
370
    25
100
AcDbLine
 10
23.2524699302
 20
10.1995540494
 30
0.0
 11
23.1910614253
 21
10.33860045
 31
0.0
  0
LINE
  5
272
330
1F
100
AcDbEntity
  8
0
  6
Continuous
 62
     7
370
    25
100
AcDbLine
 10
23.1910614253
 20
15.7692060955
 30
0.0
 11
23.2524699302
 21
15.9082524961
 31
0.0
  0
LINE
  5
273
330
1F
100
AcDbEntity
  8
0
  6
Continuous
 62
     7
370
    25
100
AcDbLine
 10
23.2524699302
 20
16.4125675083
 30
0.0
 11
23.1910614253
 21
16.5516139089
 31
0.0
  0
ARC
  5
274
330
1F
100
AcDbEntity
  8
0
  6
Continuous
 62
     7
370
    25
100
AcDbCircle
 10
23.1169844601
 20
10.1397181951
 30
0.0
 40
0.1481102362204768
100
AcDbArc
 50
0.0
 51
23.8281891221
  0
ARC
  5
275
330
1F
100
AcDbEntity
  8
0
  6
Continuous
 62
     7
370
    25
100
AcDbCircle
 10
23.1169844601
 20
9.7550748915
 30
0.0
 40
0.1481102362204768
100
AcDbArc
 50
336.1718108779
 51
0.0
  0
ARC
  5
276
330
1F
100
AcDbEntity
  8
0
  6
Continuous
 62
     7
370
    25
100
AcDbCircle
 10
23.1169844601
 20
16.352731654
 30
0.0
 40
0.1481102362204751
100
AcDbArc
 50
0.0
 51
23.8281891221
  0
ARC
  5
277
330
1F
100
AcDbEntity
  8
0
  6
Continuous
 62
     7
370
    25
100
AcDbCircle
 10
23.1169844601
 20
15.9680883504
 30
0.0
 40
0.1481102362204716
100
AcDbArc
 50
336.1718108779
 51
0.0
  0
LINE
  5
278
330
1F
100
AcDbEntity
  8
0
  6
Continuous
 62
     7
370
    25
100
AcDbLine
 10
17.7530946963
 20
21.2263965433
 30
0.0
 11
17.7530946963
 21
8.5723965433
 31
0.0
  0
ARC
  5
279
330
1F
100
AcDbEntity
  8
0
  6
Continuous
 62
     7
370
    25
100
AcDbCircle
 10
22.5961946963
 20
8.5362965433
 30
0.0
 40
0.0589000027789024
100
AcDbArc
 50
281.6561225862
 51
0.0
  0
LINE
  5
27A
330
1F
100
AcDbEntity
  8
0
  6
Continuous
 62
     7
370
    25
100
AcDbLine
 10
17.5366200776
 20
9.3523462721
 30
0.0
 11
17.5463936782
 21
10.1522865657
 31
0.0
  0
LINE
  5
27B
330
1F
100
AcDbEntity
  8
0
  6
Continuous
 62
     7
370
    25
100
AcDbLine
 10
17.8249341901
 20
8.5577646385
 30
0.0
 11
17.8251105179
 21
8.5721965433
 31
0.0
  0
LINE
  5
27C
330
1F
100
AcDbEntity
  8
0
  6
Continuous
 62
     7
370
    25
100
AcDbLine
 10
17.8249341901
 20
8.5577646385
 30
0.0
 11
17.7769377724
 21
8.5583510545
 31
0.0
  0
LINE
  5
27D
330
1F
100
AcDbEntity
  8
0
  6
Continuous
 62
     7
370
    25
100
AcDbLine
 10
17.7771093789
 20
8.5723965433
 30
0.0
 11
17.7769377724
 21
8.5583510545
 31
0.0
  0
LINE
  5
27E
330
1F
100
AcDbEntity
  8
0
  6
Continuous
 62
     7
370
    25
100
AcDbLine
 10
17.8491123091
 20
8.5721965433
 30
0.0
 11
17.848932399
 21
8.5574714304
 31
0.0
  0
ARC
  5
27F
330
1F
100
AcDbEntity
  8
0
  6
Continuous
 62
     7
370
    25
100
AcDbCircle
 10
17.8369332945
 20
8.5576180344
 30
0.0
 40
0.0600000000000001
100
AcDbArc
 50
179.3
 51
306.466786056
  0
ARC
  5
280
330
1F
100
AcDbEntity
  8
0
  6
Continuous
 62
     7
370
    25
100
AcDbCircle
 10
17.8369332945
 20
8.5576180344
 30
0.0
 40
0.0120000000000006
100
AcDbArc
 50
179.3
 51
359.3
  0
LINE
  5
281
330
1F
100
AcDbEntity
  8
0
  6
Continuous
 62
     7
370
    25
100
AcDbLine
 10
22.6850946963
 20
8.4798965433
 30
0.0
 11
22.6850946963
 21
8.5473162441
 31
0.0
  0
LINE
  5
282
330
1F
100
AcDbEntity
  8
0
  6
Continuous
 62
     7
370
    25
100
AcDbLine
 10
22.6850946963
 20
8.5721965433
 30
0.0
 11
22.6850946963
 21
8.5723965433
 31
0.0
  0
LINE
  5
283
330
1F
100
AcDbEntity
  8
0
  6
Continuous
 62
     7
370
    25
100
AcDbLine
 10
22.6550946963
 20
8.4798965433
 30
0.0
 11
22.6550946963
 21
8.547391057
 31
0.0
  0
LINE
  5
284
330
1F
100
AcDbEntity
  8
0
  6
Continuous
 62
     7
370
    25
100
AcDbLine
 10
22.6550946963
 20
8.5721965433
 30
0.0
 11
22.6550946963
 21
8.5723965433
 31
0.0
  0
LINE
  5
285
330
1F
100
AcDbEntity
  8
0
  6
Continuous
 62
     7
370
    25
100
AcDbLine
 10
22.6850946963
 20
8.4798965433
 30
0.0
 11
22.6550946963
 21
8.4798965433
 31
0.0
  0
LINE
  5
286
330
1F
100
AcDbEntity
  8
0
  6
Continuous
 62
     7
370
    25
100
AcDbLine
 10
22.6850946963
 20
8.4773965433
 30
0.0
 11
22.6850946963
 21
8.4473965433
 31
0.0
  0
LINE
  5
287
330
1F
100
AcDbEntity
  8
0
  6
Continuous
 62
     7
370
    25
100
AcDbLine
 10
22.6080946963
 20
8.4473965433
 30
0.0
 11
22.6850946963
 21
8.4473965433
 31
0.0
  0
LINE
  5
288
330
1F
100
AcDbEntity
  8
0
  6
Continuous
 62
     7
370
    25
100
AcDbLine
 10
22.6080946963
 20
8.4773965433
 30
0.0
 11
22.6850946963
 21
8.4773965433
 31
0.0
  0
LINE
  5
289
330
1F
100
AcDbEntity
  8
0
  6
Continuous
 62
     7
370
    25
100
AcDbLine
 10
17.8725946963
 20
8.5721965433
 30
0.0
 11
17.8725946963
 21
8.5063965433
 31
0.0
  0
ARC
  5
28A
330
1F
100
AcDbEntity
  8
0
  6
Continuous
 62
     7
370
    25
100
AcDbCircle
 10
17.9315946963
 20
8.5063965433
 30
0.0
 40
0.0590000000000011
100
AcDbArc
 50
180.0
 51
204.7046068283
  0
LINE
  5
28B
330
1F
100
AcDbEntity
  8
0
  6
Continuous
 62
     7
370
    25
100
AcDbLine
 10
22.7140946963
 20
8.4798965433
 30
0.0
 11
22.6850946963
 21
8.4798965433
 31
0.0
  0
LINE
  5
28C
330
1F
100
AcDbEntity
  8
0
  6
Continuous
 62
     7
370
    25
100
AcDbLine
 10
22.7140946963
 20
8.4773965433
 30
0.0
 11
22.7140946963
 21
8.4473965433
 31
0.0
  0
LINE
  5
28D
330
1F
100
AcDbEntity
  8
0
  6
Continuous
 62
     7
370
    25
100
AcDbLine
 10
22.7140946963
 20
8.4473965433
 30
0.0
 11
22.6850946963
 21
8.4473965433
 31
0.0
  0
LINE
  5
28E
330
1F
100
AcDbEntity
  8
0
  6
Continuous
 62
     7
370
    25
100
AcDbLine
 10
22.7140946963
 20
8.4773965433
 30
0.0
 11
22.6850946963
 21
8.4773965433
 31
0.0
  0
LINE
  5
28F
330
1F
100
AcDbEntity
  8
0
  6
Continuous
 62
     7
370
    25
100
AcDbLine
 10
23.1260946963
 20
8.4473965433
 30
0.0
 11
22.7140946963
 21
8.4473965433
 31
0.0
  0
LINE
  5
290
330
1F
100
AcDbEntity
  8
0
  6
Continuous
 62
     7
370
    25
100
AcDbLine
 10
23.1260946963
 20
8.4773965433
 30
0.0
 11
22.7140946963
 21
8.4773965433
 31
0.0
  0
LINE
  5
291
330
1F
100
AcDbEntity
  8
0
  6
Continuous
 62
     7
370
    25
100
AcDbLine
 10
22.7330946963
 20
17.2117145245
 30
0.0
 11
23.1461643866
 21
16.8651078998
 31
0.0
  0
ARC
  5
292
330
1F
100
AcDbEntity
  8
0
  6
Continuous
 62
     7
370
    25
100
AcDbCircle
 10
23.1300946963
 20
16.8459567887
 30
0.0
 40
0.0249999999999989
100
AcDbArc
 50
0.0
 51
50.0
  0
LINE
  5
293
330
1F
100
AcDbEntity
  8
0
  6
Continuous
 62
     7
370
    25
100
AcDbLine
 10
23.1550946963
 20
16.8459567887
 30
0.0
 11
23.1550946963
 21
16.8099293394
 31
0.0
  0
LINE
  5
294
330
1F
100
AcDbEntity
  8
0
  6
Continuous
 62
     7
370
    25
100
AcDbLine
 10
23.1550946963
 20
16.8099293394
 30
0.0
 11
23.1260946963
 21
16.8099293394
 31
0.0
  0
LINE
  5
295
330
1F
100
AcDbEntity
  8
0
  6
Continuous
 62
     7
370
    25
100
AcDbLine
 10
23.1260946963
 20
8.4798965433
 30
0.0
 11
22.7140946963
 21
8.4798965433
 31
0.0
  0
LINE
  5
296
330
1F
100
AcDbEntity
  8
0
  6
Continuous
 62
     7
370
    25
100
AcDbLine
 10
23.1850946963
 20
16.8049293394
 30
0.0
 11
23.1260946963
 21
16.8049293394
 31
0.0
  0
LINE
  5
297
330
1F
100
AcDbEntity
  8
0
  6
Continuous
 62
     7
370
    25
100
AcDbLine
 10
23.1850946963
 20
8.5273965433
 30
0.0
 11
23.1850946963
 21
16.8049293394
 31
0.0
  0
LINE
  5
298
330
1F
100
AcDbEntity
  8
0
  6
Continuous
 62
     7
370
    25
100
AcDbLine
 10
23.1850946963
 20
8.5273965433
 30
0.0
 11
23.1260946963
 21
8.5273965433
 31
0.0
  0
LINE
  5
299
330
1F
100
AcDbEntity
  8
0
  6
Continuous
 62
     7
370
    25
100
AcDbLine
 10
23.184132371
 20
16.8332489781
 30
0.0
 11
23.1648487427
 21
16.8102676448
 31
0.0
  0
LINE
  5
29A
330
1F
100
AcDbEntity
  8
0
  6
Continuous
 62
     7
370
    25
100
AcDbLine
 10
23.1550946963
 20
16.8184522615
 30
0.0
 11
23.1648487427
 21
16.8102676448
 31
0.0
  0
LINE
  5
29B
330
1F
100
AcDbEntity
  8
0
  6
Continuous
 62
     7
370
    25
100
AcDbLine
 10
23.184132371
 20
16.8332489781
 30
0.0
 11
23.1461643866
 21
16.8651078998
 31
0.0
  0
LINE
  5
29C
330
1F
100
AcDbEntity
  8
0
  6
Continuous
 62
     7
370
    25
100
AcDbLine
 10
23.1550946963
 20
8.5273965433
 30
0.0
 11
23.1550946963
 21
8.5063965433
 31
0.0
  0
LINE
  5
29D
330
1F
100
AcDbEntity
  8
0
  6
Continuous
 62
     7
370
    25
100
AcDbLine
 10
23.1850946963
 20
8.5273965433
 30
0.0
 11
23.1850946963
 21
8.5063965433
 31
0.0
  0
LINE
  5
29E
330
1F
100
AcDbEntity
  8
0
  6
Continuous
 62
     7
370
    25
100
AcDbLine
 10
23.1550946963
 20
8.5063965433
 30
0.0
 11
23.1850946963
 21
8.5063965433
 31
0.0
  0
LWPOLYLINE
  5
29F
330
1F
100
AcDbEntity
  8
0
  6
Continuous
 62
     7
370
    25
100
AcDbPolyline
 90
        3
 70
   128
 43
0.0
 10
23.1550946963
 20
16.8049293394
 10
23.1549223302
 20
16.8080864788
 10
23.1546604101
 20
16.8099293394
  0
ARC
  5
2A0
330
1F
100
AcDbEntity
  8
0
  6
Continuous
 62
     7
370
    25
100
AcDbCircle
 10
23.1260946963
 20
16.8049293394
 30
0.0
 40
0.0590000000000025
100
AcDbArc
 50
0.0
 51
23.5756578608
  0
ARC
  5
2A1
330
1F
100
AcDbEntity
  8
0
  6
Continuous
 62
     7
370
    25
100
AcDbCircle
 10
23.1260946963
 20
8.5063965433
 30
0.0
 40
0.0590000000000011
100
AcDbArc
 50
270.0
 51
0.0
  0
ARC
  5
2A2
330
1F
100
AcDbEntity
  8
0
  6
Continuous
 62
     7
370
    25
100
AcDbCircle
 10
23.1260946963
 20
8.5063965433
 30
0.0
 40
0.0290000000000035
100
AcDbArc
 50
270.0
 51
0.0
  0
LINE
  5
2A3
330
1F
100
AcDbEntity
  8
0
  6
Continuous
 62
     7
370
    25
100
AcDbLine
 10
23.2650946963
 20
10.1397181951
 30
0.0
 11
23.2650946963
 21
9.7550748915
 31
0.0
  0
LINE
  5
2A4
330
1F
100
AcDbEntity
  8
0
  6
Continuous
 62
     7
370
    25
100
AcDbLine
 10
23.2650946963
 20
16.352731654
 30
0.0
 11
23.2650946963
 21
15.9680883504
 31
0.0
  0
LINE
  5
2A5
330
1F
100
AcDbEntity
  8
0
  6
Continuous
 62
     7
370
    25
100
AcDbLine
 10
22.6080946963
 20
8.4793965433
 30
0.0
 11
22.6080946963
 21
8.4795965433
 31
0.0
  0
LINE
  5
2A6
330
1F
100
AcDbEntity
  8
0
  6
Continuous
 62
     7
370
    25
100
AcDbLine
 10
17.8780946963
 20
8.4795965433
 30
0.0
 11
17.8780946963
 21
8.4793965433
 31
0.0
  0
LINE
  5
2A7
330
1F
100
AcDbEntity
  8
0
  6
Continuous
 62
     7
370
    25
100
AcDbLine
 10
17.8780946963
 20
8.4795965433
 30
0.0
 11
17.8779946963
 21
8.4795965433
 31
0.0
  0
LINE
  5
2A8
330
1F
100
AcDbEntity
  8
0
  6
Continuous
 62
     7
370
    25
100
AcDbLine
 10
17.8779946963
 20
8.4795965433
 30
0.0
 11
17.8779946963
 21
8.5721965433
 31
0.0
  0
LINE
  5
2A9
330
1F
100
AcDbEntity
  8
0
  6
Continuous
 62
     7
370
    25
100
AcDbLine
 10
17.8779946963
 20
8.5721965433
 30
0.0
 11
17.8017946963
 21
8.5721965433
 31
0.0
  0
LINE
  5
2AA
330
1F
100
AcDbEntity
  8
0
  6
Continuous
 62
     7
370
    25
100
AcDbLine
 10
17.8017946963
 20
8.5721965433
 30
0.0
 11
17.8017946963
 21
8.5723965433
 31
0.0
  0
LINE
  5
2AB
330
1F
100
AcDbEntity
  8
0
  6
Continuous
 62
     7
370
    25
100
AcDbLine
 10
17.8015946963
 20
8.5723965433
 30
0.0
 11
17.8017946963
 21
8.5723965433
 31
0.0
  0
LINE
  5
2AC
330
1F
100
AcDbEntity
  8
0
  6
Continuous
 62
     7
370
    25
100
AcDbLine
 10
17.8015946963
 20
21.2263965433
 30
0.0
 11
17.8017946963
 21
21.2263965433
 31
0.0
  0
LINE
  5
2AD
330
1F
100
AcDbEntity
  8
0
  6
Continuous
 62
     7
370
    25
100
AcDbLine
 10
17.8017946963
 20
21.2263965433
 30
0.0
 11
17.8017946963
 21
21.2265965433
 31
0.0
  0
LINE
  5
2AE
330
1F
100
AcDbEntity
  8
0
  6
Continuous
 62
     7
370
    25
100
AcDbLine
 10
17.8017946963
 20
21.2265965433
 30
0.0
 11
17.8010946963
 21
21.2265965433
 31
0.0
  0
LINE
  5
2AF
330
1F
100
AcDbEntity
  8
0
  6
Continuous
 62
     7
370
    25
100
AcDbLine
 10
17.8010946963
 20
21.2265965433
 30
0.0
 11
17.8010946963
 21
21.2423965433
 31
0.0
  0
LINE
  5
2B0
330
1F
100
AcDbEntity
  8
0
  6
Continuous
 62
     7
370
    25
100
AcDbLine
 10
22.6528946963
 20
8.5723965433
 30
0.0
 11
22.6530946963
 21
8.5723965433
 31
0.0
  0
LINE
  5
2B1
330
1F
100
AcDbEntity
  8
0
  6
Continuous
 62
     7
370
    25
100
AcDbLine
 10
22.6528946963
 20
8.5723965433
 30
0.0
 11
22.6528946963
 21
8.5721965433
 31
0.0
  0
LINE
  5
2B2
330
1F
100
AcDbEntity
  8
0
  6
Continuous
 62
     7
370
    25
100
AcDbLine
 10
22.6528946963
 20
8.5721965433
 30
0.0
 11
22.7330946963
 21
8.5721965433
 31
0.0
  0
LINE
  5
2B3
330
1F
100
AcDbEntity
  8
0
  6
Continuous
 62
     7
370
    25
100
AcDbLine
 10
22.7330946963
 20
8.5721965433
 30
0.0
 11
22.7330946963
 21
8.5471965433
 31
0.0
  0
LINE
  5
2B4
330
1F
100
AcDbEntity
  8
0
  6
Continuous
 62
     7
370
    25
100
AcDbLine
 10
22.7330946963
 20
8.5471965433
 30
0.0
 11
22.6528946963
 21
8.5473965433
 31
0.0
  0
LINE
  5
2B5
330
1F
100
AcDbEntity
  8
0
  6
Continuous
 62
     7
370
    25
100
AcDbLine
 10
22.6528946963
 20
8.5473965433
 30
0.0
 11
22.6080946963
 21
8.4795965433
 31
0.0
  0
LINE
  5
2B6
330
1F
100
AcDbEntity
  8
0
  6
Continuous
 62
     7
370
    25
100
AcDbLine
 10
22.7330946963
 20
8.5723965433
 30
0.0
 11
22.6530946963
 21
8.5723965433
 31
0.0
  0
LWPOLYLINE
  5
2B7
330
1F
100
AcDbEntity
  8
0
  6
Continuous
 62
     7
370
    25
100
AcDbPolyline
 90
        7
 70
   128
 43
0.0
 10
22.7330946963
 20
21.2084554178
 10
22.7276805269
 20
21.2203581514
 10
22.7117720173
 20
21.2315053981
 10
22.6994548017
 20
21.236333608
 10
22.6859396961
 20
21.2396695378
 10
22.6700077864
 20
21.2417418773
 10
22.6530946963
 20
21.2423965433
  0
LINE
  5
2B8
330
1F
100
AcDbEntity
  8
0
  6
Continuous
 62
     7
370
    25
100
AcDbLine
 10
22.7330946963
 20
8.5723965433
 30
0.0
 11
22.7330946963
 21
21.2084554178
 31
0.0
  0
LINE
  5
2B9
330
1F
100
AcDbEntity
  8
0
  6
Continuous
 62
     7
370
    25
100
AcDbLine
 10
22.6530946963
 20
21.3223965433
 30
0.0
 11
17.8010946963
 21
21.3223965433
 31
0.0
  0
LINE
  5
2BA
330
1F
100
AcDbEntity
  8
0
  6
Continuous
 62
     7
370
    25
100
AcDbLine
 10
17.8010946963
 20
21.2423965433
 30
0.0
 11
17.8010946963
 21
21.3223965433
 31
0.0
  0
LINE
  5
2BB
330
1F
100
AcDbEntity
  8
0
  6
Continuous
 62
     7
370
    25
100
AcDbLine
 10
17.8780946963
 20
8.3993965433
 30
0.0
 11
22.6080946963
 21
8.3993965433
 31
0.0
  0
LINE
  5
2BC
330
1F
100
AcDbEntity
  8
0
  6
Continuous
 62
     7
370
    25
100
AcDbLine
 10
17.8780946963
 20
8.4793965433
 30
0.0
 11
17.8780946963
 21
8.3993965433
 31
0.0
  0
LINE
  5
2BD
330
1F
100
AcDbEntity
  8
0
  6
Continuous
 62
     7
370
    25
100
AcDbLine
 10
22.6080946963
 20
8.3993965433
 30
0.0
 11
22.6080946963
 21
8.4793965433
 31
0.0
  0
LINE
  5
2BE
330
1F
100
AcDbEntity
  8
0
  6
Continuous
 62
     7
370
    25
100
AcDbLine
 10
17.8015946963
 20
21.2263965433
 30
0.0
 11
17.7530946963
 21
21.2263965433
 31
0.0
  0
LINE
  5
2BF
330
1F
100
AcDbEntity
  8
0
  6
Continuous
 62
     7
370
    25
100
AcDbLine
 10
17.7530946963
 20
8.5723965433
 30
0.0
 11
17.8015946963
 21
8.5723965433
 31
0.0
  0
ARC
  5
2C0
330
1F
100
AcDbEntity
  8
0
  6
Continuous
 62
     7
370
    25
100
AcDbCircle
 10
22.6530946963
 20
21.2423965433
 30
0.0
 40
0.0799999999999947
100
AcDbArc
 50
0.0
 51
90.0
  0
LINE
  5
2C1
330
1F
100
AcDbEntity
  8
0
  6
Continuous
 62
     7
370
    25
100
AcDbLine
 10
22.6850946963
 20
21.2423965433
 30
0.0
 11
22.7330946963
 21
21.2423965433
 31
0.0
  0
ARC
  5
2C2
330
1F
100
AcDbEntity
  8
0
  6
Continuous
 62
     7
370
    25
100
AcDbCircle
 10
22.6530946963
 20
21.2423965433
 30
0.0
 40
0.0320000000000107
100
AcDbArc
 50
0.0
 51
90.0
  0
LINE
  5
2C3
330
1F
100
AcDbEntity
  8
0
  6
Continuous
 62
     7
370
    25
100
AcDbLine
 10
17.8015946963
 20
21.2265965433
 30
0.0
 11
17.8015946963
 21
21.2263965433
 31
0.0
  0
ARC
  5
2C4
330
1F
100
AcDbEntity
  8
0
  6
Continuous
 62
     7
370
    25
100
AcDbCircle
 10
17.8015946963
 20
21.2738965433
 30
0.0
 40
0.0485000000000007
100
AcDbArc
 50
90.0
 51
258.3449052556
  0
LINE
  5
2C5
330
1F
100
AcDbEntity
  8
0
  6
Continuous
 62
     7
370
    25
100
AcDbLine
 10
22.7330946963
 20
21.2423965433
 30
0.0
 11
22.7330946963
 21
21.2084554178
 31
0.0
  0
LINE
  5
2C6
330
1F
100
AcDbEntity
  8
0
  6
Continuous
 62
     8
370
    25
100
AcDbLine
 10
22.6455601831
 20
8.5362965433
 30
0.0
 11
22.6550946963
 21
8.5362965433
 31
0.0
  0
LINE
  5
2C7
330
1F
100
AcDbEntity
  8
0
  6
Continuous
 62
     8
370
    25
100
AcDbLine
 10
17.5970007968
 20
10.2016719863
 30
0.0
 11
17.586005496
 21
9.3017391536
 31
0.0
  0
LINE
  5
2C8
330
1F
100
AcDbEntity
  8
0
  6
Continuous
 62
     8
370
    25
100
AcDbLine
 10
17.848932399
 20
8.5574714304
 30
0.0
 11
17.8725946963
 21
8.5571823265
 31
0.0
  0
LINE
  5
2C9
330
1F
100
AcDbEntity
  8
0
  6
Continuous
 62
     8
370
    25
100
AcDbLine
 10
17.8725946963
 20
8.5063965433
 30
0.0
 11
17.8779946963
 21
8.5063965433
 31
0.0
  0
LINE
  5
2CA
330
1F
100
AcDbEntity
  8
0
  6
Continuous
 62
     8
370
    25
100
AcDbLine
 10
22.7140946963
 20
8.5723965433
 30
0.0
 11
22.7140946963
 21
8.5721965433
 31
0.0
  0
LINE
  5
2CB
330
1F
100
AcDbEntity
  8
0
  6
Continuous
 62
     8
370
    25
100
AcDbLine
 10
22.7140946963
 20
8.5472439249
 30
0.0
 11
22.7140946963
 21
8.4798965433
 31
0.0
  0
LINE
  5
2CC
330
1F
100
AcDbEntity
  8
0
  6
Continuous
 62
     8
370
    25
100
AcDbLine
 10
23.1910614253
 20
9.9473965433
 30
0.0
 11
23.1910614253
 21
9.5561926366
 31
0.0
  0
LINE
  5
2CD
330
1F
100
AcDbEntity
  8
0
  6
Continuous
 62
     8
370
    25
100
AcDbLine
 10
23.1910614253
 20
10.33860045
 30
0.0
 11
23.1910614253
 21
9.9473965433
 31
0.0
  0
LINE
  5
2CE
330
1F
100
AcDbEntity
  8
0
  6
Continuous
 62
     8
370
    25
100
AcDbLine
 10
23.1910614253
 20
16.1604100022
 30
0.0
 11
23.1910614253
 21
15.7692060955
 31
0.0
  0
LINE
  5
2CF
330
1F
100
AcDbEntity
  8
0
  6
Continuous
 62
     8
370
    25
100
AcDbLine
 10
23.1910614253
 20
16.5516139089
 30
0.0
 11
23.1910614253
 21
16.1604100022
 31
0.0
  0
DIMENSION
  5
2D0
330
1F
100
AcDbEntity
  8
DIMS
100
AcDbDimension
  2
_D_3
 10
16.1082117387
 20
8.3993965433
 30
0.0
 11
16.1082117387
 21
15.2516397908
 31
0.0
 70
   160
  1
<>
 71
     2
 42
-1.0
  3
SLDDIMSTYLE1
100
AcDbAlignedDimension
 13
17.8010946963
 23
21.3223965433
 33
0.0
 14
17.8780946963
 24
8.3993965433
 34
0.0
 50
90.0
100
AcDbRotatedDimension
  0
MTEXT
  5
2DF
330
1F
100
AcDbEntity
  8
NOTES
100
AcDbMText
 10
17.8131903229
 20
7.8785786538
 30
0.0
 40
0.75
 41
0.0
 71
     1
 72
     1
  1
Side view
  7
SLDTEXTSTYLE1
 73
     1
 44
1.0
  0
LWPOLYLINE
  5
2E0
330
1F
100
AcDbEntity
  8
0
  6
Continuous
 62
     7
370
    25
100
AcDbPolyline
 90
       16
 70
   128
 43
0.0
 10
39.4121600516
 20
20.0516041519
 10
39.3955306505
 20
20.0441171762
 10
39.3580502948
 20
20.0136023902
 10
39.3285730304
 20
19.9742946761
 10
39.3071692009
 20
19.9268445107
 10
39.2942207072
 20
19.8716726236
 10
39.2903353695
 20
19.8099342523
 10
39.2957980323
 20
19.7435860939
 10
39.3103631313
 20
19.6748883715
 10
39.3334563951
 20
19.60581963
 10
39.3643420297
 20
19.5381951961
 10
39.4021586993
 20
19.4737594276
 10
39.4459333954
 20
19.4141894465
 10
39.4945917324
 20
19.3610836827
 10
39.5470427118
 20
19.3158881613
 10
39.5947128284
 20
19.2841641411
  0
ARC
  5
2E1
330
1F
100
AcDbEntity
  8
0
  6
Continuous
 62
     7
370
    25
100
AcDbCircle
 10
39.7350920148
 20
19.4758165348
 30
0.0
 40
0.2375646354033568
100
AcDbArc
 50
233.7784283589
 51
296.9687607759
  0
LINE
  5
2E2
330
1F
100
AcDbEntity
  8
0
  6
Continuous
 62
     7
370
    25
100
AcDbLine
 10
39.5437573423
 20
20.1277881199
 30
0.0
 11
39.4023465404
 21
20.0481485375
 31
0.0
  0
LINE
  5
2E3
330
1F
100
AcDbEntity
  8
0
  6
Continuous
 62
     7
370
    25
100
AcDbLine
 10
39.8439860323
 20
19.263958153
 30
0.0
 11
39.9853968342
 21
19.3435977353
 31
0.0
  0
LINE
  5
2E4
330
1F
100
AcDbEntity
  8
0
  6
Continuous
 62
     7
370
    25
100
AcDbLine
 10
39.742387408
 20
19.3616768151
 30
0.0
 11
39.7512255831
 21
19.366654289
 31
0.0
  0
LINE
  5
2E5
330
1F
100
AcDbEntity
  8
0
  6
Continuous
 62
     7
370
    25
100
AcDbLine
 10
39.4420779388
 20
19.9155875582
 30
0.0
 11
39.4332397637
 21
19.9106100843
 31
0.0
  0
LINE
  5
2E6
330
1F
100
AcDbEntity
  8
0
  6
Continuous
 62
     7
370
    25
100
AcDbLine
 10
36.6512015685
 20
20.5278018601
 30
0.0
 11
42.8822265243
 21
16.9307077194
 31
0.0
  0
LINE
  5
2E7
330
1F
100
AcDbEntity
  8
0
  6
Continuous
 62
     7
370
    25
100
AcDbLine
 10
42.9752497486
 20
16.9136191227
 30
0.0
 11
43.0026952114
 21
16.8977751943
 31
0.0
  0
LINE
  5
2E8
330
1F
100
AcDbEntity
  8
0
  6
Continuous
 62
     7
370
    25
100
AcDbLine
 10
42.9090930486
 20
27.2722036777
 30
0.0
 11
42.9090930486
 21
16.9396962441
 31
0.0
  0
LINE
  5
2E9
330
1F
100
AcDbEntity
  8
0
  6
Continuous
 62
     7
370
    25
100
AcDbLine
 10
36.6241847642
 20
30.9111866853
 30
0.0
 11
42.8933934862
 21
27.2920495256
 31
0.0
  0
LINE
  5
2EA
330
1F
100
AcDbEntity
  8
0
  6
Continuous
 62
     7
370
    25
100
AcDbLine
 10
46.4458477339
 20
18.9329566491
 30
0.0
 11
46.4458477339
 21
29.2703642963
 31
0.0
  0
LINE
  5
2EB
330
1F
100
AcDbEntity
  8
0
  6
Continuous
 62
     7
370
    25
100
AcDbLine
 10
46.3987756053
 20
29.351893421
 30
0.0
 11
40.1083493001
 21
32.9832792309
 31
0.0
  0
LINE
  5
2EC
330
1F
100
AcDbEntity
  8
0
  6
Continuous
 62
     7
370
    25
100
AcDbLine
 10
40.0212869235
 20
32.9873600072
 30
0.0
 11
36.5904048212
 21
31.0067539279
 31
0.0
  0
LINE
  5
2ED
330
1F
100
AcDbEntity
  8
0
  6
Continuous
 62
     7
370
    25
100
AcDbLine
 10
36.5599812603
 20
30.9374678957
 30
0.0
 11
36.5599812603
 21
20.6049604621
 31
0.0
  0
LINE
  5
2EE
330
1F
100
AcDbEntity
  8
0
  6
Continuous
 62
     7
370
    25
100
AcDbLine
 10
43.0294096031
 20
16.8385600776
 30
0.0
 11
46.3740246781
 21
18.7693652621
 31
0.0
  0
LINE
  5
2EF
330
1F
100
AcDbEntity
  8
0
  6
Continuous
 62
     7
370
    25
100
AcDbLine
 10
40.140550343
 20
24.9938756697
 30
0.0
 11
40.140550343
 21
25.640006132
 31
0.0
  0
LINE
  5
2F0
330
1F
100
AcDbEntity
  8
0
  6
Continuous
 62
     7
370
    25
100
AcDbLine
 10
40.140550343
 20
26.1850326237
 30
0.0
 11
40.140550343
 21
26.82940389
 31
0.0
  0
LWPOLYLINE
  5
2F1
330
1F
100
AcDbEntity
  8
0
  6
Continuous
 62
     7
370
    25
100
AcDbPolyline
 90
       34
 70
   128
 43
0.0
 10
39.5843580962
 20
19.3075566887
 10
39.6379488767
 20
19.2825934293
 10
39.6897276371
 20
19.2704083888
 10
39.7378229583
 20
19.2714419664
 10
39.7804965498
 20
19.2856568057
 10
39.816206077
 20
19.3125391456
 10
39.8436609045
 20
19.3511173881
 10
39.8618687433
 20
19.3999972152
 10
39.8701715147
 20
19.4574119824
 10
39.8682691348
 20
19.5212865705
 10
39.8562303607
 20
19.5893123855
 10
39.834490305
 20
19.6590307972
 10
39.8038347099
 20
19.7279220005
 10
39.7653715486
 20
19.7934960879
 10
39.7204909799
 20
19.8533830409
 10
39.6708151045
 20
19.9054183891
 10
39.6181393379
 20
19.9477214394
 10
39.5643675197
 20
19.9787632493
 10
39.5114431033
 20
19.997421887
 10
39.4612789152
 20
20.0030229807
 10
39.4156880198
 20
19.9953640922
 10
39.3763181908
 20
19.9747220337
 10
39.3445923564
 20
19.9418428631
 10
39.321657171
 20
19.8979149192
 10
39.3083415718
 20
19.8445258723
 10
39.3051268194
 20
19.7836053417
 10
39.3121291033
 20
19.7173551542
 10
39.3290953427
 20
19.648169764
 10
39.3554123334
 20
19.5785497116
 10
39.3901289109
 20
19.5110112468
 10
39.4319903277
 20
19.4479953859
 10
39.479483603
 20
19.3917796863
 10
39.5308922061
 20
19.3443959297
 10
39.5843580962
 20
19.3075566887
  0
LINE
  5
2F2
330
1F
100
AcDbEntity
  8
0
  6
Continuous
 62
     7
370
    25
100
AcDbLine
 10
39.4023465404
 20
20.0481485375
 30
0.0
 11
39.4098493681
 21
20.0521054487
 31
0.0
  0
LWPOLYLINE
  5
2F3
330
1F
100
AcDbEntity
  8
0
  6
Continuous
 62
     7
370
    25
100
AcDbPolyline
 90
       19
 70
   128
 43
0.0
 10
39.9853968342
 20
19.3435977353
 10
40.0109305722
 20
19.3615975693
 10
40.0429387414
 20
19.3987643871
 10
40.066000138
 20
19.4467603654
 10
40.0793735497
 20
19.5040428739
 10
40.0826291442
 20
19.5687708058
 10
40.0756622839
 20
19.6388637521
 10
40.0586968895
 20
19.7120688677
 10
40.0322782426
 20
19.78603328
 10
39.9972554604
 20
19.858379712
 10
39.9547542038
 20
19.9267828898
 10
39.9061404983
 20
19.989044279
 10
39.8529768283
 20
20.0431627472
 10
39.7969719179
 20
20.0873988825
 10
39.739925811
 20
20.1203308991
 10
39.6836720165
 20
20.1409003347
 10
39.6300185775
 20
20.1484460708
 10
39.5806899598
 20
20.1427255814
 10
39.5437573423
 20
20.1277881199
  0
LWPOLYLINE
  5
2F4
330
1F
100
AcDbEntity
  8
0
  6
Continuous
 62
     7
370
    25
100
AcDbPolyline
 90
       31
 70
   128
 43
0.0
 10
39.5850060005
 20
19.3691667064
 10
39.6328474771
 20
19.3474179102
 10
39.6787207565
 20
19.3382878056
 10
39.7206209564
 20
19.3421754219
 10
39.7567168369
 20
19.3589108517
 10
39.7854308348
 20
19.3877626763
 10
39.8055080107
 20
19.4274699325
 10
39.8160708956
 20
19.4762972228
 10
39.8166578407
 20
19.5321105602
 10
39.8072431938
 20
19.5924706341
 10
39.7882384201
 20
19.6547394196
 10
39.7604741194
 20
19.7161954719
 10
39.7251637249
 20
19.7741528668
 10
39.6838504702
 20
19.8260785879
 10
39.6383399428
 20
19.869703232
 10
39.5906211712
 20
19.903120193
 10
39.5427796946
 20
19.9248689891
 10
39.4969064152
 20
19.9339990937
 10
39.4550062153
 20
19.9301114774
 10
39.4189103348
 20
19.9133760477
 10
39.3901963369
 20
19.8845242231
 10
39.370119161
 20
19.8448169668
 10
39.3595562762
 20
19.7959896766
 10
39.358969331
 20
19.7401763392
 10
39.3683839779
 20
19.6798162653
 10
39.3873887516
 20
19.6175474798
 10
39.4151530523
 20
19.5560914274
 10
39.4504634468
 20
19.4981340325
 10
39.4917767015
 20
19.4462083114
 10
39.5372872289
 20
19.4025836673
 10
39.5850060005
 20
19.3691667064
  0
ARC
  5
2F5
330
1F
100
AcDbEntity
  8
0
  6
Continuous
 62
     7
370
    25
100
AcDbCircle
 10
39.6918217437
 20
19.4957982499
 30
0.0
 40
0.1524757998459329
100
AcDbArc
 50
244.6989679525
 51
293.1053398916
  0
ARC
  5
2F6
330
1F
100
AcDbEntity
  8
0
  6
Continuous
 62
     7
370
    25
100
AcDbCircle
 10
39.5161698917
 20
19.8010599724
 30
0.0
 40
0.1466485204435269
100
AcDbArc
 50
124.6416989619
 51
175.1031709713
  0
ARC
  5
2F7
330
1F
100
AcDbEntity
  8
0
  6
Continuous
 62
     7
370
    25
100
AcDbCircle
 10
39.6762762763
 20
19.484545206
 30
0.0
 40
0.1396984857261533
100
AcDbArc
 50
302.4462146598
 51
351.4128073839
  0
ARC
  5
2F8
330
1F
100
AcDbEntity
  8
0
  6
Continuous
 62
     7
370
    25
100
AcDbCircle
 10
39.5039093801
 20
19.7943211677
 30
0.0
 40
0.1361200373886475
100
AcDbArc
 50
66.6739803445
 51
117.0161753315
  0
LWPOLYLINE
  5
2F9
330
1F
100
AcDbEntity
  8
0
  6
Continuous
 62
     7
370
    25
100
AcDbPolyline
 90
       30
 70
   128
 43
0.0
 10
39.5850923877
 20
19.3773813754
 10
39.6330382305
 20
19.3557892701
 10
39.6788694191
 20
19.3473062147
 10
39.7204429382
 20
19.3523288674
 10
39.7558148561
 20
19.3706223745
 10
39.7833312214
 20
19.4013313519
 10
39.8017053994
 20
19.4430198821
 10
39.8100782338
 20
19.4937386557
 10
39.8080582204
 20
19.5511161191
 10
39.7957398126
 20
19.6124693661
 10
39.7736990056
 20
19.6749295868
 10
39.7429664029
 20
19.7355762109
 10
39.7049790269
 20
19.7915734696
 10
39.6615131252
 20
19.8403029933
 10
39.6146011149
 20
19.8794862437
 10
39.5664365495
 20
19.9072910555
 10
39.5192715505
 20
19.9224173065
 10
39.475311501
 20
19.9241577102
 10
39.4366119239
 20
19.9124308872
 10
39.4049823685
 20
19.8877851707
 10
39.3819017976
 20
19.8513729669
 10
39.368449433
 20
19.8048968702
 10
39.3652542925
 20
19.7505300511
 10
39.3724657771
 20
19.6908146416
 10
39.389746686
 20
19.6285428679
 10
39.4162889829
 20
19.566626489
 10
39.4508515796
 20
19.507960646
 10
39.4918183676
 20
19.4552884883
 10
39.5372737852
 20
19.4110729077
 10
39.5850923877
 20
19.3773813754
  0
LINE
  5
2FA
330
1F
100
AcDbEntity
  8
0
  6
Continuous
 62
     7
370
    25
100
AcDbLine
 10
39.556698262
 20
19.7215026235
 30
0.0
 11
39.5534587404
 21
19.413452535
 31
0.0
  0
LINE
  5
2FB
330
1F
100
AcDbEntity
  8
0
  6
Continuous
 62
     7
370
    25
100
AcDbLine
 10
39.5534587404
 20
19.413452535
 30
0.0
 11
39.6170983507
 21
19.37671417
 31
0.0
  0
LINE
  5
2FC
330
1F
100
AcDbEntity
  8
0
  6
Continuous
 62
     7
370
    25
100
AcDbLine
 10
39.6170983507
 20
19.37671417
 30
0.0
 11
39.6203378723
 21
19.6847642584
 31
0.0
  0
LINE
  5
2FD
330
1F
100
AcDbEntity
  8
0
  6
Continuous
 62
     7
370
    25
100
AcDbLine
 10
39.6203378723
 20
19.6847642584
 30
0.0
 11
39.556698262
 21
19.7215026235
 31
0.0
  0
LINE
  5
2FE
330
1F
100
AcDbEntity
  8
0
  6
Continuous
 62
     7
370
    25
100
AcDbLine
 10
39.617866153
 20
19.4497254319
 30
0.0
 11
39.5534587404
 21
19.413452535
 31
0.0
  0
LWPOLYLINE
  5
2FF
330
1F
100
AcDbEntity
  8
0
  6
Continuous
 62
     7
370
    25
100
AcDbPolyline
 90
       33
 70
   128
 43
0.0
 10
40.3077602308
 20
26.8161244378
 10
40.3554383698
 20
26.7803555521
 10
40.3931782755
 20
26.7341509687
 10
40.4195296243
 20
26.6792863037
 10
40.4334797488
 20
26.6178699757
 10
40.4344925535
 20
26.5522621794
 10
40.4225291168
 20
26.4849841859
 10
40.3980491871
 20
26.4186214506
 10
40.3619935141
 20
26.3557242563
 10
40.3157476972
 20
26.2987097068
 10
40.2610889372
 20
26.2497688393
 10
40.2001177397
 20
26.210782424
 10
40.1351771935
 20
26.1832486868
 10
40.0687629274
 20
26.1682257339
 10
40.0034272044
 20
26.1662908889
 10
39.9416808397
 20
26.1775185068
 10
39.8858967114
 20
26.2014771166
 10
39.8382185724
 20
26.2372460024
 10
39.8004786668
 20
26.2834505858
 10
39.774127318
 20
26.3383152507
 10
39.7601771935
 20
26.3997315788
 10
39.7591643888
 20
26.4653393751
 10
39.7711278254
 20
26.5326173686
 10
39.7956077552
 20
26.5989801039
 10
39.8316634282
 20
26.6618772982
 10
39.8779092451
 20
26.7188918477
 10
39.932568005
 20
26.7678327152
 10
39.9935392026
 20
26.8068191305
 10
40.0584797488
 20
26.8343528677
 10
40.1248940149
 20
26.8493758206
 10
40.1902297379
 20
26.8513106656
 10
40.2519761026
 20
26.8400830476
 10
40.3077602308
 20
26.8161244378
  0
LWPOLYLINE
  5
300
330
1F
100
AcDbEntity
  8
0
  6
Continuous
 62
     7
370
    25
100
AcDbPolyline
 90
       33
 70
   128
 43
0.0
 10
41.2478774483
 20
25.1291610574
 10
41.2955555873
 20
25.0933921717
 10
41.3332954929
 20
25.0471875883
 10
41.3596468418
 20
24.9923229233
 10
41.3735969662
 20
24.9309065952
 10
41.3746097709
 20
24.865298799
 10
41.3626463343
 20
24.7980208055
 10
41.3381664045
 20
24.7316580702
 10
41.3021107315
 20
24.6687608759
 10
41.2558649147
 20
24.6117463264
 10
41.2012061547
 20
24.5628054589
 10
41.1402349571
 20
24.5238190436
 10
41.0752944109
 20
24.4962853064
 10
41.0088801448
 20
24.4812623535
 10
40.9435444218
 20
24.4793275085
 10
40.8817980571
 20
24.4905551264
 10
40.8260139289
 20
24.5145137362
 10
40.7783357899
 20
24.550282622
 10
40.7405958843
 20
24.5964872054
 10
40.7142445354
 20
24.6513518703
 10
40.7002944109
 20
24.7127681984
 10
40.6992816062
 20
24.7783759946
 10
40.7112450429
 20
24.8456539882
 10
40.7357249727
 20
24.9120167235
 10
40.7717806456
 20
24.9749139178
 10
40.8180264625
 20
25.0319284673
 10
40.8726852225
 20
25.0808693347
 10
40.93365642
 20
25.1198557501
 10
40.9985969662
 20
25.1473894873
 10
41.0650112324
 20
25.1624124402
 10
41.1303469554
 20
25.1643472852
 10
41.1920933201
 20
25.1531196672
 10
41.2478774483
 20
25.1291610574
  0
LWPOLYLINE
  5
301
330
1F
100
AcDbEntity
  8
0
  6
Continuous
 62
     7
370
    25
100
AcDbPolyline
 90
       33
 70
   128
 43
0.0
 10
41.488963357
 20
27.2784756505
 10
41.5366414959
 20
27.2427067648
 10
41.5743814016
 20
27.1965021813
 10
41.6007327504
 20
27.1416375164
 10
41.6146828749
 20
27.0802211883
 10
41.6156956796
 20
27.0146133921
 10
41.603732243
 20
26.9473353986
 10
41.5792523132
 20
26.8809726633
 10
41.5431966402
 20
26.818075469
 10
41.4969508233
 20
26.7610609195
 10
41.4422920634
 20
26.712120052
 10
41.3813208658
 20
26.6731336366
 10
41.3163803196
 20
26.6455998995
 10
41.2499660535
 20
26.6305769466
 10
41.1846303305
 20
26.6286421016
 10
41.1228839658
 20
26.6398697195
 10
41.0670998375
 20
26.6638283293
 10
41.0194216985
 20
26.6995972151
 10
40.9816817929
 20
26.7458017985
 10
40.9553304441
 20
26.8006664634
 10
40.9413803196
 20
26.8620827915
 10
40.9403675149
 20
26.9276905877
 10
40.9523309515
 20
26.9949685813
 10
40.9768108813
 20
27.0613313166
 10
41.0128665543
 20
27.1242285109
 10
41.0591123712
 20
27.1812430604
 10
41.1137711311
 20
27.2301839278
 10
41.1747423287
 20
27.2691703432
 10
41.2396828749
 20
27.2967040804
 10
41.306097141
 20
27.3117270333
 10
41.371432864
 20
27.3136618783
 10
41.4331792287
 20
27.3024342603
 10
41.488963357
 20
27.2784756505
  0
LWPOLYLINE
  5
302
330
1F
100
AcDbEntity
  8
0
  6
Continuous
 62
     7
370
    25
100
AcDbPolyline
 90
       33
 70
   128
 43
0.0
 10
41.3684204026
 20
26.203818354
 10
41.4160985416
 20
26.1680494682
 10
41.4538384472
 20
26.1218448848
 10
41.4801897961
 20
26.0669802199
 10
41.4941399206
 20
26.0055638918
 10
41.4951527253
 20
25.9399560956
 10
41.4831892886
 20
25.872678102
 10
41.4587093588
 20
25.8063153667
 10
41.4226536859
 20
25.7434181724
 10
41.376407869
 20
25.6864036229
 10
41.321749109
 20
25.6374627555
 10
41.2607779115
 20
25.5984763401
 10
41.1958373653
 20
25.5709426029
 10
41.1294230991
 20
25.55591965
 10
41.0640873761
 20
25.553984805
 10
41.0023410114
 20
25.565212423
 10
40.9465568832
 20
25.5891710328
 10
40.8988787442
 20
25.6249399185
 10
40.8611388386
 20
25.6711445019
 10
40.8347874897
 20
25.7260091669
 10
40.8208373653
 20
25.787425495
 10
40.8198245606
 20
25.8530332912
 10
40.8317879972
 20
25.9203112847
 10
40.856267927
 20
25.98667402
 10
40.8923236
 20
26.0495712143
 10
40.9385694168
 20
26.1065857638
 10
40.9932281768
 20
26.1555266313
 10
41.0541993744
 20
26.1945130466
 10
41.1191399206
 20
26.2220467838
 10
41.1855541867
 20
26.2370697367
 10
41.2508899097
 20
26.2390045817
 10
41.3126362744
 20
26.2277769638
 10
41.3684204026
 20
26.203818354
  0
LWPOLYLINE
  5
303
330
1F
100
AcDbEntity
  8
0
  6
Continuous
 62
     7
370
    25
100
AcDbPolyline
 90
       33
 70
   128
 43
0.0
 10
42.3728468334
 20
26.7682205806
 10
42.4205249724
 20
26.7324516949
 10
42.4582648781
 20
26.6862471115
 10
42.4846162269
 20
26.6313824465
 10
42.4985663514
 20
26.5699661184
 10
42.4995791561
 20
26.5043583222
 10
42.4876157194
 20
26.4370803287
 10
42.4631357896
 20
26.3707175934
 10
42.4270801167
 20
26.3078203991
 10
42.3808342998
 20
26.2508058496
 10
42.3261755398
 20
26.2018649821
 10
42.2652043423
 20
26.1628785668
 10
42.2002637961
 20
26.1353448296
 10
42.1338495299
 20
26.1203218767
 10
42.0685138069
 20
26.1183870317
 10
42.0067674422
 20
26.1296146496
 10
41.950983314
 20
26.1535732594
 10
41.903305175
 20
26.1893421452
 10
41.8655652694
 20
26.2355467286
 10
41.8392139206
 20
26.2904113935
 10
41.8252637961
 20
26.3518277216
 10
41.8242509914
 20
26.4174355178
 10
41.836214428
 20
26.4847135114
 10
41.8606943578
 20
26.5510762467
 10
41.8967500308
 20
26.613973441
 10
41.9429958476
 20
26.6709879905
 10
41.9976546076
 20
26.7199288579
 10
42.0586258052
 20
26.7589152733
 10
42.1235663514
 20
26.7864490105
 10
42.1899806175
 20
26.8014719634
 10
42.2553163405
 20
26.8034068084
 10
42.3170627052
 20
26.7921791904
 10
42.3728468334
 20
26.7682205806
  0
LWPOLYLINE
  5
304
330
1F
100
AcDbEntity
  8
0
  6
Continuous
 62
     7
370
    25
100
AcDbPolyline
 90
       33
 70
   128
 43
0.0
 10
40.3639939718
 20
25.6394161273
 10
40.4116721108
 20
25.6036472416
 10
40.4494120164
 20
25.5574426581
 10
40.4757633653
 20
25.5025779932
 10
40.4897134898
 20
25.4411616651
 10
40.4907262945
 20
25.3755538689
 10
40.4787628578
 20
25.3082758754
 10
40.454282928
 20
25.2419131401
 10
40.4182272551
 20
25.1790159458
 10
40.3719814382
 20
25.1220013963
 10
40.3173226782
 20
25.0730605288
 10
40.2563514807
 20
25.0340741134
 10
40.1914109344
 20
25.0065403763
 10
40.1249966683
 20
24.9915174234
 10
40.0596609453
 20
24.9895825784
 10
39.9979145806
 20
25.0008101963
 10
39.9421304524
 20
25.0247688061
 10
39.8944523134
 20
25.0605376919
 10
39.8567124078
 20
25.1067422753
 10
39.8303610589
 20
25.1616069402
 10
39.8164109344
 20
25.2230232683
 10
39.8153981298
 20
25.2886310645
 10
39.8273615664
 20
25.3559090581
 10
39.8518414962
 20
25.4222717933
 10
39.8878971692
 20
25.4851689877
 10
39.934142986
 20
25.5421835372
 10
39.988801746
 20
25.5911244046
 10
40.0497729435
 20
25.63011082
 10
40.1147134898
 20
25.6576445572
 10
40.1811277559
 20
25.6726675101
 10
40.2464634789
 20
25.6746023551
 10
40.3082098436
 20
25.6633747371
 10
40.3639939718
 20
25.6394161273
  0
LWPOLYLINE
  5
305
330
1F
100
AcDbEntity
  8
0
  6
Continuous
 62
     7
370
    25
100
AcDbPolyline
 90
       33
 70
   128
 43
0.0
 10
42.4290805744
 20
25.5915122701
 10
42.4767587134
 20
25.5557433844
 10
42.514498619
 20
25.5095388009
 10
42.5408499679
 20
25.454674136
 10
42.5548000924
 20
25.3932578079
 10
42.555812897
 20
25.3276500117
 10
42.5438494604
 20
25.2603720182
 10
42.5193695306
 20
25.1940092829
 10
42.4833138576
 20
25.1311120885
 10
42.4370680408
 20
25.0740975391
 10
42.3824092808
 20
25.0251566716
 10
42.3214380833
 20
24.9861702562
 10
42.256497537
 20
24.9586365191
 10
42.1900832709
 20
24.9436135662
 10
42.1247475479
 20
24.9416787212
 10
42.0630011832
 20
24.9529063391
 10
42.007217055
 20
24.9768649489
 10
41.959538916
 20
25.0126338346
 10
41.9217990104
 20
25.0588384181
 10
41.8954476615
 20
25.113703083
 10
41.881497537
 20
25.1751194111
 10
41.8804847323
 20
25.2407272073
 10
41.892448169
 20
25.3080052009
 10
41.9169280988
 20
25.3743679361
 10
41.9529837717
 20
25.4372651305
 10
41.9992295886
 20
25.49427968
 10
42.0538883486
 20
25.5432205474
 10
42.1148595461
 20
25.5822069628
 10
42.1798000924
 20
25.6097407
 10
42.2462143585
 20
25.6247636529
 10
42.3115500815
 20
25.6266984979
 10
42.3732964462
 20
25.6154708799
 10
42.4290805744
 20
25.5915122701
  0
LINE
  5
306
330
1F
100
AcDbEntity
  8
0
  6
Continuous
 62
     7
370
    25
100
AcDbLine
 10
36.7195237221
 20
25.7682530892
 30
0.0
 11
39.2206163446
 21
29.4122986387
 31
0.0
  0
ARC
  5
307
330
1F
100
AcDbEntity
  8
0
  6
Continuous
 62
     7
370
    25
100
AcDbCircle
 10
36.8370307573
 20
25.6842854951
 30
0.0
 40
0.1444245829614055
100
AcDbArc
 50
144.4513470181
 51
177.1693357477
  0
LINE
  5
308
330
1F
100
AcDbEntity
  8
0
  6
Continuous
 62
     7
370
    25
100
AcDbLine
 10
42.9037394382
 20
16.9778922762
 30
0.0
 11
42.9090930486
 21
17.4869736759
 31
0.0
  0
LINE
  5
309
330
1F
100
AcDbEntity
  8
0
  6
Continuous
 62
     7
370
    25
100
AcDbLine
 10
42.9037394382
 20
16.9778922762
 30
0.0
 11
42.8698008457
 21
16.9587787764
 31
0.0
  0
LINE
  5
30A
330
1F
100
AcDbEntity
  8
0
  6
Continuous
 62
     7
370
    25
100
AcDbLine
 10
42.9090930486
 20
20.6951226725
 30
0.0
 11
42.8698008457
 21
16.9587787764
 31
0.0
  0
LINE
  5
30B
330
1F
100
AcDbEntity
  8
0
  6
Continuous
 62
     7
370
    25
100
AcDbLine
 10
42.8698008457
 20
16.9587787764
 30
0.0
 11
36.6387758899
 21
20.5558729171
 31
0.0
  0
LINE
  5
30C
330
1F
100
AcDbEntity
  8
0
  6
Continuous
 62
     7
370
    25
100
AcDbLine
 10
36.6387758899
 20
20.5558729171
 30
0.0
 11
36.6927823939
 21
25.6914178043
 31
0.0
  0
LINE
  5
30D
330
1F
100
AcDbEntity
  8
0
  6
Continuous
 62
     7
370
    25
100
AcDbLine
 10
42.4496485027
 20
25.5722081274
 30
0.0
 11
42.4847868553
 21
25.547673365
 31
0.0
  0
LWPOLYLINE
  5
30E
330
1F
100
AcDbEntity
  8
0
  6
Continuous
 62
     7
370
    25
100
AcDbPolyline
 90
       16
 70
   128
 43
0.0
 10
41.9720787024
 20
25.0013997114
 10
41.9423669387
 20
25.0395342754
 10
41.9160155899
 20
25.0943989403
 10
41.9020654654
 20
25.1558152684
 10
41.9010526607
 20
25.2214230646
 10
41.9130160973
 20
25.2887010582
 10
41.9374960271
 20
25.3550637935
 10
41.9735517001
 20
25.4179609878
 10
42.019797517
 20
25.4749755373
 10
42.0744562769
 20
25.5239164047
 10
42.1354274745
 20
25.5629028201
 10
42.2003680207
 20
25.5904365573
 10
42.2667822868
 20
25.6054595102
 10
42.3321180098
 20
25.6073943552
 10
42.3938643745
 20
25.5961667372
 10
42.4496485027
 20
25.5722081274
  0
LINE
  5
30F
330
1F
100
AcDbEntity
  8
0
  6
Continuous
 62
     7
370
    25
100
AcDbLine
 10
41.2684453766
 20
25.1098569148
 30
0.0
 11
41.3064987145
 21
25.0828466927
 31
0.0
  0
LWPOLYLINE
  5
310
330
1F
100
AcDbEntity
  8
0
  6
Continuous
 62
     7
370
    25
100
AcDbPolyline
 90
       16
 70
   128
 43
0.0
 10
40.7908755763
 20
24.5390484987
 10
40.7611638126
 20
24.5771830627
 10
40.7348124638
 20
24.6320477276
 10
40.7208623393
 20
24.6934640557
 10
40.7198495346
 20
24.759071852
 10
40.7318129712
 20
24.8263498455
 10
40.756292901
 20
24.8927125808
 10
40.792348574
 20
24.9556097751
 10
40.8385943909
 20
25.0126243246
 10
40.8932531508
 20
25.0615651921
 10
40.9542243484
 20
25.1005516074
 10
41.0191648946
 20
25.1280853446
 10
41.0855791607
 20
25.1431082975
 10
41.1509148837
 20
25.1450431425
 10
41.2126612484
 20
25.1338155246
 10
41.2684453766
 20
25.1098569148
  0
LINE
  5
311
330
1F
100
AcDbEntity
  8
0
  6
Continuous
 62
     7
370
    25
100
AcDbLine
 10
42.3934147618
 20
26.748916438
 30
0.0
 11
42.4285531143
 21
26.7243816755
 31
0.0
  0
LWPOLYLINE
  5
312
330
1F
100
AcDbEntity
  8
0
  6
Continuous
 62
     7
370
    25
100
AcDbPolyline
 90
       16
 70
   128
 43
0.0
 10
41.9158449615
 20
26.1781080219
 10
41.8861331977
 20
26.2162425859
 10
41.8597818489
 20
26.2711072508
 10
41.8458317244
 20
26.3325235789
 10
41.8448189197
 20
26.3981313752
 10
41.8567823563
 20
26.4654093687
 10
41.8812622861
 20
26.531772104
 10
41.9173179591
 20
26.5946692983
 10
41.963563776
 20
26.6516838478
 10
42.018222536
 20
26.7006247153
 10
42.0791937335
 20
26.7396111306
 10
42.1441342797
 20
26.7671448678
 10
42.2105485458
 20
26.7821678207
 10
42.2758842688
 20
26.7841026657
 10
42.3376306335
 20
26.7728750478
 10
42.3934147618
 20
26.748916438
  0
LINE
  5
313
330
1F
100
AcDbEntity
  8
0
  6
Continuous
 62
     7
370
    25
100
AcDbLine
 10
41.388988331
 20
26.1845142113
 30
0.0
 11
41.4241266835
 21
26.1599794489
 31
0.0
  0
LWPOLYLINE
  5
314
330
1F
100
AcDbEntity
  8
0
  6
Continuous
 62
     7
370
    25
100
AcDbPolyline
 90
       16
 70
   128
 43
0.0
 10
40.9114185306
 20
25.6137057952
 10
40.8817067669
 20
25.6518403593
 10
40.8553554181
 20
25.7067050242
 10
40.8414052936
 20
25.7681213523
 10
40.8403924889
 20
25.8337291485
 10
40.8523559255
 20
25.901007142
 10
40.8768358553
 20
25.9673698773
 10
40.9128915283
 20
26.0302670717
 10
40.9591373452
 20
26.0872816211
 10
41.0137961051
 20
26.1362224886
 10
41.0747673027
 20
26.175208904
 10
41.1397078489
 20
26.2027426411
 10
41.206122115
 20
26.2177655941
 10
41.271457838
 20
26.219700439
 10
41.3332042027
 20
26.2084728211
 10
41.388988331
 20
26.1845142113
  0
LINE
  5
315
330
1F
100
AcDbEntity
  8
0
  6
Continuous
 62
     7
370
    25
100
AcDbLine
 10
40.3845619002
 20
25.6201119846
 30
0.0
 11
40.4197002527
 21
25.5955772222
 31
0.0
  0
LWPOLYLINE
  5
316
330
1F
100
AcDbEntity
  8
0
  6
Continuous
 62
     7
370
    25
100
AcDbPolyline
 90
       16
 70
   128
 43
0.0
 10
39.9069920998
 20
25.0493035686
 10
39.8772803361
 20
25.0874381326
 10
39.8509289873
 20
25.1423027975
 10
39.8369788628
 20
25.2037191256
 10
39.8359660581
 20
25.2693269219
 10
39.8479294947
 20
25.3366049154
 10
39.8724094245
 20
25.4029676507
 10
39.9084650975
 20
25.465864845
 10
39.9547109144
 20
25.5228793945
 10
40.0093696743
 20
25.571820262
 10
40.0703408719
 20
25.6108066773
 10
40.1352814181
 20
25.6383404145
 10
40.2016956842
 20
25.6533633674
 10
40.2670314072
 20
25.6552982124
 10
40.3287777719
 20
25.6440705944
 10
40.3845619002
 20
25.6201119846
  0
LINE
  5
317
330
1F
100
AcDbEntity
  8
0
  6
Continuous
 62
     7
370
    25
100
AcDbLine
 10
41.5095312853
 20
27.2591715078
 30
0.0
 11
41.5446696379
 21
27.2346367454
 31
0.0
  0
LWPOLYLINE
  5
318
330
1F
100
AcDbEntity
  8
0
  6
Continuous
 62
     7
370
    25
100
AcDbPolyline
 90
       16
 70
   128
 43
0.0
 10
41.031961485
 20
26.6883630918
 10
41.0022497212
 20
26.7264976558
 10
40.9758983724
 20
26.7813623207
 10
40.9619482479
 20
26.8427786488
 10
40.9609354432
 20
26.9083864451
 10
40.9728988799
 20
26.9756644386
 10
40.9973788097
 20
27.0420271739
 10
41.0334344826
 20
27.1049243682
 10
41.0796802995
 20
27.1619389177
 10
41.1343390595
 20
27.2108797852
 10
41.195310257
 20
27.2498662005
 10
41.2602508032
 20
27.2773999377
 10
41.3266650694
 20
27.2924228906
 10
41.3920007924
 20
27.2943577356
 10
41.4537471571
 20
27.2831301177
 10
41.5095312853
 20
27.2591715078
  0
LINE
  5
319
330
1F
100
AcDbEntity
  8
0
  6
Continuous
 62
     7
370
    25
100
AcDbLine
 10
40.3283281592
 20
26.7968202952
 30
0.0
 11
40.3634665117
 21
26.7722855327
 31
0.0
  0
LWPOLYLINE
  5
31A
330
1F
100
AcDbEntity
  8
0
  6
Continuous
 62
     7
370
    25
100
AcDbPolyline
 90
       16
 70
   128
 43
0.0
 10
39.8507583589
 20
26.2260118791
 10
39.8210465951
 20
26.2641464431
 10
39.7946952463
 20
26.3190111081
 10
39.7807451218
 20
26.3804274362
 10
39.7797323171
 20
26.4460352324
 10
39.7916957538
 20
26.5133132259
 10
39.8161756836
 20
26.5796759612
 10
39.8522313565
 20
26.6425731555
 10
39.8984771734
 20
26.699587705
 10
39.9531359334
 20
26.7485285725
 10
40.0141071309
 20
26.7875149878
 10
40.0790476771
 20
26.815048725
 10
40.1454619432
 20
26.8300716779
 10
40.2107976663
 20
26.8320065229
 10
40.272544031
 20
26.820778905
 10
40.3283281592
 20
26.7968202952
  0
LINE
  5
31B
330
1F
100
AcDbEntity
  8
0
  6
Continuous
 62
     7
370
    25
100
AcDbLine
 10
42.9090930486
 20
17.3049012971
 30
0.0
 11
42.9071898898
 21
17.3059999673
 31
0.0
  0
LWPOLYLINE
  5
31C
330
1F
100
AcDbEntity
  8
0
  6
Continuous
 62
     7
370
    25
100
AcDbPolyline
 90
        5
 70
   128
 43
0.0
 10
42.9105980572
 20
16.9327755109
 10
42.8955105465
 20
16.927991439
 10
42.8818598152
 20
16.9309246555
 10
42.8728317688
 20
16.9417357307
 10
42.8698008457
 20
16.9587787764
  0
LWPOLYLINE
  5
31D
330
1F
100
AcDbEntity
  8
0
  6
Continuous
 62
     7
370
    25
100
AcDbPolyline
 90
        5
 70
   128
 43
0.0
 10
42.9090930486
 20
16.9717561229
 10
42.9088813783
 20
16.9717348087
 10
42.9061512321
 20
16.972321452
 10
42.9043456228
 20
16.974483667
 10
42.9037394382
 20
16.9778922762
  0
ARC
  5
31E
330
1F
100
AcDbEntity
  8
0
  6
Continuous
 62
     7
370
    25
100
AcDbCircle
 10
36.6666423372
 20
20.5514223776
 30
0.0
 40
0.0282196064782684
100
AcDbArc
 50
170.9259465545
 51
236.8272929618
  0
LINE
  5
31F
330
1F
100
AcDbEntity
  8
0
  6
Continuous
 62
     7
370
    25
100
AcDbLine
 10
46.4181736357
 20
18.8533445835
 30
0.0
 11
46.4181736357
 21
18.8702702472
 31
0.0
  0
LINE
  5
320
330
1F
100
AcDbEntity
  8
0
  6
Continuous
 62
     7
370
    25
100
AcDbLine
 10
46.4181736357
 20
18.8533445835
 30
0.0
 11
46.408488602
 21
18.8477535325
 31
0.0
  0
ARC
  5
321
330
1F
100
AcDbEntity
  8
0
  6
Continuous
 62
     7
370
    25
100
AcDbCircle
 10
43.0151560608
 20
16.9192775024
 30
0.0
 40
0.0243909988559144
100
AcDbArc
 50
180.0157423158
 51
263.7103512335
  0
LINE
  5
322
330
1F
100
AcDbEntity
  8
0
  6
Continuous
 62
     7
370
    25
100
AcDbLine
 10
46.4164055814
 20
18.8523239074
 30
0.0
 11
46.4181736357
 21
18.8513032314
 31
0.0
  0
LINE
  5
323
330
1F
100
AcDbEntity
  8
0
  6
Continuous
 62
     7
370
    25
100
AcDbLine
 10
46.40732052
 20
18.8450378611
 30
0.0
 11
46.4181736357
 21
18.8513032314
 31
0.0
  0
LINE
  5
324
330
1F
100
AcDbEntity
  8
0
  6
Continuous
 62
     7
370
    25
100
AcDbLine
 10
46.4181736357
 20
18.8513032314
 30
0.0
 11
46.4181736357
 21
18.8268070071
 31
0.0
  0
LINE
  5
325
330
1F
100
AcDbEntity
  8
0
  6
Continuous
 62
     7
370
    25
100
AcDbLine
 10
46.3933035361
 20
18.8124498041
 30
0.0
 11
46.4181736357
 21
18.8268070071
 31
0.0
  0
LINE
  5
326
330
1F
100
AcDbEntity
  8
0
  6
Continuous
 62
     7
370
    25
100
AcDbLine
 10
46.3658477339
 20
29.3438520007
 30
0.0
 11
42.9349656316
 21
27.3632459214
 31
0.0
  0
ARC
  5
327
330
1F
100
AcDbEntity
  8
0
  6
Continuous
 62
     7
370
    25
100
AcDbCircle
 10
46.2995989883
 20
29.2402835431
 30
0.0
 40
0.1229443846057163
100
AcDbArc
 50
2.6054784856
 51
57.39452166
  0
LINE
  5
328
330
1F
100
AcDbEntity
  8
0
  6
Continuous
 62
     7
370
    25
100
AcDbLine
 10
42.9915341741
 20
27.2652663319
 30
0.0
 11
46.4224162764
 21
29.2458724112
 31
0.0
  0
ARC
  5
329
330
1F
100
AcDbEntity
  8
0
  6
Continuous
 62
     7
370
    25
100
AcDbCircle
 10
42.868716886
 20
27.2596774638
 30
0.0
 40
0.1229443846057818
100
AcDbArc
 50
2.6054784857
 51
57.39452166
  0
LINE
  5
32A
330
1F
100
AcDbEntity
  8
0
  6
Continuous
 62
     7
370
    25
100
AcDbLine
 10
42.9915341741
 20
27.2523649871
 30
0.0
 11
42.9915341741
 21
27.2652663319
 31
0.0
  0
LINE
  5
32B
330
1F
100
AcDbEntity
  8
0
  6
Continuous
 62
     7
370
    25
100
AcDbLine
 10
42.9575930486
 20
27.2719587818
 30
0.0
 11
42.9915341741
 21
27.2523649871
 31
0.0
  0
LINE
  5
32C
330
1F
100
AcDbEntity
  8
0
  6
Continuous
 62
     7
370
    25
100
AcDbLine
 10
42.9575930486
 20
27.2848601266
 30
0.0
 11
42.9575930486
 21
27.2719587818
 31
0.0
  0
ARC
  5
32D
330
1F
100
AcDbEntity
  8
0
  6
Continuous
 62
     7
370
    25
100
AcDbCircle
 10
42.9084661333
 20
27.2826245794
 30
0.0
 40
0.0491777538423034
100
AcDbArc
 50
2.6054784857
 51
57.39452166
  0
LINE
  5
32E
330
1F
100
AcDbEntity
  8
0
  6
Continuous
 62
     7
370
    25
100
AcDbLine
 10
42.9349656316
 20
27.3240519624
 30
0.0
 11
42.9174293834
 21
27.334175423
 31
0.0
  0
LINE
  5
32F
330
1F
100
AcDbEntity
  8
0
  6
Continuous
 62
     7
370
    25
100
AcDbLine
 10
42.9174293834
 20
27.373369382
 30
0.0
 11
42.9174293834
 21
27.334175423
 31
0.0
  0
LINE
  5
330
330
1F
100
AcDbEntity
  8
0
  6
Continuous
 62
     7
370
    25
100
AcDbLine
 10
42.9349656316
 20
27.3632459214
 30
0.0
 11
42.9174293834
 21
27.373369382
 31
0.0
  0
LWPOLYLINE
  5
331
330
1F
100
AcDbEntity
  8
0
  6
Continuous
 62
     7
370
    25
100
AcDbPolyline
 90
        9
 70
   128
 43
0.0
 10
42.9918877275
 20
27.252405781
 10
42.9761531951
 20
27.2463364791
 10
42.9575930486
 20
27.2442052237
 10
42.9390329021
 20
27.2463364791
 10
42.9232983697
 20
27.252405781
 10
42.9127848913
 20
27.2614891332
 10
42.9090930486
 20
27.2722036777
 10
42.9127848913
 20
27.2829182222
 10
42.9232983697
 20
27.2920015744
  0
LINE
  5
332
330
1F
100
AcDbEntity
  8
0
  6
Continuous
 62
     7
370
    25
100
AcDbLine
 10
42.9572394952
 20
27.2724077797
 30
0.0
 11
42.9232983697
 21
27.2920015744
 31
0.0
  0
LWPOLYLINE
  5
333
330
1F
100
AcDbEntity
  8
0
  6
Continuous
 62
     7
370
    25
100
AcDbPolyline
 90
        8
 70
   128
 43
0.0
 10
42.9576637995
 20
27.2719179382
 10
42.9575930486
 20
27.2719150338
 10
42.9574017069
 20
27.2719370055
 10
42.9572394952
 20
27.2719995757
 10
42.9571311088
 20
27.2720932185
 10
42.9570930486
 20
27.2722036777
 10
42.9571311088
 20
27.2723141369
 10
42.9572394952
 20
27.2724077797
  0
LINE
  5
334
330
1F
100
AcDbEntity
  8
0
  6
Continuous
 62
     7
370
    25
100
AcDbLine
 10
42.9918877275
 20
16.9198983474
 30
0.0
 11
42.9918877275
 21
27.252405781
 31
0.0
  0
LWPOLYLINE
  5
335
330
1F
100
AcDbEntity
  8
0
  6
Continuous
 62
     7
370
    25
100
AcDbPolyline
 90
        7
 70
   128
 43
0.0
 10
42.9090930486
 20
16.9396962441
 10
42.9127848913
 20
16.9289816996
 10
42.9232983697
 20
16.9198983474
 10
42.9390329021
 20
16.9138290455
 10
42.9575930486
 20
16.9116977901
 10
42.9761531951
 20
16.9138290455
 10
42.9918877275
 20
16.9198983474
  0
LWPOLYLINE
  5
336
330
1F
100
AcDbEntity
  8
0
  6
Continuous
 62
     7
370
    25
100
AcDbPolyline
 90
        9
 70
   128
 43
0.0
 10
42.9176415155
 20
27.294450666
 10
42.90451751
 20
27.2898888792
 10
42.8933915155
 20
27.2920506635
 10
42.8859573636
 20
27.3006069068
 10
42.8833468366
 20
27.3142549987
 10
42.8859573636
 20
27.3309171409
 10
42.8933915155
 20
27.3480566733
 10
42.90451751
 20
27.3630642575
 10
42.9176415155
 20
27.3736551248
  0
LWPOLYLINE
  5
337
330
1F
100
AcDbEntity
  8
0
  6
Continuous
 62
     7
370
    25
100
AcDbPolyline
 90
        8
 70
   128
 43
0.0
 10
36.6484327935
 20
30.9927922845
 10
36.635308788
 20
30.9822014172
 10
36.6241827935
 20
30.9671938331
 10
36.6167486416
 20
30.9500543006
 10
36.6141381146
 20
30.9333921584
 10
36.6167486416
 20
30.9197440665
 10
36.6241827935
 20
30.9111878232
 10
36.6241847642
 20
30.9111866853
  0
LINE
  5
338
330
1F
100
AcDbEntity
  8
0
  6
Continuous
 62
     7
370
    25
100
AcDbLine
 10
36.6484327935
 20
30.9927922845
 30
0.0
 11
42.9176415155
 21
27.3736551248
 31
0.0
  0
LWPOLYLINE
  5
339
330
1F
100
AcDbEntity
  8
0
  6
Continuous
 62
     7
370
    25
100
AcDbPolyline
 90
        8
 70
   128
 43
0.0
 10
42.9176415155
 20
27.333644625
 10
42.9175062164
 20
27.3335975963
 10
42.9173915155
 20
27.3336198827
 10
42.9173148747
 20
27.3337080914
 10
42.9172879621
 20
27.3338487934
 10
42.9173148747
 20
27.3340205681
 10
42.9173915155
 20
27.3341972643
 10
42.9174293834
 20
27.3342570505
  0
LINE
  5
33A
330
1F
100
AcDbEntity
  8
0
  6
Continuous
 62
     7
370
    25
100
AcDbLine
 10
42.9176415155
 20
27.333644625
 30
0.0
 11
42.9176415155
 21
27.294450666
 31
0.0
  0
LINE
  5
33B
330
1F
100
AcDbEntity
  8
0
  6
Continuous
 62
     7
370
    25
100
AcDbLine
 10
46.3905964713
 20
18.8059928466
 30
0.0
 11
46.3905964713
 21
18.8061561548
 31
0.0
  0
LINE
  5
33C
330
1F
100
AcDbEntity
  8
0
  6
Continuous
 62
     7
370
    25
100
AcDbLine
 10
46.3905964713
 20
18.8059928466
 30
0.0
 11
43.0459813962
 21
16.8751876622
 31
0.0
  0
LINE
  5
33D
330
1F
100
AcDbEntity
  8
0
  6
Continuous
 62
     7
370
    25
100
AcDbLine
 10
43.0459813962
 20
16.8753509703
 30
0.0
 11
43.0459813962
 21
16.8751876622
 31
0.0
  0
LINE
  5
33E
330
1F
100
AcDbEntity
  8
0
  6
Continuous
 62
     7
370
    25
100
AcDbLine
 10
43.0459813962
 20
16.8753509703
 30
0.0
 11
43.0459106856
 21
16.8753101499
 31
0.0
  0
LINE
  5
33F
330
1F
100
AcDbEntity
  8
0
  6
Continuous
 62
     7
370
    25
100
AcDbLine
 10
43.0459106856
 20
16.8753101499
 30
0.0
 11
43.0459106856
 21
16.9509218291
 31
0.0
  0
LINE
  5
340
330
1F
100
AcDbEntity
  8
0
  6
Continuous
 62
     7
370
    25
100
AcDbLine
 10
43.0459106856
 20
16.9509218291
 30
0.0
 11
42.9920291488
 21
16.91981668
 31
0.0
  0
LINE
  5
341
330
1F
100
AcDbEntity
  8
0
  6
Continuous
 62
     7
370
    25
100
AcDbLine
 10
42.9920291488
 20
16.91981668
 30
0.0
 11
42.9920291488
 21
16.9199799882
 31
0.0
  0
LINE
  5
342
330
1F
100
AcDbEntity
  8
0
  6
Continuous
 62
     7
370
    25
100
AcDbLine
 10
42.9918877275
 20
16.9198983474
 30
0.0
 11
42.9920291488
 21
16.9199799882
 31
0.0
  0
LINE
  5
343
330
1F
100
AcDbEntity
  8
0
  6
Continuous
 62
     7
370
    25
100
AcDbLine
 10
42.9918877275
 20
27.252405781
 30
0.0
 11
42.9920291488
 21
27.2524874218
 31
0.0
  0
LINE
  5
344
330
1F
100
AcDbEntity
  8
0
  6
Continuous
 62
     7
370
    25
100
AcDbLine
 10
42.9920291488
 20
27.2524874218
 30
0.0
 11
42.9920291488
 21
27.25265073
 31
0.0
  0
LINE
  5
345
330
1F
100
AcDbEntity
  8
0
  6
Continuous
 62
     7
370
    25
100
AcDbLine
 10
42.9920291488
 20
27.25265073
 30
0.0
 11
42.9915341741
 21
27.2523649871
 31
0.0
  0
LINE
  5
346
330
1F
100
AcDbEntity
  8
0
  6
Continuous
 62
     7
370
    25
100
AcDbLine
 10
46.4224162764
 20
29.2458724112
 30
0.0
 11
46.4224162764
 21
18.9003003246
 31
0.0
  0
LINE
  5
347
330
1F
100
AcDbEntity
  8
0
  6
Continuous
 62
     7
370
    25
100
AcDbLine
 10
46.4222748551
 20
18.9002186838
 30
0.0
 11
46.4224162764
 21
18.9003003246
 31
0.0
  0
LINE
  5
348
330
1F
100
AcDbEntity
  8
0
  6
Continuous
 62
     7
370
    25
100
AcDbLine
 10
46.4222748551
 20
18.9002186838
 30
0.0
 11
46.4222748551
 21
18.9000553757
 31
0.0
  0
LINE
  5
349
330
1F
100
AcDbEntity
  8
0
  6
Continuous
 62
     7
370
    25
100
AcDbLine
 10
46.4222748551
 20
18.9000553757
 30
0.0
 11
46.4789848189
 21
18.9327933409
 31
0.0
  0
LINE
  5
34A
330
1F
100
AcDbEntity
  8
0
  6
Continuous
 62
     7
370
    25
100
AcDbLine
 10
46.4789848189
 20
18.9327933409
 30
0.0
 11
46.4789848189
 21
18.9123798207
 31
0.0
  0
LINE
  5
34B
330
1F
100
AcDbEntity
  8
0
  6
Continuous
 62
     7
370
    25
100
AcDbLine
 10
46.4789848189
 20
18.9123798207
 30
0.0
 11
46.4222748551
 21
18.8798051635
 31
0.0
  0
LINE
  5
34C
330
1F
100
AcDbEntity
  8
0
  6
Continuous
 62
     7
370
    25
100
AcDbLine
 10
46.4222748551
 20
18.8798051635
 30
0.0
 11
46.3905964713
 21
18.8061561548
 31
0.0
  0
LINE
  5
34D
330
1F
100
AcDbEntity
  8
0
  6
Continuous
 62
     7
370
    25
100
AcDbLine
 10
46.3658477339
 20
29.3438520007
 30
0.0
 11
40.0612836729
 21
32.9833993632
 31
0.0
  0
LINE
  5
34E
330
1F
100
AcDbEntity
  8
0
  6
Continuous
 62
     7
370
    25
100
AcDbLine
 10
42.9179243582
 20
27.3736551248
 30
0.0
 11
42.9174293834
 21
27.373369382
 31
0.0
  0
LINE
  5
34F
330
1F
100
AcDbEntity
  8
0
  6
Continuous
 62
     7
370
    25
100
AcDbLine
 10
42.9177829368
 20
27.3737367656
 30
0.0
 11
42.9179243582
 21
27.3736551248
 31
0.0
  0
LINE
  5
350
330
1F
100
AcDbEntity
  8
0
  6
Continuous
 62
     7
370
    25
100
AcDbLine
 10
42.9176415155
 20
27.3736551248
 30
0.0
 11
42.9177829368
 21
27.3737367656
 31
0.0
  0
LINE
  5
351
330
1F
100
AcDbEntity
  8
0
  6
Continuous
 62
     7
370
    25
100
AcDbLine
 10
36.6484327935
 20
30.9927922845
 30
0.0
 11
36.6485742148
 21
30.9928739253
 31
0.0
  0
LINE
  5
352
330
1F
100
AcDbEntity
  8
0
  6
Continuous
 62
     7
370
    25
100
AcDbLine
 10
36.6484327935
 20
30.9929555661
 30
0.0
 11
36.6485742148
 21
30.9928739253
 31
0.0
  0
LINE
  5
353
330
1F
100
AcDbEntity
  8
0
  6
Continuous
 62
     7
370
    25
100
AcDbLine
 10
36.6479378187
 20
30.9926698233
 30
0.0
 11
36.6484327935
 21
30.9929555661
 31
0.0
  0
LINE
  5
354
330
1F
100
AcDbEntity
  8
0
  6
Continuous
 62
     7
370
    25
100
AcDbLine
 10
36.6479378187
 20
30.9926698233
 30
0.0
 11
36.6304015705
 21
31.0027932839
 31
0.0
  0
LINE
  5
355
330
1F
100
AcDbEntity
  8
0
  6
Continuous
 62
     7
370
    25
100
AcDbLine
 10
40.0612836729
 20
32.9833993632
 30
0.0
 11
36.6304015705
 21
31.0027932839
 31
0.0
  0
LINE
  5
356
330
1F
100
AcDbEntity
  8
0
  6
Continuous
 62
     7
370
    25
100
AcDbLine
 10
42.9918877045
 20
27.2525690759
 30
0.0
 11
42.9920291488
 21
27.2524874218
 31
0.0
  0
LINE
  5
357
330
1F
100
AcDbEntity
  8
0
  6
Continuous
 62
     7
370
    25
100
AcDbLine
 10
42.9177829368
 20
27.373573484
 30
0.0
 11
42.9177829368
 21
27.3737367656
 31
0.0
  0
LINE
  5
358
330
1F
100
AcDbEntity
  8
0
  6
Continuous
 62
     7
370
    25
100
AcDbLine
 10
42.9575930486
 20
27.2722036113
 30
0.0
 11
42.9572394952
 21
27.2724077797
 31
0.0
  0
LINE
  5
359
330
1F
100
AcDbEntity
  8
0
  6
Continuous
 62
     7
370
    25
100
AcDbLine
 10
42.9176415155
 20
27.333644625
 30
0.0
 11
42.9176415155
 21
27.3340529618
 31
0.0
  0
ARC
  5
35A
330
1F
100
AcDbEntity
  8
0
  6
Continuous
 62
     7
370
    25
100
AcDbCircle
 10
46.4058111689
 20
18.9369491593
 30
0.0
 40
0.0402351422795466
100
AcDbArc
 50
294.3746582936
 51
354.3052007488
  0
LWPOLYLINE
  5
35B
330
1F
100
AcDbEntity
  8
0
  6
Continuous
 62
     7
370
    25
100
AcDbPolyline
 90
        7
 70
   128
 43
0.0
 10
46.4224162764
 20
29.283470746
 10
46.4390445895
 20
29.2791703211
 10
46.4457899513
 20
29.2713906521
 10
46.4447310175
 20
29.2658885173
 10
46.4406536893
 20
29.2599323898
 10
46.4330970005
 20
29.2529799829
 10
46.4224162764
 20
29.2458724112
  0
LWPOLYLINE
  5
35C
330
1F
100
AcDbEntity
  8
0
  6
Continuous
 62
     7
370
    25
100
AcDbPolyline
 90
        7
 70
   128
 43
0.0
 10
46.3984162764
 20
29.3250399653
 10
46.4030043841
 20
29.3415937877
 10
46.3996376628
 20
29.3513287605
 10
46.3943421361
 20
29.3531646199
 10
46.3871443719
 20
29.352613246
 10
46.3773441758
 20
29.3495467076
 10
46.3658477339
 20
29.3438520007
  0
ARC
  5
35D
330
1F
100
AcDbEntity
  8
0
  6
Continuous
 62
     7
370
    25
100
AcDbCircle
 10
40.0844808466
 20
32.9456074586
 30
0.0
 40
0.0443433977113085
100
AcDbArc
 50
57.6163189056
 51
121.5421559544
  0
LINE
  5
35E
330
1F
100
AcDbEntity
  8
0
  6
Continuous
 62
     7
370
    25
100
AcDbLine
 10
46.3984162764
 20
29.3250399653
 30
0.0
 11
46.3920113438
 21
29.3213412744
 31
0.0
  0
LINE
  5
35F
330
1F
100
AcDbEntity
  8
0
  6
Continuous
 62
     7
370
    25
100
AcDbLine
 10
36.6484327935
 20
30.9927922845
 30
0.0
 11
36.6484327935
 21
30.9929555661
 31
0.0
  0
LINE
  5
360
330
1F
100
AcDbEntity
  8
0
  6
Continuous
 62
     7
370
    25
100
AcDbLine
 10
36.6479378187
 20
30.9925024167
 30
0.0
 11
36.6479378187
 21
30.9926698233
 31
0.0
  0
ARC
  5
361
330
1F
100
AcDbEntity
  8
0
  6
Continuous
 62
     7
370
    25
100
AcDbCircle
 10
36.6083189774
 20
30.9757205192
 30
0.0
 40
0.0349367357942809
100
AcDbArc
 50
50.7967147643
 51
189.2140369905
  0
LWPOLYLINE
  5
362
330
1F
100
AcDbEntity
  8
0
  6
Continuous
 62
     7
370
    25
100
AcDbPolyline
 90
        8
 70
   128
 43
0.0
 10
36.6077741535
 20
30.9505325487
 10
36.608208933
 20
30.9553791306
 10
36.6094965631
 20
30.9595374753
 10
36.6115875609
 20
30.9628477801
 10
36.6144015705
 20
30.9651828318
 10
36.6178304512
 20
30.9664528956
 10
36.6217424329
 20
30.9666091637
 10
36.6236747343
 20
30.9663012912
  0
LINE
  5
363
330
1F
100
AcDbEntity
  8
0
  6
Continuous
 62
     7
370
    25
100
AcDbLine
 10
36.6077741535
 20
30.9376312039
 30
0.0
 11
36.6077741535
 21
30.9505325487
 31
0.0
  0
LINE
  5
364
330
1F
100
AcDbEntity
  8
0
  6
Continuous
 62
     7
370
    25
100
AcDbLine
 10
36.573833028
 20
30.9572249986
 30
0.0
 11
36.6077741535
 21
30.9376312039
 31
0.0
  0
LINE
  5
365
330
1F
100
AcDbEntity
  8
0
  6
Continuous
 62
     7
370
    25
100
AcDbLine
 10
36.573833028
 20
30.9701263434
 30
0.0
 11
36.573833028
 21
30.9572249986
 31
0.0
  0
ARC
  5
366
330
1F
100
AcDbEntity
  8
0
  6
Continuous
 62
     7
370
    25
100
AcDbCircle
 10
40.0378500685
 20
32.9506888568
 30
0.0
 40
0.0402381788721619
100
AcDbArc
 50
54.3824225248
 51
114.3071190461
  0
LWPOLYLINE
  5
367
330
1F
100
AcDbEntity
  8
0
  6
Continuous
 62
     7
370
    25
100
AcDbPolyline
 90
        8
 70
   128
 43
0.0
 10
36.6244538368
 20
30.911031353
 10
36.6084812603
 20
30.9094694417
 10
36.5899211138
 20
30.9116006971
 10
36.5741865814
 20
30.917669999
 10
36.563673103
 20
30.9267533512
 10
36.5599812603
 20
30.9374678957
 10
36.563673103
 20
30.9481824402
 10
36.5741865814
 20
30.9572657924
  0
LWPOLYLINE
  5
368
330
1F
100
AcDbEntity
  8
0
  6
Continuous
 62
     7
370
    25
100
AcDbPolyline
 90
        7
 70
   128
 43
0.0
 10
36.5599812603
 20
20.6049604621
 10
36.563673103
 20
20.5942459176
 10
36.5741865814
 20
20.5851625654
 10
36.5899211138
 20
20.5790932635
 10
36.6084812603
 20
20.5769620081
 10
36.6270414068
 20
20.5790932635
 10
36.6390635808
 20
20.5832298031
  0
LWPOLYLINE
  5
369
330
1F
100
AcDbEntity
  8
0
  6
Continuous
 62
     7
370
    25
100
AcDbPolyline
 90
        9
 70
   128
 43
0.0
 10
36.6088348137
 20
30.9372637937
 10
36.608672602
 20
30.9372012236
 10
36.6084812603
 20
30.9371792519
 10
36.6082899186
 20
30.9372012236
 10
36.6081277069
 20
30.9372637937
 10
36.6080193206
 20
30.9373574365
 10
36.6079812603
 20
30.9374678957
 10
36.6080193206
 20
30.9375783549
 10
36.6081277069
 20
30.9376719978
  0
LINE
  5
36A
330
1F
100
AcDbEntity
  8
0
  6
Continuous
 62
     7
370
    25
100
AcDbLine
 10
36.6088348137
 20
30.9372637937
 30
0.0
 11
36.6141451475
 21
30.9341982033
 31
0.0
  0
LINE
  5
36B
330
1F
100
AcDbEntity
  8
0
  6
Continuous
 62
     7
370
    25
100
AcDbLine
 10
36.9620346509
 20
26.1215870132
 30
0.0
 11
36.9620346509
 21
30.7161500972
 31
0.0
  0
LINE
  5
36C
330
1F
100
AcDbEntity
  8
0
  6
Continuous
 62
     7
370
    25
100
AcDbLine
 10
36.6081277069
 20
30.9376719978
 30
0.0
 11
36.6082691283
 21
30.9377536386
 31
0.0
  0
LINE
  5
36D
330
1F
100
AcDbEntity
  8
0
  6
Continuous
 62
     7
370
    25
100
AcDbLine
 10
36.6082691283
 20
30.9379169467
 30
0.0
 11
36.6082691283
 21
30.9377536386
 31
0.0
  0
LINE
  5
36E
330
1F
100
AcDbEntity
  8
0
  6
Continuous
 62
     7
370
    25
100
AcDbLine
 10
36.6077741535
 20
30.9376312039
 30
0.0
 11
36.6082691283
 21
30.9379169467
 31
0.0
  0
LINE
  5
36F
330
1F
100
AcDbEntity
  8
0
  6
Continuous
 62
     7
370
    25
100
AcDbLine
 10
36.6082691283
 20
30.9377536386
 30
0.0
 11
36.6081276839
 21
30.9378352926
 31
0.0
  0
LINE
  5
370
330
1F
100
AcDbEntity
  8
0
  6
Continuous
 62
     7
370
    25
100
AcDbLine
 10
42.9918877045
 20
16.9198983341
 30
0.0
 11
42.9920291488
 21
16.91981668
 31
0.0
  0
LINE
  5
371
330
1F
100
AcDbEntity
  8
0
  6
Continuous
 62
     7
370
    25
100
AcDbLine
 10
43.0119695601
 20
16.8949039446
 30
0.0
 11
43.0459106856
 21
16.8753101499
 31
0.0
  0
LINE
  5
372
330
1F
100
AcDbEntity
  8
0
  6
Continuous
 62
     7
370
    25
100
AcDbLine
 10
43.0119695601
 20
16.8949039446
 30
0.0
 11
43.0119695601
 21
16.9313280344
 31
0.0
  0
LINE
  5
373
330
1F
100
AcDbEntity
  8
0
  6
Continuous
 62
     7
370
    25
100
AcDbLine
 10
43.0120402707
 20
16.8947814568
 30
0.0
 11
43.0459813962
 21
16.8751876622
 31
0.0
  0
LINE
  5
374
330
1F
100
AcDbEntity
  8
0
  6
Continuous
 62
     7
370
    25
100
AcDbLine
 10
43.0120402707
 20
16.8947814568
 30
0.0
 11
43.0120402707
 21
16.8948631242
 31
0.0
  0
ARC
  5
375
330
1F
100
AcDbEntity
  8
0
  6
Continuous
 62
     7
370
    25
100
AcDbCircle
 10
43.0114954468
 20
16.8695934864
 30
0.0
 40
0.0349367357942944
100
AcDbArc
 50
230.7967147643
 51
9.2140369904
  0
LINE
  5
376
330
1F
100
AcDbEntity
  8
0
  6
Continuous
 62
     7
370
    25
100
AcDbLine
 10
42.9894128537
 20
16.8817146806
 30
0.0
 11
42.9894128537
 21
16.8425207217
 31
0.0
  0
ARC
  5
377
330
1F
100
AcDbEntity
  8
0
  6
Continuous
 62
     7
370
    25
100
AcDbCircle
 10
42.998245891
 20
16.8925437865
 30
0.0
 40
0.0139746943177186
100
AcDbArc
 50
230.7967147643
 51
9.2140369904
  0
ARC
  5
378
330
1F
100
AcDbEntity
  8
0
  6
Continuous
 62
     7
370
    25
100
AcDbCircle
 10
46.3513963191
 20
18.8016659076
 30
0.0
 40
0.0394382344068541
100
AcDbArc
 50
305.0133328807
 51
6.2988475127
  0
LINE
  5
379
330
1F
100
AcDbEntity
  8
0
  6
Continuous
 62
     7
370
    25
100
AcDbLine
 10
42.9052315646
 20
16.9303115045
 30
0.0
 11
42.9894128537
 21
16.8817146806
 31
0.0
  0
LINE
  5
37A
330
1F
100
AcDbEntity
  8
0
  6
Continuous
 62
     7
370
    25
100
AcDbLine
 10
42.9894128537
 20
16.8425207217
 30
0.0
 11
42.6584868802
 21
17.0335602198
 31
0.0
  0
ARC
  5
37B
330
1F
100
AcDbEntity
  8
0
  6
Continuous
 62
     7
370
    25
100
AcDbCircle
 10
42.6854371075
 20
17.0920101015
 30
0.0
 40
0.0643638363162626
100
AcDbArc
 50
189.9292346903
 51
245.2463921904
  0
LINE
  5
37C
330
1F
100
AcDbEntity
  8
0
  6
Continuous
 62
     7
370
    25
100
AcDbLine
 10
46.4458477339
 20
18.9519229729
 30
0.0
 11
46.4789848189
 21
18.9327933409
 31
0.0
  0
ARC
  5
37D
330
1F
100
AcDbEntity
  8
0
  6
Continuous
 62
     7
370
    25
100
AcDbCircle
 10
37.0998771136
 20
20.4484795703
 30
0.0
 40
0.1785049503025382
100
AcDbArc
 50
241.8911231585
 51
269.3329230224
  0
LINE
  5
37E
330
1F
100
AcDbEntity
  8
0
  6
Continuous
 62
     7
370
    25
100
AcDbLine
 10
37.0157747663
 20
20.291028586
 30
0.0
 11
36.6848487927
 21
20.4820680842
 31
0.0
  0
LINE
  5
37F
330
1F
100
AcDbEntity
  8
0
  6
Continuous
 62
     7
370
    25
100
AcDbLine
 10
36.6389661031
 20
20.5739605294
 30
0.0
 11
36.6291447344
 21
20.5796302848
 31
0.0
  0
ARC
  5
380
330
1F
100
AcDbEntity
  8
0
  6
Continuous
 62
     7
370
    25
100
AcDbCircle
 10
36.7510975383
 20
20.5856365418
 30
0.0
 40
0.1229443846057307
100
AcDbArc
 50
182.6054784856
 51
237.39452166
  0
LINE
  5
381
330
1F
100
AcDbEntity
  8
0
  6
Continuous
 62
     8
370
    25
100
AcDbLine
 10
40.1009523633
 20
26.8214345422
 30
0.0
 11
40.1009523633
 21
26.1738914171
 31
0.0
  0
LINE
  5
382
330
1F
100
AcDbEntity
  8
0
  6
Continuous
 62
     8
370
    25
100
AcDbLine
 10
40.1009523633
 20
25.6254357308
 30
0.0
 11
40.1009523633
 21
24.9892831255
 31
0.0
  0
LWPOLYLINE
  5
383
330
1F
100
AcDbEntity
  8
0
  6
Continuous
 62
     8
370
    25
100
AcDbPolyline
 90
       19
 70
   128
 43
0.0
 10
39.4098493681
 20
20.0521054487
 10
39.4392791579
 20
20.063085999
 10
39.4886077756
 20
20.0688064885
 10
39.5422612146
 20
20.0612607523
 10
39.5985150091
 20
20.0406913167
 10
39.655561116
 20
20.0077593002
 10
39.7115660264
 20
19.9635231649
 10
39.7647296964
 20
19.9094046966
 10
39.8133434019
 20
19.8471433074
 10
39.8558446585
 20
19.7787401296
 10
39.8908674407
 20
19.7063936977
 10
39.9172860876
 20
19.6324292853
 10
39.934251482
 20
19.5592241697
 10
39.9412183423
 20
19.4891312235
 10
39.9379627478
 20
19.4244032916
 10
39.9245893361
 20
19.367120783
 10
39.9015279395
 20
19.3191248047
 10
39.8695197703
 20
19.281957987
 10
39.8432680842
 20
19.2635563473
  0
LINE
  5
384
330
1F
100
AcDbEntity
  8
0
  6
Continuous
 62
     8
370
    25
100
AcDbLine
 10
42.9090930486
 20
22.1950907739
 30
0.0
 11
36.7195237221
 21
25.7682530892
 31
0.0
  0
LINE
  5
385
330
1F
100
AcDbEntity
  8
0
  6
Continuous
 62
     8
370
    25
100
AcDbLine
 10
36.6927823939
 20
25.6914178043
 30
0.0
 11
42.9090930486
 21
22.1028180489
 31
0.0
  0
LINE
  5
386
330
1F
100
AcDbEntity
  8
0
  6
Continuous
 62
     8
370
    25
100
AcDbLine
 10
42.9039417295
 20
16.9971284119
 30
0.0
 11
42.9090930486
 21
16.9941546187
 31
0.0
  0
LINE
  5
387
330
1F
100
AcDbEntity
  8
0
  6
Continuous
 62
     8
370
    25
100
AcDbLine
 10
42.9090930486
 20
17.4367879729
 30
0.0
 11
42.9085684695
 21
17.4370908059
 31
0.0
  0
LINE
  5
388
330
1F
100
AcDbEntity
  8
0
  6
Continuous
 62
     8
370
    25
100
AcDbLine
 10
42.9917462831
 20
27.2524874351
 30
0.0
 11
42.9918877275
 21
27.252405781
 31
0.0
  0
LINE
  5
389
330
1F
100
AcDbEntity
  8
0
  6
Continuous
 62
     8
370
    25
100
AcDbLine
 10
42.9176415155
 20
27.3734918432
 30
0.0
 11
42.9176415155
 21
27.3736551248
 31
0.0
  0
LINE
  5
38A
330
1F
100
AcDbEntity
  8
0
  6
Continuous
 62
     8
370
    25
100
AcDbLine
 10
42.9572394952
 20
27.2719995757
 30
0.0
 11
42.9572394952
 21
27.2724077797
 31
0.0
  0
LINE
  5
38B
330
1F
100
AcDbEntity
  8
0
  6
Continuous
 62
     8
370
    25
100
AcDbLine
 10
42.9176415155
 20
27.333644625
 30
0.0
 11
42.9172879621
 21
27.333848727
 31
0.0
  0
LINE
  5
38C
330
1F
100
AcDbEntity
  8
0
  6
Continuous
 62
     8
370
    25
100
AcDbLine
 10
36.6427759392
 20
20.9362425261
 30
0.0
 11
36.6427759392
 21
30.9004542284
 31
0.0
  0
LINE
  5
38D
330
1F
100
AcDbEntity
  8
0
  6
Continuous
 62
     8
370
    25
100
AcDbLine
 10
36.6081277069
 20
30.9376719978
 30
0.0
 11
36.6079862626
 21
30.9377536518
 31
0.0
  0
LINE
  5
38E
330
1F
100
AcDbEntity
  8
0
  6
Continuous
 62
     8
370
    25
100
AcDbLine
 10
36.6077741535
 20
30.9505325487
 30
0.0
 11
36.6192568415
 21
30.9571613634
 31
0.0
  0
LINE
  5
38F
330
1F
100
AcDbEntity
  8
0
  6
Continuous
 62
     8
370
    25
100
AcDbLine
 10
36.6081277069
 20
30.9372637937
 30
0.0
 11
36.6081277069
 21
30.9376719978
 31
0.0
  0
LINE
  5
390
330
1F
100
AcDbEntity
  8
0
  6
Continuous
 62
     8
370
    25
100
AcDbLine
 10
43.0120402704
 20
16.8947772103
 30
0.0
 11
42.9894128537
 21
16.8817146806
 31
0.0
  0
LINE
  5
391
330
1F
100
AcDbEntity
  8
0
  6
Continuous
 62
     8
370
    25
100
AcDbLine
 10
42.6584868802
 20
17.0598698667
 30
0.0
 11
42.6584868802
 21
17.0335602198
 31
0.0
  0
LINE
  5
392
330
1F
100
AcDbEntity
  8
0
  6
Continuous
 62
     8
370
    25
100
AcDbLine
 10
37.0157747663
 20
20.3173382328
 30
0.0
 11
37.0157747663
 21
20.291028586
 31
0.0
  0
LINE
  5
393
330
1F
100
AcDbEntity
  8
0
  6
Continuous
 62
     8
370
    25
100
AcDbLine
 10
36.6848487927
 20
20.508377731
 30
0.0
 11
36.6848487927
 21
20.4820680842
 31
0.0
  0
LINE
  5
394
330
1F
100
AcDbEntity
  8
0
  6
Continuous
 62
     8
370
    25
100
AcDbLine
 10
36.6389652495
 20
20.5738793548
 30
0.0
 11
36.6290484715
 21
20.5796041889
 31
0.0
  0
MTEXT
  5
395
330
1F
100
AcDbEntity
  8
NOTES
100
AcDbMText
 10
41.2011941544
 20
16.5147183242
 30
0.0
 40
0.75
 41
0.0
 71
     1
 72
     1
  1
3D view
  7
SLDTEXTSTYLE1
 73
     1
 44
1.0
  0
LINE
  5
396
330
1F
100
AcDbEntity
  8
0
  6
Continuous
 62
     7
370
    25
100
AcDbLine
 10
25.5825159791
 20
8.4773965433
 30
0.0
 11
25.5825159791
 21
8.4798965433
 31
0.0
  0
LINE
  5
397
330
1F
100
AcDbEntity
  8
0
  6
Continuous
 62
     7
370
    25
100
AcDbLine
 10
34.1168382798
 20
8.4773965433
 30
0.0
 11
34.1168382798
 21
8.4798965433
 31
0.0
  0
LWPOLYLINE
  5
398
330
1F
100
AcDbEntity
  8
0
  6
Continuous
 62
     7
370
    25
100
AcDbPolyline
 90
        3
 70
   128
 43
0.0
 10
34.1328382798
 20
8.4773965433
 10
34.1443290998
 20
8.4785282903
 10
34.1498162067
 20
8.4798965433
  0
LWPOLYLINE
  5
399
330
1F
100
AcDbEntity
  8
0
  6
Continuous
 62
     7
370
    25
100
AcDbPolyline
 90
        3
 70
   128
 43
0.0
 10
25.5665159791
 20
8.4773965433
 10
25.5550251592
 20
8.4785282903
 10
25.5495380523
 20
8.4798965433
  0
CIRCLE
  5
39A
330
1F
100
AcDbEntity
  8
0
  6
Continuous
 62
     7
370
    25
100
AcDbCircle
 10
32.3246771295
 20
16.1604100022
 30
0.0
 40
0.1923216518002988
  0
CIRCLE
  5
39B
330
1F
100
AcDbEntity
  8
0
  6
Continuous
 62
     7
370
    25
100
AcDbCircle
 10
32.3246771295
 20
16.1604100022
 30
0.0
 40
0.0472499999999982
  0
CIRCLE
  5
39C
330
1F
100
AcDbEntity
  8
0
  6
Continuous
 62
     7
370
    25
100
AcDbCircle
 10
32.3246771295
 20
9.9473965433
 30
0.0
 40
0.1923216518002988
  0
CIRCLE
  5
39D
330
1F
100
AcDbEntity
  8
0
  6
Continuous
 62
     7
370
    25
100
AcDbCircle
 10
32.3246771295
 20
9.9473965433
 30
0.0
 40
0.0472499999999982
  0
CIRCLE
  5
39E
330
1F
100
AcDbEntity
  8
0
  6
Continuous
 62
     7
370
    25
100
AcDbCircle
 10
27.3246771295
 20
16.1604100022
 30
0.0
 40
0.1923216518003024
  0
CIRCLE
  5
39F
330
1F
100
AcDbEntity
  8
0
  6
Continuous
 62
     7
370
    25
100
AcDbCircle
 10
27.3246771295
 20
16.1604100022
 30
0.0
 40
0.0472499999999982
  0
CIRCLE
  5
3A0
330
1F
100
AcDbEntity
  8
0
  6
Continuous
 62
     7
370
    25
100
AcDbCircle
 10
27.3246771295
 20
9.9473965433
 30
0.0
 40
0.1923216518002953
  0
CIRCLE
  5
3A1
330
1F
100
AcDbEntity
  8
0
  6
Continuous
 62
     7
370
    25
100
AcDbCircle
 10
27.3246771295
 20
9.9473965433
 30
0.0
 40
0.0472499999999982
  0
CIRCLE
  5
3A2
330
1F
100
AcDbEntity
  8
0
  6
Continuous
 62
     7
370
    25
100
AcDbCircle
 10
32.3246771295
 20
16.1604100022
 30
0.0
 40
0.4194835847836771
  0
CIRCLE
  5
3A3
330
1F
100
AcDbEntity
  8
0
  6
Continuous
 62
     7
370
    25
100
AcDbCircle
 10
32.3246771295
 20
9.9473965433
 30
0.0
 40
0.4194835847836771
  0
CIRCLE
  5
3A4
330
1F
100
AcDbEntity
  8
0
  6
Continuous
 62
     7
370
    25
100
AcDbCircle
 10
27.3246771295
 20
16.1604100022
 30
0.0
 40
0.4194835847836806
  0
CIRCLE
  5
3A5
330
1F
100
AcDbEntity
  8
0
  6
Continuous
 62
     7
370
    25
100
AcDbCircle
 10
27.3246771295
 20
9.9473965433
 30
0.0
 40
0.4194835847836806
  0
LINE
  5
3A6
330
1F
100
AcDbEntity
  8
0
  6
Continuous
 62
     7
370
    25
100
AcDbLine
 10
26.6586771295
 20
16.8501259615
 30
0.0
 11
32.9906771295
 21
16.8501259615
 31
0.0
  0
LINE
  5
3A7
330
1F
100
AcDbEntity
  8
0
  6
Continuous
 62
     7
370
    25
100
AcDbLine
 10
33.0496771295
 20
8.5273965433
 30
0.0
 11
33.0496771295
 21
16.8049293394
 31
0.0
  0
LINE
  5
3A8
330
1F
100
AcDbEntity
  8
0
  6
Continuous
 62
     7
370
    25
100
AcDbLine
 10
33.0496771295
 20
8.5273965433
 30
0.0
 11
32.9906771295
 21
8.5273965433
 31
0.0
  0
LINE
  5
3A9
330
1F
100
AcDbEntity
  8
0
  6
Continuous
 62
     7
370
    25
100
AcDbLine
 10
32.9906771295
 20
8.4473965433
 30
0.0
 11
26.6586771295
 21
8.4473965433
 31
0.0
  0
LINE
  5
3AA
330
1F
100
AcDbEntity
  8
0
  6
Continuous
 62
     7
370
    25
100
AcDbLine
 10
26.5996771295
 20
8.5273965433
 30
0.0
 11
26.5996771295
 21
16.8049293394
 31
0.0
  0
LINE
  5
3AB
330
1F
100
AcDbEntity
  8
0
  6
Continuous
 62
     7
370
    25
100
AcDbLine
 10
26.6586771295
 20
8.5273965433
 30
0.0
 11
26.5996771295
 21
8.5273965433
 31
0.0
  0
LINE
  5
3AC
330
1F
100
AcDbEntity
  8
0
  6
Continuous
 62
     7
370
    25
100
AcDbLine
 10
26.6536771295
 20
16.8501259615
 30
0.0
 11
26.6586771295
 21
16.8501259615
 31
0.0
  0
LINE
  5
3AD
330
1F
100
AcDbEntity
  8
0
  6
Continuous
 62
     7
370
    25
100
AcDbLine
 10
26.6536771295
 20
16.8332489781
 30
0.0
 11
26.6536771295
 21
16.8501259615
 31
0.0
  0
LINE
  5
3AE
330
1F
100
AcDbEntity
  8
0
  6
Continuous
 62
     7
370
    25
100
AcDbLine
 10
26.6536771295
 20
16.8332489781
 30
0.0
 11
26.6306771295
 21
16.8332489781
 31
0.0
  0
LINE
  5
3AF
330
1F
100
AcDbEntity
  8
0
  6
Continuous
 62
     7
370
    25
100
AcDbLine
 10
26.6306771295
 20
16.8332489781
 30
0.0
 11
26.6306771295
 21
17.2527444353
 31
0.0
  0
LINE
  5
3B0
330
1F
100
AcDbEntity
  8
0
  6
Continuous
 62
     7
370
    25
100
AcDbLine
 10
26.6536771295
 20
17.2527444353
 30
0.0
 11
26.6306771295
 21
17.2527444353
 31
0.0
  0
LINE
  5
3B1
330
1F
100
AcDbEntity
  8
0
  6
Continuous
 62
     7
370
    25
100
AcDbLine
 10
26.6536771295
 20
17.2432989401
 30
0.0
 11
26.6536771295
 21
17.2527444353
 31
0.0
  0
LINE
  5
3B2
330
1F
100
AcDbEntity
  8
0
  6
Continuous
 62
     7
370
    25
100
AcDbLine
 10
26.6536771295
 20
17.2432989401
 30
0.0
 11
26.6586771295
 21
17.2432989401
 31
0.0
  0
LINE
  5
3B3
330
1F
100
AcDbEntity
  8
0
  6
Continuous
 62
     7
370
    25
100
AcDbLine
 10
26.6586771295
 20
17.2432989401
 30
0.0
 11
32.9906771295
 21
17.2432989401
 31
0.0
  0
LINE
  5
3B4
330
1F
100
AcDbEntity
  8
0
  6
Continuous
 62
     7
370
    25
100
AcDbLine
 10
32.9956771295
 20
17.2432989401
 30
0.0
 11
32.9906771295
 21
17.2432989401
 31
0.0
  0
LINE
  5
3B5
330
1F
100
AcDbEntity
  8
0
  6
Continuous
 62
     7
370
    25
100
AcDbLine
 10
32.9956771295
 20
17.2432989401
 30
0.0
 11
32.9956771295
 21
17.2527444353
 31
0.0
  0
LINE
  5
3B6
330
1F
100
AcDbEntity
  8
0
  6
Continuous
 62
     7
370
    25
100
AcDbLine
 10
32.9956771295
 20
17.2527444353
 30
0.0
 11
33.0186771295
 21
17.2527444353
 31
0.0
  0
LINE
  5
3B7
330
1F
100
AcDbEntity
  8
0
  6
Continuous
 62
     7
370
    25
100
AcDbLine
 10
32.9956771295
 20
16.8332489781
 30
0.0
 11
33.0186771295
 21
16.8332489781
 31
0.0
  0
LINE
  5
3B8
330
1F
100
AcDbEntity
  8
0
  6
Continuous
 62
     7
370
    25
100
AcDbLine
 10
32.9956771295
 20
16.8332489781
 30
0.0
 11
32.9956771295
 21
16.8501259615
 31
0.0
  0
LINE
  5
3B9
330
1F
100
AcDbEntity
  8
0
  6
Continuous
 62
     7
370
    25
100
AcDbLine
 10
32.9956771295
 20
16.8501259615
 30
0.0
 11
32.9906771295
 21
16.8501259615
 31
0.0
  0
LINE
  5
3BA
330
1F
100
AcDbEntity
  8
0
  6
Continuous
 62
     7
370
    25
100
AcDbLine
 10
33.0186771295
 20
16.8332489781
 30
0.0
 11
33.0186771295
 21
17.2527444353
 31
0.0
  0
LINE
  5
3BB
330
1F
100
AcDbEntity
  8
0
  6
Continuous
 62
     7
370
    25
100
AcDbLine
 10
32.9956771295
 20
16.8102676448
 30
0.0
 11
33.0186771295
 21
16.8102676448
 31
0.0
  0
LINE
  5
3BC
330
1F
100
AcDbEntity
  8
0
  6
Continuous
 62
     7
370
    25
100
AcDbLine
 10
32.9956771295
 20
16.8102676448
 30
0.0
 11
32.9956771295
 21
16.8332489781
 31
0.0
  0
LINE
  5
3BD
330
1F
100
AcDbEntity
  8
0
  6
Continuous
 62
     7
370
    25
100
AcDbLine
 10
33.0186771295
 20
16.8332489781
 30
0.0
 11
33.0186771295
 21
16.8102676448
 31
0.0
  0
LINE
  5
3BE
330
1F
100
AcDbEntity
  8
0
  6
Continuous
 62
     7
370
    25
100
AcDbLine
 10
26.6536771295
 20
16.8102676448
 30
0.0
 11
26.6306771295
 21
16.8102676448
 31
0.0
  0
LINE
  5
3BF
330
1F
100
AcDbEntity
  8
0
  6
Continuous
 62
     7
370
    25
100
AcDbLine
 10
26.6536771295
 20
16.8102676448
 30
0.0
 11
26.6536771295
 21
16.8332489781
 31
0.0
  0
LINE
  5
3C0
330
1F
100
AcDbEntity
  8
0
  6
Continuous
 62
     7
370
    25
100
AcDbLine
 10
26.6306771295
 20
16.8332489781
 30
0.0
 11
26.6306771295
 21
16.8102676448
 31
0.0
  0
LINE
  5
3C1
330
1F
100
AcDbEntity
  8
0
  6
Continuous
 62
     7
370
    25
100
AcDbLine
 10
32.9956771295
 20
16.8271446282
 30
0.0
 11
32.9906771295
 21
16.8271446282
 31
0.0
  0
LINE
  5
3C2
330
1F
100
AcDbEntity
  8
0
  6
Continuous
 62
     7
370
    25
100
AcDbLine
 10
26.6536771295
 20
16.8271446282
 30
0.0
 11
26.6586771295
 21
16.8271446282
 31
0.0
  0
LINE
  5
3C3
330
1F
100
AcDbEntity
  8
0
  6
Continuous
 62
     7
370
    25
100
AcDbLine
 10
33.0196771295
 20
16.8099293394
 30
0.0
 11
33.0496771295
 21
16.8099293394
 31
0.0
  0
LINE
  5
3C4
330
1F
100
AcDbEntity
  8
0
  6
Continuous
 62
     7
370
    25
100
AcDbLine
 10
33.0196771295
 20
16.8459567887
 30
0.0
 11
33.0196771295
 21
16.8099293394
 31
0.0
  0
LINE
  5
3C5
330
1F
100
AcDbEntity
  8
0
  6
Continuous
 62
     7
370
    25
100
AcDbLine
 10
33.0496771295
 20
16.8459567887
 30
0.0
 11
33.0196771295
 21
16.8459567887
 31
0.0
  0
LINE
  5
3C6
330
1F
100
AcDbEntity
  8
0
  6
Continuous
 62
     7
370
    25
100
AcDbLine
 10
33.0496771295
 20
16.8459567887
 30
0.0
 11
33.0496771295
 21
16.8099293394
 31
0.0
  0
LINE
  5
3C7
330
1F
100
AcDbEntity
  8
0
  6
Continuous
 62
     7
370
    25
100
AcDbLine
 10
33.0196771295
 20
16.8651078998
 30
0.0
 11
33.0496771295
 21
16.8651078998
 31
0.0
  0
LINE
  5
3C8
330
1F
100
AcDbEntity
  8
0
  6
Continuous
 62
     7
370
    25
100
AcDbLine
 10
33.0196771295
 20
16.8459567887
 30
0.0
 11
33.0196771295
 21
16.8651078998
 31
0.0
  0
LINE
  5
3C9
330
1F
100
AcDbEntity
  8
0
  6
Continuous
 62
     7
370
    25
100
AcDbLine
 10
33.0496771295
 20
16.8651078998
 30
0.0
 11
33.0496771295
 21
16.8459567887
 31
0.0
  0
LINE
  5
3CA
330
1F
100
AcDbEntity
  8
0
  6
Continuous
 62
     7
370
    25
100
AcDbLine
 10
26.6296771295
 20
16.8651078998
 30
0.0
 11
26.5996771295
 21
16.8651078998
 31
0.0
  0
LINE
  5
3CB
330
1F
100
AcDbEntity
  8
0
  6
Continuous
 62
     7
370
    25
100
AcDbLine
 10
26.5996771295
 20
16.8459567887
 30
0.0
 11
26.6296771295
 21
16.8459567887
 31
0.0
  0
LINE
  5
3CC
330
1F
100
AcDbEntity
  8
0
  6
Continuous
 62
     7
370
    25
100
AcDbLine
 10
26.6296771295
 20
16.8459567887
 30
0.0
 11
26.6296771295
 21
16.8651078998
 31
0.0
  0
LINE
  5
3CD
330
1F
100
AcDbEntity
  8
0
  6
Continuous
 62
     7
370
    25
100
AcDbLine
 10
26.5996771295
 20
16.8651078998
 30
0.0
 11
26.5996771295
 21
16.8459567887
 31
0.0
  0
LINE
  5
3CE
330
1F
100
AcDbEntity
  8
0
  6
Continuous
 62
     7
370
    25
100
AcDbLine
 10
26.6296771295
 20
16.8099293394
 30
0.0
 11
26.5996771295
 21
16.8099293394
 31
0.0
  0
LINE
  5
3CF
330
1F
100
AcDbEntity
  8
0
  6
Continuous
 62
     7
370
    25
100
AcDbLine
 10
26.6296771295
 20
16.8459567887
 30
0.0
 11
26.6296771295
 21
16.8099293394
 31
0.0
  0
LINE
  5
3D0
330
1F
100
AcDbEntity
  8
0
  6
Continuous
 62
     7
370
    25
100
AcDbLine
 10
26.5996771295
 20
16.8459567887
 30
0.0
 11
26.5996771295
 21
16.8099293394
 31
0.0
  0
LINE
  5
3D1
330
1F
100
AcDbEntity
  8
0
  6
Continuous
 62
     7
370
    25
100
AcDbLine
 10
33.0496771295
 20
17.2276574175
 30
0.0
 11
33.0196771295
 21
17.2276574175
 31
0.0
  0
LINE
  5
3D2
330
1F
100
AcDbEntity
  8
0
  6
Continuous
 62
     7
370
    25
100
AcDbLine
 10
33.0196771295
 20
17.2276574175
 30
0.0
 11
33.0196771295
 21
16.8651078998
 31
0.0
  0
LINE
  5
3D3
330
1F
100
AcDbEntity
  8
0
  6
Continuous
 62
     7
370
    25
100
AcDbLine
 10
33.0496771295
 20
17.2276574175
 30
0.0
 11
33.0496771295
 21
16.8651078998
 31
0.0
  0
LINE
  5
3D4
330
1F
100
AcDbEntity
  8
0
  6
Continuous
 62
     7
370
    25
100
AcDbLine
 10
26.5996771295
 20
17.2276574175
 30
0.0
 11
26.6296771295
 21
17.2276574175
 31
0.0
  0
LINE
  5
3D5
330
1F
100
AcDbEntity
  8
0
  6
Continuous
 62
     7
370
    25
100
AcDbLine
 10
26.6296771295
 20
17.2276574175
 30
0.0
 11
26.6296771295
 21
16.8651078998
 31
0.0
  0
LINE
  5
3D6
330
1F
100
AcDbEntity
  8
0
  6
Continuous
 62
     7
370
    25
100
AcDbLine
 10
26.5996771295
 20
17.2276574175
 30
0.0
 11
26.5996771295
 21
16.8651078998
 31
0.0
  0
LINE
  5
3D7
330
1F
100
AcDbEntity
  8
0
  6
Continuous
 62
     7
370
    25
100
AcDbLine
 10
33.0196771295
 20
16.8099293394
 30
0.0
 11
33.0196771295
 21
16.8049293394
 31
0.0
  0
LINE
  5
3D8
330
1F
100
AcDbEntity
  8
0
  6
Continuous
 62
     7
370
    25
100
AcDbLine
 10
33.0496771295
 20
16.8099293394
 30
0.0
 11
33.0496771295
 21
16.8049293394
 31
0.0
  0
LINE
  5
3D9
330
1F
100
AcDbEntity
  8
0
  6
Continuous
 62
     7
370
    25
100
AcDbLine
 10
33.0496771295
 20
8.4773965433
 30
0.0
 11
33.0496771295
 21
8.4473965433
 31
0.0
  0
LINE
  5
3DA
330
1F
100
AcDbEntity
  8
0
  6
Continuous
 62
     7
370
    25
100
AcDbLine
 10
33.0496771295
 20
8.4473965433
 30
0.0
 11
32.9906771295
 21
8.4473965433
 31
0.0
  0
LINE
  5
3DB
330
1F
100
AcDbEntity
  8
0
  6
Continuous
 62
     7
370
    25
100
AcDbLine
 10
33.0496771295
 20
8.4773965433
 30
0.0
 11
32.9906771295
 21
8.4773965433
 31
0.0
  0
LINE
  5
3DC
330
1F
100
AcDbEntity
  8
0
  6
Continuous
 62
     7
370
    25
100
AcDbLine
 10
33.0496771295
 20
8.4798965433
 30
0.0
 11
33.0196771295
 21
8.4798965433
 31
0.0
  0
LINE
  5
3DD
330
1F
100
AcDbEntity
  8
0
  6
Continuous
 62
     7
370
    25
100
AcDbLine
 10
33.0196771295
 20
8.4798965433
 30
0.0
 11
33.0196771295
 21
8.5273965433
 31
0.0
  0
LINE
  5
3DE
330
1F
100
AcDbEntity
  8
0
  6
Continuous
 62
     7
370
    25
100
AcDbLine
 10
33.0496771295
 20
8.4798965433
 30
0.0
 11
33.0496771295
 21
8.5273965433
 31
0.0
  0
LINE
  5
3DF
330
1F
100
AcDbEntity
  8
0
  6
Continuous
 62
     7
370
    25
100
AcDbLine
 10
26.6296771295
 20
16.8099293394
 30
0.0
 11
26.6296771295
 21
16.8049293394
 31
0.0
  0
LINE
  5
3E0
330
1F
100
AcDbEntity
  8
0
  6
Continuous
 62
     7
370
    25
100
AcDbLine
 10
26.5996771295
 20
16.8099293394
 30
0.0
 11
26.5996771295
 21
16.8049293394
 31
0.0
  0
LINE
  5
3E1
330
1F
100
AcDbEntity
  8
0
  6
Continuous
 62
     7
370
    25
100
AcDbLine
 10
26.5996771295
 20
8.4773965433
 30
0.0
 11
26.5996771295
 21
8.4473965433
 31
0.0
  0
LINE
  5
3E2
330
1F
100
AcDbEntity
  8
0
  6
Continuous
 62
     7
370
    25
100
AcDbLine
 10
26.6586771295
 20
8.4473965433
 30
0.0
 11
26.5996771295
 21
8.4473965433
 31
0.0
  0
LINE
  5
3E3
330
1F
100
AcDbEntity
  8
0
  6
Continuous
 62
     7
370
    25
100
AcDbLine
 10
26.6586771295
 20
8.4773965433
 30
0.0
 11
26.5996771295
 21
8.4773965433
 31
0.0
  0
LINE
  5
3E4
330
1F
100
AcDbEntity
  8
0
  6
Continuous
 62
     7
370
    25
100
AcDbLine
 10
26.6296771295
 20
8.4798965433
 30
0.0
 11
26.5996771295
 21
8.4798965433
 31
0.0
  0
LINE
  5
3E5
330
1F
100
AcDbEntity
  8
0
  6
Continuous
 62
     7
370
    25
100
AcDbLine
 10
26.6296771295
 20
8.4798965433
 30
0.0
 11
26.6296771295
 21
8.5273965433
 31
0.0
  0
LINE
  5
3E6
330
1F
100
AcDbEntity
  8
0
  6
Continuous
 62
     7
370
    25
100
AcDbLine
 10
26.5996771295
 20
8.4798965433
 30
0.0
 11
26.5996771295
 21
8.5273965433
 31
0.0
  0
LINE
  5
3E7
330
1F
100
AcDbEntity
  8
0
  6
Continuous
 62
     7
370
    25
100
AcDbLine
 10
33.0786771295
 20
8.4798965433
 30
0.0
 11
33.0786771295
 21
17.2276574175
 31
0.0
  0
LINE
  5
3E8
330
1F
100
AcDbEntity
  8
0
  6
Continuous
 62
     7
370
    25
100
AcDbLine
 10
33.0786771295
 20
17.2276574175
 30
0.0
 11
33.0496771295
 21
17.2276574175
 31
0.0
  0
LINE
  5
3E9
330
1F
100
AcDbEntity
  8
0
  6
Continuous
 62
     7
370
    25
100
AcDbLine
 10
33.0786771295
 20
8.4798965433
 30
0.0
 11
33.0496771295
 21
8.4798965433
 31
0.0
  0
LINE
  5
3EA
330
1F
100
AcDbEntity
  8
0
  6
Continuous
 62
     7
370
    25
100
AcDbLine
 10
33.0786771295
 20
8.4773965433
 30
0.0
 11
33.0786771295
 21
8.4473965433
 31
0.0
  0
LINE
  5
3EB
330
1F
100
AcDbEntity
  8
0
  6
Continuous
 62
     7
370
    25
100
AcDbLine
 10
33.0786771295
 20
8.4473965433
 30
0.0
 11
33.0496771295
 21
8.4473965433
 31
0.0
  0
LINE
  5
3EC
330
1F
100
AcDbEntity
  8
0
  6
Continuous
 62
     7
370
    25
100
AcDbLine
 10
33.0786771295
 20
8.4773965433
 30
0.0
 11
33.0496771295
 21
8.4773965433
 31
0.0
  0
LINE
  5
3ED
330
1F
100
AcDbEntity
  8
0
  6
Continuous
 62
     7
370
    25
100
AcDbLine
 10
26.5706771295
 20
8.4798965433
 30
0.0
 11
26.5706771295
 21
17.2276574175
 31
0.0
  0
LINE
  5
3EE
330
1F
100
AcDbEntity
  8
0
  6
Continuous
 62
     7
370
    25
100
AcDbLine
 10
26.5706771295
 20
17.2276574175
 30
0.0
 11
26.5996771295
 21
17.2276574175
 31
0.0
  0
LINE
  5
3EF
330
1F
100
AcDbEntity
  8
0
  6
Continuous
 62
     7
370
    25
100
AcDbLine
 10
26.5996771295
 20
8.4798965433
 30
0.0
 11
26.5706771295
 21
8.4798965433
 31
0.0
  0
LINE
  5
3F0
330
1F
100
AcDbEntity
  8
0
  6
Continuous
 62
     7
370
    25
100
AcDbLine
 10
26.5706771295
 20
8.4773965433
 30
0.0
 11
26.5706771295
 21
8.4473965433
 31
0.0
  0
LINE
  5
3F1
330
1F
100
AcDbEntity
  8
0
  6
Continuous
 62
     7
370
    25
100
AcDbLine
 10
26.5996771295
 20
8.4473965433
 30
0.0
 11
26.5706771295
 21
8.4473965433
 31
0.0
  0
LINE
  5
3F2
330
1F
100
AcDbEntity
  8
0
  6
Continuous
 62
     7
370
    25
100
AcDbLine
 10
26.5996771295
 20
8.4773965433
 30
0.0
 11
26.5706771295
 21
8.4773965433
 31
0.0
  0
LINE
  5
3F3
330
1F
100
AcDbEntity
  8
0
  6
Continuous
 62
     7
370
    25
100
AcDbLine
 10
26.6586771295
 20
17.2432989401
 30
0.0
 11
26.6586771295
 21
17.2655142289
 31
0.0
  0
LINE
  5
3F4
330
1F
100
AcDbEntity
  8
0
  6
Continuous
 62
     7
370
    25
100
AcDbLine
 10
26.6586771295
 20
17.2655142289
 30
0.0
 11
32.9906771295
 21
17.2655142289
 31
0.0
  0
LINE
  5
3F5
330
1F
100
AcDbEntity
  8
0
  6
Continuous
 62
     7
370
    25
100
AcDbLine
 10
32.9906771295
 20
17.2432989401
 30
0.0
 11
32.9906771295
 21
17.2655142289
 31
0.0
  0
LINE
  5
3F6
330
1F
100
AcDbEntity
  8
0
  6
Continuous
 62
     7
370
    25
100
AcDbLine
 10
32.9906771295
 20
17.2655142289
 30
0.0
 11
33.7626771295
 21
17.2655142289
 31
0.0
  0
LINE
  5
3F7
330
1F
100
AcDbEntity
  8
0
  6
Continuous
 62
     7
370
    25
100
AcDbLine
 10
26.6586771295
 20
17.2655142289
 30
0.0
 11
25.9366771295
 21
17.2655142289
 31
0.0
  0
LWPOLYLINE
  5
3F8
330
1F
100
AcDbEntity
  8
0
  6
Continuous
 62
     7
370
    25
100
AcDbPolyline
 90
        3
 70
   128
 43
0.0
 10
25.3862089337
 20
21.2145753843
 10
25.3899226134
 20
21.2154627252
 10
25.3996771295
 20
21.2164234611
  0
LINE
  5
3F9
330
1F
100
AcDbEntity
  8
0
  6
Continuous
 62
     7
370
    25
100
AcDbLine
 10
34.2496771295
 20
21.2164234611
 30
0.0
 11
34.2477629218
 21
21.2164234611
 31
0.0
  0
LINE
  5
3FA
330
1F
100
AcDbEntity
  8
0
  6
Continuous
 62
     7
370
    25
100
AcDbLine
 10
25.4515913372
 20
21.2164234611
 30
0.0
 11
25.3996771295
 21
21.2164234611
 31
0.0
  0
ARC
  5
3FB
330
1F
100
AcDbEntity
  8
0
  6
Continuous
 62
     7
370
    25
100
AcDbCircle
 10
34.2496771295
 20
21.1664234611
 30
0.0
 40
0.0500000000000007
100
AcDbArc
 50
31.9487668125
 51
90.0
  0
LINE
  5
3FC
330
1F
100
AcDbEntity
  8
0
  6
Continuous
 62
     7
370
    25
100
AcDbLine
 10
33.0786771295
 20
17.2276574175
 30
0.0
 11
33.0786771295
 21
17.2326574175
 31
0.0
  0
LINE
  5
3FD
330
1F
100
AcDbEntity
  8
0
  6
Continuous
 62
     7
370
    25
100
AcDbLine
 10
33.0236771295
 20
17.2326574175
 30
0.0
 11
33.0786771295
 21
17.2326574175
 31
0.0
  0
LINE
  5
3FE
330
1F
100
AcDbEntity
  8
0
  6
Continuous
 62
     7
370
    25
100
AcDbLine
 10
33.0236771295
 20
17.2646574175
 30
0.0
 11
33.0236771295
 21
17.2326574175
 31
0.0
  0
LINE
  5
3FF
330
1F
100
AcDbEntity
  8
0
  6
Continuous
 62
     7
370
    25
100
AcDbLine
 10
33.0236771295
 20
17.2646574175
 30
0.0
 11
33.7626771295
 21
17.2646574175
 31
0.0
  0
LINE
  5
400
330
1F
100
AcDbEntity
  8
0
  6
Continuous
 62
     7
370
    25
100
AcDbLine
 10
34.2996771295
 20
8.4798965433
 30
0.0
 11
34.2996771295
 21
8.5473965433
 31
0.0
  0
LINE
  5
401
330
1F
100
AcDbEntity
  8
0
  6
Continuous
 62
     7
370
    25
100
AcDbLine
 10
34.2996771295
 20
8.4798965433
 30
0.0
 11
33.0786771295
 21
8.4798965433
 31
0.0
  0
LINE
  5
402
330
1F
100
AcDbEntity
  8
0
  6
Continuous
 62
     7
370
    25
100
AcDbLine
 10
34.2996771295
 20
8.4773965433
 30
0.0
 11
34.2996771295
 21
8.4473965433
 31
0.0
  0
LINE
  5
403
330
1F
100
AcDbEntity
  8
0
  6
Continuous
 62
     7
370
    25
100
AcDbLine
 10
34.2996771295
 20
8.4473965433
 30
0.0
 11
33.0786771295
 21
8.4473965433
 31
0.0
  0
LINE
  5
404
330
1F
100
AcDbEntity
  8
0
  6
Continuous
 62
     7
370
    25
100
AcDbLine
 10
34.2996771295
 20
8.4773965433
 30
0.0
 11
33.0786771295
 21
8.4773965433
 31
0.0
  0
LINE
  5
405
330
1F
100
AcDbEntity
  8
0
  6
Continuous
 62
     7
370
    25
100
AcDbLine
 10
26.6256771295
 20
17.2646574175
 30
0.0
 11
25.9366771295
 21
17.2646574175
 31
0.0
  0
LINE
  5
406
330
1F
100
AcDbEntity
  8
0
  6
Continuous
 62
     7
370
    25
100
AcDbLine
 10
26.6256771295
 20
17.2646574175
 30
0.0
 11
26.6256771295
 21
17.2326574175
 31
0.0
  0
LINE
  5
407
330
1F
100
AcDbEntity
  8
0
  6
Continuous
 62
     7
370
    25
100
AcDbLine
 10
26.6256771295
 20
17.2326574175
 30
0.0
 11
26.5706771295
 21
17.2326574175
 31
0.0
  0
LINE
  5
408
330
1F
100
AcDbEntity
  8
0
  6
Continuous
 62
     7
370
    25
100
AcDbLine
 10
26.5706771295
 20
17.2276574175
 30
0.0
 11
26.5706771295
 21
17.2326574175
 31
0.0
  0
LINE
  5
409
330
1F
100
AcDbEntity
  8
0
  6
Continuous
 62
     7
370
    25
100
AcDbLine
 10
25.3496771295
 20
8.4798965433
 30
0.0
 11
25.3496771295
 21
8.5471965433
 31
0.0
  0
LINE
  5
40A
330
1F
100
AcDbEntity
  8
0
  6
Continuous
 62
     7
370
    25
100
AcDbLine
 10
25.3496771295
 20
8.5721965433
 30
0.0
 11
25.3496771295
 21
8.5723965433
 31
0.0
  0
LINE
  5
40B
330
1F
100
AcDbEntity
  8
0
  6
Continuous
 62
     7
370
    25
100
AcDbLine
 10
26.5706771295
 20
8.4798965433
 30
0.0
 11
25.3496771295
 21
8.4798965433
 31
0.0
  0
LINE
  5
40C
330
1F
100
AcDbEntity
  8
0
  6
Continuous
 62
     7
370
    25
100
AcDbLine
 10
25.3496771295
 20
8.4773965433
 30
0.0
 11
25.3496771295
 21
8.4473965433
 31
0.0
  0
LINE
  5
40D
330
1F
100
AcDbEntity
  8
0
  6
Continuous
 62
     7
370
    25
100
AcDbLine
 10
26.5706771295
 20
8.4473965433
 30
0.0
 11
25.3496771295
 21
8.4473965433
 31
0.0
  0
LINE
  5
40E
330
1F
100
AcDbEntity
  8
0
  6
Continuous
 62
     7
370
    25
100
AcDbLine
 10
26.5706771295
 20
8.4773965433
 30
0.0
 11
25.3496771295
 21
8.4773965433
 31
0.0
  0
LINE
  5
40F
330
1F
100
AcDbEntity
  8
0
  6
Continuous
 62
     7
370
    25
100
AcDbLine
 10
25.3846771295
 20
8.4798965433
 30
0.0
 11
25.3846771295
 21
8.4773965433
 31
0.0
  0
LINE
  5
410
330
1F
100
AcDbEntity
  8
0
  6
Continuous
 62
     7
370
    25
100
AcDbLine
 10
34.2646771295
 20
8.4773965433
 30
0.0
 11
34.2646771295
 21
8.4798965433
 31
0.0
  0
LINE
  5
411
330
1F
100
AcDbEntity
  8
0
  6
Continuous
 62
     7
370
    25
100
AcDbLine
 10
25.425618255
 20
21.2423965433
 30
0.0
 11
25.970618255
 21
20.6973965433
 31
0.0
  0
LINE
  5
412
330
1F
100
AcDbEntity
  8
0
  6
Continuous
 62
     7
370
    25
100
AcDbLine
 10
25.425618255
 20
21.2423965433
 30
0.0
 11
34.273736004
 21
21.2423965433
 31
0.0
  0
LINE
  5
413
330
1F
100
AcDbEntity
  8
0
  6
Continuous
 62
     7
370
    25
100
AcDbLine
 10
33.728736004
 20
20.6973965433
 30
0.0
 11
34.273736004
 21
21.2423965433
 31
0.0
  0
LINE
  5
414
330
1F
100
AcDbEntity
  8
0
  6
Continuous
 62
     7
370
    25
100
AcDbLine
 10
25.970618255
 20
20.6973965433
 30
0.0
 11
33.728736004
 21
20.6973965433
 31
0.0
  0
ARC
  5
415
330
1F
100
AcDbEntity
  8
0
  6
Continuous
 62
     7
370
    25
100
AcDbCircle
 10
33.9594896865
 20
21.4229199645
 30
0.0
 40
0.3624078553742091
100
AcDbArc
 50
330.1241524861
 51
343.8963119667
  0
LINE
  5
416
330
1F
100
AcDbEntity
  8
0
  6
Continuous
 62
     7
370
    25
100
AcDbLine
 10
34.3076771295
 20
21.2743965433
 30
0.0
 11
34.3076771295
 21
21.3223965433
 31
0.0
  0
ARC
  5
417
330
1F
100
AcDbEntity
  8
0
  6
Continuous
 62
     7
370
    25
100
AcDbCircle
 10
34.2005334171
 20
21.3540396118
 30
0.0
 40
0.1335020354232492
100
AcDbArc
 50
303.2522194719
 51
323.3754938447
  0
ARC
  5
418
330
1F
100
AcDbEntity
  8
0
  6
Continuous
 62
     7
370
    25
100
AcDbCircle
 10
25.7398645912
 20
21.4229199725
 30
0.0
 40
0.3624078756481614
100
AcDbArc
 50
196.1036884204
 51
209.8758471268
  0
LINE
  5
419
330
1F
100
AcDbEntity
  8
0
  6
Continuous
 62
     7
370
    25
100
AcDbLine
 10
25.3916771295
 20
21.3223965433
 30
0.0
 11
34.3076771295
 21
21.3223965433
 31
0.0
  0
ARC
  5
41A
330
1F
100
AcDbEntity
  8
0
  6
Continuous
 62
     7
370
    25
100
AcDbCircle
 10
34.4882005529
 20
20.8942090952
 30
0.0
 40
0.3624078609626415
100
AcDbArc
 50
106.10368814
 51
119.8758474072
  0
ARC
  5
41B
330
1F
100
AcDbEntity
  8
0
  6
Continuous
 62
     7
370
    25
100
AcDbCircle
 10
34.4193201995
 20
21.1352528294
 30
0.0
 40
0.1335020375625417
100
AcDbArc
 50
126.6245063182
 51
146.7477803652
  0
LINE
  5
41C
330
1F
100
AcDbEntity
  8
0
  6
Continuous
 62
     7
370
    25
100
AcDbLine
 10
34.3396771295
 20
21.2423965433
 30
0.0
 11
34.3876771295
 21
21.2423965433
 31
0.0
  0
LINE
  5
41D
330
1F
100
AcDbEntity
  8
0
  6
Continuous
 62
     7
370
    25
100
AcDbLine
 10
34.3876771295
 20
21.2423965433
 30
0.0
 11
34.3876771295
 21
8.5473965433
 31
0.0
  0
LINE
  5
41E
330
1F
100
AcDbEntity
  8
0
  6
Continuous
 62
     7
370
    25
100
AcDbLine
 10
34.3876771295
 20
8.5473965433
 30
0.0
 11
34.3076771295
 21
8.5473965433
 31
0.0
  0
LINE
  5
41F
330
1F
100
AcDbEntity
  8
0
  6
Continuous
 62
     7
370
    25
100
AcDbLine
 10
34.3076771295
 20
21.2084554178
 30
0.0
 11
34.3076771295
 21
8.5473965433
 31
0.0
  0
LINE
  5
420
330
1F
100
AcDbEntity
  8
0
  6
Continuous
 62
     7
370
    25
100
AcDbLine
 10
33.8876771295
 20
8.5473965433
 30
0.0
 11
34.3076771295
 21
8.5473965433
 31
0.0
  0
ARC
  5
421
330
1F
100
AcDbEntity
  8
0
  6
Continuous
 62
     7
370
    25
100
AcDbCircle
 10
33.8876771295
 20
8.6723965433
 30
0.0
 40
0.125
100
AcDbArc
 50
180.0
 51
270.0
  0
LINE
  5
422
330
1F
100
AcDbEntity
  8
0
  6
Continuous
 62
     7
370
    25
100
AcDbLine
 10
33.7626771295
 20
20.6634554178
 30
0.0
 11
33.7626771295
 21
8.6723965433
 31
0.0
  0
LINE
  5
423
330
1F
100
AcDbEntity
  8
0
  6
Continuous
 62
     7
370
    25
100
AcDbLine
 10
34.3076771295
 20
21.2084554178
 30
0.0
 11
33.7626771295
 21
20.6634554178
 31
0.0
  0
LINE
  5
424
330
1F
100
AcDbEntity
  8
0
  6
Continuous
 62
     7
370
    25
100
AcDbLine
 10
25.9366771295
 20
8.6973965433
 30
0.0
 11
25.9366771295
 21
20.6634554178
 31
0.0
  0
ARC
  5
425
330
1F
100
AcDbEntity
  8
0
  6
Continuous
 62
     7
370
    25
100
AcDbCircle
 10
25.8116771295
 20
8.6973965433
 30
0.0
 40
0.1249999999999964
100
AcDbArc
 50
270.0
 51
0.0
  0
LINE
  5
426
330
1F
100
AcDbEntity
  8
0
  6
Continuous
 62
     7
370
    25
100
AcDbLine
 10
25.3916771295
 20
8.5723965433
 30
0.0
 11
25.8116771295
 21
8.5723965433
 31
0.0
  0
LINE
  5
427
330
1F
100
AcDbEntity
  8
0
  6
Continuous
 62
     7
370
    25
100
AcDbLine
 10
25.3916771295
 20
8.5723965433
 30
0.0
 11
25.3916771295
 21
21.2084554178
 31
0.0
  0
LINE
  5
428
330
1F
100
AcDbEntity
  8
0
  6
Continuous
 62
     7
370
    25
100
AcDbLine
 10
25.9366771295
 20
20.6634554178
 30
0.0
 11
25.3916771295
 21
21.2084554178
 31
0.0
  0
ARC
  5
429
330
1F
100
AcDbEntity
  8
0
  6
Continuous
 62
     7
370
    25
100
AcDbCircle
 10
25.4988208473
 20
21.3540396175
 30
0.0
 40
0.1335020431898606
100
AcDbArc
 50
216.6245067467
 51
236.7477799367
  0
LINE
  5
42A
330
1F
100
AcDbEntity
  8
0
  6
Continuous
 62
     7
370
    25
100
AcDbLine
 10
25.3916771295
 20
21.2743965433
 30
0.0
 11
25.3916771295
 21
21.3223965433
 31
0.0
  0
ARC
  5
42B
330
1F
100
AcDbEntity
  8
0
  6
Continuous
 62
     7
370
    25
100
AcDbCircle
 10
25.2111537054
 20
20.8942090936
 30
0.0
 40
0.3624078627119003
100
AcDbArc
 50
60.1241526262
 51
73.8963118266
  0
LINE
  5
42C
330
1F
100
AcDbEntity
  8
0
  6
Continuous
 62
     7
370
    25
100
AcDbLine
 10
25.3596771295
 20
21.2423965433
 30
0.0
 11
25.3116771295
 21
21.2423965433
 31
0.0
  0
ARC
  5
42D
330
1F
100
AcDbEntity
  8
0
  6
Continuous
 62
     7
370
    25
100
AcDbCircle
 10
25.280034059
 20
21.1352528289
 30
0.0
 40
0.1335020382222006
100
AcDbArc
 50
33.252219685
 51
53.3754936316
  0
LINE
  5
42E
330
1F
100
AcDbEntity
  8
0
  6
Continuous
 62
     7
370
    25
100
AcDbLine
 10
25.3916771295
 20
8.5723965433
 30
0.0
 11
25.3116771295
 21
8.5723965433
 31
0.0
  0
LINE
  5
42F
330
1F
100
AcDbEntity
  8
0
  6
Continuous
 62
     7
370
    25
100
AcDbLine
 10
25.3116771295
 20
21.2423965433
 30
0.0
 11
25.3116771295
 21
8.5723965433
 31
0.0
  0
LINE
  5
430
330
1F
100
AcDbEntity
  8
0
  6
Continuous
 62
     7
370
    25
100
AcDbLine
 10
25.3116771295
 20
8.5471965433
 30
0.0
 11
25.3596771295
 21
8.5471965433
 31
0.0
  0
LINE
  5
431
330
1F
100
AcDbEntity
  8
0
  6
Continuous
 62
     7
370
    25
100
AcDbLine
 10
25.3596771295
 20
8.5721965433
 30
0.0
 11
25.3116771295
 21
8.5721965433
 31
0.0
  0
LINE
  5
432
330
1F
100
AcDbEntity
  8
0
  6
Continuous
 62
     7
370
    25
100
AcDbLine
 10
25.3116771295
 20
8.5721965433
 30
0.0
 11
25.3116771295
 21
8.5471965433
 31
0.0
  0
LINE
  5
433
330
1F
100
AcDbEntity
  8
0
  6
Continuous
 62
     7
370
    25
100
AcDbLine
 10
25.3596771295
 20
8.5471965433
 30
0.0
 11
25.3596771295
 21
8.5721965433
 31
0.0
  0
ARC
  5
434
330
1F
100
AcDbEntity
  8
0
  6
Continuous
 62
     7
370
    25
100
AcDbCircle
 10
34.3076771295
 20
21.2423965433
 30
0.0
 40
0.0799999999999983
100
AcDbArc
 50
0.0
 51
90.0
  0
ARC
  5
435
330
1F
100
AcDbEntity
  8
0
  6
Continuous
 62
     7
370
    25
100
AcDbCircle
 10
34.3076771295
 20
21.2423965433
 30
0.0
 40
0.0319999999999965
100
AcDbArc
 50
0.0
 51
90.0
  0
ARC
  5
436
330
1F
100
AcDbEntity
  8
0
  6
Continuous
 62
     7
370
    25
100
AcDbCircle
 10
25.3916771295
 20
21.2423965433
 30
0.0
 40
0.0800000000000018
100
AcDbArc
 50
90.0
 51
180.0
  0
ARC
  5
437
330
1F
100
AcDbEntity
  8
0
  6
Continuous
 62
     7
370
    25
100
AcDbCircle
 10
25.3916771295
 20
21.2423965433
 30
0.0
 40
0.0320000000000036
100
AcDbArc
 50
90.0
 51
180.0
  0
LINE
  5
438
330
1F
100
AcDbEntity
  8
0
  6
Continuous
 62
     7
370
    25
100
AcDbLine
 10
34.3396771295
 20
8.4795965433
 30
0.0
 11
34.3876771295
 21
8.4795965433
 31
0.0
  0
LINE
  5
439
330
1F
100
AcDbEntity
  8
0
  6
Continuous
 62
     7
370
    25
100
AcDbLine
 10
34.3876771295
 20
8.4795965433
 30
0.0
 11
34.3876771295
 21
8.5473965433
 31
0.0
  0
LINE
  5
43A
330
1F
100
AcDbEntity
  8
0
  6
Continuous
 62
     7
370
    25
100
AcDbLine
 10
34.3396771295
 20
8.4795965433
 30
0.0
 11
34.3396771295
 21
8.5473965433
 31
0.0
  0
LINE
  5
43B
330
1F
100
AcDbEntity
  8
0
  6
Continuous
 62
     7
370
    25
100
AcDbLine
 10
25.3596771295
 20
8.4795965433
 30
0.0
 11
25.3116771295
 21
8.4795965433
 31
0.0
  0
LINE
  5
43C
330
1F
100
AcDbEntity
  8
0
  6
Continuous
 62
     7
370
    25
100
AcDbLine
 10
25.3116771295
 20
8.5471965433
 30
0.0
 11
25.3116771295
 21
8.4795965433
 31
0.0
  0
LINE
  5
43D
330
1F
100
AcDbEntity
  8
0
  6
Continuous
 62
     7
370
    25
100
AcDbLine
 10
25.3596771295
 20
8.4795965433
 30
0.0
 11
25.3596771295
 21
8.4798965433
 31
0.0
  0
LINE
  5
43E
330
1F
100
AcDbEntity
  8
0
  6
Continuous
 62
     7
370
    25
100
AcDbLine
 10
25.3116771295
 20
8.5723965433
 30
0.0
 11
25.3116771295
 21
8.5721965433
 31
0.0
  0
LINE
  5
43F
330
1F
100
AcDbEntity
  8
0
  6
Continuous
 62
     7
370
    25
100
AcDbLine
 10
34.3396771295
 20
8.4793965433
 30
0.0
 11
34.3876771295
 21
8.4793965433
 31
0.0
  0
LINE
  5
440
330
1F
100
AcDbEntity
  8
0
  6
Continuous
 62
     7
370
    25
100
AcDbLine
 10
34.3876771295
 20
8.4795965433
 30
0.0
 11
34.3876771295
 21
8.4793965433
 31
0.0
  0
LINE
  5
441
330
1F
100
AcDbEntity
  8
0
  6
Continuous
 62
     7
370
    25
100
AcDbLine
 10
34.3396771295
 20
8.4795965433
 30
0.0
 11
34.3396771295
 21
8.4793965433
 31
0.0
  0
LINE
  5
442
330
1F
100
AcDbEntity
  8
0
  6
Continuous
 62
     7
370
    25
100
AcDbLine
 10
34.2996771295
 20
8.4473965433
 30
0.0
 11
34.3076771295
 21
8.4473965433
 31
0.0
  0
LINE
  5
443
330
1F
100
AcDbEntity
  8
0
  6
Continuous
 62
     7
370
    25
100
AcDbLine
 10
34.3076771295
 20
8.4473965433
 30
0.0
 11
34.3076771295
 21
8.3993965433
 31
0.0
  0
LINE
  5
444
330
1F
100
AcDbEntity
  8
0
  6
Continuous
 62
     7
370
    25
100
AcDbLine
 10
34.3076771295
 20
8.3993965433
 30
0.0
 11
33.8396771295
 21
8.3993965433
 31
0.0
  0
LINE
  5
445
330
1F
100
AcDbEntity
  8
0
  6
Continuous
 62
     7
370
    25
100
AcDbLine
 10
33.8396771295
 20
8.4473965433
 30
0.0
 11
33.8396771295
 21
8.3993965433
 31
0.0
  0
ARC
  5
446
330
1F
100
AcDbEntity
  8
0
  6
Continuous
 62
     7
370
    25
100
AcDbCircle
 10
34.3076771295
 20
8.4793965433
 30
0.0
 40
0.0799999999999983
100
AcDbArc
 50
270.0
 51
0.0
  0
ARC
  5
447
330
1F
100
AcDbEntity
  8
0
  6
Continuous
 62
     7
370
    25
100
AcDbCircle
 10
34.3076771295
 20
8.4793965433
 30
0.0
 40
0.0319999999999983
100
AcDbArc
 50
270.0
 51
0.0
  0
LINE
  5
448
330
1F
100
AcDbEntity
  8
0
  6
Continuous
 62
     7
370
    25
100
AcDbLine
 10
33.7146771295
 20
8.4473965433
 30
0.0
 11
33.7146771295
 21
8.3993965433
 31
0.0
  0
LINE
  5
449
330
1F
100
AcDbEntity
  8
0
  6
Continuous
 62
     7
370
    25
100
AcDbLine
 10
33.7146771295
 20
8.3993965433
 30
0.0
 11
33.8396771295
 21
8.3993965433
 31
0.0
  0
LINE
  5
44A
330
1F
100
AcDbEntity
  8
0
  6
Continuous
 62
     7
370
    25
100
AcDbLine
 10
25.8596771295
 20
8.4473965433
 30
0.0
 11
25.8596771295
 21
8.3993965433
 31
0.0
  0
LINE
  5
44B
330
1F
100
AcDbEntity
  8
0
  6
Continuous
 62
     7
370
    25
100
AcDbLine
 10
25.8596771295
 20
8.3993965433
 30
0.0
 11
25.3916771295
 21
8.3993965433
 31
0.0
  0
LINE
  5
44C
330
1F
100
AcDbEntity
  8
0
  6
Continuous
 62
     7
370
    25
100
AcDbLine
 10
25.3916771295
 20
8.4473965433
 30
0.0
 11
25.3916771295
 21
8.3993965433
 31
0.0
  0
LINE
  5
44D
330
1F
100
AcDbEntity
  8
0
  6
Continuous
 62
     7
370
    25
100
AcDbLine
 10
25.9846771295
 20
8.4473965433
 30
0.0
 11
25.9846771295
 21
8.3993965433
 31
0.0
  0
LINE
  5
44E
330
1F
100
AcDbEntity
  8
0
  6
Continuous
 62
     7
370
    25
100
AcDbLine
 10
25.8596771295
 20
8.3993965433
 30
0.0
 11
25.9846771295
 21
8.3993965433
 31
0.0
  0
LINE
  5
44F
330
1F
100
AcDbEntity
  8
0
  6
Continuous
 62
     7
370
    25
100
AcDbLine
 10
25.3596771295
 20
8.4793965433
 30
0.0
 11
25.3116771295
 21
8.4793965433
 31
0.0
  0
LINE
  5
450
330
1F
100
AcDbEntity
  8
0
  6
Continuous
 62
     7
370
    25
100
AcDbLine
 10
25.3116771295
 20
8.4793965433
 30
0.0
 11
25.3116771295
 21
8.4795965433
 31
0.0
  0
LINE
  5
451
330
1F
100
AcDbEntity
  8
0
  6
Continuous
 62
     7
370
    25
100
AcDbLine
 10
25.3596771295
 20
8.4795965433
 30
0.0
 11
25.3596771295
 21
8.4793965433
 31
0.0
  0
ARC
  5
452
330
1F
100
AcDbEntity
  8
0
  6
Continuous
 62
     7
370
    25
100
AcDbCircle
 10
25.3916771295
 20
8.4793965433
 30
0.0
 40
0.0800000000000018
100
AcDbArc
 50
180.0
 51
270.0
  0
LINE
  5
453
330
1F
100
AcDbEntity
  8
0
  6
Continuous
 62
     7
370
    25
100
AcDbLine
 10
25.3597396906
 20
8.4773965433
 30
0.0
 11
25.3596771295
 21
8.4793965433
 31
0.0
  0
LINE
  5
454
330
1F
100
AcDbEntity
  8
0
  6
Continuous
 62
     7
370
    25
100
AcDbLine
 10
34.3247631755
 20
21.2263965433
 30
0.0
 11
34.2906771295
 21
21.2263965433
 31
0.0
  0
LINE
  5
455
330
1F
100
AcDbEntity
  8
0
  6
Continuous
 62
     7
370
    25
100
AcDbLine
 10
34.2906771295
 20
21.1950416372
 30
0.0
 11
34.2906771295
 21
21.2263965433
 31
0.0
  0
LINE
  5
456
330
1F
100
AcDbEntity
  8
0
  6
Continuous
 62
     7
370
    25
100
AcDbLine
 10
34.2826771295
 20
21.2510892742
 30
0.0
 11
34.2826771295
 21
21.2253965433
 31
0.0
  0
LINE
  5
457
330
1F
100
AcDbEntity
  8
0
  6
Continuous
 62
     7
370
    25
100
AcDbLine
 10
34.2826771295
 20
21.2253965433
 30
0.0
 11
34.256736004
 21
21.2253965433
 31
0.0
  0
LINE
  5
458
330
1F
100
AcDbEntity
  8
0
  6
Continuous
 62
     7
370
    25
100
AcDbLine
 10
25.4166771295
 20
21.2510892742
 30
0.0
 11
25.4166771295
 21
21.2253965433
 31
0.0
  0
LINE
  5
459
330
1F
100
AcDbEntity
  8
0
  6
Continuous
 62
     7
370
    25
100
AcDbLine
 10
25.442618255
 20
21.2253965433
 30
0.0
 11
25.4166771295
 21
21.2253965433
 31
0.0
  0
LINE
  5
45A
330
1F
100
AcDbEntity
  8
0
  6
Continuous
 62
     7
370
    25
100
AcDbLine
 10
25.3745910835
 20
21.2263965433
 30
0.0
 11
25.4086771295
 21
21.2263965433
 31
0.0
  0
LINE
  5
45B
330
1F
100
AcDbEntity
  8
0
  6
Continuous
 62
     7
370
    25
100
AcDbLine
 10
25.4086771295
 20
21.2263965433
 30
0.0
 11
25.4086771295
 21
21.2164234611
 31
0.0
  0
LINE
  5
45C
330
1F
100
AcDbEntity
  8
0
  6
Continuous
 62
     8
370
    25
100
AcDbLine
 10
34.1328382798
 20
8.4798965433
 30
0.0
 11
34.1328382798
 21
8.4773965433
 31
0.0
  0
LINE
  5
45D
330
1F
100
AcDbEntity
  8
0
  6
Continuous
 62
     8
370
    25
100
AcDbLine
 10
25.5665159791
 20
8.4798965433
 30
0.0
 11
25.5665159791
 21
8.4773965433
 31
0.0
  0
DIMENSION
  5
45E
330
1F
100
AcDbEntity
  8
DIMS
100
AcDbDimension
  2
_D_4
 10
27.3456430572
 20
16.1180662616
 30
0.0
 11
21.9732246983
 21
22.8882894982
 31
0.0
 70
   163
  1
%%c3/16"
 71
     1
 42
-1.0
  3
SLDDIMSTYLE3
100
AcDbDiametricDimension
 15
27.3037112018
 25
16.2027537429
 35
0.0
 40
0.0
  0
DIMENSION
  5
468
330
1F
100
AcDbEntity
  8
DIMS
100
AcDbDimension
  2
_D_5
 10
32.3246771295
 20
7.7808491118
 30
0.0
 11
30.0088799057
 21
7.7808491118
 31
0.0
 70
   160
  1
<>
 71
     2
 42
-1.0
  3
SLDDIMSTYLE0
100
AcDbAlignedDimension
 13
27.3246771295
 23
9.9473965433
 33
0.0
 14
32.3246771295
 24
9.9473965433
 34
0.0
100
AcDbRotatedDimension
  0
DIMENSION
  5
473
330
1F
100
AcDbEntity
  8
DIMS
100
AcDbDimension
  2
_D_6
 10
36.1190801508
 20
16.1604100022
 30
0.0
 11
36.1190801508
 21
13.7863690031
 31
0.0
 70
   160
  1
<>
 71
     2
 42
-1.0
  3
SLDDIMSTYLE1
100
AcDbAlignedDimension
 13
32.3246771295
 23
9.9473965433
 33
0.0
 14
32.3246771295
 24
16.1604100022
 34
0.0
 50
90.0
100
AcDbRotatedDimension
  0
DIMENSION
  5
482
330
1F
100
AcDbEntity
  8
DIMS
100
AcDbDimension
  2
_D_7
 10
36.1190801508
 20
16.1604100022
 30
0.0
 11
36.1190801508
 21
19.0022232151
 31
0.0
 70
   160
  1
<>
 71
     2
 42
-1.0
  3
SLDDIMSTYLE1
100
AcDbAlignedDimension
 13
34.3076771295
 23
21.3223965433
 33
0.0
 14
32.3246771295
 24
16.1604100022
 34
0.0
 50
90.0
100
AcDbRotatedDimension
  0
MTEXT
  5
491
330
1F
100
AcDbEntity
  8
NOTES
100
AcDbMText
 10
19.088098513
 20
24.8228082319
 30
0.0
 40
0.75
 41
0.0
 71
     1
 72
     1
  1
mounting hole (4)
  7
SLDTEXTSTYLE1
 73
     1
 44
1.0
  0
LEADER
  5
492
330
1F
100
AcDbEntity
  8
NOTES
100
AcDbLeader
  3
SLDDIMSTYLE2
 76
     3
 10
32.3178360582
 20
16.2071621385
 30
0.0
 10
28.194902857
 20
24.4500218676
 30
0.0
 10
27.694902857
 20
24.4500218676
 30
0.0
  0
MTEXT
  5
493
330
1F
100
AcDbEntity
  8
NOTES
100
AcDbMText
 10
27.54950485
 20
7.0444314168
 30
0.0
 40
0.75
 41
0.0
 71
     1
 72
     1
  1
Back view
  7
SLDTEXTSTYLE1
 73
     1
 44
1.0
  0
ARC
  5
494
330
1F
100
AcDbEntity
  8
0
  6
Continuous
 62
     7
370
    25
100
AcDbCircle
 10
9.3869696627
 20
26.0696040401
 30
0.0
 40
0.0489835586053648
100
AcDbArc
 50
179.1960791668
 51
259.3356754754
  0
ARC
  5
495
330
1F
100
AcDbEntity
  8
0
  6
Continuous
 62
     7
370
    25
100
AcDbCircle
 10
10.190057972
 20
26.0678832484
 30
0.0
 40
0.0467632935374734
100
AcDbArc
 50
280.2402687164
 51
4.6092014474
  0
LINE
  5
496
330
1F
100
AcDbEntity
  8
0
  6
Continuous
 62
     7
370
    25
100
AcDbLine
 10
9.337248425
 20
26.232311434
 30
0.0
 11
9.337248425
 21
26.0707198841
 31
0.0
  0
LINE
  5
497
330
1F
100
AcDbEntity
  8
0
  6
Continuous
 62
     7
370
    25
100
AcDbLine
 10
10.237248425
 20
26.0707198841
 30
0.0
 11
10.237248425
 21
26.232311434
 31
0.0
  0
LINE
  5
498
330
1F
100
AcDbEntity
  8
0
  6
Continuous
 62
     7
370
    25
100
AcDbLine
 10
10.102248425
 20
26.0207236156
 30
0.0
 11
10.102248425
 21
26.0217009757
 31
0.0
  0
LINE
  5
499
330
1F
100
AcDbEntity
  8
0
  6
Continuous
 62
     7
370
    25
100
AcDbLine
 10
9.472248425
 20
26.0217009757
 30
0.0
 11
9.472248425
 21
26.0207236156
 31
0.0
  0
ARC
  5
49A
330
1F
100
AcDbEntity
  8
0
  6
Continuous
 62
     7
370
    25
100
AcDbCircle
 10
12.7477320098
 20
31.734311434
 30
0.0
 40
0.0700000000000026
100
AcDbArc
 50
246.1718108779
 51
270.0
  0
ARC
  5
49B
330
1F
100
AcDbEntity
  8
0
  6
Continuous
 62
     7
370
    25
100
AcDbCircle
 10
11.9087648402
 20
31.734311434
 30
0.0
 40
0.0700000000000033
100
AcDbArc
 50
270.0
 51
293.8281891221
  0
ARC
  5
49C
330
1F
100
AcDbEntity
  8
0
  6
Continuous
 62
     7
370
    25
100
AcDbCircle
 10
7.7477320098
 20
31.734311434
 30
0.0
 40
0.0700000000000003
100
AcDbArc
 50
246.1718108779
 51
270.0
  0
ARC
  5
49D
330
1F
100
AcDbEntity
  8
0
  6
Continuous
 62
     7
370
    25
100
AcDbCircle
 10
6.9087648402
 20
31.734311434
 30
0.0
 40
0.0700000000000003
100
AcDbArc
 50
270.0
 51
293.8281891221
  0
LINE
  5
49E
330
1F
100
AcDbEntity
  8
0
  6
Continuous
 62
     7
370
    25
100
AcDbLine
 10
12.7194523317
 20
31.6702781629
 30
0.0
 11
12.5804059311
 21
31.7316866679
 31
0.0
  0
LINE
  5
49F
330
1F
100
AcDbEntity
  8
0
  6
Continuous
 62
     7
370
    25
100
AcDbLine
 10
12.0760909189
 20
31.7316866679
 30
0.0
 11
11.9370445183
 21
31.6702781629
 31
0.0
  0
LINE
  5
4A0
330
1F
100
AcDbEntity
  8
0
  6
Continuous
 62
     7
370
    25
100
AcDbLine
 10
7.7194523317
 20
31.6702781629
 30
0.0
 11
7.5804059311
 21
31.7316866679
 31
0.0
  0
LINE
  5
4A1
330
1F
100
AcDbEntity
  8
0
  6
Continuous
 62
     7
370
    25
100
AcDbLine
 10
7.0760909189
 20
31.7316866679
 30
0.0
 11
6.9370445183
 21
31.6702781629
 31
0.0
  0
ARC
  5
4A2
330
1F
100
AcDbEntity
  8
0
  6
Continuous
 62
     7
370
    25
100
AcDbCircle
 10
12.1359267732
 20
31.5962011978
 30
0.0
 40
0.1481102362204751
100
AcDbArc
 50
90.0
 51
113.8281891221
  0
ARC
  5
4A3
330
1F
100
AcDbEntity
  8
0
  6
Continuous
 62
     7
370
    25
100
AcDbCircle
 10
12.5205700768
 20
31.5962011978
 30
0.0
 40
0.1481102362204751
100
AcDbArc
 50
66.1718108779
 51
90.0
  0
ARC
  5
4A4
330
1F
100
AcDbEntity
  8
0
  6
Continuous
 62
     7
370
    25
100
AcDbCircle
 10
7.1359267732
 20
31.5962011978
 30
0.0
 40
0.1481102362204751
100
AcDbArc
 50
90.0
 51
113.8281891221
  0
ARC
  5
4A5
330
1F
100
AcDbEntity
  8
0
  6
Continuous
 62
     7
370
    25
100
AcDbCircle
 10
7.5205700768
 20
31.5962011978
 30
0.0
 40
0.1481102362204751
100
AcDbArc
 50
66.1718108779
 51
90.0
  0
LINE
  5
4A6
330
1F
100
AcDbEntity
  8
0
  6
Continuous
 62
     7
370
    25
100
AcDbLine
 10
5.370248425
 20
26.232311434
 30
0.0
 11
14.236248425
 21
26.232311434
 31
0.0
  0
ARC
  5
4A7
330
1F
100
AcDbEntity
  8
0
  6
Continuous
 62
     7
370
    25
100
AcDbCircle
 10
9.8802738432
 20
35.2554057837
 30
0.0
 40
9.240037253723502
100
AcDbArc
 50
269.4231566662
 51
271.8998927587
  0
ARC
  5
4A8
330
1F
100
AcDbEntity
  8
0
  6
Continuous
 62
     7
370
    25
100
AcDbCircle
 10
9.7874726333
 20
12.918230643
 30
0.0
 40
13.1087479206672
100
AcDbArc
 50
88.2533781912
 51
91.748753881
  0
ARC
  5
4A9
330
1F
100
AcDbEntity
  8
0
  6
Continuous
 62
     7
370
    25
100
AcDbCircle
 10
9.694704732
 20
35.3562671828
 30
0.0
 40
9.340888811273542
100
AcDbArc
 50
268.1187223789
 51
270.5676600893
  0
LWPOLYLINE
  5
4AA
330
1F
100
AcDbEntity
  8
0
  6
Continuous
 62
     7
370
    25
100
AcDbPolyline
 90
       25
 70
   128
 43
0.0
 10
10.112248425
 20
26.0207236156
 10
10.110468041
 20
26.0211386485
 10
10.0963417928
 20
26.0219505754
 10
10.0687066812
 20
26.0227088783
 10
10.0287704933
 20
26.0233804156
 10
9.978278632
 20
26.023935838
 10
9.919437834
 20
26.024350871
 10
9.8548197245
 20
26.0246073754
 10
9.787248425
 20
26.0246941409
 10
9.7196771255
 20
26.0246073754
 10
9.655059016
 20
26.024350871
 10
9.596218218
 20
26.023935838
 10
9.5457263567
 20
26.0233804156
 10
9.5057901688
 20
26.0227088783
 10
9.4781550572
 20
26.0219505754
 10
9.464028809
 20
26.0211386485
 10
9.464028809
 20
26.0203085827
 10
9.4781550572
 20
26.0194966558
 10
9.5057901688
 20
26.018738353
 10
9.5457263567
 20
26.0180668156
 10
9.596218218
 20
26.0175113932
 10
9.655059016
 20
26.0170963603
 10
9.7196771255
 20
26.0168398559
 10
9.787248425
 20
26.0167530904
 10
9.787248425
 20
26.0167530904
  0
ARC
  5
4AB
330
1F
100
AcDbEntity
  8
0
  6
Continuous
 62
     7
370
    25
100
AcDbCircle
 10
9.8713598135
 20
32.341614255
 30
0.0
 40
6.325298259856271
100
AcDbArc
 50
269.2380802596
 51
272.0876759039
  0
LINE
  5
4AC
330
1F
100
AcDbEntity
  8
0
  6
Continuous
 62
     7
370
    25
100
AcDbLine
 10
9.742248425
 20
26.0217199026
 30
0.0
 11
9.742248425
 21
26.0171385273
 31
0.0
  0
LINE
  5
4AD
330
1F
100
AcDbEntity
  8
0
  6
Continuous
 62
     7
370
    25
100
AcDbLine
 10
9.742248425
 20
26.0171385273
 30
0.0
 11
9.832248425
 21
26.0171385273
 31
0.0
  0
LINE
  5
4AE
330
1F
100
AcDbEntity
  8
0
  6
Continuous
 62
     7
370
    25
100
AcDbLine
 10
9.832248425
 20
26.0171385273
 30
0.0
 11
9.832248425
 21
26.0217199026
 31
0.0
  0
LINE
  5
4AF
330
1F
100
AcDbEntity
  8
0
  6
Continuous
 62
     7
370
    25
100
AcDbLine
 10
9.832248425
 20
26.0217199026
 30
0.0
 11
9.742248425
 21
26.0217199026
 31
0.0
  0
LINE
  5
4B0
330
1F
100
AcDbEntity
  8
0
  6
Continuous
 62
     7
370
    25
100
AcDbLine
 10
14.2613511344
 20
31.134311434
 30
0.0
 11
14.293248425
 21
31.134311434
 31
0.0
  0
LINE
  5
4B1
330
1F
100
AcDbEntity
  8
0
  6
Continuous
 62
     7
370
    25
100
AcDbLine
 10
14.2672619507
 20
31.164311434
 30
0.0
 11
14.261248425
 21
31.164311434
 31
0.0
  0
LINE
  5
4B2
330
1F
100
AcDbEntity
  8
0
  6
Continuous
 62
     7
370
    25
100
AcDbLine
 10
12.999248425
 20
31.643235903
 30
0.0
 11
12.994248425
 21
31.643235903
 31
0.0
  0
LINE
  5
4B3
330
1F
100
AcDbEntity
  8
0
  6
Continuous
 62
     7
370
    25
100
AcDbLine
 10
12.999248425
 20
31.6633491087
 30
0.0
 11
12.999248425
 21
31.643235903
 31
0.0
  0
LINE
  5
4B4
330
1F
100
AcDbEntity
  8
0
  6
Continuous
 62
     7
370
    25
100
AcDbLine
 10
12.999248425
 20
31.6633491087
 30
0.0
 11
13.022248425
 21
31.6633491087
 31
0.0
  0
LINE
  5
4B5
330
1F
100
AcDbEntity
  8
0
  6
Continuous
 62
     7
370
    25
100
AcDbLine
 10
6.657248425
 20
31.6633491087
 30
0.0
 11
6.634248425
 21
31.6633491087
 31
0.0
  0
LINE
  5
4B6
330
1F
100
AcDbEntity
  8
0
  6
Continuous
 62
     7
370
    25
100
AcDbLine
 10
6.657248425
 20
31.6633491087
 30
0.0
 11
6.657248425
 21
31.643235903
 31
0.0
  0
LINE
  5
4B7
330
1F
100
AcDbEntity
  8
0
  6
Continuous
 62
     7
370
    25
100
AcDbLine
 10
6.657248425
 20
31.643235903
 30
0.0
 11
6.662248425
 21
31.643235903
 31
0.0
  0
LINE
  5
4B8
330
1F
100
AcDbEntity
  8
0
  6
Continuous
 62
     7
370
    25
100
AcDbLine
 10
12.994248425
 20
31.643235903
 30
0.0
 11
6.662248425
 21
31.643235903
 31
0.0
  0
LINE
  5
4B9
330
1F
100
AcDbEntity
  8
0
  6
Continuous
 62
     7
370
    25
100
AcDbLine
 10
6.634248425
 20
31.6633491087
 30
0.0
 11
6.634248425
 21
31.212311434
 31
0.0
  0
LINE
  5
4BA
330
1F
100
AcDbEntity
  8
0
  6
Continuous
 62
     7
370
    25
100
AcDbLine
 10
13.022248425
 20
31.6633491087
 30
0.0
 11
13.022248425
 21
31.212311434
 31
0.0
  0
LINE
  5
4BB
330
1F
100
AcDbEntity
  8
0
  6
Continuous
 62
     7
370
    25
100
AcDbLine
 10
13.023248425
 20
31.6253811243
 30
0.0
 11
13.053248425
 21
31.6253811243
 31
0.0
  0
LINE
  5
4BC
330
1F
100
AcDbEntity
  8
0
  6
Continuous
 62
     7
370
    25
100
AcDbLine
 10
13.053248425
 20
31.212311434
 30
0.0
 11
13.053248425
 21
31.6253811243
 31
0.0
  0
LINE
  5
4BD
330
1F
100
AcDbEntity
  8
0
  6
Continuous
 62
     7
370
    25
100
AcDbLine
 10
13.023248425
 20
31.212311434
 30
0.0
 11
13.023248425
 21
31.6253811243
 31
0.0
  0
LINE
  5
4BE
330
1F
100
AcDbEntity
  8
0
  6
Continuous
 62
     7
370
    25
100
AcDbLine
 10
6.633248425
 20
31.6253811243
 30
0.0
 11
6.603248425
 21
31.6253811243
 31
0.0
  0
LINE
  5
4BF
330
1F
100
AcDbEntity
  8
0
  6
Continuous
 62
     7
370
    25
100
AcDbLine
 10
6.633248425
 20
31.212311434
 30
0.0
 11
6.633248425
 21
31.6253811243
 31
0.0
  0
LINE
  5
4C0
330
1F
100
AcDbEntity
  8
0
  6
Continuous
 62
     7
370
    25
100
AcDbLine
 10
6.603248425
 20
31.212311434
 30
0.0
 11
6.603248425
 21
31.6253811243
 31
0.0
  0
LINE
  5
4C1
330
1F
100
AcDbEntity
  8
0
  6
Continuous
 62
     7
370
    25
100
AcDbLine
 10
13.053248425
 20
31.634311434
 30
0.0
 11
13.023248425
 21
31.634311434
 31
0.0
  0
LINE
  5
4C2
330
1F
100
AcDbEntity
  8
0
  6
Continuous
 62
     7
370
    25
100
AcDbLine
 10
13.053248425
 20
31.6253811243
 30
0.0
 11
13.053248425
 21
31.634311434
 31
0.0
  0
LINE
  5
4C3
330
1F
100
AcDbEntity
  8
0
  6
Continuous
 62
     7
370
    25
100
AcDbLine
 10
13.023248425
 20
31.634311434
 30
0.0
 11
13.023248425
 21
31.6253811243
 31
0.0
  0
LINE
  5
4C4
330
1F
100
AcDbEntity
  8
0
  6
Continuous
 62
     7
370
    25
100
AcDbLine
 10
6.603248425
 20
31.634311434
 30
0.0
 11
6.633248425
 21
31.634311434
 31
0.0
  0
LINE
  5
4C5
330
1F
100
AcDbEntity
  8
0
  6
Continuous
 62
     7
370
    25
100
AcDbLine
 10
6.633248425
 20
31.634311434
 30
0.0
 11
6.633248425
 21
31.6253811243
 31
0.0
  0
LINE
  5
4C6
330
1F
100
AcDbEntity
  8
0
  6
Continuous
 62
     7
370
    25
100
AcDbLine
 10
6.603248425
 20
31.6253811243
 30
0.0
 11
6.603248425
 21
31.634311434
 31
0.0
  0
LINE
  5
4C7
330
1F
100
AcDbEntity
  8
0
  6
Continuous
 62
     7
370
    25
100
AcDbLine
 10
12.994248425
 20
31.664311434
 30
0.0
 11
6.662248425
 21
31.664311434
 31
0.0
  0
LINE
  5
4C8
330
1F
100
AcDbEntity
  8
0
  6
Continuous
 62
     7
370
    25
100
AcDbLine
 10
12.994248425
 20
31.664311434
 30
0.0
 11
12.994248425
 21
31.643235903
 31
0.0
  0
LINE
  5
4C9
330
1F
100
AcDbEntity
  8
0
  6
Continuous
 62
     7
370
    25
100
AcDbLine
 10
6.662248425
 20
31.664311434
 30
0.0
 11
6.662248425
 21
31.643235903
 31
0.0
  0
LINE
  5
4CA
330
1F
100
AcDbEntity
  8
0
  6
Continuous
 62
     7
370
    25
100
AcDbLine
 10
12.994248425
 20
31.664311434
 30
0.0
 11
13.0048610742
 21
31.6633491087
 31
0.0
  0
ARC
  5
4CB
330
1F
100
AcDbEntity
  8
0
  6
Continuous
 62
     7
370
    25
100
AcDbCircle
 10
12.994248425
 20
31.605311434
 30
0.0
 40
0.0590000000000005
100
AcDbArc
 50
29.4408926488
 51
61.6682353255
  0
LWPOLYLINE
  5
4CC
330
1F
100
AcDbEntity
  8
0
  6
Continuous
 62
     7
370
    25
100
AcDbPolyline
 90
        3
 70
   128
 43
0.0
 10
13.022248425
 20
31.6128612685
 10
13.0226911981
 20
31.6109690534
 10
13.023248425
 20
31.605311434
  0
LWPOLYLINE
  5
4CD
330
1F
100
AcDbEntity
  8
0
  6
Continuous
 62
     7
370
    25
100
AcDbPolyline
 90
        3
 70
   128
 43
0.0
 10
6.634248425
 20
31.6128612685
 10
6.6338056519
 20
31.6109690534
 10
6.633248425
 20
31.605311434
  0
LINE
  5
4CE
330
1F
100
AcDbEntity
  8
0
  6
Continuous
 62
     7
370
    25
100
AcDbLine
 10
6.662248425
 20
31.664311434
 30
0.0
 11
6.6516357758
 21
31.6633491087
 31
0.0
  0
ARC
  5
4CF
330
1F
100
AcDbEntity
  8
0
  6
Continuous
 62
     7
370
    25
100
AcDbCircle
 10
6.662248425
 20
31.605311434
 30
0.0
 40
0.0590000000000013
100
AcDbArc
 50
118.3317646745
 51
150.5591073512
  0
LINE
  5
4D0
330
1F
100
AcDbEntity
  8
0
  6
Continuous
 62
     7
370
    25
100
AcDbLine
 10
12.1359267732
 20
31.744311434
 30
0.0
 11
12.5205700536
 21
31.744311434
 31
0.0
  0
LINE
  5
4D1
330
1F
100
AcDbEntity
  8
0
  6
Continuous
 62
     7
370
    25
100
AcDbLine
 10
7.1359267732
 20
31.744311434
 30
0.0
 11
7.5205700536
 21
31.744311434
 31
0.0
  0
LINE
  5
4D2
330
1F
100
AcDbEntity
  8
0
  6
Continuous
 62
     7
370
    25
100
AcDbLine
 10
14.261248425
 20
31.132311434
 30
0.0
 11
5.345248425
 21
31.132311434
 31
0.0
  0
LWPOLYLINE
  5
4D3
330
1F
100
AcDbEntity
  8
0
  6
Continuous
 62
     7
370
    25
100
AcDbPolyline
 90
        7
 70
   128
 43
0.0
 10
5.3791895505
 20
31.212311434
 10
5.3672868169
 20
31.2068972646
 10
5.3561395703
 20
31.190988755
 10
5.3513113603
 20
31.1786715394
 10
5.3479754306
 20
31.1651564338
 10
5.345903091
 20
31.1492245241
 10
5.345248425
 20
31.132311434
  0
LINE
  5
4D4
330
1F
100
AcDbEntity
  8
0
  6
Continuous
 62
     7
370
    25
100
AcDbLine
 10
14.2273072995
 20
31.212311434
 30
0.0
 11
5.3791895505
 21
31.212311434
 31
0.0
  0
LWPOLYLINE
  5
4D5
330
1F
100
AcDbEntity
  8
0
  6
Continuous
 62
     7
370
    25
100
AcDbPolyline
 90
        7
 70
   128
 43
0.0
 10
14.2273072995
 20
31.212311434
 10
14.2392100331
 20
31.2068972646
 10
14.2503572797
 20
31.190988755
 10
14.2551854897
 20
31.1786715394
 10
14.2585214194
 20
31.1651564338
 10
14.260593759
 20
31.1492245241
 10
14.261248425
 20
31.132311434
  0
LINE
  5
4D6
330
1F
100
AcDbEntity
  8
0
  6
Continuous
 62
     7
370
    25
100
AcDbLine
 10
14.261248425
 20
31.132311434
 30
0.0
 11
14.261248425
 21
26.280311434
 31
0.0
  0
LINE
  5
4D7
330
1F
100
AcDbEntity
  8
0
  6
Continuous
 62
     7
370
    25
100
AcDbLine
 10
14.341248425
 20
26.280311434
 30
0.0
 11
14.341248425
 21
31.132311434
 31
0.0
  0
LINE
  5
4D8
330
1F
100
AcDbEntity
  8
0
  6
Continuous
 62
     7
370
    25
100
AcDbLine
 10
14.341248425
 20
26.280311434
 30
0.0
 11
14.261248425
 21
26.280311434
 31
0.0
  0
LINE
  5
4D9
330
1F
100
AcDbEntity
  8
0
  6
Continuous
 62
     7
370
    25
100
AcDbLine
 10
14.341248425
 20
31.132311434
 30
0.0
 11
14.261248425
 21
31.132311434
 31
0.0
  0
LINE
  5
4DA
330
1F
100
AcDbEntity
  8
0
  6
Continuous
 62
     7
370
    25
100
AcDbLine
 10
14.261248425
 20
26.280311434
 30
0.0
 11
14.236448425
 21
26.280311434
 31
0.0
  0
LINE
  5
4DB
330
1F
100
AcDbEntity
  8
0
  6
Continuous
 62
     7
370
    25
100
AcDbLine
 10
14.236448425
 20
26.281011434
 30
0.0
 11
14.236448425
 21
26.280311434
 31
0.0
  0
LINE
  5
4DC
330
1F
100
AcDbEntity
  8
0
  6
Continuous
 62
     7
370
    25
100
AcDbLine
 10
14.236248425
 20
26.281011434
 30
0.0
 11
14.236448425
 21
26.281011434
 31
0.0
  0
LINE
  5
4DD
330
1F
100
AcDbEntity
  8
0
  6
Continuous
 62
     7
370
    25
100
AcDbLine
 10
14.236248425
 20
26.280811434
 30
0.0
 11
14.236248425
 21
26.281011434
 31
0.0
  0
LINE
  5
4DE
330
1F
100
AcDbEntity
  8
0
  6
Continuous
 62
     7
370
    25
100
AcDbLine
 10
5.370248425
 20
26.280811434
 30
0.0
 11
14.236248425
 21
26.280811434
 31
0.0
  0
LINE
  5
4DF
330
1F
100
AcDbEntity
  8
0
  6
Continuous
 62
     7
370
    25
100
AcDbLine
 10
5.370248425
 20
26.280811434
 30
0.0
 11
5.370248425
 21
26.281011434
 31
0.0
  0
LINE
  5
4E0
330
1F
100
AcDbEntity
  8
0
  6
Continuous
 62
     7
370
    25
100
AcDbLine
 10
5.370048425
 20
26.281011434
 30
0.0
 11
5.370248425
 21
26.281011434
 31
0.0
  0
LINE
  5
4E1
330
1F
100
AcDbEntity
  8
0
  6
Continuous
 62
     7
370
    25
100
AcDbLine
 10
5.370048425
 20
26.280311434
 30
0.0
 11
5.370048425
 21
26.281011434
 31
0.0
  0
LINE
  5
4E2
330
1F
100
AcDbEntity
  8
0
  6
Continuous
 62
     7
370
    25
100
AcDbLine
 10
5.370048425
 20
26.280311434
 30
0.0
 11
5.345248425
 21
26.280311434
 31
0.0
  0
LINE
  5
4E3
330
1F
100
AcDbEntity
  8
0
  6
Continuous
 62
     7
370
    25
100
AcDbLine
 10
5.345248425
 20
31.132311434
 30
0.0
 11
5.345248425
 21
26.280311434
 31
0.0
  0
LINE
  5
4E4
330
1F
100
AcDbEntity
  8
0
  6
Continuous
 62
     7
370
    25
100
AcDbLine
 10
5.265248425
 20
26.280311434
 30
0.0
 11
5.345248425
 21
26.280311434
 31
0.0
  0
LINE
  5
4E5
330
1F
100
AcDbEntity
  8
0
  6
Continuous
 62
     7
370
    25
100
AcDbLine
 10
5.265248425
 20
31.132311434
 30
0.0
 11
5.265248425
 21
26.280311434
 31
0.0
  0
LINE
  5
4E6
330
1F
100
AcDbEntity
  8
0
  6
Continuous
 62
     7
370
    25
100
AcDbLine
 10
5.345248425
 20
31.132311434
 30
0.0
 11
5.265248425
 21
31.132311434
 31
0.0
  0
LINE
  5
4E7
330
1F
100
AcDbEntity
  8
0
  6
Continuous
 62
     7
370
    25
100
AcDbLine
 10
5.370248425
 20
26.280811434
 30
0.0
 11
5.370248425
 21
26.232311434
 31
0.0
  0
LINE
  5
4E8
330
1F
100
AcDbEntity
  8
0
  6
Continuous
 62
     7
370
    25
100
AcDbLine
 10
14.236248425
 20
26.232311434
 30
0.0
 11
14.236248425
 21
26.280811434
 31
0.0
  0
LINE
  5
4E9
330
1F
100
AcDbEntity
  8
0
  6
Continuous
 62
     7
370
    25
100
AcDbLine
 10
14.261248425
 20
31.164311434
 30
0.0
 11
14.261248425
 21
31.212311434
 31
0.0
  0
ARC
  5
4EA
330
1F
100
AcDbEntity
  8
0
  6
Continuous
 62
     7
370
    25
100
AcDbCircle
 10
14.261248425
 20
31.132311434
 30
0.0
 40
0.0799999999999983
100
AcDbArc
 50
0.0
 51
90.0
  0
ARC
  5
4EB
330
1F
100
AcDbEntity
  8
0
  6
Continuous
 62
     7
370
    25
100
AcDbCircle
 10
14.261248425
 20
31.132311434
 30
0.0
 40
0.0320000000000071
100
AcDbArc
 50
0.0
 51
90.0
  0
ARC
  5
4EC
330
1F
100
AcDbEntity
  8
0
  6
Continuous
 62
     7
370
    25
100
AcDbCircle
 10
5.345248425
 20
31.132311434
 30
0.0
 40
0.0799999999999983
100
AcDbArc
 50
90.0
 51
180.0
  0
LINE
  5
4ED
330
1F
100
AcDbEntity
  8
0
  6
Continuous
 62
     7
370
    25
100
AcDbLine
 10
5.345248425
 20
31.164311434
 30
0.0
 11
5.345248425
 21
31.212311434
 31
0.0
  0
ARC
  5
4EE
330
1F
100
AcDbEntity
  8
0
  6
Continuous
 62
     7
370
    25
100
AcDbCircle
 10
5.345248425
 20
31.132311434
 30
0.0
 40
0.0320000000000036
100
AcDbArc
 50
90.0
 51
180.0
  0
ARC
  5
4EF
330
1F
100
AcDbEntity
  8
0
  6
Continuous
 62
     7
370
    25
100
AcDbCircle
 10
14.292748425
 20
26.280811434
 30
0.0
 40
0.0485000000000007
100
AcDbArc
 50
180.0
 51
0.0
  0
ARC
  5
4F0
330
1F
100
AcDbEntity
  8
0
  6
Continuous
 62
     7
370
    25
100
AcDbCircle
 10
5.313748425
 20
26.280811434
 30
0.0
 40
0.0484999999999989
100
AcDbArc
 50
180.0
 51
0.0
  0
LINE
  5
4F1
330
1F
100
AcDbEntity
  8
0
  6
Continuous
 62
     7
370
    25
100
AcDbLine
 10
5.345248425
 20
31.212311434
 30
0.0
 11
5.3791895505
 21
31.212311434
 31
0.0
  0
LINE
  5
4F2
330
1F
100
AcDbEntity
  8
0
  6
Continuous
 62
     7
370
    25
100
AcDbLine
 10
14.2273072995
 20
31.212311434
 30
0.0
 11
14.261248425
 21
31.212311434
 31
0.0
  0
LINE
  5
4F3
330
1F
100
AcDbEntity
  8
0
  6
Continuous
 62
     7
370
    25
100
AcDbLine
 10
14.293248425
 20
31.212311434
 30
0.0
 11
14.341248425
 21
31.212311434
 31
0.0
  0
LINE
  5
4F4
330
1F
100
AcDbEntity
  8
0
  6
Continuous
 62
     7
370
    25
100
AcDbLine
 10
14.293248425
 20
31.2049781801
 30
0.0
 11
14.293248425
 21
31.212311434
 31
0.0
  0
LINE
  5
4F5
330
1F
100
AcDbEntity
  8
0
  6
Continuous
 62
     7
370
    25
100
AcDbLine
 10
14.341248425
 20
31.132311434
 30
0.0
 11
14.341248425
 21
31.212311434
 31
0.0
  0
LWPOLYLINE
  5
4F6
330
1F
100
AcDbEntity
  8
0
  6
Continuous
 62
     8
370
    25
100
AcDbPolyline
 90
        3
 70
   128
 43
0.0
 10
10.1866116415
 20
26.0204479818
 10
10.1867953607
 20
26.0204910923
 10
10.1870217655
 20
26.0208881039
  0
LWPOLYLINE
  5
4F7
330
1F
100
AcDbEntity
  8
0
  6
Continuous
 62
     8
370
    25
100
AcDbPolyline
 90
        3
 70
   128
 43
0.0
 10
9.3874359295
 20
26.020873227
 10
9.3877014893
 20
26.0204910923
 10
9.3880565312
 20
26.0204131423
  0
ARC
  5
4F8
330
1F
100
AcDbEntity
  8
0
  6
Continuous
 62
     8
370
    25
100
AcDbCircle
 10
9.7872891849
 20
12.3321258298
 30
0.0
 40
13.74596233511311
100
AcDbArc
 50
88.1241495057
 51
91.8761905504
  0
LINE
  5
4F9
330
1F
100
AcDbEntity
  8
0
  6
Continuous
 62
     8
370
    25
100
AcDbLine
 10
11.9370445183
 20
31.6702781629
 30
0.0
 11
12.7194523317
 21
31.6702781629
 31
0.0
  0
LINE
  5
4FA
330
1F
100
AcDbEntity
  8
0
  6
Continuous
 62
     8
370
    25
100
AcDbLine
 10
6.9370445183
 20
31.6702781629
 30
0.0
 11
7.7194523317
 21
31.6702781629
 31
0.0
  0
LINE
  5
4FB
330
1F
100
AcDbEntity
  8
0
  6
Continuous
 62
     8
370
    25
100
AcDbLine
 10
12.5804059311
 20
31.7316866679
 30
0.0
 11
12.0760909189
 21
31.7316866679
 31
0.0
  0
LINE
  5
4FC
330
1F
100
AcDbEntity
  8
0
  6
Continuous
 62
     8
370
    25
100
AcDbLine
 10
7.5804059311
 20
31.7316866679
 30
0.0
 11
7.0760909189
 21
31.7316866679
 31
0.0
  0
DIMENSION
  5
4FD
330
1F
100
AcDbEntity
  8
DIMS
100
AcDbDimension
  2
_D_8
 10
16.2472774437
 20
26.2323114349
 30
0.0
 11
16.2472774435
 21
28.838565934
 31
0.0
 70
   160
  1
<>
 71
     2
 42
-1.0
  3
SLDDIMSTYLE1
100
AcDbAlignedDimension
 13
12.5205700768
 23
31.744311434
 33
0.0
 14
14.3486996061
 24
26.2323114348
 34
0.0
 50
90.0
100
AcDbRotatedDimension
  0
MTEXT
  5
50C
330
1F
100
AcDbEntity
  8
NOTES
100
AcDbMText
 10
7.7525463281
 20
25.739631362
 30
0.0
 40
0.75
 41
0.0
 71
     1
 72
     1
  1
Top view
  7
SLDTEXTSTYLE1
 73
     1
 44
1.0
  0
ENDSEC
  0
SECTION
  2
OBJECTS
  0
DICTIONARY
  5
C
330
0
100
AcDbDictionary
281
     1
  3
ACAD_DETAILVIEWSTYLE
350
516
  3
ACAD_GROUP
350
D
  3
ACAD_LAYOUT
350
1A
  3
ACAD_MATERIAL
350
43
  3
ACAD_MLEADERSTYLE
350
6B
  3
ACAD_MLINESTYLE
350
17
  3
ACAD_PLOTSETTINGS
350
19
  3
ACAD_PLOTSTYLENAME
350
E
  3
ACAD_SCALELIST
350
47
  3
ACAD_SECTIONVIEWSTYLE
350
517
  3
ACAD_TABLESTYLE
350
69
  3
ACDB_RECOMPOSE_DATA
350
513
  3
AcDbVariableDictionary
350
50D
  0
DICTIONARY
  5
516
102
{ACAD_REACTORS
330
C
102
}
330
C
100
AcDbDictionary
281
     1
  0
DICTIONARY
  5
D
102
{ACAD_REACTORS
330
C
102
}
330
C
100
AcDbDictionary
281
     1
  0
DICTIONARY
  5
1A
102
{ACAD_REACTORS
330
C
102
}
330
C
100
AcDbDictionary
281
     1
  3
Layout1
350
1E
  3
Layout2
350
26
  3
Model
350
22
  0
DICTIONARY
  5
43
102
{ACAD_REACTORS
330
C
102
}
330
C
100
AcDbDictionary
281
     1
  3
ByBlock
350
45
  3
ByLayer
350
44
  3
Global
350
46
  0
DICTIONARY
  5
6B
102
{ACAD_REACTORS
330
C
102
}
330
C
100
AcDbDictionary
281
     1
  3
Standard
350
6C
  0
DICTIONARY
  5
17
102
{ACAD_REACTORS
330
C
102
}
330
C
100
AcDbDictionary
281
     1
  3
Standard
350
18
  0
DICTIONARY
  5
19
102
{ACAD_REACTORS
330
C
102
}
330
C
100
AcDbDictionary
281
     1
  0
ACDBDICTIONARYWDFLT
  5
E
102
{ACAD_REACTORS
330
C
102
}
330
C
100
AcDbDictionary
281
     1
  3
Normal
350
F
100
AcDbDictionaryWithDefault
340
F
  0
DICTIONARY
  5
47
102
{ACAD_REACTORS
330
C
102
}
330
C
100
AcDbDictionary
281
     1
  3
A0
350
48
  3
A1
350
49
  3
A2
350
4A
  3
A3
350
4B
  3
A4
350
4C
  3
A5
350
4D
  3
A6
350
4E
  3
A7
350
4F
  3
A8
350
50
  3
A9
350
51
  3
B0
350
52
  3
B1
350
53
  3
B2
350
54
  3
B3
350
55
  3
B4
350
56
  3
B5
350
57
  3
B6
350
58
  3
B7
350
59
  3
B8
350
5A
  3
B9
350
5B
  3
C0
350
5C
  3
C1
350
5D
  3
C2
350
5E
  3
C3
350
5F
  3
C4
350
60
  3
C5
350
61
  3
C6
350
62
  3
C7
350
63
  3
C8
350
64
  3
C9
350
65
  3
D0
350
66
  3
D1
350
67
  3
D2
350
68
  0
DICTIONARY
  5
517
102
{ACAD_REACTORS
330
C
102
}
330
C
100
AcDbDictionary
281
     1
  0
DICTIONARY
  5
69
102
{ACAD_REACTORS
330
C
102
}
330
C
100
AcDbDictionary
281
     1
  3
Standard
350
6A
  0
XRECORD
  5
513
102
{ACAD_REACTORS
330
C
102
}
330
C
100
AcDbXrecord
280
     1
 90
        1
330
6A
  0
DICTIONARY
  5
50D
102
{ACAD_REACTORS
330
C
102
}
330
C
100
AcDbDictionary
281
     1
  3
CANNOSCALE
350
50E
  3
CMLEADERSTYLE
350
515
  3
CTABLESTYLE
350
514
  0
LAYOUT
  5
1E
102
{ACAD_REACTORS
330
1A
102
}
330
1A
100
AcDbPlotSettings
  1

  2
none_device
  4

  6

 40
0.0
 41
0.0
 42
0.0
 43
0.0
 44
0.0
 45
0.0
 46
0.0
 47
0.0
 48
0.0
 49
0.0
140
0.0
141
0.0
142
1.0
143
1.0
 70
   688
 72
     0
 73
     0
 74
     5
  7

 75
    16
 76
     0
 77
     2
 78
   300
147
1.0
148
0.0
149
0.0
100
AcDbLayout
  1
Layout1
 70
     1
 71
     1
 10
0.0
 20
0.0
 11
12.0
 21
9.0
 12
0.0
 22
0.0
 32
0.0
 14
1.0000000000E+20
 24
1.0000000000E+20
 34
1.0000000000E+20
 15
-1.0000000000E+20
 25
-1.0000000000E+20
 35
-1.0000000000E+20
146
0.0
 13
0.0
 23
0.0
 33
0.0
 16
1.0
 26
0.0
 36
0.0
 17
0.0
 27
1.0
 37
0.0
 76
     0
330
1B
  0
LAYOUT
  5
26
102
{ACAD_REACTORS
330
1A
102
}
330
1A
100
AcDbPlotSettings
  1

  2
none_device
  4

  6

 40
0.0
 41
0.0
 42
0.0
 43
0.0
 44
0.0
 45
0.0
 46
0.0
 47
0.0
 48
0.0
 49
0.0
140
0.0
141
0.0
142
1.0
143
1.0
 70
   688
 72
     0
 73
     0
 74
     5
  7

 75
    16
 76
     0
 77
     2
 78
   300
147
1.0
148
0.0
149
0.0
100
AcDbLayout
  1
Layout2
 70
     1
 71
     2
 10
0.0
 20
0.0
 11
0.0
 21
0.0
 12
0.0
 22
0.0
 32
0.0
 14
0.0
 24
0.0
 34
0.0
 15
0.0
 25
0.0
 35
0.0
146
0.0
 13
0.0
 23
0.0
 33
0.0
 16
1.0
 26
0.0
 36
0.0
 17
0.0
 27
1.0
 37
0.0
 76
     0
330
23
  0
LAYOUT
  5
22
102
{ACAD_REACTORS
330
1A
102
}
330
1A
100
AcDbPlotSettings
  1

  2
none_device
  4
Letter_(8.50_x_11.00_Inches)
  6

 40
6.35
 41
6.35
 42
6.35000508
 43
6.35000508
 44
215.9
 45
279.4
 46
0.0
 47
0.0
 48
0.0
 49
0.0
140
0.0
141
0.0
142
1.0
143
1.0
 70
  1712
 72
     0
 73
     0
 74
     0
  7

 75
     0
 76
     0
 77
     2
 78
   300
147
1.0
148
0.0
149
0.0
100
AcDbLayout
  1
Model
 70
     1
 71
     0
 10
0.0
 20
0.0
 11
46.811023622
 21
33.1102362205
 12
0.0
 22
0.0
 32
0.0
 14
0.0
 24
0.0
 34
0.0
 15
46.811023622
 25
33.1102362205
 35
0.0
146
0.0
 13
0.0
 23
0.0
 33
0.0
 16
1.0
 26
0.0
 36
0.0
 17
0.0
 27
1.0
 37
0.0
 76
     0
330
1F
331
29
  0
MATERIAL
  5
45
102
{ACAD_REACTORS
330
43
102
}
330
43
100
AcDbMaterial
  1
ByBlock
  0
MATERIAL
  5
44
102
{ACAD_REACTORS
330
43
102
}
330
43
100
AcDbMaterial
  1
ByLayer
  0
MATERIAL
  5
46
102
{ACAD_REACTORS
330
43
102
}
330
43
100
AcDbMaterial
  1
Global
  0
MLEADERSTYLE
  5
6C
102
{ACAD_REACTORS
330
6B
102
}
330
6B
100
AcDbMLeaderStyle
170
     2
171
     1
172
     0
 90
        2
 40
0.0
 41
0.0
173
     1
 91
-1056964608
340
14
 92
       -2
290
     1
 42
0.09
291
     1
 43
0.36
  3
Standard
341
0
 44
0.18
300

342
11
174
     1
178
     6
175
     1
176
     0
 93
-1056964608
 45
0.18
292
     0
297
     0
 46
0.18
343
0
 94
-1056964608
 47
1.0
 49
1.0
140
1.0
293
     1
141
0.0
294
     1
177
     0
142
1.0
295
     0
296
     0
143
0.125
1001
ACAD_MLEADERVER
1070
     2
  0
MLINESTYLE
  5
18
102
{ACAD_REACTORS
330
17
102
}
330
17
100
AcDbMlineStyle
  2
Standard
 70
     0
  3

 62
   256
 51
90.0
 52
90.0
 71
     2
 49
0.5
 62
   256
  6
BYLAYER
 49
-0.5
 62
   256
  6
BYLAYER
  0
ACDBPLACEHOLDER
  5
F
102
{ACAD_REACTORS
330
E
102
}
330
E
  0
SCALE
  5
48
102
{ACAD_REACTORS
330
47
102
}
330
47
100
AcDbScale
 70
     0
300
1:1
140
1.0
141
1.0
290
     1
  0
SCALE
  5
49
102
{ACAD_REACTORS
330
47
102
}
330
47
100
AcDbScale
 70
     0
300
1:2
140
1.0
141
2.0
290
     0
  0
SCALE
  5
4A
102
{ACAD_REACTORS
330
47
102
}
330
47
100
AcDbScale
 70
     0
300
1:4
140
1.0
141
4.0
290
     0
  0
SCALE
  5
4B
102
{ACAD_REACTORS
330
47
102
}
330
47
100
AcDbScale
 70
     0
300
1:5
140
1.0
141
5.0
290
     0
  0
SCALE
  5
4C
102
{ACAD_REACTORS
330
47
102
}
330
47
100
AcDbScale
 70
     0
300
1:8
140
1.0
141
8.0
290
     0
  0
SCALE
  5
4D
102
{ACAD_REACTORS
330
47
102
}
330
47
100
AcDbScale
 70
     0
300
1:10
140
1.0
141
10.0
290
     0
  0
SCALE
  5
4E
102
{ACAD_REACTORS
330
47
102
}
330
47
100
AcDbScale
 70
     0
300
1:16
140
1.0
141
16.0
290
     0
  0
SCALE
  5
4F
102
{ACAD_REACTORS
330
47
102
}
330
47
100
AcDbScale
 70
     0
300
1:20
140
1.0
141
20.0
290
     0
  0
SCALE
  5
50
102
{ACAD_REACTORS
330
47
102
}
330
47
100
AcDbScale
 70
     0
300
1:30
140
1.0
141
30.0
290
     0
  0
SCALE
  5
51
102
{ACAD_REACTORS
330
47
102
}
330
47
100
AcDbScale
 70
     0
300
1:40
140
1.0
141
40.0
290
     0
  0
SCALE
  5
52
102
{ACAD_REACTORS
330
47
102
}
330
47
100
AcDbScale
 70
     0
300
1:50
140
1.0
141
50.0
290
     0
  0
SCALE
  5
53
102
{ACAD_REACTORS
330
47
102
}
330
47
100
AcDbScale
 70
     0
300
1:100
140
1.0
141
100.0
290
     0
  0
SCALE
  5
54
102
{ACAD_REACTORS
330
47
102
}
330
47
100
AcDbScale
 70
     0
300
2:1
140
2.0
141
1.0
290
     0
  0
SCALE
  5
55
102
{ACAD_REACTORS
330
47
102
}
330
47
100
AcDbScale
 70
     0
300
4:1
140
4.0
141
1.0
290
     0
  0
SCALE
  5
56
102
{ACAD_REACTORS
330
47
102
}
330
47
100
AcDbScale
 70
     0
300
8:1
140
8.0
141
1.0
290
     0
  0
SCALE
  5
57
102
{ACAD_REACTORS
330
47
102
}
330
47
100
AcDbScale
 70
     0
300
10:1
140
10.0
141
1.0
290
     0
  0
SCALE
  5
58
102
{ACAD_REACTORS
330
47
102
}
330
47
100
AcDbScale
 70
     0
300
100:1
140
100.0
141
1.0
290
     0
  0
SCALE
  5
59
102
{ACAD_REACTORS
330
47
102
}
330
47
100
AcDbScale
 70
     0
300
1/128" = 1'-0"
140
0.0078125
141
12.0
290
     0
  0
SCALE
  5
5A
102
{ACAD_REACTORS
330
47
102
}
330
47
100
AcDbScale
 70
     0
300
1/64" = 1'-0"
140
0.015625
141
12.0
290
     0
  0
SCALE
  5
5B
102
{ACAD_REACTORS
330
47
102
}
330
47
100
AcDbScale
 70
     0
300
1/32" = 1'-0"
140
0.03125
141
12.0
290
     0
  0
SCALE
  5
5C
102
{ACAD_REACTORS
330
47
102
}
330
47
100
AcDbScale
 70
     0
300
1/16" = 1'-0"
140
0.0625
141
12.0
290
     0
  0
SCALE
  5
5D
102
{ACAD_REACTORS
330
47
102
}
330
47
100
AcDbScale
 70
     0
300
3/32" = 1'-0"
140
0.09375
141
12.0
290
     0
  0
SCALE
  5
5E
102
{ACAD_REACTORS
330
47
102
}
330
47
100
AcDbScale
 70
     0
300
1/8" = 1'-0"
140
0.125
141
12.0
290
     0
  0
SCALE
  5
5F
102
{ACAD_REACTORS
330
47
102
}
330
47
100
AcDbScale
 70
     0
300
3/16" = 1'-0"
140
0.1875
141
12.0
290
     0
  0
SCALE
  5
60
102
{ACAD_REACTORS
330
47
102
}
330
47
100
AcDbScale
 70
     0
300
1/4" = 1'-0"
140
0.25
141
12.0
290
     0
  0
SCALE
  5
61
102
{ACAD_REACTORS
330
47
102
}
330
47
100
AcDbScale
 70
     0
300
3/8" = 1'-0"
140
0.375
141
12.0
290
     0
  0
SCALE
  5
62
102
{ACAD_REACTORS
330
47
102
}
330
47
100
AcDbScale
 70
     0
300
1/2" = 1'-0"
140
0.5
141
12.0
290
     0
  0
SCALE
  5
63
102
{ACAD_REACTORS
330
47
102
}
330
47
100
AcDbScale
 70
     0
300
3/4" = 1'-0"
140
0.75
141
12.0
290
     0
  0
SCALE
  5
64
102
{ACAD_REACTORS
330
47
102
}
330
47
100
AcDbScale
 70
     0
300
1" = 1'-0"
140
1.0
141
12.0
290
     0
  0
SCALE
  5
65
102
{ACAD_REACTORS
330
47
102
}
330
47
100
AcDbScale
 70
     0
300
1-1/2" = 1'-0"
140
1.5
141
12.0
290
     0
  0
SCALE
  5
66
102
{ACAD_REACTORS
330
47
102
}
330
47
100
AcDbScale
 70
     0
300
3" = 1'-0"
140
3.0
141
12.0
290
     0
  0
SCALE
  5
67
102
{ACAD_REACTORS
330
47
102
}
330
47
100
AcDbScale
 70
     0
300
6" = 1'-0"
140
6.0
141
12.0
290
     0
  0
SCALE
  5
68
102
{ACAD_REACTORS
330
47
102
}
330
47
100
AcDbScale
 70
     0
300
1'-0" = 1'-0"
140
12.0
141
12.0
290
     0
  0
TABLESTYLE
  5
6A
102
{ACAD_REACTORS
330
69
102
}
102
{ACAD_XDICTIONARY
360
50F
102
}
330
69
100
AcDbTableStyle
  3
Standard
 70
     0
 71
     0
 40
0.06
 41
0.06
280
     0
281
     0
  7
Standard
140
0.18
170
     2
 62
     0
 63
   257
283
     0
274
    -2
284
     1
 64
     0
275
    -2
285
     1
 65
     0
276
    -2
286
     1
 66
     0
277
    -2
287
     1
 67
     0
278
    -2
288
     1
 68
     0
279
    -2
289
     1
 69
     0
  7
Standard
140
0.25
170
     5
 62
     0
 63
   257
283
     0
274
    -2
284
     1
 64
     0
275
    -2
285
     1
 65
     0
276
    -2
286
     1
 66
     0
277
    -2
287
     1
 67
     0
278
    -2
288
     1
 68
     0
279
    -2
289
     1
 69
     0
  7
Standard
140
0.18
170
     5
 62
     0
 63
   257
283
     0
274
    -2
284
     1
 64
     0
275
    -2
285
     1
 65
     0
276
    -2
286
     1
 66
     0
277
    -2
287
     1
 67
     0
278
    -2
288
     1
 68
     0
279
    -2
289
     1
 69
     0
  0
DICTIONARYVAR
  5
50E
102
{ACAD_REACTORS
330
50D
102
}
330
50D
100
DictionaryVariables
280
     0
  1
1:1
  0
DICTIONARYVAR
  5
515
102
{ACAD_REACTORS
330
50D
102
}
330
50D
100
DictionaryVariables
280
     0
  1
Standard
  0
DICTIONARYVAR
  5
514
102
{ACAD_REACTORS
330
50D
102
}
330
50D
100
DictionaryVariables
280
     0
  1
Standard
  0
DICTIONARY
  5
50F
330
6A
100
AcDbDictionary
280
     1
281
     1
  3
ACAD_ROUNDTRIP_2008_TABLESTYLE_CELLSTYLEMAP
360
511
  3
ACAD_XREC_ROUNDTRIP
360
510
  0
CELLSTYLEMAP
  5
511
102
{ACAD_REACTORS
330
50F
102
}
330
50F
100
AcDbCellStyleMap
 90
        3
300
CELLSTYLE
  1
TABLEFORMAT_BEGIN
 90
        5
170
     1
 91
        0
 92
    32768
 62
   257
 93
        1
300
CONTENTFORMAT
  1
CONTENTFORMAT_BEGIN
 90
        0
 91
        0
 92
        4
 93
        0
300

 40
0.0
140
1.0
 94
        5
 62
     0
340
11
144
0.25
309
CONTENTFORMAT_END
171
     1
301
MARGIN
  1
CELLMARGIN_BEGIN
 40
0.06
 40
0.06
 40
0.06
 40
0.06
 40
0.06
 40
0.06
309
CELLMARGIN_END
 94
        6
 95
        1
302
GRIDFORMAT
  1
GRIDFORMAT_BEGIN
 90
        0
 91
        1
 62
     0
 92
       -2
340
14
 93
        0
 40
0.045
309
GRIDFORMAT_END
 95
        2
302
GRIDFORMAT
  1
GRIDFORMAT_BEGIN
 90
        0
 91
        1
 62
     0
 92
       -2
340
14
 93
        0
 40
0.045
309
GRIDFORMAT_END
 95
        4
302
GRIDFORMAT
  1
GRIDFORMAT_BEGIN
 90
        0
 91
        1
 62
     0
 92
       -2
340
14
 93
        0
 40
0.045
309
GRIDFORMAT_END
 95
        8
302
GRIDFORMAT
  1
GRIDFORMAT_BEGIN
 90
        0
 91
        1
 62
     0
 92
       -2
340
14
 93
        0
 40
0.045
309
GRIDFORMAT_END
 95
       16
302
GRIDFORMAT
  1
GRIDFORMAT_BEGIN
 90
        0
 91
        1
 62
     0
 92
       -2
340
14
 93
        0
 40
0.045
309
GRIDFORMAT_END
 95
       32
302
GRIDFORMAT
  1
GRIDFORMAT_BEGIN
 90
        0
 91
        1
 62
     0
 92
       -2
340
14
 93
        0
 40
0.045
309
GRIDFORMAT_END
309
TABLEFORMAT_END
  1
CELLSTYLE_BEGIN
 90
        1
 91
        1
300
_TITLE
309
CELLSTYLE_END
300
CELLSTYLE
  1
TABLEFORMAT_BEGIN
 90
        5
170
     1
 91
        0
 92
        0
 62
   257
 93
        1
300
CONTENTFORMAT
  1
CONTENTFORMAT_BEGIN
 90
        0
 91
        0
 92
        4
 93
        0
300

 40
0.0
140
1.0
 94
        5
 62
     0
340
11
144
0.18
309
CONTENTFORMAT_END
171
     1
301
MARGIN
  1
CELLMARGIN_BEGIN
 40
0.06
 40
0.06
 40
0.06
 40
0.06
 40
0.06
 40
0.06
309
CELLMARGIN_END
 94
        6
 95
        1
302
GRIDFORMAT
  1
GRIDFORMAT_BEGIN
 90
        0
 91
        1
 62
     0
 92
       -2
340
14
 93
        0
 40
0.045
309
GRIDFORMAT_END
 95
        2
302
GRIDFORMAT
  1
GRIDFORMAT_BEGIN
 90
        0
 91
        1
 62
     0
 92
       -2
340
14
 93
        0
 40
0.045
309
GRIDFORMAT_END
 95
        4
302
GRIDFORMAT
  1
GRIDFORMAT_BEGIN
 90
        0
 91
        1
 62
     0
 92
       -2
340
14
 93
        0
 40
0.045
309
GRIDFORMAT_END
 95
        8
302
GRIDFORMAT
  1
GRIDFORMAT_BEGIN
 90
        0
 91
        1
 62
     0
 92
       -2
340
14
 93
        0
 40
0.045
309
GRIDFORMAT_END
 95
       16
302
GRIDFORMAT
  1
GRIDFORMAT_BEGIN
 90
        0
 91
        1
 62
     0
 92
       -2
340
14
 93
        0
 40
0.045
309
GRIDFORMAT_END
 95
       32
302
GRIDFORMAT
  1
GRIDFORMAT_BEGIN
 90
        0
 91
        1
 62
     0
 92
       -2
340
14
 93
        0
 40
0.045
309
GRIDFORMAT_END
309
TABLEFORMAT_END
  1
CELLSTYLE_BEGIN
 90
        2
 91
        1
300
_HEADER
309
CELLSTYLE_END
300
CELLSTYLE
  1
TABLEFORMAT_BEGIN
 90
        5
170
     1
 91
        0
 92
        0
 62
   257
 93
        1
300
CONTENTFORMAT
  1
CONTENTFORMAT_BEGIN
 90
        0
 91
        0
 92
        4
 93
        0
300

 40
0.0
140
1.0
 94
        2
 62
     0
340
11
144
0.18
309
CONTENTFORMAT_END
171
     1
301
MARGIN
  1
CELLMARGIN_BEGIN
 40
0.06
 40
0.06
 40
0.06
 40
0.06
 40
0.06
 40
0.06
309
CELLMARGIN_END
 94
        6
 95
        1
302
GRIDFORMAT
  1
GRIDFORMAT_BEGIN
 90
        0
 91
        1
 62
     0
 92
       -2
340
14
 93
        0
 40
0.045
309
GRIDFORMAT_END
 95
        2
302
GRIDFORMAT
  1
GRIDFORMAT_BEGIN
 90
        0
 91
        1
 62
     0
 92
       -2
340
14
 93
        0
 40
0.045
309
GRIDFORMAT_END
 95
        4
302
GRIDFORMAT
  1
GRIDFORMAT_BEGIN
 90
        0
 91
        1
 62
     0
 92
       -2
340
14
 93
        0
 40
0.045
309
GRIDFORMAT_END
 95
        8
302
GRIDFORMAT
  1
GRIDFORMAT_BEGIN
 90
        0
 91
        1
 62
     0
 92
       -2
340
14
 93
        0
 40
0.045
309
GRIDFORMAT_END
 95
       16
302
GRIDFORMAT
  1
GRIDFORMAT_BEGIN
 90
        0
 91
        1
 62
     0
 92
       -2
340
14
 93
        0
 40
0.045
309
GRIDFORMAT_END
 95
       32
302
GRIDFORMAT
  1
GRIDFORMAT_BEGIN
 90
        0
 91
        1
 62
     0
 92
       -2
340
14
 93
        0
 40
0.045
309
GRIDFORMAT_END
309
TABLEFORMAT_END
  1
CELLSTYLE_BEGIN
 90
        3
 91
        2
300
_DATA
309
CELLSTYLE_END
  0
XRECORD
  5
510
102
{ACAD_REACTORS
330
50F
102
}
330
50F
100
AcDbXrecord
280
     1
102
ACAD_ROUNDTRIP_PRE2007_TABLESTYLE
 90
        4
 91
        0
  1

 92
        4
 93
        0
  2

 94
        4
 95
        0
  3

  0
ENDSEC
  0
EOF
