  0
SECTION
  2
HEADER
  9
$ACADVER
  1
AC1018
  9
$ACADMAINTVER
 70
    39
  9
$DWGCODEPAGE
  3
ANSI_1252
  9
$LASTSAVEDBY
  1
fottrem
  9
$INSBASE
 10
0.0
 20
0.0
 30
0.0
  9
$EXTMIN
 10
2.673695310543017
 20
0.3573773641115478
 30
-1.289655172413791
  9
$EXTMAX
 10
46.41568767877938
 20
65.24051040719344
 30
0.0
  9
$LIMMIN
 10
0.0
 20
0.0
  9
$LIMMAX
 10
46.81102362204724
 20
66.0
  9
$ORTHOMODE
 70
     0
  9
$REGENMODE
 70
     1
  9
$FILLMODE
 70
     1
  9
$QTEXTMODE
 70
     0
  9
$MIRRTEXT
 70
     1
  9
$LTSCALE
 40
1.0
  9
$ATTMODE
 70
     1
  9
$TEXTSIZE
 40
0.7500000000000001
  9
$TRACEWID
 40
0.05
  9
$TEXTSTYLE
  7
Standard
  9
$CLAYER
  8
0
  9
$CELTYPE
  6
ByLayer
  9
$CECOLOR
 62
   256
  9
$CELTSCALE
 40
1.0
  9
$DISPSILH
 70
     0
  9
$DIMSCALE
 40
1.0
  9
$DIMASZ
 40
0.7500000000000001
  9
$DIMEXO
 40
0.1666666666666667
  9
$DIMDLI
 40
0.38
  9
$DIMRND
 40
0.0
  9
$DIMDLE
 40
0.0
  9
$DIMEXE
 40
0.3750000000000001
  9
$DIMTP
 40
0.0
  9
$DIMTM
 40
0.0
  9
$DIMTXT
 40
0.7500000000000001
  9
$DIMCEN
 40
0.09
  9
$DIMTSZ
 40
0.0
  9
$DIMTOL
 70
     0
  9
$DIMLIM
 70
     0
  9
$DIMTIH
 70
     1
  9
$DIMTOH
 70
     1
  9
$DIMSE1
 70
     0
  9
$DIMSE2
 70
     0
  9
$DIMTAD
 70
     0
  9
$DIMZIN
 70
     1
  9
$DIMBLK
  1

  9
$DIMASO
 70
     1
  9
$DIMSHO
 70
     1
  9
$DIMPOST
  1

  9
$DIMAPOST
  1

  9
$DIMALT
 70
     0
  9
$DIMALTD
 70
     2
  9
$DIMALTF
 40
25.4
  9
$DIMLFAC
 40
1.0
  9
$DIMTOFL
 70
     0
  9
$DIMTVP
 40
0.0
  9
$DIMTIX
 70
     0
  9
$DIMSOXD
 70
     0
  9
$DIMSAH
 70
     0
  9
$DIMBLK1
  1

  9
$DIMBLK2
  1

  9
$DIMSTYLE
  2
Standard
  9
$DIMCLRD
 70
     0
  9
$DIMCLRE
 70
     0
  9
$DIMCLRT
 70
     0
  9
$DIMTFAC
 40
1.0
  9
$DIMGAP
 40
0.125
  9
$DIMJUST
 70
     0
  9
$DIMSD1
 70
     0
  9
$DIMSD2
 70
     0
  9
$DIMTOLJ
 70
     1
  9
$DIMTZIN
 70
     1
  9
$DIMALTZ
 70
     0
  9
$DIMALTTZ
 70
     0
  9
$DIMUPT
 70
     0
  9
$DIMDEC
 70
     2
  9
$DIMTDEC
 70
     2
  9
$DIMALTU
 70
     2
  9
$DIMALTTD
 70
     2
  9
$DIMTXSTY
  7
Standard
  9
$DIMAUNIT
 70
     0
  9
$DIMADEC
 70
     2
  9
$DIMALTRND
 40
0.0
  9
$DIMAZIN
 70
     0
  9
$DIMDSEP
 70
    46
  9
$DIMATFIT
 70
     3
  9
$DIMFRAC
 70
     0
  9
$DIMLDRBLK
  1

  9
$DIMLUNIT
 70
     2
  9
$DIMLWD
 70
    -2
  9
$DIMLWE
 70
    -2
  9
$DIMTMOVE
 70
     0
  9
$LUNITS
 70
     2
  9
$LUPREC
 70
     2
  9
$SKETCHINC
 40
0.1
  9
$FILLETRAD
 40
0.5
  9
$AUNITS
 70
     0
  9
$AUPREC
 70
     2
  9
$MENU
  1
.
  9
$ELEVATION
 40
0.0
  9
$PELEVATION
 40
0.0
  9
$THICKNESS
 40
0.0
  9
$LIMCHECK
 70
     0
  9
$CHAMFERA
 40
0.0
  9
$CHAMFERB
 40
0.0
  9
$CHAMFERC
 40
0.0
  9
$CHAMFERD
 40
0.0
  9
$SKPOLY
 70
     0
  9
$TDCREATE
 40
2453353.550459155
  9
$TDUCREATE
 40
2453353.717125822
  9
$TDUPDATE
 40
2459488.450632847
  9
$TDUUPDATE
 40
2459488.617299514
  9
$TDINDWG
 40
0.0428240856
  9
$TDUSRTIMER
 40
0.0428240856
  9
$USRTIMER
 70
     1
  9
$ANGBASE
 50
0.0
  9
$ANGDIR
 70
     0
  9
$PDMODE
 70
     0
  9
$PDSIZE
 40
-1.0
  9
$PLINEWID
 40
0.0
  9
$SPLFRAME
 70
     0
  9
$SPLINETYPE
 70
     6
  9
$SPLINESEGS
 70
     8
  9
$HANDSEED
  5
3A0
  9
$SURFTAB1
 70
     6
  9
$SURFTAB2
 70
     6
  9
$SURFTYPE
 70
     6
  9
$SURFU
 70
     6
  9
$SURFV
 70
     6
  9
$UCSBASE
  2

  9
$UCSNAME
  2

  9
$UCSORG
 10
0.0
 20
0.0
 30
0.0
  9
$UCSXDIR
 10
1.0
 20
0.0
 30
0.0
  9
$UCSYDIR
 10
0.0
 20
1.0
 30
0.0
  9
$UCSORTHOREF
  2

  9
$UCSORTHOVIEW
 70
     0
  9
$UCSORGTOP
 10
0.0
 20
0.0
 30
0.0
  9
$UCSORGBOTTOM
 10
0.0
 20
0.0
 30
0.0
  9
$UCSORGLEFT
 10
0.0
 20
0.0
 30
0.0
  9
$UCSORGRIGHT
 10
0.0
 20
0.0
 30
0.0
  9
$UCSORGFRONT
 10
0.0
 20
0.0
 30
0.0
  9
$UCSORGBACK
 10
0.0
 20
0.0
 30
0.0
  9
$PUCSBASE
  2

  9
$PUCSNAME
  2

  9
$PUCSORG
 10
0.0
 20
0.0
 30
0.0
  9
$PUCSXDIR
 10
1.0
 20
0.0
 30
0.0
  9
$PUCSYDIR
 10
0.0
 20
1.0
 30
0.0
  9
$PUCSORTHOREF
  2

  9
$PUCSORTHOVIEW
 70
     0
  9
$PUCSORGTOP
 10
0.0
 20
0.0
 30
0.0
  9
$PUCSORGBOTTOM
 10
0.0
 20
0.0
 30
0.0
  9
$PUCSORGLEFT
 10
0.0
 20
0.0
 30
0.0
  9
$PUCSORGRIGHT
 10
0.0
 20
0.0
 30
0.0
  9
$PUCSORGFRONT
 10
0.0
 20
0.0
 30
0.0
  9
$PUCSORGBACK
 10
0.0
 20
0.0
 30
0.0
  9
$USERI1
 70
     0
  9
$USERI2
 70
     0
  9
$USERI3
 70
     0
  9
$USERI4
 70
     0
  9
$USERI5
 70
     0
  9
$USERR1
 40
0.0
  9
$USERR2
 40
0.0
  9
$USERR3
 40
0.0
  9
$USERR4
 40
0.0
  9
$USERR5
 40
0.0
  9
$WORLDVIEW
 70
     1
  9
$SHADEDGE
 70
     3
  9
$SHADEDIF
 70
    70
  9
$TILEMODE
 70
     1
  9
$MAXACTVP
 70
    64
  9
$PINSBASE
 10
0.0
 20
0.0
 30
0.0
  9
$PLIMCHECK
 70
     0
  9
$PEXTMIN
 10
1.000000000000000E+20
 20
1.000000000000000E+20
 30
1.000000000000000E+20
  9
$PEXTMAX
 10
-1.000000000000000E+20
 20
-1.000000000000000E+20
 30
-1.000000000000000E+20
  9
$PLIMMIN
 10
0.0
 20
0.0
  9
$PLIMMAX
 10
12.0
 20
9.0
  9
$UNITMODE
 70
     0
  9
$VISRETAIN
 70
     1
  9
$PLINEGEN
 70
     0
  9
$PSLTSCALE
 70
     1
  9
$TREEDEPTH
 70
  3020
  9
$CMLSTYLE
  2
Standard
  9
$CMLJUST
 70
     0
  9
$CMLSCALE
 40
1.0
  9
$PROXYGRAPHICS
 70
     1
  9
$MEASUREMENT
 70
     0
  9
$CELWEIGHT
370
    -1
  9
$ENDCAPS
280
     0
  9
$JOINSTYLE
280
     0
  9
$LWDISPLAY
290
     1
  9
$INSUNITS
 70
     1
  9
$HYPERLINKBASE
  1

  9
$STYLESHEET
  1

  9
$XEDIT
290
     0
  9
$CEPSNTYPE
380
     0
  9
$PSTYLEMODE
290
     1
  9
$FINGERPRINTGUID
  2
{6ce018ee-8559-40b9-9440-91f6939d5cad}
  9
$VERSIONGUID
  2
{FAEB1C32-E019-11D5-929B-00C0DF256EC4}
  9
$EXTNAMES
290
     1
  9
$PSVPSCALE
 40
0.0
  9
$OLESTARTUP
290
     0
  9
$SORTENTS
280
   127
  9
$INDEXCTL
280
     0
  9
$HIDETEXT
280
     1
  9
$XCLIPFRAME
290
     0
  9
$HALOGAP
280
     0
  9
$OBSCOLOR
 70
   257
  9
$OBSLTYPE
280
     0
  9
$INTERSECTIONDISPLAY
280
     0
  9
$INTERSECTIONCOLOR
 70
   257
  9
$DIMASSOC
280
     2
  9
$PROJECTNAME
  1

  0
ENDSEC
  0
SECTION
  2
CLASSES
  0
CLASS
  1
ACDBDICTIONARYWDFLT
  2
AcDbDictionaryWithDefault
  3
ObjectDBX Classes
 90
        0
 91
        3
280
     0
281
     0
  0
CLASS
  1
ACDBPLACEHOLDER
  2
AcDbPlaceHolder
  3
ObjectDBX Classes
 90
        0
 91
        1
280
     0
281
     0
  0
CLASS
  1
LAYOUT
  2
AcDbLayout
  3
ObjectDBX Classes
 90
        0
 91
        1
280
     0
281
     0
  0
CLASS
  1
DICTIONARYVAR
  2
AcDbDictionaryVar
  3
ObjectDBX Classes
 90
        0
 91
        3
280
     0
281
     0
  0
CLASS
  1
TABLESTYLE
  2
AcDbTableStyle
  3
ObjectDBX Classes
 90
     2047
 91
        3
280
     0
281
     0
  0
CLASS
  1
SCALE
  2
AcDbScale
  3
ObjectDBX Classes
 90
     1153
 91
       67
280
     1
281
     0
  0
ENDSEC
  0
SECTION
  2
TABLES
  0
TABLE
  2
VPORT
  5
8
330
0
100
AcDbSymbolTable
 70
     2
  0
VPORT
  5
97
330
8
100
AcDbSymbolTableRecord
100
AcDbViewportTableRecord
  2
*Active
 70
     0
 10
0.0
 20
0.0
 11
1.0
 21
1.0
 12
1.764784229388692
 22
43.62913032635493
 13
0.0
 23
0.0
 14
0.5
 24
0.5
 15
0.5
 25
0.5
 16
0.0
 26
0.0
 36
1.0
 17
0.0
 27
0.0
 37
0.0
 40
88.50576266133255
 41
0.7092579336673825
 42
50.0
 43
0.0
 44
0.0
 50
0.0
 51
0.0
 71
    16
 72
  2000
 73
     1
 74
     1
 75
     0
 76
     0
 77
     0
 78
     0
281
     0
 65
     0
110
0.0
120
0.0
130
0.0
111
1.0
121
0.0
131
0.0
112
0.0
122
1.0
132
0.0
 79
     0
146
0.0
  0
ENDTAB
  0
TABLE
  2
LTYPE
  5
5
330
0
100
AcDbSymbolTable
 70
     8
  0
LTYPE
  5
14
330
5
100
AcDbSymbolTableRecord
100
AcDbLinetypeTableRecord
  2
ByBlock
 70
     0
  3

 72
    65
 73
     0
 40
0.0
  0
LTYPE
  5
15
330
5
100
AcDbSymbolTableRecord
100
AcDbLinetypeTableRecord
  2
ByLayer
 70
     0
  3

 72
    65
 73
     0
 40
0.0
  0
LTYPE
  5
16
330
5
100
AcDbSymbolTableRecord
100
AcDbLinetypeTableRecord
  2
Continuous
 70
     0
  3
Solid line
 72
    65
 73
     0
 40
0.0
  0
LTYPE
  5
370
330
5
100
AcDbSymbolTableRecord
100
AcDbLinetypeTableRecord
  2
SLD-Solid
 70
     0
  3
SolidWorks Line Style
 72
    65
 73
     0
 40
0.0
  0
LTYPE
  5
371
330
5
100
AcDbSymbolTableRecord
100
AcDbLinetypeTableRecord
  2
SLD-Dashed
 70
     0
  3
SolidWorks Line Style
 72
    65
 73
     2
 40
0.075
 49
0.05
 74
     4
 75
     0
340
0
 46
1.0
 50
0.0
 44
0.0
 45
0.0
 49
-0.025
 74
     4
 75
     0
340
0
 46
1.0
 50
0.0
 44
0.0
 45
0.0
  0
LTYPE
  5
372
330
5
100
AcDbSymbolTableRecord
100
AcDbLinetypeTableRecord
  2
SLD-Phantom
 70
     0
  3
SolidWorks Line Style
 72
    65
 73
     6
 40
0.4999999999999999
 49
0.25
 74
     4
 75
     0
340
0
 46
1.0
 50
0.0
 44
0.0
 45
0.0
 49
-0.05
 74
     4
 75
     0
340
0
 46
1.0
 50
0.0
 44
0.0
 45
0.0
 49
0.05
 74
     4
 75
     0
340
0
 46
1.0
 50
0.0
 44
0.0
 45
0.0
 49
-0.05
 74
     4
 75
     0
340
0
 46
1.0
 50
0.0
 44
0.0
 45
0.0
 49
0.05
 74
     4
 75
     0
340
0
 46
1.0
 50
0.0
 44
0.0
 45
0.0
 49
-0.05
 74
     4
 75
     0
340
0
 46
1.0
 50
0.0
 44
0.0
 45
0.0
  0
LTYPE
  5
373
330
5
100
AcDbSymbolTableRecord
100
AcDbLinetypeTableRecord
  2
SLD-Chain
 70
     0
  3
SolidWorks Line Style
 72
    65
 73
     4
 40
0.4
 49
0.25
 74
     4
 75
     0
340
0
 46
1.0
 50
0.0
 44
0.0
 45
0.0
 49
-0.05
 74
     4
 75
     0
340
0
 46
1.0
 50
0.0
 44
0.0
 45
0.0
 49
0.05
 74
     4
 75
     0
340
0
 46
1.0
 50
0.0
 44
0.0
 45
0.0
 49
-0.05
 74
     4
 75
     0
340
0
 46
1.0
 50
0.0
 44
0.0
 45
0.0
  0
LTYPE
  5
374
330
5
100
AcDbSymbolTableRecord
100
AcDbLinetypeTableRecord
  2
SLD-Center
 70
     0
  3
SolidWorks Line Style
 72
    65
 73
     4
 40
0.7500000000000002
 49
0.6000000000000001
 74
     4
 75
     0
340
0
 46
1.0
 50
0.0
 44
0.0
 45
0.0
 49
-0.05
 74
     4
 75
     0
340
0
 46
1.0
 50
0.0
 44
0.0
 45
0.0
 49
0.05
 74
     4
 75
     0
340
0
 46
1.0
 50
0.0
 44
0.0
 45
0.0
 49
-0.05
 74
     4
 75
     0
340
0
 46
1.0
 50
0.0
 44
0.0
 45
0.0
  0
LTYPE
  5
375
330
5
100
AcDbSymbolTableRecord
100
AcDbLinetypeTableRecord
  2
SLD-Stitch
 70
     0
  3
SolidWorks Line Style
 72
    65
 73
     2
 40
0.025
 49
0.0
 74
     4
 75
     0
340
0
 46
1.0
 50
0.0
 44
0.0
 45
0.0
 49
-0.025
 74
     4
 75
     0
340
0
 46
1.0
 50
0.0
 44
0.0
 45
0.0
  0
LTYPE
  5
376
330
5
100
AcDbSymbolTableRecord
100
AcDbLinetypeTableRecord
  2
SLD-Thin-Thick-Chain
 70
     0
  3
SolidWorks Line Style
 72
    65
 73
     4
 40
0.4
 49
0.25
 74
     4
 75
     0
340
0
 46
1.0
 50
0.0
 44
0.0
 45
0.0
 49
-0.05
 74
     4
 75
     0
340
0
 46
1.0
 50
0.0
 44
0.0
 45
0.0
 49
0.05
 74
     4
 75
     0
340
0
 46
1.0
 50
0.0
 44
0.0
 45
0.0
 49
-0.05
 74
     4
 75
     0
340
0
 46
1.0
 50
0.0
 44
0.0
 45
0.0
  0
ENDTAB
  0
TABLE
  2
LAYER
  5
2
330
0
100
AcDbSymbolTable
 70
     6
  0
LAYER
  5
10
330
2
100
AcDbSymbolTableRecord
100
AcDbLayerTableRecord
  2
0
 70
     0
 62
     7
  6
Continuous
370
    -3
390
F
  0
LAYER
  5
377
330
2
100
AcDbSymbolTableRecord
100
AcDbLayerTableRecord
  2
FORMAT
 70
     0
 62
     7
  6
SLD-Solid
370
    -3
390
F
  0
LAYER
  5
378
330
2
100
AcDbSymbolTableRecord
100
AcDbLayerTableRecord
  2
NOTES
 70
     0
 62
     1
  6
SLD-Solid
370
    -3
390
F
  0
LAYER
  5
77
330
2
100
AcDbSymbolTableRecord
100
AcDbLayerTableRecord
  2
OBJECT
 70
     0
 62
     7
  6
SLD-Solid
370
    -3
390
F
  0
LAYER
  5
78
330
2
100
AcDbSymbolTableRecord
100
AcDbLayerTableRecord
  2
DIMS
 70
     0
 62
     5
  6
SLD-Solid
370
    -3
390
F
  0
LAYER
  5
79
330
2
100
AcDbSymbolTableRecord
100
AcDbLayerTableRecord
  2
TITLE
 70
     0
 62
     8
  6
SLD-Solid
370
    -3
390
F
  0
ENDTAB
  0
TABLE
  2
STYLE
  5
3
330
0
100
AcDbSymbolTable
 70
     5
  0
STYLE
  5
11
330
3
100
AcDbSymbolTableRecord
100
AcDbTextStyleTableRecord
  2
Standard
 70
     0
 40
0.0
 41
1.0
 50
0.0
 71
     0
 42
0.7500000000000001
  3
GOTHIC.TTF
  4

1001
ACAD
1000
CENTURY GOTHIC
1071
       34
  0
STYLE
  5
85
330
3
100
AcDbSymbolTableRecord
100
AcDbTextStyleTableRecord
  2
SLDTEXTSTYLE0
 70
     0
 40
0.0
 41
0.948
 50
0.0
 71
     0
 42
0.7500000000000001
  3
ARIAL.TTF
  4

1001
ACAD
1000
Arial
1071
      290
  0
STYLE
  5
89
330
3
100
AcDbSymbolTableRecord
100
AcDbTextStyleTableRecord
  2
SLDTEXTSTYLE1
 70
     0
 40
0.0
 41
0.913
 50
0.0
 71
     0
 42
0.7500000000000001
  3
GOTHIC.TTF
  4

1001
ACAD
1000
Century Gothic
1071
      290
  0
STYLE
  5
36F
330
3
100
AcDbSymbolTableRecord
100
AcDbTextStyleTableRecord
  2
SLDTEXTSTYLE2
 70
     0
 40
0.0
 41
0.87
 50
0.0
 71
     0
 42
0.7500000000000001
  3
ARIALNB.TTF
  4

1001
ACAD
1000
Arial Narrow
1071
 33554722
  0
STYLE
  5
99
330
3
100
AcDbSymbolTableRecord
100
AcDbTextStyleTableRecord
  2
SLDTEXTSTYLE3
 70
     0
 40
0.0
 41
0.87
 50
0.0
 71
     0
 42
0.7500000000000001
  3
ARIALN.TTF
  4

1001
ACAD
1000
Arial Narrow
1071
      290
  0
ENDTAB
  0
TABLE
  2
VIEW
  5
6
330
0
100
AcDbSymbolTable
 70
     0
  0
ENDTAB
  0
TABLE
  2
UCS
  5
7
330
0
100
AcDbSymbolTable
 70
     0
  0
ENDTAB
  0
TABLE
  2
APPID
  5
9
330
0
100
AcDbSymbolTable
 70
     1
  0
APPID
  5
12
330
9
100
AcDbSymbolTableRecord
100
AcDbRegAppTableRecord
  2
ACAD
 70
     0
  0
ENDTAB
  0
TABLE
  2
DIMSTYLE
  5
A
330
0
100
AcDbSymbolTable
 70
     5
100
AcDbDimStyleTable
  0
DIMSTYLE
105
27
330
A
100
AcDbSymbolTableRecord
100
AcDbDimStyleTableRecord
  2
Standard
 70
     0
340
11
  0
DIMSTYLE
105
10F
102
{ACAD_REACTORS
330
10E
330
14D
330
158
330
205
330
210
330
21B
102
}
330
A
100
AcDbSymbolTableRecord
100
AcDbDimStyleTableRecord
  2
SLDDIMSTYLE0
 70
     0
 41
0.7500000000000001
 44
0.0
 45
0.000000001
 78
    12
 79
     3
140
0.7500000000000001
147
0.1875
173
     1
271
     2
272
     2
276
     2
277
     5
284
    12
340
89
341
379
343
379
344
379
  0
DIMSTYLE
105
121
102
{ACAD_REACTORS
330
120
330
13E
102
}
330
A
100
AcDbSymbolTableRecord
100
AcDbDimStyleTableRecord
  2
SLDDIMSTYLE1
 70
     0
 41
0.7500000000000001
 44
0.0
 45
0.000000001
 78
    12
 79
     3
140
0.7500000000000001
147
0.1875
173
     1
271
     6
272
     2
276
     2
277
     5
284
    12
340
89
341
379
343
379
344
379
  0
DIMSTYLE
105
131
102
{ACAD_REACTORS
330
130
330
163
102
}
330
A
100
AcDbSymbolTableRecord
100
AcDbDimStyleTableRecord
  2
SLDDIMSTYLE2
 70
     0
 41
0.7500000000000001
 44
0.0
 45
0.000000001
 78
    12
 79
     3
140
0.7500000000000001
147
0.1875
172
     1
173
     1
271
     6
272
     2
276
     2
277
     5
284
    12
289
     0
340
89
341
379
343
379
344
379
  0
DIMSTYLE
105
367
330
A
100
AcDbSymbolTableRecord
100
AcDbDimStyleTableRecord
  2
SLDDIMSTYLE3
 70
     0
 41
0.7500000000000001
 44
0.0
 45
0.000000001
146
0.7500000000000001
147
0.0
173
     1
271
     0
272
     0
276
     2
277
     5
340
11
341
379
343
379
344
379
  0
ENDTAB
  0
TABLE
  2
BLOCK_RECORD
  5
1
330
0
100
AcDbSymbolTable
 70
    15
  0
BLOCK_RECORD
  5
1F
330
1
100
AcDbSymbolTableRecord
100
AcDbBlockTableRecord
  2
*Model_Space
340
22
  0
BLOCK_RECORD
  5
73
330
1
100
AcDbSymbolTableRecord
100
AcDbBlockTableRecord
  2
*Paper_Space
340
74
  0
BLOCK_RECORD
  5
379
330
1
100
AcDbSymbolTableRecord
100
AcDbBlockTableRecord
  2
_Open90
340
0
102
{BLKREFS
331
119
331
11A
331
125
331
126
331
135
331
136
331
142
331
143
331
151
331
152
331
15C
331
15D
331
167
331
168
331
209
331
20A
331
214
331
215
331
21F
331
220
102
}
  0
BLOCK_RECORD
  5
23
330
1
100
AcDbSymbolTableRecord
100
AcDbBlockTableRecord
  2
*Paper_Space1
340
26
  0
BLOCK_RECORD
  5
8E
330
1
100
AcDbSymbolTableRecord
100
AcDbBlockTableRecord
  2
SW_NOTE_0
340
0
  0
BLOCK_RECORD
  5
94
330
1
100
AcDbSymbolTableRecord
100
AcDbBlockTableRecord
  2
SW_NOTE_0_1
340
0
102
{BLKREFS
331
9D
102
}
  0
BLOCK_RECORD
  5
116
330
1
100
AcDbSymbolTableRecord
100
AcDbBlockTableRecord
  2
_D
340
0
  0
BLOCK_RECORD
  5
122
330
1
100
AcDbSymbolTableRecord
100
AcDbBlockTableRecord
  2
_D_1
340
0
  0
BLOCK_RECORD
  5
132
330
1
100
AcDbSymbolTableRecord
100
AcDbBlockTableRecord
  2
_D_2
340
0
  0
BLOCK_RECORD
  5
13F
330
1
100
AcDbSymbolTableRecord
100
AcDbBlockTableRecord
  2
_D_3
340
0
  0
BLOCK_RECORD
  5
14E
330
1
100
AcDbSymbolTableRecord
100
AcDbBlockTableRecord
  2
_D_4
340
0
  0
BLOCK_RECORD
  5
159
330
1
100
AcDbSymbolTableRecord
100
AcDbBlockTableRecord
  2
_D_5
340
0
  0
BLOCK_RECORD
  5
164
330
1
100
AcDbSymbolTableRecord
100
AcDbBlockTableRecord
  2
_D_6
340
0
  0
BLOCK_RECORD
  5
206
330
1
100
AcDbSymbolTableRecord
100
AcDbBlockTableRecord
  2
_D_7
340
0
  0
BLOCK_RECORD
  5
211
330
1
100
AcDbSymbolTableRecord
100
AcDbBlockTableRecord
  2
_D_8
340
0
  0
BLOCK_RECORD
  5
21C
330
1
100
AcDbSymbolTableRecord
100
AcDbBlockTableRecord
  2
_D_9
340
0
  0
BLOCK_RECORD
  5
361
330
1
100
AcDbSymbolTableRecord
100
AcDbBlockTableRecord
  2
SW_NOTE_0_2
340
0
102
{BLKREFS
331
366
102
}
  0
ENDTAB
  0
ENDSEC
  0
SECTION
  2
BLOCKS
  0
BLOCK
  5
20
330
1F
100
AcDbEntity
  8
0
100
AcDbBlockBegin
  2
*Model_Space
 70
     0
 71
     0
 10
0.0
 20
0.0
 30
0.0
  3
*Model_Space
  1

  0
ENDBLK
  5
21
330
1F
100
AcDbEntity
  8
0
100
AcDbBlockEnd
  0
BLOCK
  5
75
330
73
100
AcDbEntity
 67
     1
  8
0
100
AcDbBlockBegin
  2
*Paper_Space
 70
     0
 71
     0
 10
0.0
 20
0.0
 30
0.0
  3
*Paper_Space
  1

  0
ENDBLK
  5
76
330
73
100
AcDbEntity
 67
     1
  8
0
100
AcDbBlockEnd
  0
BLOCK
  5
37A
330
379
100
AcDbEntity
  8
0
100
AcDbBlockBegin
  2
_Open90
 70
     0
 71
     0
 10
0.0
 20
0.0
 30
0.0
  3
_Open90
  1

  0
LINE
  5
113
330
379
100
AcDbEntity
  8
0
  6
ByBlock
 62
     0
370
    -2
100
AcDbLine
 10
-0.5
 20
0.5
 30
0.0
 11
0.0
 21
0.0
 31
0.0
  0
LINE
  5
114
330
379
100
AcDbEntity
  8
0
  6
ByBlock
 62
     0
370
    -2
100
AcDbLine
 10
0.0
 20
0.0
 30
0.0
 11
-0.5
 21
-0.5
 31
0.0
  0
LINE
  5
115
330
379
100
AcDbEntity
  8
0
  6
ByBlock
 62
     0
370
    -2
100
AcDbLine
 10
0.0
 20
0.0
 30
0.0
 11
-1.0
 21
0.0
 31
0.0
  0
ENDBLK
  5
37B
330
379
100
AcDbEntity
  8
0
100
AcDbBlockEnd
  0
BLOCK
  5
382
330
23
100
AcDbEntity
  8
0
100
AcDbBlockBegin
  2
*Paper_Space1
 70
     0
 71
     0
 10
0.0
 20
0.0
 30
0.0
  3
*Paper_Space1
  1

  0
ENDBLK
  5
383
330
23
100
AcDbEntity
  8
0
100
AcDbBlockEnd
  0
BLOCK
  5
384
330
8E
100
AcDbEntity
  8
0
100
AcDbBlockBegin
  2
SW_NOTE_0
 70
     0
 71
     0
 10
0.0
 20
0.0
 30
0.0
  3
SW_NOTE_0
  1

  0
MTEXT
  5
91
330
8E
100
AcDbEntity
  8
NOTES
 62
     0
100
AcDbMText
 10
0.0
 20
0.3759780907668229
 30
0.0
 40
0.2916666666666666
 41
0.0
 71
     1
 72
     1
  1
FROST PRODUCTS LTD.
  7
SLDTEXTSTYLE0
 73
     1
 44
1.0
  0
MTEXT
  5
39E
330
8E
100
AcDbEntity
  8
NOTES
 62
     0
100
AcDbMText
 10
0.0
 20
-0.0495142708586375
 30
0.0
 40
0.2291666666666666
 41
0.0
 71
     1
 72
     1
  1
5280 JOHN LUCUS DRIVE, BURLINGTON, ON, L7L 5Z9
  7
SLDTEXTSTYLE0
 73
     1
 44
1.0
  0
ENDBLK
  5
385
330
8E
100
AcDbEntity
  8
0
100
AcDbBlockEnd
  0
BLOCK
  5
386
330
94
100
AcDbEntity
  8
0
100
AcDbBlockBegin
  2
SW_NOTE_0_1
 70
     0
 71
     0
 10
0.0
 20
0.0
 30
0.0
  3
SW_NOTE_0_1
  1

  0
MTEXT
  5
39F
330
94
100
AcDbEntity
  8
NOTES
 62
     0
100
AcDbMText
 10
0.0
 20
0.2381282770514712
 30
0.0
 40
0.1847290640394089
 41
0.0
 71
     1
 72
     1
  1
PROPRIETARY AND CONFIDENTIAL
  7
SLDTEXTSTYLE2
 73
     1
 44
1.0
  0
MTEXT
  5
9A
330
94
100
AcDbEntity
  8
NOTES
 62
     0
100
AcDbMText
 10
0.0
 20
-0.0504364795553608
 30
0.0
 40
0.25
 41
0.0
 71
     1
 72
     1
  1
THE INFORMATION CONTAINED IN THIS DRAWING IS THE SOLE PROPERTY OF 
  7
SLDTEXTSTYLE3
 73
     1
 44
1.0
  0
MTEXT
  5
9B
330
94
100
AcDbEntity
  8
NOTES
 62
     0
100
AcDbMText
 10
0.0
 20
-0.4231398940537119
 30
0.0
 40
0.25
 41
0.0
 71
     1
 72
     1
  1
FROST PRODUCTS LTD.  ANY REPRODUCTION IN PART OR AS A WHOLE WITHOUT 
  7
SLDTEXTSTYLE3
 73
     1
 44
1.0
  0
MTEXT
  5
9C
330
94
100
AcDbEntity
  8
NOTES
 62
     0
100
AcDbMText
 10
0.0
 20
-0.7958433085520636
 30
0.0
 40
0.25
 41
0.0
 71
     1
 72
     1
  1
THE WRITTEN PERMISSION OF FROST PRODUCTS LTD. IS PROHIBITED.
  7
SLDTEXTSTYLE3
 73
     1
 44
1.0
  0
ENDBLK
  5
387
330
94
100
AcDbEntity
  8
0
100
AcDbBlockEnd
  0
BLOCK
  5
388
330
116
100
AcDbEntity
  8
0
100
AcDbBlockBegin
  2
_D
 70
     0
 71
     0
 10
0.0
 20
0.0
 30
0.0
  3
_D
  1

  0
INSERT
  5
119
330
116
100
AcDbEntity
  8
DIMS
100
AcDbBlockReference
  2
_Open90
 10
9.970810759179216
 20
57.47776759234048
 30
-1.289655172413791
 41
0.7500000000000001
 42
0.7500000000000001
 50
0.0000000000004071
  0
INSERT
  5
11A
330
116
100
AcDbEntity
  8
DIMS
100
AcDbBlockReference
  2
_Open90
 10
2.970810759179218
 20
57.47776759234048
 30
-1.289655172413791
 41
0.7500000000000001
 42
0.7500000000000001
 50
180.0000000000004
  0
LINE
  5
11B
330
116
100
AcDbEntity
  8
DIMS
100
AcDbLine
 10
9.970810759179214
 20
55.07219016451898
 30
0.0
 11
9.970810759179216
 21
57.85276759234048
 31
0.0
  0
LINE
  5
11C
330
116
100
AcDbEntity
  8
DIMS
100
AcDbLine
 10
2.970810759179218
 20
55.07219016451898
 30
0.0
 11
2.970810759179218
 21
57.85276759234048
 31
0.0
  0
LINE
  5
11D
330
116
100
AcDbEntity
  8
DIMS
100
AcDbLine
 10
9.970810759179216
 20
57.47776759234048
 30
0.0
 11
6.746210164919337
 21
57.47776759234048
 31
0.0
  0
LINE
  5
11E
330
116
100
AcDbEntity
  8
DIMS
100
AcDbLine
 10
2.970810759179218
 20
57.47776759234048
 30
0.0
 11
5.882668513959511
 21
57.47776759234048
 31
0.0
  0
MTEXT
  5
11F
330
116
100
AcDbEntity
  8
DIMS
100
AcDbMText
 10
5.882668513959511
 20
57.84046290527461
 30
0.0
 40
0.7500000000000001
 41
0.0
 71
     1
 72
     1
  1
7"
  7
SLDTEXTSTYLE1
 73
     1
 44
1.0
  0
ENDBLK
  5
389
330
116
100
AcDbEntity
  8
0
100
AcDbBlockEnd
  0
BLOCK
  5
38A
330
122
100
AcDbEntity
  8
0
100
AcDbBlockBegin
  2
_D_1
 70
     0
 71
     0
 10
0.0
 20
0.0
 30
0.0
  3
_D_1
  1

  0
INSERT
  5
125
330
122
100
AcDbEntity
  8
DIMS
100
AcDbBlockReference
  2
_Open90
 10
14.14403910563591
 20
55.43052349785232
 30
-1.289655172413791
 41
0.7500000000000001
 42
0.7500000000000001
 50
90.00000000000041
  0
INSERT
  5
126
330
122
100
AcDbEntity
  8
DIMS
100
AcDbBlockReference
  2
_Open90
 10
14.14403910563591
 20
7.530523497852309
 30
-1.289655172413791
 41
0.7500000000000001
 42
0.7500000000000001
 50
270.0000000000004
  0
LINE
  5
127
330
122
100
AcDbEntity
  8
DIMS
100
AcDbLine
 10
14.15653914123443
 20
32.64465224141771
 30
0.0
 11
14.93049753373437
 21
32.64465224141771
 31
0.0
  0
LINE
  5
128
330
122
100
AcDbEntity
  8
DIMS
100
AcDbLine
 10
7.262477425845883
 20
55.43052349785232
 30
0.0
 11
14.51903910563591
 21
55.43052349785232
 31
0.0
  0
LINE
  5
129
330
122
100
AcDbEntity
  8
DIMS
100
AcDbLine
 10
8.637477425845882
 20
7.530523497852309
 30
0.0
 11
14.51903910563591
 21
7.530523497852309
 31
0.0
  0
LINE
  5
12A
330
122
100
AcDbEntity
  8
DIMS
100
AcDbLine
 10
14.14403910563591
 20
55.43052349785232
 30
0.0
 11
14.14403910563591
 21
33.54850642835036
 31
0.0
  0
LINE
  5
12B
330
122
100
AcDbEntity
  8
DIMS
100
AcDbLine
 10
14.14403910563591
 20
7.530523497852309
 30
0.0
 11
14.14403910563591
 21
31.58694382182229
 31
0.0
  0
MTEXT
  5
12C
330
122
100
AcDbEntity
  8
DIMS
100
AcDbMText
 10
12.93830996098855
 20
32.9887538274815
 30
0.0
 40
0.7500000000000001
 41
0.0
 71
     1
 72
     1
  1
47
  7
SLDTEXTSTYLE1
 73
     1
 44
1.0
  0
MTEXT
  5
12D
330
122
100
AcDbEntity
  8
DIMS
100
AcDbMText
 10
14.26643500337472
 20
33.53672256229991
 30
0.0
 40
0.7500000000000001
 41
0.0
 71
     1
 72
     1
  1
7
  7
SLDTEXTSTYLE1
 73
     1
 44
1.0
  0
MTEXT
  5
12E
330
122
100
AcDbEntity
  8
DIMS
100
AcDbMText
 10
14.26643500337472
 20
32.54495169619658
 30
0.0
 40
0.7500000000000001
 41
0.0
 71
     1
 72
     1
  1
8
  7
SLDTEXTSTYLE1
 73
     1
 44
1.0
  0
MTEXT
  5
12F
330
122
100
AcDbEntity
  8
DIMS
100
AcDbMText
 10
15.04039330420905
 20
32.9887538274815
 30
0.0
 40
0.7500000000000001
 41
0.0
 71
     1
 72
     1
  1
"
  7
SLDTEXTSTYLE1
 73
     1
 44
1.0
  0
ENDBLK
  5
38B
330
122
100
AcDbEntity
  8
0
100
AcDbBlockEnd
  0
BLOCK
  5
38C
330
132
100
AcDbEntity
  8
0
100
AcDbBlockBegin
  2
_D_2
 70
     0
 71
     0
 10
0.0
 20
0.0
 30
0.0
  3
_D_2
  1

  0
INSERT
  5
135
330
132
100
AcDbEntity
  8
DIMS
100
AcDbBlockReference
  2
_Open90
 10
7.220810759179217
 20
43.04235891139353
 30
-1.289655172413791
 41
0.7500000000000001
 42
0.7500000000000001
 50
180.0000000000004
  0
INSERT
  5
136
330
132
100
AcDbEntity
  8
DIMS
100
AcDbBlockReference
  2
_Open90
 10
5.720810759179217
 20
43.04235891139353
 30
-1.289655172413791
 41
0.7500000000000001
 42
0.7500000000000001
 50
0.0000000000004071
  0
LINE
  5
137
330
132
100
AcDbEntity
  8
DIMS
100
AcDbLine
 10
8.946896283749071
 20
43.11928602772492
 30
0.0
 11
9.72085467624901
 21
43.11928602772492
 31
0.0
  0
LINE
  5
138
330
132
100
AcDbEntity
  8
DIMS
100
AcDbLine
 10
7.220810759179217
 20
43.04235891139353
 30
0.0
 11
8.282833771722544
 21
43.04235891139353
 31
0.0
  0
LINE
  5
139
330
132
100
AcDbEntity
  8
DIMS
100
AcDbLine
 10
5.720810759179217
 20
43.04235891139353
 30
0.0
 11
4.278503066871525
 21
43.04235891139353
 31
0.0
  0
MTEXT
  5
13A
330
132
100
AcDbEntity
  8
DIMS
100
AcDbMText
 10
8.282833771722544
 20
43.4633876137887
 30
0.0
 40
0.7500000000000001
 41
0.0
 71
     1
 72
     1
  1
1
  7
SLDTEXTSTYLE1
 73
     1
 44
1.0
  0
MTEXT
  5
13B
330
132
100
AcDbEntity
  8
DIMS
100
AcDbMText
 10
9.05679214588936
 20
44.01135634860712
 30
0.0
 40
0.7500000000000001
 41
0.0
 71
     1
 72
     1
  1
1
  7
SLDTEXTSTYLE1
 73
     1
 44
1.0
  0
MTEXT
  5
13C
330
132
100
AcDbEntity
  8
DIMS
100
AcDbMText
 10
9.05679214588936
 20
43.01958548250379
 30
0.0
 40
0.7500000000000001
 41
0.0
 71
     1
 72
     1
  1
2
  7
SLDTEXTSTYLE1
 73
     1
 44
1.0
  0
MTEXT
  5
13D
330
132
100
AcDbEntity
  8
DIMS
100
AcDbMText
 10
9.830750556722421
 20
43.4633876137887
 30
0.0
 40
0.7500000000000001
 41
0.0
 71
     1
 72
     1
  1
"
  7
SLDTEXTSTYLE1
 73
     1
 44
1.0
  0
ENDBLK
  5
38D
330
132
100
AcDbEntity
  8
0
100
AcDbBlockEnd
  0
BLOCK
  5
38E
330
13F
100
AcDbEntity
  8
0
100
AcDbBlockBegin
  2
_D_3
 70
     0
 71
     0
 10
0.0
 20
0.0
 30
0.0
  3
_D_3
  1

  0
INSERT
  5
142
330
13F
100
AcDbEntity
  8
DIMS
100
AcDbBlockReference
  2
_Open90
 10
11.30939343634457
 20
54.88052349785232
 30
-1.289655172413791
 41
0.7500000000000001
 42
0.7500000000000001
 50
90.00000000000043
  0
INSERT
  5
143
330
13F
100
AcDbEntity
  8
DIMS
100
AcDbBlockReference
  2
_Open90
 10
11.30939343634457
 20
48.68052349785231
 30
-1.289655172413791
 41
0.7500000000000001
 42
0.7500000000000001
 50
270.0000000000004
  0
LINE
  5
144
330
13F
100
AcDbEntity
  8
DIMS
100
AcDbLine
 10
10.76772673039125
 20
51.85745061418368
 30
0.0
 11
12.09585182777679
 21
51.85745061418368
 31
0.0
  0
LINE
  5
145
330
13F
100
AcDbEntity
  8
DIMS
100
AcDbLine
 10
9.137477425845882
 20
54.88052349785232
 30
0.0
 11
11.68439343634457
 21
54.88052349785232
 31
0.0
  0
LINE
  5
146
330
13F
100
AcDbEntity
  8
DIMS
100
AcDbLine
 10
9.137477425845884
 20
48.68052349785231
 30
0.0
 11
11.68439343634457
 21
48.68052349785231
 31
0.0
  0
LINE
  5
147
330
13F
100
AcDbEntity
  8
DIMS
100
AcDbLine
 10
11.30939343634457
 20
54.88052349785232
 30
0.0
 11
11.30939343634457
 21
52.76130480111631
 31
0.0
  0
LINE
  5
148
330
13F
100
AcDbEntity
  8
DIMS
100
AcDbLine
 10
11.30939343634457
 20
48.68052349785231
 30
0.0
 11
11.30939343634457
 21
50.79974219458826
 31
0.0
  0
MTEXT
  5
149
330
13F
100
AcDbEntity
  8
DIMS
100
AcDbMText
 10
10.10366421836472
 20
52.20155220024747
 30
0.0
 40
0.7500000000000001
 41
0.0
 71
     1
 72
     1
  1
6
  7
SLDTEXTSTYLE1
 73
     1
 44
1.0
  0
MTEXT
  5
14A
330
13F
100
AcDbEntity
  8
DIMS
100
AcDbMText
 10
11.15470594497434
 20
52.74952093506588
 30
0.0
 40
0.7500000000000001
 41
0.0
 71
     1
 72
     1
  1
3
  7
SLDTEXTSTYLE1
 73
     1
 44
1.0
  0
MTEXT
  5
14B
330
13F
100
AcDbEntity
  8
DIMS
100
AcDbMText
 10
10.87762261086466
 20
51.75775006896256
 30
0.0
 40
0.7500000000000001
 41
0.0
 71
     1
 72
     1
  1
16
  7
SLDTEXTSTYLE1
 73
     1
 44
1.0
  0
MTEXT
  5
14C
330
13F
100
AcDbEntity
  8
DIMS
100
AcDbMText
 10
12.2057477082502
 20
52.20155220024747
 30
0.0
 40
0.7500000000000001
 41
0.0
 71
     1
 72
     1
  1
"
  7
SLDTEXTSTYLE1
 73
     1
 44
1.0
  0
ENDBLK
  5
38F
330
13F
100
AcDbEntity
  8
0
100
AcDbBlockEnd
  0
BLOCK
  5
390
330
14E
100
AcDbEntity
  8
0
100
AcDbBlockBegin
  2
_D_4
 70
     0
 71
     0
 10
0.0
 20
0.0
 30
0.0
  3
_D_4
  1

  0
INSERT
  5
151
330
14E
100
AcDbEntity
  8
DIMS
100
AcDbBlockReference
  2
_Open90
 10
8.970810759179212
 20
56.06044475769482
 30
-1.289655172413791
 41
0.7500000000000001
 42
0.7500000000000001
 50
0.0000000000005089
  0
INSERT
  5
152
330
14E
100
AcDbEntity
  8
DIMS
100
AcDbBlockReference
  2
_Open90
 10
3.970810759179209
 20
56.0604447576948
 30
-1.289655172413791
 41
0.7500000000000001
 42
0.7500000000000001
 50
180.0000000000005
  0
LINE
  5
153
330
14E
100
AcDbEntity
  8
DIMS
100
AcDbLine
 10
8.970810759179216
 20
55.04719016451898
 30
0.0
 11
8.970810759179212
 21
56.43544475769482
 31
0.0
  0
LINE
  5
154
330
14E
100
AcDbEntity
  8
DIMS
100
AcDbLine
 10
3.970810759179211
 20
55.04719016451897
 30
0.0
 11
3.970810759179209
 21
56.4354447576948
 31
0.0
  0
LINE
  5
155
330
14E
100
AcDbEntity
  8
DIMS
100
AcDbLine
 10
8.970810759179212
 20
56.06044475769482
 30
0.0
 11
6.902581584659127
 21
56.06044475769481
 31
0.0
  0
LINE
  5
156
330
14E
100
AcDbEntity
  8
DIMS
100
AcDbLine
 10
3.970810759179209
 20
56.0604447576948
 30
0.0
 11
6.0390399336993
 21
56.06044475769481
 31
0.0
  0
MTEXT
  5
157
330
14E
100
AcDbEntity
  8
DIMS
100
AcDbMText
 10
6.0390399336993
 20
56.42314007062894
 30
0.0
 40
0.7500000000000001
 41
0.0
 71
     1
 72
     1
  1
5"
  7
SLDTEXTSTYLE1
 73
     1
 44
1.0
  0
ENDBLK
  5
391
330
14E
100
AcDbEntity
  8
0
100
AcDbBlockEnd
  0
BLOCK
  5
392
330
159
100
AcDbEntity
  8
0
100
AcDbBlockBegin
  2
_D_5
 70
     0
 71
     0
 10
0.0
 20
0.0
 30
0.0
  3
_D_5
  1

  0
INSERT
  5
15C
330
159
100
AcDbEntity
  8
DIMS
100
AcDbBlockReference
  2
_Open90
 10
13.19915721587213
 20
55.28052349785231
 30
-1.289655172413791
 41
0.7500000000000001
 42
0.7500000000000001
 50
90.00000000000041
  0
INSERT
  5
15D
330
159
100
AcDbEntity
  8
DIMS
100
AcDbBlockReference
  2
_Open90
 10
13.19915721587213
 20
48.2805234978523
 30
-1.289655172413791
 41
0.7500000000000001
 42
0.7500000000000001
 50
270.0000000000004
  0
LINE
  5
15E
330
159
100
AcDbEntity
  8
DIMS
100
AcDbLine
 10
9.762477425845882
 20
55.28052349785231
 30
0.0
 11
13.57415721587213
 21
55.28052349785231
 31
0.0
  0
LINE
  5
15F
330
159
100
AcDbEntity
  8
DIMS
100
AcDbLine
 10
9.762477425845887
 20
48.2805234978523
 30
0.0
 11
13.57415721587213
 21
48.2805234978523
 31
0.0
  0
LINE
  5
160
330
159
100
AcDbEntity
  8
DIMS
100
AcDbLine
 10
13.19915721587213
 20
55.28052349785231
 30
0.0
 11
13.19915721587213
 21
52.37583599741817
 31
0.0
  0
LINE
  5
161
330
159
100
AcDbEntity
  8
DIMS
100
AcDbLine
 10
13.19915721587213
 20
48.2805234978523
 30
0.0
 11
13.19915721587213
 21
51.18521099828642
 31
0.0
  0
MTEXT
  5
162
330
159
100
AcDbEntity
  8
DIMS
100
AcDbMText
 10
12.76738639039222
 20
52.14321881078643
 30
0.0
 40
0.7500000000000001
 41
0.0
 71
     1
 72
     1
  1
7"
  7
SLDTEXTSTYLE1
 73
     1
 44
1.0
  0
ENDBLK
  5
393
330
159
100
AcDbEntity
  8
0
100
AcDbBlockEnd
  0
BLOCK
  5
394
330
164
100
AcDbEntity
  8
0
100
AcDbBlockBegin
  2
_D_6
 70
     0
 71
     0
 10
0.0
 20
0.0
 30
0.0
  3
_D_6
  1

  0
INSERT
  5
167
330
164
100
AcDbEntity
  8
DIMS
100
AcDbBlockReference
  2
_Open90
 10
9.655421392326616
 20
7.530523497852309
 30
-1.289655172413791
 41
0.7500000000000001
 42
0.7500000000000001
 50
90.00000000000041
  0
INSERT
  5
168
330
164
100
AcDbEntity
  8
DIMS
100
AcDbBlockReference
  2
_Open90
 10
9.655421392326616
 20
7.780523497852308
 30
-1.289655172413791
 41
0.7500000000000001
 42
0.7500000000000001
 50
270.0000000000004
  0
LINE
  5
169
330
164
100
AcDbEntity
  8
DIMS
100
AcDbLine
 10
10.01531723613378
 20
9.721736506107241
 30
0.0
 11
10.78927562863372
 21
9.721736506107241
 31
0.0
  0
LINE
  5
16A
330
164
100
AcDbEntity
  8
DIMS
100
AcDbLine
 10
8.137477425845884
 20
7.530523497852309
 30
0.0
 11
10.03042139232661
 21
7.530523497852309
 31
0.0
  0
LINE
  5
16B
330
164
100
AcDbEntity
  8
DIMS
100
AcDbLine
 10
8.137477425845884
 20
7.780523497852308
 30
0.0
 11
10.03042139232661
 21
7.780523497852308
 31
0.0
  0
LINE
  5
16C
330
164
100
AcDbEntity
  8
DIMS
100
AcDbLine
 10
9.905421392326614
 20
9.644809389775851
 30
0.0
 11
9.655421392326616
 21
9.644809389775851
 31
0.0
  0
LINE
  5
16D
330
164
100
AcDbEntity
  8
DIMS
100
AcDbLine
 10
9.655421392326616
 20
9.644809389775851
 30
0.0
 11
9.655421392326616
 21
7.780523497852308
 31
0.0
  0
LINE
  5
16E
330
164
100
AcDbEntity
  8
DIMS
100
AcDbLine
 10
9.655421392326616
 20
7.530523497852309
 30
0.0
 11
9.655421392326616
 21
6.088215805544617
 31
0.0
  0
MTEXT
  5
16F
330
164
100
AcDbEntity
  8
DIMS
100
AcDbMText
 10
10.12521309827407
 20
10.61380682698944
 30
0.0
 40
0.7500000000000001
 41
0.0
 71
     1
 72
     1
  1
1
  7
SLDTEXTSTYLE1
 73
     1
 44
1.0
  0
MTEXT
  5
170
330
164
100
AcDbEntity
  8
DIMS
100
AcDbMText
 10
10.12521309827407
 20
9.622035960886114
 30
0.0
 40
0.7500000000000001
 41
0.0
 71
     1
 72
     1
  1
4
  7
SLDTEXTSTYLE1
 73
     1
 44
1.0
  0
MTEXT
  5
171
330
164
100
AcDbEntity
  8
DIMS
100
AcDbMText
 10
10.89917147244089
 20
10.06583809217102
 30
0.0
 40
0.7500000000000001
 41
0.0
 71
     1
 72
     1
  1
"
  7
SLDTEXTSTYLE1
 73
     1
 44
1.0
  0
ENDBLK
  5
395
330
164
100
AcDbEntity
  8
0
100
AcDbBlockEnd
  0
BLOCK
  5
396
330
206
100
AcDbEntity
  8
0
100
AcDbBlockBegin
  2
_D_7
 70
     0
 71
     0
 10
0.0
 20
0.0
 30
0.0
  3
_D_7
  1

  0
INSERT
  5
209
330
206
100
AcDbEntity
  8
DIMS
100
AcDbBlockReference
  2
_Open90
 10
11.30939343634457
 20
65.24051040719344
 30
-0.0199999999999936
 41
0.7500000000000001
 42
0.7500000000000001
 50
90.0000000000004
  0
INSERT
  5
20A
330
206
100
AcDbEntity
  8
DIMS
100
AcDbBlockReference
  2
_Open90
 10
11.30939343634457
 20
61.24051040719344
 30
-0.0199999999999936
 41
0.7500000000000001
 42
0.7500000000000001
 50
270.0000000000004
  0
LINE
  5
20B
330
206
100
AcDbEntity
  8
DIMS
100
AcDbLine
 10
8.137477425845885
 20
65.24051040719344
 30
0.0
 11
11.68439343634457
 21
65.24051040719344
 31
0.0
  0
LINE
  5
20C
330
206
100
AcDbEntity
  8
DIMS
100
AcDbLine
 10
8.137477425845884
 20
61.24051040719344
 30
0.0
 11
11.68439343634457
 21
61.24051040719344
 31
0.0
  0
LINE
  5
20D
330
206
100
AcDbEntity
  8
DIMS
100
AcDbLine
 10
11.30939343634457
 20
65.24051040719344
 30
0.0
 11
11.30939343634457
 21
63.83582290675933
 31
0.0
  0
LINE
  5
20E
330
206
100
AcDbEntity
  8
DIMS
100
AcDbLine
 10
11.30939343634457
 20
61.24051040719344
 30
0.0
 11
11.30939343634457
 21
62.64519790762757
 31
0.0
  0
MTEXT
  5
20F
330
206
100
AcDbEntity
  8
DIMS
100
AcDbMText
 10
10.87762261086466
 20
63.60320572012758
 30
0.0
 40
0.7500000000000001
 41
0.0
 71
     1
 72
     1
  1
4"
  7
SLDTEXTSTYLE1
 73
     1
 44
1.0
  0
ENDBLK
  5
397
330
206
100
AcDbEntity
  8
0
100
AcDbBlockEnd
  0
BLOCK
  5
398
330
211
100
AcDbEntity
  8
0
100
AcDbBlockBegin
  2
_D_8
 70
     0
 71
     0
 10
0.0
 20
0.0
 30
0.0
  3
_D_8
  1

  0
INSERT
  5
214
330
211
100
AcDbEntity
  8
DIMS
100
AcDbBlockReference
  2
_Open90
 10
10.36451154658079
 20
64.74051040719344
 30
-0.0199999999999936
 41
0.7500000000000001
 42
0.7500000000000001
 50
90.00000000000036
  0
INSERT
  5
215
330
211
100
AcDbEntity
  8
DIMS
100
AcDbBlockReference
  2
_Open90
 10
10.36451154658079
 20
61.74051040719344
 30
-0.0199999999999936
 41
0.7500000000000001
 42
0.7500000000000001
 50
270.0000000000003
  0
LINE
  5
216
330
211
100
AcDbEntity
  8
DIMS
100
AcDbLine
 10
8.137477425845885
 20
64.74051040719344
 30
0.0
 11
10.73951154658079
 21
64.74051040719344
 31
0.0
  0
LINE
  5
217
330
211
100
AcDbEntity
  8
DIMS
100
AcDbLine
 10
8.137477425845882
 20
61.74051040719344
 30
0.0
 11
10.73951154658079
 21
61.74051040719344
 31
0.0
  0
LINE
  5
218
330
211
100
AcDbEntity
  8
DIMS
100
AcDbLine
 10
10.36451154658079
 20
64.74051040719344
 30
0.0
 11
10.36451154658079
 21
63.83582290675933
 31
0.0
  0
LINE
  5
219
330
211
100
AcDbEntity
  8
DIMS
100
AcDbLine
 10
10.36451154658079
 20
61.74051040719344
 30
0.0
 11
10.36451154658079
 21
62.64519790762758
 31
0.0
  0
MTEXT
  5
21A
330
211
100
AcDbEntity
  8
DIMS
100
AcDbMText
 10
9.932740721100876
 20
63.60320572012758
 30
0.0
 40
0.7500000000000001
 41
0.0
 71
     1
 72
     1
  1
3"
  7
SLDTEXTSTYLE1
 73
     1
 44
1.0
  0
ENDBLK
  5
399
330
211
100
AcDbEntity
  8
0
100
AcDbBlockEnd
  0
BLOCK
  5
39A
330
21C
100
AcDbEntity
  8
0
100
AcDbBlockBegin
  2
_D_9
 70
     0
 71
     0
 10
0.0
 20
0.0
 30
0.0
  3
_D_9
  1

  0
INSERT
  5
21F
330
21C
100
AcDbEntity
  8
DIMS
100
AcDbBlockReference
  2
_Open90
 10
4.970810759179215
 20
60.61058914735074
 30
-0.0199999999999936
 41
0.7500000000000001
 42
0.7500000000000001
 50
180.0000000000004
  0
INSERT
  5
220
330
21C
100
AcDbEntity
  8
DIMS
100
AcDbBlockReference
  2
_Open90
 10
7.970810759179215
 20
60.61058914735074
 30
-0.0199999999999936
 41
0.7500000000000001
 42
0.7500000000000001
 50
0.0000000000004071
  0
LINE
  5
221
330
21C
100
AcDbEntity
  8
DIMS
100
AcDbLine
 10
4.970810759179215
 20
61.57384374052677
 30
0.0
 11
4.970810759179215
 21
60.23558914735074
 31
0.0
  0
LINE
  5
222
330
21C
100
AcDbEntity
  8
DIMS
100
AcDbLine
 10
7.970810759179215
 20
61.57384374052677
 30
0.0
 11
7.970810759179215
 21
60.23558914735074
 31
0.0
  0
LINE
  5
223
330
21C
100
AcDbEntity
  8
DIMS
100
AcDbLine
 10
4.970810759179215
 20
60.61058914735074
 30
0.0
 11
7.970810759179215
 21
60.61058914735074
 31
0.0
  0
LINE
  5
224
330
21C
100
AcDbEntity
  8
DIMS
100
AcDbLine
 10
7.970810759179215
 20
60.61058914735074
 30
0.0
 11
8.6143128464821
 21
60.61058914735074
 31
0.0
  0
MTEXT
  5
225
330
21C
100
AcDbEntity
  8
DIMS
100
AcDbMText
 10
8.6143128464821
 20
60.97328446028485
 30
0.0
 40
0.7500000000000001
 41
0.0
 71
     1
 72
     1
  1
3"
  7
SLDTEXTSTYLE1
 73
     1
 44
1.0
  0
ENDBLK
  5
39B
330
21C
100
AcDbEntity
  8
0
100
AcDbBlockEnd
  0
BLOCK
  5
39C
330
361
100
AcDbEntity
  8
0
100
AcDbBlockBegin
  2
SW_NOTE_0_2
 70
     0
 71
     0
 10
0.0
 20
0.0
 30
0.0
  3
SW_NOTE_0_2
  1

  0
MTEXT
  5
364
330
361
100
AcDbEntity
  8
NOTES
 62
     0
100
AcDbMText
 10
-11.1449922888797
 20
1.477027102458982
 30
0.0
 40
0.7500000000000001
 41
0.0
 71
     1
 72
     1
  1
Heavy duty pedestal, 
  7
SLDTEXTSTYLE1
 73
     1
 44
1.0
  0
MTEXT
  5
365
330
361
100
AcDbEntity
  8
NOTES
 62
     0
100
AcDbMText
 10
-11.1449922888797
 20
0.2270270625661093
 30
0.0
 40
0.7500000000000001
 41
0.0
 71
     1
 72
     1
  1
exterior polyester finish. 
  7
SLDTEXTSTYLE1
 73
     1
 44
1.0
  0
ENDBLK
  5
39D
330
361
100
AcDbEntity
  8
0
100
AcDbBlockEnd
  0
ENDSEC
  0
SECTION
  2
ENTITIES
  0
LINE
  5
7A
330
1F
100
AcDbEntity
  8
TITLE
370
    50
100
AcDbLine
 10
29.43391070279198
 20
1.381311886050946
 30
0.0
 11
46.41567412997442
 21
1.381311886050946
 31
0.0
  0
LINE
  5
7B
330
1F
100
AcDbEntity
  8
TITLE
370
    50
100
AcDbLine
 10
46.4156194230234
 20
5.369060515145104
 30
0.0
 11
36.22622275109721
 21
5.369060515145103
 31
0.0
  0
LINE
  5
7C
330
1F
100
AcDbEntity
  8
TITLE
370
    50
100
AcDbLine
 10
29.43391070279198
 20
2.436487844692758
 30
0.0
 11
22.42166679904371
 21
2.436487844692757
 31
0.0
  0
LINE
  5
7D
330
1F
100
AcDbEntity
  8
TITLE
370
    50
100
AcDbLine
 10
29.43391070279198
 20
1.381311886050946
 30
0.0
 11
22.42166679904371
 21
1.381311886050945
 31
0.0
  0
LINE
  5
7E
330
1F
100
AcDbEntity
  8
TITLE
370
    50
100
AcDbLine
 10
29.43391070279198
 20
1.381311886050946
 30
0.0
 11
29.43391070279198
 21
3.491663803334569
 31
0.0
  0
LINE
  5
7F
330
1F
100
AcDbEntity
  8
TITLE
370
    50
100
AcDbLine
 10
22.42166679904371
 20
3.491663803334568
 30
0.0
 11
22.42166679904371
 21
0.3937001215893171
 31
0.0
  0
LINE
  5
80
330
1F
100
AcDbEntity
  8
TITLE
370
    50
100
AcDbLine
 10
22.42166679904371
 20
0.3937001215893171
 30
0.0
 11
46.41568767877938
 21
0.3937001215893171
 31
0.0
  0
LINE
  5
81
330
1F
100
AcDbEntity
  8
TITLE
370
    50
100
AcDbLine
 10
46.4156194230234
 20
5.369060515145104
 30
0.0
 11
46.41568767877938
 21
0.3937001215893171
 31
0.0
  0
LINE
  5
82
330
1F
100
AcDbEntity
  8
TITLE
370
    50
100
AcDbLine
 10
29.43391070279198
 20
3.491663803334569
 30
0.0
 11
22.42166679904371
 21
3.491663803334568
 31
0.0
  0
LINE
  5
83
330
1F
100
AcDbEntity
  8
TITLE
370
    50
100
AcDbLine
 10
29.43391070279198
 20
3.491663803334569
 30
0.0
 11
46.41544924304012
 21
3.491664955913943
 31
0.0
  0
LINE
  5
84
330
1F
100
AcDbEntity
  8
TITLE
370
    50
100
AcDbLine
 10
36.22622275109721
 20
5.369060515145103
 30
0.0
 11
36.22622275109721
 21
0.3573773641115478
 31
0.0
  0
MTEXT
  5
86
330
1F
100
AcDbEntity
  8
NOTES
100
AcDbMText
 10
23.32398548181345
 20
0.9639904562836571
 30
0.0
 40
0.25
 41
0.0
 71
     1
 72
     1
  1
UNLESS OTHERWISE SPECIFIED DIMENSIONS ARE IN INCHES.
  7
SLDTEXTSTYLE0
 73
     1
 44
1.0
  0
MTEXT
  5
87
330
1F
100
AcDbEntity
  8
NOTES
100
AcDbMText
 10
23.34575760666969
 20
2.976762899169739
 30
0.0
 40
0.25
 41
0.0
 71
     1
 72
     1
  1
DATE:
  7
SLDTEXTSTYLE0
 73
     1
 44
1.0
  0
MTEXT
  5
88
330
1F
100
AcDbEntity
  8
NOTES
100
AcDbMText
 10
25.4543888667847
 20
2.086733085252027
 30
0.0
 40
0.25
 41
0.0
 71
     2
 72
     1
  1
DO NOT SCALE DRAWING
  7
SLDTEXTSTYLE0
 73
     1
 44
1.0
  0
MTEXT
  5
8A
330
1F
100
AcDbEntity
  8
NOTES
100
AcDbMText
 10
29.74642498628476
 20
3.161975676886921
 30
0.0
 40
0.25
 41
0.0
 71
     1
 72
     1
  1
TITLE:
  7
SLDTEXTSTYLE1
 73
     1
 44
1.0
  0
MTEXT
  5
8B
330
1F
100
AcDbEntity
  8
NOTES
100
AcDbMText
 10
37.07187078394034
 20
3.161975676886921
 30
0.0
 40
0.25
 41
0.0
 71
     1
 72
     1
  1
DWG NO.
  7
SLDTEXTSTYLE1
 73
     1
 44
1.0
  0
MTEXT
  5
8C
330
1F
100
AcDbEntity
  8
NOTES
100
AcDbMText
 10
37.09886299906432
 20
0.9582816792631479
 30
0.0
 40
0.25
 41
0.0
 71
     1
 72
     1
  1
SCALE:     1:1
  7
SLDTEXTSTYLE1
 73
     1
 44
1.0
  0
MTEXT
  5
8D
330
1F
100
AcDbEntity
  8
NOTES
100
AcDbMText
 10
41.10443686543582
 20
2.715203974496149
 30
0.0
 40
0.25
 41
0.0
 71
     2
 72
     1
  1
909-100-Stand
  7
SLDTEXTSTYLE1
 73
     1
 44
1.0
  0
INSERT
  5
9D
330
1F
100
AcDbEntity
  8
NOTES
100
AcDbBlockReference
  2
SW_NOTE_0_1
 10
23.53166030337019
 20
5.041852806368022
 30
0.0
  0
LINE
  5
9E
330
1F
100
AcDbEntity
  8
0
  6
SLD-Solid
 62
     7
370
    25
100
AcDbLine
 10
7.095810759179216
 20
55.3705234978523
 30
0.0
 11
5.845810759179216
 21
55.3705234978523
 31
0.0
  0
LINE
  5
9F
330
1F
100
AcDbEntity
  8
0
  6
SLD-Solid
 62
     7
370
    25
100
AcDbLine
 10
5.845810759179216
 20
55.3705234978523
 30
0.0
 11
5.845810759179216
 21
55.43052349785232
 31
0.0
  0
LINE
  5
A0
330
1F
100
AcDbEntity
  8
0
  6
SLD-Solid
 62
     7
370
    25
100
AcDbLine
 10
5.845810759179216
 20
55.43052349785232
 30
0.0
 11
7.095810759179216
 21
55.43052349785232
 31
0.0
  0
LINE
  5
A1
330
1F
100
AcDbEntity
  8
0
  6
SLD-Solid
 62
     7
370
    25
100
AcDbLine
 10
7.095810759179216
 20
55.3705234978523
 30
0.0
 11
7.095810759179216
 21
55.43052349785232
 31
0.0
  0
LINE
  5
A2
330
1F
100
AcDbEntity
  8
0
  6
SLD-Solid
 62
     7
370
    25
100
AcDbLine
 10
7.095810759179216
 20
55.43052349785232
 30
0.0
 11
7.160810759179217
 21
55.43052349785232
 31
0.0
  0
ARC
  5
A3
330
1F
100
AcDbEntity
  8
0
  6
SLD-Solid
 62
     7
370
    25
100
AcDbCircle
 10
7.160810759179217
 20
55.3705234978523
 30
0.0
 40
0.0600000000000165
100
AcDbArc
 50
0.0
 51
90.0
  0
LINE
  5
A4
330
1F
100
AcDbEntity
  8
0
  6
SLD-Solid
 62
     7
370
    25
100
AcDbLine
 10
7.220810759179216
 20
55.3705234978523
 30
0.0
 11
7.095810759179216
 21
55.3705234978523
 31
0.0
  0
LINE
  5
A5
330
1F
100
AcDbEntity
  8
0
  6
SLD-Solid
 62
     7
370
    25
100
AcDbLine
 10
7.095810759179216
 20
55.28052349785231
 30
0.0
 11
7.095810759179216
 21
55.3705234978523
 31
0.0
  0
LINE
  5
A6
330
1F
100
AcDbEntity
  8
0
  6
SLD-Solid
 62
     7
370
    25
100
AcDbLine
 10
7.220810759179216
 20
55.3705234978523
 30
0.0
 11
7.220810759179216
 21
55.28052349785231
 31
0.0
  0
LINE
  5
A7
330
1F
100
AcDbEntity
  8
0
  6
SLD-Solid
 62
     7
370
    25
100
AcDbLine
 10
5.845810759179216
 20
55.3705234978523
 30
0.0
 11
5.845810759179216
 21
55.28052349785231
 31
0.0
  0
LINE
  5
A8
330
1F
100
AcDbEntity
  8
0
  6
SLD-Solid
 62
     7
370
    25
100
AcDbLine
 10
5.845810759179216
 20
55.3705234978523
 30
0.0
 11
5.720810759179216
 21
55.3705234978523
 31
0.0
  0
ARC
  5
A9
330
1F
100
AcDbEntity
  8
0
  6
SLD-Solid
 62
     7
370
    25
100
AcDbCircle
 10
5.780810759179215
 20
55.3705234978523
 30
0.0
 40
0.0600000000000165
100
AcDbArc
 50
90.0
 51
180.0
  0
LINE
  5
AA
330
1F
100
AcDbEntity
  8
0
  6
SLD-Solid
 62
     7
370
    25
100
AcDbLine
 10
5.780810759179215
 20
55.43052349785232
 30
0.0
 11
5.845810759179216
 21
55.43052349785232
 31
0.0
  0
LINE
  5
AB
330
1F
100
AcDbEntity
  8
0
  6
SLD-Solid
 62
     7
370
    25
100
AcDbLine
 10
5.720810759179216
 20
55.28052349785231
 30
0.0
 11
5.720810759179216
 21
55.3705234978523
 31
0.0
  0
LINE
  5
AC
330
1F
100
AcDbEntity
  8
0
  6
SLD-Solid
 62
     7
370
    25
100
AcDbLine
 10
8.912366312144778
 20
48.64182643467952
 30
0.0
 11
8.902708682441121
 21
48.66393063097166
 31
0.0
  0
LINE
  5
AD
330
1F
100
AcDbEntity
  8
0
  6
SLD-Solid
 62
     7
370
    25
100
AcDbLine
 10
8.955423931296313
 20
48.6606389052254
 30
0.0
 11
8.912366312144778
 21
48.64182643467952
 31
0.0
  0
LINE
  5
AE
330
1F
100
AcDbEntity
  8
0
  6
SLD-Solid
 62
     7
370
    25
100
AcDbLine
 10
8.987403626059866
 20
48.61242142111421
 30
0.0
 11
8.968591155513971
 21
48.65547904026575
 31
0.0
  0
LINE
  5
AF
330
1F
100
AcDbEntity
  8
0
  6
SLD-Solid
 62
     7
370
    25
100
AcDbLine
 10
9.00950782235201
 20
48.62207905081787
 30
0.0
 11
8.987403626059866
 21
48.61242142111421
 31
0.0
  0
LINE
  5
B0
330
1F
100
AcDbEntity
  8
0
  6
SLD-Solid
 62
     7
370
    25
100
AcDbLine
 10
8.990695351806115
 20
48.66513666996941
 30
0.0
 11
9.00950782235201
 21
48.62207905081787
 31
0.0
  0
SPLINE
  5
B1
330
1F
100
AcDbEntity
  8
0
  6
SLD-Solid
 62
     7
370
    25
100
AcDbSpline
210
0.0
220
0.0
230
1.0
 70
    12
 71
     3
 72
    12
 73
     8
 74
     0
 42
0.00000001
 43
0.00000001
 40
0.0
 40
0.0
 40
0.0
 40
0.0
 40
0.2143872604294348
 40
0.4287939078187105
 40
0.6427699702212657
 40
0.8565623456011379
 40
1.0
 40
1.0
 40
1.0
 40
1.0
 10
8.995855216765777
 20
48.67830389418705
 30
0.0
 41
1.0
 10
8.994871331473096
 20
48.67775401382209
 30
0.0
 41
1.0
 10
8.992903471915357
 20
48.67665420336666
 30
0.0
 41
1.0
 10
8.990847907336251
 20
48.67388096392472
 30
0.0
 41
1.0
 10
8.989789366526324
 20
48.67065911211768
 30
0.0
 41
1.0
 10
8.989809363058049
 20
48.66759919069444
 30
0.0
 41
1.0
 10
8.99044152246609
 20
48.66584216426806
 30
0.0
 41
1.0
 10
8.990695351806115
 20
48.66513666996941
 30
0.0
 41
1.0
  0
LINE
  5
B2
330
1F
100
AcDbEntity
  8
0
  6
SLD-Solid
 62
     7
370
    25
100
AcDbLine
 10
9.03891283591731
 20
48.69711636473296
 30
0.0
 11
8.995855216765777
 21
48.67830389418705
 31
0.0
  0
LINE
  5
B3
330
1F
100
AcDbEntity
  8
0
  6
SLD-Solid
 62
     7
370
    25
100
AcDbLine
 10
9.029255206213653
 20
48.7192205610251
 30
0.0
 11
9.03891283591731
 21
48.69711636473296
 31
0.0
  0
LINE
  5
B4
330
1F
100
AcDbEntity
  8
0
  6
SLD-Solid
 62
     7
370
    25
100
AcDbLine
 10
8.986197587062119
 20
48.70040809047921
 30
0.0
 11
9.029255206213653
 21
48.7192205610251
 31
0.0
  0
SPLINE
  5
B5
330
1F
100
AcDbEntity
  8
0
  6
SLD-Solid
 62
     7
370
    25
100
AcDbSpline
210
0.0
220
0.0
230
1.0
 70
    12
 71
     3
 72
    12
 73
     8
 74
     0
 42
0.00000001
 43
0.00000001
 40
0.0
 40
0.0
 40
0.0
 40
0.0
 40
0.2143872604294275
 40
0.4287939078184798
 40
0.6427699702210613
 40
0.8565623456010371
 40
1.0
 40
1.0
 40
1.0
 40
1.0
 10
8.973030362844462
 20
48.70556795543888
 30
0.0
 41
1.0
 10
8.973580243209438
 20
48.7045840701462
 30
0.0
 41
1.0
 10
8.974680053664866
 20
48.70261621058845
 30
0.0
 41
1.0
 10
8.977453293106814
 20
48.70056064600934
 30
0.0
 41
1.0
 10
8.980675144913846
 20
48.69950210519942
 30
0.0
 41
1.0
 10
8.983735066337099
 20
48.69952210173113
 30
0.0
 41
1.0
 10
8.985492092763469
 20
48.70015426113919
 30
0.0
 41
1.0
 10
8.986197587062119
 20
48.70040809047921
 30
0.0
 41
1.0
  0
LINE
  5
B6
330
1F
100
AcDbEntity
  8
0
  6
SLD-Solid
 62
     7
370
    25
100
AcDbLine
 10
8.954217892298567
 20
48.7486255745904
 30
0.0
 11
8.973030362844462
 21
48.70556795543887
 31
0.0
  0
LINE
  5
B7
330
1F
100
AcDbEntity
  8
0
  6
SLD-Solid
 62
     7
370
    25
100
AcDbLine
 10
8.932113696006423
 20
48.73896794488675
 30
0.0
 11
8.954217892298567
 21
48.7486255745904
 31
0.0
  0
LINE
  5
B8
330
1F
100
AcDbEntity
  8
0
  6
SLD-Solid
 62
     7
370
    25
100
AcDbLine
 10
8.950926166552318
 20
48.69591032573521
 30
0.0
 11
8.932113696006423
 21
48.73896794488675
 31
0.0
  0
SPLINE
  5
B9
330
1F
100
AcDbEntity
  8
0
  6
SLD-Solid
 62
     7
370
    25
100
AcDbSpline
210
0.0
220
0.0
230
1.0
 70
    12
 71
     3
 72
    12
 73
     8
 74
     0
 42
0.00000001
 43
0.00000001
 40
0.0
 40
0.0
 40
0.0
 40
0.0
 40
0.2143872604294327
 40
0.4287939078187273
 40
0.6427699702212694
 40
0.8565623456011393
 40
1.0
 40
1.0
 40
1.0
 40
1.0
 10
8.945766301592656
 20
48.68274310151755
 30
0.0
 41
1.0
 10
8.946750186885337
 20
48.68329298188252
 30
0.0
 41
1.0
 10
8.948718046443078
 20
48.68439279233795
 30
0.0
 41
1.0
 10
8.950773611022184
 20
48.68716603177992
 30
0.0
 41
1.0
 10
8.951832151832107
 20
48.69038788358693
 30
0.0
 41
1.0
 10
8.951812155300383
 20
48.69344780501017
 30
0.0
 41
1.0
 10
8.951179995892343
 20
48.69520483143656
 30
0.0
 41
1.0
 10
8.950926166552318
 20
48.69591032573521
 30
0.0
 41
1.0
  0
LINE
  5
BA
330
1F
100
AcDbEntity
  8
0
  6
SLD-Solid
 62
     7
370
    25
100
AcDbLine
 10
8.902708682441121
 20
48.66393063097166
 30
0.0
 11
8.945766301592656
 21
48.68274310151755
 31
0.0
  0
CIRCLE
  5
BB
330
1F
100
AcDbEntity
  8
0
  6
SLD-Solid
 62
     7
370
    25
100
AcDbCircle
 10
8.970810759179216
 20
48.68052349785231
 30
0.0
 40
0.2107717445952741
  0
SPLINE
  5
BC
330
1F
100
AcDbEntity
  8
0
  6
SLD-Solid
 62
     7
370
    25
100
AcDbSpline
210
0.0
220
0.0
230
1.0
 70
    12
 71
     3
 72
    12
 73
     8
 74
     0
 42
0.00000001
 43
0.00000001
 40
0.0
 40
0.0
 40
0.0
 40
0.0
 40
0.2143872604294275
 40
0.4287939078184798
 40
0.6427699702210613
 40
0.8565623456010371
 40
1.0
 40
1.0
 40
1.0
 40
1.0
 10
8.968591155513971
 20
48.65547904026576
 30
0.0
 41
1.0
 10
8.968041275148995
 20
48.65646292555844
 30
0.0
 41
1.0
 10
8.96694146469357
 20
48.65843078511618
 30
0.0
 41
1.0
 10
8.964168225251617
 20
48.66048634969527
 30
0.0
 41
1.0
 10
8.960946373444587
 20
48.66154489050522
 30
0.0
 41
1.0
 10
8.957886452021333
 20
48.66152489397348
 30
0.0
 41
1.0
 10
8.956129425594963
 20
48.66089273456544
 30
0.0
 41
1.0
 10
8.955423931296313
 20
48.6606389052254
 30
0.0
 41
1.0
  0
CIRCLE
  5
BD
330
1F
100
AcDbEntity
  8
0
  6
SLD-Solid
 62
     7
370
    25
100
AcDbCircle
 10
8.970810759179216
 20
48.68052349785231
 30
0.0
 40
0.2149999999999998
  0
LINE
  5
BE
330
1F
100
AcDbEntity
  8
0
  6
SLD-Solid
 62
     7
370
    25
100
AcDbLine
 10
4.040854975996322
 20
54.8831737389428
 30
0.0
 11
4.037605793393546
 21
54.8592716863609
 31
0.0
  0
LINE
  5
BF
330
1F
100
AcDbEntity
  8
0
  6
SLD-Solid
 62
     7
370
    25
100
AcDbLine
 10
3.994295243020299
 20
54.88950294744309
 30
0.0
 11
4.040854975996322
 21
54.8831737389428
 31
0.0
  0
SPLINE
  5
C0
330
1F
100
AcDbEntity
  8
0
  6
SLD-Solid
 62
     7
370
    25
100
AcDbSpline
210
0.0
220
0.0
230
1.0
 70
    12
 71
     3
 72
    12
 73
     8
 74
     0
 42
0.00000001
 43
0.00000001
 40
0.0
 40
0.0
 40
0.0
 40
0.0
 40
0.2143872604297249
 40
0.4287939078187751
 40
0.6427699702209818
 40
0.8565623456010859
 40
1.0
 40
1.0
 40
1.0
 40
1.0
 10
3.985733362170334
 20
54.90075879909062
 30
0.0
 41
1.0
 10
3.985691232123327
 20
54.89963246710401
 30
0.0
 41
1.0
 10
3.985606968219508
 20
54.89737970127698
 30
0.0
 41
1.0
 10
3.986906317325226
 20
54.89418159329838
 30
0.0
 41
1.0
 10
3.989107417544153
 20
54.89160167168351
 30
0.0
 41
1.0
 10
3.991731219301644
 20
54.89002712942774
 30
0.0
 41
1.0
 10
3.993560668851345
 20
54.88965312177375
 30
0.0
 41
1.0
 10
3.994295243020299
 20
54.88950294744309
 30
0.0
 41
1.0
  0
LINE
  5
C1
330
1F
100
AcDbEntity
  8
0
  6
SLD-Solid
 62
     7
370
    25
100
AcDbLine
 10
3.992062570670616
 20
54.94731853206663
 30
0.0
 11
3.985733362170334
 21
54.90075879909062
 31
0.0
  0
LINE
  5
C2
330
1F
100
AcDbEntity
  8
0
  6
SLD-Solid
 62
     7
370
    25
100
AcDbLine
 10
3.968160518088706
 20
54.95056771466941
 30
0.0
 11
3.992062570670616
 21
54.94731853206663
 31
0.0
  0
LINE
  5
C3
330
1F
100
AcDbEntity
  8
0
  6
SLD-Solid
 62
     7
370
    25
100
AcDbLine
 10
3.961831309588423
 20
54.9040079816934
 30
0.0
 11
3.968160518088706
 21
54.95056771466941
 31
0.0
  0
SPLINE
  5
C4
330
1F
100
AcDbEntity
  8
0
  6
SLD-Solid
 62
     7
370
    25
100
AcDbSpline
210
0.0
220
0.0
230
1.0
 70
    12
 71
     3
 72
    12
 73
     8
 74
     0
 42
0.00000001
 43
0.00000001
 40
0.0
 40
0.0
 40
0.0
 40
0.0
 40
0.2143872604296335
 40
0.4287939078186114
 40
0.6427699702210402
 40
0.8565623456009943
 40
1.0
 40
1.0
 40
1.0
 40
1.0
 10
3.950575457940901
 20
54.89544610084342
 30
0.0
 41
1.0
 10
3.951701789927519
 20
54.89540397079642
 30
0.0
 41
1.0
 10
3.953954555754532
 20
54.89531970689261
 30
0.0
 41
1.0
 10
3.957152663733125
 20
54.89661905599832
 30
0.0
 41
1.0
 10
3.959732585348024
 20
54.89882015621724
 30
0.0
 41
1.0
 10
3.961307127603769
 20
54.90144395797473
 30
0.0
 41
1.0
 10
3.961681135257758
 20
54.90327340752444
 30
0.0
 41
1.0
 10
3.961831309588423
 20
54.9040079816934
 30
0.0
 41
1.0
  0
LINE
  5
C5
330
1F
100
AcDbEntity
  8
0
  6
SLD-Solid
 62
     7
370
    25
100
AcDbLine
 10
3.904015724964878
 20
54.9017753093437
 30
0.0
 11
3.950575457940902
 21
54.89544610084342
 31
0.0
  0
LINE
  5
C6
330
1F
100
AcDbEntity
  8
0
  6
SLD-Solid
 62
     7
370
    25
100
AcDbLine
 10
3.900766542362101
 20
54.8778732567618
 30
0.0
 11
3.904015724964878
 21
54.9017753093437
 31
0.0
  0
LINE
  5
C7
330
1F
100
AcDbEntity
  8
0
  6
SLD-Solid
 62
     7
370
    25
100
AcDbLine
 10
3.947326275338124
 20
54.87154404826152
 30
0.0
 11
3.900766542362101
 21
54.8778732567618
 31
0.0
  0
SPLINE
  5
C8
330
1F
100
AcDbEntity
  8
0
  6
SLD-Solid
 62
     7
370
    25
100
AcDbSpline
210
0.0
220
0.0
230
1.0
 70
    12
 71
     3
 72
    12
 73
     8
 74
     0
 42
0.00000001
 43
0.00000001
 40
0.0
 40
0.0
 40
0.0
 40
0.0
 40
0.2143872604297256
 40
0.4287939078187757
 40
0.6427699702209825
 40
0.8565623456010866
 40
1.0
 40
1.0
 40
1.0
 40
1.0
 10
3.95588815618809
 20
54.860288196614
 30
0.0
 41
1.0
 10
3.955930286235096
 20
54.86141452860061
 30
0.0
 41
1.0
 10
3.956014550138914
 20
54.86366729442761
 30
0.0
 41
1.0
 10
3.954715201033197
 20
54.86686540240623
 30
0.0
 41
1.0
 10
3.952514100814269
 20
54.86944532402112
 30
0.0
 41
1.0
 10
3.949890299056779
 20
54.87101986627687
 30
0.0
 41
1.0
 10
3.948060849507078
 20
54.87139387393084
 30
0.0
 41
1.0
 10
3.947326275338124
 20
54.87154404826152
 30
0.0
 41
1.0
  0
LINE
  5
C9
330
1F
100
AcDbEntity
  8
0
  6
SLD-Solid
 62
     7
370
    25
100
AcDbLine
 10
3.949558947687807
 20
54.81372846363796
 30
0.0
 11
3.95588815618809
 21
54.860288196614
 31
0.0
  0
LINE
  5
CA
330
1F
100
AcDbEntity
  8
0
  6
SLD-Solid
 62
     7
370
    25
100
AcDbLine
 10
3.973461000269717
 20
54.81047928103519
 30
0.0
 11
3.949558947687807
 21
54.81372846363796
 31
0.0
  0
LINE
  5
CB
330
1F
100
AcDbEntity
  8
0
  6
SLD-Solid
 62
     7
370
    25
100
AcDbLine
 10
3.97979020877
 20
54.85703901401122
 30
0.0
 11
3.973461000269717
 21
54.81047928103519
 31
0.0
  0
SPLINE
  5
CC
330
1F
100
AcDbEntity
  8
0
  6
SLD-Solid
 62
     7
370
    25
100
AcDbSpline
210
0.0
220
0.0
230
1.0
 70
    12
 71
     3
 72
    12
 73
     8
 74
     0
 42
0.00000001
 43
0.00000001
 40
0.0
 40
0.0
 40
0.0
 40
0.0
 40
0.2143872604296322
 40
0.4287939078186414
 40
0.6427699702210424
 40
0.8565623456009952
 40
1.0
 40
1.0
 40
1.0
 40
1.0
 10
3.991046060417522
 20
54.86560089486119
 30
0.0
 41
1.0
 10
3.989919728430904
 20
54.86564302490818
 30
0.0
 41
1.0
 10
3.987666962603892
 20
54.86572728881198
 30
0.0
 41
1.0
 10
3.984468854625296
 20
54.8644279397063
 30
0.0
 41
1.0
 10
3.981888933010399
 20
54.86222683948737
 30
0.0
 41
1.0
 10
3.980314390754654
 20
54.85960303772986
 30
0.0
 41
1.0
 10
3.979940383100665
 20
54.85777358818019
 30
0.0
 41
1.0
 10
3.97979020877
 20
54.85703901401122
 30
0.0
 41
1.0
  0
LINE
  5
CD
330
1F
100
AcDbEntity
  8
0
  6
SLD-Solid
 62
     7
370
    25
100
AcDbLine
 10
4.037605793393546
 20
54.8592716863609
 30
0.0
 11
3.991046060417522
 21
54.86560089486119
 31
0.0
  0
CIRCLE
  5
CE
330
1F
100
AcDbEntity
  8
0
  6
SLD-Solid
 62
     7
370
    25
100
AcDbCircle
 10
3.970810759179212
 20
54.8805234978523
 30
0.0
 40
0.2107717445952733
  0
CIRCLE
  5
CF
330
1F
100
AcDbEntity
  8
0
  6
SLD-Solid
 62
     7
370
    25
100
AcDbCircle
 10
3.970810759179212
 20
54.8805234978523
 30
0.0
 40
0.2150000000000004
  0
LINE
  5
D0
330
1F
100
AcDbEntity
  8
0
  6
SLD-Solid
 62
     7
370
    25
100
AcDbLine
 10
8.934479802758931
 20
54.82057954325347
 30
0.0
 11
8.916310002279559
 21
54.83644534470675
 31
0.0
  0
LINE
  5
D1
330
1F
100
AcDbEntity
  8
0
  6
SLD-Solid
 62
     7
370
    25
100
AcDbLine
 10
8.965385411245194
 20
54.85597320058261
 30
0.0
 11
8.934479802758931
 21
54.82057954325347
 31
0.0
  0
LINE
  5
D2
330
1F
100
AcDbEntity
  8
0
  6
SLD-Solid
 62
     7
370
    25
100
AcDbLine
 10
9.01488891232479
 20
54.82602274095265
 30
0.0
 11
8.97949525499565
 21
54.85692834943891
 31
0.0
  0
LINE
  5
D3
330
1F
100
AcDbEntity
  8
0
  6
SLD-Solid
 62
     7
370
    25
100
AcDbLine
 10
9.030754713778053
 20
54.84419254143202
 30
0.0
 11
9.01488891232479
 21
54.82602274095265
 31
0.0
  0
LINE
  5
D4
330
1F
100
AcDbEntity
  8
0
  6
SLD-Solid
 62
     7
370
    25
100
AcDbLine
 10
8.995361056448914
 20
54.87509814991829
 30
0.0
 11
9.030754713778053
 21
54.84419254143202
 31
0.0
  0
LINE
  5
D5
330
1F
100
AcDbEntity
  8
0
  6
SLD-Solid
 62
     7
370
    25
100
AcDbLine
 10
9.02531151607887
 20
54.92460165099789
 30
0.0
 11
8.99440590759261
 21
54.88920799366874
 31
0.0
  0
LINE
  5
D6
330
1F
100
AcDbEntity
  8
0
  6
SLD-Solid
 62
     7
370
    25
100
AcDbLine
 10
9.007141715599497
 20
54.94046745245114
 30
0.0
 11
9.02531151607887
 21
54.92460165099789
 31
0.0
  0
LINE
  5
D7
330
1F
100
AcDbEntity
  8
0
  6
SLD-Solid
 62
     7
370
    25
100
AcDbLine
 10
8.976236107113236
 20
54.90507379512202
 30
0.0
 11
9.007141715599497
 21
54.94046745245114
 31
0.0
  0
LINE
  5
D8
330
1F
100
AcDbEntity
  8
0
  6
SLD-Solid
 62
     7
370
    25
100
AcDbLine
 10
8.926732606033639
 20
54.93502425475196
 30
0.0
 11
8.96212626336278
 21
54.9041186462657
 31
0.0
  0
LINE
  5
D9
330
1F
100
AcDbEntity
  8
0
  6
SLD-Solid
 62
     7
370
    25
100
AcDbLine
 10
8.910866804580376
 20
54.9168544542726
 30
0.0
 11
8.926732606033639
 21
54.93502425475196
 31
0.0
  0
LINE
  5
DA
330
1F
100
AcDbEntity
  8
0
  6
SLD-Solid
 62
     7
370
    25
100
AcDbLine
 10
8.946260461909516
 20
54.88594884578634
 30
0.0
 11
8.910866804580376
 21
54.9168544542726
 31
0.0
  0
SPLINE
  5
DB
330
1F
100
AcDbEntity
  8
0
  6
SLD-Solid
 62
     7
370
    25
100
AcDbSpline
210
0.0
220
0.0
230
1.0
 70
    12
 71
     3
 72
    12
 73
     8
 74
     0
 42
0.00000001
 43
0.00000001
 40
0.0
 40
0.0
 40
0.0
 40
0.0
 40
0.2143872604294045
 40
0.4287939078186615
 40
0.6427699702211467
 40
0.8565623456009068
 40
1.0
 40
1.0
 40
1.0
 40
1.0
 10
8.947215610765822
 20
54.87183900203589
 30
0.0
 41
1.0
 10
8.947870585317158
 20
54.87275628444716
 30
0.0
 41
1.0
 10
8.949180593648938
 20
54.87459093221922
 30
0.0
 41
1.0
 10
8.949855513426774
 20
54.87797629572033
 30
0.0
 41
1.0
 10
8.949437313319898
 20
54.88134170006208
 30
0.0
 41
1.0
 10
8.94811292642069
 20
54.88410023560088
 30
0.0
 41
1.0
 10
8.946791179534674
 20
54.8854192323975
 30
0.0
 41
1.0
 10
8.946260461909516
 20
54.88594884578634
 30
0.0
 41
1.0
  0
LINE
  5
DC
330
1F
100
AcDbEntity
  8
0
  6
SLD-Solid
 62
     7
370
    25
100
AcDbLine
 10
8.916310002279559
 20
54.83644534470675
 30
0.0
 11
8.94721561076582
 21
54.87183900203587
 31
0.0
  0
CIRCLE
  5
DD
330
1F
100
AcDbEntity
  8
0
  6
SLD-Solid
 62
     7
370
    25
100
AcDbCircle
 10
8.970810759179216
 20
54.88052349785232
 30
0.0
 40
0.2107717445952789
  0
SPLINE
  5
DE
330
1F
100
AcDbEntity
  8
0
  6
SLD-Solid
 62
     7
370
    25
100
AcDbSpline
210
0.0
220
0.0
230
1.0
 70
    12
 71
     3
 72
    12
 73
     8
 74
     0
 42
0.00000001
 43
0.00000001
 40
0.0
 40
0.0
 40
0.0
 40
0.0
 40
0.2143872604294045
 40
0.4287939078186615
 40
0.6427699702211467
 40
0.8565623456009068
 40
1.0
 40
1.0
 40
1.0
 40
1.0
 10
8.99440590759261
 20
54.88920799366876
 30
0.0
 41
1.0
 10
8.993750933041273
 20
54.88829071125749
 30
0.0
 41
1.0
 10
8.992440924709493
 20
54.88645606348543
 30
0.0
 41
1.0
 10
8.991766004931653
 20
54.88307069998427
 30
0.0
 41
1.0
 10
8.992184205038534
 20
54.87970529564255
 30
0.0
 41
1.0
 10
8.99350859193774
 20
54.87694676010373
 30
0.0
 41
1.0
 10
8.994830338823755
 20
54.87562776330712
 30
0.0
 41
1.0
 10
8.995361056448914
 20
54.87509814991829
 30
0.0
 41
1.0
  0
SPLINE
  5
DF
330
1F
100
AcDbEntity
  8
0
  6
SLD-Solid
 62
     7
370
    25
100
AcDbSpline
210
0.0
220
0.0
230
1.0
 70
    12
 71
     3
 72
    12
 73
     8
 74
     0
 42
0.00000001
 43
0.00000001
 40
0.0
 40
0.0
 40
0.0
 40
0.0
 40
0.2143872604296007
 40
0.4287939078186528
 40
0.6427699702211488
 40
0.8565623456011375
 40
1.0
 40
1.0
 40
1.0
 40
1.0
 10
8.97949525499565
 20
54.85692834943891
 30
0.0
 41
1.0
 10
8.978577972584374
 20
54.85758332399026
 30
0.0
 41
1.0
 10
8.976743324812315
 20
54.85889333232204
 30
0.0
 41
1.0
 10
8.973357961311189
 20
54.85956825209988
 30
0.0
 41
1.0
 10
8.969992556969455
 20
54.85915005199298
 30
0.0
 41
1.0
 10
8.967234021430627
 20
54.85782566509378
 30
0.0
 41
1.0
 10
8.965915024634027
 20
54.85650391820777
 30
0.0
 41
1.0
 10
8.965385411245194
 20
54.85597320058261
 30
0.0
 41
1.0
  0
SPLINE
  5
E0
330
1F
100
AcDbEntity
  8
0
  6
SLD-Solid
 62
     7
370
    25
100
AcDbSpline
210
0.0
220
0.0
230
1.0
 70
    12
 71
     3
 72
    12
 73
     8
 74
     0
 42
0.00000001
 43
0.00000001
 40
0.0
 40
0.0
 40
0.0
 40
0.0
 40
0.2143872604296313
 40
0.4287939078186503
 40
0.6427699702211471
 40
0.856562345601137
 40
1.0
 40
1.0
 40
1.0
 40
1.0
 10
8.96212626336278
 20
54.9041186462657
 30
0.0
 41
1.0
 10
8.963043545774056
 20
54.90346367171436
 30
0.0
 41
1.0
 10
8.964878193546117
 20
54.90215366338259
 30
0.0
 41
1.0
 10
8.968263557047242
 20
54.90147874360473
 30
0.0
 41
1.0
 10
8.971628961388975
 20
54.90189694371167
 30
0.0
 41
1.0
 10
8.974387496927802
 20
54.90322133061085
 30
0.0
 41
1.0
 10
8.975706493724402
 20
54.90454307749685
 30
0.0
 41
1.0
 10
8.976236107113236
 20
54.90507379512202
 30
0.0
 41
1.0
  0
CIRCLE
  5
E1
330
1F
100
AcDbEntity
  8
0
  6
SLD-Solid
 62
     7
370
    25
100
AcDbCircle
 10
8.970810759179216
 20
54.88052349785232
 30
0.0
 40
0.2150000000000038
  0
LINE
  5
E2
330
1F
100
AcDbEntity
  8
0
  6
SLD-Solid
 62
     7
370
    25
100
AcDbLine
 10
3.922808209297145
 20
48.62944540771398
 30
0.0
 11
3.908335078679436
 21
48.64874291520425
 31
0.0
  0
LINE
  5
E3
330
1F
100
AcDbEntity
  8
0
  6
SLD-Solid
 62
     7
370
    25
100
AcDbLine
 10
3.96039857074293
 20
48.65763817879831
 30
0.0
 11
3.922808209297145
 21
48.62944540771398
 31
0.0
  0
SPLINE
  5
E4
330
1F
100
AcDbEntity
  8
0
  6
SLD-Solid
 62
     7
370
    25
100
AcDbSpline
210
0.0
220
0.0
230
1.0
 70
    12
 71
     3
 72
    12
 73
     8
 74
     0
 42
0.00000001
 43
0.00000001
 40
0.0
 40
0.0
 40
0.0
 40
0.0
 40
0.214387260429595
 40
0.4287939078185906
 40
0.6427699702210824
 40
0.8565623456012098
 40
1.0
 40
1.0
 40
1.0
 40
1.0
 10
3.97439857074293
 20
48.65563817879831
 30
0.0
 41
1.0
 10
3.973637550109871
 20
48.65646959101919
 30
0.0
 41
1.0
 10
3.972115440024943
 20
48.6581324906452
 30
0.0
 41
1.0
 10
3.968944444328817
 20
48.65949667136503
 30
0.0
 41
1.0
 10
3.965565647474156
 20
48.65978747976882
 30
0.0
 41
1.0
 10
3.96259200222813
 20
48.65906570907912
 30
0.0
 41
1.0
 10
3.961026972929179
 20
48.6580471558534
 30
0.0
 41
1.0
 10
3.96039857074293
 20
48.65763817879831
 30
0.0
 41
1.0
  0
LINE
  5
E5
330
1F
100
AcDbEntity
  8
0
  6
SLD-Solid
 62
     7
370
    25
100
AcDbLine
 10
4.002591341827269
 20
48.61804781735254
 30
0.0
 11
3.97439857074293
 21
48.65563817879831
 31
0.0
  0
LINE
  5
E6
330
1F
100
AcDbEntity
  8
0
  6
SLD-Solid
 62
     7
370
    25
100
AcDbLine
 10
4.021888849317547
 20
48.63252094797024
 30
0.0
 11
4.002591341827269
 21
48.61804781735254
 31
0.0
  0
LINE
  5
E7
330
1F
100
AcDbEntity
  8
0
  6
SLD-Solid
 62
     7
370
    25
100
AcDbLine
 10
3.993696078233209
 20
48.67011130941601
 30
0.0
 11
4.021888849317547
 21
48.63252094797024
 31
0.0
  0
SPLINE
  5
E8
330
1F
100
AcDbEntity
  8
0
  6
SLD-Solid
 62
     7
370
    25
100
AcDbSpline
210
0.0
220
0.0
230
1.0
 70
    12
 71
     3
 72
    12
 73
     8
 74
     0
 42
0.00000001
 43
0.00000001
 40
0.0
 40
0.0
 40
0.0
 40
0.0
 40
0.2143872604293417
 40
0.4287939078185359
 40
0.6427699702211871
 40
0.8565623456011193
 40
1.0
 40
1.0
 40
1.0
 40
1.0
 10
3.995696078233209
 20
48.68411130941602
 30
0.0
 41
1.0
 10
3.994864666012348
 20
48.68335028878295
 30
0.0
 41
1.0
 10
3.993201766386329
 20
48.68182817869803
 30
0.0
 41
1.0
 10
3.991837585666476
 20
48.6786571830019
 30
0.0
 41
1.0
 10
3.991546777262702
 20
48.67527838614726
 30
0.0
 41
1.0
 10
3.992268547952409
 20
48.67230474090123
 30
0.0
 41
1.0
 10
3.993287101178103
 20
48.67073971160227
 30
0.0
 41
1.0
 10
3.993696078233209
 20
48.67011130941601
 30
0.0
 41
1.0
  0
LINE
  5
E9
330
1F
100
AcDbEntity
  8
0
  6
SLD-Solid
 62
     7
370
    25
100
AcDbLine
 10
4.033286439678994
 20
48.71230408050035
 30
0.0
 11
3.995696078233209
 21
48.68411130941602
 31
0.0
  0
LINE
  5
EA
330
1F
100
AcDbEntity
  8
0
  6
SLD-Solid
 62
     7
370
    25
100
AcDbLine
 10
4.018813309061285
 20
48.73160158799065
 30
0.0
 11
4.033286439678994
 21
48.71230408050035
 31
0.0
  0
LINE
  5
EB
330
1F
100
AcDbEntity
  8
0
  6
SLD-Solid
 62
     7
370
    25
100
AcDbLine
 10
3.9812229476155
 20
48.7034088169063
 30
0.0
 11
4.018813309061285
 21
48.73160158799065
 31
0.0
  0
LINE
  5
EC
330
1F
100
AcDbEntity
  8
0
  6
SLD-Solid
 62
     7
370
    25
100
AcDbLine
 10
3.939030176531161
 20
48.74299917835209
 30
0.0
 11
3.9672229476155
 21
48.70540881690629
 31
0.0
  0
LINE
  5
ED
330
1F
100
AcDbEntity
  8
0
  6
SLD-Solid
 62
     7
370
    25
100
AcDbLine
 10
3.919732669040882
 20
48.72852604773438
 30
0.0
 11
3.939030176531161
 21
48.74299917835209
 31
0.0
  0
LINE
  5
EE
330
1F
100
AcDbEntity
  8
0
  6
SLD-Solid
 62
     7
370
    25
100
AcDbLine
 10
3.947925440125221
 20
48.69093568628859
 30
0.0
 11
3.919732669040882
 21
48.72852604773438
 31
0.0
  0
SPLINE
  5
EF
330
1F
100
AcDbEntity
  8
0
  6
SLD-Solid
 62
     7
370
    25
100
AcDbSpline
210
0.0
220
0.0
230
1.0
 70
    12
 71
     3
 72
    12
 73
     8
 74
     0
 42
0.00000001
 43
0.00000001
 40
0.0
 40
0.0
 40
0.0
 40
0.0
 40
0.2143872604293417
 40
0.4287939078185359
 40
0.6427699702211871
 40
0.8565623456011193
 40
1.0
 40
1.0
 40
1.0
 40
1.0
 10
3.945925440125221
 20
48.6769356862886
 30
0.0
 41
1.0
 10
3.946756852346082
 20
48.67769670692166
 30
0.0
 41
1.0
 10
3.948419751972101
 20
48.67921881700657
 30
0.0
 41
1.0
 10
3.949783932691954
 20
48.6823898127027
 30
0.0
 41
1.0
 10
3.950074741095726
 20
48.68576860955736
 30
0.0
 41
1.0
 10
3.94935297040602
 20
48.6887422548034
 30
0.0
 41
1.0
 10
3.948334417180326
 20
48.69030728410235
 30
0.0
 41
1.0
 10
3.947925440125221
 20
48.69093568628859
 30
0.0
 41
1.0
  0
LINE
  5
F0
330
1F
100
AcDbEntity
  8
0
  6
SLD-Solid
 62
     7
370
    25
100
AcDbLine
 10
3.908335078679436
 20
48.64874291520425
 30
0.0
 11
3.945925440125221
 21
48.6769356862886
 31
0.0
  0
CIRCLE
  5
F1
330
1F
100
AcDbEntity
  8
0
  6
SLD-Solid
 62
     7
370
    25
100
AcDbCircle
 10
3.970810759179215
 20
48.68052349785231
 30
0.0
 40
0.210771744595279
  0
SPLINE
  5
F2
330
1F
100
AcDbEntity
  8
0
  6
SLD-Solid
 62
     7
370
    25
100
AcDbSpline
210
0.0
220
0.0
230
1.0
 70
    12
 71
     3
 72
    12
 73
     8
 74
     0
 42
0.00000001
 43
0.00000001
 40
0.0
 40
0.0
 40
0.0
 40
0.0
 40
0.214387260429595
 40
0.4287939078185906
 40
0.6427699702210824
 40
0.8565623456012098
 40
1.0
 40
1.0
 40
1.0
 40
1.0
 10
3.9672229476155
 20
48.70540881690629
 30
0.0
 41
1.0
 10
3.967983968248558
 20
48.70457740468544
 30
0.0
 41
1.0
 10
3.969506078333486
 20
48.70291450505943
 30
0.0
 41
1.0
 10
3.972677074029614
 20
48.70155032433954
 30
0.0
 41
1.0
 10
3.976055870884272
 20
48.7012595159358
 30
0.0
 41
1.0
 10
3.9790295161303
 20
48.7019812866255
 30
0.0
 41
1.0
 10
3.980594545429251
 20
48.70299983985119
 30
0.0
 41
1.0
 10
3.9812229476155
 20
48.7034088169063
 30
0.0
 41
1.0
  0
CIRCLE
  5
F3
330
1F
100
AcDbEntity
  8
0
  6
SLD-Solid
 62
     7
370
    25
100
AcDbCircle
 10
3.970810759179215
 20
48.68052349785231
 30
0.0
 40
0.2149999999999984
  0
LINE
  5
F4
330
1F
100
AcDbEntity
  8
0
  6
SLD-Solid
 62
     7
370
    25
100
AcDbLine
 10
9.970810759179214
 20
48.65552349785231
 30
0.0
 11
9.970810759179214
 21
54.90552349785231
 31
0.0
  0
LINE
  5
F5
330
1F
100
AcDbEntity
  8
0
  6
SLD-Solid
 62
     7
370
    25
100
AcDbLine
 10
7.301473145471023
 20
48.2805234978523
 30
0.0
 11
9.595810759179221
 21
48.2805234978523
 31
0.0
  0
ARC
  5
F6
330
1F
100
AcDbEntity
  8
0
  6
SLD-Solid
 62
     7
370
    25
100
AcDbCircle
 10
7.301473145471023
 20
48.38052349785231
 30
0.0
 40
0.1000000000000085
100
AcDbArc
 50
236.5001267631399
 51
270.0000000000008
  0
ARC
  5
F7
330
1F
100
AcDbEntity
  8
0
  6
SLD-Solid
 62
     7
370
    25
100
AcDbCircle
 10
6.470810759179216
 20
47.12552349785232
 30
0.0
 40
1.404999999999993
100
AcDbArc
 50
56.50012676313971
 51
123.4998732368603
  0
ARC
  5
F8
330
1F
100
AcDbEntity
  8
0
  6
SLD-Solid
 62
     7
370
    25
100
AcDbCircle
 10
5.640148372887408
 20
48.38052349785231
 30
0.0
 40
0.1000000000000085
100
AcDbArc
 50
270.0000000000003
 51
303.4998732368608
  0
LINE
  5
F9
330
1F
100
AcDbEntity
  8
0
  6
SLD-Solid
 62
     7
370
    25
100
AcDbLine
 10
3.345810759179215
 20
48.2805234978523
 30
0.0
 11
5.640148372887407
 21
48.2805234978523
 31
0.0
  0
ARC
  5
FA
330
1F
100
AcDbEntity
  8
0
  6
SLD-Solid
 62
     7
370
    25
100
AcDbCircle
 10
3.345810759179217
 20
54.90552349785231
 30
0.0
 40
0.375
100
AcDbArc
 50
90.00000000000048
 51
180.0
  0
LINE
  5
FB
330
1F
100
AcDbEntity
  8
0
  6
SLD-Solid
 62
     7
370
    25
100
AcDbLine
 10
2.970810759179218
 20
54.90552349785231
 30
0.0
 11
2.970810759179215
 21
48.6555234978523
 31
0.0
  0
ARC
  5
FC
330
1F
100
AcDbEntity
  8
0
  6
SLD-Solid
 62
     7
370
    25
100
AcDbCircle
 10
9.595810759179216
 20
54.90552349785231
 30
0.0
 40
0.375
100
AcDbArc
 50
0.0
 51
90.0
  0
LINE
  5
FD
330
1F
100
AcDbEntity
  8
0
  6
SLD-Solid
 62
     7
370
    25
100
AcDbLine
 10
9.595810759179216
 20
55.28052349785231
 30
0.0
 11
3.345810759179214
 21
55.28052349785231
 31
0.0
  0
ARC
  5
FE
330
1F
100
AcDbEntity
  8
0
  6
SLD-Solid
 62
     7
370
    25
100
AcDbCircle
 10
9.595810759179214
 20
48.6555234978523
 30
0.0
 40
0.375
100
AcDbArc
 50
270.0000000000019
 51
0.0000000000021713
  0
ARC
  5
FF
330
1F
100
AcDbEntity
  8
0
  6
SLD-Solid
 62
     7
370
    25
100
AcDbCircle
 10
3.345810759179215
 20
48.6555234978523
 30
0.0
 40
0.375
100
AcDbArc
 50
180.0
 51
270.0000000000008
  0
LINE
  5
100
330
1F
100
AcDbEntity
  8
0
  6
SLD-Solid
 62
     7
370
    25
100
AcDbLine
 10
5.720810759179216
 20
48.31359967386125
 30
0.0
 11
5.720810759179216
 21
7.780523497852312
 31
0.0
  0
LINE
  5
101
330
1F
100
AcDbEntity
  8
0
  6
SLD-Solid
 62
     7
370
    25
100
AcDbLine
 10
7.220810759179216
 20
48.31359967386125
 30
0.0
 11
7.220810759179216
 21
7.780523497852312
 31
0.0
  0
LINE
  5
102
330
1F
100
AcDbEntity
  8
0
  6
SLD-Solid
 62
     7
370
    25
100
AcDbLine
 10
4.970810759179215
 20
7.530523497852309
 30
0.0
 11
4.970810759179215
 21
7.780523497852308
 31
0.0
  0
LINE
  5
103
330
1F
100
AcDbEntity
  8
0
  6
SLD-Solid
 62
     7
370
    25
100
AcDbLine
 10
4.970810759179215
 20
7.530523497852309
 30
0.0
 11
4.470810759179215
 21
7.530523497852309
 31
0.0
  0
LINE
  5
104
330
1F
100
AcDbEntity
  8
0
  6
SLD-Solid
 62
     7
370
    25
100
AcDbLine
 10
4.470810759179215
 20
7.530523497852309
 30
0.0
 11
4.470810759179215
 21
7.780523497852308
 31
0.0
  0
LINE
  5
105
330
1F
100
AcDbEntity
  8
0
  6
SLD-Solid
 62
     7
370
    25
100
AcDbLine
 10
4.970810759179215
 20
7.780523497852308
 30
0.0
 11
4.470810759179215
 21
7.780523497852308
 31
0.0
  0
LINE
  5
106
330
1F
100
AcDbEntity
  8
0
  6
SLD-Solid
 62
     7
370
    25
100
AcDbLine
 10
8.470810759179216
 20
7.530523497852309
 30
0.0
 11
8.470810759179216
 21
7.780523497852308
 31
0.0
  0
LINE
  5
107
330
1F
100
AcDbEntity
  8
0
  6
SLD-Solid
 62
     7
370
    25
100
AcDbLine
 10
8.470810759179216
 20
7.530523497852309
 30
0.0
 11
7.970810759179216
 21
7.530523497852309
 31
0.0
  0
LINE
  5
108
330
1F
100
AcDbEntity
  8
0
  6
SLD-Solid
 62
     7
370
    25
100
AcDbLine
 10
7.970810759179216
 20
7.530523497852309
 30
0.0
 11
7.970810759179216
 21
7.780523497852308
 31
0.0
  0
LINE
  5
109
330
1F
100
AcDbEntity
  8
0
  6
SLD-Solid
 62
     7
370
    25
100
AcDbLine
 10
8.470810759179216
 20
7.780523497852308
 30
0.0
 11
7.970810759179216
 21
7.780523497852308
 31
0.0
  0
LINE
  5
10A
330
1F
100
AcDbEntity
  8
0
  6
SLD-Solid
 62
     7
370
    25
100
AcDbLine
 10
7.970810759179216
 20
7.530523497852309
 30
0.0
 11
4.970810759179215
 21
7.530523497852309
 31
0.0
  0
LINE
  5
10B
330
1F
100
AcDbEntity
  8
0
  6
SLD-Solid
 62
     7
370
    25
100
AcDbLine
 10
7.970810759179216
 20
7.780523497852308
 30
0.0
 11
4.970810759179215
 21
7.780523497852308
 31
0.0
  0
LINE
  5
10C
330
1F
100
AcDbEntity
  8
0
  6
SLD-Solid
 62
     8
370
    25
100
AcDbLine
 10
5.845810759179217
 20
48.3838557274324
 30
0.0
 11
5.845810759179217
 21
7.780523497852312
 31
0.0
  0
LINE
  5
10D
330
1F
100
AcDbEntity
  8
0
  6
SLD-Solid
 62
     8
370
    25
100
AcDbLine
 10
7.095810759179215
 20
48.3838557274324
 30
0.0
 11
7.095810759179215
 21
7.780523497852312
 31
0.0
  0
DIMENSION
  5
10E
330
1F
100
AcDbEntity
  8
DIMS
100
AcDbDimension
  2
_D
 10
2.970810759179219
 20
57.47776759234049
 30
0.0
 11
6.314439339439424
 21
57.47776759234049
 31
0.0
 70
    32
  1
<>
 71
     2
 42
-1.0
  3
SLDDIMSTYLE0
100
AcDbAlignedDimension
 13
9.970810759179214
 23
54.90552349785231
 33
0.0
 14
2.970810759179218
 24
54.90552349785231
 34
0.0
100
AcDbRotatedDimension
  0
DIMENSION
  5
120
330
1F
100
AcDbEntity
  8
DIMS
100
AcDbDimension
  2
_D_1
 10
14.14403910563591
 20
7.530523497852309
 30
0.0
 11
14.14403910563591
 21
32.56772512508631
 31
0.0
 70
    32
  1
<>
 71
     2
 42
-1.0
  3
SLDDIMSTYLE1
100
AcDbAlignedDimension
 13
7.095810759179216
 23
55.43052349785232
 33
0.0
 14
8.470810759179216
 24
7.530523497852309
 34
0.0
 50
90.0000000000002
100
AcDbRotatedDimension
  0
DIMENSION
  5
130
330
1F
100
AcDbEntity
  8
DIMS
100
AcDbDimension
  2
_D_2
 10
5.720810759179217
 20
43.04235891139354
 30
0.0
 11
9.211479637259593
 21
43.04235891139354
 31
0.0
 70
    32
  1
<>
 71
     2
 42
-1.0
  3
SLDDIMSTYLE2
100
AcDbAlignedDimension
 13
7.220810759179216
 23
55.28052349785231
 33
0.0
 14
5.720810759179216
 24
55.28052349785231
 34
0.0
100
AcDbRotatedDimension
  0
DIMENSION
  5
13E
330
1F
100
AcDbEntity
  8
DIMS
100
AcDbDimension
  2
_D_3
 10
11.30939343634457
 20
48.68052349785231
 30
0.0
 11
11.30939343634457
 21
51.78052349785231
 31
0.0
 70
    32
  1
<>
 71
     2
 42
-1.0
  3
SLDDIMSTYLE1
100
AcDbAlignedDimension
 13
8.970810759179216
 23
54.88052349785232
 33
0.0
 14
8.970810759179216
 24
48.68052349785231
 34
0.0
 50
90.0000000000002
100
AcDbRotatedDimension
  0
DIMENSION
  5
14D
330
1F
100
AcDbEntity
  8
DIMS
100
AcDbDimension
  2
_D_4
 10
3.970810759179209
 20
56.06044475769481
 30
0.0
 11
6.470810759179214
 21
56.06044475769482
 31
0.0
 70
    32
  1
<>
 71
     2
 42
-1.0
  3
SLDDIMSTYLE0
100
AcDbAlignedDimension
 13
8.970810759179216
 23
54.88052349785232
 33
0.0
 14
3.970810759179212
 24
54.8805234978523
 34
0.0
 50
0.0000000000001628
100
AcDbRotatedDimension
  0
DIMENSION
  5
158
330
1F
100
AcDbEntity
  8
DIMS
100
AcDbDimension
  2
_D_5
 10
13.19915721587213
 20
48.2805234978523
 30
0.0
 11
13.19915721587213
 21
51.78052349785231
 31
0.0
 70
    32
  1
<>
 71
     2
 42
-1.0
  3
SLDDIMSTYLE0
100
AcDbAlignedDimension
 13
9.595810759179216
 23
55.28052349785231
 33
0.0
 14
9.595810759179221
 24
48.2805234978523
 34
0.0
 50
90.0000000000002
100
AcDbRotatedDimension
  0
DIMENSION
  5
163
330
1F
100
AcDbEntity
  8
DIMS
100
AcDbDimension
  2
_D_6
 10
9.655421392326616
 20
7.780523497852308
 30
0.0
 11
9.655421392326616
 21
9.644809389775848
 31
0.0
 70
    32
  1
<>
 71
     2
 42
-1.0
  3
SLDDIMSTYLE2
100
AcDbAlignedDimension
 13
7.970810759179216
 23
7.530523497852309
 33
0.0
 14
7.970810759179216
 24
7.780523497852308
 34
0.0
 50
90.0000000000002
100
AcDbRotatedDimension
  0
MTEXT
  5
172
330
1F
100
AcDbEntity
  8
NOTES
100
AcDbMText
 10
4.15205315895024
 20
7.071213709270966
 30
0.0
 40
0.7500000000000001
 41
0.0
 71
     1
 72
     1
  1
Front view
  7
SLDTEXTSTYLE1
 73
     1
 44
1.0
  0
LINE
  5
173
330
1F
100
AcDbEntity
  8
0
  6
SLD-Solid
 62
     7
370
    25
100
AcDbLine
 10
8.951762621963658
 20
62.02119622039994
 30
0.0
 11
8.951762621963658
 21
62.02247157140435
 31
0.0
  0
LINE
  5
174
330
1F
100
AcDbEntity
  8
0
  6
SLD-Solid
 62
     7
370
    25
100
AcDbLine
 10
8.989858896394773
 20
62.02164092730617
 30
0.0
 11
8.989858896394773
 21
62.02119622039994
 31
0.0
  0
LINE
  5
175
330
1F
100
AcDbEntity
  8
0
  6
SLD-Solid
 62
     7
370
    25
100
AcDbLine
 10
4.185810759179211
 20
62.09564274506253
 30
0.0
 11
4.185810759179211
 21
62.13051040719343
 31
0.0
  0
LINE
  5
176
330
1F
100
AcDbEntity
  8
0
  6
SLD-Solid
 62
     7
370
    25
100
AcDbLine
 10
3.755810759179211
 20
62.13051040719343
 30
0.0
 11
3.755810759179211
 21
62.09564274506253
 31
0.0
  0
ARC
  5
177
330
1F
100
AcDbEntity
  8
0
  6
SLD-Solid
 62
     7
370
    25
100
AcDbCircle
 10
3.765810759179212
 20
62.09564274506253
 30
0.0
 40
0.0100000000000002
100
AcDbArc
 50
180.0
 51
234.7479464190901
  0
ARC
  5
178
330
1F
100
AcDbEntity
  8
0
  6
SLD-Solid
 62
     7
370
    25
100
AcDbCircle
 10
4.175810759179211
 20
62.09564274506253
 30
0.0
 40
0.0099999999999998
100
AcDbArc
 50
305.2520535809136
 51
0.0
  0
ARC
  5
179
330
1F
100
AcDbEntity
  8
0
  6
SLD-Solid
 62
     7
370
    25
100
AcDbCircle
 10
4.175810759179211
 20
62.13051040719343
 30
0.0
 40
0.0100000000000051
100
AcDbArc
 50
0.0
 51
90.0
  0
ARC
  5
17A
330
1F
100
AcDbEntity
  8
0
  6
SLD-Solid
 62
     7
370
    25
100
AcDbCircle
 10
3.765810759179212
 20
62.13051040719343
 30
0.0
 40
0.0100000000000051
100
AcDbArc
 50
90.0
 51
180.0
  0
ARC
  5
17B
330
1F
100
AcDbEntity
  8
0
  6
SLD-Solid
 62
     7
370
    25
100
AcDbCircle
 10
3.970810759179212
 20
62.38568897862201
 30
0.0
 40
0.3651785714285725
100
AcDbArc
 50
281.0007342198995
 51
305.2520535808954
  0
ARC
  5
17C
330
1F
100
AcDbEntity
  8
0
  6
SLD-Solid
 62
     7
370
    25
100
AcDbCircle
 10
3.970810759179212
 20
62.38568897862201
 30
0.0
 40
0.3651785714285725
100
AcDbArc
 50
234.7479464191062
 51
258.9992657801021
  0
LINE
  5
17D
330
1F
100
AcDbEntity
  8
0
  6
SLD-Solid
 62
     7
370
    25
100
AcDbLine
 10
4.043310759177746
 20
62.64051040719344
 30
0.0
 11
4.0383107591773
 21
62.64551040719344
 31
0.0
  0
LINE
  5
17E
330
1F
100
AcDbEntity
  8
0
  6
SLD-Solid
 62
     7
370
    25
100
AcDbLine
 10
3.903310759181124
 20
62.64551040719344
 30
0.0
 11
3.898310759180676
 21
62.64051040719344
 31
0.0
  0
LINE
  5
17F
330
1F
100
AcDbEntity
  8
0
  6
SLD-Solid
 62
     7
370
    25
100
AcDbLine
 10
4.063310759179211
 20
62.14051040719345
 30
0.0
 11
4.063310759179211
 21
62.39051040719344
 31
0.0
  0
LINE
  5
180
330
1F
100
AcDbEntity
  8
0
  6
SLD-Solid
 62
     7
370
    25
100
AcDbLine
 10
3.878310759179211
 20
62.39051040719344
 30
0.0
 11
3.878310759179211
 21
62.14051040719345
 31
0.0
  0
LINE
  5
181
330
1F
100
AcDbEntity
  8
0
  6
SLD-Solid
 62
     7
370
    25
100
AcDbLine
 10
3.985642228419076
 20
62.02714123346085
 30
0.0
 11
3.985642228419076
 21
62.0213104278529
 31
0.0
  0
LINE
  5
182
330
1F
100
AcDbEntity
  8
0
  6
SLD-Solid
 62
     7
370
    25
100
AcDbLine
 10
9.185810759179216
 20
62.09564274506253
 30
0.0
 11
9.185810759179216
 21
62.13051040719345
 31
0.0
  0
LINE
  5
183
330
1F
100
AcDbEntity
  8
0
  6
SLD-Solid
 62
     7
370
    25
100
AcDbLine
 10
8.755810759179214
 20
62.13051040719343
 30
0.0
 11
8.755810759179214
 21
62.09564274506253
 31
0.0
  0
ARC
  5
184
330
1F
100
AcDbEntity
  8
0
  6
SLD-Solid
 62
     7
370
    25
100
AcDbCircle
 10
8.765810759179214
 20
62.09564274506253
 30
0.0
 40
0.0099999999999998
100
AcDbArc
 50
180.0
 51
234.7479464190922
  0
ARC
  5
185
330
1F
100
AcDbEntity
  8
0
  6
SLD-Solid
 62
     7
370
    25
100
AcDbCircle
 10
9.175810759179214
 20
62.09564274506253
 30
0.0
 40
0.0100000000000016
100
AcDbArc
 50
305.2520535809178
 51
0.0
  0
ARC
  5
186
330
1F
100
AcDbEntity
  8
0
  6
SLD-Solid
 62
     7
370
    25
100
AcDbCircle
 10
9.175810759179214
 20
62.13051040719345
 30
0.0
 40
0.0100000000000016
100
AcDbArc
 50
0.0
 51
90.0
  0
ARC
  5
187
330
1F
100
AcDbEntity
  8
0
  6
SLD-Solid
 62
     7
370
    25
100
AcDbCircle
 10
8.765810759179214
 20
62.13051040719343
 30
0.0
 40
0.0100000000000122
100
AcDbArc
 50
90.0
 51
180.0
  0
ARC
  5
188
330
1F
100
AcDbEntity
  8
0
  6
SLD-Solid
 62
     7
370
    25
100
AcDbCircle
 10
8.970810759179216
 20
62.38568897862201
 30
0.0
 40
0.3651785714285737
100
AcDbArc
 50
273.3399774076552
 51
305.2520535808954
  0
ARC
  5
189
330
1F
100
AcDbEntity
  8
0
  6
SLD-Solid
 62
     7
370
    25
100
AcDbCircle
 10
8.970810759179216
 20
62.38568897862201
 30
0.0
 40
0.3651785714285733
100
AcDbArc
 50
234.747946419106
 51
266.6548530565919
  0
LINE
  5
18A
330
1F
100
AcDbEntity
  8
0
  6
SLD-Solid
 62
     7
370
    25
100
AcDbLine
 10
9.04331075917775
 20
62.64051040719344
 30
0.0
 11
9.038310759177303
 21
62.64551040719344
 31
0.0
  0
LINE
  5
18B
330
1F
100
AcDbEntity
  8
0
  6
SLD-Solid
 62
     7
370
    25
100
AcDbLine
 10
8.903310759181126
 20
62.64551040719344
 30
0.0
 11
8.898310759180678
 21
62.64051040719344
 31
0.0
  0
LINE
  5
18C
330
1F
100
AcDbEntity
  8
0
  6
SLD-Solid
 62
     7
370
    25
100
AcDbLine
 10
9.063310759179215
 20
62.14051040719345
 30
0.0
 11
9.063310759179215
 21
62.39051040719344
 31
0.0
  0
LINE
  5
18D
330
1F
100
AcDbEntity
  8
0
  6
SLD-Solid
 62
     7
370
    25
100
AcDbLine
 10
8.878310759179215
 20
62.39051040719344
 30
0.0
 11
8.878310759179215
 21
62.14051040719345
 31
0.0
  0
LINE
  5
18E
330
1F
100
AcDbEntity
  8
0
  6
SLD-Solid
 62
     7
370
    25
100
AcDbLine
 10
8.99193840389599
 20
62.02361168246473
 30
0.0
 11
8.99193840389599
 21
62.02113367111254
 31
0.0
  0
LINE
  5
18F
330
1F
100
AcDbEntity
  8
0
  6
SLD-Solid
 62
     7
370
    25
100
AcDbLine
 10
8.949683114462438
 20
62.02113367111254
 30
0.0
 11
8.949683114462438
 21
62.02275442748621
 31
0.0
  0
LWPOLYLINE
  5
190
330
1F
100
AcDbEntity
  8
0
  6
SLD-Solid
 62
     7
370
    25
100
AcDbPolyline
 90
        3
 70
   128
 43
0.0
 10
3.992594732983952
 20
62.02116072523705
 10
4.017837274367804
 20
62.02355102714519
 10
4.040494709144138
 20
62.02722065903448
  0
LWPOLYLINE
  5
191
330
1F
100
AcDbEntity
  8
0
  6
SLD-Solid
 62
     7
370
    25
100
AcDbPolyline
 90
        3
 70
   128
 43
0.0
 10
3.901126809214283
 20
62.0272206590345
 10
3.923743259266584
 20
62.02355635169842
 10
3.948979636358961
 20
62.02116354589198
  0
LINE
  5
192
330
1F
100
AcDbEntity
  8
0
  6
SLD-Solid
 62
     7
370
    25
100
AcDbLine
 10
9.170810759179213
 20
62.49051040719344
 30
0.0
 11
9.170810759179213
 21
62.64051040719344
 31
0.0
  0
LINE
  5
193
330
1F
100
AcDbEntity
  8
0
  6
SLD-Solid
 62
     7
370
    25
100
AcDbLine
 10
8.770810759179215
 20
62.64051040719344
 30
0.0
 11
8.770810759179215
 21
62.49051040719344
 31
0.0
  0
LINE
  5
194
330
1F
100
AcDbEntity
  8
0
  6
SLD-Solid
 62
     7
370
    25
100
AcDbLine
 10
4.170810759179211
 20
62.49051040719344
 30
0.0
 11
4.170810759179211
 21
62.64051040719344
 31
0.0
  0
LINE
  5
195
330
1F
100
AcDbEntity
  8
0
  6
SLD-Solid
 62
     7
370
    25
100
AcDbLine
 10
3.770810759179211
 20
62.64051040719344
 30
0.0
 11
3.770810759179211
 21
62.49051040719344
 31
0.0
  0
ARC
  5
196
330
1F
100
AcDbEntity
  8
0
  6
SLD-Solid
 62
     7
370
    25
100
AcDbCircle
 10
5.845810759179216
 20
62.61551040719345
 30
0.0
 40
0.1250000000000071
100
AcDbArc
 50
180.0
 51
270.0000000000008
  0
LINE
  5
197
330
1F
100
AcDbEntity
  8
0
  6
SLD-Solid
 62
     7
370
    25
100
AcDbLine
 10
5.720810759179216
 20
62.61551040719345
 30
0.0
 11
5.780810759179215
 21
62.61551040719345
 31
0.0
  0
ARC
  5
198
330
1F
100
AcDbEntity
  8
0
  6
SLD-Solid
 62
     7
370
    25
100
AcDbCircle
 10
5.845810759179216
 20
62.61551040719345
 30
0.0
 40
0.0650000000000048
100
AcDbArc
 50
180.0
 51
270.0000000000008
  0
LINE
  5
199
330
1F
100
AcDbEntity
  8
0
  6
SLD-Solid
 62
     7
370
    25
100
AcDbLine
 10
5.845810759179216
 20
62.49051040719344
 30
0.0
 11
5.845810759179216
 21
62.55051040719344
 31
0.0
  0
LINE
  5
19A
330
1F
100
AcDbEntity
  8
0
  6
SLD-Solid
 62
     7
370
    25
100
AcDbLine
 10
7.095810759179216
 20
63.93051040719344
 30
0.0
 11
5.845810759179216
 21
63.93051040719344
 31
0.0
  0
LINE
  5
19B
330
1F
100
AcDbEntity
  8
0
  6
SLD-Solid
 62
     7
370
    25
100
AcDbLine
 10
5.845810759179216
 20
63.93051040719344
 30
0.0
 11
5.845810759179216
 21
63.99051040719344
 31
0.0
  0
LINE
  5
19C
330
1F
100
AcDbEntity
  8
0
  6
SLD-Solid
 62
     7
370
    25
100
AcDbLine
 10
5.845810759179216
 20
63.99051040719344
 30
0.0
 11
7.095810759179216
 21
63.99051040719344
 31
0.0
  0
LINE
  5
19D
330
1F
100
AcDbEntity
  8
0
  6
SLD-Solid
 62
     7
370
    25
100
AcDbLine
 10
7.095810759179216
 20
63.93051040719344
 30
0.0
 11
7.095810759179216
 21
63.99051040719344
 31
0.0
  0
LINE
  5
19E
330
1F
100
AcDbEntity
  8
0
  6
SLD-Solid
 62
     7
370
    25
100
AcDbLine
 10
5.720810759179216
 20
62.61551040719345
 30
0.0
 11
5.720810759179216
 21
63.86551040719344
 31
0.0
  0
LINE
  5
19F
330
1F
100
AcDbEntity
  8
0
  6
SLD-Solid
 62
     7
370
    25
100
AcDbLine
 10
5.720810759179216
 20
63.86551040719344
 30
0.0
 11
5.780810759179215
 21
63.86551040719344
 31
0.0
  0
LINE
  5
1A0
330
1F
100
AcDbEntity
  8
0
  6
SLD-Solid
 62
     7
370
    25
100
AcDbLine
 10
5.780810759179215
 20
63.86551040719344
 30
0.0
 11
5.780810759179215
 21
62.61551040719345
 31
0.0
  0
ARC
  5
1A1
330
1F
100
AcDbEntity
  8
0
  6
SLD-Solid
 62
     7
370
    25
100
AcDbCircle
 10
7.095810759179216
 20
62.61551040719345
 30
0.0
 40
0.0650000000000048
100
AcDbArc
 50
270.0000000000008
 51
0.0
  0
LINE
  5
1A2
330
1F
100
AcDbEntity
  8
0
  6
SLD-Solid
 62
     7
370
    25
100
AcDbLine
 10
7.160810759179217
 20
62.61551040719345
 30
0.0
 11
7.220810759179216
 21
62.61551040719345
 31
0.0
  0
ARC
  5
1A3
330
1F
100
AcDbEntity
  8
0
  6
SLD-Solid
 62
     7
370
    25
100
AcDbCircle
 10
7.095810759179216
 20
62.61551040719345
 30
0.0
 40
0.1250000000000071
100
AcDbArc
 50
270.0000000000008
 51
0.0
  0
LINE
  5
1A4
330
1F
100
AcDbEntity
  8
0
  6
SLD-Solid
 62
     7
370
    25
100
AcDbLine
 10
7.095810759179216
 20
62.49051040719344
 30
0.0
 11
7.095810759179216
 21
62.55051040719344
 31
0.0
  0
LINE
  5
1A5
330
1F
100
AcDbEntity
  8
0
  6
SLD-Solid
 62
     7
370
    25
100
AcDbLine
 10
7.160810759179217
 20
62.61551040719345
 30
0.0
 11
7.160810759179217
 21
63.86551040719344
 31
0.0
  0
LINE
  5
1A6
330
1F
100
AcDbEntity
  8
0
  6
SLD-Solid
 62
     7
370
    25
100
AcDbLine
 10
7.160810759179217
 20
63.86551040719344
 30
0.0
 11
7.220810759179216
 21
63.86551040719344
 31
0.0
  0
LINE
  5
1A7
330
1F
100
AcDbEntity
  8
0
  6
SLD-Solid
 62
     7
370
    25
100
AcDbLine
 10
7.220810759179216
 20
63.86551040719344
 30
0.0
 11
7.220810759179216
 21
62.61551040719345
 31
0.0
  0
LINE
  5
1A8
330
1F
100
AcDbEntity
  8
0
  6
SLD-Solid
 62
     7
370
    25
100
AcDbLine
 10
7.095810759179216
 20
62.49051040719344
 30
0.0
 11
5.845810759179216
 21
62.49051040719344
 31
0.0
  0
LINE
  5
1A9
330
1F
100
AcDbEntity
  8
0
  6
SLD-Solid
 62
     7
370
    25
100
AcDbLine
 10
5.845810759179216
 20
62.55051040719344
 30
0.0
 11
7.095810759179216
 21
62.55051040719344
 31
0.0
  0
ARC
  5
1AA
330
1F
100
AcDbEntity
  8
0
  6
SLD-Solid
 62
     7
370
    25
100
AcDbCircle
 10
7.095810759179216
 20
63.86551040719344
 30
0.0
 40
0.0650000000000013
100
AcDbArc
 50
0.0
 51
90.0
  0
ARC
  5
1AB
330
1F
100
AcDbEntity
  8
0
  6
SLD-Solid
 62
     7
370
    25
100
AcDbCircle
 10
7.095810759179216
 20
63.86551040719344
 30
0.0
 40
0.125
100
AcDbArc
 50
0.0
 51
90.0
  0
ARC
  5
1AC
330
1F
100
AcDbEntity
  8
0
  6
SLD-Solid
 62
     7
370
    25
100
AcDbCircle
 10
5.845810759179216
 20
63.86551040719344
 30
0.0
 40
0.0650000000000004
100
AcDbArc
 50
90.0
 51
180.0
  0
ARC
  5
1AD
330
1F
100
AcDbEntity
  8
0
  6
SLD-Solid
 62
     7
370
    25
100
AcDbCircle
 10
5.845810759179216
 20
63.86551040719344
 30
0.0
 40
0.125
100
AcDbArc
 50
90.0
 51
180.0
  0
SPLINE
  5
1AE
330
1F
100
AcDbEntity
  8
0
  6
SLD-Solid
 62
     7
370
    25
100
AcDbSpline
210
0.0
220
0.0
230
1.0
 70
    12
 71
     3
 72
    11
 73
     7
 74
     0
 42
0.00000001
 43
0.00000001
 40
0.0
 40
0.0
 40
0.0
 40
0.0
 40
0.2085789101281672
 40
0.505048382059708
 40
0.8012633507819593
 40
1.0
 40
1.0
 40
1.0
 40
1.0
 10
8.96596074567392
 20
62.02118730786767
 30
0.0
 41
1.0
 10
8.965362081729454
 20
62.02116474179647
 30
0.0
 41
1.0
 10
8.963912490031214
 20
62.02111010080832
 30
0.0
 41
1.0
 10
8.960926405036682
 20
62.02113458835709
 30
0.0
 41
1.0
 10
8.957889580283798
 20
62.02122903996793
 30
0.0
 41
1.0
 10
8.956130321819433
 20
62.02133459116888
 30
0.0
 41
1.0
 10
8.955423931296313
 20
62.02137697287093
 30
0.0
 41
1.0
  0
SPLINE
  5
1AF
330
1F
100
AcDbEntity
  8
0
  6
SLD-Solid
 62
     7
370
    25
100
AcDbSpline
210
0.0
220
0.0
230
1.0
 70
    12
 71
     3
 72
    11
 73
     7
 74
     0
 42
0.00000001
 43
0.00000001
 40
0.0
 40
0.0
 40
0.0
 40
0.0
 40
0.2085789101289044
 40
0.5050483820601691
 40
0.8012633507821444
 40
1.0
 40
1.0
 40
1.0
 40
1.0
 10
8.975660772684506
 20
62.02118730786767
 30
0.0
 41
1.0
 10
8.976259436628974
 20
62.02116474179647
 30
0.0
 41
1.0
 10
8.977709028327213
 20
62.02111010080832
 30
0.0
 41
1.0
 10
8.980695113321753
 20
62.02113458835709
 30
0.0
 41
1.0
 10
8.983731938074635
 20
62.02122903996793
 30
0.0
 41
1.0
 10
8.985491196539
 20
62.02133459116888
 30
0.0
 41
1.0
 10
8.986197587062119
 20
62.02137697287093
 30
0.0
 41
1.0
  0
SPLINE
  5
1B0
330
1F
100
AcDbEntity
  8
0
  6
SLD-Solid
 62
     7
370
    25
100
AcDbSpline
210
0.0
220
0.0
230
1.0
 70
    12
 71
     3
 72
    11
 73
     7
 74
     0
 42
0.00000001
 43
0.00000001
 40
0.0
 40
0.0
 40
0.0
 40
0.0
 40
0.1455305718444614
 40
0.4656182007804126
 40
0.7854310515804674
 40
1.0
 40
1.0
 40
1.0
 40
1.0
 10
8.949683114462438
 20
62.02116758720408
 30
0.0
 41
1.0
 10
8.950011675212798
 20
62.02115360103652
 30
0.0
 41
1.0
 10
8.951062889837258
 20
62.02110885295306
 30
0.0
 41
1.0
 10
8.9517983769689
 20
62.02113581790785
 30
0.0
 41
1.0
 10
8.951817446490214
 20
62.02122884734579
 30
0.0
 41
1.0
 10
8.95118151177979
 20
62.02133453598404
 30
0.0
 41
1.0
 10
8.950926166552318
 20
62.02137697287093
 30
0.0
 41
1.0
  0
LINE
  5
1B1
330
1F
100
AcDbEntity
  8
0
  6
SLD-Solid
 62
     7
370
    25
100
AcDbLine
 10
3.765810759179212
 20
62.14051040719344
 30
0.0
 11
4.175810759179211
 21
62.14051040719344
 31
0.0
  0
ARC
  5
1B2
330
1F
100
AcDbEntity
  8
0
  6
SLD-Solid
 62
     7
370
    25
100
AcDbCircle
 10
3.972423011534597
 20
62.3792297339372
 30
0.0
 40
0.3585205616319884
100
AcDbArc
 50
273.4976103250461
 51
281.0037471388364
  0
SPLINE
  5
1B3
330
1F
100
AcDbEntity
  8
0
  6
SLD-Solid
 62
     7
370
    25
100
AcDbSpline
210
0.0
220
0.0
230
1.0
 70
    12
 71
     3
 72
    12
 73
     8
 74
     0
 42
0.00000001
 43
0.00000001
 40
0.0
 40
0.0
 40
0.0
 40
0.0
 40
0.2143872604297249
 40
0.4287939078187751
 40
0.6427699702209818
 40
0.8565623456010859
 40
1.0
 40
1.0
 40
1.0
 40
1.0
 10
3.985733362170334
 20
62.02137697287093
 30
0.0
 41
1.0
 10
3.985691232123327
 20
62.02131571585104
 30
0.0
 41
1.0
 10
3.985606968219508
 20
62.0211931962718
 30
0.0
 41
1.0
 10
3.986906317325226
 20
62.02111601128159
 30
0.0
 41
1.0
 10
3.989107417544153
 20
62.02113226472095
 30
0.0
 41
1.0
 10
3.991731219301644
 20
62.02122940399013
 30
0.0
 41
1.0
 10
3.993560668851345
 20
62.0213346954586
 30
0.0
 41
1.0
 10
3.994295243020299
 20
62.02137697287093
 30
0.0
 41
1.0
  0
ARC
  5
1B4
330
1F
100
AcDbEntity
  8
0
  6
SLD-Solid
 62
     7
370
    25
100
AcDbCircle
 10
3.977849752169748
 20
62.03614333573904
 30
0.0
 40
0.0167390793950566
100
AcDbArc
 50
298.097302190567
 51
328.1117519458482
  0
ARC
  5
1B5
330
1F
100
AcDbEntity
  8
0
  6
SLD-Solid
 62
     7
370
    25
100
AcDbCircle
 10
3.980111544379661
 20
62.37918495626112
 30
0.0
 40
0.3520871642887133
100
AcDbArc
 50
268.0548142813718
 51
271.9451857186297
  0
ARC
  5
1B6
330
1F
100
AcDbEntity
  8
0
  6
SLD-Solid
 62
     7
370
    25
100
AcDbCircle
 10
3.953947699587837
 20
62.03614333573904
 30
0.0
 40
0.016739079395057
100
AcDbArc
 50
298.097302190567
 51
328.111751945849
  0
SPLINE
  5
1B7
330
1F
100
AcDbEntity
  8
0
  6
SLD-Solid
 62
     7
370
    25
100
AcDbSpline
210
0.0
220
0.0
230
1.0
 70
    12
 71
     3
 72
    12
 73
     8
 74
     0
 42
0.00000001
 43
0.00000001
 40
0.0
 40
0.0
 40
0.0
 40
0.0
 40
0.2143872604296335
 40
0.4287939078186114
 40
0.6427699702210402
 40
0.8565623456009943
 40
1.0
 40
1.0
 40
1.0
 40
1.0
 10
3.950575457940901
 20
62.02137697287093
 30
0.0
 41
1.0
 10
3.951701789927519
 20
62.02131571585104
 30
0.0
 41
1.0
 10
3.953954555754532
 20
62.0211931962718
 30
0.0
 41
1.0
 10
3.957152663733125
 20
62.02111601128158
 30
0.0
 41
1.0
 10
3.959732585348024
 20
62.02113226472095
 30
0.0
 41
1.0
 10
3.961307127603769
 20
62.02122940399013
 30
0.0
 41
1.0
 10
3.961681135257758
 20
62.0213346954586
 30
0.0
 41
1.0
 10
3.961831309588423
 20
62.02137697287093
 30
0.0
 41
1.0
  0
ARC
  5
1B8
330
1F
100
AcDbEntity
  8
0
  6
SLD-Solid
 62
     7
370
    25
100
AcDbCircle
 10
3.972447689426603
 20
62.3792297339372
 30
0.0
 40
0.3585205616319883
100
AcDbArc
 50
258.9962528611652
 51
266.5023896749556
  0
ARC
  5
1B9
330
1F
100
AcDbEntity
  8
0
  6
SLD-Solid
 62
     7
370
    25
100
AcDbCircle
 10
3.902391133663489
 20
62.03372016652011
 30
0.0
 40
0.0066218660829594
100
AcDbArc
 50
255.798227061229
 51
284.2017729387763
  0
ARC
  5
1BA
330
1F
100
AcDbEntity
  8
0
  6
SLD-Solid
 62
     7
370
    25
100
AcDbCircle
 10
3.969198506823827
 20
62.37922973393722
 30
0.0
 40
0.3585205616320025
100
AcDbArc
 50
258.9962528611655
 51
266.5023896749555
  0
SPLINE
  5
1BB
330
1F
100
AcDbEntity
  8
0
  6
SLD-Solid
 62
     7
370
    25
100
AcDbSpline
210
0.0
220
0.0
230
1.0
 70
    12
 71
     3
 72
    11
 73
     7
 74
     0
 42
0.00000001
 43
0.00000001
 40
0.0
 40
0.0
 40
0.0
 40
0.0
 40
0.1770862475342987
 40
0.4853529954900779
 40
0.793355112905835
 40
1.0
 40
1.0
 40
1.0
 40
1.0
 10
3.955259066252929
 20
62.02117707966162
 30
0.0
 41
1.0
 10
3.955057701863357
 20
62.02115901261494
 30
0.0
 41
1.0
 10
3.954505808020528
 20
62.02110949496269
 30
0.0
 41
1.0
 10
3.952479793973572
 20
62.02113517298916
 30
0.0
 41
1.0
 10
3.949895673586514
 20
62.02122894837913
 30
0.0
 41
1.0
 10
3.948062389270803
 20
62.02133456492935
 30
0.0
 41
1.0
 10
3.947326275338124
 20
62.02137697287093
 30
0.0
 41
1.0
  0
ARC
  5
1BC
330
1F
100
AcDbEntity
  8
0
  6
SLD-Solid
 62
     7
370
    25
100
AcDbCircle
 10
3.987673818770585
 20
62.03614333573904
 30
0.0
 40
0.016739079395057
100
AcDbArc
 50
211.8882480541527
 51
241.9026978094373
  0
SPLINE
  5
1BD
330
1F
100
AcDbEntity
  8
0
  6
SLD-Solid
 62
     7
370
    25
100
AcDbSpline
210
0.0
220
0.0
230
1.0
 70
    12
 71
     3
 72
    11
 73
     7
 74
     0
 42
0.00000001
 43
0.00000001
 40
0.0
 40
0.0
 40
0.0
 40
0.0
 40
0.1770862475343631
 40
0.4853529954903256
 40
0.7933551129057683
 40
1.0
 40
1.0
 40
1.0
 40
1.0
 10
3.986362452105492
 20
62.02117707966162
 30
0.0
 41
1.0
 10
3.985749061119061
 20
62.02115901261494
 30
0.0
 41
1.0
 10
3.984067896393869
 20
62.02110949496269
 30
0.0
 41
1.0
 10
3.981899936001689
 20
62.02113517298916
 30
0.0
 41
1.0
 10
3.980312667019602
 20
62.02122894837913
 30
0.0
 41
1.0
 10
3.979939889263095
 20
62.02133456492935
 30
0.0
 41
1.0
 10
3.97979020877
 20
62.02137697287093
 30
0.0
 41
1.0
  0
LINE
  5
1BE
330
1F
100
AcDbEntity
  8
0
  6
SLD-Solid
 62
     7
370
    25
100
AcDbLine
 10
3.903310759181124
 20
62.64551040719344
 30
0.0
 11
4.0383107591773
 21
62.64551040719344
 31
0.0
  0
LINE
  5
1BF
330
1F
100
AcDbEntity
  8
0
  6
SLD-Solid
 62
     7
370
    25
100
AcDbLine
 10
9.10564638184427
 20
62.14051040719345
 30
0.0
 11
9.175810759179214
 21
62.14051040719345
 31
0.0
  0
LINE
  5
1C0
330
1F
100
AcDbEntity
  8
0
  6
SLD-Solid
 62
     7
370
    25
100
AcDbLine
 10
8.765810759179214
 20
62.14051040719345
 30
0.0
 11
9.10564638184427
 21
62.14051040719345
 31
0.0
  0
ARC
  5
1C1
330
1F
100
AcDbEntity
  8
0
  6
SLD-Solid
 62
     7
370
    25
100
AcDbCircle
 10
8.962757175130548
 20
62.22947028119166
 30
0.0
 40
0.20876539053549
100
AcDbArc
 50
274.5987114513267
 51
278.0351166862976
  0
SPLINE
  5
1C2
330
1F
100
AcDbEntity
  8
0
  6
SLD-Solid
 62
     7
370
    25
100
AcDbSpline
210
0.0
220
0.0
230
1.0
 70
    12
 71
     3
 72
    12
 73
     8
 74
     0
 42
0.00000001
 43
0.00000001
 40
0.0
 40
0.0
 40
0.0
 40
0.0
 40
0.2143872604294045
 40
0.4287939078186615
 40
0.6427699702211467
 40
0.8565623456009068
 40
1.0
 40
1.0
 40
1.0
 40
1.0
 10
8.99440590759261
 20
62.02137697287093
 30
0.0
 41
1.0
 10
8.993750933041273
 20
62.02131571585104
 30
0.0
 41
1.0
 10
8.992440924709493
 20
62.02119319627181
 30
0.0
 41
1.0
 10
8.991766004931653
 20
62.02111601128159
 30
0.0
 41
1.0
 10
8.992184205038534
 20
62.02113226472095
 30
0.0
 41
1.0
 10
8.99350859193774
 20
62.02122940399013
 30
0.0
 41
1.0
 10
8.994830338823755
 20
62.0213346954586
 30
0.0
 41
1.0
 10
8.995361056448914
 20
62.02137697287093
 30
0.0
 41
1.0
  0
ARC
  5
1C3
330
1F
100
AcDbEntity
  8
0
  6
SLD-Solid
 62
     7
370
    25
100
AcDbCircle
 10
8.97931435539636
 20
62.18369714349421
 30
0.0
 40
0.1630202218709728
100
AcDbArc
 50
275.3117465470616
 51
286.3889336365255
  0
ARC
  5
1C4
330
1F
100
AcDbEntity
  8
0
  6
SLD-Solid
 62
     7
370
    25
100
AcDbCircle
 10
9.016226615839184
 20
62.23060825535359
 30
0.0
 40
0.2035104562654693
100
AcDbArc
 50
267.441411653994
 51
272.5585883460076
  0
ARC
  5
1C5
330
1F
100
AcDbEntity
  8
0
  6
SLD-Solid
 62
     7
370
    25
100
AcDbCircle
 10
8.96114455491697
 20
62.18369714349429
 30
0.0
 40
0.1630202218710591
100
AcDbArc
 50
275.3117465470644
 51
286.3889336365224
  0
SPLINE
  5
1C6
330
1F
100
AcDbEntity
  8
0
  6
SLD-Solid
 62
     7
370
    25
100
AcDbSpline
210
0.0
220
0.0
230
1.0
 70
    12
 71
     3
 72
    12
 73
     8
 74
     0
 42
0.00000001
 43
0.00000001
 40
0.0
 40
0.0
 40
0.0
 40
0.0
 40
0.2143872604296313
 40
0.4287939078186503
 40
0.6427699702211471
 40
0.856562345601137
 40
1.0
 40
1.0
 40
1.0
 40
1.0
 10
8.96212626336278
 20
62.02137697287093
 30
0.0
 41
1.0
 10
8.963043545774056
 20
62.02131571585104
 30
0.0
 41
1.0
 10
8.964878193546117
 20
62.02119319627181
 30
0.0
 41
1.0
 10
8.968263557047242
 20
62.02111601128159
 30
0.0
 41
1.0
 10
8.971628961388975
 20
62.02113226472095
 30
0.0
 41
1.0
 10
8.974387496927802
 20
62.02122940399013
 30
0.0
 41
1.0
 10
8.975706493724402
 20
62.0213346954586
 30
0.0
 41
1.0
 10
8.976236107113236
 20
62.02137697287093
 30
0.0
 41
1.0
  0
ARC
  5
1C7
330
1F
100
AcDbEntity
  8
0
  6
SLD-Solid
 62
     7
370
    25
100
AcDbCircle
 10
8.979130684798188
 20
62.231675926182
 30
0.0
 40
0.2109853078109551
100
AcDbArc
 50
255.6201391770507
 51
265.3772163390589
  0
ARC
  5
1C8
330
1F
100
AcDbEntity
  8
0
  6
SLD-Solid
 62
     7
370
    25
100
AcDbCircle
 10
8.918799705307007
 20
62.1822968674357
 30
0.0
 40
0.1551990630985574
100
AcDbArc
 50
267.0700861544233
 51
272.9299138455784
  0
ARC
  5
1C9
330
1F
100
AcDbEntity
  8
0
  6
SLD-Solid
 62
     7
370
    25
100
AcDbCircle
 10
8.963264883344918
 20
62.23167592618194
 30
0.0
 40
0.2109853078108982
100
AcDbArc
 50
255.6201391770487
 51
265.3772163390591
  0
SPLINE
  5
1CA
330
1F
100
AcDbEntity
  8
0
  6
SLD-Solid
 62
     7
370
    25
100
AcDbSpline
210
0.0
220
0.0
230
1.0
 70
    12
 71
     3
 72
    10
 73
     6
 74
     0
 42
0.00000001
 43
0.00000001
 40
0.0
 40
0.0
 40
0.0
 40
0.0
 40
0.3425365964406114
 40
0.7360104117837364
 40
1.0
 40
1.0
 40
1.0
 40
1.0
 10
8.949619411925267
 20
62.02113367111254
 30
0.0
 41
1.0
 10
8.94956093200958
 20
62.02113302573601
 30
0.0
 41
1.0
 10
8.949435275868678
 20
62.02113163901168
 30
0.0
 41
1.0
 10
8.948102539986602
 20
62.02123029449547
 30
0.0
 41
1.0
 10
8.94678820389676
 20
62.02133495058192
 30
0.0
 41
1.0
 10
8.946260461909516
 20
62.02137697287093
 30
0.0
 41
1.0
  0
LINE
  5
1CB
330
1F
100
AcDbEntity
  8
0
  6
SLD-Solid
 62
     7
370
    25
100
AcDbLine
 10
8.903310759181126
 20
62.64551040719344
 30
0.0
 11
9.038310759177303
 21
62.64551040719344
 31
0.0
  0
SPLINE
  5
1CC
330
1F
100
AcDbEntity
  8
0
  6
SLD-Solid
 62
     7
370
    25
100
AcDbSpline
210
0.0
220
0.0
230
1.0
 70
    12
 71
     3
 72
    11
 73
     7
 74
     0
 42
0.00000001
 43
0.00000001
 40
0.0
 40
0.0
 40
0.0
 40
0.0
 40
0.1893026493755074
 40
0.4929930848613898
 40
0.7964228183267347
 40
1.0
 40
1.0
 40
1.0
 40
1.0
 10
3.970810759179212
 20
62.02118095297168
 30
0.0
 41
1.0
 10
3.970188348115191
 20
62.02116119321263
 30
0.0
 41
1.0
 10
3.968567428643035
 20
62.02110973368685
 30
0.0
 41
1.0
 10
3.965549811488339
 20
62.0211349396639
 30
0.0
 41
1.0
 10
3.962594483102933
 20
62.02122898493199
 30
0.0
 41
1.0
 10
3.961027683681787
 20
62.02133457540149
 30
0.0
 41
1.0
 10
3.96039857074293
 20
62.02137697287093
 30
0.0
 41
1.0
  0
SPLINE
  5
1CD
330
1F
100
AcDbEntity
  8
0
  6
SLD-Solid
 62
     7
370
    25
100
AcDbSpline
210
0.0
220
0.0
230
1.0
 70
    12
 71
     3
 72
    10
 73
     6
 74
     0
 42
0.00000001
 43
0.00000001
 40
0.0
 40
0.0
 40
0.0
 40
0.0
 40
0.3632174718245234
 40
0.7264677892693037
 40
1.0
 40
1.0
 40
1.0
 40
1.0
 10
3.995696078233209
 20
62.02137697287093
 30
0.0
 41
1.0
 10
3.994871623106472
 20
62.02131630874321
 30
0.0
 41
1.0
 10
3.993222638297831
 20
62.02119497500194
 30
0.0
 41
1.0
 10
3.991874158423031
 20
62.02111593520583
 30
0.0
 41
1.0
 10
3.991822614056617
 20
62.02113541715303
 30
0.0
 41
1.0
 10
3.991800472989813
 20
62.02114378569307
 30
0.0
 41
1.0
  0
LWPOLYLINE
  5
1CE
330
1F
100
AcDbEntity
  8
0
  6
SLD-Solid
 62
     7
370
    25
100
AcDbPolyline
 90
        3
 70
   128
 43
0.0
 10
4.001566935848744
 20
62.02189564268929
 10
4.000424196793576
 20
62.02178302812497
 10
3.995696078233209
 20
62.02137697287093
  0
SPLINE
  5
1CF
330
1F
100
AcDbEntity
  8
0
  6
SLD-Solid
 62
     7
370
    25
100
AcDbSpline
210
0.0
220
0.0
230
1.0
 70
    12
 71
     3
 72
    12
 73
     8
 74
     0
 42
0.00000001
 43
0.00000001
 40
0.0
 40
0.0
 40
0.0
 40
0.0
 40
0.214387260429595
 40
0.4287939078185906
 40
0.6427699702210824
 40
0.8565623456012098
 40
1.0
 40
1.0
 40
1.0
 40
1.0
 10
3.9672229476155
 20
62.02137697287093
 30
0.0
 41
1.0
 10
3.967983968248558
 20
62.02131571585104
 30
0.0
 41
1.0
 10
3.969506078333486
 20
62.0211931962718
 30
0.0
 41
1.0
 10
3.972677074029614
 20
62.02111601128159
 30
0.0
 41
1.0
 10
3.976055870884272
 20
62.02113226472095
 30
0.0
 41
1.0
 10
3.9790295161303
 20
62.02122940399013
 30
0.0
 41
1.0
 10
3.980594545429251
 20
62.0213346954586
 30
0.0
 41
1.0
 10
3.9812229476155
 20
62.02137697287093
 30
0.0
 41
1.0
  0
LWPOLYLINE
  5
1D0
330
1F
100
AcDbEntity
  8
0
  6
SLD-Solid
 62
     7
370
    25
100
AcDbPolyline
 90
        3
 70
   128
 43
0.0
 10
3.960398570742931
 20
62.02224430618454
 10
3.963676858695226
 20
62.02178302812497
 10
3.9672229476155
 20
62.02137697287093
  0
SPLINE
  5
1D1
330
1F
100
AcDbEntity
  8
0
  6
SLD-Solid
 62
     7
370
    25
100
AcDbSpline
210
0.0
220
0.0
230
1.0
 70
    12
 71
     3
 72
    10
 73
     6
 74
     0
 42
0.00000001
 43
0.00000001
 40
0.0
 40
0.0
 40
0.0
 40
0.0
 40
0.3632174718245234
 40
0.7264677892693037
 40
1.0
 40
1.0
 40
1.0
 40
1.0
 10
3.945925440125221
 20
62.02137697287093
 30
0.0
 41
1.0
 10
3.946749895251957
 20
62.02131630874321
 30
0.0
 41
1.0
 10
3.9483988800606
 20
62.02119497500194
 30
0.0
 41
1.0
 10
3.949747359935397
 20
62.02111593520583
 30
0.0
 41
1.0
 10
3.949798904301813
 20
62.02113541715303
 30
0.0
 41
1.0
 10
3.949821045368617
 20
62.02114378569307
 30
0.0
 41
1.0
  0
LINE
  5
1D2
330
1F
100
AcDbEntity
  8
0
  6
SLD-Solid
 62
     7
370
    25
100
AcDbLine
 10
8.770810759179215
 20
62.64051040719344
 30
0.0
 11
9.170810759179213
 21
62.64051040719344
 31
0.0
  0
LINE
  5
1D3
330
1F
100
AcDbEntity
  8
0
  6
SLD-Solid
 62
     7
370
    25
100
AcDbLine
 10
3.770810759179211
 20
62.64051040719344
 30
0.0
 11
4.170810759179211
 21
62.64051040719344
 31
0.0
  0
LINE
  5
1D4
330
1F
100
AcDbEntity
  8
0
  6
SLD-Solid
 62
     7
370
    25
100
AcDbLine
 10
9.595810759179216
 20
62.49051040719344
 30
0.0
 11
9.595810759179216
 21
62.39051040719344
 31
0.0
  0
LINE
  5
1D5
330
1F
100
AcDbEntity
  8
0
  6
SLD-Solid
 62
     7
370
    25
100
AcDbLine
 10
9.970810759179214
 20
62.49051040719344
 30
0.0
 11
9.595810759179216
 21
62.49051040719344
 31
0.0
  0
LINE
  5
1D6
330
1F
100
AcDbEntity
  8
0
  6
SLD-Solid
 62
     7
370
    25
100
AcDbLine
 10
9.970810759179214
 20
62.49051040719344
 30
0.0
 11
9.970810759179214
 21
62.39051040719344
 31
0.0
  0
LINE
  5
1D7
330
1F
100
AcDbEntity
  8
0
  6
SLD-Solid
 62
     7
370
    25
100
AcDbLine
 10
9.970810759179214
 20
62.39051040719344
 30
0.0
 11
9.595810759179216
 21
62.39051040719344
 31
0.0
  0
LINE
  5
1D8
330
1F
100
AcDbEntity
  8
0
  6
SLD-Solid
 62
     7
370
    25
100
AcDbLine
 10
3.345810759179214
 20
62.49051040719344
 30
0.0
 11
3.345810759179214
 21
62.39051040719344
 31
0.0
  0
LINE
  5
1D9
330
1F
100
AcDbEntity
  8
0
  6
SLD-Solid
 62
     7
370
    25
100
AcDbLine
 10
9.595810759179216
 20
62.49051040719344
 30
0.0
 11
7.095810759179216
 21
62.49051040719344
 31
0.0
  0
LINE
  5
1DA
330
1F
100
AcDbEntity
  8
0
  6
SLD-Solid
 62
     7
370
    25
100
AcDbLine
 10
5.845810759179216
 20
62.49051040719344
 30
0.0
 11
3.345810759179214
 21
62.49051040719344
 31
0.0
  0
LINE
  5
1DB
330
1F
100
AcDbEntity
  8
0
  6
SLD-Solid
 62
     7
370
    25
100
AcDbLine
 10
9.595810759179216
 20
62.39051040719344
 30
0.0
 11
3.345810759179214
 21
62.39051040719344
 31
0.0
  0
LINE
  5
1DC
330
1F
100
AcDbEntity
  8
0
  6
SLD-Solid
 62
     7
370
    25
100
AcDbLine
 10
2.970810759179218
 20
62.49051040719344
 30
0.0
 11
2.970810759179218
 21
62.39051040719344
 31
0.0
  0
LINE
  5
1DD
330
1F
100
AcDbEntity
  8
0
  6
SLD-Solid
 62
     7
370
    25
100
AcDbLine
 10
3.345810759179214
 20
62.49051040719344
 30
0.0
 11
2.970810759179218
 21
62.49051040719344
 31
0.0
  0
LINE
  5
1DE
330
1F
100
AcDbEntity
  8
0
  6
SLD-Solid
 62
     7
370
    25
100
AcDbLine
 10
3.345810759179214
 20
62.39051040719344
 30
0.0
 11
2.970810759179218
 21
62.39051040719344
 31
0.0
  0
LINE
  5
1DF
330
1F
100
AcDbEntity
  8
0
  6
SLD-Solid
 62
     7
370
    25
100
AcDbLine
 10
5.712810759179216
 20
62.60801040719345
 30
0.0
 11
5.712810759179216
 21
63.87301040719344
 31
0.0
  0
ARC
  5
1E0
330
1F
100
AcDbEntity
  8
0
  6
SLD-Solid
 62
     7
370
    25
100
AcDbCircle
 10
5.837810759179218
 20
62.60801040719345
 30
0.0
 40
0.1250000000000112
100
AcDbArc
 50
180.0
 51
250.0515564114223
  0
ARC
  5
1E1
330
1F
100
AcDbEntity
  8
0
  6
SLD-Solid
 62
     7
370
    25
100
AcDbCircle
 10
7.103810759179215
 20
62.60801040719345
 30
0.0
 40
0.1250000000000109
100
AcDbArc
 50
289.948443588579
 51
0.0
  0
LINE
  5
1E2
330
1F
100
AcDbEntity
  8
0
  6
SLD-Solid
 62
     7
370
    25
100
AcDbLine
 10
7.228810759179216
 20
63.87301040719344
 30
0.0
 11
7.228810759179216
 21
62.60801040719345
 31
0.0
  0
ARC
  5
1E3
330
1F
100
AcDbEntity
  8
0
  6
SLD-Solid
 62
     7
370
    25
100
AcDbCircle
 10
7.103810759179213
 20
63.87301040719344
 30
0.0
 40
0.1250000000000027
100
AcDbArc
 50
0.0
 51
90.0
  0
LINE
  5
1E4
330
1F
100
AcDbEntity
  8
0
  6
SLD-Solid
 62
     7
370
    25
100
AcDbLine
 10
5.837810759179218
 20
63.99801040719344
 30
0.0
 11
7.103810759179213
 21
63.99801040719344
 31
0.0
  0
ARC
  5
1E5
330
1F
100
AcDbEntity
  8
0
  6
SLD-Solid
 62
     7
370
    25
100
AcDbCircle
 10
5.837810759179218
 20
63.87301040719344
 30
0.0
 40
0.1250000000000027
100
AcDbArc
 50
90.0
 51
180.0
  0
LINE
  5
1E6
330
1F
100
AcDbEntity
  8
0
  6
SLD-Solid
 62
     7
370
    25
100
AcDbLine
 10
7.970810759179216
 20
61.24051040719344
 30
0.0
 11
4.970810759179215
 21
61.24051040719344
 31
0.0
  0
ARC
  5
1E7
330
1F
100
AcDbEntity
  8
0
  6
SLD-Solid
 62
     7
370
    25
100
AcDbCircle
 10
4.970810759179215
 20
61.74051040719344
 30
0.0
 40
0.5
100
AcDbArc
 50
180.0
 51
270.0000000000008
  0
LINE
  5
1E8
330
1F
100
AcDbEntity
  8
0
  6
SLD-Solid
 62
     7
370
    25
100
AcDbLine
 10
4.470810759179215
 20
61.74051040719344
 30
0.0
 11
4.470810759179215
 21
62.39051040719328
 31
0.0
  0
LINE
  5
1E9
330
1F
100
AcDbEntity
  8
0
  6
SLD-Solid
 62
     7
370
    25
100
AcDbLine
 10
4.470810759179215
 20
62.49051040719327
 30
0.0
 11
4.470810759179215
 21
64.74051040719344
 31
0.0
  0
ARC
  5
1EA
330
1F
100
AcDbEntity
  8
0
  6
SLD-Solid
 62
     7
370
    25
100
AcDbCircle
 10
4.970810759179215
 20
64.74051040719344
 30
0.0
 40
0.5
100
AcDbArc
 50
90.0
 51
180.0
  0
LINE
  5
1EB
330
1F
100
AcDbEntity
  8
0
  6
SLD-Solid
 62
     7
370
    25
100
AcDbLine
 10
4.970810759179215
 20
65.24051040719344
 30
0.0
 11
7.970810759179218
 21
65.24051040719344
 31
0.0
  0
ARC
  5
1EC
330
1F
100
AcDbEntity
  8
0
  6
SLD-Solid
 62
     7
370
    25
100
AcDbCircle
 10
7.970810759179218
 20
64.74051040719344
 30
0.0
 40
0.5
100
AcDbArc
 50
0.0
 51
90.0
  0
LINE
  5
1ED
330
1F
100
AcDbEntity
  8
0
  6
SLD-Solid
 62
     7
370
    25
100
AcDbLine
 10
8.470810759179216
 20
64.74051040719344
 30
0.0
 11
8.470810759179216
 21
62.49051040719327
 31
0.0
  0
LINE
  5
1EE
330
1F
100
AcDbEntity
  8
0
  6
SLD-Solid
 62
     7
370
    25
100
AcDbLine
 10
8.470810759179216
 20
62.39051040719328
 30
0.0
 11
8.470810759179216
 21
61.74051040719344
 31
0.0
  0
ARC
  5
1EF
330
1F
100
AcDbEntity
  8
0
  6
SLD-Solid
 62
     7
370
    25
100
AcDbCircle
 10
7.970810759179215
 20
61.74051040719344
 30
0.0
 40
0.5000000000000009
100
AcDbArc
 50
270.0000000000009
 51
0.0
  0
CIRCLE
  5
1F0
330
1F
100
AcDbEntity
  8
0
  6
SLD-Solid
 62
     7
370
    25
100
AcDbCircle
 10
4.970810759179215
 20
64.74051040719344
 30
0.0
 40
0.2149999999999999
  0
CIRCLE
  5
1F1
330
1F
100
AcDbEntity
  8
0
  6
SLD-Solid
 62
     7
370
    25
100
AcDbCircle
 10
4.970810759179215
 20
61.74051040719344
 30
0.0
 40
0.2149999999999999
  0
CIRCLE
  5
1F2
330
1F
100
AcDbEntity
  8
0
  6
SLD-Solid
 62
     7
370
    25
100
AcDbCircle
 10
7.970810759179218
 20
64.74051040719344
 30
0.0
 40
0.214999999999999
  0
CIRCLE
  5
1F3
330
1F
100
AcDbEntity
  8
0
  6
SLD-Solid
 62
     7
370
    25
100
AcDbCircle
 10
7.970810759179215
 20
61.74051040719344
 30
0.0
 40
0.2150000000000025
  0
LINE
  5
1F4
330
1F
100
AcDbEntity
  8
0
  6
SLD-Solid
 62
     8
370
    25
100
AcDbLine
 10
8.950926166552318
 20
62.02137697287093
 30
0.0
 11
8.950926166552318
 21
62.02258279673623
 31
0.0
  0
LINE
  5
1F5
330
1F
100
AcDbEntity
  8
0
  6
SLD-Solid
 62
     8
370
    25
100
AcDbLine
 10
8.955423931296313
 20
62.02137697287093
 30
0.0
 11
8.955423931296313
 21
62.02202502187367
 31
0.0
  0
LINE
  5
1F6
330
1F
100
AcDbEntity
  8
0
  6
SLD-Solid
 62
     8
370
    25
100
AcDbLine
 10
3.755810759179211
 20
62.09564274506253
 30
0.0
 11
4.185810759179211
 21
62.09564274506253
 31
0.0
  0
LINE
  5
1F7
330
1F
100
AcDbEntity
  8
0
  6
SLD-Solid
 62
     8
370
    25
100
AcDbLine
 10
3.757770134831237
 20
62.13051040719343
 30
0.0
 11
3.755810759179211
 21
62.13051040719343
 31
0.0
  0
LINE
  5
1F8
330
1F
100
AcDbEntity
  8
0
  6
SLD-Solid
 62
     8
370
    25
100
AcDbLine
 10
4.185810759179211
 20
62.13051040719343
 30
0.0
 11
3.757770134831237
 21
62.13051040719343
 31
0.0
  0
LINE
  5
1F9
330
1F
100
AcDbEntity
  8
0
  6
SLD-Solid
 62
     8
370
    25
100
AcDbLine
 10
4.181582503774486
 20
62.08747653637509
 30
0.0
 11
3.760039014583938
 21
62.08747653637509
 31
0.0
  0
LINE
  5
1FA
330
1F
100
AcDbEntity
  8
0
  6
SLD-Solid
 62
     8
370
    25
100
AcDbLine
 10
3.985733362170333
 20
62.02714267699645
 30
0.0
 11
3.985733362170334
 21
62.02137697287093
 31
0.0
  0
LINE
  5
1FB
330
1F
100
AcDbEntity
  8
0
  6
SLD-Solid
 62
     8
370
    25
100
AcDbLine
 10
3.947326275338124
 20
62.02137697287093
 30
0.0
 11
3.947326275338124
 21
62.02159035641691
 31
0.0
  0
LINE
  5
1FC
330
1F
100
AcDbEntity
  8
0
  6
SLD-Solid
 62
     8
370
    25
100
AcDbLine
 10
3.97979020877
 20
62.02137697287093
 30
0.0
 11
3.97979020877
 21
62.02709793843151
 31
0.0
  0
LINE
  5
1FD
330
1F
100
AcDbEntity
  8
0
  6
SLD-Solid
 62
     8
370
    25
100
AcDbLine
 10
8.755810759179214
 20
62.09564274506253
 30
0.0
 11
9.185810759179216
 21
62.09564274506253
 31
0.0
  0
LINE
  5
1FE
330
1F
100
AcDbEntity
  8
0
  6
SLD-Solid
 62
     8
370
    25
100
AcDbLine
 10
9.112223729291347
 20
62.13051040719345
 30
0.0
 11
8.755810759179214
 21
62.13051040719343
 31
0.0
  0
LINE
  5
1FF
330
1F
100
AcDbEntity
  8
0
  6
SLD-Solid
 62
     8
370
    25
100
AcDbLine
 10
9.185810759179216
 20
62.13051040719345
 30
0.0
 11
9.112223729291347
 21
62.13051040719345
 31
0.0
  0
LINE
  5
200
330
1F
100
AcDbEntity
  8
0
  6
SLD-Solid
 62
     8
370
    25
100
AcDbLine
 10
9.18158250377449
 20
62.08747653637509
 30
0.0
 11
8.76003901458394
 21
62.08747653637509
 31
0.0
  0
LINE
  5
201
330
1F
100
AcDbEntity
  8
0
  6
SLD-Solid
 62
     8
370
    25
100
AcDbLine
 10
8.99440590759261
 20
62.02410738580771
 30
0.0
 11
8.99440590759261
 21
62.02137697287093
 31
0.0
  0
LINE
  5
202
330
1F
100
AcDbEntity
  8
0
  6
SLD-Solid
 62
     8
370
    25
100
AcDbLine
 10
8.946260461909516
 20
62.02137697287093
 30
0.0
 11
8.946260461909516
 21
62.02326624706276
 31
0.0
  0
LINE
  5
203
330
1F
100
AcDbEntity
  8
0
  6
SLD-Solid
 62
     8
370
    25
100
AcDbLine
 10
8.97949525499565
 20
62.0217108808752
 30
0.0
 11
8.97949525499565
 21
62.02137697287093
 31
0.0
  0
LINE
  5
204
330
1F
100
AcDbEntity
  8
0
  6
SLD-Solid
 62
     8
370
    25
100
AcDbLine
 10
3.995696078233209
 20
62.02146533443012
 30
0.0
 11
3.995696078233209
 21
62.02137697287093
 31
0.0
  0
DIMENSION
  5
205
330
1F
100
AcDbEntity
  8
DIMS
100
AcDbDimension
  2
_D_7
 10
11.30939343634457
 20
61.24051040719344
 30
0.0
 11
11.30939343634457
 21
63.24051040719345
 31
0.0
 70
    32
  1
<>
 71
     2
 42
-1.0
  3
SLDDIMSTYLE0
100
AcDbAlignedDimension
 13
7.970810759179218
 23
65.24051040719344
 33
0.0
 14
7.970810759179216
 24
61.24051040719344
 34
0.0
 50
90.0000000000002
100
AcDbRotatedDimension
  0
DIMENSION
  5
210
330
1F
100
AcDbEntity
  8
DIMS
100
AcDbDimension
  2
_D_8
 10
10.36451154658079
 20
61.74051040719344
 30
0.0
 11
10.36451154658079
 21
63.24051040719345
 31
0.0
 70
    32
  1
<>
 71
     2
 42
-1.0
  3
SLDDIMSTYLE0
100
AcDbAlignedDimension
 13
7.970810759179218
 23
64.74051040719344
 33
0.0
 14
7.970810759179215
 24
61.74051040719344
 34
0.0
 50
90.0000000000002
100
AcDbRotatedDimension
  0
DIMENSION
  5
21B
330
1F
100
AcDbEntity
  8
DIMS
100
AcDbDimension
  2
_D_9
 10
7.970810759179215
 20
60.61058914735074
 30
0.0
 11
9.046083671962014
 21
60.61058914735074
 31
0.0
 70
    32
  1
<>
 71
     2
 42
-1.0
  3
SLDDIMSTYLE0
100
AcDbAlignedDimension
 13
4.970810759179215
 23
61.74051040719344
 33
0.0
 14
7.970810759179215
 24
61.74051040719344
 34
0.0
100
AcDbRotatedDimension
  0
MTEXT
  5
226
330
1F
100
AcDbEntity
  8
NOTES
100
AcDbMText
 10
2.658333821759877
 20
60.06010872012988
 30
0.0
 40
0.7500000000000001
 41
0.0
 71
     1
 72
     1
  1
Top view
  7
SLDTEXTSTYLE1
 73
     1
 44
1.0
  0
LINE
  5
227
330
1F
100
AcDbEntity
  8
0
  6
SLD-Solid
 62
     7
370
    25
100
AcDbLine
 10
22.81083718111279
 20
48.46552349785232
 30
0.0
 11
22.84570484324371
 21
48.46552349785232
 31
0.0
  0
LINE
  5
228
330
1F
100
AcDbEntity
  8
0
  6
SLD-Solid
 62
     7
370
    25
100
AcDbLine
 10
22.84570484324371
 20
48.89552349785231
 30
0.0
 11
22.81083718111279
 21
48.89552349785231
 31
0.0
  0
ARC
  5
229
330
1F
100
AcDbEntity
  8
0
  6
SLD-Solid
 62
     7
370
    25
100
AcDbCircle
 10
22.84570484324371
 20
48.47552349785231
 30
0.0
 40
0.009999999999998
100
AcDbArc
 50
270.0000000000008
 51
0.0
  0
ARC
  5
22A
330
1F
100
AcDbEntity
  8
0
  6
SLD-Solid
 62
     7
370
    25
100
AcDbCircle
 10
22.84570484324371
 20
48.88552349785231
 30
0.0
 40
0.009999999999998
100
AcDbArc
 50
0.0
 51
90.0
  0
ARC
  5
22B
330
1F
100
AcDbEntity
  8
0
  6
SLD-Solid
 62
     7
370
    25
100
AcDbCircle
 10
22.81083718111279
 20
48.88552349785231
 30
0.0
 40
0.009999999999998
100
AcDbArc
 50
90.0
 51
144.7479464191447
  0
ARC
  5
22C
330
1F
100
AcDbEntity
  8
0
  6
SLD-Solid
 62
     7
370
    25
100
AcDbCircle
 10
22.81083718111279
 20
48.47552349785231
 30
0.0
 40
0.0100000000000019
100
AcDbArc
 50
215.2520535809226
 51
270.0000000000008
  0
ARC
  5
22D
330
1F
100
AcDbEntity
  8
0
  6
SLD-Solid
 62
     7
370
    25
100
AcDbCircle
 10
23.10088341467227
 20
48.68052349785231
 30
0.0
 40
0.3651785714285751
100
AcDbArc
 50
184.7318728488598
 51
215.2520535808958
  0
ARC
  5
22E
330
1F
100
AcDbEntity
  8
0
  6
SLD-Solid
 62
     7
370
    25
100
AcDbCircle
 10
23.10088341467227
 20
48.68052349785231
 30
0.0
 40
0.3651785714285727
100
AcDbArc
 50
144.7479464191068
 51
176.1997106862925
  0
LINE
  5
22F
330
1F
100
AcDbEntity
  8
0
  6
SLD-Solid
 62
     7
370
    25
100
AcDbLine
 10
22.8557048432437
 20
48.5880234978523
 30
0.0
 11
23.1057048432437
 21
48.5880234978523
 31
0.0
  0
LINE
  5
230
330
1F
100
AcDbEntity
  8
0
  6
SLD-Solid
 62
     7
370
    25
100
AcDbLine
 10
23.1057048432437
 20
48.77302349785231
 30
0.0
 11
22.8557048432437
 21
48.77302349785231
 31
0.0
  0
LINE
  5
231
330
1F
100
AcDbEntity
  8
0
  6
SLD-Solid
 62
     7
370
    25
100
AcDbLine
 10
23.35570484324371
 20
48.60802349785379
 30
0.0
 11
23.3607048432437
 21
48.61302349785422
 31
0.0
  0
LINE
  5
232
330
1F
100
AcDbEntity
  8
0
  6
SLD-Solid
 62
     7
370
    25
100
AcDbLine
 10
23.3607048432437
 20
48.7480234978504
 30
0.0
 11
23.35570484324371
 21
48.75302349785084
 31
0.0
  0
LINE
  5
233
330
1F
100
AcDbEntity
  8
0
  6
SLD-Solid
 62
     7
370
    25
100
AcDbLine
 10
22.7363906564502
 20
48.69957163506786
 30
0.0
 11
22.74241497012639
 21
48.69957163506786
 31
0.0
  0
LINE
  5
234
330
1F
100
AcDbEntity
  8
0
  6
SLD-Solid
 62
     7
370
    25
100
AcDbLine
 10
22.73683536335643
 20
48.66147536063674
 30
0.0
 11
22.7363906564502
 21
48.66147536063674
 31
0.0
  0
LINE
  5
235
330
1F
100
AcDbEntity
  8
0
  6
SLD-Solid
 62
     7
370
    25
100
AcDbLine
 10
22.73715744538744
 20
54.86569202861244
 30
0.0
 11
22.73650486390316
 21
54.86569202861244
 31
0.0
  0
ARC
  5
236
330
1F
100
AcDbEntity
  8
0
  6
SLD-Solid
 62
     7
370
    25
100
AcDbCircle
 10
22.84570484324371
 20
54.67552349785232
 30
0.0
 40
0.009999999999998
100
AcDbArc
 50
270.0000000000008
 51
0.0
  0
ARC
  5
237
330
1F
100
AcDbEntity
  8
0
  6
SLD-Solid
 62
     7
370
    25
100
AcDbCircle
 10
22.84570484324371
 20
55.08552349785231
 30
0.0
 40
0.009999999999998
100
AcDbArc
 50
0.0
 51
90.0
  0
ARC
  5
238
330
1F
100
AcDbEntity
  8
0
  6
SLD-Solid
 62
     7
370
    25
100
AcDbCircle
 10
22.8108371811128
 20
55.08552349785231
 30
0.0
 40
0.009999999999998
100
AcDbArc
 50
90.0
 51
144.7479464191564
  0
ARC
  5
239
330
1F
100
AcDbEntity
  8
0
  6
SLD-Solid
 62
     7
370
    25
100
AcDbCircle
 10
22.8108371811128
 20
54.67552349785232
 30
0.0
 40
0.0100000000000048
100
AcDbArc
 50
215.2520535809109
 51
270.0000000000008
  0
LINE
  5
23A
330
1F
100
AcDbEntity
  8
0
  6
SLD-Solid
 62
     7
370
    25
100
AcDbLine
 10
22.8108371811128
 20
54.66552349785232
 30
0.0
 11
22.84570484324371
 21
54.66552349785232
 31
0.0
  0
LINE
  5
23B
330
1F
100
AcDbEntity
  8
0
  6
SLD-Solid
 62
     7
370
    25
100
AcDbLine
 10
22.84570484324371
 20
55.09552349785231
 30
0.0
 11
22.8108371811128
 21
55.09552349785231
 31
0.0
  0
ARC
  5
23C
330
1F
100
AcDbEntity
  8
0
  6
SLD-Solid
 62
     7
370
    25
100
AcDbCircle
 10
23.10088341467227
 20
54.88052349785232
 30
0.0
 40
0.3651785714285743
100
AcDbArc
 50
183.3399774076563
 51
215.2520535808958
  0
ARC
  5
23D
330
1F
100
AcDbEntity
  8
0
  6
SLD-Solid
 62
     7
370
    25
100
AcDbCircle
 10
23.10088341467227
 20
54.88052349785232
 30
0.0
 40
0.3651785714285707
100
AcDbArc
 50
144.7479464191068
 51
176.6548530565906
  0
LINE
  5
23E
330
1F
100
AcDbEntity
  8
0
  6
SLD-Solid
 62
     7
370
    25
100
AcDbLine
 10
23.35570484324371
 20
54.80802349785379
 30
0.0
 11
23.36070484324371
 21
54.81302349785422
 31
0.0
  0
LINE
  5
23F
330
1F
100
AcDbEntity
  8
0
  6
SLD-Solid
 62
     7
370
    25
100
AcDbLine
 10
23.36070484324371
 20
54.94802349785041
 30
0.0
 11
23.35570484324371
 21
54.95302349785084
 31
0.0
  0
LINE
  5
240
330
1F
100
AcDbEntity
  8
0
  6
SLD-Solid
 62
     7
370
    25
100
AcDbLine
 10
22.8557048432437
 20
54.78802349785231
 30
0.0
 11
23.1057048432437
 21
54.78802349785231
 31
0.0
  0
LINE
  5
241
330
1F
100
AcDbEntity
  8
0
  6
SLD-Solid
 62
     7
370
    25
100
AcDbLine
 10
23.1057048432437
 20
54.97302349785231
 30
0.0
 11
22.8557048432437
 21
54.97302349785231
 31
0.0
  0
LINE
  5
242
330
1F
100
AcDbEntity
  8
0
  6
SLD-Solid
 62
     7
370
    25
100
AcDbLine
 10
22.73880611851498
 20
54.85939585313554
 30
0.0
 11
22.7363281071628
 21
54.85939585313554
 31
0.0
  0
LINE
  5
243
330
1F
100
AcDbEntity
  8
0
  6
SLD-Solid
 62
     7
370
    25
100
AcDbLine
 10
22.7363281071628
 20
54.90165114256909
 30
0.0
 11
22.73794886353647
 21
54.90165114256909
 31
0.0
  0
LINE
  5
244
330
1F
100
AcDbEntity
  8
0
  6
SLD-Solid
 62
     7
370
    25
100
AcDbLine
 10
22.73635516128732
 20
48.65873952404757
 30
0.0
 11
22.73694949913256
 21
48.65039885427675
 31
0.0
  0
LINE
  5
245
330
1F
100
AcDbEntity
  8
0
  6
SLD-Solid
 62
     7
370
    25
100
AcDbLine
 10
22.73698441232495
 20
48.65963817879831
 30
0.0
 11
22.73633822174333
 21
48.65963817879831
 31
0.0
  0
LINE
  5
246
330
1F
100
AcDbEntity
  8
0
  6
SLD-Solid
 62
     7
370
    25
100
AcDbLine
 10
23.2057048432437
 20
54.68052349785232
 30
0.0
 11
23.35570484324371
 21
54.68052349785232
 31
0.0
  0
LINE
  5
247
330
1F
100
AcDbEntity
  8
0
  6
SLD-Solid
 62
     7
370
    25
100
AcDbLine
 10
23.35570484324371
 20
55.08052349785231
 30
0.0
 11
23.2057048432437
 21
55.08052349785231
 31
0.0
  0
LINE
  5
248
330
1F
100
AcDbEntity
  8
0
  6
SLD-Solid
 62
     7
370
    25
100
AcDbLine
 10
23.2057048432437
 20
48.48052349785232
 30
0.0
 11
23.35570484324371
 21
48.48052349785232
 31
0.0
  0
LINE
  5
249
330
1F
100
AcDbEntity
  8
0
  6
SLD-Solid
 62
     7
370
    25
100
AcDbLine
 10
23.35570484324371
 20
48.88052349785231
 30
0.0
 11
23.2057048432437
 21
48.88052349785231
 31
0.0
  0
LINE
  5
24A
330
1F
100
AcDbEntity
  8
0
  6
SLD-Solid
 62
     7
370
    25
100
AcDbLine
 10
24.7057048432437
 20
55.28052349785231
 30
0.0
 11
24.5807048432437
 21
55.28052349785231
 31
0.0
  0
LINE
  5
24B
330
1F
100
AcDbEntity
  8
0
  6
SLD-Solid
 62
     7
370
    25
100
AcDbLine
 10
24.5807048432437
 20
55.28052349785231
 30
0.0
 11
24.5807048432437
 21
55.3705234978523
 31
0.0
  0
LINE
  5
24C
330
1F
100
AcDbEntity
  8
0
  6
SLD-Solid
 62
     7
370
    25
100
AcDbLine
 10
24.7057048432437
 20
55.3705234978523
 30
0.0
 11
24.5807048432437
 21
55.3705234978523
 31
0.0
  0
LINE
  5
24D
330
1F
100
AcDbEntity
  8
0
  6
SLD-Solid
 62
     7
370
    25
100
AcDbLine
 10
24.7057048432437
 20
55.3705234978523
 30
0.0
 11
24.7057048432437
 21
55.28052349785231
 31
0.0
  0
LINE
  5
24E
330
1F
100
AcDbEntity
  8
0
  6
SLD-Solid
 62
     7
370
    25
100
AcDbLine
 10
24.5807048432437
 20
55.43052349785232
 30
0.0
 11
24.6457048432437
 21
55.43052349785232
 31
0.0
  0
ARC
  5
24F
330
1F
100
AcDbEntity
  8
0
  6
SLD-Solid
 62
     7
370
    25
100
AcDbCircle
 10
24.6457048432437
 20
55.3705234978523
 30
0.0
 40
0.0600000000000165
100
AcDbArc
 50
0.0
 51
90.0
  0
LINE
  5
250
330
1F
100
AcDbEntity
  8
0
  6
SLD-Solid
 62
     7
370
    25
100
AcDbLine
 10
24.5807048432437
 20
55.43052349785232
 30
0.0
 11
24.5807048432437
 21
55.3705234978523
 31
0.0
  0
LINE
  5
251
330
1F
100
AcDbEntity
  8
0
  6
SLD-Solid
 62
     7
370
    25
100
AcDbLine
 10
23.3307048432437
 20
55.3705234978523
 30
0.0
 11
23.3307048432437
 21
55.28052349785231
 31
0.0
  0
LINE
  5
252
330
1F
100
AcDbEntity
  8
0
  6
SLD-Solid
 62
     7
370
    25
100
AcDbLine
 10
24.5807048432437
 20
55.3705234978523
 30
0.0
 11
23.3307048432437
 21
55.3705234978523
 31
0.0
  0
LINE
  5
253
330
1F
100
AcDbEntity
  8
0
  6
SLD-Solid
 62
     7
370
    25
100
AcDbLine
 10
23.3307048432437
 20
55.28052349785231
 30
0.0
 11
24.5807048432437
 21
55.28052349785231
 31
0.0
  0
LINE
  5
254
330
1F
100
AcDbEntity
  8
0
  6
SLD-Solid
 62
     7
370
    25
100
AcDbLine
 10
23.3307048432437
 20
55.43052349785232
 30
0.0
 11
24.5807048432437
 21
55.43052349785232
 31
0.0
  0
LINE
  5
255
330
1F
100
AcDbEntity
  8
0
  6
SLD-Solid
 62
     7
370
    25
100
AcDbLine
 10
23.3307048432437
 20
55.43052349785232
 30
0.0
 11
23.3307048432437
 21
55.3705234978523
 31
0.0
  0
LINE
  5
256
330
1F
100
AcDbEntity
  8
0
  6
SLD-Solid
 62
     7
370
    25
100
AcDbLine
 10
23.2057048432437
 20
55.28052349785231
 30
0.0
 11
23.2057048432437
 21
55.3705234978523
 31
0.0
  0
LINE
  5
257
330
1F
100
AcDbEntity
  8
0
  6
SLD-Solid
 62
     7
370
    25
100
AcDbLine
 10
23.3307048432437
 20
55.3705234978523
 30
0.0
 11
23.2057048432437
 21
55.3705234978523
 31
0.0
  0
LINE
  5
258
330
1F
100
AcDbEntity
  8
0
  6
SLD-Solid
 62
     7
370
    25
100
AcDbLine
 10
23.3307048432437
 20
55.28052349785231
 30
0.0
 11
23.2057048432437
 21
55.28052349785231
 31
0.0
  0
LINE
  5
259
330
1F
100
AcDbEntity
  8
0
  6
SLD-Solid
 62
     7
370
    25
100
AcDbLine
 10
23.2657048432437
 20
55.43052349785232
 30
0.0
 11
23.3307048432437
 21
55.43052349785232
 31
0.0
  0
ARC
  5
25A
330
1F
100
AcDbEntity
  8
0
  6
SLD-Solid
 62
     7
370
    25
100
AcDbCircle
 10
23.2657048432437
 20
55.3705234978523
 30
0.0
 40
0.0600000000000165
100
AcDbArc
 50
90.0
 51
180.0
  0
LINE
  5
25B
330
1F
100
AcDbEntity
  8
0
  6
SLD-Solid
 62
     7
370
    25
100
AcDbLine
 10
22.8557048432437
 20
48.76259893024677
 30
0.0
 11
22.8557048432437
 21
48.47552349785231
 31
0.0
  0
LINE
  5
25C
330
1F
100
AcDbEntity
  8
0
  6
SLD-Solid
 62
     7
370
    25
100
AcDbLine
 10
22.8557048432437
 20
48.88552349785231
 30
0.0
 11
22.8557048432437
 21
48.76259893024677
 31
0.0
  0
SPLINE
  5
25D
330
1F
100
AcDbEntity
  8
0
  6
SLD-Solid
 62
     7
370
    25
100
AcDbSpline
210
0.0
220
0.0
230
1.0
 70
    12
 71
     3
 72
    11
 73
     7
 74
     0
 42
0.00000001
 43
0.00000001
 40
0.0
 40
0.0
 40
0.0
 40
0.0
 40
0.2907616031137563
 40
0.581549499690327
 40
0.8717534176261326
 40
1.0
 40
1.0
 40
1.0
 40
1.0
 10
22.73657140892119
 20
48.65547904026576
 30
0.0
 41
1.0
 10
22.73650986891397
 20
48.65646652689747
 30
0.0
 41
1.0
 10
22.73638678333447
 20
48.65844158945894
 30
0.0
 41
1.0
 10
22.73631384079856
 20
48.66044316393208
 30
0.0
 41
1.0
 10
22.73631397731789
 20
48.66147186777599
 30
0.0
 41
1.0
 10
22.73637266872543
 20
48.66136823653169
 30
0.0
 41
1.0
 10
22.7363906564502
 20
48.66133647565938
 30
0.0
 41
1.0
  0
ARC
  5
25E
330
1F
100
AcDbEntity
  8
0
  6
SLD-Solid
 62
     7
370
    25
100
AcDbCircle
 10
23.04381778718798
 20
48.67581256063102
 30
0.0
 40
0.3079184778614299
100
AcDbArc
 50
183.7863050285072
 51
191.8804256214308
  0
ARC
  5
25F
330
1F
100
AcDbEntity
  8
0
  6
SLD-Solid
 62
     7
370
    25
100
AcDbCircle
 10
22.79987180602026
 20
48.61725023596605
 30
0.0
 40
0.0575795281456191
100
AcDbArc
 50
175.189331033467
 51
184.8106689665479
  0
ARC
  5
260
330
1F
100
AcDbEntity
  8
0
  6
SLD-Solid
 62
     7
370
    25
100
AcDbCircle
 10
23.04381778718707
 20
48.68547019033455
 30
0.0
 40
0.3079184778605134
100
AcDbArc
 50
183.786305028492
 51
191.8804256214423
  0
SPLINE
  5
261
330
1F
100
AcDbEntity
  8
0
  6
SLD-Solid
 62
     7
370
    25
100
AcDbSpline
210
0.0
220
0.0
230
1.0
 70
    12
 71
     3
 72
    12
 73
     8
 74
     0
 42
0.00000001
 43
0.00000001
 40
0.0
 40
0.0
 40
0.0
 40
0.0
 40
0.2143872604294348
 40
0.4287939078187105
 40
0.6427699702212657
 40
0.8565623456011379
 40
1.0
 40
1.0
 40
1.0
 40
1.0
 10
22.73657140892119
 20
48.67830389418705
 30
0.0
 41
1.0
 10
22.7365101519013
 20
48.67775401382209
 30
0.0
 41
1.0
 10
22.73638763232207
 20
48.67665420336666
 30
0.0
 41
1.0
 10
22.73631044733185
 20
48.67388096392472
 30
0.0
 41
1.0
 10
22.73632670077122
 20
48.67065911211768
 30
0.0
 41
1.0
 10
22.73642384004039
 20
48.66759919069444
 30
0.0
 41
1.0
 10
22.73652913150886
 20
48.66584216426806
 30
0.0
 41
1.0
 10
22.73657140892119
 20
48.66513666996941
 30
0.0
 41
1.0
  0
ARC
  5
262
330
1F
100
AcDbEntity
  8
0
  6
SLD-Solid
 62
     7
370
    25
100
AcDbCircle
 10
22.80194415459043
 20
48.66805806854523
 30
0.0
 40
0.0661707852410557
100
AcDbArc
 50
153.9509219033476
 51
171.0925345880396
  0
ARC
  5
263
330
1F
100
AcDbEntity
  8
0
  6
SLD-Solid
 62
     7
370
    25
100
AcDbCircle
 10
23.04342218886114
 20
48.70816846287903
 30
0.0
 40
0.3011299591891484
100
AcDbArc
 50
177.8966528833277
 51
182.1033471166731
  0
ARC
  5
264
330
1F
100
AcDbEntity
  8
0
  6
SLD-Solid
 62
     7
370
    25
100
AcDbCircle
 10
22.80194415459004
 20
48.69016226483748
 30
0.0
 40
0.0661707852406546
100
AcDbArc
 50
153.9509219032874
 51
171.0925345880663
  0
SPLINE
  5
265
330
1F
100
AcDbEntity
  8
0
  6
SLD-Solid
 62
     7
370
    25
100
AcDbSpline
210
0.0
220
0.0
230
1.0
 70
    12
 71
     3
 72
    12
 73
     8
 74
     0
 42
0.00000001
 43
0.00000001
 40
0.0
 40
0.0
 40
0.0
 40
0.0
 40
0.2143872604294275
 40
0.4287939078184798
 40
0.6427699702210613
 40
0.8565623456010371
 40
1.0
 40
1.0
 40
1.0
 40
1.0
 10
22.73657140892119
 20
48.70556795543888
 30
0.0
 41
1.0
 10
22.7365101519013
 20
48.7045840701462
 30
0.0
 41
1.0
 10
22.73638763232207
 20
48.70261621058845
 30
0.0
 41
1.0
 10
22.73631044733185
 20
48.70056064600934
 30
0.0
 41
1.0
 10
22.73632670077122
 20
48.69950210519942
 30
0.0
 41
1.0
 10
22.73642384004039
 20
48.69952210173113
 30
0.0
 41
1.0
 10
22.73652913150886
 20
48.70015426113919
 30
0.0
 41
1.0
 10
22.73657140892119
 20
48.70040809047921
 30
0.0
 41
1.0
  0
SPLINE
  5
266
330
1F
100
AcDbEntity
  8
0
  6
SLD-Solid
 62
     7
370
    25
100
AcDbSpline
210
0.0
220
0.0
230
1.0
 70
    12
 71
     3
 72
    12
 73
     8
 74
     0
 42
0.00000001
 43
0.00000001
 40
0.0
 40
0.0
 40
0.0
 40
0.0
 40
0.2143872604294327
 40
0.4287939078187273
 40
0.6427699702212694
 40
0.8565623456011393
 40
1.0
 40
1.0
 40
1.0
 40
1.0
 10
22.73657140892119
 20
48.68274310151755
 30
0.0
 41
1.0
 10
22.7365101519013
 20
48.68329298188252
 30
0.0
 41
1.0
 10
22.73638763232207
 20
48.68439279233795
 30
0.0
 41
1.0
 10
22.73631044733185
 20
48.68716603177992
 30
0.0
 41
1.0
 10
22.73632670077122
 20
48.69038788358693
 30
0.0
 41
1.0
 10
22.73642384004039
 20
48.69344780501017
 30
0.0
 41
1.0
 10
22.73652913150886
 20
48.69520483143656
 30
0.0
 41
1.0
 10
22.73657140892119
 20
48.69591032573521
 30
0.0
 41
1.0
  0
LINE
  5
267
330
1F
100
AcDbEntity
  8
0
  6
SLD-Solid
 62
     7
370
    25
100
AcDbLine
 10
23.3607048432437
 20
48.7480234978504
 30
0.0
 11
23.3607048432437
 21
48.61302349785422
 31
0.0
  0
SPLINE
  5
268
330
1F
100
AcDbEntity
  8
0
  6
SLD-Solid
 62
     7
370
    25
100
AcDbSpline
210
0.0
220
0.0
230
1.0
 70
    12
 71
     3
 72
    12
 73
     8
 74
     0
 42
0.00000001
 43
0.00000001
 40
0.0
 40
0.0
 40
0.0
 40
0.0
 40
0.2143872604297249
 40
0.4287939078187751
 40
0.6427699702209818
 40
0.8565623456010859
 40
1.0
 40
1.0
 40
1.0
 40
1.0
 10
22.73657140892119
 20
54.90075879909062
 30
0.0
 41
1.0
 10
22.7365101519013
 20
54.89963246710401
 30
0.0
 41
1.0
 10
22.73638763232207
 20
54.89737970127698
 30
0.0
 41
1.0
 10
22.73631044733185
 20
54.89418159329838
 30
0.0
 41
1.0
 10
22.73632670077122
 20
54.89160167168351
 30
0.0
 41
1.0
 10
22.73642384004039
 20
54.89002712942774
 30
0.0
 41
1.0
 10
22.73652913150886
 20
54.88965312177375
 30
0.0
 41
1.0
 10
22.73657140892119
 20
54.88950294744309
 30
0.0
 41
1.0
  0
SPLINE
  5
269
330
1F
100
AcDbEntity
  8
0
  6
SLD-Solid
 62
     7
370
    25
100
AcDbSpline
210
0.0
220
0.0
230
1.0
 70
    12
 71
     3
 72
    10
 73
     6
 74
     0
 42
0.00000001
 43
0.00000001
 40
0.0
 40
0.0
 40
0.0
 40
0.0
 40
0.2288554030520048
 40
0.62724043765089
 40
1.0
 40
1.0
 40
1.0
 40
1.0
 10
22.73637151571188
 20
54.89607519077858
 30
0.0
 41
1.0
 10
22.73635362987196
 20
54.89627743330976
 30
0.0
 41
1.0
 10
22.7363046088661
 20
54.89683173393828
 30
0.0
 41
1.0
 10
22.73632393507325
 20
54.89878007373687
 30
0.0
 41
1.0
 10
22.73640541329451
 20
54.90071555862819
 30
0.0
 41
1.0
 10
22.73644479862667
 20
54.90165114256909
 30
0.0
 41
1.0
  0
SPLINE
  5
26A
330
1F
100
AcDbEntity
  8
0
  6
SLD-Solid
 62
     7
370
    25
100
AcDbSpline
210
0.0
220
0.0
230
1.0
 70
    12
 71
     3
 72
    11
 73
     7
 74
     0
 42
0.00000001
 43
0.00000001
 40
0.0
 40
0.0
 40
0.0
 40
0.0
 40
0.177086247534991
 40
0.4853529954905109
 40
0.7933551129060089
 40
1.0
 40
1.0
 40
1.0
 40
1.0
 10
22.73637151571188
 20
54.86497180492601
 30
0.0
 41
1.0
 10
22.7363534486652
 20
54.86558519591245
 30
0.0
 41
1.0
 10
22.73630393101296
 20
54.86726636063763
 30
0.0
 41
1.0
 10
22.73632960903942
 20
54.86943432102983
 30
0.0
 41
1.0
 10
22.73642338442939
 20
54.87102159001191
 30
0.0
 41
1.0
 10
22.73652900097962
 20
54.87139436776841
 30
0.0
 41
1.0
 10
22.73657140892119
 20
54.87154404826152
 30
0.0
 41
1.0
  0
SPLINE
  5
26B
330
1F
100
AcDbEntity
  8
0
  6
SLD-Solid
 62
     7
370
    25
100
AcDbSpline
210
0.0
220
0.0
230
1.0
 70
    12
 71
     3
 72
    11
 73
     7
 74
     0
 42
0.00000001
 43
0.00000001
 40
0.0
 40
0.0
 40
0.0
 40
0.0
 40
0.2543199814606409
 40
0.5086629609816116
 40
0.7624951528485401
 40
1.0
 40
1.0
 40
1.0
 40
1.0
 10
22.73657140892119
 20
54.86560089486119
 30
0.0
 41
1.0
 10
22.73651004102598
 20
54.86564354068837
 30
0.0
 41
1.0
 10
22.73638729968609
 20
54.8657288361992
 30
0.0
 41
1.0
 10
22.73631177690265
 20
54.8644217546843
 30
0.0
 41
1.0
 10
22.73632151744651
 20
54.86229589918949
 30
0.0
 41
1.0
 10
22.73640462547196
 20
54.86034087977004
 30
0.0
 41
1.0
 10
22.73644479862667
 20
54.85939585313554
 30
0.0
 41
1.0
  0
LWPOLYLINE
  5
26C
330
1F
100
AcDbEntity
  8
0
  6
SLD-Solid
 62
     7
370
    25
100
AcDbPolyline
 90
        3
 70
   128
 43
0.0
 10
22.73732247207545
 20
54.86424245563716
 10
22.73697746417523
 20
54.86480480652811
 10
22.73657140892119
 20
54.86560089486119
  0
LINE
  5
26D
330
1F
100
AcDbEntity
  8
0
  6
SLD-Solid
 62
     7
370
    25
100
AcDbLine
 10
22.8557048432437
 20
55.03493967207162
 30
0.0
 11
22.8557048432437
 21
54.67552349785232
 31
0.0
  0
LINE
  5
26E
330
1F
100
AcDbEntity
  8
0
  6
SLD-Solid
 62
     7
370
    25
100
AcDbLine
 10
22.8557048432437
 20
55.08552349785231
 30
0.0
 11
22.8557048432437
 21
55.03493967207162
 31
0.0
  0
SPLINE
  5
26F
330
1F
100
AcDbEntity
  8
0
  6
SLD-Solid
 62
     7
370
    25
100
AcDbSpline
210
0.0
220
0.0
230
1.0
 70
    12
 71
     3
 72
    12
 73
     8
 74
     0
 42
0.00000001
 43
0.00000001
 40
0.0
 40
0.0
 40
0.0
 40
0.0
 40
0.2143872604296007
 40
0.4287939078186528
 40
0.6427699702211488
 40
0.8565623456011375
 40
1.0
 40
1.0
 40
1.0
 40
1.0
 10
22.73657140892119
 20
54.85692834943891
 30
0.0
 41
1.0
 10
22.7365101519013
 20
54.85758332399026
 30
0.0
 41
1.0
 10
22.73638763232207
 20
54.85889333232204
 30
0.0
 41
1.0
 10
22.73631044733185
 20
54.85956825209988
 30
0.0
 41
1.0
 10
22.73632670077122
 20
54.85915005199298
 30
0.0
 41
1.0
 10
22.73642384004039
 20
54.85782566509378
 30
0.0
 41
1.0
 10
22.73652913150886
 20
54.85650391820777
 30
0.0
 41
1.0
 10
22.73657140892119
 20
54.85597320058261
 30
0.0
 41
1.0
  0
ARC
  5
270
330
1F
100
AcDbEntity
  8
0
  6
SLD-Solid
 62
     7
370
    25
100
AcDbCircle
 10
22.89889157954543
 20
54.87201990163537
 30
0.0
 40
0.1630202218719509
100
AcDbArc
 50
185.3117465471036
 51
196.3889336364998
  0
ARC
  5
271
330
1F
100
AcDbEntity
  8
0
  6
SLD-Solid
 62
     7
370
    25
100
AcDbCircle
 10
22.94580269140066
 20
54.83510764119234
 30
0.0
 40
0.2035104562622821
100
AcDbArc
 50
177.4414116539535
 51
182.5585883460473
  0
ARC
  5
272
330
1F
100
AcDbEntity
  8
0
  6
SLD-Solid
 62
     7
370
    25
100
AcDbCircle
 10
22.8988915795456
 20
54.89018970211475
 30
0.0
 40
0.1630202218721206
100
AcDbArc
 50
185.3117465470981
 51
196.3889336364877
  0
SPLINE
  5
273
330
1F
100
AcDbEntity
  8
0
  6
SLD-Solid
 62
     7
370
    25
100
AcDbSpline
210
0.0
220
0.0
230
1.0
 70
    12
 71
     3
 72
    12
 73
     8
 74
     0
 42
0.00000001
 43
0.00000001
 40
0.0
 40
0.0
 40
0.0
 40
0.0
 40
0.2143872604294045
 40
0.4287939078186615
 40
0.6427699702211467
 40
0.8565623456009068
 40
1.0
 40
1.0
 40
1.0
 40
1.0
 10
22.73657140892119
 20
54.88920799366876
 30
0.0
 41
1.0
 10
22.7365101519013
 20
54.88829071125749
 30
0.0
 41
1.0
 10
22.73638763232207
 20
54.88645606348543
 30
0.0
 41
1.0
 10
22.73631044733185
 20
54.88307069998427
 30
0.0
 41
1.0
 10
22.73632670077122
 20
54.87970529564255
 30
0.0
 41
1.0
 10
22.73642384004039
 20
54.87694676010373
 30
0.0
 41
1.0
 10
22.73652913150886
 20
54.87562776330712
 30
0.0
 41
1.0
 10
22.73657140892119
 20
54.87509814991829
 30
0.0
 41
1.0
  0
ARC
  5
274
330
1F
100
AcDbEntity
  8
0
  6
SLD-Solid
 62
     7
370
    25
100
AcDbCircle
 10
22.94687036223347
 20
54.87220357223311
 30
0.0
 40
0.2109853078121812
100
AcDbArc
 50
165.620139177072
 51
175.3772163390245
  0
ARC
  5
275
330
1F
100
AcDbEntity
  8
0
  6
SLD-Solid
 62
     7
370
    25
100
AcDbCircle
 10
22.89749130348095
 20
54.93253455172451
 30
0.0
 40
0.1551990630935585
100
AcDbArc
 50
177.070086154326
 51
182.9299138456695
  0
ARC
  5
276
330
1F
100
AcDbEntity
  8
0
  6
SLD-Solid
 62
     7
370
    25
100
AcDbCircle
 10
22.94687036223256
 20
54.88806937368652
 30
0.0
 40
0.2109853078112564
100
AcDbArc
 50
165.6201391770495
 51
175.3772163390391
  0
SPLINE
  5
277
330
1F
100
AcDbEntity
  8
0
  6
SLD-Solid
 62
     7
370
    25
100
AcDbSpline
210
0.0
220
0.0
230
1.0
 70
    12
 71
     3
 72
    10
 73
     6
 74
     0
 42
0.00000001
 43
0.00000001
 40
0.0
 40
0.0
 40
0.0
 40
0.0
 40
0.3425365964405105
 40
0.7360104117841187
 40
0.9999999999999999
 40
0.9999999999999999
 40
0.9999999999999999
 40
0.9999999999999999
 10
22.7363281071628
 20
54.90171484510625
 30
0.0
 41
1.0
 10
22.73632746178628
 20
54.90177332502195
 30
0.0
 41
1.0
 10
22.73632607506193
 20
54.90189898116285
 30
0.0
 41
1.0
 10
22.73642473054574
 20
54.90323171704491
 30
0.0
 41
1.0
 10
22.73652938663218
 20
54.90454605313478
 30
0.0
 41
1.0
 10
22.73657140892119
 20
54.90507379512202
 30
0.0
 41
1.0
  0
ARC
  5
278
330
1F
100
AcDbEntity
  8
0
  6
SLD-Solid
 62
     7
370
    25
100
AcDbCircle
 10
22.94466471724655
 20
54.8885770819015
 30
0.0
 40
0.2087653905401504
100
AcDbArc
 50
184.59871145137
 51
188.0351166862618
  0
LINE
  5
279
330
1F
100
AcDbEntity
  8
0
  6
SLD-Solid
 62
     7
370
    25
100
AcDbLine
 10
23.36070484324371
 20
54.94802349785041
 30
0.0
 11
23.36070484324371
 21
54.81302349785422
 31
0.0
  0
SPLINE
  5
27A
330
1F
100
AcDbEntity
  8
0
  6
SLD-Solid
 62
     7
370
    25
100
AcDbSpline
210
0.0
220
0.0
230
1.0
 70
    12
 71
     3
 72
    11
 73
     7
 74
     0
 42
0.00000001
 43
0.00000001
 40
0.0
 40
0.0
 40
0.0
 40
0.0
 40
0.3191612962094189
 40
0.6383514540555959
 40
0.9569005940439105
 40
1.0
 40
1.0
 40
1.0
 40
1.0
 10
22.73657140892119
 20
48.68411130941602
 30
0.0
 41
1.0
 10
22.73650967666764
 20
48.68334899974877
 30
0.0
 41
1.0
 10
22.7363862065781
 20
48.68182431147893
 30
0.0
 41
1.0
 10
22.73631614613675
 20
48.67867264056488
 30
0.0
 41
1.0
 10
22.73630848313665
 20
48.67621420388005
 30
0.0
 41
1.0
 10
22.7363518645971
 20
48.67499054180718
 30
0.0
 41
1.0
 10
22.73635703457552
 20
48.67484471208098
 30
0.0
 41
1.0
  0
LINE
  5
27B
330
1F
100
AcDbEntity
  8
0
  6
SLD-Solid
 62
     7
370
    25
100
AcDbLine
 10
23.35570484324371
 20
55.08052349785231
 30
0.0
 11
23.35570484324371
 21
54.68052349785232
 31
0.0
  0
LINE
  5
27C
330
1F
100
AcDbEntity
  8
0
  6
SLD-Solid
 62
     7
370
    25
100
AcDbLine
 10
23.35570484324371
 20
48.88052349785231
 30
0.0
 11
23.35570484324371
 21
48.48052349785232
 31
0.0
  0
LINE
  5
27D
330
1F
100
AcDbEntity
  8
0
  6
SLD-Solid
 62
     7
370
    25
100
AcDbLine
 10
23.2057048432437
 20
55.28052349785231
 30
0.0
 11
23.1057048432437
 21
55.28052349785231
 31
0.0
  0
LINE
  5
27E
330
1F
100
AcDbEntity
  8
0
  6
SLD-Solid
 62
     7
370
    25
100
AcDbLine
 10
23.2057048432437
 20
54.90552349785231
 30
0.0
 11
23.2057048432437
 21
55.28052349785231
 31
0.0
  0
LINE
  5
27F
330
1F
100
AcDbEntity
  8
0
  6
SLD-Solid
 62
     7
370
    25
100
AcDbLine
 10
23.2057048432437
 20
54.90552349785231
 30
0.0
 11
23.1057048432437
 21
54.90552349785231
 31
0.0
  0
LINE
  5
280
330
1F
100
AcDbEntity
  8
0
  6
SLD-Solid
 62
     7
370
    25
100
AcDbLine
 10
23.1057048432437
 20
54.90552349785231
 30
0.0
 11
23.1057048432437
 21
55.28052349785231
 31
0.0
  0
LINE
  5
281
330
1F
100
AcDbEntity
  8
0
  6
SLD-Solid
 62
     7
370
    25
100
AcDbLine
 10
23.2057048432437
 20
48.65552349785231
 30
0.0
 11
23.2057048432437
 21
54.90552349785231
 31
0.0
  0
LINE
  5
282
330
1F
100
AcDbEntity
  8
0
  6
SLD-Solid
 62
     7
370
    25
100
AcDbLine
 10
23.2057048432437
 20
48.65552349785231
 30
0.0
 11
23.1057048432437
 21
48.65552349785231
 31
0.0
  0
LINE
  5
283
330
1F
100
AcDbEntity
  8
0
  6
SLD-Solid
 62
     7
370
    25
100
AcDbLine
 10
23.1057048432437
 20
48.65552349785231
 30
0.0
 11
23.1057048432437
 21
54.90552349785231
 31
0.0
  0
LINE
  5
284
330
1F
100
AcDbEntity
  8
0
  6
SLD-Solid
 62
     7
370
    25
100
AcDbLine
 10
23.2057048432437
 20
48.2805234978523
 30
0.0
 11
23.1057048432437
 21
48.2805234978523
 31
0.0
  0
LINE
  5
285
330
1F
100
AcDbEntity
  8
0
  6
SLD-Solid
 62
     7
370
    25
100
AcDbLine
 10
23.2057048432437
 20
48.2805234978523
 30
0.0
 11
23.2057048432437
 21
48.65552349785231
 31
0.0
  0
LINE
  5
286
330
1F
100
AcDbEntity
  8
0
  6
SLD-Solid
 62
     7
370
    25
100
AcDbLine
 10
23.1057048432437
 20
48.2805234978523
 30
0.0
 11
23.1057048432437
 21
48.65552349785231
 31
0.0
  0
LINE
  5
287
330
1F
100
AcDbEntity
  8
0
  6
SLD-Solid
 62
     7
370
    25
100
AcDbLine
 10
24.7057048432437
 20
55.28052349785231
 30
0.0
 11
24.7057048432437
 21
7.780523497852312
 31
0.0
  0
LINE
  5
288
330
1F
100
AcDbEntity
  8
0
  6
SLD-Solid
 62
     7
370
    25
100
AcDbLine
 10
23.2057048432437
 20
48.2805234978523
 30
0.0
 11
23.2057048432437
 21
7.780523497852312
 31
0.0
  0
LINE
  5
289
330
1F
100
AcDbEntity
  8
0
  6
SLD-Solid
 62
     7
370
    25
100
AcDbLine
 10
25.9557048432437
 20
7.530523497852309
 30
0.0
 11
25.9557048432437
 21
7.780523497852308
 31
0.0
  0
LINE
  5
28A
330
1F
100
AcDbEntity
  8
0
  6
SLD-Solid
 62
     7
370
    25
100
AcDbLine
 10
25.9557048432437
 20
7.530523497852309
 30
0.0
 11
25.4557048432437
 21
7.530523497852309
 31
0.0
  0
LINE
  5
28B
330
1F
100
AcDbEntity
  8
0
  6
SLD-Solid
 62
     7
370
    25
100
AcDbLine
 10
25.4557048432437
 20
7.530523497852309
 30
0.0
 11
25.4557048432437
 21
7.780523497852308
 31
0.0
  0
LINE
  5
28C
330
1F
100
AcDbEntity
  8
0
  6
SLD-Solid
 62
     7
370
    25
100
AcDbLine
 10
25.9557048432437
 20
7.780523497852308
 30
0.0
 11
25.4557048432437
 21
7.780523497852308
 31
0.0
  0
LINE
  5
28D
330
1F
100
AcDbEntity
  8
0
  6
SLD-Solid
 62
     7
370
    25
100
AcDbLine
 10
22.4557048432437
 20
7.530523497852309
 30
0.0
 11
22.4557048432437
 21
7.780523497852308
 31
0.0
  0
LINE
  5
28E
330
1F
100
AcDbEntity
  8
0
  6
SLD-Solid
 62
     7
370
    25
100
AcDbLine
 10
25.4557048432437
 20
7.530523497852309
 30
0.0
 11
22.4557048432437
 21
7.530523497852309
 31
0.0
  0
LINE
  5
28F
330
1F
100
AcDbEntity
  8
0
  6
SLD-Solid
 62
     7
370
    25
100
AcDbLine
 10
25.4557048432437
 20
7.780523497852308
 30
0.0
 11
22.4557048432437
 21
7.780523497852308
 31
0.0
  0
LINE
  5
290
330
1F
100
AcDbEntity
  8
0
  6
SLD-Solid
 62
     7
370
    25
100
AcDbLine
 10
21.9557048432437
 20
7.530523497852309
 30
0.0
 11
21.9557048432437
 21
7.780523497852308
 31
0.0
  0
LINE
  5
291
330
1F
100
AcDbEntity
  8
0
  6
SLD-Solid
 62
     7
370
    25
100
AcDbLine
 10
22.4557048432437
 20
7.530523497852309
 30
0.0
 11
21.9557048432437
 21
7.530523497852309
 31
0.0
  0
LINE
  5
292
330
1F
100
AcDbEntity
  8
0
  6
SLD-Solid
 62
     7
370
    25
100
AcDbLine
 10
22.4557048432437
 20
7.780523497852308
 30
0.0
 11
21.9557048432437
 21
7.780523497852308
 31
0.0
  0
LINE
  5
293
330
1F
100
AcDbEntity
  8
0
  6
SLD-Solid
 62
     8
370
    25
100
AcDbLine
 10
22.81083718111279
 20
48.89552349785231
 30
0.0
 11
22.81083718111279
 21
48.46552349785232
 31
0.0
  0
LINE
  5
294
330
1F
100
AcDbEntity
  8
0
  6
SLD-Solid
 62
     8
370
    25
100
AcDbLine
 10
22.84570484324371
 20
48.76660260987577
 30
0.0
 11
22.84570484324371
 21
48.89552349785231
 31
0.0
  0
LINE
  5
295
330
1F
100
AcDbEntity
  8
0
  6
SLD-Solid
 62
     8
370
    25
100
AcDbLine
 10
22.84570484324371
 20
48.46552349785232
 30
0.0
 11
22.84570484324371
 21
48.76660260987577
 31
0.0
  0
LINE
  5
296
330
1F
100
AcDbEntity
  8
0
  6
SLD-Solid
 62
     8
370
    25
100
AcDbLine
 10
22.80267097242535
 20
48.46975175325704
 30
0.0
 11
22.80267097242535
 21
48.89129524244758
 31
0.0
  0
LINE
  5
297
330
1F
100
AcDbEntity
  8
0
  6
SLD-Solid
 62
     8
370
    25
100
AcDbLine
 10
22.73657140892119
 20
48.70040809047921
 30
0.0
 11
22.74239224375622
 21
48.70040809047921
 31
0.0
  0
LINE
  5
298
330
1F
100
AcDbEntity
  8
0
  6
SLD-Solid
 62
     8
370
    25
100
AcDbLine
 10
22.73736291404828
 20
48.65547904026575
 30
0.0
 11
22.73657140892119
 21
48.65547904026575
 31
0.0
  0
LINE
  5
299
330
1F
100
AcDbEntity
  8
0
  6
SLD-Solid
 62
     8
370
    25
100
AcDbLine
 10
22.73741253225456
 20
48.68274310151755
 30
0.0
 11
22.73657140892119
 21
48.68274310151755
 31
0.0
  0
LINE
  5
29A
330
1F
100
AcDbEntity
  8
0
  6
SLD-Solid
 62
     8
370
    25
100
AcDbLine
 10
22.73657140892119
 20
48.69591032573521
 30
0.0
 11
22.74192785412218
 21
48.69591032573521
 31
0.0
  0
LINE
  5
29B
330
1F
100
AcDbEntity
  8
0
  6
SLD-Solid
 62
     8
370
    25
100
AcDbLine
 10
22.73716751834905
 20
54.86560089486119
 30
0.0
 11
22.73657140892119
 21
54.86560089486119
 31
0.0
  0
LINE
  5
29C
330
1F
100
AcDbEntity
  8
0
  6
SLD-Solid
 62
     8
370
    25
100
AcDbLine
 10
22.84570484324371
 20
55.04247216837499
 30
0.0
 11
22.84570484324371
 21
55.09552349785231
 31
0.0
  0
LINE
  5
29D
330
1F
100
AcDbEntity
  8
0
  6
SLD-Solid
 62
     8
370
    25
100
AcDbLine
 10
22.84570484324371
 20
54.66552349785232
 30
0.0
 11
22.84570484324371
 21
55.04247216837499
 31
0.0
  0
LINE
  5
29E
330
1F
100
AcDbEntity
  8
0
  6
SLD-Solid
 62
     8
370
    25
100
AcDbLine
 10
22.80267097242535
 20
54.66975175325704
 30
0.0
 11
22.80267097242535
 21
55.09129524244758
 31
0.0
  0
LINE
  5
29F
330
1F
100
AcDbEntity
  8
0
  6
SLD-Solid
 62
     8
370
    25
100
AcDbLine
 10
22.8108371811128
 20
55.09552349785231
 30
0.0
 11
22.8108371811128
 21
54.66552349785232
 31
0.0
  0
LINE
  5
2A0
330
1F
100
AcDbEntity
  8
0
  6
SLD-Solid
 62
     8
370
    25
100
AcDbLine
 10
22.73930182185797
 20
54.85692834943891
 30
0.0
 11
22.73657140892119
 21
54.85692834943891
 31
0.0
  0
LINE
  5
2A1
330
1F
100
AcDbEntity
  8
0
  6
SLD-Solid
 62
     8
370
    25
100
AcDbLine
 10
22.73657140892119
 20
54.90507379512202
 30
0.0
 11
22.73846068311302
 21
54.90507379512202
 31
0.0
  0
LINE
  5
2A2
330
1F
100
AcDbEntity
  8
0
  6
SLD-Solid
 62
     8
370
    25
100
AcDbLine
 10
22.73690531692546
 20
54.87183900203587
 30
0.0
 11
22.73657140892119
 21
54.87183900203587
 31
0.0
  0
LINE
  5
2A3
330
1F
100
AcDbEntity
  8
0
  6
SLD-Solid
 62
     8
370
    25
100
AcDbLine
 10
24.5807048432437
 20
55.28052349785231
 30
0.0
 11
24.5807048432437
 21
7.780523497852312
 31
0.0
  0
LINE
  5
2A4
330
1F
100
AcDbEntity
  8
0
  6
SLD-Solid
 62
     8
370
    25
100
AcDbLine
 10
23.3307048432437
 20
55.28052349785231
 30
0.0
 11
23.3307048432437
 21
55.08052349785231
 31
0.0
  0
LINE
  5
2A5
330
1F
100
AcDbEntity
  8
0
  6
SLD-Solid
 62
     8
370
    25
100
AcDbLine
 10
23.3307048432437
 20
54.68052349785232
 30
0.0
 11
23.3307048432437
 21
48.88052349785231
 31
0.0
  0
LINE
  5
2A6
330
1F
100
AcDbEntity
  8
0
  6
SLD-Solid
 62
     8
370
    25
100
AcDbLine
 10
23.3307048432437
 20
48.48052349785232
 30
0.0
 11
23.3307048432437
 21
7.780523497852312
 31
0.0
  0
MTEXT
  5
2A7
330
1F
100
AcDbEntity
  8
NOTES
100
AcDbMText
 10
21.38682414147657
 20
7.07695136487648
 30
0.0
 40
0.7500000000000001
 41
0.0
 71
     1
 72
     1
  1
Side view
  7
SLDTEXTSTYLE1
 73
     1
 44
1.0
  0
SPLINE
  5
2A8
330
1F
100
AcDbEntity
  8
0
  6
SLD-Solid
 62
     7
370
    25
100
AcDbSpline
210
0.0
220
0.0
230
1.0
 70
    12
 71
     3
 72
    11
 73
     7
 74
     0
 42
0.00000001
 43
0.00000001
 40
0.0
 40
0.0
 40
0.0
 40
0.0
 40
0.225411430490501
 40
0.5349131864849213
 40
0.8366031788039177
 40
1.0
 40
1.0
 40
1.0
 40
1.0
 10
41.46082191466856
 20
55.31935427802927
 30
0.0
 41
1.0
 10
41.46083570352163
 20
55.32669409409613
 30
0.0
 41
1.0
 10
41.46086842519556
 20
55.34411186386934
 30
0.0
 41
1.0
 10
41.44760341989367
 20
55.36857841049817
 30
0.0
 41
1.0
 10
41.43053397597671
 20
55.38668684332437
 30
0.0
 41
1.0
 10
41.41780189735311
 20
55.39470526092989
 30
0.0
 41
1.0
 10
41.41332879445304
 20
55.39752233488186
 30
0.0
 41
1.0
  0
SPLINE
  5
2A9
330
1F
100
AcDbEntity
  8
0
  6
SLD-Solid
 62
     7
370
    25
100
AcDbSpline
210
0.0
220
0.0
230
1.0
 70
    12
 71
     3
 72
    11
 73
     7
 74
     0
 42
0.00000001
 43
0.00000001
 40
0.0
 40
0.0
 40
0.0
 40
0.0
 40
0.2499949843356559
 40
0.5704284977538424
 40
0.8814838935300399
 40
1.0
 40
1.0
 40
1.0
 40
1.0
 10
39.49364283597426
 20
55.39752233488186
 30
0.0
 41
1.0
 10
39.48681180323973
 20
55.39303796763841
 30
0.0
 41
1.0
 10
39.47122502756415
 20
55.38280571887209
 30
0.0
 41
1.0
 10
39.45400116340296
 20
55.36001400753112
 30
0.0
 41
1.0
 10
39.44409304761001
 20
55.33648854219142
 30
0.0
 41
1.0
 10
39.44570499068667
 20
55.32254495107148
 30
0.0
 41
1.0
 10
39.44614971575874
 20
55.31869800098028
 30
0.0
 41
1.0
  0
LINE
  5
2AA
330
1F
100
AcDbEntity
  8
0
  6
SLD-Solid
 62
     7
370
    25
100
AcDbLine
 10
41.46236929169684
 20
55.24553746643505
 30
0.0
 11
41.46236929169684
 21
55.31902613950478
 31
0.0
  0
LINE
  5
2AB
330
1F
100
AcDbEntity
  8
0
  6
SLD-Solid
 62
     7
370
    25
100
AcDbLine
 10
39.44460233873047
 20
55.31902613950478
 30
0.0
 11
39.44460233873047
 21
55.24553746643505
 31
0.0
  0
LINE
  5
2AC
330
1F
100
AcDbEntity
  8
0
  6
SLD-Solid
 62
     7
370
    25
100
AcDbLine
 10
41.41332879445304
 20
55.39752233488186
 30
0.0
 11
40.52944531796987
 21
55.90777740477105
 31
0.0
  0
LINE
  5
2AD
330
1F
100
AcDbEntity
  8
0
  6
SLD-Solid
 62
     7
370
    25
100
AcDbLine
 10
40.37752631245745
 20
55.90777740477105
 30
0.0
 11
39.49364283597426
 21
55.39752233488186
 31
0.0
  0
SPLINE
  5
2AE
330
1F
100
AcDbEntity
  8
0
  6
SLD-Solid
 62
     7
370
    25
100
AcDbSpline
210
0.0
220
0.0
230
1.0
 70
    12
 71
     3
 72
    12
 73
     8
 74
     0
 42
0.00000001
 43
0.00000001
 40
0.0
 40
0.0
 40
0.0
 40
0.0
 40
0.1494640709307601
 40
0.3866235507021313
 40
0.6293883545880473
 40
0.8823522803576592
 40
1.0
 40
1.0
 40
1.0
 40
1.0
 10
40.52944531796987
 20
55.90777740477105
 30
0.0
 41
1.0
 10
40.5226214966744
 20
55.91122696845406
 30
0.0
 41
1.0
 10
40.50497009722986
 20
55.92015006650163
 30
0.0
 41
1.0
 10
40.47175662126469
 20
55.92725283712714
 30
0.0
 41
1.0
 10
40.43176423093016
 20
55.92697368094382
 30
0.0
 41
1.0
 10
40.39964358970195
 20
55.91926237817376
 30
0.0
 41
1.0
 10
40.38285554404776
 20
55.910544747351
 30
0.0
 41
1.0
 10
40.37752631245745
 20
55.90777740477105
 30
0.0
 41
1.0
  0
LINE
  5
2AF
330
1F
100
AcDbEntity
  8
0
  6
SLD-Solid
 62
     7
370
    25
100
AcDbLine
 10
41.51920034448443
 20
48.18231783963529
 30
0.0
 11
41.54385550482132
 21
48.19655096073727
 31
0.0
  0
LINE
  5
2B0
330
1F
100
AcDbEntity
  8
0
  6
SLD-Solid
 62
     7
370
    25
100
AcDbLine
 10
41.32887297730457
 20
48.56895197156096
 30
0.0
 11
41.30421781696769
 21
48.55471885045898
 31
0.0
  0
LINE
  5
2B1
330
1F
100
AcDbEntity
  8
0
  6
SLD-Solid
 62
     7
370
    25
100
AcDbLine
 10
41.57966056260092
 20
48.35866776510846
 30
0.0
 11
41.68413591508553
 21
48.41898010231364
 31
0.0
  0
LINE
  5
2B2
330
1F
100
AcDbEntity
  8
0
  6
SLD-Solid
 62
     7
370
    25
100
AcDbLine
 10
41.59164343231669
 20
48.57919914185406
 30
0.0
 11
41.48716807983209
 21
48.5188868046489
 31
0.0
  0
LINE
  5
2B3
330
1F
100
AcDbEntity
  8
0
  6
SLD-Solid
 62
     7
370
    25
100
AcDbLine
 10
41.40602434385257
 20
48.34377336894143
 30
0.0
 11
41.37461232614126
 21
48.32563959710487
 31
0.0
  0
LINE
  5
2B4
330
1F
100
AcDbEntity
  8
0
  6
SLD-Solid
 62
     7
370
    25
100
AcDbLine
 10
41.3435312438557
 20
48.3506233649475
 30
0.0
 11
41.36013997651645
 21
48.36021138222586
 31
0.0
  0
LINE
  5
2B5
330
1F
100
AcDbEntity
  8
0
  6
SLD-Solid
 62
     7
370
    25
100
AcDbLine
 10
37.9836664385517
 20
55.28589115288371
 30
0.0
 11
38.00832159888859
 21
55.30012427398569
 31
0.0
  0
LINE
  5
2B6
330
1F
100
AcDbEntity
  8
0
  6
SLD-Solid
 62
     7
370
    25
100
AcDbLine
 10
37.79333907137184
 20
55.67252528480939
 30
0.0
 11
37.76868391103495
 21
55.65829216370741
 31
0.0
  0
LINE
  5
2B7
330
1F
100
AcDbEntity
  8
0
  6
SLD-Solid
 62
     7
370
    25
100
AcDbLine
 10
38.04562740932009
 20
55.46310744442172
 30
0.0
 11
38.1486020091528
 21
55.52255341556206
 31
0.0
  0
LINE
  5
2B8
330
1F
100
AcDbEntity
  8
0
  6
SLD-Solid
 62
     7
370
    25
100
AcDbLine
 10
38.05610952638396
 20
55.68277245510249
 30
0.0
 11
37.95313492655125
 21
55.62332648396214
 31
0.0
  0
LINE
  5
2B9
330
1F
100
AcDbEntity
  8
0
  6
SLD-Solid
 62
     7
370
    25
100
AcDbLine
 10
37.81513975867751
 20
55.46100645228238
 30
0.0
 11
37.83891219776894
 21
55.47472998925617
 31
0.0
  0
LINE
  5
2BA
330
1F
100
AcDbEntity
  8
0
  6
SLD-Solid
 62
     7
370
    25
100
AcDbLine
 10
37.85040115976177
 20
55.43306284641422
 30
0.0
 11
37.8318526837818
 21
55.42235503915306
 31
0.0
  0
LINE
  5
2BB
330
1F
100
AcDbEntity
  8
0
  6
SLD-Solid
 62
     7
370
    25
100
AcDbLine
 10
41.51920034448443
 20
53.24487087332694
 30
0.0
 11
41.54385550482132
 21
53.25910399442892
 31
0.0
  0
LINE
  5
2BC
330
1F
100
AcDbEntity
  8
0
  6
SLD-Solid
 62
     7
370
    25
100
AcDbLine
 10
41.32887297730457
 20
53.63150500525261
 30
0.0
 11
41.30421781696769
 21
53.61727188415063
 31
0.0
  0
LINE
  5
2BD
330
1F
100
AcDbEntity
  8
0
  6
SLD-Solid
 62
     7
370
    25
100
AcDbLine
 10
41.36267940587926
 20
53.41835774262187
 30
0.0
 11
41.39071607920248
 21
53.43454296961912
 31
0.0
  0
LINE
  5
2BE
330
1F
100
AcDbEntity
  8
0
  6
SLD-Solid
 62
     7
370
    25
100
AcDbLine
 10
41.57966056260092
 20
53.42122079880011
 30
0.0
 11
41.68413591508553
 21
53.48153313600528
 31
0.0
  0
LINE
  5
2BF
330
1F
100
AcDbEntity
  8
0
  6
SLD-Solid
 62
     7
370
    25
100
AcDbLine
 10
41.59164343231669
 20
53.64175217554572
 30
0.0
 11
41.48716807983209
 21
53.58143983834055
 31
0.0
  0
LINE
  5
2C0
330
1F
100
AcDbEntity
  8
0
  6
SLD-Solid
 62
     7
370
    25
100
AcDbLine
 10
41.37400943869184
 20
53.3937172459427
 30
0.0
 11
41.35566017635478
 21
53.38312444226969
 31
0.0
  0
LINE
  5
2C1
330
1F
100
AcDbEntity
  8
0
  6
SLD-Solid
 62
     7
370
    25
100
AcDbLine
 10
37.98366643855171
 20
50.22333811919206
 30
0.0
 11
38.00832159888859
 21
50.23757124029405
 31
0.0
  0
LINE
  5
2C2
330
1F
100
AcDbEntity
  8
0
  6
SLD-Solid
 62
     7
370
    25
100
AcDbLine
 10
37.79333907137184
 20
50.60997225111774
 30
0.0
 11
37.76868391103495
 21
50.59573913001576
 31
0.0
  0
LINE
  5
2C3
330
1F
100
AcDbEntity
  8
0
  6
SLD-Solid
 62
     7
370
    25
100
AcDbLine
 10
37.86902146582312
 20
50.38813781199069
 30
0.0
 11
37.8404515657712
 21
50.3716447597552
 31
0.0
  0
LINE
  5
2C4
330
1F
100
AcDbEntity
  8
0
  6
SLD-Solid
 62
     7
370
    25
100
AcDbLine
 10
38.0441266566682
 20
50.39968804466525
 30
0.0
 11
38.1486020091528
 21
50.46000038187042
 31
0.0
  0
LINE
  5
2C5
330
1F
100
AcDbEntity
  8
0
  6
SLD-Solid
 62
     7
370
    25
100
AcDbLine
 10
38.05610952638396
 20
50.62021942141084
 30
0.0
 11
37.95163417389936
 21
50.55990708420568
 31
0.0
  0
LINE
  5
2C6
330
1F
100
AcDbEntity
  8
0
  6
SLD-Solid
 62
     7
370
    25
100
AcDbLine
 10
37.80677231601318
 20
50.38674427137541
 30
0.0
 11
37.82395458007692
 21
50.39666338128522
 31
0.0
  0
LINE
  5
2C7
330
1F
100
AcDbEntity
  8
0
  6
SLD-Solid
 62
     7
370
    25
100
AcDbLine
 10
42.2496385047823
 20
47.88857514205157
 30
0.0
 11
42.32034918290096
 21
47.92939554764271
 31
0.0
  0
LINE
  5
2C8
330
1F
100
AcDbEntity
  8
0
  6
SLD-Solid
 62
     7
370
    25
100
AcDbLine
 10
37.52596227574652
 20
56.23358761816013
 30
0.0
 11
37.45525159762787
 21
56.192767212569
 31
0.0
  0
LINE
  5
2C9
330
1F
100
AcDbEntity
  8
0
  6
SLD-Solid
 62
     7
370
    25
100
AcDbLine
 10
41.46236929169684
 20
16.43009627442448
 30
0.0
 11
41.46236929169684
 21
48.17375034546094
 31
0.0
  0
LINE
  5
2CA
330
1F
100
AcDbEntity
  8
0
  6
SLD-Solid
 62
     7
370
    25
100
AcDbLine
 10
41.46236929169684
 20
54.05081534866814
 30
0.0
 11
41.46236929169684
 21
55.24553746643505
 31
0.0
  0
LINE
  5
2CB
330
1F
100
AcDbEntity
  8
0
  6
SLD-Solid
 62
     7
370
    25
100
AcDbLine
 10
39.44460233873047
 20
55.24553746643505
 30
0.0
 11
39.44460233873047
 21
55.21564741646791
 31
0.0
  0
LINE
  5
2CC
330
1F
100
AcDbEntity
  8
0
  6
SLD-Solid
 62
     7
370
    25
100
AcDbLine
 10
39.44460233873047
 20
49.52123019727934
 30
0.0
 11
39.44460233873047
 21
16.4305044784804
 31
0.0
  0
LINE
  5
2CD
330
1F
100
AcDbEntity
  8
0
  6
SLD-Solid
 62
     7
370
    25
100
AcDbLine
 10
43.0748061587733
 20
16.2557136988905
 30
0.0
 11
43.0748061587733
 21
16.45984890186194
 31
0.0
  0
LINE
  5
2CE
330
1F
100
AcDbEntity
  8
0
  6
SLD-Solid
 62
     7
370
    25
100
AcDbLine
 10
37.83216547165401
 20
16.45984890186194
 30
0.0
 11
37.83216547165401
 21
16.2557136988905
 31
0.0
  0
ARC
  5
2CF
330
1F
100
AcDbEntity
  8
0
  6
SLD-Solid
 62
     7
370
    25
100
AcDbCircle
 10
40.45348581521365
 20
54.85484577517635
 30
0.0
 40
0.1921277384889273
100
AcDbArc
 50
242.6096722365939
 51
297.3903277634058
  0
LINE
  5
2D0
330
1F
100
AcDbEntity
  8
0
  6
SLD-Solid
 62
     7
370
    25
100
AcDbLine
 10
39.48121399108214
 20
55.19451195944615
 30
0.0
 11
40.36509746756533
 21
54.68425688955695
 31
0.0
  0
LINE
  5
2D1
330
1F
100
AcDbEntity
  8
0
  6
SLD-Solid
 62
     7
370
    25
100
AcDbLine
 10
40.54187416286197
 20
54.68425688955695
 30
0.0
 11
41.42575763934516
 21
55.19451195944613
 31
0.0
  0
ARC
  5
2D2
330
1F
100
AcDbEntity
  8
0
  6
SLD-Solid
 62
     7
370
    25
100
AcDbCircle
 10
41.3998121588855
 20
55.25177576354746
 30
0.0
 40
0.0628674098117462
100
AcDbArc
 50
294.3746582935942
 51
354.3052007487919
  0
ARC
  5
2D3
330
1F
100
AcDbEntity
  8
0
  6
SLD-Solid
 62
     7
370
    25
100
AcDbCircle
 10
39.50715947154176
 20
55.25177576354744
 30
0.0
 40
0.0628674098116986
100
AcDbArc
 50
185.6947992511878
 51
245.625341706421
  0
ARC
  5
2D4
330
1F
100
AcDbEntity
  8
0
  6
SLD-Solid
 62
     7
370
    25
100
AcDbCircle
 10
41.71033364515512
 20
48.46550820983652
 30
0.0
 40
0.4103029698969761
100
AcDbArc
 50
195.6432068796327
 51
198.8592031167215
  0
ARC
  5
2D5
330
1F
100
AcDbEntity
  8
0
  6
SLD-Solid
 62
     7
370
    25
100
AcDbCircle
 10
41.37305730429255
 20
48.54518814441508
 30
0.0
 40
0.2183473728229234
100
AcDbArc
 50
256.4925396626062
 51
263.4935133707032
  0
SPLINE
  5
2D6
330
1F
100
AcDbEntity
  8
0
  6
SLD-Solid
 62
     7
370
    25
100
AcDbSpline
210
0.0
220
0.0
230
1.0
 70
    12
 71
     3
 72
    12
 73
     8
 74
     0
 42
0.00000001
 43
0.00000001
 40
0.0
 40
0.0
 40
0.0
 40
0.0
 40
0.2143872604294275
 40
0.4287939078184798
 40
0.6427699702210613
 40
0.8565623456010371
 40
1.0
 40
1.0
 40
1.0
 40
1.0
 10
41.35762575279608
 20
48.31865898511084
 30
0.0
 41
1.0
 10
41.35719361340701
 20
48.3196618256378
 30
0.0
 41
1.0
 10
41.35632929555065
 20
48.32166759737822
 30
0.0
 41
1.0
 10
41.35431374110541
 20
48.32444659011068
 30
0.0
 41
1.0
 10
41.35204704076187
 20
48.32663273957809
 30
0.0
 41
1.0
 10
41.34995203740954
 20
48.32790513657323
 30
0.0
 41
1.0
 10
41.34878408442009
 20
48.32814915833503
 30
0.0
 41
1.0
 10
41.34831511926237
 20
48.32824713976495
 30
0.0
 41
1.0
  0
ARC
  5
2D7
330
1F
100
AcDbEntity
  8
0
  6
SLD-Solid
 62
     7
370
    25
100
AcDbCircle
 10
41.72002100933625
 20
48.45148725676344
 30
0.0
 40
0.3859710762648344
100
AcDbArc
 50
200.1293363387465
 51
206.67070633068
  0
ARC
  5
2D8
330
1F
100
AcDbEntity
  8
0
  6
SLD-Solid
 62
     7
370
    25
100
AcDbCircle
 10
41.40687187829621
 20
48.60671707845081
 30
0.0
 40
0.3300090028793615
100
AcDbArc
 50
264.4781889062761
 51
267.1992845369364
  0
ARC
  5
2D9
330
1F
100
AcDbEntity
  8
0
  6
SLD-Solid
 62
     7
370
    25
100
AcDbCircle
 10
41.73565103642567
 20
48.4503500829828
 30
0.0
 40
0.3859710762632643
100
AcDbArc
 50
200.1293363387297
 51
206.6707063306908
  0
SPLINE
  5
2DA
330
1F
100
AcDbEntity
  8
0
  6
SLD-Solid
 62
     7
370
    25
100
AcDbSpline
210
0.0
220
0.0
230
1.0
 70
    12
 71
     3
 72
    12
 73
     8
 74
     0
 42
0.00000001
 43
0.00000001
 40
0.0
 40
0.0
 40
0.0
 40
0.0
 40
0.2143872604294348
 40
0.4287939078187105
 40
0.6427699702212657
 40
0.8565623456011379
 40
1.0
 40
1.0
 40
1.0
 40
1.0
 10
41.37690435538993
 20
48.32616710947931
 30
0.0
 41
1.0
 10
41.37616532817339
 20
48.3260947303227
 30
0.0
 41
1.0
 10
41.37468720691039
 20
48.32594996546428
 30
0.0
 41
1.0
 10
41.37317912522735
 20
48.32449308485111
 30
0.0
 41
1.0
 10
41.37244211675969
 20
48.32230104673265
 30
0.0
 41
1.0
 10
41.37252494427881
 20
48.31983398598771
 30
0.0
 41
1.0
 10
41.37304640079439
 20
48.31818423257315
 30
0.0
 41
1.0
 10
41.37325577988694
 20
48.31752181133083
 30
0.0
 41
1.0
  0
ARC
  5
2DB
330
1F
100
AcDbEntity
  8
0
  6
SLD-Solid
 62
     7
370
    25
100
AcDbCircle
 10
41.39141942608516
 20
48.80456008068256
 30
0.0
 40
0.4786131236959068
100
AcDbArc
 50
268.2621040106395
 51
272.4093121620382
  0
ARC
  5
2DC
330
1F
100
AcDbEntity
  8
0
  6
SLD-Solid
 62
     7
370
    25
100
AcDbCircle
 10
41.79981555024509
 20
48.45899788994447
 30
0.0
 40
0.4103029698915803
100
AcDbArc
 50
195.643206879617
 51
198.8592031167471
  0
ARC
  5
2DD
330
1F
100
AcDbEntity
  8
0
  6
SLD-Solid
 62
     7
370
    25
100
AcDbCircle
 10
41.38459045063158
 20
48.82655134268682
 30
0.0
 40
0.4786131236981755
100
AcDbArc
 50
268.2621040106383
 51
272.4093121620183
  0
SPLINE
  5
2DE
330
1F
100
AcDbEntity
  8
0
  6
SLD-Solid
 62
     7
370
    25
100
AcDbSpline
210
0.0
220
0.0
230
1.0
 70
    12
 71
     3
 72
    12
 73
     8
 74
     0
 42
0.00000001
 43
0.00000001
 40
0.0
 40
0.0
 40
0.0
 40
0.0
 40
0.2143872604294275
 40
0.4287939078184798
 40
0.6427699702210613
 40
0.8565623456010371
 40
1.0
 40
1.0
 40
1.0
 40
1.0
 10
41.36076474640257
 20
48.35774652613544
 30
0.0
 41
1.0
 10
41.36111025528332
 20
48.35669367488053
 30
0.0
 41
1.0
 10
41.36180130428907
 20
48.35458787716176
 30
0.0
 41
1.0
 10
41.36370770267434
 20
48.35174586997717
 30
0.0
 41
1.0
 10
41.36599738885226
 20
48.34957298994952
 30
0.0
 41
1.0
 10
41.36822976787649
 20
48.34837989824168
 30
0.0
 41
1.0
 10
41.36954662548866
 20
48.34822183728888
 30
0.0
 41
1.0
 10
41.37007537993627
 20
48.34815837148131
 30
0.0
 41
1.0
  0
ARC
  5
2DF
330
1F
100
AcDbEntity
  8
0
  6
SLD-Solid
 62
     7
370
    25
100
AcDbCircle
 10
41.79131862908872
 20
48.46799830391257
 30
0.0
 40
0.4444458351690799
100
AcDbArc
 50
188.409131533038
 51
194.3630811537717
  0
ARC
  5
2E0
330
1F
100
AcDbEntity
  8
0
  6
SLD-Solid
 62
     7
370
    25
100
AcDbCircle
 10
41.36777599382779
 20
48.73261705346516
 30
0.0
 40
0.3300090029324217
100
AcDbArc
 50
264.478188906521
 51
267.1992845367436
  0
ARC
  5
2E1
330
1F
100
AcDbEntity
  8
0
  6
SLD-Solid
 62
     7
370
    25
100
AcDbCircle
 10
41.77568860200385
 20
48.46913547769375
 30
0.0
 40
0.4444458351751719
100
AcDbArc
 50
188.4091315330765
 51
194.3630811537294
  0
SPLINE
  5
2E2
330
1F
100
AcDbEntity
  8
0
  6
SLD-Solid
 62
     7
370
    25
100
AcDbSpline
210
0.0
220
0.0
230
1.0
 70
    12
 71
     3
 72
    12
 73
     8
 74
     0
 42
0.00000001
 43
0.00000001
 40
0.0
 40
0.0
 40
0.0
 40
0.0
 40
0.2143872604294327
 40
0.4287939078187273
 40
0.6427699702212694
 40
0.8565623456011393
 40
1.0
 40
1.0
 40
1.0
 40
1.0
 10
41.34148614380872
 20
48.35023840176695
 30
0.0
 41
1.0
 10
41.34213854051693
 20
48.35026077019561
 30
0.0
 41
1.0
 10
41.34344339292933
 20
48.3503055090757
 30
0.0
 41
1.0
 10
41.34484231855239
 20
48.35169937523676
 30
0.0
 41
1.0
 10
41.34560231285445
 20
48.35390468279494
 30
0.0
 41
1.0
 10
41.34565686100721
 20
48.3564510488272
 30
0.0
 41
1.0
 10
41.34528430911436
 20
48.35818676305073
 30
0.0
 41
1.0
 10
41.34513471931171
 20
48.35888369991542
 30
0.0
 41
1.0
  0
ARC
  5
2E3
330
1F
100
AcDbEntity
  8
0
  6
SLD-Solid
 62
     7
370
    25
100
AcDbCircle
 10
41.36622832883915
 20
48.56717940641835
 30
0.0
 40
0.2183473728242226
100
AcDbArc
 50
256.492539662623
 51
263.4935133706764
  0
LWPOLYLINE
  5
2E4
330
1F
100
AcDbEntity
  8
0
  6
SLD-Solid
 62
     7
370
    25
100
AcDbPolyline
 90
        9
 70
   128
 43
0.0
 10
41.57567573820739
 20
48.37261575871342
 10
41.55517524318586
 20
48.42369214663466
 10
41.52657797471413
 20
48.47197849483848
 10
41.4918327893793
 20
48.51418416849175
 10
41.45330751414283
 20
48.54743292068319
 10
41.41362758284605
 20
48.56945890389709
 10
41.37549711723264
 20
48.5787610837771
 10
41.3415146455206
 20
48.57470553213699
 10
41.32887297730457
 20
48.56895197156096
  0
ARC
  5
2E5
330
1F
100
AcDbEntity
  8
0
  6
SLD-Solid
 62
     7
370
    25
100
AcDbCircle
 10
41.44271797227793
 20
48.30573740959111
 30
0.0
 40
0.1488303769473132
100
AcDbArc
 50
312.8084096857403
 51
26.7025998654793
  0
LINE
  5
2E6
330
1F
100
AcDbEntity
  8
0
  6
SLD-Solid
 62
     7
370
    25
100
AcDbLine
 10
41.38687490911909
 20
48.28502720678802
 30
0.0
 11
41.37511687142139
 21
48.2782394361069
 31
0.0
  0
LINE
  5
2E7
330
1F
100
AcDbEntity
  8
0
  6
SLD-Solid
 62
     7
370
    25
100
AcDbLine
 10
41.36155111296041
 20
48.35567955586204
 30
0.0
 11
41.32205747791001
 21
48.33288036564185
 31
0.0
  0
ARC
  5
2E8
330
1F
100
AcDbEntity
  8
0
  6
SLD-Solid
 62
     7
370
    25
100
AcDbCircle
 10
38.19207987863603
 20
55.36877802746031
 30
0.0
 40
0.3184911136612856
100
AcDbArc
 50
171.1520857066259
 51
174.4509973444255
  0
ARC
  5
2E9
330
1F
100
AcDbEntity
  8
0
  6
SLD-Solid
 62
     7
370
    25
100
AcDbCircle
 10
38.07130849980913
 20
55.79110404577671
 30
0.0
 40
0.4207019707492998
100
AcDbArc
 50
236.6892226442409
 51
242.5504766008332
  0
SPLINE
  5
2EA
330
1F
100
AcDbEntity
  8
0
  6
SLD-Solid
 62
     7
370
    25
100
AcDbSpline
210
0.0
220
0.0
230
1.0
 70
    12
 71
     3
 72
    12
 73
     8
 74
     0
 42
0.00000001
 43
0.00000001
 40
0.0
 40
0.0
 40
0.0
 40
0.0
 40
0.2143872604297249
 40
0.4287939078187751
 40
0.6427699702209818
 40
0.8565623456010859
 40
1.0
 40
1.0
 40
1.0
 40
1.0
 10
37.83421321743457
 20
55.4522075511077
 30
0.0
 41
1.0
 10
37.83414011173848
 20
55.451280047365
 30
0.0
 41
1.0
 10
37.83399389373538
 20
55.44942495600576
 30
0.0
 41
1.0
 10
37.83485809426917
 20
55.44625166351933
 30
0.0
 41
1.0
 10
37.83642600007723
 20
55.44325318891237
 30
0.0
 41
1.0
 10
37.8383499959284
 20
55.44093611702485
 30
0.0
 41
1.0
 10
37.83971806442219
 20
55.43992691618961
 30
0.0
 41
1.0
 10
37.84026738144328
 20
55.43952169437578
 30
0.0
 41
1.0
  0
ARC
  5
2EB
330
1F
100
AcDbEntity
  8
0
  6
SLD-Solid
 62
     7
370
    25
100
AcDbCircle
 10
38.23445102309072
 20
55.38051399563854
 30
0.0
 40
0.4066082475457949
100
AcDbArc
 50
164.370601203714
 51
169.8444611725996
  0
ARC
  5
2EC
330
1F
100
AcDbEntity
  8
0
  6
SLD-Solid
 62
     7
370
    25
100
AcDbCircle
 10
38.0488362905434
 20
55.78827142248758
 30
0.0
 40
0.3624212679579788
100
AcDbArc
 50
232.0538581218113
 51
235.3692063551022
  0
ARC
  5
2ED
330
1F
100
AcDbEntity
  8
0
  6
SLD-Solid
 62
     7
370
    25
100
AcDbCircle
 10
38.21754971962868
 20
55.39292400064685
 30
0.0
 40
0.4066082475487754
100
AcDbArc
 50
164.3706012037327
 51
169.8444611725772
  0
SPLINE
  5
2EE
330
1F
100
AcDbEntity
  8
0
  6
SLD-Solid
 62
     7
370
    25
100
AcDbSpline
210
0.0
220
0.0
230
1.0
 70
    12
 71
     3
 72
    12
 73
     8
 74
     0
 42
0.00000001
 43
0.00000001
 40
0.0
 40
0.0
 40
0.0
 40
0.0
 40
0.2143872604296335
 40
0.4287939078186114
 40
0.6427699702210402
 40
0.8565623456009943
 40
1.0
 40
1.0
 40
1.0
 40
1.0
 10
37.80935282494163
 20
55.46222111527145
 30
0.0
 41
1.0
 10
37.81010594667307
 20
55.46170193571944
 30
0.0
 41
1.0
 10
37.81161225824047
 20
55.46066352966623
 30
0.0
 41
1.0
 10
37.81381908404911
 20
55.46038751336577
 30
0.0
 41
1.0
 10
37.81565485703513
 20
55.46113830177831
 30
0.0
 41
1.0
 10
37.81683691437738
 20
55.46267766110426
 30
0.0
 41
1.0
 10
37.81717583003709
 20
55.46406179028807
 30
0.0
 41
1.0
 10
37.81731191396962
 20
55.46461755611669
 30
0.0
 41
1.0
  0
ARC
  5
2EF
330
1F
100
AcDbEntity
  8
0
  6
SLD-Solid
 62
     7
370
    25
100
AcDbCircle
 10
38.01003657355391
 20
55.70789032047112
 30
0.0
 40
0.3172181037401859
100
AcDbArc
 50
223.6792143974607
 51
230.7550928347482
  0
ARC
  5
2F0
330
1F
100
AcDbEntity
  8
0
  6
SLD-Solid
 62
     7
370
    25
100
AcDbCircle
 10
38.09531991631163
 20
55.43982530613516
 30
0.0
 40
0.3184911136738046
100
AcDbArc
 50
171.1520857066931
 51
174.450997344363
  0
ARC
  5
2F1
330
1F
100
AcDbEntity
  8
0
  6
SLD-Solid
 62
     7
370
    25
100
AcDbCircle
 10
38.00773905450299
 20
55.68969964856788
 30
0.0
 40
0.3172181037413903
100
AcDbArc
 50
223.6792143974748
 51
230.7550928347354
  0
SPLINE
  5
2F2
330
1F
100
AcDbEntity
  8
0
  6
SLD-Solid
 62
     7
370
    25
100
AcDbSpline
210
0.0
220
0.0
230
1.0
 70
    12
 71
     3
 72
    12
 73
     8
 74
     0
 42
0.00000001
 43
0.00000001
 40
0.0
 40
0.0
 40
0.0
 40
0.0
 40
0.2143872604297256
 40
0.4287939078187757
 40
0.6427699702209825
 40
0.8565623456010866
 40
1.0
 40
1.0
 40
1.0
 40
1.0
 10
37.81310946989861
 20
55.4313445866354
 30
0.0
 41
1.0
 10
37.81309594508638
 20
55.43222207965017
 30
0.0
 41
1.0
 10
37.81306889423887
 20
55.43397714503106
 30
0.0
 41
1.0
 10
37.81209553764511
 20
55.43708742306537
 30
0.0
 41
1.0
 10
37.81055061767142
 20
55.44009916711209
 30
0.0
 41
1.0
 10
37.80876399749216
 20
55.44249554428693
 30
0.0
 41
1.0
 10
37.80754483362109
 20
55.44359070593111
 30
0.0
 41
1.0
 10
37.80705530588989
 20
55.44403044336732
 30
0.0
 41
1.0
  0
ARC
  5
2F3
330
1F
100
AcDbEntity
  8
0
  6
SLD-Solid
 62
     7
370
    25
100
AcDbCircle
 10
38.06247073065171
 20
55.41266961988058
 30
0.0
 40
0.2500595783961657
100
AcDbArc
 50
175.7170450156674
 51
183.2877969491974
  0
ARC
  5
2F4
330
1F
100
AcDbEntity
  8
0
  6
SLD-Solid
 62
     7
370
    25
100
AcDbCircle
 10
38.03568299396773
 20
55.6841298258304
 30
0.0
 40
0.3624212679504244
100
AcDbArc
 50
232.0538581217774
 51
235.3692063551374
  0
ARC
  5
2F5
330
1F
100
AcDbEntity
  8
0
  6
SLD-Solid
 62
     7
370
    25
100
AcDbCircle
 10
38.07937203411677
 20
55.4002596148716
 30
0.0
 40
0.250059578396272
100
AcDbArc
 50
175.7170450156692
 51
183.287796949196
  0
SPLINE
  5
2F6
330
1F
100
AcDbEntity
  8
0
  6
SLD-Solid
 62
     7
370
    25
100
AcDbSpline
210
0.0
220
0.0
230
1.0
 70
    12
 71
     3
 72
    12
 73
     8
 74
     0
 42
0.00000001
 43
0.00000001
 40
0.0
 40
0.0
 40
0.0
 40
0.0
 40
0.2143872604296322
 40
0.4287939078186414
 40
0.6427699702210424
 40
0.8565623456009952
 40
1.0
 40
1.0
 40
1.0
 40
1.0
 10
37.83796986239155
 20
55.42133102247167
 30
0.0
 41
1.0
 10
37.83713011015178
 20
55.42180019129572
 30
0.0
 41
1.0
 10
37.83545052973378
 20
55.42273857137057
 30
0.0
 41
1.0
 10
37.83313454786516
 20
55.42295157321893
 30
0.0
 41
1.0
 10
37.83132176071353
 20
55.42221405424614
 30
0.0
 41
1.0
 10
37.83027707904317
 20
55.4207540002075
 30
0.0
 41
1.0
 10
37.83008706800618
 20
55.41945583183269
 30
0.0
 41
1.0
 10
37.83001077336356
 20
55.41893458162642
 30
0.0
 41
1.0
  0
ARC
  5
2F7
330
1F
100
AcDbEntity
  8
0
  6
SLD-Solid
 62
     7
370
    25
100
AcDbCircle
 10
38.06901098075307
 20
55.772913373865
 30
0.0
 40
0.4207019707405772
100
AcDbArc
 50
236.6892226441666
 51
242.5504766008802
  0
LWPOLYLINE
  5
2F8
330
1F
100
AcDbEntity
  8
0
  6
SLD-Solid
 62
     7
370
    25
100
AcDbPolyline
 90
       14
 70
   128
 43
0.0
 10
37.77911324870703
 20
55.65749878208457
 10
37.75254386655951
 20
55.64213948313652
 10
37.7329488228398
 20
55.61463750178744
 10
37.72272090375369
 20
55.57719408565293
 10
37.72255712508446
 20
55.53236094166438
 10
37.73246864807777
 20
55.48319337449434
 10
37.75178001882117
 20
55.43304207259218
 10
37.77917519931206
 20
55.38532476430361
 10
37.81278725327267
 20
55.34329330533191
 10
37.85032557477211
 20
55.30981207014574
 10
37.88923198923522
 20
55.28716274959265
 10
37.92685508881222
 20
55.27688885743859
 10
37.96063092144205
 20
55.27969054245546
 10
37.98194982304027
 20
55.29022648913119
  0
ARC
  5
2F9
330
1F
100
AcDbEntity
  8
0
  6
SLD-Solid
 62
     7
370
    25
100
AcDbCircle
 10
37.93233390311407
 20
55.36530643167776
 30
0.0
 40
0.094561174381413
100
AcDbArc
 50
302.8778636438184
 51
357.6811500678656
  0
LWPOLYLINE
  5
2FA
330
1F
100
AcDbEntity
  8
0
  6
SLD-Solid
 62
     7
370
    25
100
AcDbPolyline
 90
       11
 70
   128
 43
0.0
 10
37.76868391103495
 20
55.65829216370741
 10
37.7841349556562
 20
55.66495214768201
 10
37.81858835940517
 20
55.66781003681596
 10
37.85696620945612
 20
55.65733004189367
 10
37.89665311875049
 20
55.63422635725006
 10
37.93494449000558
 20
55.60007346081295
 10
37.96923082954984
 20
55.55719881603422
 10
37.99717558000418
 20
55.50852425910183
 10
38.01687435280603
 20
55.45736688063221
 10
38.0269847091427
 20
55.4072129714265
 10
38.02681764493799
 20
55.36148043751382
  0
LWPOLYLINE
  5
2FB
330
1F
100
AcDbEntity
  8
0
  6
SLD-Solid
 62
     7
370
    25
100
AcDbPolyline
 90
       14
 70
   128
 43
0.0
 10
38.00832159888859
 20
55.30012427398569
 10
38.02105156918575
 20
55.3094653027797
 10
38.04103970567827
 20
55.33751899660571
 10
38.05147280527488
 20
55.3757135586158
 10
38.05163986947958
 20
55.42144609252848
 10
38.04152951314291
 20
55.4716000017342
 10
38.02183074034106
 20
55.52275738020382
 10
37.99388598988672
 20
55.5714319371362
 10
37.95959965034246
 20
55.61430658191494
 10
37.92130827908737
 20
55.64845947835204
 10
37.881621369793
 20
55.67156316299565
 10
37.84324351974205
 20
55.68204315791795
 10
37.80879011599309
 20
55.67918526878399
 10
37.79333907137184
 20
55.67252528480939
  0
ARC
  5
2FC
330
1F
100
AcDbEntity
  8
0
  6
SLD-Solid
 62
     7
370
    25
100
AcDbCircle
 10
37.74469797602364
 20
55.3961914933685
 30
0.0
 40
0.3081876991591188
100
AcDbArc
 50
1.214813370301349
 51
58.77978506092977
  0
LINE
  5
2FD
330
1F
100
AcDbEntity
  8
0
  6
SLD-Solid
 62
     7
370
    25
100
AcDbLine
 10
37.79131843668198
 20
55.47812554288024
 30
0.0
 11
37.77832129610374
 21
55.47062245333217
 31
0.0
  0
LINE
  5
2FE
330
1F
100
AcDbEntity
  8
0
  6
SLD-Solid
 62
     7
370
    25
100
AcDbLine
 10
37.82943774362228
 20
55.40791999341126
 30
0.0
 11
37.81282273677995
 21
55.39832835412497
 31
0.0
  0
ARC
  5
2FF
330
1F
100
AcDbEntity
  8
0
  6
SLD-Solid
 62
     7
370
    25
100
AcDbCircle
 10
41.70172745574104
 20
53.61287894946852
 30
0.0
 40
0.4381428273896034
100
AcDbArc
 50
210.6632851911708
 51
213.8132807435008
  0
ARC
  5
300
330
1F
100
AcDbEntity
  8
0
  6
SLD-Solid
 62
     7
370
    25
100
AcDbCircle
 10
41.77987634668895
 20
52.82393555949762
 30
0.0
 40
0.7019139762087995
100
AcDbArc
 50
127.2144334210753
 51
129.0476487731751
  0
SPLINE
  5
301
330
1F
100
AcDbEntity
  8
0
  6
SLD-Solid
 62
     7
370
    25
100
AcDbSpline
210
0.0
220
0.0
230
1.0
 70
    12
 71
     3
 72
    12
 73
     8
 74
     0
 42
0.00000001
 43
0.00000001
 40
0.0
 40
0.0
 40
0.0
 40
0.0
 40
0.2143872604296007
 40
0.4287939078186528
 40
0.6427699702211488
 40
0.8565623456011375
 40
1.0
 40
1.0
 40
1.0
 40
1.0
 10
41.36533611548231
 20
53.37794434125693
 30
0.0
 41
1.0
 10
41.36464418361488
 20
53.37882858774557
 30
0.0
 41
1.0
 10
41.36326025730887
 20
53.38059716068493
 30
0.0
 41
1.0
 10
41.36081186579044
 20
53.38249867211412
 30
0.0
 41
1.0
 10
41.35844365847616
 20
53.38353760108127
 30
0.0
 41
1.0
 10
41.35656176712646
 20
53.38362188316632
 30
0.0
 41
1.0
 10
41.35570354785858
 20
53.3831240231375
 30
0.0
 41
1.0
 10
41.35535894928488
 20
53.38292411868154
 30
0.0
 41
1.0
  0
ARC
  5
302
330
1F
100
AcDbEntity
  8
0
  6
SLD-Solid
 62
     7
370
    25
100
AcDbCircle
 10
41.73174478101767
 20
53.63512040411248
 30
0.0
 40
0.4476548195711538
100
AcDbArc
 50
215.0643693662675
 51
221.1279135775757
  0
ARC
  5
303
330
1F
100
AcDbEntity
  8
0
  6
SLD-Solid
 62
     7
370
    25
100
AcDbCircle
 10
42.15682360202451
 20
52.32943333475787
 30
0.0
 40
1.266363190247458
100
AcDbArc
 50
126.3757792882536
 51
127.0087988944842
  0
ARC
  5
304
330
1F
100
AcDbEntity
  8
0
  6
SLD-Solid
 62
     7
370
    25
100
AcDbCircle
 10
41.74296359681313
 20
53.64348030324333
 30
0.0
 40
0.4476548195697491
100
AcDbArc
 50
215.0643693662569
 51
221.1279135775855
  0
SPLINE
  5
305
330
1F
100
AcDbEntity
  8
0
  6
SLD-Solid
 62
     7
370
    25
100
AcDbSpline
210
0.0
220
0.0
230
1.0
 70
    12
 71
     3
 72
    12
 73
     8
 74
     0
 42
0.00000001
 43
0.00000001
 40
0.0
 40
0.0
 40
0.0
 40
0.0
 40
0.2143872604294045
 40
0.4287939078186615
 40
0.6427699702211467
 40
0.8565623456009068
 40
1.0
 40
1.0
 40
1.0
 40
1.0
 10
41.37587953904553
 20
53.39821539929738
 30
0.0
 41
1.0
 10
41.37537308684463
 20
53.39770875867696
 30
0.0
 41
1.0
 10
41.37436013664451
 20
53.39669543162078
 30
0.0
 41
1.0
 10
41.37382831826285
 20
53.39417514192368
 30
0.0
 41
1.0
 10
41.37413552331152
 20
53.39126307567023
 30
0.0
 41
1.0
 10
41.37514069410481
 20
53.38850965136156
 30
0.0
 41
1.0
 10
41.37614976260228
 20
53.38693607461111
 30
0.0
 41
1.0
 10
41.37655493127887
 20
53.38630424038866
 30
0.0
 41
1.0
  0
ARC
  5
306
330
1F
100
AcDbEntity
  8
0
  6
SLD-Solid
 62
     7
370
    25
100
AcDbCircle
 10
42.58266959587374
 20
51.74531909793573
 30
0.0
 40
2.046560144318863
100
AcDbArc
 50
125.2357897954485
 51
126.1334183771975
  0
ARC
  5
307
330
1F
100
AcDbEntity
  8
0
  6
SLD-Solid
 62
     7
370
    25
100
AcDbCircle
 10
41.76595517618806
 20
53.66073937200504
 30
0.0
 40
0.4381428274034424
100
AcDbArc
 50
210.6632851912223
 51
213.8132807434529
  0
ARC
  5
308
330
1F
100
AcDbEntity
  8
0
  6
SLD-Solid
 62
     7
370
    25
100
AcDbCircle
 10
42.56982160657804
 20
51.76569115881572
 30
0.0
 40
2.046560144036962
100
AcDbArc
 50
125.2357897954043
 51
126.1334183772769
  0
SPLINE
  5
309
330
1F
100
AcDbEntity
  8
0
  6
SLD-Solid
 62
     7
370
    25
100
AcDbSpline
210
0.0
220
0.0
230
1.0
 70
    12
 71
     3
 72
    12
 73
     8
 74
     0
 42
0.00000001
 43
0.00000001
 40
0.0
 40
0.0
 40
0.0
 40
0.0
 40
0.2143872604296313
 40
0.4287939078186503
 40
0.6427699702211471
 40
0.856562345601137
 40
1.0
 40
1.0
 40
1.0
 40
1.0
 10
41.35305438371633
 20
53.42356723737264
 30
0.0
 41
1.0
 10
41.35365968507546
 20
53.42263298015605
 30
0.0
 41
1.0
 10
41.35487034253087
 20
53.42076438123835
 30
0.0
 41
1.0
 10
41.35720957798929
 20
53.41879985535702
 30
0.0
 41
1.0
 10
41.35960077113797
 20
53.41777419582967
 30
0.0
 41
1.0
 10
41.36162003815956
 20
53.4177692190319
 30
0.0
 41
1.0
 10
41.36262716205016
 20
53.41835303986969
 30
0.0
 41
1.0
 10
41.36303154991377
 20
53.41858745994802
 30
0.0
 41
1.0
  0
ARC
  5
30A
330
1F
100
AcDbEntity
  8
0
  6
SLD-Solid
 62
     7
370
    25
100
AcDbCircle
 10
41.73379101673211
 20
53.63822259006573
 30
0.0
 40
0.4370781442259308
100
AcDbArc
 50
203.252829881878
 51
209.413851513011
  0
ARC
  5
30B
330
1F
100
AcDbEntity
  8
0
  6
SLD-Solid
 62
     7
370
    25
100
AcDbCircle
 10
42.08326886411326
 20
52.44606338216041
 30
0.0
 40
1.266363190026281
100
AcDbArc
 50
126.3757792882154
 51
127.0087988945563
  0
ARC
  5
30C
330
1F
100
AcDbEntity
  8
0
  6
SLD-Solid
 62
     7
370
    25
100
AcDbCircle
 10
41.72257220093188
 20
53.62986269093221
 30
0.0
 40
0.4370781442218533
100
AcDbArc
 50
203.2528298818512
 51
209.4138515130418
  0
SPLINE
  5
30D
330
1F
100
AcDbEntity
  8
0
  6
SLD-Solid
 62
     7
370
    25
100
AcDbSpline
210
0.0
220
0.0
230
1.0
 70
    12
 71
     3
 72
    12
 73
     8
 74
     0
 42
0.00000001
 43
0.00000001
 40
0.0
 40
0.0
 40
0.0
 40
0.0
 40
0.2143872604294045
 40
0.4287939078186615
 40
0.6427699702211467
 40
0.8565623456009068
 40
1.0
 40
1.0
 40
1.0
 40
1.0
 10
41.34251096015311
 20
53.4032961793322
 30
0.0
 41
1.0
 10
41.34293078184571
 20
53.40375280922468
 30
0.0
 41
1.0
 10
41.34377046319521
 20
53.40466611030253
 30
0.0
 41
1.0
 10
41.3441931255169
 20
53.40712338554746
 30
0.0
 41
1.0
 10
41.34390890630262
 20
53.41004872124067
 30
0.0
 41
1.0
 10
41.34304111118122
 20
53.41288145083666
 30
0.0
 41
1.0
 10
41.34218094730647
 20
53.41454098839608
 30
0.0
 41
1.0
 10
41.34183556791977
 20
53.41520733824092
 30
0.0
 41
1.0
  0
ARC
  5
30E
330
1F
100
AcDbEntity
  8
0
  6
SLD-Solid
 62
     7
370
    25
100
AcDbCircle
 10
41.7670283575354
 20
52.84430762017601
 30
0.0
 40
0.7019139761735369
100
AcDbArc
 50
127.214433421029
 51
129.0476487732209
  0
LWPOLYLINE
  5
30F
330
1F
100
AcDbEntity
  8
0
  6
SLD-Solid
 62
     7
370
    25
100
AcDbPolyline
 90
        7
 70
   128
 43
0.0
 10
41.53635831117696
 20
53.51981685079493
 10
41.50331243210163
 20
53.56427363614124
 10
41.46570414444412
 20
53.60062287145445
 10
41.42609639085767
 20
53.62638741641795
 10
41.38718837429428
 20
53.63981145987037
 10
41.35163161178422
 20
53.63998017543472
 10
41.32887297730457
 20
53.63150500525261
  0
LWPOLYLINE
  5
310
330
1F
100
AcDbEntity
  8
0
  6
SLD-Solid
 62
     7
370
    25
100
AcDbPolyline
 90
        8
 70
   128
 43
0.0
 10
41.54385550482132
 20
53.25910399442892
 10
41.55087924419368
 20
53.26372693425742
 10
41.57285760982732
 20
53.28919925529142
 10
41.58553417794563
 20
53.32530989076534
 10
41.58804506138036
 20
53.36959796054728
 10
41.58021914757486
 20
53.4190453058711
 10
41.56258975962204
 20
53.4702821718686
 10
41.53635831117696
 20
53.51981685079493
  0
LINE
  5
311
330
1F
100
AcDbEntity
  8
0
  6
SLD-Solid
 62
     7
370
    25
100
AcDbLine
 10
41.37282372791478
 20
53.41712659145817
 30
0.0
 11
41.38196007726332
 21
53.40263979036074
 31
0.0
  0
LINE
  5
312
330
1F
100
AcDbEntity
  8
0
  6
SLD-Solid
 62
     7
370
    25
100
AcDbLine
 10
41.39242462898741
 20
53.43173254977226
 30
0.0
 11
41.37282372791478
 21
53.41712659145817
 31
0.0
  0
LINE
  5
313
330
1F
100
AcDbEntity
  8
0
  6
SLD-Solid
 62
     7
370
    25
100
AcDbLine
 10
41.33286676571312
 20
53.46416111853067
 30
0.0
 11
41.32099716594278
 21
53.45730894443588
 31
0.0
  0
LINE
  5
314
330
1F
100
AcDbEntity
  8
0
  6
SLD-Solid
 62
     7
370
    25
100
AcDbLine
 10
41.37282372791478
 20
53.41712659145817
 30
0.0
 11
41.32484608794721
 21
53.38942968945003
 31
0.0
  0
ARC
  5
315
330
1F
100
AcDbEntity
  8
0
  6
SLD-Solid
 62
     7
370
    25
100
AcDbCircle
 10
38.18175623723575
 20
50.55598774163883
 30
0.0
 40
0.4347679134644383
100
AcDbArc
 50
203.7057492372637
 51
206.8638070767797
  0
ARC
  5
316
330
1F
100
AcDbEntity
  8
0
  6
SLD-Solid
 62
     7
370
    25
100
AcDbCircle
 10
37.72262639733786
 20
50.71339680730245
 30
0.0
 40
0.360975959316784
100
AcDbArc
 50
281.3888541705505
 51
285.0402572480874
  0
SPLINE
  5
317
330
1F
100
AcDbEntity
  8
0
  6
SLD-Solid
 62
     7
370
    25
100
AcDbSpline
210
0.0
220
0.0
230
1.0
 70
    12
 71
     3
 72
    12
 73
     8
 74
     0
 42
0.00000001
 43
0.00000001
 40
0.0
 40
0.0
 40
0.0
 40
0.0
 40
0.214387260429595
 40
0.4287939078185906
 40
0.6427699702210824
 40
0.8565623456012098
 40
1.0
 40
1.0
 40
1.0
 40
1.0
 10
37.82619830955291
 20
50.35743859732338
 30
0.0
 41
1.0
 10
37.8256168714485
 20
50.35840312567828
 30
0.0
 41
1.0
 10
37.82445394266043
 20
50.36033226961005
 30
0.0
 41
1.0
 10
37.82215713207059
 20
50.36270908492094
 30
0.0
 41
1.0
 10
37.81977945481961
 20
50.36433241515113
 30
0.0
 41
1.0
 10
37.81774545793725
 20
50.36499656662008
 30
0.0
 41
1.0
 10
37.81671326741856
 20
50.36484670805415
 30
0.0
 41
1.0
 10
37.8162988146163
 20
50.36478653572991
 30
0.0
 41
1.0
  0
ARC
  5
318
330
1F
100
AcDbEntity
  8
0
  6
SLD-Solid
 62
     7
370
    25
100
AcDbCircle
 10
38.20368076100366
 20
50.55912580088205
 30
0.0
 40
0.4279844964862408
100
AcDbArc
 50
208.1153929358604
 51
214.3472001543487
  0
ARC
  5
319
330
1F
100
AcDbEntity
  8
0
  6
SLD-Solid
 62
     7
370
    25
100
AcDbCircle
 10
37.68129788845602
 20
50.92854585486203
 30
0.0
 40
0.6338437137459928
100
AcDbArc
 50
285.4659558842013
 51
286.7498507892337
  0
ARC
  5
31A
330
1F
100
AcDbEntity
  8
0
  6
SLD-Solid
 62
     7
370
    25
100
AcDbCircle
 10
38.21732615941196
 20
50.56306638188185
 30
0.0
 40
0.4279844964885084
100
AcDbArc
 50
208.1153929358815
 51
214.347200154336
  0
SPLINE
  5
31B
330
1F
100
AcDbEntity
  8
0
  6
SLD-Solid
 62
     7
370
    25
100
AcDbSpline
210
0.0
220
0.0
230
1.0
 70
    12
 71
     3
 72
    12
 73
     8
 74
     0
 42
0.00000001
 43
0.00000001
 40
0.0
 40
0.0
 40
0.0
 40
0.0
 40
0.2143872604293417
 40
0.4287939078185359
 40
0.6427699702211871
 40
0.8565623456011193
 40
1.0
 40
1.0
 40
1.0
 40
1.0
 10
37.84125792152166
 20
50.37199434157655
 30
0.0
 41
1.0
 10
37.84062670904817
 20
50.37168731764768
 30
0.0
 41
1.0
 10
37.83936422702087
 20
50.3710732420259
 30
0.0
 41
1.0
 10
37.83834502755312
 20
50.36900935150247
 30
0.0
 41
1.0
 10
37.83815088787598
 20
50.36637576986536
 30
0.0
 41
1.0
 10
37.83872994466108
 20
50.36369269008259
 30
0.0
 41
1.0
 10
37.83952462286533
 20
50.3620419826348
 30
0.0
 41
1.0
 10
37.83984370795929
 20
50.36137917832197
 30
0.0
 41
1.0
  0
ARC
  5
31C
330
1F
100
AcDbEntity
  8
0
  6
SLD-Solid
 62
     7
370
    25
100
AcDbCircle
 10
37.54220469271083
 20
51.33551944888436
 30
0.0
 40
1.008867417490868
100
AcDbArc
 50
287.2429887282211
 51
289.0821416957698
  0
ARC
  5
31D
330
1F
100
AcDbEntity
  8
0
  6
SLD-Solid
 62
     7
370
    25
100
AcDbCircle
 10
38.25987614310635
 20
50.57854756785301
 30
0.0
 40
0.4347679134579221
100
AcDbArc
 50
203.7057492372389
 51
206.8638070768022
  0
ARC
  5
31E
330
1F
100
AcDbEntity
  8
0
  6
SLD-Solid
 62
     7
370
    25
100
AcDbCircle
 10
37.53197064389088
 20
51.35718464198328
 30
0.0
 40
1.008867417538884
100
AcDbArc
 50
287.2429887282768
 51
289.0821416957381
  0
SPLINE
  5
31F
330
1F
100
AcDbEntity
  8
0
  6
SLD-Solid
 62
     7
370
    25
100
AcDbSpline
210
0.0
220
0.0
230
1.0
 70
    12
 71
     3
 72
    12
 73
     8
 74
     0
 42
0.00000001
 43
0.00000001
 40
0.0
 40
0.0
 40
0.0
 40
0.0
 40
0.214387260429595
 40
0.4287939078185906
 40
0.6427699702210824
 40
0.8565623456012098
 40
1.0
 40
1.0
 40
1.0
 40
1.0
 10
37.82112437778027
 20
50.40100747303645
 30
0.0
 41
1.0
 10
37.82161918537636
 20
50.3999929339536
 30
0.0
 41
1.0
 10
37.82260884531383
 20
50.3979637640435
 30
0.0
 41
1.0
 10
37.82479649984369
 20
50.39552393428043
 30
0.0
 41
1.0
 10
37.82719716292906
 20
50.39391387349004
 30
0.0
 41
1.0
 10
37.82936853548331
 20
50.39332902730839
 30
0.0
 41
1.0
 10
37.83054963062472
 20
50.39356484668328
 30
0.0
 41
1.0
 10
37.83102387271688
 20
50.39365953462991
 30
0.0
 41
1.0
  0
ARC
  5
320
330
1F
100
AcDbEntity
  8
0
  6
SLD-Solid
 62
     7
370
    25
100
AcDbCircle
 10
38.23715781856675
 20
50.57291457802162
 30
0.0
 40
0.4501509486794684
100
AcDbArc
 50
196.4252480849775
 51
202.4506595016841
  0
ARC
  5
321
330
1F
100
AcDbEntity
  8
0
  6
SLD-Solid
 62
     7
370
    25
100
AcDbCircle
 10
37.62270795900749
 20
51.05257908523396
 30
0.0
 40
0.633843713893252
100
AcDbArc
 50
285.4659558843781
 51
286.7498507891124
  0
ARC
  5
322
330
1F
100
AcDbEntity
  8
0
  6
SLD-Solid
 62
     7
370
    25
100
AcDbCircle
 10
38.22351242016318
 20
50.56897399702401
 30
0.0
 40
0.4501509486824397
100
AcDbArc
 50
196.4252480849971
 51
202.4506595016639
  0
SPLINE
  5
323
330
1F
100
AcDbEntity
  8
0
  6
SLD-Solid
 62
     7
370
    25
100
AcDbSpline
210
0.0
220
0.0
230
1.0
 70
    12
 71
     3
 72
    12
 73
     8
 74
     0
 42
0.00000001
 43
0.00000001
 40
0.0
 40
0.0
 40
0.0
 40
0.0
 40
0.2143872604293417
 40
0.4287939078185359
 40
0.6427699702211871
 40
0.8565623456011193
 40
1.0
 40
1.0
 40
1.0
 40
1.0
 10
37.80606476581152
 20
50.38645172878327
 30
0.0
 41
1.0
 10
37.80660934777669
 20
50.38670874198418
 30
0.0
 41
1.0
 10
37.80769856095338
 20
50.38722279162762
 30
0.0
 41
1.0
 10
37.80860860436116
 20
50.38922366769891
 30
0.0
 41
1.0
 10
37.80882572987269
 20
50.3918705187758
 30
0.0
 41
1.0
 10
37.80838404875949
 20
50.39463290384588
 30
0.0
 41
1.0
 10
37.80773827517795
 20
50.39636957210264
 30
0.0
 41
1.0
 10
37.80747897937389
 20
50.39706689203785
 30
0.0
 41
1.0
  0
ARC
  5
324
330
1F
100
AcDbEntity
  8
0
  6
SLD-Solid
 62
     7
370
    25
100
AcDbCircle
 10
37.71239234853201
 20
50.73506200036034
 30
0.0
 40
0.3609759593214246
100
AcDbArc
 50
281.3888541705747
 51
285.0402572480647
  0
LWPOLYLINE
  5
325
330
1F
100
AcDbEntity
  8
0
  6
SLD-Solid
 62
     7
370
    25
100
AcDbPolyline
 90
        8
 70
   128
 43
0.0
 10
38.0224527014943
 20
50.4588944128224
 10
37.99469988131158
 20
50.50767645976621
 10
37.96055000668336
 20
50.55074053910591
 10
37.92233033513021
 20
50.58515190500125
 10
37.8826454741075
 20
50.60856547973393
 10
37.84419988131158
 20
50.61938566687869
 10
37.80961356035715
 20
50.6168750885628
 10
37.79333907137184
 20
50.60997225111774
  0
LWPOLYLINE
  5
326
330
1F
100
AcDbEntity
  8
0
  6
SLD-Solid
 62
     7
370
    25
100
AcDbPolyline
 90
        7
 70
   128
 43
0.0
 10
38.00832159888859
 20
50.23757124029405
 10
38.02041715839977
 20
50.2463386548622
 10
38.04063756251701
 20
50.27410067879437
 10
38.05133033513021
 20
50.31206253859342
 10
38.05176678145642
 20
50.357637196249
 10
38.04191715839977
 20
50.40771881415755
 10
38.0224527014943
 20
50.4588944128224
  0
LINE
  5
327
330
1F
100
AcDbEntity
  8
0
  6
SLD-Solid
 62
     7
370
    25
100
AcDbLine
 10
37.84188474822974
 20
50.38722550862735
 30
0.0
 11
37.86611539182745
 21
50.39422294548492
 31
0.0
  0
LINE
  5
328
330
1F
100
AcDbEntity
  8
0
  6
SLD-Solid
 62
     7
370
    25
100
AcDbLine
 10
37.83783593790184
 20
50.39579672604713
 30
0.0
 11
37.84188474822974
 21
50.38722550862735
 31
0.0
  0
LINE
  5
329
330
1F
100
AcDbEntity
  8
0
  6
SLD-Solid
 62
     7
370
    25
100
AcDbLine
 10
37.86204946535901
 20
50.32442415777226
 30
0.0
 11
37.85032230229852
 21
50.31765421063982
 31
0.0
  0
LINE
  5
32A
330
1F
100
AcDbEntity
  8
0
  6
SLD-Solid
 62
     7
370
    25
100
AcDbLine
 10
37.84188474822974
 20
50.38722550862735
 30
0.0
 11
37.79390710826217
 21
50.35952860661921
 31
0.0
  0
ARC
  5
32B
330
1F
100
AcDbEntity
  8
0
  6
SLD-Solid
 62
     7
370
    25
100
AcDbCircle
 10
41.62095680694941
 20
53.61679952586822
 30
0.0
 40
0.071357985802994
100
AcDbArc
 50
138.9001461809691
 51
179.4518302562364
  0
ARC
  5
32C
330
1F
100
AcDbEntity
  8
0
  6
SLD-Solid
 62
     7
370
    25
100
AcDbCircle
 10
41.67678201408579
 20
53.51689354559836
 30
0.0
 40
0.0689854972128819
100
AcDbArc
 50
239.8131037691552
 51
281.8241667241638
  0
ARC
  5
32D
330
1F
100
AcDbEntity
  8
0
  6
SLD-Solid
 62
     7
370
    25
100
AcDbCircle
 10
41.62095683287647
 20
48.55424648900706
 30
0.0
 40
0.0713580117591894
100
AcDbArc
 50
138.9001976781109
 51
179.4518279106123
  0
ARC
  5
32E
330
1F
100
AcDbEntity
  8
0
  6
SLD-Solid
 62
     7
370
    25
100
AcDbCircle
 10
41.67678202294259
 20
48.45434053474683
 30
0.0
 40
0.0689855214090591
100
AcDbArc
 50
239.8131069491558
 51
281.8241150412718
  0
LWPOLYLINE
  5
32F
330
1F
100
AcDbEntity
  8
0
  6
SLD-Solid
 62
     7
370
    25
100
AcDbPolyline
 90
        3
 70
   128
 43
0.0
 10
38.10656066381672
 20
50.43573042980834
 10
38.13123988554941
 20
50.42697154984249
 10
38.15538374516264
 20
50.42783906365005
  0
ARC
  5
330
330
1F
100
AcDbEntity
  8
0
  6
SLD-Solid
 62
     7
370
    25
100
AcDbCircle
 10
38.08056896473723
 20
50.59711294695659
 30
0.0
 40
0.0665109608368691
100
AcDbArc
 50
137.3497595732729
 51
181.0023273752137
  0
ARC
  5
331
330
1F
100
AcDbEntity
  8
0
  6
SLD-Solid
 62
     7
370
    25
100
AcDbCircle
 10
38.08542297792896
 20
55.65781979602289
 30
0.0
 40
0.0713580628017139
100
AcDbArc
 50
138.9002989479217
 51
179.4518232981428
  0
ARC
  5
332
330
1F
100
AcDbEntity
  8
0
  6
SLD-Solid
 62
     7
370
    25
100
AcDbCircle
 10
38.14124813448964
 20
55.55791389307201
 30
0.0
 40
0.0689855691621764
100
AcDbArc
 50
239.8131132249774
 51
281.8240130397883
  0
ARC
  5
333
330
1F
100
AcDbEntity
  8
0
  6
SLD-Solid
 62
     7
370
    25
100
AcDbCircle
 10
41.82232342546384
 20
53.17826960475693
 30
0.0
 40
0.5763018028395245
100
AcDbArc
 50
2.60547848565361
 51
57.39452165997388
  0
ARC
  5
334
330
1F
100
AcDbEntity
  8
0
  6
SLD-Solid
 62
     7
370
    25
100
AcDbCircle
 10
41.75161274734514
 20
53.13744919916578
 30
0.0
 40
0.5763018028395653
100
AcDbArc
 50
2.605478485655533
 51
57.39452165997145
  0
LINE
  5
335
330
1F
100
AcDbEntity
  8
0
  6
SLD-Solid
 62
     7
370
    25
100
AcDbLine
 10
42.327318785358
 20
48.06026694447757
 30
0.0
 11
42.327318785358
 21
53.16364701876351
 31
0.0
  0
LWPOLYLINE
  5
336
330
1F
100
AcDbEntity
  8
0
  6
SLD-Solid
 62
     7
370
    25
100
AcDbPolyline
 90
        9
 70
   128
 43
0.0
 10
42.06215374241305
 20
47.90714066098716
 10
42.11388487602859
 20
47.88316051424604
 10
42.16362801119046
 20
47.87186911315074
 10
42.20947154711062
 20
47.87370037991305
 10
42.24965374241305
 20
47.8885839399783
 10
42.28263041786667
 20
47.91594782647996
 10
42.30713429832736
 20
47.95474046060562
 10
42.32222371341095
 20
48.00347106318101
 10
42.327318785358
 20
48.06026694447757
  0
LINE
  5
337
330
1F
100
AcDbEntity
  8
0
  6
SLD-Solid
 62
     7
370
    25
100
AcDbLine
 10
40.43981205742862
 20
48.84369858053283
 30
0.0
 11
41.27911550382332
 21
48.35917901421812
 31
0.0
  0
LINE
  5
338
330
1F
100
AcDbEntity
  8
0
  6
SLD-Solid
 62
     7
370
    25
100
AcDbLine
 10
41.55171840684941
 20
48.20180870802231
 30
0.0
 11
42.06215374241305
 21
47.90714066098716
 31
0.0
  0
ARC
  5
339
330
1F
100
AcDbEntity
  8
0
  6
SLD-Solid
 62
     7
370
    25
100
AcDbCircle
 10
40.50934251421167
 20
48.95802734548826
 30
0.0
 40
0.1338116247442449
100
AcDbArc
 50
215.7792081596108
 51
238.6936053832779
  0
LWPOLYLINE
  5
33A
330
1F
100
AcDbEntity
  8
0
  6
SLD-Solid
 62
     7
370
    25
100
AcDbPolyline
 90
       12
 70
   128
 43
0.0
 10
39.30410575303627
 20
49.51289167545852
 10
39.39510510894954
 20
49.52214478169274
 10
39.49126798389241
 20
49.51691836572956
 10
39.59150866723952
 20
49.49727143553175
 10
39.69469540856152
 20
49.46342581143157
 10
39.79966319546131
 20
49.41576362170597
 10
39.90522690694885
 20
49.35482298822206
 10
40.01019469384865
 20
49.28129195086354
 10
40.11338143517065
 20
49.19600069933303
 10
40.21362211851775
 20
49.09991220003617
 10
40.30978499346063
 20
48.99411132387266
 10
40.4007843493739
 20
48.87979259768558
  0
ARC
  5
33B
330
1F
100
AcDbEntity
  8
0
  6
SLD-Solid
 62
     7
370
    25
100
AcDbCircle
 10
39.29686944569679
 20
49.57081480145025
 30
0.0
 40
0.0583733900725744
100
AcDbArc
 50
237.0012009180986
 51
277.1210392722703
  0
LINE
  5
33C
330
1F
100
AcDbEntity
  8
0
  6
SLD-Solid
 62
     7
370
    25
100
AcDbLine
 10
37.64273635999713
 20
50.45841601043313
 30
0.0
 11
37.74358159789059
 21
50.4001992937749
 31
0.0
  0
LINE
  5
33D
330
1F
100
AcDbEntity
  8
0
  6
SLD-Solid
 62
     7
370
    25
100
AcDbLine
 10
38.01618450091668
 20
50.24282898757908
 30
0.0
 11
39.26507804498155
 21
49.52185809088747
 31
0.0
  0
ARC
  5
33E
330
1F
100
AcDbEntity
  8
0
  6
SLD-Solid
 62
     7
370
    25
100
AcDbCircle
 10
37.95327735506498
 20
50.94389315545476
 30
0.0
 40
0.5763018028395213
100
AcDbArc
 50
182.6054784856544
 51
237.3945216599753
  0
LINE
  5
33F
330
1F
100
AcDbEntity
  8
0
  6
SLD-Solid
 62
     7
370
    25
100
AcDbLine
 10
37.37757131705217
 20
56.021075410143
 30
0.0
 11
37.37757131705217
 21
50.91769533585705
 31
0.0
  0
LWPOLYLINE
  5
340
330
1F
100
AcDbEntity
  8
0
  6
SLD-Solid
 62
     7
370
    25
100
AcDbPolyline
 90
        9
 70
   128
 43
0.0
 10
37.64273635999713
 20
56.1742016936334
 10
37.59100522638158
 20
56.19818184037452
 10
37.54126209121971
 20
56.20947324146982
 10
37.49541855529954
 20
56.20764197470751
 10
37.45523635999713
 20
56.19275841464227
 10
37.4222596845435
 20
56.16539452814061
 10
37.39775580408281
 20
56.12660189401495
 10
37.38266638899923
 20
56.07787129143956
 10
37.37757131705217
 20
56.021075410143
  0
LINE
  5
341
330
1F
100
AcDbEntity
  8
0
  6
SLD-Solid
 62
     7
370
    25
100
AcDbLine
 10
42.06215374241305
 20
53.62292634418743
 30
0.0
 11
37.64273635999713
 21
56.1742016936334
 31
0.0
  0
LWPOLYLINE
  5
342
330
1F
100
AcDbEntity
  8
0
  6
SLD-Solid
 62
     7
370
    25
100
AcDbPolyline
 90
       15
 70
   128
 43
0.0
 10
41.62441690021978
 20
53.44705808254543
 10
41.65044259950245
 20
53.43807363122666
 10
41.67702693888046
 20
53.44045067176664
 10
41.69675855863343
 20
53.45621436834147
 10
41.70725753421146
 20
53.48346338649682
 10
41.70725753421146
 20
53.51891109249048
 10
41.69675855863343
 20
53.5582819698272
 10
41.67702693888046
 20
53.59682730964789
 10
41.65044259950244
 20
53.62989797510156
 10
41.62021200417144
 20
53.65350515586345
 10
41.58998140884046
 20
53.66480147752878
 10
41.56339706946244
 20
53.6624244369888
 10
41.54366544970947
 20
53.64666074041397
 10
41.53316647413145
 20
53.61941172225863
 10
41.53192441745094
 20
53.60727712208587
  0
LWPOLYLINE
  5
343
330
1F
100
AcDbEntity
  8
0
  6
SLD-Solid
 62
     7
370
    25
100
AcDbPolyline
 90
       15
 70
   128
 43
0.0
 10
41.62441690021978
 20
48.3845050488538
 10
41.65044259950245
 20
48.37552059753501
 10
41.67702693888046
 20
48.37789763807499
 10
41.69675855863343
 20
48.39366133464982
 10
41.70725753421146
 20
48.42091035280517
 10
41.70725753421146
 20
48.45635805879883
 10
41.69675855863343
 20
48.49572893613555
 10
41.67702693888046
 20
48.53427427595624
 10
41.65044259950245
 20
48.56734494140991
 10
41.62021200417146
 20
48.5909521221718
 10
41.58998140884046
 20
48.60224844383713
 10
41.56339706946245
 20
48.59987140329714
 10
41.54366544970948
 20
48.58410770672232
 10
41.53316647413145
 20
48.55685868856696
 10
41.53192441745095
 20
48.54472408839421
  0
LWPOLYLINE
  5
344
330
1F
100
AcDbEntity
  8
0
  6
SLD-Solid
 62
     7
370
    25
100
AcDbPolyline
 90
       15
 70
   128
 43
0.0
 10
38.08888299428705
 20
55.48807836210221
 10
38.11490869356971
 20
55.47909391078343
 10
38.14149303294772
 20
55.48147095132342
 10
38.16122465270069
 20
55.49723464789825
 10
38.17172362827871
 20
55.52448366605359
 10
38.17172362827871
 20
55.55993137204725
 10
38.16122465270069
 20
55.59930224938397
 10
38.14149303294772
 20
55.63784758920466
 10
38.11490869356971
 20
55.67091825465832
 10
38.08467809823872
 20
55.69452543542021
 10
38.05444750290772
 20
55.70582175708555
 10
38.02786316352972
 20
55.70344471654556
 10
38.00813154377674
 20
55.68768101997073
 10
37.99763256819872
 20
55.66043200181539
 10
37.99639051151821
 20
55.64829740164264
  0
LWPOLYLINE
  5
345
330
1F
100
AcDbEntity
  8
0
  6
SLD-Solid
 62
     7
370
    25
100
AcDbPolyline
 90
       15
 70
   128
 43
0.0
 10
38.08888299428705
 20
50.42552532841056
 10
38.11490869356972
 20
50.41654087709178
 10
38.14149303294773
 20
50.41891791763177
 10
38.1612246527007
 20
50.4346816142066
 10
38.17172362827872
 20
50.46193063236194
 10
38.17172362827872
 20
50.4973783383556
 10
38.1612246527007
 20
50.53674921569232
 10
38.14149303294772
 20
50.57529455551302
 10
38.11490869356972
 20
50.60836522096668
 10
38.08467809823872
 20
50.63197240172858
 10
38.05444750290772
 20
50.64326872339391
 10
38.02786316352971
 20
50.64089168285393
 10
38.00813154377674
 20
50.6251279862791
 10
37.99763256819871
 20
50.59787896812374
 10
37.99639051151821
 20
50.58574436795099
  0
LINE
  5
346
330
1F
100
AcDbEntity
  8
0
  6
SLD-Solid
 62
     7
370
    25
100
AcDbLine
 10
42.39802946347665
 20
48.10108735006871
 30
0.0
 11
42.39802946347665
 21
53.20446742435464
 31
0.0
  0
LINE
  5
347
330
1F
100
AcDbEntity
  8
0
  6
SLD-Solid
 62
     7
370
    25
100
AcDbLine
 10
42.1328644205317
 20
53.66374674977855
 30
0.0
 11
37.71344703811578
 21
56.21502209922453
 31
0.0
  0
ARC
  5
348
330
1F
100
AcDbEntity
  8
0
  6
SLD-Solid
 62
     7
370
    25
100
AcDbCircle
 10
42.21427875010036
 20
48.08080482355874
 30
0.0
 40
0.1848667237442182
100
AcDbArc
 50
305.013332873744
 51
6.298847519635134
  0
ARC
  5
349
330
1F
100
AcDbEntity
  8
0
  6
SLD-Solid
 62
     7
370
    25
100
AcDbCircle
 10
37.60360201754684
 20
56.06169160080509
 30
0.0
 40
0.1886164634631448
100
AcDbArc
 50
54.38242252479968
 51
114.3071190461042
  0
LWPOLYLINE
  5
34A
330
1F
100
AcDbEntity
  8
0
  6
SLD-Solid
 62
     7
370
    25
100
AcDbPolyline
 90
        8
 70
   128
 43
0.0
 10
39.47025383597376
 20
16.40902749690098
 10
39.45470848208426
 20
16.41996252029956
 10
39.44315724205816
 20
16.43243819849951
 10
39.43604402357168
 20
16.44597509818405
 10
39.43364218362208
 20
16.4600530038899
 10
39.43604402357168
 20
16.47413090959574
 10
39.44315724205816
 20
16.48766780928028
 10
39.44460233873047
 20
16.4896015292994
  0
LINE
  5
34B
330
1F
100
AcDbEntity
  8
0
  6
SLD-Solid
 62
     7
370
    25
100
AcDbLine
 10
40.36545102095592
 20
15.8922411621172
 30
0.0
 11
39.47025383597376
 21
16.40902749690098
 31
0.0
  0
ARC
  5
34C
330
1F
100
AcDbEntity
  8
0
  6
SLD-Solid
 62
     7
370
    25
100
AcDbCircle
 10
40.45383936860424
 20
16.06283004773666
 30
0.0
 40
0.1921277384889761
100
AcDbArc
 50
242.6096722366015
 51
297.3903277634001
  0
LINE
  5
34D
330
1F
100
AcDbEntity
  8
0
  6
SLD-Solid
 62
     7
370
    25
100
AcDbLine
 10
41.43671779445354
 20
16.40861929284506
 30
0.0
 11
40.54222771625256
 21
15.8922411621172
 31
0.0
  0
ARC
  5
34E
330
1F
100
AcDbEntity
  8
0
  6
SLD-Solid
 62
     7
370
    25
100
AcDbCircle
 10
41.4182280096816
 20
16.45887590215767
 30
0.0
 40
0.0535499665780786
100
AcDbArc
 50
290.1989485788615
 51
34.48232966777394
  0
LINE
  5
34F
330
1F
100
AcDbEntity
  8
0
  6
SLD-Solid
 62
     7
370
    25
100
AcDbLine
 10
40.09993242462037
 20
15.0311347061722
 30
0.0
 11
37.97861208106073
 21
16.25574687390626
 31
0.0
  0
LWPOLYLINE
  5
350
330
1F
100
AcDbEntity
  8
0
  6
SLD-Solid
 62
     7
370
    25
100
AcDbPolyline
 90
       10
 70
   128
 43
0.0
 10
37.97861208106073
 20
16.25574687390626
 10
37.92258944950951
 20
16.2942895875383
 10
37.87901157813568
 20
16.33786273715901
 10
37.84920255850948
 20
16.38514237466624
 10
37.83406812260814
 20
16.43469193219899
 10
37.83406812260814
 20
16.4850058715249
 10
37.84920255850948
 20
16.53455542905764
 10
37.87901157813568
 20
16.58183506656487
 10
37.92258944950951
 20
16.62540821618558
 10
37.97861208106074
 20
16.66395092981762
  0
LINE
  5
351
330
1F
100
AcDbEntity
  8
0
  6
SLD-Solid
 62
     7
370
    25
100
AcDbLine
 10
37.97861208106074
 20
16.66395092981762
 30
0.0
 11
39.44460233873046
 21
17.51024909160747
 31
0.0
  0
LINE
  5
352
330
1F
100
AcDbEntity
  8
0
  6
SLD-Solid
 62
     7
370
    25
100
AcDbLine
 10
41.46236929169683
 20
17.51024909160747
 30
0.0
 11
42.92835954936657
 21
16.66395092981761
 31
0.0
  0
LWPOLYLINE
  5
353
330
1F
100
AcDbEntity
  8
0
  6
SLD-Solid
 62
     7
370
    25
100
AcDbPolyline
 90
       10
 70
   128
 43
0.0
 10
42.92835954936657
 20
16.66395092981761
 10
42.98438218091779
 20
16.62540821618557
 10
43.02796005229162
 20
16.58183506656486
 10
43.05776907191783
 20
16.53455542905764
 10
43.07290350781917
 20
16.48500587152489
 10
43.07290350781917
 20
16.43469193219898
 10
43.05776907191782
 20
16.38514237466623
 10
43.02796005229162
 20
16.33786273715901
 10
42.98438218091779
 20
16.2942895875383
 10
42.92835954936657
 20
16.25574687390626
  0
LINE
  5
354
330
1F
100
AcDbEntity
  8
0
  6
SLD-Solid
 62
     7
370
    25
100
AcDbLine
 10
42.92835954936657
 20
16.25574687390626
 30
0.0
 11
40.80703920580692
 21
15.0311347061722
 31
0.0
  0
ARC
  5
355
330
1F
100
AcDbEntity
  8
0
  6
SLD-Solid
 62
     7
370
    25
100
AcDbCircle
 10
40.45348581521364
 20
15.70974158706926
 30
0.0
 40
0.7651844867748149
100
AcDbArc
 50
242.4805390039349
 51
297.5194609960672
  0
LWPOLYLINE
  5
356
330
1F
100
AcDbEntity
  8
0
  6
SLD-Solid
 62
     7
370
    25
100
AcDbPolyline
 90
       25
 70
   128
 43
0.0
 10
38.48419342960911
 20
16.372085029841
 10
38.43966547165401
 20
16.35236054971082
 10
38.38781156635105
 20
16.33996122314685
 10
38.33216547165401
 20
16.33573204376355
 10
38.27651937695696
 20
16.33996122314685
 10
38.22466547165401
 20
16.35236054971082
 10
38.1801375136989
 20
16.372085029841
 10
38.14597000984035
 20
16.39779047281274
 10
38.12449141900186
 20
16.42772509516779
 10
38.117165471654
 20
16.45984890186194
 10
38.12449141900186
 20
16.49197270855609
 10
38.14597000984035
 20
16.52190733091114
 10
38.1801375136989
 20
16.54761277388288
 10
38.22466547165401
 20
16.56733725401306
 10
38.27651937695696
 20
16.57973658057703
 10
38.33216547165401
 20
16.58396575996033
 10
38.38781156635105
 20
16.57973658057703
 10
38.43966547165401
 20
16.56733725401305
 10
38.48419342960911
 20
16.54761277388288
 10
38.51836093346766
 20
16.52190733091113
 10
38.53983952430616
 20
16.49197270855609
 10
38.547165471654
 20
16.45984890186194
 10
38.53983952430616
 20
16.42772509516779
 10
38.51836093346766
 20
16.39779047281274
 10
38.48419342960911
 20
16.372085029841
  0
LWPOLYLINE
  5
357
330
1F
100
AcDbEntity
  8
0
  6
SLD-Solid
 62
     7
370
    25
100
AcDbPolyline
 90
       25
 70
   128
 43
0.0
 10
42.7268341167284
 20
16.372085029841
 10
42.68230615877329
 20
16.35236054971082
 10
42.63045225347034
 20
16.33996122314684
 10
42.5748061587733
 20
16.33573204376354
 10
42.51916006407625
 20
16.33996122314684
 10
42.46730615877329
 20
16.35236054971082
 10
42.42277820081819
 20
16.372085029841
 10
42.38861069695965
 20
16.39779047281274
 10
42.36713210612115
 20
16.42772509516779
 10
42.3598061587733
 20
16.45984890186194
 10
42.36713210612115
 20
16.49197270855609
 10
42.38861069695965
 20
16.52190733091113
 10
42.42277820081819
 20
16.54761277388288
 10
42.4673061587733
 20
16.56733725401305
 10
42.51916006407626
 20
16.57973658057703
 10
42.5748061587733
 20
16.58396575996033
 10
42.63045225347034
 20
16.57973658057703
 10
42.68230615877329
 20
16.56733725401305
 10
42.72683411672841
 20
16.54761277388288
 10
42.76100162058695
 20
16.52190733091113
 10
42.78248021142545
 20
16.49197270855608
 10
42.7898061587733
 20
16.45984890186193
 10
42.78248021142545
 20
16.42772509516778
 10
42.76100162058695
 20
16.39779047281274
 10
42.7268341167284
 20
16.372085029841
  0
LWPOLYLINE
  5
358
330
1F
100
AcDbEntity
  8
0
  6
SLD-Solid
 62
     7
370
    25
100
AcDbPolyline
 90
       25
 70
   128
 43
0.0
 10
40.60551377316876
 20
15.14747286210693
 10
40.56098581521365
 20
15.12774838197676
 10
40.50913190991069
 20
15.11534905541278
 10
40.45348581521365
 20
15.11111987602948
 10
40.3978397205166
 20
15.11534905541278
 10
40.34598581521364
 20
15.12774838197676
 10
40.30145785725853
 20
15.14747286210693
 10
40.26729035339999
 20
15.17317830507868
 10
40.24581176256149
 20
15.20311292743372
 10
40.23848581521364
 20
15.23523673412788
 10
40.24581176256149
 20
15.26736054082203
 10
40.26729035339999
 20
15.29729516317707
 10
40.30145785725853
 20
15.32300060614882
 10
40.34598581521364
 20
15.34272508627899
 10
40.39783972051661
 20
15.35512441284297
 10
40.45348581521365
 20
15.35935359222627
 10
40.50913190991069
 20
15.35512441284297
 10
40.56098581521365
 20
15.34272508627899
 10
40.60551377316876
 20
15.32300060614882
 10
40.6396812770273
 20
15.29729516317707
 10
40.6611598678658
 20
15.26736054082202
 10
40.66848581521364
 20
15.23523673412787
 10
40.6611598678658
 20
15.20311292743372
 10
40.6396812770273
 20
15.17317830507868
 10
40.60551377316876
 20
15.14747286210693
  0
ARC
  5
359
330
1F
100
AcDbEntity
  8
0
  6
SLD-Solid
 62
     7
370
    25
100
AcDbCircle
 10
40.45348581521365
 20
15.50560638409783
 30
0.0
 40
0.7651844867748243
100
AcDbArc
 50
242.4805390039348
 51
297.5194609960663
  0
LINE
  5
35A
330
1F
100
AcDbEntity
  8
0
  6
SLD-Solid
 62
     7
370
    25
100
AcDbLine
 10
42.92835954936657
 20
16.05161167093482
 30
0.0
 11
40.80703920580692
 21
14.82699950320076
 31
0.0
  0
LINE
  5
35B
330
1F
100
AcDbEntity
  8
0
  6
SLD-Solid
 62
     7
370
    25
100
AcDbLine
 10
40.09993242462037
 20
14.82699950320076
 30
0.0
 11
37.97861208106073
 21
16.05161167093483
 31
0.0
  0
ARC
  5
35C
330
1F
100
AcDbEntity
  8
0
  6
SLD-Solid
 62
     7
370
    25
100
AcDbCircle
 10
40.45348581521365
 20
14.81593281163307
 30
0.0
 40
0.3400054759977145
100
AcDbArc
 50
68.9126471302459
 51
111.0873528697541
  0
ARC
  5
35D
330
1F
100
AcDbEntity
  8
0
  6
SLD-Solid
 62
     7
370
    25
100
AcDbCircle
 10
42.8248729941786
 20
16.28045495684171
 30
0.0
 40
0.2511547662484876
100
AcDbArc
 50
294.3332355919977
 51
354.3466234503856
  0
ARC
  5
35E
330
1F
100
AcDbEntity
  8
0
  6
SLD-Solid
 62
     7
370
    25
100
AcDbCircle
 10
38.07605359536441
 20
16.2761175391781
 30
0.0
 40
0.2447401348072297
100
AcDbArc
 50
184.7822660225981
 51
246.5378749350177
  0
ARC
  5
35F
330
1F
100
AcDbEntity
  8
0
  6
SLD-Solid
 62
     7
370
    25
100
AcDbCircle
 10
42.5748061587733
 20
16.04054497936704
 30
0.0
 40
0.340005475997799
100
AcDbArc
 50
68.91264713025139
 51
111.0873528697486
  0
ARC
  5
360
330
1F
100
AcDbEntity
  8
0
  6
SLD-Solid
 62
     7
370
    25
100
AcDbCircle
 10
38.33216547165401
 20
16.04054497936723
 30
0.0
 40
0.3400054759976274
100
AcDbArc
 50
68.91264713024152
 51
111.0873528697585
  0
INSERT
  5
366
102
{ACAD_REACTORS
330
368
102
}
330
1F
100
AcDbEntity
  8
NOTES
100
AcDbBlockReference
  2
SW_NOTE_0_2
 10
36.11298322677608
 20
58.83528948475531
 30
0.0
  0
LEADER
  5
368
330
1F
100
AcDbEntity
  8
NOTES
100
AcDbLeader
  3
SLDDIMSTYLE3
 73
     2
 76
     3
 10
38.42655481170738
 20
55.72171293295515
 30
0.0
 10
36.61298322677608
 20
58.83528948475531
 30
0.0
 10
36.11298322677608
 20
58.83528948475531
 30
0.0
340
366
1001
ACAD
1000
DSTYLE
1002
{
1070
   176
1070
     0
1070
    77
1070
     0
1070
    40
1040
1.0
1070
   147
1040
0.0
1002
}
  0
MTEXT
  5
36C
330
1F
100
AcDbEntity
  8
NOTES
100
AcDbMText
 10
37.18181923579608
 20
4.88020099615648
 30
0.0
 40
0.2916666666666666
 41
0.0
 71
     1
 72
     1
  1
FROST PRODUCTS LTD.
  7
SLDTEXTSTYLE0
 73
     1
 44
1.0
  0
MTEXT
  5
36D
330
1F
100
AcDbEntity
  8
NOTES
100
AcDbMText
 10
37.18181923579608
 20
4.454708634531021
 30
0.0
 40
0.2291666666666666
 41
0.0
 71
     1
 72
     1
  1
5280 JOHN LUCAS DRIVE, BURLINGTON, ON, L7L 5Z9
  7
SLDTEXTSTYLE0
 73
     1
 44
1.0
  0
ENDSEC
  0
SECTION
  2
OBJECTS
  0
DICTIONARY
  5
C
330
0
100
AcDbDictionary
281
     1
  3
ACAD_COLOR
350
6C
  3
ACAD_GROUP
350
D
  3
ACAD_LAYOUT
350
1A
  3
ACAD_MATERIAL
350
6B
  3
ACAD_MLINESTYLE
350
17
  3
ACAD_PLOTSETTINGS
350
19
  3
ACAD_PLOTSTYLENAME
350
E
  3
ACAD_SCALELIST
350
47
  3
ACAD_TABLESTYLE
350
92
  3
AcDbVariableDictionary
350
59
  0
DICTIONARY
  5
6C
102
{ACAD_REACTORS
330
C
102
}
330
C
100
AcDbDictionary
281
     1
  0
DICTIONARY
  5
D
102
{ACAD_REACTORS
330
C
102
}
330
C
100
AcDbDictionary
281
     1
  0
DICTIONARY
  5
1A
102
{ACAD_REACTORS
330
C
102
}
330
C
100
AcDbDictionary
281
     1
  3
Layout1
350
74
  3
Layout2
350
26
  3
Model
350
22
  0
DICTIONARY
  5
6B
102
{ACAD_REACTORS
330
C
102
}
330
C
100
AcDbDictionary
281
     1
  0
DICTIONARY
  5
17
102
{ACAD_REACTORS
330
C
102
}
330
C
100
AcDbDictionary
281
     1
  3
Standard
350
18
  0
DICTIONARY
  5
19
102
{ACAD_REACTORS
330
C
102
}
330
C
100
AcDbDictionary
281
     1
  0
ACDBDICTIONARYWDFLT
  5
E
102
{ACAD_REACTORS
330
C
102
}
330
C
100
AcDbDictionary
281
     1
  3
Normal
350
F
100
AcDbDictionaryWithDefault
340
F
  0
DICTIONARY
  5
47
102
{ACAD_REACTORS
330
C
102
}
330
C
100
AcDbDictionary
281
     1
  3
A0
350
48
  3
A1
350
49
  3
A2
350
4A
  3
A3
350
4B
  3
A4
350
4C
  3
A5
350
4D
  3
A6
350
4E
  3
A7
350
4F
  3
A8
350
50
  3
A9
350
51
  3
B0
350
52
  3
B1
350
53
  3
B2
350
54
  3
B3
350
55
  3
B4
350
56
  3
B5
350
57
  3
B6
350
58
  3
B7
350
37F
  3
B8
350
380
  3
B9
350
5B
  3
C0
350
5C
  3
C1
350
5D
  3
C2
350
381
  3
C3
350
5F
  3
C4
350
60
  3
C5
350
61
  3
C6
350
62
  3
C7
350
63
  3
C8
350
64
  3
C9
350
65
  3
D0
350
66
  3
D1
350
67
  3
D2
350
68
  0
DICTIONARY
  5
92
102
{ACAD_REACTORS
330
C
102
}
330
C
100
AcDbDictionary
281
     1
  3
Standard
350
93
  0
DICTIONARY
  5
59
102
{ACAD_REACTORS
330
C
102
}
330
C
100
AcDbDictionary
281
     1
  3
CTABLESTYLE
350
98
  3
HIDETEXT
350
36B
  0
LAYOUT
  5
74
102
{ACAD_REACTORS
330
1A
102
}
330
1A
100
AcDbPlotSettings
  1

  2
none_device
  4

  6

 40
0.0
 41
0.0
 42
0.0
 43
0.0
 44
0.0
 45
0.0
 46
0.0
 47
0.0
 48
0.0
 49
0.0
140
0.0
141
0.0
142
1.0
143
1.0
 70
   688
 72
     0
 73
     0
 74
     5
  7

 75
    16
 76
     0
 77
     2
 78
   300
147
1.0
148
0.0
149
0.0
100
AcDbLayout
  1
Layout1
 70
     1
 71
     1
 10
0.0
 20
0.0
 11
12.0
 21
9.0
 12
0.0
 22
0.0
 32
0.0
 14
1.000000000000000E+20
 24
1.000000000000000E+20
 34
1.000000000000000E+20
 15
-1.000000000000000E+20
 25
-1.000000000000000E+20
 35
-1.000000000000000E+20
146
0.0
 13
0.0
 23
0.0
 33
0.0
 16
1.0
 26
0.0
 36
0.0
 17
0.0
 27
1.0
 37
0.0
 76
     0
330
73
  0
LAYOUT
  5
26
102
{ACAD_REACTORS
330
1A
102
}
330
1A
100
AcDbPlotSettings
  1

  2
none_device
  4

  6

 40
0.0
 41
0.0
 42
0.0
 43
0.0
 44
0.0
 45
0.0
 46
0.0
 47
0.0
 48
0.0
 49
0.0
140
0.0
141
0.0
142
1.0
143
1.0
 70
   688
 72
     0
 73
     0
 74
     5
  7

 75
    16
 76
     0
 77
     2
 78
   300
147
1.0
148
0.0
149
0.0
100
AcDbLayout
  1
Layout2
 70
     1
 71
     2
 10
0.0
 20
0.0
 11
0.0
 21
0.0
 12
0.0
 22
0.0
 32
0.0
 14
0.0
 24
0.0
 34
0.0
 15
0.0
 25
0.0
 35
0.0
146
0.0
 13
0.0
 23
0.0
 33
0.0
 16
1.0
 26
0.0
 36
0.0
 17
0.0
 27
1.0
 37
0.0
 76
     0
330
23
  0
LAYOUT
  5
22
102
{ACAD_REACTORS
330
1A
102
}
330
1A
100
AcDbPlotSettings
  1

  2
none_device
  4
Letter_(8.50_x_11.00_Inches)
  6

 40
6.35
 41
6.35
 42
6.35000508
 43
6.35000508
 44
215.9
 45
279.4
 46
0.0
 47
0.0
 48
0.0
 49
0.0
140
0.0
141
0.0
142
1.0
143
1.0
 70
 11952
 72
     0
 73
     0
 74
     0
  7

 75
     0
 76
     0
 77
     2
 78
   300
147
1.0
148
0.0
149
0.0
100
AcDbLayout
  1
Model
 70
     1
 71
     0
 10
0.0
 20
0.0
 11
46.81102362204724
 21
66.0
 12
0.0
 22
0.0
 32
0.0
 14
2.673695310543017
 24
0.3573773641115478
 34
-1.289655172413791
 15
46.41568767877938
 25
65.24051040719344
 35
0.0
146
0.0
 13
0.0
 23
0.0
 33
0.0
 16
1.0
 26
0.0
 36
0.0
 17
0.0
 27
1.0
 37
0.0
 76
     0
330
1F
  0
MLINESTYLE
  5
18
102
{ACAD_REACTORS
330
17
102
}
330
17
100
AcDbMlineStyle
  2
Standard
 70
     0
  3

 62
   256
 51
90.0
 52
90.0
 71
     2
 49
0.5
 62
   256
  6
BYLAYER
 49
-0.5
 62
   256
  6
BYLAYER
  0
ACDBPLACEHOLDER
  5
F
102
{ACAD_REACTORS
330
E
102
}
330
E
  0
ACAD_PROXY_OBJECT
  5
48
102
{ACAD_REACTORS
330
47
102
}
330
47
100
AcDbProxyObject
 90
      499
 91
      505
 95
   393239
 70
     0
 93
       41
310
903313A31580
  0
ACAD_PROXY_OBJECT
  5
49
102
{ACAD_REACTORS
330
47
102
}
330
47
100
AcDbProxyObject
 90
      499
 91
      505
 95
   393239
 70
     0
 93
      105
310
903313A324000000000000004000
  0
ACAD_PROXY_OBJECT
  5
4A
102
{ACAD_REACTORS
330
47
102
}
330
47
100
AcDbProxyObject
 90
      499
 91
      505
 95
   393239
 70
     0
 93
      105
310
903313A344000000000000104000
  0
ACAD_PROXY_OBJECT
  5
4B
102
{ACAD_REACTORS
330
47
102
}
330
47
100
AcDbProxyObject
 90
      499
 91
      505
 95
   393239
 70
     0
 93
      105
310
903313A354000000000000144000
  0
ACAD_PROXY_OBJECT
  5
4C
102
{ACAD_REACTORS
330
47
102
}
330
47
100
AcDbProxyObject
 90
      499
 91
      505
 95
   393239
 70
     0
 93
      105
310
903313A384000000000000204000
  0
ACAD_PROXY_OBJECT
  5
4D
102
{ACAD_REACTORS
330
47
102
}
330
47
100
AcDbProxyObject
 90
      499
 91
      505
 95
   393239
 70
     0
 93
      113
310
904313A31304000000000000244000
  0
ACAD_PROXY_OBJECT
  5
4E
102
{ACAD_REACTORS
330
47
102
}
330
47
100
AcDbProxyObject
 90
      499
 91
      505
 95
   393239
 70
     0
 93
      113
310
904313A31364000000000000304000
  0
ACAD_PROXY_OBJECT
  5
4F
102
{ACAD_REACTORS
330
47
102
}
330
47
100
AcDbProxyObject
 90
      499
 91
      505
 95
   393239
 70
     0
 93
      113
310
904313A32304000000000000344000
  0
ACAD_PROXY_OBJECT
  5
50
102
{ACAD_REACTORS
330
47
102
}
330
47
100
AcDbProxyObject
 90
      499
 91
      505
 95
   393239
 70
     0
 93
      113
310
904313A333040000000000003E4000
  0
ACAD_PROXY_OBJECT
  5
51
102
{ACAD_REACTORS
330
47
102
}
330
47
100
AcDbProxyObject
 90
      499
 91
      505
 95
   393239
 70
     0
 93
      113
310
904313A34304000000000000444000
  0
ACAD_PROXY_OBJECT
  5
52
102
{ACAD_REACTORS
330
47
102
}
330
47
100
AcDbProxyObject
 90
      499
 91
      505
 95
   393239
 70
     0
 93
      113
310
904313A35304000000000000494000
  0
ACAD_PROXY_OBJECT
  5
53
102
{ACAD_REACTORS
330
47
102
}
330
47
100
AcDbProxyObject
 90
      499
 91
      505
 95
   393239
 70
     0
 93
      121
310
905313A3130304000000000000594000
  0
ACAD_PROXY_OBJECT
  5
54
102
{ACAD_REACTORS
330
47
102
}
330
47
100
AcDbProxyObject
 90
      499
 91
      505
 95
   393239
 70
     0
 93
      105
310
903323A310000000000000010100
  0
ACAD_PROXY_OBJECT
  5
55
102
{ACAD_REACTORS
330
47
102
}
330
47
100
AcDbProxyObject
 90
      499
 91
      505
 95
   393239
 70
     0
 93
      105
310
903343A310000000000000410100
  0
ACAD_PROXY_OBJECT
  5
56
102
{ACAD_REACTORS
330
47
102
}
330
47
100
AcDbProxyObject
 90
      499
 91
      505
 95
   393239
 70
     0
 93
      105
310
903383A310000000000000810100
  0
ACAD_PROXY_OBJECT
  5
57
102
{ACAD_REACTORS
330
47
102
}
330
47
100
AcDbProxyObject
 90
      499
 91
      505
 95
   393239
 70
     0
 93
      113
310
90431303A310000000000000910100
  0
ACAD_PROXY_OBJECT
  5
58
102
{ACAD_REACTORS
330
47
102
}
330
47
100
AcDbProxyObject
 90
      499
 91
      505
 95
   393239
 70
     0
 93
      121
310
9053130303A310000000000001650100
  0
ACAD_PROXY_OBJECT
  5
37F
102
{ACAD_REACTORS
330
47
102
}
330
47
100
AcDbProxyObject
 90
      499
 91
      505
 95
   393239
 70
     0
 93
      257
310
90E312F31323822203D2031272D3022000000000000200FC000000000000284000
  0
ACAD_PROXY_OBJECT
  5
380
102
{ACAD_REACTORS
330
47
102
}
330
47
100
AcDbProxyObject
 90
      499
 91
      505
 95
   393239
 70
     0
 93
      249
310
90D312F363422203D2031272D3022000000000000240FC000000000000284000
  0
ACAD_PROXY_OBJECT
  5
5B
102
{ACAD_REACTORS
330
47
102
}
330
47
100
AcDbProxyObject
 90
      499
 91
      505
 95
   393239
 70
     0
 93
      249
310
90D312F333222203D2031272D3022000000000000280FC000000000000284000
  0
ACAD_PROXY_OBJECT
  5
5C
102
{ACAD_REACTORS
330
47
102
}
330
47
100
AcDbProxyObject
 90
      499
 91
      505
 95
   393239
 70
     0
 93
      249
310
90D312F313622203D2031272D30220000000000002C0FC000000000000284000
  0
ACAD_PROXY_OBJECT
  5
5D
102
{ACAD_REACTORS
330
47
102
}
330
47
100
AcDbProxyObject
 90
      499
 91
      505
 95
   393239
 70
     0
 93
      249
310
90D332F333222203D2031272D30220000000000002E0FC000000000000284000
  0
ACAD_PROXY_OBJECT
  5
381
102
{ACAD_REACTORS
330
47
102
}
330
47
100
AcDbProxyObject
 90
      499
 91
      505
 95
   393239
 70
     0
 93
      241
310
90C312F3822203D2031272D3022000000000000300FC000000000000284000
  0
ACAD_PROXY_OBJECT
  5
5F
102
{ACAD_REACTORS
330
47
102
}
330
47
100
AcDbProxyObject
 90
      499
 91
      505
 95
   393239
 70
     0
 93
      249
310
90D332F313622203D2031272D3022000000000000320FC000000000000284000
  0
ACAD_PROXY_OBJECT
  5
60
102
{ACAD_REACTORS
330
47
102
}
330
47
100
AcDbProxyObject
 90
      499
 91
      505
 95
   393239
 70
     0
 93
      241
310
90C312F3422203D2031272D3022000000000000340FC000000000000284000
  0
ACAD_PROXY_OBJECT
  5
61
102
{ACAD_REACTORS
330
47
102
}
330
47
100
AcDbProxyObject
 90
      499
 91
      505
 95
   393239
 70
     0
 93
      241
310
90C332F3822203D2031272D3022000000000000360FC000000000000284000
  0
ACAD_PROXY_OBJECT
  5
62
102
{ACAD_REACTORS
330
47
102
}
330
47
100
AcDbProxyObject
 90
      499
 91
      505
 95
   393239
 70
     0
 93
      241
310
90C312F3222203D2031272D3022000000000000380FC000000000000284000
  0
ACAD_PROXY_OBJECT
  5
63
102
{ACAD_REACTORS
330
47
102
}
330
47
100
AcDbProxyObject
 90
      499
 91
      505
 95
   393239
 70
     0
 93
      241
310
90C332F3422203D2031272D30220000000000003A0FC000000000000284000
  0
ACAD_PROXY_OBJECT
  5
64
102
{ACAD_REACTORS
330
47
102
}
330
47
100
AcDbProxyObject
 90
      499
 91
      505
 95
   393239
 70
     0
 93
      161
310
90A3122203D2031272D30224000000000000284000
  0
ACAD_PROXY_OBJECT
  5
65
102
{ACAD_REACTORS
330
47
102
}
330
47
100
AcDbProxyObject
 90
      499
 91
      505
 95
   393239
 70
     0
 93
      257
310
90E312D312F3222203D2031272D30220000000000003E0FC000000000000284000
  0
ACAD_PROXY_OBJECT
  5
66
102
{ACAD_REACTORS
330
47
102
}
330
47
100
AcDbProxyObject
 90
      499
 91
      505
 95
   393239
 70
     0
 93
      225
310
90A3322203D2031272D302200000000000002100000000000000284000
  0
ACAD_PROXY_OBJECT
  5
67
102
{ACAD_REACTORS
330
47
102
}
330
47
100
AcDbProxyObject
 90
      499
 91
      505
 95
   393239
 70
     0
 93
      225
310
90A3622203D2031272D302200000000000006100000000000000284000
  0
ACAD_PROXY_OBJECT
  5
68
102
{ACAD_REACTORS
330
47
102
}
330
47
100
AcDbProxyObject
 90
      499
 91
      505
 95
   393239
 70
     0
 93
      249
310
90D31272D3022203D2031272D30220000000000000A100000000000000284000
  0
TABLESTYLE
  5
93
102
{ACAD_REACTORS
330
92
102
}
330
92
100
AcDbTableStyle
  3
Standard
 70
     0
 71
     0
 40
0.06
 41
0.06
280
     0
281
     0
  7
Standard
140
0.18
170
     2
 62
     0
 63
     7
283
     0
274
    -2
284
     1
 64
     0
275
    -2
285
     1
 65
     0
276
    -2
286
     1
 66
     0
277
    -2
287
     1
 67
     0
278
    -2
288
     1
 68
     0
279
    -2
289
     1
 69
     0
  7
Standard
140
0.25
170
     5
 62
     0
 63
     7
283
     0
274
    -2
284
     1
 64
     0
275
    -2
285
     1
 65
     0
276
    -2
286
     1
 66
     0
277
    -2
287
     1
 67
     0
278
    -2
288
     1
 68
     0
279
    -2
289
     1
 69
     0
  7
Standard
140
0.18
170
     5
 62
     0
 63
     7
283
     0
274
    -2
284
     1
 64
     0
275
    -2
285
     1
 65
     0
276
    -2
286
     1
 66
     0
277
    -2
287
     1
 67
     0
278
    -2
288
     1
 68
     0
279
    -2
289
     1
 69
     0
  0
DICTIONARYVAR
  5
98
102
{ACAD_REACTORS
330
59
102
}
330
59
100
DictionaryVariables
280
     0
  1
STANDARD
  0
DICTIONARYVAR
  5
36B
102
{ACAD_REACTORS
330
59
102
}
330
59
100
DictionaryVariables
280
     0
  1
2
  0
ENDSEC
  0
EOF
