  0
SECTION
  2
HEADER
  9
$ACADVER
  1
AC1018
  9
$ACADMAINTVER
 70
    39
  9
$DWGCODEPAGE
  3
ANSI_1252
  9
$LASTSAVEDBY
  1
fottrem
  9
$INSBASE
 10
0.0
 20
0.0
 30
0.0
  9
$EXTMIN
 10
1.413861089829396
 20
0.3573773641115478
 30
-13.71904126003534
  9
$EXTMAX
 10
46.41568767877938
 20
94.35226101393293
 30
13.71904126003531
  9
$LIMMIN
 10
0.0
 20
0.0
  9
$LIMMAX
 10
46.81102362204724
 20
33.11023622047244
  9
$ORTHOMODE
 70
     0
  9
$REGENMODE
 70
     1
  9
$FILLMODE
 70
     1
  9
$QTEXTMODE
 70
     0
  9
$MIRRTEXT
 70
     1
  9
$LTSCALE
 40
1.0
  9
$ATTMODE
 70
     1
  9
$TEXTSIZE
 40
0.3333333333333333
  9
$TRACEWID
 40
0.05
  9
$TEXTSTYLE
  7
Standard
  9
$CLAYER
  8
0
  9
$CELTYPE
  6
ByLayer
  9
$CECOLOR
 62
   256
  9
$CELTSCALE
 40
1.0
  9
$DISPSILH
 70
     0
  9
$DIMSCALE
 40
1.0
  9
$DIMASZ
 40
0.3
  9
$DIMEXO
 40
0.2
  9
$DIMDLI
 40
0.38
  9
$DIMRND
 40
0.0
  9
$DIMDLE
 40
0.0
  9
$DIMEXE
 40
0.2
  9
$DIMTP
 40
0.0
  9
$DIMTM
 40
0.0
  9
$DIMTXT
 40
0.3333333333333333
  9
$DIMCEN
 40
0.09
  9
$DIMTSZ
 40
0.0
  9
$DIMTOL
 70
     0
  9
$DIMLIM
 70
     0
  9
$DIMTIH
 70
     1
  9
$DIMTOH
 70
     1
  9
$DIMSE1
 70
     0
  9
$DIMSE2
 70
     0
  9
$DIMTAD
 70
     0
  9
$DIMZIN
 70
     1
  9
$DIMBLK
  1

  9
$DIMASO
 70
     1
  9
$DIMSHO
 70
     1
  9
$DIMPOST
  1

  9
$DIMAPOST
  1

  9
$DIMALT
 70
     0
  9
$DIMALTD
 70
     2
  9
$DIMALTF
 40
25.4
  9
$DIMLFAC
 40
1.0
  9
$DIMTOFL
 70
     0
  9
$DIMTVP
 40
0.0
  9
$DIMTIX
 70
     0
  9
$DIMSOXD
 70
     0
  9
$DIMSAH
 70
     0
  9
$DIMBLK1
  1

  9
$DIMBLK2
  1

  9
$DIMSTYLE
  2
Standard
  9
$DIMCLRD
 70
     0
  9
$DIMCLRE
 70
     0
  9
$DIMCLRT
 70
     0
  9
$DIMTFAC
 40
1.0
  9
$DIMGAP
 40
0.2
  9
$DIMJUST
 70
     0
  9
$DIMSD1
 70
     0
  9
$DIMSD2
 70
     0
  9
$DIMTOLJ
 70
     1
  9
$DIMTZIN
 70
     1
  9
$DIMALTZ
 70
     0
  9
$DIMALTTZ
 70
     0
  9
$DIMUPT
 70
     0
  9
$DIMDEC
 70
     2
  9
$DIMTDEC
 70
     2
  9
$DIMALTU
 70
     2
  9
$DIMALTTD
 70
     2
  9
$DIMTXSTY
  7
Standard
  9
$DIMAUNIT
 70
     0
  9
$DIMADEC
 70
     2
  9
$DIMALTRND
 40
0.0
  9
$DIMAZIN
 70
     0
  9
$DIMDSEP
 70
    46
  9
$DIMATFIT
 70
     3
  9
$DIMFRAC
 70
     0
  9
$DIMLDRBLK
  1

  9
$DIMLUNIT
 70
     2
  9
$DIMLWD
 70
    -2
  9
$DIMLWE
 70
    -2
  9
$DIMTMOVE
 70
     0
  9
$LUNITS
 70
     2
  9
$LUPREC
 70
     4
  9
$SKETCHINC
 40
0.1
  9
$FILLETRAD
 40
0.5
  9
$AUNITS
 70
     0
  9
$AUPREC
 70
     2
  9
$MENU
  1
.
  9
$ELEVATION
 40
0.0
  9
$PELEVATION
 40
0.0
  9
$THICKNESS
 40
0.0
  9
$LIMCHECK
 70
     0
  9
$CHAMFERA
 40
0.0
  9
$CHAMFERB
 40
0.0
  9
$CHAMFERC
 40
0.0
  9
$CHAMFERD
 40
0.0
  9
$SKPOLY
 70
     0
  9
$TDCREATE
 40
2453353.550459155
  9
$TDUCREATE
 40
2453353.717125822
  9
$TDUPDATE
 40
2459488.438982917
  9
$TDUUPDATE
 40
2459488.605649584
  9
$TDINDWG
 40
0.0432176042
  9
$TDUSRTIMER
 40
0.0432176042
  9
$USRTIMER
 70
     1
  9
$ANGBASE
 50
0.0
  9
$ANGDIR
 70
     0
  9
$PDMODE
 70
     0
  9
$PDSIZE
 40
-1.0
  9
$PLINEWID
 40
0.0
  9
$SPLFRAME
 70
     0
  9
$SPLINETYPE
 70
     6
  9
$SPLINESEGS
 70
     8
  9
$HANDSEED
  5
6AA
  9
$SURFTAB1
 70
     6
  9
$SURFTAB2
 70
     6
  9
$SURFTYPE
 70
     6
  9
$SURFU
 70
     6
  9
$SURFV
 70
     6
  9
$UCSBASE
  2

  9
$UCSNAME
  2

  9
$UCSORG
 10
0.0
 20
0.0
 30
0.0
  9
$UCSXDIR
 10
1.0
 20
0.0
 30
0.0
  9
$UCSYDIR
 10
0.0
 20
1.0
 30
0.0
  9
$UCSORTHOREF
  2

  9
$UCSORTHOVIEW
 70
     0
  9
$UCSORGTOP
 10
0.0
 20
0.0
 30
0.0
  9
$UCSORGBOTTOM
 10
0.0
 20
0.0
 30
0.0
  9
$UCSORGLEFT
 10
0.0
 20
0.0
 30
0.0
  9
$UCSORGRIGHT
 10
0.0
 20
0.0
 30
0.0
  9
$UCSORGFRONT
 10
0.0
 20
0.0
 30
0.0
  9
$UCSORGBACK
 10
0.0
 20
0.0
 30
0.0
  9
$PUCSBASE
  2

  9
$PUCSNAME
  2

  9
$PUCSORG
 10
0.0
 20
0.0
 30
0.0
  9
$PUCSXDIR
 10
1.0
 20
0.0
 30
0.0
  9
$PUCSYDIR
 10
0.0
 20
1.0
 30
0.0
  9
$PUCSORTHOREF
  2

  9
$PUCSORTHOVIEW
 70
     0
  9
$PUCSORGTOP
 10
0.0
 20
0.0
 30
0.0
  9
$PUCSORGBOTTOM
 10
0.0
 20
0.0
 30
0.0
  9
$PUCSORGLEFT
 10
0.0
 20
0.0
 30
0.0
  9
$PUCSORGRIGHT
 10
0.0
 20
0.0
 30
0.0
  9
$PUCSORGFRONT
 10
0.0
 20
0.0
 30
0.0
  9
$PUCSORGBACK
 10
0.0
 20
0.0
 30
0.0
  9
$USERI1
 70
     0
  9
$USERI2
 70
     0
  9
$USERI3
 70
     0
  9
$USERI4
 70
     0
  9
$USERI5
 70
     0
  9
$USERR1
 40
0.0
  9
$USERR2
 40
0.0
  9
$USERR3
 40
0.0
  9
$USERR4
 40
0.0
  9
$USERR5
 40
0.0
  9
$WORLDVIEW
 70
     1
  9
$SHADEDGE
 70
     3
  9
$SHADEDIF
 70
    70
  9
$TILEMODE
 70
     1
  9
$MAXACTVP
 70
    64
  9
$PINSBASE
 10
0.0
 20
0.0
 30
0.0
  9
$PLIMCHECK
 70
     0
  9
$PEXTMIN
 10
1.000000000000000E+20
 20
1.000000000000000E+20
 30
1.000000000000000E+20
  9
$PEXTMAX
 10
-1.000000000000000E+20
 20
-1.000000000000000E+20
 30
-1.000000000000000E+20
  9
$PLIMMIN
 10
0.0
 20
0.0
  9
$PLIMMAX
 10
12.0
 20
9.0
  9
$UNITMODE
 70
     0
  9
$VISRETAIN
 70
     1
  9
$PLINEGEN
 70
     0
  9
$PSLTSCALE
 70
     1
  9
$TREEDEPTH
 70
  3020
  9
$CMLSTYLE
  2
Standard
  9
$CMLJUST
 70
     0
  9
$CMLSCALE
 40
1.0
  9
$PROXYGRAPHICS
 70
     1
  9
$MEASUREMENT
 70
     0
  9
$CELWEIGHT
370
    -1
  9
$ENDCAPS
280
     0
  9
$JOINSTYLE
280
     0
  9
$LWDISPLAY
290
     1
  9
$INSUNITS
 70
     1
  9
$HYPERLINKBASE
  1

  9
$STYLESHEET
  1

  9
$XEDIT
290
     0
  9
$CEPSNTYPE
380
     0
  9
$PSTYLEMODE
290
     1
  9
$FINGERPRINTGUID
  2
{ecbb8c60-1e10-456d-9c87-251651f3b4e8}
  9
$VERSIONGUID
  2
{FAEB1C32-E019-11D5-929B-00C0DF256EC4}
  9
$EXTNAMES
290
     1
  9
$PSVPSCALE
 40
0.0
  9
$OLESTARTUP
290
     0
  9
$SORTENTS
280
   127
  9
$INDEXCTL
280
     0
  9
$HIDETEXT
280
     1
  9
$XCLIPFRAME
290
     0
  9
$HALOGAP
280
     0
  9
$OBSCOLOR
 70
   257
  9
$OBSLTYPE
280
     0
  9
$INTERSECTIONDISPLAY
280
     0
  9
$INTERSECTIONCOLOR
 70
   257
  9
$DIMASSOC
280
     2
  9
$PROJECTNAME
  1

  0
ENDSEC
  0
SECTION
  2
CLASSES
  0
CLASS
  1
ACDBDICTIONARYWDFLT
  2
AcDbDictionaryWithDefault
  3
ObjectDBX Classes
 90
        0
 91
        3
280
     0
281
     0
  0
CLASS
  1
ACDBPLACEHOLDER
  2
AcDbPlaceHolder
  3
ObjectDBX Classes
 90
        0
 91
        1
280
     0
281
     0
  0
CLASS
  1
LAYOUT
  2
AcDbLayout
  3
ObjectDBX Classes
 90
        0
 91
        1
280
     0
281
     0
  0
CLASS
  1
DICTIONARYVAR
  2
AcDbDictionaryVar
  3
ObjectDBX Classes
 90
        0
 91
        3
280
     0
281
     0
  0
CLASS
  1
TABLESTYLE
  2
AcDbTableStyle
  3
ObjectDBX Classes
 90
     2047
 91
        3
280
     0
281
     0
  0
CLASS
  1
SCALE
  2
AcDbScale
  3
ObjectDBX Classes
 90
     1153
 91
       67
280
     1
281
     0
  0
ENDSEC
  0
SECTION
  2
TABLES
  0
TABLE
  2
VPORT
  5
8
330
0
100
AcDbSymbolTable
 70
     2
  0
VPORT
  5
97
330
8
100
AcDbSymbolTableRecord
100
AcDbViewportTableRecord
  2
*Active
 70
     0
 10
0.0
 20
0.0
 11
1.0
 21
1.0
 12
29.87644569660631
 22
7.746634386029852
 13
0.0
 23
0.0
 14
0.5
 24
0.5
 15
0.5
 25
0.5
 16
0.0
 26
0.0
 36
1.0
 17
0.0
 27
0.0
 37
0.0
 40
17.3440264476195
 41
1.413793103448276
 42
50.0
 43
0.0
 44
0.0
 50
0.0
 51
0.0
 71
    16
 72
  2000
 73
     1
 74
     1
 75
     0
 76
     0
 77
     0
 78
     0
281
     0
 65
     0
110
0.0
120
0.0
130
0.0
111
1.0
121
0.0
131
0.0
112
0.0
122
1.0
132
0.0
 79
     0
146
0.0
  0
ENDTAB
  0
TABLE
  2
LTYPE
  5
5
330
0
100
AcDbSymbolTable
 70
     8
  0
LTYPE
  5
14
330
5
100
AcDbSymbolTableRecord
100
AcDbLinetypeTableRecord
  2
ByBlock
 70
     0
  3

 72
    65
 73
     0
 40
0.0
  0
LTYPE
  5
15
330
5
100
AcDbSymbolTableRecord
100
AcDbLinetypeTableRecord
  2
ByLayer
 70
     0
  3

 72
    65
 73
     0
 40
0.0
  0
LTYPE
  5
16
330
5
100
AcDbSymbolTableRecord
100
AcDbLinetypeTableRecord
  2
Continuous
 70
     0
  3
Solid line
 72
    65
 73
     0
 40
0.0
  0
LTYPE
  5
67D
330
5
100
AcDbSymbolTableRecord
100
AcDbLinetypeTableRecord
  2
SLD-Solid
 70
     0
  3
SolidWorks Line Style
 72
    65
 73
     0
 40
0.0
  0
LTYPE
  5
67E
330
5
100
AcDbSymbolTableRecord
100
AcDbLinetypeTableRecord
  2
SLD-Dashed
 70
     0
  3
SolidWorks Line Style
 72
    65
 73
     2
 40
0.075
 49
0.05
 74
     4
 75
     0
340
0
 46
1.0
 50
0.0
 44
0.0
 45
0.0
 49
-0.025
 74
     4
 75
     0
340
0
 46
1.0
 50
0.0
 44
0.0
 45
0.0
  0
LTYPE
  5
67F
330
5
100
AcDbSymbolTableRecord
100
AcDbLinetypeTableRecord
  2
SLD-Phantom
 70
     0
  3
SolidWorks Line Style
 72
    65
 73
     6
 40
0.4999999999999999
 49
0.25
 74
     4
 75
     0
340
0
 46
1.0
 50
0.0
 44
0.0
 45
0.0
 49
-0.05
 74
     4
 75
     0
340
0
 46
1.0
 50
0.0
 44
0.0
 45
0.0
 49
0.05
 74
     4
 75
     0
340
0
 46
1.0
 50
0.0
 44
0.0
 45
0.0
 49
-0.05
 74
     4
 75
     0
340
0
 46
1.0
 50
0.0
 44
0.0
 45
0.0
 49
0.05
 74
     4
 75
     0
340
0
 46
1.0
 50
0.0
 44
0.0
 45
0.0
 49
-0.05
 74
     4
 75
     0
340
0
 46
1.0
 50
0.0
 44
0.0
 45
0.0
  0
LTYPE
  5
680
330
5
100
AcDbSymbolTableRecord
100
AcDbLinetypeTableRecord
  2
SLD-Chain
 70
     0
  3
SolidWorks Line Style
 72
    65
 73
     4
 40
0.4
 49
0.25
 74
     4
 75
     0
340
0
 46
1.0
 50
0.0
 44
0.0
 45
0.0
 49
-0.05
 74
     4
 75
     0
340
0
 46
1.0
 50
0.0
 44
0.0
 45
0.0
 49
0.05
 74
     4
 75
     0
340
0
 46
1.0
 50
0.0
 44
0.0
 45
0.0
 49
-0.05
 74
     4
 75
     0
340
0
 46
1.0
 50
0.0
 44
0.0
 45
0.0
  0
LTYPE
  5
681
330
5
100
AcDbSymbolTableRecord
100
AcDbLinetypeTableRecord
  2
SLD-Center
 70
     0
  3
SolidWorks Line Style
 72
    65
 73
     4
 40
0.7500000000000002
 49
0.6000000000000001
 74
     4
 75
     0
340
0
 46
1.0
 50
0.0
 44
0.0
 45
0.0
 49
-0.05
 74
     4
 75
     0
340
0
 46
1.0
 50
0.0
 44
0.0
 45
0.0
 49
0.05
 74
     4
 75
     0
340
0
 46
1.0
 50
0.0
 44
0.0
 45
0.0
 49
-0.05
 74
     4
 75
     0
340
0
 46
1.0
 50
0.0
 44
0.0
 45
0.0
  0
LTYPE
  5
682
330
5
100
AcDbSymbolTableRecord
100
AcDbLinetypeTableRecord
  2
SLD-Stitch
 70
     0
  3
SolidWorks Line Style
 72
    65
 73
     2
 40
0.025
 49
0.0
 74
     4
 75
     0
340
0
 46
1.0
 50
0.0
 44
0.0
 45
0.0
 49
-0.025
 74
     4
 75
     0
340
0
 46
1.0
 50
0.0
 44
0.0
 45
0.0
  0
LTYPE
  5
683
330
5
100
AcDbSymbolTableRecord
100
AcDbLinetypeTableRecord
  2
SLD-Thin-Thick-Chain
 70
     0
  3
SolidWorks Line Style
 72
    65
 73
     4
 40
0.4
 49
0.25
 74
     4
 75
     0
340
0
 46
1.0
 50
0.0
 44
0.0
 45
0.0
 49
-0.05
 74
     4
 75
     0
340
0
 46
1.0
 50
0.0
 44
0.0
 45
0.0
 49
0.05
 74
     4
 75
     0
340
0
 46
1.0
 50
0.0
 44
0.0
 45
0.0
 49
-0.05
 74
     4
 75
     0
340
0
 46
1.0
 50
0.0
 44
0.0
 45
0.0
  0
ENDTAB
  0
TABLE
  2
LAYER
  5
2
330
0
100
AcDbSymbolTable
 70
     6
  0
LAYER
  5
10
330
2
100
AcDbSymbolTableRecord
100
AcDbLayerTableRecord
  2
0
 70
     0
 62
     7
  6
Continuous
370
    -3
390
F
  0
LAYER
  5
64F
330
2
100
AcDbSymbolTableRecord
100
AcDbLayerTableRecord
  2
FORMAT
 70
     0
 62
     7
  6
SLD-Solid
370
    -3
390
F
  0
LAYER
  5
650
330
2
100
AcDbSymbolTableRecord
100
AcDbLayerTableRecord
  2
NOTES
 70
     0
 62
     1
  6
SLD-Solid
370
    -3
390
F
  0
LAYER
  5
77
330
2
100
AcDbSymbolTableRecord
100
AcDbLayerTableRecord
  2
OBJECT
 70
     0
 62
     7
  6
SLD-Solid
370
    -3
390
F
  0
LAYER
  5
78
330
2
100
AcDbSymbolTableRecord
100
AcDbLayerTableRecord
  2
DIMS
 70
     0
 62
     5
  6
SLD-Solid
370
    -3
390
F
  0
LAYER
  5
79
330
2
100
AcDbSymbolTableRecord
100
AcDbLayerTableRecord
  2
TITLE
 70
     0
 62
     8
  6
SLD-Solid
370
    -3
390
F
  0
ENDTAB
  0
TABLE
  2
STYLE
  5
3
330
0
100
AcDbSymbolTable
 70
     5
  0
STYLE
  5
11
330
3
100
AcDbSymbolTableRecord
100
AcDbTextStyleTableRecord
  2
Standard
 70
     0
 40
0.0
 41
1.0
 50
0.0
 71
     0
 42
0.3333333333333333
  3
GOTHIC.TTF
  4

1001
ACAD
1000
CENTURY GOTHIC
1071
       34
  0
STYLE
  5
85
330
3
100
AcDbSymbolTableRecord
100
AcDbTextStyleTableRecord
  2
SLDTEXTSTYLE0
 70
     0
 40
0.0
 41
0.913
 50
0.0
 71
     0
 42
0.3333333333333333
  3
GOTHIC.TTF
  4

1001
ACAD
1000
Century Gothic
1071
      290
  0
STYLE
  5
8A
330
3
100
AcDbSymbolTableRecord
100
AcDbTextStyleTableRecord
  2
SLDTEXTSTYLE1
 70
     0
 40
0.0
 41
0.948
 50
0.0
 71
     0
 42
0.3333333333333333
  3
ARIAL.TTF
  4

1001
ACAD
1000
Arial
1071
      290
  0
STYLE
  5
9C
330
3
100
AcDbSymbolTableRecord
100
AcDbTextStyleTableRecord
  2
SLDTEXTSTYLE2
 70
     0
 40
0.0
 41
0.87
 50
0.0
 71
     0
 42
0.3333333333333333
  3
ARIALNB.TTF
  4

1001
ACAD
1000
Arial Narrow
1071
 33554722
  0
STYLE
  5
9E
330
3
100
AcDbSymbolTableRecord
100
AcDbTextStyleTableRecord
  2
SLDTEXTSTYLE3
 70
     0
 40
0.0
 41
0.87
 50
0.0
 71
     0
 42
0.3333333333333333
  3
ARIALN.TTF
  4

1001
ACAD
1000
Arial Narrow
1071
      290
  0
ENDTAB
  0
TABLE
  2
VIEW
  5
6
330
0
100
AcDbSymbolTable
 70
     0
  0
ENDTAB
  0
TABLE
  2
UCS
  5
7
330
0
100
AcDbSymbolTable
 70
     0
  0
ENDTAB
  0
TABLE
  2
APPID
  5
9
330
0
100
AcDbSymbolTable
 70
     1
  0
APPID
  5
12
330
9
100
AcDbSymbolTableRecord
100
AcDbRegAppTableRecord
  2
ACAD
 70
     0
  0
ENDTAB
  0
TABLE
  2
DIMSTYLE
  5
A
330
0
100
AcDbSymbolTable
 70
     6
100
AcDbDimStyleTable
  0
DIMSTYLE
105
27
330
A
100
AcDbSymbolTableRecord
100
AcDbDimStyleTableRecord
  2
Standard
 70
     0
340
11
  0
DIMSTYLE
105
178
102
{ACAD_REACTORS
330
177
330
50C
330
51B
330
52A
330
622
330
631
102
}
330
A
100
AcDbSymbolTableRecord
100
AcDbDimStyleTableRecord
  2
SLDDIMSTYLE0
 70
     0
 41
0.3
 44
0.0
 45
0.000000001
 78
    12
 79
     3
140
0.25
147
0.0625
173
     1
271
     6
272
     2
276
     2
277
     5
284
    12
340
85
341
684
343
684
344
684
  0
DIMSTYLE
105
18E
330
A
100
AcDbSymbolTableRecord
100
AcDbDimStyleTableRecord
  2
SLDDIMSTYLE1
 70
     0
 41
0.3
 44
0.0
 45
0.000000001
146
0.3
147
0.0
173
     1
271
     0
272
     0
276
     2
277
     5
340
11
341
684
343
684
344
684
  0
DIMSTYLE
105
4E9
102
{ACAD_REACTORS
330
4E8
330
539
102
}
330
A
100
AcDbSymbolTableRecord
100
AcDbDimStyleTableRecord
  2
SLDDIMSTYLE2
 70
     0
 41
0.3
 44
0.0
 45
0.000000001
 78
    12
 79
     3
140
0.25
141
0.0
147
0.0625
173
     1
271
     2
272
     2
276
     2
277
     5
284
    12
340
85
341
684
343
684
344
684
  0
DIMSTYLE
105
4F6
102
{ACAD_REACTORS
330
4F5
330
501
330
545
102
}
330
A
100
AcDbSymbolTableRecord
100
AcDbDimStyleTableRecord
  2
SLDDIMSTYLE3
 70
     0
 41
0.3
 44
0.0
 45
0.000000001
 78
    12
 79
     3
140
0.25
147
0.0625
173
     1
271
     2
272
     2
276
     2
277
     5
284
    12
340
85
341
684
343
684
344
684
  0
DIMSTYLE
105
551
102
{ACAD_REACTORS
330
550
102
}
330
A
100
AcDbSymbolTableRecord
100
AcDbDimStyleTableRecord
  2
SLDDIMSTYLE4
 70
     0
 41
0.3
 44
0.0
 45
0.000000001
 78
    12
 79
     3
140
0.25
147
0.0625
172
     1
173
     1
271
     6
272
     2
276
     2
277
     5
284
    12
289
     0
340
85
341
684
343
684
344
684
  0
ENDTAB
  0
TABLE
  2
BLOCK_RECORD
  5
1
330
0
100
AcDbSymbolTable
 70
    16
  0
BLOCK_RECORD
  5
1F
330
1
100
AcDbSymbolTableRecord
100
AcDbBlockTableRecord
  2
*Model_Space
340
22
  0
BLOCK_RECORD
  5
73
330
1
100
AcDbSymbolTableRecord
100
AcDbBlockTableRecord
  2
*Paper_Space
340
74
  0
BLOCK_RECORD
  5
684
330
1
100
AcDbSymbolTableRecord
100
AcDbBlockTableRecord
  2
_Open90
340
0
102
{BLKREFS
331
182
331
183
331
4ED
331
4FA
331
4FB
331
505
331
506
331
510
331
511
331
51F
331
520
331
52E
331
52F
331
53D
331
549
331
54A
331
555
331
556
331
626
331
627
331
635
331
636
102
}
  0
BLOCK_RECORD
  5
23
330
1
100
AcDbSymbolTableRecord
100
AcDbBlockTableRecord
  2
*Paper_Space1
340
26
  0
BLOCK_RECORD
  5
65C
330
1
100
AcDbSymbolTableRecord
100
AcDbBlockTableRecord
  2
SW_NOTE_0
340
0
  0
BLOCK_RECORD
  5
99
330
1
100
AcDbSymbolTableRecord
100
AcDbBlockTableRecord
  2
SW_NOTE_0_1
340
0
102
{BLKREFS
331
A2
102
}
  0
BLOCK_RECORD
  5
17F
330
1
100
AcDbSymbolTableRecord
100
AcDbBlockTableRecord
  2
_D
340
0
  0
BLOCK_RECORD
  5
4EA
330
1
100
AcDbSymbolTableRecord
100
AcDbBlockTableRecord
  2
_D_1
340
0
  0
BLOCK_RECORD
  5
4F7
330
1
100
AcDbSymbolTableRecord
100
AcDbBlockTableRecord
  2
_D_2
340
0
  0
BLOCK_RECORD
  5
502
330
1
100
AcDbSymbolTableRecord
100
AcDbBlockTableRecord
  2
_D_3
340
0
  0
BLOCK_RECORD
  5
50D
330
1
100
AcDbSymbolTableRecord
100
AcDbBlockTableRecord
  2
_D_4
340
0
  0
BLOCK_RECORD
  5
51C
330
1
100
AcDbSymbolTableRecord
100
AcDbBlockTableRecord
  2
_D_5
340
0
  0
BLOCK_RECORD
  5
52B
330
1
100
AcDbSymbolTableRecord
100
AcDbBlockTableRecord
  2
_D_6
340
0
  0
BLOCK_RECORD
  5
53A
330
1
100
AcDbSymbolTableRecord
100
AcDbBlockTableRecord
  2
_D_7
340
0
  0
BLOCK_RECORD
  5
546
330
1
100
AcDbSymbolTableRecord
100
AcDbBlockTableRecord
  2
_D_8
340
0
  0
BLOCK_RECORD
  5
552
330
1
100
AcDbSymbolTableRecord
100
AcDbBlockTableRecord
  2
_D_9
340
0
  0
BLOCK_RECORD
  5
623
330
1
100
AcDbSymbolTableRecord
100
AcDbBlockTableRecord
  2
_D_10
340
0
  0
BLOCK_RECORD
  5
632
330
1
100
AcDbSymbolTableRecord
100
AcDbBlockTableRecord
  2
_D_11
340
0
  0
ENDTAB
  0
ENDSEC
  0
SECTION
  2
BLOCKS
  0
BLOCK
  5
20
330
1F
100
AcDbEntity
  8
0
100
AcDbBlockBegin
  2
*Model_Space
 70
     0
 71
     0
 10
0.0
 20
0.0
 30
0.0
  3
*Model_Space
  1

  0
ENDBLK
  5
21
330
1F
100
AcDbEntity
  8
0
100
AcDbBlockEnd
  0
BLOCK
  5
75
330
73
100
AcDbEntity
 67
     1
  8
0
100
AcDbBlockBegin
  2
*Paper_Space
 70
     0
 71
     0
 10
0.0
 20
0.0
 30
0.0
  3
*Paper_Space
  1

  0
ENDBLK
  5
76
330
73
100
AcDbEntity
 67
     1
  8
0
100
AcDbBlockEnd
  0
BLOCK
  5
685
330
684
100
AcDbEntity
  8
0
100
AcDbBlockBegin
  2
_Open90
 70
     0
 71
     0
 10
0.0
 20
0.0
 30
0.0
  3
_Open90
  1

  0
LINE
  5
17C
330
684
100
AcDbEntity
  8
0
  6
ByBlock
 62
     0
370
    -2
100
AcDbLine
 10
-0.5
 20
0.5
 30
0.0
 11
0.0
 21
0.0
 31
0.0
  0
LINE
  5
17D
330
684
100
AcDbEntity
  8
0
  6
ByBlock
 62
     0
370
    -2
100
AcDbLine
 10
0.0
 20
0.0
 30
0.0
 11
-0.5
 21
-0.5
 31
0.0
  0
LINE
  5
17E
330
684
100
AcDbEntity
  8
0
  6
ByBlock
 62
     0
370
    -2
100
AcDbLine
 10
0.0
 20
0.0
 30
0.0
 11
-1.0
 21
0.0
 31
0.0
  0
ENDBLK
  5
686
330
684
100
AcDbEntity
  8
0
100
AcDbBlockEnd
  0
BLOCK
  5
68C
330
23
100
AcDbEntity
  8
0
100
AcDbBlockBegin
  2
*Paper_Space1
 70
     0
 71
     0
 10
0.0
 20
0.0
 30
0.0
  3
*Paper_Space1
  1

  0
ENDBLK
  5
68D
330
23
100
AcDbEntity
  8
0
100
AcDbBlockEnd
  0
BLOCK
  5
68E
330
65C
100
AcDbEntity
  8
0
100
AcDbBlockBegin
  2
SW_NOTE_0
 70
     0
 71
     0
 10
0.0
 20
0.0
 30
0.0
  3
SW_NOTE_0
  1

  0
MTEXT
  5
96
330
65C
100
AcDbEntity
  8
NOTES
 62
     0
100
AcDbMText
 10
0.0
 20
0.3759780907668229
 30
0.0
 40
0.2916666666666666
 41
0.0
 71
     1
 72
     1
  1
FROST PRODUCTS LTD.
  7
SLDTEXTSTYLE1
 73
     1
 44
1.0
  0
MTEXT
  5
679
330
65C
100
AcDbEntity
  8
NOTES
 62
     0
100
AcDbMText
 10
0.0
 20
-0.0495142708586375
 30
0.0
 40
0.2291666666666666
 41
0.0
 71
     1
 72
     1
  1
5280 JOHN LUCUS DRIVE, BURLINGTON, ON, L7L 5Z9
  7
SLDTEXTSTYLE1
 73
     1
 44
1.0
  0
ENDBLK
  5
68F
330
65C
100
AcDbEntity
  8
0
100
AcDbBlockEnd
  0
BLOCK
  5
690
330
99
100
AcDbEntity
  8
0
100
AcDbBlockBegin
  2
SW_NOTE_0_1
 70
     0
 71
     0
 10
0.0
 20
0.0
 30
0.0
  3
SW_NOTE_0_1
  1

  0
MTEXT
  5
9D
330
99
100
AcDbEntity
  8
NOTES
 62
     0
100
AcDbMText
 10
0.0
 20
0.2381282770514712
 30
0.0
 40
0.1847290640394089
 41
0.0
 71
     1
 72
     1
  1
PROPRIETARY AND CONFIDENTIAL
  7
SLDTEXTSTYLE2
 73
     1
 44
1.0
  0
MTEXT
  5
9F
330
99
100
AcDbEntity
  8
NOTES
 62
     0
100
AcDbMText
 10
0.0
 20
-0.0504364795553608
 30
0.0
 40
0.25
 41
0.0
 71
     1
 72
     1
  1
THE INFORMATION CONTAINED IN THIS DRAWING IS THE SOLE PROPERTY OF 
  7
SLDTEXTSTYLE3
 73
     1
 44
1.0
  0
MTEXT
  5
A0
330
99
100
AcDbEntity
  8
NOTES
 62
     0
100
AcDbMText
 10
0.0
 20
-0.4231398940537119
 30
0.0
 40
0.25
 41
0.0
 71
     1
 72
     1
  1
FROST PRODUCTS LTD.  ANY REPRODUCTION IN PART OR AS A WHOLE WITHOUT 
  7
SLDTEXTSTYLE3
 73
     1
 44
1.0
  0
MTEXT
  5
A1
330
99
100
AcDbEntity
  8
NOTES
 62
     0
100
AcDbMText
 10
0.0
 20
-0.7958433085520636
 30
0.0
 40
0.25
 41
0.0
 71
     1
 72
     1
  1
THE WRITTEN PERMISSION OF FROST PRODUCTS LTD. IS PROHIBITED.
  7
SLDTEXTSTYLE3
 73
     1
 44
1.0
  0
ENDBLK
  5
691
330
99
100
AcDbEntity
  8
0
100
AcDbBlockEnd
  0
BLOCK
  5
692
330
17F
100
AcDbEntity
  8
0
100
AcDbBlockBegin
  2
_D
 70
     0
 71
     0
 10
0.0
 20
0.0
 30
0.0
  3
_D
  1

  0
INSERT
  5
182
330
17F
100
AcDbEntity
  8
DIMS
100
AcDbBlockReference
  2
_Open90
 10
1.771022401892175
 20
8.3557769633089
 30
-13.71904126003534
 41
0.3
 42
0.3
 50
270.0000000000004
  0
INSERT
  5
183
330
17F
100
AcDbEntity
  8
DIMS
100
AcDbBlockReference
  2
_Open90
 10
1.77102240189217
 20
22.7295029016324
 30
-13.71904126003534
 41
0.3
 42
0.3
 50
90.00000000000043
  0
LINE
  5
184
330
17F
100
AcDbEntity
  8
DIMS
100
AcDbLine
 10
1.774957624765475
 20
15.75308716441124
 30
0.0
 11
2.033290960476737
 21
15.75308716441124
 31
0.0
  0
LINE
  5
185
330
17F
100
AcDbEntity
  8
DIMS
100
AcDbLine
 10
2.831022401894496
 20
8.3557769633089
 30
0.0
 11
1.571022401892175
 21
8.3557769633089
 31
0.0
  0
LINE
  5
186
330
17F
100
AcDbEntity
  8
DIMS
100
AcDbLine
 10
2.790662537172157
 20
22.7295029016324
 30
0.0
 11
1.57102240189217
 21
22.7295029016324
 31
0.0
  0
LINE
  5
187
330
17F
100
AcDbEntity
  8
DIMS
100
AcDbLine
 10
1.771022401892175
 20
8.3557769633089
 30
0.0
 11
1.771022401892172
 21
15.39030938441768
 31
0.0
  0
LINE
  5
188
330
17F
100
AcDbEntity
  8
DIMS
100
AcDbLine
 10
1.77102240189217
 20
22.7295029016324
 30
0.0
 11
1.771022401892172
 21
16.06433715799132
 31
0.0
  0
MTEXT
  5
189
330
17F
100
AcDbEntity
  8
DIMS
100
AcDbMText
 10
1.368707622800165
 20
15.8615897566427
 30
0.0
 40
0.25
 41
0.0
 71
     1
 72
     1
  1
14
  7
SLDTEXTSTYLE0
 73
     1
 44
1.0
  0
MTEXT
  5
18A
330
17F
100
AcDbEntity
  8
DIMS
100
AcDbMText
 10
1.811763181251213
 20
16.05033976618648
 30
0.0
 40
0.25
 41
0.0
 71
     1
 72
     1
  1
3
  7
SLDTEXTSTYLE0
 73
     1
 44
1.0
  0
MTEXT
  5
18B
330
17F
100
AcDbEntity
  8
DIMS
100
AcDbMText
 10
1.811763181251213
 20
15.70964532535523
 30
0.0
 40
0.25
 41
0.0
 71
     1
 72
     1
  1
8
  7
SLDTEXTSTYLE0
 73
     1
 44
1.0
  0
MTEXT
  5
18C
330
17F
100
AcDbEntity
  8
DIMS
100
AcDbMText
 10
2.070096480296231
 20
15.8615897566427
 30
0.0
 40
0.25
 41
0.0
 71
     1
 72
     1
  1
"
  7
SLDTEXTSTYLE0
 73
     1
 44
1.0
  0
ENDBLK
  5
693
330
17F
100
AcDbEntity
  8
0
100
AcDbBlockEnd
  0
BLOCK
  5
694
330
4EA
100
AcDbEntity
  8
0
100
AcDbBlockBegin
  2
_D_1
 70
     0
 71
     0
 10
0.0
 20
0.0
 30
0.0
  3
_D_1
  1

  0
INSERT
  5
4ED
330
4EA
100
AcDbEntity
  8
DIMS
100
AcDbBlockReference
  2
_Open90
 10
28.00625676917523
 20
20.31406094466938
 30
-0.0000000000002236
 41
0.3
 42
0.3
 50
255.0000000000006
  0
LINE
  5
4EE
330
4EA
100
AcDbEntity
  8
DIMS
100
AcDbLine
 10
29.48646094048891
 20
23.3853182019921
 30
0.0
 11
29.92951649893996
 21
23.3853182019921
 31
0.0
  0
LINE
  5
4EF
330
4EA
100
AcDbEntity
  8
DIMS
100
AcDbLine
 10
28.00625676917523
 20
20.31406094466938
 30
0.0
 11
28.82229425664445
 21
23.35955430878546
 31
0.0
  0
LINE
  5
4F0
330
4EA
100
AcDbEntity
  8
DIMS
100
AcDbLine
 10
28.82229425664445
 20
23.35955430878546
 30
0.0
 11
29.07229425664445
 21
23.35955430878546
 31
0.0
  0
MTEXT
  5
4F1
330
4EA
100
AcDbEntity
  8
DIMS
100
AcDbMText
 10
29.07229425664445
 20
23.49382079422356
 30
0.0
 40
0.25
 41
0.0
 71
     1
 72
     1
  1
%%c
  7
SLDTEXTSTYLE0
 73
     1
 44
1.0
  0
MTEXT
  5
4F2
330
4EA
100
AcDbEntity
  8
DIMS
100
AcDbMText
 10
29.61562760834454
 20
23.68257080376734
 30
0.0
 40
0.25
 41
0.0
 71
     1
 72
     1
  1
5
  7
SLDTEXTSTYLE0
 73
     1
 44
1.0
  0
MTEXT
  5
4F3
330
4EA
100
AcDbEntity
  8
DIMS
100
AcDbMText
 10
29.52326649697465
 20
23.34187636293609
 30
0.0
 40
0.25
 41
0.0
 71
     1
 72
     1
  1
16
  7
SLDTEXTSTYLE0
 73
     1
 44
1.0
  0
MTEXT
  5
4F4
330
4EA
100
AcDbEntity
  8
DIMS
100
AcDbMText
 10
29.9663220554257
 20
23.49382079422356
 30
0.0
 40
0.25
 41
0.0
 71
     1
 72
     1
  1
"
  7
SLDTEXTSTYLE0
 73
     1
 44
1.0
  0
ENDBLK
  5
695
330
4EA
100
AcDbEntity
  8
0
100
AcDbBlockEnd
  0
BLOCK
  5
696
330
4F7
100
AcDbEntity
  8
0
100
AcDbBlockBegin
  2
_D_2
 70
     0
 71
     0
 10
0.0
 20
0.0
 30
0.0
  3
_D_2
  1

  0
INSERT
  5
4FA
330
4F7
100
AcDbEntity
  8
DIMS
100
AcDbBlockReference
  2
_Open90
 10
30.49970792668559
 20
20.15951281246312
 30
0.0
 41
0.3
 42
0.3
 50
90.00000000000041
  0
INSERT
  5
4FB
330
4F7
100
AcDbEntity
  8
DIMS
100
AcDbBlockReference
  2
_Open90
 10
30.49970792668559
 20
10.15951281246312
 30
0.0
 41
0.3
 42
0.3
 50
270.0000000000004
  0
LINE
  5
4FC
330
4F7
100
AcDbEntity
  8
DIMS
100
AcDbLine
 10
28.16484572195882
 20
20.15951281246312
 30
0.0
 11
30.69970792668559
 21
20.15951281246312
 31
0.0
  0
LINE
  5
4FD
330
4F7
100
AcDbEntity
  8
DIMS
100
AcDbLine
 10
28.16484572195884
 20
10.15951281246312
 30
0.0
 11
30.69970792668559
 21
10.15951281246312
 31
0.0
  0
LINE
  5
4FE
330
4F7
100
AcDbEntity
  8
DIMS
100
AcDbLine
 10
30.49970792668559
 20
20.15951281246312
 30
0.0
 11
30.49970792668559
 21
15.35812391475748
 31
0.0
  0
LINE
  5
4FF
330
4F7
100
AcDbEntity
  8
DIMS
100
AcDbLine
 10
30.49970792668559
 20
10.15951281246312
 30
0.0
 11
30.49970792668559
 21
14.96090171016895
 31
0.0
  0
MTEXT
  5
500
330
4F7
100
AcDbEntity
  8
DIMS
100
AcDbMText
 10
30.26336533526871
 20
15.28023761100271
 30
0.0
 40
0.25
 41
0.0
 71
     1
 72
     1
  1
10"
  7
SLDTEXTSTYLE0
 73
     1
 44
1.0
  0
ENDBLK
  5
697
330
4F7
100
AcDbEntity
  8
0
100
AcDbBlockEnd
  0
BLOCK
  5
698
330
502
100
AcDbEntity
  8
0
100
AcDbBlockBegin
  2
_D_3
 70
     0
 71
     0
 10
0.0
 20
0.0
 30
0.0
  3
_D_3
  1

  0
INSERT
  5
505
330
502
100
AcDbEntity
  8
DIMS
100
AcDbBlockReference
  2
_Open90
 10
22.96484572195882
 20
23.73101489419874
 30
13.71904126003531
 41
0.3
 42
0.3
 50
180.0000000000005
  0
INSERT
  5
506
330
502
100
AcDbEntity
  8
DIMS
100
AcDbBlockReference
  2
_Open90
 10
27.96484572195882
 20
23.73101489419875
 30
13.71904126003531
 41
0.3
 42
0.3
 50
0.0000000000005089
  0
LINE
  5
507
330
502
100
AcDbEntity
  8
DIMS
100
AcDbLine
 10
22.96484572195882
 20
20.85951281246311
 30
0.0
 11
22.96484572195882
 21
23.93101489419874
 31
0.0
  0
LINE
  5
508
330
502
100
AcDbEntity
  8
DIMS
100
AcDbLine
 10
27.96484572195882
 20
20.85951281246312
 30
0.0
 11
27.96484572195882
 21
23.93101489419875
 31
0.0
  0
LINE
  5
509
330
502
100
AcDbEntity
  8
DIMS
100
AcDbLine
 10
22.96484572195882
 20
23.73101489419874
 30
0.0
 11
25.32086424191182
 21
23.73101489419875
 31
0.0
  0
LINE
  5
50A
330
502
100
AcDbEntity
  8
DIMS
100
AcDbLine
 10
27.96484572195882
 20
23.73101489419875
 30
0.0
 11
25.60882720200579
 21
23.73101489419875
 31
0.0
  0
MTEXT
  5
50B
330
502
100
AcDbEntity
  8
DIMS
100
AcDbMText
 10
25.32086424191182
 20
23.85173969273824
 30
0.0
 40
0.25
 41
0.0
 71
     1
 72
     1
  1
5"
  7
SLDTEXTSTYLE0
 73
     1
 44
1.0
  0
ENDBLK
  5
699
330
502
100
AcDbEntity
  8
0
100
AcDbBlockEnd
  0
BLOCK
  5
69A
330
50D
100
AcDbEntity
  8
0
100
AcDbBlockBegin
  2
_D_4
 70
     0
 71
     0
 10
0.0
 20
0.0
 30
0.0
  3
_D_4
  1

  0
INSERT
  5
510
330
50D
100
AcDbEntity
  8
DIMS
100
AcDbBlockReference
  2
_Open90
 10
30.4997079266856
 20
10.15951281246311
 30
13.71904126003531
 41
0.3
 42
0.3
 50
90.0000000000003
  0
INSERT
  5
511
330
50D
100
AcDbEntity
  8
DIMS
100
AcDbBlockReference
  2
_Open90
 10
30.4997079266856
 20
8.355776963308895
 30
13.71904126003531
 41
0.3
 42
0.3
 50
270.0000000000003
  0
LINE
  5
512
330
50D
100
AcDbEntity
  8
DIMS
100
AcDbLine
 10
30.31892092681912
 20
9.50563515842827
 30
0.0
 11
30.76197648527017
 21
9.50563515842827
 31
0.0
  0
LINE
  5
513
330
50D
100
AcDbEntity
  8
DIMS
100
AcDbLine
 10
28.5810999066358
 20
10.15951281246311
 30
0.0
 11
30.6997079266856
 21
10.15951281246311
 31
0.0
  0
LINE
  5
514
330
50D
100
AcDbEntity
  8
DIMS
100
AcDbLine
 10
29.47734572195886
 20
8.355776963308896
 30
0.0
 11
30.6997079266856
 21
8.355776963308895
 31
0.0
  0
LINE
  5
515
330
50D
100
AcDbEntity
  8
DIMS
100
AcDbLine
 10
30.4997079266856
 20
10.15951281246311
 30
0.0
 11
30.4997079266856
 21
9.816885152008547
 31
0.0
  0
LINE
  5
516
330
50D
100
AcDbEntity
  8
DIMS
100
AcDbLine
 10
30.4997079266856
 20
8.355776963308895
 30
0.0
 11
30.4997079266856
 21
9.142857378434902
 31
0.0
  0
MTEXT
  5
517
330
50D
100
AcDbEntity
  8
DIMS
100
AcDbMText
 10
30.09739314759359
 20
9.614137750659733
 30
0.0
 40
0.25
 41
0.0
 71
     1
 72
     1
  1
1
  7
SLDTEXTSTYLE0
 73
     1
 44
1.0
  0
MTEXT
  5
518
330
50D
100
AcDbEntity
  8
DIMS
100
AcDbMText
 10
30.35572648330486
 20
9.802887760203516
 30
0.0
 40
0.25
 41
0.0
 71
     1
 72
     1
  1
13
  7
SLDTEXTSTYLE0
 73
     1
 44
1.0
  0
MTEXT
  5
519
330
50D
100
AcDbEntity
  8
DIMS
100
AcDbMText
 10
30.35572648330486
 20
9.462193319372268
 30
0.0
 40
0.25
 41
0.0
 71
     1
 72
     1
  1
16
  7
SLDTEXTSTYLE0
 73
     1
 44
1.0
  0
MTEXT
  5
51A
330
50D
100
AcDbEntity
  8
DIMS
100
AcDbMText
 10
30.79878200508966
 20
9.614137750659733
 30
0.0
 40
0.25
 41
0.0
 71
     1
 72
     1
  1
"
  7
SLDTEXTSTYLE0
 73
     1
 44
1.0
  0
ENDBLK
  5
69B
330
50D
100
AcDbEntity
  8
0
100
AcDbBlockEnd
  0
BLOCK
  5
69C
330
51C
100
AcDbEntity
  8
0
100
AcDbBlockBegin
  2
_D_5
 70
     0
 71
     0
 10
0.0
 20
0.0
 30
0.0
  3
_D_5
  1

  0
INSERT
  5
51F
330
51C
100
AcDbEntity
  8
DIMS
100
AcDbBlockReference
  2
_Open90
 10
30.4997079266856
 20
20.15951281246312
 30
13.71904126003531
 41
0.3
 42
0.3
 50
270.0000000000004
  0
INSERT
  5
520
330
51C
100
AcDbEntity
  8
DIMS
100
AcDbBlockReference
  2
_Open90
 10
30.4997079266856
 20
22.72950290163245
 30
13.71904126003531
 41
0.3
 42
0.3
 50
90.00000000000037
  0
LINE
  5
521
330
51C
100
AcDbEntity
  8
DIMS
100
AcDbLine
 10
30.31892092681912
 20
21.32067071680241
 30
0.0
 11
30.76197648527017
 21
21.32067071680241
 31
0.0
  0
LINE
  5
522
330
51C
100
AcDbEntity
  8
DIMS
100
AcDbLine
 10
28.32484572195882
 20
20.15951281246312
 30
0.0
 11
30.6997079266856
 21
20.15951281246312
 31
0.0
  0
LINE
  5
523
330
51C
100
AcDbEntity
  8
DIMS
100
AcDbLine
 10
29.21987520833025
 20
22.72950290163245
 30
0.0
 11
30.6997079266856
 21
22.72950290163245
 31
0.0
  0
LINE
  5
524
330
51C
100
AcDbEntity
  8
DIMS
100
AcDbLine
 10
30.4997079266856
 20
20.15951281246312
 30
0.0
 11
30.4997079266856
 21
20.95789293680905
 31
0.0
  0
LINE
  5
525
330
51C
100
AcDbEntity
  8
DIMS
100
AcDbLine
 10
30.4997079266856
 20
22.72950290163245
 30
0.0
 11
30.4997079266856
 21
21.63192071038269
 31
0.0
  0
MTEXT
  5
526
330
51C
100
AcDbEntity
  8
DIMS
100
AcDbMText
 10
30.09739314759359
 20
21.42917330903387
 30
0.0
 40
0.25
 41
0.0
 71
     1
 72
     1
  1
2
  7
SLDTEXTSTYLE0
 73
     1
 44
1.0
  0
MTEXT
  5
527
330
51C
100
AcDbEntity
  8
DIMS
100
AcDbMText
 10
30.44808759467475
 20
21.61792331857765
 30
0.0
 40
0.25
 41
0.0
 71
     1
 72
     1
  1
9
  7
SLDTEXTSTYLE0
 73
     1
 44
1.0
  0
MTEXT
  5
528
330
51C
100
AcDbEntity
  8
DIMS
100
AcDbMText
 10
30.35572648330486
 20
21.27722887774641
 30
0.0
 40
0.25
 41
0.0
 71
     1
 72
     1
  1
16
  7
SLDTEXTSTYLE0
 73
     1
 44
1.0
  0
MTEXT
  5
529
330
51C
100
AcDbEntity
  8
DIMS
100
AcDbMText
 10
30.79878200508966
 20
21.42917330903387
 30
0.0
 40
0.25
 41
0.0
 71
     1
 72
     1
  1
"
  7
SLDTEXTSTYLE0
 73
     1
 44
1.0
  0
ENDBLK
  5
69D
330
51C
100
AcDbEntity
  8
0
100
AcDbBlockEnd
  0
BLOCK
  5
69E
330
52B
100
AcDbEntity
  8
0
100
AcDbBlockBegin
  2
_D_6
 70
     0
 71
     0
 10
0.0
 20
0.0
 30
0.0
  3
_D_6
  1

  0
INSERT
  5
52E
330
52B
100
AcDbEntity
  8
DIMS
100
AcDbBlockReference
  2
_Open90
 10
20.66620398967298
 20
22.72950290163245
 30
13.71904126003531
 41
0.3
 42
0.3
 50
90.00000000000037
  0
INSERT
  5
52F
330
52B
100
AcDbEntity
  8
DIMS
100
AcDbBlockReference
  2
_Open90
 10
20.66620398967298
 20
20.65951281246311
 30
13.71904126003531
 41
0.3
 42
0.3
 50
270.0000000000004
  0
LINE
  5
530
330
52B
100
AcDbEntity
  8
DIMS
100
AcDbLine
 10
20.4854169898065
 20
21.66702302646748
 30
0.0
 11
20.92847254825755
 21
21.66702302646748
 31
0.0
  0
LINE
  5
531
330
52B
100
AcDbEntity
  8
DIMS
100
AcDbLine
 10
21.70981623558744
 20
22.72950290163245
 30
0.0
 11
20.46620398967298
 21
22.72950290163245
 31
0.0
  0
LINE
  5
532
330
52B
100
AcDbEntity
  8
DIMS
100
AcDbLine
 10
22.76484572195882
 20
20.65951281246311
 30
0.0
 11
20.46620398967298
 21
20.65951281246311
 31
0.0
  0
LINE
  5
533
330
52B
100
AcDbEntity
  8
DIMS
100
AcDbLine
 10
20.66620398967298
 20
22.72950290163245
 30
0.0
 11
20.66620398967298
 21
21.97827302004776
 31
0.0
  0
LINE
  5
534
330
52B
100
AcDbEntity
  8
DIMS
100
AcDbLine
 10
20.66620398967298
 20
20.65951281246311
 30
0.0
 11
20.66620398967298
 21
21.30424524647411
 31
0.0
  0
MTEXT
  5
535
330
52B
100
AcDbEntity
  8
DIMS
100
AcDbMText
 10
20.26388921058097
 20
21.77552561869894
 30
0.0
 40
0.25
 41
0.0
 71
     1
 72
     1
  1
2
  7
SLDTEXTSTYLE0
 73
     1
 44
1.0
  0
MTEXT
  5
536
330
52B
100
AcDbEntity
  8
DIMS
100
AcDbMText
 10
20.61458365766213
 20
21.96427562824272
 30
0.0
 40
0.25
 41
0.0
 71
     1
 72
     1
  1
1
  7
SLDTEXTSTYLE0
 73
     1
 44
1.0
  0
MTEXT
  5
537
330
52B
100
AcDbEntity
  8
DIMS
100
AcDbMText
 10
20.52222254629224
 20
21.62358118741147
 30
0.0
 40
0.25
 41
0.0
 71
     1
 72
     1
  1
16
  7
SLDTEXTSTYLE0
 73
     1
 44
1.0
  0
MTEXT
  5
538
330
52B
100
AcDbEntity
  8
DIMS
100
AcDbMText
 10
20.96527806807704
 20
21.77552561869894
 30
0.0
 40
0.25
 41
0.0
 71
     1
 72
     1
  1
"
  7
SLDTEXTSTYLE0
 73
     1
 44
1.0
  0
ENDBLK
  5
69F
330
52B
100
AcDbEntity
  8
0
100
AcDbBlockEnd
  0
BLOCK
  5
6A0
330
53A
100
AcDbEntity
  8
0
100
AcDbBlockBegin
  2
_D_7
 70
     0
 71
     0
 10
0.0
 20
0.0
 30
0.0
  3
_D_7
  1

  0
INSERT
  5
53D
330
53A
100
AcDbEntity
  8
DIMS
100
AcDbBlockReference
  2
_Open90
 10
22.92809152137934
 20
20.7525135046098
 30
13.71904126003531
 41
0.3
 42
0.3
 50
291.564106059947
  0
LINE
  5
53E
330
53A
100
AcDbEntity
  8
DIMS
100
AcDbLine
 10
21.06467793877988
 20
23.38531820199218
 30
0.0
 11
21.50773349723093
 21
23.38531820199218
 31
0.0
  0
LINE
  5
53F
330
53A
100
AcDbEntity
  8
DIMS
100
AcDbLine
 10
22.92809152137934
 20
20.7525135046098
 30
0.0
 11
21.8977798277371
 21
23.35955430878554
 31
0.0
  0
LINE
  5
540
330
53A
100
AcDbEntity
  8
DIMS
100
AcDbLine
 10
21.8977798277371
 20
23.35955430878554
 30
0.0
 11
21.6477798277371
 21
23.35955430878554
 31
0.0
  0
MTEXT
  5
541
330
53A
100
AcDbEntity
  8
DIMS
100
AcDbMText
 10
20.65051125493542
 20
23.49382079422365
 30
0.0
 40
0.25
 41
0.0
 71
     1
 72
     1
  1
%%c
  7
SLDTEXTSTYLE0
 73
     1
 44
1.0
  0
MTEXT
  5
542
330
53A
100
AcDbEntity
  8
DIMS
100
AcDbMText
 10
21.19384460663551
 20
23.68257080376743
 30
0.0
 40
0.25
 41
0.0
 71
     1
 72
     1
  1
3
  7
SLDTEXTSTYLE0
 73
     1
 44
1.0
  0
MTEXT
  5
543
330
53A
100
AcDbEntity
  8
DIMS
100
AcDbMText
 10
21.10148349526562
 20
23.34187636293618
 30
0.0
 40
0.25
 41
0.0
 71
     1
 72
     1
  1
16
  7
SLDTEXTSTYLE0
 73
     1
 44
1.0
  0
MTEXT
  5
544
330
53A
100
AcDbEntity
  8
DIMS
100
AcDbMText
 10
21.54453905371667
 20
23.49382079422365
 30
0.0
 40
0.25
 41
0.0
 71
     1
 72
     1
  1
"
  7
SLDTEXTSTYLE0
 73
     1
 44
1.0
  0
ENDBLK
  5
6A1
330
53A
100
AcDbEntity
  8
0
100
AcDbBlockEnd
  0
BLOCK
  5
6A2
330
546
100
AcDbEntity
  8
0
100
AcDbBlockBegin
  2
_D_8
 70
     0
 71
     0
 10
0.0
 20
0.0
 30
0.0
  3
_D_8
  1

  0
INSERT
  5
549
330
546
100
AcDbEntity
  8
DIMS
100
AcDbBlockReference
  2
_Open90
 10
20.66620398967289
 20
20.65951281246311
 30
13.71904126003531
 41
0.3
 42
0.3
 50
90.00000000000048
  0
INSERT
  5
54A
330
546
100
AcDbEntity
  8
DIMS
100
AcDbBlockReference
  2
_Open90
 10
20.6662039896729
 20
9.659512812463106
 30
13.71904126003531
 41
0.3
 42
0.3
 50
270.0000000000005
  0
LINE
  5
54B
330
546
100
AcDbEntity
  8
DIMS
100
AcDbLine
 10
22.76484572195882
 20
20.65951281246311
 30
0.0
 11
20.46620398967289
 21
20.65951281246311
 31
0.0
  0
LINE
  5
54C
330
546
100
AcDbEntity
  8
DIMS
100
AcDbLine
 10
22.76484572195884
 20
9.65951281246311
 30
0.0
 11
20.46620398967291
 21
9.659512812463106
 31
0.0
  0
LINE
  5
54D
330
546
100
AcDbEntity
  8
DIMS
100
AcDbLine
 10
20.66620398967289
 20
20.65951281246311
 30
0.0
 11
20.66620398967289
 21
15.35812391475766
 31
0.0
  0
LINE
  5
54E
330
546
100
AcDbEntity
  8
DIMS
100
AcDbLine
 10
20.6662039896729
 20
9.659512812463106
 30
0.0
 11
20.66620398967289
 21
14.96090171016913
 31
0.0
  0
MTEXT
  5
54F
330
546
100
AcDbEntity
  8
DIMS
100
AcDbMText
 10
20.42986139825601
 20
15.28023761100279
 30
0.0
 40
0.25
 41
0.0
 71
     1
 72
     1
  1
11"
  7
SLDTEXTSTYLE0
 73
     1
 44
1.0
  0
ENDBLK
  5
6A3
330
546
100
AcDbEntity
  8
0
100
AcDbBlockEnd
  0
BLOCK
  5
6A4
330
552
100
AcDbEntity
  8
0
100
AcDbBlockBegin
  2
_D_9
 70
     0
 71
     0
 10
0.0
 20
0.0
 30
0.0
  3
_D_9
  1

  0
INSERT
  5
555
330
552
100
AcDbEntity
  8
DIMS
100
AcDbBlockReference
  2
_Open90
 10
20.6662039896729
 20
9.659512812463113
 30
13.71904126003531
 41
0.3
 42
0.3
 50
270.0000000000003
  0
INSERT
  5
556
330
552
100
AcDbEntity
  8
DIMS
100
AcDbBlockReference
  2
_Open90
 10
20.6662039896729
 20
8.355776963308914
 30
13.71904126003531
 41
0.3
 42
0.3
 50
90.0000000000003
  0
LINE
  5
557
330
552
100
AcDbEntity
  8
DIMS
100
AcDbLine
 10
20.48541698980642
 20
9.03340878109266
 30
0.0
 11
20.92847254825747
 21
9.03340878109266
 31
0.0
  0
LINE
  5
558
330
552
100
AcDbEntity
  8
DIMS
100
AcDbLine
 10
22.76484572195884
 20
9.65951281246311
 30
0.0
 11
20.46620398967291
 21
9.659512812463113
 31
0.0
  0
LINE
  5
559
330
552
100
AcDbEntity
  8
DIMS
100
AcDbLine
 10
21.54234572195886
 20
8.35577696330891
 30
0.0
 11
20.46620398967291
 21
8.355776963308914
 31
0.0
  0
LINE
  5
55A
330
552
100
AcDbEntity
  8
DIMS
100
AcDbLine
 10
20.6662039896729
 20
9.659512812463113
 30
0.0
 11
20.6662039896729
 21
10.15951281246311
 31
0.0
  0
LINE
  5
55B
330
552
100
AcDbEntity
  8
DIMS
100
AcDbLine
 10
20.6662039896729
 20
8.355776963308914
 30
0.0
 11
20.6662039896729
 21
7.855776963308914
 31
0.0
  0
MTEXT
  5
55C
330
552
100
AcDbEntity
  8
DIMS
100
AcDbMText
 10
20.2638892105809
 20
9.141911373324124
 30
0.0
 40
0.25
 41
0.0
 71
     1
 72
     1
  1
1
  7
SLDTEXTSTYLE0
 73
     1
 44
1.0
  0
MTEXT
  5
55D
330
552
100
AcDbEntity
  8
DIMS
100
AcDbMText
 10
20.61458365766205
 20
9.330661382867905
 30
0.0
 40
0.25
 41
0.0
 71
     1
 72
     1
  1
5
  7
SLDTEXTSTYLE0
 73
     1
 44
1.0
  0
MTEXT
  5
55E
330
552
100
AcDbEntity
  8
DIMS
100
AcDbMText
 10
20.52222254629216
 20
8.98996694203666
 30
0.0
 40
0.25
 41
0.0
 71
     1
 72
     1
  1
16
  7
SLDTEXTSTYLE0
 73
     1
 44
1.0
  0
MTEXT
  5
55F
330
552
100
AcDbEntity
  8
DIMS
100
AcDbMText
 10
20.96527806807696
 20
9.141911373324124
 30
0.0
 40
0.25
 41
0.0
 71
     1
 72
     1
  1
"
  7
SLDTEXTSTYLE0
 73
     1
 44
1.0
  0
ENDBLK
  5
6A5
330
552
100
AcDbEntity
  8
0
100
AcDbBlockEnd
  0
BLOCK
  5
6A6
330
623
100
AcDbEntity
  8
0
100
AcDbBlockBegin
  2
_D_10
 70
     0
 71
     0
 10
0.0
 20
0.0
 30
0.0
  3
_D_10
  1

  0
INSERT
  5
626
330
623
100
AcDbEntity
  8
DIMS
100
AcDbBlockReference
  2
_Open90
 10
2.881022401894492
 20
25.93963666468028
 30
-2.032421763130051
 41
0.3
 42
0.3
 50
180.0000000000002
  0
INSERT
  5
627
330
623
100
AcDbEntity
  8
DIMS
100
AcDbBlockReference
  2
_Open90
 10
10.62602240189449
 20
25.93963666468025
 30
-2.032421763130051
 41
0.3
 42
0.3
 50
0.0000000000002036
  0
LINE
  5
628
330
623
100
AcDbEntity
  8
DIMS
100
AcDbLine
 10
6.665096495064792
 20
25.9654005578869
 30
0.0
 11
6.923429830776053
 21
25.9654005578869
 31
0.0
  0
LINE
  5
629
330
623
100
AcDbEntity
  8
DIMS
100
AcDbLine
 10
2.881022401894494
 20
26.68963666468024
 30
0.0
 11
2.881022401894492
 21
25.73963666468028
 31
0.0
  0
LINE
  5
62A
330
623
100
AcDbEntity
  8
DIMS
100
AcDbLine
 10
10.62602240189449
 20
26.68963666468024
 30
0.0
 11
10.62602240189449
 21
25.73963666468025
 31
0.0
  0
LINE
  5
62B
330
623
100
AcDbEntity
  8
DIMS
100
AcDbLine
 10
2.881022401894492
 20
25.93963666468028
 30
0.0
 11
6.443568715839268
 21
25.93963666468026
 31
0.0
  0
LINE
  5
62C
330
623
100
AcDbEntity
  8
DIMS
100
AcDbLine
 10
10.62602240189449
 20
25.93963666468025
 30
0.0
 11
7.063476087949742
 21
25.93963666468026
 31
0.0
  0
MTEXT
  5
62D
330
623
100
AcDbEntity
  8
DIMS
100
AcDbMText
 10
6.443568715839268
 20
26.07390315011836
 30
0.0
 40
0.25
 41
0.0
 71
     1
 72
     1
  1
7
  7
SLDTEXTSTYLE0
 73
     1
 44
1.0
  0
MTEXT
  5
62E
330
623
100
AcDbEntity
  8
DIMS
100
AcDbMText
 10
6.70190205155053
 20
26.26265315966215
 30
0.0
 40
0.25
 41
0.0
 71
     1
 72
     1
  1
3
  7
SLDTEXTSTYLE0
 73
     1
 44
1.0
  0
MTEXT
  5
62F
330
623
100
AcDbEntity
  8
DIMS
100
AcDbMText
 10
6.70190205155053
 20
25.9219587188309
 30
0.0
 40
0.25
 41
0.0
 71
     1
 72
     1
  1
4
  7
SLDTEXTSTYLE0
 73
     1
 44
1.0
  0
MTEXT
  5
630
330
623
100
AcDbEntity
  8
DIMS
100
AcDbMText
 10
6.960235387261791
 20
26.07390315011836
 30
0.0
 40
0.25
 41
0.0
 71
     1
 72
     1
  1
"
  7
SLDTEXTSTYLE0
 73
     1
 44
1.0
  0
ENDBLK
  5
6A7
330
623
100
AcDbEntity
  8
0
100
AcDbBlockEnd
  0
BLOCK
  5
6A8
330
632
100
AcDbEntity
  8
0
100
AcDbBlockBegin
  2
_D_11
 70
     0
 71
     0
 10
0.0
 20
0.0
 30
0.0
  3
_D_11
  1

  0
INSERT
  5
635
330
632
100
AcDbEntity
  8
DIMS
100
AcDbBlockReference
  2
_Open90
 10
11.43602240189542
 20
26.58963666468023
 30
-2.032421763130051
 41
0.3
 42
0.3
 50
270.0000000000004
  0
INSERT
  5
636
330
632
100
AcDbEntity
  8
DIMS
100
AcDbBlockReference
  2
_Open90
 10
11.43602240189542
 20
32.52747199162239
 30
-2.032421763130051
 41
0.3
 42
0.3
 50
90.00000000000041
  0
LINE
  5
637
330
632
100
AcDbEntity
  8
DIMS
100
AcDbLine
 10
11.25523540202893
 20
28.96302320811881
 30
0.0
 11
11.69829096047998
 21
28.96302320811881
 31
0.0
  0
LINE
  5
638
330
632
100
AcDbEntity
  8
DIMS
100
AcDbLine
 10
10.51602240189449
 20
26.58963666468023
 30
0.0
 11
11.63602240189542
 21
26.58963666468023
 31
0.0
  0
LINE
  5
639
330
632
100
AcDbEntity
  8
DIMS
100
AcDbLine
 10
9.93286410854072
 20
32.52747199162239
 30
0.0
 11
11.63602240189542
 21
32.52747199162239
 31
0.0
  0
LINE
  5
63A
330
632
100
AcDbEntity
  8
DIMS
100
AcDbLine
 10
11.43602240189542
 20
26.58963666468023
 30
0.0
 11
11.43602240189542
 21
28.60024542812533
 31
0.0
  0
LINE
  5
63B
330
632
100
AcDbEntity
  8
DIMS
100
AcDbLine
 10
11.43602240189542
 20
32.52747199162239
 30
0.0
 11
11.43602240189542
 21
29.27427320169897
 31
0.0
  0
MTEXT
  5
63C
330
632
100
AcDbEntity
  8
DIMS
100
AcDbMText
 10
11.03370762280341
 20
29.07152580035027
 30
0.0
 40
0.25
 41
0.0
 71
     1
 72
     1
  1
5
  7
SLDTEXTSTYLE0
 73
     1
 44
1.0
  0
MTEXT
  5
63D
330
632
100
AcDbEntity
  8
DIMS
100
AcDbMText
 10
11.29204095851467
 20
29.26027580989406
 30
0.0
 40
0.25
 41
0.0
 71
     1
 72
     1
  1
15
  7
SLDTEXTSTYLE0
 73
     1
 44
1.0
  0
MTEXT
  5
63E
330
632
100
AcDbEntity
  8
DIMS
100
AcDbMText
 10
11.29204095851467
 20
28.91958136906281
 30
0.0
 40
0.25
 41
0.0
 71
     1
 72
     1
  1
16
  7
SLDTEXTSTYLE0
 73
     1
 44
1.0
  0
MTEXT
  5
63F
330
632
100
AcDbEntity
  8
DIMS
100
AcDbMText
 10
11.73509648029948
 20
29.07152580035027
 30
0.0
 40
0.25
 41
0.0
 71
     1
 72
     1
  1
"
  7
SLDTEXTSTYLE0
 73
     1
 44
1.0
  0
ENDBLK
  5
6A9
330
632
100
AcDbEntity
  8
0
100
AcDbBlockEnd
  0
ENDSEC
  0
SECTION
  2
ENTITIES
  0
LINE
  5
7A
330
1F
100
AcDbEntity
  8
TITLE
370
    50
100
AcDbLine
 10
29.43391070279198
 20
1.381311886050946
 30
0.0
 11
46.41567412997442
 21
1.381311886050946
 31
0.0
  0
LINE
  5
7B
330
1F
100
AcDbEntity
  8
TITLE
370
    50
100
AcDbLine
 10
46.4156194230234
 20
5.369060515145104
 30
0.0
 11
36.22622275109721
 21
5.369060515145103
 31
0.0
  0
LINE
  5
7C
330
1F
100
AcDbEntity
  8
TITLE
370
    50
100
AcDbLine
 10
29.43391070279198
 20
2.436487844692758
 30
0.0
 11
22.42166679904371
 21
2.436487844692757
 31
0.0
  0
LINE
  5
7D
330
1F
100
AcDbEntity
  8
TITLE
370
    50
100
AcDbLine
 10
29.43391070279198
 20
1.381311886050946
 30
0.0
 11
22.42166679904371
 21
1.381311886050945
 31
0.0
  0
LINE
  5
7E
330
1F
100
AcDbEntity
  8
TITLE
370
    50
100
AcDbLine
 10
29.43391070279198
 20
1.381311886050946
 30
0.0
 11
29.43391070279198
 21
3.491663803334569
 31
0.0
  0
LINE
  5
7F
330
1F
100
AcDbEntity
  8
TITLE
370
    50
100
AcDbLine
 10
22.42166679904371
 20
3.491663803334568
 30
0.0
 11
22.42166679904371
 21
0.3937001215893171
 31
0.0
  0
LINE
  5
80
330
1F
100
AcDbEntity
  8
TITLE
370
    50
100
AcDbLine
 10
22.42166679904371
 20
0.3937001215893171
 30
0.0
 11
46.41568767877938
 21
0.3937001215893171
 31
0.0
  0
LINE
  5
81
330
1F
100
AcDbEntity
  8
TITLE
370
    50
100
AcDbLine
 10
46.4156194230234
 20
5.369060515145104
 30
0.0
 11
46.41568767877938
 21
0.3937001215893171
 31
0.0
  0
LINE
  5
82
330
1F
100
AcDbEntity
  8
TITLE
370
    50
100
AcDbLine
 10
29.43391070279198
 20
3.491663803334569
 30
0.0
 11
22.42166679904371
 21
3.491663803334568
 31
0.0
  0
LINE
  5
83
330
1F
100
AcDbEntity
  8
TITLE
370
    50
100
AcDbLine
 10
29.43391070279198
 20
3.491663803334569
 30
0.0
 11
46.41544924304012
 21
3.491664955913943
 31
0.0
  0
LINE
  5
84
330
1F
100
AcDbEntity
  8
TITLE
370
    50
100
AcDbLine
 10
36.22622275109721
 20
5.369060515145103
 30
0.0
 11
36.22622275109721
 21
0.3573773641115478
 31
0.0
  0
MTEXT
  5
86
330
1F
100
AcDbEntity
  8
NOTES
100
AcDbMText
 10
4.921248486678246
 20
7.064207215417078
 30
0.0
 40
0.25
 41
0.0
 71
     1
 72
     1
  1
Front view
  7
SLDTEXTSTYLE0
 73
     1
 44
1.0
  0
MTEXT
  5
87
330
1F
100
AcDbEntity
  8
NOTES
100
AcDbMText
 10
15.04282124071192
 20
7.064207215417078
 30
0.0
 40
0.25
 41
0.0
 71
     1
 72
     1
  1
Side view
  7
SLDTEXTSTYLE0
 73
     1
 44
1.0
  0
MTEXT
  5
88
330
1F
100
AcDbEntity
  8
NOTES
100
AcDbMText
 10
24.21095683942342
 20
7.041144596937314
 30
0.0
 40
0.25
 41
0.0
 71
     1
 72
     1
  1
Back view
  7
SLDTEXTSTYLE0
 73
     1
 44
1.0
  0
MTEXT
  5
89
330
1F
100
AcDbEntity
  8
NOTES
100
AcDbMText
 10
3.331507644956091
 20
25.28312388920074
 30
0.0
 40
0.25
 41
0.0
 71
     1
 72
     1
  1
Top view
  7
SLDTEXTSTYLE0
 73
     1
 44
1.0
  0
MTEXT
  5
8B
330
1F
100
AcDbEntity
  8
NOTES
100
AcDbMText
 10
23.32398548181345
 20
0.9639904562836571
 30
0.0
 40
0.25
 41
0.0
 71
     1
 72
     1
  1
UNLESS OTHERWISE SPECIFIED DIMENSIONS ARE IN INCHES.
  7
SLDTEXTSTYLE1
 73
     1
 44
1.0
  0
MTEXT
  5
8C
330
1F
100
AcDbEntity
  8
NOTES
100
AcDbMText
 10
23.34575760666969
 20
2.976762899169739
 30
0.0
 40
0.25
 41
0.0
 71
     1
 72
     1
  1
DATE:
  7
SLDTEXTSTYLE1
 73
     1
 44
1.0
  0
MTEXT
  5
8D
330
1F
100
AcDbEntity
  8
NOTES
100
AcDbMText
 10
25.4543888667847
 20
2.086733085252027
 30
0.0
 40
0.25
 41
0.0
 71
     2
 72
     1
  1
DO NOT SCALE DRAWING
  7
SLDTEXTSTYLE1
 73
     1
 44
1.0
  0
MTEXT
  5
8E
330
1F
100
AcDbEntity
  8
NOTES
100
AcDbMText
 10
29.74642498628476
 20
3.161975676886921
 30
0.0
 40
0.25
 41
0.0
 71
     1
 72
     1
  1
TITLE:
  7
SLDTEXTSTYLE0
 73
     1
 44
1.0
  0
MTEXT
  5
8F
330
1F
100
AcDbEntity
  8
NOTES
100
AcDbMText
 10
37.07187078394034
 20
3.161975676886921
 30
0.0
 40
0.25
 41
0.0
 71
     1
 72
     1
  1
DWG NO.
  7
SLDTEXTSTYLE0
 73
     1
 44
1.0
  0
MTEXT
  5
90
330
1F
100
AcDbEntity
  8
NOTES
100
AcDbMText
 10
37.09886299906432
 20
0.9582816792631479
 30
0.0
 40
0.25
 41
0.0
 71
     1
 72
     1
  1
SCALE:     1:1
  7
SLDTEXTSTYLE0
 73
     1
 44
1.0
  0
MTEXT
  5
91
330
1F
100
AcDbEntity
  8
NOTES
100
AcDbMText
 10
41.13531863552652
 20
2.544734551050183
 30
0.0
 40
0.25
 41
0.0
 71
     2
 72
     1
  1
878 - Sharps Disposal Unit
  7
SLDTEXTSTYLE0
 73
     1
 44
1.0
  0
MTEXT
  5
67A
330
1F
100
AcDbEntity
  8
NOTES
100
AcDbMText
 10
33.38333748874675
 20
2.544734551050181
 30
0.0
 40
0.25
 41
0.0
 71
     2
 72
     1
  1
878 - Sharps Disposal Unit
  7
SLDTEXTSTYLE0
 73
     1
 44
1.0
  0
INSERT
  5
A2
330
1F
100
AcDbEntity
  8
NOTES
100
AcDbBlockReference
  2
SW_NOTE_0_1
 10
23.53166030337019
 20
5.041852806368022
 30
0.0
  0
MTEXT
  5
A3
330
1F
100
AcDbEntity
  8
NOTES
100
AcDbMText
 10
26.41339017886802
 20
2.980173448355186
 30
0.0
 40
0.25
 41
0.0
 71
     2
 72
     1
  1
April 22, 2021
  7
SLDTEXTSTYLE0
 73
     1
 44
1.0
  0
LINE
  5
A4
330
1F
100
AcDbEntity
  8
0
  6
SLD-Solid
 62
     7
370
    25
100
AcDbLine
 10
2.881022401894497
 20
8.874341202825088
 30
0.0
 11
2.851022401891412
 21
8.874341202825088
 31
0.0
  0
LINE
  5
A5
330
1F
100
AcDbEntity
  8
0
  6
SLD-Solid
 62
     7
370
    25
100
AcDbLine
 10
2.851022401891413
 20
8.494341202825089
 30
0.0
 11
2.881022401894498
 21
8.494341202825089
 31
0.0
  0
LINE
  5
A6
330
1F
100
AcDbEntity
  8
0
  6
SLD-Solid
 62
     7
370
    25
100
AcDbLine
 10
2.851022401891412
 20
8.874341202825088
 30
0.0
 11
2.821022401892173
 21
8.782010696709781
 31
0.0
  0
LINE
  5
A7
330
1F
100
AcDbEntity
  8
0
  6
SLD-Solid
 62
     7
370
    25
100
AcDbLine
 10
2.821022401892173
 20
8.586671708940395
 30
0.0
 11
2.851022401891413
 21
8.494341202825089
 31
0.0
  0
LINE
  5
A8
330
1F
100
AcDbEntity
  8
0
  6
SLD-Solid
 62
     7
370
    25
100
AcDbLine
 10
10.65602240189617
 20
8.494341202825078
 30
0.0
 11
10.68602240189541
 21
8.586671708940385
 31
0.0
  0
LINE
  5
A9
330
1F
100
AcDbEntity
  8
0
  6
SLD-Solid
 62
     7
370
    25
100
AcDbLine
 10
10.68602240189541
 20
8.78201069670977
 30
0.0
 11
10.65602240189617
 21
8.874341202825077
 31
0.0
  0
LINE
  5
AA
330
1F
100
AcDbEntity
  8
0
  6
SLD-Solid
 62
     7
370
    25
100
AcDbLine
 10
10.62602240189308
 20
8.494341202825078
 30
0.0
 11
10.65602240189617
 21
8.494341202825078
 31
0.0
  0
LINE
  5
AB
330
1F
100
AcDbEntity
  8
0
  6
SLD-Solid
 62
     7
370
    25
100
AcDbLine
 10
10.65602240189617
 20
8.874341202825077
 30
0.0
 11
10.62602240189309
 21
8.874341202825079
 31
0.0
  0
CIRCLE
  5
AC
330
1F
100
AcDbEntity
  8
0
  6
SLD-Solid
 62
     7
370
    25
100
AcDbCircle
 10
6.753522401894513
 20
20.85450290163261
 30
0.0
 40
0.337499999999995
  0
LINE
  5
AD
330
1F
100
AcDbEntity
  8
0
  6
SLD-Solid
 62
     7
370
    25
100
AcDbLine
 10
6.703522401894515
 20
21.0795029016326
 30
0.0
 11
6.703522401894512
 21
20.62950290163261
 31
0.0
  0
LINE
  5
AE
330
1F
100
AcDbEntity
  8
0
  6
SLD-Solid
 62
     7
370
    25
100
AcDbLine
 10
6.703522401894512
 20
20.62950290163261
 30
0.0
 11
6.803522401894512
 21
20.6295029016326
 31
0.0
  0
LINE
  5
AF
330
1F
100
AcDbEntity
  8
0
  6
SLD-Solid
 62
     7
370
    25
100
AcDbLine
 10
6.803522401894512
 20
20.6295029016326
 30
0.0
 11
6.803522401894514
 21
21.0795029016326
 31
0.0
  0
LINE
  5
B0
330
1F
100
AcDbEntity
  8
0
  6
SLD-Solid
 62
     7
370
    25
100
AcDbLine
 10
6.803522401894514
 20
21.0795029016326
 30
0.0
 11
6.703522401894515
 21
21.0795029016326
 31
0.0
  0
CIRCLE
  5
B1
330
1F
100
AcDbEntity
  8
0
  6
SLD-Solid
 62
     7
370
    25
100
AcDbCircle
 10
6.753522401894513
 20
20.85450290163261
 30
0.0
 40
0.4374999999999964
  0
LINE
  5
B2
330
1F
100
AcDbEntity
  8
0
  6
SLD-Solid
 62
     7
370
    25
100
AcDbLine
 10
2.851022401891412
 20
8.874341202825088
 30
0.0
 11
2.851022401891413
 21
8.494341202825089
 31
0.0
  0
LINE
  5
B3
330
1F
100
AcDbEntity
  8
0
  6
SLD-Solid
 62
     7
370
    25
100
AcDbLine
 10
2.821022401892173
 20
8.782010696709781
 30
0.0
 11
2.821022401892173
 21
8.586671708940395
 31
0.0
  0
LINE
  5
B4
330
1F
100
AcDbEntity
  8
0
  6
SLD-Solid
 62
     7
370
    25
100
AcDbLine
 10
10.65602240189617
 20
8.494341202825078
 30
0.0
 11
10.65602240189617
 21
8.874341202825077
 31
0.0
  0
LINE
  5
B5
330
1F
100
AcDbEntity
  8
0
  6
SLD-Solid
 62
     7
370
    25
100
AcDbLine
 10
10.68602240189541
 20
8.586671708940385
 30
0.0
 11
10.68602240189541
 21
8.78201069670977
 31
0.0
  0
LWPOLYLINE
  5
B6
330
1F
100
AcDbEntity
  8
0
  6
SLD-Solid
 62
     7
370
    25
100
AcDbPolyline
 90
        3
 70
   128
 43
0.0
 10
2.931022401894499
 20
8.434557469564954
 10
2.943669588152113
 20
8.419659998720734
 10
2.945440306005291
 20
8.417925484622053
  0
LINE
  5
B7
330
1F
100
AcDbEntity
  8
0
  6
SLD-Solid
 62
     7
370
    25
100
AcDbLine
 10
2.941022401894493
 20
8.984512812463123
 30
0.0
 11
2.931022401894499
 21
8.984512812463123
 31
0.0
  0
LWPOLYLINE
  5
B8
330
1F
100
AcDbEntity
  8
0
  6
SLD-Solid
 62
     7
370
    25
100
AcDbPolyline
 90
        3
 70
   128
 43
0.0
 10
10.57602240189449
 20
8.434557469564938
 10
10.56337521563688
 20
8.419659998720723
 10
10.5616044977112
 20
8.41792548455247
  0
LINE
  5
B9
330
1F
100
AcDbEntity
  8
0
  6
SLD-Solid
 62
     7
370
    25
100
AcDbLine
 10
10.5660224018945
 20
8.98451281246311
 30
0.0
 11
10.57602240189449
 21
8.98451281246311
 31
0.0
  0
LINE
  5
BA
330
1F
100
AcDbEntity
  8
0
  6
SLD-Solid
 62
     7
370
    25
100
AcDbLine
 10
10.31602240189449
 20
21.69661615028646
 30
0.0
 11
10.31602240189449
 21
21.58393665836215
 31
0.0
  0
LINE
  5
BB
330
1F
100
AcDbEntity
  8
0
  6
SLD-Solid
 62
     7
370
    25
100
AcDbLine
 10
10.32602240189449
 20
21.58971016105404
 30
0.0
 11
10.31602240189449
 21
21.58393665836215
 31
0.0
  0
LINE
  5
BC
330
1F
100
AcDbEntity
  8
0
  6
SLD-Solid
 62
     7
370
    25
100
AcDbLine
 10
10.32602240189449
 20
10.00571080365123
 30
0.0
 11
10.32602240189449
 21
21.58971016105404
 31
0.0
  0
LINE
  5
BD
330
1F
100
AcDbEntity
  8
0
  6
SLD-Solid
 62
     7
370
    25
100
AcDbLine
 10
10.32602240189449
 20
9.992940030909567
 30
0.0
 11
10.32602240189449
 21
10.00571080365123
 31
0.0
  0
LINE
  5
BE
330
1F
100
AcDbEntity
  8
0
  6
SLD-Solid
 62
     7
370
    25
100
AcDbLine
 10
3.181022401894499
 20
9.992940030909566
 30
0.0
 11
10.32602240189449
 21
9.992940030909567
 31
0.0
  0
LINE
  5
BF
330
1F
100
AcDbEntity
  8
0
  6
SLD-Solid
 62
     7
370
    25
100
AcDbLine
 10
3.181022401894497
 20
9.992940030909566
 30
0.0
 11
3.181022401894497
 21
10.00571080365122
 31
0.0
  0
LINE
  5
C0
330
1F
100
AcDbEntity
  8
0
  6
SLD-Solid
 62
     7
370
    25
100
AcDbLine
 10
3.181022401894496
 20
10.00571080365122
 30
0.0
 11
3.181022401894491
 21
21.58971016105404
 31
0.0
  0
LINE
  5
C1
330
1F
100
AcDbEntity
  8
0
  6
SLD-Solid
 62
     7
370
    25
100
AcDbLine
 10
3.181022401894491
 20
21.58971016105404
 30
0.0
 11
3.191022401894491
 21
21.58393665836215
 31
0.0
  0
LINE
  5
C2
330
1F
100
AcDbEntity
  8
0
  6
SLD-Solid
 62
     7
370
    25
100
AcDbLine
 10
3.191022401894491
 20
21.69661615028645
 30
0.0
 11
3.191022401894491
 21
21.58393665836215
 31
0.0
  0
LINE
  5
C3
330
1F
100
AcDbEntity
  8
0
  6
SLD-Solid
 62
     7
370
    25
100
AcDbLine
 10
10.31602240189449
 20
21.69661615028646
 30
0.0
 11
3.191022401894491
 21
21.69661615028645
 31
0.0
  0
SPLINE
  5
C4
330
1F
100
AcDbEntity
  8
0
  6
SLD-Solid
 62
     7
370
    25
100
AcDbSpline
210
0.0
220
0.0
230
1.0
 70
    12
 71
     3
 72
    11
 73
     7
 74
     0
 42
0.00000001
 43
0.00000001
 40
0.0
 40
0.0
 40
0.0
 40
0.0
 40
0.2755971283866607
 40
0.4936301767167267
 40
0.7400988665380149
 40
1.0
 40
1.0
 40
1.0
 40
1.0
 10
2.8991613881026
 20
21.78361359655657
 30
0.0
 41
1.0
 10
2.912368366043876
 20
21.76952084328803
 30
0.0
 41
1.0
 10
2.936023775275495
 20
21.74427889564112
 30
0.0
 41
1.0
 10
2.999396587779451
 20
21.71586849504925
 30
0.0
 41
1.0
 10
3.0774275091944
 20
21.69980201173852
 30
0.0
 41
1.0
 10
3.139947511237563
 20
21.6964962262777
 30
0.0
 41
1.0
 10
3.172036744536866
 20
21.69479948735539
 30
0.0
 41
1.0
  0
LINE
  5
C5
330
1F
100
AcDbEntity
  8
0
  6
SLD-Solid
 62
     7
370
    25
100
AcDbLine
 10
3.172036744536866
 20
21.69479948735539
 30
0.0
 11
3.172036744536866
 21
21.59446642145494
 31
0.0
  0
LINE
  5
C6
330
1F
100
AcDbEntity
  8
0
  6
SLD-Solid
 62
     7
370
    25
100
AcDbLine
 10
3.172036744536866
 20
21.59446642145494
 30
0.0
 11
3.181022401894491
 21
21.58971016105404
 31
0.0
  0
LINE
  5
C7
330
1F
100
AcDbEntity
  8
0
  6
SLD-Solid
 62
     7
370
    25
100
AcDbLine
 10
3.181022401894494
 20
10.00571080365122
 30
0.0
 11
3.12811046351002
 21
10.0019800943219
 31
0.0
  0
SPLINE
  5
C8
330
1F
100
AcDbEntity
  8
0
  6
SLD-Solid
 62
     7
370
    25
100
AcDbSpline
210
0.0
220
0.0
230
1.0
 70
    12
 71
     3
 72
    12
 73
     8
 74
     0
 42
0.00000001
 43
0.00000001
 40
0.0
 40
0.0
 40
0.0
 40
0.0
 40
0.2880202621521781
 40
0.4072378909141432
 40
0.5101855816517037
 40
0.7559968080661909
 40
1.0
 40
1.0
 40
1.0
 40
1.0
 10
3.12811038700169
 20
10.00198008887022
 30
0.0
 41
1.0
 10
3.102574310402715
 20
9.99306240079211
 30
0.0
 41
1.0
 10
3.066468315988704
 20
9.980453494538011
 30
0.0
 41
1.0
 10
3.026876026377328
 20
9.960797530363942
 30
0.0
 41
1.0
 10
2.99371282682472
 20
9.939937872906492
 30
0.0
 41
1.0
 10
2.957820327151566
 20
9.90842595222416
 30
0.0
 41
1.0
 10
2.937763195166555
 20
9.876683722297061
 30
0.0
 41
1.0
 10
2.927771647261773
 20
9.860871191813727
 30
0.0
 41
1.0
  0
SPLINE
  5
C9
330
1F
100
AcDbEntity
  8
0
  6
SLD-Solid
 62
     7
370
    25
100
AcDbSpline
210
0.0
220
0.0
230
1.0
 70
    12
 71
     3
 72
     9
 73
     5
 74
     0
 42
0.00000001
 43
0.00000001
 40
0.0
 40
0.0
 40
0.0
 40
0.0
 40
0.5105956177327517
 40
1.0
 40
1.0
 40
1.0
 40
1.0
 10
2.927771568878038
 20
9.86087104797092
 30
0.0
 41
1.0
 10
2.915087454074918
 20
9.829849579443561
 30
0.0
 41
1.0
 10
2.890245652926208
 20
9.76909412551878
 30
0.0
 41
1.0
 10
2.884626975932452
 20
9.702861267950283
 30
0.0
 41
1.0
 10
2.881877170789162
 20
9.670446617206178
 30
0.0
 41
1.0
  0
LINE
  5
CA
330
1F
100
AcDbEntity
  8
0
  6
SLD-Solid
 62
     7
370
    25
100
AcDbLine
 10
2.881877170789163
 20
9.670446617206178
 30
0.0
 11
2.881238935999941
 21
9.81196739987028
 31
0.0
  0
LINE
  5
CB
330
1F
100
AcDbEntity
  8
0
  6
SLD-Solid
 62
     7
370
    25
100
AcDbLine
 10
2.881238935626114
 20
9.811967409515344
 30
0.0
 11
2.881022401894495
 21
9.800337102467022
 31
0.0
  0
LINE
  5
CC
330
1F
100
AcDbEntity
  8
0
  6
SLD-Solid
 62
     7
370
    25
100
AcDbLine
 10
2.881022401894497
 20
9.800337102467013
 30
0.0
 11
2.881022401894492
 21
21.83910757363624
 31
0.0
  0
LINE
  5
CD
330
1F
100
AcDbEntity
  8
0
  6
SLD-Solid
 62
     7
370
    25
100
AcDbLine
 10
2.881022401894491
 20
21.83910757363624
 30
0.0
 11
2.899161275636013
 21
21.78361377036871
 31
0.0
  0
LINE
  5
CE
330
1F
100
AcDbEntity
  8
0
  6
SLD-Solid
 62
     7
370
    25
100
AcDbLine
 10
10.32602240189449
 20
21.58971016105404
 30
0.0
 11
10.33500805925211
 21
21.59446642145494
 31
0.0
  0
LINE
  5
CF
330
1F
100
AcDbEntity
  8
0
  6
SLD-Solid
 62
     7
370
    25
100
AcDbLine
 10
10.33500805925211
 20
21.59446642145494
 30
0.0
 11
10.33500805925211
 21
21.69479948735539
 31
0.0
  0
SPLINE
  5
D0
330
1F
100
AcDbEntity
  8
0
  6
SLD-Solid
 62
     7
370
    25
100
AcDbSpline
210
0.0
220
0.0
230
1.0
 70
    12
 71
     3
 72
    11
 73
     7
 74
     0
 42
0.00000001
 43
0.00000001
 40
0.0
 40
0.0
 40
0.0
 40
0.0
 40
0.2808106554120416
 40
0.5051528559808998
 40
0.7465507656473455
 40
1.0
 40
1.0
 40
1.0
 40
1.0
 10
10.33500805925211
 20
21.69479948735539
 30
0.0
 41
1.0
 10
10.36967348955897
 20
21.69707386458855
 30
0.0
 41
1.0
 10
10.43203344914675
 20
21.70116526259201
 30
0.0
 41
1.0
 10
10.51168123430494
 20
21.71725705752607
 30
0.0
 41
1.0
 10
10.5728393194543
 20
21.74432959844048
 30
0.0
 41
1.0
 10
10.59601392170603
 20
21.77030804071986
 30
0.0
 41
1.0
 10
10.60788341568638
 20
21.78361359655658
 30
0.0
 41
1.0
  0
LINE
  5
D1
330
1F
100
AcDbEntity
  8
0
  6
SLD-Solid
 62
     7
370
    25
100
AcDbLine
 10
10.60788341568638
 20
21.78361359655658
 30
0.0
 11
10.62602240189449
 21
21.83910757363624
 31
0.0
  0
LINE
  5
D2
330
1F
100
AcDbEntity
  8
0
  6
SLD-Solid
 62
     7
370
    25
100
AcDbLine
 10
10.6260224018945
 20
9.800337102467017
 30
0.0
 11
10.62602240189449
 21
21.83910757363624
 31
0.0
  0
LINE
  5
D3
330
1F
100
AcDbEntity
  8
0
  6
SLD-Solid
 62
     7
370
    25
100
AcDbLine
 10
10.6260224018945
 20
9.800337102467022
 30
0.0
 11
10.62580586784405
 21
9.811967418078707
 31
0.0
  0
LINE
  5
D4
330
1F
100
AcDbEntity
  8
0
  6
SLD-Solid
 62
     7
370
    25
100
AcDbLine
 10
10.62580586784405
 20
9.811967418078707
 30
0.0
 11
10.62516763310534
 21
9.670446634796646
 31
0.0
  0
SPLINE
  5
D5
330
1F
100
AcDbEntity
  8
0
  6
SLD-Solid
 62
     7
370
    25
100
AcDbSpline
210
0.0
220
0.0
230
1.0
 70
    12
 71
     3
 72
     9
 73
     5
 74
     0
 42
0.00000001
 43
0.00000001
 40
0.0
 40
0.0
 40
0.0
 40
0.0
 40
0.5198730845766825
 40
1.0
 40
1.0
 40
1.0
 40
1.0
 10
10.62516763241967
 20
9.670446628730614
 30
0.0
 41
1.0
 10
10.62216014951583
 20
9.704856348917371
 30
0.0
 41
1.0
 10
10.61637511660479
 20
9.771045042288133
 30
0.0
 41
1.0
 10
10.5913084617979
 20
9.831733014256603
 30
0.0
 41
1.0
 10
10.57927328614548
 20
9.860870943041121
 30
0.0
 41
1.0
  0
SPLINE
  5
D6
330
1F
100
AcDbEntity
  8
0
  6
SLD-Solid
 62
     7
370
    25
100
AcDbSpline
210
0.0
220
0.0
230
1.0
 70
    12
 71
     3
 72
    12
 73
     8
 74
     0
 42
0.00000001
 43
0.00000001
 40
0.0
 40
0.0
 40
0.0
 40
0.0
 40
0.1905937597580098
 40
0.3532391561476884
 40
0.4886605276906888
 40
0.7423620379039887
 40
1.0
 40
1.0
 40
1.0
 40
1.0
 10
10.57927323491095
 20
9.860871047970921
 30
0.0
 41
1.0
 10
10.5714198956916
 20
9.872910501732282
 30
0.0
 41
1.0
 10
10.55686481832543
 20
9.895223963057262
 30
0.0
 41
1.0
 10
10.53082378707884
 20
9.923884732635994
 30
0.0
 41
1.0
 10
10.49637357337254
 20
9.952578461290098
 30
0.0
 41
1.0
 10
10.44767346885064
 20
9.979939471253848
 30
0.0
 41
1.0
 10
10.40196479116183
 20
9.99459558953015
 30
0.0
 41
1.0
 10
10.37893451243786
 20
10.00198006236948
 30
0.0
 41
1.0
  0
LINE
  5
D7
330
1F
100
AcDbEntity
  8
0
  6
SLD-Solid
 62
     7
370
    25
100
AcDbLine
 10
10.3789344167873
 20
10.00198008887022
 30
0.0
 11
10.32602240189449
 21
10.00571080365123
 31
0.0
  0
LINE
  5
D8
330
1F
100
AcDbEntity
  8
0
  6
SLD-Solid
 62
     7
370
    25
100
AcDbLine
 10
3.181022401894495
 20
10.00571080365122
 30
0.0
 11
3.136929056150491
 21
10.00198008887022
 31
0.0
  0
LINE
  5
D9
330
1F
100
AcDbEntity
  8
0
  6
SLD-Solid
 62
     7
370
    25
100
AcDbLine
 10
3.128110387001691
 20
10.00198008887022
 30
0.0
 11
3.136929056150491
 21
10.00198008887022
 31
0.0
  0
LINE
  5
DA
330
1F
100
AcDbEntity
  8
0
  6
SLD-Solid
 62
     7
370
    25
100
AcDbLine
 10
3.173534354096471
 20
21.59446642145494
 30
0.0
 11
3.181022401894491
 21
21.58971016105404
 31
0.0
  0
LINE
  5
DB
330
1F
100
AcDbEntity
  8
0
  6
SLD-Solid
 62
     7
370
    25
100
AcDbLine
 10
3.172036744536868
 20
21.59446642145494
 30
0.0
 11
3.173534354096471
 21
21.59446642145494
 31
0.0
  0
LINE
  5
DC
330
1F
100
AcDbEntity
  8
0
  6
SLD-Solid
 62
     7
370
    25
100
AcDbLine
 10
10.3701157476385
 20
10.00198008887022
 30
0.0
 11
10.32602240189449
 21
10.00571080365123
 31
0.0
  0
LINE
  5
DD
330
1F
100
AcDbEntity
  8
0
  6
SLD-Solid
 62
     7
370
    25
100
AcDbLine
 10
10.3789344167873
 20
10.00198008887022
 30
0.0
 11
10.3701157476385
 21
10.00198008887022
 31
0.0
  0
LINE
  5
DE
330
1F
100
AcDbEntity
  8
0
  6
SLD-Solid
 62
     7
370
    25
100
AcDbLine
 10
10.32602240189449
 20
21.58971016105404
 30
0.0
 11
10.33351044969251
 21
21.59446642145494
 31
0.0
  0
LINE
  5
DF
330
1F
100
AcDbEntity
  8
0
  6
SLD-Solid
 62
     7
370
    25
100
AcDbLine
 10
10.33500805925211
 20
21.59446642145494
 30
0.0
 11
10.33351044969251
 21
21.59446642145494
 31
0.0
  0
LINE
  5
E0
330
1F
100
AcDbEntity
  8
0
  6
SLD-Solid
 62
     7
370
    25
100
AcDbLine
 10
3.191022401894491
 20
21.76589818258921
 30
0.0
 11
3.191022401894491
 21
21.69661615028645
 31
0.0
  0
LINE
  5
E1
330
1F
100
AcDbEntity
  8
0
  6
SLD-Solid
 62
     7
370
    25
100
AcDbLine
 10
10.31602240189449
 20
21.76589818258921
 30
0.0
 11
3.191022401894491
 21
21.76589818258921
 31
0.0
  0
LINE
  5
E2
330
1F
100
AcDbEntity
  8
0
  6
SLD-Solid
 62
     7
370
    25
100
AcDbLine
 10
10.31602240189449
 20
21.76589818258921
 30
0.0
 11
10.31602240189449
 21
21.69661615028646
 31
0.0
  0
LINE
  5
E3
330
1F
100
AcDbEntity
  8
0
  6
SLD-Solid
 62
     7
370
    25
100
AcDbLine
 10
10.32602240189449
 20
9.992940030909567
 30
0.0
 11
10.32602240189449
 21
9.942612669597192
 31
0.0
  0
LINE
  5
E4
330
1F
100
AcDbEntity
  8
0
  6
SLD-Solid
 62
     7
370
    25
100
AcDbLine
 10
10.32602240189449
 20
9.942612669597192
 30
0.0
 11
3.181022401894497
 21
9.94261266959719
 31
0.0
  0
LINE
  5
E5
330
1F
100
AcDbEntity
  8
0
  6
SLD-Solid
 62
     7
370
    25
100
AcDbLine
 10
3.181022401894499
 20
9.992940030909566
 30
0.0
 11
3.181022401894497
 21
9.94261266959719
 31
0.0
  0
LINE
  5
E6
330
1F
100
AcDbEntity
  8
0
  6
SLD-Solid
 62
     7
370
    25
100
AcDbLine
 10
3.173534354096471
 20
21.69479948735539
 30
0.0
 11
3.173534354096471
 21
21.59446642145494
 31
0.0
  0
LINE
  5
E7
330
1F
100
AcDbEntity
  8
0
  6
SLD-Solid
 62
     7
370
    25
100
AcDbLine
 10
3.172036744536868
 20
21.69479948735539
 30
0.0
 11
3.173534354096471
 21
21.69479948735539
 31
0.0
  0
LINE
  5
E8
330
1F
100
AcDbEntity
  8
0
  6
SLD-Solid
 62
     7
370
    25
100
AcDbLine
 10
2.8991613881026
 20
21.78361359655657
 30
0.0
 11
2.946138223734581
 21
21.78361359655657
 31
0.0
  0
SPLINE
  5
E9
330
1F
100
AcDbEntity
  8
0
  6
SLD-Solid
 62
     7
370
    25
100
AcDbSpline
210
0.0
220
0.0
230
1.0
 70
    12
 71
     3
 72
    11
 73
     7
 74
     0
 42
0.00000001
 43
0.00000001
 40
0.0
 40
0.0
 40
0.0
 40
0.0
 40
0.2804627987019958
 40
0.4994611364313424
 40
0.7438480241550455
 40
1.0
 40
1.0
 40
1.0
 40
1.0
 10
2.946138223734581
 20
21.78361359655657
 30
0.0
 41
1.0
 10
2.957086263347741
 20
21.76955576587864
 30
0.0
 41
1.0
 10
2.97658303914899
 20
21.74452093017616
 30
0.0
 41
1.0
 10
3.029273959788672
 20
21.71600627719027
 30
0.0
 41
1.0
 10
3.094473106679462
 20
21.69982043229936
 30
0.0
 41
1.0
 10
3.146770854812765
 20
21.69649915768442
 30
0.0
 41
1.0
 10
3.173534354096471
 20
21.69479948735539
 30
0.0
 41
1.0
  0
SPLINE
  5
EA
330
1F
100
AcDbEntity
  8
0
  6
SLD-Solid
 62
     7
370
    25
100
AcDbSpline
210
0.0
220
0.0
230
1.0
 70
    12
 71
     3
 72
    11
 73
     7
 74
     0
 42
0.00000001
 43
0.00000001
 40
0.0
 40
0.0
 40
0.0
 40
0.0
 40
0.2768810472269951
 40
0.499286859464932
 40
0.7416509847753104
 40
1.0
 40
1.0
 40
1.0
 40
1.0
 10
10.33351044969251
 20
21.69479948735539
 30
0.0
 41
1.0
 10
10.36242181268867
 20
21.69707775931594
 30
0.0
 41
1.0
 10
10.41455634402542
 20
21.70118606237093
 30
0.0
 41
1.0
 10
10.481126682273
 20
21.7173775661712
 30
0.0
 41
1.0
 10
10.53201554773874
 20
21.74462087306022
 30
0.0
 41
1.0
 10
10.5510734330704
 20
21.77034230956147
 30
0.0
 41
1.0
 10
10.5609065800544
 20
21.78361359655658
 30
0.0
 41
1.0
  0
LINE
  5
EB
330
1F
100
AcDbEntity
  8
0
  6
SLD-Solid
 62
     7
370
    25
100
AcDbLine
 10
10.60788341568638
 20
21.78361359655658
 30
0.0
 11
10.5609065800544
 21
21.78361359655658
 31
0.0
  0
LINE
  5
EC
330
1F
100
AcDbEntity
  8
0
  6
SLD-Solid
 62
     7
370
    25
100
AcDbLine
 10
10.33500805925211
 20
21.69479948735539
 30
0.0
 11
10.33351044969251
 21
21.69479948735539
 31
0.0
  0
LINE
  5
ED
330
1F
100
AcDbEntity
  8
0
  6
SLD-Solid
 62
     7
370
    25
100
AcDbLine
 10
10.33351044969251
 20
21.59446642145494
 30
0.0
 11
10.33351044969251
 21
21.69479948735539
 31
0.0
  0
SPLINE
  5
EE
330
1F
100
AcDbEntity
  8
0
  6
SLD-Solid
 62
     7
370
    25
100
AcDbSpline
210
0.0
220
0.0
230
1.0
 70
    12
 71
     3
 72
    12
 73
     8
 74
     0
 42
0.00000001
 43
0.00000001
 40
0.0
 40
0.0
 40
0.0
 40
0.0
 40
0.2800970907053397
 40
0.3971832357858177
 40
0.4993374592561914
 40
0.7476778580171122
 40
1.0
 40
1.0
 40
1.0
 40
1.0
 10
3.136929056150491
 20
10.00198008887022
 30
0.0
 41
1.0
 10
3.115596464306554
 20
9.993032807171645
 30
0.0
 41
1.0
 10
3.085346425525585
 20
9.98034538407997
 30
0.0
 41
1.0
 10
3.052459380089675
 20
9.960723591422465
 30
0.0
 41
1.0
 10
3.024641633243964
 20
9.93971015167351
 30
0.0
 41
1.0
 10
2.994655803804404
 20
9.907862696540302
 30
0.0
 41
1.0
 10
2.978248790009712
 20
9.8766177606124
 30
0.0
 41
1.0
 10
2.969980041047447
 20
9.86087104797092
 30
0.0
 41
1.0
  0
LINE
  5
EF
330
1F
100
AcDbEntity
  8
0
  6
SLD-Solid
 62
     7
370
    25
100
AcDbLine
 10
2.927771568878038
 20
9.86087104797092
 30
0.0
 11
2.969980041047447
 21
9.86087104797092
 31
0.0
  0
SPLINE
  5
F0
330
1F
100
AcDbEntity
  8
0
  6
SLD-Solid
 62
     7
370
    25
100
AcDbSpline
210
0.0
220
0.0
230
1.0
 70
    12
 71
     3
 72
    12
 73
     8
 74
     0
 42
0.00000001
 43
0.00000001
 40
0.0
 40
0.0
 40
0.0
 40
0.0
 40
0.1968203224197197
 40
0.3630528156055624
 40
0.4994928046867195
 40
0.7501133362535126
 40
1.0
 40
1.0
 40
1.0
 40
1.0
 10
10.53706476274154
 20
9.860871047970921
 30
0.0
 41
1.0
 10
10.53053682540137
 20
9.872886695917279
 30
0.0
 41
1.0
 10
10.51849545689679
 20
9.895050641004955
 30
0.0
 41
1.0
 10
10.49684836150223
 20
9.923704182489837
 30
0.0
 41
1.0
 10
10.46831015001886
 20
9.952281561304961
 30
0.0
 41
1.0
 10
10.42792454618822
 20
9.979700226058327
 30
0.0
 41
1.0
 10
10.3893665019329
 20
9.994560730996248
 30
0.0
 41
1.0
 10
10.3701157476385
 20
10.00198008887022
 30
0.0
 41
1.0
  0
LINE
  5
F1
330
1F
100
AcDbEntity
  8
0
  6
SLD-Solid
 62
     7
370
    25
100
AcDbLine
 10
10.57927323491095
 20
9.860871047970921
 30
0.0
 11
10.53706476274154
 21
9.860871047970921
 31
0.0
  0
ARC
  5
F2
330
1F
100
AcDbEntity
  8
0
  6
SLD-Solid
 62
     7
370
    25
100
AcDbCircle
 10
10.28466825467871
 20
9.694931116872167
 30
0.0
 40
0.2731134072698191
100
AcDbArc
 50
8.873707632090913
 51
49.65238968409262
  0
ARC
  5
F3
330
1F
100
AcDbEntity
  8
0
  6
SLD-Solid
 62
     7
370
    25
100
AcDbCircle
 10
9.648324202312216
 20
9.578992984729712
 30
0.0
 40
0.9198711981464897
100
AcDbArc
 50
3.939030743765691
 51
9.894635845571969
  0
LINE
  5
F4
330
1F
100
AcDbEntity
  8
0
  6
SLD-Solid
 62
     7
370
    25
100
AcDbLine
 10
10.56602240189449
 20
8.461772607800945
 30
0.0
 11
10.5660224018945
 21
9.642183456027988
 31
0.0
  0
ARC
  5
F5
330
1F
100
AcDbEntity
  8
0
  6
SLD-Solid
 62
     7
370
    25
100
AcDbCircle
 10
10.49227633596033
 20
8.469316215319928
 30
0.0
 40
0.0741308859731617
100
AcDbArc
 50
265.1605807385516
 51
354.159434141669
  0
LINE
  5
F6
330
1F
100
AcDbEntity
  8
0
  6
SLD-Solid
 62
     7
370
    25
100
AcDbLine
 10
10.4660224018945
 20
8.395449601996548
 30
0.0
 11
10.48602240189449
 21
8.395449601996546
 31
0.0
  0
LINE
  5
F7
330
1F
100
AcDbEntity
  8
0
  6
SLD-Solid
 62
     7
370
    25
100
AcDbLine
 10
3.041022401894497
 20
8.395449601996546
 30
0.0
 11
10.4660224018945
 21
8.395449601996548
 31
0.0
  0
LINE
  5
F8
330
1F
100
AcDbEntity
  8
0
  6
SLD-Solid
 62
     7
370
    25
100
AcDbLine
 10
3.041022401894497
 20
8.395449601996546
 30
0.0
 11
3.021022401894497
 21
8.395449601996543
 31
0.0
  0
ARC
  5
F9
330
1F
100
AcDbEntity
  8
0
  6
SLD-Solid
 62
     7
370
    25
100
AcDbCircle
 10
3.014768467828662
 20
8.46931621531993
 30
0.0
 40
0.0741308859731673
100
AcDbArc
 50
185.8405658583349
 51
274.8394192614467
  0
LINE
  5
FA
330
1F
100
AcDbEntity
  8
0
  6
SLD-Solid
 62
     7
370
    25
100
AcDbLine
 10
2.941022401894497
 20
8.461772607800944
 30
0.0
 11
2.941022401894494
 21
9.642183456027986
 31
0.0
  0
ARC
  5
FB
330
1F
100
AcDbEntity
  8
0
  6
SLD-Solid
 62
     7
370
    25
100
AcDbCircle
 10
3.858720601476669
 20
9.578992984729716
 30
0.0
 40
0.9198711981463834
100
AcDbArc
 50
170.1053641544272
 51
176.0609692562342
  0
ARC
  5
FC
330
1F
100
AcDbEntity
  8
0
  6
SLD-Solid
 62
     7
370
    25
100
AcDbCircle
 10
3.222376549110276
 20
9.694931116872164
 30
0.0
 40
0.2731134072698174
100
AcDbArc
 50
130.3476103159073
 51
171.1262923679087
  0
ARC
  5
FD
330
1F
100
AcDbEntity
  8
0
  6
SLD-Solid
 62
     7
370
    25
100
AcDbCircle
 10
3.18147527729754
 20
9.701854975286976
 30
0.0
 40
0.2428272778706061
100
AcDbArc
 50
97.42604602837754
 51
124.0374120949698
  0
LINE
  5
FE
330
1F
100
AcDbEntity
  8
0
  6
SLD-Solid
 62
     7
370
    25
100
AcDbLine
 10
3.150090729208397
 20
9.942645542002719
 30
0.0
 11
3.150090729208397
 21
9.934995135841307
 31
0.0
  0
LINE
  5
FF
330
1F
100
AcDbEntity
  8
0
  6
SLD-Solid
 62
     7
370
    25
100
AcDbLine
 10
3.150090729208397
 20
9.934995135841307
 30
0.0
 11
3.181022401894497
 21
9.934995135841316
 31
0.0
  0
LINE
  5
100
330
1F
100
AcDbEntity
  8
0
  6
SLD-Solid
 62
     7
370
    25
100
AcDbLine
 10
3.181022401894497
 20
9.94261266959719
 30
0.0
 11
3.181022401894497
 21
9.934995135841316
 31
0.0
  0
LINE
  5
101
330
1F
100
AcDbEntity
  8
0
  6
SLD-Solid
 62
     7
370
    25
100
AcDbLine
 10
10.32602240189449
 20
9.942612669597192
 30
0.0
 11
10.32602240189449
 21
9.934995135841318
 31
0.0
  0
LINE
  5
102
330
1F
100
AcDbEntity
  8
0
  6
SLD-Solid
 62
     7
370
    25
100
AcDbLine
 10
10.35695407458059
 20
9.934995135841309
 30
0.0
 11
10.32602240189449
 21
9.934995135841318
 31
0.0
  0
ARC
  5
103
330
1F
100
AcDbEntity
  8
0
  6
SLD-Solid
 62
     7
370
    25
100
AcDbCircle
 10
10.37503627670345
 20
9.878156697486528
 30
0.0
 40
0.0596454030770347
100
AcDbArc
 50
74.56922758584737
 51
107.6476018386229
  0
ARC
  5
104
330
1F
100
AcDbEntity
  8
0
  6
SLD-Solid
 62
     7
370
    25
100
AcDbCircle
 10
10.32873688189591
 20
9.70817924518022
 30
0.0
 40
0.235815429941305
100
AcDbArc
 50
55.74021990818432
 51
74.71407006158609
  0
LINE
  5
105
330
1F
100
AcDbEntity
  8
0
  6
SLD-Solid
 62
     7
370
    25
100
AcDbLine
 10
3.045556565551446
 20
9.931038850302075
 30
0.0
 11
3.045556565551446
 21
9.90307920512854
 31
0.0
  0
ARC
  5
106
330
1F
100
AcDbEntity
  8
0
  6
SLD-Solid
 62
     7
370
    25
100
AcDbCircle
 10
3.181475277297539
 20
9.729814620460525
 30
0.0
 40
0.2428272778705939
100
AcDbArc
 50
97.42604602837773
 51
124.0374120949715
  0
LINE
  5
107
330
1F
100
AcDbEntity
  8
0
  6
SLD-Solid
 62
     7
370
    25
100
AcDbLine
 10
3.150090729208397
 20
9.970605187176256
 30
0.0
 11
3.150090729208397
 21
9.942645542002719
 31
0.0
  0
LINE
  5
108
330
1F
100
AcDbEntity
  8
0
  6
SLD-Solid
 62
     7
370
    25
100
AcDbLine
 10
10.39090636025406
 20
9.96361168643953
 30
0.0
 11
10.39090636025405
 21
9.93565204126599
 31
0.0
  0
LINE
  5
109
330
1F
100
AcDbEntity
  8
0
  6
SLD-Solid
 62
     7
370
    25
100
AcDbLine
 10
10.35695407458059
 20
9.962954781014846
 30
0.0
 11
10.35695407458059
 21
9.934995135841309
 31
0.0
  0
ARC
  5
10A
330
1F
100
AcDbEntity
  8
0
  6
SLD-Solid
 62
     7
370
    25
100
AcDbCircle
 10
10.37503627670345
 20
9.906116342659985
 30
0.0
 40
0.0596454030771127
100
AcDbArc
 50
74.56922758586991
 51
107.6476018386028
  0
LINE
  5
10B
330
1F
100
AcDbEntity
  8
0
  6
SLD-Solid
 62
     7
370
    25
100
AcDbLine
 10
10.46148823823754
 20
9.931038850302077
 30
0.0
 11
10.46148823823754
 21
9.903079205128543
 31
0.0
  0
ARC
  5
10C
330
1F
100
AcDbEntity
  8
0
  6
SLD-Solid
 62
     7
370
    25
100
AcDbCircle
 10
10.32873688189602
 20
9.736138890354049
 30
0.0
 40
0.2358154299409961
100
AcDbArc
 50
55.74021990816718
 51
74.71407006159417
  0
LINE
  5
10D
330
1F
100
AcDbEntity
  8
0
  6
SLD-Solid
 62
     7
370
    25
100
AcDbLine
 10
3.150090729208397
 20
9.962954781014844
 30
0.0
 11
3.181022401894497
 21
9.962954781014844
 31
0.0
  0
LINE
  5
10E
330
1F
100
AcDbEntity
  8
0
  6
SLD-Solid
 62
     7
370
    25
100
AcDbLine
 10
10.35695407458059
 20
9.962954781014846
 30
0.0
 11
10.32602240189449
 21
9.962954781014846
 31
0.0
  0
ARC
  5
10F
330
1F
100
AcDbEntity
  8
0
  6
SLD-Solid
 62
     7
370
    25
100
AcDbCircle
 10
10.43997430051993
 20
21.90286684641779
 30
0.0
 40
0.1294560867581523
100
AcDbArc
 50
319.1848369951779
 51
358.4377316309228
  0
ARC
  5
110
330
1F
100
AcDbEntity
  8
0
  6
SLD-Solid
 62
     7
370
    25
100
AcDbCircle
 10
10.34046708864409
 20
22.10552920210133
 30
0.0
 40
0.348608249352868
100
AcDbArc
 50
268.8927938801958
 51
304.5056945878279
  0
LINE
  5
111
330
1F
100
AcDbEntity
  8
0
  6
SLD-Solid
 62
     7
370
    25
100
AcDbLine
 10
10.33373086535045
 20
21.76959954715732
 30
0.0
 11
10.33373086535045
 21
21.75698604148473
 31
0.0
  0
LINE
  5
112
330
1F
100
AcDbEntity
  8
0
  6
SLD-Solid
 62
     7
370
    25
100
AcDbLine
 10
10.31602240189449
 20
21.76959954715732
 30
0.0
 11
10.33373086535045
 21
21.76959954715732
 31
0.0
  0
LINE
  5
113
330
1F
100
AcDbEntity
  8
0
  6
SLD-Solid
 62
     7
370
    25
100
AcDbLine
 10
10.31602240189449
 20
21.76589818258921
 30
0.0
 11
10.31602240189449
 21
21.76959954715732
 31
0.0
  0
LINE
  5
114
330
1F
100
AcDbEntity
  8
0
  6
SLD-Solid
 62
     7
370
    25
100
AcDbLine
 10
3.191022401894491
 20
21.76589818258921
 30
0.0
 11
3.191022401894491
 21
21.76959954715732
 31
0.0
  0
LINE
  5
115
330
1F
100
AcDbEntity
  8
0
  6
SLD-Solid
 62
     7
370
    25
100
AcDbLine
 10
3.191022401894491
 20
21.76959954715732
 30
0.0
 11
3.17331393843853
 21
21.76959954715732
 31
0.0
  0
ARC
  5
116
330
1F
100
AcDbEntity
  8
0
  6
SLD-Solid
 62
     7
370
    25
100
AcDbCircle
 10
3.166577715144894
 20
22.10552920210134
 30
0.0
 40
0.3486082493528818
100
AcDbArc
 50
235.4943054121746
 51
271.1072061198051
  0
ARC
  5
117
330
1F
100
AcDbEntity
  8
0
  6
SLD-Solid
 62
     7
370
    25
100
AcDbCircle
 10
3.067070503269083
 20
21.9028668464178
 30
0.0
 40
0.1294560867581831
100
AcDbArc
 50
181.5622683690863
 51
220.8151630048212
  0
LINE
  5
118
330
1F
100
AcDbEntity
  8
0
  6
SLD-Solid
 62
     7
370
    25
100
AcDbLine
 10
2.937662537172151
 20
21.8993374400375
 30
0.0
 11
2.937662537172157
 21
22.68718390026412
 31
0.0
  0
LWPOLYLINE
  5
119
330
1F
100
AcDbEntity
  8
0
  6
SLD-Solid
 62
     7
370
    25
100
AcDbPolyline
 90
        9
 70
   128
 43
0.0
 10
2.937662537172157
 20
22.68718390026412
 10
2.93823897876006
 20
22.69011025509436
 10
2.939946151196818
 20
22.6929241517496
 10
2.94271844880308
 20
22.69551745375942
 10
2.94644933373656
 20
22.69779050198192
 10
2.950995430181568
 20
22.69965594444866
 10
2.956182034201203
 20
22.70104209325179
 10
2.961809827511672
 20
22.70189567947017
 10
2.967662537172156
 20
22.70218390026412
  0
LINE
  5
11A
330
1F
100
AcDbEntity
  8
0
  6
SLD-Solid
 62
     7
370
    25
100
AcDbLine
 10
2.970662537172157
 20
22.70218390026412
 30
0.0
 11
2.967662537172156
 21
22.70218390026412
 31
0.0
  0
LWPOLYLINE
  5
11B
330
1F
100
AcDbEntity
  8
0
  6
SLD-Solid
 62
     7
370
    25
100
AcDbPolyline
 90
        9
 70
   128
 43
0.0
 10
2.970662537172157
 20
22.70218390026412
 10
2.974564343612479
 20
22.70237604746009
 10
2.978316205819458
 20
22.70294510493901
 10
2.981773941832548
 20
22.70386920414109
 10
2.984804672795887
 20
22.70511283245226
 10
2.987291929418208
 20
22.70662819793393
 10
2.989140127822382
 20
22.70835706594047
 10
2.990278242780221
 20
22.71023299704396
 10
2.990662537172157
 20
22.71218390026412
  0
LINE
  5
11C
330
1F
100
AcDbEntity
  8
0
  6
SLD-Solid
 62
     7
370
    25
100
AcDbLine
 10
2.990662537172157
 20
22.71878493393517
 30
0.0
 11
2.990662537172157
 21
22.71218390026412
 31
0.0
  0
LINE
  5
11D
330
1F
100
AcDbEntity
  8
0
  6
SLD-Solid
 62
     7
370
    25
100
AcDbLine
 10
10.51638226661682
 20
22.71878493393517
 30
0.0
 11
2.990662537172157
 21
22.71878493393517
 31
0.0
  0
LINE
  5
11E
330
1F
100
AcDbEntity
  8
0
  6
SLD-Solid
 62
     7
370
    25
100
AcDbLine
 10
10.51638226661682
 20
22.71878493393517
 30
0.0
 11
10.51638226661682
 21
22.71218390026412
 31
0.0
  0
LWPOLYLINE
  5
11F
330
1F
100
AcDbEntity
  8
0
  6
SLD-Solid
 62
     7
370
    25
100
AcDbPolyline
 90
        9
 70
   128
 43
0.0
 10
10.53638226661682
 20
22.70218390026412
 10
10.5324804601765
 20
22.70237604746009
 10
10.52872859796952
 20
22.70294510493901
 10
10.52527086195643
 20
22.7038692041411
 10
10.52224013099309
 20
22.70511283245226
 10
10.51975287437077
 20
22.70662819793393
 10
10.5179046759666
 20
22.70835706594047
 10
10.51676656100876
 20
22.71023299704396
 10
10.51638226661682
 20
22.71218390026412
  0
LINE
  5
120
330
1F
100
AcDbEntity
  8
0
  6
SLD-Solid
 62
     7
370
    25
100
AcDbLine
 10
10.53638226661682
 20
22.70218390026412
 30
0.0
 11
10.53938226661682
 21
22.70218390026412
 31
0.0
  0
LWPOLYLINE
  5
121
330
1F
100
AcDbEntity
  8
0
  6
SLD-Solid
 62
     7
370
    25
100
AcDbPolyline
 90
        9
 70
   128
 43
0.0
 10
10.56938226661683
 20
22.68718390026412
 10
10.56880582502892
 20
22.69011025509436
 10
10.56709865259216
 20
22.6929241517496
 10
10.5643263549859
 20
22.69551745375942
 10
10.56059547005242
 20
22.69779050198192
 10
10.55604937360741
 20
22.69965594444866
 10
10.55086276958778
 20
22.70104209325179
 10
10.54523497627731
 20
22.70189567947017
 10
10.53938226661682
 20
22.70218390026412
  0
LINE
  5
122
330
1F
100
AcDbEntity
  8
0
  6
SLD-Solid
 62
     7
370
    25
100
AcDbLine
 10
10.56938226661683
 20
21.89933744003751
 30
0.0
 11
10.56938226661683
 21
22.68718390026412
 31
0.0
  0
LINE
  5
123
330
1F
100
AcDbEntity
  8
0
  6
SLD-Solid
 62
     7
370
    25
100
AcDbLine
 10
3.17331393843853
 20
21.76959954715732
 30
0.0
 11
3.17331393843853
 21
21.75698604148472
 31
0.0
  0
ARC
  5
124
330
1F
100
AcDbEntity
  8
0
  6
SLD-Solid
 62
     7
370
    25
100
AcDbCircle
 10
3.166577715144907
 20
22.06222793191216
 30
0.0
 40
0.3486082493529275
100
AcDbArc
 50
235.4943054121771
 51
271.1072061198029
  0
LINE
  5
125
330
1F
100
AcDbEntity
  8
0
  6
SLD-Solid
 62
     7
370
    25
100
AcDbLine
 10
2.969095275174833
 20
21.77495037027468
 30
0.0
 11
2.969095275174833
 21
21.8182516404639
 31
0.0
  0
LINE
  5
126
330
1F
100
AcDbEntity
  8
0
  6
SLD-Solid
 62
     7
370
    25
100
AcDbLine
 10
3.17331393843853
 20
21.7136847712955
 30
0.0
 11
3.17331393843853
 21
21.75698604148472
 31
0.0
  0
LINE
  5
127
330
1F
100
AcDbEntity
  8
0
  6
SLD-Solid
 62
     7
370
    25
100
AcDbLine
 10
10.53794952861415
 20
21.77495037027468
 30
0.0
 11
10.53794952861415
 21
21.8182516404639
 31
0.0
  0
ARC
  5
128
330
1F
100
AcDbEntity
  8
0
  6
SLD-Solid
 62
     7
370
    25
100
AcDbCircle
 10
10.34046708864409
 20
22.06222793191212
 30
0.0
 40
0.3486082493528788
100
AcDbArc
 50
268.8927938801955
 51
304.5056945878263
  0
LINE
  5
129
330
1F
100
AcDbEntity
  8
0
  6
SLD-Solid
 62
     7
370
    25
100
AcDbLine
 10
10.33373086535045
 20
21.7136847712955
 30
0.0
 11
10.33373086535045
 21
21.75698604148473
 31
0.0
  0
LINE
  5
12A
330
1F
100
AcDbEntity
  8
0
  6
SLD-Solid
 62
     7
370
    25
100
AcDbLine
 10
2.952532102702863
 20
9.765020418745062
 30
0.0
 11
2.952532102702863
 21
9.737060773571525
 31
0.0
  0
ARC
  5
12B
330
1F
100
AcDbEntity
  8
0
  6
SLD-Solid
 62
     7
370
    25
100
AcDbCircle
 10
3.222376549110297
 20
9.722890762045687
 30
0.0
 40
0.2731134072698404
100
AcDbArc
 50
130.347610315909
 51
171.1262923679064
  0
ARC
  5
12C
330
1F
100
AcDbEntity
  8
0
  6
SLD-Solid
 62
     7
370
    25
100
AcDbCircle
 10
10.28466825467872
 20
9.7228907620457
 30
0.0
 40
0.2731134072698162
100
AcDbArc
 50
8.873707632091763
 51
49.65238968409319
  0
LINE
  5
12D
330
1F
100
AcDbEntity
  8
0
  6
SLD-Solid
 62
     7
370
    25
100
AcDbLine
 10
10.55451270108613
 20
9.765020418745063
 30
0.0
 11
10.55451270108613
 21
9.737060773571526
 31
0.0
  0
LINE
  5
12E
330
1F
100
AcDbEntity
  8
0
  6
SLD-Solid
 62
     7
370
    25
100
AcDbLine
 10
3.191022401894491
 20
21.72629827696809
 30
0.0
 11
3.17331393843853
 21
21.72629827696809
 31
0.0
  0
LINE
  5
12F
330
1F
100
AcDbEntity
  8
0
  6
SLD-Solid
 62
     7
370
    25
100
AcDbLine
 10
10.31602240189449
 20
21.7262982769681
 30
0.0
 11
10.33373086535045
 21
21.7262982769681
 31
0.0
  0
SPLINE
  5
130
330
1F
100
AcDbEntity
  8
0
  6
SLD-Solid
 62
     7
370
    25
100
AcDbSpline
210
0.0
220
0.0
230
1.0
 70
    12
 71
     3
 72
     9
 73
     5
 74
     0
 42
0.00000001
 43
0.00000001
 40
0.0
 40
0.0
 40
0.0
 40
0.0
 40
0.507487535369038
 40
1.0
 40
1.0
 40
1.0
 40
1.0
 10
2.969980041047447
 20
9.86087104797092
 30
0.0
 41
1.0
 10
2.959406737149625
 20
9.829742054609143
 30
0.0
 41
1.0
 10
2.93857212908357
 20
9.768402630106548
 30
0.0
 41
1.0
 10
2.933990981562941
 20
9.702771008782307
 30
0.0
 41
1.0
 10
2.931734709306718
 20
9.670446617206178
 30
0.0
 41
1.0
  0
LINE
  5
131
330
1F
100
AcDbEntity
  8
0
  6
SLD-Solid
 62
     7
370
    25
100
AcDbLine
 10
2.931022401894491
 20
21.83910757363624
 30
0.0
 11
2.946138223734581
 21
21.78361359655657
 31
0.0
  0
SPLINE
  5
132
330
1F
100
AcDbEntity
  8
0
  6
SLD-Solid
 62
     7
370
    25
100
AcDbSpline
210
0.0
220
0.0
230
1.0
 70
    12
 71
     3
 72
     9
 73
     5
 74
     0
 42
0.00000001
 43
0.00000001
 40
0.0
 40
0.0
 40
0.0
 40
0.0
 40
0.522986516955106
 40
0.9999999999999999
 40
0.9999999999999999
 40
0.9999999999999999
 40
0.9999999999999999
 10
10.57531009448227
 20
9.67044661720618
 30
0.0
 41
1.0
 10
10.57284378901856
 20
9.704754247202235
 30
0.0
 41
1.0
 10
10.56812797822085
 20
9.770353701268085
 30
0.0
 41
1.0
 10
10.5470968801057
 20
9.831637736750437
 30
0.0
 41
1.0
 10
10.53706476274154
 20
9.860871047970921
 30
0.0
 41
1.0
  0
LINE
  5
133
330
1F
100
AcDbEntity
  8
0
  6
SLD-Solid
 62
     7
370
    25
100
AcDbLine
 10
10.5609065800544
 20
21.78361359655658
 30
0.0
 11
10.57602240189449
 21
21.83910757363624
 31
0.0
  0
LINE
  5
134
330
1F
100
AcDbEntity
  8
0
  6
SLD-Solid
 62
     7
370
    25
100
AcDbLine
 10
2.937662537172151
 20
21.85603616984828
 30
0.0
 11
2.937662537172151
 21
21.8993374400375
 31
0.0
  0
ARC
  5
135
330
1F
100
AcDbEntity
  8
0
  6
SLD-Solid
 62
     7
370
    25
100
AcDbCircle
 10
3.067070503269074
 20
21.85956557622858
 30
0.0
 40
0.1294560867581726
100
AcDbArc
 50
181.5622683690833
 51
220.8151630048215
  0
LINE
  5
136
330
1F
100
AcDbEntity
  8
0
  6
SLD-Solid
 62
     7
370
    25
100
AcDbLine
 10
10.56938226661683
 20
21.85603616984828
 30
0.0
 11
10.56938226661683
 21
21.89933744003751
 31
0.0
  0
ARC
  5
137
330
1F
100
AcDbEntity
  8
0
  6
SLD-Solid
 62
     7
370
    25
100
AcDbCircle
 10
10.43997430051989
 20
21.85956557622859
 30
0.0
 40
0.1294560867581901
100
AcDbArc
 50
319.1848369951811
 51
358.4377316309138
  0
LINE
  5
138
330
1F
100
AcDbEntity
  8
0
  6
SLD-Solid
 62
     7
370
    25
100
AcDbLine
 10
2.881877170789163
 20
9.670446617206178
 30
0.0
 11
2.931734709306718
 21
9.670446617206178
 31
0.0
  0
LINE
  5
139
330
1F
100
AcDbEntity
  8
0
  6
SLD-Solid
 62
     7
370
    25
100
AcDbLine
 10
10.62516763299983
 20
9.67044661720618
 30
0.0
 11
10.57531009448227
 21
9.67044661720618
 31
0.0
  0
LINE
  5
13A
330
1F
100
AcDbEntity
  8
0
  6
SLD-Solid
 62
     7
370
    25
100
AcDbLine
 10
2.941022401894494
 20
9.670143101201523
 30
0.0
 11
2.941022401894494
 21
9.642183456027986
 31
0.0
  0
ARC
  5
13B
330
1F
100
AcDbEntity
  8
0
  6
SLD-Solid
 62
     7
370
    25
100
AcDbCircle
 10
3.858720601476733
 20
9.606952629903246
 30
0.0
 40
0.9198711981464472
100
AcDbArc
 50
170.1053641544275
 51
176.060969256234
  0
LINE
  5
13C
330
1F
100
AcDbEntity
  8
0
  6
SLD-Solid
 62
     7
370
    25
100
AcDbLine
 10
10.5660224018945
 20
9.670143101201525
 30
0.0
 11
10.5660224018945
 21
9.642183456027988
 31
0.0
  0
ARC
  5
13D
330
1F
100
AcDbEntity
  8
0
  6
SLD-Solid
 62
     7
370
    25
100
AcDbCircle
 10
9.648324202312216
 20
9.60695262990325
 30
0.0
 40
0.9198711981464897
100
AcDbArc
 50
3.939030743765691
 51
9.894635845571969
  0
LINE
  5
13E
330
1F
100
AcDbEntity
  8
0
  6
SLD-Solid
 62
     7
370
    25
100
AcDbLine
 10
10.62602240189449
 20
21.83910757363624
 30
0.0
 11
10.57602240189449
 21
21.83910757363624
 31
0.0
  0
LINE
  5
13F
330
1F
100
AcDbEntity
  8
0
  6
SLD-Solid
 62
     7
370
    25
100
AcDbLine
 10
2.881022401894492
 20
21.83910757363624
 30
0.0
 11
2.931022401894492
 21
21.83910757363624
 31
0.0
  0
LINE
  5
140
330
1F
100
AcDbEntity
  8
0
  6
SLD-Solid
 62
     7
370
    25
100
AcDbLine
 10
10.57602240189449
 20
8.434341202825097
 30
0.0
 11
10.6260224018945
 21
8.434341202825097
 31
0.0
  0
LINE
  5
141
330
1F
100
AcDbEntity
  8
0
  6
SLD-Solid
 62
     7
370
    25
100
AcDbLine
 10
10.57602240189449
 20
9.65873276182302
 30
0.0
 11
10.6260224018945
 21
9.65873276182302
 31
0.0
  0
LINE
  5
142
330
1F
100
AcDbEntity
  8
0
  6
SLD-Solid
 62
     7
370
    25
100
AcDbLine
 10
10.57602240189449
 20
9.65873276182302
 30
0.0
 11
10.57602240189449
 21
8.434341202825097
 31
0.0
  0
LINE
  5
143
330
1F
100
AcDbEntity
  8
0
  6
SLD-Solid
 62
     7
370
    25
100
AcDbLine
 10
10.6260224018945
 20
9.65873276182302
 30
0.0
 11
10.6260224018945
 21
8.434341202825097
 31
0.0
  0
LINE
  5
144
330
1F
100
AcDbEntity
  8
0
  6
SLD-Solid
 62
     7
370
    25
100
AcDbLine
 10
10.57602240189449
 20
9.67044661720618
 30
0.0
 11
10.57602240189449
 21
9.65873276182302
 31
0.0
  0
LINE
  5
145
330
1F
100
AcDbEntity
  8
0
  6
SLD-Solid
 62
     7
370
    25
100
AcDbLine
 10
10.6260224018945
 20
9.792143809414284
 30
0.0
 11
10.6260224018945
 21
9.65873276182302
 31
0.0
  0
LINE
  5
146
330
1F
100
AcDbEntity
  8
0
  6
SLD-Solid
 62
     7
370
    25
100
AcDbLine
 10
2.931022401894499
 20
9.670446617206178
 30
0.0
 11
2.931022401894499
 21
9.658732761823018
 31
0.0
  0
LINE
  5
147
330
1F
100
AcDbEntity
  8
0
  6
SLD-Solid
 62
     7
370
    25
100
AcDbLine
 10
2.931022401894499
 20
9.658732761823018
 30
0.0
 11
2.881022401894499
 21
9.658732761823018
 31
0.0
  0
LINE
  5
148
330
1F
100
AcDbEntity
  8
0
  6
SLD-Solid
 62
     7
370
    25
100
AcDbLine
 10
2.881022401894499
 20
9.79214380941428
 30
0.0
 11
2.881022401894499
 21
9.658732761823018
 31
0.0
  0
LINE
  5
149
330
1F
100
AcDbEntity
  8
0
  6
SLD-Solid
 62
     7
370
    25
100
AcDbLine
 10
2.931022401894499
 20
9.658732761823018
 30
0.0
 11
2.931022401894499
 21
8.434341202825095
 31
0.0
  0
LINE
  5
14A
330
1F
100
AcDbEntity
  8
0
  6
SLD-Solid
 62
     7
370
    25
100
AcDbLine
 10
2.931022401894499
 20
8.434341202825095
 30
0.0
 11
2.881022401894499
 21
8.434341202825095
 31
0.0
  0
LINE
  5
14B
330
1F
100
AcDbEntity
  8
0
  6
SLD-Solid
 62
     7
370
    25
100
AcDbLine
 10
2.881022401894499
 20
9.658732761823018
 30
0.0
 11
2.881022401894499
 21
8.434341202825095
 31
0.0
  0
LINE
  5
14C
330
1F
100
AcDbEntity
  8
0
  6
SLD-Solid
 62
     7
370
    25
100
AcDbLine
 10
10.57602240189449
 20
22.66834120282509
 30
0.0
 11
10.6260224018945
 21
22.66834120282509
 31
0.0
  0
LINE
  5
14D
330
1F
100
AcDbEntity
  8
0
  6
SLD-Solid
 62
     7
370
    25
100
AcDbLine
 10
10.57602240189449
 20
22.66834120282509
 30
0.0
 11
10.57602240189449
 21
21.83910757363624
 31
0.0
  0
LINE
  5
14E
330
1F
100
AcDbEntity
  8
0
  6
SLD-Solid
 62
     7
370
    25
100
AcDbLine
 10
10.6260224018945
 20
22.66834120282509
 30
0.0
 11
10.62602240189449
 21
21.83910757363624
 31
0.0
  0
LINE
  5
14F
330
1F
100
AcDbEntity
  8
0
  6
SLD-Solid
 62
     7
370
    25
100
AcDbLine
 10
2.931022401894492
 20
22.66834120282509
 30
0.0
 11
2.881022401894487
 21
22.66834120282509
 31
0.0
  0
LINE
  5
150
330
1F
100
AcDbEntity
  8
0
  6
SLD-Solid
 62
     7
370
    25
100
AcDbLine
 10
2.931022401894487
 20
22.66834120282509
 30
0.0
 11
2.931022401894493
 21
21.83910757363624
 31
0.0
  0
LINE
  5
151
330
1F
100
AcDbEntity
  8
0
  6
SLD-Solid
 62
     7
370
    25
100
AcDbLine
 10
2.881022401894487
 20
22.66834120282509
 30
0.0
 11
2.881022401894493
 21
21.83910757363624
 31
0.0
  0
LINE
  5
152
330
1F
100
AcDbEntity
  8
0
  6
SLD-Solid
 62
     7
370
    25
100
AcDbLine
 10
10.6260224018945
 20
9.792143809414284
 30
0.0
 11
10.6260224018945
 21
9.800337102467017
 31
0.0
  0
LINE
  5
153
330
1F
100
AcDbEntity
  8
0
  6
SLD-Solid
 62
     7
370
    25
100
AcDbLine
 10
2.881022401894499
 20
9.79214380941428
 30
0.0
 11
2.881022401894499
 21
9.800337102467013
 31
0.0
  0
LINE
  5
154
330
1F
100
AcDbEntity
  8
0
  6
SLD-Solid
 62
     7
370
    25
100
AcDbLine
 10
10.4660224018945
 20
8.355776963308902
 30
0.0
 11
3.041022401894498
 21
8.3557769633089
 31
0.0
  0
LINE
  5
155
330
1F
100
AcDbEntity
  8
0
  6
SLD-Solid
 62
     7
370
    25
100
AcDbLine
 10
10.4660224018945
 20
8.395449601996548
 30
0.0
 11
10.4660224018945
 21
8.355776963308902
 31
0.0
  0
LINE
  5
156
330
1F
100
AcDbEntity
  8
0
  6
SLD-Solid
 62
     7
370
    25
100
AcDbLine
 10
3.041022401894497
 20
8.395449601996546
 30
0.0
 11
3.041022401894498
 21
8.3557769633089
 31
0.0
  0
ARC
  5
157
330
1F
100
AcDbEntity
  8
0
  6
SLD-Solid
 62
     7
370
    25
100
AcDbCircle
 10
3.031022401894497
 20
8.445776963308901
 30
0.0
 40
0.0900000000000016
100
AcDbArc
 50
179.9999999999864
 51
270.0000000000008
  0
LINE
  5
158
330
1F
100
AcDbEntity
  8
0
  6
SLD-Solid
 62
     7
370
    25
100
AcDbLine
 10
3.041022401894498
 20
8.355776963308896
 30
0.0
 11
3.031022401894497
 21
8.3557769633089
 31
0.0
  0
ARC
  5
159
330
1F
100
AcDbEntity
  8
0
  6
SLD-Solid
 62
     7
370
    25
100
AcDbCircle
 10
10.47602240189449
 20
8.445776963308903
 30
0.0
 40
0.0900000000000016
100
AcDbArc
 50
270.0000000000008
 51
0.0000000000136174
  0
LINE
  5
15A
330
1F
100
AcDbEntity
  8
0
  6
SLD-Solid
 62
     7
370
    25
100
AcDbLine
 10
10.4660224018945
 20
8.355776963308898
 30
0.0
 11
10.47602240189449
 21
8.355776963308902
 31
0.0
  0
LINE
  5
15B
330
1F
100
AcDbEntity
  8
0
  6
SLD-Solid
 62
     7
370
    25
100
AcDbLine
 10
10.48938226661682
 20
22.7295029016324
 30
0.0
 11
10.51638226661682
 21
22.7295029016324
 31
0.0
  0
LINE
  5
15C
330
1F
100
AcDbEntity
  8
0
  6
SLD-Solid
 62
     7
370
    25
100
AcDbLine
 10
10.51638226661682
 20
22.7295029016324
 30
0.0
 11
10.51638226661682
 21
22.71878493393517
 31
0.0
  0
LINE
  5
15D
330
1F
100
AcDbEntity
  8
0
  6
SLD-Solid
 62
     7
370
    25
100
AcDbLine
 10
3.01766253717216
 20
22.7295029016324
 30
0.0
 11
2.990662537172156
 21
22.7295029016324
 31
0.0
  0
LINE
  5
15E
330
1F
100
AcDbEntity
  8
0
  6
SLD-Solid
 62
     7
370
    25
100
AcDbLine
 10
10.48938226661682
 20
22.7295029016324
 30
0.0
 11
3.01766253717216
 21
22.7295029016324
 31
0.0
  0
LINE
  5
15F
330
1F
100
AcDbEntity
  8
0
  6
SLD-Solid
 62
     7
370
    25
100
AcDbLine
 10
2.990662537172156
 20
22.7295029016324
 30
0.0
 11
2.990662537172157
 21
22.71878493393517
 31
0.0
  0
ARC
  5
160
330
1F
100
AcDbEntity
  8
0
  6
SLD-Solid
 62
     7
370
    25
100
AcDbCircle
 10
3.01766253717216
 20
22.64950290163241
 30
0.0
 40
0.0799999999999972
100
AcDbArc
 50
109.7246335587051
 51
139.8235337835505
  0
ARC
  5
161
330
1F
100
AcDbEntity
  8
0
  6
SLD-Solid
 62
     7
370
    25
100
AcDbCircle
 10
10.48938226661682
 20
22.64950290163241
 30
0.0
 40
0.0799999999999984
100
AcDbArc
 50
40.17646620827663
 51
70.27536644129577
  0
LINE
  5
162
330
1F
100
AcDbEntity
  8
0
  6
SLD-Solid
 62
     7
370
    25
100
AcDbLine
 10
2.978163786454472
 20
21.74950290163238
 30
0.0
 11
2.987662537172155
 21
21.74950290163238
 31
0.0
  0
LINE
  5
163
330
1F
100
AcDbEntity
  8
0
  6
SLD-Solid
 62
     7
370
    25
100
AcDbLine
 10
2.987662537172155
 20
21.74950290163238
 30
0.0
 11
2.987662537172155
 21
21.76163541745971
 31
0.0
  0
LINE
  5
164
330
1F
100
AcDbEntity
  8
0
  6
SLD-Solid
 62
     7
370
    25
100
AcDbLine
 10
2.937662537172155
 20
21.85603616984828
 30
0.0
 11
2.937662537172155
 21
21.8130301592141
 31
0.0
  0
LINE
  5
165
330
1F
100
AcDbEntity
  8
0
  6
SLD-Solid
 62
     7
370
    25
100
AcDbLine
 10
10.53055073349376
 20
21.74950290163238
 30
0.0
 11
10.51938226661682
 21
21.74950290163238
 31
0.0
  0
LINE
  5
166
330
1F
100
AcDbEntity
  8
0
  6
SLD-Solid
 62
     7
370
    25
100
AcDbLine
 10
10.51938226661682
 20
21.74950290163238
 30
0.0
 11
10.51938226661682
 21
21.76163541745971
 31
0.0
  0
LINE
  5
167
330
1F
100
AcDbEntity
  8
0
  6
SLD-Solid
 62
     7
370
    25
100
AcDbLine
 10
10.56938226661683
 20
21.85603616984828
 30
0.0
 11
10.56938226661683
 21
21.8130301592141
 31
0.0
  0
LINE
  5
168
330
1F
100
AcDbEntity
  8
0
  6
SLD-Solid
 62
     7
370
    25
100
AcDbLine
 10
2.94102240189449
 20
8.405776963308906
 30
0.0
 11
2.94102240189449
 21
8.355776963308895
 31
0.0
  0
LINE
  5
169
330
1F
100
AcDbEntity
  8
0
  6
SLD-Solid
 62
     7
370
    25
100
AcDbLine
 10
3.031022401894489
 20
8.355776963308895
 30
0.0
 11
2.94102240189449
 21
8.355776963308895
 31
0.0
  0
LINE
  5
16A
330
1F
100
AcDbEntity
  8
0
  6
SLD-Solid
 62
     7
370
    25
100
AcDbLine
 10
2.950399824411505
 20
8.405776963308895
 30
0.0
 11
2.94102240189449
 21
8.405776963308906
 31
0.0
  0
LINE
  5
16B
330
1F
100
AcDbEntity
  8
0
  6
SLD-Solid
 62
     7
370
    25
100
AcDbLine
 10
10.57602240189451
 20
22.50802397433044
 30
0.0
 11
10.56938226661682
 21
22.50802397433044
 31
0.0
  0
LINE
  5
16C
330
1F
100
AcDbEntity
  8
0
  6
SLD-Solid
 62
     7
370
    25
100
AcDbLine
 10
2.93102240189447
 20
22.50802397433043
 30
0.0
 11
2.937662537172157
 21
22.50802397433043
 31
0.0
  0
LINE
  5
16D
330
1F
100
AcDbEntity
  8
0
  6
SLD-Solid
 62
     8
370
    25
100
AcDbLine
 10
2.941022401894496
 20
8.50451281246312
 30
0.0
 11
2.931022401894499
 21
8.50451281246312
 31
0.0
  0
LINE
  5
16E
330
1F
100
AcDbEntity
  8
0
  6
SLD-Solid
 62
     8
370
    25
100
AcDbLine
 10
2.931022401894499
 20
8.859512812463123
 30
0.0
 11
2.941022401894495
 21
8.859512812463123
 31
0.0
  0
LINE
  5
16F
330
1F
100
AcDbEntity
  8
0
  6
SLD-Solid
 62
     8
370
    25
100
AcDbLine
 10
10.5660224018945
 20
8.504512812463108
 30
0.0
 11
10.57602240189449
 21
8.504512812463108
 31
0.0
  0
LINE
  5
170
330
1F
100
AcDbEntity
  8
0
  6
SLD-Solid
 62
     8
370
    25
100
AcDbLine
 10
10.57602240189449
 20
8.85951281246311
 30
0.0
 11
10.5660224018945
 21
8.85951281246311
 31
0.0
  0
LINE
  5
171
330
1F
100
AcDbEntity
  8
0
  6
SLD-Solid
 62
     8
370
    25
100
AcDbLine
 10
2.943383928479194
 20
8.445776963308926
 30
0.0
 11
2.941022401894497
 21
8.445776963308923
 31
0.0
  0
LINE
  5
172
330
1F
100
AcDbEntity
  8
0
  6
SLD-Solid
 62
     8
370
    25
100
AcDbLine
 10
3.031022401894497
 20
8.395449601996544
 30
0.0
 11
3.031022401894497
 21
8.3557769633089
 31
0.0
  0
LINE
  5
173
330
1F
100
AcDbEntity
  8
0
  6
SLD-Solid
 62
     8
370
    25
100
AcDbLine
 10
10.47602240189449
 20
8.395449601996546
 30
0.0
 11
10.47602240189449
 21
8.355776963308902
 31
0.0
  0
LINE
  5
174
330
1F
100
AcDbEntity
  8
0
  6
SLD-Solid
 62
     8
370
    25
100
AcDbLine
 10
10.5636608753098
 20
8.44577696330893
 30
0.0
 11
10.56602240189449
 21
8.445776963308925
 31
0.0
  0
LINE
  5
175
330
1F
100
AcDbEntity
  8
0
  6
SLD-Solid
 62
     8
370
    25
100
AcDbLine
 10
2.965197594923284
 20
9.844458398725465
 30
0.0
 11
2.965197594923284
 21
9.815721888865038
 31
0.0
  0
LINE
  5
176
330
1F
100
AcDbEntity
  8
0
  6
SLD-Solid
 62
     8
370
    25
100
AcDbLine
 10
10.54184720886571
 20
9.84479625945848
 30
0.0
 11
10.54184720886571
 21
9.815721888865044
 31
0.0
  0
DIMENSION
  5
177
330
1F
100
AcDbEntity
  8
DIMS
100
AcDbDimension
  2
_D
 10
1.77102240189217
 20
22.7295029016324
 30
0.0
 11
1.771022401892172
 21
15.7273232712046
 31
0.0
 70
    32
  1
<>
 71
     2
 42
-1.0
  3
SLDDIMSTYLE0
100
AcDbAlignedDimension
 13
3.031022401894496
 23
8.3557769633089
 33
0.0
 14
2.990662537172157
 24
22.7295029016324
 34
0.0
 50
90.0000000000002
100
AcDbRotatedDimension
  0
MTEXT
  5
18D
330
1F
100
AcDbEntity
  8
NOTES
100
AcDbMText
 10
8.604779522232763
 20
23.58229965909937
 30
0.0
 40
0.25
 41
0.0
 71
     1
 72
     1
  1
key lock
  7
SLDTEXTSTYLE0
 73
     1
 44
1.0
  0
LEADER
  5
18F
330
1F
100
AcDbEntity
  8
NOTES
100
AcDbLeader
  3
SLDDIMSTYLE1
 76
     3
 10
7.066474582010602
 20
21.16022693235408
 30
0.0
 10
8.330216535433083
 20
23.46265857687262
 30
0.0
 10
8.580216535433083
 20
23.46265857687262
 30
0.0
1001
ACAD
1000
DSTYLE
1002
{
1070
   176
1070
     0
1070
    77
1070
     0
1070
    40
1040
1.0
1070
   147
1040
0.0
1002
}
  0
LINE
  5
190
330
1F
100
AcDbEntity
  8
0
  6
SLD-Solid
 62
     7
370
    25
100
AcDbLine
 10
6.316022401894513
 20
88.41442568699078
 30
0.0
 11
6.316022401894513
 21
88.31442568699077
 31
0.0
  0
LINE
  5
191
330
1F
100
AcDbEntity
  8
0
  6
SLD-Solid
 62
     7
370
    25
100
AcDbLine
 10
7.191022401894513
 20
88.31442568699077
 30
0.0
 11
7.191022401894513
 21
88.41442568699078
 31
0.0
  0
ARC
  5
192
330
1F
100
AcDbEntity
  8
0
  6
SLD-Solid
 62
     7
370
    25
100
AcDbCircle
 10
7.091022401894513
 20
88.31442568699077
 30
0.0
 40
0.1000000000000005
100
AcDbArc
 50
270.0000000000008
 51
0.0
  0
ARC
  5
193
330
1F
100
AcDbEntity
  8
0
  6
SLD-Solid
 62
     7
370
    25
100
AcDbCircle
 10
6.416022401894513
 20
88.31442568699077
 30
0.0
 40
0.0999999999999996
100
AcDbArc
 50
180.0
 51
270.0000000000008
  0
LINE
  5
194
330
1F
100
AcDbEntity
  8
0
  6
SLD-Solid
 62
     7
370
    25
100
AcDbLine
 10
2.881022401894498
 20
91.76226101393293
 30
0.0
 11
2.851022401891413
 21
91.76226101393293
 31
0.0
  0
LINE
  5
195
330
1F
100
AcDbEntity
  8
0
  6
SLD-Solid
 62
     7
370
    25
100
AcDbLine
 10
2.851022401891413
 20
91.38226101393293
 30
0.0
 11
2.881022401894498
 21
91.38226101393293
 31
0.0
  0
LINE
  5
196
330
1F
100
AcDbEntity
  8
0
  6
SLD-Solid
 62
     7
370
    25
100
AcDbLine
 10
2.851022401891413
 20
91.76226101393293
 30
0.0
 11
2.821022401892173
 21
91.66993050781763
 31
0.0
  0
LINE
  5
197
330
1F
100
AcDbEntity
  8
0
  6
SLD-Solid
 62
     7
370
    25
100
AcDbLine
 10
2.821022401892173
 20
91.47459152004824
 30
0.0
 11
2.851022401891413
 21
91.38226101393293
 31
0.0
  0
LINE
  5
198
330
1F
100
AcDbEntity
  8
0
  6
SLD-Solid
 62
     7
370
    25
100
AcDbLine
 10
10.62602240189308
 20
91.38226101393293
 30
0.0
 11
10.65602240189617
 21
91.38226101393293
 31
0.0
  0
LINE
  5
199
330
1F
100
AcDbEntity
  8
0
  6
SLD-Solid
 62
     7
370
    25
100
AcDbLine
 10
10.65602240189617
 20
91.76226101393293
 30
0.0
 11
10.62602240189308
 21
91.76226101393293
 31
0.0
  0
LINE
  5
19A
330
1F
100
AcDbEntity
  8
0
  6
SLD-Solid
 62
     7
370
    25
100
AcDbLine
 10
10.65602240189617
 20
91.38226101393293
 30
0.0
 11
10.68602240189541
 21
91.47459152004822
 31
0.0
  0
LINE
  5
19B
330
1F
100
AcDbEntity
  8
0
  6
SLD-Solid
 62
     7
370
    25
100
AcDbLine
 10
10.68602240189541
 20
91.66993050781761
 30
0.0
 11
10.65602240189617
 21
91.76226101393293
 31
0.0
  0
LINE
  5
19C
330
1F
100
AcDbEntity
  8
0
  6
SLD-Solid
 62
     7
370
    25
100
AcDbLine
 10
6.753522401894514
 20
88.2144256869908
 30
0.0
 11
6.416022401894513
 21
88.2144256869908
 31
0.0
  0
LINE
  5
19D
330
1F
100
AcDbEntity
  8
0
  6
SLD-Solid
 62
     7
370
    25
100
AcDbLine
 10
7.091022401894513
 20
88.2144256869908
 30
0.0
 11
6.753522401894514
 21
88.2144256869908
 31
0.0
  0
LINE
  5
19E
330
1F
100
AcDbEntity
  8
0
  6
SLD-Solid
 62
     7
370
    25
100
AcDbLine
 10
2.851022401891413
 20
91.75120451058436
 30
0.0
 11
2.851022401891413
 21
91.38226101393293
 31
0.0
  0
LINE
  5
19F
330
1F
100
AcDbEntity
  8
0
  6
SLD-Solid
 62
     7
370
    25
100
AcDbLine
 10
2.851022401891413
 20
91.76226101393293
 30
0.0
 11
2.851022401891413
 21
91.75120451058436
 31
0.0
  0
LINE
  5
1A0
330
1F
100
AcDbEntity
  8
0
  6
SLD-Solid
 62
     7
370
    25
100
AcDbLine
 10
2.821022401892173
 20
91.66993050781763
 30
0.0
 11
2.821022401892173
 21
91.47459152004824
 31
0.0
  0
LINE
  5
1A1
330
1F
100
AcDbEntity
  8
0
  6
SLD-Solid
 62
     7
370
    25
100
AcDbLine
 10
10.65602240189617
 20
91.72785037962379
 30
0.0
 11
10.65602240189617
 21
91.76226101393293
 31
0.0
  0
LINE
  5
1A2
330
1F
100
AcDbEntity
  8
0
  6
SLD-Solid
 62
     7
370
    25
100
AcDbLine
 10
10.65602240189617
 20
91.38226101393293
 30
0.0
 11
10.65602240189617
 21
91.72785037962379
 31
0.0
  0
LINE
  5
1A3
330
1F
100
AcDbEntity
  8
0
  6
SLD-Solid
 62
     7
370
    25
100
AcDbLine
 10
10.68602240189541
 20
91.65224172235855
 30
0.0
 11
10.68602240189541
 21
91.66993050781761
 31
0.0
  0
LINE
  5
1A4
330
1F
100
AcDbEntity
  8
0
  6
SLD-Solid
 62
     7
370
    25
100
AcDbLine
 10
10.68602240189541
 20
91.47459152004822
 30
0.0
 11
10.68602240189541
 21
91.65224172235855
 31
0.0
  0
LINE
  5
1A5
330
1F
100
AcDbEntity
  8
0
  6
SLD-Solid
 62
     7
370
    25
100
AcDbLine
 10
3.649180695248317
 20
94.35226101393293
 30
0.0
 11
3.649180695248317
 21
94.28226101393292
 31
0.0
  0
LINE
  5
1A6
330
1F
100
AcDbEntity
  8
0
  6
SLD-Solid
 62
     7
370
    25
100
AcDbLine
 10
3.774180695248317
 20
94.35226101393293
 30
0.0
 11
3.649180695248317
 21
94.35226101393293
 31
0.0
  0
LINE
  5
1A7
330
1F
100
AcDbEntity
  8
0
  6
SLD-Solid
 62
     7
370
    25
100
AcDbLine
 10
3.774180695248317
 20
94.28226101393292
 30
0.0
 11
3.774180695248317
 21
94.35226101393293
 31
0.0
  0
LINE
  5
1A8
330
1F
100
AcDbEntity
  8
0
  6
SLD-Solid
 62
     7
370
    25
100
AcDbLine
 10
3.649180695248317
 20
94.28226101393292
 30
0.0
 11
3.774180695248317
 21
94.28226101393292
 31
0.0
  0
LINE
  5
1A9
330
1F
100
AcDbEntity
  8
0
  6
SLD-Solid
 62
     7
370
    25
100
AcDbLine
 10
4.324380537584742
 20
94.35226101393293
 30
0.0
 11
4.324380537584742
 21
94.28226101393292
 31
0.0
  0
LINE
  5
1AA
330
1F
100
AcDbEntity
  8
0
  6
SLD-Solid
 62
     7
370
    25
100
AcDbLine
 10
4.449380537584741
 20
94.35226101393293
 30
0.0
 11
4.324380537584742
 21
94.35226101393293
 31
0.0
  0
LINE
  5
1AB
330
1F
100
AcDbEntity
  8
0
  6
SLD-Solid
 62
     7
370
    25
100
AcDbLine
 10
4.449380537584741
 20
94.28226101393292
 30
0.0
 11
4.449380537584741
 21
94.35226101393293
 31
0.0
  0
LINE
  5
1AC
330
1F
100
AcDbEntity
  8
0
  6
SLD-Solid
 62
     7
370
    25
100
AcDbLine
 10
4.324380537584742
 20
94.28226101393292
 30
0.0
 11
4.449380537584741
 21
94.28226101393292
 31
0.0
  0
LINE
  5
1AD
330
1F
100
AcDbEntity
  8
0
  6
SLD-Solid
 62
     7
370
    25
100
AcDbLine
 10
4.324380537584742
 20
94.35226101393293
 30
0.0
 11
3.774180695248317
 21
94.35226101393293
 31
0.0
  0
LINE
  5
1AE
330
1F
100
AcDbEntity
  8
0
  6
SLD-Solid
 62
     7
370
    25
100
AcDbLine
 10
4.324380537584742
 20
94.28226101393292
 30
0.0
 11
3.774180695248317
 21
94.28226101393292
 31
0.0
  0
LINE
  5
1AF
330
1F
100
AcDbEntity
  8
0
  6
SLD-Solid
 62
     7
370
    25
100
AcDbLine
 10
9.732864108540719
 20
94.28226101393292
 30
0.0
 11
9.732864108540719
 21
94.35226101393293
 31
0.0
  0
LINE
  5
1B0
330
1F
100
AcDbEntity
  8
0
  6
SLD-Solid
 62
     7
370
    25
100
AcDbLine
 10
9.85786410854072
 20
94.35226101393293
 30
0.0
 11
9.85786410854072
 21
94.28226101393292
 31
0.0
  0
LINE
  5
1B1
330
1F
100
AcDbEntity
  8
0
  6
SLD-Solid
 62
     7
370
    25
100
AcDbLine
 10
9.732864108540719
 20
94.35226101393293
 30
0.0
 11
9.85786410854072
 21
94.35226101393293
 31
0.0
  0
LINE
  5
1B2
330
1F
100
AcDbEntity
  8
0
  6
SLD-Solid
 62
     7
370
    25
100
AcDbLine
 10
9.85786410854072
 20
94.28226101393292
 30
0.0
 11
9.732864108540719
 21
94.28226101393292
 31
0.0
  0
LINE
  5
1B3
330
1F
100
AcDbEntity
  8
0
  6
SLD-Solid
 62
     7
370
    25
100
AcDbLine
 10
9.057664266204293
 20
94.28226101393292
 30
0.0
 11
9.057664266204293
 21
94.35226101393293
 31
0.0
  0
LINE
  5
1B4
330
1F
100
AcDbEntity
  8
0
  6
SLD-Solid
 62
     7
370
    25
100
AcDbLine
 10
9.182664266204295
 20
94.35226101393293
 30
0.0
 11
9.182664266204295
 21
94.28226101393292
 31
0.0
  0
LINE
  5
1B5
330
1F
100
AcDbEntity
  8
0
  6
SLD-Solid
 62
     7
370
    25
100
AcDbLine
 10
9.057664266204293
 20
94.35226101393293
 30
0.0
 11
9.182664266204295
 21
94.35226101393293
 31
0.0
  0
LINE
  5
1B6
330
1F
100
AcDbEntity
  8
0
  6
SLD-Solid
 62
     7
370
    25
100
AcDbLine
 10
9.182664266204295
 20
94.28226101393292
 30
0.0
 11
9.057664266204293
 21
94.28226101393292
 31
0.0
  0
LINE
  5
1B7
330
1F
100
AcDbEntity
  8
0
  6
SLD-Solid
 62
     7
370
    25
100
AcDbLine
 10
9.182664266204295
 20
94.35226101393293
 30
0.0
 11
9.732864108540719
 21
94.35226101393293
 31
0.0
  0
LINE
  5
1B8
330
1F
100
AcDbEntity
  8
0
  6
SLD-Solid
 62
     7
370
    25
100
AcDbLine
 10
9.182664266204295
 20
94.28226101393292
 30
0.0
 11
9.732864108540719
 21
94.28226101393292
 31
0.0
  0
LINE
  5
1B9
330
1F
100
AcDbEntity
  8
0
  6
SLD-Solid
 62
     7
370
    25
100
AcDbLine
 10
9.022664266204275
 20
94.24283547840827
 30
0.0
 11
9.022664266204274
 21
94.35226101393293
 31
0.0
  0
LINE
  5
1BA
330
1F
100
AcDbEntity
  8
0
  6
SLD-Solid
 62
     7
370
    25
100
AcDbLine
 10
4.484380537584759
 20
94.35226101393293
 30
0.0
 11
4.484380537584759
 21
94.24283547840827
 31
0.0
  0
LINE
  5
1BB
330
1F
100
AcDbEntity
  8
0
  6
SLD-Solid
 62
     7
370
    25
100
AcDbLine
 10
4.484380537584759
 20
94.35226101393293
 30
0.0
 11
9.022664266204274
 21
94.35226101393293
 31
0.0
  0
ARC
  5
1BC
330
1F
100
AcDbEntity
  8
0
  6
SLD-Solid
 62
     7
370
    25
100
AcDbCircle
 10
3.438522401894517
 20
94.23226101393293
 30
0.0
 40
0.1200000000000045
100
AcDbArc
 50
90.0
 51
174.9445078291553
  0
LINE
  5
1BD
330
1F
100
AcDbEntity
  8
0
  6
SLD-Solid
 62
     7
370
    25
100
AcDbLine
 10
3.438522401894517
 20
94.28226101393292
 30
0.0
 11
3.438522401894517
 21
94.35226101393293
 31
0.0
  0
ARC
  5
1BE
330
1F
100
AcDbEntity
  8
0
  6
SLD-Solid
 62
     7
370
    25
100
AcDbCircle
 10
3.438522401894517
 20
94.23226101393293
 30
0.0
 40
0.0500000000000001
100
AcDbArc
 50
90.0
 51
167.7903572991011
  0
LINE
  5
1BF
330
1F
100
AcDbEntity
  8
0
  6
SLD-Solid
 62
     7
370
    25
100
AcDbLine
 10
3.438522401894517
 20
94.35226101393293
 30
0.0
 11
3.649180695248316
 21
94.35226101393293
 31
0.0
  0
LINE
  5
1C0
330
1F
100
AcDbEntity
  8
0
  6
SLD-Solid
 62
     7
370
    25
100
AcDbLine
 10
3.438522401894517
 20
94.28226101393292
 30
0.0
 11
3.649180695248316
 21
94.28226101393292
 31
0.0
  0
LINE
  5
1C1
330
1F
100
AcDbEntity
  8
0
  6
SLD-Solid
 62
     7
370
    25
100
AcDbLine
 10
4.44938053758474
 20
94.35226101393293
 30
0.0
 11
4.484380537584759
 21
94.35226101393293
 31
0.0
  0
LINE
  5
1C2
330
1F
100
AcDbEntity
  8
0
  6
SLD-Solid
 62
     7
370
    25
100
AcDbLine
 10
4.44938053758474
 20
94.28226101393292
 30
0.0
 11
4.484380537584759
 21
94.28226101393292
 31
0.0
  0
LINE
  5
1C3
330
1F
100
AcDbEntity
  8
0
  6
SLD-Solid
 62
     7
370
    25
100
AcDbLine
 10
9.057664266204293
 20
94.35226101393293
 30
0.0
 11
9.022664266204275
 21
94.35226101393293
 31
0.0
  0
LINE
  5
1C4
330
1F
100
AcDbEntity
  8
0
  6
SLD-Solid
 62
     7
370
    25
100
AcDbLine
 10
9.057664266204293
 20
94.28226101393292
 30
0.0
 11
9.022664266204275
 21
94.28226101393292
 31
0.0
  0
LINE
  5
1C5
330
1F
100
AcDbEntity
  8
0
  6
SLD-Solid
 62
     7
370
    25
100
AcDbLine
 10
10.06852240189452
 20
94.28226101393292
 30
0.0
 11
10.06852240189452
 21
94.35226101393293
 31
0.0
  0
ARC
  5
1C6
330
1F
100
AcDbEntity
  8
0
  6
SLD-Solid
 62
     7
370
    25
100
AcDbCircle
 10
10.06852240189452
 20
94.23226101393293
 30
0.0
 40
0.1200000000000045
100
AcDbArc
 50
5.055492170844672
 51
90.0
  0
ARC
  5
1C7
330
1F
100
AcDbEntity
  8
0
  6
SLD-Solid
 62
     7
370
    25
100
AcDbCircle
 10
10.06852240189452
 20
94.23226101393293
 30
0.0
 40
0.0500000000000014
100
AcDbArc
 50
12.20964270089857
 51
90.0
  0
LINE
  5
1C8
330
1F
100
AcDbEntity
  8
0
  6
SLD-Solid
 62
     7
370
    25
100
AcDbLine
 10
10.06852240189452
 20
94.35226101393293
 30
0.0
 11
9.857864108540717
 21
94.35226101393293
 31
0.0
  0
LINE
  5
1C9
330
1F
100
AcDbEntity
  8
0
  6
SLD-Solid
 62
     7
370
    25
100
AcDbLine
 10
10.06852240189452
 20
94.28226101393292
 30
0.0
 11
9.857864108540717
 21
94.28226101393292
 31
0.0
  0
LINE
  5
1CA
330
1F
100
AcDbEntity
  8
0
  6
SLD-Solid
 62
     7
370
    25
100
AcDbLine
 10
2.937662537172148
 20
94.19726101393293
 30
0.0
 11
2.931022401894471
 21
94.19726101393293
 31
0.0
  0
LINE
  5
1CB
330
1F
100
AcDbEntity
  8
0
  6
SLD-Solid
 62
     7
370
    25
100
AcDbLine
 10
2.931022401894487
 20
91.03226101393292
 30
0.0
 11
2.937662537172155
 21
91.03226101393292
 31
0.0
  0
LINE
  5
1CC
330
1F
100
AcDbEntity
  8
0
  6
SLD-Solid
 62
     7
370
    25
100
AcDbLine
 10
10.56938226661683
 20
94.19726101393293
 30
0.0
 11
10.57602240189451
 21
94.19726101393293
 31
0.0
  0
LINE
  5
1CD
330
1F
100
AcDbEntity
  8
0
  6
SLD-Solid
 62
     7
370
    25
100
AcDbLine
 10
10.57602240189449
 20
91.03226101393292
 30
0.0
 11
10.56938226661683
 21
91.03226101393292
 31
0.0
  0
LINE
  5
1CE
330
1F
100
AcDbEntity
  8
0
  6
SLD-Solid
 62
     7
370
    25
100
AcDbLine
 10
9.963522401894497
 20
94.28226101393292
 30
0.0
 11
9.963522401894497
 21
94.24283547840821
 31
0.0
  0
LINE
  5
1CF
330
1F
100
AcDbEntity
  8
0
  6
SLD-Solid
 62
     7
370
    25
100
AcDbLine
 10
3.543522401894498
 20
94.28226101393292
 30
0.0
 11
3.543522401894498
 21
94.24283547840821
 31
0.0
  0
LINE
  5
1D0
330
1F
100
AcDbEntity
  8
0
  6
SLD-Solid
 62
     7
370
    25
100
AcDbLine
 10
10.27155721665495
 20
94.19726101393293
 30
0.0
 11
10.21355188826589
 21
94.19726101393293
 31
0.0
  0
LINE
  5
1D1
330
1F
100
AcDbEntity
  8
0
  6
SLD-Solid
 62
     7
370
    25
100
AcDbLine
 10
3.235487587134031
 20
94.19726101393293
 30
0.0
 11
3.293492915523089
 21
94.19726101393293
 31
0.0
  0
LINE
  5
1D2
330
1F
100
AcDbEntity
  8
0
  6
SLD-Solid
 62
     7
370
    25
100
AcDbLine
 10
3.293492915523085
 20
94.24283547840827
 30
0.0
 11
3.293492915523085
 21
94.16283547840827
 31
0.0
  0
LINE
  5
1D3
330
1F
100
AcDbEntity
  8
0
  6
SLD-Solid
 62
     7
370
    25
100
AcDbLine
 10
10.21355188826589
 20
94.24283547840827
 30
0.0
 11
3.293492915523085
 21
94.24283547840827
 31
0.0
  0
LINE
  5
1D4
330
1F
100
AcDbEntity
  8
0
  6
SLD-Solid
 62
     7
370
    25
100
AcDbLine
 10
10.21355188826589
 20
94.16283547840827
 30
0.0
 11
3.293492915523085
 21
94.16283547840827
 31
0.0
  0
LINE
  5
1D5
330
1F
100
AcDbEntity
  8
0
  6
SLD-Solid
 62
     7
370
    25
100
AcDbLine
 10
10.21355188826589
 20
94.24283547840827
 30
0.0
 11
10.21355188826589
 21
94.16283547840827
 31
0.0
  0
LINE
  5
1D6
330
1F
100
AcDbEntity
  8
0
  6
SLD-Solid
 62
     7
370
    25
100
AcDbLine
 10
10.48938226661682
 20
90.14487395418121
 30
0.0
 11
10.48938226661682
 21
94.20783547840827
 31
0.0
  0
LINE
  5
1D7
330
1F
100
AcDbEntity
  8
0
  6
SLD-Solid
 62
     7
370
    25
100
AcDbLine
 10
10.48938226661682
 20
90.14487395418121
 30
0.0
 11
3.01766253717216
 21
90.14487395418121
 31
0.0
  0
LINE
  5
1D8
330
1F
100
AcDbEntity
  8
0
  6
SLD-Solid
 62
     7
370
    25
100
AcDbLine
 10
3.01766253717216
 20
90.14487395418121
 30
0.0
 11
3.017662537172154
 21
94.20783547840827
 31
0.0
  0
LINE
  5
1D9
330
1F
100
AcDbEntity
  8
0
  6
SLD-Solid
 62
     7
370
    25
100
AcDbLine
 10
3.017662537172154
 20
94.20783547840827
 30
0.0
 11
3.198492915523086
 21
94.20783547840827
 31
0.0
  0
ARC
  5
1DA
330
1F
100
AcDbEntity
  8
0
  6
SLD-Solid
 62
     7
370
    25
100
AcDbCircle
 10
3.198492915523086
 20
94.13783547840828
 30
0.0
 40
0.0699999999999998
100
AcDbArc
 50
0.0
 51
90.0
  0
LINE
  5
1DB
330
1F
100
AcDbEntity
  8
0
  6
SLD-Solid
 62
     7
370
    25
100
AcDbLine
 10
3.293492915523085
 20
94.13783547840828
 30
0.0
 11
3.268492915523086
 21
94.13783547840828
 31
0.0
  0
LINE
  5
1DC
330
1F
100
AcDbEntity
  8
0
  6
SLD-Solid
 62
     7
370
    25
100
AcDbLine
 10
3.293492915523085
 20
94.16283547840827
 30
0.0
 11
3.293492915523085
 21
94.13783547840828
 31
0.0
  0
LINE
  5
1DD
330
1F
100
AcDbEntity
  8
0
  6
SLD-Solid
 62
     7
370
    25
100
AcDbLine
 10
10.21355188826589
 20
94.13783547840828
 30
0.0
 11
10.23855188826589
 21
94.13783547840828
 31
0.0
  0
ARC
  5
1DE
330
1F
100
AcDbEntity
  8
0
  6
SLD-Solid
 62
     7
370
    25
100
AcDbCircle
 10
10.30855188826589
 20
94.13783547840828
 30
0.0
 40
0.0700000000000003
100
AcDbArc
 50
90.0
 51
180.0
  0
LINE
  5
1DF
330
1F
100
AcDbEntity
  8
0
  6
SLD-Solid
 62
     7
370
    25
100
AcDbLine
 10
10.48938226661682
 20
94.20783547840827
 30
0.0
 11
10.30855188826589
 21
94.20783547840827
 31
0.0
  0
CIRCLE
  5
1E0
330
1F
100
AcDbEntity
  8
0
  6
SLD-Solid
 62
     7
370
    25
100
AcDbCircle
 10
6.753522401894489
 20
91.35207395418121
 30
0.0
 40
0.6875
  0
LINE
  5
1E1
330
1F
100
AcDbEntity
  8
0
  6
SLD-Solid
 62
     7
370
    25
100
AcDbLine
 10
10.21355188826589
 20
94.16283547840827
 30
0.0
 11
10.21355188826589
 21
94.13783547840828
 31
0.0
  0
LINE
  5
1E2
330
1F
100
AcDbEntity
  8
0
  6
SLD-Solid
 62
     7
370
    25
100
AcDbLine
 10
10.56938226661682
 20
90.14487395418121
 30
0.0
 11
10.56938226661683
 21
94.20783547840827
 31
0.0
  0
LINE
  5
1E3
330
1F
100
AcDbEntity
  8
0
  6
SLD-Solid
 62
     7
370
    25
100
AcDbLine
 10
10.56938226661682
 20
90.14487395418121
 30
0.0
 11
10.51638226661682
 21
90.14487395418121
 31
0.0
  0
LINE
  5
1E4
330
1F
100
AcDbEntity
  8
0
  6
SLD-Solid
 62
     7
370
    25
100
AcDbLine
 10
10.48938226661682
 20
94.20783547840827
 30
0.0
 11
10.56938226661683
 21
94.20783547840827
 31
0.0
  0
LINE
  5
1E5
330
1F
100
AcDbEntity
  8
0
  6
SLD-Solid
 62
     7
370
    25
100
AcDbLine
 10
2.937662537172157
 20
90.14487395418121
 30
0.0
 11
2.937662537172148
 21
94.20783547840827
 31
0.0
  0
LINE
  5
1E6
330
1F
100
AcDbEntity
  8
0
  6
SLD-Solid
 62
     7
370
    25
100
AcDbLine
 10
3.017662537172154
 20
94.20783547840827
 30
0.0
 11
2.937662537172148
 21
94.20783547840827
 31
0.0
  0
LINE
  5
1E7
330
1F
100
AcDbEntity
  8
0
  6
SLD-Solid
 62
     7
370
    25
100
AcDbLine
 10
2.937662537172157
 20
90.14487395418121
 30
0.0
 11
2.990662537172157
 21
90.14487395418121
 31
0.0
  0
LINE
  5
1E8
330
1F
100
AcDbEntity
  8
0
  6
SLD-Solid
 62
     7
370
    25
100
AcDbLine
 10
10.51638226661682
 20
90.14487395418122
 30
0.0
 11
10.51638226661682
 21
90.1048739541812
 31
0.0
  0
LINE
  5
1E9
330
1F
100
AcDbEntity
  8
0
  6
SLD-Solid
 62
     7
370
    25
100
AcDbLine
 10
10.51638226661682
 20
90.1048739541812
 30
0.0
 11
2.990662537172157
 21
90.1048739541812
 31
0.0
  0
LINE
  5
1EA
330
1F
100
AcDbEntity
  8
0
  6
SLD-Solid
 62
     7
370
    25
100
AcDbLine
 10
2.990662537172156
 20
90.14487395418122
 30
0.0
 11
2.990662537172157
 21
90.1048739541812
 31
0.0
  0
LINE
  5
1EB
330
1F
100
AcDbEntity
  8
0
  6
SLD-Solid
 62
     7
370
    25
100
AcDbLine
 10
3.01766253717216
 20
90.14487395418121
 30
0.0
 11
2.990662537172156
 21
90.14487395418122
 31
0.0
  0
LINE
  5
1EC
330
1F
100
AcDbEntity
  8
0
  6
SLD-Solid
 62
     7
370
    25
100
AcDbLine
 10
10.48938226661682
 20
90.14487395418121
 30
0.0
 11
10.51638226661682
 21
90.14487395418122
 31
0.0
  0
ARC
  5
1ED
330
1F
100
AcDbEntity
  8
0
  6
SLD-Solid
 62
     7
370
    25
100
AcDbCircle
 10
10.23687022901429
 20
88.68622849519006
 30
0.0
 40
0.3325127313505468
100
AcDbArc
 50
334.8862514069356
 51
359.8829599656841
  0
ARC
  5
1EE
330
1F
100
AcDbEntity
  8
0
  6
SLD-Solid
 62
     7
370
    25
100
AcDbCircle
 10
10.32656619745699
 20
88.70234488102528
 30
0.0
 40
0.2634529157184277
100
AcDbArc
 50
271.5583651750094
 51
323.3557870169169
  0
LINE
  5
1EF
330
1F
100
AcDbEntity
  8
0
  6
SLD-Solid
 62
     7
370
    25
100
AcDbLine
 10
10.33373086535045
 20
88.46083663848007
 30
0.0
 11
10.33373086535045
 21
88.43898940579358
 31
0.0
  0
LINE
  5
1F0
330
1F
100
AcDbEntity
  8
0
  6
SLD-Solid
 62
     7
370
    25
100
AcDbLine
 10
10.31602240189449
 20
88.46083663848007
 30
0.0
 11
10.33373086535045
 21
88.46083663848007
 31
0.0
  0
LINE
  5
1F1
330
1F
100
AcDbEntity
  8
0
  6
SLD-Solid
 62
     7
370
    25
100
AcDbLine
 10
10.31602240189449
 20
88.45442568699076
 30
0.0
 11
10.31602240189449
 21
88.46083663848007
 31
0.0
  0
LINE
  5
1F2
330
1F
100
AcDbEntity
  8
0
  6
SLD-Solid
 62
     7
370
    25
100
AcDbLine
 10
10.31602240189449
 20
88.45442568699076
 30
0.0
 11
3.191022401894491
 21
88.45442568699076
 31
0.0
  0
LINE
  5
1F3
330
1F
100
AcDbEntity
  8
0
  6
SLD-Solid
 62
     7
370
    25
100
AcDbLine
 10
3.191022401894491
 20
88.45442568699076
 30
0.0
 11
3.191022401894491
 21
88.46083663848007
 31
0.0
  0
LINE
  5
1F4
330
1F
100
AcDbEntity
  8
0
  6
SLD-Solid
 62
     7
370
    25
100
AcDbLine
 10
3.191022401894491
 20
88.46083663848007
 30
0.0
 11
3.17331393843853
 21
88.46083663848007
 31
0.0
  0
LINE
  5
1F5
330
1F
100
AcDbEntity
  8
0
  6
SLD-Solid
 62
     7
370
    25
100
AcDbLine
 10
3.17331393843853
 20
88.46083663848007
 30
0.0
 11
3.17331393843853
 21
88.43898940579358
 31
0.0
  0
ARC
  5
1F6
330
1F
100
AcDbEntity
  8
0
  6
SLD-Solid
 62
     7
370
    25
100
AcDbCircle
 10
3.180478606331995
 20
88.70234488102528
 30
0.0
 40
0.2634529157184278
100
AcDbArc
 50
216.6442129830842
 51
268.4416348249912
  0
ARC
  5
1F7
330
1F
100
AcDbEntity
  8
0
  6
SLD-Solid
 62
     7
370
    25
100
AcDbCircle
 10
3.270174574774758
 20
88.6862284951901
 30
0.0
 40
0.332512731350617
100
AcDbArc
 50
180.1170400343225
 51
205.1137485930656
  0
LINE
  5
1F8
330
1F
100
AcDbEntity
  8
0
  6
SLD-Solid
 62
     7
370
    25
100
AcDbLine
 10
2.937662537172151
 20
88.68554926061549
 30
0.0
 11
2.937662537172157
 21
90.05013935829126
 31
0.0
  0
ARC
  5
1F9
330
1F
100
AcDbEntity
  8
0
  6
SLD-Solid
 62
     7
370
    25
100
AcDbCircle
 10
2.965787537172158
 20
90.04797429478178
 30
0.0
 40
0.0282082102410113
100
AcDbArc
 50
86.18873895054173
 51
175.5980503476879
  0
LINE
  5
1FA
330
1F
100
AcDbEntity
  8
0
  6
SLD-Solid
 62
     7
370
    25
100
AcDbLine
 10
2.970662537172157
 20
90.0761201204048
 30
0.0
 11
2.967662537172156
 21
90.0761201204048
 31
0.0
  0
ARC
  5
1FB
330
1F
100
AcDbEntity
  8
0
  6
SLD-Solid
 62
     7
370
    25
100
AcDbCircle
 10
2.971912537172165
 20
90.09488400415346
 30
0.0
 40
0.0188054734939939
100
AcDbArc
 50
266.1887389505127
 51
355.5980503477588
  0
LINE
  5
1FC
330
1F
100
AcDbEntity
  8
0
  6
SLD-Solid
 62
     7
370
    25
100
AcDbLine
 10
2.990662537172157
 20
90.1048739541812
 30
0.0
 11
2.990662537172157
 21
90.0934406284805
 31
0.0
  0
LINE
  5
1FD
330
1F
100
AcDbEntity
  8
0
  6
SLD-Solid
 62
     7
370
    25
100
AcDbLine
 10
10.51638226661682
 20
90.1048739541812
 30
0.0
 11
10.51638226661682
 21
90.0934406284805
 31
0.0
  0
ARC
  5
1FE
330
1F
100
AcDbEntity
  8
0
  6
SLD-Solid
 62
     7
370
    25
100
AcDbCircle
 10
10.53513226661681
 20
90.09488400415346
 30
0.0
 40
0.0188054734939941
100
AcDbArc
 50
184.4019496522439
 51
273.8112610494944
  0
LINE
  5
1FF
330
1F
100
AcDbEntity
  8
0
  6
SLD-Solid
 62
     7
370
    25
100
AcDbLine
 10
10.53638226661682
 20
90.0761201204048
 30
0.0
 11
10.53938226661682
 21
90.0761201204048
 31
0.0
  0
ARC
  5
200
330
1F
100
AcDbEntity
  8
0
  6
SLD-Solid
 62
     7
370
    25
100
AcDbCircle
 10
10.54125726661684
 20
90.04797429478181
 30
0.0
 40
0.028208210240984
100
AcDbArc
 50
4.401949652256505
 51
93.8112610494945
  0
LINE
  5
201
330
1F
100
AcDbEntity
  8
0
  6
SLD-Solid
 62
     7
370
    25
100
AcDbLine
 10
10.56938226661683
 20
88.68554926061549
 30
0.0
 11
10.56938226661683
 21
90.05013935829126
 31
0.0
  0
LINE
  5
202
330
1F
100
AcDbEntity
  8
0
  6
SLD-Solid
 62
     7
370
    25
100
AcDbLine
 10
10.53638226661682
 20
90.1011201204048
 30
0.0
 11
10.53638226661682
 21
90.0761201204048
 31
0.0
  0
ARC
  5
203
330
1F
100
AcDbEntity
  8
0
  6
SLD-Solid
 62
     7
370
    25
100
AcDbCircle
 10
10.5351322666168
 20
90.11988400415345
 30
0.0
 40
0.0188054734939807
100
AcDbArc
 50
184.4019496522468
 51
273.811261049535
  0
LINE
  5
204
330
1F
100
AcDbEntity
  8
0
  6
SLD-Solid
 62
     7
370
    25
100
AcDbLine
 10
2.970662537172157
 20
90.10112012040479
 30
0.0
 11
2.970662537172157
 21
90.0761201204048
 31
0.0
  0
ARC
  5
205
330
1F
100
AcDbEntity
  8
0
  6
SLD-Solid
 62
     7
370
    25
100
AcDbCircle
 10
2.971912537172148
 20
90.11988400415346
 30
0.0
 40
0.018805473494007
100
AcDbArc
 50
266.1887389505655
 51
355.5980503477194
  0
LINE
  5
206
330
1F
100
AcDbEntity
  8
0
  6
SLD-Solid
 62
     7
370
    25
100
AcDbLine
 10
10.53938226661682
 20
90.0761201204048
 30
0.0
 11
10.53938226661683
 21
90.1011201204048
 31
0.0
  0
LINE
  5
207
330
1F
100
AcDbEntity
  8
0
  6
SLD-Solid
 62
     7
370
    25
100
AcDbLine
 10
10.53638226661682
 20
90.1011201204048
 30
0.0
 11
10.53938226661683
 21
90.1011201204048
 31
0.0
  0
LINE
  5
208
330
1F
100
AcDbEntity
  8
0
  6
SLD-Solid
 62
     7
370
    25
100
AcDbLine
 10
10.56938226661683
 20
90.07513935829125
 30
0.0
 11
10.56938226661683
 21
90.05013935829126
 31
0.0
  0
ARC
  5
209
330
1F
100
AcDbEntity
  8
0
  6
SLD-Solid
 62
     7
370
    25
100
AcDbCircle
 10
10.54125726661682
 20
90.07297429478179
 30
0.0
 40
0.0282082102410112
100
AcDbArc
 50
4.401949652283069
 51
93.81126104945467
  0
LINE
  5
20A
330
1F
100
AcDbEntity
  8
0
  6
SLD-Solid
 62
     7
370
    25
100
AcDbLine
 10
2.967662537172156
 20
90.0761201204048
 30
0.0
 11
2.967662537172156
 21
90.10112012040479
 31
0.0
  0
LINE
  5
20B
330
1F
100
AcDbEntity
  8
0
  6
SLD-Solid
 62
     7
370
    25
100
AcDbLine
 10
2.970662537172157
 20
90.10112012040479
 30
0.0
 11
2.967662537172156
 21
90.10112012040479
 31
0.0
  0
LINE
  5
20C
330
1F
100
AcDbEntity
  8
0
  6
SLD-Solid
 62
     7
370
    25
100
AcDbLine
 10
2.937662537172155
 20
90.07513935829125
 30
0.0
 11
2.937662537172157
 21
90.05013935829126
 31
0.0
  0
ARC
  5
20D
330
1F
100
AcDbEntity
  8
0
  6
SLD-Solid
 62
     7
370
    25
100
AcDbCircle
 10
2.965787537172134
 20
90.07297429478183
 30
0.0
 40
0.0282082102409679
100
AcDbArc
 50
86.18873895048635
 51
175.5980503477995
  0
LINE
  5
20E
330
1F
100
AcDbEntity
  8
0
  6
SLD-Solid
 62
     7
370
    25
100
AcDbLine
 10
10.57602240189449
 20
90.15070046409062
 30
0.0
 11
10.6260224018945
 21
90.15070046409062
 31
0.0
  0
LINE
  5
20F
330
1F
100
AcDbEntity
  8
0
  6
SLD-Solid
 62
     7
370
    25
100
AcDbLine
 10
10.62602240189449
 20
88.71442568699078
 30
0.0
 11
10.57602240189449
 21
88.71442568699078
 31
0.0
  0
LINE
  5
210
330
1F
100
AcDbEntity
  8
0
  6
SLD-Solid
 62
     7
370
    25
100
AcDbLine
 10
10.6260224018945
 20
90.15070046409062
 30
0.0
 11
10.62602240189449
 21
88.71442568699078
 31
0.0
  0
LINE
  5
211
330
1F
100
AcDbEntity
  8
0
  6
SLD-Solid
 62
     7
370
    25
100
AcDbLine
 10
10.57602240189449
 20
90.15070046409062
 30
0.0
 11
10.57602240189449
 21
88.71442568699078
 31
0.0
  0
LINE
  5
212
330
1F
100
AcDbEntity
  8
0
  6
SLD-Solid
 62
     7
370
    25
100
AcDbLine
 10
2.881022401894492
 20
88.71442568699078
 30
0.0
 11
2.931022401894492
 21
88.71442568699078
 31
0.0
  0
LINE
  5
213
330
1F
100
AcDbEntity
  8
0
  6
SLD-Solid
 62
     7
370
    25
100
AcDbLine
 10
2.931022401894492
 20
90.15070046409062
 30
0.0
 11
2.881022401894487
 21
90.15070046409062
 31
0.0
  0
LINE
  5
214
330
1F
100
AcDbEntity
  8
0
  6
SLD-Solid
 62
     7
370
    25
100
AcDbLine
 10
2.931022401894487
 20
90.15070046409062
 30
0.0
 11
2.931022401894493
 21
88.71442568699078
 31
0.0
  0
LINE
  5
215
330
1F
100
AcDbEntity
  8
0
  6
SLD-Solid
 62
     7
370
    25
100
AcDbLine
 10
2.881022401894487
 20
90.15070046409062
 30
0.0
 11
2.881022401894493
 21
88.71442568699078
 31
0.0
  0
LINE
  5
216
330
1F
100
AcDbEntity
  8
0
  6
SLD-Solid
 62
     7
370
    25
100
AcDbLine
 10
10.62602240189451
 20
94.11442568699078
 30
0.0
 11
10.57602240189451
 21
94.11442568699078
 31
0.0
  0
LINE
  5
217
330
1F
100
AcDbEntity
  8
0
  6
SLD-Solid
 62
     7
370
    25
100
AcDbLine
 10
10.57602240189451
 20
94.26442568699079
 30
0.0
 11
10.62602240189451
 21
94.26442568699079
 31
0.0
  0
LINE
  5
218
330
1F
100
AcDbEntity
  8
0
  6
SLD-Solid
 62
     7
370
    25
100
AcDbLine
 10
10.62602240189451
 20
94.26442568699079
 30
0.0
 11
10.62602240189451
 21
94.11442568699078
 31
0.0
  0
LINE
  5
219
330
1F
100
AcDbEntity
  8
0
  6
SLD-Solid
 62
     7
370
    25
100
AcDbLine
 10
10.57602240189451
 20
94.11442568699078
 30
0.0
 11
10.57602240189451
 21
94.26442568699079
 31
0.0
  0
LINE
  5
21A
330
1F
100
AcDbEntity
  8
0
  6
SLD-Solid
 62
     7
370
    25
100
AcDbLine
 10
10.62602240189451
 20
94.11442568699078
 30
0.0
 11
10.6260224018945
 21
90.15070046409062
 31
0.0
  0
LINE
  5
21B
330
1F
100
AcDbEntity
  8
0
  6
SLD-Solid
 62
     7
370
    25
100
AcDbLine
 10
10.57602240189451
 20
94.11442568699078
 30
0.0
 11
10.57602240189449
 21
90.15070046409062
 31
0.0
  0
LINE
  5
21C
330
1F
100
AcDbEntity
  8
0
  6
SLD-Solid
 62
     7
370
    25
100
AcDbLine
 10
2.881022401894473
 20
94.11442568699078
 30
0.0
 11
2.931022401894472
 21
94.11442568699078
 31
0.0
  0
LINE
  5
21D
330
1F
100
AcDbEntity
  8
0
  6
SLD-Solid
 62
     7
370
    25
100
AcDbLine
 10
2.931022401894472
 20
94.11442568699078
 30
0.0
 11
2.931022401894492
 21
90.15070046409062
 31
0.0
  0
LINE
  5
21E
330
1F
100
AcDbEntity
  8
0
  6
SLD-Solid
 62
     7
370
    25
100
AcDbLine
 10
2.881022401894473
 20
94.11442568699078
 30
0.0
 11
2.881022401894487
 21
90.15070046409062
 31
0.0
  0
LINE
  5
21F
330
1F
100
AcDbEntity
  8
0
  6
SLD-Solid
 62
     7
370
    25
100
AcDbLine
 10
2.931022401894472
 20
94.26442568699079
 30
0.0
 11
2.881022401894471
 21
94.26442568699079
 31
0.0
  0
LINE
  5
220
330
1F
100
AcDbEntity
  8
0
  6
SLD-Solid
 62
     7
370
    25
100
AcDbLine
 10
2.931022401894472
 20
94.11442568699078
 30
0.0
 11
2.931022401894472
 21
94.26442568699079
 31
0.0
  0
LINE
  5
221
330
1F
100
AcDbEntity
  8
0
  6
SLD-Solid
 62
     7
370
    25
100
AcDbLine
 10
2.881022401894471
 20
94.26442568699079
 30
0.0
 11
2.881022401894473
 21
94.11442568699078
 31
0.0
  0
LINE
  5
222
330
1F
100
AcDbEntity
  8
0
  6
SLD-Solid
 62
     7
370
    25
100
AcDbLine
 10
10.5418472088657
 20
94.2596226768364
 30
0.0
 11
10.5348885538177
 21
94.30913608027348
 31
0.0
  0
ARC
  5
223
330
1F
100
AcDbEntity
  8
0
  6
SLD-Solid
 62
     7
370
    25
100
AcDbCircle
 10
10.54602240189451
 20
94.22991463477416
 30
0.0
 40
0.0299999999999994
100
AcDbArc
 50
0.0
 51
98.0000000000187
  0
ARC
  5
224
330
1F
100
AcDbEntity
  8
0
  6
SLD-Solid
 62
     7
370
    25
100
AcDbCircle
 10
10.54602240189451
 20
94.22991463477416
 30
0.0
 40
0.0799999999999976
100
AcDbArc
 50
25.55568810066896
 51
98.00000000000684
  0
LINE
  5
225
330
1F
100
AcDbEntity
  8
0
  6
SLD-Solid
 62
     7
370
    25
100
AcDbLine
 10
10.36607703384984
 20
94.28541116834981
 30
0.0
 11
10.37303568889784
 21
94.23589776491274
 31
0.0
  0
LINE
  5
226
330
1F
100
AcDbEntity
  8
0
  6
SLD-Solid
 62
     7
370
    25
100
AcDbLine
 10
10.22449547858661
 20
94.21502179976872
 30
0.0
 11
10.2175368235386
 21
94.2645352032058
 31
0.0
  0
LINE
  5
227
330
1F
100
AcDbEntity
  8
0
  6
SLD-Solid
 62
     7
370
    25
100
AcDbLine
 10
10.2175368235386
 20
94.2645352032058
 30
0.0
 11
10.36607703384984
 21
94.28541116834981
 31
0.0
  0
LINE
  5
228
330
1F
100
AcDbEntity
  8
0
  6
SLD-Solid
 62
     7
370
    25
100
AcDbLine
 10
10.37303568889784
 20
94.23589776491274
 30
0.0
 11
10.22449547858661
 21
94.21502179976872
 31
0.0
  0
LINE
  5
229
330
1F
100
AcDbEntity
  8
0
  6
SLD-Solid
 62
     7
370
    25
100
AcDbLine
 10
10.36607703384984
 20
94.28541116834981
 30
0.0
 11
10.5348885538177
 21
94.30913608027348
 31
0.0
  0
LINE
  5
22A
330
1F
100
AcDbEntity
  8
0
  6
SLD-Solid
 62
     7
370
    25
100
AcDbLine
 10
10.37303568889784
 20
94.23589776491274
 30
0.0
 11
10.5418472088657
 21
94.2596226768364
 31
0.0
  0
LINE
  5
22B
330
1F
100
AcDbEntity
  8
0
  6
SLD-Solid
 62
     7
370
    25
100
AcDbLine
 10
3.282549325202374
 20
94.21502179976872
 30
0.0
 11
3.289507980250377
 21
94.2645352032058
 31
0.0
  0
LINE
  5
22C
330
1F
100
AcDbEntity
  8
0
  6
SLD-Solid
 62
     7
370
    25
100
AcDbLine
 10
3.134009114891138
 20
94.23589776491274
 30
0.0
 11
3.282549325202374
 21
94.21502179976872
 31
0.0
  0
LINE
  5
22D
330
1F
100
AcDbEntity
  8
0
  6
SLD-Solid
 62
     7
370
    25
100
AcDbLine
 10
3.140967769939141
 20
94.28541116834981
 30
0.0
 11
3.134009114891138
 21
94.23589776491274
 31
0.0
  0
LINE
  5
22E
330
1F
100
AcDbEntity
  8
0
  6
SLD-Solid
 62
     7
370
    25
100
AcDbLine
 10
3.289507980250377
 20
94.2645352032058
 30
0.0
 11
3.140967769939141
 21
94.28541116834981
 31
0.0
  0
LINE
  5
22F
330
1F
100
AcDbEntity
  8
0
  6
SLD-Solid
 62
     7
370
    25
100
AcDbLine
 10
3.134009114891138
 20
94.23589776491274
 30
0.0
 11
2.96519759492328
 21
94.2596226768364
 31
0.0
  0
LINE
  5
230
330
1F
100
AcDbEntity
  8
0
  6
SLD-Solid
 62
     7
370
    25
100
AcDbLine
 10
2.96519759492328
 20
94.2596226768364
 30
0.0
 11
2.972156249971283
 21
94.30913608027348
 31
0.0
  0
LINE
  5
231
330
1F
100
AcDbEntity
  8
0
  6
SLD-Solid
 62
     7
370
    25
100
AcDbLine
 10
3.140967769939141
 20
94.28541116834981
 30
0.0
 11
2.972156249971283
 21
94.30913608027348
 31
0.0
  0
ARC
  5
232
330
1F
100
AcDbEntity
  8
0
  6
SLD-Solid
 62
     7
370
    25
100
AcDbCircle
 10
2.96102240189447
 20
94.22991463477416
 30
0.0
 40
0.0300000000000002
100
AcDbArc
 50
81.99999999998383
 51
180.0
  0
ARC
  5
233
330
1F
100
AcDbEntity
  8
0
  6
SLD-Solid
 62
     7
370
    25
100
AcDbCircle
 10
2.96102240189447
 20
94.22991463477416
 30
0.0
 40
0.0799999999999984
100
AcDbArc
 50
81.9999999999938
 51
154.4443118993313
  0
LINE
  5
234
330
1F
100
AcDbEntity
  8
0
  6
SLD-Solid
 62
     7
370
    25
100
AcDbLine
 10
10.56907515266716
 20
88.67507829032547
 30
0.0
 11
10.57602240189449
 21
88.71442568699078
 31
0.0
  0
LINE
  5
235
330
1F
100
AcDbEntity
  8
0
  6
SLD-Solid
 62
     7
370
    25
100
AcDbLine
 10
10.60788341568638
 20
88.61169122877833
 30
0.0
 11
10.62602240189449
 21
88.71442568699078
 31
0.0
  0
LINE
  5
236
330
1F
100
AcDbEntity
  8
0
  6
SLD-Solid
 62
     7
370
    25
100
AcDbLine
 10
10.60788341568638
 20
88.61169122877833
 30
0.0
 11
10.5609065800544
 21
88.6288136384804
 31
0.0
  0
LINE
  5
237
330
1F
100
AcDbEntity
  8
0
  6
SLD-Solid
 62
     7
370
    25
100
AcDbLine
 10
2.8991613881026
 20
88.61169122877833
 30
0.0
 11
2.946138223734581
 21
88.6288136384804
 31
0.0
  0
LINE
  5
238
330
1F
100
AcDbEntity
  8
0
  6
SLD-Solid
 62
     7
370
    25
100
AcDbLine
 10
2.881022401894491
 20
88.71442568699078
 30
0.0
 11
2.899161275636013
 21
88.61169153734082
 31
0.0
  0
LINE
  5
239
330
1F
100
AcDbEntity
  8
0
  6
SLD-Solid
 62
     7
370
    25
100
AcDbLine
 10
2.931022401894491
 20
88.71442568699078
 30
0.0
 11
2.937969651121823
 21
88.67507829032547
 31
0.0
  0
LINE
  5
23A
330
1F
100
AcDbEntity
  8
0
  6
SLD-Solid
 62
     7
370
    25
100
AcDbLine
 10
3.172036744536868
 20
88.41456028724974
 30
0.0
 11
3.172647747135264
 21
88.43495039685655
 31
0.0
  0
SPLINE
  5
23B
330
1F
100
AcDbEntity
  8
0
  6
SLD-Solid
 62
     7
370
    25
100
AcDbSpline
210
0.0
220
0.0
230
1.0
 70
    12
 71
     3
 72
    11
 73
     7
 74
     0
 42
0.00000001
 43
0.00000001
 40
0.0
 40
0.0
 40
0.0
 40
0.0
 40
0.2755971283866607
 40
0.4936301767167267
 40
0.7400988665380149
 40
1.0
 40
1.0
 40
1.0
 40
1.0
 10
2.8991613881026
 20
88.61169122877833
 30
0.0
 41
1.0
 10
2.912368366043876
 20
88.58335968923657
 30
0.0
 41
1.0
 10
2.936023775275495
 20
88.53261422990423
 30
0.0
 41
1.0
 10
2.999396587779451
 20
88.47132496354801
 30
0.0
 41
1.0
 10
3.0774275091944
 20
88.42624542128632
 30
0.0
 41
1.0
 10
3.139947511237563
 20
88.41852361060687
 30
0.0
 41
1.0
 10
3.172036744536866
 20
88.41456028724974
 30
0.0
 41
1.0
  0
LINE
  5
23C
330
1F
100
AcDbEntity
  8
0
  6
SLD-Solid
 62
     7
370
    25
100
AcDbLine
 10
10.33500805925211
 20
88.41456028724974
 30
0.0
 11
10.33439705665372
 21
88.43495039685655
 31
0.0
  0
SPLINE
  5
23D
330
1F
100
AcDbEntity
  8
0
  6
SLD-Solid
 62
     7
370
    25
100
AcDbSpline
210
0.0
220
0.0
230
1.0
 70
    12
 71
     3
 72
    11
 73
     7
 74
     0
 42
0.00000001
 43
0.00000001
 40
0.0
 40
0.0
 40
0.0
 40
0.0
 40
0.2808106554120416
 40
0.5051528559808998
 40
0.7465507656473455
 40
1.0
 40
1.0
 40
1.0
 40
1.0
 10
10.33500805925211
 20
88.41456028724974
 30
0.0
 41
1.0
 10
10.36967348955897
 20
88.41908317597128
 30
0.0
 41
1.0
 10
10.43203344914675
 20
88.4272194418534
 30
0.0
 41
1.0
 10
10.51168123430494
 20
88.47432546583136
 30
0.0
 41
1.0
 10
10.5728393194543
 20
88.53506848049632
 30
0.0
 41
1.0
 10
10.59601392170603
 20
88.58573897583769
 30
0.0
 41
1.0
 10
10.60788341568638
 20
88.61169122877833
 30
0.0
 41
1.0
  0
LINE
  5
23E
330
1F
100
AcDbEntity
  8
0
  6
SLD-Solid
 62
     7
370
    25
100
AcDbLine
 10
3.191022401894491
 20
88.45442568699076
 30
0.0
 11
3.191022401894491
 21
88.41442568699077
 31
0.0
  0
LINE
  5
23F
330
1F
100
AcDbEntity
  8
0
  6
SLD-Solid
 62
     7
370
    25
100
AcDbLine
 10
10.31602240189449
 20
88.45442568699076
 30
0.0
 11
10.31602240189449
 21
88.41442568699077
 31
0.0
  0
LINE
  5
240
330
1F
100
AcDbEntity
  8
0
  6
SLD-Solid
 62
     7
370
    25
100
AcDbLine
 10
10.31602240189449
 20
88.41442568699077
 30
0.0
 11
3.191022401894491
 21
88.41442568699077
 31
0.0
  0
LINE
  5
241
330
1F
100
AcDbEntity
  8
0
  6
SLD-Solid
 62
     7
370
    25
100
AcDbLine
 10
10.32602240189449
 20
88.41442568699078
 30
0.0
 11
10.32602240189449
 21
88.46442568699078
 31
0.0
  0
LINE
  5
242
330
1F
100
AcDbEntity
  8
0
  6
SLD-Solid
 62
     7
370
    25
100
AcDbLine
 10
3.181022401894489
 20
88.41442568699078
 30
0.0
 11
3.181022401894489
 21
88.46442568699078
 31
0.0
  0
LINE
  5
243
330
1F
100
AcDbEntity
  8
0
  6
SLD-Solid
 62
     7
370
    25
100
AcDbLine
 10
10.32602240189449
 20
88.41442568699078
 30
0.0
 11
10.31602240189449
 21
88.41442568699078
 31
0.0
  0
LINE
  5
244
330
1F
100
AcDbEntity
  8
0
  6
SLD-Solid
 62
     7
370
    25
100
AcDbLine
 10
3.181022401894491
 20
88.41442568699078
 30
0.0
 11
3.191022401894491
 21
88.41442568699078
 31
0.0
  0
LINE
  5
245
330
1F
100
AcDbEntity
  8
0
  6
SLD-Solid
 62
     7
370
    25
100
AcDbLine
 10
10.6260224018945
 20
88.71442568699077
 30
0.0
 11
10.6260224018945
 21
88.70825232975359
 31
0.0
  0
LINE
  5
246
330
1F
100
AcDbEntity
  8
0
  6
SLD-Solid
 62
     7
370
    25
100
AcDbLine
 10
2.881022401894499
 20
88.7144256869907
 30
0.0
 11
2.881022401894499
 21
88.70825232975359
 31
0.0
  0
LINE
  5
247
330
1F
100
AcDbEntity
  8
0
  6
SLD-Solid
 62
     7
370
    25
100
AcDbLine
 10
10.5660224018945
 20
90.14487395418116
 30
0.0
 11
10.5660224018945
 21
90.0870862153796
 31
0.0
  0
LINE
  5
248
330
1F
100
AcDbEntity
  8
0
  6
SLD-Solid
 62
     7
370
    25
100
AcDbLine
 10
2.941022401894495
 20
90.14487395418116
 30
0.0
 11
2.941022401894495
 21
90.08708621537963
 31
0.0
  0
LINE
  5
249
330
1F
100
AcDbEntity
  8
0
  6
SLD-Solid
 62
     8
370
    25
100
AcDbLine
 10
6.753522401894516
 20
88.31442568699077
 30
0.0
 11
7.191022401894513
 21
88.31442568699077
 31
0.0
  0
LINE
  5
24A
330
1F
100
AcDbEntity
  8
0
  6
SLD-Solid
 62
     8
370
    25
100
AcDbLine
 10
6.316022401894513
 20
88.31442568699077
 30
0.0
 11
6.753522401894516
 21
88.31442568699077
 31
0.0
  0
LINE
  5
24B
330
1F
100
AcDbEntity
  8
0
  6
SLD-Solid
 62
     8
370
    25
100
AcDbLine
 10
2.931022401894473
 20
94.07226101393293
 30
0.0
 11
2.937662537172148
 21
94.07226101393293
 31
0.0
  0
LINE
  5
24C
330
1F
100
AcDbEntity
  8
0
  6
SLD-Solid
 62
     8
370
    25
100
AcDbLine
 10
2.937662537172155
 20
91.15726101393294
 30
0.0
 11
2.931022401894487
 21
91.15726101393294
 31
0.0
  0
LINE
  5
24D
330
1F
100
AcDbEntity
  8
0
  6
SLD-Solid
 62
     8
370
    25
100
AcDbLine
 10
10.57602240189451
 20
94.07226101393293
 30
0.0
 11
10.56938226661683
 21
94.07226101393293
 31
0.0
  0
LINE
  5
24E
330
1F
100
AcDbEntity
  8
0
  6
SLD-Solid
 62
     8
370
    25
100
AcDbLine
 10
10.56938226661683
 20
91.15726101393294
 30
0.0
 11
10.57602240189449
 21
91.15726101393294
 31
0.0
  0
LINE
  5
24F
330
1F
100
AcDbEntity
  8
0
  6
SLD-Solid
 62
     7
370
    25
100
AcDbLine
 10
12.7706361910905
 20
21.2920029016326
 30
0.0
 11
12.6706361910905
 21
21.2920029016326
 31
0.0
  0
LINE
  5
250
330
1F
100
AcDbEntity
  8
0
  6
SLD-Solid
 62
     7
370
    25
100
AcDbLine
 10
12.67063619109051
 20
20.4170029016326
 30
0.0
 11
12.7706361910905
 21
20.4170029016326
 31
0.0
  0
ARC
  5
251
330
1F
100
AcDbEntity
  8
0
  6
SLD-Solid
 62
     7
370
    25
100
AcDbCircle
 10
12.67063619109051
 20
20.5170029016326
 30
0.0
 40
0.1000000000000032
100
AcDbArc
 50
179.9999999999995
 51
270.0000000000008
  0
ARC
  5
252
330
1F
100
AcDbEntity
  8
0
  6
SLD-Solid
 62
     7
370
    25
100
AcDbCircle
 10
12.6706361910905
 20
21.1920029016326
 30
0.0
 40
0.1000000000000014
100
AcDbArc
 50
90.0
 51
179.9999999999995
  0
LINE
  5
253
330
1F
100
AcDbEntity
  8
0
  6
SLD-Solid
 62
     7
370
    25
100
AcDbLine
 10
18.66612513887387
 20
8.594658431319756
 30
0.0
 11
18.66612513887387
 21
22.50802397433044
 31
0.0
  0
LINE
  5
254
330
1F
100
AcDbEntity
  8
0
  6
SLD-Solid
 62
     7
370
    25
100
AcDbLine
 10
12.81744997883168
 20
9.956805283280774
 30
0.0
 11
12.78927040065468
 21
9.937797917799358
 31
0.0
  0
LINE
  5
255
330
1F
100
AcDbEntity
  8
0
  6
SLD-Solid
 62
     7
370
    25
100
AcDbLine
 10
12.5706361910905
 20
20.51700291931523
 30
0.0
 11
12.5706361910905
 21
21.1920029016326
 31
0.0
  0
ARC
  5
256
330
1F
100
AcDbEntity
  8
0
  6
SLD-Solid
 62
     7
370
    25
100
AcDbCircle
 10
13.6352035044542
 20
9.12451281246304
 30
0.0
 40
0.2000000000000016
100
AcDbArc
 50
224.693041714819
 51
243.2885237196375
  0
LWPOLYLINE
  5
257
330
1F
100
AcDbEntity
  8
0
  6
SLD-Solid
 62
     7
370
    25
100
AcDbPolyline
 90
        3
 70
   128
 43
0.0
 10
13.45152383694382
 20
9.045381404392172
 10
13.44010958269623
 20
9.08048598322115
 10
13.43587931352731
 20
9.10808518599592
  0
CIRCLE
  5
258
330
1F
100
AcDbEntity
  8
0
  6
SLD-Solid
 62
     7
370
    25
100
AcDbCircle
 10
15.92847151803264
 20
8.684341202825077
 30
0.0
 40
0.1900000000000016
  0
CIRCLE
  5
259
330
1F
100
AcDbEntity
  8
0
  6
SLD-Solid
 62
     7
370
    25
100
AcDbCircle
 10
15.92847151803264
 20
8.684341202825077
 30
0.0
 40
0.0976694938846925
  0
CIRCLE
  5
25A
330
1F
100
AcDbEntity
  8
0
  6
SLD-Solid
 62
     7
370
    25
100
AcDbCircle
 10
15.92847151803264
 20
8.684341202825077
 30
0.0
 40
0.0600000000000007
  0
LINE
  5
25B
330
1F
100
AcDbEntity
  8
0
  6
SLD-Solid
 62
     7
370
    25
100
AcDbLine
 10
15.75347151803265
 20
8.38451281246311
 30
0.0
 11
15.75347151803265
 21
8.434341202825095
 31
0.0
  0
LINE
  5
25C
330
1F
100
AcDbEntity
  8
0
  6
SLD-Solid
 62
     7
370
    25
100
AcDbLine
 10
15.75347151803265
 20
8.38451281246311
 30
0.0
 11
15.38847151803265
 21
8.38451281246311
 31
0.0
  0
LINE
  5
25D
330
1F
100
AcDbEntity
  8
0
  6
SLD-Solid
 62
     7
370
    25
100
AcDbLine
 10
15.38847151803265
 20
8.434341202825095
 30
0.0
 11
15.38847151803265
 21
8.38451281246311
 31
0.0
  0
LINE
  5
25E
330
1F
100
AcDbEntity
  8
0
  6
SLD-Solid
 62
     7
370
    25
100
AcDbLine
 10
18.55347151803265
 20
8.38451281246311
 30
0.0
 11
18.55347151803265
 21
8.459287979714343
 31
0.0
  0
LINE
  5
25F
330
1F
100
AcDbEntity
  8
0
  6
SLD-Solid
 62
     7
370
    25
100
AcDbLine
 10
18.55347151803265
 20
8.38451281246311
 30
0.0
 11
16.10347151803265
 21
8.38451281246311
 31
0.0
  0
LINE
  5
260
330
1F
100
AcDbEntity
  8
0
  6
SLD-Solid
 62
     7
370
    25
100
AcDbLine
 10
16.10347151803265
 20
8.434341202825093
 30
0.0
 11
16.10347151803265
 21
8.38451281246311
 31
0.0
  0
LINE
  5
261
330
1F
100
AcDbEntity
  8
0
  6
SLD-Solid
 62
     7
370
    25
100
AcDbLine
 10
16.10347151803265
 20
8.38451281246311
 30
0.0
 11
15.75347151803265
 21
8.38451281246311
 31
0.0
  0
LINE
  5
262
330
1F
100
AcDbEntity
  8
0
  6
SLD-Solid
 62
     7
370
    25
100
AcDbLine
 10
18.62063619109053
 20
8.584469664835746
 30
0.0
 11
18.70847151803265
 21
8.584469664835746
 31
0.0
  0
LINE
  5
263
330
1F
100
AcDbEntity
  8
0
  6
SLD-Solid
 62
     7
370
    25
100
AcDbLine
 10
18.70847151803265
 20
21.38451281246311
 30
0.0
 11
18.66534658437322
 21
21.38451281246311
 31
0.0
  0
LINE
  5
264
330
1F
100
AcDbEntity
  8
0
  6
SLD-Solid
 62
     7
370
    25
100
AcDbLine
 10
18.70847151803265
 20
21.38451281246311
 30
0.0
 11
18.70847151803265
 21
8.584469664835746
 31
0.0
  0
LINE
  5
265
330
1F
100
AcDbEntity
  8
0
  6
SLD-Solid
 62
     7
370
    25
100
AcDbLine
 10
18.63847151803265
 20
8.504512812463108
 30
0.0
 11
18.70847151803265
 21
8.504512812463108
 31
0.0
  0
LINE
  5
266
330
1F
100
AcDbEntity
  8
0
  6
SLD-Solid
 62
     7
370
    25
100
AcDbLine
 10
18.63847151803265
 20
8.504512812463108
 30
0.0
 11
18.63847151803265
 21
8.584469664835746
 31
0.0
  0
LINE
  5
267
330
1F
100
AcDbEntity
  8
0
  6
SLD-Solid
 62
     7
370
    25
100
AcDbLine
 10
18.70847151803265
 20
8.504512812463108
 30
0.0
 11
18.70847151803265
 21
8.584469664835746
 31
0.0
  0
LINE
  5
268
330
1F
100
AcDbEntity
  8
0
  6
SLD-Solid
 62
     7
370
    25
100
AcDbLine
 10
18.58847151803265
 20
8.45451281246311
 30
0.0
 11
18.58847151803265
 21
8.38451281246311
 31
0.0
  0
ARC
  5
269
330
1F
100
AcDbEntity
  8
0
  6
SLD-Solid
 62
     7
370
    25
100
AcDbCircle
 10
18.58847151803265
 20
8.504512812463108
 30
0.0
 40
0.0500000000000007
100
AcDbArc
 50
270.0000000000008
 51
0.0
  0
ARC
  5
26A
330
1F
100
AcDbEntity
  8
0
  6
SLD-Solid
 62
     7
370
    25
100
AcDbCircle
 10
18.58847151803265
 20
8.504512812463108
 30
0.0
 40
0.120000000000001
100
AcDbArc
 50
270.0000000000008
 51
0.0
  0
LINE
  5
26B
330
1F
100
AcDbEntity
  8
0
  6
SLD-Solid
 62
     7
370
    25
100
AcDbLine
 10
18.55347151803265
 20
8.38451281246311
 30
0.0
 11
18.58847151803265
 21
8.38451281246311
 31
0.0
  0
LINE
  5
26C
330
1F
100
AcDbEntity
  8
0
  6
SLD-Solid
 62
     7
370
    25
100
AcDbLine
 10
18.55347151803265
 20
8.45451281246311
 30
0.0
 11
18.58847151803265
 21
8.45451281246311
 31
0.0
  0
LINE
  5
26D
330
1F
100
AcDbEntity
  8
0
  6
SLD-Solid
 62
     7
370
    25
100
AcDbLine
 10
15.38847151803265
 20
8.38451281246311
 30
0.0
 11
15.36347151803265
 21
8.38451281246311
 31
0.0
  0
ARC
  5
26E
330
1F
100
AcDbEntity
  8
0
  6
SLD-Solid
 62
     7
370
    25
100
AcDbCircle
 10
15.36347151803265
 20
8.504512812463108
 30
0.0
 40
0.1199999999999992
100
AcDbArc
 50
215.7862780296652
 51
270.0000000000008
  0
LINE
  5
26F
330
1F
100
AcDbEntity
  8
0
  6
SLD-Solid
 62
     7
370
    25
100
AcDbLine
 10
18.66612513887387
 20
22.2082451459448
 30
0.0
 11
18.70847151803265
 21
22.2082451459448
 31
0.0
  0
LINE
  5
270
330
1F
100
AcDbEntity
  8
0
  6
SLD-Solid
 62
     7
370
    25
100
AcDbLine
 10
18.70847151803265
 20
22.2082451459448
 30
0.0
 11
18.70847151803265
 21
22.08324514594481
 31
0.0
  0
LINE
  5
271
330
1F
100
AcDbEntity
  8
0
  6
SLD-Solid
 62
     7
370
    25
100
AcDbLine
 10
18.70847151803265
 20
22.08324514594481
 30
0.0
 11
18.70847151803265
 21
21.38451281246311
 31
0.0
  0
LINE
  5
272
330
1F
100
AcDbEntity
  8
0
  6
SLD-Solid
 62
     7
370
    25
100
AcDbLine
 10
13.07631769780936
 20
9.792143809414284
 30
0.0
 11
13.06446283385331
 21
9.65873276182302
 31
0.0
  0
LINE
  5
273
330
1F
100
AcDbEntity
  8
0
  6
SLD-Solid
 62
     7
370
    25
100
AcDbLine
 10
13.07631769780936
 20
9.792143809414284
 30
0.0
 11
13.0706361910905
 21
9.800337102467017
 31
0.0
  0
LINE
  5
274
330
1F
100
AcDbEntity
  8
0
  6
SLD-Solid
 62
     7
370
    25
100
AcDbLine
 10
13.0706361910905
 20
9.800337102467017
 30
0.0
 11
13.0706361910905
 21
21.83910757363624
 31
0.0
  0
LINE
  5
275
330
1F
100
AcDbEntity
  8
0
  6
SLD-Solid
 62
     7
370
    25
100
AcDbLine
 10
14.50691096819034
 20
22.66834120282509
 30
0.0
 11
13.0706361910905
 21
21.83910757363624
 31
0.0
  0
LINE
  5
276
330
1F
100
AcDbEntity
  8
0
  6
SLD-Solid
 62
     7
370
    25
100
AcDbLine
 10
18.47063619109051
 20
22.66834120282509
 30
0.0
 11
14.50691096819034
 21
22.66834120282509
 31
0.0
  0
ARC
  5
277
330
1F
100
AcDbEntity
  8
0
  6
SLD-Solid
 62
     7
370
    25
100
AcDbCircle
 10
18.47063619109051
 20
22.51834120282509
 30
0.0
 40
0.1500000000000021
100
AcDbArc
 50
0.0000000000006785
 51
90.0
  0
LINE
  5
278
330
1F
100
AcDbEntity
  8
0
  6
SLD-Solid
 62
     7
370
    25
100
AcDbLine
 10
18.6206361910905
 20
22.50802397433044
 30
0.0
 11
18.6206361910905
 21
22.51834120282509
 31
0.0
  0
LINE
  5
279
330
1F
100
AcDbEntity
  8
0
  6
SLD-Solid
 62
     7
370
    25
100
AcDbLine
 10
18.6206361910905
 20
22.50802397433044
 30
0.0
 11
18.58612513887389
 21
22.50802397433044
 31
0.0
  0
LINE
  5
27A
330
1F
100
AcDbEntity
  8
0
  6
SLD-Solid
 62
     7
370
    25
100
AcDbLine
 10
18.58612513887388
 20
8.594658431319756
 30
0.0
 11
18.58612513887389
 21
22.50802397433044
 31
0.0
  0
LINE
  5
27B
330
1F
100
AcDbEntity
  8
0
  6
SLD-Solid
 62
     7
370
    25
100
AcDbLine
 10
18.6206361910905
 20
8.594658431319754
 30
0.0
 11
18.58612513887388
 21
8.594658431319756
 31
0.0
  0
LINE
  5
27C
330
1F
100
AcDbEntity
  8
0
  6
SLD-Solid
 62
     7
370
    25
100
AcDbLine
 10
18.6206361910905
 20
8.594658431319754
 30
0.0
 11
18.6206361910905
 21
8.584341202825097
 31
0.0
  0
ARC
  5
27D
330
1F
100
AcDbEntity
  8
0
  6
SLD-Solid
 62
     7
370
    25
100
AcDbCircle
 10
18.47063619109051
 20
8.584341202825097
 30
0.0
 40
0.1500000000000004
100
AcDbArc
 50
270.0000000000008
 51
0.0
  0
LINE
  5
27E
330
1F
100
AcDbEntity
  8
0
  6
SLD-Solid
 62
     7
370
    25
100
AcDbLine
 10
18.47063619109051
 20
8.434341202825097
 30
0.0
 11
13.89032536834738
 21
8.434341202825097
 31
0.0
  0
LINE
  5
27F
330
1F
100
AcDbEntity
  8
0
  6
SLD-Solid
 62
     7
370
    25
100
AcDbLine
 10
13.06446283385331
 20
9.65873276182302
 30
0.0
 11
13.89032536834738
 21
8.434341202825097
 31
0.0
  0
LINE
  5
280
330
1F
100
AcDbEntity
  8
0
  6
SLD-Solid
 62
     7
370
    25
100
AcDbLine
 10
12.7706361910905
 20
21.58971016105404
 30
0.0
 11
12.77077079134947
 21
21.59446642145494
 31
0.0
  0
LINE
  5
281
330
1F
100
AcDbEntity
  8
0
  6
SLD-Solid
 62
     7
370
    25
100
AcDbLine
 10
12.77077079134947
 20
21.59446642145494
 30
0.0
 11
12.77077079134947
 21
21.69479948735539
 31
0.0
  0
SPLINE
  5
282
330
1F
100
AcDbEntity
  8
0
  6
SLD-Solid
 62
     7
370
    25
100
AcDbSpline
210
0.0
220
0.0
230
1.0
 70
    12
 71
     3
 72
    11
 73
     7
 74
     0
 42
0.00000001
 43
0.00000001
 40
0.0
 40
0.0
 40
0.0
 40
0.0
 40
0.2808106554120416
 40
0.5051528559808998
 40
0.7465507656473455
 40
1.0
 40
1.0
 40
1.0
 40
1.0
 10
12.77077079134947
 20
21.69479948735539
 30
0.0
 41
1.0
 10
12.775293680071
 20
21.69707386458855
 30
0.0
 41
1.0
 10
12.78342994595311
 20
21.70116526259201
 30
0.0
 41
1.0
 10
12.83053596993108
 20
21.71725705752607
 30
0.0
 41
1.0
 10
12.89127898459605
 20
21.74432959844048
 30
0.0
 41
1.0
 10
12.9419494799374
 20
21.77030804071986
 30
0.0
 41
1.0
 10
12.96790173287805
 20
21.78361359655658
 30
0.0
 41
1.0
  0
LINE
  5
283
330
1F
100
AcDbEntity
  8
0
  6
SLD-Solid
 62
     7
370
    25
100
AcDbLine
 10
12.96790173287805
 20
21.78361359655658
 30
0.0
 11
13.0706361910905
 21
21.83910757363624
 31
0.0
  0
LINE
  5
284
330
1F
100
AcDbEntity
  8
0
  6
SLD-Solid
 62
     7
370
    25
100
AcDbLine
 10
13.0706361910905
 20
9.800337102467022
 30
0.0
 11
13.05923998368306
 21
9.811967418078707
 31
0.0
  0
LINE
  5
285
330
1F
100
AcDbEntity
  8
0
  6
SLD-Solid
 62
     7
370
    25
100
AcDbLine
 10
13.05923998368306
 20
9.811967418078707
 30
0.0
 11
13.04800588742899
 21
9.670446634796646
 31
0.0
  0
SPLINE
  5
286
330
1F
100
AcDbEntity
  8
0
  6
SLD-Solid
 62
     7
370
    25
100
AcDbSpline
210
0.0
220
0.0
230
1.0
 70
    12
 71
     3
 72
     9
 73
     5
 74
     0
 42
0.00000001
 43
0.00000001
 40
0.0
 40
0.0
 40
0.0
 40
0.0
 40
0.5198730845766825
 40
1.0
 40
1.0
 40
1.0
 40
1.0
 10
13.04800587836528
 20
9.670446628730614
 30
0.0
 41
1.0
 10
13.02433031771644
 20
9.704856348917371
 30
0.0
 41
1.0
 10
12.97878927827579
 20
9.771045042288133
 30
0.0
 41
1.0
 10
12.93218791040811
 20
9.831733014256603
 30
0.0
 41
1.0
 10
12.90981333939929
 20
9.860870943041121
 30
0.0
 41
1.0
  0
SPLINE
  5
287
330
1F
100
AcDbEntity
  8
0
  6
SLD-Solid
 62
     7
370
    25
100
AcDbSpline
210
0.0
220
0.0
230
1.0
 70
    12
 71
     3
 72
    12
 73
     8
 74
     0
 42
0.00000001
 43
0.00000001
 40
0.0
 40
0.0
 40
0.0
 40
0.0
 40
0.1905937597580098
 40
0.3532391561476884
 40
0.4886605276906888
 40
0.7423620379039887
 40
1.0
 40
1.0
 40
1.0
 40
1.0
 10
12.9098132587193
 20
9.860871047970921
 30
0.0
 41
1.0
 10
12.898443664313
 20
9.872910501732282
 30
0.0
 41
1.0
 10
12.87737169459624
 20
9.895223963057262
 30
0.0
 41
1.0
 10
12.85050130377467
 20
9.923884732635994
 30
0.0
 41
1.0
 10
12.8221638612303
 20
9.952578461290098
 30
0.0
 41
1.0
 10
12.79267744063464
 20
9.979939471253848
 30
0.0
 41
1.0
 10
12.78114820372862
 20
9.99459558953015
 30
0.0
 41
1.0
 10
12.77533920743194
 20
10.00198006236948
 30
0.0
 41
1.0
  0
LINE
  5
288
330
1F
100
AcDbEntity
  8
0
  6
SLD-Solid
 62
     7
370
    25
100
AcDbLine
 10
12.77533919029303
 20
10.00198008887022
 30
0.0
 11
12.7706361910905
 21
10.00571080365123
 31
0.0
  0
LINE
  5
289
330
1F
100
AcDbEntity
  8
0
  6
SLD-Solid
 62
     7
370
    25
100
AcDbLine
 10
12.7706361910905
 20
10.00571080365123
 30
0.0
 11
12.7706361910905
 21
21.58971016105404
 31
0.0
  0
LINE
  5
28A
330
1F
100
AcDbEntity
  8
0
  6
SLD-Solid
 62
     7
370
    25
100
AcDbLine
 10
13.0611393515843
 20
9.811967418078707
 30
0.0
 11
13.05177760354366
 21
9.67044661720618
 31
0.0
  0
LINE
  5
28B
330
1F
100
AcDbEntity
  8
0
  6
SLD-Solid
 62
     7
370
    25
100
AcDbLine
 10
13.04800588603429
 20
9.67044661720618
 30
0.0
 11
13.05177760354366
 21
9.67044661720618
 31
0.0
  0
LINE
  5
28C
330
1F
100
AcDbEntity
  8
0
  6
SLD-Solid
 62
     7
370
    25
100
AcDbLine
 10
18.6206361910905
 20
22.50802397433044
 30
0.0
 11
18.66612513887387
 21
22.50802397433044
 31
0.0
  0
LINE
  5
28D
330
1F
100
AcDbEntity
  8
0
  6
SLD-Solid
 62
     7
370
    25
100
AcDbLine
 10
18.66612513887387
 20
8.594658431319756
 30
0.0
 11
18.6206361910905
 21
8.594658431319756
 31
0.0
  0
LINE
  5
28E
330
1F
100
AcDbEntity
  8
0
  6
SLD-Solid
 62
     7
370
    25
100
AcDbLine
 10
18.564045982508
 20
22.63570649099558
 30
0.0
 11
18.564045982508
 21
22.64950290163245
 31
0.0
  0
LINE
  5
28F
330
1F
100
AcDbEntity
  8
0
  6
SLD-Solid
 62
     7
370
    25
100
AcDbLine
 10
14.50108445828093
 20
22.7295029016324
 30
0.0
 11
18.564045982508
 21
22.72950290163245
 31
0.0
  0
LINE
  5
290
330
1F
100
AcDbEntity
  8
0
  6
SLD-Solid
 62
     7
370
    25
100
AcDbLine
 10
18.564045982508
 20
22.72950290163245
 30
0.0
 11
18.564045982508
 21
22.64950290163245
 31
0.0
  0
LINE
  5
291
330
1F
100
AcDbEntity
  8
0
  6
SLD-Solid
 62
     7
370
    25
100
AcDbLine
 10
14.50108445828093
 20
22.66497726576044
 30
0.0
 11
14.50108445828093
 21
22.72480894388666
 31
0.0
  0
LINE
  5
292
330
1F
100
AcDbEntity
  8
0
  6
SLD-Solid
 62
     7
370
    25
100
AcDbLine
 10
13.0667597647152
 20
21.85603616984828
 30
0.0
 11
13.0417597647152
 21
21.89933744003751
 31
0.0
  0
LINE
  5
293
330
1F
100
AcDbEntity
  8
0
  6
SLD-Solid
 62
     7
370
    25
100
AcDbLine
 10
13.0417597647152
 20
21.89933744003751
 30
0.0
 11
14.40634986239098
 21
22.68718390026412
 31
0.0
  0
LINE
  5
294
330
1F
100
AcDbEntity
  8
0
  6
SLD-Solid
 62
     7
370
    25
100
AcDbLine
 10
14.43134986239098
 20
22.6438826300749
 30
0.0
 11
14.40634986239098
 21
22.68718390026412
 31
0.0
  0
LINE
  5
295
330
1F
100
AcDbEntity
  8
0
  6
SLD-Solid
 62
     7
370
    25
100
AcDbLine
 10
13.0667597647152
 20
21.85603616984828
 30
0.0
 11
14.43134986239098
 21
22.6438826300749
 31
0.0
  0
LINE
  5
296
330
1F
100
AcDbEntity
  8
0
  6
SLD-Solid
 62
     7
370
    25
100
AcDbLine
 10
12.92631504008137
 20
21.77495037027468
 30
0.0
 11
12.90131504008137
 21
21.8182516404639
 31
0.0
  0
LINE
  5
297
330
1F
100
AcDbEntity
  8
0
  6
SLD-Solid
 62
     7
370
    25
100
AcDbLine
 10
12.90131504008137
 20
21.8182516404639
 30
0.0
 11
13.0417597647152
 21
21.89933744003751
 31
0.0
  0
LINE
  5
298
330
1F
100
AcDbEntity
  8
0
  6
SLD-Solid
 62
     7
370
    25
100
AcDbLine
 10
12.92631504008137
 20
21.77495037027468
 30
0.0
 11
13.0667597647152
 21
21.85603616984828
 31
0.0
  0
LINE
  5
299
330
1F
100
AcDbEntity
  8
0
  6
SLD-Solid
 62
     7
370
    25
100
AcDbLine
 10
14.43233062450452
 20
22.70218390026412
 30
0.0
 11
14.45733062450452
 21
22.6588826300749
 31
0.0
  0
LINE
  5
29A
330
1F
100
AcDbEntity
  8
0
  6
SLD-Solid
 62
     7
370
    25
100
AcDbLine
 10
14.40634986239098
 20
22.68718390026412
 30
0.0
 11
14.43233062450452
 21
22.70218390026412
 31
0.0
  0
LINE
  5
29B
330
1F
100
AcDbEntity
  8
0
  6
SLD-Solid
 62
     7
370
    25
100
AcDbLine
 10
14.45733062450452
 20
22.6588826300749
 30
0.0
 11
14.43134986239098
 21
22.6438826300749
 31
0.0
  0
LINE
  5
29C
330
1F
100
AcDbEntity
  8
0
  6
SLD-Solid
 62
     7
370
    25
100
AcDbLine
 10
13.91277389370714
 20
8.355776963308902
 30
0.0
 11
13.91277389370714
 21
8.434341202825095
 31
0.0
  0
LINE
  5
29D
330
1F
100
AcDbEntity
  8
0
  6
SLD-Solid
 62
     7
370
    25
100
AcDbLine
 10
15.02814649716738
 20
8.35577696330891
 30
0.0
 11
13.91277389370714
 21
8.355776963308902
 31
0.0
  0
LINE
  5
29E
330
1F
100
AcDbEntity
  8
0
  6
SLD-Solid
 62
     7
370
    25
100
AcDbLine
 10
15.02814649716739
 20
8.434341202825095
 30
0.0
 11
15.02814649716738
 21
8.35577696330891
 31
0.0
  0
LINE
  5
29F
330
1F
100
AcDbEntity
  8
0
  6
SLD-Solid
 62
     7
370
    25
100
AcDbLine
 10
13.030116751449
 20
9.670143101201525
 30
0.0
 11
12.98866487282125
 21
9.642183456027988
 31
0.0
  0
LINE
  5
2A0
330
1F
100
AcDbEntity
  8
0
  6
SLD-Solid
 62
     7
370
    25
100
AcDbLine
 10
13.78486204332357
 20
8.461772607800945
 30
0.0
 11
13.82631392195133
 21
8.489732252974482
 31
0.0
  0
LINE
  5
2A1
330
1F
100
AcDbEntity
  8
0
  6
SLD-Solid
 62
     7
370
    25
100
AcDbLine
 10
13.82631392195133
 20
8.489732252974482
 30
0.0
 11
13.030116751449
 21
9.670143101201525
 31
0.0
  0
LINE
  5
2A2
330
1F
100
AcDbEntity
  8
0
  6
SLD-Solid
 62
     7
370
    25
100
AcDbLine
 10
13.78486204332357
 20
8.461772607800945
 30
0.0
 11
12.98866487282125
 21
9.642183456027988
 31
0.0
  0
LINE
  5
2A3
330
1F
100
AcDbEntity
  8
0
  6
SLD-Solid
 62
     7
370
    25
100
AcDbLine
 10
13.87104935422898
 20
8.42340924717008
 30
0.0
 11
13.82959747560123
 21
8.395449601996546
 31
0.0
  0
LINE
  5
2A4
330
1F
100
AcDbEntity
  8
0
  6
SLD-Solid
 62
     7
370
    25
100
AcDbLine
 10
13.82631392195133
 20
8.489732252974482
 30
0.0
 11
13.87104935422898
 21
8.42340924717008
 31
0.0
  0
LINE
  5
2A5
330
1F
100
AcDbEntity
  8
0
  6
SLD-Solid
 62
     7
370
    25
100
AcDbLine
 10
13.82959747560123
 20
8.395449601996546
 30
0.0
 11
13.78486204332357
 21
8.461772607800945
 31
0.0
  0
LINE
  5
2A6
330
1F
100
AcDbEntity
  8
0
  6
SLD-Solid
 62
     7
370
    25
100
AcDbLine
 10
12.96612119271072
 20
9.765020418745063
 30
0.0
 11
12.92466931408297
 21
9.737060773571526
 31
0.0
  0
LINE
  5
2A7
330
1F
100
AcDbEntity
  8
0
  6
SLD-Solid
 62
     7
370
    25
100
AcDbLine
 10
12.96612119271072
 20
9.765020418745063
 30
0.0
 11
13.030116751449
 21
9.670143101201525
 31
0.0
  0
LINE
  5
2A8
330
1F
100
AcDbEntity
  8
0
  6
SLD-Solid
 62
     7
370
    25
100
AcDbLine
 10
12.92466931408297
 20
9.737060773571526
 30
0.0
 11
12.98866487282125
 21
9.642183456027988
 31
0.0
  0
LINE
  5
2A9
330
1F
100
AcDbEntity
  8
0
  6
SLD-Solid
 62
     7
370
    25
100
AcDbLine
 10
12.84760733784793
 20
9.926632280209166
 30
0.0
 11
12.81268846804494
 21
9.903079205128543
 31
0.0
  0
LINE
  5
2AA
330
1F
100
AcDbEntity
  8
0
  6
SLD-Solid
 62
     7
370
    25
100
AcDbLine
 10
12.87643344155984
 20
9.89798797795504
 30
0.0
 11
12.96612119271072
 21
9.765020418745063
 31
0.0
  0
LINE
  5
2AB
330
1F
100
AcDbEntity
  8
0
  6
SLD-Solid
 62
     7
370
    25
100
AcDbLine
 10
12.81268846804494
 20
9.903079205128543
 30
0.0
 11
12.92466931408297
 21
9.737060773571526
 31
0.0
  0
LINE
  5
2AC
330
1F
100
AcDbEntity
  8
0
  6
SLD-Solid
 62
     7
370
    25
100
AcDbLine
 10
12.82019990989331
 20
21.7136847712955
 30
0.0
 11
12.79519990989331
 21
21.75698604148473
 31
0.0
  0
LINE
  5
2AD
330
1F
100
AcDbEntity
  8
0
  6
SLD-Solid
 62
     7
370
    25
100
AcDbLine
 10
12.79519990989331
 20
21.75698604148473
 30
0.0
 11
12.90131504008137
 21
21.8182516404639
 31
0.0
  0
LINE
  5
2AE
330
1F
100
AcDbEntity
  8
0
  6
SLD-Solid
 62
     7
370
    25
100
AcDbLine
 10
14.44965113258021
 20
22.71218390026412
 30
0.0
 11
14.47465113258021
 21
22.6688826300749
 31
0.0
  0
LINE
  5
2AF
330
1F
100
AcDbEntity
  8
0
  6
SLD-Solid
 62
     7
370
    25
100
AcDbLine
 10
14.43233062450452
 20
22.70218390026412
 30
0.0
 11
14.44965113258021
 21
22.71218390026412
 31
0.0
  0
LINE
  5
2B0
330
1F
100
AcDbEntity
  8
0
  6
SLD-Solid
 62
     7
370
    25
100
AcDbLine
 10
14.47465113258021
 20
22.6688826300749
 30
0.0
 11
14.45733062450452
 21
22.6588826300749
 31
0.0
  0
ARC
  5
2B1
330
1F
100
AcDbEntity
  8
0
  6
SLD-Solid
 62
     7
370
    25
100
AcDbCircle
 10
14.50108445828094
 20
22.64950290163241
 30
0.0
 40
0.0299999999999995
100
AcDbArc
 50
90.0
 51
120.0000000000097
  0
LINE
  5
2B2
330
1F
100
AcDbEntity
  8
0
  6
SLD-Solid
 62
     7
370
    25
100
AcDbLine
 10
14.46108445828093
 20
22.71878493393517
 30
0.0
 11
14.48608445828093
 21
22.67548366374594
 31
0.0
  0
LINE
  5
2B3
330
1F
100
AcDbEntity
  8
0
  6
SLD-Solid
 62
     7
370
    25
100
AcDbLine
 10
14.50108445828094
 20
22.7295029016324
 30
0.0
 11
14.50108445828093
 21
22.72480894388666
 31
0.0
  0
ARC
  5
2B4
330
1F
100
AcDbEntity
  8
0
  6
SLD-Solid
 62
     7
370
    25
100
AcDbCircle
 10
14.50108445828094
 20
22.64950290163241
 30
0.0
 40
0.0800000000000065
100
AcDbArc
 50
89.99999999999746
 51
120.0000000000025
  0
LINE
  5
2B5
330
1F
100
AcDbEntity
  8
0
  6
SLD-Solid
 62
     7
370
    25
100
AcDbLine
 10
14.46108445828093
 20
22.71878493393517
 30
0.0
 11
14.44965113258021
 21
22.71218390026412
 31
0.0
  0
LINE
  5
2B6
330
1F
100
AcDbEntity
  8
0
  6
SLD-Solid
 62
     7
370
    25
100
AcDbLine
 10
14.48608445828093
 20
22.67548366374594
 30
0.0
 11
14.47465113258021
 21
22.6688826300749
 31
0.0
  0
ARC
  5
2B7
330
1F
100
AcDbEntity
  8
0
  6
SLD-Solid
 62
     7
370
    25
100
AcDbCircle
 10
15.04135700828166
 20
8.445776963308898
 30
0.0
 40
0.0400000000000009
100
AcDbArc
 50
270.0000000000008
 51
343.3877046099885
  0
ARC
  5
2B8
330
1F
100
AcDbEntity
  8
0
  6
SLD-Solid
 62
     7
370
    25
100
AcDbCircle
 10
15.04135700828166
 20
8.445776963308898
 30
0.0
 40
0.0899999999999978
100
AcDbArc
 50
269.9999999999963
 51
352.7000348447256
  0
LINE
  5
2B9
330
1F
100
AcDbEntity
  8
0
  6
SLD-Solid
 62
     7
370
    25
100
AcDbLine
 10
15.02814649716738
 20
8.35577696330891
 30
0.0
 11
15.04135700828166
 21
8.35577696330891
 31
0.0
  0
LINE
  5
2BA
330
1F
100
AcDbEntity
  8
0
  6
SLD-Solid
 62
     7
370
    25
100
AcDbLine
 10
15.04135700828166
 20
8.405776963308897
 30
0.0
 11
15.02814649716738
 21
8.405776963308911
 31
0.0
  0
LINE
  5
2BB
330
1F
100
AcDbEntity
  8
0
  6
SLD-Solid
 62
     7
370
    25
100
AcDbLine
 10
13.90421085713119
 20
8.355776963308902
 30
0.0
 11
13.90421085713119
 21
8.40577696330891
 31
0.0
  0
LINE
  5
2BC
330
1F
100
AcDbEntity
  8
0
  6
SLD-Solid
 62
     7
370
    25
100
AcDbLine
 10
13.90421085713119
 20
8.355776963308902
 30
0.0
 11
13.91277389370714
 21
8.355776963308898
 31
0.0
  0
LINE
  5
2BD
330
1F
100
AcDbEntity
  8
0
  6
SLD-Solid
 62
     7
370
    25
100
AcDbLine
 10
13.91277389370714
 20
8.405776963308906
 30
0.0
 11
13.90421085713119
 21
8.40577696330891
 31
0.0
  0
ARC
  5
2BE
330
1F
100
AcDbEntity
  8
0
  6
SLD-Solid
 62
     7
370
    25
100
AcDbCircle
 10
13.90421085713119
 20
8.445776963308907
 30
0.0
 40
0.0399999999999999
100
AcDbArc
 50
213.9999999999966
 51
270.0000000000059
  0
ARC
  5
2BF
330
1F
100
AcDbEntity
  8
0
  6
SLD-Solid
 62
     7
370
    25
100
AcDbCircle
 10
13.90421085713119
 20
8.445776963308909
 30
0.0
 40
0.090000000000007
100
AcDbArc
 50
213.9999999999968
 51
270.0000000000031
  0
LINE
  5
2C0
330
1F
100
AcDbEntity
  8
0
  6
SLD-Solid
 62
     7
370
    25
100
AcDbLine
 10
12.79071781265252
 20
9.93565204126599
 30
0.0
 11
12.81268846804494
 21
9.903079205128543
 31
0.0
  0
LINE
  5
2C1
330
1F
100
AcDbEntity
  8
0
  6
SLD-Solid
 62
     7
370
    25
100
AcDbLine
 10
12.79071781265252
 20
9.93565204126599
 30
0.0
 11
12.78927040065468
 21
9.937797917799358
 31
0.0
  0
LINE
  5
2C2
330
1F
100
AcDbEntity
  8
0
  6
SLD-Solid
 62
     7
370
    25
100
AcDbLine
 10
12.7706361910905
 20
9.992940030909567
 30
0.0
 11
12.7706361910905
 21
10.00571080365123
 31
0.0
  0
ARC
  5
2C3
330
1F
100
AcDbEntity
  8
0
  6
SLD-Solid
 62
     7
370
    25
100
AcDbCircle
 10
12.8606361910905
 20
9.992940030909567
 30
0.0
 40
0.0900000000000042
100
AcDbArc
 50
180.0
 51
214.0000000000049
  0
LINE
  5
2C4
330
1F
100
AcDbEntity
  8
0
  6
SLD-Solid
 62
     7
370
    25
100
AcDbLine
 10
12.78602280956055
 20
9.942612669597192
 30
0.0
 11
12.78927040065467
 21
9.937797917799358
 31
0.0
  0
LINE
  5
2C5
330
1F
100
AcDbEntity
  8
0
  6
SLD-Solid
 62
     7
370
    25
100
AcDbLine
 10
12.77063619109049
 20
21.69661615028646
 30
0.0
 11
12.77063619109049
 21
21.58971016105366
 31
0.0
  0
ARC
  5
2C6
330
1F
100
AcDbEntity
  8
0
  6
SLD-Solid
 62
     7
370
    25
100
AcDbCircle
 10
12.85063619109049
 20
21.69661615028646
 30
0.0
 40
0.0800000000000025
100
AcDbArc
 50
132.873751223199
 51
180.0
  0
LINE
  5
2C7
330
1F
100
AcDbEntity
  8
0
  6
SLD-Solid
 62
     7
370
    25
100
AcDbLine
 10
18.59904598250798
 20
22.64950290163245
 30
0.0
 11
18.59904598250798
 21
22.59587136126759
 31
0.0
  0
ARC
  5
2C8
330
1F
100
AcDbEntity
  8
0
  6
SLD-Solid
 62
     7
370
    25
100
AcDbCircle
 10
18.519045982508
 20
22.64950290163246
 30
0.0
 40
0.0799999999999982
100
AcDbArc
 50
359.9999999999948
 51
55.7711336721697
  0
LINE
  5
2C9
330
1F
100
AcDbEntity
  8
0
  6
SLD-Solid
 62
     8
370
    25
100
AcDbLine
 10
12.6706361910905
 20
21.2920029016326
 30
0.0
 11
12.67063619109051
 21
20.4170029016326
 31
0.0
  0
LINE
  5
2CA
330
1F
100
AcDbEntity
  8
0
  6
SLD-Solid
 62
     8
370
    25
100
AcDbLine
 10
15.36347151803265
 20
8.434341202825097
 30
0.0
 11
15.36347151803265
 21
8.38451281246311
 31
0.0
  0
LINE
  5
2CB
330
1F
100
AcDbEntity
  8
0
  6
SLD-Solid
 62
     8
370
    25
100
AcDbLine
 10
18.70847151803265
 20
22.08324514594481
 30
0.0
 11
18.66612513887387
 21
22.08324514594481
 31
0.0
  0
LINE
  5
2CC
330
1F
100
AcDbEntity
  8
0
  6
SLD-Solid
 62
     8
370
    25
100
AcDbLine
 10
18.54341399516544
 20
22.64950290163245
 30
0.0
 11
18.564045982508
 21
22.64950290163245
 31
0.0
  0
LINE
  5
2CD
330
1F
100
AcDbEntity
  8
0
  6
SLD-Solid
 62
     8
370
    25
100
AcDbLine
 10
12.81933747599857
 20
9.954956247942063
 30
0.0
 11
12.79071781265252
 21
9.93565204126599
 31
0.0
  0
LINE
  5
2CE
330
1F
100
AcDbEntity
  8
0
  6
SLD-Solid
 62
     8
370
    25
100
AcDbLine
 10
12.7830544510994
 20
9.992940030909567
 30
0.0
 11
12.7706361910905
 21
9.992940030909567
 31
0.0
  0
LINE
  5
2CF
330
1F
100
AcDbEntity
  8
0
  6
SLD-Solid
 62
     8
370
    25
100
AcDbLine
 10
12.8132149586726
 20
9.960954005764517
 30
0.0
 11
12.78602280956055
 21
9.942612669597192
 31
0.0
  0
LINE
  5
2D0
330
1F
100
AcDbEntity
  8
0
  6
SLD-Solid
 62
     8
370
    25
100
AcDbLine
 10
18.564045982508
 20
22.64950290163245
 30
0.0
 11
18.59904598250798
 21
22.64950290163245
 31
0.0
  0
SPLINE
  5
2D1
330
1F
100
AcDbEntity
  8
0
  6
SLD-Solid
 62
     7
370
    25
100
AcDbSpline
210
0.0
220
0.0
230
1.0
 70
    12
 71
     3
 72
    27
 73
    23
 74
     0
 42
0.00000001
 43
0.00000001
 40
0.0
 40
0.0
 40
0.0
 40
0.0
 40
0.0238655093880322
 40
0.072416885529924
 40
0.1208018655497399
 40
0.1705787462556669
 40
0.222761456834562
 40
0.2774001277170171
 40
0.3335645304038097
 40
0.390028189802254
 40
0.446280827385229
 40
0.5023540181366634
 40
0.5584484979703082
 40
0.6147772377238724
 40
0.6715859532940536
 40
0.7291448105010463
 40
0.7875714130210608
 40
0.8398950067210927
 40
0.8897839709302223
 40
0.9375335145508054
 40
0.9891026312346857
 40
1.0
 40
1.0
 40
1.0
 40
1.0
 10
36.04832935538452
 20
21.48546314477486
 30
0.0
 41
1.0
 10
36.04090936362464
 20
21.48155048895365
 30
0.0
 41
1.0
 10
36.01839433219703
 20
21.46967802714632
 30
0.0
 41
1.0
 10
35.98833713882173
 20
21.43870234982653
 30
0.0
 41
1.0
 10
35.95945254972797
 20
21.3956874768238
 30
0.0
 41
1.0
 10
35.93962904029185
 20
21.34535375325133
 30
0.0
 41
1.0
 10
35.92853064029154
 20
21.28870681578951
 30
0.0
 41
1.0
 10
35.92676528260375
 20
21.22617437928291
 30
0.0
 41
1.0
 10
35.93466031220291
 20
21.15943436372196
 30
0.0
 41
1.0
 10
35.95200741508932
 20
21.09079700445872
 30
0.0
 41
1.0
 10
35.97806258032416
 20
21.02260739787859
 30
0.0
 41
1.0
 10
36.01191628480878
 20
20.9567943758816
 30
0.0
 41
1.0
 10
36.05264342364613
 20
20.89503470387622
 30
0.0
 41
1.0
 10
36.0993200977328
 20
20.83890089309811
 30
0.0
 41
1.0
 10
36.15106749352898
 20
20.78989089951058
 30
0.0
 41
1.0
 10
36.20707826609622
 20
20.74951150808808
 30
0.0
 41
1.0
 10
36.26431931339826
 20
20.72053511685968
 30
0.0
 41
1.0
 10
36.32062363908099
 20
20.70365247839418
 30
0.0
 41
1.0
 10
36.37413214978963
 20
20.69806587921659
 30
0.0
 41
1.0
 10
36.42623394928774
 20
20.70450422943628
 30
0.0
 41
1.0
 10
36.46426127531832
 20
20.71567009508465
 30
0.0
 41
1.0
 10
36.48217887980262
 20
20.72830570947243
 30
0.0
 41
1.0
 10
36.48530463182873
 20
20.73051001068403
 30
0.0
 41
1.0
  0
LINE
  5
2D2
330
1F
100
AcDbEntity
  8
0
  6
SLD-Solid
 62
     7
370
    25
100
AcDbLine
 10
36.11852413609054
 20
21.52784894876537
 30
0.0
 11
36.04781345797188
 21
21.48702854317424
 31
0.0
  0
LINE
  5
2D3
330
1F
100
AcDbEntity
  8
0
  6
SLD-Solid
 62
     7
370
    25
100
AcDbLine
 10
36.48527790350016
 20
20.72923578859114
 30
0.0
 11
36.55598858161881
 21
20.77005619418227
 31
0.0
  0
LINE
  5
2D4
330
1F
100
AcDbEntity
  8
0
  6
SLD-Solid
 62
     7
370
    25
100
AcDbLine
 10
40.18760061093361
 20
21.67852369510977
 30
0.0
 11
40.18760061093361
 21
21.70272546837439
 31
0.0
  0
LINE
  5
2D5
330
1F
100
AcDbEntity
  8
0
  6
SLD-Solid
 62
     7
370
    25
100
AcDbLine
 10
41.21346186294937
 20
10.75524055513814
 30
0.0
 11
41.23467506638715
 21
10.74299443345953
 31
0.0
  0
LINE
  5
2D6
330
1F
100
AcDbEntity
  8
0
  6
SLD-Solid
 62
     7
370
    25
100
AcDbLine
 10
41.42465962558801
 20
11.07209300116419
 30
0.0
 11
41.40344642215022
 21
11.08433912284279
 31
0.0
  0
LINE
  5
2D7
330
1F
100
AcDbEntity
  8
0
  6
SLD-Solid
 62
     7
370
    25
100
AcDbLine
 10
40.21310972975986
 20
21.75981129736582
 30
0.0
 11
40.1954320602302
 21
21.78496345028403
 31
0.0
  0
LINE
  5
2D8
330
1F
100
AcDbEntity
  8
0
  6
SLD-Solid
 62
     7
370
    25
100
AcDbLine
 10
43.18102992671061
 20
23.38344469031124
 30
0.0
 11
43.14567458765128
 21
23.40385489310681
 31
0.0
  0
LINE
  5
2D9
330
1F
100
AcDbEntity
  8
0
  6
SLD-Solid
 62
     7
370
    25
100
AcDbLine
 10
43.2111304973977
 20
11.96408150764055
 30
0.0
 11
43.2111304973977
 21
23.30578267221474
 31
0.0
  0
LINE
  5
2DA
330
1F
100
AcDbEntity
  8
0
  6
SLD-Solid
 62
     7
370
    25
100
AcDbLine
 10
42.88860296562918
 20
23.61805335978655
 30
0.0
 11
37.99538233979195
 21
26.44284949960592
 31
0.0
  0
LINE
  5
2DB
330
1F
100
AcDbEntity
  8
0
  6
SLD-Solid
 62
     7
370
    25
100
AcDbLine
 10
33.72324941742169
 20
23.44585674723397
 30
0.0
 11
33.72324941742169
 21
13.79738929109544
 31
0.0
  0
LINE
  5
2DC
330
1F
100
AcDbEntity
  8
0
  6
SLD-Solid
 62
     7
370
    25
100
AcDbLine
 10
33.78023140198266
 20
23.39898465280071
 30
0.0
 11
33.79790907151232
 21
23.37383249988251
 31
0.0
  0
LINE
  5
2DD
330
1F
100
AcDbEntity
  8
0
  6
SLD-Solid
 62
     7
370
    25
100
AcDbLine
 10
37.75216711534526
 20
26.57381376130835
 30
0.0
 11
34.87921946986427
 21
24.91529638810705
 31
0.0
  0
LINE
  5
2DE
330
1F
100
AcDbEntity
  8
0
  6
SLD-Solid
 62
     7
370
    25
100
AcDbLine
 10
37.94053277674411
 20
26.43031450870296
 30
0.0
 11
37.94053277674411
 21
26.46746313948013
 31
0.0
  0
LINE
  5
2DF
330
1F
100
AcDbEntity
  8
0
  6
SLD-Solid
 62
     7
370
    25
100
AcDbLine
 10
39.75808686232775
 20
9.872694351204489
 30
0.0
 11
39.78739776679836
 21
9.912445367555522
 31
0.0
  0
LINE
  5
2E0
330
1F
100
AcDbEntity
  8
0
  6
SLD-Solid
 62
     7
370
    25
100
AcDbLine
 10
39.82207100935926
 20
9.885462666200334
 30
0.0
 11
39.84312085839358
 21
9.897614485389106
 31
0.0
  0
LINE
  5
2E1
330
1F
100
AcDbEntity
  8
0
  6
SLD-Solid
 62
     7
370
    25
100
AcDbLine
 10
34.46868442406964
 20
12.91696435564005
 30
0.0
 11
39.71895227437974
 21
9.886049240498233
 31
0.0
  0
LINE
  5
2E2
330
1F
100
AcDbEntity
  8
0
  6
SLD-Solid
 62
     7
370
    25
100
AcDbLine
 10
33.76775965975298
 20
13.77323404737434
 30
0.0
 11
33.73844875528238
 21
13.73348303102331
 31
0.0
  0
LWPOLYLINE
  5
2E3
330
1F
100
AcDbEntity
  8
0
  6
SLD-Solid
 62
     7
370
    25
100
AcDbPolyline
 90
       32
 70
   128
 43
0.0
 10
36.19583500261737
 20
21.34289428430299
 10
36.14779540496571
 20
21.36498576326453
 10
36.10172255408632
 20
21.37489043356914
 10
36.05950267790754
 20
21.37220279685081
 10
36.02286426312074
 20
21.35703288527257
 10
35.99330729073214
 20
21.33000175679681
 10
35.97204182666412
 20
21.29221606899937
 10
35.9599384815142
 20
21.24522277237829
 10
35.95749276765491
 20
21.19094577801873
 10
35.964804812899
 20
21.13160719244704
 10
35.98157526125506
 20
21.06963634432851
 10
36.00711752859695
 20
21.00757032746638
 10
36.04038591149859
 20
20.94795013188342
 10
36.08001839845513
 20
20.89321661539191
 10
36.12439243079394
 20
20.84561057458788
 10
36.17169133041735
 20
20.80708100637535
 10
36.21997867481739
 20
20.77920531580396
 10
36.2672775744408
 20
20.76312473692097
 10
36.31165160677961
 20
20.75949761051523
 10
36.35128409373615
 20
20.76847243156795
 10
36.38455247663779
 20
20.78968176985075
 10
36.41009474397968
 20
20.82225731256234
 10
36.42686519233573
 20
20.86486541315663
 10
36.43417723757983
 20
20.91576169098906
 10
36.43173152372054
 20
20.97286244646512
 10
36.41962817857062
 20
21.03382996794655
 10
36.3983627145026
 20
21.09616823794053
 10
36.36880574211399
 20
21.15732512034906
 10
36.3321673273272
 20
21.21479684522073
 10
36.28994745114841
 20
21.26623051338663
 10
36.24387460026902
 20
21.30952042442886
 10
36.19583500261737
 20
21.34289428430299
  0
ARC
  5
2E4
330
1F
100
AcDbEntity
  8
0
  6
SLD-Solid
 62
     7
370
    25
100
AcDbCircle
 10
36.20989757973522
 20
21.33531926500132
 30
0.0
 40
0.213112142623952
100
AcDbArc
 50
53.30080357346215
 51
115.3887379974434
  0
LWPOLYLINE
  5
2E5
330
1F
100
AcDbEntity
  8
0
  6
SLD-Solid
 62
     7
370
    25
100
AcDbPolyline
 90
       15
 70
   128
 43
0.0
 10
36.55598858161881
 20
20.77005619418227
 10
36.56085961181306
 20
20.77299628645399
 10
36.59543928696235
 20
20.80310617213811
 10
36.62172075036865
 20
20.84433184566024
 10
36.6388592941736
 20
20.89534827995279
 10
36.64630407147768
 20
20.95451576484113
 10
36.64381580101275
 20
21.01993260867778
 10
36.63147445783891
 20
21.08949626027668
 10
36.60967670288026
 20
21.16097088663826
 10
36.57912313391643
 20
21.23205923446176
 10
36.54079576779345
 20
21.30047646575644
 10
36.49592647759442
 20
21.3640235944146
 10
36.44595739922487
 20
21.42065816343441
 10
36.3924945799783
 20
21.46855989116851
 10
36.33725635885468
 20
21.50618917667384
  0
LINE
  5
2E6
330
1F
100
AcDbEntity
  8
0
  6
SLD-Solid
 62
     7
370
    25
100
AcDbLine
 10
36.2311903416767
 20
21.23062324017027
 30
0.0
 11
36.16047966355804
 21
21.27144364576141
 31
0.0
  0
LINE
  5
2E7
330
1F
100
AcDbEntity
  8
0
  6
SLD-Solid
 62
     7
370
    25
100
AcDbLine
 10
36.16047966355804
 20
21.27144364576141
 30
0.0
 11
36.16047966355804
 21
20.90400028041282
 31
0.0
  0
LINE
  5
2E8
330
1F
100
AcDbEntity
  8
0
  6
SLD-Solid
 62
     7
370
    25
100
AcDbLine
 10
36.16047966355804
 20
20.90400028041282
 30
0.0
 11
36.2311903416767
 21
20.86317987482169
 31
0.0
  0
LINE
  5
2E9
330
1F
100
AcDbEntity
  8
0
  6
SLD-Solid
 62
     7
370
    25
100
AcDbLine
 10
36.2311903416767
 20
20.86317987482169
 30
0.0
 11
36.2311903416767
 21
21.23062324017027
 31
0.0
  0
LINE
  5
2EA
330
1F
100
AcDbEntity
  8
0
  6
SLD-Solid
 62
     7
370
    25
100
AcDbLine
 10
36.18169286699364
 20
20.91624640209017
 30
0.0
 11
36.2311903416767
 21
20.88767211817637
 31
0.0
  0
LINE
  5
2EB
330
1F
100
AcDbEntity
  8
0
  6
SLD-Solid
 62
     7
370
    25
100
AcDbLine
 10
36.18169286699364
 20
21.25919752408408
 30
0.0
 11
36.18169286699364
 21
20.91624640209017
 31
0.0
  0
LINE
  5
2EC
330
1F
100
AcDbEntity
  8
0
  6
SLD-Solid
 62
     7
370
    25
100
AcDbLine
 10
36.18169286699364
 20
20.91624640209017
 30
0.0
 11
36.16047966355804
 21
20.90400028041282
 31
0.0
  0
LWPOLYLINE
  5
2ED
330
1F
100
AcDbEntity
  8
0
  6
SLD-Solid
 62
     7
370
    25
100
AcDbPolyline
 90
        3
 70
   128
 43
0.0
 10
39.49102410716287
 20
20.83619091991227
 10
39.49773318765504
 20
20.83912519535643
 10
39.52132048091602
 20
20.84967754757436
  0
LWPOLYLINE
  5
2EE
330
1F
100
AcDbEntity
  8
0
  6
SLD-Solid
 62
     7
370
    25
100
AcDbPolyline
 90
       24
 70
   128
 43
0.0
 10
41.4396856415481
 20
11.060099878133
 10
41.45640993316676
 20
11.03217626607778
 10
41.46373430690308
 20
10.99500922803655
 10
41.46111554746384
 20
10.95135527319297
 10
41.44874787625662
 20
10.90445201567422
 10
41.42754854687652
 20
10.85777805552233
 10
41.39908981660318
 20
10.81479498684263
 10
41.36548233927095
 20
10.77869066720461
 10
41.3292186277296
 20
10.75214278882957
 10
41.29298819556868
 20
10.73712028640812
 10
41.25947808819839
 20
10.73473731022148
 10
41.23117359698382
 20
10.74517059471202
 10
41.21017393655396
 20
10.76764635089819
 10
41.1980365556558
 20
10.80049765476339
 10
41.19566162830576
 20
10.84128807538466
 10
41.20322529200081
 20
10.88699237386827
 10
41.22016658440615
 20
10.93422087147896
 10
41.24522904736533
 20
10.97947084660493
 10
41.27655391265382
 20
11.01938631559596
 10
41.31181795831488
 20
11.0510069307181
 10
41.3484058114041
 20
11.07198753560243
 10
41.38360391823616
 20
11.08077209476456
 10
41.41480179624794
 20
11.07670909763812
 10
41.4396856415481
 20
11.060099878133
  0
LWPOLYLINE
  5
2EF
330
1F
100
AcDbEntity
  8
0
  6
SLD-Solid
 62
     7
370
    25
100
AcDbPolyline
 90
       17
 70
   128
 43
0.0
 10
41.40743545071449
 20
10.97371908519479
 10
41.41829945023682
 20
10.95151437034269
 10
41.41889953326404
 20
10.92075116114764
 10
41.40914434259503
 20
10.88611287734042
 10
41.39051901757814
 20
10.85287288363384
 10
41.36585909510816
 20
10.82609166774844
 10
41.33891882483842
 20
10.80984642703045
 10
41.31379961870333
 20
10.8066103521157
 10
41.29432564813078
 20
10.81687610607487
 10
41.28346164860845
 20
10.83908082092698
 10
41.28286156558122
 20
10.86984403012202
 10
41.29261675625024
 20
10.90448231392925
 10
41.31124208126714
 20
10.93772230763583
 10
41.33590200373711
 20
10.96450352352123
 10
41.36284227400685
 20
10.98074876423922
 10
41.38796148014195
 20
10.98398483915397
 10
41.40743545071449
 20
10.97371908519479
  0
LWPOLYLINE
  5
2F0
330
1F
100
AcDbEntity
  8
0
  6
SLD-Solid
 62
     7
370
    25
100
AcDbPolyline
 90
       14
 70
   128
 43
0.0
 10
41.21346186294937
 20
10.75524055513814
 10
41.20996039354604
 20
10.75741671639062
 10
41.18896073311618
 20
10.77989247257679
 10
41.17682335221803
 20
10.81274377644199
 10
41.17444842486798
 20
10.85353419706326
 10
41.18201208856303
 20
10.89923849554688
 10
41.19895338096838
 20
10.94646699315756
 10
41.22401584392755
 20
10.99171696828353
 10
41.25534070921604
 20
11.03163243727456
 10
41.2906047548771
 20
11.0632530523967
 10
41.32719260796632
 20
11.08423365728103
 10
41.36239071479838
 20
11.09301821644316
 10
41.39358859281017
 20
11.08895521931672
 10
41.40344642215022
 20
11.08433912284279
  0
LWPOLYLINE
  5
2F1
330
1F
100
AcDbEntity
  8
0
  6
SLD-Solid
 62
     7
370
    25
100
AcDbPolyline
 90
       17
 70
   128
 43
0.0
 10
41.38562316907333
 20
10.94347322536782
 10
41.3922971052781
 20
10.92983249848232
 10
41.3926657462959
 20
10.91093414569796
 10
41.38667296987349
 20
10.88965526991217
 10
41.37523112189654
 20
10.86923538706985
 10
41.36008211999894
 20
10.85278323922703
 10
41.34353226239352
 20
10.8428035167537
 10
41.32810111487591
 20
10.84081554193002
 10
41.31613792977194
 20
10.84712196590184
 10
41.30946399356717
 20
10.86076269278734
 10
41.30909535254937
 20
10.8796610455717
 10
41.31508812897177
 20
10.90093992135749
 10
41.32652997694872
 20
10.92135980419982
 10
41.34167897884634
 20
10.93781195204263
 10
41.35822883645175
 20
10.94779167451596
 10
41.37365998396937
 20
10.94977964933965
 10
41.38562316907333
 20
10.94347322536782
  0
ARC
  5
2F2
330
1F
100
AcDbEntity
  8
0
  6
SLD-Solid
 62
     7
370
    25
100
AcDbCircle
 10
38.43854257266479
 20
22.89198882966539
 30
0.0
 40
1.319377079390605
100
AcDbArc
 50
71.88337749301245
 51
110.0825394080905
  0
LWPOLYLINE
  5
2F3
330
1F
100
AcDbEntity
  8
0
  6
SLD-Solid
 62
     7
370
    25
100
AcDbPolyline
 90
        3
 70
   128
 43
0.0
 10
37.85227397528497
 20
24.06672775915042
 10
37.90125255034815
 20
24.09374614778845
 10
37.98550345431797
 20
24.13114638012813
  0
LWPOLYLINE
  5
2F4
330
1F
100
AcDbEntity
  8
0
  6
SLD-Solid
 62
     7
370
    25
100
AcDbPolyline
 90
       13
 70
   128
 43
0.0
 10
38.0188890904988
 20
24.10236640601649
 10
38.1079271187813
 20
24.13191830507549
 10
38.20310634045641
 20
24.15419591418465
 10
38.30265374671029
 20
24.16878424363712
 10
38.40471495771538
 20
24.17541154045737
 10
38.50738876621788
 20
24.17395435064497
 10
38.60876255343169
 20
24.16443981888902
 10
38.70694791750758
 20
24.14704518291395
 10
38.80011585088668
 20
24.12209447187605
 10
38.88653081125062
 20
24.09005247031341
 10
38.96458305139122
 20
24.05151606008933
 10
39.03281860575514
 20
24.00720310161262
 10
39.04245294134996
 20
23.99985290803004
  0
ARC
  5
2F5
330
1F
100
AcDbEntity
  8
0
  6
SLD-Solid
 62
     7
370
    25
100
AcDbCircle
 10
38.20525910880659
 20
23.54609612125979
 30
0.0
 40
0.5866603901980565
100
AcDbArc
 50
108.5226527878893
 51
143.4042883094803
  0
ARC
  5
2F6
330
1F
100
AcDbEntity
  8
0
  6
SLD-Solid
 62
     7
370
    25
100
AcDbCircle
 10
38.80673470777383
 20
20.89463529902164
 30
0.0
 40
0.5404152758036115
100
AcDbArc
 50
303.5819763340742
 51
321.0798909932606
  0
ARC
  5
2F7
330
1F
100
AcDbEntity
  8
0
  6
SLD-Solid
 62
     7
370
    25
100
AcDbCircle
 10
38.9856717161278
 20
20.66510015825098
 30
0.0
 40
0.2511901620173534
100
AcDbArc
 50
246.6753206218211
 51
298.5324593992246
  0
LINE
  5
2F8
330
1F
100
AcDbEntity
  8
0
  6
SLD-Solid
 62
     7
370
    25
100
AcDbLine
 10
38.90166353994523
 20
20.45365585221025
 30
0.0
 11
38.88621521356246
 21
20.43443828105457
 31
0.0
  0
LINE
  5
2F9
330
1F
100
AcDbEntity
  8
0
  6
SLD-Solid
 62
     7
370
    25
100
AcDbLine
 10
38.88914176535113
 20
20.46088451881694
 30
0.0
 11
38.90166353994523
 21
20.45365585221025
 31
0.0
  0
LINE
  5
2FA
330
1F
100
AcDbEntity
  8
0
  6
SLD-Solid
 62
     7
370
    25
100
AcDbLine
 10
38.88460853807919
 20
20.45524522718722
 30
0.0
 11
38.88914176535113
 21
20.46088451881694
 31
0.0
  0
LINE
  5
2FB
330
1F
100
AcDbEntity
  8
0
  6
SLD-Solid
 62
     7
370
    25
100
AcDbLine
 10
38.88460853807919
 20
20.45524522718722
 30
0.0
 11
33.84647272212505
 21
23.36369912555563
 31
0.0
  0
LINE
  5
2FC
330
1F
100
AcDbEntity
  8
0
  6
SLD-Solid
 62
     7
370
    25
100
AcDbLine
 10
33.84647272212505
 20
23.36369912555563
 30
0.0
 11
33.85100594939698
 21
23.36933841718534
 31
0.0
  0
LINE
  5
2FD
330
1F
100
AcDbEntity
  8
0
  6
SLD-Solid
 62
     7
370
    25
100
AcDbLine
 10
33.85100594939698
 20
23.36933841718534
 30
0.0
 11
33.83848417480289
 21
23.37656708379202
 31
0.0
  0
LINE
  5
2FE
330
1F
100
AcDbEntity
  8
0
  6
SLD-Solid
 62
     7
370
    25
100
AcDbLine
 10
33.83848417480289
 20
23.37656708379202
 30
0.0
 11
33.8230358484201
 21
23.35734951263634
 31
0.0
  0
ARC
  5
2FF
330
1F
100
AcDbEntity
  8
0
  6
SLD-Solid
 62
     7
370
    25
100
AcDbCircle
 10
33.91933989054808
 20
23.49712483378919
 30
0.0
 40
0.169739827187285
100
AcDbArc
 50
167.4337357095009
 51
235.4334790519439
  0
ARC
  5
300
330
1F
100
AcDbEntity
  8
0
  6
SLD-Solid
 62
     7
370
    25
100
AcDbCircle
 10
34.19395782361264
 20
23.37515276938583
 30
0.0
 40
0.4680882599710141
100
AcDbArc
 50
140.8903591936111
 51
160.1553874930497
  0
LINE
  5
301
330
1F
100
AcDbEntity
  8
0
  6
SLD-Solid
 62
     7
370
    25
100
AcDbLine
 10
33.83074928990148
 20
23.67042582972503
 30
0.0
 11
34.79566020150803
 21
24.87076583052751
 31
0.0
  0
ARC
  5
302
330
1F
100
AcDbEntity
  8
0
  6
SLD-Solid
 62
     7
370
    25
100
AcDbCircle
 10
34.82200821292807
 20
24.85160482726805
 30
0.0
 40
0.0325785474154309
100
AcDbArc
 50
66.02795745364415
 51
143.9743147172105
  0
LINE
  5
303
330
1F
100
AcDbEntity
  8
0
  6
SLD-Solid
 62
     7
370
    25
100
AcDbLine
 10
34.83736589835807
 20
24.88014866133114
 30
0.0
 11
34.83524457801451
 21
24.88137327349887
 31
0.0
  0
ARC
  5
304
330
1F
100
AcDbEntity
  8
0
  6
SLD-Solid
 62
     7
370
    25
100
AcDbCircle
 10
34.84619014174903
 20
24.89999429215167
 30
0.0
 40
0.0217190316102759
100
AcDbArc
 50
246.0279574536335
 51
323.9743147172204
  0
LINE
  5
305
330
1F
100
AcDbEntity
  8
0
  6
SLD-Solid
 62
     7
370
    25
100
AcDbLine
 10
34.87184006483021
 20
24.89727743329534
 30
0.0
 11
34.86375548269571
 21
24.88722028997871
 31
0.0
  0
LINE
  5
306
330
1F
100
AcDbEntity
  8
0
  6
SLD-Solid
 62
     7
370
    25
100
AcDbLine
 10
40.19332751882992
 20
21.82524811608392
 30
0.0
 11
34.87184006483021
 21
24.89727743329534
 31
0.0
  0
LINE
  5
307
330
1F
100
AcDbEntity
  8
0
  6
SLD-Solid
 62
     7
370
    25
100
AcDbLine
 10
40.19332751882992
 20
21.82524811608392
 30
0.0
 11
40.18524293669542
 21
21.81519097276729
 31
0.0
  0
ARC
  5
308
330
1F
100
AcDbEntity
  8
0
  6
SLD-Solid
 62
     7
370
    25
100
AcDbCircle
 10
40.19579083897897
 20
21.80426843697049
 30
0.0
 40
0.0151842033316158
100
AcDbArc
 50
134.0003584890902
 51
235.2579508550768
  0
LINE
  5
309
330
1F
100
AcDbEntity
  8
0
  6
SLD-Solid
 62
     7
370
    25
100
AcDbLine
 10
40.18713762360523
 20
21.79179118188327
 30
0.0
 11
40.1892589439488
 21
21.79056656971554
 31
0.0
  0
ARC
  5
30A
330
1F
100
AcDbEntity
  8
0
  6
SLD-Solid
 62
     7
370
    25
100
AcDbCircle
 10
40.17627912088819
 20
21.7718506870847
 30
0.0
 40
0.0227763049974284
100
AcDbArc
 50
314.0003584890945
 51
55.25795085505141
  0
LINE
  5
30B
330
1F
100
AcDbEntity
  8
0
  6
SLD-Solid
 62
     7
370
    25
100
AcDbLine
 10
39.22719006270697
 20
20.55512688258701
 30
0.0
 11
40.19210097431352
 21
21.75546688338949
 31
0.0
  0
LINE
  5
30C
330
1F
100
AcDbEntity
  8
0
  6
SLD-Solid
 62
     7
370
    25
100
AcDbLine
 10
39.29167683528379
 20
10.66009512128518
 30
0.0
 11
39.28329418059042
 21
10.54632035262135
 31
0.0
  0
LINE
  5
30D
330
1F
100
AcDbEntity
  8
0
  6
SLD-Solid
 62
     7
370
    25
100
AcDbLine
 10
39.29167683528379
 20
10.66009512128518
 30
0.0
 11
39.28765940335553
 21
10.66446606536015
 31
0.0
  0
LINE
  5
30E
330
1F
100
AcDbEntity
  8
0
  6
SLD-Solid
 62
     7
370
    25
100
AcDbLine
 10
39.28765940335553
 20
10.66446606536015
 30
0.0
 11
39.28765940335553
 21
20.49461347999487
 31
0.0
  0
LINE
  5
30F
330
1F
100
AcDbEntity
  8
0
  6
SLD-Solid
 62
     7
370
    25
100
AcDbLine
 10
40.30325903789002
 20
21.75800977023103
 30
0.0
 11
39.28765940335553
 21
20.49461347999487
 31
0.0
  0
LINE
  5
310
330
1F
100
AcDbEntity
  8
0
  6
SLD-Solid
 62
     7
370
    25
100
AcDbLine
 10
43.1060360217629
 20
23.376018482737
 30
0.0
 11
40.30325903789002
 21
21.75800977023103
 31
0.0
  0
ARC
  5
311
330
1F
100
AcDbEntity
  8
0
  6
SLD-Solid
 62
     7
370
    25
100
AcDbCircle
 10
43.1474408838269
 20
23.32525704887594
 30
0.0
 40
0.0655063796142715
100
AcDbArc
 50
350.7859630095378
 51
129.2032852357178
  0
LINE
  5
312
330
1F
100
AcDbEntity
  8
0
  6
SLD-Solid
 62
     7
370
    25
100
AcDbLine
 10
43.21210203894089
 20
23.3063435312094
 30
0.0
 11
43.21210203894088
 21
23.31476796934084
 31
0.0
  0
LINE
  5
313
330
1F
100
AcDbEntity
  8
0
  6
SLD-Solid
 62
     7
370
    25
100
AcDbLine
 10
43.21210203894089
 20
23.3063435312094
 30
0.0
 11
43.18769903989264
 21
23.29225597972081
 31
0.0
  0
LINE
  5
314
330
1F
100
AcDbEntity
  8
0
  6
SLD-Solid
 62
     7
370
    25
100
AcDbLine
 10
43.18769903989264
 20
11.93142518316765
 30
0.0
 11
43.18769903989264
 21
23.29225597972081
 31
0.0
  0
LINE
  5
315
330
1F
100
AcDbEntity
  8
0
  6
SLD-Solid
 62
     7
370
    25
100
AcDbLine
 10
43.21210203894089
 20
11.94551273465624
 30
0.0
 11
43.18769903989264
 21
11.93142518316765
 31
0.0
  0
LINE
  5
316
330
1F
100
AcDbEntity
  8
0
  6
SLD-Solid
 62
     7
370
    25
100
AcDbLine
 10
43.21210203894089
 20
11.94551273465624
 30
0.0
 11
43.21210203894089
 21
11.9370882965248
 31
0.0
  0
ARC
  5
317
330
1F
100
AcDbEntity
  8
0
  6
SLD-Solid
 62
     7
370
    25
100
AcDbCircle
 10
42.98181962373578
 20
11.94756742436388
 30
0.0
 40
0.2305207211357985
100
AcDbArc
 50
302.6054783400245
 51
357.3945215143482
  0
LINE
  5
318
330
1F
100
AcDbEntity
  8
0
  6
SLD-Solid
 62
     7
370
    25
100
AcDbLine
 10
43.10603602176291
 20
11.75337656635524
 30
0.0
 11
39.86726717905909
 21
9.883675111176833
 31
0.0
  0
LINE
  5
319
330
1F
100
AcDbEntity
  8
0
  6
SLD-Solid
 62
     7
370
    25
100
AcDbLine
 10
39.28329418059042
 20
10.54632035262135
 30
0.0
 11
39.86726717905909
 21
9.883675111176833
 31
0.0
  0
LINE
  5
31A
330
1F
100
AcDbEntity
  8
0
  6
SLD-Solid
 62
     7
370
    25
100
AcDbLine
 10
40.26790369883069
 20
21.7784199730266
 30
0.0
 11
40.30325903789002
 21
21.75800977023103
 31
0.0
  0
LINE
  5
31B
330
1F
100
AcDbEntity
  8
0
  6
SLD-Solid
 62
     7
370
    25
100
AcDbLine
 10
39.28765940335553
 20
20.49461347999487
 30
0.0
 11
39.2523040642962
 21
20.51502368279044
 31
0.0
  0
LINE
  5
31C
330
1F
100
AcDbEntity
  8
0
  6
SLD-Solid
 62
     7
370
    25
100
AcDbLine
 10
40.2679036988307
 20
21.77841997302659
 30
0.0
 11
39.2523040642962
 21
20.51502368279044
 31
0.0
  0
LINE
  5
31D
330
1F
100
AcDbEntity
  8
0
  6
SLD-Solid
 62
     7
370
    25
100
AcDbLine
 10
39.24486773223662
 20
20.5299747296688
 30
0.0
 11
39.22719006270697
 21
20.55512688258701
 31
0.0
  0
LINE
  5
31E
330
1F
100
AcDbEntity
  8
0
  6
SLD-Solid
 62
     7
370
    25
100
AcDbLine
 10
40.20977864384319
 20
21.73031473047129
 30
0.0
 11
40.19210097431352
 21
21.75546688338949
 31
0.0
  0
LINE
  5
31F
330
1F
100
AcDbEntity
  8
0
  6
SLD-Solid
 62
     7
370
    25
100
AcDbLine
 10
39.24486773223662
 20
20.5299747296688
 30
0.0
 11
40.20977864384319
 21
21.73031473047129
 31
0.0
  0
LINE
  5
320
330
1F
100
AcDbEntity
  8
0
  6
SLD-Solid
 62
     7
370
    25
100
AcDbLine
 10
38.8633953346436
 20
20.29097031424279
 30
0.0
 11
38.86984433065046
 21
20.29124095756531
 31
0.0
  0
LINE
  5
321
330
1F
100
AcDbEntity
  8
0
  6
SLD-Solid
 62
     7
370
    25
100
AcDbLine
 10
38.86984433065046
 20
20.29124095756531
 30
0.0
 11
38.86984433065046
 21
20.37316700065464
 31
0.0
  0
SPLINE
  5
322
330
1F
100
AcDbEntity
  8
0
  6
SLD-Solid
 62
     7
370
    25
100
AcDbSpline
210
0.0
220
0.0
230
1.0
 70
    12
 71
     3
 72
    11
 73
     7
 74
     0
 42
0.00000001
 43
0.00000001
 40
0.0
 40
0.0
 40
0.0
 40
0.0
 40
0.2808106554120416
 40
0.5051528559808998
 40
0.7465507656473455
 40
1.0
 40
1.0
 40
1.0
 40
1.0
 10
38.86984433065046
 20
20.37316700065464
 30
0.0
 41
1.0
 10
38.89755465677872
 20
20.36271981475653
 30
0.0
 41
1.0
 10
38.94740301585655
 20
20.34392627650688
 30
0.0
 41
1.0
 10
39.03703149383795
 20
20.34378220490678
 30
0.0
 41
1.0
 10
39.12322858815076
 20
20.36571860598962
 30
0.0
 41
1.0
 10
39.17544495741621
 20
20.39815499942004
 30
0.0
 41
1.0
 10
39.20218897114037
 20
20.41476816811156
 30
0.0
 41
1.0
  0
LINE
  5
323
330
1F
100
AcDbEntity
  8
0
  6
SLD-Solid
 62
     7
370
    25
100
AcDbLine
 10
39.20218897114037
 20
20.41476816811156
 30
0.0
 11
39.28765940335553
 21
20.49461347999487
 31
0.0
  0
LINE
  5
324
330
1F
100
AcDbEntity
  8
0
  6
SLD-Solid
 62
     7
370
    25
100
AcDbLine
 10
39.28765940335553
 20
10.66446606536016
 30
0.0
 11
39.27944795512249
 21
10.66939910470412
 31
0.0
  0
LINE
  5
325
330
1F
100
AcDbEntity
  8
0
  6
SLD-Solid
 62
     7
370
    25
100
AcDbLine
 10
39.27944795512249
 20
10.66939910470412
 30
0.0
 11
39.27105294936901
 21
10.54951633577783
 31
0.0
  0
SPLINE
  5
326
330
1F
100
AcDbEntity
  8
0
  6
SLD-Solid
 62
     7
370
    25
100
AcDbSpline
210
0.0
220
0.0
230
1.0
 70
    12
 71
     3
 72
     9
 73
     5
 74
     0
 42
0.00000001
 43
0.00000001
 40
0.0
 40
0.0
 40
0.0
 40
0.0
 40
0.5198730845766825
 40
1.0
 40
1.0
 40
1.0
 40
1.0
 10
39.27105294247514
 20
10.54951632740472
 30
0.0
 41
1.0
 10
39.25218518143635
 20
10.56917647509938
 30
0.0
 41
1.0
 10
39.2158921676248
 20
10.60699368140977
 30
0.0
 41
1.0
 10
39.16521522279739
 20
10.6477573300983
 30
0.0
 41
1.0
 10
39.14088385759432
 20
10.66732905500453
 30
0.0
 41
1.0
  0
SPLINE
  5
327
330
1F
100
AcDbEntity
  8
0
  6
SLD-Solid
 62
     7
370
    25
100
AcDbSpline
210
0.0
220
0.0
230
1.0
 70
    12
 71
     3
 72
    12
 73
     8
 74
     0
 42
0.00000001
 43
0.00000001
 40
0.0
 40
0.0
 40
0.0
 40
0.0
 40
0.1905937597580098
 40
0.3532391561476884
 40
0.4886605276906888
 40
0.7423620379039887
 40
1.0
 40
1.0
 40
1.0
 40
1.0
 10
39.14088376431666
 20
10.66732912866424
 30
0.0
 41
1.0
 10
39.12729109759566
 20
10.67572448438427
 30
0.0
 41
1.0
 10
39.10209897100967
 20
10.6912841143211
 30
0.0
 41
1.0
 10
39.06468494566305
 20
10.71434825443987
 30
0.0
 41
1.0
 10
39.02028736815338
 20
10.74027311291228
 30
0.0
 41
1.0
 10
38.96500114604535
 20
10.77045759790979
 30
0.0
 41
1.0
 10
38.92452782849437
 20
10.79637710298253
 30
0.0
 41
1.0
 10
38.90413538156277
 20
10.80943662376491
 30
0.0
 41
1.0
  0
LINE
  5
328
330
1F
100
AcDbEntity
  8
0
  6
SLD-Solid
 62
     7
370
    25
100
AcDbLine
 10
38.90413530180857
 20
10.80943667745262
 30
0.0
 11
38.8633953346436
 21
10.83216207406509
 31
0.0
  0
LINE
  5
329
330
1F
100
AcDbEntity
  8
0
  6
SLD-Solid
 62
     7
370
    25
100
AcDbLine
 10
38.8633953346436
 20
10.83216207406509
 30
0.0
 11
38.8633953346436
 21
20.29097031424279
 31
0.0
  0
SPLINE
  5
32A
330
1F
100
AcDbEntity
  8
0
  6
SLD-Solid
 62
     7
370
    25
100
AcDbSpline
210
0.0
220
0.0
230
1.0
 70
    12
 71
     3
 72
    11
 73
     7
 74
     0
 42
0.00000001
 43
0.00000001
 40
0.0
 40
0.0
 40
0.0
 40
0.0
 40
0.2768810472269951
 40
0.499286859464932
 40
0.7416509847753104
 40
1.0
 40
1.0
 40
1.0
 40
1.0
 10
38.90412483704197
 20
20.39417937635134
 30
0.0
 41
1.0
 10
38.92724215797556
 20
20.38578155242509
 30
0.0
 41
1.0
 10
38.96892855971295
 20
20.37063814273174
 30
0.0
 41
1.0
 10
39.04391437396293
 20
20.3727989913856
 30
0.0
 41
1.0
 10
39.11584627582406
 20
20.3950235837949
 30
0.0
 41
1.0
 10
39.15887665718004
 20
20.42530808466271
 30
0.0
 41
1.0
 10
39.1810787041169
 20
20.44093374003778
 30
0.0
 41
1.0
  0
LINE
  5
32B
330
1F
100
AcDbEntity
  8
0
  6
SLD-Solid
 62
     7
370
    25
100
AcDbLine
 10
39.20218897114037
 20
20.41476816811156
 30
0.0
 11
39.1810787041169
 21
20.44093374003778
 31
0.0
  0
LINE
  5
32C
330
1F
100
AcDbEntity
  8
0
  6
SLD-Solid
 62
     7
370
    25
100
AcDbLine
 10
38.86984433065046
 20
20.37316700065464
 30
0.0
 11
38.90412483704197
 21
20.39417937635134
 31
0.0
  0
LINE
  5
32D
330
1F
100
AcDbEntity
  8
0
  6
SLD-Solid
 62
     7
370
    25
100
AcDbLine
 10
39.12333201287321
 20
20.41926572996678
 30
0.0
 11
39.10565434334355
 21
20.44441788288498
 31
0.0
  0
ARC
  5
32E
330
1F
100
AcDbEntity
  8
0
  6
SLD-Solid
 62
     7
370
    25
100
AcDbCircle
 10
38.82441237730374
 20
20.86948314610312
 30
0.0
 40
0.5404152758032162
100
AcDbArc
 50
303.5819763340712
 51
321.0798909932693
  0
LINE
  5
32F
330
1F
100
AcDbEntity
  8
0
  6
SLD-Solid
 62
     7
370
    25
100
AcDbLine
 10
38.90389288309213
 20
20.40928612813636
 30
0.0
 11
38.88621521356246
 21
20.43443828105457
 31
0.0
  0
ARC
  5
330
330
1F
100
AcDbEntity
  8
0
  6
SLD-Solid
 62
     7
370
    25
100
AcDbCircle
 10
39.00334938565748
 20
20.63994800533274
 30
0.0
 40
0.2511901620173273
100
AcDbArc
 50
246.6753206218171
 51
298.5324593992262
  0
LINE
  5
331
330
1F
100
AcDbEntity
  8
0
  6
SLD-Solid
 62
     7
370
    25
100
AcDbLine
 10
39.1810787041169
 20
20.44093374003778
 30
0.0
 11
39.2523040642962
 21
20.51502368279044
 31
0.0
  0
ARC
  5
332
330
1F
100
AcDbEntity
  8
0
  6
SLD-Solid
 62
     7
370
    25
100
AcDbCircle
 10
33.94084974856116
 20
23.28514505531471
 30
0.0
 40
0.1227915512986873
100
AcDbArc
 50
140.2279276209239
 51
177.3607126387756
  0
ARC
  5
333
330
1F
100
AcDbEntity
  8
0
  6
SLD-Solid
 62
     7
370
    25
100
AcDbCircle
 10
38.97898556451528
 20
20.37669115694633
 30
0.0
 40
0.1227915512986518
100
AcDbArc
 50
140.2279276209231
 51
177.3607126387831
  0
LINE
  5
334
330
1F
100
AcDbEntity
  8
0
  6
SLD-Solid
 62
     7
370
    25
100
AcDbLine
 10
38.85632426683173
 20
20.38234545804519
 30
0.0
 11
33.81818845087758
 21
23.29079935641359
 31
0.0
  0
ARC
  5
335
330
1F
100
AcDbEntity
  8
0
  6
SLD-Solid
 62
     7
370
    25
100
AcDbCircle
 10
38.93368239159951
 20
20.40147734024337
 30
0.0
 40
0.0420222335296456
100
AcDbArc
 50
153.3382257113769
 51
178.2567876609342
  0
LINE
  5
336
330
1F
100
AcDbEntity
  8
0
  6
SLD-Solid
 62
     7
370
    25
100
AcDbLine
 10
38.89167960589106
 20
20.40275566084075
 30
0.0
 11
38.85632426683173
 21
20.38234545804519
 31
0.0
  0
LINE
  5
337
330
1F
100
AcDbEntity
  8
0
  6
SLD-Solid
 62
     7
370
    25
100
AcDbLine
 10
38.89769341527904
 20
20.44871705486878
 30
0.0
 11
38.88914176535113
 21
20.46088451881694
 31
0.0
  0
LINE
  5
338
330
1F
100
AcDbEntity
  8
0
  6
SLD-Solid
 62
     7
370
    25
100
AcDbLine
 10
38.85632426683173
 20
20.38234545804519
 30
0.0
 11
38.85632426683173
 21
20.29033805422644
 31
0.0
  0
LINE
  5
339
330
1F
100
AcDbEntity
  8
0
  6
SLD-Solid
 62
     7
370
    25
100
AcDbLine
 10
38.8633953346436
 20
20.2909703142428
 30
0.0
 11
38.85632426683173
 21
20.29033805422644
 31
0.0
  0
LINE
  5
33A
330
1F
100
AcDbEntity
  8
0
  6
SLD-Solid
 62
     7
370
    25
100
AcDbLine
 10
38.8633953346436
 20
10.82173421692221
 30
0.0
 11
38.8633953346436
 21
10.83216207406509
 31
0.0
  0
LINE
  5
33B
330
1F
100
AcDbEntity
  8
0
  6
SLD-Solid
 62
     7
370
    25
100
AcDbLine
 10
33.81111738306573
 20
13.73835219640884
 30
0.0
 11
38.8633953346436
 21
10.82173421692221
 31
0.0
  0
LINE
  5
33C
330
1F
100
AcDbEntity
  8
0
  6
SLD-Solid
 62
     7
370
    25
100
AcDbLine
 10
33.81111738306573
 20
13.73835219640884
 30
0.0
 11
33.81111738306573
 21
13.74878005355172
 31
0.0
  0
LINE
  5
33D
330
1F
100
AcDbEntity
  8
0
  6
SLD-Solid
 62
     7
370
    25
100
AcDbLine
 10
33.81111738306573
 20
13.74878005355172
 30
0.0
 11
33.81111738306572
 21
23.20758829372942
 31
0.0
  0
LINE
  5
33E
330
1F
100
AcDbEntity
  8
0
  6
SLD-Solid
 62
     7
370
    25
100
AcDbLine
 10
33.81111738306573
 20
23.20758829372942
 30
0.0
 11
33.81818845087759
 21
23.19879195259485
 31
0.0
  0
LINE
  5
33F
330
1F
100
AcDbEntity
  8
0
  6
SLD-Solid
 62
     7
370
    25
100
AcDbLine
 10
33.81818845087758
 20
23.29079935641359
 30
0.0
 11
33.81818845087758
 21
23.19879195259484
 31
0.0
  0
LINE
  5
340
330
1F
100
AcDbEntity
  8
0
  6
SLD-Solid
 62
     7
370
    25
100
AcDbLine
 10
38.86984433065046
 20
20.2981430209356
 30
0.0
 11
38.85632426683173
 21
20.29033805422644
 31
0.0
  0
LINE
  5
341
330
1F
100
AcDbEntity
  8
0
  6
SLD-Solid
 62
     7
370
    25
100
AcDbLine
 10
38.89167960589106
 20
20.40275566084075
 30
0.0
 11
38.89167960589106
 21
20.38655102134431
 31
0.0
  0
LINE
  5
342
330
1F
100
AcDbEntity
  8
0
  6
SLD-Solid
 62
     7
370
    25
100
AcDbLine
 10
38.8633953346436
 20
20.2909703142428
 30
0.0
 11
38.86984433065046
 21
20.29469324039284
 31
0.0
  0
ARC
  5
343
330
1F
100
AcDbEntity
  8
0
  6
SLD-Solid
 62
     7
370
    25
100
AcDbCircle
 10
40.19164009339193
 20
21.74729951611507
 30
0.0
 40
0.0248493451792593
100
AcDbArc
 50
316.8814298267989
 51
30.23219236869692
  0
LINE
  5
344
330
1F
100
AcDbEntity
  8
0
  6
SLD-Solid
 62
     7
370
    25
100
AcDbLine
 10
40.18524293669542
 20
21.81519097276729
 30
0.0
 11
40.20292060622508
 21
21.79003881984908
 31
0.0
  0
ARC
  5
345
330
1F
100
AcDbEntity
  8
0
  6
SLD-Solid
 62
     7
370
    25
100
AcDbCircle
 10
40.21858017892373
 20
21.77707782951799
 30
0.0
 40
0.0203275548816662
100
AcDbArc
 50
140.3863934135721
 51
170.2218584175109
  0
LINE
  5
346
330
1F
100
AcDbEntity
  8
0
  6
SLD-Solid
 62
     7
370
    25
100
AcDbLine
 10
40.20251990698534
 20
21.86134944587526
 30
0.0
 11
43.07546755246634
 21
23.51986681907655
 31
0.0
  0
ARC
  5
347
330
1F
100
AcDbEntity
  8
0
  6
SLD-Solid
 62
     7
370
    25
100
AcDbCircle
 10
43.00921880685186
 20
23.41629836147194
 30
0.0
 40
0.1229443846057627
100
AcDbArc
 50
2.605478485649818
 51
57.39452165997522
  0
ARC
  5
348
330
1F
100
AcDbEntity
  8
0
  6
SLD-Solid
 62
     7
370
    25
100
AcDbCircle
 10
40.13282790945986
 20
21.75617282865803
 30
0.0
 40
0.1266518664275262
100
AcDbArc
 50
5.053168779972959
 51
45.49212567257709
  0
ARC
  5
349
330
1F
100
AcDbEntity
  8
0
  6
SLD-Solid
 62
     7
370
    25
100
AcDbCircle
 10
40.17896060292103
 20
21.78189460341494
 30
0.0
 40
0.0448121899880386
100
AcDbArc
 50
2.411409941490195
 51
32.57290363020696
  0
LINE
  5
34A
330
1F
100
AcDbEntity
  8
0
  6
SLD-Solid
 62
     7
370
    25
100
AcDbLine
 10
40.22161179007738
 20
21.84649512829698
 30
0.0
 11
40.22161179007738
 21
21.80950089577136
 31
0.0
  0
LINE
  5
34B
330
1F
100
AcDbEntity
  8
0
  6
SLD-Solid
 62
     7
370
    25
100
AcDbLine
 10
43.1060360217629
 20
23.376018482737
 30
0.0
 11
43.07068068270357
 21
23.39642868553257
 31
0.0
  0
LINE
  5
34C
330
1F
100
AcDbEntity
  8
0
  6
SLD-Solid
 62
     7
370
    25
100
AcDbLine
 10
43.07068068270357
 20
23.39642868553257
 30
0.0
 11
40.26790369883069
 21
21.7784199730266
 31
0.0
  0
LINE
  5
34D
330
1F
100
AcDbEntity
  8
0
  6
SLD-Solid
 62
     7
370
    25
100
AcDbLine
 10
40.19332751882992
 20
21.82524811608392
 30
0.0
 11
40.21100518835959
 21
21.80009596316571
 31
0.0
  0
LINE
  5
34E
330
1F
100
AcDbEntity
  8
0
  6
SLD-Solid
 62
     7
370
    25
100
AcDbLine
 10
40.21100518835959
 20
21.80009596316571
 30
0.0
 11
40.20292060622508
 21
21.79003881984908
 31
0.0
  0
LINE
  5
34F
330
1F
100
AcDbEntity
  8
0
  6
SLD-Solid
 62
     7
370
    25
100
AcDbLine
 10
40.20251990698534
 20
21.86134944587526
 30
0.0
 11
40.22161179007738
 21
21.85032793636565
 31
0.0
  0
ARC
  5
350
330
1F
100
AcDbEntity
  8
0
  6
SLD-Solid
 62
     7
370
    25
100
AcDbCircle
 10
40.27540895359142
 20
21.76116811652889
 30
0.0
 40
0.1041326475005749
100
AcDbArc
 50
121.105899351251
 51
142.02126513621
  0
ARC
  5
351
330
1F
100
AcDbEntity
  8
0
  6
SLD-Solid
 62
     7
370
    25
100
AcDbCircle
 10
34.95392149959164
 20
24.83319743374037
 30
0.0
 40
0.104132647500483
100
AcDbArc
 50
121.1058993512313
 51
142.0212651362106
  0
LINE
  5
352
330
1F
100
AcDbEntity
  8
0
  6
SLD-Solid
 62
     7
370
    25
100
AcDbLine
 10
34.91921621916971
 20
24.91133574406746
 30
0.0
 11
34.90012433607768
 21
24.92235725357707
 31
0.0
  0
LINE
  5
353
330
1F
100
AcDbEntity
  8
0
  6
SLD-Solid
 62
     7
370
    25
100
AcDbLine
 10
40.20251990698534
 20
21.86134944587526
 30
0.0
 11
34.91921621916971
 21
24.91133574406746
 31
0.0
  0
ARC
  5
354
330
1F
100
AcDbEntity
  8
0
  6
SLD-Solid
 62
     7
370
    25
100
AcDbCircle
 10
40.24178572639502
 20
21.77606596333273
 30
0.0
 40
0.0390497428125201
100
AcDbArc
 50
121.1058993512019
 51
142.0212651362635
  0
LINE
  5
355
330
1F
100
AcDbEntity
  8
0
  6
SLD-Solid
 62
     7
370
    25
100
AcDbLine
 10
40.22161179007738
 20
21.85032793636565
 30
0.0
 11
40.22161179007738
 21
21.84649512829698
 31
0.0
  0
LINE
  5
356
330
1F
100
AcDbEntity
  8
0
  6
SLD-Solid
 62
     7
370
    25
100
AcDbLine
 10
43.13203609496126
 20
23.40927607714247
 30
0.0
 11
43.13203609496126
 21
23.42188722965277
 31
0.0
  0
LINE
  5
357
330
1F
100
AcDbEntity
  8
0
  6
SLD-Solid
 62
     7
370
    25
100
AcDbLine
 10
40.22373311042094
 20
21.78378005924705
 30
0.0
 11
40.22373311042094
 21
21.72347218096677
 31
0.0
  0
LINE
  5
358
330
1F
100
AcDbEntity
  8
0
  6
SLD-Solid
 62
     7
370
    25
100
AcDbLine
 10
34.91921621916971
 20
24.91133574406746
 30
0.0
 11
37.7921638646507
 21
26.56985311726876
 31
0.0
  0
LINE
  5
359
330
1F
100
AcDbEntity
  8
0
  6
SLD-Solid
 62
     7
370
    25
100
AcDbLine
 10
37.7921638646507
 20
26.56985311726876
 30
0.0
 11
37.92003025142717
 21
26.49603742339392
 31
0.0
  0
ARC
  5
35A
330
1F
100
AcDbEntity
  8
0
  6
SLD-Solid
 62
     7
370
    25
100
AcDbCircle
 10
37.90918535955146
 20
26.46746313948013
 30
0.0
 40
0.0305630721783994
100
AcDbArc
 50
290.7834207994762
 51
69.21657920052691
  0
LINE
  5
35B
330
1F
100
AcDbEntity
  8
0
  6
SLD-Solid
 62
     7
370
    25
100
AcDbLine
 10
37.93770792095684
 20
26.42868375416855
 30
0.0
 11
37.92003025142717
 21
26.43888885556634
 31
0.0
  0
LINE
  5
35C
330
1F
100
AcDbEntity
  8
0
  6
SLD-Solid
 62
     7
370
    25
100
AcDbLine
 10
37.95538559048649
 20
26.43888885556634
 30
0.0
 11
37.93770792095684
 21
26.42868375416855
 31
0.0
  0
LINE
  5
35D
330
1F
100
AcDbEntity
  8
0
  6
SLD-Solid
 62
     7
370
    25
100
AcDbLine
 10
42.84860621632374
 20
23.61409271574696
 30
0.0
 11
37.95538559048649
 21
26.43888885556634
 31
0.0
  0
LINE
  5
35E
330
1F
100
AcDbEntity
  8
0
  6
SLD-Solid
 62
     7
370
    25
100
AcDbLine
 10
42.84860621632374
 20
23.61409271574696
 30
0.0
 11
42.83092854679408
 21
23.60388761434917
 31
0.0
  0
LINE
  5
35F
330
1F
100
AcDbEntity
  8
0
  6
SLD-Solid
 62
     7
370
    25
100
AcDbLine
 10
42.83092854679408
 20
23.60388761434917
 30
0.0
 11
42.84860621632374
 21
23.59368251295139
 31
0.0
  0
ARC
  5
360
330
1F
100
AcDbEntity
  8
0
  6
SLD-Solid
 62
     7
370
    25
100
AcDbCircle
 10
42.8981036910068
 20
23.49815273700452
 30
0.0
 40
0.107591533553805
100
AcDbArc
 50
62.60967223659435
 51
117.390327763409
  0
LINE
  5
361
330
1F
100
AcDbEntity
  8
0
  6
SLD-Solid
 62
     7
370
    25
100
AcDbLine
 10
43.07546755246634
 20
23.51986681907655
 30
0.0
 11
42.94760116568986
 21
23.59368251295139
 31
0.0
  0
LWPOLYLINE
  5
362
330
1F
100
AcDbEntity
  8
0
  6
SLD-Solid
 62
     7
370
    25
100
AcDbPolyline
 90
       45
 70
   128
 43
0.0
 10
37.92835145726018
 20
23.5984862428285
 10
38.00248397359938
 20
23.56140347905275
 10
38.08500369095589
 20
23.53078864038248
 10
38.17423074585155
 20
23.5072649566471
 10
38.26834873275826
 20
23.49131130221077
 10
38.36544168087645
 20
23.48325244747126
 10
38.4635330577754
 20
23.48325244747126
 10
38.5606260058936
 20
23.49131130221077
 10
38.65474399280031
 20
23.50726495664711
 10
38.74397104769596
 20
23.53078864038248
 10
38.82649076505248
 20
23.56140347905276
 10
38.90062328139167
 20
23.5984862428285
 10
38.96485947246143
 20
23.64128203357711
 10
39.01789167465341
 20
23.68891965241179
 10
39.05864030526326
 20
23.74042933478864
 10
39.0862758396811
 20
23.79476249211611
 10
39.10023569812048
 20
23.85081305799491
 10
39.10023569812048
 20
23.90744000454022
 10
39.0862758396811
 20
23.96349057041902
 10
39.05864030526326
 20
24.01782372774649
 10
39.01789167465341
 20
24.06933341012333
 10
38.96485947246142
 20
24.11697102895802
 10
38.90062328139167
 20
24.15976681970662
 10
38.82649076505248
 20
24.19684958348236
 10
38.74397104769596
 20
24.22746442215264
 10
38.65474399280031
 20
24.25098810588801
 10
38.56062600589359
 20
24.26694176032435
 10
38.46353305777539
 20
24.27500061506385
 10
38.36544168087645
 20
24.27500061506385
 10
38.26834873275825
 20
24.26694176032435
 10
38.17423074585154
 20
24.25098810588801
 10
38.08500369095588
 20
24.22746442215263
 10
38.00248397359937
 20
24.19684958348236
 10
37.92835145726017
 20
24.15976681970661
 10
37.86411526619042
 20
24.11697102895801
 10
37.81108306399844
 20
24.06933341012332
 10
37.77033443338859
 20
24.01782372774647
 10
37.74269889897075
 20
23.963490570419
 10
37.72873904053138
 20
23.9074400045402
 10
37.72873904053138
 20
23.85081305799489
 10
37.74269889897076
 20
23.7947624921161
 10
37.77033443338859
 20
23.74042933478862
 10
37.81108306399844
 20
23.68891965241178
 10
37.86411526619043
 20
23.64128203357709
 10
37.92835145726018
 20
23.5984862428285
  0
ARC
  5
363
330
1F
100
AcDbEntity
  8
0
  6
SLD-Solid
 62
     7
370
    25
100
AcDbCircle
 10
38.75547502449742
 20
23.79981245773031
 30
0.0
 40
0.3505856011474204
100
AcDbArc
 50
9.67191526845673
 51
65.54259794850718
  0
LWPOLYLINE
  5
364
330
1F
100
AcDbEntity
  8
0
  6
SLD-Solid
 62
     7
370
    25
100
AcDbPolyline
 90
       18
 70
   128
 43
0.0
 10
37.72789735802812
 20
23.8587130109681
 10
37.72873904053138
 20
23.86661296394592
 10
37.74269889897076
 20
23.92266352982471
 10
37.77033443338859
 20
23.97699668715219
 10
37.81108306399844
 20
24.02850636952903
 10
37.86411526619043
 20
24.07614398836372
 10
37.92835145726018
 20
24.11893977911232
 10
38.00248397359938
 20
24.15602254288806
 10
38.08500369095589
 20
24.18663738155833
 10
38.17423074585156
 20
24.21016106529371
 10
38.26834873275826
 20
24.22611471973005
 10
38.36544168087647
 20
24.23417357446955
 10
38.46353305777541
 20
24.23417357446955
 10
38.56062600589361
 20
24.22611471973005
 10
38.65474399280032
 20
24.21016106529371
 10
38.74397104769597
 20
24.18663738155833
 10
38.82649076505248
 20
24.15602254288806
 10
38.90062328139167
 20
24.11893977911232
  0
ARC
  5
365
330
1F
100
AcDbEntity
  8
0
  6
SLD-Solid
 62
     7
370
    25
100
AcDbCircle
 10
43.11461869093116
 20
23.33509648616477
 30
0.0
 40
0.075446585385284
100
AcDbArc
 50
65.69288095390884
 51
125.617577475194
  0
ARC
  5
366
330
1F
100
AcDbEntity
  8
0
  6
SLD-Solid
 62
     7
370
    25
100
AcDbCircle
 10
43.18228077330983
 20
11.96427968698574
 30
0.0
 40
0.0288504047631766
100
AcDbArc
 50
327.3332331494962
 51
359.6064204485392
  0
ARC
  5
367
330
1F
100
AcDbEntity
  8
0
  6
SLD-Solid
 62
     7
370
    25
100
AcDbCircle
 10
43.16282656851249
 20
11.97752205567959
 30
0.0
 40
0.0523790176305179
100
AcDbArc
 50
298.3499504850644
 51
326.6251589806349
  0
ARC
  5
368
330
1F
100
AcDbEntity
  8
0
  6
SLD-Solid
 62
     7
370
    25
100
AcDbCircle
 10
37.97881919487455
 20
26.40617834923672
 30
0.0
 40
0.0402381788722582
100
AcDbArc
 50
65.69288095396644
 51
125.6175774751031
  0
ARC
  5
369
330
1F
100
AcDbEntity
  8
0
  6
SLD-Solid
 62
     7
370
    25
100
AcDbCircle
 10
42.87065186144466
 20
23.58754873739532
 30
0.0
 40
0.034504974359217
100
AcDbArc
 50
31.35227897074098
 51
129.7107441944944
  0
LINE
  5
36A
330
1F
100
AcDbEntity
  8
0
  6
SLD-Solid
 62
     7
370
    25
100
AcDbLine
 10
34.86207235665955
 20
24.8991399804689
 30
0.0
 11
34.84516074928136
 21
24.87810210166608
 31
0.0
  0
LINE
  5
36B
330
1F
100
AcDbEntity
  8
0
  6
SLD-Solid
 62
     7
370
    25
100
AcDbLine
 10
34.86745597220043
 20
24.90224787556725
 30
0.0
 11
34.86207235665955
 21
24.8991399804689
 31
0.0
  0
LINE
  5
36C
330
1F
100
AcDbEntity
  8
0
  6
SLD-Solid
 62
     7
370
    25
100
AcDbLine
 10
34.82671701760022
 20
24.91955018326447
 30
0.0
 11
33.81111738306573
 21
23.65615389302831
 31
0.0
  0
LINE
  5
36D
330
1F
100
AcDbEntity
  8
0
  6
SLD-Solid
 62
     7
370
    25
100
AcDbLine
 10
34.86207235665955
 20
24.8991399804689
 30
0.0
 11
34.82671701760022
 21
24.91955018326447
 31
0.0
  0
SPLINE
  5
36E
330
1F
100
AcDbEntity
  8
0
  6
SLD-Solid
 62
     7
370
    25
100
AcDbSpline
210
0.0
220
0.0
230
1.0
 70
    12
 71
     3
 72
    11
 73
     7
 74
     0
 42
0.00000001
 43
0.00000001
 40
0.0
 40
0.0
 40
0.0
 40
0.0
 40
0.2755971283866607
 40
0.4936301767167267
 40
0.7400988665380149
 40
1.0
 40
1.0
 40
1.0
 40
1.0
 10
33.75129935115377
 20
23.56149976566446
 30
0.0
 41
1.0
 10
33.7406046710836
 20
23.53303626615574
 30
0.0
 41
1.0
 10
33.72144911295469
 20
23.48205444941942
 30
0.0
 41
1.0
 10
33.72292240256468
 20
23.40796863164507
 30
0.0
 41
1.0
 10
33.7462225462134
 20
23.34459550172044
 30
0.0
 41
1.0
 10
33.78497071892345
 20
23.31322320012841
 30
0.0
 41
1.0
 10
33.80485874057059
 20
23.2971209436981
 30
0.0
 41
1.0
  0
LINE
  5
36F
330
1F
100
AcDbEntity
  8
0
  6
SLD-Solid
 62
     7
370
    25
100
AcDbLine
 10
33.80485874057059
 20
23.2971209436981
 30
0.0
 11
33.80485874057059
 21
23.21519490060876
 31
0.0
  0
LINE
  5
370
330
1F
100
AcDbEntity
  8
0
  6
SLD-Solid
 62
     7
370
    25
100
AcDbLine
 10
33.80485874057059
 20
23.21519490060876
 30
0.0
 11
33.81111738306573
 21
23.20758829372942
 31
0.0
  0
LINE
  5
371
330
1F
100
AcDbEntity
  8
0
  6
SLD-Solid
 62
     7
370
    25
100
AcDbLine
 10
33.81111738306573
 20
13.74878005355172
 30
0.0
 11
33.77702850556268
 21
13.7692524227351
 31
0.0
  0
SPLINE
  5
372
330
1F
100
AcDbEntity
  8
0
  6
SLD-Solid
 62
     7
370
    25
100
AcDbSpline
210
0.0
220
0.0
230
1.0
 70
    12
 71
     3
 72
    11
 73
     7
 74
     0
 42
0.00000001
 43
0.00000001
 40
0.0
 40
0.0
 40
0.0
 40
0.0
 40
0.4094505294622788
 40
0.5789306932989218
 40
0.7252814609999166
 40
1.0
 40
1.0
 40
1.0
 40
1.0
 10
33.7770284611568
 20
13.76925245511062
 30
0.0
 41
1.0
 10
33.76357057740668
 20
13.77507960696928
 30
0.0
 41
1.0
 10
33.74454219324505
 20
13.78331873922761
 30
0.0
 41
1.0
 10
33.73198688051373
 20
13.79217190283514
 30
0.0
 41
1.0
 10
33.7246402732636
 20
13.79738890187332
 30
0.0
 41
1.0
 10
33.72439030658119
 20
13.79740840073854
 30
0.0
 41
1.0
 10
33.7242272206457
 20
13.79742112239666
 30
0.0
 41
1.0
  0
LINE
  5
373
330
1F
100
AcDbEntity
  8
0
  6
SLD-Solid
 62
     7
370
    25
100
AcDbLine
 10
33.72351655803588
 20
13.79785995045028
 30
0.0
 11
33.73045501815053
 21
13.79070317762279
 31
0.0
  0
LINE
  5
374
330
1F
100
AcDbEntity
  8
0
  6
SLD-Solid
 62
     7
370
    25
100
AcDbLine
 10
33.73045505000464
 20
13.79070314255136
 30
0.0
 11
33.75623559571407
 21
13.75760528168749
 31
0.0
  0
LINE
  5
375
330
1F
100
AcDbEntity
  8
0
  6
SLD-Solid
 62
     7
370
    25
100
AcDbLine
 10
33.81111738306573
 20
23.65615389302831
 30
0.0
 11
33.75129948981451
 21
23.56150007945494
 31
0.0
  0
SPLINE
  5
376
330
1F
100
AcDbEntity
  8
0
  6
SLD-Solid
 62
     7
370
    25
100
AcDbSpline
210
0.0
220
0.0
230
1.0
 70
    12
 71
     3
 72
     9
 73
     5
 74
     0
 42
0.00000001
 43
0.00000001
 40
0.0
 40
0.0
 40
0.0
 40
0.0
 40
0.4278184505899489
 40
1.0
 40
1.0
 40
1.0
 40
1.0
 10
33.78405254179716
 20
23.39354785623796
 30
0.0
 41
1.0
 10
33.78727191111068
 20
23.38214554419925
 30
0.0
 41
1.0
 10
33.79479699402627
 20
23.35549332285865
 30
0.0
 41
1.0
 10
33.81738750789425
 20
23.33780166370616
 30
0.0
 41
1.0
 10
33.8303133831212
 20
23.32767882276065
 30
0.0
 41
1.0
  0
LINE
  5
377
330
1F
100
AcDbEntity
  8
0
  6
SLD-Solid
 62
     7
370
    25
100
AcDbLine
 10
33.83292472205709
 20
23.34327941920638
 30
0.0
 11
33.8230358484201
 21
23.35734951263634
 31
0.0
  0
ARC
  5
378
330
1F
100
AcDbEntity
  8
0
  6
SLD-Solid
 62
     7
370
    25
100
AcDbCircle
 10
33.92970525522908
 20
23.46665330222484
 30
0.0
 40
0.1612015365614599
100
AcDbArc
 50
215.1560922454356
 51
232.1798081375074
  0
LINE
  5
379
330
1F
100
AcDbEntity
  8
0
  6
SLD-Solid
 62
     7
370
    25
100
AcDbLine
 10
33.75129935115377
 20
23.56149976566446
 30
0.0
 11
33.76651567707062
 21
23.55740849771851
 31
0.0
  0
LINE
  5
37A
330
1F
100
AcDbEntity
  8
0
  6
SLD-Solid
 62
     7
370
    25
100
AcDbLine
 10
33.80485874057059
 20
23.29712094369809
 30
0.0
 11
33.81963503582255
 21
23.3051547666857
 31
0.0
  0
LINE
  5
37B
330
1F
100
AcDbEntity
  8
0
  6
SLD-Solid
 62
     7
370
    25
100
AcDbLine
 10
33.8470358247308
 20
23.36439961984386
 30
0.0
 11
33.83848417480289
 21
23.37656708379202
 31
0.0
  0
LINE
  5
37C
330
1F
100
AcDbEntity
  8
0
  6
SLD-Solid
 62
     7
370
    25
100
AcDbLine
 10
33.80485874057059
 20
23.21519490060876
 30
0.0
 11
33.81818845087758
 21
23.22244222013347
 31
0.0
  0
LINE
  5
37D
330
1F
100
AcDbEntity
  8
0
  6
SLD-Solid
 62
     7
370
    25
100
AcDbLine
 10
33.81111738306572
 20
23.20758829372942
 30
0.0
 11
33.81818845087758
 21
23.21167033428853
 31
0.0
  0
ARC
  5
37E
330
1F
100
AcDbEntity
  8
0
  6
SLD-Solid
 62
     7
370
    25
100
AcDbCircle
 10
37.76873026026266
 20
26.53714261093926
 30
0.0
 40
0.0402381788721545
100
AcDbArc
 50
54.38242252481612
 51
114.3071190461002
  0
ARC
  5
37F
330
1F
100
AcDbEntity
  8
0
  6
SLD-Solid
 62
     7
370
    25
100
AcDbCircle
 10
34.89538414376268
 20
24.88672180187701
 30
0.0
 40
0.0323139383439571
100
AcDbArc
 50
90.93801575889404
 51
180.5573290139942
  0
LINE
  5
380
330
1F
100
AcDbEntity
  8
0
  6
SLD-Solid
 62
     7
370
    25
100
AcDbLine
 10
37.62949400147308
 20
26.53755889577046
 30
0.0
 11
34.82671701760022
 21
24.91955018326447
 31
0.0
  0
ARC
  5
381
330
1F
100
AcDbEntity
  8
0
  6
SLD-Solid
 62
     7
370
    25
100
AcDbCircle
 10
38.0983507860293
 20
9.554145647229463
 30
0.0
 40
1.45932786077942
100
AcDbArc
 50
44.79815513688615
 51
52.39172519995385
  0
ARC
  5
382
330
1F
100
AcDbEntity
  8
0
  6
SLD-Solid
 62
     7
370
    25
100
AcDbCircle
 10
37.28075983980196
 20
8.7636486956194
 30
0.0
 40
2.596522366760364
100
AcDbArc
 50
42.75566056564645
 51
44.46379433972012
  0
LINE
  5
383
330
1F
100
AcDbEntity
  8
0
  6
SLD-Solid
 62
     7
370
    25
100
AcDbLine
 10
39.75026693989709
 20
9.887515659197048
 30
0.0
 11
39.18727052147334
 21
10.52635837726291
 31
0.0
  0
LWPOLYLINE
  5
384
330
1F
100
AcDbEntity
  8
0
  6
SLD-Solid
 62
     7
370
    25
100
AcDbPolyline
 90
        9
 70
   128
 43
0.0
 10
39.72533112492501
 20
9.884277727562413
 10
39.73575928610688
 20
9.87859649277137
 10
39.74457107092387
 20
9.874512980779757
 10
39.75142784742713
 20
9.872184118663352
 10
39.75606611354099
 20
9.871699403287245
 10
39.75830762329984
 20
9.873077461991508
 10
39.75806623674072
 20
9.876265336752965
 10
39.75535123021372
 20
9.881140519332309
 10
39.75026693989709
 20
9.887515659197048
  0
LINE
  5
385
330
1F
100
AcDbEntity
  8
0
  6
SLD-Solid
 62
     7
370
    25
100
AcDbLine
 10
39.71118898930127
 20
9.89244180868064
 30
0.0
 11
39.72533112492501
 21
9.884277727562413
 31
0.0
  0
LINE
  5
386
330
1F
100
AcDbEntity
  8
0
  6
SLD-Solid
 62
     7
370
    25
100
AcDbLine
 10
34.46092113899116
 20
12.92335692382245
 30
0.0
 11
39.71118898930127
 21
9.89244180868064
 31
0.0
  0
LINE
  5
387
330
1F
100
AcDbEntity
  8
0
  6
SLD-Solid
 62
     7
370
    25
100
AcDbLine
 10
34.46092113899116
 20
12.92335692382245
 30
0.0
 11
34.44677900336744
 21
12.93152100494068
 31
0.0
  0
ARC
  5
388
330
1F
100
AcDbEntity
  8
0
  6
SLD-Solid
 62
     7
370
    25
100
AcDbCircle
 10
34.65192333275321
 20
13.28648974842992
 30
0.0
 40
0.4099841518076881
100
AcDbArc
 50
224.3154211903776
 51
239.9754276920872
  0
LINE
  5
389
330
1F
100
AcDbEntity
  8
0
  6
SLD-Solid
 62
     7
370
    25
100
AcDbLine
 10
34.35857773334967
 20
13.00007158552113
 30
0.0
 11
33.79558131492593
 21
13.63891430358699
 31
0.0
  0
ARC
  5
38A
330
1F
100
AcDbEntity
  8
0
  6
SLD-Solid
 62
     7
370
    25
100
AcDbCircle
 10
34.70442729090041
 20
14.40005365327945
 30
0.0
 40
1.185467889778236
100
AcDbArc
 50
217.0640135255725
 51
219.945464183918
  0
LWPOLYLINE
  5
38B
330
1F
100
AcDbEntity
  8
0
  6
SLD-Solid
 62
     7
370
    25
100
AcDbPolyline
 90
        9
 70
   128
 43
0.0
 10
33.74506402176727
 20
13.73744077861464
 10
33.74044145723077
 20
13.73543601101412
 10
33.73761111083272
 20
13.73208788403697
 10
33.7365910490329
 20
13.72741776920207
 10
33.73738778301509
 20
13.72145547644432
 10
33.73999622712527
 20
13.71423906383408
 10
33.74439973133409
 20
13.70581459464771
 10
33.75057018751606
 20
13.69623584333977
 10
33.7584682088673
 20
13.68556395229395
  0
ARC
  5
38C
330
1F
100
AcDbEntity
  8
0
  6
SLD-Solid
 62
     7
370
    25
100
AcDbCircle
 10
33.70804778808885
 20
13.5596923816574
 30
0.0
 40
0.18156181915977
100
AcDbArc
 50
59.53210942166821
 51
78.23624701333489
  0
LINE
  5
38D
330
1F
100
AcDbEntity
  8
0
  6
SLD-Solid
 62
     7
370
    25
100
AcDbLine
 10
33.80010969133674
 20
13.71618295692307
 30
0.0
 11
33.80375854908389
 21
13.71204252880535
 31
0.0
  0
LINE
  5
38E
330
1F
100
AcDbEntity
  8
0
  6
SLD-Solid
 62
     7
370
    25
100
AcDbLine
 10
33.80375854908389
 20
13.71204252880535
 30
0.0
 11
33.82563054459366
 21
13.69941609455877
 31
0.0
  0
LINE
  5
38F
330
1F
100
AcDbEntity
  8
0
  6
SLD-Solid
 62
     7
370
    25
100
AcDbLine
 10
33.82199736532543
 20
13.703538732009
 30
0.0
 11
33.82563054459366
 21
13.69941609455877
 31
0.0
  0
LINE
  5
390
330
1F
100
AcDbEntity
  8
0
  6
SLD-Solid
 62
     7
370
    25
100
AcDbLine
 10
38.8742753169033
 20
10.78692075252237
 30
0.0
 11
33.82199736532543
 21
13.703538732009
 31
0.0
  0
LINE
  5
391
330
1F
100
AcDbEntity
  8
0
  6
SLD-Solid
 62
     7
370
    25
100
AcDbLine
 10
38.8742753169033
 20
10.78692075252237
 30
0.0
 11
38.87790849617154
 21
10.78279811507214
 31
0.0
  0
LINE
  5
392
330
1F
100
AcDbEntity
  8
0
  6
SLD-Solid
 62
     7
370
    25
100
AcDbLine
 10
38.89978049168133
 20
10.77017168082554
 30
0.0
 11
38.87790849617154
 21
10.78279811507214
 31
0.0
  0
ARC
  5
393
330
1F
100
AcDbEntity
  8
0
  6
SLD-Solid
 62
     7
370
    25
100
AcDbCircle
 10
38.83341834052839
 20
10.62619014801199
 30
0.0
 40
0.1585390074933757
100
AcDbArc
 50
55.38623545598714
 51
65.2546751133742
  0
ARC
  5
394
330
1F
100
AcDbEntity
  8
0
  6
SLD-Solid
 62
     7
370
    25
100
AcDbCircle
 10
38.16407403449644
 20
9.617174019195689
 30
0.0
 40
1.369356007587799
100
AcDbArc
 50
52.96087763645566
 51
56.31903437316582
  0
LINE
  5
395
330
1F
100
AcDbEntity
  8
0
  6
SLD-Solid
 62
     7
370
    25
100
AcDbLine
 10
39.01364387085128
 20
10.74375808790922
 30
0.0
 11
38.9889195963397
 21
10.7102273914627
 31
0.0
  0
LINE
  5
396
330
1F
100
AcDbEntity
  8
0
  6
SLD-Solid
 62
     7
370
    25
100
AcDbLine
 10
39.16319114490327
 20
10.62215565542551
 30
0.0
 11
39.13388024043266
 21
10.58240463907447
 31
0.0
  0
ARC
  5
397
330
1F
100
AcDbEntity
  8
0
  6
SLD-Solid
 62
     7
370
    25
100
AcDbCircle
 10
38.23688466352686
 20
9.71110797939015
 30
0.0
 40
1.299250385972375
100
AcDbArc
 50
44.52418261627424
 51
51.01805271193238
  0
LINE
  5
398
330
1F
100
AcDbEntity
  8
0
  6
SLD-Solid
 62
     7
370
    25
100
AcDbLine
 10
39.2710529483082
 20
10.54951632088825
 30
0.0
 11
39.23846535175676
 21
10.57140800071395
 31
0.0
  0
LINE
  5
399
330
1F
100
AcDbEntity
  8
0
  6
SLD-Solid
 62
     7
370
    25
100
AcDbLine
 10
39.23846535175676
 20
10.57140800071395
 30
0.0
 11
39.20440594571794
 21
10.61442067669817
 31
0.0
  0
LINE
  5
39A
330
1F
100
AcDbEntity
  8
0
  6
SLD-Solid
 62
     7
370
    25
100
AcDbLine
 10
38.92098593539417
 20
10.79893019084032
 30
0.0
 11
38.89978049168133
 21
10.77017168082554
 31
0.0
  0
ARC
  5
39B
330
1F
100
AcDbEntity
  8
0
  6
SLD-Solid
 62
     7
370
    25
100
AcDbCircle
 10
38.91550236341063
 20
10.81891197237264
 30
0.0
 40
0.0521834026413184
100
AcDbArc
 50
176.8997492111712
 51
217.8106229760116
  0
ARC
  5
39C
330
1F
100
AcDbEntity
  8
0
  6
SLD-Solid
 62
     7
370
    25
100
AcDbCircle
 10
33.86322441183275
 20
13.73552995185926
 30
0.0
 40
0.0521834026413114
100
AcDbArc
 50
176.8997492111689
 51
217.8106229760148
  0
LINE
  5
39D
330
1F
100
AcDbEntity
  8
0
  6
SLD-Solid
 62
     7
370
    25
100
AcDbLine
 10
38.89946976377307
 20
10.81203918819687
 30
0.0
 11
38.87790849617154
 21
10.78279811507214
 31
0.0
  0
LINE
  5
39E
330
1F
100
AcDbEntity
  8
0
  6
SLD-Solid
 62
     7
370
    25
100
AcDbLine
 10
39.21658142594395
 20
10.56610939361394
 30
0.0
 11
39.18727052147334
 21
10.52635837726291
 31
0.0
  0
ARC
  5
39F
330
1F
100
AcDbEntity
  8
0
  6
SLD-Solid
 62
     7
370
    25
100
AcDbCircle
 10
37.31007074427256
 20
8.803399711970433
 30
0.0
 40
2.596522366760363
100
AcDbArc
 50
42.75566056564643
 51
44.46379433972009
  0
LINE
  5
3A0
330
1F
100
AcDbEntity
  8
0
  6
SLD-Solid
 62
     7
370
    25
100
AcDbLine
 10
39.28765940335553
 20
10.66446606536015
 30
0.0
 11
39.27938171226739
 21
10.66924467470978
 31
0.0
  0
LINE
  5
3A1
330
1F
100
AcDbEntity
  8
0
  6
SLD-Solid
 62
     7
370
    25
100
AcDbLine
 10
39.27929689365939
 20
10.66724190946128
 30
0.0
 11
39.29167683528379
 21
10.66009512128518
 31
0.0
  0
LINE
  5
3A2
330
1F
100
AcDbEntity
  8
0
  6
SLD-Solid
 62
     7
370
    25
100
AcDbLine
 10
39.27131347232075
 20
10.55323666828751
 30
0.0
 11
39.28329418059042
 21
10.54632035262135
 31
0.0
  0
LINE
  5
3A3
330
1F
100
AcDbEntity
  8
0
  6
SLD-Solid
 62
     7
370
    25
100
AcDbLine
 10
39.75026693989709
 20
9.887515659197048
 30
0.0
 11
39.77957784436769
 21
9.927266675548077
 31
0.0
  0
LINE
  5
3A4
330
1F
100
AcDbEntity
  8
0
  6
SLD-Solid
 62
     7
370
    25
100
AcDbLine
 10
39.77957784436769
 20
9.927266675548077
 30
0.0
 11
39.21658142594395
 21
10.56610939361394
 31
0.0
  0
LINE
  5
3A5
330
1F
100
AcDbEntity
  8
0
  6
SLD-Solid
 62
     7
370
    25
100
AcDbLine
 10
39.83191183999976
 20
9.904085313972399
 30
0.0
 11
39.86726717905909
 21
9.883675111176833
 31
0.0
  0
LINE
  5
3A6
330
1F
100
AcDbEntity
  8
0
  6
SLD-Solid
 62
     7
370
    25
100
AcDbLine
 10
39.26450168516241
 20
10.54793638249135
 30
0.0
 11
39.83191183999976
 21
9.904085313972399
 31
0.0
  0
ARC
  5
3A7
330
1F
100
AcDbEntity
  8
0
  6
SLD-Solid
 62
     7
370
    25
100
AcDbCircle
 10
37.67343200970065
 20
26.47622669640272
 30
0.0
 40
0.0754465853852295
100
AcDbArc
 50
65.69288095388124
 51
125.6175774752103
  0
LWPOLYLINE
  5
3A8
330
1F
100
AcDbEntity
  8
0
  6
SLD-Solid
 62
     7
370
    25
100
AcDbPolyline
 90
        5
 70
   128
 43
0.0
 10
39.77957784436769
 20
9.927266675548077
 10
39.78466213468433
 20
9.920891535683335
 10
39.78737714121133
 20
9.916016353103991
 10
39.78761852777046
 20
9.912828478342538
 10
39.78739776679836
 20
9.912445367555524
  0
LWPOLYLINE
  5
3A9
330
1F
100
AcDbEntity
  8
0
  6
SLD-Solid
 62
     7
370
    25
100
AcDbPolyline
 90
        8
 70
   128
 43
0.0
 10
39.77707466639064
 20
9.889918390744878
 10
39.78949013845838
 20
9.884163155527009
 10
39.80142849089722
 20
9.881453219264136
 10
39.81243093951806
 20
9.881892723287093
 10
39.82207466639063
 20
9.885464777702753
 10
39.82998906849951
 20
9.892032110463154
 10
39.83586999981008
 20
9.901342342653317
 10
39.83603271246679
 20
9.901706384934108
  0
LWPOLYLINE
  5
3AA
330
1F
100
AcDbEntity
  8
0
  6
SLD-Solid
 62
     7
370
    25
100
AcDbPolyline
 90
        8
 70
   128
 43
0.0
 10
39.77707466639063
 20
9.930745431339165
 10
39.78259265397629
 20
9.92818754902011
 10
39.78789858839356
 20
9.926983132903278
 10
39.79278856555838
 20
9.927178468024593
 10
39.79707466639064
 20
9.928766047764887
 10
39.80059217843903
 20
9.931684862325069
 10
39.80320592568817
 20
9.935822743298479
 10
39.80344894015612
 20
9.93638270646925
  0
ARC
  5
3AB
330
1F
100
AcDbEntity
  8
0
  6
SLD-Solid
 62
     7
370
    25
100
AcDbCircle
 10
39.73432629977625
 20
9.912679844626977
 30
0.0
 40
0.030739441032343
100
AcDbArc
 50
221.1759506695618
 51
258.9668270092613
  0
LWPOLYLINE
  5
3AC
330
1F
100
AcDbEntity
  8
0
  6
SLD-Solid
 62
     7
370
    25
100
AcDbPolyline
 90
        3
 70
   128
 43
0.0
 10
34.46092113899116
 20
12.92335692382245
 10
34.46565134345808
 20
12.918969049707
 10
34.46868442406964
 20
12.91696435564004
  0
LINE
  5
3AD
330
1F
100
AcDbEntity
  8
0
  6
SLD-Solid
 62
     7
370
    25
100
AcDbLine
 10
39.77592949874357
 20
9.931406522550095
 30
0.0
 11
39.77707466639063
 21
9.930745431339165
 31
0.0
  0
LINE
  5
3AE
330
1F
100
AcDbEntity
  8
0
  6
SLD-Solid
 62
     7
370
    25
100
AcDbLine
 10
39.77266449854832
 20
9.892464326448483
 30
0.0
 11
39.77707466639064
 21
9.889918390744878
 31
0.0
  0
LINE
  5
3AF
330
1F
100
AcDbEntity
  8
0
  6
SLD-Solid
 62
     7
370
    25
100
AcDbLine
 10
43.20656773629972
 20
11.94870761956595
 30
0.0
 11
43.21210203894089
 21
11.94551273465624
 31
0.0
  0
LINE
  5
3B0
330
1F
100
AcDbEntity
  8
0
  6
SLD-Solid
 62
     7
370
    25
100
AcDbLine
 10
33.81250281354474
 20
13.72390137130234
 30
0.0
 11
33.80375854908389
 21
13.71204252880535
 31
0.0
  0
LINE
  5
3B1
330
1F
100
AcDbEntity
  8
0
  6
SLD-Solid
 62
     7
370
    25
100
AcDbLine
 10
33.81140794379991
 20
13.7315054802813
 30
0.0
 11
33.80010969133674
 21
13.71618295692307
 31
0.0
  0
LINE
  5
3B2
330
1F
100
AcDbEntity
  8
0
  6
SLD-Solid
 62
     7
370
    25
100
AcDbLine
 10
33.77437492623787
 20
13.77719179496567
 30
0.0
 11
33.74506402176727
 21
13.73744077861464
 31
0.0
  0
LWPOLYLINE
  5
3B3
330
1F
100
AcDbEntity
  8
0
  6
SLD-Solid
 62
     8
370
    25
100
AcDbPolyline
 90
       15
 70
   128
 43
0.0
 10
36.26654568073602
 20
21.4653687710827
 10
36.32178390185966
 20
21.42773948557737
 10
36.37524672110622
 20
21.37983775784327
 10
36.42521579947576
 20
21.32320318882346
 10
36.4700850896748
 20
21.2596560601653
 10
36.50841245579777
 20
21.19123882887062
 10
36.53896602476161
 20
21.12015048104713
 10
36.56076377972025
 20
21.04867585468554
 10
36.57310512289409
 20
20.97911220308664
 10
36.57559339335902
 20
20.91369535924999
 10
36.56814861605494
 20
20.85452787436165
 10
36.55101007224999
 20
20.80351144006911
 10
36.5247286088437
 20
20.76228576654697
 10
36.4901489336944
 20
20.73217588086286
 10
36.48566233274546
 20
20.72945849620365
  0
ARC
  5
3B4
330
1F
100
AcDbEntity
  8
0
  6
SLD-Solid
 62
     8
370
    25
100
AcDbCircle
 10
36.13856758109451
 20
21.28801721200093
 30
0.0
 40
0.2187052114070196
100
AcDbArc
 50
54.18552560576838
 51
114.5754517858325
  0
LINE
  5
3B5
330
1F
100
AcDbEntity
  8
0
  6
SLD-Solid
 62
     8
370
    25
100
AcDbLine
 10
38.89316018800709
 20
20.44307776323906
 30
0.0
 11
38.88460853807919
 21
20.45524522718722
 31
0.0
  0
LINE
  5
3B6
330
1F
100
AcDbEntity
  8
0
  6
SLD-Solid
 62
     8
370
    25
100
AcDbLine
 10
43.11257908321812
 20
23.41065493585956
 30
0.0
 11
43.13203609496126
 21
23.42188722965277
 31
0.0
  0
LINE
  5
3B7
330
1F
100
AcDbEntity
  8
0
  6
SLD-Solid
 62
     8
370
    25
100
AcDbLine
 10
40.22373311042094
 20
21.78378005924705
 30
0.0
 11
40.25684605170909
 21
21.76466436513039
 31
0.0
  0
LINE
  5
3B8
330
1F
100
AcDbEntity
  8
0
  6
SLD-Solid
 62
     8
370
    25
100
AcDbLine
 10
42.84860621632374
 20
23.59368251295139
 30
0.0
 11
42.84860621632374
 21
23.61409271574696
 31
0.0
  0
LINE
  5
3B9
330
1F
100
AcDbEntity
  8
0
  6
SLD-Solid
 62
     8
370
    25
100
AcDbLine
 10
37.62949400147308
 20
26.53755889577046
 30
0.0
 11
37.65942952147481
 21
26.52027748791857
 31
0.0
  0
LINE
  5
3BA
330
1F
100
AcDbEntity
  8
0
  6
SLD-Solid
 62
     8
370
    25
100
AcDbLine
 10
38.94403910904981
 20
10.78455638300377
 30
0.0
 11
38.9234750723736
 21
10.75666773975228
 31
0.0
  0
LINE
  5
3BB
330
1F
100
AcDbEntity
  8
0
  6
SLD-Solid
 62
     8
370
    25
100
AcDbLine
 10
38.87258203630037
 20
10.82703758690326
 30
0.0
 11
38.8633953346436
 21
10.82173421692221
 31
0.0
  0
LINE
  5
3BC
330
1F
100
AcDbEntity
  8
0
  6
SLD-Solid
 62
     8
370
    25
100
AcDbLine
 10
38.89474150008094
 20
10.81467668830228
 30
0.0
 11
38.8742753169033
 21
10.78692075252237
 31
0.0
  0
LINE
  5
3BD
330
1F
100
AcDbEntity
  8
0
  6
SLD-Solid
 62
     8
370
    25
100
AcDbLine
 10
39.77707466639063
 20
9.930745431339165
 30
0.0
 11
39.77707466639063
 21
9.930107079092993
 31
0.0
  0
LINE
  5
3BE
330
1F
100
AcDbEntity
  8
0
  6
SLD-Solid
 62
     8
370
    25
100
AcDbLine
 10
39.77707466639064
 20
9.89844533103286
 30
0.0
 11
39.77707466639064
 21
9.889918390744878
 31
0.0
  0
LINE
  5
3BF
330
1F
100
AcDbEntity
  8
0
  6
SLD-Solid
 62
     8
370
    25
100
AcDbLine
 10
39.79784833759424
 20
9.942737816459912
 30
0.0
 11
39.77707466639063
 21
9.930745431339165
 31
0.0
  0
MTEXT
  5
3C0
330
1F
100
AcDbEntity
  8
NOTES
100
AcDbMText
 10
35.87254996306596
 20
9.704522298066303
 30
0.0
 40
0.25
 41
0.0
 71
     1
 72
     1
  1
3D view
  7
SLDTEXTSTYLE0
 73
     1
 44
1.0
  0
LINE
  5
3C1
330
1F
100
AcDbEntity
  8
0
  6
SLD-Solid
 62
     7
370
    25
100
AcDbLine
 10
27.36684572195886
 20
21.57951281246321
 30
0.0
 11
27.36684572195886
 21
21.60151281246322
 31
0.0
  0
LINE
  5
3C2
330
1F
100
AcDbEntity
  8
0
  6
SLD-Solid
 62
     7
370
    25
100
AcDbLine
 10
27.11284572195886
 20
21.60151281246322
 30
0.0
 11
27.11284572195886
 21
21.57951281246321
 31
0.0
  0
LINE
  5
3C3
330
1F
100
AcDbEntity
  8
0
  6
SLD-Solid
 62
     7
370
    25
100
AcDbLine
 10
27.36684572195886
 20
21.60151281246322
 30
0.0
 11
27.32435705478537
 21
21.61450290163244
 31
0.0
  0
LINE
  5
3C4
330
1F
100
AcDbEntity
  8
0
  6
SLD-Solid
 62
     7
370
    25
100
AcDbLine
 10
27.15533438913235
 20
21.61450290163244
 30
0.0
 11
27.11284572195886
 21
21.60151281246322
 31
0.0
  0
LINE
  5
3C5
330
1F
100
AcDbEntity
  8
0
  6
SLD-Solid
 62
     7
370
    25
100
AcDbLine
 10
23.81684572195886
 20
21.57951281246321
 30
0.0
 11
23.81684572195886
 21
21.60151281246322
 31
0.0
  0
LINE
  5
3C6
330
1F
100
AcDbEntity
  8
0
  6
SLD-Solid
 62
     7
370
    25
100
AcDbLine
 10
23.56284572195886
 20
21.60151281246322
 30
0.0
 11
23.56284572195886
 21
21.57951281246321
 31
0.0
  0
LINE
  5
3C7
330
1F
100
AcDbEntity
  8
0
  6
SLD-Solid
 62
     7
370
    25
100
AcDbLine
 10
23.81684572195886
 20
21.60151281246322
 30
0.0
 11
23.77435705478537
 21
21.61450290163244
 31
0.0
  0
LINE
  5
3C8
330
1F
100
AcDbEntity
  8
0
  6
SLD-Solid
 62
     7
370
    25
100
AcDbLine
 10
23.60533438913236
 20
21.61450290163244
 30
0.0
 11
23.56284572195886
 21
21.60151281246322
 31
0.0
  0
LINE
  5
3C9
330
1F
100
AcDbEntity
  8
0
  6
SLD-Solid
 62
     7
370
    25
100
AcDbLine
 10
29.36734572196192
 20
8.494341202825089
 30
0.0
 11
29.39734572196116
 21
8.586671708940395
 31
0.0
  0
LINE
  5
3CA
330
1F
100
AcDbEntity
  8
0
  6
SLD-Solid
 62
     7
370
    25
100
AcDbLine
 10
29.39734572196116
 20
8.782010696709781
 30
0.0
 11
29.36734572196193
 21
8.874341202825088
 31
0.0
  0
LINE
  5
3CB
330
1F
100
AcDbEntity
  8
0
  6
SLD-Solid
 62
     7
370
    25
100
AcDbLine
 10
29.33734572195884
 20
8.494341202825089
 30
0.0
 11
29.36734572196192
 21
8.494341202825089
 31
0.0
  0
LINE
  5
3CC
330
1F
100
AcDbEntity
  8
0
  6
SLD-Solid
 62
     7
370
    25
100
AcDbLine
 10
29.36734572196193
 20
8.874341202825088
 30
0.0
 11
29.33734572195884
 21
8.874341202825088
 31
0.0
  0
LINE
  5
3CD
330
1F
100
AcDbEntity
  8
0
  6
SLD-Solid
 62
     7
370
    25
100
AcDbLine
 10
29.1973457219601
 20
8.549341202825442
 30
0.0
 11
29.21734572195884
 21
8.56934120282418
 31
0.0
  0
LINE
  5
3CE
330
1F
100
AcDbEntity
  8
0
  6
SLD-Solid
 62
     7
370
    25
100
AcDbLine
 10
29.01734572196023
 20
8.549341202825442
 30
0.0
 11
29.1973457219601
 21
8.549341202825442
 31
0.0
  0
LINE
  5
3CF
330
1F
100
AcDbEntity
  8
0
  6
SLD-Solid
 62
     7
370
    25
100
AcDbLine
 10
28.99734572196116
 20
8.569341202824504
 30
0.0
 11
29.01734572196023
 21
8.549341202825442
 31
0.0
  0
LINE
  5
3D0
330
1F
100
AcDbEntity
  8
0
  6
SLD-Solid
 62
     7
370
    25
100
AcDbLine
 10
29.21734572195884
 20
8.590591202824765
 30
0.0
 11
29.23984572195882
 21
8.590591202824765
 31
0.0
  0
LINE
  5
3D1
330
1F
100
AcDbEntity
  8
0
  6
SLD-Solid
 62
     7
370
    25
100
AcDbLine
 10
21.59234572196025
 20
8.874341202825079
 30
0.0
 11
21.56234572195716
 21
8.874341202825077
 31
0.0
  0
LINE
  5
3D2
330
1F
100
AcDbEntity
  8
0
  6
SLD-Solid
 62
     7
370
    25
100
AcDbLine
 10
21.56234572195716
 20
8.494341202825078
 30
0.0
 11
21.59234572196025
 21
8.494341202825078
 31
0.0
  0
LINE
  5
3D3
330
1F
100
AcDbEntity
  8
0
  6
SLD-Solid
 62
     7
370
    25
100
AcDbLine
 10
21.56234572195716
 20
8.874341202825077
 30
0.0
 11
21.53234572195792
 21
8.78201069670977
 31
0.0
  0
LINE
  5
3D4
330
1F
100
AcDbEntity
  8
0
  6
SLD-Solid
 62
     7
370
    25
100
AcDbLine
 10
21.53234572195792
 20
8.586671708940385
 30
0.0
 11
21.56234572195716
 21
8.494341202825078
 31
0.0
  0
LINE
  5
3D5
330
1F
100
AcDbEntity
  8
0
  6
SLD-Solid
 62
     7
370
    25
100
AcDbLine
 10
21.91234572195886
 20
8.549341202825433
 30
0.0
 11
21.93234572195792
 21
8.569341202824496
 31
0.0
  0
LINE
  5
3D6
330
1F
100
AcDbEntity
  8
0
  6
SLD-Solid
 62
     7
370
    25
100
AcDbLine
 10
21.73234572195899
 20
8.549341202825433
 30
0.0
 11
21.91234572195886
 21
8.549341202825433
 31
0.0
  0
LINE
  5
3D7
330
1F
100
AcDbEntity
  8
0
  6
SLD-Solid
 62
     7
370
    25
100
AcDbLine
 10
21.71234572196025
 20
8.569341202824171
 30
0.0
 11
21.73234572195899
 21
8.549341202825433
 31
0.0
  0
LINE
  5
3D8
330
1F
100
AcDbEntity
  8
0
  6
SLD-Solid
 62
     7
370
    25
100
AcDbLine
 10
21.68984572195882
 20
8.590591202824756
 30
0.0
 11
21.71234572196025
 21
8.590591202824756
 31
0.0
  0
LINE
  5
3D9
330
1F
100
AcDbEntity
  8
0
  6
SLD-Solid
 62
     7
370
    25
100
AcDbLine
 10
24.65234572195886
 20
22.39950290163244
 30
0.0
 11
24.65234572195886
 21
21.52951281246311
 31
0.0
  0
LINE
  5
3DA
330
1F
100
AcDbEntity
  8
0
  6
SLD-Solid
 62
     7
370
    25
100
AcDbLine
 10
26.27734572195887
 20
21.52951281246311
 30
0.0
 11
26.27734572195886
 21
22.39950290163243
 31
0.0
  0
LINE
  5
3DB
330
1F
100
AcDbEntity
  8
0
  6
SLD-Solid
 62
     7
370
    25
100
AcDbLine
 10
27.80484572195881
 20
19.93945043299659
 30
0.0
 11
28.12484572195881
 21
19.88876741209274
 31
0.0
  0
LINE
  5
3DC
330
1F
100
AcDbEntity
  8
0
  6
SLD-Solid
 62
     7
370
    25
100
AcDbLine
 10
28.12484572195882
 20
19.87451281246357
 30
0.0
 11
27.80484572195882
 21
19.87451281246357
 31
0.0
  0
LINE
  5
3DD
330
1F
100
AcDbEntity
  8
0
  6
SLD-Solid
 62
     7
370
    25
100
AcDbLine
 10
28.21484572195856
 20
19.74951281246345
 30
0.0
 11
28.21484572195856
 21
19.37451281246278
 31
0.0
  0
LINE
  5
3DE
330
1F
100
AcDbEntity
  8
0
  6
SLD-Solid
 62
     7
370
    25
100
AcDbLine
 10
22.80484572195882
 20
19.87451281246357
 30
0.0
 11
23.12484572195882
 21
19.87451281246357
 31
0.0
  0
LINE
  5
3DF
330
1F
100
AcDbEntity
  8
0
  6
SLD-Solid
 62
     7
370
    25
100
AcDbLine
 10
23.12484572195881
 20
19.93945043299668
 30
0.0
 11
22.80484572195881
 21
19.88876741209282
 31
0.0
  0
LINE
  5
3E0
330
1F
100
AcDbEntity
  8
0
  6
SLD-Solid
 62
     7
370
    25
100
AcDbLine
 10
22.71484572195856
 20
19.74951281246277
 30
0.0
 11
22.71484572195856
 21
19.37451281246345
 31
0.0
  0
LINE
  5
3E1
330
1F
100
AcDbEntity
  8
0
  6
SLD-Solid
 62
     7
370
    25
100
AcDbLine
 10
27.36684572195886
 20
21.60151281246322
 30
0.0
 11
27.11284572195886
 21
21.60151281246322
 31
0.0
  0
LINE
  5
3E2
330
1F
100
AcDbEntity
  8
0
  6
SLD-Solid
 62
     7
370
    25
100
AcDbLine
 10
23.81684572195886
 20
21.60151281246322
 30
0.0
 11
23.56284572195886
 21
21.60151281246322
 31
0.0
  0
LINE
  5
3E3
330
1F
100
AcDbEntity
  8
0
  6
SLD-Solid
 62
     7
370
    25
100
AcDbLine
 10
29.36734572196192
 20
8.74821001372806
 30
0.0
 11
29.36734572196193
 21
8.874341202825088
 31
0.0
  0
LINE
  5
3E4
330
1F
100
AcDbEntity
  8
0
  6
SLD-Solid
 62
     7
370
    25
100
AcDbLine
 10
29.36734572196192
 20
8.494341202825089
 30
0.0
 11
29.36734572196192
 21
8.74821001372806
 31
0.0
  0
LINE
  5
3E5
330
1F
100
AcDbEntity
  8
0
  6
SLD-Solid
 62
     7
370
    25
100
AcDbLine
 10
29.39734572196116
 20
8.717172963014091
 30
0.0
 11
29.39734572196116
 21
8.782010696709781
 31
0.0
  0
LINE
  5
3E6
330
1F
100
AcDbEntity
  8
0
  6
SLD-Solid
 62
     7
370
    25
100
AcDbLine
 10
29.39734572196116
 20
8.586671708940395
 30
0.0
 11
29.39734572196116
 21
8.717172963014091
 31
0.0
  0
LINE
  5
3E7
330
1F
100
AcDbEntity
  8
0
  6
SLD-Solid
 62
     7
370
    25
100
AcDbLine
 10
29.1973457219601
 20
8.549341202825442
 30
0.0
 11
29.1973457219601
 21
8.594658431319752
 31
0.0
  0
LINE
  5
3E8
330
1F
100
AcDbEntity
  8
0
  6
SLD-Solid
 62
     7
370
    25
100
AcDbLine
 10
29.21734572195884
 20
8.56934120282418
 30
0.0
 11
29.21734572195884
 21
8.594658431319752
 31
0.0
  0
LINE
  5
3E9
330
1F
100
AcDbEntity
  8
0
  6
SLD-Solid
 62
     7
370
    25
100
AcDbLine
 10
29.01734572196023
 20
8.549341202825442
 30
0.0
 11
29.01734572196023
 21
8.607464388378792
 31
0.0
  0
LINE
  5
3EA
330
1F
100
AcDbEntity
  8
0
  6
SLD-Solid
 62
     7
370
    25
100
AcDbLine
 10
28.99734572196116
 20
8.569341202824504
 30
0.0
 11
28.99734572196116
 21
8.618307047694357
 31
0.0
  0
LINE
  5
3EB
330
1F
100
AcDbEntity
  8
0
  6
SLD-Solid
 62
     7
370
    25
100
AcDbLine
 10
21.56234572195716
 20
8.793391417331575
 30
0.0
 11
21.56234572195716
 21
8.494341202825078
 31
0.0
  0
LINE
  5
3EC
330
1F
100
AcDbEntity
  8
0
  6
SLD-Solid
 62
     7
370
    25
100
AcDbLine
 10
21.56234572195716
 20
8.874341202825077
 30
0.0
 11
21.56234572195716
 21
8.793391417331575
 31
0.0
  0
LINE
  5
3ED
330
1F
100
AcDbEntity
  8
0
  6
SLD-Solid
 62
     7
370
    25
100
AcDbLine
 10
21.53234572195792
 20
8.740398462082272
 30
0.0
 11
21.53234572195792
 21
8.586671708940385
 31
0.0
  0
LINE
  5
3EE
330
1F
100
AcDbEntity
  8
0
  6
SLD-Solid
 62
     7
370
    25
100
AcDbLine
 10
21.53234572195792
 20
8.78201069670977
 30
0.0
 11
21.53234572195792
 21
8.740398462082272
 31
0.0
  0
LINE
  5
3EF
330
1F
100
AcDbEntity
  8
0
  6
SLD-Solid
 62
     7
370
    25
100
AcDbLine
 10
21.93234572195792
 20
8.61830704769527
 30
0.0
 11
21.93234572195792
 21
8.569341202824496
 31
0.0
  0
LINE
  5
3F0
330
1F
100
AcDbEntity
  8
0
  6
SLD-Solid
 62
     7
370
    25
100
AcDbLine
 10
21.91234572195886
 20
8.607464388379423
 30
0.0
 11
21.91234572195886
 21
8.549341202825433
 31
0.0
  0
LINE
  5
3F1
330
1F
100
AcDbEntity
  8
0
  6
SLD-Solid
 62
     7
370
    25
100
AcDbLine
 10
21.73234572195899
 20
8.594658431319754
 30
0.0
 11
21.73234572195899
 21
8.549341202825433
 31
0.0
  0
LINE
  5
3F2
330
1F
100
AcDbEntity
  8
0
  6
SLD-Solid
 62
     7
370
    25
100
AcDbLine
 10
21.71234572196025
 20
8.594658431319754
 30
0.0
 11
21.71234572196025
 21
8.569341202824171
 31
0.0
  0
LINE
  5
3F3
330
1F
100
AcDbEntity
  8
0
  6
SLD-Solid
 62
     7
370
    25
100
AcDbLine
 10
27.48484572195886
 20
21.52951281246322
 30
0.0
 11
27.48484572195886
 21
21.57951281246322
 31
0.0
  0
LINE
  5
3F4
330
1F
100
AcDbEntity
  8
0
  6
SLD-Solid
 62
     7
370
    25
100
AcDbLine
 10
27.48484572195886
 20
21.57951281246322
 30
0.0
 11
27.73484572195886
 21
21.57951281246322
 31
0.0
  0
LINE
  5
3F5
330
1F
100
AcDbEntity
  8
0
  6
SLD-Solid
 62
     7
370
    25
100
AcDbLine
 10
27.73484572195886
 20
21.57951281246322
 30
0.0
 11
27.73484572195886
 21
21.52951281246322
 31
0.0
  0
LINE
  5
3F6
330
1F
100
AcDbEntity
  8
0
  6
SLD-Solid
 62
     7
370
    25
100
AcDbLine
 10
27.73484572195886
 20
21.52951281246322
 30
0.0
 11
27.73398758626856
 21
21.52951281246322
 31
0.0
  0
LINE
  5
3F7
330
1F
100
AcDbEntity
  8
0
  6
SLD-Solid
 62
     7
370
    25
100
AcDbLine
 10
26.75484572195886
 20
21.57951281246321
 30
0.0
 11
26.75484572195886
 21
21.52951281246322
 31
0.0
  0
LINE
  5
3F8
330
1F
100
AcDbEntity
  8
0
  6
SLD-Solid
 62
     7
370
    25
100
AcDbLine
 10
27.48484572195886
 20
21.57951281246322
 30
0.0
 11
26.75484572195886
 21
21.57951281246321
 31
0.0
  0
ARC
  5
3F9
330
1F
100
AcDbEntity
  8
0
  6
SLD-Solid
 62
     7
370
    25
100
AcDbCircle
 10
26.75484572195886
 20
21.61951281246322
 30
0.0
 40
0.0899999999999999
100
AcDbArc
 50
180.0
 51
270.0000000000008
  0
LINE
  5
3FA
330
1F
100
AcDbEntity
  8
0
  6
SLD-Solid
 62
     7
370
    25
100
AcDbLine
 10
26.71484572195886
 20
21.61951281246322
 30
0.0
 11
26.66484572195886
 21
21.61951281246322
 31
0.0
  0
ARC
  5
3FB
330
1F
100
AcDbEntity
  8
0
  6
SLD-Solid
 62
     7
370
    25
100
AcDbCircle
 10
26.75484572195886
 20
21.61951281246322
 30
0.0
 40
0.0400000000000063
100
AcDbArc
 50
180.0
 51
270.0000000000008
  0
LINE
  5
3FC
330
1F
100
AcDbEntity
  8
0
  6
SLD-Solid
 62
     7
370
    25
100
AcDbLine
 10
26.66484572195885
 20
22.39950290163243
 30
0.0
 11
26.66484572195886
 21
21.61951281246322
 31
0.0
  0
LINE
  5
3FD
330
1F
100
AcDbEntity
  8
0
  6
SLD-Solid
 62
     7
370
    25
100
AcDbLine
 10
26.71484572195885
 20
22.39950290163243
 30
0.0
 11
26.71484572195886
 21
21.61951281246322
 31
0.0
  0
ARC
  5
3FE
330
1F
100
AcDbEntity
  8
0
  6
SLD-Solid
 62
     7
370
    25
100
AcDbCircle
 10
24.17484572195886
 20
21.61951281246321
 30
0.0
 40
0.0399999999999991
100
AcDbArc
 50
270.0000000000008
 51
0.0
  0
LINE
  5
3FF
330
1F
100
AcDbEntity
  8
0
  6
SLD-Solid
 62
     7
370
    25
100
AcDbLine
 10
24.21484572195886
 20
21.61951281246321
 30
0.0
 11
24.26484572195886
 21
21.61951281246322
 31
0.0
  0
ARC
  5
400
330
1F
100
AcDbEntity
  8
0
  6
SLD-Solid
 62
     7
370
    25
100
AcDbCircle
 10
24.17484572195886
 20
21.61951281246321
 30
0.0
 40
0.0899999999999999
100
AcDbArc
 50
270.0000000000008
 51
0.0000000000022617
  0
LINE
  5
401
330
1F
100
AcDbEntity
  8
0
  6
SLD-Solid
 62
     7
370
    25
100
AcDbLine
 10
24.17484572195886
 20
21.57951281246321
 30
0.0
 11
24.17484572195886
 21
21.52951281246322
 31
0.0
  0
LINE
  5
402
330
1F
100
AcDbEntity
  8
0
  6
SLD-Solid
 62
     7
370
    25
100
AcDbLine
 10
24.21484572195886
 20
22.39950290163244
 30
0.0
 11
24.21484572195886
 21
21.61951281246321
 31
0.0
  0
LINE
  5
403
330
1F
100
AcDbEntity
  8
0
  6
SLD-Solid
 62
     7
370
    25
100
AcDbLine
 10
24.26484572195886
 20
22.39950290163244
 30
0.0
 11
24.26484572195886
 21
21.61951281246322
 31
0.0
  0
LINE
  5
404
330
1F
100
AcDbEntity
  8
0
  6
SLD-Solid
 62
     7
370
    25
100
AcDbLine
 10
23.44484572195886
 20
21.52951281246321
 30
0.0
 11
23.44484572195886
 21
21.57951281246321
 31
0.0
  0
LINE
  5
405
330
1F
100
AcDbEntity
  8
0
  6
SLD-Solid
 62
     7
370
    25
100
AcDbLine
 10
23.44484572195886
 20
21.57951281246321
 30
0.0
 11
24.17484572195886
 21
21.57951281246321
 31
0.0
  0
LINE
  5
406
330
1F
100
AcDbEntity
  8
0
  6
SLD-Solid
 62
     7
370
    25
100
AcDbLine
 10
23.19484572195886
 20
21.57951281246321
 30
0.0
 11
23.19484572195886
 21
21.52951281246321
 31
0.0
  0
LINE
  5
407
330
1F
100
AcDbEntity
  8
0
  6
SLD-Solid
 62
     7
370
    25
100
AcDbLine
 10
23.44484572195886
 20
21.57951281246321
 30
0.0
 11
23.19484572195886
 21
21.57951281246321
 31
0.0
  0
LINE
  5
408
330
1F
100
AcDbEntity
  8
0
  6
SLD-Solid
 62
     7
370
    25
100
AcDbLine
 10
23.19484572195886
 20
21.52951281246321
 30
0.0
 11
23.19570385764904
 21
21.52951281246321
 31
0.0
  0
LINE
  5
409
330
1F
100
AcDbEntity
  8
0
  6
SLD-Solid
 62
     7
370
    25
100
AcDbLine
 10
28.77984572195882
 20
21.38451281246312
 30
0.0
 11
28.89984572195882
 21
21.38451281246312
 31
0.0
  0
LINE
  5
40A
330
1F
100
AcDbEntity
  8
0
  6
SLD-Solid
 62
     7
370
    25
100
AcDbLine
 10
28.89984572195882
 20
21.38451281246312
 30
0.0
 11
28.89984572195884
 21
8.584469664835757
 31
0.0
  0
LINE
  5
40B
330
1F
100
AcDbEntity
  8
0
  6
SLD-Solid
 62
     7
370
    25
100
AcDbLine
 10
28.89984572195884
 20
8.584469664835757
 30
0.0
 11
28.77984572195884
 21
8.584469664835757
 31
0.0
  0
LINE
  5
40C
330
1F
100
AcDbEntity
  8
0
  6
SLD-Solid
 62
     7
370
    25
100
AcDbLine
 10
28.77984572195882
 20
21.38451281246312
 30
0.0
 11
28.77984572195884
 21
8.584469664835757
 31
0.0
  0
LINE
  5
40D
330
1F
100
AcDbEntity
  8
0
  6
SLD-Solid
 62
     7
370
    25
100
AcDbLine
 10
28.12484572195882
 20
20.15951281246312
 30
0.0
 11
28.12484572195882
 21
19.83044576498572
 31
0.0
  0
ARC
  5
40E
330
1F
100
AcDbEntity
  8
0
  6
SLD-Solid
 62
     7
370
    25
100
AcDbCircle
 10
27.96484572195882
 20
20.15951281246312
 30
0.0
 40
0.1600000000000001
100
AcDbArc
 50
0.0
 51
180.0
  0
LINE
  5
40F
330
1F
100
AcDbEntity
  8
0
  6
SLD-Solid
 62
     7
370
    25
100
AcDbLine
 10
27.80484572195882
 20
19.83044576498572
 30
0.0
 11
27.80484572195882
 21
20.15951281246312
 31
0.0
  0
ARC
  5
410
330
1F
100
AcDbEntity
  8
0
  6
SLD-Solid
 62
     7
370
    25
100
AcDbCircle
 10
27.96484572195882
 20
19.56201281246312
 30
0.0
 40
0.3125000000000012
100
AcDbArc
 50
120.7971407982452
 51
59.20285920175422
  0
CIRCLE
  5
411
330
1F
100
AcDbEntity
  8
0
  6
SLD-Solid
 62
     7
370
    25
100
AcDbCircle
 10
27.96484572195884
 20
10.15951281246312
 30
0.0
 40
0.1600000000000001
  0
CIRCLE
  5
412
330
1F
100
AcDbEntity
  8
0
  6
SLD-Solid
 62
     7
370
    25
100
AcDbCircle
 10
27.96484572195884
 20
9.659512812463118
 30
0.0
 40
0.0999999999999996
  0
CIRCLE
  5
413
330
1F
100
AcDbEntity
  8
0
  6
SLD-Solid
 62
     7
370
    25
100
AcDbCircle
 10
27.96484572195882
 20
20.65951281246312
 30
0.0
 40
0.1000000000000014
  0
LINE
  5
414
330
1F
100
AcDbEntity
  8
0
  6
SLD-Solid
 62
     7
370
    25
100
AcDbLine
 10
23.16070385764904
 20
21.38451281246311
 30
0.0
 11
23.19570385764906
 21
21.38451281246311
 31
0.0
  0
LINE
  5
415
330
1F
100
AcDbEntity
  8
0
  6
SLD-Solid
 62
     7
370
    25
100
AcDbLine
 10
23.19570385764906
 20
21.40951281246311
 30
0.0
 11
23.19570385764906
 21
21.38451281246311
 31
0.0
  0
LINE
  5
416
330
1F
100
AcDbEntity
  8
0
  6
SLD-Solid
 62
     7
370
    25
100
AcDbLine
 10
27.73398758626858
 20
21.40951281246312
 30
0.0
 11
23.19570385764906
 21
21.40951281246311
 31
0.0
  0
LINE
  5
417
330
1F
100
AcDbEntity
  8
0
  6
SLD-Solid
 62
     7
370
    25
100
AcDbLine
 10
27.73398758626858
 20
21.40951281246312
 30
0.0
 11
27.73398758626858
 21
21.38451281246312
 31
0.0
  0
LINE
  5
418
330
1F
100
AcDbEntity
  8
0
  6
SLD-Solid
 62
     7
370
    25
100
AcDbLine
 10
27.7689875862686
 20
21.38451281246312
 30
0.0
 11
27.73398758626858
 21
21.38451281246312
 31
0.0
  0
LINE
  5
419
330
1F
100
AcDbEntity
  8
0
  6
SLD-Solid
 62
     7
370
    25
100
AcDbLine
 10
27.7689875862686
 20
21.38451281246312
 30
0.0
 11
27.76898758626859
 21
22.08324514594482
 31
0.0
  0
ARC
  5
41A
330
1F
100
AcDbEntity
  8
0
  6
SLD-Solid
 62
     7
370
    25
100
AcDbCircle
 10
27.89398758626859
 20
22.08324514594482
 30
0.0
 40
0.125
100
AcDbArc
 50
90.0
 51
180.0
  0
LINE
  5
41B
330
1F
100
AcDbEntity
  8
0
  6
SLD-Solid
 62
     7
370
    25
100
AcDbLine
 10
27.89398758626859
 20
22.20824514594481
 30
0.0
 11
28.44418742860502
 21
22.20824514594481
 31
0.0
  0
ARC
  5
41C
330
1F
100
AcDbEntity
  8
0
  6
SLD-Solid
 62
     7
370
    25
100
AcDbCircle
 10
28.44418742860502
 20
22.08324514594482
 30
0.0
 40
0.1249999999999964
100
AcDbArc
 50
0.0
 51
90.0
  0
LINE
  5
41D
330
1F
100
AcDbEntity
  8
0
  6
SLD-Solid
 62
     7
370
    25
100
AcDbLine
 10
28.56918742860502
 20
22.08324514594482
 30
0.0
 11
28.56918742860502
 21
21.38451281246312
 31
0.0
  0
LINE
  5
41E
330
1F
100
AcDbEntity
  8
0
  6
SLD-Solid
 62
     7
370
    25
100
AcDbLine
 10
28.77984572195882
 20
21.38451281246312
 30
0.0
 11
28.56918742860502
 21
21.38451281246312
 31
0.0
  0
LINE
  5
41F
330
1F
100
AcDbEntity
  8
0
  6
SLD-Solid
 62
     7
370
    25
100
AcDbLine
 10
28.77984572195884
 20
8.584469664835757
 30
0.0
 11
28.67484572195884
 21
8.584469664835757
 31
0.0
  0
LINE
  5
420
330
1F
100
AcDbEntity
  8
0
  6
SLD-Solid
 62
     7
370
    25
100
AcDbLine
 10
28.67484572195884
 20
8.504512812463119
 30
0.0
 11
28.67484572195884
 21
8.584469664835757
 31
0.0
  0
LINE
  5
421
330
1F
100
AcDbEntity
  8
0
  6
SLD-Solid
 62
     7
370
    25
100
AcDbLine
 10
22.25484572195884
 20
8.504512812463108
 30
0.0
 11
28.67484572195884
 21
8.504512812463119
 31
0.0
  0
LINE
  5
422
330
1F
100
AcDbEntity
  8
0
  6
SLD-Solid
 62
     7
370
    25
100
AcDbLine
 10
22.25484572195884
 20
8.504512812463108
 30
0.0
 11
22.25484572195884
 21
8.584469664835746
 31
0.0
  0
LINE
  5
423
330
1F
100
AcDbEntity
  8
0
  6
SLD-Solid
 62
     7
370
    25
100
AcDbLine
 10
22.14984572195884
 20
8.584469664835746
 30
0.0
 11
22.25484572195884
 21
8.584469664835746
 31
0.0
  0
LINE
  5
424
330
1F
100
AcDbEntity
  8
0
  6
SLD-Solid
 62
     7
370
    25
100
AcDbLine
 10
22.14984572195882
 20
21.38451281246311
 30
0.0
 11
22.14984572195884
 21
8.584469664835746
 31
0.0
  0
LINE
  5
425
330
1F
100
AcDbEntity
  8
0
  6
SLD-Solid
 62
     7
370
    25
100
AcDbLine
 10
22.14984572195882
 20
21.38451281246311
 30
0.0
 11
22.36050401531262
 21
21.38451281246311
 31
0.0
  0
LINE
  5
426
330
1F
100
AcDbEntity
  8
0
  6
SLD-Solid
 62
     7
370
    25
100
AcDbLine
 10
22.36050401531262
 20
22.08324514594481
 30
0.0
 11
22.36050401531262
 21
21.38451281246311
 31
0.0
  0
ARC
  5
427
330
1F
100
AcDbEntity
  8
0
  6
SLD-Solid
 62
     7
370
    25
100
AcDbCircle
 10
22.48550401531261
 20
22.08324514594481
 30
0.0
 40
0.1249999999999964
100
AcDbArc
 50
90.0
 51
180.0
  0
LINE
  5
428
330
1F
100
AcDbEntity
  8
0
  6
SLD-Solid
 62
     7
370
    25
100
AcDbLine
 10
23.03570385764904
 20
22.2082451459448
 30
0.0
 11
22.48550401531261
 21
22.2082451459448
 31
0.0
  0
ARC
  5
429
330
1F
100
AcDbEntity
  8
0
  6
SLD-Solid
 62
     7
370
    25
100
AcDbCircle
 10
23.03570385764904
 20
22.08324514594481
 30
0.0
 40
0.125
100
AcDbArc
 50
0.0
 51
90.0
  0
LINE
  5
42A
330
1F
100
AcDbEntity
  8
0
  6
SLD-Solid
 62
     7
370
    25
100
AcDbLine
 10
23.16070385764904
 20
21.38451281246311
 30
0.0
 11
23.16070385764904
 21
22.08324514594481
 31
0.0
  0
LINE
  5
42B
330
1F
100
AcDbEntity
  8
0
  6
SLD-Solid
 62
     7
370
    25
100
AcDbLine
 10
23.12484572195882
 20
19.83044576498571
 30
0.0
 11
23.12484572195882
 21
20.15951281246311
 31
0.0
  0
ARC
  5
42C
330
1F
100
AcDbEntity
  8
0
  6
SLD-Solid
 62
     7
370
    25
100
AcDbCircle
 10
22.96484572195882
 20
20.15951281246311
 30
0.0
 40
0.1600000000000001
100
AcDbArc
 50
0.0
 51
180.0
  0
LINE
  5
42D
330
1F
100
AcDbEntity
  8
0
  6
SLD-Solid
 62
     7
370
    25
100
AcDbLine
 10
22.80484572195882
 20
20.15951281246311
 30
0.0
 11
22.80484572195882
 21
19.83044576498571
 31
0.0
  0
ARC
  5
42E
330
1F
100
AcDbEntity
  8
0
  6
SLD-Solid
 62
     7
370
    25
100
AcDbCircle
 10
22.96484572195882
 20
19.56201281246311
 30
0.0
 40
0.3125000000000024
100
AcDbArc
 50
120.7971407982449
 51
59.20285920175568
  0
CIRCLE
  5
42F
330
1F
100
AcDbEntity
  8
0
  6
SLD-Solid
 62
     7
370
    25
100
AcDbCircle
 10
22.96484572195883
 20
10.15951281246311
 30
0.0
 40
0.1600000000000001
  0
CIRCLE
  5
430
330
1F
100
AcDbEntity
  8
0
  6
SLD-Solid
 62
     7
370
    25
100
AcDbCircle
 10
22.96484572195883
 20
9.65951281246311
 30
0.0
 40
0.0999999999999996
  0
CIRCLE
  5
431
330
1F
100
AcDbEntity
  8
0
  6
SLD-Solid
 62
     7
370
    25
100
AcDbCircle
 10
22.96484572195882
 20
20.65951281246311
 30
0.0
 40
0.0999999999999979
  0
LINE
  5
432
330
1F
100
AcDbEntity
  8
0
  6
SLD-Solid
 62
     7
370
    25
100
AcDbLine
 10
22.25484572195884
 20
8.38451281246311
 30
0.0
 11
28.67484572195884
 21
8.38451281246312
 31
0.0
  0
LINE
  5
433
330
1F
100
AcDbEntity
  8
0
  6
SLD-Solid
 62
     7
370
    25
100
AcDbLine
 10
22.25484572195884
 20
8.504512812463108
 30
0.0
 11
22.25484572195884
 21
8.38451281246311
 31
0.0
  0
LINE
  5
434
330
1F
100
AcDbEntity
  8
0
  6
SLD-Solid
 62
     7
370
    25
100
AcDbLine
 10
28.67484572195884
 20
8.504512812463119
 30
0.0
 11
28.67484572195884
 21
8.38451281246312
 31
0.0
  0
LINE
  5
435
330
1F
100
AcDbEntity
  8
0
  6
SLD-Solid
 62
     7
370
    25
100
AcDbLine
 10
23.19570385764906
 20
21.52951281246311
 30
0.0
 11
23.19570385764906
 21
21.40951281246311
 31
0.0
  0
LINE
  5
436
330
1F
100
AcDbEntity
  8
0
  6
SLD-Solid
 62
     7
370
    25
100
AcDbLine
 10
23.19570385764906
 20
21.52951281246311
 30
0.0
 11
27.73398758626858
 21
21.52951281246312
 31
0.0
  0
LINE
  5
437
330
1F
100
AcDbEntity
  8
0
  6
SLD-Solid
 62
     7
370
    25
100
AcDbLine
 10
27.73398758626858
 20
21.40951281246312
 30
0.0
 11
27.73398758626858
 21
21.52951281246312
 31
0.0
  0
LINE
  5
438
330
1F
100
AcDbEntity
  8
0
  6
SLD-Solid
 62
     7
370
    25
100
AcDbLine
 10
22.02984572195884
 20
8.584469664835746
 30
0.0
 11
22.14984572195884
 21
8.584469664835746
 31
0.0
  0
LINE
  5
439
330
1F
100
AcDbEntity
  8
0
  6
SLD-Solid
 62
     7
370
    25
100
AcDbLine
 10
22.02984572195882
 20
21.38451281246311
 30
0.0
 11
22.02984572195884
 21
8.584469664835746
 31
0.0
  0
LINE
  5
43A
330
1F
100
AcDbEntity
  8
0
  6
SLD-Solid
 62
     7
370
    25
100
AcDbLine
 10
22.14984572195882
 20
21.38451281246311
 30
0.0
 11
22.02984572195882
 21
21.38451281246311
 31
0.0
  0
LINE
  5
43B
330
1F
100
AcDbEntity
  8
0
  6
SLD-Solid
 62
     7
370
    25
100
AcDbLine
 10
29.23984572195884
 20
8.594658431319754
 30
0.0
 11
29.23984572195884
 21
8.504512812463123
 31
0.0
  0
ARC
  5
43C
330
1F
100
AcDbEntity
  8
0
  6
SLD-Solid
 62
     7
370
    25
100
AcDbCircle
 10
29.18984572195884
 20
8.50451281246312
 30
0.0
 40
0.0500000000000007
100
AcDbArc
 50
270.0000000000008
 51
0.0000000000020356
  0
LINE
  5
43D
330
1F
100
AcDbEntity
  8
0
  6
SLD-Solid
 62
     7
370
    25
100
AcDbLine
 10
29.18984572195884
 20
8.38451281246312
 30
0.0
 11
29.18984572195884
 21
8.45451281246312
 31
0.0
  0
ARC
  5
43E
330
1F
100
AcDbEntity
  8
0
  6
SLD-Solid
 62
     7
370
    25
100
AcDbCircle
 10
29.18984572195884
 20
8.50451281246312
 30
0.0
 40
0.1200000000000031
100
AcDbArc
 50
270.0000000000008
 51
337.8598394304717
  0
LINE
  5
43F
330
1F
100
AcDbEntity
  8
0
  6
SLD-Solid
 62
     7
370
    25
100
AcDbLine
 10
29.18984572195884
 20
8.38451281246312
 30
0.0
 11
28.67484572195884
 21
8.38451281246312
 31
0.0
  0
LINE
  5
440
330
1F
100
AcDbEntity
  8
0
  6
SLD-Solid
 62
     7
370
    25
100
AcDbLine
 10
29.18984572195884
 20
8.45451281246312
 30
0.0
 11
28.67484572195884
 21
8.45451281246312
 31
0.0
  0
LINE
  5
441
330
1F
100
AcDbEntity
  8
0
  6
SLD-Solid
 62
     7
370
    25
100
AcDbLine
 10
21.73984572195884
 20
8.38451281246311
 30
0.0
 11
21.73984572195884
 21
8.454512812463108
 31
0.0
  0
LINE
  5
442
330
1F
100
AcDbEntity
  8
0
  6
SLD-Solid
 62
     7
370
    25
100
AcDbLine
 10
21.73984572195884
 20
8.38451281246311
 30
0.0
 11
22.25484572195884
 21
8.38451281246311
 31
0.0
  0
LINE
  5
443
330
1F
100
AcDbEntity
  8
0
  6
SLD-Solid
 62
     7
370
    25
100
AcDbLine
 10
21.73984572195884
 20
8.454512812463108
 30
0.0
 11
22.25484572195884
 21
8.45451281246311
 31
0.0
  0
ARC
  5
444
330
1F
100
AcDbEntity
  8
0
  6
SLD-Solid
 62
     7
370
    25
100
AcDbCircle
 10
21.73984572195884
 20
8.504512812463108
 30
0.0
 40
0.1199999999999997
100
AcDbArc
 50
202.1401605695215
 51
270.0000000000008
  0
ARC
  5
445
330
1F
100
AcDbEntity
  8
0
  6
SLD-Solid
 62
     7
370
    25
100
AcDbCircle
 10
21.73984572195884
 20
8.504512812463108
 30
0.0
 40
0.0500000000000007
100
AcDbArc
 50
180.0
 51
270.0000000000008
  0
LINE
  5
446
330
1F
100
AcDbEntity
  8
0
  6
SLD-Solid
 62
     7
370
    25
100
AcDbLine
 10
21.68984572195884
 20
8.594658431319756
 30
0.0
 11
21.68984572195884
 21
8.504512812463108
 31
0.0
  0
LINE
  5
447
330
1F
100
AcDbEntity
  8
0
  6
SLD-Solid
 62
     7
370
    25
100
AcDbLine
 10
28.82984572195884
 20
8.45549622027827
 30
0.0
 11
28.89984572195884
 21
8.45549622027827
 31
0.0
  0
LINE
  5
448
330
1F
100
AcDbEntity
  8
0
  6
SLD-Solid
 62
     7
370
    25
100
AcDbLine
 10
28.89984572195884
 20
8.58049622027827
 30
0.0
 11
28.82984572195884
 21
8.58049622027827
 31
0.0
  0
LINE
  5
449
330
1F
100
AcDbEntity
  8
0
  6
SLD-Solid
 62
     7
370
    25
100
AcDbLine
 10
28.82984572195884
 20
8.58049622027827
 30
0.0
 11
28.82984572195884
 21
8.45549622027827
 31
0.0
  0
LINE
  5
44A
330
1F
100
AcDbEntity
  8
0
  6
SLD-Solid
 62
     7
370
    25
100
AcDbLine
 10
28.89984572195884
 20
8.45549622027827
 30
0.0
 11
28.89984572195884
 21
8.58049622027827
 31
0.0
  0
LINE
  5
44B
330
1F
100
AcDbEntity
  8
0
  6
SLD-Solid
 62
     7
370
    25
100
AcDbLine
 10
28.82984572195884
 20
8.584469664835757
 30
0.0
 11
28.82984572195884
 21
8.58049622027827
 31
0.0
  0
LINE
  5
44C
330
1F
100
AcDbEntity
  8
0
  6
SLD-Solid
 62
     7
370
    25
100
AcDbLine
 10
28.89984572195884
 20
8.584469664835757
 30
0.0
 11
28.89984572195884
 21
8.58049622027827
 31
0.0
  0
LINE
  5
44D
330
1F
100
AcDbEntity
  8
0
  6
SLD-Solid
 62
     7
370
    25
100
AcDbLine
 10
22.02984572195883
 20
8.580496220278258
 30
0.0
 11
22.09984572195883
 21
8.58049622027826
 31
0.0
  0
LINE
  5
44E
330
1F
100
AcDbEntity
  8
0
  6
SLD-Solid
 62
     7
370
    25
100
AcDbLine
 10
22.09984572195883
 20
8.45549622027826
 30
0.0
 11
22.02984572195883
 21
8.45549622027826
 31
0.0
  0
LINE
  5
44F
330
1F
100
AcDbEntity
  8
0
  6
SLD-Solid
 62
     7
370
    25
100
AcDbLine
 10
22.09984572195883
 20
8.58049622027826
 30
0.0
 11
22.09984572195883
 21
8.45549622027826
 31
0.0
  0
LINE
  5
450
330
1F
100
AcDbEntity
  8
0
  6
SLD-Solid
 62
     7
370
    25
100
AcDbLine
 10
22.02984572195883
 20
8.45549622027826
 30
0.0
 11
22.02984572195883
 21
8.580496220278258
 31
0.0
  0
LINE
  5
451
330
1F
100
AcDbEntity
  8
0
  6
SLD-Solid
 62
     7
370
    25
100
AcDbLine
 10
22.09984572195883
 20
8.584469664835746
 30
0.0
 11
22.09984572195883
 21
8.58049622027826
 31
0.0
  0
LINE
  5
452
330
1F
100
AcDbEntity
  8
0
  6
SLD-Solid
 62
     7
370
    25
100
AcDbLine
 10
22.02984572195883
 20
8.584469664835746
 30
0.0
 11
22.02984572195883
 21
8.580496220278258
 31
0.0
  0
LINE
  5
453
330
1F
100
AcDbEntity
  8
0
  6
SLD-Solid
 62
     7
370
    25
100
AcDbLine
 10
26.70484572195882
 20
21.52951281246312
 30
0.0
 11
26.70484572195882
 21
21.54467966472777
 31
0.0
  0
LINE
  5
454
330
1F
100
AcDbEntity
  8
0
  6
SLD-Solid
 62
     7
370
    25
100
AcDbLine
 10
24.22484572195881
 20
21.54467966472771
 30
0.0
 11
24.22484572195881
 21
21.52951281246311
 31
0.0
  0
ARC
  5
455
330
1F
100
AcDbEntity
  8
0
  6
SLD-Solid
 62
     7
370
    25
100
AcDbCircle
 10
24.37484572195882
 20
22.05509189826581
 30
0.0
 40
0.1500000000000021
100
AcDbArc
 50
90.0
 51
137.1665719339126
  0
LINE
  5
456
330
1F
100
AcDbEntity
  8
0
  6
SLD-Solid
 62
     7
370
    25
100
AcDbLine
 10
24.37484572195882
 20
22.20509189826581
 30
0.0
 11
24.65234572195886
 21
22.20509189826581
 31
0.0
  0
LINE
  5
457
330
1F
100
AcDbEntity
  8
0
  6
SLD-Solid
 62
     7
370
    25
100
AcDbLine
 10
26.27734572195886
 20
22.20509189826581
 30
0.0
 11
26.55484572195881
 21
22.20509189826581
 31
0.0
  0
ARC
  5
458
330
1F
100
AcDbEntity
  8
0
  6
SLD-Solid
 62
     7
370
    25
100
AcDbCircle
 10
26.55484572195881
 20
22.05509189826581
 30
0.0
 40
0.1500000000000008
100
AcDbArc
 50
42.83342806604995
 51
90.0
  0
LINE
  5
459
330
1F
100
AcDbEntity
  8
0
  6
SLD-Solid
 62
     7
370
    25
100
AcDbLine
 10
29.24621187388205
 20
8.594658431319754
 30
0.0
 11
29.32951903610544
 21
8.594658431319754
 31
0.0
  0
LINE
  5
45A
330
1F
100
AcDbEntity
  8
0
  6
SLD-Solid
 62
     7
370
    25
100
AcDbLine
 10
29.24621187388205
 20
8.594658431319754
 30
0.0
 11
29.24621187388205
 21
22.50802397433043
 31
0.0
  0
LINE
  5
45B
330
1F
100
AcDbEntity
  8
0
  6
SLD-Solid
 62
     7
370
    25
100
AcDbLine
 10
29.32951903610544
 20
22.50802397433043
 30
0.0
 11
29.24621187388205
 21
22.50802397433043
 31
0.0
  0
LINE
  5
45C
330
1F
100
AcDbEntity
  8
0
  6
SLD-Solid
 62
     7
370
    25
100
AcDbLine
 10
29.33734572195886
 20
8.594658431319754
 30
0.0
 11
29.33734572195886
 21
22.50802397433043
 31
0.0
  0
LINE
  5
45D
330
1F
100
AcDbEntity
  8
0
  6
SLD-Solid
 62
     7
370
    25
100
AcDbLine
 10
21.60017240781225
 20
22.50802397433044
 30
0.0
 11
21.68347957003564
 21
22.50802397433044
 31
0.0
  0
LINE
  5
45E
330
1F
100
AcDbEntity
  8
0
  6
SLD-Solid
 62
     7
370
    25
100
AcDbLine
 10
21.68347957003563
 20
8.594658431319756
 30
0.0
 11
21.68347957003564
 21
22.50802397433044
 31
0.0
  0
LINE
  5
45F
330
1F
100
AcDbEntity
  8
0
  6
SLD-Solid
 62
     7
370
    25
100
AcDbLine
 10
21.68347957003563
 20
8.594658431319756
 30
0.0
 11
21.60017240781224
 21
8.594658431319756
 31
0.0
  0
LINE
  5
460
330
1F
100
AcDbEntity
  8
0
  6
SLD-Solid
 62
     7
370
    25
100
AcDbLine
 10
21.59234572195882
 20
8.594658431319756
 30
0.0
 11
21.59234572195883
 21
22.50802397433044
 31
0.0
  0
ARC
  5
461
330
1F
100
AcDbEntity
  8
0
  6
SLD-Solid
 62
     7
370
    25
100
AcDbCircle
 10
29.07813383530582
 20
22.35875031753159
 30
0.0
 40
0.1492754588304747
100
AcDbArc
 50
90.2815302497144
 51
180.278790394951
  0
LINE
  5
462
330
1F
100
AcDbEntity
  8
0
  6
SLD-Solid
 62
     7
370
    25
100
AcDbLine
 10
29.07740035391419
 20
8.594658431319752
 30
0.0
 11
29.24621187388205
 21
8.594658431319754
 31
0.0
  0
ARC
  5
463
330
1F
100
AcDbEntity
  8
0
  6
SLD-Solid
 62
     7
370
    25
100
AcDbCircle
 10
29.07813383530583
 20
8.7439320881186
 30
0.0
 40
0.1492754588304854
100
AcDbArc
 50
179.7212096050498
 51
269.7184697502823
  0
LINE
  5
464
330
1F
100
AcDbEntity
  8
0
  6
SLD-Solid
 62
     7
370
    25
100
AcDbLine
 10
28.92886014360295
 20
8.744658431319754
 30
0.0
 11
28.92886014360296
 21
22.35802397433044
 31
0.0
  0
LINE
  5
465
330
1F
100
AcDbEntity
  8
0
  6
SLD-Solid
 62
     7
370
    25
100
AcDbLine
 10
29.07740035391419
 20
22.50802397433043
 30
0.0
 11
29.24621187388205
 21
22.50802397433043
 31
0.0
  0
ARC
  5
466
330
1F
100
AcDbEntity
  8
0
  6
SLD-Solid
 62
     7
370
    25
100
AcDbCircle
 10
21.85155760861185
 20
8.743932088118605
 30
0.0
 40
0.149275458830489
100
AcDbArc
 50
270.2815302497206
 51
0.2787903949488401
  0
LINE
  5
467
330
1F
100
AcDbEntity
  8
0
  6
SLD-Solid
 62
     7
370
    25
100
AcDbLine
 10
21.85229109000349
 20
8.594658431319754
 30
0.0
 11
21.68347957003563
 21
8.594658431319756
 31
0.0
  0
LINE
  5
468
330
1F
100
AcDbEntity
  8
0
  6
SLD-Solid
 62
     7
370
    25
100
AcDbLine
 10
21.85229109000349
 20
22.50802397433044
 30
0.0
 11
21.68347957003564
 21
22.50802397433044
 31
0.0
  0
ARC
  5
469
330
1F
100
AcDbEntity
  8
0
  6
SLD-Solid
 62
     7
370
    25
100
AcDbCircle
 10
21.85155760861186
 20
22.3587503175316
 30
0.0
 40
0.1492754588304804
100
AcDbArc
 50
359.7212096050478
 51
89.71846975028289
  0
LINE
  5
46A
330
1F
100
AcDbEntity
  8
0
  6
SLD-Solid
 62
     7
370
    25
100
AcDbLine
 10
22.00083130031473
 20
8.744658431319756
 30
0.0
 11
22.00083130031473
 21
22.35802397433044
 31
0.0
  0
LINE
  5
46B
330
1F
100
AcDbEntity
  8
0
  6
SLD-Solid
 62
     7
370
    25
100
AcDbLine
 10
29.28734572195886
 20
22.50802397433043
 30
0.0
 11
29.28734572195886
 21
22.51834120282509
 31
0.0
  0
LINE
  5
46C
330
1F
100
AcDbEntity
  8
0
  6
SLD-Solid
 62
     7
370
    25
100
AcDbLine
 10
29.28734572195886
 20
22.51834120282509
 30
0.0
 11
29.33734572195886
 21
22.51834120282509
 31
0.0
  0
LINE
  5
46D
330
1F
100
AcDbEntity
  8
0
  6
SLD-Solid
 62
     7
370
    25
100
AcDbLine
 10
29.32951903610544
 20
22.50802397433043
 30
0.0
 11
29.33734572195886
 21
22.50802397433043
 31
0.0
  0
LINE
  5
46E
330
1F
100
AcDbEntity
  8
0
  6
SLD-Solid
 62
     7
370
    25
100
AcDbLine
 10
29.33734572195886
 20
22.50802397433043
 30
0.0
 11
29.33734572195886
 21
22.51834120282509
 31
0.0
  0
LINE
  5
46F
330
1F
100
AcDbEntity
  8
0
  6
SLD-Solid
 62
     7
370
    25
100
AcDbLine
 10
29.28734572195886
 20
8.584341202825096
 30
0.0
 11
29.33734572195886
 21
8.584341202825096
 31
0.0
  0
LINE
  5
470
330
1F
100
AcDbEntity
  8
0
  6
SLD-Solid
 62
     7
370
    25
100
AcDbLine
 10
29.28734572195886
 20
8.594658431319752
 30
0.0
 11
29.28734572195886
 21
8.584341202825096
 31
0.0
  0
LINE
  5
471
330
1F
100
AcDbEntity
  8
0
  6
SLD-Solid
 62
     7
370
    25
100
AcDbLine
 10
29.32951903610544
 20
8.594658431319754
 30
0.0
 11
29.33734572195886
 21
8.594658431319752
 31
0.0
  0
LINE
  5
472
330
1F
100
AcDbEntity
  8
0
  6
SLD-Solid
 62
     7
370
    25
100
AcDbLine
 10
29.33734572195886
 20
8.594658431319752
 30
0.0
 11
29.33734572195886
 21
8.584341202825096
 31
0.0
  0
LINE
  5
473
330
1F
100
AcDbEntity
  8
0
  6
SLD-Solid
 62
     7
370
    25
100
AcDbLine
 10
29.28734572195886
 20
22.66834120282509
 30
0.0
 11
29.28734572195886
 21
22.51834120282509
 31
0.0
  0
LINE
  5
474
330
1F
100
AcDbEntity
  8
0
  6
SLD-Solid
 62
     7
370
    25
100
AcDbLine
 10
29.33734572195886
 20
22.66834120282509
 30
0.0
 11
29.28734572195886
 21
22.66834120282509
 31
0.0
  0
LINE
  5
475
330
1F
100
AcDbEntity
  8
0
  6
SLD-Solid
 62
     7
370
    25
100
AcDbLine
 10
29.33734572195886
 20
22.51834120282509
 30
0.0
 11
29.33734572195886
 21
22.66834120282509
 31
0.0
  0
LINE
  5
476
330
1F
100
AcDbEntity
  8
0
  6
SLD-Solid
 62
     7
370
    25
100
AcDbLine
 10
29.33734572195885
 20
8.434341202825095
 30
0.0
 11
29.28734572195885
 21
8.434341202825095
 31
0.0
  0
LINE
  5
477
330
1F
100
AcDbEntity
  8
0
  6
SLD-Solid
 62
     7
370
    25
100
AcDbLine
 10
29.28734572195885
 20
8.434341202825095
 30
0.0
 11
29.28734572195886
 21
8.434557469564968
 31
0.0
  0
LINE
  5
478
330
1F
100
AcDbEntity
  8
0
  6
SLD-Solid
 62
     7
370
    25
100
AcDbLine
 10
29.28734572195886
 20
8.459287979714341
 30
0.0
 11
29.28734572195886
 21
8.584341202825096
 31
0.0
  0
LINE
  5
479
330
1F
100
AcDbEntity
  8
0
  6
SLD-Solid
 62
     7
370
    25
100
AcDbLine
 10
29.33734572195886
 20
8.584341202825096
 30
0.0
 11
29.33734572195885
 21
8.434341202825095
 31
0.0
  0
LINE
  5
47A
330
1F
100
AcDbEntity
  8
0
  6
SLD-Solid
 62
     7
370
    25
100
AcDbLine
 10
21.60017240781225
 20
22.50802397433044
 30
0.0
 11
21.59234572195883
 21
22.50802397433044
 31
0.0
  0
LINE
  5
47B
330
1F
100
AcDbEntity
  8
0
  6
SLD-Solid
 62
     7
370
    25
100
AcDbLine
 10
21.64234572195882
 20
22.51834120282509
 30
0.0
 11
21.59234572195883
 21
22.51834120282509
 31
0.0
  0
LINE
  5
47C
330
1F
100
AcDbEntity
  8
0
  6
SLD-Solid
 62
     7
370
    25
100
AcDbLine
 10
21.59234572195883
 20
22.50802397433044
 30
0.0
 11
21.59234572195883
 21
22.51834120282509
 31
0.0
  0
LINE
  5
47D
330
1F
100
AcDbEntity
  8
0
  6
SLD-Solid
 62
     7
370
    25
100
AcDbLine
 10
21.64234572195882
 20
22.50802397433044
 30
0.0
 11
21.64234572195882
 21
22.51834120282509
 31
0.0
  0
LINE
  5
47E
330
1F
100
AcDbEntity
  8
0
  6
SLD-Solid
 62
     7
370
    25
100
AcDbLine
 10
21.64234572195882
 20
8.584341202825097
 30
0.0
 11
21.59234572195882
 21
8.584341202825097
 31
0.0
  0
LINE
  5
47F
330
1F
100
AcDbEntity
  8
0
  6
SLD-Solid
 62
     7
370
    25
100
AcDbLine
 10
21.60017240781224
 20
8.594658431319756
 30
0.0
 11
21.59234572195882
 21
8.594658431319754
 31
0.0
  0
LINE
  5
480
330
1F
100
AcDbEntity
  8
0
  6
SLD-Solid
 62
     7
370
    25
100
AcDbLine
 10
21.59234572195882
 20
8.594658431319754
 30
0.0
 11
21.59234572195882
 21
8.584341202825097
 31
0.0
  0
LINE
  5
481
330
1F
100
AcDbEntity
  8
0
  6
SLD-Solid
 62
     7
370
    25
100
AcDbLine
 10
21.64234572195882
 20
8.594658431319754
 30
0.0
 11
21.64234572195882
 21
8.584341202825097
 31
0.0
  0
LINE
  5
482
330
1F
100
AcDbEntity
  8
0
  6
SLD-Solid
 62
     7
370
    25
100
AcDbLine
 10
21.59234572195883
 20
22.66834120282509
 30
0.0
 11
21.64234572195882
 21
22.66834120282509
 31
0.0
  0
LINE
  5
483
330
1F
100
AcDbEntity
  8
0
  6
SLD-Solid
 62
     7
370
    25
100
AcDbLine
 10
21.59234572195883
 20
22.51834120282509
 30
0.0
 11
21.59234572195883
 21
22.66834120282509
 31
0.0
  0
LINE
  5
484
330
1F
100
AcDbEntity
  8
0
  6
SLD-Solid
 62
     7
370
    25
100
AcDbLine
 10
21.64234572195882
 20
22.66834120282509
 30
0.0
 11
21.64234572195882
 21
22.51834120282509
 31
0.0
  0
LINE
  5
485
330
1F
100
AcDbEntity
  8
0
  6
SLD-Solid
 62
     7
370
    25
100
AcDbLine
 10
21.59234572195882
 20
8.434341202825097
 30
0.0
 11
21.64234572195882
 21
8.434341202825097
 31
0.0
  0
LINE
  5
486
330
1F
100
AcDbEntity
  8
0
  6
SLD-Solid
 62
     7
370
    25
100
AcDbLine
 10
21.59234572195882
 20
8.584341202825097
 30
0.0
 11
21.59234572195882
 21
8.434341202825097
 31
0.0
  0
LINE
  5
487
330
1F
100
AcDbEntity
  8
0
  6
SLD-Solid
 62
     7
370
    25
100
AcDbLine
 10
21.64234572195882
 20
8.434341202825097
 30
0.0
 11
21.64234572195882
 21
8.434557469564965
 31
0.0
  0
LINE
  5
488
330
1F
100
AcDbEntity
  8
0
  6
SLD-Solid
 62
     7
370
    25
100
AcDbLine
 10
21.64234572195882
 20
8.459287979714341
 30
0.0
 11
21.64234572195882
 21
8.584341202825097
 31
0.0
  0
ARC
  5
489
330
1F
100
AcDbEntity
  8
0
  6
SLD-Solid
 62
     7
370
    25
100
AcDbCircle
 10
22.05481623558743
 20
21.46950290163245
 30
0.0
 40
0.0500000000000007
100
AcDbArc
 50
180.0
 51
270.0000000000008
  0
LINE
  5
48A
330
1F
100
AcDbEntity
  8
0
  6
SLD-Solid
 62
     7
370
    25
100
AcDbLine
 10
22.00481623558744
 20
22.64950290163245
 30
0.0
 11
22.00481623558744
 21
21.46950290163245
 31
0.0
  0
LINE
  5
48B
330
1F
100
AcDbEntity
  8
0
  6
SLD-Solid
 62
     7
370
    25
100
AcDbLine
 10
22.00481623558744
 20
22.64950290163245
 30
0.0
 11
28.92487520833025
 21
22.64950290163244
 31
0.0
  0
LINE
  5
48C
330
1F
100
AcDbEntity
  8
0
  6
SLD-Solid
 62
     7
370
    25
100
AcDbLine
 10
28.92487520833025
 20
22.64950290163244
 30
0.0
 11
28.92487520833025
 21
21.46950290163245
 31
0.0
  0
ARC
  5
48D
330
1F
100
AcDbEntity
  8
0
  6
SLD-Solid
 62
     7
370
    25
100
AcDbCircle
 10
28.87487520833025
 20
21.46950290163245
 30
0.0
 40
0.0500000000000043
100
AcDbArc
 50
270.0000000000008
 51
0.0
  0
LINE
  5
48E
330
1F
100
AcDbEntity
  8
0
  6
SLD-Solid
 62
     7
370
    25
100
AcDbLine
 10
28.56918742860502
 20
21.41950290163244
 30
0.0
 11
28.87487520833025
 21
21.41950290163244
 31
0.0
  0
ARC
  5
48F
330
1F
100
AcDbEntity
  8
0
  6
SLD-Solid
 62
     7
370
    25
100
AcDbCircle
 10
27.73487520833025
 20
21.56450290163243
 30
0.0
 40
0.0500000000000043
100
AcDbArc
 50
46.98047414903873
 51
90.0
  0
LINE
  5
490
330
1F
100
AcDbEntity
  8
0
  6
SLD-Solid
 62
     7
370
    25
100
AcDbLine
 10
26.96484572195885
 20
21.61450290163244
 30
0.0
 11
27.73487520833025
 21
21.61450290163244
 31
0.0
  0
ARC
  5
491
330
1F
100
AcDbEntity
  8
0
  6
SLD-Solid
 62
     7
370
    25
100
AcDbCircle
 10
26.96484572195885
 20
21.66450290163244
 30
0.0
 40
0.0499999999999972
100
AcDbArc
 50
180.0
 51
270.0000000000008
  0
LINE
  5
492
330
1F
100
AcDbEntity
  8
0
  6
SLD-Solid
 62
     7
370
    25
100
AcDbLine
 10
26.91484572195885
 20
22.39950290163243
 30
0.0
 11
26.91484572195885
 21
21.66450290163244
 31
0.0
  0
LINE
  5
493
330
1F
100
AcDbEntity
  8
0
  6
SLD-Solid
 62
     7
370
    25
100
AcDbLine
 10
26.91484572195885
 20
22.39950290163243
 30
0.0
 11
24.01484572195884
 21
22.39950290163244
 31
0.0
  0
LINE
  5
494
330
1F
100
AcDbEntity
  8
0
  6
SLD-Solid
 62
     7
370
    25
100
AcDbLine
 10
24.01484572195884
 20
22.39950290163244
 30
0.0
 11
24.01484572195884
 21
21.66450290163244
 31
0.0
  0
ARC
  5
495
330
1F
100
AcDbEntity
  8
0
  6
SLD-Solid
 62
     7
370
    25
100
AcDbCircle
 10
23.96484572195884
 20
21.66450290163244
 30
0.0
 40
0.0500000000000007
100
AcDbArc
 50
270.0000000000008
 51
0.0
  0
LINE
  5
496
330
1F
100
AcDbEntity
  8
0
  6
SLD-Solid
 62
     7
370
    25
100
AcDbLine
 10
23.96484572195884
 20
21.61450290163244
 30
0.0
 11
23.19481623558744
 21
21.61450290163244
 31
0.0
  0
ARC
  5
497
330
1F
100
AcDbEntity
  8
0
  6
SLD-Solid
 62
     7
370
    25
100
AcDbCircle
 10
23.19481623558744
 20
21.56450290163244
 30
0.0
 40
0.0499999999999972
100
AcDbArc
 50
89.99999999999592
 51
133.0195258510474
  0
LINE
  5
498
330
1F
100
AcDbEntity
  8
0
  6
SLD-Solid
 62
     7
370
    25
100
AcDbLine
 10
22.36050401531262
 20
21.41950290163244
 30
0.0
 11
22.05481623558743
 21
21.41950290163244
 31
0.0
  0
LINE
  5
499
330
1F
100
AcDbEntity
  8
0
  6
SLD-Solid
 62
     7
370
    25
100
AcDbLine
 10
22.00481623558744
 20
22.64950290163245
 30
0.0
 11
22.00481623558744
 21
22.72950290163246
 31
0.0
  0
LINE
  5
49A
330
1F
100
AcDbEntity
  8
0
  6
SLD-Solid
 62
     7
370
    25
100
AcDbLine
 10
22.00481623558744
 20
22.72950290163246
 30
0.0
 11
28.92487520833025
 21
22.72950290163245
 31
0.0
  0
LINE
  5
49B
330
1F
100
AcDbEntity
  8
0
  6
SLD-Solid
 62
     7
370
    25
100
AcDbLine
 10
28.92487520833025
 20
22.64950290163244
 30
0.0
 11
28.92487520833025
 21
22.72950290163245
 31
0.0
  0
LINE
  5
49C
330
1F
100
AcDbEntity
  8
0
  6
SLD-Solid
 62
     7
370
    25
100
AcDbLine
 10
29.28070558668119
 20
22.54261289555203
 30
0.0
 11
29.28070558668119
 21
22.64950290163244
 31
0.0
  0
LINE
  5
49D
330
1F
100
AcDbEntity
  8
0
  6
SLD-Solid
 62
     7
370
    25
100
AcDbLine
 10
29.28070558668119
 20
22.54261289555203
 30
0.0
 11
29.23070558668119
 21
22.54261289555203
 31
0.0
  0
LINE
  5
49E
330
1F
100
AcDbEntity
  8
0
  6
SLD-Solid
 62
     7
370
    25
100
AcDbLine
 10
29.23070558668119
 20
22.54261289555203
 30
0.0
 11
29.23070558668119
 21
22.64950290163244
 31
0.0
  0
LINE
  5
49F
330
1F
100
AcDbEntity
  8
0
  6
SLD-Solid
 62
     7
370
    25
100
AcDbLine
 10
29.28070558668119
 20
22.64950290163244
 30
0.0
 11
29.23070558668119
 21
22.64950290163244
 31
0.0
  0
ARC
  5
4A0
330
1F
100
AcDbEntity
  8
0
  6
SLD-Solid
 62
     7
370
    25
100
AcDbCircle
 10
29.20070558668118
 20
22.64950290163245
 30
0.0
 40
0.0800000000000125
100
AcDbArc
 50
359.9999999999923
 51
90.0
  0
ARC
  5
4A1
330
1F
100
AcDbEntity
  8
0
  6
SLD-Solid
 62
     7
370
    25
100
AcDbCircle
 10
29.20070558668118
 20
22.64950290163245
 30
0.0
 40
0.0300000000000118
100
AcDbArc
 50
359.9999999999804
 51
90.0
  0
LINE
  5
4A2
330
1F
100
AcDbEntity
  8
0
  6
SLD-Solid
 62
     7
370
    25
100
AcDbLine
 10
29.20070558668118
 20
22.67950290163245
 30
0.0
 11
29.20070558668118
 21
22.72950290163245
 31
0.0
  0
LINE
  5
4A3
330
1F
100
AcDbEntity
  8
0
  6
SLD-Solid
 62
     7
370
    25
100
AcDbLine
 10
29.01987520833025
 20
22.72950290163245
 30
0.0
 11
29.01987520833025
 21
22.67950290163245
 31
0.0
  0
LINE
  5
4A4
330
1F
100
AcDbEntity
  8
0
  6
SLD-Solid
 62
     7
370
    25
100
AcDbLine
 10
29.20070558668118
 20
22.72950290163245
 30
0.0
 11
29.01987520833025
 21
22.72950290163245
 31
0.0
  0
LINE
  5
4A5
330
1F
100
AcDbEntity
  8
0
  6
SLD-Solid
 62
     7
370
    25
100
AcDbLine
 10
29.20070558668118
 20
22.67950290163245
 30
0.0
 11
29.01987520833025
 21
22.67950290163245
 31
0.0
  0
LINE
  5
4A6
330
1F
100
AcDbEntity
  8
0
  6
SLD-Solid
 62
     7
370
    25
100
AcDbLine
 10
29.28070558668119
 20
22.50802397433043
 30
0.0
 11
29.28070558668119
 21
22.54261289555203
 31
0.0
  0
LINE
  5
4A7
330
1F
100
AcDbEntity
  8
0
  6
SLD-Solid
 62
     7
370
    25
100
AcDbLine
 10
29.23070558668119
 20
22.50802397433043
 30
0.0
 11
29.23070558668119
 21
22.54261289555203
 31
0.0
  0
LINE
  5
4A8
330
1F
100
AcDbEntity
  8
0
  6
SLD-Solid
 62
     7
370
    25
100
AcDbLine
 10
28.94987520833025
 20
22.67950290163245
 30
0.0
 11
28.94987520833025
 21
22.72950290163245
 31
0.0
  0
LINE
  5
4A9
330
1F
100
AcDbEntity
  8
0
  6
SLD-Solid
 62
     7
370
    25
100
AcDbLine
 10
29.01987520833025
 20
22.72950290163245
 30
0.0
 11
28.94987520833025
 21
22.72950290163245
 31
0.0
  0
LINE
  5
4AA
330
1F
100
AcDbEntity
  8
0
  6
SLD-Solid
 62
     7
370
    25
100
AcDbLine
 10
29.01987520833025
 20
22.67950290163245
 30
0.0
 11
28.94987520833025
 21
22.67950290163245
 31
0.0
  0
LINE
  5
4AB
330
1F
100
AcDbEntity
  8
0
  6
SLD-Solid
 62
     7
370
    25
100
AcDbLine
 10
21.90981623558744
 20
22.72950290163245
 30
0.0
 11
21.90981623558744
 21
22.67950290163245
 31
0.0
  0
LINE
  5
4AC
330
1F
100
AcDbEntity
  8
0
  6
SLD-Solid
 62
     7
370
    25
100
AcDbLine
 10
21.72898585723651
 20
22.67950290163245
 30
0.0
 11
21.72898585723651
 21
22.72950290163245
 31
0.0
  0
LINE
  5
4AD
330
1F
100
AcDbEntity
  8
0
  6
SLD-Solid
 62
     7
370
    25
100
AcDbLine
 10
21.72898585723651
 20
22.72950290163245
 30
0.0
 11
21.90981623558744
 21
22.72950290163245
 31
0.0
  0
LINE
  5
4AE
330
1F
100
AcDbEntity
  8
0
  6
SLD-Solid
 62
     7
370
    25
100
AcDbLine
 10
21.72898585723651
 20
22.67950290163245
 30
0.0
 11
21.90981623558744
 21
22.67950290163245
 31
0.0
  0
LINE
  5
4AF
330
1F
100
AcDbEntity
  8
0
  6
SLD-Solid
 62
     7
370
    25
100
AcDbLine
 10
21.6489858572365
 20
22.64950290163245
 30
0.0
 11
21.69898585723651
 21
22.64950290163245
 31
0.0
  0
ARC
  5
4B0
330
1F
100
AcDbEntity
  8
0
  6
SLD-Solid
 62
     7
370
    25
100
AcDbCircle
 10
21.72898585723651
 20
22.64950290163245
 30
0.0
 40
0.080000000000009
100
AcDbArc
 50
90.0
 51
180.0000000000072
  0
ARC
  5
4B1
330
1F
100
AcDbEntity
  8
0
  6
SLD-Solid
 62
     7
370
    25
100
AcDbCircle
 10
21.72898585723651
 20
22.64950290163245
 30
0.0
 40
0.0300000000000047
100
AcDbArc
 50
90.0
 51
180.0000000000144
  0
LINE
  5
4B2
330
1F
100
AcDbEntity
  8
0
  6
SLD-Solid
 62
     7
370
    25
100
AcDbLine
 10
21.69898585723651
 20
22.54261289555203
 30
0.0
 11
21.69898585723651
 21
22.64950290163245
 31
0.0
  0
LINE
  5
4B3
330
1F
100
AcDbEntity
  8
0
  6
SLD-Solid
 62
     7
370
    25
100
AcDbLine
 10
21.6489858572365
 20
22.54261289555203
 30
0.0
 11
21.69898585723651
 21
22.54261289555203
 31
0.0
  0
LINE
  5
4B4
330
1F
100
AcDbEntity
  8
0
  6
SLD-Solid
 62
     7
370
    25
100
AcDbLine
 10
21.6489858572365
 20
22.54261289555203
 30
0.0
 11
21.6489858572365
 21
22.64950290163245
 31
0.0
  0
LINE
  5
4B5
330
1F
100
AcDbEntity
  8
0
  6
SLD-Solid
 62
     7
370
    25
100
AcDbLine
 10
21.97981623558744
 20
22.67950290163245
 30
0.0
 11
21.97981623558744
 21
22.72950290163245
 31
0.0
  0
LINE
  5
4B6
330
1F
100
AcDbEntity
  8
0
  6
SLD-Solid
 62
     7
370
    25
100
AcDbLine
 10
21.90981623558744
 20
22.72950290163245
 30
0.0
 11
21.97981623558744
 21
22.72950290163245
 31
0.0
  0
LINE
  5
4B7
330
1F
100
AcDbEntity
  8
0
  6
SLD-Solid
 62
     7
370
    25
100
AcDbLine
 10
21.90981623558744
 20
22.67950290163245
 30
0.0
 11
21.97981623558744
 21
22.67950290163245
 31
0.0
  0
LINE
  5
4B8
330
1F
100
AcDbEntity
  8
0
  6
SLD-Solid
 62
     7
370
    25
100
AcDbLine
 10
21.6489858572365
 20
22.50802397433044
 30
0.0
 11
21.6489858572365
 21
22.54261289555203
 31
0.0
  0
LINE
  5
4B9
330
1F
100
AcDbEntity
  8
0
  6
SLD-Solid
 62
     7
370
    25
100
AcDbLine
 10
21.69898585723651
 20
22.50802397433044
 30
0.0
 11
21.69898585723651
 21
22.54261289555203
 31
0.0
  0
LINE
  5
4BA
330
1F
100
AcDbEntity
  8
0
  6
SLD-Solid
 62
     7
370
    25
100
AcDbLine
 10
28.92487520833025
 20
22.72950290163245
 30
0.0
 11
28.94987520833025
 21
22.72950290163245
 31
0.0
  0
LINE
  5
4BB
330
1F
100
AcDbEntity
  8
0
  6
SLD-Solid
 62
     7
370
    25
100
AcDbLine
 10
28.94987520833025
 20
22.67950290163245
 30
0.0
 11
28.92487520833025
 21
22.67950290163245
 31
0.0
  0
LINE
  5
4BC
330
1F
100
AcDbEntity
  8
0
  6
SLD-Solid
 62
     7
370
    25
100
AcDbLine
 10
22.00481623558744
 20
22.72950290163245
 30
0.0
 11
21.97981623558744
 21
22.72950290163245
 31
0.0
  0
LINE
  5
4BD
330
1F
100
AcDbEntity
  8
0
  6
SLD-Solid
 62
     7
370
    25
100
AcDbLine
 10
21.97981623558744
 20
22.67950290163245
 30
0.0
 11
22.00481623558744
 21
22.67950290163245
 31
0.0
  0
LINE
  5
4BE
330
1F
100
AcDbEntity
  8
0
  6
SLD-Solid
 62
     7
370
    25
100
AcDbLine
 10
29.17734572195883
 20
8.549341202825442
 30
0.0
 11
29.17734572195883
 21
8.45451281246312
 31
0.0
  0
LINE
  5
4BF
330
1F
100
AcDbEntity
  8
0
  6
SLD-Solid
 62
     7
370
    25
100
AcDbLine
 10
21.75234572195884
 20
8.549341202825433
 30
0.0
 11
21.75234572195884
 21
8.454512812463108
 31
0.0
  0
LINE
  5
4C0
330
1F
100
AcDbEntity
  8
0
  6
SLD-Solid
 62
     7
370
    25
100
AcDbLine
 10
28.92886014360293
 20
8.915776963308895
 30
0.0
 11
28.89984572195881
 21
8.915776963308895
 31
0.0
  0
LINE
  5
4C1
330
1F
100
AcDbEntity
  8
0
  6
SLD-Solid
 62
     7
370
    25
100
AcDbLine
 10
22.02984572195881
 20
8.915776963308897
 30
0.0
 11
22.0008313003147
 21
8.915776963308897
 31
0.0
  0
LINE
  5
4C2
330
1F
100
AcDbEntity
  8
0
  6
SLD-Solid
 62
     7
370
    25
100
AcDbLine
 10
21.75234572195884
 20
8.35577696330891
 30
0.0
 11
21.75234572195884
 21
8.38451281246311
 31
0.0
  0
LINE
  5
4C3
330
1F
100
AcDbEntity
  8
0
  6
SLD-Solid
 62
     7
370
    25
100
AcDbLine
 10
29.17734572195883
 20
8.355776963308895
 30
0.0
 11
29.17734572195883
 21
8.38451281246312
 31
0.0
  0
LINE
  5
4C4
330
1F
100
AcDbEntity
  8
0
  6
SLD-Solid
 62
     7
370
    25
100
AcDbLine
 10
29.17734572195883
 20
8.355776963308895
 30
0.0
 11
21.75234572195884
 21
8.35577696330891
 31
0.0
  0
LINE
  5
4C5
330
1F
100
AcDbEntity
  8
0
  6
SLD-Solid
 62
     7
370
    25
100
AcDbLine
 10
29.25804566398076
 20
8.405776963308895
 30
0.0
 11
29.27734572195883
 21
8.405776963308895
 31
0.0
  0
LINE
  5
4C6
330
1F
100
AcDbEntity
  8
0
  6
SLD-Solid
 62
     7
370
    25
100
AcDbLine
 10
29.27734572195883
 20
8.405776963308895
 30
0.0
 11
29.27734572195883
 21
8.355776963308896
 31
0.0
  0
LINE
  5
4C7
330
1F
100
AcDbEntity
  8
0
  6
SLD-Solid
 62
     7
370
    25
100
AcDbLine
 10
29.27734572195883
 20
8.355776963308896
 30
0.0
 11
29.17734572195883
 21
8.355776963308895
 31
0.0
  0
LINE
  5
4C8
330
1F
100
AcDbEntity
  8
0
  6
SLD-Solid
 62
     7
370
    25
100
AcDbLine
 10
29.22734572195883
 20
8.471440921074816
 30
0.0
 11
29.22734572195884
 21
8.590591202824765
 31
0.0
  0
ARC
  5
4C9
330
1F
100
AcDbEntity
  8
0
  6
SLD-Solid
 62
     7
370
    25
100
AcDbCircle
 10
29.18734572195885
 20
8.445776963308896
 30
0.0
 40
0.0900000000000023
100
AcDbArc
 50
333.6122000387579
 51
341.9732567284208
  0
LINE
  5
4CA
330
1F
100
AcDbEntity
  8
0
  6
SLD-Solid
 62
     7
370
    25
100
AcDbLine
 10
21.70234572195885
 20
8.471440921074786
 30
0.0
 11
21.70234572195884
 21
8.590591202824756
 31
0.0
  0
ARC
  5
4CB
330
1F
100
AcDbEntity
  8
0
  6
SLD-Solid
 62
     7
370
    25
100
AcDbCircle
 10
21.74234572195883
 20
8.445776963308898
 30
0.0
 40
0.089999999999997
100
AcDbArc
 50
198.0267432791513
 51
270.0000000000053
  0
LINE
  5
4CC
330
1F
100
AcDbEntity
  8
0
  6
SLD-Solid
 62
     7
370
    25
100
AcDbLine
 10
21.75234572195884
 20
8.35577696330891
 30
0.0
 11
21.74234572195884
 21
8.35577696330891
 31
0.0
  0
LINE
  5
4CD
330
1F
100
AcDbEntity
  8
0
  6
SLD-Solid
 62
     7
370
    25
100
AcDbLine
 10
21.72898585723651
 20
22.7295029016324
 30
0.0
 11
21.70198585723651
 21
22.7295029016324
 31
0.0
  0
LINE
  5
4CE
330
1F
100
AcDbEntity
  8
0
  6
SLD-Solid
 62
     7
370
    25
100
AcDbLine
 10
29.20070558668117
 20
22.7295029016324
 30
0.0
 11
29.22770558668118
 21
22.7295029016324
 31
0.0
  0
LINE
  5
4CF
330
1F
100
AcDbEntity
  8
0
  6
SLD-Solid
 62
     7
370
    25
100
AcDbLine
 10
29.22770558668118
 20
22.7295029016324
 30
0.0
 11
29.22770558668118
 21
22.72480894388666
 31
0.0
  0
LINE
  5
4D0
330
1F
100
AcDbEntity
  8
0
  6
SLD-Solid
 62
     7
370
    25
100
AcDbLine
 10
21.70198585723651
 20
22.7295029016324
 30
0.0
 11
21.70198585723651
 21
22.72480894388666
 31
0.0
  0
LINE
  5
4D1
330
1F
100
AcDbEntity
  8
0
  6
SLD-Solid
 62
     7
370
    25
100
AcDbLine
 10
29.28070558668118
 20
22.64950290163245
 30
0.0
 11
29.28070558668118
 21
22.68718390026412
 31
0.0
  0
LWPOLYLINE
  5
4D2
330
1F
100
AcDbEntity
  8
0
  6
SLD-Solid
 62
     7
370
    25
100
AcDbPolyline
 90
        8
 70
   128
 43
0.0
 10
29.28070558668118
 20
22.68718390026412
 10
29.28012914509327
 20
22.69011025509436
 10
29.27842197265652
 20
22.6929241517496
 10
29.27564967505026
 20
22.69551745375942
 10
29.27191879011677
 20
22.69779050198192
 10
29.26737269367177
 20
22.69965594444866
 10
29.26218608965213
 20
22.70104209325179
 10
29.26183047314699
 20
22.70111441444274
  0
LINE
  5
4D3
330
1F
100
AcDbEntity
  8
0
  6
SLD-Solid
 62
     7
370
    25
100
AcDbLine
 10
21.64898585723651
 20
22.64950290163245
 30
0.0
 11
21.64898585723651
 21
22.68718390026412
 31
0.0
  0
LWPOLYLINE
  5
4D4
330
1F
100
AcDbEntity
  8
0
  6
SLD-Solid
 62
     7
370
    25
100
AcDbPolyline
 90
        8
 70
   128
 43
0.0
 10
21.64898585723651
 20
22.68718390026412
 10
21.64956229882441
 20
22.69011025509436
 10
21.65126947126117
 20
22.6929241517496
 10
21.65404176886744
 20
22.69551745375942
 10
21.65777265380092
 20
22.69779050198192
 10
21.66231875024592
 20
22.69965594444866
 10
21.66750535426556
 20
22.70104209325179
 10
21.66786097077248
 20
22.7011144144431
  0
LINE
  5
4D5
330
1F
100
AcDbEntity
  8
0
  6
SLD-Solid
 62
     8
370
    25
100
AcDbLine
 10
29.23984572195884
 20
8.504512812463123
 30
0.0
 11
29.28734572195886
 21
8.504512812463123
 31
0.0
  0
LINE
  5
4D6
330
1F
100
AcDbEntity
  8
0
  6
SLD-Solid
 62
     8
370
    25
100
AcDbLine
 10
21.68984572195884
 20
8.504512812463108
 30
0.0
 11
21.64234572195882
 21
8.504512812463108
 31
0.0
  0
LINE
  5
4D7
330
1F
100
AcDbEntity
  8
0
  6
SLD-Solid
 62
     8
370
    25
100
AcDbLine
 10
26.67422314447591
 20
21.57951281246312
 30
0.0
 11
26.27734572195886
 21
21.57951281246312
 31
0.0
  0
LINE
  5
4D8
330
1F
100
AcDbEntity
  8
0
  6
SLD-Solid
 62
     8
370
    25
100
AcDbLine
 10
24.65234572195886
 20
21.57951281246311
 30
0.0
 11
24.25546829944178
 21
21.57951281246311
 31
0.0
  0
LINE
  5
4D9
330
1F
100
AcDbEntity
  8
0
  6
SLD-Solid
 62
     8
370
    25
100
AcDbLine
 10
21.71398585723641
 20
22.67548366374594
 30
0.0
 11
22.00481623558741
 21
22.67548366374594
 31
0.0
  0
LINE
  5
4DA
330
1F
100
AcDbEntity
  8
0
  6
SLD-Solid
 62
     8
370
    25
100
AcDbLine
 10
28.92487520833022
 20
22.67548366374593
 30
0.0
 11
29.21570558668125
 21
22.67548366374593
 31
0.0
  0
LINE
  5
4DB
330
1F
100
AcDbEntity
  8
0
  6
SLD-Solid
 62
     8
370
    25
100
AcDbLine
 10
28.92886014360292
 20
21.72259691239999
 30
0.0
 11
28.92487520833021
 21
21.72259691239999
 31
0.0
  0
LINE
  5
4DC
330
1F
100
AcDbEntity
  8
0
  6
SLD-Solid
 62
     8
370
    25
100
AcDbLine
 10
26.91484572195881
 20
21.72259691239999
 30
0.0
 11
26.71484572195883
 21
21.72259691239999
 31
0.0
  0
LINE
  5
4DD
330
1F
100
AcDbEntity
  8
0
  6
SLD-Solid
 62
     8
370
    25
100
AcDbLine
 10
24.21484572195883
 20
21.72259691239999
 30
0.0
 11
24.0148457219588
 21
21.72259691239999
 31
0.0
  0
LINE
  5
4DE
330
1F
100
AcDbEntity
  8
0
  6
SLD-Solid
 62
     8
370
    25
100
AcDbLine
 10
22.0048162355874
 20
21.72259691239999
 30
0.0
 11
22.00083130031469
 21
21.72259691239999
 31
0.0
  0
LINE
  5
4DF
330
1F
100
AcDbEntity
  8
0
  6
SLD-Solid
 62
     8
370
    25
100
AcDbLine
 10
22.00083130031468
 20
9.970572314770731
 30
0.0
 11
22.0298457219588
 21
9.970572314770731
 31
0.0
  0
LINE
  5
4E0
330
1F
100
AcDbEntity
  8
0
  6
SLD-Solid
 62
     8
370
    25
100
AcDbLine
 10
28.89984572195879
 20
9.97057231477073
 30
0.0
 11
28.92886014360291
 21
9.97057231477073
 31
0.0
  0
LINE
  5
4E1
330
1F
100
AcDbEntity
  8
0
  6
SLD-Solid
 62
     8
370
    25
100
AcDbLine
 10
22.00083130031469
 20
21.69661615028645
 30
0.0
 11
22.0048162355874
 21
21.69661615028646
 31
0.0
  0
LINE
  5
4E2
330
1F
100
AcDbEntity
  8
0
  6
SLD-Solid
 62
     8
370
    25
100
AcDbLine
 10
24.0148457219588
 20
21.69661615028646
 30
0.0
 11
24.21484572195883
 21
21.69661615028646
 31
0.0
  0
LINE
  5
4E3
330
1F
100
AcDbEntity
  8
0
  6
SLD-Solid
 62
     8
370
    25
100
AcDbLine
 10
26.71484572195883
 20
21.69661615028645
 30
0.0
 11
26.91484572195881
 21
21.69661615028645
 31
0.0
  0
LINE
  5
4E4
330
1F
100
AcDbEntity
  8
0
  6
SLD-Solid
 62
     8
370
    25
100
AcDbLine
 10
28.92487520833021
 20
21.69661615028645
 30
0.0
 11
28.92886014360292
 21
21.69661615028645
 31
0.0
  0
LINE
  5
4E5
330
1F
100
AcDbEntity
  8
0
  6
SLD-Solid
 62
     8
370
    25
100
AcDbLine
 10
28.92886014360291
 20
9.992940030909566
 30
0.0
 11
28.89984572195879
 21
9.992940030909566
 31
0.0
  0
LINE
  5
4E6
330
1F
100
AcDbEntity
  8
0
  6
SLD-Solid
 62
     8
370
    25
100
AcDbLine
 10
22.0298457219588
 20
9.992940030909567
 30
0.0
 11
22.00083130031468
 21
9.992940030909567
 31
0.0
  0
CIRCLE
  5
4E7
330
1F
100
AcDbEntity
  8
0
  6
SLD-Center
 62
     7
370
    18
100
AcDbCircle
 10
27.96484572195882
 20
20.15951281246312
 30
0.0
 40
0.1600000000000014
  0
DIMENSION
  5
4E8
330
1F
100
AcDbEntity
  8
DIMS
100
AcDbDimension
  2
_D_1
 10
27.92343467474242
 20
20.00496468025688
 30
0.0
 11
29.5709285430453
 21
23.35955430878546
 31
0.0
 70
    35
  1
<>
 71
     1
 42
-1.0
  3
SLDDIMSTYLE2
100
AcDbDiametricDimension
 15
28.00625676917523
 25
20.31406094466938
 35
0.0
 40
0.0
  0
DIMENSION
  5
4F5
330
1F
100
AcDbEntity
  8
DIMS
100
AcDbDimension
  2
_D_2
 10
30.4997079266856
 20
10.15951281246312
 30
0.0
 11
30.4997079266856
 21
15.15951281246321
 31
0.0
 70
    32
  1
<>
 71
     2
 42
-1.0
  3
SLDDIMSTYLE3
100
AcDbAlignedDimension
 13
27.96484572195882
 23
20.15951281246312
 33
0.0
 14
27.96484572195884
 24
10.15951281246312
 34
0.0
 50
90.0000000000002
100
AcDbRotatedDimension
  0
DIMENSION
  5
501
330
1F
100
AcDbEntity
  8
DIMS
100
AcDbDimension
  2
_D_3
 10
27.96484572195882
 20
23.73101489419875
 30
0.0
 11
25.46484572195881
 21
23.73101489419875
 31
0.0
 70
    32
  1
<>
 71
     2
 42
-1.0
  3
SLDDIMSTYLE3
100
AcDbAlignedDimension
 13
22.96484572195882
 23
20.65951281246311
 33
0.0
 14
27.96484572195882
 24
20.65951281246312
 34
0.0
 50
0.0000000000000814
100
AcDbRotatedDimension
  0
DIMENSION
  5
50C
330
1F
100
AcDbEntity
  8
DIMS
100
AcDbDimension
  2
_D_4
 10
30.49970792668561
 20
8.355776963308895
 30
0.0
 11
30.49970792668561
 21
9.479871265221629
 31
0.0
 70
    32
  1
<>
 71
     2
 42
-1.0
  3
SLDDIMSTYLE0
100
AcDbAlignedDimension
 13
27.96484572195884
 23
10.15951281246312
 33
0.0
 14
29.27734572195886
 24
8.355776963308896
 34
0.0
 50
90.0000000000002
100
AcDbRotatedDimension
  0
DIMENSION
  5
51B
330
1F
100
AcDbEntity
  8
DIMS
100
AcDbDimension
  2
_D_5
 10
30.4997079266856
 20
22.72950290163245
 30
0.0
 11
30.4997079266856
 21
21.29490682359577
 31
0.0
 70
    32
  1
<>
 71
     2
 42
-1.0
  3
SLDDIMSTYLE0
100
AcDbAlignedDimension
 13
28.12484572195882
 23
20.15951281246312
 33
0.0
 14
29.01987520833025
 24
22.72950290163245
 34
0.0
 50
90.0000000000002
100
AcDbRotatedDimension
  0
DIMENSION
  5
52A
330
1F
100
AcDbEntity
  8
DIMS
100
AcDbDimension
  2
_D_6
 10
20.66620398967298
 20
20.65951281246311
 30
0.0
 11
20.66620398967298
 21
21.64125913326084
 31
0.0
 70
    32
  1
<>
 71
     2
 42
-1.0
  3
SLDDIMSTYLE0
100
AcDbAlignedDimension
 13
21.90981623558744
 23
22.72950290163245
 33
0.0
 14
22.96484572195882
 24
20.65951281246311
 34
0.0
 50
90.0000000000002
100
AcDbRotatedDimension
  0
DIMENSION
  5
539
330
1F
100
AcDbEntity
  8
DIMS
100
AcDbDimension
  2
_D_7
 10
23.0015999225383
 20
20.56651212031642
 30
0.0
 11
21.14914554133626
 21
23.35955430878554
 31
0.0
 70
    35
  1
<>
 71
     1
 42
-1.0
  3
SLDDIMSTYLE2
100
AcDbDiametricDimension
 15
22.92809152137934
 25
20.7525135046098
 35
0.0
 40
0.0
  0
DIMENSION
  5
545
330
1F
100
AcDbEntity
  8
DIMS
100
AcDbDimension
  2
_D_8
 10
20.6662039896729
 20
9.659512812463106
 30
0.0
 11
20.66620398967289
 21
15.1595128124633
 31
0.0
 70
    32
  1
<>
 71
     2
 42
-1.0
  3
SLDDIMSTYLE3
100
AcDbAlignedDimension
 13
22.96484572195882
 23
20.65951281246311
 33
0.0
 14
22.96484572195883
 24
9.65951281246311
 34
0.0
 50
90.0000000000002
100
AcDbRotatedDimension
  0
DIMENSION
  5
550
330
1F
100
AcDbEntity
  8
DIMS
100
AcDbDimension
  2
_D_9
 10
20.6662039896729
 20
8.355776963308912
 30
0.0
 11
20.6662039896729
 21
9.007644887886018
 31
0.0
 70
    32
  1
<>
 71
     2
 42
-1.0
  3
SLDDIMSTYLE4
100
AcDbAlignedDimension
 13
22.96484572195883
 23
9.65951281246311
 33
0.0
 14
21.74234572195886
 24
8.35577696330891
 34
0.0
 50
90.0000000000002
100
AcDbRotatedDimension
  0
MTEXT
  5
560
330
1F
100
AcDbEntity
  8
NOTES
100
AcDbMText
 10
24.01123361312913
 20
23.43954705501898
 30
0.0
 40
0.25
 41
0.0
 71
     1
 72
     1
  1
mounting holes (8)
  7
SLDTEXTSTYLE0
 73
     1
 44
1.0
  0
LEADER
  5
561
330
1F
100
AcDbEntity
  8
NOTES
100
AcDbLeader
  3
SLDDIMSTYLE1
 76
     3
 10
23.01984515769207
 20
20.74302964950227
 30
0.0
 10
23.73868110236224
 20
23.3199420414397
 30
0.0
 10
23.98868110236224
 20
23.3199420414397
 30
0.0
1001
ACAD
1000
DSTYLE
1002
{
1070
   176
1070
     0
1070
    77
1070
     0
1070
    40
1040
1.0
1070
   147
1040
0.0
1002
}
  0
LEADER
  5
562
330
1F
100
AcDbEntity
  8
NOTES
100
AcDbLeader
  3
SLDDIMSTYLE1
 76
     3
 10
27.84477205111519
 20
20.26525927136428
 30
0.0
 10
27.27064375708426
 20
23.3199420414397
 30
0.0
 10
27.02064375708426
 20
23.3199420414397
 30
0.0
1001
ACAD
1000
DSTYLE
1002
{
1070
   176
1070
     0
1070
    77
1070
     0
1070
    40
1040
1.0
1070
   147
1040
0.0
1002
}
  0
LINE
  5
563
330
1F
100
AcDbEntity
  8
0
  6
SLD-Solid
 62
     7
370
    25
100
AcDbLine
 10
6.316022401894513
 20
26.58963666468029
 30
0.0
 11
6.316022401894513
 21
26.48963666468029
 31
0.0
  0
LINE
  5
564
330
1F
100
AcDbEntity
  8
0
  6
SLD-Solid
 62
     7
370
    25
100
AcDbLine
 10
7.191022401894513
 20
26.48963666468029
 30
0.0
 11
7.191022401894513
 21
26.58963666468029
 31
0.0
  0
ARC
  5
565
330
1F
100
AcDbEntity
  8
0
  6
SLD-Solid
 62
     7
370
    25
100
AcDbCircle
 10
7.091022401894514
 20
26.48963666468029
 30
0.0
 40
0.1000000000000014
100
AcDbArc
 50
270.0000000000008
 51
0.0
  0
ARC
  5
566
330
1F
100
AcDbEntity
  8
0
  6
SLD-Solid
 62
     7
370
    25
100
AcDbCircle
 10
6.416022401894514
 20
26.48963666468029
 30
0.0
 40
0.1000000000000014
100
AcDbArc
 50
180.0
 51
270.0000000000008
  0
LINE
  5
567
330
1F
100
AcDbEntity
  8
0
  6
SLD-Solid
 62
     7
370
    25
100
AcDbLine
 10
2.881022401894499
 20
29.93747199162243
 30
0.0
 11
2.851022401891414
 21
29.93747199162243
 31
0.0
  0
LINE
  5
568
330
1F
100
AcDbEntity
  8
0
  6
SLD-Solid
 62
     7
370
    25
100
AcDbLine
 10
2.851022401891414
 20
29.55747199162243
 30
0.0
 11
2.881022401894499
 21
29.55747199162243
 31
0.0
  0
LINE
  5
569
330
1F
100
AcDbEntity
  8
0
  6
SLD-Solid
 62
     7
370
    25
100
AcDbLine
 10
2.851022401891414
 20
29.93747199162243
 30
0.0
 11
2.821022401892174
 21
29.84514148550712
 31
0.0
  0
LINE
  5
56A
330
1F
100
AcDbEntity
  8
0
  6
SLD-Solid
 62
     7
370
    25
100
AcDbLine
 10
2.821022401892174
 20
29.64980249773774
 30
0.0
 11
2.851022401891414
 21
29.55747199162243
 31
0.0
  0
LINE
  5
56B
330
1F
100
AcDbEntity
  8
0
  6
SLD-Solid
 62
     7
370
    25
100
AcDbLine
 10
10.62602240189308
 20
29.55747199162242
 30
0.0
 11
10.65602240189617
 21
29.55747199162242
 31
0.0
  0
LINE
  5
56C
330
1F
100
AcDbEntity
  8
0
  6
SLD-Solid
 62
     7
370
    25
100
AcDbLine
 10
10.65602240189617
 20
29.93747199162243
 30
0.0
 11
10.62602240189308
 21
29.93747199162243
 31
0.0
  0
LINE
  5
56D
330
1F
100
AcDbEntity
  8
0
  6
SLD-Solid
 62
     7
370
    25
100
AcDbLine
 10
10.65602240189617
 20
29.55747199162242
 30
0.0
 11
10.68602240189541
 21
29.64980249773773
 31
0.0
  0
LINE
  5
56E
330
1F
100
AcDbEntity
  8
0
  6
SLD-Solid
 62
     7
370
    25
100
AcDbLine
 10
10.68602240189541
 20
29.84514148550712
 30
0.0
 11
10.65602240189617
 21
29.93747199162243
 31
0.0
  0
LINE
  5
56F
330
1F
100
AcDbEntity
  8
0
  6
SLD-Solid
 62
     7
370
    25
100
AcDbLine
 10
6.753522401894517
 20
26.38963666468029
 30
0.0
 11
6.416022401894514
 21
26.38963666468029
 31
0.0
  0
LINE
  5
570
330
1F
100
AcDbEntity
  8
0
  6
SLD-Solid
 62
     7
370
    25
100
AcDbLine
 10
7.091022401894514
 20
26.38963666468029
 30
0.0
 11
6.753522401894517
 21
26.38963666468029
 31
0.0
  0
LINE
  5
571
330
1F
100
AcDbEntity
  8
0
  6
SLD-Solid
 62
     7
370
    25
100
AcDbLine
 10
2.851022401891414
 20
29.92641548827386
 30
0.0
 11
2.851022401891414
 21
29.55747199162243
 31
0.0
  0
LINE
  5
572
330
1F
100
AcDbEntity
  8
0
  6
SLD-Solid
 62
     7
370
    25
100
AcDbLine
 10
2.851022401891414
 20
29.93747199162243
 30
0.0
 11
2.851022401891414
 21
29.92641548827386
 31
0.0
  0
LINE
  5
573
330
1F
100
AcDbEntity
  8
0
  6
SLD-Solid
 62
     7
370
    25
100
AcDbLine
 10
2.821022401892174
 20
29.84514148550712
 30
0.0
 11
2.821022401892174
 21
29.64980249773774
 31
0.0
  0
LINE
  5
574
330
1F
100
AcDbEntity
  8
0
  6
SLD-Solid
 62
     7
370
    25
100
AcDbLine
 10
10.65602240189617
 20
29.90306135731329
 30
0.0
 11
10.65602240189617
 21
29.93747199162243
 31
0.0
  0
LINE
  5
575
330
1F
100
AcDbEntity
  8
0
  6
SLD-Solid
 62
     7
370
    25
100
AcDbLine
 10
10.65602240189617
 20
29.55747199162242
 30
0.0
 11
10.65602240189617
 21
29.90306135731329
 31
0.0
  0
LINE
  5
576
330
1F
100
AcDbEntity
  8
0
  6
SLD-Solid
 62
     7
370
    25
100
AcDbLine
 10
10.68602240189541
 20
29.82745270004805
 30
0.0
 11
10.68602240189541
 21
29.84514148550712
 31
0.0
  0
LINE
  5
577
330
1F
100
AcDbEntity
  8
0
  6
SLD-Solid
 62
     7
370
    25
100
AcDbLine
 10
10.68602240189541
 20
29.64980249773773
 30
0.0
 11
10.68602240189541
 21
29.82745270004805
 31
0.0
  0
LINE
  5
578
330
1F
100
AcDbEntity
  8
0
  6
SLD-Solid
 62
     7
370
    25
100
AcDbLine
 10
3.649180695248318
 20
32.52747199162243
 30
0.0
 11
3.649180695248318
 21
32.45747199162243
 31
0.0
  0
LINE
  5
579
330
1F
100
AcDbEntity
  8
0
  6
SLD-Solid
 62
     7
370
    25
100
AcDbLine
 10
3.774180695248318
 20
32.52747199162243
 30
0.0
 11
3.649180695248318
 21
32.52747199162243
 31
0.0
  0
LINE
  5
57A
330
1F
100
AcDbEntity
  8
0
  6
SLD-Solid
 62
     7
370
    25
100
AcDbLine
 10
3.774180695248318
 20
32.45747199162243
 30
0.0
 11
3.774180695248318
 21
32.52747199162243
 31
0.0
  0
LINE
  5
57B
330
1F
100
AcDbEntity
  8
0
  6
SLD-Solid
 62
     7
370
    25
100
AcDbLine
 10
3.649180695248318
 20
32.45747199162243
 30
0.0
 11
3.774180695248318
 21
32.45747199162243
 31
0.0
  0
LINE
  5
57C
330
1F
100
AcDbEntity
  8
0
  6
SLD-Solid
 62
     7
370
    25
100
AcDbLine
 10
4.324380537584743
 20
32.52747199162243
 30
0.0
 11
4.324380537584743
 21
32.45747199162243
 31
0.0
  0
LINE
  5
57D
330
1F
100
AcDbEntity
  8
0
  6
SLD-Solid
 62
     7
370
    25
100
AcDbLine
 10
4.449380537584742
 20
32.52747199162243
 30
0.0
 11
4.324380537584743
 21
32.52747199162243
 31
0.0
  0
LINE
  5
57E
330
1F
100
AcDbEntity
  8
0
  6
SLD-Solid
 62
     7
370
    25
100
AcDbLine
 10
4.449380537584742
 20
32.45747199162243
 30
0.0
 11
4.449380537584742
 21
32.52747199162243
 31
0.0
  0
LINE
  5
57F
330
1F
100
AcDbEntity
  8
0
  6
SLD-Solid
 62
     7
370
    25
100
AcDbLine
 10
4.324380537584743
 20
32.45747199162243
 30
0.0
 11
4.449380537584742
 21
32.45747199162243
 31
0.0
  0
LINE
  5
580
330
1F
100
AcDbEntity
  8
0
  6
SLD-Solid
 62
     7
370
    25
100
AcDbLine
 10
4.324380537584743
 20
32.52747199162243
 30
0.0
 11
3.774180695248318
 21
32.52747199162243
 31
0.0
  0
LINE
  5
581
330
1F
100
AcDbEntity
  8
0
  6
SLD-Solid
 62
     7
370
    25
100
AcDbLine
 10
4.324380537584743
 20
32.45747199162243
 30
0.0
 11
3.774180695248318
 21
32.45747199162243
 31
0.0
  0
LINE
  5
582
330
1F
100
AcDbEntity
  8
0
  6
SLD-Solid
 62
     7
370
    25
100
AcDbLine
 10
9.732864108540719
 20
32.45747199162243
 30
0.0
 11
9.732864108540719
 21
32.52747199162243
 31
0.0
  0
LINE
  5
583
330
1F
100
AcDbEntity
  8
0
  6
SLD-Solid
 62
     7
370
    25
100
AcDbLine
 10
9.85786410854072
 20
32.52747199162243
 30
0.0
 11
9.85786410854072
 21
32.45747199162243
 31
0.0
  0
LINE
  5
584
330
1F
100
AcDbEntity
  8
0
  6
SLD-Solid
 62
     7
370
    25
100
AcDbLine
 10
9.732864108540719
 20
32.52747199162243
 30
0.0
 11
9.85786410854072
 21
32.52747199162243
 31
0.0
  0
LINE
  5
585
330
1F
100
AcDbEntity
  8
0
  6
SLD-Solid
 62
     7
370
    25
100
AcDbLine
 10
9.85786410854072
 20
32.45747199162243
 30
0.0
 11
9.732864108540719
 21
32.45747199162243
 31
0.0
  0
LINE
  5
586
330
1F
100
AcDbEntity
  8
0
  6
SLD-Solid
 62
     7
370
    25
100
AcDbLine
 10
9.057664266204295
 20
32.45747199162243
 30
0.0
 11
9.057664266204295
 21
32.52747199162243
 31
0.0
  0
LINE
  5
587
330
1F
100
AcDbEntity
  8
0
  6
SLD-Solid
 62
     7
370
    25
100
AcDbLine
 10
9.182664266204295
 20
32.52747199162243
 30
0.0
 11
9.182664266204295
 21
32.45747199162243
 31
0.0
  0
LINE
  5
588
330
1F
100
AcDbEntity
  8
0
  6
SLD-Solid
 62
     7
370
    25
100
AcDbLine
 10
9.057664266204295
 20
32.52747199162243
 30
0.0
 11
9.182664266204295
 21
32.52747199162243
 31
0.0
  0
LINE
  5
589
330
1F
100
AcDbEntity
  8
0
  6
SLD-Solid
 62
     7
370
    25
100
AcDbLine
 10
9.182664266204295
 20
32.45747199162243
 30
0.0
 11
9.057664266204295
 21
32.45747199162243
 31
0.0
  0
LINE
  5
58A
330
1F
100
AcDbEntity
  8
0
  6
SLD-Solid
 62
     7
370
    25
100
AcDbLine
 10
9.182664266204295
 20
32.52747199162243
 30
0.0
 11
9.732864108540719
 21
32.52747199162243
 31
0.0
  0
LINE
  5
58B
330
1F
100
AcDbEntity
  8
0
  6
SLD-Solid
 62
     7
370
    25
100
AcDbLine
 10
9.182664266204295
 20
32.45747199162243
 30
0.0
 11
9.732864108540719
 21
32.45747199162243
 31
0.0
  0
LINE
  5
58C
330
1F
100
AcDbEntity
  8
0
  6
SLD-Solid
 62
     7
370
    25
100
AcDbLine
 10
9.022664266204277
 20
32.41804645609777
 30
0.0
 11
9.022664266204275
 21
32.52747199162243
 31
0.0
  0
LINE
  5
58D
330
1F
100
AcDbEntity
  8
0
  6
SLD-Solid
 62
     7
370
    25
100
AcDbLine
 10
4.48438053758476
 20
32.52747199162243
 30
0.0
 11
4.48438053758476
 21
32.41804645609778
 31
0.0
  0
LINE
  5
58E
330
1F
100
AcDbEntity
  8
0
  6
SLD-Solid
 62
     7
370
    25
100
AcDbLine
 10
4.48438053758476
 20
32.52747199162243
 30
0.0
 11
9.022664266204275
 21
32.52747199162243
 31
0.0
  0
ARC
  5
58F
330
1F
100
AcDbEntity
  8
0
  6
SLD-Solid
 62
     7
370
    25
100
AcDbCircle
 10
3.438522401894518
 20
32.40747199162244
 30
0.0
 40
0.12
100
AcDbArc
 50
90.0
 51
174.9445078291553
  0
LINE
  5
590
330
1F
100
AcDbEntity
  8
0
  6
SLD-Solid
 62
     7
370
    25
100
AcDbLine
 10
3.438522401894518
 20
32.45747199162243
 30
0.0
 11
3.438522401894518
 21
32.52747199162243
 31
0.0
  0
ARC
  5
591
330
1F
100
AcDbEntity
  8
0
  6
SLD-Solid
 62
     7
370
    25
100
AcDbCircle
 10
3.438522401894518
 20
32.40747199162244
 30
0.0
 40
0.0499999999999996
100
AcDbArc
 50
90.0
 51
167.790357299101
  0
LINE
  5
592
330
1F
100
AcDbEntity
  8
0
  6
SLD-Solid
 62
     7
370
    25
100
AcDbLine
 10
3.438522401894518
 20
32.52747199162243
 30
0.0
 11
3.649180695248317
 21
32.52747199162243
 31
0.0
  0
LINE
  5
593
330
1F
100
AcDbEntity
  8
0
  6
SLD-Solid
 62
     7
370
    25
100
AcDbLine
 10
3.438522401894518
 20
32.45747199162243
 30
0.0
 11
3.649180695248317
 21
32.45747199162243
 31
0.0
  0
LINE
  5
594
330
1F
100
AcDbEntity
  8
0
  6
SLD-Solid
 62
     7
370
    25
100
AcDbLine
 10
4.449380537584741
 20
32.52747199162243
 30
0.0
 11
4.48438053758476
 21
32.52747199162243
 31
0.0
  0
LINE
  5
595
330
1F
100
AcDbEntity
  8
0
  6
SLD-Solid
 62
     7
370
    25
100
AcDbLine
 10
4.449380537584741
 20
32.45747199162243
 30
0.0
 11
4.48438053758476
 21
32.45747199162243
 31
0.0
  0
LINE
  5
596
330
1F
100
AcDbEntity
  8
0
  6
SLD-Solid
 62
     7
370
    25
100
AcDbLine
 10
9.057664266204293
 20
32.52747199162243
 30
0.0
 11
9.022664266204277
 21
32.52747199162243
 31
0.0
  0
LINE
  5
597
330
1F
100
AcDbEntity
  8
0
  6
SLD-Solid
 62
     7
370
    25
100
AcDbLine
 10
9.057664266204293
 20
32.45747199162243
 30
0.0
 11
9.022664266204277
 21
32.45747199162243
 31
0.0
  0
LINE
  5
598
330
1F
100
AcDbEntity
  8
0
  6
SLD-Solid
 62
     7
370
    25
100
AcDbLine
 10
10.06852240189452
 20
32.45747199162243
 30
0.0
 11
10.06852240189452
 21
32.52747199162243
 31
0.0
  0
ARC
  5
599
330
1F
100
AcDbEntity
  8
0
  6
SLD-Solid
 62
     7
370
    25
100
AcDbCircle
 10
10.06852240189452
 20
32.40747199162244
 30
0.0
 40
0.1199999999999996
100
AcDbArc
 50
5.055492170837913
 51
90.0
  0
ARC
  5
59A
330
1F
100
AcDbEntity
  8
0
  6
SLD-Solid
 62
     7
370
    25
100
AcDbCircle
 10
10.06852240189452
 20
32.40747199162244
 30
0.0
 40
0.0500000000000001
100
AcDbArc
 50
12.20964270088222
 51
90.0
  0
LINE
  5
59B
330
1F
100
AcDbEntity
  8
0
  6
SLD-Solid
 62
     7
370
    25
100
AcDbLine
 10
10.06852240189452
 20
32.52747199162243
 30
0.0
 11
9.85786410854072
 21
32.52747199162243
 31
0.0
  0
LINE
  5
59C
330
1F
100
AcDbEntity
  8
0
  6
SLD-Solid
 62
     7
370
    25
100
AcDbLine
 10
10.06852240189452
 20
32.45747199162243
 30
0.0
 11
9.85786410854072
 21
32.45747199162243
 31
0.0
  0
LINE
  5
59D
330
1F
100
AcDbEntity
  8
0
  6
SLD-Solid
 62
     7
370
    25
100
AcDbLine
 10
2.937662537172149
 20
32.37247199162243
 30
0.0
 11
2.931022401894473
 21
32.37247199162243
 31
0.0
  0
LINE
  5
59E
330
1F
100
AcDbEntity
  8
0
  6
SLD-Solid
 62
     7
370
    25
100
AcDbLine
 10
2.931022401894488
 20
29.20747199162243
 30
0.0
 11
2.937662537172157
 21
29.20747199162243
 31
0.0
  0
LINE
  5
59F
330
1F
100
AcDbEntity
  8
0
  6
SLD-Solid
 62
     7
370
    25
100
AcDbLine
 10
10.56938226661683
 20
32.37247199162243
 30
0.0
 11
10.57602240189451
 21
32.37247199162243
 31
0.0
  0
LINE
  5
5A0
330
1F
100
AcDbEntity
  8
0
  6
SLD-Solid
 62
     7
370
    25
100
AcDbLine
 10
10.57602240189449
 20
29.20747199162243
 30
0.0
 11
10.56938226661683
 21
29.20747199162243
 31
0.0
  0
LINE
  5
5A1
330
1F
100
AcDbEntity
  8
0
  6
SLD-Solid
 62
     7
370
    25
100
AcDbLine
 10
9.963522401894497
 20
32.45747199162243
 30
0.0
 11
9.963522401894497
 21
32.41804645609772
 31
0.0
  0
LINE
  5
5A2
330
1F
100
AcDbEntity
  8
0
  6
SLD-Solid
 62
     7
370
    25
100
AcDbLine
 10
3.543522401894499
 20
32.45747199162243
 30
0.0
 11
3.543522401894499
 21
32.41804645609773
 31
0.0
  0
LINE
  5
5A3
330
1F
100
AcDbEntity
  8
0
  6
SLD-Solid
 62
     7
370
    25
100
AcDbLine
 10
10.27155721665495
 20
32.37247199162243
 30
0.0
 11
10.21355188826589
 21
32.37247199162243
 31
0.0
  0
LINE
  5
5A4
330
1F
100
AcDbEntity
  8
0
  6
SLD-Solid
 62
     7
370
    25
100
AcDbLine
 10
3.235487587134033
 20
32.37247199162243
 30
0.0
 11
3.29349291552309
 21
32.37247199162243
 31
0.0
  0
LINE
  5
5A5
330
1F
100
AcDbEntity
  8
0
  6
SLD-Solid
 62
     7
370
    25
100
AcDbLine
 10
3.293492915523087
 20
32.41804645609777
 30
0.0
 11
3.293492915523087
 21
32.33804645609777
 31
0.0
  0
LINE
  5
5A6
330
1F
100
AcDbEntity
  8
0
  6
SLD-Solid
 62
     7
370
    25
100
AcDbLine
 10
10.21355188826589
 20
32.41804645609777
 30
0.0
 11
3.293492915523087
 21
32.41804645609777
 31
0.0
  0
LINE
  5
5A7
330
1F
100
AcDbEntity
  8
0
  6
SLD-Solid
 62
     7
370
    25
100
AcDbLine
 10
10.21355188826589
 20
32.33804645609777
 30
0.0
 11
3.293492915523087
 21
32.33804645609777
 31
0.0
  0
LINE
  5
5A8
330
1F
100
AcDbEntity
  8
0
  6
SLD-Solid
 62
     7
370
    25
100
AcDbLine
 10
10.21355188826589
 20
32.41804645609777
 30
0.0
 11
10.21355188826589
 21
32.33804645609777
 31
0.0
  0
LINE
  5
5A9
330
1F
100
AcDbEntity
  8
0
  6
SLD-Solid
 62
     7
370
    25
100
AcDbLine
 10
10.48938226661682
 20
28.32008493187071
 30
0.0
 11
10.48938226661683
 21
32.38304645609778
 31
0.0
  0
LINE
  5
5AA
330
1F
100
AcDbEntity
  8
0
  6
SLD-Solid
 62
     7
370
    25
100
AcDbLine
 10
10.48938226661682
 20
28.32008493187071
 30
0.0
 11
3.017662537172161
 21
28.32008493187071
 31
0.0
  0
LINE
  5
5AB
330
1F
100
AcDbEntity
  8
0
  6
SLD-Solid
 62
     7
370
    25
100
AcDbLine
 10
3.017662537172161
 20
28.32008493187071
 30
0.0
 11
3.017662537172156
 21
32.38304645609778
 31
0.0
  0
LINE
  5
5AC
330
1F
100
AcDbEntity
  8
0
  6
SLD-Solid
 62
     7
370
    25
100
AcDbLine
 10
3.017662537172156
 20
32.38304645609778
 30
0.0
 11
3.198492915523087
 21
32.38304645609777
 31
0.0
  0
ARC
  5
5AD
330
1F
100
AcDbEntity
  8
0
  6
SLD-Solid
 62
     7
370
    25
100
AcDbCircle
 10
3.198492915523087
 20
32.31304645609777
 30
0.0
 40
0.0700000000000003
100
AcDbArc
 50
0.0
 51
90.0
  0
LINE
  5
5AE
330
1F
100
AcDbEntity
  8
0
  6
SLD-Solid
 62
     7
370
    25
100
AcDbLine
 10
3.293492915523087
 20
32.31304645609778
 30
0.0
 11
3.268492915523087
 21
32.31304645609777
 31
0.0
  0
LINE
  5
5AF
330
1F
100
AcDbEntity
  8
0
  6
SLD-Solid
 62
     7
370
    25
100
AcDbLine
 10
3.293492915523087
 20
32.33804645609777
 30
0.0
 11
3.293492915523087
 21
32.31304645609778
 31
0.0
  0
LINE
  5
5B0
330
1F
100
AcDbEntity
  8
0
  6
SLD-Solid
 62
     7
370
    25
100
AcDbLine
 10
10.21355188826589
 20
32.31304645609778
 30
0.0
 11
10.2385518882659
 21
32.31304645609778
 31
0.0
  0
ARC
  5
5B1
330
1F
100
AcDbEntity
  8
0
  6
SLD-Solid
 62
     7
370
    25
100
AcDbCircle
 10
10.30855188826589
 20
32.31304645609777
 30
0.0
 40
0.0700000000000003
100
AcDbArc
 50
90.0
 51
179.9999999999942
  0
LINE
  5
5B2
330
1F
100
AcDbEntity
  8
0
  6
SLD-Solid
 62
     7
370
    25
100
AcDbLine
 10
10.48938226661683
 20
32.38304645609778
 30
0.0
 11
10.30855188826589
 21
32.38304645609777
 31
0.0
  0
CIRCLE
  5
5B3
330
1F
100
AcDbEntity
  8
0
  6
SLD-Solid
 62
     7
370
    25
100
AcDbCircle
 10
6.753522401894489
 20
29.52728493187072
 30
0.0
 40
0.6875000000000036
  0
LINE
  5
5B4
330
1F
100
AcDbEntity
  8
0
  6
SLD-Solid
 62
     7
370
    25
100
AcDbLine
 10
10.21355188826589
 20
32.33804645609777
 30
0.0
 11
10.21355188826589
 21
32.31304645609778
 31
0.0
  0
LINE
  5
5B5
330
1F
100
AcDbEntity
  8
0
  6
SLD-Solid
 62
     7
370
    25
100
AcDbLine
 10
10.56938226661682
 20
28.32008493187071
 30
0.0
 11
10.56938226661683
 21
32.38304645609778
 31
0.0
  0
LINE
  5
5B6
330
1F
100
AcDbEntity
  8
0
  6
SLD-Solid
 62
     7
370
    25
100
AcDbLine
 10
10.56938226661682
 20
28.32008493187071
 30
0.0
 11
10.51638226661682
 21
28.32008493187071
 31
0.0
  0
LINE
  5
5B7
330
1F
100
AcDbEntity
  8
0
  6
SLD-Solid
 62
     7
370
    25
100
AcDbLine
 10
10.48938226661683
 20
32.38304645609778
 30
0.0
 11
10.56938226661683
 21
32.38304645609778
 31
0.0
  0
LINE
  5
5B8
330
1F
100
AcDbEntity
  8
0
  6
SLD-Solid
 62
     7
370
    25
100
AcDbLine
 10
2.937662537172159
 20
28.32008493187071
 30
0.0
 11
2.937662537172149
 21
32.38304645609778
 31
0.0
  0
LINE
  5
5B9
330
1F
100
AcDbEntity
  8
0
  6
SLD-Solid
 62
     7
370
    25
100
AcDbLine
 10
3.017662537172156
 20
32.38304645609778
 30
0.0
 11
2.937662537172149
 21
32.38304645609778
 31
0.0
  0
LINE
  5
5BA
330
1F
100
AcDbEntity
  8
0
  6
SLD-Solid
 62
     7
370
    25
100
AcDbLine
 10
2.937662537172159
 20
28.32008493187071
 30
0.0
 11
2.990662537172158
 21
28.32008493187071
 31
0.0
  0
LINE
  5
5BB
330
1F
100
AcDbEntity
  8
0
  6
SLD-Solid
 62
     7
370
    25
100
AcDbLine
 10
10.51638226661682
 20
28.32008493187072
 30
0.0
 11
10.51638226661682
 21
28.28008493187072
 31
0.0
  0
LINE
  5
5BC
330
1F
100
AcDbEntity
  8
0
  6
SLD-Solid
 62
     7
370
    25
100
AcDbLine
 10
10.51638226661682
 20
28.28008493187072
 30
0.0
 11
2.990662537172158
 21
28.28008493187071
 31
0.0
  0
LINE
  5
5BD
330
1F
100
AcDbEntity
  8
0
  6
SLD-Solid
 62
     7
370
    25
100
AcDbLine
 10
2.990662537172157
 20
28.32008493187072
 30
0.0
 11
2.990662537172158
 21
28.28008493187071
 31
0.0
  0
LINE
  5
5BE
330
1F
100
AcDbEntity
  8
0
  6
SLD-Solid
 62
     7
370
    25
100
AcDbLine
 10
3.017662537172161
 20
28.32008493187071
 30
0.0
 11
2.990662537172157
 21
28.32008493187072
 31
0.0
  0
LINE
  5
5BF
330
1F
100
AcDbEntity
  8
0
  6
SLD-Solid
 62
     7
370
    25
100
AcDbLine
 10
10.48938226661682
 20
28.32008493187071
 30
0.0
 11
10.51638226661682
 21
28.32008493187072
 31
0.0
  0
ARC
  5
5C0
330
1F
100
AcDbEntity
  8
0
  6
SLD-Solid
 62
     7
370
    25
100
AcDbCircle
 10
10.23687022901436
 20
26.86143947287957
 30
0.0
 40
0.3325127313504812
100
AcDbArc
 50
334.8862514069311
 51
359.882959965684
  0
ARC
  5
5C1
330
1F
100
AcDbEntity
  8
0
  6
SLD-Solid
 62
     7
370
    25
100
AcDbCircle
 10
10.32656619745701
 20
26.87755585871475
 30
0.0
 40
0.2634529157183785
100
AcDbArc
 50
271.5583651750059
 51
323.3557870169216
  0
LINE
  5
5C2
330
1F
100
AcDbEntity
  8
0
  6
SLD-Solid
 62
     7
370
    25
100
AcDbLine
 10
10.33373086535045
 20
26.63604761616958
 30
0.0
 11
10.33373086535045
 21
26.61420038348309
 31
0.0
  0
LINE
  5
5C3
330
1F
100
AcDbEntity
  8
0
  6
SLD-Solid
 62
     7
370
    25
100
AcDbLine
 10
10.31602240189449
 20
26.63604761616958
 30
0.0
 11
10.33373086535045
 21
26.63604761616958
 31
0.0
  0
LINE
  5
5C4
330
1F
100
AcDbEntity
  8
0
  6
SLD-Solid
 62
     7
370
    25
100
AcDbLine
 10
10.31602240189449
 20
26.62963666468028
 30
0.0
 11
10.31602240189449
 21
26.63604761616958
 31
0.0
  0
LINE
  5
5C5
330
1F
100
AcDbEntity
  8
0
  6
SLD-Solid
 62
     7
370
    25
100
AcDbLine
 10
10.31602240189449
 20
26.62963666468028
 30
0.0
 11
3.191022401894492
 21
26.62963666468028
 31
0.0
  0
LINE
  5
5C6
330
1F
100
AcDbEntity
  8
0
  6
SLD-Solid
 62
     7
370
    25
100
AcDbLine
 10
3.191022401894492
 20
26.62963666468028
 30
0.0
 11
3.191022401894492
 21
26.63604761616958
 31
0.0
  0
LINE
  5
5C7
330
1F
100
AcDbEntity
  8
0
  6
SLD-Solid
 62
     7
370
    25
100
AcDbLine
 10
3.191022401894492
 20
26.63604761616958
 30
0.0
 11
3.173313938438531
 21
26.63604761616958
 31
0.0
  0
LINE
  5
5C8
330
1F
100
AcDbEntity
  8
0
  6
SLD-Solid
 62
     7
370
    25
100
AcDbLine
 10
3.173313938438531
 20
26.63604761616958
 30
0.0
 11
3.173313938438531
 21
26.61420038348309
 31
0.0
  0
ARC
  5
5C9
330
1F
100
AcDbEntity
  8
0
  6
SLD-Solid
 62
     7
370
    25
100
AcDbCircle
 10
3.180478606331963
 20
26.87755585871474
 30
0.0
 40
0.2634529157183701
100
AcDbArc
 50
216.6442129830798
 51
268.4416348249981
  0
ARC
  5
5CA
330
1F
100
AcDbEntity
  8
0
  6
SLD-Solid
 62
     7
370
    25
100
AcDbCircle
 10
3.270174574774695
 20
26.86143947287958
 30
0.0
 40
0.3325127313505501
100
AcDbArc
 50
180.1170400343206
 51
205.113748593067
  0
LINE
  5
5CB
330
1F
100
AcDbEntity
  8
0
  6
SLD-Solid
 62
     7
370
    25
100
AcDbLine
 10
2.937662537172152
 20
26.86076023830498
 30
0.0
 11
2.937662537172157
 21
28.22535033598077
 31
0.0
  0
ARC
  5
5CC
330
1F
100
AcDbEntity
  8
0
  6
SLD-Solid
 62
     7
370
    25
100
AcDbCircle
 10
2.96578753717216
 20
28.2231852724713
 30
0.0
 40
0.028208210240997
100
AcDbArc
 50
86.18873895054251
 51
175.5980503477168
  0
LINE
  5
5CD
330
1F
100
AcDbEntity
  8
0
  6
SLD-Solid
 62
     7
370
    25
100
AcDbLine
 10
2.970662537172158
 20
28.2513310980943
 30
0.0
 11
2.967662537172157
 21
28.2513310980943
 31
0.0
  0
ARC
  5
5CE
330
1F
100
AcDbEntity
  8
0
  6
SLD-Solid
 62
     7
370
    25
100
AcDbCircle
 10
2.971912537172157
 20
28.27009498184296
 30
0.0
 40
0.0188054734939959
100
AcDbArc
 50
266.188738950541
 51
355.5980503477392
  0
LINE
  5
5CF
330
1F
100
AcDbEntity
  8
0
  6
SLD-Solid
 62
     7
370
    25
100
AcDbLine
 10
2.990662537172158
 20
28.28008493187071
 30
0.0
 11
2.990662537172158
 21
28.26865160616999
 31
0.0
  0
LINE
  5
5D0
330
1F
100
AcDbEntity
  8
0
  6
SLD-Solid
 62
     7
370
    25
100
AcDbLine
 10
10.51638226661682
 20
28.28008493187072
 30
0.0
 11
10.51638226661682
 21
28.26865160616999
 31
0.0
  0
ARC
  5
5D1
330
1F
100
AcDbEntity
  8
0
  6
SLD-Solid
 62
     7
370
    25
100
AcDbCircle
 10
10.53513226661683
 20
28.27009498184296
 30
0.0
 40
0.0188054734939947
100
AcDbArc
 50
184.4019496522518
 51
273.8112610494626
  0
LINE
  5
5D2
330
1F
100
AcDbEntity
  8
0
  6
SLD-Solid
 62
     7
370
    25
100
AcDbLine
 10
10.53638226661682
 20
28.2513310980943
 30
0.0
 11
10.53938226661683
 21
28.2513310980943
 31
0.0
  0
ARC
  5
5D3
330
1F
100
AcDbEntity
  8
0
  6
SLD-Solid
 62
     7
370
    25
100
AcDbCircle
 10
10.54125726661682
 20
28.2231852724713
 30
0.0
 40
0.028208210240997
100
AcDbArc
 50
4.401949652282792
 51
93.81126104945659
  0
LINE
  5
5D4
330
1F
100
AcDbEntity
  8
0
  6
SLD-Solid
 62
     7
370
    25
100
AcDbLine
 10
10.56938226661683
 20
26.86076023830499
 30
0.0
 11
10.56938226661683
 21
28.22535033598077
 31
0.0
  0
LINE
  5
5D5
330
1F
100
AcDbEntity
  8
0
  6
SLD-Solid
 62
     7
370
    25
100
AcDbLine
 10
10.53638226661682
 20
28.2763310980943
 30
0.0
 11
10.53638226661682
 21
28.2513310980943
 31
0.0
  0
ARC
  5
5D6
330
1F
100
AcDbEntity
  8
0
  6
SLD-Solid
 62
     7
370
    25
100
AcDbCircle
 10
10.53513226661683
 20
28.29509498184296
 30
0.0
 40
0.0188054734939955
100
AcDbArc
 50
184.4019496522842
 51
273.811261049462
  0
LINE
  5
5D7
330
1F
100
AcDbEntity
  8
0
  6
SLD-Solid
 62
     7
370
    25
100
AcDbLine
 10
2.970662537172158
 20
28.2763310980943
 30
0.0
 11
2.970662537172158
 21
28.2513310980943
 31
0.0
  0
ARC
  5
5D8
330
1F
100
AcDbEntity
  8
0
  6
SLD-Solid
 62
     7
370
    25
100
AcDbCircle
 10
2.971912537172149
 20
28.29509498184297
 30
0.0
 40
0.0188054734940047
100
AcDbArc
 50
266.1887389505675
 51
355.5980503477087
  0
LINE
  5
5D9
330
1F
100
AcDbEntity
  8
0
  6
SLD-Solid
 62
     7
370
    25
100
AcDbLine
 10
10.53938226661683
 20
28.2513310980943
 30
0.0
 11
10.53938226661683
 21
28.2763310980943
 31
0.0
  0
LINE
  5
5DA
330
1F
100
AcDbEntity
  8
0
  6
SLD-Solid
 62
     7
370
    25
100
AcDbLine
 10
10.53638226661682
 20
28.2763310980943
 30
0.0
 11
10.53938226661683
 21
28.2763310980943
 31
0.0
  0
LINE
  5
5DB
330
1F
100
AcDbEntity
  8
0
  6
SLD-Solid
 62
     7
370
    25
100
AcDbLine
 10
10.56938226661683
 20
28.25035033598077
 30
0.0
 11
10.56938226661683
 21
28.22535033598077
 31
0.0
  0
ARC
  5
5DC
330
1F
100
AcDbEntity
  8
0
  6
SLD-Solid
 62
     7
370
    25
100
AcDbCircle
 10
10.54125726661682
 20
28.2481852724713
 30
0.0
 40
0.028208210240997
100
AcDbArc
 50
4.401949652282792
 51
93.81126104945659
  0
LINE
  5
5DD
330
1F
100
AcDbEntity
  8
0
  6
SLD-Solid
 62
     7
370
    25
100
AcDbLine
 10
2.967662537172157
 20
28.2513310980943
 30
0.0
 11
2.967662537172157
 21
28.2763310980943
 31
0.0
  0
LINE
  5
5DE
330
1F
100
AcDbEntity
  8
0
  6
SLD-Solid
 62
     7
370
    25
100
AcDbLine
 10
2.970662537172158
 20
28.2763310980943
 30
0.0
 11
2.967662537172157
 21
28.2763310980943
 31
0.0
  0
LINE
  5
5DF
330
1F
100
AcDbEntity
  8
0
  6
SLD-Solid
 62
     7
370
    25
100
AcDbLine
 10
2.937662537172157
 20
28.25035033598077
 30
0.0
 11
2.937662537172157
 21
28.22535033598077
 31
0.0
  0
ARC
  5
5E0
330
1F
100
AcDbEntity
  8
0
  6
SLD-Solid
 62
     7
370
    25
100
AcDbCircle
 10
2.965787537172145
 20
28.24818527247131
 30
0.0
 40
0.0282082102409803
100
AcDbArc
 50
86.18873895051041
 51
175.5980503477435
  0
LINE
  5
5E1
330
1F
100
AcDbEntity
  8
0
  6
SLD-Solid
 62
     7
370
    25
100
AcDbLine
 10
10.57602240189449
 20
28.32591144178012
 30
0.0
 11
10.6260224018945
 21
28.32591144178012
 31
0.0
  0
LINE
  5
5E2
330
1F
100
AcDbEntity
  8
0
  6
SLD-Solid
 62
     7
370
    25
100
AcDbLine
 10
10.62602240189449
 20
26.88963666468029
 30
0.0
 11
10.57602240189449
 21
26.88963666468029
 31
0.0
  0
LINE
  5
5E3
330
1F
100
AcDbEntity
  8
0
  6
SLD-Solid
 62
     7
370
    25
100
AcDbLine
 10
10.6260224018945
 20
28.32591144178012
 30
0.0
 11
10.62602240189449
 21
26.88963666468029
 31
0.0
  0
LINE
  5
5E4
330
1F
100
AcDbEntity
  8
0
  6
SLD-Solid
 62
     7
370
    25
100
AcDbLine
 10
10.5760224018945
 20
28.32591144178012
 30
0.0
 11
10.57602240189449
 21
26.88963666468029
 31
0.0
  0
LINE
  5
5E5
330
1F
100
AcDbEntity
  8
0
  6
SLD-Solid
 62
     7
370
    25
100
AcDbLine
 10
2.881022401894493
 20
26.88963666468029
 30
0.0
 11
2.931022401894493
 21
26.88963666468029
 31
0.0
  0
LINE
  5
5E6
330
1F
100
AcDbEntity
  8
0
  6
SLD-Solid
 62
     7
370
    25
100
AcDbLine
 10
2.931022401894493
 20
28.32591144178012
 30
0.0
 11
2.881022401894488
 21
28.32591144178012
 31
0.0
  0
LINE
  5
5E7
330
1F
100
AcDbEntity
  8
0
  6
SLD-Solid
 62
     7
370
    25
100
AcDbLine
 10
2.931022401894488
 20
28.32591144178012
 30
0.0
 11
2.931022401894494
 21
26.88963666468029
 31
0.0
  0
LINE
  5
5E8
330
1F
100
AcDbEntity
  8
0
  6
SLD-Solid
 62
     7
370
    25
100
AcDbLine
 10
2.881022401894488
 20
28.32591144178012
 30
0.0
 11
2.881022401894494
 21
26.88963666468029
 31
0.0
  0
LINE
  5
5E9
330
1F
100
AcDbEntity
  8
0
  6
SLD-Solid
 62
     7
370
    25
100
AcDbLine
 10
10.62602240189451
 20
32.28963666468029
 30
0.0
 11
10.57602240189451
 21
32.28963666468029
 31
0.0
  0
LINE
  5
5EA
330
1F
100
AcDbEntity
  8
0
  6
SLD-Solid
 62
     7
370
    25
100
AcDbLine
 10
10.57602240189451
 20
32.43963666468029
 30
0.0
 11
10.62602240189451
 21
32.43963666468029
 31
0.0
  0
LINE
  5
5EB
330
1F
100
AcDbEntity
  8
0
  6
SLD-Solid
 62
     7
370
    25
100
AcDbLine
 10
10.62602240189451
 20
32.43963666468029
 30
0.0
 11
10.62602240189451
 21
32.28963666468029
 31
0.0
  0
LINE
  5
5EC
330
1F
100
AcDbEntity
  8
0
  6
SLD-Solid
 62
     7
370
    25
100
AcDbLine
 10
10.57602240189451
 20
32.28963666468029
 30
0.0
 11
10.57602240189451
 21
32.43963666468029
 31
0.0
  0
LINE
  5
5ED
330
1F
100
AcDbEntity
  8
0
  6
SLD-Solid
 62
     7
370
    25
100
AcDbLine
 10
10.62602240189451
 20
32.28963666468029
 30
0.0
 11
10.6260224018945
 21
28.32591144178012
 31
0.0
  0
LINE
  5
5EE
330
1F
100
AcDbEntity
  8
0
  6
SLD-Solid
 62
     7
370
    25
100
AcDbLine
 10
10.57602240189451
 20
32.28963666468029
 30
0.0
 11
10.57602240189449
 21
28.32591144178012
 31
0.0
  0
LINE
  5
5EF
330
1F
100
AcDbEntity
  8
0
  6
SLD-Solid
 62
     7
370
    25
100
AcDbLine
 10
2.881022401894473
 20
32.28963666468029
 30
0.0
 11
2.931022401894473
 21
32.28963666468029
 31
0.0
  0
LINE
  5
5F0
330
1F
100
AcDbEntity
  8
0
  6
SLD-Solid
 62
     7
370
    25
100
AcDbLine
 10
2.931022401894473
 20
32.28963666468029
 30
0.0
 11
2.931022401894493
 21
28.32591144178012
 31
0.0
  0
LINE
  5
5F1
330
1F
100
AcDbEntity
  8
0
  6
SLD-Solid
 62
     7
370
    25
100
AcDbLine
 10
2.881022401894473
 20
32.28963666468029
 30
0.0
 11
2.881022401894488
 21
28.32591144178012
 31
0.0
  0
LINE
  5
5F2
330
1F
100
AcDbEntity
  8
0
  6
SLD-Solid
 62
     7
370
    25
100
AcDbLine
 10
2.931022401894473
 20
32.43963666468029
 30
0.0
 11
2.881022401894473
 21
32.43963666468029
 31
0.0
  0
LINE
  5
5F3
330
1F
100
AcDbEntity
  8
0
  6
SLD-Solid
 62
     7
370
    25
100
AcDbLine
 10
2.931022401894473
 20
32.28963666468029
 30
0.0
 11
2.931022401894473
 21
32.43963666468029
 31
0.0
  0
LINE
  5
5F4
330
1F
100
AcDbEntity
  8
0
  6
SLD-Solid
 62
     7
370
    25
100
AcDbLine
 10
2.881022401894473
 20
32.43963666468029
 30
0.0
 11
2.881022401894473
 21
32.28963666468029
 31
0.0
  0
LINE
  5
5F5
330
1F
100
AcDbEntity
  8
0
  6
SLD-Solid
 62
     7
370
    25
100
AcDbLine
 10
10.5418472088657
 20
32.4348336545259
 30
0.0
 11
10.5348885538177
 21
32.48434705796298
 31
0.0
  0
ARC
  5
5F6
330
1F
100
AcDbEntity
  8
0
  6
SLD-Solid
 62
     7
370
    25
100
AcDbCircle
 10
10.54602240189451
 20
32.40512561246366
 30
0.0
 40
0.0300000000000008
100
AcDbArc
 50
0.0000000000135704
 51
98.00000000002018
  0
ARC
  5
5F7
330
1F
100
AcDbEntity
  8
0
  6
SLD-Solid
 62
     7
370
    25
100
AcDbCircle
 10
10.54602240189451
 20
32.40512561246366
 30
0.0
 40
0.0799999999999972
100
AcDbArc
 50
25.55568810066951
 51
98.00000000000739
  0
LINE
  5
5F8
330
1F
100
AcDbEntity
  8
0
  6
SLD-Solid
 62
     7
370
    25
100
AcDbLine
 10
10.36607703384984
 20
32.46062214603931
 30
0.0
 11
10.37303568889784
 21
32.41110874260224
 31
0.0
  0
LINE
  5
5F9
330
1F
100
AcDbEntity
  8
0
  6
SLD-Solid
 62
     7
370
    25
100
AcDbLine
 10
10.22449547858661
 20
32.39023277745823
 30
0.0
 11
10.2175368235386
 21
32.43974618089531
 31
0.0
  0
LINE
  5
5FA
330
1F
100
AcDbEntity
  8
0
  6
SLD-Solid
 62
     7
370
    25
100
AcDbLine
 10
10.2175368235386
 20
32.43974618089531
 30
0.0
 11
10.36607703384984
 21
32.46062214603931
 31
0.0
  0
LINE
  5
5FB
330
1F
100
AcDbEntity
  8
0
  6
SLD-Solid
 62
     7
370
    25
100
AcDbLine
 10
10.37303568889784
 20
32.41110874260224
 30
0.0
 11
10.22449547858661
 21
32.39023277745823
 31
0.0
  0
LINE
  5
5FC
330
1F
100
AcDbEntity
  8
0
  6
SLD-Solid
 62
     7
370
    25
100
AcDbLine
 10
10.36607703384984
 20
32.46062214603931
 30
0.0
 11
10.5348885538177
 21
32.48434705796298
 31
0.0
  0
LINE
  5
5FD
330
1F
100
AcDbEntity
  8
0
  6
SLD-Solid
 62
     7
370
    25
100
AcDbLine
 10
10.37303568889784
 20
32.41110874260224
 30
0.0
 11
10.5418472088657
 21
32.4348336545259
 31
0.0
  0
LINE
  5
5FE
330
1F
100
AcDbEntity
  8
0
  6
SLD-Solid
 62
     7
370
    25
100
AcDbLine
 10
3.282549325202375
 20
32.39023277745823
 30
0.0
 11
3.289507980250378
 21
32.43974618089531
 31
0.0
  0
LINE
  5
5FF
330
1F
100
AcDbEntity
  8
0
  6
SLD-Solid
 62
     7
370
    25
100
AcDbLine
 10
3.13400911489114
 20
32.41110874260224
 30
0.0
 11
3.282549325202375
 21
32.39023277745823
 31
0.0
  0
LINE
  5
600
330
1F
100
AcDbEntity
  8
0
  6
SLD-Solid
 62
     7
370
    25
100
AcDbLine
 10
3.140967769939143
 20
32.46062214603931
 30
0.0
 11
3.13400911489114
 21
32.41110874260224
 31
0.0
  0
LINE
  5
601
330
1F
100
AcDbEntity
  8
0
  6
SLD-Solid
 62
     7
370
    25
100
AcDbLine
 10
3.289507980250378
 20
32.43974618089531
 30
0.0
 11
3.140967769939143
 21
32.46062214603931
 31
0.0
  0
LINE
  5
602
330
1F
100
AcDbEntity
  8
0
  6
SLD-Solid
 62
     7
370
    25
100
AcDbLine
 10
3.13400911489114
 20
32.41110874260224
 30
0.0
 11
2.965197594923281
 21
32.4348336545259
 31
0.0
  0
LINE
  5
603
330
1F
100
AcDbEntity
  8
0
  6
SLD-Solid
 62
     7
370
    25
100
AcDbLine
 10
2.965197594923281
 20
32.4348336545259
 30
0.0
 11
2.972156249971284
 21
32.48434705796298
 31
0.0
  0
LINE
  5
604
330
1F
100
AcDbEntity
  8
0
  6
SLD-Solid
 62
     7
370
    25
100
AcDbLine
 10
3.140967769939143
 20
32.46062214603931
 30
0.0
 11
2.972156249971284
 21
32.48434705796298
 31
0.0
  0
ARC
  5
605
330
1F
100
AcDbEntity
  8
0
  6
SLD-Solid
 62
     7
370
    25
100
AcDbCircle
 10
2.961022401894472
 20
32.40512561246366
 30
0.0
 40
0.0300000000000007
100
AcDbArc
 50
81.99999999998656
 51
179.9999999999864
  0
ARC
  5
606
330
1F
100
AcDbEntity
  8
0
  6
SLD-Solid
 62
     7
370
    25
100
AcDbCircle
 10
2.961022401894472
 20
32.40512561246366
 30
0.0
 40
0.0799999999999988
100
AcDbArc
 50
81.99999999999483
 51
154.4443118993315
  0
LINE
  5
607
330
1F
100
AcDbEntity
  8
0
  6
SLD-Solid
 62
     7
370
    25
100
AcDbLine
 10
10.56907515266716
 20
26.85028926801499
 30
0.0
 11
10.57602240189449
 21
26.88963666468029
 31
0.0
  0
LINE
  5
608
330
1F
100
AcDbEntity
  8
0
  6
SLD-Solid
 62
     7
370
    25
100
AcDbLine
 10
10.60788341568638
 20
26.78690220646783
 30
0.0
 11
10.62602240189449
 21
26.88963666468029
 31
0.0
  0
LINE
  5
609
330
1F
100
AcDbEntity
  8
0
  6
SLD-Solid
 62
     7
370
    25
100
AcDbLine
 10
10.60788341568638
 20
26.78690220646783
 30
0.0
 11
10.5609065800544
 21
26.8040246161699
 31
0.0
  0
LINE
  5
60A
330
1F
100
AcDbEntity
  8
0
  6
SLD-Solid
 62
     7
370
    25
100
AcDbLine
 10
2.899161388102601
 20
26.78690220646783
 30
0.0
 11
2.946138223734583
 21
26.8040246161699
 31
0.0
  0
LINE
  5
60B
330
1F
100
AcDbEntity
  8
0
  6
SLD-Solid
 62
     7
370
    25
100
AcDbLine
 10
2.881022401894492
 20
26.88963666468029
 30
0.0
 11
2.899161275636014
 21
26.78690251503032
 31
0.0
  0
LINE
  5
60C
330
1F
100
AcDbEntity
  8
0
  6
SLD-Solid
 62
     7
370
    25
100
AcDbLine
 10
2.931022401894492
 20
26.88963666468029
 30
0.0
 11
2.937969651121824
 21
26.85028926801499
 31
0.0
  0
LINE
  5
60D
330
1F
100
AcDbEntity
  8
0
  6
SLD-Solid
 62
     7
370
    25
100
AcDbLine
 10
3.172036744536868
 20
26.58977126493925
 30
0.0
 11
3.172647747135266
 21
26.61016137454605
 31
0.0
  0
SPLINE
  5
60E
330
1F
100
AcDbEntity
  8
0
  6
SLD-Solid
 62
     7
370
    25
100
AcDbSpline
210
0.0
220
0.0
230
1.0
 70
    12
 71
     3
 72
    11
 73
     7
 74
     0
 42
0.00000001
 43
0.00000001
 40
0.0
 40
0.0
 40
0.0
 40
0.0
 40
0.2755971283866607
 40
0.4936301767167267
 40
0.7400988665380149
 40
1.0
 40
1.0
 40
1.0
 40
1.0
 10
2.899161388102601
 20
26.78690220646783
 30
0.0
 41
1.0
 10
2.912368366043876
 20
26.75857066692607
 30
0.0
 41
1.0
 10
2.936023775275496
 20
26.70782520759373
 30
0.0
 41
1.0
 10
2.999396587779453
 20
26.64653594123752
 30
0.0
 41
1.0
 10
3.077427509194401
 20
26.60145639897582
 30
0.0
 41
1.0
 10
3.139947511237564
 20
26.59373458829638
 30
0.0
 41
1.0
 10
3.172036744536868
 20
26.58977126493925
 30
0.0
 41
1.0
  0
LINE
  5
60F
330
1F
100
AcDbEntity
  8
0
  6
SLD-Solid
 62
     7
370
    25
100
AcDbLine
 10
10.33500805925211
 20
26.58977126493925
 30
0.0
 11
10.33439705665372
 21
26.61016137454605
 31
0.0
  0
SPLINE
  5
610
330
1F
100
AcDbEntity
  8
0
  6
SLD-Solid
 62
     7
370
    25
100
AcDbSpline
210
0.0
220
0.0
230
1.0
 70
    12
 71
     3
 72
    11
 73
     7
 74
     0
 42
0.00000001
 43
0.00000001
 40
0.0
 40
0.0
 40
0.0
 40
0.0
 40
0.2808106554120416
 40
0.5051528559808998
 40
0.7465507656473455
 40
1.0
 40
1.0
 40
1.0
 40
1.0
 10
10.33500805925211
 20
26.58977126493925
 30
0.0
 41
1.0
 10
10.36967348955897
 20
26.59429415366078
 30
0.0
 41
1.0
 10
10.43203344914675
 20
26.6024304195429
 30
0.0
 41
1.0
 10
10.51168123430494
 20
26.64953644352086
 30
0.0
 41
1.0
 10
10.5728393194543
 20
26.71027945818583
 30
0.0
 41
1.0
 10
10.59601392170603
 20
26.76094995352719
 30
0.0
 41
1.0
 10
10.60788341568638
 20
26.78690220646783
 30
0.0
 41
1.0
  0
LINE
  5
611
330
1F
100
AcDbEntity
  8
0
  6
SLD-Solid
 62
     7
370
    25
100
AcDbLine
 10
3.191022401894492
 20
26.62963666468028
 30
0.0
 11
3.191022401894492
 21
26.58963666468027
 31
0.0
  0
LINE
  5
612
330
1F
100
AcDbEntity
  8
0
  6
SLD-Solid
 62
     7
370
    25
100
AcDbLine
 10
10.31602240189449
 20
26.62963666468028
 30
0.0
 11
10.31602240189449
 21
26.58963666468028
 31
0.0
  0
LINE
  5
613
330
1F
100
AcDbEntity
  8
0
  6
SLD-Solid
 62
     7
370
    25
100
AcDbLine
 10
10.31602240189449
 20
26.58963666468028
 30
0.0
 11
3.191022401894492
 21
26.58963666468027
 31
0.0
  0
LINE
  5
614
330
1F
100
AcDbEntity
  8
0
  6
SLD-Solid
 62
     7
370
    25
100
AcDbLine
 10
10.32602240189449
 20
26.58963666468029
 30
0.0
 11
10.32602240189449
 21
26.63963666468029
 31
0.0
  0
LINE
  5
615
330
1F
100
AcDbEntity
  8
0
  6
SLD-Solid
 62
     7
370
    25
100
AcDbLine
 10
3.181022401894491
 20
26.58963666468029
 30
0.0
 11
3.181022401894491
 21
26.63963666468029
 31
0.0
  0
LINE
  5
616
330
1F
100
AcDbEntity
  8
0
  6
SLD-Solid
 62
     7
370
    25
100
AcDbLine
 10
10.32602240189449
 20
26.58963666468029
 30
0.0
 11
10.31602240189449
 21
26.58963666468029
 31
0.0
  0
LINE
  5
617
330
1F
100
AcDbEntity
  8
0
  6
SLD-Solid
 62
     7
370
    25
100
AcDbLine
 10
3.181022401894491
 20
26.58963666468029
 30
0.0
 11
3.191022401894492
 21
26.58963666468029
 31
0.0
  0
LINE
  5
618
330
1F
100
AcDbEntity
  8
0
  6
SLD-Solid
 62
     7
370
    25
100
AcDbLine
 10
10.6260224018945
 20
26.88963666468027
 30
0.0
 11
10.6260224018945
 21
26.88346330744309
 31
0.0
  0
LINE
  5
619
330
1F
100
AcDbEntity
  8
0
  6
SLD-Solid
 62
     7
370
    25
100
AcDbLine
 10
2.8810224018945
 20
26.8896366646802
 30
0.0
 11
2.8810224018945
 21
26.8834633074431
 31
0.0
  0
LINE
  5
61A
330
1F
100
AcDbEntity
  8
0
  6
SLD-Solid
 62
     7
370
    25
100
AcDbLine
 10
10.5660224018945
 20
28.32008493187067
 30
0.0
 11
10.5660224018945
 21
28.26229719306911
 31
0.0
  0
LINE
  5
61B
330
1F
100
AcDbEntity
  8
0
  6
SLD-Solid
 62
     7
370
    25
100
AcDbLine
 10
2.941022401894496
 20
28.32008493187067
 30
0.0
 11
2.941022401894496
 21
28.26229719306913
 31
0.0
  0
LINE
  5
61C
330
1F
100
AcDbEntity
  8
0
  6
SLD-Solid
 62
     8
370
    25
100
AcDbLine
 10
6.753522401894517
 20
26.48963666468029
 30
0.0
 11
7.191022401894513
 21
26.48963666468029
 31
0.0
  0
LINE
  5
61D
330
1F
100
AcDbEntity
  8
0
  6
SLD-Solid
 62
     8
370
    25
100
AcDbLine
 10
6.316022401894513
 20
26.48963666468029
 30
0.0
 11
6.753522401894517
 21
26.48963666468029
 31
0.0
  0
LINE
  5
61E
330
1F
100
AcDbEntity
  8
0
  6
SLD-Solid
 62
     8
370
    25
100
AcDbLine
 10
2.931022401894474
 20
32.24747199162243
 30
0.0
 11
2.937662537172149
 21
32.24747199162243
 31
0.0
  0
LINE
  5
61F
330
1F
100
AcDbEntity
  8
0
  6
SLD-Solid
 62
     8
370
    25
100
AcDbLine
 10
2.937662537172156
 20
29.33247199162243
 30
0.0
 11
2.931022401894488
 21
29.33247199162243
 31
0.0
  0
LINE
  5
620
330
1F
100
AcDbEntity
  8
0
  6
SLD-Solid
 62
     8
370
    25
100
AcDbLine
 10
10.57602240189451
 20
32.24747199162243
 30
0.0
 11
10.56938226661683
 21
32.24747199162243
 31
0.0
  0
LINE
  5
621
330
1F
100
AcDbEntity
  8
0
  6
SLD-Solid
 62
     8
370
    25
100
AcDbLine
 10
10.56938226661683
 20
29.33247199162243
 30
0.0
 11
10.5760224018945
 21
29.33247199162243
 31
0.0
  0
DIMENSION
  5
622
330
1F
100
AcDbEntity
  8
DIMS
100
AcDbDimension
  2
_D_10
 10
10.62602240189449
 20
25.93963666468025
 30
0.0
 11
6.753522401894506
 21
25.93963666468026
 31
0.0
 70
    32
  1
<>
 71
     2
 42
-1.0
  3
SLDDIMSTYLE0
100
AcDbAlignedDimension
 13
2.881022401894495
 23
26.88963666468024
 33
0.0
 14
10.62602240189449
 24
26.88963666468024
 34
0.0
 50
-0.0000000000001577
100
AcDbRotatedDimension
  0
DIMENSION
  5
631
330
1F
100
AcDbEntity
  8
DIMS
100
AcDbDimension
  2
_D_11
 10
11.43602240189542
 20
32.52747199162239
 30
0.0
 11
11.43602240189542
 21
28.93725931491217
 31
0.0
 70
    32
  1
<>
 71
     2
 42
-1.0
  3
SLDDIMSTYLE0
100
AcDbAlignedDimension
 13
10.31602240189449
 23
26.58963666468023
 33
0.0
 14
9.73286410854072
 24
32.52747199162239
 34
0.0
 50
90.0000000000002
100
AcDbRotatedDimension
  0
MTEXT
  5
640
330
1F
100
AcDbEntity
  8
NOTES
100
AcDbMText
 10
12.17560500585716
 20
32.04027522483253
 30
0.0
 40
0.25
 41
0.0
 71
     1
 72
     1
  1
sharps inlet
  7
SLDTEXTSTYLE0
 73
     1
 44
1.0
  0
LEADER
  5
641
330
1F
100
AcDbEntity
  8
NOTES
100
AcDbLeader
  3
SLDDIMSTYLE1
 76
     3
 10
7.34481233540153
 20
29.87804477069669
 30
0.0
 10
11.90305118110238
 20
31.92230424616412
 30
0.0
 10
12.15305118110238
 20
31.92230424616412
 30
0.0
1001
ACAD
1000
DSTYLE
1002
{
1070
   176
1070
     0
1070
    77
1070
     0
1070
    40
1040
1.0
1070
   147
1040
0.0
1002
}
  0
MTEXT
  5
645
330
1F
100
AcDbEntity
  8
NOTES
100
AcDbMText
 10
37.18181923579608
 20
4.88020099615648
 30
0.0
 40
0.2916666666666666
 41
0.0
 71
     1
 72
     1
  1
FROST PRODUCTS LTD.
  7
SLDTEXTSTYLE1
 73
     1
 44
1.0
  0
MTEXT
  5
646
330
1F
100
AcDbEntity
  8
NOTES
100
AcDbMText
 10
37.18181923579608
 20
4.454708634531021
 30
0.0
 40
0.2291666666666666
 41
0.0
 71
     1
 72
     1
  1
5280 JOHN LUCAS DRIVE, BURLINGTON, ON, L7L 5Z9
  7
SLDTEXTSTYLE1
 73
     1
 44
1.0
  0
ENDSEC
  0
SECTION
  2
OBJECTS
  0
DICTIONARY
  5
C
330
0
100
AcDbDictionary
281
     1
  3
ACAD_COLOR
350
6C
  3
ACAD_GROUP
350
D
  3
ACAD_LAYOUT
350
1A
  3
ACAD_MATERIAL
350
6B
  3
ACAD_MLINESTYLE
350
17
  3
ACAD_PLOTSETTINGS
350
19
  3
ACAD_PLOTSTYLENAME
350
E
  3
ACAD_SCALELIST
350
47
  3
ACAD_TABLESTYLE
350
92
  3
AcDbVariableDictionary
350
59
  0
DICTIONARY
  5
6C
102
{ACAD_REACTORS
330
C
102
}
330
C
100
AcDbDictionary
281
     1
  0
DICTIONARY
  5
D
102
{ACAD_REACTORS
330
C
102
}
330
C
100
AcDbDictionary
281
     1
  0
DICTIONARY
  5
1A
102
{ACAD_REACTORS
330
C
102
}
330
C
100
AcDbDictionary
281
     1
  3
Layout1
350
74
  3
Layout2
350
26
  3
Model
350
22
  0
DICTIONARY
  5
6B
102
{ACAD_REACTORS
330
C
102
}
330
C
100
AcDbDictionary
281
     1
  0
DICTIONARY
  5
17
102
{ACAD_REACTORS
330
C
102
}
330
C
100
AcDbDictionary
281
     1
  3
Standard
350
18
  0
DICTIONARY
  5
19
102
{ACAD_REACTORS
330
C
102
}
330
C
100
AcDbDictionary
281
     1
  0
ACDBDICTIONARYWDFLT
  5
E
102
{ACAD_REACTORS
330
C
102
}
330
C
100
AcDbDictionary
281
     1
  3
Normal
350
F
100
AcDbDictionaryWithDefault
340
F
  0
DICTIONARY
  5
47
102
{ACAD_REACTORS
330
C
102
}
330
C
100
AcDbDictionary
281
     1
  3
A0
350
48
  3
A1
350
49
  3
A2
350
4A
  3
A3
350
4B
  3
A4
350
4C
  3
A5
350
4D
  3
A6
350
4E
  3
A7
350
4F
  3
A8
350
50
  3
A9
350
51
  3
B0
350
52
  3
B1
350
53
  3
B2
350
54
  3
B3
350
55
  3
B4
350
56
  3
B5
350
57
  3
B6
350
58
  3
B7
350
657
  3
B8
350
658
  3
B9
350
5B
  3
C0
350
5C
  3
C1
350
5D
  3
C2
350
659
  3
C3
350
5F
  3
C4
350
60
  3
C5
350
61
  3
C6
350
62
  3
C7
350
63
  3
C8
350
64
  3
C9
350
65
  3
D0
350
66
  3
D1
350
67
  3
D2
350
68
  0
DICTIONARY
  5
92
102
{ACAD_REACTORS
330
C
102
}
330
C
100
AcDbDictionary
281
     1
  0
DICTIONARY
  5
59
102
{ACAD_REACTORS
330
C
102
}
330
C
100
AcDbDictionary
281
     1
  0
LAYOUT
  5
74
102
{ACAD_REACTORS
330
1A
102
}
330
1A
100
AcDbPlotSettings
  1

  2
none_device
  4

  6

 40
0.0
 41
0.0
 42
0.0
 43
0.0
 44
0.0
 45
0.0
 46
0.0
 47
0.0
 48
0.0
 49
0.0
140
0.0
141
0.0
142
1.0
143
1.0
 70
   688
 72
     0
 73
     0
 74
     5
  7

 75
    16
 76
     0
 77
     2
 78
   300
147
1.0
148
0.0
149
0.0
100
AcDbLayout
  1
Layout1
 70
     1
 71
     1
 10
0.0
 20
0.0
 11
12.0
 21
9.0
 12
0.0
 22
0.0
 32
0.0
 14
1.000000000000000E+20
 24
1.000000000000000E+20
 34
1.000000000000000E+20
 15
-1.000000000000000E+20
 25
-1.000000000000000E+20
 35
-1.000000000000000E+20
146
0.0
 13
0.0
 23
0.0
 33
0.0
 16
1.0
 26
0.0
 36
0.0
 17
0.0
 27
1.0
 37
0.0
 76
     0
330
73
  0
LAYOUT
  5
26
102
{ACAD_REACTORS
330
1A
102
}
330
1A
100
AcDbPlotSettings
  1

  2
none_device
  4

  6

 40
0.0
 41
0.0
 42
0.0
 43
0.0
 44
0.0
 45
0.0
 46
0.0
 47
0.0
 48
0.0
 49
0.0
140
0.0
141
0.0
142
1.0
143
1.0
 70
   688
 72
     0
 73
     0
 74
     5
  7

 75
    16
 76
     0
 77
     2
 78
   300
147
1.0
148
0.0
149
0.0
100
AcDbLayout
  1
Layout2
 70
     1
 71
     2
 10
0.0
 20
0.0
 11
0.0
 21
0.0
 12
0.0
 22
0.0
 32
0.0
 14
0.0
 24
0.0
 34
0.0
 15
0.0
 25
0.0
 35
0.0
146
0.0
 13
0.0
 23
0.0
 33
0.0
 16
1.0
 26
0.0
 36
0.0
 17
0.0
 27
1.0
 37
0.0
 76
     0
330
23
  0
LAYOUT
  5
22
102
{ACAD_REACTORS
330
1A
102
}
330
1A
100
AcDbPlotSettings
  1

  2
none_device
  4
Letter_(8.50_x_11.00_Inches)
  6

 40
6.35
 41
6.35
 42
6.35000508
 43
6.35000508
 44
215.9
 45
279.4
 46
0.0
 47
0.0
 48
0.0
 49
0.0
140
0.0
141
0.0
142
1.0
143
1.0
 70
 11952
 72
     0
 73
     0
 74
     0
  7

 75
     0
 76
     0
 77
     2
 78
   300
147
1.0
148
0.0
149
0.0
100
AcDbLayout
  1
Model
 70
     1
 71
     0
 10
0.0
 20
0.0
 11
46.81102362204724
 21
33.11023622047244
 12
0.0
 22
0.0
 32
0.0
 14
1.413861089829396
 24
0.3573773641115478
 34
-13.71904126003534
 15
46.41568767877938
 25
94.35226101393293
 35
13.71904126003531
146
0.0
 13
0.0
 23
0.0
 33
0.0
 16
1.0
 26
0.0
 36
0.0
 17
0.0
 27
1.0
 37
0.0
 76
     0
330
1F
  0
MLINESTYLE
  5
18
102
{ACAD_REACTORS
330
17
102
}
330
17
100
AcDbMlineStyle
  2
Standard
 70
     0
  3

 62
   256
 51
90.0
 52
90.0
 71
     2
 49
0.5
 62
   256
  6
BYLAYER
 49
-0.5
 62
   256
  6
BYLAYER
  0
ACDBPLACEHOLDER
  5
F
102
{ACAD_REACTORS
330
E
102
}
330
E
  0
ACAD_PROXY_OBJECT
  5
48
102
{ACAD_REACTORS
330
47
102
}
330
47
100
AcDbProxyObject
 90
      499
 91
      505
 95
   393239
 70
     0
 93
       41
310
903313A31580
  0
ACAD_PROXY_OBJECT
  5
49
102
{ACAD_REACTORS
330
47
102
}
330
47
100
AcDbProxyObject
 90
      499
 91
      505
 95
   393239
 70
     0
 93
      105
310
903313A324000000000000004000
  0
ACAD_PROXY_OBJECT
  5
4A
102
{ACAD_REACTORS
330
47
102
}
330
47
100
AcDbProxyObject
 90
      499
 91
      505
 95
   393239
 70
     0
 93
      105
310
903313A344000000000000104000
  0
ACAD_PROXY_OBJECT
  5
4B
102
{ACAD_REACTORS
330
47
102
}
330
47
100
AcDbProxyObject
 90
      499
 91
      505
 95
   393239
 70
     0
 93
      105
310
903313A354000000000000144000
  0
ACAD_PROXY_OBJECT
  5
4C
102
{ACAD_REACTORS
330
47
102
}
330
47
100
AcDbProxyObject
 90
      499
 91
      505
 95
   393239
 70
     0
 93
      105
310
903313A384000000000000204000
  0
ACAD_PROXY_OBJECT
  5
4D
102
{ACAD_REACTORS
330
47
102
}
330
47
100
AcDbProxyObject
 90
      499
 91
      505
 95
   393239
 70
     0
 93
      113
310
904313A31304000000000000244000
  0
ACAD_PROXY_OBJECT
  5
4E
102
{ACAD_REACTORS
330
47
102
}
330
47
100
AcDbProxyObject
 90
      499
 91
      505
 95
   393239
 70
     0
 93
      113
310
904313A31364000000000000304000
  0
ACAD_PROXY_OBJECT
  5
4F
102
{ACAD_REACTORS
330
47
102
}
330
47
100
AcDbProxyObject
 90
      499
 91
      505
 95
   393239
 70
     0
 93
      113
310
904313A32304000000000000344000
  0
ACAD_PROXY_OBJECT
  5
50
102
{ACAD_REACTORS
330
47
102
}
330
47
100
AcDbProxyObject
 90
      499
 91
      505
 95
   393239
 70
     0
 93
      113
310
904313A333040000000000003E4000
  0
ACAD_PROXY_OBJECT
  5
51
102
{ACAD_REACTORS
330
47
102
}
330
47
100
AcDbProxyObject
 90
      499
 91
      505
 95
   393239
 70
     0
 93
      113
310
904313A34304000000000000444000
  0
ACAD_PROXY_OBJECT
  5
52
102
{ACAD_REACTORS
330
47
102
}
330
47
100
AcDbProxyObject
 90
      499
 91
      505
 95
   393239
 70
     0
 93
      113
310
904313A35304000000000000494000
  0
ACAD_PROXY_OBJECT
  5
53
102
{ACAD_REACTORS
330
47
102
}
330
47
100
AcDbProxyObject
 90
      499
 91
      505
 95
   393239
 70
     0
 93
      121
310
905313A3130304000000000000594000
  0
ACAD_PROXY_OBJECT
  5
54
102
{ACAD_REACTORS
330
47
102
}
330
47
100
AcDbProxyObject
 90
      499
 91
      505
 95
   393239
 70
     0
 93
      105
310
903323A310000000000000010100
  0
ACAD_PROXY_OBJECT
  5
55
102
{ACAD_REACTORS
330
47
102
}
330
47
100
AcDbProxyObject
 90
      499
 91
      505
 95
   393239
 70
     0
 93
      105
310
903343A310000000000000410100
  0
ACAD_PROXY_OBJECT
  5
56
102
{ACAD_REACTORS
330
47
102
}
330
47
100
AcDbProxyObject
 90
      499
 91
      505
 95
   393239
 70
     0
 93
      105
310
903383A310000000000000810100
  0
ACAD_PROXY_OBJECT
  5
57
102
{ACAD_REACTORS
330
47
102
}
330
47
100
AcDbProxyObject
 90
      499
 91
      505
 95
   393239
 70
     0
 93
      113
310
90431303A310000000000000910100
  0
ACAD_PROXY_OBJECT
  5
58
102
{ACAD_REACTORS
330
47
102
}
330
47
100
AcDbProxyObject
 90
      499
 91
      505
 95
   393239
 70
     0
 93
      121
310
9053130303A310000000000001650100
  0
ACAD_PROXY_OBJECT
  5
657
102
{ACAD_REACTORS
330
47
102
}
330
47
100
AcDbProxyObject
 90
      499
 91
      505
 95
   393239
 70
     0
 93
      257
310
90E312F31323822203D2031272D3022000000000000200FC000000000000284000
  0
ACAD_PROXY_OBJECT
  5
658
102
{ACAD_REACTORS
330
47
102
}
330
47
100
AcDbProxyObject
 90
      499
 91
      505
 95
   393239
 70
     0
 93
      249
310
90D312F363422203D2031272D3022000000000000240FC000000000000284000
  0
ACAD_PROXY_OBJECT
  5
5B
102
{ACAD_REACTORS
330
47
102
}
330
47
100
AcDbProxyObject
 90
      499
 91
      505
 95
   393239
 70
     0
 93
      249
310
90D312F333222203D2031272D3022000000000000280FC000000000000284000
  0
ACAD_PROXY_OBJECT
  5
5C
102
{ACAD_REACTORS
330
47
102
}
330
47
100
AcDbProxyObject
 90
      499
 91
      505
 95
   393239
 70
     0
 93
      249
310
90D312F313622203D2031272D30220000000000002C0FC000000000000284000
  0
ACAD_PROXY_OBJECT
  5
5D
102
{ACAD_REACTORS
330
47
102
}
330
47
100
AcDbProxyObject
 90
      499
 91
      505
 95
   393239
 70
     0
 93
      249
310
90D332F333222203D2031272D30220000000000002E0FC000000000000284000
  0
ACAD_PROXY_OBJECT
  5
659
102
{ACAD_REACTORS
330
47
102
}
330
47
100
AcDbProxyObject
 90
      499
 91
      505
 95
   393239
 70
     0
 93
      241
310
90C312F3822203D2031272D3022000000000000300FC000000000000284000
  0
ACAD_PROXY_OBJECT
  5
5F
102
{ACAD_REACTORS
330
47
102
}
330
47
100
AcDbProxyObject
 90
      499
 91
      505
 95
   393239
 70
     0
 93
      249
310
90D332F313622203D2031272D3022000000000000320FC000000000000284000
  0
ACAD_PROXY_OBJECT
  5
60
102
{ACAD_REACTORS
330
47
102
}
330
47
100
AcDbProxyObject
 90
      499
 91
      505
 95
   393239
 70
     0
 93
      241
310
90C312F3422203D2031272D3022000000000000340FC000000000000284000
  0
ACAD_PROXY_OBJECT
  5
61
102
{ACAD_REACTORS
330
47
102
}
330
47
100
AcDbProxyObject
 90
      499
 91
      505
 95
   393239
 70
     0
 93
      241
310
90C332F3822203D2031272D3022000000000000360FC000000000000284000
  0
ACAD_PROXY_OBJECT
  5
62
102
{ACAD_REACTORS
330
47
102
}
330
47
100
AcDbProxyObject
 90
      499
 91
      505
 95
   393239
 70
     0
 93
      241
310
90C312F3222203D2031272D3022000000000000380FC000000000000284000
  0
ACAD_PROXY_OBJECT
  5
63
102
{ACAD_REACTORS
330
47
102
}
330
47
100
AcDbProxyObject
 90
      499
 91
      505
 95
   393239
 70
     0
 93
      241
310
90C332F3422203D2031272D30220000000000003A0FC000000000000284000
  0
ACAD_PROXY_OBJECT
  5
64
102
{ACAD_REACTORS
330
47
102
}
330
47
100
AcDbProxyObject
 90
      499
 91
      505
 95
   393239
 70
     0
 93
      161
310
90A3122203D2031272D30224000000000000284000
  0
ACAD_PROXY_OBJECT
  5
65
102
{ACAD_REACTORS
330
47
102
}
330
47
100
AcDbProxyObject
 90
      499
 91
      505
 95
   393239
 70
     0
 93
      257
310
90E312D312F3222203D2031272D30220000000000003E0FC000000000000284000
  0
ACAD_PROXY_OBJECT
  5
66
102
{ACAD_REACTORS
330
47
102
}
330
47
100
AcDbProxyObject
 90
      499
 91
      505
 95
   393239
 70
     0
 93
      225
310
90A3322203D2031272D302200000000000002100000000000000284000
  0
ACAD_PROXY_OBJECT
  5
67
102
{ACAD_REACTORS
330
47
102
}
330
47
100
AcDbProxyObject
 90
      499
 91
      505
 95
   393239
 70
     0
 93
      225
310
90A3622203D2031272D302200000000000006100000000000000284000
  0
ACAD_PROXY_OBJECT
  5
68
102
{ACAD_REACTORS
330
47
102
}
330
47
100
AcDbProxyObject
 90
      499
 91
      505
 95
   393239
 70
     0
 93
      249
310
90D31272D3022203D2031272D30220000000000000A100000000000000284000
  0
ENDSEC
  0
EOF
