  0
SECTION
  2
HEADER
  9
$ACADVER
  1
AC1015
  9
$ACADMAINTVER
 70
     6
  9
$DWGCODEPAGE
  3
ANSI_1252
  9
$INSBASE
 10
0.0
 20
0.0
 30
0.0
  9
$EXTMIN
 10
0.0
 20
0.0
 30
0.0
  9
$EXTMAX
 10
48.0
 20
36.0
 30
0.0
  9
$LIMMIN
 10
0.0
 20
0.0
  9
$LIMMAX
 10
48.0
 20
36.0
  9
$ORTHOMODE
 70
     0
  9
$REGENMODE
 70
     1
  9
$FILLMODE
 70
     1
  9
$QTEXTMODE
 70
     0
  9
$MIRRTEXT
 70
     1
  9
$LTSCALE
 40
1.0
  9
$ATTMODE
 70
     1
  9
$TEXTSIZE
 40
0.5
  9
$TRACEWID
 40
0.05
  9
$TEXTSTYLE
  7
STANDARD
  9
$CLAYER
  8
0
  9
$CELTYPE
  6
ByLayer
  9
$CECOLOR
 62
   256
  9
$CELTSCALE
 40
1.0
  9
$DISPSILH
 70
     0
  9
$DIMSCALE
 40
1.0
  9
$DIMASZ
 40
0.3
  9
$DIMEXO
 40
0.1666666667
  9
$DIMDLI
 40
0.38
  9
$DIMRND
 40
0.0
  9
$DIMDLE
 40
0.0
  9
$DIMEXE
 40
0.375
  9
$DIMTP
 40
0.0
  9
$DIMTM
 40
0.0
  9
$DIMTXT
 40
0.5
  9
$DIMCEN
 40
0.09
  9
$DIMTSZ
 40
0.0
  9
$DIMTOL
 70
     0
  9
$DIMLIM
 70
     0
  9
$DIMTIH
 70
     1
  9
$DIMTOH
 70
     1
  9
$DIMSE1
 70
     0
  9
$DIMSE2
 70
     0
  9
$DIMTAD
 70
     0
  9
$DIMZIN
 70
     1
  9
$DIMBLK
  1

  9
$DIMASO
 70
     1
  9
$DIMSHO
 70
     1
  9
$DIMPOST
  1

  9
$DIMAPOST
  1

  9
$DIMALT
 70
     0
  9
$DIMALTD
 70
     2
  9
$DIMALTF
 40
25.4
  9
$DIMLFAC
 40
1.0
  9
$DIMTOFL
 70
     0
  9
$DIMTVP
 40
0.0
  9
$DIMTIX
 70
     0
  9
$DIMSOXD
 70
     0
  9
$DIMSAH
 70
     0
  9
$DIMBLK1
  1

  9
$DIMBLK2
  1

  9
$DIMSTYLE
  2
Standard
  9
$DIMCLRD
 70
     0
  9
$DIMCLRE
 70
     0
  9
$DIMCLRT
 70
     0
  9
$DIMTFAC
 40
1.0
  9
$DIMGAP
 40
0.125
  9
$DIMJUST
 70
     0
  9
$DIMSD1
 70
     0
  9
$DIMSD2
 70
     0
  9
$DIMTOLJ
 70
     1
  9
$DIMTZIN
 70
     1
  9
$DIMALTZ
 70
     0
  9
$DIMALTTZ
 70
     0
  9
$DIMUPT
 70
     0
  9
$DIMDEC
 70
     2
  9
$DIMTDEC
 70
     2
  9
$DIMALTU
 70
     2
  9
$DIMALTTD
 70
     2
  9
$DIMTXSTY
  7
STANDARD
  9
$DIMAUNIT
 70
     0
  9
$DIMADEC
 70
     2
  9
$DIMALTRND
 40
0.0
  9
$DIMAZIN
 70
     0
  9
$DIMDSEP
 70
    46
  9
$DIMATFIT
 70
     3
  9
$DIMFRAC
 70
     0
  9
$DIMLDRBLK
  1

  9
$DIMLUNIT
 70
     2
  9
$DIMLWD
 70
    -2
  9
$DIMLWE
 70
    -2
  9
$DIMTMOVE
 70
     0
  9
$LUNITS
 70
     2
  9
$LUPREC
 70
     4
  9
$SKETCHINC
 40
0.1
  9
$FILLETRAD
 40
0.5
  9
$AUNITS
 70
     0
  9
$AUPREC
 70
     2
  9
$MENU
  1
.
  9
$ELEVATION
 40
0.0
  9
$PELEVATION
 40
0.0
  9
$THICKNESS
 40
0.0
  9
$LIMCHECK
 70
     0
  9
$CHAMFERA
 40
0.0
  9
$CHAMFERB
 40
0.0
  9
$CHAMFERC
 40
0.0
  9
$CHAMFERD
 40
0.0
  9
$SKPOLY
 70
     0
  9
$TDCREATE
 40
2459461.393020972
  9
$TDUCREATE
 40
2459461.559687639
  9
$TDUPDATE
 40
2459461.393024595
  9
$TDUUPDATE
 40
2459461.559691262
  9
$TDINDWG
 40
0.0000000116
  9
$TDUSRTIMER
 40
0.0000000116
  9
$USRTIMER
 70
     1
  9
$ANGBASE
 50
0.0
  9
$ANGDIR
 70
     0
  9
$PDMODE
 70
     0
  9
$PDSIZE
 40
-1.0
  9
$PLINEWID
 40
0.0
  9
$SPLFRAME
 70
     0
  9
$SPLINETYPE
 70
     6
  9
$SPLINESEGS
 70
     8
  9
$HANDSEED
  5
2F8
  9
$SURFTAB1
 70
     6
  9
$SURFTAB2
 70
     6
  9
$SURFTYPE
 70
     6
  9
$SURFU
 70
     6
  9
$SURFV
 70
     6
  9
$UCSBASE
  2

  9
$UCSNAME
  2

  9
$UCSORG
 10
0.0
 20
0.0
 30
0.0
  9
$UCSXDIR
 10
1.0
 20
0.0
 30
0.0
  9
$UCSYDIR
 10
0.0
 20
1.0
 30
0.0
  9
$UCSORTHOREF
  2

  9
$UCSORTHOVIEW
 70
     0
  9
$UCSORGTOP
 10
0.0
 20
0.0
 30
0.0
  9
$UCSORGBOTTOM
 10
0.0
 20
0.0
 30
0.0
  9
$UCSORGLEFT
 10
0.0
 20
0.0
 30
0.0
  9
$UCSORGRIGHT
 10
0.0
 20
0.0
 30
0.0
  9
$UCSORGFRONT
 10
0.0
 20
0.0
 30
0.0
  9
$UCSORGBACK
 10
0.0
 20
0.0
 30
0.0
  9
$PUCSBASE
  2

  9
$PUCSNAME
  2

  9
$PUCSORG
 10
0.0
 20
0.0
 30
0.0
  9
$PUCSXDIR
 10
1.0
 20
0.0
 30
0.0
  9
$PUCSYDIR
 10
0.0
 20
1.0
 30
0.0
  9
$PUCSORTHOREF
  2

  9
$PUCSORTHOVIEW
 70
     0
  9
$PUCSORGTOP
 10
0.0
 20
0.0
 30
0.0
  9
$PUCSORGBOTTOM
 10
0.0
 20
0.0
 30
0.0
  9
$PUCSORGLEFT
 10
0.0
 20
0.0
 30
0.0
  9
$PUCSORGRIGHT
 10
0.0
 20
0.0
 30
0.0
  9
$PUCSORGFRONT
 10
0.0
 20
0.0
 30
0.0
  9
$PUCSORGBACK
 10
0.0
 20
0.0
 30
0.0
  9
$USERI1
 70
     0
  9
$USERI2
 70
     0
  9
$USERI3
 70
     0
  9
$USERI4
 70
     0
  9
$USERI5
 70
     0
  9
$USERR1
 40
0.0
  9
$USERR2
 40
0.0
  9
$USERR3
 40
0.0
  9
$USERR4
 40
0.0
  9
$USERR5
 40
0.0
  9
$WORLDVIEW
 70
     1
  9
$SHADEDGE
 70
     3
  9
$SHADEDIF
 70
    70
  9
$TILEMODE
 70
     1
  9
$MAXACTVP
 70
    64
  9
$PINSBASE
 10
0.0
 20
0.0
 30
0.0
  9
$PLIMCHECK
 70
     0
  9
$PEXTMIN
 10
1.0000000000E+20
 20
1.0000000000E+20
 30
1.0000000000E+20
  9
$PEXTMAX
 10
-1.0000000000E+20
 20
-1.0000000000E+20
 30
-1.0000000000E+20
  9
$PLIMMIN
 10
0.0
 20
0.0
  9
$PLIMMAX
 10
12.0
 20
9.0
  9
$UNITMODE
 70
     0
  9
$VISRETAIN
 70
     1
  9
$PLINEGEN
 70
     0
  9
$PSLTSCALE
 70
     1
  9
$TREEDEPTH
 70
  3020
  9
$CMLSTYLE
  2
Standard
  9
$CMLJUST
 70
     0
  9
$CMLSCALE
 40
1.0
  9
$PROXYGRAPHICS
 70
     1
  9
$MEASUREMENT
 70
     0
  9
$CELWEIGHT
370
    -1
  9
$ENDCAPS
280
     0
  9
$JOINSTYLE
280
     0
  9
$LWDISPLAY
290
     1
  9
$INSUNITS
 70
     1
  9
$HYPERLINKBASE
  1

  9
$STYLESHEET
  1

  9
$XEDIT
290
     1
  9
$CEPSNTYPE
380
     0
  9
$PSTYLEMODE
290
     1
  9
$FINGERPRINTGUID
  2
{47ed283b-6edf-4f53-a714-28d86535b8f6}
  9
$VERSIONGUID
  2
{FAEB1C32-E019-11D5-929B-00C0DF256EC4}
  9
$EXTNAMES
290
     1
  9
$PSVPSCALE
 40
0.0
  9
$OLESTARTUP
290
     0
  0
ENDSEC
  0
SECTION
  2
CLASSES
  0
CLASS
  1
ACDBDICTIONARYWDFLT
  2
AcDbDictionaryWithDefault
  3
ObjectDBX Classes
 90
        0
280
     0
281
     0
  0
CLASS
  1
VISUALSTYLE
  2
AcDbVisualStyle
  3
ObjectDBX Classes
 90
     4095
280
     0
281
     0
  0
CLASS
  1
MATERIAL
  2
AcDbMaterial
  3
ObjectDBX Classes
 90
     1153
280
     0
281
     0
  0
CLASS
  1
SCALE
  2
AcDbScale
  3
ObjectDBX Classes
 90
     1153
280
     0
281
     0
  0
CLASS
  1
TABLESTYLE
  2
AcDbTableStyle
  3
ObjectDBX Classes
 90
     4095
280
     0
281
     0
  0
CLASS
  1
MLEADERSTYLE
  2
AcDbMLeaderStyle
  3
ACDB_MLEADERSTYLE_CLASS
 90
     4095
280
     0
281
     0
  0
CLASS
  1
SUN
  2
AcDbSun
  3
SCENEOE
 90
     1153
280
     0
281
     0
  0
CLASS
  1
ACDBPLACEHOLDER
  2
AcDbPlaceHolder
  3
ObjectDBX Classes
 90
        0
280
     0
281
     0
  0
CLASS
  1
LAYOUT
  2
AcDbLayout
  3
ObjectDBX Classes
 90
        0
280
     0
281
     0
  0
ENDSEC
  0
SECTION
  2
TABLES
  0
TABLE
  2
VPORT
  5
8
330
0
100
AcDbSymbolTable
 70
     1
  0
VPORT
  5
29
330
8
100
AcDbSymbolTableRecord
100
AcDbViewportTableRecord
  2
*Active
 70
     0
 10
0.0
 20
0.0
 11
1.0
 21
1.0
 12
24.0
 22
18.0
 13
0.0
 23
0.0
 14
0.5
 24
0.5
 15
0.5
 25
0.5
 16
0.0
 26
0.0
 36
1.0
 17
0.0
 27
0.0
 37
0.0
 40
36.0
 41
1.3333333333
 42
50.0
 43
0.0
 44
0.0
 50
0.0
 51
0.0
 71
     0
 72
  2000
 73
     1
 74
     3
 75
     0
 76
     0
 77
     0
 78
     0
281
     0
 65
     1
110
0.0
120
0.0
130
0.0
111
1.0
121
0.0
131
0.0
112
0.0
122
1.0
132
0.0
 79
     0
146
0.0
  0
ENDTAB
  0
TABLE
  2
LTYPE
  5
5
330
0
100
AcDbSymbolTable
 70
     8
  0
LTYPE
  5
14
330
5
100
AcDbSymbolTableRecord
100
AcDbLinetypeTableRecord
  2
ByBlock
 70
     0
  3

 72
    65
 73
     0
 40
0.0
  0
LTYPE
  5
15
330
5
100
AcDbSymbolTableRecord
100
AcDbLinetypeTableRecord
  2
ByLayer
 70
     0
  3

 72
    65
 73
     0
 40
0.0
  0
LTYPE
  5
16
330
5
100
AcDbSymbolTableRecord
100
AcDbLinetypeTableRecord
  2
Continuous
 70
     0
  3
Solid line
 72
    65
 73
     0
 40
0.0
  0
LTYPE
  5
6E
330
5
100
AcDbSymbolTableRecord
100
AcDbLinetypeTableRecord
  2
SLD-Solid
 70
     0
  3
SolidWorks Line Style
 72
    65
 73
     0
 40
0.0
  0
LTYPE
  5
6F
330
5
100
AcDbSymbolTableRecord
100
AcDbLinetypeTableRecord
  2
SLD-Dashed
 70
     0
  3
SolidWorks Line Style
 72
    65
 73
     2
 40
0.075
 49
0.05
 74
     0
 49
-0.025
 74
     0
  0
LTYPE
  5
70
330
5
100
AcDbSymbolTableRecord
100
AcDbLinetypeTableRecord
  2
SLD-Phantom
 70
     0
  3
SolidWorks Line Style
 72
    65
 73
     6
 40
0.5
 49
0.25
 74
     0
 49
-0.05
 74
     0
 49
0.05
 74
     0
 49
-0.05
 74
     0
 49
0.05
 74
     0
 49
-0.05
 74
     0
  0
LTYPE
  5
71
330
5
100
AcDbSymbolTableRecord
100
AcDbLinetypeTableRecord
  2
SLD-Chain
 70
     0
  3
SolidWorks Line Style
 72
    65
 73
     4
 40
0.4
 49
0.25
 74
     0
 49
-0.05
 74
     0
 49
0.05
 74
     0
 49
-0.05
 74
     0
  0
LTYPE
  5
72
330
5
100
AcDbSymbolTableRecord
100
AcDbLinetypeTableRecord
  2
SLD-Center
 70
     0
  3
SolidWorks Line Style
 72
    65
 73
     4
 40
0.75
 49
0.6
 74
     0
 49
-0.05
 74
     0
 49
0.05
 74
     0
 49
-0.05
 74
     0
  0
LTYPE
  5
73
330
5
100
AcDbSymbolTableRecord
100
AcDbLinetypeTableRecord
  2
SLD-Stitch
 70
     0
  3
SolidWorks Line Style
 72
    65
 73
     2
 40
0.025
 49
0.0
 74
     0
 49
-0.025
 74
     0
  0
LTYPE
  5
74
330
5
100
AcDbSymbolTableRecord
100
AcDbLinetypeTableRecord
  2
SLD-Thin-Thick-Chain
 70
     0
  3
SolidWorks Line Style
 72
    65
 73
     4
 40
0.4
 49
0.25
 74
     0
 49
-0.05
 74
     0
 49
0.05
 74
     0
 49
-0.05
 74
     0
  0
ENDTAB
  0
TABLE
  2
LAYER
  5
2
330
0
100
AcDbSymbolTable
 70
     6
  0
LAYER
  5
10
330
2
100
AcDbSymbolTableRecord
100
AcDbLayerTableRecord
  2
0
 70
     0
 62
     7
  6
Continuous
370
    -3
390
F
  0
LAYER
  5
75
330
2
100
AcDbSymbolTableRecord
100
AcDbLayerTableRecord
  2
FORMAT
 70
     0
 62
     7
  6
SLD-Solid
370
    -3
390
F
  0
LAYER
  5
76
330
2
100
AcDbSymbolTableRecord
100
AcDbLayerTableRecord
  2
NOTES
 70
     0
 62
     1
  6
SLD-Solid
370
    -3
390
F
  0
LAYER
  5
77
330
2
100
AcDbSymbolTableRecord
100
AcDbLayerTableRecord
  2
OBJECT
 70
     0
 62
     7
  6
SLD-Solid
370
    25
390
F
  0
LAYER
  5
78
330
2
100
AcDbSymbolTableRecord
100
AcDbLayerTableRecord
  2
DIMS
 70
     0
 62
     5
  6
SLD-Solid
370
    -3
390
F
  0
LAYER
  5
79
330
2
100
AcDbSymbolTableRecord
100
AcDbLayerTableRecord
  2
TITLE
 70
     0
 62
     8
  6
SLD-Solid
370
    -3
390
F
  0
ENDTAB
  0
TABLE
  2
STYLE
  5
3
330
0
100
AcDbSymbolTable
 70
     5
  0
STYLE
  5
11
330
3
100
AcDbSymbolTableRecord
100
AcDbTextStyleTableRecord
  2
STANDARD
 70
     0
 40
0.0
 41
1.0
 50
0.0
 71
     0
 42
0.5
  3
GOTHIC.TTF
  4

1001
ACAD
1000
CENTURY GOTHIC
1071
       34
  0
STYLE
  5
DD
330
3
100
AcDbSymbolTableRecord
100
AcDbTextStyleTableRecord
  2
SLDTEXTSTYLE0
 70
     0
 40
0.0
 41
0.913
 50
0.0
 71
     0
 42
0.5
  3
GOTHIC.TTF
  4

1001
ACAD
1000
Century Gothic
1071
      290
  0
STYLE
  5
E8
330
3
100
AcDbSymbolTableRecord
100
AcDbTextStyleTableRecord
  2
SLDTEXTSTYLE1
 70
     0
 40
0.0
 41
0.948
 50
0.0
 71
     0
 42
0.5
  3
ARIAL.TTF
  4

1001
ACAD
1000
Arial
1071
      290
  0
STYLE
  5
FA
330
3
100
AcDbSymbolTableRecord
100
AcDbTextStyleTableRecord
  2
SLDTEXTSTYLE2
 70
     0
 40
0.0
 41
0.87
 50
0.0
 71
     0
 42
0.5
  3
ARIALNB.TTF
  4

1001
ACAD
1000
Arial Narrow
1071
 33554722
  0
STYLE
  5
FC
330
3
100
AcDbSymbolTableRecord
100
AcDbTextStyleTableRecord
  2
SLDTEXTSTYLE3
 70
     0
 40
0.0
 41
0.87
 50
0.0
 71
     0
 42
0.5
  3
ARIALN.TTF
  4

1001
ACAD
1000
Arial Narrow
1071
      290
  0
ENDTAB
  0
TABLE
  2
VIEW
  5
6
330
0
100
AcDbSymbolTable
 70
     0
  0
ENDTAB
  0
TABLE
  2
UCS
  5
7
330
0
100
AcDbSymbolTable
 70
     0
  0
ENDTAB
  0
TABLE
  2
APPID
  5
9
330
0
100
AcDbSymbolTable
 70
     1
  0
APPID
  5
12
330
9
100
AcDbSymbolTableRecord
100
AcDbRegAppTableRecord
  2
ACAD
 70
     0
  0
ENDTAB
  0
TABLE
  2
DIMSTYLE
  5
A
330
0
100
AcDbSymbolTable
 70
     2
100
AcDbDimStyleTable
  0
DIMSTYLE
105
27
330
A
100
AcDbSymbolTableRecord
100
AcDbDimStyleTableRecord
  2
Standard
 70
     0
178
     0
340
11
  0
DIMSTYLE
105
1BC
102
{ACAD_REACTORS
330
1BB
330
2D9
330
2E8
102
}
330
A
100
AcDbSymbolTableRecord
100
AcDbDimStyleTableRecord
  2
SLDDIMSTYLE0
 70
     0
 41
0.3
 44
0.0
 45
0.000000001
 78
    12
 79
     3
140
0.5
147
0.125
173
     1
178
     0
271
     6
272
     2
276
     2
277
     5
284
    12
340
DD
341
1BD
343
1BD
344
1BD
  0
ENDTAB
  0
TABLE
  2
BLOCK_RECORD
  5
1
330
0
100
AcDbSymbolTable
 70
     8
  0
BLOCK_RECORD
  5
1F
330
1
100
AcDbSymbolTableRecord
100
AcDbBlockTableRecord
  2
*Model_Space
340
22
  0
BLOCK_RECORD
  5
1B
330
1
100
AcDbSymbolTableRecord
100
AcDbBlockTableRecord
  2
*Paper_Space
340
1E
  0
BLOCK_RECORD
  5
23
330
1
100
AcDbSymbolTableRecord
100
AcDbBlockTableRecord
  2
*Paper_Space0
340
26
  0
BLOCK_RECORD
  5
E0
330
1
100
AcDbSymbolTableRecord
100
AcDbBlockTableRecord
  2
SW_NOTE_0
340
0
102
{BLKREFS
331
E7
102
}
  0
BLOCK_RECORD
  5
F1
330
1
100
AcDbSymbolTableRecord
100
AcDbBlockTableRecord
  2
SW_NOTE_0_1
340
0
102
{BLKREFS
331
F6
102
}
  0
BLOCK_RECORD
  5
F7
330
1
100
AcDbSymbolTableRecord
100
AcDbBlockTableRecord
  2
SW_NOTE_0_2
340
0
102
{BLKREFS
331
100
102
}
  0
BLOCK_RECORD
  5
1BD
330
1
100
AcDbSymbolTableRecord
100
AcDbBlockTableRecord
  2
_Open90
340
0
102
{BLKREFS
331
1C6
331
1C7
331
2DD
331
2DE
331
2EC
331
2ED
102
}
  0
BLOCK_RECORD
  5
1C3
330
1
100
AcDbSymbolTableRecord
100
AcDbBlockTableRecord
  2
_D
340
0
  0
BLOCK_RECORD
  5
2DA
330
1
100
AcDbSymbolTableRecord
100
AcDbBlockTableRecord
  2
_D_1
340
0
  0
BLOCK_RECORD
  5
2E9
330
1
100
AcDbSymbolTableRecord
100
AcDbBlockTableRecord
  2
_D_2
340
0
  0
ENDTAB
  0
ENDSEC
  0
SECTION
  2
BLOCKS
  0
BLOCK
  5
20
330
1F
100
AcDbEntity
  8
0
100
AcDbBlockBegin
  2
*Model_Space
 70
     0
 10
0.0
 20
0.0
 30
0.0
  3
*Model_Space
  1

  0
ENDBLK
  5
21
330
1F
100
AcDbEntity
  8
0
100
AcDbBlockEnd
  0
BLOCK
  5
1C
330
1B
100
AcDbEntity
 67
     1
  8
0
100
AcDbBlockBegin
  2
*Paper_Space
 70
     0
 10
0.0
 20
0.0
 30
0.0
  3
*Paper_Space
  1

  0
ENDBLK
  5
1D
330
1B
100
AcDbEntity
 67
     1
  8
0
100
AcDbBlockEnd
  0
BLOCK
  5
24
330
23
100
AcDbEntity
  8
0
100
AcDbBlockBegin
  2
*Paper_Space0
 70
     0
 10
0.0
 20
0.0
 30
0.0
  3
*Paper_Space0
  1

  0
ENDBLK
  5
25
330
23
100
AcDbEntity
  8
0
100
AcDbBlockEnd
  0
BLOCK
  5
E1
330
E0
100
AcDbEntity
  8
0
100
AcDbBlockBegin
  2
SW_NOTE_0
 70
     0
 10
0.0
 20
0.0
 30
0.0
  3
SW_NOTE_0
  1

  0
MTEXT
  5
E3
330
E0
100
AcDbEntity
  8
NOTES
 62
     0
100
AcDbMText
 10
0.0
 20
0.638671875
 30
0.0
 40
0.5
 41
0.0
 71
     1
 72
     1
  1
3D view
  7
SLDTEXTSTYLE0
 73
     1
 44
1.0
  0
MTEXT
  5
E4
330
E0
100
AcDbEntity
  8
NOTES
 62
     0
100
AcDbMText
 10
0.0
 20
-0.0078559229
 30
0.0
 40
0.5
 41
0.0
 71
     1
 72
     1
  1
Code 878-500 
  7
SLDTEXTSTYLE0
 73
     1
 44
1.0
  0
MTEXT
  5
E5
330
E0
100
AcDbEntity
  8
NOTES
 62
     0
100
AcDbMText
 10
0.0
 20
-0.6543837208
 30
0.0
 40
0.5
 41
0.0
 71
     1
 72
     1
  1
Internal disposable containers
  7
SLDTEXTSTYLE0
 73
     1
 44
1.0
  0
MTEXT
  5
E6
330
E0
100
AcDbEntity
  8
NOTES
 62
     0
100
AcDbMText
 10
0.0
 20
-1.3009115188
 30
0.0
 40
0.5
 41
0.0
 71
     1
 72
     1
  1
pack of (4)
  7
SLDTEXTSTYLE0
 73
     1
 44
1.0
  0
ENDBLK
  5
E2
330
E0
100
AcDbEntity
  8
0
100
AcDbBlockEnd
  0
BLOCK
  5
F2
330
F1
100
AcDbEntity
  8
0
100
AcDbBlockBegin
  2
SW_NOTE_0_1
 70
     0
 10
0.0
 20
0.0
 30
0.0
  3
SW_NOTE_0_1
  1

  0
MTEXT
  5
F4
330
F1
100
AcDbEntity
  8
NOTES
 62
     0
100
AcDbMText
 10
0.0
 20
0.3759780908
 30
0.0
 40
0.2916666667
 41
0.0
 71
     1
 72
     1
  1
FROST PRODUCTS LTD.
  7
SLDTEXTSTYLE1
 73
     1
 44
1.0
  0
MTEXT
  5
F5
330
F1
100
AcDbEntity
  8
NOTES
 62
     0
100
AcDbMText
 10
0.0
 20
-0.0495142709
 30
0.0
 40
0.2291666667
 41
0.0
 71
     1
 72
     1
  1
5280 JOHN LUCAS DRIVE, BURLINGTON, ON, L7L 5Z9
  7
SLDTEXTSTYLE1
 73
     1
 44
1.0
  0
ENDBLK
  5
F3
330
F1
100
AcDbEntity
  8
0
100
AcDbBlockEnd
  0
BLOCK
  5
F8
330
F7
100
AcDbEntity
  8
0
100
AcDbBlockBegin
  2
SW_NOTE_0_2
 70
     0
 10
0.0
 20
0.0
 30
0.0
  3
SW_NOTE_0_2
  1

  0
MTEXT
  5
FB
330
F7
100
AcDbEntity
  8
NOTES
 62
     0
100
AcDbMText
 10
0.0
 20
0.2381282771
 30
0.0
 40
0.184729064
 41
0.0
 71
     1
 72
     1
  1
PROPRIETARY AND CONFIDENTIAL
  7
SLDTEXTSTYLE2
 73
     1
 44
1.0
  0
MTEXT
  5
FD
330
F7
100
AcDbEntity
  8
NOTES
 62
     0
100
AcDbMText
 10
0.0
 20
-0.0504364796
 30
0.0
 40
0.25
 41
0.0
 71
     1
 72
     1
  1
THE INFORMATION CONTAINED IN THIS DRAWING IS THE SOLE PROPERTY OF 
  7
SLDTEXTSTYLE3
 73
     1
 44
1.0
  0
MTEXT
  5
FE
330
F7
100
AcDbEntity
  8
NOTES
 62
     0
100
AcDbMText
 10
0.0
 20
-0.4231398941
 30
0.0
 40
0.25
 41
0.0
 71
     1
 72
     1
  1
FROST PRODUCTS LTD.  ANY REPRODUCTION IN PART OR AS A WHOLE WITHOUT 
  7
SLDTEXTSTYLE3
 73
     1
 44
1.0
  0
MTEXT
  5
FF
330
F7
100
AcDbEntity
  8
NOTES
 62
     0
100
AcDbMText
 10
0.0
 20
-0.7958433086
 30
0.0
 40
0.25
 41
0.0
 71
     1
 72
     1
  1
THE WRITTEN PERMISSION OF FROST PRODUCTS LTD. IS PROHIBITED.
  7
SLDTEXTSTYLE3
 73
     1
 44
1.0
  0
ENDBLK
  5
F9
330
F7
100
AcDbEntity
  8
0
100
AcDbBlockEnd
  0
BLOCK
  5
1BE
330
1BD
100
AcDbEntity
  8
0
100
AcDbBlockBegin
  2
_Open90
 70
     0
 10
0.0
 20
0.0
 30
0.0
  3
_Open90
  1

  0
LINE
  5
1C0
330
1BD
100
AcDbEntity
  8
0
  6
ByBlock
 62
     0
370
    -2
100
AcDbLine
 10
-0.5
 20
0.5
 30
0.0
 11
0.0
 21
0.0
 31
0.0
  0
LINE
  5
1C1
330
1BD
100
AcDbEntity
  8
0
  6
ByBlock
 62
     0
370
    -2
100
AcDbLine
 10
0.0
 20
0.0
 30
0.0
 11
-0.5
 21
-0.5
 31
0.0
  0
LINE
  5
1C2
330
1BD
100
AcDbEntity
  8
0
  6
ByBlock
 62
     0
370
    -2
100
AcDbLine
 10
0.0
 20
0.0
 30
0.0
 11
-1.0
 21
0.0
 31
0.0
  0
ENDBLK
  5
1BF
330
1BD
100
AcDbEntity
  8
0
100
AcDbBlockEnd
  0
BLOCK
  5
1C4
330
1C3
100
AcDbEntity
  8
0
100
AcDbBlockBegin
  2
_D
 70
     0
 10
0.0
 20
0.0
 30
0.0
  3
_D
  1

  0
INSERT
  5
1C6
330
1C3
100
AcDbEntity
  8
DIMS
100
AcDbBlockReference
  2
_Open90
 10
13.5727047873
 20
20.8814837664
 30
-13.6201235966
 41
0.3
 42
0.3
 50
90.0
  0
INSERT
  5
1C7
330
1C3
100
AcDbEntity
  8
DIMS
100
AcDbBlockReference
  2
_Open90
 10
13.5727047873
 20
9.0214837664
 30
-13.6201235966
 41
0.3
 42
0.3
 50
270.0
  0
LINE
  5
1C8
330
1C3
100
AcDbEntity
  8
DIMS
100
AcDbLine
 10
13.581038126
 20
15.159452116
 30
0.0
 11
14.0970103755
 21
15.159452116
 31
0.0
  0
LINE
  5
1C9
330
1C3
100
AcDbEntity
  8
DIMS
100
AcDbLine
 10
15.5946699772
 20
20.8814837664
 30
0.0
 11
13.1977047873
 21
20.8814837664
 31
0.0
  0
LINE
  5
1CA
330
1C3
100
AcDbEntity
  8
DIMS
100
AcDbLine
 10
15.3888527842
 20
9.0214837664
 30
0.0
 11
13.1977047873
 21
9.0214837664
 31
0.0
  0
LINE
  5
1CB
330
1C3
100
AcDbEntity
  8
DIMS
100
AcDbLine
 10
13.5727047873
 20
20.8814837664
 30
0.0
 11
13.5727047873
 21
15.7620215709
 31
0.0
  0
LINE
  5
1CC
330
1C3
100
AcDbEntity
  8
DIMS
100
AcDbLine
 10
13.5727047873
 20
9.0214837664
 30
0.0
 11
13.5727047873
 21
14.4543132643
 31
0.0
  0
MTEXT
  5
1CD
330
1C3
100
AcDbEntity
  8
DIMS
100
AcDbMText
 10
12.7688853331
 20
15.3888531764
 30
0.0
 40
0.5
 41
0.0
 71
     1
 72
     1
  1
11
  7
SLDTEXTSTYLE0
 73
     1
 44
1.0
  0
MTEXT
  5
1CE
330
1C3
100
AcDbEntity
  8
DIMS
100
AcDbMText
 10
13.654302028
 20
15.7541656754
 30
0.0
 40
0.5
 41
0.0
 71
     1
 72
     1
  1
7
  7
SLDTEXTSTYLE0
 73
     1
 44
1.0
  0
MTEXT
  5
1CF
330
1C3
100
AcDbEntity
  8
DIMS
100
AcDbMText
 10
13.654302028
 20
15.0929850969
 30
0.0
 40
0.5
 41
0.0
 71
     1
 72
     1
  1
8
  7
SLDTEXTSTYLE0
 73
     1
 44
1.0
  0
MTEXT
  5
1D0
330
1C3
100
AcDbEntity
  8
DIMS
100
AcDbMText
 10
14.1702742775
 20
15.3888531764
 30
0.0
 40
0.5
 41
0.0
 71
     1
 72
     1
  1
"
  7
SLDTEXTSTYLE0
 73
     1
 44
1.0
  0
ENDBLK
  5
1C5
330
1C3
100
AcDbEntity
  8
0
100
AcDbBlockEnd
  0
BLOCK
  5
2DB
330
2DA
100
AcDbEntity
  8
0
100
AcDbBlockBegin
  2
_D_1
 70
     0
 10
0.0
 20
0.0
 30
0.0
  3
_D_1
  1

  0
INSERT
  5
2DD
330
2DA
100
AcDbEntity
  8
DIMS
100
AcDbBlockReference
  2
_Open90
 10
14.9112874645
 20
23.5108307491
 30
-1.347116227
 41
0.3
 42
0.3
 50
180.0
  0
INSERT
  5
2DE
330
2DA
100
AcDbEntity
  8
DIMS
100
AcDbBlockReference
  2
_Open90
 10
20.4112874645
 20
23.5108307491
 30
-1.347116227
 41
0.3
 42
0.3
 50
0.0
  0
LINE
  5
2DF
330
2DA
100
AcDbEntity
  8
DIMS
100
AcDbLine
 10
17.6192357087
 20
23.5621154475
 30
0.0
 11
18.1352079581
 21
23.5621154475
 31
0.0
  0
LINE
  5
2E0
330
2DA
100
AcDbEntity
  8
DIMS
100
AcDbLine
 10
14.9112874645
 20
26.3276286494
 30
0.0
 11
14.9112874645
 21
23.1358307491
 31
0.0
  0
LINE
  5
2E1
330
2DA
100
AcDbEntity
  8
DIMS
100
AcDbLine
 10
20.4112874645
 20
26.3276286494
 30
0.0
 11
20.4112874645
 21
23.1358307491
 31
0.0
  0
LINE
  5
2E2
330
2DA
100
AcDbEntity
  8
DIMS
100
AcDbLine
 10
14.9112874645
 20
23.5108307491
 30
0.0
 11
17.1765273612
 21
23.5108307491
 31
0.0
  0
LINE
  5
2E3
330
2DA
100
AcDbEntity
  8
DIMS
100
AcDbLine
 10
20.4112874645
 20
23.5108307491
 30
0.0
 11
18.4147218975
 21
23.5108307491
 31
0.0
  0
MTEXT
  5
2E4
330
2DA
100
AcDbEntity
  8
DIMS
100
AcDbMText
 10
17.1765273612
 20
23.7915165079
 30
0.0
 40
0.5
 41
0.0
 71
     1
 72
     1
  1
5
  7
SLDTEXTSTYLE0
 73
     1
 44
1.0
  0
MTEXT
  5
2E5
330
2DA
100
AcDbEntity
  8
DIMS
100
AcDbMText
 10
17.6924996107
 20
24.156829007
 30
0.0
 40
0.5
 41
0.0
 71
     1
 72
     1
  1
1
  7
SLDTEXTSTYLE0
 73
     1
 44
1.0
  0
MTEXT
  5
2E6
330
2DA
100
AcDbEntity
  8
DIMS
100
AcDbMText
 10
17.6924996107
 20
23.4956484284
 30
0.0
 40
0.5
 41
0.0
 71
     1
 72
     1
  1
2
  7
SLDTEXTSTYLE0
 73
     1
 44
1.0
  0
MTEXT
  5
2E7
330
2DA
100
AcDbEntity
  8
DIMS
100
AcDbMText
 10
18.2084718601
 20
23.7915165079
 30
0.0
 40
0.5
 41
0.0
 71
     1
 72
     1
  1
"
  7
SLDTEXTSTYLE0
 73
     1
 44
1.0
  0
ENDBLK
  5
2DC
330
2DA
100
AcDbEntity
  8
0
100
AcDbBlockEnd
  0
BLOCK
  5
2EA
330
2E9
100
AcDbEntity
  8
0
100
AcDbBlockBegin
  2
_D_2
 70
     0
 10
0.0
 20
0.0
 30
0.0
  3
_D_2
  1

  0
INSERT
  5
2EC
330
2E9
100
AcDbEntity
  8
DIMS
100
AcDbBlockReference
  2
_Open90
 10
21.5136496692
 20
25.794295316
 30
-1.347116227
 41
0.3
 42
0.3
 50
270.0
  0
INSERT
  5
2ED
330
2E9
100
AcDbEntity
  8
DIMS
100
AcDbBlockReference
  2
_Open90
 10
21.5136496692
 20
31.294295316
 30
-1.347116227
 41
0.3
 42
0.3
 50
90.0
  0
LINE
  5
2EE
330
2E9
100
AcDbEntity
  8
DIMS
100
AcDbLine
 10
21.3372607485
 20
28.6765690064
 30
0.0
 11
21.853232998
 21
28.6765690064
 31
0.0
  0
LINE
  5
2EF
330
2E9
100
AcDbEntity
  8
DIMS
100
AcDbLine
 10
19.8779541311
 20
25.794295316
 30
0.0
 11
21.8886496692
 21
25.794295316
 31
0.0
  0
LINE
  5
2F0
330
2E9
100
AcDbEntity
  8
DIMS
100
AcDbLine
 10
19.8779541311
 20
31.294295316
 30
0.0
 11
21.8886496692
 21
31.294295316
 31
0.0
  0
LINE
  5
2F1
330
2E9
100
AcDbEntity
  8
DIMS
100
AcDbLine
 10
21.5136496692
 20
25.794295316
 30
0.0
 11
21.5136496692
 21
27.9714301547
 31
0.0
  0
LINE
  5
2F2
330
2E9
100
AcDbEntity
  8
DIMS
100
AcDbLine
 10
21.5136496692
 20
31.294295316
 30
0.0
 11
21.5136496692
 21
29.2791384613
 31
0.0
  0
MTEXT
  5
2F3
330
2E9
100
AcDbEntity
  8
DIMS
100
AcDbMText
 10
20.8945524011
 20
28.9059700668
 30
0.0
 40
0.5
 41
0.0
 71
     1
 72
     1
  1
5
  7
SLDTEXTSTYLE0
 73
     1
 44
1.0
  0
MTEXT
  5
2F4
330
2E9
100
AcDbEntity
  8
DIMS
100
AcDbMText
 10
21.4105246505
 20
29.2712825658
 30
0.0
 40
0.5
 41
0.0
 71
     1
 72
     1
  1
1
  7
SLDTEXTSTYLE0
 73
     1
 44
1.0
  0
MTEXT
  5
2F5
330
2E9
100
AcDbEntity
  8
DIMS
100
AcDbMText
 10
21.4105246505
 20
28.6101019873
 30
0.0
 40
0.5
 41
0.0
 71
     1
 72
     1
  1
2
  7
SLDTEXTSTYLE0
 73
     1
 44
1.0
  0
MTEXT
  5
2F6
330
2E9
100
AcDbEntity
  8
DIMS
100
AcDbMText
 10
21.9264968999
 20
28.9059700668
 30
0.0
 40
0.5
 41
0.0
 71
     1
 72
     1
  1
"
  7
SLDTEXTSTYLE0
 73
     1
 44
1.0
  0
ENDBLK
  5
2EB
330
2E9
100
AcDbEntity
  8
0
100
AcDbBlockEnd
  0
ENDSEC
  0
SECTION
  2
ENTITIES
  0
LINE
  5
7A
330
1F
100
AcDbEntity
  8
TITLE
370
    35
100
AcDbLine
 10
30.5182229757
 20
1.4876117645
 30
0.0
 11
47.4999864512
 21
1.4876117645
 31
0.0
  0
LINE
  5
7B
330
1F
100
AcDbEntity
  8
TITLE
370
    35
100
AcDbLine
 10
47.4999317442
 20
5.4753603936
 30
0.0
 11
37.3105350723
 21
5.4753603936
 31
0.0
  0
LINE
  5
7C
330
1F
100
AcDbEntity
  8
TITLE
  6
SLD-Solid
370
    18
100
AcDbLine
 10
0.5
 20
0.5
 30
0.0
 11
0.5
 21
35.5
 31
0.0
  0
LINE
  5
7D
330
1F
100
AcDbEntity
  8
TITLE
  6
SLD-Solid
370
    18
100
AcDbLine
 10
0.5
 20
35.5
 30
0.0
 11
47.5
 21
35.5
 31
0.0
  0
LINE
  5
7E
330
1F
100
AcDbEntity
  8
TITLE
370
    35
100
AcDbLine
 10
30.5182229757
 20
2.5427877231
 30
0.0
 11
23.5059791203
 21
2.5427877231
 31
0.0
  0
LINE
  5
7F
330
1F
100
AcDbEntity
  8
TITLE
370
    35
100
AcDbLine
 10
30.5182229757
 20
1.4876117645
 30
0.0
 11
23.5059791203
 21
1.4876117645
 31
0.0
  0
LINE
  5
80
330
1F
100
AcDbEntity
  8
TITLE
  6
SLD-Solid
370
    18
100
AcDbLine
 10
47.5
 20
35.5
 30
0.0
 11
47.5
 21
0.5
 31
0.0
  0
LINE
  5
81
330
1F
100
AcDbEntity
  8
TITLE
  6
SLD-Solid
370
    18
100
AcDbLine
 10
47.5
 20
0.5
 30
0.0
 11
0.5
 21
0.5
 31
0.0
  0
LINE
  5
82
330
1F
100
AcDbEntity
  8
TITLE
370
    35
100
AcDbLine
 10
30.5182229757
 20
1.4876117645
 30
0.0
 11
30.5182229757
 21
3.5979636817
 31
0.0
  0
LINE
  5
83
330
1F
100
AcDbEntity
  8
TITLE
370
    35
100
AcDbLine
 10
23.5059791203
 20
3.5979636817
 30
0.0
 11
23.5059791203
 21
0.5
 31
0.0
  0
LINE
  5
84
330
1F
100
AcDbEntity
  8
TITLE
370
    35
100
AcDbLine
 10
23.5059791203
 20
0.5
 30
0.0
 11
47.5
 21
0.5
 31
0.0
  0
LINE
  5
85
330
1F
100
AcDbEntity
  8
TITLE
370
    35
100
AcDbLine
 10
47.4999317442
 20
5.4753603936
 30
0.0
 11
47.5
 21
0.5
 31
0.0
  0
LINE
  5
86
330
1F
100
AcDbEntity
  8
TITLE
  6
SLD-Solid
370
    18
100
AcDbLine
 10
0.4999606299
 20
18.0
 30
0.0
 11
0.5000393701
 21
18.0
 31
0.0
  0
LINE
  5
87
330
1F
100
AcDbEntity
  8
TITLE
370
    35
100
AcDbLine
 10
30.5182229757
 20
3.5979636817
 30
0.0
 11
23.5059791203
 21
3.5979636817
 31
0.0
  0
LINE
  5
88
330
1F
100
AcDbEntity
  8
TITLE
370
    35
100
AcDbLine
 10
30.5182229757
 20
3.5979636817
 30
0.0
 11
47.4997615643
 21
3.5979648343
 31
0.0
  0
LINE
  5
89
330
1F
100
AcDbEntity
  8
TITLE
370
    35
100
AcDbLine
 10
37.3105350723
 20
5.4753603936
 30
0.0
 11
37.3105350723
 21
0.4636772425
 31
0.0
  0
LINE
  5
8A
330
1F
100
AcDbEntity
  8
TITLE
  6
SLD-Solid
370
    18
100
AcDbLine
 10
24.0
 20
35.5000393701
 30
0.0
 11
24.0
 21
35.4999606299
 31
0.0
  0
LINE
  5
8B
330
1F
100
AcDbEntity
  8
TITLE
  6
SLD-Solid
370
    18
100
AcDbLine
 10
47.5000393701
 20
18.0
 30
0.0
 11
47.4999606299
 21
18.0
 31
0.0
  0
LINE
  5
8C
330
1F
100
AcDbEntity
  8
TITLE
  6
SLD-Solid
370
    18
100
AcDbLine
 10
24.0
 20
0.4999606299
 30
0.0
 11
24.0
 21
0.5000393701
 31
0.0
  0
LINE
  5
8D
330
1F
100
AcDbEntity
  8
TITLE
  6
SLD-Solid
370
    18
100
AcDbLine
 10
0.5
 20
2.2519685039
 30
0.0
 11
0.1653543307
 21
2.2519685039
 31
0.0
  0
LINE
  5
8E
330
1F
100
AcDbEntity
  8
TITLE
  6
SLD-Solid
370
    18
100
AcDbLine
 10
47.5
 20
2.2519685039
 30
0.0
 11
47.8346456693
 21
2.2519685039
 31
0.0
  0
LINE
  5
8F
330
1F
100
AcDbEntity
  8
TITLE
  6
SLD-Solid
370
    18
100
AcDbLine
 10
0.5
 20
4.2204724409
 30
0.0
 11
0.1653543307
 21
4.2204724409
 31
0.0
  0
LINE
  5
90
330
1F
100
AcDbEntity
  8
TITLE
  6
SLD-Solid
370
    18
100
AcDbLine
 10
47.5
 20
4.2204724409
 30
0.0
 11
47.8346456693
 21
4.2204724409
 31
0.0
  0
LINE
  5
91
330
1F
100
AcDbEntity
  8
TITLE
  6
SLD-Solid
370
    18
100
AcDbLine
 10
0.5
 20
6.188976378
 30
0.0
 11
0.1653543307
 21
6.188976378
 31
0.0
  0
LINE
  5
92
330
1F
100
AcDbEntity
  8
TITLE
  6
SLD-Solid
370
    18
100
AcDbLine
 10
47.5
 20
6.188976378
 30
0.0
 11
47.8346456693
 21
6.188976378
 31
0.0
  0
LINE
  5
93
330
1F
100
AcDbEntity
  8
TITLE
  6
SLD-Solid
370
    18
100
AcDbLine
 10
0.5
 20
8.157480315
 30
0.0
 11
0.1653543307
 21
8.157480315
 31
0.0
  0
LINE
  5
94
330
1F
100
AcDbEntity
  8
TITLE
  6
SLD-Solid
370
    18
100
AcDbLine
 10
47.5
 20
8.157480315
 30
0.0
 11
47.8346456693
 21
8.157480315
 31
0.0
  0
LINE
  5
95
330
1F
100
AcDbEntity
  8
TITLE
  6
SLD-Solid
370
    18
100
AcDbLine
 10
0.5
 20
10.125984252
 30
0.0
 11
0.1653543307
 21
10.125984252
 31
0.0
  0
LINE
  5
96
330
1F
100
AcDbEntity
  8
TITLE
  6
SLD-Solid
370
    18
100
AcDbLine
 10
47.5
 20
10.125984252
 30
0.0
 11
47.8346456693
 21
10.125984252
 31
0.0
  0
LINE
  5
97
330
1F
100
AcDbEntity
  8
TITLE
  6
SLD-Solid
370
    18
100
AcDbLine
 10
0.5
 20
12.094488189
 30
0.0
 11
0.1653543307
 21
12.094488189
 31
0.0
  0
LINE
  5
98
330
1F
100
AcDbEntity
  8
TITLE
  6
SLD-Solid
370
    18
100
AcDbLine
 10
47.5
 20
12.094488189
 30
0.0
 11
47.8346456693
 21
12.094488189
 31
0.0
  0
LINE
  5
99
330
1F
100
AcDbEntity
  8
TITLE
  6
SLD-Solid
370
    18
100
AcDbLine
 10
0.5
 20
14.062992126
 30
0.0
 11
0.1653543307
 21
14.062992126
 31
0.0
  0
LINE
  5
9A
330
1F
100
AcDbEntity
  8
TITLE
  6
SLD-Solid
370
    18
100
AcDbLine
 10
47.5
 20
14.062992126
 30
0.0
 11
47.8346456693
 21
14.062992126
 31
0.0
  0
LINE
  5
9B
330
1F
100
AcDbEntity
  8
TITLE
  6
SLD-Solid
370
    18
100
AcDbLine
 10
0.5
 20
16.031496063
 30
0.0
 11
0.1653543307
 21
16.031496063
 31
0.0
  0
LINE
  5
9C
330
1F
100
AcDbEntity
  8
TITLE
  6
SLD-Solid
370
    18
100
AcDbLine
 10
47.5
 20
16.031496063
 30
0.0
 11
47.8346456693
 21
16.031496063
 31
0.0
  0
LINE
  5
9D
330
1F
100
AcDbEntity
  8
TITLE
  6
SLD-Solid
370
    18
100
AcDbLine
 10
0.5
 20
18.0
 30
0.0
 11
0.1653543307
 21
18.0
 31
0.0
  0
LINE
  5
9E
330
1F
100
AcDbEntity
  8
TITLE
  6
SLD-Solid
370
    18
100
AcDbLine
 10
47.5
 20
18.0
 30
0.0
 11
47.8346456693
 21
18.0
 31
0.0
  0
LINE
  5
9F
330
1F
100
AcDbEntity
  8
TITLE
  6
SLD-Solid
370
    18
100
AcDbLine
 10
0.5
 20
19.968503937
 30
0.0
 11
0.1653543307
 21
19.968503937
 31
0.0
  0
LINE
  5
A0
330
1F
100
AcDbEntity
  8
TITLE
  6
SLD-Solid
370
    18
100
AcDbLine
 10
47.5
 20
19.968503937
 30
0.0
 11
47.8346456693
 21
19.968503937
 31
0.0
  0
LINE
  5
A1
330
1F
100
AcDbEntity
  8
TITLE
  6
SLD-Solid
370
    18
100
AcDbLine
 10
0.5
 20
21.937007874
 30
0.0
 11
0.1653543307
 21
21.937007874
 31
0.0
  0
LINE
  5
A2
330
1F
100
AcDbEntity
  8
TITLE
  6
SLD-Solid
370
    18
100
AcDbLine
 10
47.5
 20
21.937007874
 30
0.0
 11
47.8346456693
 21
21.937007874
 31
0.0
  0
LINE
  5
A3
330
1F
100
AcDbEntity
  8
TITLE
  6
SLD-Solid
370
    18
100
AcDbLine
 10
0.5
 20
23.905511811
 30
0.0
 11
0.1653543307
 21
23.905511811
 31
0.0
  0
LINE
  5
A4
330
1F
100
AcDbEntity
  8
TITLE
  6
SLD-Solid
370
    18
100
AcDbLine
 10
47.5
 20
23.905511811
 30
0.0
 11
47.8346456693
 21
23.905511811
 31
0.0
  0
LINE
  5
A5
330
1F
100
AcDbEntity
  8
TITLE
  6
SLD-Solid
370
    18
100
AcDbLine
 10
0.5
 20
25.874015748
 30
0.0
 11
0.1653543307
 21
25.874015748
 31
0.0
  0
LINE
  5
A6
330
1F
100
AcDbEntity
  8
TITLE
  6
SLD-Solid
370
    18
100
AcDbLine
 10
47.5
 20
25.874015748
 30
0.0
 11
47.8346456693
 21
25.874015748
 31
0.0
  0
LINE
  5
A7
330
1F
100
AcDbEntity
  8
TITLE
  6
SLD-Solid
370
    18
100
AcDbLine
 10
0.5
 20
27.842519685
 30
0.0
 11
0.1653543307
 21
27.842519685
 31
0.0
  0
LINE
  5
A8
330
1F
100
AcDbEntity
  8
TITLE
  6
SLD-Solid
370
    18
100
AcDbLine
 10
47.5
 20
27.842519685
 30
0.0
 11
47.8346456693
 21
27.842519685
 31
0.0
  0
LINE
  5
A9
330
1F
100
AcDbEntity
  8
TITLE
  6
SLD-Solid
370
    18
100
AcDbLine
 10
0.5
 20
29.811023622
 30
0.0
 11
0.1653543307
 21
29.811023622
 31
0.0
  0
LINE
  5
AA
330
1F
100
AcDbEntity
  8
TITLE
  6
SLD-Solid
370
    18
100
AcDbLine
 10
47.5
 20
29.811023622
 30
0.0
 11
47.8346456693
 21
29.811023622
 31
0.0
  0
LINE
  5
AB
330
1F
100
AcDbEntity
  8
TITLE
  6
SLD-Solid
370
    18
100
AcDbLine
 10
0.5
 20
31.7795275591
 30
0.0
 11
0.1653543307
 21
31.7795275591
 31
0.0
  0
LINE
  5
AC
330
1F
100
AcDbEntity
  8
TITLE
  6
SLD-Solid
370
    18
100
AcDbLine
 10
47.5
 20
31.7795275591
 30
0.0
 11
47.8346456693
 21
31.7795275591
 31
0.0
  0
LINE
  5
AD
330
1F
100
AcDbEntity
  8
TITLE
  6
SLD-Solid
370
    18
100
AcDbLine
 10
0.5
 20
33.7480314961
 30
0.0
 11
0.1653543307
 21
33.7480314961
 31
0.0
  0
LINE
  5
AE
330
1F
100
AcDbEntity
  8
TITLE
  6
SLD-Solid
370
    18
100
AcDbLine
 10
47.5
 20
33.7480314961
 30
0.0
 11
47.8346456693
 21
33.7480314961
 31
0.0
  0
LINE
  5
AF
330
1F
100
AcDbEntity
  8
TITLE
  6
SLD-Solid
370
    18
100
AcDbLine
 10
2.3464566929
 20
35.5
 30
0.0
 11
2.3464566929
 21
35.8346456693
 31
0.0
  0
LINE
  5
B0
330
1F
100
AcDbEntity
  8
TITLE
  6
SLD-Solid
370
    18
100
AcDbLine
 10
2.3464566929
 20
0.5
 30
0.0
 11
2.3464566929
 21
0.1653543307
 31
0.0
  0
LINE
  5
B1
330
1F
100
AcDbEntity
  8
TITLE
  6
SLD-Solid
370
    18
100
AcDbLine
 10
4.3149606299
 20
35.5
 30
0.0
 11
4.3149606299
 21
35.8346456693
 31
0.0
  0
LINE
  5
B2
330
1F
100
AcDbEntity
  8
TITLE
  6
SLD-Solid
370
    18
100
AcDbLine
 10
4.3149606299
 20
0.5
 30
0.0
 11
4.3149606299
 21
0.1653543307
 31
0.0
  0
LINE
  5
B3
330
1F
100
AcDbEntity
  8
TITLE
  6
SLD-Solid
370
    18
100
AcDbLine
 10
6.2834645669
 20
35.5
 30
0.0
 11
6.2834645669
 21
35.8346456693
 31
0.0
  0
LINE
  5
B4
330
1F
100
AcDbEntity
  8
TITLE
  6
SLD-Solid
370
    18
100
AcDbLine
 10
6.2834645669
 20
0.5
 30
0.0
 11
6.2834645669
 21
0.1653543307
 31
0.0
  0
LINE
  5
B5
330
1F
100
AcDbEntity
  8
TITLE
  6
SLD-Solid
370
    18
100
AcDbLine
 10
8.2519685039
 20
35.5
 30
0.0
 11
8.2519685039
 21
35.8346456693
 31
0.0
  0
LINE
  5
B6
330
1F
100
AcDbEntity
  8
TITLE
  6
SLD-Solid
370
    18
100
AcDbLine
 10
8.2519685039
 20
0.5
 30
0.0
 11
8.2519685039
 21
0.1653543307
 31
0.0
  0
LINE
  5
B7
330
1F
100
AcDbEntity
  8
TITLE
  6
SLD-Solid
370
    18
100
AcDbLine
 10
10.2204724409
 20
35.5
 30
0.0
 11
10.2204724409
 21
35.8346456693
 31
0.0
  0
LINE
  5
B8
330
1F
100
AcDbEntity
  8
TITLE
  6
SLD-Solid
370
    18
100
AcDbLine
 10
10.2204724409
 20
0.5
 30
0.0
 11
10.2204724409
 21
0.1653543307
 31
0.0
  0
LINE
  5
B9
330
1F
100
AcDbEntity
  8
TITLE
  6
SLD-Solid
370
    18
100
AcDbLine
 10
12.188976378
 20
35.5
 30
0.0
 11
12.188976378
 21
35.8346456693
 31
0.0
  0
LINE
  5
BA
330
1F
100
AcDbEntity
  8
TITLE
  6
SLD-Solid
370
    18
100
AcDbLine
 10
12.188976378
 20
0.5
 30
0.0
 11
12.188976378
 21
0.1653543307
 31
0.0
  0
LINE
  5
BB
330
1F
100
AcDbEntity
  8
TITLE
  6
SLD-Solid
370
    18
100
AcDbLine
 10
14.157480315
 20
35.5
 30
0.0
 11
14.157480315
 21
35.8346456693
 31
0.0
  0
LINE
  5
BC
330
1F
100
AcDbEntity
  8
TITLE
  6
SLD-Solid
370
    18
100
AcDbLine
 10
14.157480315
 20
0.5
 30
0.0
 11
14.157480315
 21
0.1653543307
 31
0.0
  0
LINE
  5
BD
330
1F
100
AcDbEntity
  8
TITLE
  6
SLD-Solid
370
    18
100
AcDbLine
 10
16.125984252
 20
35.5
 30
0.0
 11
16.125984252
 21
35.8346456693
 31
0.0
  0
LINE
  5
BE
330
1F
100
AcDbEntity
  8
TITLE
  6
SLD-Solid
370
    18
100
AcDbLine
 10
16.125984252
 20
0.5
 30
0.0
 11
16.125984252
 21
0.1653543307
 31
0.0
  0
LINE
  5
BF
330
1F
100
AcDbEntity
  8
TITLE
  6
SLD-Solid
370
    18
100
AcDbLine
 10
18.094488189
 20
35.5
 30
0.0
 11
18.094488189
 21
35.8346456693
 31
0.0
  0
LINE
  5
C0
330
1F
100
AcDbEntity
  8
TITLE
  6
SLD-Solid
370
    18
100
AcDbLine
 10
18.094488189
 20
0.5
 30
0.0
 11
18.094488189
 21
0.1653543307
 31
0.0
  0
LINE
  5
C1
330
1F
100
AcDbEntity
  8
TITLE
  6
SLD-Solid
370
    18
100
AcDbLine
 10
20.062992126
 20
35.5
 30
0.0
 11
20.062992126
 21
35.8346456693
 31
0.0
  0
LINE
  5
C2
330
1F
100
AcDbEntity
  8
TITLE
  6
SLD-Solid
370
    18
100
AcDbLine
 10
20.062992126
 20
0.5
 30
0.0
 11
20.062992126
 21
0.1653543307
 31
0.0
  0
LINE
  5
C3
330
1F
100
AcDbEntity
  8
TITLE
  6
SLD-Solid
370
    18
100
AcDbLine
 10
22.031496063
 20
35.5
 30
0.0
 11
22.031496063
 21
35.8346456693
 31
0.0
  0
LINE
  5
C4
330
1F
100
AcDbEntity
  8
TITLE
  6
SLD-Solid
370
    18
100
AcDbLine
 10
22.031496063
 20
0.5
 30
0.0
 11
22.031496063
 21
0.1653543307
 31
0.0
  0
LINE
  5
C5
330
1F
100
AcDbEntity
  8
TITLE
  6
SLD-Solid
370
    18
100
AcDbLine
 10
24.0
 20
35.5
 30
0.0
 11
24.0
 21
35.8346456693
 31
0.0
  0
LINE
  5
C6
330
1F
100
AcDbEntity
  8
TITLE
  6
SLD-Solid
370
    18
100
AcDbLine
 10
24.0
 20
0.5
 30
0.0
 11
24.0
 21
0.1653543307
 31
0.0
  0
LINE
  5
C7
330
1F
100
AcDbEntity
  8
TITLE
  6
SLD-Solid
370
    18
100
AcDbLine
 10
25.968503937
 20
35.5
 30
0.0
 11
25.968503937
 21
35.8346456693
 31
0.0
  0
LINE
  5
C8
330
1F
100
AcDbEntity
  8
TITLE
  6
SLD-Solid
370
    18
100
AcDbLine
 10
25.968503937
 20
0.5
 30
0.0
 11
25.968503937
 21
0.1653543307
 31
0.0
  0
LINE
  5
C9
330
1F
100
AcDbEntity
  8
TITLE
  6
SLD-Solid
370
    18
100
AcDbLine
 10
27.937007874
 20
35.5
 30
0.0
 11
27.937007874
 21
35.8346456693
 31
0.0
  0
LINE
  5
CA
330
1F
100
AcDbEntity
  8
TITLE
  6
SLD-Solid
370
    18
100
AcDbLine
 10
27.937007874
 20
0.5
 30
0.0
 11
27.937007874
 21
0.1653543307
 31
0.0
  0
LINE
  5
CB
330
1F
100
AcDbEntity
  8
TITLE
  6
SLD-Solid
370
    18
100
AcDbLine
 10
29.905511811
 20
35.5
 30
0.0
 11
29.905511811
 21
35.8346456693
 31
0.0
  0
LINE
  5
CC
330
1F
100
AcDbEntity
  8
TITLE
  6
SLD-Solid
370
    18
100
AcDbLine
 10
29.905511811
 20
0.5
 30
0.0
 11
29.905511811
 21
0.1653543307
 31
0.0
  0
LINE
  5
CD
330
1F
100
AcDbEntity
  8
TITLE
  6
SLD-Solid
370
    18
100
AcDbLine
 10
31.874015748
 20
35.5
 30
0.0
 11
31.874015748
 21
35.8346456693
 31
0.0
  0
LINE
  5
CE
330
1F
100
AcDbEntity
  8
TITLE
  6
SLD-Solid
370
    18
100
AcDbLine
 10
31.874015748
 20
0.5
 30
0.0
 11
31.874015748
 21
0.1653543307
 31
0.0
  0
LINE
  5
CF
330
1F
100
AcDbEntity
  8
TITLE
  6
SLD-Solid
370
    18
100
AcDbLine
 10
33.842519685
 20
35.5
 30
0.0
 11
33.842519685
 21
35.8346456693
 31
0.0
  0
LINE
  5
D0
330
1F
100
AcDbEntity
  8
TITLE
  6
SLD-Solid
370
    18
100
AcDbLine
 10
33.842519685
 20
0.5
 30
0.0
 11
33.842519685
 21
0.1653543307
 31
0.0
  0
LINE
  5
D1
330
1F
100
AcDbEntity
  8
TITLE
  6
SLD-Solid
370
    18
100
AcDbLine
 10
35.811023622
 20
35.5
 30
0.0
 11
35.811023622
 21
35.8346456693
 31
0.0
  0
LINE
  5
D2
330
1F
100
AcDbEntity
  8
TITLE
  6
SLD-Solid
370
    18
100
AcDbLine
 10
35.811023622
 20
0.5
 30
0.0
 11
35.811023622
 21
0.1653543307
 31
0.0
  0
LINE
  5
D3
330
1F
100
AcDbEntity
  8
TITLE
  6
SLD-Solid
370
    18
100
AcDbLine
 10
37.7795275591
 20
35.5
 30
0.0
 11
37.7795275591
 21
35.8346456693
 31
0.0
  0
LINE
  5
D4
330
1F
100
AcDbEntity
  8
TITLE
  6
SLD-Solid
370
    18
100
AcDbLine
 10
37.7795275591
 20
0.5
 30
0.0
 11
37.7795275591
 21
0.1653543307
 31
0.0
  0
LINE
  5
D5
330
1F
100
AcDbEntity
  8
TITLE
  6
SLD-Solid
370
    18
100
AcDbLine
 10
39.7480314961
 20
35.5
 30
0.0
 11
39.7480314961
 21
35.8346456693
 31
0.0
  0
LINE
  5
D6
330
1F
100
AcDbEntity
  8
TITLE
  6
SLD-Solid
370
    18
100
AcDbLine
 10
39.7480314961
 20
0.5
 30
0.0
 11
39.7480314961
 21
0.1653543307
 31
0.0
  0
LINE
  5
D7
330
1F
100
AcDbEntity
  8
TITLE
  6
SLD-Solid
370
    18
100
AcDbLine
 10
41.7165354331
 20
35.5
 30
0.0
 11
41.7165354331
 21
35.8346456693
 31
0.0
  0
LINE
  5
D8
330
1F
100
AcDbEntity
  8
TITLE
  6
SLD-Solid
370
    18
100
AcDbLine
 10
41.7165354331
 20
0.5
 30
0.0
 11
41.7165354331
 21
0.1653543307
 31
0.0
  0
LINE
  5
D9
330
1F
100
AcDbEntity
  8
TITLE
  6
SLD-Solid
370
    18
100
AcDbLine
 10
43.6850393701
 20
35.5
 30
0.0
 11
43.6850393701
 21
35.8346456693
 31
0.0
  0
LINE
  5
DA
330
1F
100
AcDbEntity
  8
TITLE
  6
SLD-Solid
370
    18
100
AcDbLine
 10
43.6850393701
 20
0.5
 30
0.0
 11
43.6850393701
 21
0.1653543307
 31
0.0
  0
LINE
  5
DB
330
1F
100
AcDbEntity
  8
TITLE
  6
SLD-Solid
370
    18
100
AcDbLine
 10
45.6535433071
 20
35.5
 30
0.0
 11
45.6535433071
 21
35.8346456693
 31
0.0
  0
LINE
  5
DC
330
1F
100
AcDbEntity
  8
TITLE
  6
SLD-Solid
370
    18
100
AcDbLine
 10
45.6535433071
 20
0.5
 30
0.0
 11
45.6535433071
 21
0.1653543307
 31
0.0
  0
MTEXT
  5
DE
330
1F
100
AcDbEntity
  8
NOTES
100
AcDbMText
 10
16.4099013651
 20
25.2101716148
 30
0.0
 40
0.5
 41
0.0
 71
     1
 72
     1
  1
Top view
  7
SLDTEXTSTYLE0
 73
     1
 44
1.0
  0
MTEXT
  5
DF
330
1F
100
AcDbEntity
  8
NOTES
100
AcDbMText
 10
15.9932349785
 20
8.6396865111
 30
0.0
 40
0.5
 41
0.0
 71
     1
 72
     1
  1
Front view
  7
SLDTEXTSTYLE0
 73
     1
 44
1.0
  0
INSERT
  5
E7
330
1F
100
AcDbEntity
  8
NOTES
100
AcDbBlockReference
  2
SW_NOTE_0
 10
27.3661434121
 20
13.4048283972
 30
0.0
  0
MTEXT
  5
E9
330
1F
100
AcDbEntity
  8
NOTES
100
AcDbMText
 10
24.408297803
 20
1.0702903347
 30
0.0
 40
0.25
 41
0.0
 71
     1
 72
     1
  1
UNLESS OTHERWISE SPECIFIED DIMENSIONS ARE IN INCHES.
  7
SLDTEXTSTYLE1
 73
     1
 44
1.0
  0
MTEXT
  5
EA
330
1F
100
AcDbEntity
  8
NOTES
100
AcDbMText
 10
24.4368251132
 20
3.2193045501
 30
0.0
 40
0.25
 41
0.0
 71
     1
 72
     1
  1
DATE:
  7
SLDTEXTSTYLE1
 73
     1
 44
1.0
  0
MTEXT
  5
EB
330
1F
100
AcDbEntity
  8
NOTES
100
AcDbMText
 10
26.7130669976
 20
2.1722148141
 30
0.0
 40
0.25
 41
0.0
 71
     2
 72
     1
  1
DO NOT SCALE DRAWING
  7
SLDTEXTSTYLE1
 73
     1
 44
1.0
  0
MTEXT
  5
EC
330
1F
100
AcDbEntity
  8
NOTES
100
AcDbMText
 10
30.8307373075
 20
3.2682755553
 30
0.0
 40
0.25
 41
0.0
 71
     1
 72
     1
  1
TITLE:
  7
SLDTEXTSTYLE0
 73
     1
 44
1.0
  0
MTEXT
  5
ED
330
1F
100
AcDbEntity
  8
NOTES
100
AcDbMText
 10
38.1561831052
 20
3.2682755553
 30
0.0
 40
0.25
 41
0.0
 71
     1
 72
     1
  1
DWG NO.
  7
SLDTEXTSTYLE0
 73
     1
 44
1.0
  0
MTEXT
  5
EE
330
1F
100
AcDbEntity
  8
NOTES
100
AcDbMText
 10
38.1831753203
 20
1.0645815577
 30
0.0
 40
0.25
 41
0.0
 71
     1
 72
     1
  1
SCALE:     1:1
  7
SLDTEXTSTYLE0
 73
     1
 44
1.0
  0
MTEXT
  5
EF
330
1F
100
AcDbEntity
  8
NOTES
100
AcDbMText
 10
42.1720325368
 20
2.6510344295
 30
0.0
 40
0.25
 41
0.0
 71
     2
 72
     1
  1
878-500 CAD
  7
SLDTEXTSTYLE0
 73
     1
 44
1.0
  0
MTEXT
  5
F0
330
1F
100
AcDbEntity
  8
NOTES
100
AcDbMText
 10
33.9575865201
 20
2.6388861441
 30
0.0
 40
0.25
 41
0.0
 71
     2
 72
     1
  1
878-500 Container
  7
SLDTEXTSTYLE0
 73
     1
 44
1.0
  0
INSERT
  5
F6
330
1F
100
AcDbEntity
  8
NOTES
100
AcDbBlockReference
  2
SW_NOTE_0_1
 10
38.266131557
 20
4.6105227838
 30
0.0
  0
INSERT
  5
100
330
1F
100
AcDbEntity
  8
NOTES
100
AcDbBlockReference
  2
SW_NOTE_0_2
 10
24.6159726246
 20
5.1481526848
 30
0.0
  0
MTEXT
  5
101
330
1F
100
AcDbEntity
  8
NOTES
100
AcDbMText
 10
27.5200626442
 20
3.2135957731
 30
0.0
 40
0.25
 41
0.0
 71
     2
 72
     1
  1
September 3, 2021
  7
SLDTEXTSTYLE0
 73
     1
 44
1.0
  0
MTEXT
  5
102
330
1F
100
AcDbEntity
  8
TITLE
100
AcDbMText
 10
0.3276279776
 20
1.4558621965
 30
0.0
 40
0.125
 41
0.0
 71
     2
 72
     1
  1
A
  7
SLDTEXTSTYLE0
 73
     1
 44
1.0
  0
MTEXT
  5
103
330
1F
100
AcDbEntity
  8
TITLE
100
AcDbMText
 10
47.6622736469
 20
1.4558621965
 30
0.0
 40
0.125
 41
0.0
 71
     2
 72
     1
  1
A
  7
SLDTEXTSTYLE0
 73
     1
 44
1.0
  0
MTEXT
  5
104
330
1F
100
AcDbEntity
  8
TITLE
100
AcDbMText
 10
0.3317512413
 20
3.316098417
 30
0.0
 40
0.125
 41
0.0
 71
     2
 72
     1
  1
B
  7
SLDTEXTSTYLE0
 73
     1
 44
1.0
  0
MTEXT
  5
105
330
1F
100
AcDbEntity
  8
TITLE
100
AcDbMText
 10
47.6663969106
 20
3.316098417
 30
0.0
 40
0.125
 41
0.0
 71
     2
 72
     1
  1
B
  7
SLDTEXTSTYLE0
 73
     1
 44
1.0
  0
MTEXT
  5
106
330
1F
100
AcDbEntity
  8
TITLE
100
AcDbMText
 10
0.3313750817
 20
5.284602354
 30
0.0
 40
0.125
 41
0.0
 71
     2
 72
     1
  1
C
  7
SLDTEXTSTYLE0
 73
     1
 44
1.0
  0
MTEXT
  5
107
330
1F
100
AcDbEntity
  8
TITLE
100
AcDbMText
 10
47.666020751
 20
5.284602354
 30
0.0
 40
0.125
 41
0.0
 71
     2
 72
     1
  1
C
  7
SLDTEXTSTYLE0
 73
     1
 44
1.0
  0
MTEXT
  5
108
330
1F
100
AcDbEntity
  8
TITLE
100
AcDbMText
 10
0.3311870028
 20
7.253106291
 30
0.0
 40
0.125
 41
0.0
 71
     2
 72
     1
  1
D
  7
SLDTEXTSTYLE0
 73
     1
 44
1.0
  0
MTEXT
  5
109
330
1F
100
AcDbEntity
  8
TITLE
100
AcDbMText
 10
47.6658326721
 20
7.253106291
 30
0.0
 40
0.125
 41
0.0
 71
     2
 72
     1
  1
D
  7
SLDTEXTSTYLE0
 73
     1
 44
1.0
  0
MTEXT
  5
10A
330
1F
100
AcDbEntity
  8
TITLE
100
AcDbMText
 10
0.332923116
 20
9.221610228
 30
0.0
 40
0.125
 41
0.0
 71
     2
 72
     1
  1
E
  7
SLDTEXTSTYLE0
 73
     1
 44
1.0
  0
MTEXT
  5
10B
330
1F
100
AcDbEntity
  8
TITLE
100
AcDbMText
 10
47.6675687853
 20
9.221610228
 30
0.0
 40
0.125
 41
0.0
 71
     2
 72
     1
  1
E
  7
SLDTEXTSTYLE0
 73
     1
 44
1.0
  0
MTEXT
  5
10C
330
1F
100
AcDbEntity
  8
TITLE
100
AcDbMText
 10
0.3313461474
 20
11.190114165
 30
0.0
 40
0.125
 41
0.0
 71
     2
 72
     1
  1
F
  7
SLDTEXTSTYLE0
 73
     1
 44
1.0
  0
MTEXT
  5
10D
330
1F
100
AcDbEntity
  8
TITLE
100
AcDbMText
 10
47.6659918167
 20
11.190114165
 30
0.0
 40
0.125
 41
0.0
 71
     2
 72
     1
  1
F
  7
SLDTEXTSTYLE0
 73
     1
 44
1.0
  0
MTEXT
  5
10E
330
1F
100
AcDbEntity
  8
TITLE
100
AcDbMText
 10
0.3322576054
 20
13.158618102
 30
0.0
 40
0.125
 41
0.0
 71
     2
 72
     1
  1
G
  7
SLDTEXTSTYLE0
 73
     1
 44
1.0
  0
MTEXT
  5
10F
330
1F
100
AcDbEntity
  8
TITLE
100
AcDbMText
 10
47.6669032747
 20
13.158618102
 30
0.0
 40
0.125
 41
0.0
 71
     2
 72
     1
  1
G
  7
SLDTEXTSTYLE0
 73
     1
 44
1.0
  0
MTEXT
  5
110
330
1F
100
AcDbEntity
  8
TITLE
100
AcDbMText
 10
0.3323733457
 20
15.127122039
 30
0.0
 40
0.125
 41
0.0
 71
     2
 72
     1
  1
H
  7
SLDTEXTSTYLE0
 73
     1
 44
1.0
  0
MTEXT
  5
111
330
1F
100
AcDbEntity
  8
TITLE
100
AcDbMText
 10
47.667019015
 20
15.127122039
 30
0.0
 40
0.125
 41
0.0
 71
     2
 72
     1
  1
H
  7
SLDTEXTSTYLE0
 73
     1
 44
1.0
  0
MTEXT
  5
112
330
1F
100
AcDbEntity
  8
TITLE
100
AcDbMText
 10
0.3315776306
 20
17.095625976
 30
0.0
 40
0.125
 41
0.0
 71
     2
 72
     1
  1
J
  7
SLDTEXTSTYLE0
 73
     1
 44
1.0
  0
MTEXT
  5
113
330
1F
100
AcDbEntity
  8
TITLE
100
AcDbMText
 10
47.6662232999
 20
17.095625976
 30
0.0
 40
0.125
 41
0.0
 71
     2
 72
     1
  1
J
  7
SLDTEXTSTYLE0
 73
     1
 44
1.0
  0
MTEXT
  5
114
330
1F
100
AcDbEntity
  8
TITLE
100
AcDbMText
 10
0.3323154765
 20
19.064129913
 30
0.0
 40
0.125
 41
0.0
 71
     2
 72
     1
  1
K
  7
SLDTEXTSTYLE0
 73
     1
 44
1.0
  0
MTEXT
  5
115
330
1F
100
AcDbEntity
  8
TITLE
100
AcDbMText
 10
47.6669611458
 20
19.064129913
 30
0.0
 40
0.125
 41
0.0
 71
     2
 72
     1
  1
K
  7
SLDTEXTSTYLE0
 73
     1
 44
1.0
  0
MTEXT
  5
116
330
1F
100
AcDbEntity
  8
TITLE
100
AcDbMText
 10
0.3312448739
 20
21.03263385
 30
0.0
 40
0.125
 41
0.0
 71
     2
 72
     1
  1
L
  7
SLDTEXTSTYLE0
 73
     1
 44
1.0
  0
MTEXT
  5
117
330
1F
100
AcDbEntity
  8
TITLE
100
AcDbMText
 10
47.6658905432
 20
21.03263385
 30
0.0
 40
0.125
 41
0.0
 71
     2
 72
     1
  1
L
  7
SLDTEXTSTYLE0
 73
     1
 44
1.0
  0
MTEXT
  5
118
330
1F
100
AcDbEntity
  8
TITLE
100
AcDbMText
 10
0.3283224192
 20
23.001137787
 30
0.0
 40
0.125
 41
0.0
 71
     2
 72
     1
  1
M
  7
SLDTEXTSTYLE0
 73
     1
 44
1.0
  0
MTEXT
  5
119
330
1F
100
AcDbEntity
  8
TITLE
100
AcDbMText
 10
47.6629680885
 20
23.001137787
 30
0.0
 40
0.125
 41
0.0
 71
     2
 72
     1
  1
M
  7
SLDTEXTSTYLE0
 73
     1
 44
1.0
  0
MTEXT
  5
11A
330
1F
100
AcDbEntity
  8
TITLE
100
AcDbMText
 10
0.3315342276
 20
24.969641724
 30
0.0
 40
0.125
 41
0.0
 71
     2
 72
     1
  1
N
  7
SLDTEXTSTYLE0
 73
     1
 44
1.0
  0
MTEXT
  5
11B
330
1F
100
AcDbEntity
  8
TITLE
100
AcDbMText
 10
47.6661798969
 20
24.969641724
 30
0.0
 40
0.125
 41
0.0
 71
     2
 72
     1
  1
N
  7
SLDTEXTSTYLE0
 73
     1
 44
1.0
  0
MTEXT
  5
11C
330
1F
100
AcDbEntity
  8
TITLE
100
AcDbMText
 10
0.3321997349
 20
26.9381456611
 30
0.0
 40
0.125
 41
0.0
 71
     2
 72
     1
  1
P
  7
SLDTEXTSTYLE0
 73
     1
 44
1.0
  0
MTEXT
  5
11D
330
1F
100
AcDbEntity
  8
TITLE
100
AcDbMText
 10
47.6668454042
 20
26.9381456611
 30
0.0
 40
0.125
 41
0.0
 71
     2
 72
     1
  1
P
  7
SLDTEXTSTYLE0
 73
     1
 44
1.0
  0
MTEXT
  5
11E
330
1F
100
AcDbEntity
  8
TITLE
100
AcDbMText
 10
0.3309265867
 20
28.9066495981
 30
0.0
 40
0.125
 41
0.0
 71
     2
 72
     1
  1
R
  7
SLDTEXTSTYLE0
 73
     1
 44
1.0
  0
MTEXT
  5
11F
330
1F
100
AcDbEntity
  8
TITLE
100
AcDbMText
 10
47.665572256
 20
28.9066495981
 30
0.0
 40
0.125
 41
0.0
 71
     2
 72
     1
  1
R
  7
SLDTEXTSTYLE0
 73
     1
 44
1.0
  0
MTEXT
  5
120
330
1F
100
AcDbEntity
  8
TITLE
100
AcDbMText
 10
0.3323010071
 20
30.8751535351
 30
0.0
 40
0.125
 41
0.0
 71
     2
 72
     1
  1
T
  7
SLDTEXTSTYLE0
 73
     1
 44
1.0
  0
MTEXT
  5
121
330
1F
100
AcDbEntity
  8
TITLE
100
AcDbMText
 10
47.6669466764
 20
30.8751535351
 30
0.0
 40
0.125
 41
0.0
 71
     2
 72
     1
  1
T
  7
SLDTEXTSTYLE0
 73
     1
 44
1.0
  0
MTEXT
  5
122
330
1F
100
AcDbEntity
  8
TITLE
100
AcDbMText
 10
0.3328507755
 20
32.8436574721
 30
0.0
 40
0.125
 41
0.0
 71
     2
 72
     1
  1
U
  7
SLDTEXTSTYLE0
 73
     1
 44
1.0
  0
MTEXT
  5
123
330
1F
100
AcDbEntity
  8
TITLE
100
AcDbMText
 10
47.6674964448
 20
32.8436574721
 30
0.0
 40
0.125
 41
0.0
 71
     2
 72
     1
  1
U
  7
SLDTEXTSTYLE0
 73
     1
 44
1.0
  0
MTEXT
  5
124
330
1F
100
AcDbEntity
  8
TITLE
100
AcDbMText
 10
0.3307529773
 20
34.7038936925
 30
0.0
 40
0.125
 41
0.0
 71
     2
 72
     1
  1
V
  7
SLDTEXTSTYLE0
 73
     1
 44
1.0
  0
MTEXT
  5
125
330
1F
100
AcDbEntity
  8
TITLE
100
AcDbMText
 10
47.6653986466
 20
34.7038936925
 30
0.0
 40
0.125
 41
0.0
 71
     2
 72
     1
  1
V
  7
SLDTEXTSTYLE0
 73
     1
 44
1.0
  0
MTEXT
  5
126
330
1F
100
AcDbEntity
  8
TITLE
100
AcDbMText
 10
1.4207109851
 20
0.4125551099
 30
0.0
 40
0.125
 41
0.0
 71
     2
 72
     1
  1
24
  7
SLDTEXTSTYLE0
 73
     1
 44
1.0
  0
MTEXT
  5
127
330
1F
100
AcDbEntity
  8
TITLE
100
AcDbMText
 10
1.4207109851
 20
35.7472007792
 30
0.0
 40
0.125
 41
0.0
 71
     2
 72
     1
  1
24
  7
SLDTEXTSTYLE0
 73
     1
 44
1.0
  0
MTEXT
  5
128
330
1F
100
AcDbEntity
  8
TITLE
100
AcDbMText
 10
3.3281913
 20
0.4125551099
 30
0.0
 40
0.125
 41
0.0
 71
     2
 72
     1
  1
23
  7
SLDTEXTSTYLE0
 73
     1
 44
1.0
  0
MTEXT
  5
129
330
1F
100
AcDbEntity
  8
TITLE
100
AcDbMText
 10
3.3281913
 20
35.7472007792
 30
0.0
 40
0.125
 41
0.0
 71
     2
 72
     1
  1
23
  7
SLDTEXTSTYLE0
 73
     1
 44
1.0
  0
MTEXT
  5
12A
330
1F
100
AcDbEntity
  8
TITLE
100
AcDbMText
 10
5.2966952371
 20
0.4125551099
 30
0.0
 40
0.125
 41
0.0
 71
     2
 72
     1
  1
22
  7
SLDTEXTSTYLE0
 73
     1
 44
1.0
  0
MTEXT
  5
12B
330
1F
100
AcDbEntity
  8
TITLE
100
AcDbMText
 10
5.2966952371
 20
35.7472007792
 30
0.0
 40
0.125
 41
0.0
 71
     2
 72
     1
  1
22
  7
SLDTEXTSTYLE0
 73
     1
 44
1.0
  0
MTEXT
  5
12C
330
1F
100
AcDbEntity
  8
TITLE
100
AcDbMText
 10
7.2651991741
 20
0.4125551099
 30
0.0
 40
0.125
 41
0.0
 71
     2
 72
     1
  1
21
  7
SLDTEXTSTYLE0
 73
     1
 44
1.0
  0
MTEXT
  5
12D
330
1F
100
AcDbEntity
  8
TITLE
100
AcDbMText
 10
7.2651991741
 20
35.7472007792
 30
0.0
 40
0.125
 41
0.0
 71
     2
 72
     1
  1
21
  7
SLDTEXTSTYLE0
 73
     1
 44
1.0
  0
MTEXT
  5
12E
330
1F
100
AcDbEntity
  8
TITLE
100
AcDbMText
 10
9.2337031111
 20
0.4125551099
 30
0.0
 40
0.125
 41
0.0
 71
     2
 72
     1
  1
20
  7
SLDTEXTSTYLE0
 73
     1
 44
1.0
  0
MTEXT
  5
12F
330
1F
100
AcDbEntity
  8
TITLE
100
AcDbMText
 10
9.2337031111
 20
35.7472007792
 30
0.0
 40
0.125
 41
0.0
 71
     2
 72
     1
  1
20
  7
SLDTEXTSTYLE0
 73
     1
 44
1.0
  0
MTEXT
  5
130
330
1F
100
AcDbEntity
  8
TITLE
100
AcDbMText
 10
11.2022070481
 20
0.4125551099
 30
0.0
 40
0.125
 41
0.0
 71
     2
 72
     1
  1
19
  7
SLDTEXTSTYLE0
 73
     1
 44
1.0
  0
MTEXT
  5
131
330
1F
100
AcDbEntity
  8
TITLE
100
AcDbMText
 10
11.2022070481
 20
35.7472007792
 30
0.0
 40
0.125
 41
0.0
 71
     2
 72
     1
  1
19
  7
SLDTEXTSTYLE0
 73
     1
 44
1.0
  0
MTEXT
  5
132
330
1F
100
AcDbEntity
  8
TITLE
100
AcDbMText
 10
13.1707109851
 20
0.4125551099
 30
0.0
 40
0.125
 41
0.0
 71
     2
 72
     1
  1
18
  7
SLDTEXTSTYLE0
 73
     1
 44
1.0
  0
MTEXT
  5
133
330
1F
100
AcDbEntity
  8
TITLE
100
AcDbMText
 10
13.1707109851
 20
35.7472007792
 30
0.0
 40
0.125
 41
0.0
 71
     2
 72
     1
  1
18
  7
SLDTEXTSTYLE0
 73
     1
 44
1.0
  0
MTEXT
  5
134
330
1F
100
AcDbEntity
  8
TITLE
100
AcDbMText
 10
15.1392149221
 20
0.4125551099
 30
0.0
 40
0.125
 41
0.0
 71
     2
 72
     1
  1
17
  7
SLDTEXTSTYLE0
 73
     1
 44
1.0
  0
MTEXT
  5
135
330
1F
100
AcDbEntity
  8
TITLE
100
AcDbMText
 10
15.1392149221
 20
35.7472007792
 30
0.0
 40
0.125
 41
0.0
 71
     2
 72
     1
  1
17
  7
SLDTEXTSTYLE0
 73
     1
 44
1.0
  0
MTEXT
  5
136
330
1F
100
AcDbEntity
  8
TITLE
100
AcDbMText
 10
17.1077188591
 20
0.4125551099
 30
0.0
 40
0.125
 41
0.0
 71
     2
 72
     1
  1
16
  7
SLDTEXTSTYLE0
 73
     1
 44
1.0
  0
MTEXT
  5
137
330
1F
100
AcDbEntity
  8
TITLE
100
AcDbMText
 10
17.1077188591
 20
35.7472007792
 30
0.0
 40
0.125
 41
0.0
 71
     2
 72
     1
  1
16
  7
SLDTEXTSTYLE0
 73
     1
 44
1.0
  0
MTEXT
  5
138
330
1F
100
AcDbEntity
  8
TITLE
100
AcDbMText
 10
19.0762227961
 20
0.4125551099
 30
0.0
 40
0.125
 41
0.0
 71
     2
 72
     1
  1
15
  7
SLDTEXTSTYLE0
 73
     1
 44
1.0
  0
MTEXT
  5
139
330
1F
100
AcDbEntity
  8
TITLE
100
AcDbMText
 10
19.0762227961
 20
35.7472007792
 30
0.0
 40
0.125
 41
0.0
 71
     2
 72
     1
  1
15
  7
SLDTEXTSTYLE0
 73
     1
 44
1.0
  0
MTEXT
  5
13A
330
1F
100
AcDbEntity
  8
TITLE
100
AcDbMText
 10
21.0447267331
 20
0.4125551099
 30
0.0
 40
0.125
 41
0.0
 71
     2
 72
     1
  1
14
  7
SLDTEXTSTYLE0
 73
     1
 44
1.0
  0
MTEXT
  5
13B
330
1F
100
AcDbEntity
  8
TITLE
100
AcDbMText
 10
21.0447267331
 20
35.7472007792
 30
0.0
 40
0.125
 41
0.0
 71
     2
 72
     1
  1
14
  7
SLDTEXTSTYLE0
 73
     1
 44
1.0
  0
MTEXT
  5
13C
330
1F
100
AcDbEntity
  8
TITLE
100
AcDbMText
 10
23.0132306701
 20
0.4125551099
 30
0.0
 40
0.125
 41
0.0
 71
     2
 72
     1
  1
13
  7
SLDTEXTSTYLE0
 73
     1
 44
1.0
  0
MTEXT
  5
13D
330
1F
100
AcDbEntity
  8
TITLE
100
AcDbMText
 10
23.0132306701
 20
35.7472007792
 30
0.0
 40
0.125
 41
0.0
 71
     2
 72
     1
  1
13
  7
SLDTEXTSTYLE0
 73
     1
 44
1.0
  0
MTEXT
  5
13E
330
1F
100
AcDbEntity
  8
TITLE
100
AcDbMText
 10
24.9817346071
 20
0.4125551099
 30
0.0
 40
0.125
 41
0.0
 71
     2
 72
     1
  1
12
  7
SLDTEXTSTYLE0
 73
     1
 44
1.0
  0
MTEXT
  5
13F
330
1F
100
AcDbEntity
  8
TITLE
100
AcDbMText
 10
24.9817346071
 20
35.7472007792
 30
0.0
 40
0.125
 41
0.0
 71
     2
 72
     1
  1
12
  7
SLDTEXTSTYLE0
 73
     1
 44
1.0
  0
MTEXT
  5
140
330
1F
100
AcDbEntity
  8
TITLE
100
AcDbMText
 10
26.9502385441
 20
0.4125551099
 30
0.0
 40
0.125
 41
0.0
 71
     2
 72
     1
  1
11
  7
SLDTEXTSTYLE0
 73
     1
 44
1.0
  0
MTEXT
  5
141
330
1F
100
AcDbEntity
  8
TITLE
100
AcDbMText
 10
26.9502385441
 20
35.7472007792
 30
0.0
 40
0.125
 41
0.0
 71
     2
 72
     1
  1
11
  7
SLDTEXTSTYLE0
 73
     1
 44
1.0
  0
MTEXT
  5
142
330
1F
100
AcDbEntity
  8
TITLE
100
AcDbMText
 10
28.9187424811
 20
0.4125551099
 30
0.0
 40
0.125
 41
0.0
 71
     2
 72
     1
  1
10
  7
SLDTEXTSTYLE0
 73
     1
 44
1.0
  0
MTEXT
  5
143
330
1F
100
AcDbEntity
  8
TITLE
100
AcDbMText
 10
28.9187424811
 20
35.7472007792
 30
0.0
 40
0.125
 41
0.0
 71
     2
 72
     1
  1
10
  7
SLDTEXTSTYLE0
 73
     1
 44
1.0
  0
MTEXT
  5
144
330
1F
100
AcDbEntity
  8
TITLE
100
AcDbMText
 10
30.8885050988
 20
0.4125551099
 30
0.0
 40
0.125
 41
0.0
 71
     2
 72
     1
  1
9
  7
SLDTEXTSTYLE0
 73
     1
 44
1.0
  0
MTEXT
  5
145
330
1F
100
AcDbEntity
  8
TITLE
100
AcDbMText
 10
30.8885050988
 20
35.7472007792
 30
0.0
 40
0.125
 41
0.0
 71
     2
 72
     1
  1
9
  7
SLDTEXTSTYLE0
 73
     1
 44
1.0
  0
MTEXT
  5
146
330
1F
100
AcDbEntity
  8
TITLE
100
AcDbMText
 10
32.8570090359
 20
0.4125551099
 30
0.0
 40
0.125
 41
0.0
 71
     2
 72
     1
  1
8
  7
SLDTEXTSTYLE0
 73
     1
 44
1.0
  0
MTEXT
  5
147
330
1F
100
AcDbEntity
  8
TITLE
100
AcDbMText
 10
32.8570090359
 20
35.7472007792
 30
0.0
 40
0.125
 41
0.0
 71
     2
 72
     1
  1
8
  7
SLDTEXTSTYLE0
 73
     1
 44
1.0
  0
MTEXT
  5
148
330
1F
100
AcDbEntity
  8
TITLE
100
AcDbMText
 10
34.8255129729
 20
0.4125551099
 30
0.0
 40
0.125
 41
0.0
 71
     2
 72
     1
  1
7
  7
SLDTEXTSTYLE0
 73
     1
 44
1.0
  0
MTEXT
  5
149
330
1F
100
AcDbEntity
  8
TITLE
100
AcDbMText
 10
34.8255129729
 20
35.7472007792
 30
0.0
 40
0.125
 41
0.0
 71
     2
 72
     1
  1
7
  7
SLDTEXTSTYLE0
 73
     1
 44
1.0
  0
MTEXT
  5
14A
330
1F
100
AcDbEntity
  8
TITLE
100
AcDbMText
 10
36.7940169099
 20
0.4125551099
 30
0.0
 40
0.125
 41
0.0
 71
     2
 72
     1
  1
6
  7
SLDTEXTSTYLE0
 73
     1
 44
1.0
  0
MTEXT
  5
14B
330
1F
100
AcDbEntity
  8
TITLE
100
AcDbMText
 10
36.7940169099
 20
35.7472007792
 30
0.0
 40
0.125
 41
0.0
 71
     2
 72
     1
  1
6
  7
SLDTEXTSTYLE0
 73
     1
 44
1.0
  0
MTEXT
  5
14C
330
1F
100
AcDbEntity
  8
TITLE
100
AcDbMText
 10
38.7625208469
 20
0.4125551099
 30
0.0
 40
0.125
 41
0.0
 71
     2
 72
     1
  1
5
  7
SLDTEXTSTYLE0
 73
     1
 44
1.0
  0
MTEXT
  5
14D
330
1F
100
AcDbEntity
  8
TITLE
100
AcDbMText
 10
38.7625208469
 20
35.7472007792
 30
0.0
 40
0.125
 41
0.0
 71
     2
 72
     1
  1
5
  7
SLDTEXTSTYLE0
 73
     1
 44
1.0
  0
MTEXT
  5
14E
330
1F
100
AcDbEntity
  8
TITLE
100
AcDbMText
 10
40.7310247839
 20
0.4125551099
 30
0.0
 40
0.125
 41
0.0
 71
     2
 72
     1
  1
4
  7
SLDTEXTSTYLE0
 73
     1
 44
1.0
  0
MTEXT
  5
14F
330
1F
100
AcDbEntity
  8
TITLE
100
AcDbMText
 10
40.7310247839
 20
35.7472007792
 30
0.0
 40
0.125
 41
0.0
 71
     2
 72
     1
  1
4
  7
SLDTEXTSTYLE0
 73
     1
 44
1.0
  0
MTEXT
  5
150
330
1F
100
AcDbEntity
  8
TITLE
100
AcDbMText
 10
42.6995287209
 20
0.4125551099
 30
0.0
 40
0.125
 41
0.0
 71
     2
 72
     1
  1
3
  7
SLDTEXTSTYLE0
 73
     1
 44
1.0
  0
MTEXT
  5
151
330
1F
100
AcDbEntity
  8
TITLE
100
AcDbMText
 10
42.6995287209
 20
35.7472007792
 30
0.0
 40
0.125
 41
0.0
 71
     2
 72
     1
  1
3
  7
SLDTEXTSTYLE0
 73
     1
 44
1.0
  0
MTEXT
  5
152
330
1F
100
AcDbEntity
  8
TITLE
100
AcDbMText
 10
44.6680326579
 20
0.4125551099
 30
0.0
 40
0.125
 41
0.0
 71
     2
 72
     1
  1
2
  7
SLDTEXTSTYLE0
 73
     1
 44
1.0
  0
MTEXT
  5
153
330
1F
100
AcDbEntity
  8
TITLE
100
AcDbMText
 10
44.6680326579
 20
35.7472007792
 30
0.0
 40
0.125
 41
0.0
 71
     2
 72
     1
  1
2
  7
SLDTEXTSTYLE0
 73
     1
 44
1.0
  0
MTEXT
  5
154
330
1F
100
AcDbEntity
  8
TITLE
100
AcDbMText
 10
46.5755129729
 20
0.4125551099
 30
0.0
 40
0.125
 41
0.0
 71
     2
 72
     1
  1
1
  7
SLDTEXTSTYLE0
 73
     1
 44
1.0
  0
MTEXT
  5
155
330
1F
100
AcDbEntity
  8
TITLE
100
AcDbMText
 10
46.5755129729
 20
35.7472007792
 30
0.0
 40
0.125
 41
0.0
 71
     2
 72
     1
  1
1
  7
SLDTEXTSTYLE0
 73
     1
 44
1.0
  0
LINE
  5
156
330
1F
100
AcDbEntity
  8
0
  6
SLD-Solid
 62
     7
370
    25
100
AcDbLine
 10
19.6612874645
 20
20.1064837664
 30
0.0
 11
19.6612874645
 21
20.4314837664
 31
0.0
  0
LINE
  5
157
330
1F
100
AcDbEntity
  8
0
  6
SLD-Solid
 62
     7
370
    25
100
AcDbLine
 10
15.6612874645
 20
20.4314837664
 30
0.0
 11
15.6612874645
 21
20.1064837664
 31
0.0
  0
ARC
  5
158
330
1F
100
AcDbEntity
  8
0
  6
SLD-Solid
 62
     7
370
    25
100
AcDbCircle
 10
15.7608141578
 20
20.7814837664
 30
0.0
 40
0.1000000000000014
100
AcDbArc
 50
90.0
 51
180.0
  0
LINE
  5
159
330
1F
100
AcDbEntity
  8
0
  6
SLD-Solid
 62
     7
370
    25
100
AcDbLine
 10
15.6608141578
 20
20.7814837664
 30
0.0
 11
15.6608141578
 21
20.4314837664
 31
0.0
  0
LINE
  5
15A
330
1F
100
AcDbEntity
  8
0
  6
SLD-Solid
 62
     7
370
    25
100
AcDbLine
 10
19.6617607711
 20
20.4314837664
 30
0.0
 11
19.6617607711
 21
20.7814837664
 31
0.0
  0
ARC
  5
15B
330
1F
100
AcDbEntity
  8
0
  6
SLD-Solid
 62
     7
370
    25
100
AcDbCircle
 10
19.5617607711
 20
20.7814837664
 30
0.0
 40
0.1000000000000014
100
AcDbArc
 50
0.0
 51
90.0
  0
LINE
  5
15C
330
1F
100
AcDbEntity
  8
0
  6
SLD-Solid
 62
     7
370
    25
100
AcDbLine
 10
19.4112874645
 20
20.0714837664
 30
0.0
 11
19.4112874645
 21
20.1064837664
 31
0.0
  0
LINE
  5
15D
330
1F
100
AcDbEntity
  8
0
  6
SLD-Solid
 62
     7
370
    25
100
AcDbLine
 10
15.9112874645
 20
20.1064837664
 30
0.0
 11
15.9112874645
 21
20.0714837664
 31
0.0
  0
LINE
  5
15E
330
1F
100
AcDbEntity
  8
0
  6
SLD-Solid
 62
     7
370
    25
100
AcDbLine
 10
17.6262874645
 20
20.8814837664
 30
0.0
 11
17.6962874645
 21
20.8814837664
 31
0.0
  0
SPLINE
  5
15F
330
1F
100
AcDbEntity
  8
0
  6
SLD-Solid
 62
     7
370
    25
100
AcDbSpline
210
0.0
220
0.0
230
1.0
 70
    24
 71
     3
 72
    24
 73
    20
 74
     0
 42
0.00000001
 43
0.00000001
 40
0.0
 40
0.0
 40
0.0
 40
0.0
 40
0.0527235230253602
 40
0.1058131810580854
 40
0.1600575660676458
 40
0.2147009322346488
 40
0.2674244419813887
 40
0.3746622983333671
 40
0.4293047281394173
 40
0.4820379049757369
 40
0.589294675295928
 40
0.6439462614491187
 40
0.6967005160388975
 40
0.7498208233648733
 40
0.8040954015713293
 40
0.8587687329327407
 40
0.8938125888992685
 40
0.9644126716629793
 40
1.0
 40
1.0
 40
1.0
 40
1.0
 10
17.62628746446614
 20
20.78148376637813
 30
0.0
 10
17.62628746446614
 20
20.78424442469088
 30
0.0
 10
17.62628746446614
 20
20.78978491252485
 30
0.0
 10
17.62628746446613
 20
20.79810805734963
 30
0.0
 10
17.62628746446613
 20
20.80641251783242
 30
0.0
 10
17.62628746446614
 20
20.81451871155414
 30
0.0
 10
17.62628746446614
 20
20.82496519320844
 30
0.0
 10
17.62628746446613
 20
20.8348547982487
 30
0.0
 10
17.62628746446613
 20
20.84392903236646
 30
0.0
 10
17.62628746446614
 20
20.85241295644825
 30
0.0
 10
17.62628746446613
 20
20.85993929727833
 30
0.0
 10
17.62628746446614
 20
20.86630584563216
 30
0.0
 10
17.62628746446614
 20
20.87046773462383
 30
0.0
 10
17.62628746446614
 20
20.87399970961102
 30
0.0
 10
17.62628746446613
 20
20.87691219129068
 30
0.0
 10
17.62628746446614
 20
20.87888751501634
 30
0.0
 10
17.62628746446613
 20
20.88050119736429
 30
0.0
 10
17.62628746446614
 20
20.8813588093589
 30
0.0
 10
17.62628746446613
 20
20.88145240051925
 30
0.0
 10
17.62628746446614
 20
20.88148376637814
 30
0.0
  0
SPLINE
  5
160
330
1F
100
AcDbEntity
  8
0
  6
SLD-Solid
 62
     7
370
    25
100
AcDbSpline
210
0.0
220
0.0
230
1.0
 70
    24
 71
     3
 72
    24
 73
    20
 74
     0
 42
0.00000001
 43
0.00000001
 40
0.0
 40
0.0
 40
0.0
 40
0.0
 40
0.0527809402452527
 40
0.105928245342146
 40
0.1602311293662216
 40
0.2149333629803427
 40
0.2677143246251831
 40
0.3208618465694641
 40
0.3751656936033905
 40
0.4298691969007186
 40
0.4826376218067447
 40
0.5899685774621543
 40
0.644659774561521
 40
0.6974068420346378
 40
0.8046941900759724
 40
0.8593630134661464
 40
0.8942609551137185
 40
0.9645640551842994
 40
1.0
 40
1.0
 40
1.0
 40
1.0
 10
17.69628746446613
 20
20.88148376637814
 30
0.0
 10
17.69628746446613
 20
20.88141760535954
 30
0.0
 10
17.69628746446613
 20
20.88128482408327
 30
0.0
 10
17.69628746446613
 20
20.88020236245356
 30
0.0
 10
17.69628746446614
 20
20.87845113451007
 30
0.0
 10
17.69628746446613
 20
20.87598775114255
 30
0.0
 10
17.69628746446614
 20
20.8728758020298
 30
0.0
 10
17.69628746446613
 20
20.86913327686744
 30
0.0
 10
17.69628746446613
 20
20.86471862105484
 30
0.0
 10
17.69628746446614
 20
20.85971023184481
 30
0.0
 10
17.69628746446613
 20
20.85232242216685
 30
0.0
 10
17.69628746446613
 20
20.84388765479677
 30
0.0
 10
17.69628746446613
 20
20.83460829083301
 30
0.0
 10
17.69628746446614
 20
20.8248292094532
 30
0.0
 10
17.69628746446614
 20
20.81438139428276
 30
0.0
 10
17.69628746446613
 20
20.80442335515957
 30
0.0
 10
17.69628746446614
 20
20.79620806137877
 30
0.0
 10
17.69628746446614
 20
20.78887387682159
 30
0.0
 10
17.69628746446613
 20
20.78333873761921
 30
0.0
 10
17.69628746446613
 20
20.78148376637813
 30
0.0
  0
LINE
  5
161
330
1F
100
AcDbEntity
  8
0
  6
SLD-Solid
 62
     7
370
    25
100
AcDbLine
 10
17.6262874645
 20
20.4314837664
 30
0.0
 11
17.6962874645
 21
20.4314837664
 31
0.0
  0
LINE
  5
162
330
1F
100
AcDbEntity
  8
0
  6
SLD-Solid
 62
     7
370
    25
100
AcDbLine
 10
17.6262874645
 20
20.7814837664
 30
0.0
 11
17.6262874645
 21
20.4314837664
 31
0.0
  0
LINE
  5
163
330
1F
100
AcDbEntity
  8
0
  6
SLD-Solid
 62
     7
370
    25
100
AcDbLine
 10
17.6962874645
 20
20.7814837664
 30
0.0
 11
17.6962874645
 21
20.4314837664
 31
0.0
  0
LINE
  5
164
330
1F
100
AcDbEntity
  8
0
  6
SLD-Solid
 62
     7
370
    25
100
AcDbLine
 10
17.6962874645
 20
20.4314837664
 30
0.0
 11
18.6308234386
 21
20.4314837664
 31
0.0
  0
LINE
  5
165
330
1F
100
AcDbEntity
  8
0
  6
SLD-Solid
 62
     7
370
    25
100
AcDbLine
 10
18.6914452169
 20
20.4314837664
 30
0.0
 11
19.3755730314
 21
20.4314837664
 31
0.0
  0
LINE
  5
166
330
1F
100
AcDbEntity
  8
0
  6
SLD-Solid
 62
     7
370
    25
100
AcDbLine
 10
19.4105730314
 20
20.4314837664
 30
0.0
 11
19.660981191
 21
20.4314837664
 31
0.0
  0
LINE
  5
167
330
1F
100
AcDbEntity
  8
0
  6
SLD-Solid
 62
     7
370
    25
100
AcDbLine
 10
15.6615937379
 20
20.4314837664
 30
0.0
 11
15.9120018975
 21
20.4314837664
 31
0.0
  0
LINE
  5
168
330
1F
100
AcDbEntity
  8
0
  6
SLD-Solid
 62
     7
370
    25
100
AcDbLine
 10
15.9470018975
 20
20.4314837664
 30
0.0
 11
16.6311297121
 21
20.4314837664
 31
0.0
  0
LINE
  5
169
330
1F
100
AcDbEntity
  8
0
  6
SLD-Solid
 62
     7
370
    25
100
AcDbLine
 10
16.6917514903
 20
20.4314837664
 30
0.0
 11
17.6262874645
 21
20.4314837664
 31
0.0
  0
LINE
  5
16A
330
1F
100
AcDbEntity
  8
0
  6
SLD-Solid
 62
     7
370
    25
100
AcDbLine
 10
15.6612874645
 20
20.1064837664
 30
0.0
 11
19.6612874645
 21
20.1064837664
 31
0.0
  0
LINE
  5
16B
330
1F
100
AcDbEntity
  8
0
  6
SLD-Solid
 62
     7
370
    25
100
AcDbLine
 10
18.5183040233
 20
20.8814837664
 30
0.0
 11
18.5183040233
 21
20.4314837664
 31
0.0
  0
LINE
  5
16C
330
1F
100
AcDbEntity
  8
0
  6
SLD-Solid
 62
     7
370
    25
100
AcDbLine
 10
17.6962874645
 20
20.8814837664
 30
0.0
 11
18.5183040233
 21
20.8814837664
 31
0.0
  0
LINE
  5
16D
330
1F
100
AcDbEntity
  8
0
  6
SLD-Solid
 62
     7
370
    25
100
AcDbLine
 10
16.8042709056
 20
20.8814837664
 30
0.0
 11
16.8042709056
 21
20.4314837664
 31
0.0
  0
LINE
  5
16E
330
1F
100
AcDbEntity
  8
0
  6
SLD-Solid
 62
     7
370
    25
100
AcDbLine
 10
16.8042709056
 20
20.8814837664
 30
0.0
 11
17.6262874645
 21
20.8814837664
 31
0.0
  0
LINE
  5
16F
330
1F
100
AcDbEntity
  8
0
  6
SLD-Solid
 62
     7
370
    25
100
AcDbLine
 10
16.6916017972
 20
20.4314837664
 30
0.0
 11
16.6917514903
 21
20.4314837664
 31
0.0
  0
LINE
  5
170
330
1F
100
AcDbEntity
  8
0
  6
SLD-Solid
 62
     7
370
    25
100
AcDbLine
 10
16.6916017972
 20
20.7814837664
 30
0.0
 11
16.6916017972
 21
20.4314837664
 31
0.0
  0
SPLINE
  5
171
330
1F
100
AcDbEntity
  8
0
  6
SLD-Solid
 62
     7
370
    25
100
AcDbSpline
210
0.0
220
0.0
230
1.0
 70
     8
 71
     3
 72
    24
 73
    20
 74
     0
 42
0.00000001
 43
0.00000001
 40
0.0
 40
0.0
 40
0.0
 40
0.0
 40
0.0527771543008274
 40
0.1059206471741446
 40
0.1602196360856929
 40
0.2149179459421939
 40
0.2676951216410515
 40
0.3208388313462132
 40
0.3751387831985391
 40
0.4298383626471612
 40
0.4826030025064695
 40
0.5361210524025228
 40
0.5900218121104971
 40
0.644709086243878
 40
0.7508562068259237
 40
0.8047350380503625
 40
0.8593999400794009
 40
0.9293776641707298
 40
1.0
 40
1.0
 40
1.0
 40
1.0
 10
16.74162294331581
 20
20.88148376637814
 30
0.0
 10
16.74024112958977
 20
20.88141760534631
 30
0.0
 10
16.73746791064541
 20
20.88128482404348
 30
0.0
 10
16.73330189045444
 20
20.88020236261544
 30
0.0
 10
16.72914512151355
 20
20.87845113388648
 30
0.0
 10
16.72508791630118
 20
20.87598775345313
 30
0.0
 10
16.72117732390267
 20
20.87287579372101
 30
0.0
 10
16.71741874606247
 20
20.86913330844074
 30
0.0
 10
16.71378794156618
 20
20.8647185000058
 30
0.0
 10
16.71036703725482
 20
20.8597106801655
 30
0.0
 10
16.70718512391706
 20
20.85417148436228
 30
0.0
 10
16.70425964978003
 20
20.84815098967102
 30
0.0
 10
16.70156616495422
 20
20.84158008585487
 30
0.0
 10
16.69838232640959
 20
20.83230324352303
 30
0.0
 10
16.69579849004295
 20
20.8222523202561
 30
0.0
 10
16.69387222122777
 20
20.8116818769007
 30
0.0
 10
16.69265826886159
 20
20.80264895700763
 30
0.0
 10
16.69177889350511
 20
20.7925466547283
 30
0.0
 10
16.69166100946632
 20
20.78518264979215
 30
0.0
 10
16.69160179721434
 20
20.78148376637813
 30
0.0
  0
LINE
  5
172
330
1F
100
AcDbEntity
  8
0
  6
SLD-Solid
 62
     7
370
    25
100
AcDbLine
 10
16.7416229433
 20
20.8814837664
 30
0.0
 11
16.8042709056
 21
20.8814837664
 31
0.0
  0
SPLINE
  5
173
330
1F
100
AcDbEntity
  8
0
  6
SLD-Solid
 62
     7
370
    25
100
AcDbSpline
210
0.0
220
0.0
230
1.0
 70
     8
 71
     3
 72
    24
 73
    20
 74
     0
 42
0.00000001
 43
0.00000001
 40
0.0
 40
0.0
 40
0.0
 40
0.0
 40
0.052719769266505
 40
0.1058056474726471
 40
0.1600461704424804
 40
0.2146856461634777
 40
0.3207848459964044
 40
0.3746386038278389
 40
0.429277143254549
 40
0.4820065656446862
 40
0.5354878790070859
 40
0.5893510274020698
 40
0.6439987225240076
 40
0.6967492211669364
 40
0.7498657464841908
 40
0.8041364605012433
 40
0.8588058992832237
 40
0.929077368525304
 40
1.0
 40
1.0
 40
1.0
 40
1.0
 10
16.63099562943064
 20
20.78148376637813
 30
0.0
 10
16.63102868670236
 20
20.78424443725189
 30
0.0
 10
16.63109503080981
 20
20.78978495029513
 30
0.0
 10
16.6316357581068
 20
20.79810790366243
 30
0.0
 10
16.63251083077607
 20
20.80641310987425
 30
0.0
 10
16.63414683817197
 20
20.81719322624192
 30
0.0
 10
16.63645341745837
 20
20.82750387237438
 30
0.0
 10
16.63937588664531
 20
20.83710940932364
 30
0.0
 10
16.64187128353341
 20
20.84392935522914
 30
0.0
 10
16.6446382119936
 20
20.85028847227318
 30
0.0
 10
16.64764603430266
 20
20.85613659315448
 30
0.0
 10
16.65092824807884
 20
20.86152122543834
 30
0.0
 10
16.65441206071823
 20
20.86630618552832
 30
0.0
 10
16.6580676123498
 20
20.87046784408944
 30
0.0
 10
16.66187437034239
 20
20.87399891905785
 30
0.0
 10
16.66586383507182
 20
20.87691532623214
 30
0.0
 10
16.67039675125196
 20
20.87935760665438
 30
0.0
 10
16.67546321735644
 20
20.88112708310689
 30
0.0
 10
16.67916082224778
 20
20.88136450696876
 30
0.0
 10
16.6810181510435
 20
20.88148376637814
 30
0.0
  0
LINE
  5
174
330
1F
100
AcDbEntity
  8
0
  6
SLD-Solid
 62
     7
370
    25
100
AcDbLine
 10
16.681018151
 20
20.8814837664
 30
0.0
 11
16.7416229433
 21
20.8814837664
 31
0.0
  0
SPLINE
  5
175
330
1F
100
AcDbEntity
  8
0
  6
SLD-Solid
 62
     7
370
    25
100
AcDbSpline
210
0.0
220
0.0
230
1.0
 70
     8
 71
     3
 72
    24
 73
    20
 74
     0
 42
0.00000001
 43
0.00000001
 40
0.0
 40
0.0
 40
0.0
 40
0.0
 40
0.0527809402452547
 40
0.1059282453421465
 40
0.1602311293662249
 40
0.2149333629803541
 40
0.2677143246251831
 40
0.320861846569461
 40
0.3751656936033931
 40
0.4298691969007211
 40
0.482637621806749
 40
0.5899685774621612
 40
0.6446597745615273
 40
0.697406842034645
 40
0.8046941900759734
 40
0.8593630134661523
 40
0.89426095511372
 40
0.9645640551842998
 40
1.0
 40
1.0
 40
1.0
 40
1.0
 10
18.64157376388138
 20
20.88148376637814
 30
0.0
 10
18.64295557760284
 20
20.88141760535954
 30
0.0
 10
18.64572879653799
 20
20.88128482408327
 30
0.0
 10
18.64989481679886
 20
20.88020236245356
 30
0.0
 10
18.6540515854675
 20
20.87845113451007
 30
0.0
 10
18.65810879169689
 20
20.87598775114255
 30
0.0
 10
18.66201938041457
 20
20.8728758020298
 30
0.0
 10
18.6657779720785
 20
20.86913327686744
 30
0.0
 10
18.66940872367362
 20
20.86471862105483
 30
0.0
 10
18.67282982533697
 20
20.8597102318448
 30
0.0
 10
18.67707427665408
 20
20.85232242216684
 30
0.0
 10
18.6808393499667
 20
20.84388765479677
 30
0.0
 10
18.68402270256243
 20
20.83460829083301
 30
0.0
 10
18.6868039014238
 20
20.8248292094532
 30
0.0
 10
18.68895844001151
 20
20.81438139428276
 30
0.0
 10
18.69030477134897
 20
20.80442335515957
 30
0.0
 10
18.69110716287759
 20
20.79620806137877
 30
0.0
 10
18.69153287059237
 20
20.78887387682159
 30
0.0
 10
18.69157933764655
 20
20.78333873761921
 30
0.0
 10
18.69159490998285
 20
20.78148376637813
 30
0.0
  0
SPLINE
  5
176
330
1F
100
AcDbEntity
  8
0
  6
SLD-Solid
 62
     7
370
    25
100
AcDbSpline
210
0.0
220
0.0
230
1.0
 70
     8
 71
     3
 72
    24
 73
    20
 74
     0
 42
0.00000001
 43
0.00000001
 40
0.0
 40
0.0
 40
0.0
 40
0.0
 40
0.05272352302536
 40
0.1058131810580863
 40
0.1600575660676482
 40
0.2147009322346478
 40
0.267424441981391
 40
0.374662298333375
 40
0.4293047281394213
 40
0.4820379049757404
 40
0.5892946752959374
 40
0.6439462614491274
 40
0.696700516038906
 40
0.7498208233648789
 40
0.8040954015713414
 40
0.8587687329327545
 40
0.8938125888992734
 40
0.9644126716629845
 40
1.0
 40
1.0
 40
1.0
 40
1.0
 10
18.63095752123673
 20
20.78148376637813
 30
0.0
 10
18.63092446838349
 20
20.78424442469088
 30
0.0
 10
18.63085813314368
 20
20.78978491252485
 30
0.0
 10
18.63031733849941
 20
20.79810805734963
 30
0.0
 10
18.62944252814858
 20
20.80641251783242
 30
0.0
 10
18.62821176231434
 20
20.81451871155414
 30
0.0
 10
18.62613362172822
 20
20.82496519320845
 30
0.0
 10
18.62340288467394
 20
20.83485479824869
 30
0.0
 10
18.62008176908022
 20
20.84392903236646
 30
0.0
 10
18.61639109773386
 20
20.85241295644825
 30
0.0
 10
18.61217725754195
 20
20.85993929727833
 30
0.0
 10
18.60754126463492
 20
20.86630584563216
 30
0.0
 10
18.60388550239838
 20
20.87046773462384
 30
0.0
 10
18.60007875021
 20
20.87399970961102
 30
0.0
 10
18.59608947736839
 20
20.87691219129069
 30
0.0
 10
18.59244697071571
 20
20.87888751501634
 30
0.0
 10
18.58832843784378
 20
20.88050119736429
 30
0.0
 10
18.58464579581003
 20
20.8813588093589
 30
0.0
 10
18.58186645837874
 20
20.88145240051925
 30
0.0
 10
18.58093499962387
 20
20.88148376637814
 30
0.0
  0
LINE
  5
177
330
1F
100
AcDbEntity
  8
0
  6
SLD-Solid
 62
     7
370
    25
100
AcDbLine
 10
18.5809349996
 20
20.8814837664
 30
0.0
 11
18.6415737639
 21
20.8814837664
 31
0.0
  0
LINE
  5
178
330
1F
100
AcDbEntity
  8
0
  6
SLD-Solid
 62
     7
370
    25
100
AcDbLine
 10
18.6308234386
 20
20.4314837664
 30
0.0
 11
18.6309575212
 21
20.4314837664
 31
0.0
  0
LINE
  5
179
330
1F
100
AcDbEntity
  8
0
  6
SLD-Solid
 62
     7
370
    25
100
AcDbLine
 10
18.6309575212
 20
20.7814837664
 30
0.0
 11
18.6309575212
 21
20.4314837664
 31
0.0
  0
LINE
  5
17A
330
1F
100
AcDbEntity
  8
0
  6
SLD-Solid
 62
     7
370
    25
100
AcDbLine
 10
18.5183040233
 20
20.8814837664
 30
0.0
 11
18.5809349996
 21
20.8814837664
 31
0.0
  0
LINE
  5
17B
330
1F
100
AcDbEntity
  8
0
  6
SLD-Solid
 62
     7
370
    25
100
AcDbLine
 10
16.6309956294
 20
20.4314837664
 30
0.0
 11
16.6916017972
 21
20.4314837664
 31
0.0
  0
LINE
  5
17C
330
1F
100
AcDbEntity
  8
0
  6
SLD-Solid
 62
     7
370
    25
100
AcDbLine
 10
16.6309956294
 20
20.7814837664
 30
0.0
 11
16.6309956294
 21
20.4314837664
 31
0.0
  0
LINE
  5
17D
330
1F
100
AcDbEntity
  8
0
  6
SLD-Solid
 62
     7
370
    25
100
AcDbLine
 10
18.6309575212
 20
20.4314837664
 30
0.0
 11
18.69159491
 21
20.4314837664
 31
0.0
  0
LINE
  5
17E
330
1F
100
AcDbEntity
  8
0
  6
SLD-Solid
 62
     7
370
    25
100
AcDbLine
 10
18.69159491
 20
20.7814837664
 30
0.0
 11
18.69159491
 21
20.4314837664
 31
0.0
  0
LINE
  5
17F
330
1F
100
AcDbEntity
  8
0
  6
SLD-Solid
 62
     7
370
    25
100
AcDbLine
 10
16.1418912416
 20
20.8814837664
 30
0.0
 11
16.1418912416
 21
20.4314837664
 31
0.0
  0
LINE
  5
180
330
1F
100
AcDbEntity
  8
0
  6
SLD-Solid
 62
     7
370
    25
100
AcDbLine
 10
16.1418912416
 20
20.8814837664
 30
0.0
 11
16.6809301675
 21
20.8814837664
 31
0.0
  0
LINE
  5
181
330
1F
100
AcDbEntity
  8
0
  6
SLD-Solid
 62
     7
370
    25
100
AcDbLine
 10
19.1806836874
 20
20.8814837664
 30
0.0
 11
19.1806836874
 21
20.4314837664
 31
0.0
  0
LINE
  5
182
330
1F
100
AcDbEntity
  8
0
  6
SLD-Solid
 62
     7
370
    25
100
AcDbLine
 10
18.6438455328
 20
20.8814837664
 30
0.0
 11
19.1806836874
 21
20.8814837664
 31
0.0
  0
SPLINE
  5
183
330
1F
100
AcDbEntity
  8
0
  6
SLD-Solid
 62
     7
370
    25
100
AcDbSpline
210
0.0
220
0.0
230
1.0
 70
     8
 71
     3
 72
    24
 73
    20
 74
     0
 42
0.00000001
 43
0.00000001
 40
0.0
 40
0.0
 40
0.0
 40
0.0
 40
0.0527771556059146
 40
0.1059206497933822
 40
0.1602196400476603
 40
0.2149179512567696
 40
0.2678865101811089
 40
0.3212256381448316
 40
0.3751388059327426
 40
0.4298383867340046
 40
0.5360285493901736
 40
0.5899293104310209
 40
0.6446165859167368
 40
0.6975511756429423
 40
0.750856198678048
 40
0.8047350312348165
 40
0.8593999346156392
 40
0.9294584820944822
 40
1.0
 40
1.0
 40
1.0
 40
1.0
 10
16.03338178791525
 20
20.88148376637814
 30
0.0
 10
16.03098841628339
 20
20.88141760528564
 30
0.0
 10
16.02618506006737
 20
20.88128482386102
 30
0.0
 10
16.01896930222019
 20
20.88020236335787
 30
0.0
 10
16.01176956414637
 20
20.87845113102646
 30
0.0
 10
16.00473397667762
 20
20.87598484984582
 30
0.0
 10
15.99794464253336
 20
20.87286415793384
 30
0.0
 10
15.99143609725955
 20
20.86911835321856
 30
0.0
 10
15.98515569035639
 20
20.86470611225051
 30
0.0
 10
15.97728968040716
 20
20.85805898343895
 30
0.0
 10
15.97018049757091
 20
20.85028402850919
 30
0.0
 10
15.9640019025155
 20
20.84158091752606
 30
0.0
 10
15.95985285716728
 20
20.83460010096201
 30
0.0
 10
15.95624314028934
 20
20.82726806283134
 30
0.0
 10
15.95319145635991
 20
20.81965224514386
 30
0.0
 10
15.95067480299389
 20
20.81168143126466
 30
0.0
 10
15.94857163630344
 20
20.80264502889913
 30
0.0
 10
15.94704890817182
 20
20.79254235745637
 30
0.0
 10
15.94684495053633
 20
20.78517839530153
 30
0.0
 10
15.94674262141468
 20
20.78148376637813
 30
0.0
  0
SPLINE
  5
184
330
1F
100
AcDbEntity
  8
0
  6
SLD-Solid
 62
     7
370
    25
100
AcDbSpline
210
0.0
220
0.0
230
1.0
 70
     8
 71
     3
 72
    24
 73
    20
 74
     0
 42
0.00000001
 43
0.00000001
 40
0.0
 40
0.0
 40
0.0
 40
0.0
 40
0.0527197672529231
 40
0.1058056434314981
 40
0.1600461643296652
 40
0.2146856379637598
 40
0.2675964227572347
 40
0.3208772116233334
 40
0.3747309673978774
 40
0.4293695047377195
 40
0.5354878814620159
 40
0.5893510277997442
 40
0.6439987208344672
 40
0.6969402655073309
 40
0.7502518608027597
 40
0.8041364659658815
 40
0.8588059026598021
 40
0.929159014424821
 40
1.0
 40
1.0
 40
1.0
 40
1.0
 10
15.91176965956128
 20
20.78148376637813
 30
0.0
 10
15.91182691031974
 20
20.78424442725752
 30
0.0
 10
15.91194180941076
 20
20.78978492024261
 30
0.0
 10
15.9128784697789
 20
20.79810802594609
 30
0.0
 10
15.91439377702221
 20
20.80641263880678
 30
0.0
 10
15.91652770462774
 20
20.81452784516068
 30
0.0
 10
15.91922769075016
 20
20.82235894692476
 30
0.0
 10
15.92246828825035
 20
20.82986614802986
 30
0.0
 10
15.92628514978935
 20
20.83711027746447
 30
0.0
 10
15.93203613599145
 20
20.84618558459852
 30
0.0
 10
15.93876319049572
 20
20.85438915766092
 30
0.0
 10
15.94629369162035
 20
20.86152079565406
 30
0.0
 10
15.9523353260932
 20
20.8663119643077
 30
0.0
 10
15.95868266061662
 20
20.87048242915272
 30
0.0
 10
15.96527764378959
 20
20.87401012493119
 30
0.0
 10
15.97218006664371
 20
20.87692058669706
 30
0.0
 10
15.98001798234559
 20
20.87935872539984
 30
0.0
 10
15.9887935013098
 20
20.88112757752948
 30
0.0
 10
15.99519792961948
 20
20.88136476357566
 30
0.0
 10
15.99841120851746
 20
20.88148376637814
 30
0.0
  0
LINE
  5
185
330
1F
100
AcDbEntity
  8
0
  6
SLD-Solid
 62
     7
370
    25
100
AcDbLine
 10
15.9984112085
 20
20.8814837664
 30
0.0
 11
16.0333817879
 21
20.8814837664
 31
0.0
  0
LINE
  5
186
330
1F
100
AcDbEntity
  8
0
  6
SLD-Solid
 62
     7
370
    25
100
AcDbLine
 10
15.9467426214
 20
20.4314837664
 30
0.0
 11
15.9470018975
 21
20.4314837664
 31
0.0
  0
LINE
  5
187
330
1F
100
AcDbEntity
  8
0
  6
SLD-Solid
 62
     7
370
    25
100
AcDbLine
 10
15.9467426214
 20
20.7814837664
 30
0.0
 11
15.9467426214
 21
20.4314837664
 31
0.0
  0
LINE
  5
188
330
1F
100
AcDbEntity
  8
0
  6
SLD-Solid
 62
     7
370
    25
100
AcDbLine
 10
16.0333817879
 20
20.8814837664
 30
0.0
 11
16.1418912416
 21
20.8814837664
 31
0.0
  0
LINE
  5
189
330
1F
100
AcDbEntity
  8
0
  6
SLD-Solid
 62
     7
370
    25
100
AcDbLine
 10
19.3755730314
 20
20.4314837664
 30
0.0
 11
19.3758052694
 21
20.4314837664
 31
0.0
  0
SPLINE
  5
18A
330
1F
100
AcDbEntity
  8
0
  6
SLD-Solid
 62
     7
370
    25
100
AcDbSpline
210
0.0
220
0.0
230
1.0
 70
     8
 71
     3
 72
    24
 73
    20
 74
     0
 42
0.00000001
 43
0.00000001
 40
0.0
 40
0.0
 40
0.0
 40
0.0
 40
0.0527235230253674
 40
0.1058131810580926
 40
0.1600575660676552
 40
0.2147009322346576
 40
0.2674244419813994
 40
0.3746622983333722
 40
0.4293047281394193
 40
0.4820379049757379
 40
0.5892946752959312
 40
0.6439462614491173
 40
0.6967005160388944
 40
0.7498208233648774
 40
0.8040954015713311
 40
0.8587687329327494
 40
0.8938125888992727
 40
0.9644126716629801
 40
1.0
 40
1.0
 40
1.0
 40
1.0
 10
19.375805269371
 20
20.78148376637813
 30
0.0
 10
19.37574802014986
 20
20.78424442469088
 30
0.0
 10
19.37563312414416
 20
20.78978491252485
 30
0.0
 10
19.37469644034383
 20
20.79810805734963
 30
0.0
 10
19.3731812243692
 20
20.80641251783242
 30
0.0
 10
19.37104947541207
 20
20.81451871155415
 30
0.0
 10
19.36745003033165
 20
20.82496519320844
 30
0.0
 10
19.36272025501152
 20
20.83485479824869
 30
0.0
 10
19.35696791406539
 20
20.84392903236646
 30
0.0
 10
19.35057548377946
 20
20.85241295644825
 30
0.0
 10
19.34327689847211
 20
20.85993929727833
 30
0.0
 10
19.33524712321361
 20
20.86630584563216
 30
0.0
 10
19.32891515727952
 20
20.87046773462384
 30
0.0
 10
19.32232166907742
 20
20.87399970961103
 30
0.0
 10
19.31541204583049
 20
20.87691219129068
 30
0.0
 10
19.30910303924115
 20
20.87888751501634
 30
0.0
 10
19.30196953105432
 20
20.88050119736428
 30
0.0
 10
19.29559100794577
 20
20.8813588093589
 30
0.0
 10
19.2907770543034
 20
20.88145240051925
 30
0.0
 10
19.28916372041481
 20
20.88148376637814
 30
0.0
  0
LINE
  5
18B
330
1F
100
AcDbEntity
  8
0
  6
SLD-Solid
 62
     7
370
    25
100
AcDbLine
 10
19.3758052694
 20
20.7814837664
 30
0.0
 11
19.3758052694
 21
20.4314837664
 31
0.0
  0
LINE
  5
18C
330
1F
100
AcDbEntity
  8
0
  6
SLD-Solid
 62
     7
370
    25
100
AcDbLine
 10
19.1806836874
 20
20.8814837664
 30
0.0
 11
19.2891637204
 21
20.8814837664
 31
0.0
  0
SPLINE
  5
18D
330
1F
100
AcDbEntity
  8
0
  6
SLD-Solid
 62
     7
370
    25
100
AcDbSpline
210
0.0
220
0.0
230
1.0
 70
     8
 71
     3
 72
    24
 73
    20
 74
     0
 42
0.00000001
 43
0.00000001
 40
0.0
 40
0.0
 40
0.0
 40
0.0
 40
0.0527809402452539
 40
0.1059282453421414
 40
0.1602311293662141
 40
0.2149333629803414
 40
0.2677143246251787
 40
0.320861846569462
 40
0.3751656936034019
 40
0.4298691969007207
 40
0.4826376218067517
 40
0.5899685774621581
 40
0.6446597745615278
 40
0.6974068420346422
 40
0.8046941900759741
 40
0.859363013466153
 40
0.8942609551137264
 40
0.9645640551842996
 40
1.0
 40
1.0
 40
1.0
 40
1.0
 10
19.32419314101702
 20
20.88148376637814
 30
0.0
 10
19.32658651258918
 20
20.88141760535954
 30
0.0
 10
19.33138986868538
 20
20.88128482408327
 30
0.0
 10
19.33860562744256
 20
20.88020236245356
 30
0.0
 10
19.34580536197194
 20
20.87845113451007
 30
0.0
 10
19.35283264929804
 20
20.87598775114255
 30
0.0
 10
19.35960598764458
 20
20.8728758020298
 30
0.0
 10
19.36611605937141
 20
20.86913327686744
 30
0.0
 10
19.37240470560381
 20
20.86471862105483
 30
0.0
 10
19.37833022750259
 20
20.85971023184481
 30
0.0
 10
19.38568183283408
 20
20.85232242216684
 30
0.0
 10
19.39220313110577
 20
20.84388765479677
 30
0.0
 10
19.39771685953997
 20
20.83460829083301
 30
0.0
 10
19.40253403727382
 20
20.8248292094532
 30
0.0
 10
19.40626580757459
 20
20.81438139428276
 30
0.0
 10
19.4085977218549
 20
20.80442335515957
 30
0.0
 10
19.40998750475004
 20
20.79620806137876
 30
0.0
 10
19.41072485214121
 20
20.78887387682159
 30
0.0
 10
19.41080533543992
 20
20.78333873761921
 30
0.0
 10
19.41083230751759
 20
20.78148376637813
 30
0.0
  0
LINE
  5
18E
330
1F
100
AcDbEntity
  8
0
  6
SLD-Solid
 62
     7
370
    25
100
AcDbLine
 10
19.2891637204
 20
20.8814837664
 30
0.0
 11
19.324193141
 21
20.8814837664
 31
0.0
  0
LINE
  5
18F
330
1F
100
AcDbEntity
  8
0
  6
SLD-Solid
 62
     7
370
    25
100
AcDbLine
 10
15.9117696596
 20
20.7814837664
 30
0.0
 11
15.9117696596
 21
20.4314837664
 31
0.0
  0
LINE
  5
190
330
1F
100
AcDbEntity
  8
0
  6
SLD-Solid
 62
     7
370
    25
100
AcDbLine
 10
15.9117696596
 20
20.4314837664
 30
0.0
 11
15.9467426214
 21
20.4314837664
 31
0.0
  0
LINE
  5
191
330
1F
100
AcDbEntity
  8
0
  6
SLD-Solid
 62
     7
370
    25
100
AcDbLine
 10
19.4108323075
 20
20.7814837664
 30
0.0
 11
19.4108323075
 21
20.4314837664
 31
0.0
  0
LINE
  5
192
330
1F
100
AcDbEntity
  8
0
  6
SLD-Solid
 62
     7
370
    25
100
AcDbLine
 10
19.3758052694
 20
20.4314837664
 30
0.0
 11
19.4108323075
 21
20.4314837664
 31
0.0
  0
LINE
  5
193
330
1F
100
AcDbEntity
  8
0
  6
SLD-Solid
 62
     7
370
    25
100
AcDbLine
 10
15.8866325684
 20
20.8814837664
 30
0.0
 11
15.8866325684
 21
20.4314837664
 31
0.0
  0
LINE
  5
194
330
1F
100
AcDbEntity
  8
0
  6
SLD-Solid
 62
     7
370
    25
100
AcDbLine
 10
15.8866325684
 20
20.8814837664
 30
0.0
 11
15.9984112085
 21
20.8814837664
 31
0.0
  0
LINE
  5
195
330
1F
100
AcDbEntity
  8
0
  6
SLD-Solid
 62
     7
370
    25
100
AcDbLine
 10
19.4359423605
 20
20.8814837664
 30
0.0
 11
19.4359423605
 21
20.4314837664
 31
0.0
  0
LINE
  5
196
330
1F
100
AcDbEntity
  8
0
  6
SLD-Solid
 62
     7
370
    25
100
AcDbLine
 10
19.3243098656
 20
20.8814837664
 30
0.0
 11
19.4359423605
 21
20.8814837664
 31
0.0
  0
SPLINE
  5
197
330
1F
100
AcDbEntity
  8
0
  6
SLD-Solid
 62
     7
370
    25
100
AcDbSpline
210
0.0
220
0.0
230
1.0
 70
     8
 71
     3
 72
    24
 73
    20
 74
     0
 42
0.00000001
 43
0.00000001
 40
0.0
 40
0.0
 40
0.0
 40
0.0
 40
0.0363607590788352
 40
0.1029720488111382
 40
0.1603498504838282
 40
0.2149133425481093
 40
0.2512741641455022
 40
0.3178858545741568
 40
0.3752644854787687
 40
0.429829150480589
 40
0.5061357257769167
 40
0.5766943146911749
 40
0.6446525333365457
 40
0.6943592639991152
 40
0.7847412792287672
 40
0.85937112596883
 40
0.8943476001337757
 40
0.9646473859636024
 40
1.0
 40
1.0
 40
1.0
 40
1.0
 10
15.76133664390055
 20
20.88148376637814
 30
0.0
 10
15.75943308827212
 20
20.88145109880395
 30
0.0
 10
15.75404230358963
 20
20.88135858569011
 30
0.0
 10
15.74568148069724
 20
20.88040418535661
 30
0.0
 10
15.73652188848487
 20
20.87849380484414
 30
0.0
 10
15.72908290023823
 20
20.87623495212873
 30
0.0
 10
15.72137881079039
 20
20.87328380719005
 30
0.0
 10
15.71379290964297
 20
20.86965013228173
 30
0.0
 10
15.70578505638958
 20
20.86480548514724
 30
0.0
 10
15.69782444227832
 20
20.85897775136814
 30
0.0
 10
15.68998018097774
 20
20.85189080909472
 30
0.0
 10
15.68254448975428
 20
20.8434247951498
 30
0.0
 10
15.67687339774817
 20
20.83534266056127
 30
0.0
 10
15.6714624641895
 20
20.82588084381226
 30
0.0
 10
15.66697249678378
 20
20.81553133638598
 30
0.0
 10
15.66407381215166
 20
20.80544478975139
 30
0.0
 10
15.66226847370492
 20
20.79619988124223
 30
0.0
 10
15.661418019424
 20
20.78886537358769
 30
0.0
 10
15.66132535752696
 20
20.78333447440209
 30
0.0
 10
15.6612943516976
 20
20.78148376637813
 30
0.0
  0
LINE
  5
198
330
1F
100
AcDbEntity
  8
0
  6
SLD-Solid
 62
     7
370
    25
100
AcDbLine
 10
15.7608141578
 20
20.8814837664
 30
0.0
 11
15.7613366439
 21
20.8814837664
 31
0.0
  0
LINE
  5
199
330
1F
100
AcDbEntity
  8
0
  6
SLD-Solid
 62
     7
370
    25
100
AcDbLine
 10
15.6612943517
 20
20.4314837664
 30
0.0
 11
15.6615937379
 21
20.4314837664
 31
0.0
  0
LINE
  5
19A
330
1F
100
AcDbEntity
  8
0
  6
SLD-Solid
 62
     7
370
    25
100
AcDbLine
 10
15.6612943517
 20
20.7814837664
 30
0.0
 11
15.6612943517
 21
20.4314837664
 31
0.0
  0
LINE
  5
19B
330
1F
100
AcDbEntity
  8
0
  6
SLD-Solid
 62
     7
370
    25
100
AcDbLine
 10
15.7613366439
 20
20.8814837664
 30
0.0
 11
15.8866325684
 21
20.8814837664
 31
0.0
  0
LINE
  5
19C
330
1F
100
AcDbEntity
  8
0
  6
SLD-Solid
 62
     7
370
    25
100
AcDbLine
 10
15.6608141578
 20
20.4314837664
 30
0.0
 11
15.6612943517
 21
20.4314837664
 31
0.0
  0
LINE
  5
19D
330
1F
100
AcDbEntity
  8
0
  6
SLD-Solid
 62
     7
370
    25
100
AcDbLine
 10
19.660981191
 20
20.4314837664
 30
0.0
 11
19.6612493563
 21
20.4314837664
 31
0.0
  0
SPLINE
  5
19E
330
1F
100
AcDbEntity
  8
0
  6
SLD-Solid
 62
     7
370
    25
100
AcDbSpline
210
0.0
220
0.0
230
1.0
 70
     8
 71
     3
 72
    17
 73
    13
 74
     0
 42
0.00000001
 43
0.00000001
 40
0.0
 40
0.0
 40
0.0
 40
0.0
 40
0.1057852584670299
 40
0.2146387364517779
 40
0.3204238722110906
 40
0.4292757843327839
 40
0.5350802136483285
 40
0.6439506182794495
 40
0.7497973176971968
 40
0.8587110484449646
 40
0.928920796050535
 40
1.0
 40
1.0
 40
1.0
 40
1.0
 10
19.66124935627223
 20
20.78148376637813
 30
0.0
 10
19.66098233114864
 20
20.78702412586195
 30
0.0
 10
19.6604405360445
 20
20.7982655386668
 30
0.0
 10
19.65608135772116
 20
20.81457992337036
 30
0.0
 10
19.64918393917679
 20
20.83009927364368
 30
0.0
 10
19.63981095806983
 20
20.84410555027713
 30
0.0
 10
19.62812789542659
 20
20.85645565464138
 30
0.0
 10
19.61465469987689
 20
20.86657552936652
 30
0.0
 10
19.59953725373926
 20
20.87437429559258
 30
0.0
 10
19.58525216612403
 20
20.87887378237435
 30
0.0
 10
19.57232051040822
 20
20.88112491931181
 30
0.0
 10
19.5649248824395
 20
20.88136366097083
 30
0.0
 10
19.56120431304651
 20
20.88148376637814
 30
0.0
  0
LINE
  5
19F
330
1F
100
AcDbEntity
  8
0
  6
SLD-Solid
 62
     7
370
    25
100
AcDbLine
 10
19.6612493563
 20
20.7814837664
 30
0.0
 11
19.6612493563
 21
20.4314837664
 31
0.0
  0
LINE
  5
1A0
330
1F
100
AcDbEntity
  8
0
  6
SLD-Solid
 62
     7
370
    25
100
AcDbLine
 10
19.4359423605
 20
20.8814837664
 30
0.0
 11
19.561204313
 21
20.8814837664
 31
0.0
  0
LINE
  5
1A1
330
1F
100
AcDbEntity
  8
0
  6
SLD-Solid
 62
     7
370
    25
100
AcDbLine
 10
19.6612493563
 20
20.4314837664
 30
0.0
 11
19.6617607711
 21
20.4314837664
 31
0.0
  0
LINE
  5
1A2
330
1F
100
AcDbEntity
  8
0
  6
SLD-Solid
 62
     7
370
    25
100
AcDbLine
 10
19.561204313
 20
20.8814837664
 30
0.0
 11
19.5617607711
 21
20.8814837664
 31
0.0
  0
LINE
  5
1A3
330
1F
100
AcDbEntity
  8
0
  6
SLD-Solid
 62
     7
370
    25
100
AcDbLine
 10
14.9112874645
 20
19.9714837664
 30
0.0
 11
15.6112874645
 21
19.9714837664
 31
0.0
  0
LINE
  5
1A4
330
1F
100
AcDbEntity
  8
0
  6
SLD-Solid
 62
     7
370
    25
100
AcDbLine
 10
15.5426626159
 20
20.0714837664
 30
0.0
 11
14.9112874645
 21
19.9714837664
 31
0.0
  0
LINE
  5
1A5
330
1F
100
AcDbEntity
  8
0
  6
SLD-Solid
 62
     7
370
    25
100
AcDbLine
 10
15.6112874645
 20
20.0714837664
 30
0.0
 11
15.5426626159
 21
20.0714837664
 31
0.0
  0
LINE
  5
1A6
330
1F
100
AcDbEntity
  8
0
  6
SLD-Solid
 62
     7
370
    25
100
AcDbLine
 10
20.4112874645
 20
19.2714837664
 30
0.0
 11
19.7112874645
 21
19.2714837664
 31
0.0
  0
LINE
  5
1A7
330
1F
100
AcDbEntity
  8
0
  6
SLD-Solid
 62
     7
370
    25
100
AcDbLine
 10
20.4112874645
 20
19.9714837664
 30
0.0
 11
19.7112874645
 21
19.9714837664
 31
0.0
  0
LINE
  5
1A8
330
1F
100
AcDbEntity
  8
0
  6
SLD-Solid
 62
     7
370
    25
100
AcDbLine
 10
20.4112874645
 20
19.9714837664
 30
0.0
 11
20.4112874645
 21
19.2714837664
 31
0.0
  0
LINE
  5
1A9
330
1F
100
AcDbEntity
  8
0
  6
SLD-Solid
 62
     7
370
    25
100
AcDbLine
 10
19.7112874645
 20
20.0714837664
 30
0.0
 11
19.779912313
 21
20.0714837664
 31
0.0
  0
LINE
  5
1AA
330
1F
100
AcDbEntity
  8
0
  6
SLD-Solid
 62
     7
370
    25
100
AcDbLine
 10
19.779912313
 20
20.0714837664
 30
0.0
 11
20.4112874645
 21
19.9714837664
 31
0.0
  0
LINE
  5
1AB
330
1F
100
AcDbEntity
  8
0
  6
SLD-Solid
 62
     7
370
    25
100
AcDbLine
 10
15.6112874645
 20
19.9714837664
 30
0.0
 11
19.7112874645
 21
19.9714837664
 31
0.0
  0
LINE
  5
1AC
330
1F
100
AcDbEntity
  8
0
  6
SLD-Solid
 62
     7
370
    25
100
AcDbLine
 10
19.7112874645
 20
19.2714837664
 30
0.0
 11
17.6683935109
 21
19.2714837664
 31
0.0
  0
LINE
  5
1AD
330
1F
100
AcDbEntity
  8
0
  6
SLD-Solid
 62
     7
370
    25
100
AcDbLine
 10
17.6612874645
 20
19.2714837664
 30
0.0
 11
15.6112874645
 21
19.2714837664
 31
0.0
  0
LINE
  5
1AE
330
1F
100
AcDbEntity
  8
0
  6
SLD-Solid
 62
     7
370
    25
100
AcDbLine
 10
14.9112874645
 20
19.2714837664
 30
0.0
 11
15.6112874645
 21
19.2714837664
 31
0.0
  0
LINE
  5
1AF
330
1F
100
AcDbEntity
  8
0
  6
SLD-Solid
 62
     7
370
    25
100
AcDbLine
 10
14.9112874645
 20
19.9714837664
 30
0.0
 11
14.9112874645
 21
19.2714837664
 31
0.0
  0
LINE
  5
1B0
330
1F
100
AcDbEntity
  8
0
  6
SLD-Solid
 62
     7
370
    25
100
AcDbLine
 10
19.7112874645
 20
20.0714837664
 30
0.0
 11
15.6112874645
 21
20.0714837664
 31
0.0
  0
LINE
  5
1B1
330
1F
100
AcDbEntity
  8
0
  6
SLD-Solid
 62
     7
370
    25
100
AcDbLine
 10
17.6612874645
 20
19.2714837664
 30
0.0
 11
17.6683935109
 21
19.2714837664
 31
0.0
  0
LINE
  5
1B2
330
1F
100
AcDbEntity
  8
0
  6
SLD-Solid
 62
     7
370
    25
100
AcDbLine
 10
15.0612874645
 20
19.2714837664
 30
0.0
 11
15.3556050592
 21
9.2156326134
 31
0.0
  0
LINE
  5
1B3
330
1F
100
AcDbEntity
  8
0
  6
SLD-Solid
 62
     7
370
    25
100
AcDbLine
 10
20.2612874645
 20
19.2714837664
 30
0.0
 11
19.9669698697
 21
9.2156326134
 31
0.0
  0
LINE
  5
1B4
330
1F
100
AcDbEntity
  8
0
  6
SLD-Solid
 62
     7
370
    25
100
AcDbLine
 10
15.5555194509
 20
9.0214837664
 30
0.0
 11
15.9553482343
 21
9.0214837664
 31
0.0
  0
ARC
  5
1B5
330
1F
100
AcDbEntity
  8
0
  6
SLD-Solid
 62
     7
370
    25
100
AcDbCircle
 10
15.5555194509
 20
9.2214837664
 30
0.0
 40
0.1999999999999977
100
AcDbArc
 50
181.6764710468
 51
270.0
  0
LINE
  5
1B6
330
1F
100
AcDbEntity
  8
0
  6
SLD-Solid
 62
     7
370
    25
100
AcDbLine
 10
19.3672266946
 20
9.0214837664
 30
0.0
 11
15.9553482343
 21
9.0214837664
 31
0.0
  0
LINE
  5
1B7
330
1F
100
AcDbEntity
  8
0
  6
SLD-Solid
 62
     7
370
    25
100
AcDbLine
 10
19.767055478
 20
9.0214837664
 30
0.0
 11
19.3672266946
 21
9.0214837664
 31
0.0
  0
ARC
  5
1B8
330
1F
100
AcDbEntity
  8
0
  6
SLD-Solid
 62
     7
370
    25
100
AcDbCircle
 10
19.767055478
 20
9.2214837664
 30
0.0
 40
0.200000000000001
100
AcDbArc
 50
270.0
 51
358.3235289532
  0
LINE
  5
1B9
330
1F
100
AcDbEntity
  8
0
  6
SLD-Solid
 62
     8
370
    25
100
AcDbLine
 10
15.6612943517
 20
20.7814837664
 30
0.0
 11
15.6608141578
 21
20.7814837664
 31
0.0
  0
LINE
  5
1BA
330
1F
100
AcDbEntity
  8
0
  6
SLD-Solid
 62
     8
370
    25
100
AcDbLine
 10
19.6617607711
 20
20.7814837664
 30
0.0
 11
19.6612493563
 21
20.7814837664
 31
0.0
  0
DIMENSION
  5
1BB
330
1F
100
AcDbEntity
  8
DIMS
100
AcDbDimension
  2
_D
 10
13.5727047873
 20
9.0214837664
 30
0.0
 11
13.5727047873
 21
15.1081674176
 31
0.0
 70
   160
  1
<>
 71
     2
 42
-1.0
  3
SLDDIMSTYLE0
100
AcDbAlignedDimension
 13
15.7613366439
 23
20.8814837664
 33
0.0
 14
15.5555194509
 24
9.0214837664
 34
0.0
 50
90.0
100
AcDbRotatedDimension
  0
LINE
  5
1D1
330
1F
100
AcDbEntity
  8
0
  6
SLD-Solid
 62
     7
370
    25
100
AcDbLine
 10
33.3196010679
 20
24.9726736333
 30
0.0
 11
33.3196010679
 21
25.2380493972
 31
0.0
  0
LINE
  5
1D2
330
1F
100
AcDbEntity
  8
0
  6
SLD-Solid
 62
     7
370
    25
100
AcDbLine
 10
29.3196010679
 20
25.2380493972
 30
0.0
 11
29.3196010679
 21
24.9726736333
 31
0.0
  0
LINE
  5
1D3
330
1F
100
AcDbEntity
  8
0
  6
SLD-Solid
 62
     7
370
    25
100
AcDbLine
 10
29.5446010679
 20
25.6054927625
 30
0.0
 11
29.5446010679
 21
25.3518468873
 31
0.0
  0
LINE
  5
1D4
330
1F
100
AcDbEntity
  8
0
  6
SLD-Solid
 62
     7
370
    25
100
AcDbLine
 10
33.0946010679
 20
25.3518468873
 30
0.0
 11
33.0946010679
 21
25.6054927625
 31
0.0
  0
LINE
  5
1D5
330
1F
100
AcDbEntity
  8
0
  6
SLD-Solid
 62
     7
370
    25
100
AcDbLine
 10
33.2565947666
 20
25.8255622582
 30
0.0
 11
33.2342948843
 21
25.8737148722
 31
0.0
  0
LINE
  5
1D6
330
1F
100
AcDbEntity
  8
0
  6
SLD-Solid
 62
     7
370
    25
100
AcDbLine
 10
29.40500719
 20
25.8738374336
 30
0.0
 11
29.3826315076
 21
25.8257083961
 31
0.0
  0
LINE
  5
1D7
330
1F
100
AcDbEntity
  8
0
  6
SLD-Solid
 62
     7
370
    25
100
AcDbLine
 10
29.9535724604
 20
26.401768717
 30
0.0
 11
29.8987803438
 21
26.3701659648
 31
0.0
  0
LINE
  5
1D8
330
1F
100
AcDbEntity
  8
0
  6
SLD-Solid
 62
     7
370
    25
100
AcDbLine
 10
32.7404713922
 20
26.3701065153
 30
0.0
 11
32.6857256299
 21
26.4017438943
 31
0.0
  0
LINE
  5
1D9
330
1F
100
AcDbEntity
  8
0
  6
SLD-Solid
 62
     7
370
    25
100
AcDbLine
 10
30.8486802367
 20
26.6876474282
 30
0.0
 11
30.7765204994
 21
26.6765067625
 31
0.0
  0
LINE
  5
1DA
330
1F
100
AcDbEntity
  8
0
  6
SLD-Solid
 62
     7
370
    25
100
AcDbLine
 10
31.8627311794
 20
26.6764774142
 30
0.0
 11
31.7905883144
 21
26.6876588031
 31
0.0
  0
LINE
  5
1DB
330
1F
100
AcDbEntity
  8
0
  6
SLD-Solid
 62
     7
370
    25
100
AcDbLine
 10
34.9187388708
 20
24.2908620554
 30
0.0
 11
34.9187388708
 21
24.8624406237
 31
0.0
  0
LINE
  5
1DC
330
1F
100
AcDbEntity
  8
0
  6
SLD-Solid
 62
     7
370
    25
100
AcDbLine
 10
27.7204632651
 20
24.8624406237
 30
0.0
 11
27.7204632651
 21
24.2908620554
 31
0.0
  0
LINE
  5
1DD
330
1F
100
AcDbEntity
  8
0
  6
SLD-Solid
 62
     7
370
    25
100
AcDbLine
 10
34.3315941104
 20
16.0677528852
 30
0.0
 11
34.7345883018
 21
24.017701024
 31
0.0
  0
LINE
  5
1DE
330
1F
100
AcDbEntity
  8
0
  6
SLD-Solid
 62
     7
370
    25
100
AcDbLine
 10
27.9046138341
 20
24.017701024
 30
0.0
 11
28.3076080255
 21
16.0677528852
 31
0.0
  0
SPLINE
  5
1DF
330
1F
100
AcDbEntity
  8
0
  6
SLD-Solid
 62
     7
370
    25
100
AcDbSpline
210
0.0
220
0.0
230
1.0
 70
     8
 71
     3
 72
    17
 73
    13
 74
     0
 42
0.00000001
 43
0.00000001
 40
0.0
 40
0.0
 40
0.0
 40
0.0
 40
0.0610767390909238
 40
0.1664999647250769
 40
0.2718705644855169
 40
0.3769154412915602
 40
0.4815898957117565
 40
0.5862659570930123
 40
0.6914271687705839
 40
0.7975567329892608
 40
0.9052545171671363
 40
1.0
 40
1.0
 40
1.0
 40
1.0
 10
30.93688755060623
 20
14.35546276659757
 30
0.0
 10
30.95035163471299
 20
14.34810915566647
 30
0.0
 10
30.9870557803861
 20
14.32806263748534
 30
0.0
 10
31.0524834765656
 20
14.30201044342305
 30
0.0
 10
31.13334311188997
 20
14.27951368573698
 30
0.0
 10
31.21789193605848
 20
14.26546822832766
 30
0.0
 10
31.30432367474516
 20
14.25977852044247
 30
0.0
 10
31.39110360896939
 20
14.26251457535528
 30
0.0
 10
31.47683104519352
 20
14.27365746022863
 30
0.0
 10
31.55997925779696
 20
14.2935259983597
 30
0.0
 10
31.63616991041627
 20
14.32035160381636
 30
0.0
 10
31.68122728245885
 20
14.34426912594907
 30
0.0
 10
31.70231458524935
 20
14.35546276659759
 30
0.0
  0
LINE
  5
1E0
330
1F
100
AcDbEntity
  8
0
  6
SLD-Solid
 62
     7
370
    25
100
AcDbLine
 10
31.7023145852
 20
14.3554627666
 30
0.0
 11
34.1148769811
 21
15.7482053924
 31
0.0
  0
LINE
  5
1E1
330
1F
100
AcDbEntity
  8
0
  6
SLD-Solid
 62
     7
370
    25
100
AcDbLine
 10
28.5243251547
 20
15.7482053924
 30
0.0
 11
30.9368875506
 21
14.3554627666
 31
0.0
  0
SPLINE
  5
1E2
330
1F
100
AcDbEntity
  8
0
  6
SLD-Solid
 62
     7
370
    25
100
AcDbSpline
210
0.0
220
0.0
230
1.0
 70
     8
 71
     3
 72
    14
 73
    10
 74
     0
 42
0.00000001
 43
0.00000001
 40
0.0
 40
0.0
 40
0.0
 40
0.0
 40
0.1119549529396564
 40
0.2890197963149498
 40
0.4585535810723595
 40
0.6209224304161906
 40
0.7779532604179018
 40
0.9487996386991783
 40
0.9999999999999999
 40
0.9999999999999999
 40
0.9999999999999999
 40
0.9999999999999999
 10
34.11487698114772
 20
15.74820539238947
 30
0.0
 10
34.1280823958874
 20
15.75626058755542
 30
0.0
 10
34.16217312772287
 20
15.77705565561637
 30
0.0
 10
34.21043600727552
 20
15.81631377915826
 30
0.0
 10
34.25646287746411
 20
15.86650640392903
 30
0.0
 10
34.29221854305551
 20
15.9211148786939
 30
0.0
 10
34.31728463738872
 20
15.98120028869107
 30
0.0
 10
34.33033820781456
 20
16.03067441307866
 30
0.0
 10
34.33020255099387
 20
16.06025158528093
 30
0.0
 10
34.33017127074069
 20
16.06707159941788
 30
0.0
  0
SPLINE
  5
1E3
330
1F
100
AcDbEntity
  8
0
  6
SLD-Solid
 62
     7
370
    25
100
AcDbSpline
210
0.0
220
0.0
230
1.0
 70
     8
 71
     3
 72
    14
 73
    10
 74
     0
 42
0.00000001
 43
0.00000001
 40
0.0
 40
0.0
 40
0.0
 40
0.0
 40
0.0298692859211712
 40
0.1892475477134133
 40
0.3469184829854782
 40
0.5061291038796175
 40
0.6699768321512047
 40
0.8409112522758847
 40
1.0
 40
1.0
 40
1.0
 40
1.0
 10
28.3085115023836
 20
16.06901776004013
 30
0.0
 10
28.30839427598783
 20
16.06502310552406
 30
0.0
 10
28.30765154621569
 20
16.0397135426131
 30
0.0
 10
28.31836732137849
 20
15.99384698437403
 30
0.0
 10
28.34025368305362
 20
15.93418322739069
 30
0.0
 10
28.37352841874734
 20
15.87892580309284
 30
0.0
 10
28.41644096425631
 20
15.82840138828091
 30
0.0
 10
28.4667554092293
 20
15.7840757625752
 30
0.0
 10
28.50559999503912
 20
15.75987260410834
 30
0.0
 10
28.52432515470784
 20
15.74820539238936
 30
0.0
  0
ARC
  5
1E4
330
1F
100
AcDbEntity
  8
0
  6
SLD-Solid
 62
     7
370
    25
100
AcDbCircle
 10
30.1562797282
 20
25.6054927625
 30
0.0
 40
0.6114343978972269
100
AcDbArc
 50
156.3127596218
 51
203.6872403782
  0
LINE
  5
1E5
330
1F
100
AcDbEntity
  8
0
  6
SLD-Solid
 62
     7
370
    25
100
AcDbLine
 10
29.4753308351
 20
25.8698536189
 30
0.0
 11
29.5963574045
 21
25.8511327722
 31
0.0
  0
LINE
  5
1E6
330
1F
100
AcDbEntity
  8
0
  6
SLD-Solid
 62
     7
370
    25
100
AcDbLine
 10
29.6144747377
 20
25.8901659699
 30
0.0
 11
29.4934809827
 21
25.9088817408
 31
0.0
  0
ARC
  5
1E7
330
1F
100
AcDbEntity
  8
0
  6
SLD-Solid
 62
     7
370
    25
100
AcDbCircle
 10
30.5671124044
 20
25.3629321559
 30
0.0
 40
1.088803939514603
100
AcDbArc
 50
118.9559652356
 51
151.037826311
  0
LINE
  5
1E8
330
1F
100
AcDbEntity
  8
0
  6
SLD-Solid
 62
     7
370
    25
100
AcDbLine
 10
29.9513842214
 20
26.3667732515
 30
0.0
 11
30.0399818193
 21
26.315626947
 31
0.0
  0
LINE
  5
1E9
330
1F
100
AcDbEntity
  8
0
  6
SLD-Solid
 62
     7
370
    25
100
AcDbLine
 10
30.089479294
 20
26.3442012309
 30
0.0
 11
30.0009057179
 21
26.395333668
 31
0.0
  0
ARC
  5
1EA
330
1F
100
AcDbEntity
  8
0
  6
SLD-Solid
 62
     7
370
    25
100
AcDbCircle
 10
31.1795738103
 20
24.3020029293
 30
0.0
 40
2.314925475515287
100
AcDbArc
 50
98.7735485249
 51
118.0926242104
  0
LINE
  5
1EB
330
1F
100
AcDbEntity
  8
0
  6
SLD-Solid
 62
     7
370
    25
100
AcDbLine
 10
30.7940502069
 20
26.6597083919
 30
0.0
 11
30.8264791784
 21
26.5898412405
 31
0.0
  0
ARC
  5
1EC
330
1F
100
AcDbEntity
  8
0
  6
SLD-Solid
 62
     7
370
    25
100
AcDbCircle
 10
31.1081681763
 20
24.8492802886
 30
0.0
 40
1.837476534746485
100
AcDbArc
 50
97.709373589
 51
99.8431015546
  0
LINE
  5
1ED
330
1F
100
AcDbEntity
  8
0
  6
SLD-Solid
 62
     7
370
    25
100
AcDbLine
 10
30.8940939863
 20
26.6003001543
 30
0.0
 11
30.8616738073
 21
26.6701483623
 31
0.0
  0
ARC
  5
1EE
330
1F
100
AcDbEntity
  8
0
  6
SLD-Solid
 62
     7
370
    25
100
AcDbCircle
 10
31.3196010679
 20
23.5903427509
 30
0.0
 40
3.039884841030347
100
AcDbArc
 50
81.9536156005
 51
98.0463843995
  0
LINE
  5
1EF
330
1F
100
AcDbEntity
  8
0
  6
SLD-Solid
 62
     7
370
    25
100
AcDbLine
 10
31.7775371211
 20
26.6701673057
 30
0.0
 11
31.7451081496
 21
26.6003001543
 31
0.0
  0
LINE
  5
1F0
330
1F
100
AcDbEntity
  8
0
  6
SLD-Solid
 62
     7
370
    25
100
AcDbLine
 10
31.8127229574
 20
26.5898412405
 30
0.0
 11
31.8451431364
 21
26.6596894485
 31
0.0
  0
ARC
  5
1F1
330
1F
100
AcDbEntity
  8
0
  6
SLD-Solid
 62
     7
370
    25
100
AcDbCircle
 10
31.4596283256
 20
24.3020029293
 30
0.0
 40
2.314925475515111
100
AcDbArc
 50
61.9073757896
 51
81.2264514751
  0
LINE
  5
1F2
330
1F
100
AcDbEntity
  8
0
  6
SLD-Solid
 62
     7
370
    25
100
AcDbLine
 10
32.6383204397
 20
26.3953475355
 30
0.0
 11
32.5497228418
 21
26.3442012309
 31
0.0
  0
LINE
  5
1F3
330
1F
100
AcDbEntity
  8
0
  6
SLD-Solid
 62
     7
370
    25
100
AcDbLine
 10
32.5992203165
 20
26.315626947
 30
0.0
 11
32.6877938926
 21
26.366759384
 31
0.0
  0
ARC
  5
1F4
330
1F
100
AcDbEntity
  8
0
  6
SLD-Solid
 62
     7
370
    25
100
AcDbCircle
 10
32.0720897315
 20
25.3629321559
 30
0.0
 40
1.088803939514591
100
AcDbArc
 50
28.962173689
 51
61.0440347644
  0
LINE
  5
1F5
330
1F
100
AcDbEntity
  8
0
  6
SLD-Solid
 62
     7
370
    25
100
AcDbLine
 10
33.1457539676
 20
25.9088868167
 30
0.0
 11
33.0247273982
 21
25.8901659699
 31
0.0
  0
LINE
  5
1F6
330
1F
100
AcDbEntity
  8
0
  6
SLD-Solid
 62
     7
370
    25
100
AcDbLine
 10
33.0428447313
 20
25.8511327722
 30
0.0
 11
33.1638384864
 21
25.8698485431
 31
0.0
  0
ARC
  5
1F7
330
1F
100
AcDbEntity
  8
0
  6
SLD-Solid
 62
     7
370
    25
100
AcDbCircle
 10
32.4829224076
 20
25.6054927625
 30
0.0
 40
0.6114343978971697
100
AcDbArc
 50
336.3127596218
 51
23.6872403782
  0
LINE
  5
1F8
330
1F
100
AcDbEntity
  8
0
  6
SLD-Solid
 62
     7
370
    25
100
AcDbLine
 10
33.1638713008
 20
25.3411319061
 30
0.0
 11
33.0428447313
 21
25.3598527529
 31
0.0
  0
LINE
  5
1F9
330
1F
100
AcDbEntity
  8
0
  6
SLD-Solid
 62
     7
370
    25
100
AcDbLine
 10
33.0247273982
 20
25.3208195551
 30
0.0
 11
33.1457211532
 21
25.3021037842
 31
0.0
  0
ARC
  5
1FA
330
1F
100
AcDbEntity
  8
0
  6
SLD-Solid
 62
     7
370
    25
100
AcDbCircle
 10
32.0720897315
 20
25.8480533692
 30
0.0
 40
1.088803939514479
100
AcDbArc
 50
298.9559652356
 51
331.037826311
  0
LINE
  5
1FB
330
1F
100
AcDbEntity
  8
0
  6
SLD-Solid
 62
     7
370
    25
100
AcDbLine
 10
32.6878179144
 20
24.8442122735
 30
0.0
 11
32.5992203165
 21
24.8953585781
 31
0.0
  0
LINE
  5
1FC
330
1F
100
AcDbEntity
  8
0
  6
SLD-Solid
 62
     7
370
    25
100
AcDbLine
 10
32.5497228418
 20
24.8667842942
 30
0.0
 11
32.6382964179
 21
24.8156518571
 31
0.0
  0
ARC
  5
1FD
330
1F
100
AcDbEntity
  8
0
  6
SLD-Solid
 62
     7
370
    25
100
AcDbCircle
 10
31.4596283256
 20
26.9089825957
 30
0.0
 40
2.31492547551508
100
AcDbArc
 50
278.7735485249
 51
298.0926242104
  0
LINE
  5
1FE
330
1F
100
AcDbEntity
  8
0
  6
SLD-Solid
 62
     7
370
    25
100
AcDbLine
 10
31.845151929
 20
24.5512771331
 30
0.0
 11
31.8127229574
 21
24.6211442845
 31
0.0
  0
LINE
  5
1FF
330
1F
100
AcDbEntity
  8
0
  6
SLD-Solid
 62
     7
370
    25
100
AcDbLine
 10
31.7451081496
 20
24.6106853707
 30
0.0
 11
31.7775283285
 21
24.5408371627
 31
0.0
  0
ARC
  5
200
330
1F
100
AcDbEntity
  8
0
  6
SLD-Solid
 62
     7
370
    25
100
AcDbCircle
 10
31.3196010679
 20
27.6206427741
 30
0.0
 40
3.03988484103019
100
AcDbArc
 50
261.9536156005
 51
278.0463843995
  0
LINE
  5
201
330
1F
100
AcDbEntity
  8
0
  6
SLD-Solid
 62
     7
370
    25
100
AcDbLine
 10
30.8616650147
 20
24.5408182193
 30
0.0
 11
30.8940939863
 21
24.6106853707
 31
0.0
  0
LINE
  5
202
330
1F
100
AcDbEntity
  8
0
  6
SLD-Solid
 62
     7
370
    25
100
AcDbLine
 10
30.8264791784
 20
24.6211442845
 30
0.0
 11
30.7940589995
 21
24.5512960765
 31
0.0
  0
ARC
  5
203
330
1F
100
AcDbEntity
  8
0
  6
SLD-Solid
 62
     7
370
    25
100
AcDbCircle
 10
31.1795738103
 20
26.9089825957
 30
0.0
 40
2.314925475515092
100
AcDbArc
 50
241.9073757896
 51
261.2264514751
  0
LINE
  5
204
330
1F
100
AcDbEntity
  8
0
  6
SLD-Solid
 62
     7
370
    25
100
AcDbLine
 10
30.0008816961
 20
24.8156379896
 30
0.0
 11
30.089479294
 21
24.8667842942
 31
0.0
  0
LINE
  5
205
330
1F
100
AcDbEntity
  8
0
  6
SLD-Solid
 62
     7
370
    25
100
AcDbLine
 10
30.0399818193
 20
24.8953585781
 30
0.0
 11
29.9514082433
 21
24.844226141
 31
0.0
  0
ARC
  5
206
330
1F
100
AcDbEntity
  8
0
  6
SLD-Solid
 62
     7
370
    25
100
AcDbCircle
 10
30.5671124044
 20
25.8480533692
 30
0.0
 40
1.088803939514576
100
AcDbArc
 50
208.962173689
 51
241.0440347644
  0
LINE
  5
207
330
1F
100
AcDbEntity
  8
0
  6
SLD-Solid
 62
     7
370
    25
100
AcDbLine
 10
29.4934481682
 20
25.3020987084
 30
0.0
 11
29.6144747377
 21
25.3208195551
 31
0.0
  0
LINE
  5
208
330
1F
100
AcDbEntity
  8
0
  6
SLD-Solid
 62
     7
370
    25
100
AcDbLine
 10
29.5963574045
 20
25.3598527529
 30
0.0
 11
29.4753636495
 21
25.3411369819
 31
0.0
  0
LWPOLYLINE
  5
209
330
1F
100
AcDbEntity
  8
0
  6
SLD-Solid
 62
     7
370
    25
100
AcDbPolyline
 90
       39
 70
   128
 43
0.0
 10
29.3196010679
 20
24.9726736333
 10
29.3223419984
 20
24.9122478244
 10
29.338105387
 20
24.8159797687
 10
29.3677675441
 20
24.7208108078
 10
29.4111204109
 20
24.6274084837
 10
29.4678598983
 20
24.5364279466
 10
29.5375880196
 20
24.4485073595
 10
29.619815682
 20
24.3642634222
 10
29.7139661175
 20
24.2842870454
 10
29.8193789287
 20
24.2091392059
 10
29.9353147202
 20
24.1393470118
 10
30.0609602858
 20
24.0754000052
 10
30.1954343122
 20
24.0177467284
 10
30.3377935607
 20
23.9667915778
 10
30.4870394834
 20
23.922891967
 10
30.6421252274
 20
23.8863558204
 10
30.8019629777
 20
23.8574394127
 10
30.9654315873
 20
23.8363455718
 10
31.1313844413
 20
23.8232222557
 10
31.2986574997
 20
23.8181615152
 10
31.4660774622
 20
23.8211988477
 10
31.632469998
 20
23.8323129485
 10
31.7966679831
 20
23.8514258601
 10
31.9575196865
 20
23.8784035193
 10
32.1138968492
 20
23.9130566971
 10
32.2647025977
 20
23.9551423263
 10
32.408879138
 20
24.0043652066
 10
32.5454151752
 20
24.0603800747
 10
32.6733530073
 20
24.1227940267
 10
32.7917952422
 20
24.1911692735
 10
32.8999110927
 20
24.2650262118
 10
32.9969422038
 20
24.3438467884
 10
33.0822079721
 20
24.4270781335
 10
33.1551103193
 20
24.514136439
 10
33.2151378879
 20
24.6044110535
 10
33.2618696277
 20
24.6972687653
 10
33.2949777491
 20
24.7920582445
 10
33.3142300224
 20
24.8881146108
 10
33.3196010679
 20
24.9726736333
  0
ARC
  5
20A
330
1F
100
AcDbEntity
  8
0
  6
SLD-Solid
 62
     7
370
    25
100
AcDbCircle
 10
31.1619870295
 20
26.706191098
 30
0.0
 40
2.607872580696201
100
AcDbArc
 50
241.8178968741
 51
261.3159303907
  0
ARC
  5
20B
330
1F
100
AcDbEntity
  8
0
  6
SLD-Solid
 62
     7
370
    25
100
AcDbCircle
 10
31.3196010679
 20
27.5079203103
 30
0.0
 40
3.424503770461315
100
AcDbArc
 50
261.8791347845
 51
278.1208652155
  0
ARC
  5
20C
330
1F
100
AcDbEntity
  8
0
  6
SLD-Solid
 62
     7
370
    25
100
AcDbCircle
 10
31.4772151064
 20
26.706191098
 30
0.0
 40
2.607872580696123
100
AcDbArc
 50
278.6840696093
 51
298.1821031259
  0
ARC
  5
20D
330
1F
100
AcDbEntity
  8
0
  6
SLD-Solid
 62
     7
370
    25
100
AcDbCircle
 10
32.1671412314
 20
25.5110745026
 30
0.0
 40
1.226863598246099
100
AcDbArc
 50
298.80850176
 51
331.1852897867
  0
ARC
  5
20E
330
1F
100
AcDbEntity
  8
0
  6
SLD-Solid
 62
     7
370
    25
100
AcDbCircle
 10
32.6299696541
 20
25.2380493972
 30
0.0
 40
0.6893461613513934
100
AcDbArc
 50
336.1017317582
 51
23.8982682418
  0
ARC
  5
20F
330
1F
100
AcDbEntity
  8
0
  6
SLD-Solid
 62
     7
370
    25
100
AcDbCircle
 10
30.0092324817
 20
25.2380493972
 30
0.0
 40
0.6893461613513306
100
AcDbArc
 50
156.1017317582
 51
203.8982682418
  0
ARC
  5
210
330
1F
100
AcDbEntity
  8
0
  6
SLD-Solid
 62
     7
370
    25
100
AcDbCircle
 10
30.4720609044
 20
25.5110745026
 30
0.0
 40
1.226863598246164
100
AcDbArc
 50
208.8147102133
 51
241.19149824
  0
ARC
  5
211
330
1F
100
AcDbEntity
  8
0
  6
SLD-Solid
 62
     7
370
    25
100
AcDbCircle
 10
31.3196010679
 20
27.2531994087
 30
0.0
 40
3.039884841030805
100
AcDbArc
 50
261.9536156005
 51
278.0463843995
  0
LINE
  5
212
330
1F
100
AcDbEntity
  8
0
  6
SLD-Solid
 62
     7
370
    25
100
AcDbLine
 10
30.8940939863
 20
24.6106853707
 30
0.0
 11
30.8940939863
 21
24.2432420053
 31
0.0
  0
LINE
  5
213
330
1F
100
AcDbEntity
  8
0
  6
SLD-Solid
 62
     7
370
    25
100
AcDbLine
 10
31.7451081496
 20
24.6106853707
 30
0.0
 11
31.7451081496
 21
24.2432420053
 31
0.0
  0
LINE
  5
214
330
1F
100
AcDbEntity
  8
0
  6
SLD-Solid
 62
     7
370
    25
100
AcDbLine
 10
30.835849651
 20
24.117756503
 30
0.0
 11
30.8940939863
 21
24.2432420053
 31
0.0
  0
LINE
  5
215
330
1F
100
AcDbEntity
  8
0
  6
SLD-Solid
 62
     7
370
    25
100
AcDbLine
 10
31.7451081496
 20
24.2432420053
 30
0.0
 11
31.8033524848
 21
24.117756503
 31
0.0
  0
SPLINE
  5
216
330
1F
100
AcDbEntity
  8
0
  6
SLD-Solid
 62
     7
370
    25
100
AcDbSpline
210
0.0
220
0.0
230
1.0
 70
     8
 71
     3
 72
    24
 73
    20
 74
     0
 42
0.00000001
 43
0.00000001
 40
0.0
 40
0.0
 40
0.0
 40
0.0
 40
0.0527809402452539
 40
0.1059282453421414
 40
0.1602311293662141
 40
0.2149333629803414
 40
0.2677143246251787
 40
0.320861846569462
 40
0.3751656936034019
 40
0.4298691969007207
 40
0.4826376218067517
 40
0.5899685774621581
 40
0.6446597745615278
 40
0.6974068420346422
 40
0.8046941900759741
 40
0.859363013466153
 40
0.8942609551137264
 40
0.9645640551842996
 40
1.0
 40
1.0
 40
1.0
 40
1.0
 10
31.84515192896823
 20
24.55127713313164
 30
0.0
 10
31.84586720838402
 20
24.54968206401113
 30
0.0
 10
31.84730273213734
 20
24.54648085402227
 30
0.0
 10
31.84945922290893
 20
24.54095089156567
 30
0.0
 10
31.85161092470399
 20
24.53488517181249
 30
0.0
 10
31.85371108918813
 20
24.52834898353052
 30
0.0
 10
31.85573535886354
 20
24.52144672771477
 30
0.0
 10
31.85768094907431
 20
24.5141990931353
 30
0.0
 10
31.85956036439602
 20
24.50654520806849
 30
0.0
 10
31.86133125692743
 20
24.49864032422955
 30
0.0
 10
31.86352834660119
 20
24.48787431876051
 30
0.0
 10
31.86547729196022
 20
24.47678804836276
 30
0.0
 10
31.86712511651832
 20
24.465660885227
 30
0.0
 10
31.8685647709854
 20
24.45457417803313
 30
0.0
 10
31.86968004222521
 20
24.4436402953888
 30
0.0
 10
31.87037695460752
 20
24.43400767525855
 30
0.0
 10
31.870792303026
 20
24.42640469811385
 30
0.0
 10
31.87101266555446
 20
24.41994127328951
 30
0.0
 10
31.87103671867164
 20
24.41536978458235
 30
0.0
 10
31.87104477950606
 20
24.41383775805679
 30
0.0
  0
SPLINE
  5
217
330
1F
100
AcDbEntity
  8
0
  6
SLD-Solid
 62
     7
370
    25
100
AcDbSpline
210
0.0
220
0.0
230
1.0
 70
     8
 71
     3
 72
    24
 73
    20
 74
     0
 42
0.00000001
 43
0.00000001
 40
0.0
 40
0.0
 40
0.0
 40
0.0
 40
0.0527235230253674
 40
0.1058131810580926
 40
0.1600575660676552
 40
0.2147009322346576
 40
0.2674244419813994
 40
0.3746622983333722
 40
0.4293047281394193
 40
0.4820379049757379
 40
0.5892946752959312
 40
0.6439462614491173
 40
0.6967005160388944
 40
0.7498208233648774
 40
0.8040954015713311
 40
0.8587687329327494
 40
0.8938125888992727
 40
0.9644126716629801
 40
1.0
 40
1.0
 40
1.0
 40
1.0
 10
31.80342189108615
 20
24.40339625359225
 30
0.0
 10
31.80340478167032
 20
24.40568730544529
 30
0.0
 10
31.80337044402346
 20
24.41028531920896
 30
0.0
 10
31.80309050811662
 20
24.41768461933524
 30
0.0
 10
31.80263767295732
 20
24.42544116867992
 30
0.0
 10
31.80200058168138
 20
24.43343279885866
 30
0.0
 10
31.80092485695722
 20
24.44428039096687
 30
0.0
 10
31.79951132344359
 20
24.45540106850608
 30
0.0
 10
31.7977921875103
 20
24.46651437276055
 30
0.0
 10
31.795881755443
 20
24.47755780600073
 30
0.0
 10
31.79370051125363
 20
24.48840278923482
 30
0.0
 10
31.79130074473904
 20
24.49877155373298
 30
0.0
 10
31.78940838295667
 20
24.5062469370978
 30
0.0
 10
31.78743786302399
 20
24.51337635913126
 30
0.0
 10
31.78537286344894
 20
24.52020349287486
 30
0.0
 10
31.7834873632617
 20
24.5258786733814
 30
0.0
 10
31.78135545377143
 20
24.53178943967338
 30
0.0
 10
31.77944917798216
 20
24.53659672328603
 30
0.0
 10
31.7780104870622
 20
24.53977275650207
 30
0.0
 10
31.77752832853123
 20
24.54083716268446
 30
0.0
  0
SPLINE
  5
218
330
1F
100
AcDbEntity
  8
0
  6
SLD-Solid
 62
     7
370
    25
100
AcDbSpline
210
0.0
220
0.0
230
1.0
 70
     8
 71
     3
 72
    24
 73
    20
 74
     0
 42
0.00000001
 43
0.00000001
 40
0.0
 40
0.0
 40
0.0
 40
0.0
 40
0.0527809402452547
 40
0.1059282453421465
 40
0.1602311293662249
 40
0.2149333629803541
 40
0.2677143246251831
 40
0.320861846569461
 40
0.3751656936033931
 40
0.4298691969007211
 40
0.482637621806749
 40
0.5899685774621612
 40
0.6446597745615273
 40
0.697406842034645
 40
0.8046941900759734
 40
0.8593630134661523
 40
0.89426095511372
 40
0.9645640551842998
 40
1.0
 40
1.0
 40
1.0
 40
1.0
 10
30.86166501472716
 20
24.54081821932424
 30
0.0
 10
30.86094973531137
 20
24.53922315020374
 30
0.0
 10
30.85951421155805
 20
24.53602194021488
 30
0.0
 10
30.85735772078646
 20
24.53049197775827
 30
0.0
 10
30.8552060189914
 20
24.52442625800509
 30
0.0
 10
30.85310585450725
 20
24.51789006972312
 30
0.0
 10
30.85108158483185
 20
24.51098781390737
 30
0.0
 10
30.84913599462107
 20
24.5037401793279
 30
0.0
 10
30.84725657929937
 20
24.49608629426109
 30
0.0
 10
30.84548568676795
 20
24.48818141042216
 30
0.0
 10
30.8432885970942
 20
24.47741540495312
 30
0.0
 10
30.84133965173517
 20
24.46632913455536
 30
0.0
 10
30.83969182717706
 20
24.4552019714196
 30
0.0
 10
30.83825217270999
 20
24.44411526422573
 30
0.0
 10
30.83713690147018
 20
24.4331813815814
 30
0.0
 10
30.83643998908787
 20
24.42354876145114
 30
0.0
 10
30.83602464066939
 20
24.41594578430644
 30
0.0
 10
30.83580427814093
 20
24.40948235948211
 30
0.0
 10
30.83578022502375
 20
24.40491087077495
 30
0.0
 10
30.83577216418933
 20
24.4033788442494
 30
0.0
  0
SPLINE
  5
219
330
1F
100
AcDbEntity
  8
0
  6
SLD-Solid
 62
     7
370
    25
100
AcDbSpline
210
0.0
220
0.0
230
1.0
 70
     8
 71
     3
 72
    24
 73
    20
 74
     0
 42
0.00000001
 43
0.00000001
 40
0.0
 40
0.0
 40
0.0
 40
0.0
 40
0.05272352302536
 40
0.1058131810580862
 40
0.1600575660676481
 40
0.2147009322346477
 40
0.2674244419813908
 40
0.3746622983333756
 40
0.4293047281394218
 40
0.4820379049757408
 40
0.5892946752959378
 40
0.6439462614491277
 40
0.6967005160389064
 40
0.7498208233648791
 40
0.8040954015713416
 40
0.8587687329327547
 40
0.8938125888992735
 40
0.9644126716629846
 40
1.0
 40
1.0
 40
1.0
 40
1.0
 10
30.76816543692878
 20
24.41385516739964
 30
0.0
 10
30.7681825463446
 20
24.41614621925269
 30
0.0
 10
30.76821688399145
 20
24.42074423301636
 30
0.0
 10
30.76849681989831
 20
24.42814353314264
 30
0.0
 10
30.7689496550576
 20
24.43590008248731
 30
0.0
 10
30.76958674633352
 20
24.44389171266605
 30
0.0
 10
30.7706624710577
 20
24.45473930477426
 30
0.0
 10
30.77207600457133
 20
24.46585998231348
 30
0.0
 10
30.77379514050461
 20
24.47697328656794
 30
0.0
 10
30.77570557257193
 20
24.48801671980813
 30
0.0
 10
30.77788681676129
 20
24.49886170304222
 30
0.0
 10
30.78028658327587
 20
24.50923046754037
 30
0.0
 10
30.78217894505825
 20
24.5167058509052
 30
0.0
 10
30.78414946499093
 20
24.52383527293865
 30
0.0
 10
30.78621446456597
 20
24.53066240668226
 30
0.0
 10
30.78809996475322
 20
24.5363375871888
 30
0.0
 10
30.79023187424349
 20
24.54224835348078
 30
0.0
 10
30.79213815003276
 20
24.54705563709344
 30
0.0
 10
30.79357684095272
 20
24.55023167030946
 30
0.0
 10
30.79405899948369
 20
24.55129607649186
 30
0.0
  0
LINE
  5
21A
330
1F
100
AcDbEntity
  8
0
  6
SLD-Solid
 62
     7
370
    25
100
AcDbLine
 10
30.8357721642
 20
24.1175895601
 30
0.0
 11
30.835849651
 21
24.117756503
 31
0.0
  0
LINE
  5
21B
330
1F
100
AcDbEntity
  8
0
  6
SLD-Solid
 62
     7
370
    25
100
AcDbLine
 10
30.8357721642
 20
24.4033788442
 30
0.0
 11
30.8357721642
 21
24.1175895601
 31
0.0
  0
LINE
  5
21C
330
1F
100
AcDbEntity
  8
0
  6
SLD-Solid
 62
     7
370
    25
100
AcDbLine
 10
31.8033524848
 20
24.117756503
 30
0.0
 11
31.8034218911
 21
24.1176069694
 31
0.0
  0
LINE
  5
21D
330
1F
100
AcDbEntity
  8
0
  6
SLD-Solid
 62
     7
370
    25
100
AcDbLine
 10
31.8034218911
 20
24.4033962536
 30
0.0
 11
31.8034218911
 21
24.1176069694
 31
0.0
  0
ARC
  5
21E
330
1F
100
AcDbEntity
  8
0
  6
SLD-Solid
 62
     7
370
    25
100
AcDbCircle
 10
31.5321931304
 20
26.0983763418
 30
0.0
 40
1.999252947221647
100
AcDbArc
 50
277.7970785331
 51
279.7581175188
  0
LINE
  5
21F
330
1F
100
AcDbEntity
  8
0
  6
SLD-Solid
 62
     7
370
    25
100
AcDbLine
 10
31.8710447795
 20
24.4138377581
 30
0.0
 11
31.8710447795
 21
24.1280484739
 31
0.0
  0
ARC
  5
220
330
1F
100
AcDbEntity
  8
0
  6
SLD-Solid
 62
     7
370
    25
100
AcDbCircle
 10
31.1079309294
 20
26.0972893622
 30
0.0
 40
1.998319719182224
100
AcDbArc
 50
260.2106929914
 51
262.1723425222
  0
LINE
  5
221
330
1F
100
AcDbEntity
  8
0
  6
SLD-Solid
 62
     7
370
    25
100
AcDbLine
 10
30.7681654369
 20
24.4138551674
 30
0.0
 11
30.7681654369
 21
24.1280658832
 31
0.0
  0
ARC
  5
222
330
1F
100
AcDbEntity
  8
0
  6
SLD-Solid
 62
     7
370
    25
100
AcDbCircle
 10
31.1696798495
 20
26.5188256592
 30
0.0
 40
2.290229642730484
100
AcDbArc
 50
241.858155037
 51
259.9029391022
  0
LINE
  5
223
330
1F
100
AcDbEntity
  8
0
  6
SLD-Solid
 62
     7
370
    25
100
AcDbLine
 10
30.089479294
 20
24.8667842942
 30
0.0
 11
30.089479294
 21
24.4993409288
 31
0.0
  0
ARC
  5
224
330
1F
100
AcDbEntity
  8
0
  6
SLD-Solid
 62
     7
370
    25
100
AcDbCircle
 10
31.4695236817
 20
26.5188224554
 30
0.0
 40
2.290226159543084
100
AcDbArc
 50
280.0972462936
 51
298.1418519846
  0
LINE
  5
225
330
1F
100
AcDbEntity
  8
0
  6
SLD-Solid
 62
     7
370
    25
100
AcDbLine
 10
32.5497228418
 20
24.8667842942
 30
0.0
 11
32.5497228418
 21
24.4993409288
 31
0.0
  0
LINE
  5
226
330
1F
100
AcDbEntity
  8
0
  6
SLD-Solid
 62
     7
370
    25
100
AcDbLine
 10
32.5497228418
 20
24.4993409288
 30
0.0
 11
32.7088493249
 21
24.4074791654
 31
0.0
  0
LINE
  5
227
330
1F
100
AcDbEntity
  8
0
  6
SLD-Solid
 62
     7
370
    25
100
AcDbLine
 10
29.9303528109
 20
24.4074791654
 30
0.0
 11
30.089479294
 21
24.4993409288
 31
0.0
  0
LINE
  5
228
330
1F
100
AcDbEntity
  8
0
  6
SLD-Solid
 62
     7
370
    25
100
AcDbLine
 10
29.9301411129
 20
24.4073569548
 30
0.0
 11
29.9303528109
 21
24.4074791654
 31
0.0
  0
LINE
  5
229
330
1F
100
AcDbEntity
  8
0
  6
SLD-Solid
 62
     7
370
    25
100
AcDbLine
 10
29.9301411129
 20
24.6931462389
 30
0.0
 11
29.9301411129
 21
24.4073569548
 31
0.0
  0
SPLINE
  5
22A
330
1F
100
AcDbEntity
  8
0
  6
SLD-Solid
 62
     7
370
    25
100
AcDbSpline
210
0.0
220
0.0
230
1.0
 70
     8
 71
     3
 72
    24
 73
    20
 74
     0
 42
0.00000001
 43
0.00000001
 40
0.0
 40
0.0
 40
0.0
 40
0.0
 40
0.0527809402452527
 40
0.105928245342146
 40
0.1602311293662216
 40
0.2149333629803427
 40
0.2677143246251831
 40
0.3208618465694641
 40
0.3751656936033905
 40
0.4298691969007186
 40
0.4826376218067447
 40
0.5899685774621543
 40
0.644659774561521
 40
0.6974068420346378
 40
0.8046941900759724
 40
0.8593630134661464
 40
0.8942609551137185
 40
0.9645640551842994
 40
1.0
 40
1.0
 40
1.0
 40
1.0
 10
30.00088169612624
 20
24.81563798956519
 30
0.0
 10
29.99892751642068
 20
24.81445584246213
 30
0.0
 10
29.99500559259114
 20
24.81208334269647
 30
0.0
 10
29.98911395023712
 20
24.80779829586352
 30
0.0
 10
29.98323539161028
 20
24.80297472711671
 30
0.0
 10
29.97749763553533
 20
24.79765093798479
 30
0.0
 10
29.97196722793392
 20
24.7919172681786
 30
0.0
 10
29.96665177662736
 20
24.78579279892056
 30
0.0
 10
29.96151711847995
 20
24.77922387722488
 30
0.0
 10
29.95667895010939
 20
24.77234130788375
 30
0.0
 10
29.95067638949189
 20
24.76284365528572
 30
0.0
 10
29.94535177174984
 20
24.75288248709527
 30
0.0
 10
29.94084983133515
 20
24.74270659282857
 30
0.0
 10
29.93691662218575
 20
24.73245098046819
 30
0.0
 10
29.93386964449436
 20
24.72216093020625
 30
0.0
 10
29.93196564445747
 20
24.7129306290307
 30
0.0
 10
29.93083089147536
 20
24.70556742742422
 30
0.0
 10
29.93022884985151
 20
24.69923121517977
 30
0.0
 10
29.93016313551329
 20
24.69467361204159
 30
0.0
 10
29.93014111290409
 20
24.6931462389367
 30
0.0
  0
SPLINE
  5
22B
330
1F
100
AcDbEntity
  8
0
  6
SLD-Solid
 62
     7
370
    25
100
AcDbSpline
210
0.0
220
0.0
230
1.0
 70
     8
 71
     3
 72
    17
 73
    13
 74
     0
 42
0.00000001
 43
0.00000001
 40
0.0
 40
0.0
 40
0.0
 40
0.0
 40
0.1059003994411879
 40
0.2148712870034819
 40
0.3207718744079002
 40
0.4297449182869619
 40
0.5356204426975236
 40
0.6445687904864358
 40
0.7504014476287394
 40
0.8593053250778595
 40
0.9292223100465039
 40
1.0
 40
1.0
 40
1.0
 40
1.0
 10
32.68781791441197
 20
24.84421227347899
 30
0.0
 10
32.69173974421832
 20
24.84173003845503
 30
0.0
 10
32.69969711380658
 20
24.83669359820496
 30
0.0
 10
32.71124562762951
 20
24.82646424842175
 30
0.0
 10
32.72223152700978
 20
24.81448460511329
 30
0.0
 10
32.73214468366855
 20
24.80110080464225
 30
0.0
 10
32.7408836203987
 20
24.78650700080182
 30
0.0
 10
32.74803982145363
 20
24.77136752759875
 30
0.0
 10
32.75355075226182
 20
24.75583752954136
 30
0.0
 10
32.75672325274076
 20
24.7423526622054
 30
0.0
 10
32.75830655385242
 20
24.73090434799273
 30
0.0
 10
32.75847417456488
 20
24.72479425746772
 30
0.0
 10
32.75855849763413
 20
24.7217205228505
 30
0.0
  0
SPLINE
  5
22C
330
1F
100
AcDbEntity
  8
0
  6
SLD-Solid
 62
     7
370
    25
100
AcDbSpline
210
0.0
220
0.0
230
1.0
 70
     8
 71
     3
 72
    17
 73
    13
 74
     0
 42
0.00000001
 43
0.00000001
 40
0.0
 40
0.0
 40
0.0
 40
0.0
 40
0.1057852584670298
 40
0.2146387364517776
 40
0.3204238722110901
 40
0.4292757843327833
 40
0.5350802136483277
 40
0.6439506182794501
 40
0.7497973176971972
 40
0.8587110484449647
 40
0.928920796050535
 40
1.0
 40
1.0
 40
1.0
 40
1.0
 10
32.70903894639682
 20
24.6931589834602
 30
0.0
 10
32.70885013112118
 20
24.69779191382974
 30
0.0
 10
32.70846702412903
 20
24.70719214912714
 30
0.0
 10
32.70538461957619
 20
24.72229294433041
 30
0.0
 10
32.70050740815079
 20
24.73778068142766
 30
0.0
 10
32.69387970965013
 20
24.75304346682528
 30
0.0
 10
32.68561853683006
 20
24.76789690462617
 30
0.0
 10
32.67609154889262
 20
24.7816600084199
 30
0.0
 10
32.66540190021447
 20
24.79419902215423
 30
0.0
 10
32.6553008178919
 20
24.80370426744768
 30
0.0
 10
32.64615675644328
 20
24.8108211669431
 30
0.0
 10
32.64092725775547
 20
24.81403503458403
 30
0.0
 10
32.63829641790781
 20
24.81565185706734
 30
0.0
  0
SPLINE
  5
22D
330
1F
100
AcDbEntity
  8
0
  6
SLD-Solid
 62
     7
370
    25
100
AcDbSpline
210
0.0
220
0.0
230
1.0
 70
     8
 71
     3
 72
    24
 73
    20
 74
     0
 42
0.00000001
 43
0.00000001
 40
0.0
 40
0.0
 40
0.0
 40
0.0
 40
0.0527235230253602
 40
0.1058131810580854
 40
0.1600575660676458
 40
0.2147009322346488
 40
0.2674244419813887
 40
0.3746622983333671
 40
0.4293047281394173
 40
0.4820379049757369
 40
0.589294675295928
 40
0.6439462614491187
 40
0.6967005160388975
 40
0.7498208233648733
 40
0.8040954015713293
 40
0.8587687329327407
 40
0.8938125888992685
 40
0.9644126716629793
 40
1.0
 40
1.0
 40
1.0
 40
1.0
 10
29.88066571477529
 20
24.72173326737399
 30
0.0
 10
29.88071245856861
 20
24.72401444217152
 30
0.0
 10
29.88080627076442
 20
24.7285926332336
 30
0.0
 10
29.8815710698848
 20
24.73583032980068
 30
0.0
 10
29.88280823854744
 20
24.7433254629723
 30
0.0
 10
29.88454880428234
 20
24.75094930818597
 30
0.0
 10
29.88748773888374
 20
24.76117589762933
 30
0.0
 10
29.89134958426118
 20
24.7714805596405
 30
0.0
 10
29.89604635097603
 20
24.78160142784527
 30
0.0
 10
29.90126574844831
 20
24.79154199212823
 30
0.0
 10
29.90722501839738
 20
24.80112776989474
 30
0.0
 10
29.91378130244156
 20
24.81011117867214
 30
0.0
 10
29.91895133097729
 20
24.81649412483319
 30
0.0
 10
29.9243348915507
 20
24.82248598992309
 30
0.0
 10
29.92997657530731
 20
24.82812102478657
 30
0.0
 10
29.93512785761656
 20
24.83270772920386
 30
0.0
 10
29.94095234266112
 20
24.83738777034383
 30
0.0
 10
29.94616038497063
 20
24.8410945843675
 30
0.0
 10
29.95009096166036
 20
24.84344007899394
 30
0.0
 10
29.95140824326429
 20
24.84422614098113
 30
0.0
  0
LINE
  5
22E
330
1F
100
AcDbEntity
  8
0
  6
SLD-Solid
 62
     7
370
    25
100
AcDbLine
 10
32.7088493249
 20
24.4074791654
 30
0.0
 11
32.7090389464
 21
24.4073696993
 31
0.0
  0
LINE
  5
22F
330
1F
100
AcDbEntity
  8
0
  6
SLD-Solid
 62
     7
370
    25
100
AcDbLine
 10
32.7090389464
 20
24.6931589835
 30
0.0
 11
32.7090389464
 21
24.4073696993
 31
0.0
  0
ARC
  5
230
330
1F
100
AcDbEntity
  8
0
  6
SLD-Solid
 62
     7
370
    25
100
AcDbCircle
 10
30.4877564974
 20
25.4295254471
 30
0.0
 40
1.164372510687912
100
AcDbArc
 50
238.5745445613
 51
241.3865624496
  0
LINE
  5
231
330
1F
100
AcDbEntity
  8
0
  6
SLD-Solid
 62
     7
370
    25
100
AcDbLine
 10
29.8806657148
 20
24.7217332674
 30
0.0
 11
29.8806657148
 21
24.4359439832
 31
0.0
  0
ARC
  5
232
330
1F
100
AcDbEntity
  8
0
  6
SLD-Solid
 62
     7
370
    25
100
AcDbCircle
 10
32.1514453804
 20
25.4313256039
 30
0.0
 40
1.165931507157339
100
AcDbArc
 50
298.5704316596
 51
301.3799420295
  0
LINE
  5
233
330
1F
100
AcDbEntity
  8
0
  6
SLD-Solid
 62
     7
370
    25
100
AcDbLine
 10
32.7585584976
 20
24.7217205229
 30
0.0
 11
32.7585584976
 21
24.4359312387
 31
0.0
  0
ARC
  5
234
330
1F
100
AcDbEntity
  8
0
  6
SLD-Solid
 62
     7
370
    25
100
AcDbCircle
 10
30.4734269649
 20
25.4085606048
 30
0.0
 40
0.9721068770430349
100
AcDbArc
 50
207.9204512375
 51
232.4271524653
  0
LINE
  5
235
330
1F
100
AcDbEntity
  8
0
  6
SLD-Solid
 62
     7
370
    25
100
AcDbLine
 10
29.6144747377
 20
25.3208195551
 30
0.0
 11
29.6144747377
 21
24.9533761898
 31
0.0
  0
ARC
  5
236
330
1F
100
AcDbEntity
  8
0
  6
SLD-Solid
 62
     7
370
    25
100
AcDbCircle
 10
32.1657849795
 20
25.4085539389
 30
0.0
 40
0.9720950888874161
100
AcDbArc
 50
307.5742944069
 51
332.0796252223
  0
LINE
  5
237
330
1F
100
AcDbEntity
  8
0
  6
SLD-Solid
 62
     7
370
    25
100
AcDbLine
 10
33.0247273982
 20
25.3208195551
 30
0.0
 11
33.0247273982
 21
24.9533761898
 31
0.0
  0
LINE
  5
238
330
1F
100
AcDbEntity
  8
0
  6
SLD-Solid
 62
     7
370
    25
100
AcDbLine
 10
29.3971039194
 20
24.9197524508
 30
0.0
 11
29.6144747377
 21
24.9533761898
 31
0.0
  0
LINE
  5
239
330
1F
100
AcDbEntity
  8
0
  6
SLD-Solid
 62
     7
370
    25
100
AcDbLine
 10
33.0247273982
 20
24.9533761898
 30
0.0
 11
33.2420982165
 21
24.9197524508
 31
0.0
  0
LINE
  5
23A
330
1F
100
AcDbEntity
  8
0
  6
SLD-Solid
 62
     7
370
    25
100
AcDbLine
 10
29.3968147345
 20
24.9197077186
 30
0.0
 11
29.3971039194
 21
24.9197524508
 31
0.0
  0
LINE
  5
23B
330
1F
100
AcDbEntity
  8
0
  6
SLD-Solid
 62
     7
370
    25
100
AcDbLine
 10
29.3968147345
 20
25.2054970027
 30
0.0
 11
29.3968147345
 21
24.9197077186
 31
0.0
  0
SPLINE
  5
23C
330
1F
100
AcDbEntity
  8
0
  6
SLD-Solid
 62
     7
370
    25
100
AcDbSpline
210
0.0
220
0.0
230
1.0
 70
     8
 71
     3
 72
    24
 73
    20
 74
     0
 42
0.00000001
 43
0.00000001
 40
0.0
 40
0.0
 40
0.0
 40
0.0
 40
0.0527771543008274
 40
0.1059206471741446
 40
0.1602196360856929
 40
0.2149179459421939
 40
0.2676951216410515
 40
0.3208388313462132
 40
0.3751387831985391
 40
0.4298383626471612
 40
0.4826030025064695
 40
0.5361210524025228
 40
0.5900218121104971
 40
0.644709086243878
 40
0.7508562068259237
 40
0.8047350380503625
 40
0.8593999400794009
 40
0.9293776641707298
 40
1.0
 40
1.0
 40
1.0
 40
1.0
 10
29.49344816824277
 20
25.30209870835431
 30
0.0
 10
29.49077870911256
 20
25.30163176315286
 30
0.0
 10
29.48542126151193
 20
25.30069463157409
 30
0.0
 10
29.47737312852133
 20
25.29856584203802
 30
0.0
 10
29.46934286757349
 20
25.29589374122217
 30
0.0
 10
29.46150494897914
 20
25.29266989171699
 30
0.0
 10
29.45395026459149
 20
25.28896026248129
 30
0.0
 10
29.44668924977957
 20
25.28478120932153
 30
0.0
 10
29.43967507411323
 20
25.28009135887836
 30
0.0
 10
29.43306639446601
 20
25.2749800140763
 30
0.0
 10
29.42691940992611
 20
25.26950619585674
 30
0.0
 10
29.42126782787991
 20
25.26371600818087
 30
0.0
 10
29.41606441476796
 20
25.25754571345444
 30
0.0
 10
29.40991371101398
 20
25.24901937900179
 30
0.0
 10
29.40492212245909
 20
25.24004027219003
 30
0.0
 10
29.40120085686518
 20
25.23083345437611
 30
0.0
 10
29.39885568098043
 20
25.22309494597109
 30
0.0
 10
29.39715685824476
 20
25.21458322355007
 30
0.0
 10
29.39692912376962
 20
25.20853498615217
 30
0.0
 10
29.39681473448278
 20
25.20549700271938
 30
0.0
  0
LINE
  5
23D
330
1F
100
AcDbEntity
  8
0
  6
SLD-Solid
 62
     7
370
    25
100
AcDbLine
 10
33.2420982165
 20
24.9197524508
 30
0.0
 11
33.2423572442
 21
24.9197123834
 31
0.0
  0
SPLINE
  5
23E
330
1F
100
AcDbEntity
  8
0
  6
SLD-Solid
 62
     7
370
    25
100
AcDbSpline
210
0.0
220
0.0
230
1.0
 70
     8
 71
     3
 72
    24
 73
    20
 74
     0
 42
0.00000001
 43
0.00000001
 40
0.0
 40
0.0
 40
0.0
 40
0.0
 40
0.0527235230253672
 40
0.1058131810580928
 40
0.1600575660676547
 40
0.214700932234658
 40
0.2674244419813998
 40
0.3746622983333709
 40
0.4293047281394199
 40
0.4820379049757365
 40
0.5892946752959319
 40
0.6439462614491179
 40
0.6967005160388984
 40
0.7498208233648751
 40
0.8040954015713287
 40
0.8587687329327433
 40
0.8938125888992661
 40
0.9644126716629802
 40
1.0
 40
1.0
 40
1.0
 40
1.0
 10
33.24235724423844
 20
25.20550166753875
 30
0.0
 10
33.2422933910293
 20
25.20776573477429
 30
0.0
 10
33.24216524118663
 20
25.21230959191008
 30
0.0
 10
33.2411205061594
 20
25.21926738290194
 30
0.0
 10
33.23943050233744
 20
25.2263097299799
 30
0.0
 10
33.23705284532663
 20
25.23329655294781
 30
0.0
 10
33.23303818600106
 20
25.242447534224
 30
0.0
 10
33.22776280710998
 20
25.25133881588084
 30
0.0
 10
33.22134690446185
 20
25.25974073442429
 30
0.0
 10
33.21421707492227
 20
25.26777107363925
 30
0.0
 10
33.20607656078383
 20
25.27517584355874
 30
0.0
 10
33.19712051022506
 20
25.28175974584124
 30
0.0
 10
33.19005811990696
 20
25.28625053526126
 30
0.0
 10
33.18270403940087
 20
25.29027209392842
 30
0.0
 10
33.17499735606923
 20
25.29384235296386
 30
0.0
 10
33.16796057357273
 20
25.29654376149178
 30
0.0
 10
33.16000417903788
 20
25.29909212413831
 30
0.0
 10
33.15288986093912
 20
25.30089286892167
 30
0.0
 10
33.14752059332942
 20
25.3017998285133
 30
0.0
 10
33.14572115319451
 20
25.30210378421239
 30
0.0
  0
LINE
  5
23F
330
1F
100
AcDbEntity
  8
0
  6
SLD-Solid
 62
     7
370
    25
100
AcDbLine
 10
33.2423572442
 20
25.2055016675
 30
0.0
 11
33.2423572442
 21
24.9197123834
 31
0.0
  0
SPLINE
  5
240
330
1F
100
AcDbEntity
  8
0
  6
SLD-Solid
 62
     7
370
    25
100
AcDbSpline
210
0.0
220
0.0
230
1.0
 70
     8
 71
     3
 72
    24
 73
    20
 74
     0
 42
0.00000001
 43
0.00000001
 40
0.0
 40
0.0
 40
0.0
 40
0.0
 40
0.052719769266505
 40
0.1058056474726471
 40
0.1600461704424804
 40
0.2146856461634777
 40
0.3207848459964044
 40
0.3746386038278389
 40
0.429277143254549
 40
0.4820065656446862
 40
0.5354878790070859
 40
0.5893510274020698
 40
0.6439987225240076
 40
0.6967492211669364
 40
0.7498657464841908
 40
0.8041364605012433
 40
0.8588058992832237
 40
0.929077368525304
 40
1.0
 40
1.0
 40
1.0
 40
1.0
 10
29.37872755845954
 20
25.24453486525993
 30
0.0
 10
29.37879142020453
 20
25.24679894407241
 30
0.0
 10
29.37891958717814
 20
25.25134282444246
 30
0.0
 10
29.37996419210043
 20
25.25830043897636
 30
0.0
 10
29.38165470268267
 20
25.2653434733601
 30
0.0
 10
29.38481522627409
 20
25.27463476005524
 30
0.0
 10
29.38927119528032
 20
25.28374308953205
 30
0.0
 10
29.39491697220874
 20
25.29245971256638
 30
0.0
 10
29.39973770881084
 20
25.29877416647501
 30
0.0
 10
29.40508300412922
 20
25.30479347553406
 30
0.0
 10
29.41089367062763
 20
25.31046752074301
 30
0.0
 10
29.41723442073527
 20
25.31584510393071
 30
0.0
 10
29.42396462993995
 20
25.32079327330218
 30
0.0
 10
29.43102661340049
 20
25.325283811632
 30
0.0
 10
29.43838070511943
 20
25.32930463713152
 30
0.0
 10
29.44608775914988
 20
25.33287815883463
 30
0.0
 10
29.45484468076349
 20
25.33622693417702
 30
0.0
 10
29.46463234168016
 20
25.33918577626744
 30
0.0
 10
29.47177556580007
 20
25.34048458342186
 30
0.0
 10
29.47536364950346
 20
25.34113698193358
 30
0.0
  0
SPLINE
  5
241
330
1F
100
AcDbEntity
  8
0
  6
SLD-Solid
 62
     7
370
    25
100
AcDbSpline
210
0.0
220
0.0
230
1.0
 70
     8
 71
     3
 72
    24
 73
    20
 74
     0
 42
0.00000001
 43
0.00000001
 40
0.0
 40
0.0
 40
0.0
 40
0.0
 40
0.0527809402452581
 40
0.105928245342137
 40
0.1602311293662114
 40
0.214933362980341
 40
0.2677143246251733
 40
0.3208618465694573
 40
0.3751656936033964
 40
0.4298691969007221
 40
0.4826376218067563
 40
0.5899685774621654
 40
0.6446597745615296
 40
0.6974068420346489
 40
0.8046941900759786
 40
0.859363013466152
 40
0.8942609551137256
 40
0.9645640551842991
 40
1.0
 40
1.0
 40
1.0
 40
1.0
 10
33.16387130076957
 20
25.34113190607551
 30
0.0
 10
33.16654075989092
 20
25.34066496088624
 30
0.0
 10
33.17189820747377
 20
25.3397278293319
 30
0.0
 10
33.1799463405994
 20
25.33759903961028
 30
0.0
 10
33.18797660102128
 20
25.33492693951715
 30
0.0
 10
33.19581452158039
 20
25.33170308731219
 30
0.0
 10
33.2033691988572
 20
25.32799346784756
 30
0.0
 10
33.21063024037453
 20
25.32381437799155
 30
0.0
 10
33.21764431384365
 20
25.31912466797901
 30
0.0
 10
33.22425337474563
 20
25.3140127992894
 30
0.0
 10
33.23245302503688
 20
25.30671199830589
 30
0.0
 10
33.23972658813796
 20
25.29869956430217
 30
0.0
 10
33.24587635311075
 20
25.29017131604835
 30
0.0
 10
33.25124921672723
 20
25.28135520216549
 30
0.0
 10
33.25541146565843
 20
25.2721803023014
 30
0.0
 10
33.25801237807763
 20
25.26364683799625
 30
0.0
 10
33.25956247947821
 20
25.25669893980438
 30
0.0
 10
33.26038488363053
 20
25.25058306621165
 30
0.0
 10
33.26047465108593
 20
25.24604951358446
 30
0.0
 10
33.26050473452955
 20
25.24453020044058
 30
0.0
  0
ARC
  5
242
330
1F
100
AcDbEntity
  8
0
  6
SLD-Solid
 62
     7
370
    25
100
AcDbCircle
 10
29.8385202259
 20
25.1480694863
 30
0.0
 40
0.4972452494580902
100
AcDbArc
 50
202.3798700373
 51
207.3389667163
  0
LINE
  5
243
330
1F
100
AcDbEntity
  8
0
  6
SLD-Solid
 62
     7
370
    25
100
AcDbLine
 10
29.3787275585
 20
25.2445348653
 30
0.0
 11
29.3787275585
 21
24.9587455811
 31
0.0
  0
ARC
  5
244
330
1F
100
AcDbEntity
  8
0
  6
SLD-Solid
 62
     7
370
    25
100
AcDbCircle
 10
32.8004346923
 20
25.1489309434
 30
0.0
 40
0.4978319899432468
100
AcDbArc
 50
332.5849115213
 51
337.54011017
  0
LINE
  5
245
330
1F
100
AcDbEntity
  8
0
  6
SLD-Solid
 62
     7
370
    25
100
AcDbLine
 10
33.2605047345
 20
25.2445302004
 30
0.0
 11
33.2605047345
 21
24.9587409163
 31
0.0
  0
LINE
  5
246
330
1F
100
AcDbEntity
  8
0
  6
SLD-Solid
 62
     7
370
    25
100
AcDbLine
 10
29.3789865862
 20
25.5173131458
 30
0.0
 11
29.5446010679
 21
25.4916952724
 31
0.0
  0
LINE
  5
247
330
1F
100
AcDbEntity
  8
0
  6
SLD-Solid
 62
     7
370
    25
100
AcDbLine
 10
33.0946010679
 20
25.4916952724
 30
0.0
 11
33.2602155496
 21
25.5173131458
 31
0.0
  0
LINE
  5
248
330
1F
100
AcDbEntity
  8
0
  6
SLD-Solid
 62
     7
370
    25
100
AcDbLine
 10
29.3786974013
 20
25.517357878
 30
0.0
 11
29.3789865862
 21
25.5173131458
 31
0.0
  0
LINE
  5
249
330
1F
100
AcDbEntity
  8
0
  6
SLD-Solid
 62
     7
370
    25
100
AcDbLine
 10
29.3786974013
 20
25.8031471622
 30
0.0
 11
29.3786974013
 21
25.517357878
 31
0.0
  0
SPLINE
  5
24A
330
1F
100
AcDbEntity
  8
0
  6
SLD-Solid
 62
     7
370
    25
100
AcDbSpline
210
0.0
220
0.0
230
1.0
 70
     8
 71
     3
 72
    24
 73
    20
 74
     0
 42
0.00000001
 43
0.00000001
 40
0.0
 40
0.0
 40
0.0
 40
0.0
 40
0.0527771556059147
 40
0.1059206497933823
 40
0.1602196400476605
 40
0.2149179512567698
 40
0.2678865101811091
 40
0.3212256381448318
 40
0.3751388059327429
 40
0.429838386734005
 40
0.5360285493901742
 40
0.5899293104310216
 40
0.6446165859167374
 40
0.6975511756429401
 40
0.7508561986780484
 40
0.8047350312348168
 40
0.8593999346156397
 40
0.9294584820944817
 40
1.0
 40
1.0
 40
1.0
 40
1.0
 10
29.47533083508558
 20
25.86985361894261
 30
0.0
 10
29.47266137589764
 20
25.87021251773817
 30
0.0
 10
29.46730392818115
 20
25.87093280652978
 30
0.0
 10
29.4592557960705
 20
25.87129384881837
 30
0.0
 10
29.45122553169531
 20
25.87110604776655
 30
0.0
 10
29.44337835353
 20
25.87030605968052
 30
0.0
 10
29.43580583525907
 20
25.86892923309495
 30
0.0
 10
29.42854649627886
 20
25.86699353263814
 30
0.0
 10
29.4215416125874
 20
25.86447429967747
 30
0.0
 10
29.41276821849686
 20
25.86040374944946
 30
0.0
 10
29.40483895536517
 20
25.85528170980286
 30
0.0
 10
29.39794762803444
 20
25.84924124102968
 30
0.0
 10
29.39331996926279
 20
25.84425694313885
 30
0.0
 10
29.38929385323577
 20
25.83889280960156
 30
0.0
 10
29.38589014208799
 20
25.83320068253746
 30
0.0
 10
29.38308317999262
 20
25.82712637919787
 30
0.0
 10
29.38073740235789
 20
25.82011064161657
 30
0.0
 10
29.37903901981356
 20
25.81212411029997
 30
0.0
 10
29.37881153463042
 20
25.80614632293054
 30
0.0
 10
29.3786974013256
 20
25.80314716220039
 30
0.0
  0
LINE
  5
24B
330
1F
100
AcDbEntity
  8
0
  6
SLD-Solid
 62
     7
370
    25
100
AcDbLine
 10
33.2602155496
 20
25.5173131458
 30
0.0
 11
33.2604745774
 21
25.5173532132
 31
0.0
  0
SPLINE
  5
24C
330
1F
100
AcDbEntity
  8
0
  6
SLD-Solid
 62
     7
370
    25
100
AcDbSpline
210
0.0
220
0.0
230
1.0
 70
     8
 71
     3
 72
    24
 73
    20
 74
     0
 42
0.00000001
 43
0.00000001
 40
0.0
 40
0.0
 40
0.0
 40
0.0
 40
0.0527199257508109
 40
0.1058059615279449
 40
0.1600466454960208
 40
0.2146862833994427
 40
0.2675972272650741
 40
0.3208781763157268
 40
0.3747320939973902
 40
0.4293707956037463
 40
0.4822913570532555
 40
0.5355818501030593
 40
0.5894451583761503
 40
0.6440930157049215
 40
0.6968436709233621
 40
0.8041358777249095
 40
0.858805478778254
 40
0.9291315866146025
 40
1.0
 40
1.0
 40
1.0
 40
1.0
 10
33.26047457739562
 20
25.80314249738105
 30
0.0
 10
33.26041072251662
 20
25.80538681231152
 30
0.0
 10
33.26028256932265
 20
25.80989102766859
 30
0.0
 10
33.25923785974763
 20
25.81652558401524
 30
0.0
 10
33.25754775678901
 20
25.82304520596434
 30
0.0
 10
33.25516765986216
 20
25.82930344776489
 30
0.0
 10
33.25215625278165
 20
25.83523202072946
 30
0.0
 10
33.24854170060191
 20
25.84080293938935
 30
0.0
 10
33.24428505839015
 20
25.84605927203385
 30
0.0
 10
33.2394587467948
 20
25.85088754472241
 30
0.0
 10
33.23411244933588
 20
25.85525254610659
 30
0.0
 10
33.22830096049671
 20
25.85912803215457
 30
0.0
 10
33.22196785201448
 20
25.86253990693443
 30
0.0
 10
33.21523698773127
 20
25.86540624158956
 30
0.0
 10
33.20579470067255
 20
25.86848891340997
 30
0.0
 10
33.19570278924973
 20
25.87045733406607
 30
0.0
 10
33.18435540247267
 20
25.87128663273561
 30
0.0
 10
33.17456685900434
 20
25.87121708689714
 30
0.0
 10
33.16742375574122
 20
25.87030589094134
 30
0.0
 10
33.16383848635169
 20
25.86984854308455
 30
0.0
  0
LINE
  5
24D
330
1F
100
AcDbEntity
  8
0
  6
SLD-Solid
 62
     7
370
    25
100
AcDbLine
 10
33.2604745774
 20
25.8031424974
 30
0.0
 11
33.2604745774
 21
25.5173532132
 31
0.0
  0
SPLINE
  5
24E
330
1F
100
AcDbEntity
  8
0
  6
SLD-Solid
 62
     7
370
    25
100
AcDbSpline
210
0.0
220
0.0
230
1.0
 70
     8
 71
     3
 72
    21
 73
    17
 74
     0
 42
0.00000001
 43
0.00000001
 40
0.0
 40
0.0
 40
0.0
 40
0.0
 40
0.0698725356291666
 40
0.1402300728712312
 40
0.2121173901700177
 40
0.2845333749826742
 40
0.4251533588286971
 40
0.4965298794822489
 40
0.5689475451286286
 40
0.6390569156524225
 40
0.7096569367825398
 40
0.7810170319416708
 40
0.8534184063804446
 40
0.9234993716048343
 40
0.9940707595182792
 40
1.0
 40
1.0
 40
1.0
 40
1.0
 10
33.14575396761239
 20
25.90888681666381
 30
0.0
 10
33.14842343648052
 20
25.90924571118485
 30
0.0
 10
33.15378090362456
 20
25.90996599139773
 30
0.0
 10
33.16182888818895
 20
25.91032709883908
 30
0.0
 10
33.16985972725381
 20
25.9101390440186
 30
0.0
 10
33.18028382519409
 20
25.90907731933366
 30
0.0
 10
33.19025408855829
 20
25.90684898999255
 30
0.0
 10
33.19954233560097
 20
25.90350779291024
 30
0.0
 10
33.20614375169042
 20
25.90044467645154
 30
0.0
 10
33.21228953723468
 20
25.89687149840858
 30
0.0
 10
33.21794131707784
 20
25.89282927765018
 30
0.0
 10
33.22313444549232
 20
25.88827275188267
 30
0.0
 10
33.22777649419281
 20
25.88329576043648
 30
0.0
 10
33.23174851491818
 20
25.8779059040772
 30
0.0
 10
33.23424249502165
 20
25.87403637518965
 30
0.0
 10
33.23523429603004
 20
25.87186626925056
 30
0.0
 10
33.23531116633571
 20
25.8716980735082
 30
0.0
  0
SPLINE
  5
24F
330
1F
100
AcDbEntity
  8
0
  6
SLD-Solid
 62
     7
370
    25
100
AcDbSpline
210
0.0
220
0.0
230
1.0
 70
     8
 71
     3
 72
    20
 73
    16
 74
     0
 42
0.00000001
 43
0.00000001
 40
0.0
 40
0.0
 40
0.0
 40
0.0
 40
0.0294387813389789
 40
0.1000450276489427
 40
0.1714105540582839
 40
0.243816051565617
 40
0.3844412263136693
 40
0.4558191968408866
 40
0.5282368272250342
 40
0.59839351639487
 40
0.6690405865436532
 40
0.7404469937202425
 40
0.8128934382077406
 40
0.9061234605791694
 40
1.0
 40
1.0
 40
1.0
 40
1.0
 10
29.40401132474653
 20
25.87174360758495
 30
0.0
 10
29.40441586887417
 20
25.87256723673029
 30
0.0
 10
29.4057906753911
 20
25.8753662656598
 30
0.0
 10
29.40880127946425
 20
25.87982438390414
 30
0.0
 10
29.41302848479137
 20
25.88509582831636
 30
0.0
 10
29.41945281543855
 20
25.89150906334175
 30
0.0
 10
29.42695168180676
 20
25.89704908845442
 30
0.0
 10
29.43535155830641
 20
25.90157280107193
 30
0.0
 10
29.44208998426522
 20
25.90444270888221
 30
0.0
 10
29.44916955305995
 20
25.90675295658553
 30
0.0
 10
29.4565252910834
 20
25.90849565419861
 30
0.0
 10
29.46422394611039
 20
25.90968130706439
 30
0.0
 10
29.47296600436193
 20
25.91031989250245
 30
0.0
 10
29.48275382420557
 20
25.91025021543307
 30
0.0
 10
29.48989703576407
 20
25.90933894859419
 30
0.0
 10
29.49348098266064
 20
25.90888174080573
 30
0.0
  0
LINE
  5
250
330
1F
100
AcDbEntity
  8
0
  6
SLD-Solid
 62
     7
370
    25
100
AcDbLine
 10
29.8806436382
 20
26.3259568398
 30
0.0
 11
29.8806436382
 21
26.2054351158
 31
0.0
  0
SPLINE
  5
251
330
1F
100
AcDbEntity
  8
0
  6
SLD-Solid
 62
     7
370
    25
100
AcDbSpline
210
0.0
220
0.0
230
1.0
 70
     8
 71
     3
 72
    24
 73
    20
 74
     0
 42
0.00000001
 43
0.00000001
 40
0.0
 40
0.0
 40
0.0
 40
0.0
 40
0.0363607590788352
 40
0.1029720488111314
 40
0.1603498504838282
 40
0.2149133425481094
 40
0.2512741641455024
 40
0.3178858545741508
 40
0.3752644854787687
 40
0.4298291504805891
 40
0.506135725776917
 40
0.5766943146911707
 40
0.6446525333365454
 40
0.6943592639991151
 40
0.7847412792287672
 40
0.85937112596883
 40
0.8943476001337757
 40
0.9646473859636026
 40
1.0
 40
1.0
 40
1.0
 40
1.0
 10
29.95138422144317
 20
26.36677325153914
 30
0.0
 10
29.95003820434994
 20
26.36752361625977
 30
0.0
 10
29.94622634394504
 20
26.36964861569863
 30
0.0
 10
29.94031434938153
 20
26.37228223069087
 30
0.0
 10
29.93383753961526
 20
26.37446130972779
 30
0.0
 10
29.92857738058089
 20
26.37565348947177
 30
0.0
 10
29.92312976668946
 20
26.37638859974727
 30
0.0
 10
29.9177657245467
 20
26.37651815150361
 30
0.0
 10
29.91210331720849
 20
26.3758311375763
 30
0.0
 10
29.90647431298801
 20
26.37432211007262
 30
0.0
 10
29.90092758262897
 20
26.37173739175342
 30
0.0
 10
29.89566975494204
 20
26.36785982516932
 30
0.0
 10
29.89165968732779
 20
26.36357539518898
 30
0.0
 10
29.88783357951591
 20
26.35805820068373
 30
0.0
 10
29.88465869311602
 20
26.35144022839319
 30
0.0
 10
29.88260901355612
 20
26.3443874062387
 30
0.0
 10
29.8813324464981
 20
26.33757550761507
 30
0.0
 10
29.88073108450897
 20
26.3319337416669
 30
0.0
 10
29.88066556265322
 20
26.32745536171762
 30
0.0
 10
29.88064363822102
 20
26.32595683979048
 30
0.0
  0
SPLINE
  5
252
330
1F
100
AcDbEntity
  8
0
  6
SLD-Solid
 62
     7
370
    25
100
AcDbSpline
210
0.0
220
0.0
230
1.0
 70
     8
 71
     3
 72
    24
 73
    20
 74
     0
 42
0.00000001
 43
0.00000001
 40
0.0
 40
0.0
 40
0.0
 40
0.0
 40
0.0363212364579257
 40
0.1028603325714303
 40
0.160176210150062
 40
0.2146809585511355
 40
0.2643652367510312
 40
0.3547056841901877
 40
0.4293001047054983
 40
0.5055550681274953
 40
0.5760646707600438
 40
0.6439743669850341
 40
0.6803167020412028
 40
0.7468940175417612
 40
0.8042420832068733
 40
0.858776861664361
 40
0.8939000652624219
 40
0.9644968376512931
 40
1.0
 40
1.0
 40
1.0
 40
1.0
 10
32.75853642107987
 20
26.32594409526699
 30
0.0
 10
32.75851334008617
 20
26.32748343488795
 30
0.0
 10
32.75844797560746
 20
26.33184278497604
 30
0.0
 10
32.75777367545935
 20
26.33827314222869
 30
0.0
 10
32.75642395826183
 20
26.34496518001135
 30
0.0
 10
32.75468431807525
 20
26.35057567080518
 30
0.0
 10
32.75203584220049
 20
26.35678625927664
 30
0.0
 10
32.74830767832865
 20
26.36277439893597
 30
0.0
 10
32.74313754863072
 20
26.36822158939585
 30
0.0
 10
32.73763158207021
 20
26.37208232726904
 30
0.0
 10
32.73165037850619
 20
26.37469831795464
 30
0.0
 10
32.72634506777338
 20
26.37593733236986
 30
0.0
 10
32.72088816426562
 20
26.37648217058903
 30
0.0
 10
32.71553409526174
 20
26.37637473099533
 30
0.0
 10
32.70932602227511
 20
26.37542553148649
 30
0.0
 10
32.70406644385394
 20
26.37403541102822
 30
0.0
 10
32.6982438159836
 20
26.37199084282826
 30
0.0
 10
32.69303569617352
 20
26.3696837176213
 30
0.0
 10
32.68910813364508
 20
26.36749258191291
 30
0.0
 10
32.68779389259086
 20
26.366759384037
 30
0.0
  0
LINE
  5
253
330
1F
100
AcDbEntity
  8
0
  6
SLD-Solid
 62
     7
370
    25
100
AcDbLine
 10
32.7585364211
 20
26.3259440953
 30
0.0
 11
32.7585364211
 21
26.2054527618
 31
0.0
  0
SPLINE
  5
254
330
1F
100
AcDbEntity
  8
0
  6
SLD-Solid
 62
     7
370
    25
100
AcDbSpline
210
0.0
220
0.0
230
1.0
 70
     8
 71
     3
 72
    16
 73
    12
 74
     0
 42
0.00000001
 43
0.00000001
 40
0.0
 40
0.0
 40
0.0
 40
0.0
 40
0.135887976171393
 40
0.2743090536214973
 40
0.3483860331276772
 40
0.4840913043571557
 40
0.6009844945835212
 40
0.712143330688147
 40
0.7837353411933576
 40
0.9276335154126957
 40
1.0
 40
1.0
 40
1.0
 40
1.0
 10
29.95164988925478
 20
26.40068880927247
 30
0.0
 10
29.95346751359196
 20
26.40157105633147
 30
0.0
 10
29.95713664478238
 20
26.40335199650462
 30
0.0
 10
29.96235837378471
 20
26.40450478348522
 30
0.0
 10
29.96780994926949
 20
26.40505912447599
 30
0.0
 10
29.97316593841673
 20
26.40494826021917
 30
0.0
 10
29.97937348658836
 20
26.40399999674178
 30
0.0
 10
29.98463318255022
 20
26.40260966664433
 30
0.0
 10
29.99045578691953
 20
26.40056514035954
 30
0.0
 10
29.99566391546419
 20
26.39825799957405
 30
0.0
 10
29.9995914771688
 20
26.39606686533501
 30
0.0
 10
30.00090571794734
 20
26.39533366795079
 30
0.0
  0
SPLINE
  5
255
330
1F
100
AcDbEntity
  8
0
  6
SLD-Solid
 62
     7
370
    25
100
AcDbSpline
210
0.0
220
0.0
230
1.0
 70
     8
 71
     3
 72
    16
 73
    12
 74
     0
 42
0.00000001
 43
0.00000001
 40
0.0
 40
0.0
 40
0.0
 40
0.0
 40
0.0740703664980496
 40
0.2097639759928542
 40
0.3266480814520347
 40
0.4377991673204409
 40
0.5118696611748142
 40
0.6475640869266255
 40
0.7644498816110582
 40
0.8756033568661755
 40
1.0
 40
1.0
 40
1.0
 40
1.0
 10
32.63832043972891
 20
26.39534753545294
 30
0.0
 10
32.63966645637272
 20
26.39609789936922
 30
0.0
 10
32.64347831550486
 20
26.3982228965302
 30
0.0
 10
32.64939032492484
 20
26.40085653811149
 30
0.0
 10
32.65586708143259
 20
26.4030355218301
 30
0.0
 10
32.66112740279279
 20
26.40422799209326
 30
0.0
 10
32.66657450531933
 20
26.4049621871644
 30
0.0
 10
32.67194166084938
 20
26.40509731103905
 30
0.0
 10
32.67759304797919
 20
26.40439057392953
 30
0.0
 10
32.68280546745012
 20
26.40307377845179
 30
0.0
 10
32.6859156331402
 20
26.40146557807663
 30
0.0
 10
32.68755814630931
 20
26.40061626953234
 30
0.0
  0
LINE
  5
256
330
1F
100
AcDbEntity
  8
0
  6
SLD-Solid
 62
     7
370
    25
100
AcDbLine
 10
30.7681573563
 20
26.6338396046
 30
0.0
 11
30.7681573563
 21
26.5794739414
 31
0.0
  0
SPLINE
  5
257
330
1F
100
AcDbEntity
  8
0
  6
SLD-Solid
 62
     7
370
    25
100
AcDbSpline
210
0.0
220
0.0
230
1.0
 70
     8
 71
     3
 72
    24
 73
    20
 74
     0
 42
0.00000001
 43
0.00000001
 40
0.0
 40
0.0
 40
0.0
 40
0.0
 40
0.0527805701820776
 40
0.1059275026470799
 40
0.1602300059371719
 40
0.2149318560173535
 40
0.3207680738136454
 40
0.3750715401068472
 40
0.4297746598613253
 40
0.5359716928081342
 40
0.5898759411201713
 40
0.6445667547629759
 40
0.6975047692510193
 40
0.7508132410142435
 40
0.804695559423474
 40
0.8593639995139545
 40
0.8943153959413135
 40
0.9646184971841312
 40
1.0
 40
1.0
 40
1.0
 40
1.0
 10
30.79405020688692
 20
26.65970839188649
 30
0.0
 10
30.7933349249215
 20
26.66119541450941
 30
0.0
 10
30.79189939605126
 20
26.6641797815271
 30
0.0
 10
30.78974294414118
 20
26.66794199813378
 30
0.0
 10
30.78759109098136
 20
26.67114781057582
 30
0.0
 10
30.78480295108421
 20
26.67448534183309
 30
0.0
 10
30.78213124363851
 20
26.67647382693372
 30
0.0
 10
30.77964179101395
 20
26.67706107346652
 30
0.0
 10
30.77728653093184
 20
26.67669783746742
 30
0.0
 10
30.77516197420858
 20
26.67492661541994
 30
0.0
 10
30.77331544081275
 20
26.67179845779976
 30
0.0
 10
30.77207544669866
 20
26.66876985815943
 30
0.0
 10
30.7709967229921
 20
26.6651070477808
 30
0.0
 10
30.77008443337723
 20
26.66085383071505
 30
0.0
 10
30.76933332804897
 20
26.65596390608055
 30
0.0
 10
30.76882494355857
 20
26.65112995763016
 30
0.0
 10
30.76840961446019
 20
26.64531467115451
 30
0.0
 10
30.76818939670454
 20
26.63980027071711
 30
0.0
 10
30.76816539255248
 20
26.6353346293654
 30
0.0
 10
30.76815735634908
 20
26.63383960458419
 30
0.0
  0
SPLINE
  5
258
330
1F
100
AcDbEntity
  8
0
  6
SLD-Solid
 62
     7
370
    25
100
AcDbSpline
210
0.0
220
0.0
230
1.0
 70
     8
 71
     3
 72
    24
 73
    20
 74
     0
 42
0.00000001
 43
0.00000001
 40
0.0
 40
0.0
 40
0.0
 40
0.0
 40
0.0527232100240789
 40
0.1058125528819015
 40
0.1600566158613457
 40
0.2146996576296246
 40
0.3208057820304967
 40
0.3746630546293038
 40
0.4293051600421863
 40
0.4822290182638864
 40
0.5355228311313748
 40
0.5893894949066049
 40
0.6440407566122699
 40
0.7502084406704445
 40
0.8040965646723991
 40
0.8587695714571972
 40
0.8939081499729556
 40
0.9645086922412195
 40
1.0
 40
1.0
 40
1.0
 40
1.0
 10
31.87103669892638
 20
26.63382219524133
 30
0.0
 10
31.8710195872238
 20
26.6360395290774
 30
0.0
 10
31.87098524498755
 20
26.64048959487723
 30
0.0
 10
31.87070534393594
 20
26.64668258838982
 30
0.0
 10
31.87025237301506
 20
26.65248821723293
 30
0.0
 10
31.86940551314965
 20
26.65946609073949
 30
0.0
 10
31.86821154057475
 20
26.66531277813778
 30
0.0
 10
31.86669875750228
 20
26.66989685298966
 30
0.0
 10
31.86540552009696
 20
26.67268596655766
 30
0.0
 10
31.86397297805953
 20
26.67479147041843
 30
0.0
 10
31.86241584867139
 20
26.67621107531585
 30
0.0
 10
31.86071868236461
 20
26.67694637388784
 30
0.0
 10
31.85831889416964
 20
26.676976310205
 30
0.0
 10
31.8557182542098
 20
26.67559767415091
 30
0.0
 10
31.85298273665943
 20
26.6728508024613
 30
0.0
 10
31.85110090906037
 20
26.6704064310738
 30
0.0
 10
31.84896771752324
 20
26.6671284049297
 30
0.0
 10
31.84706139906809
 20
26.66372064567516
 30
0.0
 10
31.84562399619118
 20
26.66069996743886
 30
0.0
 10
31.84514313637146
 20
26.65968944852627
 30
0.0
  0
LINE
  5
259
330
1F
100
AcDbEntity
  8
0
  6
SLD-Solid
 62
     7
370
    25
100
AcDbLine
 10
31.8710366989
 20
26.6338221952
 30
0.0
 11
31.8710366989
 21
26.5794754661
 31
0.0
  0
SPLINE
  5
25A
330
1F
100
AcDbEntity
  8
0
  6
SLD-Solid
 62
     7
370
    25
100
AcDbSpline
210
0.0
220
0.0
230
1.0
 70
     8
 71
     3
 72
    14
 73
    10
 74
     0
 42
0.00000001
 43
0.00000001
 40
0.0
 40
0.0
 40
0.0
 40
0.0
 40
0.1093845369052925
 40
0.3740533374478449
 40
0.50984797690019
 40
0.6466402941364179
 40
0.7344555152722779
 40
0.9110977164649765
 40
1.0
 40
1.0
 40
1.0
 40
1.0
 10
30.84647476376027
 20
26.68728839771627
 30
0.0
 10
30.84695817159207
 20
26.68732787283295
 30
0.0
 10
30.84861124174213
 20
26.68746286265472
 30
0.0
 10
30.85109645768562
 20
26.68604299813729
 30
0.0
 10
30.8538286495955
 20
26.68331959284927
 30
0.0
 10
30.85571558195787
 20
26.68086550942306
 30
0.0
 10
30.85784809341384
 20
26.67758935190363
 30
0.0
 10
30.85975444212106
 20
26.67418174178638
 30
0.0
 10
30.86119239244093
 20
26.6711600139435
 30
0.0
 10
30.86167380732392
 20
26.67014836233367
 30
0.0
  0
SPLINE
  5
25B
330
1F
100
AcDbEntity
  8
0
  6
SLD-Solid
 62
     7
370
    25
100
AcDbSpline
210
0.0
220
0.0
230
1.0
 70
     8
 71
     3
 72
    14
 73
    10
 74
     0
 42
0.00000001
 43
0.00000001
 40
0.0
 40
0.0
 40
0.0
 40
0.0
 40
0.1320322696414404
 40
0.2649810061486461
 40
0.4008204397104289
 40
0.537658851928375
 40
0.8033766401402166
 40
0.9382508641273906
 40
1.0
 40
1.0
 40
1.0
 40
1.0
 10
31.777537121128
 20
26.67016730569389
 30
0.0
 10
31.77825239773805
 20
26.67165429307619
 30
0.0
 10
31.77968791586042
 20
26.67463858936803
 30
0.0
 10
31.78184444939729
 20
26.67840134311562
 30
0.0
 10
31.78399598462247
 20
26.68160506340489
 30
0.0
 10
31.78679071152084
 20
26.68495898524721
 30
0.0
 10
31.7894527350572
 20
26.6868824173313
 30
0.0
 10
31.79161306366965
 20
26.68751018129396
 30
0.0
 10
31.79246542049869
 20
26.68733046859374
 30
0.0
 10
31.79273310129555
 20
26.68727403021352
 30
0.0
  0
ARC
  5
25C
330
1F
100
AcDbEntity
  8
0
  6
SLD-Solid
 62
     7
370
    25
100
AcDbCircle
 10
31.3196010679
 20
23.8535514774
 30
0.0
 40
1.071649127412002
100
AcDbArc
 50
242.4914255688
 51
297.5085744312
  0
ARC
  5
25D
330
1F
100
AcDbEntity
  8
0
  6
SLD-Solid
 62
     7
370
    25
100
AcDbCircle
 10
31.3196010679
 20
23.281972909
 30
0.0
 40
1.071649127412009
100
AcDbArc
 50
242.4914255688
 51
297.5085744312
  0
LINE
  5
25E
330
1F
100
AcDbEntity
  8
0
  6
SLD-Solid
 62
     7
370
    25
100
AcDbLine
 10
31.8145758148
 20
22.9030611553
 30
0.0
 11
34.7137136176
 21
24.5766977846
 31
0.0
  0
LINE
  5
25F
330
1F
100
AcDbEntity
  8
0
  6
SLD-Solid
 62
     7
370
    25
100
AcDbLine
 10
27.9254885182
 20
24.5766977846
 30
0.0
 11
30.8246263211
 21
22.9030611553
 31
0.0
  0
LINE
  5
260
330
1F
100
AcDbEntity
  8
0
  6
SLD-Solid
 62
     7
370
    25
100
AcDbLine
 10
29.3800821533
 20
23.1654001846
 30
0.0
 11
29.3750574197
 21
23.1725725079
 31
0.0
  0
LINE
  5
261
330
1F
100
AcDbEntity
  8
0
  6
SLD-Solid
 62
     7
370
    25
100
AcDbLine
 10
29.3750574197
 20
23.1725725079
 30
0.0
 11
29.3750574197
 21
23.1683009016
 31
0.0
  0
LINE
  5
262
330
1F
100
AcDbEntity
  8
0
  6
SLD-Solid
 62
     7
370
    25
100
AcDbLine
 10
30.8246263211
 20
22.331482587
 30
0.0
 11
29.3800821533
 21
23.1654001846
 31
0.0
  0
LINE
  5
263
330
1F
100
AcDbEntity
  8
0
  6
SLD-Solid
 62
     7
370
    25
100
AcDbLine
 10
29.3750574197
 20
23.1683009016
 30
0.0
 11
27.9254885182
 21
24.0051192162
 31
0.0
  0
LINE
  5
264
330
1F
100
AcDbEntity
  8
0
  6
SLD-Solid
 62
     7
370
    25
100
AcDbLine
 10
34.7137136176
 20
24.0051192162
 30
0.0
 11
31.8145758148
 21
22.331482587
 31
0.0
  0
LINE
  5
265
330
1F
100
AcDbEntity
  8
0
  6
SLD-Solid
 62
     7
370
    25
100
AcDbLine
 10
29.3771882246
 20
23.1695309891
 30
0.0
 11
29.3750574197
 21
23.1683009016
 31
0.0
  0
LWPOLYLINE
  5
266
330
1F
100
AcDbEntity
  8
0
  6
SLD-Solid
 62
     7
370
    25
100
AcDbPolyline
 90
       12
 70
   128
 43
0.0
 10
34.7137136176
 20
24.5766977846
 10
34.7791177394
 20
24.6202716806
 10
34.8331141635
 20
24.6687754379
 10
34.8746036783
 20
24.72122166
 10
34.902741677
 20
24.7765426929
 10
34.916955351
 20
24.83361236
 10
34.916955351
 20
24.8912688874
 10
34.902741677
 20
24.9483385545
 10
34.8746036783
 20
25.0036595874
 10
34.8331141635
 20
25.0561058094
 10
34.7791177394
 20
25.1046095668
 10
34.7137136176
 20
25.1481834628
  0
LWPOLYLINE
  5
267
330
1F
100
AcDbEntity
  8
0
  6
SLD-Solid
 62
     7
370
    25
100
AcDbPolyline
 90
       12
 70
   128
 43
0.0
 10
27.9254885182
 20
25.1481834628
 10
27.8600843964
 20
25.1046095668
 10
27.8060879724
 20
25.0561058094
 10
27.7645984576
 20
25.0036595874
 10
27.7364604589
 20
24.9483385545
 10
27.7222467848
 20
24.8912688874
 10
27.7222467848
 20
24.83361236
 10
27.7364604589
 20
24.7765426929
 10
27.7645984576
 20
24.72122166
 10
27.8060879724
 20
24.6687754379
 10
27.8600843964
 20
24.6202716806
 10
27.9254885182
 20
24.5766977846
  0
LWPOLYLINE
  5
268
330
1F
100
AcDbEntity
  8
0
  6
SLD-Solid
 62
     7
370
    25
100
AcDbPolyline
 90
        7
 70
   128
 43
0.0
 10
34.7137136176
 20
24.0051192162
 10
34.7791177394
 20
24.0486931123
 10
34.8331141635
 20
24.0971968696
 10
34.8746036783
 20
24.1496430917
 10
34.902741677
 20
24.2049641246
 10
34.916955351
 20
24.2620337917
 10
34.9187388708
 20
24.2908620554
  0
LWPOLYLINE
  5
269
330
1F
100
AcDbEntity
  8
0
  6
SLD-Solid
 62
     7
370
    25
100
AcDbPolyline
 90
        7
 70
   128
 43
0.0
 10
27.7204632651
 20
24.2908620554
 10
27.7222467848
 20
24.2620337917
 10
27.7364604589
 20
24.2049641246
 10
27.7645984576
 20
24.1496430917
 10
27.8060879724
 20
24.0971968696
 10
27.8600843964
 20
24.0486931123
 10
27.9254885182
 20
24.0051192162
  0
LINE
  5
26A
330
1F
100
AcDbEntity
  8
0
  6
SLD-Solid
 62
     7
370
    25
100
AcDbLine
 10
31.8145758148
 20
26.8218200921
 30
0.0
 11
32.595824218
 21
26.3708149888
 31
0.0
  0
LINE
  5
26B
330
1F
100
AcDbEntity
  8
0
  6
SLD-Solid
 62
     7
370
    25
100
AcDbLine
 10
32.7585364211
 20
26.2768832333
 30
0.0
 11
34.7137136176
 21
25.1481834628
 31
0.0
  0
LINE
  5
26C
330
1F
100
AcDbEntity
  8
0
  6
SLD-Solid
 62
     7
370
    25
100
AcDbLine
 10
27.9254885182
 20
25.1481834628
 30
0.0
 11
29.8806436382
 21
26.2768704888
 31
0.0
  0
LINE
  5
26D
330
1F
100
AcDbEntity
  8
0
  6
SLD-Solid
 62
     7
370
    25
100
AcDbLine
 10
30.0433779179
 20
26.3708149888
 30
0.0
 11
30.8246263211
 21
26.8218200921
 31
0.0
  0
ARC
  5
26E
330
1F
100
AcDbEntity
  8
0
  6
SLD-Solid
 62
     7
370
    25
100
AcDbCircle
 10
31.3196010679
 20
25.87132977
 30
0.0
 40
1.071649127412004
100
AcDbArc
 50
62.4914255688
 51
117.5085744312
  0
LINE
  5
26F
330
1F
100
AcDbEntity
  8
0
  6
SLD-Solid
 62
     8
370
    25
100
AcDbLine
 10
31.743683534
 20
22.2957253723
 30
0.0
 11
31.743683534
 21
14.4422889684
 31
0.0
  0
ARC
  5
270
330
1F
100
AcDbEntity
  8
0
  6
SLD-Solid
 62
     8
370
    25
100
AcDbCircle
 10
31.6459037794
 20
14.4356063595
 30
0.0
 40
0.0980078449790571
100
AcDbArc
 50
305.1526701297
 51
3.9097134135
  0
ARC
  5
271
330
1F
100
AcDbEntity
  8
0
  6
SLD-Solid
 62
     7
370
    25
100
AcDbCircle
 10
17.660736448
 20
29.3088479287
 30
0.0
 40
1.135920693964293
100
AcDbArc
 50
88.2065157453
 51
91.7378713627
  0
SPLINE
  5
272
330
1F
100
AcDbEntity
  8
0
  6
SLD-Solid
 62
     7
370
    25
100
AcDbSpline
210
0.0
220
0.0
230
1.0
 70
    24
 71
     3
 72
    24
 73
    20
 74
     0
 42
0.00000001
 43
0.00000001
 40
0.0
 40
0.0
 40
0.0
 40
0.0
 40
0.0363607590788491
 40
0.1029720488111596
 40
0.1603498504838428
 40
0.2149133425481085
 40
0.2512741641455169
 40
0.3178858545741621
 40
0.3752644854787681
 40
0.4298291504805883
 40
0.506135725776931
 40
0.5766943146911794
 40
0.644652533336546
 40
0.6943592639991155
 40
0.7847412792287676
 40
0.8593711259688303
 40
0.8943476001337758
 40
0.9646473859636095
 40
1.0
 40
1.0
 40
1.0
 40
1.0
 10
17.62628746446612
 20
30.4442461365876
 30
0.0
 10
17.62628746446612
 20
30.44614969221604
 30
0.0
 10
17.62628746446612
 20
30.45154047689852
 30
0.0
 10
17.62628746446612
 20
30.45990129979091
 30
0.0
 10
17.62628746446612
 20
30.46906089200328
 30
0.0
 10
17.62628746446612
 20
30.47649988024992
 30
0.0
 10
17.62628746446612
 20
30.48420396969776
 30
0.0
 10
17.62628746446612
 20
30.49178987084517
 30
0.0
 10
17.62628746446612
 20
30.49979772409857
 30
0.0
 10
17.62628746446612
 20
30.50775833820983
 30
0.0
 10
17.62628746446612
 20
30.51560259951041
 30
0.0
 10
17.62628746446612
 20
30.52303829073387
 30
0.0
 10
17.62628746446612
 20
30.52870938273998
 30
0.0
 10
17.62628746446612
 20
30.53412031629864
 30
0.0
 10
17.62628746446612
 20
30.53861028370437
 30
0.0
 10
17.62628746446612
 20
30.54150896833649
 30
0.0
 10
17.62628746446612
 20
30.54331430678323
 30
0.0
 10
17.62628746446612
 20
30.54416476106415
 30
0.0
 10
17.62628746446612
 20
30.54425742296118
 30
0.0
 10
17.62628746446612
 20
30.54428842879054
 30
0.0
  0
ARC
  5
273
330
1F
100
AcDbEntity
  8
0
  6
SLD-Solid
 62
     7
370
    25
100
AcDbCircle
 10
17.660736448
 20
29.3088479287
 30
0.0
 40
1.235920693964294
100
AcDbArc
 50
88.3516707721
 51
91.5972198204
  0
SPLINE
  5
274
330
1F
100
AcDbEntity
  8
0
  6
SLD-Solid
 62
     7
370
    25
100
AcDbSpline
210
0.0
220
0.0
230
1.0
 70
    24
 71
     3
 72
    24
 73
    20
 74
     0
 42
0.00000001
 43
0.00000001
 40
0.0
 40
0.0
 40
0.0
 40
0.0
 40
0.0363212364579257
 40
0.1028603325714303
 40
0.160176210150062
 40
0.2146809585511355
 40
0.2643652367510312
 40
0.3547056841901877
 40
0.4293001047054983
 40
0.5055550681274953
 40
0.5760646707600438
 40
0.6439743669850341
 40
0.6803167020412028
 40
0.7468940175417612
 40
0.8042420832068733
 40
0.858776861664361
 40
0.8939000652624219
 40
0.9644968376512931
 40
1.0
 40
1.0
 40
1.0
 40
1.0
 10
17.69628746446612
 20
30.54425720782812
 30
0.0
 10
17.69628746446612
 20
30.5442245663738
 30
0.0
 10
17.69628746446612
 20
30.54413212704151
 30
0.0
 10
17.69628746446612
 20
30.54317852262693
 30
0.0
 10
17.69628746446612
 20
30.54126973426083
 30
0.0
 10
17.69628746446612
 20
30.53880951151532
 30
0.0
 10
17.69628746446612
 20
30.53506400101362
 30
0.0
 10
17.69628746446612
 20
30.52979158110332
 30
0.0
 10
17.69628746446612
 20
30.52247991356528
 30
0.0
 10
17.69628746446612
 20
30.51469330098143
 30
0.0
 10
17.69628746446612
 20
30.50623460178187
 30
0.0
 10
17.69628746446612
 20
30.49873175939094
 30
0.0
 10
17.69628746446612
 20
30.49101453244171
 30
0.0
 10
17.69628746446612
 20
30.48344273544253
 30
0.0
 10
17.69628746446612
 20
30.47466319442863
 30
0.0
 10
17.69628746446612
 20
30.46722502729306
 30
0.0
 10
17.69628746446612
 20
30.45899058799017
 30
0.0
 10
17.69628746446612
 20
30.4516251943203
 30
0.0
 10
17.69628746446612
 20
30.4460707821255
 30
0.0
 10
17.69628746446612
 20
30.4442121646024
 30
0.0
  0
ARC
  5
275
330
1F
100
AcDbEntity
  8
0
  6
SLD-Solid
 62
     7
370
    25
100
AcDbCircle
 10
17.2785339639
 20
29.2061417929
 30
0.0
 40
1.135920693964286
100
AcDbArc
 50
118.2065157453
 51
121.7378713627
  0
SPLINE
  5
276
330
1F
100
AcDbEntity
  8
0
  6
SLD-Solid
 62
     7
370
    25
100
AcDbSpline
210
0.0
220
0.0
230
1.0
 70
    24
 71
     3
 72
    24
 73
    20
 74
     0
 42
0.00000001
 43
0.00000001
 40
0.0
 40
0.0
 40
0.0
 40
0.0
 40
0.0527806203006655
 40
0.1059276032321595
 40
0.1602301580860042
 40
0.214932060109163
 40
0.3211541959917683
 40
0.3750709030509311
 40
0.4297740747495798
 40
0.4827335964245107
 40
0.5360637478915355
 40
0.5899680473891619
 40
0.6446589129644567
 40
0.7508130044775579
 40
0.804695374051555
 40
0.8593638660532851
 40
0.8943555711379357
 40
0.9646591097128262
 40
1.0
 40
1.0
 40
1.0
 40
1.0
 10
16.68100116505089
 20
30.1722009925729
 30
0.0
 10
16.67961934628743
 20
30.17459437287807
 30
0.0
 10
16.67684611723326
 20
30.17939774650091
 30
0.0
 10
16.67268017382313
 20
30.18661337214871
 30
0.0
 10
16.66852310582246
 20
30.19381362513639
 30
0.0
 10
16.66312719470044
 20
30.20315961735284
 30
0.0
 10
16.65796621239214
 20
30.21209870092781
 30
0.0
 10
16.65315824829155
 20
30.22042633903098
 30
0.0
 10
16.64974114570974
 20
30.22634493431735
 30
0.0
 10
16.64655970003353
 20
30.23185535987007
 30
0.0
 10
16.64363469659938
 20
30.23692161443032
 30
0.0
 10
16.64094436006645
 20
30.24158141399483
 30
0.0
 10
16.63776069159606
 20
30.24709568953998
 30
0.0
 10
16.6351758394868
 20
30.25157278472327
 30
0.0
 10
16.63325196879926
 20
30.25490502650129
 30
0.0
 10
16.63226939970571
 20
30.25660688609327
 30
0.0
 10
16.6314670059077
 20
30.2579966729191
 30
0.0
 10
16.6310418127873
 20
30.25873312900667
 30
0.0
 10
16.63099550885473
 20
30.25881332977046
 30
0.0
 10
16.63098001894942
 20
30.25884015907348
 30
0.0
  0
ARC
  5
277
330
1F
100
AcDbEntity
  8
0
  6
SLD-Solid
 62
     7
370
    25
100
AcDbCircle
 10
17.2785339639
 20
29.2061417929
 30
0.0
 40
1.235920693964283
100
AcDbArc
 50
118.3516707721
 51
121.5972198204
  0
SPLINE
  5
278
330
1F
100
AcDbEntity
  8
0
  6
SLD-Solid
 62
     7
370
    25
100
AcDbSpline
210
0.0
220
0.0
230
1.0
 70
    24
 71
     3
 72
    24
 73
    20
 74
     0
 42
0.00000001
 43
0.00000001
 40
0.0
 40
0.0
 40
0.0
 40
0.0
 40
0.0527232100240789
 40
0.1058125528819015
 40
0.1600566158613457
 40
0.2146996576296246
 40
0.3208057820304967
 40
0.3746630546293038
 40
0.4293051600421863
 40
0.4822290182638864
 40
0.5355228311313748
 40
0.5893894949066049
 40
0.6440407566122699
 40
0.7502084406704445
 40
0.8040965646723991
 40
0.8587695714571972
 40
0.8939081499729556
 40
0.9645086922412195
 40
1.0
 40
1.0
 40
1.0
 40
1.0
 10
16.69161740769554
 20
30.29381312092688
 30
0.0
 10
16.69165046496646
 20
30.29375586405409
 30
0.0
 10
16.69171680907231
 20
30.29364095269197
 30
0.0
 10
16.69225753638142
 20
30.29270438551956
 30
0.0
 10
16.69313260900348
 20
30.29118871527783
 30
0.0
 10
16.69476861663398
 20
30.28835506694023
 30
0.0
 10
16.69707519452593
 20
30.28435995683977
 30
0.0
 10
16.69999766700449
 20
30.27929808602318
 30
0.0
 10
16.7024960098231
 20
30.27497082932661
 30
0.0
 10
16.70526346852553
 20
30.27017745024617
 30
0.0
 10
16.70827161150726
 20
30.26496719376537
 30
0.0
 10
16.71155028504174
 20
30.25928836462223
 30
0.0
 10
16.71618631983201
 20
30.25125851681982
 30
0.0
 10
16.7212103704362
 20
30.24255660591357
 30
0.0
 10
16.72649498453653
 20
30.23340338579339
 30
0.0
 10
16.73013039629363
 20
30.22710666792366
 30
0.0
 10
16.73425140588991
 20
30.21996886992444
 30
0.0
 10
16.73793413034785
 20
30.21359020405301
 30
0.0
 10
16.74071097947102
 20
30.20878056028672
 30
0.0
 10
16.7416399293084
 20
30.20717157197069
 30
0.0
  0
ARC
  5
279
330
1F
100
AcDbEntity
  8
0
  6
SLD-Solid
 62
     7
370
    25
100
AcDbCircle
 10
18.0430865765
 20
29.2066928094
 30
0.0
 40
1.135920693964292
100
AcDbArc
 50
58.2065157453
 51
61.7378713627
  0
SPLINE
  5
27A
330
1F
100
AcDbEntity
  8
0
  6
SLD-Solid
 62
     7
370
    25
100
AcDbSpline
210
0.0
220
0.0
230
1.0
 70
    24
 71
     3
 72
    24
 73
    20
 74
     0
 42
0.00000001
 43
0.00000001
 40
0.0
 40
0.0
 40
0.0
 40
0.0
 40
0.05277715513609
 40
0.1059206488504881
 40
0.1602196386213942
 40
0.2149179493435679
 40
0.3211331115077715
 40
0.3750462788157341
 40
0.4297458591300496
 40
0.482701903895131
 40
0.5360285541196304
 40
0.5899293146806583
 40
0.6446165896795387
 40
0.6975511789345281
 40
0.7508562014950997
 40
0.8047350335722453
 40
0.8593999364664332
 40
0.9294315424841452
 40
1.0
 40
1.0
 40
1.0
 40
1.0
 10
18.58095198561646
 20
30.2072009925729
 30
0.0
 10
18.5823338043801
 20
30.20959437287839
 30
0.0
 10
18.58510703343463
 20
30.21439774650185
 30
0.0
 10
18.58927297684203
 20
30.22161337214494
 30
0.0
 10
18.59343004485329
 20
30.22881362515095
 30
0.0
 10
18.5988259559227
 20
30.2381596172763
 30
0.0
 10
18.60398693854371
 20
30.24709870139286
 30
0.0
 10
18.60879490190616
 20
30.25542633821756
 30
0.0
 10
18.61221200675189
 20
30.26134493742515
 30
0.0
 10
18.61539344414935
 20
30.26685534863865
 30
0.0
 10
18.61831847859631
 20
30.27192165691468
 30
0.0
 10
18.62100869740416
 20
30.27658125257334
 30
0.0
 10
18.62340387735808
 20
30.28072982594681
 30
0.0
 10
18.62548801956893
 20
30.2843396661462
 30
0.0
 10
18.62724989099845
 20
30.28739131697855
 30
0.0
 10
18.62870288696533
 20
30.28990797981637
 30
0.0
 10
18.62991696491673
 20
30.29201082451255
 30
0.0
 10
18.63079621575684
 20
30.29353373164021
 30
0.0
 10
18.63091400980704
 20
30.29373775691998
 30
0.0
 10
18.63097313171793
 20
30.29384015907349
 30
0.0
  0
ARC
  5
27B
330
1F
100
AcDbEntity
  8
0
  6
SLD-Solid
 62
     7
370
    25
100
AcDbCircle
 10
18.0430865765
 20
29.2066928094
 30
0.0
 40
1.235920693964293
100
AcDbArc
 50
58.3516707721
 51
61.5972198204
  0
SPLINE
  5
27C
330
1F
100
AcDbEntity
  8
0
  6
SLD-Solid
 62
     7
370
    25
100
AcDbSpline
210
0.0
220
0.0
230
1.0
 70
    24
 71
     3
 72
    24
 73
    20
 74
     0
 42
0.00000001
 43
0.00000001
 40
0.0
 40
0.0
 40
0.0
 40
0.0
 40
0.0527199257508109
 40
0.1058059615279449
 40
0.1600466454960208
 40
0.2146862833994427
 40
0.2675972272650741
 40
0.3208781763157268
 40
0.3747320939973902
 40
0.4293707956037463
 40
0.4822913570532555
 40
0.5355818501030593
 40
0.5894451583761503
 40
0.6440930157049215
 40
0.6968436709233621
 40
0.8041358777249095
 40
0.858805478778254
 40
0.9291315866146025
 40
1.0
 40
1.0
 40
1.0
 40
1.0
 10
18.69157929950163
 20
30.25881312092689
 30
0.0
 10
18.69154624578401
 20
30.2587558702086
 30
0.0
 10
18.69147990880943
 20
30.25864097119821
 30
0.0
 10
18.6909391273402
 20
30.25770431021771
 30
0.0
 10
18.69006426567245
 20
30.25618900535957
 30
0.0
 10
18.68883223684473
 20
30.25405506883358
 30
0.0
 10
18.68727341783474
 20
30.25135511510847
 30
0.0
 10
18.68540238794748
 20
30.24811439628125
 30
0.0
 10
18.6831989878023
 20
30.24429799528039
 30
0.0
 10
18.68070070508534
 20
30.23997084268295
 30
0.0
 10
18.67793325787904
 20
30.23517748351438
 30
0.0
 10
18.67492500989509
 20
30.2299670451644
 30
0.0
 10
18.67164675171528
 20
30.22428893543665
 30
0.0
 10
18.6681625999823
 20
30.21825420761384
 30
0.0
 10
18.66327491254205
 20
30.20978848463581
 30
0.0
 10
18.65805095478662
 20
30.20074032438682
 30
0.0
 10
18.65217711516653
 20
30.1905665357293
 30
0.0
 10
18.64711019221969
 20
30.18179036774734
 30
0.0
 10
18.64341264988843
 20
30.17538603656647
 30
0.0
 10
18.64155677788877
 20
30.17217157197071
 30
0.0
  0
ARC
  5
27D
330
1F
100
AcDbEntity
  8
0
  6
SLD-Solid
 62
     7
370
    25
100
AcDbCircle
 10
18.3231339413
 20
28.9270488166
 30
0.0
 40
1.135920693964291
100
AcDbArc
 50
28.2065157453
 51
31.7378713627
  0
SPLINE
  5
27E
330
1F
100
AcDbEntity
  8
0
  6
SLD-Solid
 62
     7
370
    25
100
AcDbSpline
210
0.0
220
0.0
230
1.0
 70
    24
 71
     3
 72
    24
 73
    20
 74
     0
 42
0.00000001
 43
0.00000001
 40
0.0
 40
0.0
 40
0.0
 40
0.0
 40
0.0527809402452581
 40
0.105928245342137
 40
0.1602311293662114
 40
0.214933362980341
 40
0.2677143246251733
 40
0.3208618465694573
 40
0.3751656936033964
 40
0.4298691969007221
 40
0.4826376218067563
 40
0.5899685774621654
 40
0.6446597745615296
 40
0.6974068420346489
 40
0.8046941900759786
 40
0.859363013466152
 40
0.8942609551137256
 40
0.9645640551842991
 40
1.0
 40
1.0
 40
1.0
 40
1.0
 10
19.28919314101701
 20
29.52458161543727
 30
0.0
 10
19.29158651258917
 20
29.52596342915873
 30
0.0
 10
19.29638986868538
 20
29.52873664809389
 30
0.0
 10
19.30360562744256
 20
29.53290266835475
 30
0.0
 10
19.31080536197194
 20
29.53705943702338
 30
0.0
 10
19.31783264929804
 20
29.54111664325278
 30
0.0
 10
19.32460598764457
 20
29.54502723197047
 30
0.0
 10
19.3311160593714
 20
29.5487858236344
 30
0.0
 10
19.3374047056038
 20
29.5524165752295
 30
0.0
 10
19.34333022750258
 20
29.55583767689286
 30
0.0
 10
19.35068183283408
 20
29.56008212820997
 30
0.0
 10
19.35720313110576
 20
29.5638472015226
 30
0.0
 10
19.36271685953997
 20
29.56703055411833
 30
0.0
 10
19.36753403727381
 20
29.56981175297969
 30
0.0
 10
19.37126580757458
 20
29.5719662915674
 30
0.0
 10
19.37359772185489
 20
29.57331262290486
 30
0.0
 10
19.37498750475003
 20
29.57411501443349
 30
0.0
 10
19.37572485214121
 20
29.57454072214826
 30
0.0
 10
19.37580533543992
 20
29.57458718920244
 30
0.0
 10
19.37583230751759
 20
29.57460276153875
 30
0.0
  0
ARC
  5
27F
330
1F
100
AcDbEntity
  8
0
  6
SLD-Solid
 62
     7
370
    25
100
AcDbCircle
 10
18.3231339413
 20
28.9270488166
 30
0.0
 40
1.235920693964291
100
AcDbArc
 50
28.3516707721
 51
31.5972198204
  0
SPLINE
  5
280
330
1F
100
AcDbEntity
  8
0
  6
SLD-Solid
 62
     7
370
    25
100
AcDbSpline
210
0.0
220
0.0
230
1.0
 70
    24
 71
     3
 72
    24
 73
    20
 74
     0
 42
0.00000001
 43
0.00000001
 40
0.0
 40
0.0
 40
0.0
 40
0.0
 40
0.0527235230253672
 40
0.1058131810580928
 40
0.1600575660676547
 40
0.214700932234658
 40
0.2674244419813998
 40
0.3746622983333709
 40
0.4293047281394199
 40
0.4820379049757365
 40
0.5892946752959319
 40
0.6439462614491179
 40
0.6967005160388984
 40
0.7498208233648751
 40
0.8040954015713287
 40
0.8587687329327433
 40
0.8938125888992661
 40
0.9644126716629802
 40
1.0
 40
1.0
 40
1.0
 40
1.0
 10
19.41080526937099
 20
29.51396537279262
 30
0.0
 10
19.41074802014985
 20
29.51393231993939
 30
0.0
 10
19.41063312414416
 20
29.51386598469956
 30
0.0
 10
19.40969644034382
 20
29.5133251900553
 30
0.0
 10
19.40818122436919
 20
29.51245037970446
 30
0.0
 10
19.40604947541207
 20
29.51121961387022
 30
0.0
 10
19.40245003033165
 20
29.50914147328411
 30
0.0
 10
19.39772025501151
 20
29.50641073622982
 30
0.0
 10
19.39196791406539
 20
29.50308962063611
 30
0.0
 10
19.38557548377945
 20
29.49939894928974
 30
0.0
 10
19.3782768984721
 20
29.49518510909784
 30
0.0
 10
19.37024712321361
 20
29.49054911619082
 30
0.0
 10
19.36391515727952
 20
29.48689335395428
 30
0.0
 10
19.35732166907741
 20
29.48308660176589
 30
0.0
 10
19.35041204583049
 20
29.47909732892428
 30
0.0
 10
19.34410303924115
 20
29.47545482227161
 30
0.0
 10
19.33696953105432
 20
29.47133628939967
 30
0.0
 10
19.33059100794576
 20
29.46765364736591
 30
0.0
 10
19.32577705430339
 20
29.46487430993463
 30
0.0
 10
19.32416372041481
 20
29.46394285117976
 30
0.0
  0
ARC
  5
281
330
1F
100
AcDbEntity
  8
0
  6
SLD-Solid
 62
     7
370
    25
100
AcDbCircle
 10
18.4258400771
 20
28.5448463325
 30
0.0
 40
1.13592069396429
100
AcDbArc
 50
358.2065157453
 51
1.7378713627
  0
ARC
  5
282
330
1F
100
AcDbEntity
  8
0
  6
SLD-Solid
 62
     7
370
    25
100
AcDbCircle
 10
18.4258400771
 20
28.5448463325
 30
0.0
 40
1.235920693964297
100
AcDbArc
 50
358.3516707721
 51
1.5972198204
  0
SPLINE
  5
283
330
1F
100
AcDbEntity
  8
0
  6
SLD-Solid
 62
     7
370
    25
100
AcDbSpline
210
0.0
220
0.0
230
1.0
 70
    24
 71
     3
 72
    17
 73
    13
 74
     0
 42
0.00000001
 43
0.00000001
 40
0.0
 40
0.0
 40
0.0
 40
0.0
 40
0.1057852584670296
 40
0.2146387364517773
 40
0.3204238722110897
 40
0.4292757843327827
 40
0.535080213648327
 40
0.6439506182794507
 40
0.7497973176971975
 40
0.8587110484449649
 40
0.9289207960505352
 40
1.0
 40
1.0
 40
1.0
 40
1.0
 10
19.66124935627223
 20
28.50929531602202
 30
0.0
 10
19.66098233114864
 20
28.50929531602202
 30
0.0
 10
19.6604405360445
 20
28.50929531602203
 30
0.0
 10
19.65608135772116
 20
28.50929531602202
 30
0.0
 10
19.64918393917679
 20
28.50929531602203
 30
0.0
 10
19.63981095806984
 20
28.50929531602203
 30
0.0
 10
19.62812789542659
 20
28.50929531602202
 30
0.0
 10
19.61465469987689
 20
28.50929531602203
 30
0.0
 10
19.59953725373926
 20
28.50929531602203
 30
0.0
 10
19.58525216612403
 20
28.50929531602202
 30
0.0
 10
19.57232051040822
 20
28.50929531602202
 30
0.0
 10
19.5649248824395
 20
28.50929531602203
 30
0.0
 10
19.56120431304651
 20
28.50929531602202
 30
0.0
  0
SPLINE
  5
284
330
1F
100
AcDbEntity
  8
0
  6
SLD-Solid
 62
     7
370
    25
100
AcDbSpline
210
0.0
220
0.0
230
1.0
 70
    24
 71
     3
 72
    17
 73
    13
 74
     0
 42
0.00000001
 43
0.00000001
 40
0.0
 40
0.0
 40
0.0
 40
0.0
 40
0.1059003994411877
 40
0.2148712870034816
 40
0.3207718744078998
 40
0.4297449182869628
 40
0.5356204426975244
 40
0.6445687904864363
 40
0.7504014476287398
 40
0.85930532507786
 40
0.9292223100465041
 40
1.0
 40
1.0
 40
1.0
 40
1.0
 10
19.56123828503171
 20
28.57929531602203
 30
0.0
 10
19.56678458993316
 20
28.57929531602202
 30
0.0
 10
19.57803800992569
 20
28.57929531602203
 30
0.0
 10
19.59437007479934
 20
28.57929531602203
 30
0.0
 10
19.60990648269779
 20
28.57929531602203
 30
0.0
 10
19.62392580329054
 20
28.57929531602203
 30
0.0
 10
19.63628452613504
 20
28.57929531602202
 30
0.0
 10
19.64640492272199
 20
28.57929531602203
 30
0.0
 10
19.65419855581222
 20
28.57929531602203
 30
0.0
 10
19.65868514901619
 20
28.57929531602203
 30
0.0
 10
19.66092427492161
 20
28.57929531602203
 30
0.0
 10
19.66116132640651
 20
28.57929531602203
 30
0.0
 10
19.66128057723466
 20
28.57929531602203
 30
0.0
  0
ARC
  5
285
330
1F
100
AcDbEntity
  8
0
  6
SLD-Solid
 62
     7
370
    25
100
AcDbCircle
 10
16.9988899711
 20
28.9260944281
 30
0.0
 40
1.13592069396429
100
AcDbArc
 50
148.2065157453
 51
151.7378713627
  0
SPLINE
  5
286
330
1F
100
AcDbEntity
  8
0
  6
SLD-Solid
 62
     7
370
    25
100
AcDbSpline
210
0.0
220
0.0
230
1.0
 70
    24
 71
     3
 72
    24
 73
    20
 74
     0
 42
0.00000001
 43
0.00000001
 40
0.0
 40
0.0
 40
0.0
 40
0.0
 40
0.0527805701820776
 40
0.1059275026470799
 40
0.1602300059371719
 40
0.2149318560173535
 40
0.3207680738136454
 40
0.3750715401068472
 40
0.4297746598613253
 40
0.5359716928081342
 40
0.5898759411201713
 40
0.6445667547629759
 40
0.6975047692510193
 40
0.7508132410142435
 40
0.804695559423474
 40
0.8593639995139545
 40
0.8943153959413135
 40
0.9646184971841312
 40
1.0
 40
1.0
 40
1.0
 40
1.0
 10
15.99838178791524
 20
29.46395983717234
 30
0.0
 10
15.9959884078119
 20
29.46534165581928
 30
0.0
 10
15.99118503459411
 20
29.46811488463959
 30
0.0
 10
15.98396940587005
 20
29.4722808298258
 30
0.0
 10
15.97676916486433
 20
29.47643789090867
 30
0.0
 10
15.96743986694007
 20
29.4818241635766
 30
0.0
 10
15.95850015959145
 20
29.4869855060208
 30
0.0
 10
15.95017028876015
 20
29.49179475918757
 30
0.0
 10
15.94228943492727
 20
29.49634477226942
 30
0.0
 10
15.93518052957834
 20
29.50044910068628
 30
0.0
 10
15.92900190841432
 20
29.50401632927854
 30
0.0
 10
15.92485280724241
 20
29.50641181395704
 30
0.0
 10
15.92124332737139
 20
29.50849574813221
 30
0.0
 10
15.91819074682509
 20
29.51025815633233
 30
0.0
 10
15.91567749941343
 20
29.511709180402
 30
0.0
 10
15.91397641175429
 20
29.51269130381992
 30
0.0
 10
15.91258669350544
 20
29.51349365802499
 30
0.0
 10
15.91184983053351
 20
29.51391908606019
 30
0.0
 10
15.91176951107529
 20
29.51396545852101
 30
0.0
 10
15.91174262141466
 20
29.51398098327381
 30
0.0
  0
ARC
  5
287
330
1F
100
AcDbEntity
  8
0
  6
SLD-Solid
 62
     7
370
    25
100
AcDbCircle
 10
16.9988899711
 20
28.9260944281
 30
0.0
 40
1.235920693964288
100
AcDbArc
 50
148.3516707721
 51
151.5972198204
  0
SPLINE
  5
288
330
1F
100
AcDbEntity
  8
0
  6
SLD-Solid
 62
     7
370
    25
100
AcDbSpline
210
0.0
220
0.0
230
1.0
 70
    24
 71
     3
 72
    24
 73
    20
 74
     0
 42
0.00000001
 43
0.00000001
 40
0.0
 40
0.0
 40
0.0
 40
0.0
 40
0.0527231567706251
 40
0.1058124460051772
 40
0.1600564541950182
 40
0.214699440770696
 40
0.2676136273629738
 40
0.3208978418165911
 40
0.3747550600164735
 40
0.4293971102377037
 40
0.535522309642272
 40
0.5893889190091013
 40
0.6440401255138603
 40
0.7498225612849149
 40
0.8040967624619129
 40
0.8587697140238351
 40
0.893867572065594
 40
0.9644676664621383
 40
1.0
 40
1.0
 40
1.0
 40
1.0
 10
15.94676965956126
 20
29.57458715105751
 30
0.0
 10
15.94682691031887
 20
29.57455409731719
 30
0.0
 10
15.94694180940817
 20
29.57448776029706
 30
0.0
 10
15.94787846978935
 20
29.57394697917384
 30
0.0
 10
15.94939377698183
 20
29.57307211615836
 30
0.0
 10
15.95152770477748
 20
29.5718400923711
 30
0.0
 10
15.95422769020942
 20
29.57028125505517
 30
0.0
 10
15.95746829029546
 20
29.56841029372316
 30
0.0
 10
15.96128514201901
 20
29.56620663335311
 30
0.0
 10
15.96703617719923
 20
29.56288627164369
 30
0.0
 10
15.97376294022694
 20
29.55900257319887
 30
0.0
 10
15.98129412935892
 20
29.5546544391262
 30
0.0
 10
15.98931004246928
 20
29.55002644953414
 30
0.0
 10
15.99801002857944
 20
29.54500351021148
 30
0.0
 10
16.00716249309534
 20
29.53971933235949
 30
0.0
 10
16.01347432769485
 20
29.53607519295437
 30
0.0
 10
16.02061025019436
 20
29.53195526617837
 30
0.0
 10
16.026988868648
 20
29.5282725690971
 30
0.0
 10
16.03180035822579
 20
29.52549465429416
 30
0.0
 10
16.03341120851744
 20
29.52456462944465
 30
0.0
  0
ARC
  5
289
330
1F
100
AcDbEntity
  8
0
  6
SLD-Solid
 62
     7
370
    25
100
AcDbCircle
 10
16.8967348518
 20
28.5437442995
 30
0.0
 40
1.13592069396429
100
AcDbArc
 50
178.2065157453
 51
181.7378713627
  0
SPLINE
  5
28A
330
1F
100
AcDbEntity
  8
0
  6
SLD-Solid
 62
     7
370
    25
100
AcDbSpline
210
0.0
220
0.0
230
1.0
 70
    24
 71
     3
 72
    24
 73
    20
 74
     0
 42
0.00000001
 43
0.00000001
 40
0.0
 40
0.0
 40
0.0
 40
0.0
 40
0.0363607590788352
 40
0.1029720488111314
 40
0.1603498504838282
 40
0.2149133425481094
 40
0.2512741641455024
 40
0.3178858545741508
 40
0.3752644854787687
 40
0.4298291504805891
 40
0.506135725776917
 40
0.5766943146911707
 40
0.6446525333365454
 40
0.6943592639991151
 40
0.7847412792287672
 40
0.85937112596883
 40
0.8943476001337757
 40
0.9646473859636026
 40
1.0
 40
1.0
 40
1.0
 40
1.0
 10
15.76133664390055
 20
28.509295316022
 30
0.0
 10
15.75943308827212
 20
28.509295316022
 30
0.0
 10
15.75404230358963
 20
28.509295316022
 30
0.0
 10
15.74568148069724
 20
28.509295316022
 30
0.0
 10
15.73652188848488
 20
28.50929531602201
 30
0.0
 10
15.72908290023823
 20
28.509295316022
 30
0.0
 10
15.72137881079039
 20
28.509295316022
 30
0.0
 10
15.71379290964298
 20
28.509295316022
 30
0.0
 10
15.70578505638958
 20
28.509295316022
 30
0.0
 10
15.69782444227832
 20
28.509295316022
 30
0.0
 10
15.68998018097774
 20
28.509295316022
 30
0.0
 10
15.68254448975428
 20
28.509295316022
 30
0.0
 10
15.67687339774817
 20
28.509295316022
 30
0.0
 10
15.6714624641895
 20
28.509295316022
 30
0.0
 10
15.66697249678378
 20
28.509295316022
 30
0.0
 10
15.66407381215166
 20
28.509295316022
 30
0.0
 10
15.66226847370492
 20
28.509295316022
 30
0.0
 10
15.661418019424
 20
28.509295316022
 30
0.0
 10
15.66132535752696
 20
28.509295316022
 30
0.0
 10
15.6612943516976
 20
28.509295316022
 30
0.0
  0
ARC
  5
28B
330
1F
100
AcDbEntity
  8
0
  6
SLD-Solid
 62
     7
370
    25
100
AcDbCircle
 10
16.8967348518
 20
28.5437442995
 30
0.0
 40
1.235920693964289
100
AcDbArc
 50
178.3516707721
 51
181.5972198204
  0
SPLINE
  5
28C
330
1F
100
AcDbEntity
  8
0
  6
SLD-Solid
 62
     7
370
    25
100
AcDbSpline
210
0.0
220
0.0
230
1.0
 70
    24
 71
     3
 72
    24
 73
    20
 74
     0
 42
0.00000001
 43
0.00000001
 40
0.0
 40
0.0
 40
0.0
 40
0.0
 40
0.0363212364579257
 40
0.1028603325714304
 40
0.1601762101500621
 40
0.214680958551129
 40
0.2643652367510312
 40
0.3547056841901878
 40
0.4293001047054985
 40
0.50555506812751
 40
0.5760646707600481
 40
0.6439743669850344
 40
0.6803167020412151
 40
0.7468940175417766
 40
0.8042420832068734
 40
0.8587768616643611
 40
0.8939000652624358
 40
0.9644968376512931
 40
1.0
 40
1.0
 40
1.0
 40
1.0
 10
15.66132557266003
 20
28.579295316022
 30
0.0
 10
15.66135821411435
 20
28.579295316022
 30
0.0
 10
15.66145065344663
 20
28.57929531602201
 30
0.0
 10
15.66240425786121
 20
28.579295316022
 30
0.0
 10
15.66431304622731
 20
28.579295316022
 30
0.0
 10
15.66677326897283
 20
28.57929531602201
 30
0.0
 10
15.67051877947453
 20
28.579295316022
 30
0.0
 10
15.67579119938482
 20
28.57929531602201
 30
0.0
 10
15.68310286692286
 20
28.579295316022
 30
0.0
 10
15.69088947950673
 20
28.57929531602201
 30
0.0
 10
15.69934817870627
 20
28.579295316022
 30
0.0
 10
15.70685102109721
 20
28.57929531602201
 30
0.0
 10
15.71456824804644
 20
28.579295316022
 30
0.0
 10
15.72214004504562
 20
28.579295316022
 30
0.0
 10
15.73091958605952
 20
28.579295316022
 30
0.0
 10
15.73835775319509
 20
28.579295316022
 30
0.0
 10
15.74659219249798
 20
28.579295316022
 30
0.0
 10
15.75395758616785
 20
28.57929531602201
 30
0.0
 10
15.75951199836265
 20
28.579295316022
 30
0.0
 10
15.76137061588575
 20
28.579295316022
 30
0.0
  0
ARC
  5
28D
330
1F
100
AcDbEntity
  8
0
  6
SLD-Solid
 62
     7
370
    25
100
AcDbCircle
 10
18.3236849578
 20
28.162496204
 30
0.0
 40
1.135920693964291
100
AcDbArc
 50
328.2065157453
 51
331.7378713627
  0
SPLINE
  5
28E
330
1F
100
AcDbEntity
  8
0
  6
SLD-Solid
 62
     7
370
    25
100
AcDbSpline
210
0.0
220
0.0
230
1.0
 70
    24
 71
     3
 72
    24
 73
    20
 74
     0
 42
0.00000001
 43
0.00000001
 40
0.0
 40
0.0
 40
0.0
 40
0.0
 40
0.0527809402452539
 40
0.1059282453421414
 40
0.1602311293662141
 40
0.2149333629803414
 40
0.2677143246251787
 40
0.320861846569462
 40
0.3751656936034019
 40
0.4298691969007207
 40
0.4826376218067517
 40
0.5899685774621581
 40
0.6446597745615278
 40
0.6974068420346422
 40
0.8046941900759741
 40
0.859363013466153
 40
0.8942609551137264
 40
0.9645640551842996
 40
1.0
 40
1.0
 40
1.0
 40
1.0
 10
19.32419314101702
 20
27.62463079487169
 30
0.0
 10
19.32658651258918
 20
27.62324898115023
 30
0.0
 10
19.33138986868538
 20
27.62047576221507
 30
0.0
 10
19.33860562744256
 20
27.6163097419542
 30
0.0
 10
19.34580536197194
 20
27.61215297328557
 30
0.0
 10
19.35283264929804
 20
27.60809576705617
 30
0.0
 10
19.35960598764458
 20
27.6041851783385
 30
0.0
 10
19.36611605937141
 20
27.60042658667456
 30
0.0
 10
19.37240470560381
 20
27.59679583507945
 30
0.0
 10
19.37833022750259
 20
27.5933747334161
 30
0.0
 10
19.38568183283408
 20
27.58913028209898
 30
0.0
 10
19.39220313110577
 20
27.58536520878636
 30
0.0
 10
19.39771685953997
 20
27.58218185619063
 30
0.0
 10
19.40253403727382
 20
27.57940065732927
 30
0.0
 10
19.40626580757459
 20
27.57724611874156
 30
0.0
 10
19.4085977218549
 20
27.57589978740409
 30
0.0
 10
19.40998750475004
 20
27.57509739587547
 30
0.0
 10
19.41072485214121
 20
27.57467168816069
 30
0.0
 10
19.41080533543992
 20
27.57462522110652
 30
0.0
 10
19.41083230751759
 20
27.57460964877021
 30
0.0
  0
ARC
  5
28F
330
1F
100
AcDbEntity
  8
0
  6
SLD-Solid
 62
     7
370
    25
100
AcDbCircle
 10
18.3236849578
 20
28.162496204
 30
0.0
 40
1.235920693964289
100
AcDbArc
 50
328.3516707721
 51
331.5972198204
  0
SPLINE
  5
290
330
1F
100
AcDbEntity
  8
0
  6
SLD-Solid
 62
     7
370
    25
100
AcDbSpline
210
0.0
220
0.0
230
1.0
 70
    24
 71
     3
 72
    24
 73
    20
 74
     0
 42
0.00000001
 43
0.00000001
 40
0.0
 40
0.0
 40
0.0
 40
0.0
 40
0.0527235230253674
 40
0.1058131810580926
 40
0.1600575660676552
 40
0.2147009322346576
 40
0.2674244419813994
 40
0.3746622983333722
 40
0.4293047281394193
 40
0.4820379049757379
 40
0.5892946752959312
 40
0.6439462614491173
 40
0.6967005160388944
 40
0.7498208233648774
 40
0.8040954015713311
 40
0.8587687329327494
 40
0.8938125888992727
 40
0.9644126716629801
 40
1.0
 40
1.0
 40
1.0
 40
1.0
 10
19.375805269371
 20
27.51400348098652
 30
0.0
 10
19.37574802014986
 20
27.51403653383975
 30
0.0
 10
19.37563312414416
 20
27.51410286907957
 30
0.0
 10
19.37469644034383
 20
27.51464366372384
 30
0.0
 10
19.3731812243692
 20
27.51551847407467
 30
0.0
 10
19.37104947541207
 20
27.51674923990891
 30
0.0
 10
19.36745003033165
 20
27.51882738049503
 30
0.0
 10
19.36272025501152
 20
27.52155811754931
 30
0.0
 10
19.35696791406539
 20
27.52487923314303
 30
0.0
 10
19.35057548377946
 20
27.52856990448939
 30
0.0
 10
19.34327689847211
 20
27.53278374468129
 30
0.0
 10
19.33524712321361
 20
27.53741973758832
 30
0.0
 10
19.32891515727952
 20
27.54107549982485
 30
0.0
 10
19.32232166907742
 20
27.54488225201324
 30
0.0
 10
19.31541204583049
 20
27.54887152485485
 30
0.0
 10
19.30910303924115
 20
27.55251403150753
 30
0.0
 10
19.30196953105432
 20
27.55663256437947
 30
0.0
 10
19.29559100794577
 20
27.56031520641322
 30
0.0
 10
19.2907770543034
 20
27.56309454384451
 30
0.0
 10
19.28916372041481
 20
27.56402600259938
 30
0.0
  0
ARC
  5
291
330
1F
100
AcDbEntity
  8
0
  6
SLD-Solid
 62
     7
370
    25
100
AcDbCircle
 10
16.9994409876
 20
28.1615418154
 30
0.0
 40
1.135920693964289
100
AcDbArc
 50
208.2065157453
 51
211.7378713627
  0
ARC
  5
292
330
1F
100
AcDbEntity
  8
0
  6
SLD-Solid
 62
     7
370
    25
100
AcDbCircle
 10
16.9994409876
 20
28.1615418154
 30
0.0
 40
1.235920693964289
100
AcDbArc
 50
208.3516707721
 51
211.5972198204
  0
SPLINE
  5
293
330
1F
100
AcDbEntity
  8
0
  6
SLD-Solid
 62
     7
370
    25
100
AcDbSpline
210
0.0
220
0.0
230
1.0
 70
    24
 71
     3
 72
    24
 73
    20
 74
     0
 42
0.00000001
 43
0.00000001
 40
0.0
 40
0.0
 40
0.0
 40
0.0
 40
0.0527197672529231
 40
0.1058056434314982
 40
0.1600461643296653
 40
0.2146856379637599
 40
0.2675964227572348
 40
0.3208772116233335
 40
0.3747309673978776
 40
0.4293695047377197
 40
0.5354878814620161
 40
0.5893510277997446
 40
0.6439987208344675
 40
0.6969402655073363
 40
0.7502518608027597
 40
0.8041364659658816
 40
0.8588059026598022
 40
0.9291590144248268
 40
1.0
 40
1.0
 40
1.0
 40
1.0
 10
15.91176965956128
 20
27.57462525925141
 30
0.0
 10
15.91182691031974
 20
27.57465831299222
 30
0.0
 10
15.91194180941076
 20
27.57472465001335
 30
0.0
 10
15.91287846977889
 20
27.57526543112903
 30
0.0
 10
15.91439377702221
 20
27.57614029417386
 30
0.0
 10
15.91652770462774
 20
27.57737231785136
 30
0.0
 10
15.91922769075016
 20
27.57893115556593
 30
0.0
 10
15.92246828825036
 20
27.58080211540501
 30
0.0
 10
15.92628514978935
 20
27.58300578144201
 30
0.0
 10
15.93203613599145
 20
27.5863261148739
 30
0.0
 10
15.93876319049571
 20
27.59020998160278
 30
0.0
 10
15.94629369162035
 20
27.59455771845423
 30
0.0
 10
15.9523353260932
 20
27.59804585774346
 30
0.0
 10
15.95868266061662
 20
27.6017104930392
 30
0.0
 10
15.96527764378959
 20
27.60551810834942
 30
0.0
 10
15.97218006664371
 20
27.6095032240423
 30
0.0
 10
15.98001798234559
 20
27.61402844678268
 30
0.0
 10
15.9887935013098
 20
27.61909499501894
 30
0.0
 10
15.99519792961948
 20
27.62279259342754
 30
0.0
 10
15.99841120851746
 20
27.62464778086427
 30
0.0
  0
SPLINE
  5
294
330
1F
100
AcDbEntity
  8
0
  6
SLD-Solid
 62
     7
370
    25
100
AcDbSpline
210
0.0
220
0.0
230
1.0
 70
    24
 71
     3
 72
    24
 73
    20
 74
     0
 42
0.00000001
 43
0.00000001
 40
0.0
 40
0.0
 40
0.0
 40
0.0
 40
0.0527771556059147
 40
0.1059206497933823
 40
0.1602196400476605
 40
0.2149179512567698
 40
0.2678865101811091
 40
0.3212256381448318
 40
0.3751388059327429
 40
0.429838386734005
 40
0.5360285493901742
 40
0.5899293104310216
 40
0.6446165859167374
 40
0.6975511756429401
 40
0.7508561986780484
 40
0.8047350312348168
 40
0.8593999346156397
 40
0.9294584820944817
 40
1.0
 40
1.0
 40
1.0
 40
1.0
 10
16.03338178791526
 20
27.56400901660676
 30
0.0
 10
16.03098841628339
 20
27.56262720285083
 30
0.0
 10
16.02618506006736
 20
27.55985398384649
 30
0.0
 10
16.01896930222019
 20
27.55568796411102
 30
0.0
 10
16.01176956414637
 20
27.55153119339601
 30
0.0
 10
16.00473397667762
 20
27.54746919507701
 30
0.0
 10
15.99794464253336
 20
27.54354937118121
 30
0.0
 10
15.99143609725955
 20
27.53979166081534
 30
0.0
 10
15.9851556903564
 20
27.53616566619919
 30
0.0
 10
15.97728968040716
 20
27.53162422323754
 30
0.0
 10
15.97018049757091
 20
27.52751973461332
 30
0.0
 10
15.9640019025155
 20
27.52395252109486
 30
0.0
 10
15.95985285716728
 20
27.52155706864619
 30
0.0
 10
15.95624314028934
 20
27.51947299763501
 30
0.0
 10
15.95319145635991
 20
27.51771110709686
 30
0.0
 10
15.95067480299389
 20
27.51625811659855
 30
0.0
 10
15.94857163630343
 20
27.51504385274366
 30
0.0
 10
15.94704890817183
 20
27.51416470524697
 30
0.0
 10
15.94684495053634
 20
27.51404695025122
 30
0.0
 10
15.94674262141468
 20
27.51398787050528
 30
0.0
  0
ARC
  5
295
330
1F
100
AcDbEntity
  8
0
  6
SLD-Solid
 62
     7
370
    25
100
AcDbCircle
 10
18.0440409651
 20
27.8824488392
 30
0.0
 40
1.135920693964289
100
AcDbArc
 50
298.2065157453
 51
301.7378713627
  0
ARC
  5
296
330
1F
100
AcDbEntity
  8
0
  6
SLD-Solid
 62
     7
370
    25
100
AcDbCircle
 10
18.0440409651
 20
27.8824488392
 30
0.0
 40
1.235920693964289
100
AcDbArc
 50
298.3516707721
 51
301.5972198204
  0
SPLINE
  5
297
330
1F
100
AcDbEntity
  8
0
  6
SLD-Solid
 62
     7
370
    25
100
AcDbSpline
210
0.0
220
0.0
230
1.0
 70
    24
 71
     3
 72
    24
 73
    20
 74
     0
 42
0.00000001
 43
0.00000001
 40
0.0
 40
0.0
 40
0.0
 40
0.0
 40
0.05272352302536
 40
0.1058131810580861
 40
0.1600575660676479
 40
0.2147009322346475
 40
0.2674244419813905
 40
0.3746622983333761
 40
0.4293047281394223
 40
0.4820379049757413
 40
0.5892946752959382
 40
0.643946261449128
 40
0.6967005160389066
 40
0.7498208233648793
 40
0.8040954015713417
 40
0.8587687329327548
 40
0.8938125888992736
 40
0.9644126716629846
 40
1.0
 40
1.0
 40
1.0
 40
1.0
 10
18.63095752123673
 20
26.79477751111715
 30
0.0
 10
18.6309244683835
 20
26.79483476033829
 30
0.0
 10
18.63085813314368
 20
26.79494965634399
 30
0.0
 10
18.63031733849941
 20
26.79588634014434
 30
0.0
 10
18.62944252814858
 20
26.79740155611895
 30
0.0
 10
18.62821176231434
 20
26.79953330507608
 30
0.0
 10
18.62613362172822
 20
26.8031327501565
 30
0.0
 10
18.62340288467394
 20
26.80786252547664
 30
0.0
 10
18.62008176908021
 20
26.81361486642276
 30
0.0
 10
18.61639109773386
 20
26.8200072967087
 30
0.0
 10
18.61217725754195
 20
26.82730588201605
 30
0.0
 10
18.60754126463492
 20
26.83533565727453
 30
0.0
 10
18.60388550239839
 20
26.84166762320863
 30
0.0
 10
18.60007875021
 20
26.84826111141073
 30
0.0
 10
18.59608947736839
 20
26.85517073465767
 30
0.0
 10
18.59244697071571
 20
26.861479741247
 30
0.0
 10
18.58832843784378
 20
26.86861324943384
 30
0.0
 10
18.58464579581003
 20
26.87499177254238
 30
0.0
 10
18.58186645837874
 20
26.87980572618475
 30
0.0
 10
18.58093499962387
 20
26.88141906007333
 30
0.0
  0
SPLINE
  5
298
330
1F
100
AcDbEntity
  8
0
  6
SLD-Solid
 62
     7
370
    25
100
AcDbSpline
210
0.0
220
0.0
230
1.0
 70
    24
 71
     3
 72
    24
 73
    20
 74
     0
 42
0.00000001
 43
0.00000001
 40
0.0
 40
0.0
 40
0.0
 40
0.0
 40
0.0527809402452547
 40
0.1059282453421465
 40
0.1602311293662249
 40
0.2149333629803541
 40
0.2677143246251831
 40
0.320861846569461
 40
0.3751656936033931
 40
0.4298691969007211
 40
0.482637621806749
 40
0.5899685774621612
 40
0.6446597745615273
 40
0.697406842034645
 40
0.8046941900759734
 40
0.8593630134661523
 40
0.89426095511372
 40
0.9645640551842998
 40
1.0
 40
1.0
 40
1.0
 40
1.0
 10
18.64157376388138
 20
26.91638963947114
 30
0.0
 10
18.64295557760284
 20
26.91399626789898
 30
0.0
 10
18.64572879653799
 20
26.90919291180277
 30
0.0
 10
18.64989481679886
 20
26.90197715304559
 30
0.0
 10
18.6540515854675
 20
26.89477741851621
 30
0.0
 10
18.65810879169689
 20
26.88775013119011
 30
0.0
 10
18.66201938041457
 20
26.88097679284357
 30
0.0
 10
18.6657779720785
 20
26.87446672111674
 30
0.0
 10
18.66940872367362
 20
26.86817807488434
 30
0.0
 10
18.67282982533697
 20
26.86225255298557
 30
0.0
 10
18.67707427665408
 20
26.85490094765407
 30
0.0
 10
18.6808393499667
 20
26.84837964938238
 30
0.0
 10
18.68402270256243
 20
26.84286592094817
 30
0.0
 10
18.6868039014238
 20
26.83804874321434
 30
0.0
 10
18.68895844001151
 20
26.83431697291356
 30
0.0
 10
18.69030477134897
 20
26.83198505863326
 30
0.0
 10
18.69110716287759
 20
26.83059527573811
 30
0.0
 10
18.69153287059237
 20
26.82985792834694
 30
0.0
 10
18.69157933764655
 20
26.82977744504823
 30
0.0
 10
18.69159490998285
 20
26.82975047297056
 30
0.0
  0
ARC
  5
299
330
1F
100
AcDbEntity
  8
0
  6
SLD-Solid
 62
     7
370
    25
100
AcDbCircle
 10
17.661838481
 20
27.7797427034
 30
0.0
 40
1.135920693964293
100
AcDbArc
 50
268.2065157453
 51
271.7378713627
  0
ARC
  5
29A
330
1F
100
AcDbEntity
  8
0
  6
SLD-Solid
 62
     7
370
    25
100
AcDbCircle
 10
17.661838481
 20
27.7797427034
 30
0.0
 40
1.235920693964294
100
AcDbArc
 50
268.3516707721
 51
271.5972198204
  0
SPLINE
  5
29B
330
1F
100
AcDbEntity
  8
0
  6
SLD-Solid
 62
     7
370
    25
100
AcDbSpline
210
0.0
220
0.0
230
1.0
 70
    24
 71
     3
 72
    24
 73
    20
 74
     0
 42
0.00000001
 43
0.00000001
 40
0.0
 40
0.0
 40
0.0
 40
0.0
 40
0.0527235230253602
 40
0.1058131810580854
 40
0.1600575660676458
 40
0.2147009322346488
 40
0.2674244419813887
 40
0.3746622983333671
 40
0.4293047281394173
 40
0.4820379049757369
 40
0.589294675295928
 40
0.6439462614491187
 40
0.6967005160388975
 40
0.7498208233648733
 40
0.8040954015713293
 40
0.8587687329327407
 40
0.8938125888992685
 40
0.9644126716629793
 40
1.0
 40
1.0
 40
1.0
 40
1.0
 10
17.62628746446614
 20
26.54433342421592
 30
0.0
 10
17.62628746446614
 20
26.54439952992239
 30
0.0
 10
17.62628746446614
 20
26.54453220040203
 30
0.0
 10
17.62628746446614
 20
26.54561378969056
 30
0.0
 10
17.62628746446614
 20
26.54736341039223
 30
0.0
 10
17.62628746446614
 20
26.54982494206072
 30
0.0
 10
17.62628746446614
 20
26.55398122323294
 30
0.0
 10
17.62628746446613
 20
26.5594426973415
 30
0.0
 10
17.62628746446614
 20
26.56608492852894
 30
0.0
 10
17.62628746446614
 20
26.57346627122167
 30
0.0
 10
17.62628746446614
 20
26.58189395160547
 30
0.0
 10
17.62628746446614
 20
26.59116593741952
 30
0.0
 10
17.62628746446614
 20
26.59847746189261
 30
0.0
 10
17.62628746446614
 20
26.60609096626938
 30
0.0
 10
17.62628746446613
 20
26.6140695119526
 30
0.0
 10
17.62628746446614
 20
26.62135452525795
 30
0.0
 10
17.62628746446614
 20
26.62959159100182
 30
0.0
 10
17.62628746446614
 20
26.63695687506933
 30
0.0
 10
17.62628746446614
 20
26.6425155499319
 30
0.0
 10
17.62628746446614
 20
26.64437846744164
 30
0.0
  0
SPLINE
  5
29C
330
1F
100
AcDbEntity
  8
0
  6
SLD-Solid
 62
     7
370
    25
100
AcDbSpline
210
0.0
220
0.0
230
1.0
 70
    24
 71
     3
 72
    24
 73
    20
 74
     0
 42
0.00000001
 43
0.00000001
 40
0.0
 40
0.0
 40
0.0
 40
0.0
 40
0.0527809402452527
 40
0.105928245342146
 40
0.1602311293662216
 40
0.2149333629803427
 40
0.2677143246251831
 40
0.3208618465694641
 40
0.3751656936033905
 40
0.4298691969007186
 40
0.4826376218067447
 40
0.5899685774621543
 40
0.644659774561521
 40
0.6974068420346378
 40
0.8046941900759724
 40
0.8593630134661464
 40
0.8942609551137185
 40
0.9645640551842994
 40
1.0
 40
1.0
 40
1.0
 40
1.0
 10
17.69628746446614
 20
26.64434449545644
 30
0.0
 10
17.69628746446614
 20
26.64158086801353
 30
0.0
 10
17.69628746446613
 20
26.63603443014319
 30
0.0
 10
17.69628746446614
 20
26.62770238962147
 30
0.0
 10
17.69628746446614
 20
26.61938885228421
 30
0.0
 10
17.69628746446613
 20
26.61127443982541
 30
0.0
 10
17.69628746446614
 20
26.60345326239005
 30
0.0
 10
17.69628746446613
 20
26.59593607906218
 30
0.0
 10
17.69628746446614
 20
26.58867457587197
 30
0.0
 10
17.69628746446614
 20
26.58183237254526
 30
0.0
 10
17.69628746446613
 20
26.57334346991103
 30
0.0
 10
17.69628746446614
 20
26.56581332328578
 30
0.0
 10
17.69628746446614
 20
26.55944661809433
 30
0.0
 10
17.69628746446614
 20
26.55388422037159
 30
0.0
 10
17.69628746446614
 20
26.54957514319619
 30
0.0
 10
17.69628746446614
 20
26.54688248052126
 30
0.0
 10
17.69628746446614
 20
26.54527769746401
 30
0.0
 10
17.69628746446614
 20
26.54442628203445
 30
0.0
 10
17.69628746446614
 20
26.5443333479261
 30
0.0
 10
17.69628746446614
 20
26.54430220325349
 30
0.0
  0
ARC
  5
29D
330
1F
100
AcDbEntity
  8
0
  6
SLD-Solid
 62
     7
370
    25
100
AcDbCircle
 10
17.2794883524
 20
27.8818978227
 30
0.0
 40
1.135920693964292
100
AcDbArc
 50
238.2065157453
 51
241.7378713627
  0
ARC
  5
29E
330
1F
100
AcDbEntity
  8
0
  6
SLD-Solid
 62
     7
370
    25
100
AcDbCircle
 10
17.2794883524
 20
27.8818978227
 30
0.0
 40
1.23592069396429
100
AcDbArc
 50
238.3516707721
 51
241.5972198204
  0
SPLINE
  5
29F
330
1F
100
AcDbEntity
  8
0
  6
SLD-Solid
 62
     7
370
    25
100
AcDbSpline
210
0.0
220
0.0
230
1.0
 70
    24
 71
     3
 72
    24
 73
    20
 74
     0
 42
0.00000001
 43
0.00000001
 40
0.0
 40
0.0
 40
0.0
 40
0.0
 40
0.052719769266505
 40
0.1058056474726471
 40
0.1600461704424804
 40
0.2146856461634777
 40
0.3207848459964044
 40
0.3746386038278389
 40
0.429277143254549
 40
0.4820065656446862
 40
0.5354878790070859
 40
0.5893510274020698
 40
0.6439987225240076
 40
0.6967492211669364
 40
0.7498657464841908
 40
0.8041364605012433
 40
0.8588058992832237
 40
0.929077368525304
 40
1.0
 40
1.0
 40
1.0
 40
1.0
 10
16.63099562943064
 20
26.82977751111714
 30
0.0
 10
16.63102868670236
 20
26.82983476799131
 30
0.0
 10
16.63109503080981
 20
26.82994967935619
 30
0.0
 10
16.6316357581068
 20
26.83088624650762
 30
0.0
 10
16.63251083077607
 20
26.83240191683111
 30
0.0
 10
16.63414683817197
 20
26.83523556476237
 30
0.0
 10
16.63645341745837
 20
26.8392306772781
 30
0.0
 10
16.63937588664531
 20
26.84429254239346
 30
0.0
 10
16.64187128353341
 20
26.84861469658868
 30
0.0
 10
16.6446382119936
 20
26.85340715726264
 30
0.0
 10
16.64764603430266
 20
26.85861685832206
 30
0.0
 10
16.65092824807884
 20
26.86430181934371
 30
0.0
 10
16.65441206071823
 20
26.87033595983919
 30
0.0
 10
16.6580676123498
 20
26.87666756099477
 30
0.0
 10
16.66187437034239
 20
26.88326105925004
 30
0.0
 10
16.66586383507182
 20
26.89017101485641
 30
0.0
 10
16.67039675125196
 20
26.89802225598688
 30
0.0
 10
16.67546321735644
 20
26.90679763269467
 30
0.0
 10
16.67916082224778
 20
26.91320207223278
 30
0.0
 10
16.6810181510435
 20
26.91641906007333
 30
0.0
  0
SPLINE
  5
2A0
330
1F
100
AcDbEntity
  8
0
  6
SLD-Solid
 62
     7
370
    25
100
AcDbSpline
210
0.0
220
0.0
230
1.0
 70
    24
 71
     3
 72
    24
 73
    20
 74
     0
 42
0.00000001
 43
0.00000001
 40
0.0
 40
0.0
 40
0.0
 40
0.0
 40
0.0527771543008274
 40
0.1059206471741446
 40
0.1602196360856929
 40
0.2149179459421939
 40
0.2676951216410515
 40
0.3208388313462132
 40
0.3751387831985391
 40
0.4298383626471612
 40
0.4826030025064695
 40
0.5361210524025228
 40
0.5900218121104971
 40
0.644709086243878
 40
0.7508562068259237
 40
0.8047350380503625
 40
0.8593999400794009
 40
0.9293776641707298
 40
1.0
 40
1.0
 40
1.0
 40
1.0
 10
16.74162294331581
 20
26.88138963947112
 30
0.0
 10
16.74024112958977
 20
26.87899626789103
 30
0.0
 10
16.73746791064541
 20
26.87419291177887
 30
0.0
 10
16.73330189045444
 20
26.86697715314276
 30
0.0
 10
16.72914512151355
 20
26.85977741814182
 30
0.0
 10
16.72508791630118
 20
26.85275013257727
 30
0.0
 10
16.72117732390267
 20
26.84597678785534
 30
0.0
 10
16.71741874606247
 20
26.83946674007192
 30
0.0
 10
16.71378794156618
 20
26.83317800221199
 30
0.0
 10
16.71036703725482
 20
26.82725282213688
 30
0.0
 10
16.70718512391706
 20
26.82174158657061
 30
0.0
 10
16.70425964978003
 20
26.81667451672904
 30
0.0
 10
16.70156616495422
 20
26.81200926416131
 30
0.0
 10
16.69838232640959
 20
26.80649469403893
 30
0.0
 10
16.69579849004295
 20
26.80201935817346
 30
0.0
 10
16.69387222122777
 20
26.79868296271654
 30
0.0
 10
16.69265826886159
 20
26.79658033554035
 30
0.0
 10
16.69177889350511
 20
26.79505721274398
 30
0.0
 10
16.69166100946632
 20
26.79485303159941
 30
0.0
 10
16.69160179721434
 20
26.79475047297055
 30
0.0
  0
ARC
  5
2A1
330
1F
100
AcDbEntity
  8
0
  6
SLD-Solid
 62
     7
370
    25
100
AcDbCircle
 10
17.6612874645
 20
28.544295316
 30
0.0
 40
1.774999999999999
100
AcDbArc
 50
211.1298491586
 51
238.8701508414
  0
ARC
  5
2A2
330
1F
100
AcDbEntity
  8
0
  6
SLD-Solid
 62
     7
370
    25
100
AcDbCircle
 10
17.6612874645
 20
28.544295316
 30
0.0
 40
1.775
100
AcDbArc
 50
181.1298491586
 51
208.8701508414
  0
ARC
  5
2A3
330
1F
100
AcDbEntity
  8
0
  6
SLD-Solid
 62
     7
370
    25
100
AcDbCircle
 10
17.6612874645
 20
28.544295316
 30
0.0
 40
1.774999999999998
100
AcDbArc
 50
151.1298491586
 51
178.8701508414
  0
ARC
  5
2A4
330
1F
100
AcDbEntity
  8
0
  6
SLD-Solid
 62
     7
370
    25
100
AcDbCircle
 10
17.6612874645
 20
28.544295316
 30
0.0
 40
1.774999999999998
100
AcDbArc
 50
121.1298491586
 51
148.8701508414
  0
ARC
  5
2A5
330
1F
100
AcDbEntity
  8
0
  6
SLD-Solid
 62
     7
370
    25
100
AcDbCircle
 10
17.6612874645
 20
28.544295316
 30
0.0
 40
1.774999999999996
100
AcDbArc
 50
91.1298491586
 51
118.8701508414
  0
ARC
  5
2A6
330
1F
100
AcDbEntity
  8
0
  6
SLD-Solid
 62
     7
370
    25
100
AcDbCircle
 10
17.6612874645
 20
28.544295316
 30
0.0
 40
1.775000000000003
100
AcDbArc
 50
61.1298491586
 51
88.8701508414
  0
ARC
  5
2A7
330
1F
100
AcDbEntity
  8
0
  6
SLD-Solid
 62
     7
370
    25
100
AcDbCircle
 10
17.6612874645
 20
28.544295316
 30
0.0
 40
1.775000000000001
100
AcDbArc
 50
31.1298491586
 51
58.8701508414
  0
ARC
  5
2A8
330
1F
100
AcDbEntity
  8
0
  6
SLD-Solid
 62
     7
370
    25
100
AcDbCircle
 10
17.6612874645
 20
28.544295316
 30
0.0
 40
1.775
100
AcDbArc
 50
1.1298491586
 51
28.8701508414
  0
ARC
  5
2A9
330
1F
100
AcDbEntity
  8
0
  6
SLD-Solid
 62
     7
370
    25
100
AcDbCircle
 10
17.6612874645
 20
28.544295316
 30
0.0
 40
1.775
100
AcDbArc
 50
331.1298491586
 51
358.8701508414
  0
ARC
  5
2AA
330
1F
100
AcDbEntity
  8
0
  6
SLD-Solid
 62
     7
370
    25
100
AcDbCircle
 10
17.6612874645
 20
28.544295316
 30
0.0
 40
1.775000000000001
100
AcDbArc
 50
301.1298491586
 51
328.8701508414
  0
ARC
  5
2AB
330
1F
100
AcDbEntity
  8
0
  6
SLD-Solid
 62
     7
370
    25
100
AcDbCircle
 10
17.6612874645
 20
28.544295316
 30
0.0
 40
1.774999999999998
100
AcDbArc
 50
271.1298491586
 51
298.8701508414
  0
ARC
  5
2AC
330
1F
100
AcDbEntity
  8
0
  6
SLD-Solid
 62
     7
370
    25
100
AcDbCircle
 10
17.6612874645
 20
28.544295316
 30
0.0
 40
1.774999999999999
100
AcDbArc
 50
241.1298491586
 51
268.8701508414
  0
LINE
  5
2AD
330
1F
100
AcDbEntity
  8
0
  6
SLD-Solid
 62
     7
370
    25
100
AcDbLine
 10
17.6262874645
 20
26.76964042
 30
0.0
 11
17.6262874645
 21
26.6443784674
 31
0.0
  0
LINE
  5
2AE
330
1F
100
AcDbEntity
  8
0
  6
SLD-Solid
 62
     7
370
    25
100
AcDbLine
 10
16.7436491273
 20
27.0248990931
 30
0.0
 11
16.681018151
 21
26.9164190601
 31
0.0
  0
LINE
  5
2AF
330
1F
100
AcDbEntity
  8
0
  6
SLD-Solid
 62
     7
370
    25
100
AcDbLine
 10
18.5183040233
 20
26.9898990931
 30
0.0
 11
18.5809349996
 21
26.8814190601
 31
0.0
  0
LINE
  5
2B0
330
1F
100
AcDbEntity
  8
0
  6
SLD-Solid
 62
     7
370
    25
100
AcDbLine
 10
19.1806836874
 20
27.6266569789
 30
0.0
 11
19.2891637204
 21
27.5640260026
 31
0.0
  0
LINE
  5
2B1
330
1F
100
AcDbEntity
  8
0
  6
SLD-Solid
 62
     7
370
    25
100
AcDbLine
 10
16.1068912416
 20
27.6872787571
 30
0.0
 11
15.9984112085
 21
27.6246477809
 31
0.0
  0
LINE
  5
2B2
330
1F
100
AcDbEntity
  8
0
  6
SLD-Solid
 62
     7
370
    25
100
AcDbLine
 10
19.4359423605
 20
28.509295316
 30
0.0
 11
19.561204313
 21
28.509295316
 31
0.0
  0
LINE
  5
2B3
330
1F
100
AcDbEntity
  8
0
  6
SLD-Solid
 62
     7
370
    25
100
AcDbLine
 10
15.8866325684
 20
28.579295316
 30
0.0
 11
15.7613706159
 21
28.579295316
 31
0.0
  0
LINE
  5
2B4
330
1F
100
AcDbEntity
  8
0
  6
SLD-Solid
 62
     7
370
    25
100
AcDbLine
 10
19.2156836874
 20
29.4013118749
 30
0.0
 11
19.3241637204
 21
29.4639428512
 31
0.0
  0
LINE
  5
2B5
330
1F
100
AcDbEntity
  8
0
  6
SLD-Solid
 62
     7
370
    25
100
AcDbLine
 10
16.1418912416
 20
29.4619336532
 30
0.0
 11
16.0334112085
 21
29.5245646294
 31
0.0
  0
LINE
  5
2B6
330
1F
100
AcDbEntity
  8
0
  6
SLD-Solid
 62
     7
370
    25
100
AcDbLine
 10
18.5789258016
 20
30.0636915389
 30
0.0
 11
18.6415567779
 21
30.172171572
 31
0.0
  0
LINE
  5
2B7
330
1F
100
AcDbEntity
  8
0
  6
SLD-Solid
 62
     7
370
    25
100
AcDbLine
 10
16.8042709056
 20
30.0986915389
 30
0.0
 11
16.7416399293
 21
30.207171572
 31
0.0
  0
LINE
  5
2B8
330
1F
100
AcDbEntity
  8
0
  6
SLD-Solid
 62
     7
370
    25
100
AcDbLine
 10
17.6962874645
 20
30.3189502121
 30
0.0
 11
17.6962874645
 21
30.4442121646
 31
0.0
  0
LINE
  5
2B9
330
1F
100
AcDbEntity
  8
0
  6
SLD-Solid
 62
     7
370
    25
100
AcDbLine
 10
16.7416229433
 20
26.8813896395
 30
0.0
 11
16.8042709056
 21
26.9898990931
 31
0.0
  0
LINE
  5
2BA
330
1F
100
AcDbEntity
  8
0
  6
SLD-Solid
 62
     7
370
    25
100
AcDbLine
 10
17.6962874645
 20
26.6443444955
 30
0.0
 11
17.6962874645
 21
26.76964042
 31
0.0
  0
LINE
  5
2BB
330
1F
100
AcDbEntity
  8
0
  6
SLD-Solid
 62
     7
370
    25
100
AcDbLine
 10
18.6415737639
 20
26.9163896395
 30
0.0
 11
18.5789258016
 21
27.0248990931
 31
0.0
  0
LINE
  5
2BC
330
1F
100
AcDbEntity
  8
0
  6
SLD-Solid
 62
     7
370
    25
100
AcDbLine
 10
19.324193141
 20
27.6246307949
 30
0.0
 11
19.2156836874
 21
27.6872787571
 31
0.0
  0
LINE
  5
2BD
330
1F
100
AcDbEntity
  8
0
  6
SLD-Solid
 62
     7
370
    25
100
AcDbLine
 10
16.0333817879
 20
27.5640090166
 30
0.0
 11
16.1418912416
 21
27.6266569789
 31
0.0
  0
LINE
  5
2BE
330
1F
100
AcDbEntity
  8
0
  6
SLD-Solid
 62
     7
370
    25
100
AcDbLine
 10
15.7613366439
 20
28.509295316
 30
0.0
 11
15.8866325684
 21
28.509295316
 31
0.0
  0
LINE
  5
2BF
330
1F
100
AcDbEntity
  8
0
  6
SLD-Solid
 62
     7
370
    25
100
AcDbLine
 10
15.9983817879
 20
29.4639598372
 30
0.0
 11
16.1068912416
 21
29.4013118749
 31
0.0
  0
LINE
  5
2C0
330
1F
100
AcDbEntity
  8
0
  6
SLD-Solid
 62
     7
370
    25
100
AcDbLine
 10
19.289193141
 20
29.5245816154
 30
0.0
 11
19.1806836874
 21
29.4619336532
 31
0.0
  0
LINE
  5
2C1
330
1F
100
AcDbEntity
  8
0
  6
SLD-Solid
 62
     7
370
    25
100
AcDbLine
 10
19.561238285
 20
28.579295316
 30
0.0
 11
19.4359423605
 21
28.579295316
 31
0.0
  0
LINE
  5
2C2
330
1F
100
AcDbEntity
  8
0
  6
SLD-Solid
 62
     7
370
    25
100
AcDbLine
 10
18.5809519856
 20
30.2072009926
 30
0.0
 11
18.5183040233
 21
30.0986915389
 31
0.0
  0
LINE
  5
2C3
330
1F
100
AcDbEntity
  8
0
  6
SLD-Solid
 62
     7
370
    25
100
AcDbLine
 10
16.6810011651
 20
30.1722009926
 30
0.0
 11
16.7436491273
 21
30.0636915389
 31
0.0
  0
LINE
  5
2C4
330
1F
100
AcDbEntity
  8
0
  6
SLD-Solid
 62
     7
370
    25
100
AcDbLine
 10
17.6262874645
 20
30.4442461366
 30
0.0
 11
17.6262874645
 21
30.3189502121
 31
0.0
  0
ARC
  5
2C5
330
1F
100
AcDbEntity
  8
0
  6
SLD-Solid
 62
     7
370
    25
100
AcDbCircle
 10
17.6612874645
 20
28.544295316
 30
0.0
 40
2.000000000000004
100
AcDbArc
 50
91.0027273268
 51
118.9972726732
  0
ARC
  5
2C6
330
1F
100
AcDbEntity
  8
0
  6
SLD-Solid
 62
     7
370
    25
100
AcDbCircle
 10
17.6612874645
 20
28.544295316
 30
0.0
 40
2.000000000000003
100
AcDbArc
 50
61.0027273268
 51
88.9972726732
  0
ARC
  5
2C7
330
1F
100
AcDbEntity
  8
0
  6
SLD-Solid
 62
     7
370
    25
100
AcDbCircle
 10
17.6612874645
 20
28.544295316
 30
0.0
 40
2.000000000000002
100
AcDbArc
 50
121.0027273268
 51
148.9972726732
  0
ARC
  5
2C8
330
1F
100
AcDbEntity
  8
0
  6
SLD-Solid
 62
     7
370
    25
100
AcDbCircle
 10
17.6612874645
 20
28.544295316
 30
0.0
 40
2.000000000000002
100
AcDbArc
 50
31.0027273268
 51
58.9972726732
  0
ARC
  5
2C9
330
1F
100
AcDbEntity
  8
0
  6
SLD-Solid
 62
     7
370
    25
100
AcDbCircle
 10
17.6612874645
 20
28.544295316
 30
0.0
 40
2.000000000000001
100
AcDbArc
 50
151.0027273268
 51
178.9972726732
  0
ARC
  5
2CA
330
1F
100
AcDbEntity
  8
0
  6
SLD-Solid
 62
     7
370
    25
100
AcDbCircle
 10
17.6612874645
 20
28.544295316
 30
0.0
 40
2.000000000000004
100
AcDbArc
 50
1.0027273268
 51
28.9972726732
  0
ARC
  5
2CB
330
1F
100
AcDbEntity
  8
0
  6
SLD-Solid
 62
     7
370
    25
100
AcDbCircle
 10
17.6612874645
 20
28.544295316
 30
0.0
 40
2.000000000000002
100
AcDbArc
 50
181.0027273268
 51
208.9972726732
  0
ARC
  5
2CC
330
1F
100
AcDbEntity
  8
0
  6
SLD-Solid
 62
     7
370
    25
100
AcDbCircle
 10
17.6612874645
 20
28.544295316
 30
0.0
 40
2.000000000000003
100
AcDbArc
 50
331.0027273268
 51
358.9972726732
  0
ARC
  5
2CD
330
1F
100
AcDbEntity
  8
0
  6
SLD-Solid
 62
     7
370
    25
100
AcDbCircle
 10
17.6612874645
 20
28.544295316
 30
0.0
 40
2.0
100
AcDbArc
 50
211.0027273268
 51
238.9972726732
  0
ARC
  5
2CE
330
1F
100
AcDbEntity
  8
0
  6
SLD-Solid
 62
     7
370
    25
100
AcDbCircle
 10
17.6612874645
 20
28.544295316
 30
0.0
 40
2.000000000000001
100
AcDbArc
 50
301.0027273268
 51
328.9972726732
  0
ARC
  5
2CF
330
1F
100
AcDbEntity
  8
0
  6
SLD-Solid
 62
     7
370
    25
100
AcDbCircle
 10
17.6612874645
 20
28.544295316
 30
0.0
 40
2.000000000000003
100
AcDbArc
 50
241.0027273268
 51
268.9972726732
  0
ARC
  5
2D0
330
1F
100
AcDbEntity
  8
0
  6
SLD-Solid
 62
     7
370
    25
100
AcDbCircle
 10
17.6612874645
 20
28.544295316
 30
0.0
 40
2.000000000000004
100
AcDbArc
 50
271.0027273268
 51
298.9972726732
  0
ARC
  5
2D1
330
1F
100
AcDbEntity
  8
0
  6
SLD-Solid
 62
     7
370
    25
100
AcDbCircle
 10
15.6112874645
 20
30.594295316
 30
0.0
 40
0.6999999999999993
100
AcDbArc
 50
90.0
 51
180.0
  0
ARC
  5
2D2
330
1F
100
AcDbEntity
  8
0
  6
SLD-Solid
 62
     7
370
    25
100
AcDbCircle
 10
19.7112874645
 20
30.594295316
 30
0.0
 40
0.6999999999999957
100
AcDbArc
 50
0.0
 51
90.0
  0
LINE
  5
2D3
330
1F
100
AcDbEntity
  8
0
  6
SLD-Solid
 62
     7
370
    25
100
AcDbLine
 10
15.6112874645
 20
31.294295316
 30
0.0
 11
19.7112874645
 21
31.294295316
 31
0.0
  0
LINE
  5
2D4
330
1F
100
AcDbEntity
  8
0
  6
SLD-Solid
 62
     7
370
    25
100
AcDbLine
 10
14.9112874645
 20
26.494295316
 30
0.0
 11
14.9112874645
 21
30.594295316
 31
0.0
  0
LINE
  5
2D5
330
1F
100
AcDbEntity
  8
0
  6
SLD-Solid
 62
     7
370
    25
100
AcDbLine
 10
20.4112874645
 20
26.494295316
 30
0.0
 11
20.4112874645
 21
30.594295316
 31
0.0
  0
ARC
  5
2D6
330
1F
100
AcDbEntity
  8
0
  6
SLD-Solid
 62
     7
370
    25
100
AcDbCircle
 10
19.7112874645
 20
26.494295316
 30
0.0
 40
0.6999999999999993
100
AcDbArc
 50
270.0
 51
0.0
  0
ARC
  5
2D7
330
1F
100
AcDbEntity
  8
0
  6
SLD-Solid
 62
     7
370
    25
100
AcDbCircle
 10
15.6112874645
 20
26.494295316
 30
0.0
 40
0.6999999999999993
100
AcDbArc
 50
180.0
 51
270.0
  0
LINE
  5
2D8
330
1F
100
AcDbEntity
  8
0
  6
SLD-Solid
 62
     7
370
    25
100
AcDbLine
 10
15.6112874645
 20
25.794295316
 30
0.0
 11
19.7112874645
 21
25.794295316
 31
0.0
  0
DIMENSION
  5
2D9
330
1F
100
AcDbEntity
  8
DIMS
100
AcDbDimension
  2
_D_1
 10
20.4112874645
 20
23.5108307491
 30
0.0
 11
17.7956246293
 21
23.5108307491
 31
0.0
 70
   160
  1
<>
 71
     2
 42
-1.0
  3
SLDDIMSTYLE0
100
AcDbAlignedDimension
 13
14.9112874645
 23
26.494295316
 33
0.0
 14
20.4112874645
 24
26.494295316
 34
0.0
100
AcDbRotatedDimension
  0
DIMENSION
  5
2E8
330
1F
100
AcDbEntity
  8
DIMS
100
AcDbDimension
  2
_D_2
 10
21.5136496692
 20
31.294295316
 30
0.0
 11
21.5136496692
 21
28.625284308
 31
0.0
 70
   160
  1
<>
 71
     2
 42
-1.0
  3
SLDDIMSTYLE0
100
AcDbAlignedDimension
 13
19.7112874645
 23
25.794295316
 33
0.0
 14
19.7112874645
 24
31.294295316
 34
0.0
 50
90.0
100
AcDbRotatedDimension
  0
ENDSEC
  0
SECTION
  2
OBJECTS
  0
DICTIONARY
  5
C
330
0
100
AcDbDictionary
281
     1
  3
ACAD_GROUP
350
D
  3
ACAD_LAYOUT
350
1A
  3
ACAD_MLINESTYLE
350
17
  3
ACAD_PLOTSETTINGS
350
19
  3
ACAD_PLOTSTYLENAME
350
E
  3
ACAD_SCALELIST
350
47
  3
DWGPROPS
350
2F7
  0
DICTIONARY
  5
D
102
{ACAD_REACTORS
330
C
102
}
330
C
100
AcDbDictionary
281
     1
  0
DICTIONARY
  5
1A
102
{ACAD_REACTORS
330
C
102
}
330
C
100
AcDbDictionary
281
     1
  3
Layout1
350
1E
  3
Layout2
350
26
  3
Model
350
22
  0
DICTIONARY
  5
17
102
{ACAD_REACTORS
330
C
102
}
330
C
100
AcDbDictionary
281
     1
  3
Standard
350
18
  0
DICTIONARY
  5
19
102
{ACAD_REACTORS
330
C
102
}
330
C
100
AcDbDictionary
281
     1
  0
ACDBDICTIONARYWDFLT
  5
E
102
{ACAD_REACTORS
330
C
102
}
330
C
100
AcDbDictionary
281
     1
  3
Normal
350
F
100
AcDbDictionaryWithDefault
340
F
  0
DICTIONARY
  5
47
102
{ACAD_REACTORS
330
C
102
}
330
C
100
AcDbDictionary
281
     1
  3
A0
350
48
  3
A1
350
49
  3
A2
350
4A
  3
A3
350
4B
  3
A4
350
4C
  3
A5
350
4D
  3
A6
350
4E
  3
A7
350
4F
  3
A8
350
50
  3
A9
350
51
  3
B0
350
52
  3
B1
350
53
  3
B2
350
54
  3
B3
350
55
  3
B4
350
56
  3
B5
350
57
  3
B6
350
58
  3
B7
350
59
  3
B8
350
5A
  3
B9
350
5B
  3
C0
350
5C
  3
C1
350
5D
  3
C2
350
5E
  3
C3
350
5F
  3
C4
350
60
  3
C5
350
61
  3
C6
350
62
  3
C7
350
63
  3
C8
350
64
  3
C9
350
65
  3
D0
350
66
  3
D1
350
67
  3
D2
350
68
  0
XRECORD
  5
2F7
102
{ACAD_REACTORS
330
C
102
}
330
C
100
AcDbXrecord
280
     1
  1
DWGPROPS COOKIE
  2

  3

  4

  6

  7

  8
carl
  9

300
=
301
=
302
=
303
=
304
=
305
=
306
=
307
=
308
=
309
=
 40
0.0
 41
2459461.559687639
 42
2459461.559691262
  1

 90
        0
  0
LAYOUT
  5
1E
102
{ACAD_REACTORS
330
1A
102
}
330
1A
100
AcDbPlotSettings
  1

  2
none_device
  4

  6

 40
0.0
 41
0.0
 42
0.0
 43
0.0
 44
0.0
 45
0.0
 46
0.0
 47
0.0
 48
0.0
 49
0.0
140
0.0
141
0.0
142
1.0
143
1.0
 70
   688
 72
     0
 73
     0
 74
     5
  7

 75
    16
147
1.0
148
0.0
149
0.0
100
AcDbLayout
  1
Layout1
 70
     1
 71
     1
 10
0.0
 20
0.0
 11
12.0
 21
9.0
 12
0.0
 22
0.0
 32
0.0
 14
1.0000000000E+20
 24
1.0000000000E+20
 34
1.0000000000E+20
 15
-1.0000000000E+20
 25
-1.0000000000E+20
 35
-1.0000000000E+20
146
0.0
 13
0.0
 23
0.0
 33
0.0
 16
1.0
 26
0.0
 36
0.0
 17
0.0
 27
1.0
 37
0.0
 76
     0
330
1B
  0
LAYOUT
  5
26
102
{ACAD_REACTORS
330
1A
102
}
330
1A
100
AcDbPlotSettings
  1

  2
none_device
  4

  6

 40
0.0
 41
0.0
 42
0.0
 43
0.0
 44
0.0
 45
0.0
 46
0.0
 47
0.0
 48
0.0
 49
0.0
140
0.0
141
0.0
142
1.0
143
1.0
 70
   688
 72
     0
 73
     0
 74
     5
  7

 75
    16
147
1.0
148
0.0
149
0.0
100
AcDbLayout
  1
Layout2
 70
     1
 71
     2
 10
0.0
 20
0.0
 11
0.0
 21
0.0
 12
0.0
 22
0.0
 32
0.0
 14
0.0
 24
0.0
 34
0.0
 15
0.0
 25
0.0
 35
0.0
146
0.0
 13
0.0
 23
0.0
 33
0.0
 16
1.0
 26
0.0
 36
0.0
 17
0.0
 27
1.0
 37
0.0
 76
     0
330
23
  0
LAYOUT
  5
22
102
{ACAD_REACTORS
330
1A
102
}
330
1A
100
AcDbPlotSettings
  1

  2
none_device
  4
Letter_(8.50_x_11.00_Inches)
  6

 40
6.35
 41
6.35
 42
6.35000508
 43
6.35000508
 44
215.9
 45
279.4
 46
0.0
 47
0.0
 48
0.0
 49
0.0
140
0.0
141
0.0
142
1.0
143
1.0
 70
  1712
 72
     0
 73
     0
 74
     0
  7

 75
     0
147
1.0
148
0.0
149
0.0
100
AcDbLayout
  1
Model
 70
     1
 71
     0
 10
0.0
 20
0.0
 11
48.0
 21
36.0
 12
0.0
 22
0.0
 32
0.0
 14
0.0
 24
0.0
 34
0.0
 15
48.0
 25
36.0
 35
0.0
146
0.0
 13
0.0
 23
0.0
 33
0.0
 16
1.0
 26
0.0
 36
0.0
 17
0.0
 27
1.0
 37
0.0
 76
     0
330
1F
331
29
  0
MLINESTYLE
  5
18
102
{ACAD_REACTORS
330
17
102
}
330
17
100
AcDbMlineStyle
  2
Standard
 70
     0
  3

 62
   256
 51
90.0
 52
90.0
 71
     2
 49
0.5
 62
   256
  6
BYLAYER
 49
-0.5
 62
   256
  6
BYLAYER
  0
ACDBPLACEHOLDER
  5
F
102
{ACAD_REACTORS
330
E
102
}
330
E
  0
SCALE
  5
48
102
{ACAD_REACTORS
330
47
102
}
330
47
100
AcDbScale
 70
     0
300
1:1
140
1.0
141
1.0
290
     1
  0
SCALE
  5
49
102
{ACAD_REACTORS
330
47
102
}
330
47
100
AcDbScale
 70
     0
300
1:2
140
1.0
141
2.0
290
     0
  0
SCALE
  5
4A
102
{ACAD_REACTORS
330
47
102
}
330
47
100
AcDbScale
 70
     0
300
1:4
140
1.0
141
4.0
290
     0
  0
SCALE
  5
4B
102
{ACAD_REACTORS
330
47
102
}
330
47
100
AcDbScale
 70
     0
300
1:5
140
1.0
141
5.0
290
     0
  0
SCALE
  5
4C
102
{ACAD_REACTORS
330
47
102
}
330
47
100
AcDbScale
 70
     0
300
1:8
140
1.0
141
8.0
290
     0
  0
SCALE
  5
4D
102
{ACAD_REACTORS
330
47
102
}
330
47
100
AcDbScale
 70
     0
300
1:10
140
1.0
141
10.0
290
     0
  0
SCALE
  5
4E
102
{ACAD_REACTORS
330
47
102
}
330
47
100
AcDbScale
 70
     0
300
1:16
140
1.0
141
16.0
290
     0
  0
SCALE
  5
4F
102
{ACAD_REACTORS
330
47
102
}
330
47
100
AcDbScale
 70
     0
300
1:20
140
1.0
141
20.0
290
     0
  0
SCALE
  5
50
102
{ACAD_REACTORS
330
47
102
}
330
47
100
AcDbScale
 70
     0
300
1:30
140
1.0
141
30.0
290
     0
  0
SCALE
  5
51
102
{ACAD_REACTORS
330
47
102
}
330
47
100
AcDbScale
 70
     0
300
1:40
140
1.0
141
40.0
290
     0
  0
SCALE
  5
52
102
{ACAD_REACTORS
330
47
102
}
330
47
100
AcDbScale
 70
     0
300
1:50
140
1.0
141
50.0
290
     0
  0
SCALE
  5
53
102
{ACAD_REACTORS
330
47
102
}
330
47
100
AcDbScale
 70
     0
300
1:100
140
1.0
141
100.0
290
     0
  0
SCALE
  5
54
102
{ACAD_REACTORS
330
47
102
}
330
47
100
AcDbScale
 70
     0
300
2:1
140
2.0
141
1.0
290
     0
  0
SCALE
  5
55
102
{ACAD_REACTORS
330
47
102
}
330
47
100
AcDbScale
 70
     0
300
4:1
140
4.0
141
1.0
290
     0
  0
SCALE
  5
56
102
{ACAD_REACTORS
330
47
102
}
330
47
100
AcDbScale
 70
     0
300
8:1
140
8.0
141
1.0
290
     0
  0
SCALE
  5
57
102
{ACAD_REACTORS
330
47
102
}
330
47
100
AcDbScale
 70
     0
300
10:1
140
10.0
141
1.0
290
     0
  0
SCALE
  5
58
102
{ACAD_REACTORS
330
47
102
}
330
47
100
AcDbScale
 70
     0
300
100:1
140
100.0
141
1.0
290
     0
  0
SCALE
  5
59
102
{ACAD_REACTORS
330
47
102
}
330
47
100
AcDbScale
 70
     0
300
1/128" = 1'-0"
140
0.0078125
141
12.0
290
     0
  0
SCALE
  5
5A
102
{ACAD_REACTORS
330
47
102
}
330
47
100
AcDbScale
 70
     0
300
1/64" = 1'-0"
140
0.015625
141
12.0
290
     0
  0
SCALE
  5
5B
102
{ACAD_REACTORS
330
47
102
}
330
47
100
AcDbScale
 70
     0
300
1/32" = 1'-0"
140
0.03125
141
12.0
290
     0
  0
SCALE
  5
5C
102
{ACAD_REACTORS
330
47
102
}
330
47
100
AcDbScale
 70
     0
300
1/16" = 1'-0"
140
0.0625
141
12.0
290
     0
  0
SCALE
  5
5D
102
{ACAD_REACTORS
330
47
102
}
330
47
100
AcDbScale
 70
     0
300
3/32" = 1'-0"
140
0.09375
141
12.0
290
     0
  0
SCALE
  5
5E
102
{ACAD_REACTORS
330
47
102
}
330
47
100
AcDbScale
 70
     0
300
1/8" = 1'-0"
140
0.125
141
12.0
290
     0
  0
SCALE
  5
5F
102
{ACAD_REACTORS
330
47
102
}
330
47
100
AcDbScale
 70
     0
300
3/16" = 1'-0"
140
0.1875
141
12.0
290
     0
  0
SCALE
  5
60
102
{ACAD_REACTORS
330
47
102
}
330
47
100
AcDbScale
 70
     0
300
1/4" = 1'-0"
140
0.25
141
12.0
290
     0
  0
SCALE
  5
61
102
{ACAD_REACTORS
330
47
102
}
330
47
100
AcDbScale
 70
     0
300
3/8" = 1'-0"
140
0.375
141
12.0
290
     0
  0
SCALE
  5
62
102
{ACAD_REACTORS
330
47
102
}
330
47
100
AcDbScale
 70
     0
300
1/2" = 1'-0"
140
0.5
141
12.0
290
     0
  0
SCALE
  5
63
102
{ACAD_REACTORS
330
47
102
}
330
47
100
AcDbScale
 70
     0
300
3/4" = 1'-0"
140
0.75
141
12.0
290
     0
  0
SCALE
  5
64
102
{ACAD_REACTORS
330
47
102
}
330
47
100
AcDbScale
 70
     0
300
1" = 1'-0"
140
1.0
141
12.0
290
     0
  0
SCALE
  5
65
102
{ACAD_REACTORS
330
47
102
}
330
47
100
AcDbScale
 70
     0
300
1-1/2" = 1'-0"
140
1.5
141
12.0
290
     0
  0
SCALE
  5
66
102
{ACAD_REACTORS
330
47
102
}
330
47
100
AcDbScale
 70
     0
300
3" = 1'-0"
140
3.0
141
12.0
290
     0
  0
SCALE
  5
67
102
{ACAD_REACTORS
330
47
102
}
330
47
100
AcDbScale
 70
     0
300
6" = 1'-0"
140
6.0
141
12.0
290
     0
  0
SCALE
  5
68
102
{ACAD_REACTORS
330
47
102
}
330
47
100
AcDbScale
 70
     0
300
1'-0" = 1'-0"
140
12.0
141
12.0
290
     0
  0
ENDSEC
  0
EOF
