  0
SECTION
  2
HEADER
  9
$ACADVER
  1
AC1015
  9
$ACADMAINTVER
 70
     6
  9
$DWGCODEPAGE
  3
ANSI_1252
  9
$INSBASE
 10
0.0
 20
0.0
 30
0.0
  9
$EXTMIN
 10
0.0
 20
0.0
 30
0.0
  9
$EXTMAX
 10
48.0
 20
36.0
 30
0.0
  9
$LIMMIN
 10
0.0
 20
0.0
  9
$LIMMAX
 10
48.0
 20
36.0
  9
$ORTHOMODE
 70
     0
  9
$REGENMODE
 70
     1
  9
$FILLMODE
 70
     1
  9
$QTEXTMODE
 70
     0
  9
$MIRRTEXT
 70
     1
  9
$LTSCALE
 40
1.0
  9
$ATTMODE
 70
     1
  9
$TEXTSIZE
 40
0.5
  9
$TRACEWID
 40
0.05
  9
$TEXTSTYLE
  7
STANDARD
  9
$CLAYER
  8
0
  9
$CELTYPE
  6
ByLayer
  9
$CECOLOR
 62
   256
  9
$CELTSCALE
 40
1.0
  9
$DISPSILH
 70
     0
  9
$DIMSCALE
 40
1.0
  9
$DIMASZ
 40
0.3
  9
$DIMEXO
 40
0.1666666667
  9
$DIMDLI
 40
0.38
  9
$DIMRND
 40
0.0
  9
$DIMDLE
 40
0.0
  9
$DIMEXE
 40
0.375
  9
$DIMTP
 40
0.0
  9
$DIMTM
 40
0.0
  9
$DIMTXT
 40
0.5
  9
$DIMCEN
 40
0.09
  9
$DIMTSZ
 40
0.0
  9
$DIMTOL
 70
     0
  9
$DIMLIM
 70
     0
  9
$DIMTIH
 70
     1
  9
$DIMTOH
 70
     1
  9
$DIMSE1
 70
     0
  9
$DIMSE2
 70
     0
  9
$DIMTAD
 70
     0
  9
$DIMZIN
 70
     1
  9
$DIMBLK
  1

  9
$DIMASO
 70
     1
  9
$DIMSHO
 70
     1
  9
$DIMPOST
  1

  9
$DIMAPOST
  1

  9
$DIMALT
 70
     0
  9
$DIMALTD
 70
     2
  9
$DIMALTF
 40
25.4
  9
$DIMLFAC
 40
1.0
  9
$DIMTOFL
 70
     0
  9
$DIMTVP
 40
0.0
  9
$DIMTIX
 70
     0
  9
$DIMSOXD
 70
     0
  9
$DIMSAH
 70
     0
  9
$DIMBLK1
  1

  9
$DIMBLK2
  1

  9
$DIMSTYLE
  2
Standard
  9
$DIMCLRD
 70
     0
  9
$DIMCLRE
 70
     0
  9
$DIMCLRT
 70
     0
  9
$DIMTFAC
 40
1.0
  9
$DIMGAP
 40
0.125
  9
$DIMJUST
 70
     0
  9
$DIMSD1
 70
     0
  9
$DIMSD2
 70
     0
  9
$DIMTOLJ
 70
     1
  9
$DIMTZIN
 70
     1
  9
$DIMALTZ
 70
     0
  9
$DIMALTTZ
 70
     0
  9
$DIMUPT
 70
     0
  9
$DIMDEC
 70
     4
  9
$DIMTDEC
 70
     4
  9
$DIMALTU
 70
     2
  9
$DIMALTTD
 70
     2
  9
$DIMTXSTY
  7
STANDARD
  9
$DIMAUNIT
 70
     0
  9
$DIMADEC
 70
     2
  9
$DIMALTRND
 40
0.0
  9
$DIMAZIN
 70
     0
  9
$DIMDSEP
 70
    46
  9
$DIMATFIT
 70
     3
  9
$DIMFRAC
 70
     0
  9
$DIMLDRBLK
  1

  9
$DIMLUNIT
 70
     2
  9
$DIMLWD
 70
    -2
  9
$DIMLWE
 70
    -2
  9
$DIMTMOVE
 70
     0
  9
$LUNITS
 70
     2
  9
$LUPREC
 70
     4
  9
$SKETCHINC
 40
0.1
  9
$FILLETRAD
 40
0.5
  9
$AUNITS
 70
     0
  9
$AUPREC
 70
     2
  9
$MENU
  1
.
  9
$ELEVATION
 40
0.0
  9
$PELEVATION
 40
0.0
  9
$THICKNESS
 40
0.0
  9
$LIMCHECK
 70
     0
  9
$CHAMFERA
 40
0.0
  9
$CHAMFERB
 40
0.0
  9
$CHAMFERC
 40
0.0
  9
$CHAMFERD
 40
0.0
  9
$SKPOLY
 70
     0
  9
$TDCREATE
 40
2459502.463953148
  9
$TDUCREATE
 40
2459502.630619815
  9
$TDUPDATE
 40
2459502.463958484
  9
$TDUUPDATE
 40
2459502.630625151
  9
$TDINDWG
 40
0.0000000116
  9
$TDUSRTIMER
 40
0.0000000116
  9
$USRTIMER
 70
     1
  9
$ANGBASE
 50
0.0
  9
$ANGDIR
 70
     0
  9
$PDMODE
 70
     0
  9
$PDSIZE
 40
-1.0
  9
$PLINEWID
 40
0.0
  9
$SPLFRAME
 70
     0
  9
$SPLINETYPE
 70
     6
  9
$SPLINESEGS
 70
     8
  9
$HANDSEED
  5
3E8
  9
$SURFTAB1
 70
     6
  9
$SURFTAB2
 70
     6
  9
$SURFTYPE
 70
     6
  9
$SURFU
 70
     6
  9
$SURFV
 70
     6
  9
$UCSBASE
  2

  9
$UCSNAME
  2

  9
$UCSORG
 10
0.0
 20
0.0
 30
0.0
  9
$UCSXDIR
 10
1.0
 20
0.0
 30
0.0
  9
$UCSYDIR
 10
0.0
 20
1.0
 30
0.0
  9
$UCSORTHOREF
  2

  9
$UCSORTHOVIEW
 70
     0
  9
$UCSORGTOP
 10
0.0
 20
0.0
 30
0.0
  9
$UCSORGBOTTOM
 10
0.0
 20
0.0
 30
0.0
  9
$UCSORGLEFT
 10
0.0
 20
0.0
 30
0.0
  9
$UCSORGRIGHT
 10
0.0
 20
0.0
 30
0.0
  9
$UCSORGFRONT
 10
0.0
 20
0.0
 30
0.0
  9
$UCSORGBACK
 10
0.0
 20
0.0
 30
0.0
  9
$PUCSBASE
  2

  9
$PUCSNAME
  2

  9
$PUCSORG
 10
0.0
 20
0.0
 30
0.0
  9
$PUCSXDIR
 10
1.0
 20
0.0
 30
0.0
  9
$PUCSYDIR
 10
0.0
 20
1.0
 30
0.0
  9
$PUCSORTHOREF
  2

  9
$PUCSORTHOVIEW
 70
     0
  9
$PUCSORGTOP
 10
0.0
 20
0.0
 30
0.0
  9
$PUCSORGBOTTOM
 10
0.0
 20
0.0
 30
0.0
  9
$PUCSORGLEFT
 10
0.0
 20
0.0
 30
0.0
  9
$PUCSORGRIGHT
 10
0.0
 20
0.0
 30
0.0
  9
$PUCSORGFRONT
 10
0.0
 20
0.0
 30
0.0
  9
$PUCSORGBACK
 10
0.0
 20
0.0
 30
0.0
  9
$USERI1
 70
     0
  9
$USERI2
 70
     0
  9
$USERI3
 70
     0
  9
$USERI4
 70
     0
  9
$USERI5
 70
     0
  9
$USERR1
 40
0.0
  9
$USERR2
 40
0.0
  9
$USERR3
 40
0.0
  9
$USERR4
 40
0.0
  9
$USERR5
 40
0.0
  9
$WORLDVIEW
 70
     1
  9
$SHADEDGE
 70
     3
  9
$SHADEDIF
 70
    70
  9
$TILEMODE
 70
     1
  9
$MAXACTVP
 70
    64
  9
$PINSBASE
 10
0.0
 20
0.0
 30
0.0
  9
$PLIMCHECK
 70
     0
  9
$PEXTMIN
 10
1.0000000000E+20
 20
1.0000000000E+20
 30
1.0000000000E+20
  9
$PEXTMAX
 10
-1.0000000000E+20
 20
-1.0000000000E+20
 30
-1.0000000000E+20
  9
$PLIMMIN
 10
0.0
 20
0.0
  9
$PLIMMAX
 10
12.0
 20
9.0
  9
$UNITMODE
 70
     0
  9
$VISRETAIN
 70
     1
  9
$PLINEGEN
 70
     0
  9
$PSLTSCALE
 70
     1
  9
$TREEDEPTH
 70
  3020
  9
$CMLSTYLE
  2
Standard
  9
$CMLJUST
 70
     0
  9
$CMLSCALE
 40
1.0
  9
$PROXYGRAPHICS
 70
     1
  9
$MEASUREMENT
 70
     0
  9
$CELWEIGHT
370
    -1
  9
$ENDCAPS
280
     0
  9
$JOINSTYLE
280
     0
  9
$LWDISPLAY
290
     1
  9
$INSUNITS
 70
     1
  9
$HYPERLINKBASE
  1

  9
$STYLESHEET
  1

  9
$XEDIT
290
     1
  9
$CEPSNTYPE
380
     0
  9
$PSTYLEMODE
290
     1
  9
$FINGERPRINTGUID
  2
{44b7f50e-8fe0-425d-ad89-949cacdeed10}
  9
$VERSIONGUID
  2
{FAEB1C32-E019-11D5-929B-00C0DF256EC4}
  9
$EXTNAMES
290
     1
  9
$PSVPSCALE
 40
0.0
  9
$OLESTARTUP
290
     0
  0
ENDSEC
  0
SECTION
  2
CLASSES
  0
CLASS
  1
ACDBDICTIONARYWDFLT
  2
AcDbDictionaryWithDefault
  3
ObjectDBX Classes
 90
        0
280
     0
281
     0
  0
CLASS
  1
VISUALSTYLE
  2
AcDbVisualStyle
  3
ObjectDBX Classes
 90
     4095
280
     0
281
     0
  0
CLASS
  1
MATERIAL
  2
AcDbMaterial
  3
ObjectDBX Classes
 90
     1153
280
     0
281
     0
  0
CLASS
  1
SCALE
  2
AcDbScale
  3
ObjectDBX Classes
 90
     1153
280
     0
281
     0
  0
CLASS
  1
TABLESTYLE
  2
AcDbTableStyle
  3
ObjectDBX Classes
 90
     4095
280
     0
281
     0
  0
CLASS
  1
MLEADERSTYLE
  2
AcDbMLeaderStyle
  3
ACDB_MLEADERSTYLE_CLASS
 90
     4095
280
     0
281
     0
  0
CLASS
  1
SUN
  2
AcDbSun
  3
SCENEOE
 90
     1153
280
     0
281
     0
  0
CLASS
  1
ACDBPLACEHOLDER
  2
AcDbPlaceHolder
  3
ObjectDBX Classes
 90
        0
280
     0
281
     0
  0
CLASS
  1
LAYOUT
  2
AcDbLayout
  3
ObjectDBX Classes
 90
        0
280
     0
281
     0
  0
ENDSEC
  0
SECTION
  2
TABLES
  0
TABLE
  2
VPORT
  5
8
330
0
100
AcDbSymbolTable
 70
     1
  0
VPORT
  5
29
330
8
100
AcDbSymbolTableRecord
100
AcDbViewportTableRecord
  2
*Active
 70
     0
 10
0.0
 20
0.0
 11
1.0
 21
1.0
 12
24.0
 22
18.0
 13
0.0
 23
0.0
 14
0.5
 24
0.5
 15
0.5
 25
0.5
 16
0.0
 26
0.0
 36
1.0
 17
0.0
 27
0.0
 37
0.0
 40
36.0
 41
1.3333333333
 42
50.0
 43
0.0
 44
0.0
 50
0.0
 51
0.0
 71
     0
 72
  2000
 73
     1
 74
     3
 75
     0
 76
     0
 77
     0
 78
     0
281
     0
 65
     1
110
0.0
120
0.0
130
0.0
111
1.0
121
0.0
131
0.0
112
0.0
122
1.0
132
0.0
 79
     0
146
0.0
  0
ENDTAB
  0
TABLE
  2
LTYPE
  5
5
330
0
100
AcDbSymbolTable
 70
     8
  0
LTYPE
  5
14
330
5
100
AcDbSymbolTableRecord
100
AcDbLinetypeTableRecord
  2
ByBlock
 70
     0
  3

 72
    65
 73
     0
 40
0.0
  0
LTYPE
  5
15
330
5
100
AcDbSymbolTableRecord
100
AcDbLinetypeTableRecord
  2
ByLayer
 70
     0
  3

 72
    65
 73
     0
 40
0.0
  0
LTYPE
  5
16
330
5
100
AcDbSymbolTableRecord
100
AcDbLinetypeTableRecord
  2
Continuous
 70
     0
  3
Solid line
 72
    65
 73
     0
 40
0.0
  0
LTYPE
  5
6E
330
5
100
AcDbSymbolTableRecord
100
AcDbLinetypeTableRecord
  2
SLD-Solid
 70
     0
  3
SolidWorks Line Style
 72
    65
 73
     0
 40
0.0
  0
LTYPE
  5
6F
330
5
100
AcDbSymbolTableRecord
100
AcDbLinetypeTableRecord
  2
SLD-Dashed
 70
     0
  3
SolidWorks Line Style
 72
    65
 73
     2
 40
0.075
 49
0.05
 74
     0
 49
-0.025
 74
     0
  0
LTYPE
  5
70
330
5
100
AcDbSymbolTableRecord
100
AcDbLinetypeTableRecord
  2
SLD-Phantom
 70
     0
  3
SolidWorks Line Style
 72
    65
 73
     6
 40
0.5
 49
0.25
 74
     0
 49
-0.05
 74
     0
 49
0.05
 74
     0
 49
-0.05
 74
     0
 49
0.05
 74
     0
 49
-0.05
 74
     0
  0
LTYPE
  5
71
330
5
100
AcDbSymbolTableRecord
100
AcDbLinetypeTableRecord
  2
SLD-Chain
 70
     0
  3
SolidWorks Line Style
 72
    65
 73
     4
 40
0.4
 49
0.25
 74
     0
 49
-0.05
 74
     0
 49
0.05
 74
     0
 49
-0.05
 74
     0
  0
LTYPE
  5
72
330
5
100
AcDbSymbolTableRecord
100
AcDbLinetypeTableRecord
  2
SLD-Center
 70
     0
  3
SolidWorks Line Style
 72
    65
 73
     4
 40
0.75
 49
0.6
 74
     0
 49
-0.05
 74
     0
 49
0.05
 74
     0
 49
-0.05
 74
     0
  0
LTYPE
  5
73
330
5
100
AcDbSymbolTableRecord
100
AcDbLinetypeTableRecord
  2
SLD-Stitch
 70
     0
  3
SolidWorks Line Style
 72
    65
 73
     2
 40
0.025
 49
0.0
 74
     0
 49
-0.025
 74
     0
  0
LTYPE
  5
74
330
5
100
AcDbSymbolTableRecord
100
AcDbLinetypeTableRecord
  2
SLD-Thin-Thick-Chain
 70
     0
  3
SolidWorks Line Style
 72
    65
 73
     4
 40
0.4
 49
0.25
 74
     0
 49
-0.05
 74
     0
 49
0.05
 74
     0
 49
-0.05
 74
     0
  0
ENDTAB
  0
TABLE
  2
LAYER
  5
2
330
0
100
AcDbSymbolTable
 70
     6
  0
LAYER
  5
10
330
2
100
AcDbSymbolTableRecord
100
AcDbLayerTableRecord
  2
0
 70
     0
 62
     7
  6
Continuous
370
    -3
390
F
  0
LAYER
  5
75
330
2
100
AcDbSymbolTableRecord
100
AcDbLayerTableRecord
  2
FORMAT
 70
     0
 62
     7
  6
SLD-Solid
370
    -3
390
F
  0
LAYER
  5
76
330
2
100
AcDbSymbolTableRecord
100
AcDbLayerTableRecord
  2
NOTES
 70
     0
 62
     1
  6
SLD-Solid
370
    -3
390
F
  0
LAYER
  5
77
330
2
100
AcDbSymbolTableRecord
100
AcDbLayerTableRecord
  2
OBJECT
 70
     0
 62
     7
  6
SLD-Solid
370
    25
390
F
  0
LAYER
  5
78
330
2
100
AcDbSymbolTableRecord
100
AcDbLayerTableRecord
  2
DIMS
 70
     0
 62
     5
  6
SLD-Solid
370
    -3
390
F
  0
LAYER
  5
79
330
2
100
AcDbSymbolTableRecord
100
AcDbLayerTableRecord
  2
TITLE
 70
     0
 62
     8
  6
SLD-Solid
370
    -3
390
F
  0
ENDTAB
  0
TABLE
  2
STYLE
  5
3
330
0
100
AcDbSymbolTable
 70
     5
  0
STYLE
  5
11
330
3
100
AcDbSymbolTableRecord
100
AcDbTextStyleTableRecord
  2
STANDARD
 70
     0
 40
0.0
 41
1.0
 50
0.0
 71
     0
 42
0.5
  3
GOTHIC.TTF
  4

1001
ACAD
1000
CENTURY GOTHIC
1071
       34
  0
STYLE
  5
DF
330
3
100
AcDbSymbolTableRecord
100
AcDbTextStyleTableRecord
  2
SLDTEXTSTYLE0
 70
     0
 40
0.0
 41
0.913
 50
0.0
 71
     0
 42
0.5
  3
GOTHIC.TTF
  4

1001
ACAD
1000
Century Gothic
1071
      290
  0
STYLE
  5
EA
330
3
100
AcDbSymbolTableRecord
100
AcDbTextStyleTableRecord
  2
SLDTEXTSTYLE1
 70
     0
 40
0.0
 41
0.948
 50
0.0
 71
     0
 42
0.5
  3
ARIAL.TTF
  4

1001
ACAD
1000
Arial
1071
      290
  0
STYLE
  5
FC
330
3
100
AcDbSymbolTableRecord
100
AcDbTextStyleTableRecord
  2
SLDTEXTSTYLE2
 70
     0
 40
0.0
 41
0.87
 50
0.0
 71
     0
 42
0.5
  3
ARIALNB.TTF
  4

1001
ACAD
1000
Arial Narrow
1071
 33554722
  0
STYLE
  5
FE
330
3
100
AcDbSymbolTableRecord
100
AcDbTextStyleTableRecord
  2
SLDTEXTSTYLE3
 70
     0
 40
0.0
 41
0.87
 50
0.0
 71
     0
 42
0.5
  3
ARIALN.TTF
  4

1001
ACAD
1000
Arial Narrow
1071
      290
  0
ENDTAB
  0
TABLE
  2
VIEW
  5
6
330
0
100
AcDbSymbolTable
 70
     0
  0
ENDTAB
  0
TABLE
  2
UCS
  5
7
330
0
100
AcDbSymbolTable
 70
     0
  0
ENDTAB
  0
TABLE
  2
APPID
  5
9
330
0
100
AcDbSymbolTable
 70
     1
  0
APPID
  5
12
330
9
100
AcDbSymbolTableRecord
100
AcDbRegAppTableRecord
  2
ACAD
 70
     0
  0
ENDTAB
  0
TABLE
  2
DIMSTYLE
  5
A
330
0
100
AcDbSymbolTable
 70
     4
100
AcDbDimStyleTable
  0
DIMSTYLE
105
27
330
A
100
AcDbSymbolTableRecord
100
AcDbDimStyleTableRecord
  2
Standard
 70
     0
178
     0
340
11
  0
DIMSTYLE
105
1F1
102
{ACAD_REACTORS
330
1F0
102
}
330
A
100
AcDbSymbolTableRecord
100
AcDbDimStyleTableRecord
  2
SLDDIMSTYLE0
 70
     0
 41
0.3
 44
0.0
 45
0.000000001
 78
    12
 79
     3
140
0.5
147
0.125
173
     1
178
     0
276
     2
277
     5
284
    12
340
DF
341
1F2
343
1F2
344
1F2
  0
DIMSTYLE
105
203
102
{ACAD_REACTORS
330
202
330
376
330
385
330
394
330
3A3
330
3C9
330
3D8
102
}
330
A
100
AcDbSymbolTableRecord
100
AcDbDimStyleTableRecord
  2
SLDDIMSTYLE1
 70
     0
 41
0.3
 44
0.0
 45
0.000000001
 78
    12
 79
     3
140
0.5
147
0.125
173
     1
178
     0
271
     6
276
     2
277
     5
284
    12
340
DF
341
1F2
343
1F2
344
1F2
  0
DIMSTYLE
105
214
330
A
100
AcDbSymbolTableRecord
100
AcDbDimStyleTableRecord
  2
SLDDIMSTYLE2
 70
     0
 41
0.3
 44
0.0
 45
0.000000001
146
0.3
147
0.0
173
     1
178
     0
271
     0
272
     0
276
     2
277
     5
340
11
341
1F2
343
1F2
344
1F2
  0
ENDTAB
  0
TABLE
  2
BLOCK_RECORD
  5
1
330
0
100
AcDbSymbolTable
 70
    14
  0
BLOCK_RECORD
  5
1F
330
1
100
AcDbSymbolTableRecord
100
AcDbBlockTableRecord
  2
*Model_Space
340
22
  0
BLOCK_RECORD
  5
1B
330
1
100
AcDbSymbolTableRecord
100
AcDbBlockTableRecord
  2
*Paper_Space
340
1E
  0
BLOCK_RECORD
  5
23
330
1
100
AcDbSymbolTableRecord
100
AcDbBlockTableRecord
  2
*Paper_Space0
340
26
  0
BLOCK_RECORD
  5
E4
330
1
100
AcDbSymbolTableRecord
100
AcDbBlockTableRecord
  2
SW_NOTE_0
340
0
102
{BLKREFS
331
E9
102
}
  0
BLOCK_RECORD
  5
F3
330
1
100
AcDbSymbolTableRecord
100
AcDbBlockTableRecord
  2
SW_NOTE_0_1
340
0
102
{BLKREFS
331
F8
102
}
  0
BLOCK_RECORD
  5
F9
330
1
100
AcDbSymbolTableRecord
100
AcDbBlockTableRecord
  2
SW_NOTE_0_2
340
0
102
{BLKREFS
331
102
102
}
  0
BLOCK_RECORD
  5
1F2
330
1
100
AcDbSymbolTableRecord
100
AcDbBlockTableRecord
  2
_Open90
340
0
102
{BLKREFS
331
1FB
331
1FC
331
207
331
208
331
37A
331
37B
331
389
331
38A
331
398
331
399
331
3A7
331
3A8
331
3CD
331
3CE
331
3DC
331
3DD
102
}
  0
BLOCK_RECORD
  5
1F8
330
1
100
AcDbSymbolTableRecord
100
AcDbBlockTableRecord
  2
_D
340
0
  0
BLOCK_RECORD
  5
204
330
1
100
AcDbSymbolTableRecord
100
AcDbBlockTableRecord
  2
_D_1
340
0
  0
BLOCK_RECORD
  5
218
330
1
100
AcDbSymbolTableRecord
100
AcDbBlockTableRecord
  2
SW_NOTE_0_3
340
0
102
{BLKREFS
331
21D
102
}
  0
BLOCK_RECORD
  5
377
330
1
100
AcDbSymbolTableRecord
100
AcDbBlockTableRecord
  2
_D_2
340
0
  0
BLOCK_RECORD
  5
386
330
1
100
AcDbSymbolTableRecord
100
AcDbBlockTableRecord
  2
_D_3
340
0
  0
BLOCK_RECORD
  5
395
330
1
100
AcDbSymbolTableRecord
100
AcDbBlockTableRecord
  2
_D_4
340
0
  0
BLOCK_RECORD
  5
3A4
330
1
100
AcDbSymbolTableRecord
100
AcDbBlockTableRecord
  2
_D_5
340
0
  0
BLOCK_RECORD
  5
3CA
330
1
100
AcDbSymbolTableRecord
100
AcDbBlockTableRecord
  2
_D_6
340
0
  0
BLOCK_RECORD
  5
3D9
330
1
100
AcDbSymbolTableRecord
100
AcDbBlockTableRecord
  2
_D_7
340
0
  0
ENDTAB
  0
ENDSEC
  0
SECTION
  2
BLOCKS
  0
BLOCK
  5
20
330
1F
100
AcDbEntity
  8
0
100
AcDbBlockBegin
  2
*Model_Space
 70
     0
 10
0.0
 20
0.0
 30
0.0
  3
*Model_Space
  1

  0
ENDBLK
  5
21
330
1F
100
AcDbEntity
  8
0
100
AcDbBlockEnd
  0
BLOCK
  5
1C
330
1B
100
AcDbEntity
 67
     1
  8
0
100
AcDbBlockBegin
  2
*Paper_Space
 70
     0
 10
0.0
 20
0.0
 30
0.0
  3
*Paper_Space
  1

  0
ENDBLK
  5
1D
330
1B
100
AcDbEntity
 67
     1
  8
0
100
AcDbBlockEnd
  0
BLOCK
  5
24
330
23
100
AcDbEntity
  8
0
100
AcDbBlockBegin
  2
*Paper_Space0
 70
     0
 10
0.0
 20
0.0
 30
0.0
  3
*Paper_Space0
  1

  0
ENDBLK
  5
25
330
23
100
AcDbEntity
  8
0
100
AcDbBlockEnd
  0
BLOCK
  5
E5
330
E4
100
AcDbEntity
  8
0
100
AcDbBlockBegin
  2
SW_NOTE_0
 70
     0
 10
0.0
 20
0.0
 30
0.0
  3
SW_NOTE_0
  1

  0
MTEXT
  5
E7
330
E4
100
AcDbEntity
  8
NOTES
 62
     0
100
AcDbMText
 10
0.0
 20
0.638671875
 30
0.0
 40
0.5
 41
0.0
 71
     1
 72
     1
  1
3D view
  7
SLDTEXTSTYLE0
 73
     1
 44
1.0
  0
MTEXT
  5
E8
330
E4
100
AcDbEntity
  8
NOTES
 62
     0
100
AcDbMText
 10
0.0
 20
-0.3613281862
 30
0.0
 40
0.5
 41
0.0
 71
     1
 72
     1
  1
code 714-P
  7
SLDTEXTSTYLE0
 73
     1
 44
1.0
  0
ENDBLK
  5
E6
330
E4
100
AcDbEntity
  8
0
100
AcDbBlockEnd
  0
BLOCK
  5
F4
330
F3
100
AcDbEntity
  8
0
100
AcDbBlockBegin
  2
SW_NOTE_0_1
 70
     0
 10
0.0
 20
0.0
 30
0.0
  3
SW_NOTE_0_1
  1

  0
MTEXT
  5
F6
330
F3
100
AcDbEntity
  8
NOTES
 62
     0
100
AcDbMText
 10
0.0
 20
0.3759780908
 30
0.0
 40
0.2916666667
 41
0.0
 71
     1
 72
     1
  1
FROST PRODUCTS LTD.
  7
SLDTEXTSTYLE1
 73
     1
 44
1.0
  0
MTEXT
  5
F7
330
F3
100
AcDbEntity
  8
NOTES
 62
     0
100
AcDbMText
 10
0.0
 20
-0.0495142709
 30
0.0
 40
0.2291666667
 41
0.0
 71
     1
 72
     1
  1
5280 JOHN LUCAS DRIVE, BURLINGTON, ON, L7L 5Z9
  7
SLDTEXTSTYLE1
 73
     1
 44
1.0
  0
ENDBLK
  5
F5
330
F3
100
AcDbEntity
  8
0
100
AcDbBlockEnd
  0
BLOCK
  5
FA
330
F9
100
AcDbEntity
  8
0
100
AcDbBlockBegin
  2
SW_NOTE_0_2
 70
     0
 10
0.0
 20
0.0
 30
0.0
  3
SW_NOTE_0_2
  1

  0
MTEXT
  5
FD
330
F9
100
AcDbEntity
  8
NOTES
 62
     0
100
AcDbMText
 10
0.0
 20
0.2381282771
 30
0.0
 40
0.184729064
 41
0.0
 71
     1
 72
     1
  1
PROPRIETARY AND CONFIDENTIAL
  7
SLDTEXTSTYLE2
 73
     1
 44
1.0
  0
MTEXT
  5
FF
330
F9
100
AcDbEntity
  8
NOTES
 62
     0
100
AcDbMText
 10
0.0
 20
-0.0504364796
 30
0.0
 40
0.25
 41
0.0
 71
     1
 72
     1
  1
THE INFORMATION CONTAINED IN THIS DRAWING IS THE SOLE PROPERTY OF 
  7
SLDTEXTSTYLE3
 73
     1
 44
1.0
  0
MTEXT
  5
100
330
F9
100
AcDbEntity
  8
NOTES
 62
     0
100
AcDbMText
 10
0.0
 20
-0.4231398941
 30
0.0
 40
0.25
 41
0.0
 71
     1
 72
     1
  1
FROST PRODUCTS LTD.  ANY REPRODUCTION IN PART OR AS A WHOLE WITHOUT 
  7
SLDTEXTSTYLE3
 73
     1
 44
1.0
  0
MTEXT
  5
101
330
F9
100
AcDbEntity
  8
NOTES
 62
     0
100
AcDbMText
 10
0.0
 20
-0.7958433086
 30
0.0
 40
0.25
 41
0.0
 71
     1
 72
     1
  1
THE WRITTEN PERMISSION OF FROST PRODUCTS LTD. IS PROHIBITED.
  7
SLDTEXTSTYLE3
 73
     1
 44
1.0
  0
ENDBLK
  5
FB
330
F9
100
AcDbEntity
  8
0
100
AcDbBlockEnd
  0
BLOCK
  5
1F3
330
1F2
100
AcDbEntity
  8
0
100
AcDbBlockBegin
  2
_Open90
 70
     0
 10
0.0
 20
0.0
 30
0.0
  3
_Open90
  1

  0
LINE
  5
1F5
330
1F2
100
AcDbEntity
  8
0
  6
ByBlock
 62
     0
370
    -2
100
AcDbLine
 10
-0.5
 20
0.5
 30
0.0
 11
0.0
 21
0.0
 31
0.0
  0
LINE
  5
1F6
330
1F2
100
AcDbEntity
  8
0
  6
ByBlock
 62
     0
370
    -2
100
AcDbLine
 10
0.0
 20
0.0
 30
0.0
 11
-0.5
 21
-0.5
 31
0.0
  0
LINE
  5
1F7
330
1F2
100
AcDbEntity
  8
0
  6
ByBlock
 62
     0
370
    -2
100
AcDbLine
 10
0.0
 20
0.0
 30
0.0
 11
-1.0
 21
0.0
 31
0.0
  0
ENDBLK
  5
1F4
330
1F2
100
AcDbEntity
  8
0
100
AcDbBlockEnd
  0
BLOCK
  5
1F9
330
1F8
100
AcDbEntity
  8
0
100
AcDbBlockBegin
  2
_D
 70
     0
 10
0.0
 20
0.0
 30
0.0
  3
_D
  1

  0
INSERT
  5
1FB
330
1F8
100
AcDbEntity
  8
DIMS
100
AcDbBlockReference
  2
_Open90
 10
6.4404429467
 20
9.7841486289
 30
0.0
 41
0.3
 42
0.3
 50
90.0
  0
INSERT
  5
1FC
330
1F8
100
AcDbEntity
  8
DIMS
100
AcDbBlockReference
  2
_Open90
 10
6.4404429467
 20
6.1091009382
 30
0.0
 41
0.3
 42
0.3
 50
270.0
  0
LINE
  5
1FD
330
1F8
100
AcDbEntity
  8
DIMS
100
AcDbLine
 10
7.3952796593
 20
9.7841486289
 30
0.0
 11
6.0654429467
 21
9.7841486289
 31
0.0
  0
LINE
  5
1FE
330
1F8
100
AcDbEntity
  8
DIMS
100
AcDbLine
 10
6.4404429467
 20
9.7841486289
 30
0.0
 11
6.4404429467
 21
7.8301182778
 31
0.0
  0
MTEXT
  5
1FF
330
1F8
100
AcDbEntity
  8
DIMS
100
AcDbMText
 10
-5.6283078741
 20
7.6750401839
 30
0.0
 40
0.5
 41
0.0
 71
     1
 72
     1
  1
                                                               44" [1117]Max. for unrestricted access  
  7
SLDTEXTSTYLE0
 73
     1
 44
1.0
  0
MTEXT
  5
200
330
1F8
100
AcDbEntity
  8
DIMS
100
AcDbMText
 10
6.3480818353
 20
6.8812901601
 30
0.0
 40
0.5
 41
0.0
 71
     1
 72
     1
  1
 
  7
SLDTEXTSTYLE0
 73
     1
 44
1.0
  0
MTEXT
  5
201
330
1F8
100
AcDbEntity
  8
DIMS
100
AcDbMText
 10
6.3480818353
 20
6.0875401362
 30
0.0
 40
0.5
 41
0.0
 71
     1
 72
     1
  1
 
  7
SLDTEXTSTYLE0
 73
     1
 44
1.0
  0
ENDBLK
  5
1FA
330
1F8
100
AcDbEntity
  8
0
100
AcDbBlockEnd
  0
BLOCK
  5
205
330
204
100
AcDbEntity
  8
0
100
AcDbBlockBegin
  2
_D_1
 70
     0
 10
0.0
 20
0.0
 30
0.0
  3
_D_1
  1

  0
INSERT
  5
207
330
204
100
AcDbEntity
  8
DIMS
100
AcDbBlockReference
  2
_Open90
 10
6.409976236
 20
20.1891176841
 30
-2.1250755416
 41
0.3
 42
0.3
 50
90.0
  0
INSERT
  5
208
330
204
100
AcDbEntity
  8
DIMS
100
AcDbBlockReference
  2
_Open90
 10
6.409976236
 20
9.7841486289
 30
-2.1250755416
 41
0.3
 42
0.3
 50
270.0
  0
LINE
  5
209
330
204
100
AcDbEntity
  8
DIMS
100
AcDbLine
 10
6.4183095747
 20
14.6965348623
 30
0.0
 11
6.9342818241
 21
14.6965348623
 31
0.0
  0
LINE
  5
20A
330
204
100
AcDbEntity
  8
DIMS
100
AcDbLine
 10
9.3727796593
 20
20.1891176841
 30
0.0
 11
6.034976236
 21
20.1891176841
 31
0.0
  0
LINE
  5
20B
330
204
100
AcDbEntity
  8
DIMS
100
AcDbLine
 10
7.3952796593
 20
9.7841486289
 30
0.0
 11
6.034976236
 21
9.7841486289
 31
0.0
  0
LINE
  5
20C
330
204
100
AcDbEntity
  8
DIMS
100
AcDbLine
 10
6.409976236
 20
20.1891176841
 30
0.0
 11
6.409976236
 21
15.2991043172
 31
0.0
  0
LINE
  5
20D
330
204
100
AcDbEntity
  8
DIMS
100
AcDbLine
 10
6.409976236
 20
9.7841486289
 30
0.0
 11
6.409976236
 21
13.9913960106
 31
0.0
  0
MTEXT
  5
20E
330
204
100
AcDbEntity
  8
DIMS
100
AcDbMText
 10
5.6061567817
 20
14.9259359227
 30
0.0
 40
0.5
 41
0.0
 71
     1
 72
     1
  1
10
  7
SLDTEXTSTYLE0
 73
     1
 44
1.0
  0
MTEXT
  5
20F
330
204
100
AcDbEntity
  8
DIMS
100
AcDbMText
 10
6.4915734767
 20
15.2912484218
 30
0.0
 40
0.5
 41
0.0
 71
     1
 72
     1
  1
3
  7
SLDTEXTSTYLE0
 73
     1
 44
1.0
  0
MTEXT
  5
210
330
204
100
AcDbEntity
  8
DIMS
100
AcDbMText
 10
6.4915734767
 20
14.6300678432
 30
0.0
 40
0.5
 41
0.0
 71
     1
 72
     1
  1
8
  7
SLDTEXTSTYLE0
 73
     1
 44
1.0
  0
MTEXT
  5
211
330
204
100
AcDbEntity
  8
DIMS
100
AcDbMText
 10
7.0075457261
 20
14.9259359227
 30
0.0
 40
0.5
 41
0.0
 71
     1
 72
     1
  1
"
  7
SLDTEXTSTYLE0
 73
     1
 44
1.0
  0
ENDBLK
  5
206
330
204
100
AcDbEntity
  8
0
100
AcDbBlockEnd
  0
BLOCK
  5
219
330
218
100
AcDbEntity
  8
0
100
AcDbBlockBegin
  2
SW_NOTE_0_3
 70
     0
 10
0.0
 20
0.0
 30
0.0
  3
SW_NOTE_0_3
  1

  0
MTEXT
  5
21B
330
218
100
AcDbEntity
  8
NOTES
 62
     0
100
AcDbMText
 10
0.0
 20
0.638671875
 30
0.0
 40
0.5
 41
0.0
 71
     1
 72
     1
  1
*ensure unit is mounted 7.9"[200] above any horizontal surfaces
  7
SLDTEXTSTYLE0
 73
     1
 44
1.0
  0
MTEXT
  5
21C
330
218
100
AcDbEntity
  8
NOTES
 62
     0
100
AcDbMText
 10
0.0
 20
-0.3613281862
 30
0.0
 40
0.5
 41
0.0
 71
     1
 72
     1
  1
and 11.8"[300] above any stainless steel surfaces
  7
SLDTEXTSTYLE0
 73
     1
 44
1.0
  0
ENDBLK
  5
21A
330
218
100
AcDbEntity
  8
0
100
AcDbBlockEnd
  0
BLOCK
  5
378
330
377
100
AcDbEntity
  8
0
100
AcDbBlockBegin
  2
_D_2
 70
     0
 10
0.0
 20
0.0
 30
0.0
  3
_D_2
  1

  0
INSERT
  5
37A
330
377
100
AcDbEntity
  8
DIMS
100
AcDbBlockReference
  2
_Open90
 10
26.2469281565
 20
19.8416176841
 30
2.1250755416
 41
0.3
 42
0.3
 50
90.0
  0
INSERT
  5
37B
330
377
100
AcDbEntity
  8
DIMS
100
AcDbBlockReference
  2
_Open90
 10
26.2469281565
 20
14.5104747158
 30
2.1250755416
 41
0.3
 42
0.3
 50
270.0
  0
LINE
  5
37C
330
377
100
AcDbEntity
  8
DIMS
100
AcDbLine
 10
25.8858170498
 20
16.7513970653
 30
0.0
 11
26.7712337447
 21
16.7513970653
 31
0.0
  0
LINE
  5
37D
330
377
100
AcDbEntity
  8
DIMS
100
AcDbLine
 10
29.4621518858
 20
19.8416176841
 30
0.0
 11
25.8719281565
 21
19.8416176841
 31
0.0
  0
LINE
  5
37E
330
377
100
AcDbEntity
  8
DIMS
100
AcDbLine
 10
29.1086518858
 20
14.5104747158
 30
0.0
 11
25.8719281565
 21
14.5104747158
 31
0.0
  0
LINE
  5
37F
330
377
100
AcDbEntity
  8
DIMS
100
AcDbLine
 10
26.2469281565
 20
19.8416176841
 30
0.0
 11
26.2469281565
 21
17.3539665202
 31
0.0
  0
LINE
  5
380
330
377
100
AcDbEntity
  8
DIMS
100
AcDbLine
 10
26.2469281565
 20
14.5104747158
 30
0.0
 11
26.2469281565
 21
16.0462582136
 31
0.0
  0
MTEXT
  5
381
330
377
100
AcDbEntity
  8
DIMS
100
AcDbMText
 10
25.4431087023
 20
16.9807981257
 30
0.0
 40
0.5
 41
0.0
 71
     1
 72
     1
  1
5
  7
SLDTEXTSTYLE0
 73
     1
 44
1.0
  0
MTEXT
  5
382
330
377
100
AcDbEntity
  8
DIMS
100
AcDbMText
 10
26.1438031745
 20
17.3461106247
 30
0.0
 40
0.5
 41
0.0
 71
     1
 72
     1
  1
5
  7
SLDTEXTSTYLE0
 73
     1
 44
1.0
  0
MTEXT
  5
383
330
377
100
AcDbEntity
  8
DIMS
100
AcDbMText
 10
25.9590809518
 20
16.6849300462
 30
0.0
 40
0.5
 41
0.0
 71
     1
 72
     1
  1
16
  7
SLDTEXTSTYLE0
 73
     1
 44
1.0
  0
MTEXT
  5
384
330
377
100
AcDbEntity
  8
DIMS
100
AcDbMText
 10
26.8444976467
 20
16.9807981257
 30
0.0
 40
0.5
 41
0.0
 71
     1
 72
     1
  1
"
  7
SLDTEXTSTYLE0
 73
     1
 44
1.0
  0
ENDBLK
  5
379
330
377
100
AcDbEntity
  8
0
100
AcDbBlockEnd
  0
BLOCK
  5
387
330
386
100
AcDbEntity
  8
0
100
AcDbBlockBegin
  2
_D_3
 70
     0
 10
0.0
 20
0.0
 30
0.0
  3
_D_3
  1

  0
INSERT
  5
389
330
386
100
AcDbEntity
  8
DIMS
100
AcDbBlockReference
  2
_Open90
 10
29.6288185524
 20
21.1185779657
 30
2.1250755416
 41
0.3
 42
0.3
 50
180.0
  0
INSERT
  5
38A
330
386
100
AcDbEntity
  8
DIMS
100
AcDbBlockReference
  2
_Open90
 10
31.7428185524
 20
21.1185779657
 30
2.1250755416
 41
0.3
 42
0.3
 50
0.0
  0
LINE
  5
38B
330
386
100
AcDbEntity
  8
DIMS
100
AcDbLine
 10
30.5759208118
 20
21.1698626641
 30
0.0
 11
31.0918930613
 21
21.1698626641
 31
0.0
  0
LINE
  5
38C
330
386
100
AcDbEntity
  8
DIMS
100
AcDbLine
 10
29.6288185524
 20
20.0082843507
 30
0.0
 11
29.6288185524
 21
21.4935779657
 31
0.0
  0
LINE
  5
38D
330
386
100
AcDbEntity
  8
DIMS
100
AcDbLine
 10
31.7428185524
 20
20.0082843507
 30
0.0
 11
31.7428185524
 21
21.4935779657
 31
0.0
  0
LINE
  5
38E
330
386
100
AcDbEntity
  8
DIMS
100
AcDbLine
 10
29.6288185524
 20
21.1185779657
 30
0.0
 11
30.1332124644
 21
21.1185779657
 31
0.0
  0
LINE
  5
38F
330
386
100
AcDbEntity
  8
DIMS
100
AcDbLine
 10
31.7428185524
 20
21.1185779657
 30
0.0
 11
31.3714070006
 21
21.1185779657
 31
0.0
  0
MTEXT
  5
390
330
386
100
AcDbEntity
  8
DIMS
100
AcDbMText
 10
30.1332124644
 20
21.3992637245
 30
0.0
 40
0.5
 41
0.0
 71
     1
 72
     1
  1
2
  7
SLDTEXTSTYLE0
 73
     1
 44
1.0
  0
MTEXT
  5
391
330
386
100
AcDbEntity
  8
DIMS
100
AcDbMText
 10
30.6491847138
 20
21.7645762236
 30
0.0
 40
0.5
 41
0.0
 71
     1
 72
     1
  1
1
  7
SLDTEXTSTYLE0
 73
     1
 44
1.0
  0
MTEXT
  5
392
330
386
100
AcDbEntity
  8
DIMS
100
AcDbMText
 10
30.6491847138
 20
21.103395645
 30
0.0
 40
0.5
 41
0.0
 71
     1
 72
     1
  1
8
  7
SLDTEXTSTYLE0
 73
     1
 44
1.0
  0
MTEXT
  5
393
330
386
100
AcDbEntity
  8
DIMS
100
AcDbMText
 10
31.1651569632
 20
21.3992637245
 30
0.0
 40
0.5
 41
0.0
 71
     1
 72
     1
  1
"
  7
SLDTEXTSTYLE0
 73
     1
 44
1.0
  0
ENDBLK
  5
388
330
386
100
AcDbEntity
  8
0
100
AcDbBlockEnd
  0
BLOCK
  5
396
330
395
100
AcDbEntity
  8
0
100
AcDbBlockBegin
  2
_D_4
 70
     0
 10
0.0
 20
0.0
 30
0.0
  3
_D_4
  1

  0
INSERT
  5
398
330
395
100
AcDbEntity
  8
DIMS
100
AcDbBlockReference
  2
_Open90
 10
29.2753185524
 20
15.4385471281
 30
2.1250755416
 41
0.3
 42
0.3
 50
180.0
  0
INSERT
  5
399
330
395
100
AcDbEntity
  8
DIMS
100
AcDbBlockReference
  2
_Open90
 10
32.0963185524
 20
15.4385471281
 30
2.1250755416
 41
0.3
 42
0.3
 50
0.0
  0
LINE
  5
39A
330
395
100
AcDbEntity
  8
DIMS
100
AcDbLine
 10
30.3911986257
 20
15.4898318264
 30
0.0
 11
31.2766153207
 21
15.4898318264
 31
0.0
  0
LINE
  5
39B
330
395
100
AcDbEntity
  8
DIMS
100
AcDbLine
 10
29.2753185524
 20
14.6771413825
 30
0.0
 11
29.2753185524
 21
15.8135471281
 31
0.0
  0
LINE
  5
39C
330
395
100
AcDbEntity
  8
DIMS
100
AcDbLine
 10
32.0963185524
 20
14.6771413825
 30
0.0
 11
32.0963185524
 21
15.8135471281
 31
0.0
  0
LINE
  5
39D
330
395
100
AcDbEntity
  8
DIMS
100
AcDbLine
 10
29.2753185524
 20
15.4385471281
 30
0.0
 11
29.9484902783
 21
15.4385471281
 31
0.0
  0
LINE
  5
39E
330
395
100
AcDbEntity
  8
DIMS
100
AcDbLine
 10
32.0963185524
 20
15.4385471281
 30
0.0
 11
31.5561291867
 21
15.4385471281
 31
0.0
  0
MTEXT
  5
39F
330
395
100
AcDbEntity
  8
DIMS
100
AcDbMText
 10
29.9484902783
 20
15.7192328869
 30
0.0
 40
0.5
 41
0.0
 71
     1
 72
     1
  1
2
  7
SLDTEXTSTYLE0
 73
     1
 44
1.0
  0
MTEXT
  5
3A0
330
395
100
AcDbEntity
  8
DIMS
100
AcDbMText
 10
30.4644625277
 20
16.0845453859
 30
0.0
 40
0.5
 41
0.0
 71
     1
 72
     1
  1
13
  7
SLDTEXTSTYLE0
 73
     1
 44
1.0
  0
MTEXT
  5
3A1
330
395
100
AcDbEntity
  8
DIMS
100
AcDbMText
 10
30.4644625277
 20
15.4233648074
 30
0.0
 40
0.5
 41
0.0
 71
     1
 72
     1
  1
16
  7
SLDTEXTSTYLE0
 73
     1
 44
1.0
  0
MTEXT
  5
3A2
330
395
100
AcDbEntity
  8
DIMS
100
AcDbMText
 10
31.3498792227
 20
15.7192328869
 30
0.0
 40
0.5
 41
0.0
 71
     1
 72
     1
  1
"
  7
SLDTEXTSTYLE0
 73
     1
 44
1.0
  0
ENDBLK
  5
397
330
395
100
AcDbEntity
  8
0
100
AcDbBlockEnd
  0
BLOCK
  5
3A5
330
3A4
100
AcDbEntity
  8
0
100
AcDbBlockBegin
  2
_D_5
 70
     0
 10
0.0
 20
0.0
 30
0.0
  3
_D_5
  1

  0
INSERT
  5
3A7
330
3A4
100
AcDbEntity
  8
DIMS
100
AcDbBlockReference
  2
_Open90
 10
26.2469281565
 20
9.7841486289
 30
2.1250755416
 41
0.3
 42
0.3
 50
270.0
  0
INSERT
  5
3A8
330
3A4
100
AcDbEntity
  8
DIMS
100
AcDbBlockReference
  2
_Open90
 10
26.2469281565
 20
14.5104747158
 30
2.1250755416
 41
0.3
 42
0.3
 50
90.0
  0
LINE
  5
3A9
330
3A4
100
AcDbEntity
  8
DIMS
100
AcDbLine
 10
26.0705392358
 20
12.6557646682
 30
0.0
 11
26.5865114853
 21
12.6557646682
 31
0.0
  0
LINE
  5
3AA
330
3A4
100
AcDbEntity
  8
DIMS
100
AcDbLine
 10
28.5416518858
 20
9.7841486289
 30
0.0
 11
25.8719281565
 21
9.7841486289
 31
0.0
  0
LINE
  5
3AB
330
3A4
100
AcDbEntity
  8
DIMS
100
AcDbLine
 10
29.1086518858
 20
14.5104747158
 30
0.0
 11
25.8719281565
 21
14.5104747158
 31
0.0
  0
LINE
  5
3AC
330
3A4
100
AcDbEntity
  8
DIMS
100
AcDbLine
 10
26.2469281565
 20
9.7841486289
 30
0.0
 11
26.2469281565
 21
11.9506258166
 31
0.0
  0
LINE
  5
3AD
330
3A4
100
AcDbEntity
  8
DIMS
100
AcDbLine
 10
26.2469281565
 20
14.5104747158
 30
0.0
 11
26.2469281565
 21
13.2583341231
 31
0.0
  0
MTEXT
  5
3AE
330
3A4
100
AcDbEntity
  8
DIMS
100
AcDbMText
 10
25.6278308884
 20
12.8851657287
 30
0.0
 40
0.5
 41
0.0
 71
     1
 72
     1
  1
4
  7
SLDTEXTSTYLE0
 73
     1
 44
1.0
  0
MTEXT
  5
3AF
330
3A4
100
AcDbEntity
  8
DIMS
100
AcDbMText
 10
26.1438031378
 20
13.2504782277
 30
0.0
 40
0.5
 41
0.0
 71
     1
 72
     1
  1
3
  7
SLDTEXTSTYLE0
 73
     1
 44
1.0
  0
MTEXT
  5
3B0
330
3A4
100
AcDbEntity
  8
DIMS
100
AcDbMText
 10
26.1438031378
 20
12.5892976492
 30
0.0
 40
0.5
 41
0.0
 71
     1
 72
     1
  1
4
  7
SLDTEXTSTYLE0
 73
     1
 44
1.0
  0
MTEXT
  5
3B1
330
3A4
100
AcDbEntity
  8
DIMS
100
AcDbMText
 10
26.6597753873
 20
12.8851657287
 30
0.0
 40
0.5
 41
0.0
 71
     1
 72
     1
  1
"
  7
SLDTEXTSTYLE0
 73
     1
 44
1.0
  0
ENDBLK
  5
3A6
330
3A4
100
AcDbEntity
  8
0
100
AcDbBlockEnd
  0
BLOCK
  5
3CB
330
3CA
100
AcDbEntity
  8
0
100
AcDbBlockBegin
  2
_D_6
 70
     0
 10
0.0
 20
0.0
 30
0.0
  3
_D_6
  1

  0
INSERT
  5
3CD
330
3CA
100
AcDbEntity
  8
DIMS
100
AcDbBlockReference
  2
_Open90
 10
11.746946326
 20
21.2344873492
 30
-5.2047390477
 41
0.3
 42
0.3
 50
0.0
  0
INSERT
  5
3CE
330
3CA
100
AcDbEntity
  8
DIMS
100
AcDbBlockReference
  2
_Open90
 10
7.331946326
 20
21.2344873492
 30
-5.2047390477
 41
0.3
 42
0.3
 50
180.0
  0
LINE
  5
3CF
330
3CA
100
AcDbEntity
  8
DIMS
100
AcDbLine
 10
5.8126446568
 20
21.2857720476
 30
0.0
 11
6.6980613517
 21
21.2857720476
 31
0.0
  0
LINE
  5
3D0
330
3CA
100
AcDbEntity
  8
DIMS
100
AcDbLine
 10
11.746946326
 20
22.9142763348
 30
0.0
 11
11.746946326
 21
20.8594873492
 31
0.0
  0
LINE
  5
3D1
330
3CA
100
AcDbEntity
  8
DIMS
100
AcDbLine
 10
7.331946326
 20
22.9142763348
 30
0.0
 11
7.331946326
 21
20.8594873492
 31
0.0
  0
LINE
  5
3D2
330
3CA
100
AcDbEntity
  8
DIMS
100
AcDbLine
 10
11.746946326
 20
21.2344873492
 30
0.0
 11
7.331946326
 21
21.2344873492
 31
0.0
  0
LINE
  5
3D3
330
3CA
100
AcDbEntity
  8
DIMS
100
AcDbLine
 10
7.331946326
 20
21.2344873492
 30
0.0
 11
6.9775752177
 21
21.2344873492
 31
0.0
  0
MTEXT
  5
3D4
330
3CA
100
AcDbEntity
  8
DIMS
100
AcDbMText
 10
5.3699363093
 20
21.5151731081
 30
0.0
 40
0.5
 41
0.0
 71
     1
 72
     1
  1
4
  7
SLDTEXTSTYLE0
 73
     1
 44
1.0
  0
MTEXT
  5
3D5
330
3CA
100
AcDbEntity
  8
DIMS
100
AcDbMText
 10
6.0706307815
 20
21.8804856071
 30
0.0
 40
0.5
 41
0.0
 71
     1
 72
     1
  1
7
  7
SLDTEXTSTYLE0
 73
     1
 44
1.0
  0
MTEXT
  5
3D6
330
3CA
100
AcDbEntity
  8
DIMS
100
AcDbMText
 10
5.8859085587
 20
21.2193050286
 30
0.0
 40
0.5
 41
0.0
 71
     1
 72
     1
  1
16
  7
SLDTEXTSTYLE0
 73
     1
 44
1.0
  0
MTEXT
  5
3D7
330
3CA
100
AcDbEntity
  8
DIMS
100
AcDbMText
 10
6.7713252537
 20
21.5151731081
 30
0.0
 40
0.5
 41
0.0
 71
     1
 72
     1
  1
"
  7
SLDTEXTSTYLE0
 73
     1
 44
1.0
  0
ENDBLK
  5
3CC
330
3CA
100
AcDbEntity
  8
0
100
AcDbBlockEnd
  0
BLOCK
  5
3DA
330
3D9
100
AcDbEntity
  8
0
100
AcDbBlockBegin
  2
_D_7
 70
     0
 10
0.0
 20
0.0
 30
0.0
  3
_D_7
  1

  0
INSERT
  5
3DC
330
3D9
100
AcDbEntity
  8
DIMS
100
AcDbBlockReference
  2
_Open90
 10
12.7972343597
 20
26.1187768458
 30
-5.2047390477
 41
0.3
 42
0.3
 50
90.0
  0
INSERT
  5
3DD
330
3D9
100
AcDbEntity
  8
DIMS
100
AcDbBlockReference
  2
_Open90
 10
12.7972343597
 20
21.889720391
 30
-5.2047390477
 41
0.3
 42
0.3
 50
270.0
  0
LINE
  5
3DE
330
3D9
100
AcDbEntity
  8
DIMS
100
AcDbLine
 10
12.620845439
 20
24.0834521202
 30
0.0
 11
13.1368176885
 21
24.0834521202
 31
0.0
  0
LINE
  5
3DF
330
3D9
100
AcDbEntity
  8
DIMS
100
AcDbLine
 10
11.6756987992
 20
26.1187768458
 30
0.0
 11
13.1722343597
 21
26.1187768458
 31
0.0
  0
LINE
  5
3E0
330
3D9
100
AcDbEntity
  8
DIMS
100
AcDbLine
 10
9.7061129927
 20
21.889720391
 30
0.0
 11
13.1722343597
 21
21.889720391
 31
0.0
  0
LINE
  5
3E1
330
3D9
100
AcDbEntity
  8
DIMS
100
AcDbLine
 10
12.7972343597
 20
26.1187768458
 30
0.0
 11
12.7972343597
 21
24.6860215751
 31
0.0
  0
LINE
  5
3E2
330
3D9
100
AcDbEntity
  8
DIMS
100
AcDbLine
 10
12.7972343597
 20
21.889720391
 30
0.0
 11
12.7972343597
 21
23.3783132685
 31
0.0
  0
MTEXT
  5
3E3
330
3D9
100
AcDbEntity
  8
DIMS
100
AcDbMText
 10
12.1781370916
 20
24.3128531806
 30
0.0
 40
0.5
 41
0.0
 71
     1
 72
     1
  1
4
  7
SLDTEXTSTYLE0
 73
     1
 44
1.0
  0
MTEXT
  5
3E4
330
3D9
100
AcDbEntity
  8
DIMS
100
AcDbMText
 10
12.694109341
 20
24.6781656797
 30
0.0
 40
0.5
 41
0.0
 71
     1
 72
     1
  1
1
  7
SLDTEXTSTYLE0
 73
     1
 44
1.0
  0
MTEXT
  5
3E5
330
3D9
100
AcDbEntity
  8
DIMS
100
AcDbMText
 10
12.694109341
 20
24.0169851011
 30
0.0
 40
0.5
 41
0.0
 71
     1
 72
     1
  1
4
  7
SLDTEXTSTYLE0
 73
     1
 44
1.0
  0
MTEXT
  5
3E6
330
3D9
100
AcDbEntity
  8
DIMS
100
AcDbMText
 10
13.2100815905
 20
24.3128531806
 30
0.0
 40
0.5
 41
0.0
 71
     1
 72
     1
  1
"
  7
SLDTEXTSTYLE0
 73
     1
 44
1.0
  0
ENDBLK
  5
3DB
330
3D9
100
AcDbEntity
  8
0
100
AcDbBlockEnd
  0
ENDSEC
  0
SECTION
  2
ENTITIES
  0
LINE
  5
7A
330
1F
100
AcDbEntity
  8
TITLE
370
    35
100
AcDbLine
 10
30.5182229757
 20
1.4876117645
 30
0.0
 11
47.4999864512
 21
1.4876117645
 31
0.0
  0
LINE
  5
7B
330
1F
100
AcDbEntity
  8
TITLE
370
    35
100
AcDbLine
 10
47.4999317442
 20
5.4753603936
 30
0.0
 11
37.3105350723
 21
5.4753603936
 31
0.0
  0
LINE
  5
7C
330
1F
100
AcDbEntity
  8
TITLE
  6
SLD-Solid
370
    18
100
AcDbLine
 10
0.5
 20
0.5
 30
0.0
 11
0.5
 21
35.5
 31
0.0
  0
LINE
  5
7D
330
1F
100
AcDbEntity
  8
TITLE
  6
SLD-Solid
370
    18
100
AcDbLine
 10
0.5
 20
35.5
 30
0.0
 11
47.5
 21
35.5
 31
0.0
  0
LINE
  5
7E
330
1F
100
AcDbEntity
  8
TITLE
370
    35
100
AcDbLine
 10
30.5182229757
 20
2.5427877231
 30
0.0
 11
23.5059791203
 21
2.5427877231
 31
0.0
  0
LINE
  5
7F
330
1F
100
AcDbEntity
  8
TITLE
370
    35
100
AcDbLine
 10
30.5182229757
 20
1.4876117645
 30
0.0
 11
23.5059791203
 21
1.4876117645
 31
0.0
  0
LINE
  5
80
330
1F
100
AcDbEntity
  8
TITLE
  6
SLD-Solid
370
    18
100
AcDbLine
 10
47.5
 20
35.5
 30
0.0
 11
47.5
 21
0.5
 31
0.0
  0
LINE
  5
81
330
1F
100
AcDbEntity
  8
TITLE
  6
SLD-Solid
370
    18
100
AcDbLine
 10
47.5
 20
0.5
 30
0.0
 11
0.5
 21
0.5
 31
0.0
  0
LINE
  5
82
330
1F
100
AcDbEntity
  8
TITLE
370
    35
100
AcDbLine
 10
30.5182229757
 20
1.4876117645
 30
0.0
 11
30.5182229757
 21
3.5979636817
 31
0.0
  0
LINE
  5
83
330
1F
100
AcDbEntity
  8
TITLE
370
    35
100
AcDbLine
 10
23.5059791203
 20
3.5979636817
 30
0.0
 11
23.5059791203
 21
0.5
 31
0.0
  0
LINE
  5
84
330
1F
100
AcDbEntity
  8
TITLE
370
    35
100
AcDbLine
 10
23.5059791203
 20
0.5
 30
0.0
 11
47.5
 21
0.5
 31
0.0
  0
LINE
  5
85
330
1F
100
AcDbEntity
  8
TITLE
370
    35
100
AcDbLine
 10
47.4999317442
 20
5.4753603936
 30
0.0
 11
47.5
 21
0.5
 31
0.0
  0
LINE
  5
86
330
1F
100
AcDbEntity
  8
TITLE
  6
SLD-Solid
370
    18
100
AcDbLine
 10
0.4999606299
 20
18.0
 30
0.0
 11
0.5000393701
 21
18.0
 31
0.0
  0
LINE
  5
87
330
1F
100
AcDbEntity
  8
TITLE
370
    35
100
AcDbLine
 10
30.5182229757
 20
3.5979636817
 30
0.0
 11
23.5059791203
 21
3.5979636817
 31
0.0
  0
LINE
  5
88
330
1F
100
AcDbEntity
  8
TITLE
370
    35
100
AcDbLine
 10
30.5182229757
 20
3.5979636817
 30
0.0
 11
47.4997615643
 21
3.5979648343
 31
0.0
  0
LINE
  5
89
330
1F
100
AcDbEntity
  8
TITLE
370
    35
100
AcDbLine
 10
37.3105350723
 20
5.4753603936
 30
0.0
 11
37.3105350723
 21
0.4636772425
 31
0.0
  0
LINE
  5
8A
330
1F
100
AcDbEntity
  8
TITLE
  6
SLD-Solid
370
    18
100
AcDbLine
 10
24.0
 20
35.5000393701
 30
0.0
 11
24.0
 21
35.4999606299
 31
0.0
  0
LINE
  5
8B
330
1F
100
AcDbEntity
  8
TITLE
  6
SLD-Solid
370
    18
100
AcDbLine
 10
47.5000393701
 20
18.0
 30
0.0
 11
47.4999606299
 21
18.0
 31
0.0
  0
LINE
  5
8C
330
1F
100
AcDbEntity
  8
TITLE
  6
SLD-Solid
370
    18
100
AcDbLine
 10
24.0
 20
0.4999606299
 30
0.0
 11
24.0
 21
0.5000393701
 31
0.0
  0
LINE
  5
8D
330
1F
100
AcDbEntity
  8
TITLE
  6
SLD-Solid
370
    18
100
AcDbLine
 10
0.5
 20
2.2519685039
 30
0.0
 11
0.1653543307
 21
2.2519685039
 31
0.0
  0
LINE
  5
8E
330
1F
100
AcDbEntity
  8
TITLE
  6
SLD-Solid
370
    18
100
AcDbLine
 10
47.5
 20
2.2519685039
 30
0.0
 11
47.8346456693
 21
2.2519685039
 31
0.0
  0
LINE
  5
8F
330
1F
100
AcDbEntity
  8
TITLE
  6
SLD-Solid
370
    18
100
AcDbLine
 10
0.5
 20
4.2204724409
 30
0.0
 11
0.1653543307
 21
4.2204724409
 31
0.0
  0
LINE
  5
90
330
1F
100
AcDbEntity
  8
TITLE
  6
SLD-Solid
370
    18
100
AcDbLine
 10
47.5
 20
4.2204724409
 30
0.0
 11
47.8346456693
 21
4.2204724409
 31
0.0
  0
LINE
  5
91
330
1F
100
AcDbEntity
  8
TITLE
  6
SLD-Solid
370
    18
100
AcDbLine
 10
0.5
 20
6.188976378
 30
0.0
 11
0.1653543307
 21
6.188976378
 31
0.0
  0
LINE
  5
92
330
1F
100
AcDbEntity
  8
TITLE
  6
SLD-Solid
370
    18
100
AcDbLine
 10
47.5
 20
6.188976378
 30
0.0
 11
47.8346456693
 21
6.188976378
 31
0.0
  0
LINE
  5
93
330
1F
100
AcDbEntity
  8
TITLE
  6
SLD-Solid
370
    18
100
AcDbLine
 10
0.5
 20
8.157480315
 30
0.0
 11
0.1653543307
 21
8.157480315
 31
0.0
  0
LINE
  5
94
330
1F
100
AcDbEntity
  8
TITLE
  6
SLD-Solid
370
    18
100
AcDbLine
 10
47.5
 20
8.157480315
 30
0.0
 11
47.8346456693
 21
8.157480315
 31
0.0
  0
LINE
  5
95
330
1F
100
AcDbEntity
  8
TITLE
  6
SLD-Solid
370
    18
100
AcDbLine
 10
0.5
 20
10.125984252
 30
0.0
 11
0.1653543307
 21
10.125984252
 31
0.0
  0
LINE
  5
96
330
1F
100
AcDbEntity
  8
TITLE
  6
SLD-Solid
370
    18
100
AcDbLine
 10
47.5
 20
10.125984252
 30
0.0
 11
47.8346456693
 21
10.125984252
 31
0.0
  0
LINE
  5
97
330
1F
100
AcDbEntity
  8
TITLE
  6
SLD-Solid
370
    18
100
AcDbLine
 10
0.5
 20
12.094488189
 30
0.0
 11
0.1653543307
 21
12.094488189
 31
0.0
  0
LINE
  5
98
330
1F
100
AcDbEntity
  8
TITLE
  6
SLD-Solid
370
    18
100
AcDbLine
 10
47.5
 20
12.094488189
 30
0.0
 11
47.8346456693
 21
12.094488189
 31
0.0
  0
LINE
  5
99
330
1F
100
AcDbEntity
  8
TITLE
  6
SLD-Solid
370
    18
100
AcDbLine
 10
0.5
 20
14.062992126
 30
0.0
 11
0.1653543307
 21
14.062992126
 31
0.0
  0
LINE
  5
9A
330
1F
100
AcDbEntity
  8
TITLE
  6
SLD-Solid
370
    18
100
AcDbLine
 10
47.5
 20
14.062992126
 30
0.0
 11
47.8346456693
 21
14.062992126
 31
0.0
  0
LINE
  5
9B
330
1F
100
AcDbEntity
  8
TITLE
  6
SLD-Solid
370
    18
100
AcDbLine
 10
0.5
 20
16.031496063
 30
0.0
 11
0.1653543307
 21
16.031496063
 31
0.0
  0
LINE
  5
9C
330
1F
100
AcDbEntity
  8
TITLE
  6
SLD-Solid
370
    18
100
AcDbLine
 10
47.5
 20
16.031496063
 30
0.0
 11
47.8346456693
 21
16.031496063
 31
0.0
  0
LINE
  5
9D
330
1F
100
AcDbEntity
  8
TITLE
  6
SLD-Solid
370
    18
100
AcDbLine
 10
0.5
 20
18.0
 30
0.0
 11
0.1653543307
 21
18.0
 31
0.0
  0
LINE
  5
9E
330
1F
100
AcDbEntity
  8
TITLE
  6
SLD-Solid
370
    18
100
AcDbLine
 10
47.5
 20
18.0
 30
0.0
 11
47.8346456693
 21
18.0
 31
0.0
  0
LINE
  5
9F
330
1F
100
AcDbEntity
  8
TITLE
  6
SLD-Solid
370
    18
100
AcDbLine
 10
0.5
 20
19.968503937
 30
0.0
 11
0.1653543307
 21
19.968503937
 31
0.0
  0
LINE
  5
A0
330
1F
100
AcDbEntity
  8
TITLE
  6
SLD-Solid
370
    18
100
AcDbLine
 10
47.5
 20
19.968503937
 30
0.0
 11
47.8346456693
 21
19.968503937
 31
0.0
  0
LINE
  5
A1
330
1F
100
AcDbEntity
  8
TITLE
  6
SLD-Solid
370
    18
100
AcDbLine
 10
0.5
 20
21.937007874
 30
0.0
 11
0.1653543307
 21
21.937007874
 31
0.0
  0
LINE
  5
A2
330
1F
100
AcDbEntity
  8
TITLE
  6
SLD-Solid
370
    18
100
AcDbLine
 10
47.5
 20
21.937007874
 30
0.0
 11
47.8346456693
 21
21.937007874
 31
0.0
  0
LINE
  5
A3
330
1F
100
AcDbEntity
  8
TITLE
  6
SLD-Solid
370
    18
100
AcDbLine
 10
0.5
 20
23.905511811
 30
0.0
 11
0.1653543307
 21
23.905511811
 31
0.0
  0
LINE
  5
A4
330
1F
100
AcDbEntity
  8
TITLE
  6
SLD-Solid
370
    18
100
AcDbLine
 10
47.5
 20
23.905511811
 30
0.0
 11
47.8346456693
 21
23.905511811
 31
0.0
  0
LINE
  5
A5
330
1F
100
AcDbEntity
  8
TITLE
  6
SLD-Solid
370
    18
100
AcDbLine
 10
0.5
 20
25.874015748
 30
0.0
 11
0.1653543307
 21
25.874015748
 31
0.0
  0
LINE
  5
A6
330
1F
100
AcDbEntity
  8
TITLE
  6
SLD-Solid
370
    18
100
AcDbLine
 10
47.5
 20
25.874015748
 30
0.0
 11
47.8346456693
 21
25.874015748
 31
0.0
  0
LINE
  5
A7
330
1F
100
AcDbEntity
  8
TITLE
  6
SLD-Solid
370
    18
100
AcDbLine
 10
0.5
 20
27.842519685
 30
0.0
 11
0.1653543307
 21
27.842519685
 31
0.0
  0
LINE
  5
A8
330
1F
100
AcDbEntity
  8
TITLE
  6
SLD-Solid
370
    18
100
AcDbLine
 10
47.5
 20
27.842519685
 30
0.0
 11
47.8346456693
 21
27.842519685
 31
0.0
  0
LINE
  5
A9
330
1F
100
AcDbEntity
  8
TITLE
  6
SLD-Solid
370
    18
100
AcDbLine
 10
0.5
 20
29.811023622
 30
0.0
 11
0.1653543307
 21
29.811023622
 31
0.0
  0
LINE
  5
AA
330
1F
100
AcDbEntity
  8
TITLE
  6
SLD-Solid
370
    18
100
AcDbLine
 10
47.5
 20
29.811023622
 30
0.0
 11
47.8346456693
 21
29.811023622
 31
0.0
  0
LINE
  5
AB
330
1F
100
AcDbEntity
  8
TITLE
  6
SLD-Solid
370
    18
100
AcDbLine
 10
0.5
 20
31.7795275591
 30
0.0
 11
0.1653543307
 21
31.7795275591
 31
0.0
  0
LINE
  5
AC
330
1F
100
AcDbEntity
  8
TITLE
  6
SLD-Solid
370
    18
100
AcDbLine
 10
47.5
 20
31.7795275591
 30
0.0
 11
47.8346456693
 21
31.7795275591
 31
0.0
  0
LINE
  5
AD
330
1F
100
AcDbEntity
  8
TITLE
  6
SLD-Solid
370
    18
100
AcDbLine
 10
47.5
 20
33.7480314961
 30
0.0
 11
47.8346456693
 21
33.7480314961
 31
0.0
  0
LINE
  5
AE
330
1F
100
AcDbEntity
  8
TITLE
  6
SLD-Solid
370
    18
100
AcDbLine
 10
2.3464566929
 20
35.5
 30
0.0
 11
2.3464566929
 21
35.8346456693
 31
0.0
  0
LINE
  5
AF
330
1F
100
AcDbEntity
  8
TITLE
  6
SLD-Solid
370
    18
100
AcDbLine
 10
2.3464566929
 20
0.5
 30
0.0
 11
2.3464566929
 21
0.1653543307
 31
0.0
  0
LINE
  5
B0
330
1F
100
AcDbEntity
  8
TITLE
  6
SLD-Solid
370
    18
100
AcDbLine
 10
4.3149606299
 20
0.5
 30
0.0
 11
4.3149606299
 21
0.1653543307
 31
0.0
  0
LINE
  5
B1
330
1F
100
AcDbEntity
  8
TITLE
  6
SLD-Solid
370
    18
100
AcDbLine
 10
6.2834645669
 20
35.5
 30
0.0
 11
6.2834645669
 21
35.8346456693
 31
0.0
  0
LINE
  5
B2
330
1F
100
AcDbEntity
  8
TITLE
  6
SLD-Solid
370
    18
100
AcDbLine
 10
6.2834645669
 20
0.5
 30
0.0
 11
6.2834645669
 21
0.1653543307
 31
0.0
  0
LINE
  5
B3
330
1F
100
AcDbEntity
  8
TITLE
  6
SLD-Solid
370
    18
100
AcDbLine
 10
8.2519685039
 20
35.5
 30
0.0
 11
8.2519685039
 21
35.8346456693
 31
0.0
  0
LINE
  5
B4
330
1F
100
AcDbEntity
  8
TITLE
  6
SLD-Solid
370
    18
100
AcDbLine
 10
8.2519685039
 20
0.5
 30
0.0
 11
8.2519685039
 21
0.1653543307
 31
0.0
  0
LINE
  5
B5
330
1F
100
AcDbEntity
  8
TITLE
  6
SLD-Solid
370
    18
100
AcDbLine
 10
10.2204724409
 20
35.5
 30
0.0
 11
10.2204724409
 21
35.8346456693
 31
0.0
  0
LINE
  5
B6
330
1F
100
AcDbEntity
  8
TITLE
  6
SLD-Solid
370
    18
100
AcDbLine
 10
10.2204724409
 20
0.5
 30
0.0
 11
10.2204724409
 21
0.1653543307
 31
0.0
  0
LINE
  5
B7
330
1F
100
AcDbEntity
  8
TITLE
  6
SLD-Solid
370
    18
100
AcDbLine
 10
12.188976378
 20
35.5
 30
0.0
 11
12.188976378
 21
35.8346456693
 31
0.0
  0
LINE
  5
B8
330
1F
100
AcDbEntity
  8
TITLE
  6
SLD-Solid
370
    18
100
AcDbLine
 10
12.188976378
 20
0.5
 30
0.0
 11
12.188976378
 21
0.1653543307
 31
0.0
  0
LINE
  5
B9
330
1F
100
AcDbEntity
  8
TITLE
  6
SLD-Solid
370
    18
100
AcDbLine
 10
14.157480315
 20
35.5
 30
0.0
 11
14.157480315
 21
35.8346456693
 31
0.0
  0
LINE
  5
BA
330
1F
100
AcDbEntity
  8
TITLE
  6
SLD-Solid
370
    18
100
AcDbLine
 10
14.157480315
 20
0.5
 30
0.0
 11
14.157480315
 21
0.1653543307
 31
0.0
  0
LINE
  5
BB
330
1F
100
AcDbEntity
  8
TITLE
  6
SLD-Solid
370
    18
100
AcDbLine
 10
16.125984252
 20
35.5
 30
0.0
 11
16.125984252
 21
35.8346456693
 31
0.0
  0
LINE
  5
BC
330
1F
100
AcDbEntity
  8
TITLE
  6
SLD-Solid
370
    18
100
AcDbLine
 10
16.125984252
 20
0.5
 30
0.0
 11
16.125984252
 21
0.1653543307
 31
0.0
  0
LINE
  5
BD
330
1F
100
AcDbEntity
  8
TITLE
  6
SLD-Solid
370
    18
100
AcDbLine
 10
18.094488189
 20
35.5
 30
0.0
 11
18.094488189
 21
35.8346456693
 31
0.0
  0
LINE
  5
BE
330
1F
100
AcDbEntity
  8
TITLE
  6
SLD-Solid
370
    18
100
AcDbLine
 10
18.094488189
 20
0.5
 30
0.0
 11
18.094488189
 21
0.1653543307
 31
0.0
  0
LINE
  5
BF
330
1F
100
AcDbEntity
  8
TITLE
  6
SLD-Solid
370
    18
100
AcDbLine
 10
20.062992126
 20
35.5
 30
0.0
 11
20.062992126
 21
35.8346456693
 31
0.0
  0
LINE
  5
C0
330
1F
100
AcDbEntity
  8
TITLE
  6
SLD-Solid
370
    18
100
AcDbLine
 10
20.062992126
 20
0.5
 30
0.0
 11
20.062992126
 21
0.1653543307
 31
0.0
  0
LINE
  5
C1
330
1F
100
AcDbEntity
  8
TITLE
  6
SLD-Solid
370
    18
100
AcDbLine
 10
22.031496063
 20
35.5
 30
0.0
 11
22.031496063
 21
35.8346456693
 31
0.0
  0
LINE
  5
C2
330
1F
100
AcDbEntity
  8
TITLE
  6
SLD-Solid
370
    18
100
AcDbLine
 10
22.031496063
 20
0.5
 30
0.0
 11
22.031496063
 21
0.1653543307
 31
0.0
  0
LINE
  5
C3
330
1F
100
AcDbEntity
  8
TITLE
  6
SLD-Solid
370
    18
100
AcDbLine
 10
24.0
 20
35.5
 30
0.0
 11
24.0
 21
35.8346456693
 31
0.0
  0
LINE
  5
C4
330
1F
100
AcDbEntity
  8
TITLE
  6
SLD-Solid
370
    18
100
AcDbLine
 10
24.0
 20
0.5
 30
0.0
 11
24.0
 21
0.1653543307
 31
0.0
  0
LINE
  5
C5
330
1F
100
AcDbEntity
  8
TITLE
  6
SLD-Solid
370
    18
100
AcDbLine
 10
25.968503937
 20
35.5
 30
0.0
 11
25.968503937
 21
35.8346456693
 31
0.0
  0
LINE
  5
C6
330
1F
100
AcDbEntity
  8
TITLE
  6
SLD-Solid
370
    18
100
AcDbLine
 10
25.968503937
 20
0.5
 30
0.0
 11
25.968503937
 21
0.1653543307
 31
0.0
  0
LINE
  5
C7
330
1F
100
AcDbEntity
  8
TITLE
  6
SLD-Solid
370
    18
100
AcDbLine
 10
27.937007874
 20
35.5
 30
0.0
 11
27.937007874
 21
35.8346456693
 31
0.0
  0
LINE
  5
C8
330
1F
100
AcDbEntity
  8
TITLE
  6
SLD-Solid
370
    18
100
AcDbLine
 10
27.937007874
 20
0.5
 30
0.0
 11
27.937007874
 21
0.1653543307
 31
0.0
  0
LINE
  5
C9
330
1F
100
AcDbEntity
  8
TITLE
  6
SLD-Solid
370
    18
100
AcDbLine
 10
29.905511811
 20
35.5
 30
0.0
 11
29.905511811
 21
35.8346456693
 31
0.0
  0
LINE
  5
CA
330
1F
100
AcDbEntity
  8
TITLE
  6
SLD-Solid
370
    18
100
AcDbLine
 10
29.905511811
 20
0.5
 30
0.0
 11
29.905511811
 21
0.1653543307
 31
0.0
  0
LINE
  5
CB
330
1F
100
AcDbEntity
  8
TITLE
  6
SLD-Solid
370
    18
100
AcDbLine
 10
31.874015748
 20
35.5
 30
0.0
 11
31.874015748
 21
35.8346456693
 31
0.0
  0
LINE
  5
CC
330
1F
100
AcDbEntity
  8
TITLE
  6
SLD-Solid
370
    18
100
AcDbLine
 10
31.874015748
 20
0.5
 30
0.0
 11
31.874015748
 21
0.1653543307
 31
0.0
  0
LINE
  5
CD
330
1F
100
AcDbEntity
  8
TITLE
  6
SLD-Solid
370
    18
100
AcDbLine
 10
33.842519685
 20
35.5
 30
0.0
 11
33.842519685
 21
35.8346456693
 31
0.0
  0
LINE
  5
CE
330
1F
100
AcDbEntity
  8
TITLE
  6
SLD-Solid
370
    18
100
AcDbLine
 10
33.842519685
 20
0.5
 30
0.0
 11
33.842519685
 21
0.1653543307
 31
0.0
  0
LINE
  5
CF
330
1F
100
AcDbEntity
  8
TITLE
  6
SLD-Solid
370
    18
100
AcDbLine
 10
35.811023622
 20
35.5
 30
0.0
 11
35.811023622
 21
35.8346456693
 31
0.0
  0
LINE
  5
D0
330
1F
100
AcDbEntity
  8
TITLE
  6
SLD-Solid
370
    18
100
AcDbLine
 10
35.811023622
 20
0.5
 30
0.0
 11
35.811023622
 21
0.1653543307
 31
0.0
  0
LINE
  5
D1
330
1F
100
AcDbEntity
  8
TITLE
  6
SLD-Solid
370
    18
100
AcDbLine
 10
37.7795275591
 20
35.5
 30
0.0
 11
37.7795275591
 21
35.8346456693
 31
0.0
  0
LINE
  5
D2
330
1F
100
AcDbEntity
  8
TITLE
  6
SLD-Solid
370
    18
100
AcDbLine
 10
37.7795275591
 20
0.5
 30
0.0
 11
37.7795275591
 21
0.1653543307
 31
0.0
  0
LINE
  5
D3
330
1F
100
AcDbEntity
  8
TITLE
  6
SLD-Solid
370
    18
100
AcDbLine
 10
39.7480314961
 20
35.5
 30
0.0
 11
39.7480314961
 21
35.8346456693
 31
0.0
  0
LINE
  5
D4
330
1F
100
AcDbEntity
  8
TITLE
  6
SLD-Solid
370
    18
100
AcDbLine
 10
39.7480314961
 20
0.5
 30
0.0
 11
39.7480314961
 21
0.1653543307
 31
0.0
  0
LINE
  5
D5
330
1F
100
AcDbEntity
  8
TITLE
  6
SLD-Solid
370
    18
100
AcDbLine
 10
41.7165354331
 20
35.5
 30
0.0
 11
41.7165354331
 21
35.8346456693
 31
0.0
  0
LINE
  5
D6
330
1F
100
AcDbEntity
  8
TITLE
  6
SLD-Solid
370
    18
100
AcDbLine
 10
41.7165354331
 20
0.5
 30
0.0
 11
41.7165354331
 21
0.1653543307
 31
0.0
  0
LINE
  5
D7
330
1F
100
AcDbEntity
  8
TITLE
  6
SLD-Solid
370
    18
100
AcDbLine
 10
43.6850393701
 20
35.5
 30
0.0
 11
43.6850393701
 21
35.8346456693
 31
0.0
  0
LINE
  5
D8
330
1F
100
AcDbEntity
  8
TITLE
  6
SLD-Solid
370
    18
100
AcDbLine
 10
43.6850393701
 20
0.5
 30
0.0
 11
43.6850393701
 21
0.1653543307
 31
0.0
  0
LINE
  5
D9
330
1F
100
AcDbEntity
  8
TITLE
  6
SLD-Solid
370
    18
100
AcDbLine
 10
45.6535433071
 20
35.5
 30
0.0
 11
45.6535433071
 21
35.8346456693
 31
0.0
  0
LINE
  5
DA
330
1F
100
AcDbEntity
  8
TITLE
  6
SLD-Solid
370
    18
100
AcDbLine
 10
45.6535433071
 20
0.5
 30
0.0
 11
45.6535433071
 21
0.1653543307
 31
0.0
  0
LINE
  5
DB
330
1F
100
AcDbEntity
  8
TITLE
370
    35
100
AcDbLine
 10
0.5
 20
35.5
 30
0.0
 11
47.5
 21
35.5
 31
0.0
  0
LINE
  5
DC
330
1F
100
AcDbEntity
  8
TITLE
370
    35
100
AcDbLine
 10
0.5
 20
35.5
 30
0.0
 11
0.5
 21
0.5
 31
0.0
  0
LINE
  5
DD
330
1F
100
AcDbEntity
  8
TITLE
370
    35
100
AcDbLine
 10
0.5
 20
0.5
 30
0.0
 11
47.5
 21
0.5
 31
0.0
  0
LINE
  5
DE
330
1F
100
AcDbEntity
  8
TITLE
370
    35
100
AcDbLine
 10
47.5
 20
35.5
 30
0.0
 11
47.5
 21
0.5
 31
0.0
  0
MTEXT
  5
E0
330
1F
100
AcDbEntity
  8
NOTES
100
AcDbMText
 10
8.242855853
 20
23.4852470191
 30
0.0
 40
0.5
 41
0.0
 71
     1
 72
     1
  1
Top view
  7
SLDTEXTSTYLE0
 73
     1
 44
1.0
  0
MTEXT
  5
E1
330
1F
100
AcDbEntity
  8
NOTES
100
AcDbMText
 10
7.9163905623
 20
9.4670191108
 30
0.0
 40
0.5
 41
0.0
 71
     1
 72
     1
  1
Front view
  7
SLDTEXTSTYLE0
 73
     1
 44
1.0
  0
MTEXT
  5
E2
330
1F
100
AcDbEntity
  8
NOTES
100
AcDbMText
 10
17.9506090751
 20
9.4670191108
 30
0.0
 40
0.5
 41
0.0
 71
     1
 72
     1
  1
Side view
  7
SLDTEXTSTYLE0
 73
     1
 44
1.0
  0
MTEXT
  5
E3
330
1F
100
AcDbEntity
  8
NOTES
100
AcDbMText
 10
29.1185267921
 20
9.4670191108
 30
0.0
 40
0.5
 41
0.0
 71
     1
 72
     1
  1
Back view
  7
SLDTEXTSTYLE0
 73
     1
 44
1.0
  0
INSERT
  5
E9
330
1F
100
AcDbEntity
  8
NOTES
100
AcDbBlockReference
  2
SW_NOTE_0
 10
37.5383513238
 20
9.6623157554
 30
0.0
  0
MTEXT
  5
EB
330
1F
100
AcDbEntity
  8
NOTES
100
AcDbMText
 10
24.408297803
 20
1.0702903347
 30
0.0
 40
0.25
 41
0.0
 71
     1
 72
     1
  1
UNLESS OTHERWISE SPECIFIED DIMENSIONS ARE IN INCHES.
  7
SLDTEXTSTYLE1
 73
     1
 44
1.0
  0
MTEXT
  5
EC
330
1F
100
AcDbEntity
  8
NOTES
100
AcDbMText
 10
24.4368251132
 20
3.2193045501
 30
0.0
 40
0.25
 41
0.0
 71
     1
 72
     1
  1
DATE:
  7
SLDTEXTSTYLE1
 73
     1
 44
1.0
  0
MTEXT
  5
ED
330
1F
100
AcDbEntity
  8
NOTES
100
AcDbMText
 10
26.7130669976
 20
2.1722148141
 30
0.0
 40
0.25
 41
0.0
 71
     2
 72
     1
  1
DO NOT SCALE DRAWING
  7
SLDTEXTSTYLE1
 73
     1
 44
1.0
  0
MTEXT
  5
EE
330
1F
100
AcDbEntity
  8
NOTES
100
AcDbMText
 10
30.8307373075
 20
3.2682755553
 30
0.0
 40
0.25
 41
0.0
 71
     1
 72
     1
  1
TITLE:
  7
SLDTEXTSTYLE0
 73
     1
 44
1.0
  0
MTEXT
  5
EF
330
1F
100
AcDbEntity
  8
NOTES
100
AcDbMText
 10
38.1561831052
 20
3.2682755553
 30
0.0
 40
0.25
 41
0.0
 71
     1
 72
     1
  1
DWG NO.
  7
SLDTEXTSTYLE0
 73
     1
 44
1.0
  0
MTEXT
  5
F0
330
1F
100
AcDbEntity
  8
NOTES
100
AcDbMText
 10
38.1831753203
 20
1.0645815577
 30
0.0
 40
0.25
 41
0.0
 71
     1
 72
     1
  1
SCALE:     1:1
  7
SLDTEXTSTYLE0
 73
     1
 44
1.0
  0
MTEXT
  5
F1
330
1F
100
AcDbEntity
  8
NOTES
100
AcDbMText
 10
42.1831725426
 20
2.6510344295
 30
0.0
 40
0.25
 41
0.0
 71
     2
 72
     1
  1
714-P CAD
  7
SLDTEXTSTYLE0
 73
     1
 44
1.0
  0
MTEXT
  5
F2
330
1F
100
AcDbEntity
  8
NOTES
100
AcDbMText
 10
33.9538537404
 20
2.6388861441
 30
0.0
 40
0.25
 41
0.0
 71
     2
 72
     1
  1
714-P
  7
SLDTEXTSTYLE0
 73
     1
 44
1.0
  0
INSERT
  5
F8
330
1F
100
AcDbEntity
  8
NOTES
100
AcDbBlockReference
  2
SW_NOTE_0_1
 10
38.266131557
 20
4.6105227838
 30
0.0
  0
INSERT
  5
102
330
1F
100
AcDbEntity
  8
NOTES
100
AcDbBlockReference
  2
SW_NOTE_0_2
 10
24.6159726246
 20
5.1481526848
 30
0.0
  0
MTEXT
  5
103
330
1F
100
AcDbEntity
  8
NOTES
100
AcDbMText
 10
27.5286275485
 20
3.2135957731
 30
0.0
 40
0.25
 41
0.0
 71
     2
 72
     1
  1
October 14, 2021
  7
SLDTEXTSTYLE0
 73
     1
 44
1.0
  0
MTEXT
  5
104
330
1F
100
AcDbEntity
  8
TITLE
100
AcDbMText
 10
0.3276279776
 20
1.4558621965
 30
0.0
 40
0.125
 41
0.0
 71
     2
 72
     1
  1
A
  7
SLDTEXTSTYLE0
 73
     1
 44
1.0
  0
MTEXT
  5
105
330
1F
100
AcDbEntity
  8
TITLE
100
AcDbMText
 10
47.6622736469
 20
1.4558621965
 30
0.0
 40
0.125
 41
0.0
 71
     2
 72
     1
  1
A
  7
SLDTEXTSTYLE0
 73
     1
 44
1.0
  0
MTEXT
  5
106
330
1F
100
AcDbEntity
  8
TITLE
100
AcDbMText
 10
0.3317512413
 20
3.316098417
 30
0.0
 40
0.125
 41
0.0
 71
     2
 72
     1
  1
B
  7
SLDTEXTSTYLE0
 73
     1
 44
1.0
  0
MTEXT
  5
107
330
1F
100
AcDbEntity
  8
TITLE
100
AcDbMText
 10
47.6663969106
 20
3.316098417
 30
0.0
 40
0.125
 41
0.0
 71
     2
 72
     1
  1
B
  7
SLDTEXTSTYLE0
 73
     1
 44
1.0
  0
MTEXT
  5
108
330
1F
100
AcDbEntity
  8
TITLE
100
AcDbMText
 10
0.3313750817
 20
5.284602354
 30
0.0
 40
0.125
 41
0.0
 71
     2
 72
     1
  1
C
  7
SLDTEXTSTYLE0
 73
     1
 44
1.0
  0
MTEXT
  5
109
330
1F
100
AcDbEntity
  8
TITLE
100
AcDbMText
 10
47.666020751
 20
5.284602354
 30
0.0
 40
0.125
 41
0.0
 71
     2
 72
     1
  1
C
  7
SLDTEXTSTYLE0
 73
     1
 44
1.0
  0
MTEXT
  5
10A
330
1F
100
AcDbEntity
  8
TITLE
100
AcDbMText
 10
0.3311870028
 20
7.253106291
 30
0.0
 40
0.125
 41
0.0
 71
     2
 72
     1
  1
D
  7
SLDTEXTSTYLE0
 73
     1
 44
1.0
  0
MTEXT
  5
10B
330
1F
100
AcDbEntity
  8
TITLE
100
AcDbMText
 10
47.6658326721
 20
7.253106291
 30
0.0
 40
0.125
 41
0.0
 71
     2
 72
     1
  1
D
  7
SLDTEXTSTYLE0
 73
     1
 44
1.0
  0
MTEXT
  5
10C
330
1F
100
AcDbEntity
  8
TITLE
100
AcDbMText
 10
0.332923116
 20
9.221610228
 30
0.0
 40
0.125
 41
0.0
 71
     2
 72
     1
  1
E
  7
SLDTEXTSTYLE0
 73
     1
 44
1.0
  0
MTEXT
  5
10D
330
1F
100
AcDbEntity
  8
TITLE
100
AcDbMText
 10
47.6675687853
 20
9.221610228
 30
0.0
 40
0.125
 41
0.0
 71
     2
 72
     1
  1
E
  7
SLDTEXTSTYLE0
 73
     1
 44
1.0
  0
MTEXT
  5
10E
330
1F
100
AcDbEntity
  8
TITLE
100
AcDbMText
 10
0.3313461474
 20
11.190114165
 30
0.0
 40
0.125
 41
0.0
 71
     2
 72
     1
  1
F
  7
SLDTEXTSTYLE0
 73
     1
 44
1.0
  0
MTEXT
  5
10F
330
1F
100
AcDbEntity
  8
TITLE
100
AcDbMText
 10
47.6659918167
 20
11.190114165
 30
0.0
 40
0.125
 41
0.0
 71
     2
 72
     1
  1
F
  7
SLDTEXTSTYLE0
 73
     1
 44
1.0
  0
MTEXT
  5
110
330
1F
100
AcDbEntity
  8
TITLE
100
AcDbMText
 10
0.3322576054
 20
13.158618102
 30
0.0
 40
0.125
 41
0.0
 71
     2
 72
     1
  1
G
  7
SLDTEXTSTYLE0
 73
     1
 44
1.0
  0
MTEXT
  5
111
330
1F
100
AcDbEntity
  8
TITLE
100
AcDbMText
 10
47.6669032747
 20
13.158618102
 30
0.0
 40
0.125
 41
0.0
 71
     2
 72
     1
  1
G
  7
SLDTEXTSTYLE0
 73
     1
 44
1.0
  0
MTEXT
  5
112
330
1F
100
AcDbEntity
  8
TITLE
100
AcDbMText
 10
0.3323733457
 20
15.127122039
 30
0.0
 40
0.125
 41
0.0
 71
     2
 72
     1
  1
H
  7
SLDTEXTSTYLE0
 73
     1
 44
1.0
  0
MTEXT
  5
113
330
1F
100
AcDbEntity
  8
TITLE
100
AcDbMText
 10
47.667019015
 20
15.127122039
 30
0.0
 40
0.125
 41
0.0
 71
     2
 72
     1
  1
H
  7
SLDTEXTSTYLE0
 73
     1
 44
1.0
  0
MTEXT
  5
114
330
1F
100
AcDbEntity
  8
TITLE
100
AcDbMText
 10
0.3315776306
 20
17.095625976
 30
0.0
 40
0.125
 41
0.0
 71
     2
 72
     1
  1
J
  7
SLDTEXTSTYLE0
 73
     1
 44
1.0
  0
MTEXT
  5
115
330
1F
100
AcDbEntity
  8
TITLE
100
AcDbMText
 10
47.6662232999
 20
17.095625976
 30
0.0
 40
0.125
 41
0.0
 71
     2
 72
     1
  1
J
  7
SLDTEXTSTYLE0
 73
     1
 44
1.0
  0
MTEXT
  5
116
330
1F
100
AcDbEntity
  8
TITLE
100
AcDbMText
 10
0.3323154765
 20
19.064129913
 30
0.0
 40
0.125
 41
0.0
 71
     2
 72
     1
  1
K
  7
SLDTEXTSTYLE0
 73
     1
 44
1.0
  0
MTEXT
  5
117
330
1F
100
AcDbEntity
  8
TITLE
100
AcDbMText
 10
47.6669611458
 20
19.064129913
 30
0.0
 40
0.125
 41
0.0
 71
     2
 72
     1
  1
K
  7
SLDTEXTSTYLE0
 73
     1
 44
1.0
  0
MTEXT
  5
118
330
1F
100
AcDbEntity
  8
TITLE
100
AcDbMText
 10
0.3312448739
 20
21.03263385
 30
0.0
 40
0.125
 41
0.0
 71
     2
 72
     1
  1
L
  7
SLDTEXTSTYLE0
 73
     1
 44
1.0
  0
MTEXT
  5
119
330
1F
100
AcDbEntity
  8
TITLE
100
AcDbMText
 10
47.6658905432
 20
21.03263385
 30
0.0
 40
0.125
 41
0.0
 71
     2
 72
     1
  1
L
  7
SLDTEXTSTYLE0
 73
     1
 44
1.0
  0
MTEXT
  5
11A
330
1F
100
AcDbEntity
  8
TITLE
100
AcDbMText
 10
0.3283224192
 20
23.001137787
 30
0.0
 40
0.125
 41
0.0
 71
     2
 72
     1
  1
M
  7
SLDTEXTSTYLE0
 73
     1
 44
1.0
  0
MTEXT
  5
11B
330
1F
100
AcDbEntity
  8
TITLE
100
AcDbMText
 10
47.6629680885
 20
23.001137787
 30
0.0
 40
0.125
 41
0.0
 71
     2
 72
     1
  1
M
  7
SLDTEXTSTYLE0
 73
     1
 44
1.0
  0
MTEXT
  5
11C
330
1F
100
AcDbEntity
  8
TITLE
100
AcDbMText
 10
0.3315342276
 20
24.969641724
 30
0.0
 40
0.125
 41
0.0
 71
     2
 72
     1
  1
N
  7
SLDTEXTSTYLE0
 73
     1
 44
1.0
  0
MTEXT
  5
11D
330
1F
100
AcDbEntity
  8
TITLE
100
AcDbMText
 10
47.6661798969
 20
24.969641724
 30
0.0
 40
0.125
 41
0.0
 71
     2
 72
     1
  1
N
  7
SLDTEXTSTYLE0
 73
     1
 44
1.0
  0
MTEXT
  5
11E
330
1F
100
AcDbEntity
  8
TITLE
100
AcDbMText
 10
0.3321997349
 20
26.9381456611
 30
0.0
 40
0.125
 41
0.0
 71
     2
 72
     1
  1
P
  7
SLDTEXTSTYLE0
 73
     1
 44
1.0
  0
MTEXT
  5
11F
330
1F
100
AcDbEntity
  8
TITLE
100
AcDbMText
 10
47.6668454042
 20
26.9381456611
 30
0.0
 40
0.125
 41
0.0
 71
     2
 72
     1
  1
P
  7
SLDTEXTSTYLE0
 73
     1
 44
1.0
  0
MTEXT
  5
120
330
1F
100
AcDbEntity
  8
TITLE
100
AcDbMText
 10
0.3309265867
 20
28.9066495981
 30
0.0
 40
0.125
 41
0.0
 71
     2
 72
     1
  1
R
  7
SLDTEXTSTYLE0
 73
     1
 44
1.0
  0
MTEXT
  5
121
330
1F
100
AcDbEntity
  8
TITLE
100
AcDbMText
 10
47.665572256
 20
28.9066495981
 30
0.0
 40
0.125
 41
0.0
 71
     2
 72
     1
  1
R
  7
SLDTEXTSTYLE0
 73
     1
 44
1.0
  0
MTEXT
  5
122
330
1F
100
AcDbEntity
  8
TITLE
100
AcDbMText
 10
0.3323010071
 20
30.8751535351
 30
0.0
 40
0.125
 41
0.0
 71
     2
 72
     1
  1
T
  7
SLDTEXTSTYLE0
 73
     1
 44
1.0
  0
MTEXT
  5
123
330
1F
100
AcDbEntity
  8
TITLE
100
AcDbMText
 10
47.6669466764
 20
30.8751535351
 30
0.0
 40
0.125
 41
0.0
 71
     2
 72
     1
  1
T
  7
SLDTEXTSTYLE0
 73
     1
 44
1.0
  0
MTEXT
  5
124
330
1F
100
AcDbEntity
  8
TITLE
100
AcDbMText
 10
0.3328507755
 20
32.8436574721
 30
0.0
 40
0.125
 41
0.0
 71
     2
 72
     1
  1
U
  7
SLDTEXTSTYLE0
 73
     1
 44
1.0
  0
MTEXT
  5
125
330
1F
100
AcDbEntity
  8
TITLE
100
AcDbMText
 10
47.6674964448
 20
32.8436574721
 30
0.0
 40
0.125
 41
0.0
 71
     2
 72
     1
  1
U
  7
SLDTEXTSTYLE0
 73
     1
 44
1.0
  0
MTEXT
  5
126
330
1F
100
AcDbEntity
  8
TITLE
100
AcDbMText
 10
0.3307529773
 20
34.7038936925
 30
0.0
 40
0.125
 41
0.0
 71
     2
 72
     1
  1
V
  7
SLDTEXTSTYLE0
 73
     1
 44
1.0
  0
MTEXT
  5
127
330
1F
100
AcDbEntity
  8
TITLE
100
AcDbMText
 10
47.6653986466
 20
34.7038936925
 30
0.0
 40
0.125
 41
0.0
 71
     2
 72
     1
  1
V
  7
SLDTEXTSTYLE0
 73
     1
 44
1.0
  0
MTEXT
  5
128
330
1F
100
AcDbEntity
  8
TITLE
100
AcDbMText
 10
1.4207109851
 20
0.4125551099
 30
0.0
 40
0.125
 41
0.0
 71
     2
 72
     1
  1
24
  7
SLDTEXTSTYLE0
 73
     1
 44
1.0
  0
MTEXT
  5
129
330
1F
100
AcDbEntity
  8
TITLE
100
AcDbMText
 10
1.4207109851
 20
35.7472007792
 30
0.0
 40
0.125
 41
0.0
 71
     2
 72
     1
  1
24
  7
SLDTEXTSTYLE0
 73
     1
 44
1.0
  0
MTEXT
  5
12A
330
1F
100
AcDbEntity
  8
TITLE
100
AcDbMText
 10
3.3281913
 20
0.4125551099
 30
0.0
 40
0.125
 41
0.0
 71
     2
 72
     1
  1
23
  7
SLDTEXTSTYLE0
 73
     1
 44
1.0
  0
MTEXT
  5
12B
330
1F
100
AcDbEntity
  8
TITLE
100
AcDbMText
 10
3.3281913
 20
35.7472007792
 30
0.0
 40
0.125
 41
0.0
 71
     2
 72
     1
  1
23
  7
SLDTEXTSTYLE0
 73
     1
 44
1.0
  0
MTEXT
  5
12C
330
1F
100
AcDbEntity
  8
TITLE
100
AcDbMText
 10
5.2966952371
 20
0.4125551099
 30
0.0
 40
0.125
 41
0.0
 71
     2
 72
     1
  1
22
  7
SLDTEXTSTYLE0
 73
     1
 44
1.0
  0
MTEXT
  5
12D
330
1F
100
AcDbEntity
  8
TITLE
100
AcDbMText
 10
5.2966952371
 20
35.7472007792
 30
0.0
 40
0.125
 41
0.0
 71
     2
 72
     1
  1
22
  7
SLDTEXTSTYLE0
 73
     1
 44
1.0
  0
MTEXT
  5
12E
330
1F
100
AcDbEntity
  8
TITLE
100
AcDbMText
 10
7.2651991741
 20
0.4125551099
 30
0.0
 40
0.125
 41
0.0
 71
     2
 72
     1
  1
21
  7
SLDTEXTSTYLE0
 73
     1
 44
1.0
  0
MTEXT
  5
12F
330
1F
100
AcDbEntity
  8
TITLE
100
AcDbMText
 10
7.2651991741
 20
35.7472007792
 30
0.0
 40
0.125
 41
0.0
 71
     2
 72
     1
  1
21
  7
SLDTEXTSTYLE0
 73
     1
 44
1.0
  0
MTEXT
  5
130
330
1F
100
AcDbEntity
  8
TITLE
100
AcDbMText
 10
9.2337031111
 20
0.4125551099
 30
0.0
 40
0.125
 41
0.0
 71
     2
 72
     1
  1
20
  7
SLDTEXTSTYLE0
 73
     1
 44
1.0
  0
MTEXT
  5
131
330
1F
100
AcDbEntity
  8
TITLE
100
AcDbMText
 10
9.2337031111
 20
35.7472007792
 30
0.0
 40
0.125
 41
0.0
 71
     2
 72
     1
  1
20
  7
SLDTEXTSTYLE0
 73
     1
 44
1.0
  0
MTEXT
  5
132
330
1F
100
AcDbEntity
  8
TITLE
100
AcDbMText
 10
11.2022070481
 20
0.4125551099
 30
0.0
 40
0.125
 41
0.0
 71
     2
 72
     1
  1
19
  7
SLDTEXTSTYLE0
 73
     1
 44
1.0
  0
MTEXT
  5
133
330
1F
100
AcDbEntity
  8
TITLE
100
AcDbMText
 10
11.2022070481
 20
35.7472007792
 30
0.0
 40
0.125
 41
0.0
 71
     2
 72
     1
  1
19
  7
SLDTEXTSTYLE0
 73
     1
 44
1.0
  0
MTEXT
  5
134
330
1F
100
AcDbEntity
  8
TITLE
100
AcDbMText
 10
13.1707109851
 20
0.4125551099
 30
0.0
 40
0.125
 41
0.0
 71
     2
 72
     1
  1
18
  7
SLDTEXTSTYLE0
 73
     1
 44
1.0
  0
MTEXT
  5
135
330
1F
100
AcDbEntity
  8
TITLE
100
AcDbMText
 10
13.1707109851
 20
35.7472007792
 30
0.0
 40
0.125
 41
0.0
 71
     2
 72
     1
  1
18
  7
SLDTEXTSTYLE0
 73
     1
 44
1.0
  0
MTEXT
  5
136
330
1F
100
AcDbEntity
  8
TITLE
100
AcDbMText
 10
15.1392149221
 20
0.4125551099
 30
0.0
 40
0.125
 41
0.0
 71
     2
 72
     1
  1
17
  7
SLDTEXTSTYLE0
 73
     1
 44
1.0
  0
MTEXT
  5
137
330
1F
100
AcDbEntity
  8
TITLE
100
AcDbMText
 10
15.1392149221
 20
35.7472007792
 30
0.0
 40
0.125
 41
0.0
 71
     2
 72
     1
  1
17
  7
SLDTEXTSTYLE0
 73
     1
 44
1.0
  0
MTEXT
  5
138
330
1F
100
AcDbEntity
  8
TITLE
100
AcDbMText
 10
17.1077188591
 20
0.4125551099
 30
0.0
 40
0.125
 41
0.0
 71
     2
 72
     1
  1
16
  7
SLDTEXTSTYLE0
 73
     1
 44
1.0
  0
MTEXT
  5
139
330
1F
100
AcDbEntity
  8
TITLE
100
AcDbMText
 10
17.1077188591
 20
35.7472007792
 30
0.0
 40
0.125
 41
0.0
 71
     2
 72
     1
  1
16
  7
SLDTEXTSTYLE0
 73
     1
 44
1.0
  0
MTEXT
  5
13A
330
1F
100
AcDbEntity
  8
TITLE
100
AcDbMText
 10
19.0762227961
 20
0.4125551099
 30
0.0
 40
0.125
 41
0.0
 71
     2
 72
     1
  1
15
  7
SLDTEXTSTYLE0
 73
     1
 44
1.0
  0
MTEXT
  5
13B
330
1F
100
AcDbEntity
  8
TITLE
100
AcDbMText
 10
19.0762227961
 20
35.7472007792
 30
0.0
 40
0.125
 41
0.0
 71
     2
 72
     1
  1
15
  7
SLDTEXTSTYLE0
 73
     1
 44
1.0
  0
MTEXT
  5
13C
330
1F
100
AcDbEntity
  8
TITLE
100
AcDbMText
 10
21.0447267331
 20
0.4125551099
 30
0.0
 40
0.125
 41
0.0
 71
     2
 72
     1
  1
14
  7
SLDTEXTSTYLE0
 73
     1
 44
1.0
  0
MTEXT
  5
13D
330
1F
100
AcDbEntity
  8
TITLE
100
AcDbMText
 10
21.0447267331
 20
35.7472007792
 30
0.0
 40
0.125
 41
0.0
 71
     2
 72
     1
  1
14
  7
SLDTEXTSTYLE0
 73
     1
 44
1.0
  0
MTEXT
  5
13E
330
1F
100
AcDbEntity
  8
TITLE
100
AcDbMText
 10
23.0132306701
 20
0.4125551099
 30
0.0
 40
0.125
 41
0.0
 71
     2
 72
     1
  1
13
  7
SLDTEXTSTYLE0
 73
     1
 44
1.0
  0
MTEXT
  5
13F
330
1F
100
AcDbEntity
  8
TITLE
100
AcDbMText
 10
23.0132306701
 20
35.7472007792
 30
0.0
 40
0.125
 41
0.0
 71
     2
 72
     1
  1
13
  7
SLDTEXTSTYLE0
 73
     1
 44
1.0
  0
MTEXT
  5
140
330
1F
100
AcDbEntity
  8
TITLE
100
AcDbMText
 10
24.9817346071
 20
0.4125551099
 30
0.0
 40
0.125
 41
0.0
 71
     2
 72
     1
  1
12
  7
SLDTEXTSTYLE0
 73
     1
 44
1.0
  0
MTEXT
  5
141
330
1F
100
AcDbEntity
  8
TITLE
100
AcDbMText
 10
24.9817346071
 20
35.7472007792
 30
0.0
 40
0.125
 41
0.0
 71
     2
 72
     1
  1
12
  7
SLDTEXTSTYLE0
 73
     1
 44
1.0
  0
MTEXT
  5
142
330
1F
100
AcDbEntity
  8
TITLE
100
AcDbMText
 10
26.9502385441
 20
0.4125551099
 30
0.0
 40
0.125
 41
0.0
 71
     2
 72
     1
  1
11
  7
SLDTEXTSTYLE0
 73
     1
 44
1.0
  0
MTEXT
  5
143
330
1F
100
AcDbEntity
  8
TITLE
100
AcDbMText
 10
26.9502385441
 20
35.7472007792
 30
0.0
 40
0.125
 41
0.0
 71
     2
 72
     1
  1
11
  7
SLDTEXTSTYLE0
 73
     1
 44
1.0
  0
MTEXT
  5
144
330
1F
100
AcDbEntity
  8
TITLE
100
AcDbMText
 10
28.9187424811
 20
0.4125551099
 30
0.0
 40
0.125
 41
0.0
 71
     2
 72
     1
  1
10
  7
SLDTEXTSTYLE0
 73
     1
 44
1.0
  0
MTEXT
  5
145
330
1F
100
AcDbEntity
  8
TITLE
100
AcDbMText
 10
28.9187424811
 20
35.7472007792
 30
0.0
 40
0.125
 41
0.0
 71
     2
 72
     1
  1
10
  7
SLDTEXTSTYLE0
 73
     1
 44
1.0
  0
MTEXT
  5
146
330
1F
100
AcDbEntity
  8
TITLE
100
AcDbMText
 10
30.8885050988
 20
0.4125551099
 30
0.0
 40
0.125
 41
0.0
 71
     2
 72
     1
  1
9
  7
SLDTEXTSTYLE0
 73
     1
 44
1.0
  0
MTEXT
  5
147
330
1F
100
AcDbEntity
  8
TITLE
100
AcDbMText
 10
30.8885050988
 20
35.7472007792
 30
0.0
 40
0.125
 41
0.0
 71
     2
 72
     1
  1
9
  7
SLDTEXTSTYLE0
 73
     1
 44
1.0
  0
MTEXT
  5
148
330
1F
100
AcDbEntity
  8
TITLE
100
AcDbMText
 10
32.8570090359
 20
0.4125551099
 30
0.0
 40
0.125
 41
0.0
 71
     2
 72
     1
  1
8
  7
SLDTEXTSTYLE0
 73
     1
 44
1.0
  0
MTEXT
  5
149
330
1F
100
AcDbEntity
  8
TITLE
100
AcDbMText
 10
32.8570090359
 20
35.7472007792
 30
0.0
 40
0.125
 41
0.0
 71
     2
 72
     1
  1
8
  7
SLDTEXTSTYLE0
 73
     1
 44
1.0
  0
MTEXT
  5
14A
330
1F
100
AcDbEntity
  8
TITLE
100
AcDbMText
 10
34.8255129729
 20
0.4125551099
 30
0.0
 40
0.125
 41
0.0
 71
     2
 72
     1
  1
7
  7
SLDTEXTSTYLE0
 73
     1
 44
1.0
  0
MTEXT
  5
14B
330
1F
100
AcDbEntity
  8
TITLE
100
AcDbMText
 10
34.8255129729
 20
35.7472007792
 30
0.0
 40
0.125
 41
0.0
 71
     2
 72
     1
  1
7
  7
SLDTEXTSTYLE0
 73
     1
 44
1.0
  0
MTEXT
  5
14C
330
1F
100
AcDbEntity
  8
TITLE
100
AcDbMText
 10
36.7940169099
 20
0.4125551099
 30
0.0
 40
0.125
 41
0.0
 71
     2
 72
     1
  1
6
  7
SLDTEXTSTYLE0
 73
     1
 44
1.0
  0
MTEXT
  5
14D
330
1F
100
AcDbEntity
  8
TITLE
100
AcDbMText
 10
36.7940169099
 20
35.7472007792
 30
0.0
 40
0.125
 41
0.0
 71
     2
 72
     1
  1
6
  7
SLDTEXTSTYLE0
 73
     1
 44
1.0
  0
MTEXT
  5
14E
330
1F
100
AcDbEntity
  8
TITLE
100
AcDbMText
 10
38.7625208469
 20
0.4125551099
 30
0.0
 40
0.125
 41
0.0
 71
     2
 72
     1
  1
5
  7
SLDTEXTSTYLE0
 73
     1
 44
1.0
  0
MTEXT
  5
14F
330
1F
100
AcDbEntity
  8
TITLE
100
AcDbMText
 10
38.7625208469
 20
35.7472007792
 30
0.0
 40
0.125
 41
0.0
 71
     2
 72
     1
  1
5
  7
SLDTEXTSTYLE0
 73
     1
 44
1.0
  0
MTEXT
  5
150
330
1F
100
AcDbEntity
  8
TITLE
100
AcDbMText
 10
40.7310247839
 20
0.4125551099
 30
0.0
 40
0.125
 41
0.0
 71
     2
 72
     1
  1
4
  7
SLDTEXTSTYLE0
 73
     1
 44
1.0
  0
MTEXT
  5
151
330
1F
100
AcDbEntity
  8
TITLE
100
AcDbMText
 10
40.7310247839
 20
35.7472007792
 30
0.0
 40
0.125
 41
0.0
 71
     2
 72
     1
  1
4
  7
SLDTEXTSTYLE0
 73
     1
 44
1.0
  0
MTEXT
  5
152
330
1F
100
AcDbEntity
  8
TITLE
100
AcDbMText
 10
42.6995287209
 20
0.4125551099
 30
0.0
 40
0.125
 41
0.0
 71
     2
 72
     1
  1
3
  7
SLDTEXTSTYLE0
 73
     1
 44
1.0
  0
MTEXT
  5
153
330
1F
100
AcDbEntity
  8
TITLE
100
AcDbMText
 10
42.6995287209
 20
35.7472007792
 30
0.0
 40
0.125
 41
0.0
 71
     2
 72
     1
  1
3
  7
SLDTEXTSTYLE0
 73
     1
 44
1.0
  0
MTEXT
  5
154
330
1F
100
AcDbEntity
  8
TITLE
100
AcDbMText
 10
44.6680326579
 20
0.4125551099
 30
0.0
 40
0.125
 41
0.0
 71
     2
 72
     1
  1
2
  7
SLDTEXTSTYLE0
 73
     1
 44
1.0
  0
MTEXT
  5
155
330
1F
100
AcDbEntity
  8
TITLE
100
AcDbMText
 10
44.6680326579
 20
35.7472007792
 30
0.0
 40
0.125
 41
0.0
 71
     2
 72
     1
  1
2
  7
SLDTEXTSTYLE0
 73
     1
 44
1.0
  0
MTEXT
  5
156
330
1F
100
AcDbEntity
  8
TITLE
100
AcDbMText
 10
46.5755129729
 20
0.4125551099
 30
0.0
 40
0.125
 41
0.0
 71
     2
 72
     1
  1
1
  7
SLDTEXTSTYLE0
 73
     1
 44
1.0
  0
MTEXT
  5
157
330
1F
100
AcDbEntity
  8
TITLE
100
AcDbMText
 10
46.5755129729
 20
35.7472007792
 30
0.0
 40
0.125
 41
0.0
 71
     2
 72
     1
  1
1
  7
SLDTEXTSTYLE0
 73
     1
 44
1.0
  0
LINE
  5
158
330
1F
100
AcDbEntity
  8
0
  6
SLD-Solid
 62
     7
370
    25
100
AcDbLine
 10
7.331946326
 20
13.8935512733
 30
0.0
 11
7.331946326
 21
13.7080997576
 31
0.0
  0
ELLIPSE
  5
159
330
1F
100
AcDbEntity
  8
0
  6
SLD-Solid
 62
     7
370
    25
100
AcDbEllipse
 10
9.539446326
 20
15.4131486289
 30
0.0
 11
0.0
 21
1.221
 31
0.0
210
0.0
220
0.0
230
1.0
 40
0.6859131859
 41
0.0
 42
6.283185307179586
  0
SPLINE
  5
15A
330
1F
100
AcDbEntity
  8
0
  6
SLD-Solid
 62
     7
370
    25
100
AcDbSpline
210
0.0
220
0.0
230
1.0
 70
     8
 71
     3
 72
    26
 73
    22
 74
     0
 42
0.00000001
 43
0.00000001
 40
0.0
 40
0.0
 40
0.0
 40
0.0
 40
0.0078125
 40
0.0078125
 40
0.015625
 40
0.03125
 40
0.0625000000000005
 40
0.0625000000000005
 40
0.125000000000001
 40
0.125000000000001
 40
0.2500000000000013
 40
0.2500000000000013
 40
0.3750000000000017
 40
0.3750000000000017
 40
0.4375000000000018
 40
0.4375000000000018
 40
0.500000000000002
 40
0.500000000000002
 40
0.750000000000001
 40
0.750000000000001
 40
1.0
 40
1.0
 40
1.0
 40
1.0
 10
9.539446326005647
 20
16.99494205324797
 30
0.0
 10
9.54594370496361
 20
16.99851180832176
 30
0.0
 10
9.552576930272961
 20
17.00217594818089
 30
0.0
 10
9.565675321911922
 20
17.00945137076731
 30
0.0
 10
9.585290684047084
 20
17.02040600936461
 30
0.0
 10
9.6308345013061
 20
17.04625716365799
 30
0.0
 10
9.669486419638908
 20
17.06891237410165
 30
0.0
 10
9.746277407284278
 20
17.11488454628619
 30
0.0
 10
9.79678779056486
 20
17.14641474845456
 30
0.0
 10
9.946271925489585
 20
17.2436524022187
 30
0.0
 10
10.04320183325898
 20
17.31200273879445
 30
0.0
 10
10.23155528280202
 20
17.45585519599162
 30
0.0
 10
10.32297926693898
 20
17.53135669272873
 30
0.0
 10
10.45586530608194
 20
17.6501536463589
 30
0.0
 10
10.49945145655326
 20
17.69067790293121
 30
0.0
 10
10.58517376782071
 20
17.77362245982172
 30
0.0
 10
10.62739874186867
 20
17.81613872421822
 30
0.0
 10
10.83339069259815
 20
18.03209821620459
 30
0.0
 10
10.98214335759213
 20
18.21572962956636
 30
0.0
 10
11.24748259795962
 20
18.60516807764093
 30
0.0
 10
11.36409182702891
 20
18.81095777707862
 30
0.0
 10
11.46311607935524
 20
19.02905726308476
 30
0.0
  0
SPLINE
  5
15B
330
1F
100
AcDbEntity
  8
0
  6
SLD-Solid
 62
     7
370
    25
100
AcDbSpline
210
0.0
220
0.0
230
1.0
 70
     8
 71
     3
 72
    16
 73
    12
 74
     0
 42
0.00000001
 43
0.00000001
 40
0.0
 40
0.0
 40
0.0
 40
0.0
 40
0.4999999999999999
 40
0.4999999999999999
 40
0.7499999999999998
 40
0.7499999999999998
 40
0.8749999999999998
 40
0.8749999999999998
 40
0.9374999999999999
 40
0.9374999999999999
 40
1.0
 40
1.0
 40
1.0
 40
1.0
 10
11.51855344336286
 20
13.21411029880902
 30
0.0
 10
11.18761902286769
 20
13.30821072819925
 30
0.0
 10
10.85688492818775
 20
13.4102290495741
 30
0.0
 10
10.36107010209327
 20
13.57459944463256
 30
0.0
 10
10.19603807047303
 20
13.63122321509952
 30
0.0
 10
9.949260817075558
 20
13.71870615503066
 30
0.0
 10
9.867125939461651
 20
13.74829292671409
 30
0.0
 10
9.744108090708062
 20
13.79330546850951
 30
0.0
 10
9.703132890090364
 20
13.80841506142399
 30
0.0
 10
9.621243730848754
 20
13.83884419679485
 30
0.0
 10
9.580278963525627
 20
13.85418291007526
 30
0.0
 10
9.539446326005647
 20
13.86958787491833
 30
0.0
  0
SPLINE
  5
15C
330
1F
100
AcDbEntity
  8
0
  6
SLD-Solid
 62
     7
370
    25
100
AcDbSpline
210
0.0
220
0.0
230
1.0
 70
     8
 71
     3
 72
    48
 73
    44
 74
     0
 42
0.00000001
 43
0.00000001
 40
0.0
 40
0.0
 40
0.0
 40
0.0
 40
0.0625000000000009
 40
0.0625000000000009
 40
0.0937500000000012
 40
0.0937500000000012
 40
0.1250000000000015
 40
0.1250000000000015
 40
0.1875000000000022
 40
0.1875000000000022
 40
0.2187500000000027
 40
0.2187500000000027
 40
0.2500000000000033
 40
0.2500000000000033
 40
0.3125000000000041
 40
0.3125000000000041
 40
0.3750000000000047
 40
0.3750000000000047
 40
0.4375000000000054
 40
0.4375000000000054
 40
0.5000000000000061
 40
0.5000000000000061
 40
0.5625000000000069
 40
0.5625000000000069
 40
0.5937500000000068
 40
0.5937500000000068
 40
0.6250000000000067
 40
0.6250000000000067
 40
0.6875000000000063
 40
0.6875000000000063
 40
0.750000000000006
 40
0.750000000000006
 40
0.7812500000000054
 40
0.7812500000000054
 40
0.8125000000000049
 40
0.8125000000000049
 40
0.8750000000000037
 40
0.8750000000000037
 40
0.9062500000000027
 40
0.9062500000000027
 40
0.9375000000000018
 40
0.9375000000000018
 40
1.0
 40
1.0
 40
1.0
 40
1.0
 10
9.234552587875225
 20
13.98676795589617
 30
0.0
 10
9.167644989525476
 20
14.0129547654874
 30
0.0
 10
9.105564520136614
 20
14.04656440166275
 30
0.0
 10
9.018497425962133
 20
14.1063000068461
 30
0.0
 10
8.990493441230159
 20
14.12777991470534
 30
0.0
 10
8.936412410923007
 20
14.17370894096453
 30
0.0
 10
8.910214821690191
 20
14.19829455916014
 30
0.0
 10
8.835809256619296
 20
14.2748697488085
 30
0.0
 10
8.791399469938527
 20
14.32985423569236
 30
0.0
 10
8.731295464071101
 20
14.41727204360861
 30
0.0
 10
8.712356145931828
 20
14.44724255091645
 30
0.0
 10
8.676555133234931
 20
14.50876169550106
 30
0.0
 10
8.65970232570598
 20
14.54033189807037
 30
0.0
 10
8.612841158501803
 20
14.63570903594907
 30
0.0
 10
8.586174137970694
 20
14.70069684084862
 30
0.0
 10
8.540665418730443
 20
14.83307705122432
 30
0.0
 10
8.521840548560014
 20
14.90047459566907
 30
0.0
 10
8.491453328985568
 20
15.0375042796472
 30
0.0
 10
8.479871881363609
 20
15.10713052192232
 30
0.0
 10
8.463819815625165
 20
15.24857279505062
 30
0.0
 10
8.459482312926148
 20
15.31922574432336
 30
0.0
 10
8.45790075797608
 20
15.46027395570634
 30
0.0
 10
8.46067007538278
 20
15.53069035052518
 30
0.0
 10
8.470188741378948
 20
15.63615267117497
 30
0.0
 10
8.474259867664223
 20
15.67127960904175
 30
0.0
 10
8.484255721085724
 20
15.74147743743776
 30
0.0
 10
8.490200598145616
 20
15.77663913739168
 30
0.0
 10
8.510760832976011
 20
15.88108750399114
 30
0.0
 10
8.528107104102416
 20
15.94946761982637
 30
0.0
 10
8.570477841491154
 20
16.08358952903513
 30
0.0
 10
8.595488396291026
 20
16.14933607417236
 30
0.0
 10
8.639528727280505
 20
16.24571763259258
 30
0.0
 10
8.655303744074157
 20
16.27746921726457
 30
0.0
 10
8.689271274490535
 20
16.34014383968362
 30
0.0
 10
8.707306203794287
 20
16.37077401202691
 30
0.0
 10
8.764527045858472
 20
16.46011577101284
 30
0.0
 10
8.806869923961715
 20
16.51644505721993
 30
0.0
 10
8.87774946842409
 20
16.5952761405913
 30
0.0
 10
8.90260947390876
 20
16.62060481161241
 30
0.0
 10
8.955089127599942
 20
16.66914239308
 30
0.0
 10
8.98235008393923
 20
16.69200841872651
 30
0.0
 10
9.067117286862874
 20
16.75597397243083
 30
0.0
 10
9.127679864793867
 20
16.79257196545131
 30
0.0
 10
9.193023431485482
 20
16.82204511211377
 30
0.0
  0
SPLINE
  5
15D
330
1F
100
AcDbEntity
  8
0
  6
SLD-Solid
 62
     7
370
    25
100
AcDbSpline
210
0.0
220
0.0
230
1.0
 70
     8
 71
     3
 72
    10
 73
     6
 74
     0
 42
0.00000001
 43
0.00000001
 40
0.0
 40
0.0
 40
0.0
 40
0.0
 40
0.5
 40
0.5
 40
1.0
 40
1.0
 40
1.0
 40
1.0
 10
9.19302343148548
 20
16.82204511211377
 30
0.0
 10
9.251877842800551
 20
16.84859133208399
 30
0.0
 10
9.310177386886341
 20
16.87626556239592
 30
0.0
 10
9.425656151776417
 20
16.93388950571894
 30
0.0
 10
9.482885381941635
 20
16.96386667849199
 30
0.0
 10
9.539446326005647
 20
16.99494205324644
 30
0.0
  0
SPLINE
  5
15E
330
1F
100
AcDbEntity
  8
0
  6
SLD-Solid
 62
     7
370
    25
100
AcDbSpline
210
0.0
220
0.0
230
1.0
 70
     8
 71
     3
 72
     8
 73
     4
 74
     0
 42
0.00000001
 43
0.00000001
 40
0.0
 40
0.0
 40
0.0
 40
0.0
 40
1.0
 40
1.0
 40
1.0
 40
1.0
 10
9.539446326005647
 20
13.86958787491938
 30
0.0
 10
9.437561988041269
 20
13.90802587856033
 30
0.0
 10
9.335921910658646
 20
13.94709325201394
 30
0.0
 10
9.234552587875225
 20
13.98676795589617
 30
0.0
  0
SPLINE
  5
15F
330
1F
100
AcDbEntity
  8
0
  6
SLD-Solid
 62
     7
370
    25
100
AcDbSpline
210
0.0
220
0.0
230
1.0
 70
     8
 71
     3
 72
    10
 73
     6
 74
     0
 42
0.00000001
 43
0.00000001
 40
0.0
 40
0.0
 40
0.0
 40
0.0
 40
0.5
 40
0.5
 40
1.0
 40
1.0
 40
1.0
 40
1.0
 10
9.539446326005647
 20
20.18911647946198
 30
0.0
 10
9.217745615790813
 20
20.1891164793678
 30
0.0
 10
8.89604511310035
 20
20.18843210921046
 30
0.0
 10
8.252651211593179
 20
20.18549881863897
 30
0.0
 10
7.930958378557511
 20
20.18316096002908
 30
0.0
 10
7.609271441914115
 20
20.18019795900156
 30
0.0
  0
SPLINE
  5
160
330
1F
100
AcDbEntity
  8
0
  6
SLD-Solid
 62
     7
370
    25
100
AcDbSpline
210
0.0
220
0.0
230
1.0
 70
     8
 71
     3
 72
     8
 73
     4
 74
     0
 42
0.00000001
 43
0.00000001
 40
0.0
 40
0.0
 40
0.0
 40
0.0
 40
1.0
 40
1.0
 40
1.0
 40
1.0
 10
11.46955524161661
 20
20.18052404002068
 30
0.0
 10
10.82620328086148
 20
20.18629800453108
 30
0.0
 10
10.1828247589358
 20
20.18911768404146
 30
0.0
 10
9.539446326005647
 20
20.1891176840763
 30
0.0
  0
SPLINE
  5
161
330
1F
100
AcDbEntity
  8
0
  6
SLD-Solid
 62
     7
370
    25
100
AcDbSpline
210
0.0
220
0.0
230
1.0
 70
     8
 71
     3
 72
     8
 73
     4
 74
     0
 42
0.00000001
 43
0.00000001
 40
0.0
 40
0.0
 40
0.0
 40
0.0
 40
1.0
 40
1.0
 40
1.0
 40
1.0
 10
11.4631263077152
 20
19.02905726305836
 30
0.0
 10
11.48109197524019
 20
19.07068867485746
 30
0.0
 10
11.49948466781532
 20
19.11191785556857
 30
0.0
 10
11.51816546291293
 20
19.15255922860161
 30
0.0
  0
SPLINE
  5
162
330
1F
100
AcDbEntity
  8
0
  6
SLD-Solid
 62
     7
370
    25
100
AcDbSpline
210
0.0
220
0.0
230
1.0
 70
    24
 71
     3
 72
     8
 73
     4
 74
     0
 42
0.00000001
 43
0.00000001
 40
0.0
 40
0.0
 40
0.0
 40
0.0
 40
1.0
 40
1.0
 40
1.0
 40
1.0
 10
7.331946326005647
 20
19.02905726304883
 30
0.0
 10
7.331946326005647
 20
19.04729964072235
 30
0.0
 10
7.331946326005646
 20
19.06546824819462
 30
0.0
 10
7.331946326005646
 20
19.0835677202147
 30
0.0
  0
SPLINE
  5
163
330
1F
100
AcDbEntity
  8
0
  6
SLD-Solid
 62
     7
370
    25
100
AcDbSpline
210
0.0
220
0.0
230
1.0
 70
     8
 71
     3
 72
     8
 73
     4
 74
     0
 42
0.00000001
 43
0.00000001
 40
0.0
 40
0.0
 40
0.0
 40
0.0
 40
1.0
 40
1.0
 40
1.0
 40
1.0
 10
7.575594465804969
 20
20.17784941627058
 30
0.0
 10
7.586742283400506
 20
20.17930727668466
 30
0.0
 10
7.597967513550757
 20
20.18009384053251
 30
0.0
 10
7.609271441914117
 20
20.18019795900156
 30
0.0
  0
SPLINE
  5
164
330
1F
100
AcDbEntity
  8
0
  6
SLD-Solid
 62
     7
370
    25
100
AcDbSpline
210
0.0
220
0.0
230
1.0
 70
     8
 71
     3
 72
    26
 73
    22
 74
     0
 42
0.00000001
 43
0.00000001
 40
0.0
 40
0.0
 40
0.0
 40
0.0
 40
0.2500000000000012
 40
0.2500000000000012
 40
0.3750000000000022
 40
0.3750000000000022
 40
0.5000000000000032
 40
0.5000000000000032
 40
0.6250000000000042
 40
0.6250000000000042
 40
0.6875000000000036
 40
0.6875000000000036
 40
0.7500000000000028
 40
0.7500000000000028
 40
0.8125000000000021
 40
0.8125000000000021
 40
0.8750000000000014
 40
0.8750000000000014
 40
0.9375000000000007
 40
0.9375000000000007
 40
1.0
 40
1.0
 40
1.0
 40
1.0
 10
11.51816546291299
 20
19.15255922860158
 30
0.0
 10
11.53738842526059
 20
19.1869267492323
 30
0.0
 10
11.55713631831993
 20
19.21927139935856
 30
0.0
 10
11.58804250174582
 20
19.26397783629764
 30
0.0
 10
11.59856346616595
 20
19.27824037220175
 30
0.0
 10
11.6202134570273
 20
19.30512415748371
 30
0.0
 10
11.6310663504072
 20
19.31740527023817
 30
0.0
 10
11.65292645119212
 20
19.33907708075677
 30
0.0
 10
11.66398870711371
 20
19.3484860934158
 30
0.0
 10
11.68003978348849
 20
19.35899786755204
 30
0.0
 10
11.68532566906947
 20
19.36192592946122
 30
0.0
 10
11.69574815698137
 20
19.36637671650806
 30
0.0
 10
11.70083019882636
 20
19.36786518780283
 30
0.0
 10
11.7104693029703
 20
19.36906831125145
 30
0.0
 10
11.71510127154298
 20
19.36878359462579
 30
0.0
 10
11.72358032455632
 20
19.3661878482337
 30
0.0
 10
11.72741218245481
 20
19.36390421192256
 30
0.0
 10
11.73418430375162
 20
19.35722549913811
 30
0.0
 10
11.73704339888893
 20
19.3528911678805
 30
0.0
 10
11.74165429104363
 20
19.34251745148351
 30
0.0
 10
11.74342370731419
 20
19.33642207486715
 30
0.0
 10
11.7446541429369
 20
19.3296984516953
 30
0.0
  0
SPLINE
  5
165
330
1F
100
AcDbEntity
  8
0
  6
SLD-Solid
 62
     7
370
    25
100
AcDbSpline
210
0.0
220
0.0
230
1.0
 70
     8
 71
     3
 72
     8
 73
     4
 74
     0
 42
0.00000001
 43
0.00000001
 40
0.0
 40
0.0
 40
0.0
 40
0.0
 40
1.0
 40
1.0
 40
1.0
 40
1.0
 10
11.46955524161661
 20
20.18052404002068
 30
0.0
 10
11.48071083372999
 20
20.18042392065075
 30
0.0
 10
11.49174712958267
 20
20.17965955344837
 30
0.0
 10
11.5026687183985
 20
20.17825649145247
 30
0.0
  0
ELLIPSE
  5
166
330
1F
100
AcDbEntity
  8
0
  6
SLD-Solid
 62
     7
370
    25
100
AcDbEllipse
 10
11.467046326
 20
13.3428349769
 30
0.0
 11
0.2773928836054668
 21
-0.1016711721670322
 31
0.0
210
0.0
220
0.0
230
1.0
 40
0.3676471185
 41
5.031408119821406
 42
6.417129997363953
  0
LINE
  5
167
330
1F
100
AcDbEntity
  8
0
  6
SLD-Solid
 62
     7
370
    25
100
AcDbLine
 10
11.746946326
 20
13.2556937232
 30
0.0
 11
11.746946326
 21
11.3784073589
 31
0.0
  0
LINE
  5
168
330
1F
100
AcDbEntity
  8
0
  6
SLD-Solid
 62
     7
370
    25
100
AcDbLine
 10
7.331946326
 20
13.8981425652
 30
0.0
 11
7.331946326
 21
19.029057263
 31
0.0
  0
SPLINE
  5
169
330
1F
100
AcDbEntity
  8
0
  6
SLD-Solid
 62
     7
370
    25
100
AcDbSpline
210
0.0
220
0.0
230
1.0
 70
     8
 71
     3
 72
    38
 73
    34
 74
     0
 42
0.00000001
 43
0.00000001
 40
0.0
 40
0.0
 40
0.0
 40
0.0
 40
0.249999999999991
 40
0.249999999999991
 40
0.3749999999999865
 40
0.3749999999999865
 40
0.4374999999999874
 40
0.4374999999999874
 40
0.4999999999999882
 40
0.4999999999999882
 40
0.6249999999999939
 40
0.6249999999999939
 40
0.7499999999999996
 40
0.7499999999999996
 40
0.8125000000000004
 40
0.8125000000000004
 40
0.8750000000000013
 40
0.8750000000000013
 40
0.9375000000000021
 40
0.9375000000000021
 40
0.9687499999999998
 40
0.9687499999999998
 40
0.9843750000000007
 40
0.9843750000000007
 40
0.9921874999999983
 40
0.9921874999999983
 40
0.9960937499999983
 40
0.9960937499999983
 40
0.9980468749999978
 40
0.9980468749999978
 40
0.9990234374999989
 40
0.9990234374999989
 40
1.0
 40
1.0
 40
1.0
 40
1.0
 10
7.50989745532258
 20
13.56984242394439
 30
0.0
 10
7.491814085089427
 20
13.59487333340986
 30
0.0
 10
7.473680071681642
 20
13.61921384407303
 30
0.0
 10
7.445813170804062
 20
13.65374017621446
 30
0.0
 10
7.436445896743977
 20
13.6648531685599
 30
0.0
 10
7.422407186426522
 20
13.68027979665393
 30
0.0
 10
7.417718695434569
 20
13.68522553733211
 30
0.0
 10
7.408303695401805
 20
13.69461243871575
 30
0.0
 10
7.403543514134518
 20
13.69908237867111
 30
0.0
 10
7.389425080776275
 20
13.71127455018586
 30
0.0
 10
7.380326374137644
 20
13.7176769016901
 30
0.0
 10
7.363246481409757
 20
13.72604181389165
 30
0.0
 10
7.35586217143399
 20
13.72774447953517
 30
0.0
 10
7.346793986971432
 20
13.72738116496586
 30
0.0
 10
7.344136897349351
 20
13.72676629742979
 30
0.0
 10
7.33965458956765
 20
13.72475496705018
 30
0.0
 10
7.337804528440487
 20
13.72335720360505
 30
0.0
 10
7.334851999992471
 20
13.71989284253742
 30
0.0
 10
7.333750468846757
 20
13.71781624144956
 30
0.0
 10
7.332664866014011
 20
13.71431078413801
 30
0.0
 10
7.332395693999828
 20
13.71307513813091
 30
0.0
 10
7.332126743438685
 20
13.71113135861941
 30
0.0
 10
7.332059577878735
 20
13.71046770306354
 30
0.0
 10
7.33199220047637
 20
13.70945785777524
 30
0.0
 10
7.331975294266692
 20
13.7091181939466
 30
0.0
 10
7.331958204572429
 20
13.70861386877886
 30
0.0
 10
7.331953885843346
 20
13.70844598206375
 30
0.0
 10
7.331949477710869
 20
13.70820597283426
 30
0.0
 10
7.331948353111546
 20
13.7081273455545
 30
0.0
 10
7.331947188698959
 20
13.7080232895801
 30
0.0
 10
7.331946887759517
 20
13.70799029044357
 30
0.0
 10
7.331946467342799
 20
13.70794416249692
 30
0.0
 10
7.33194634083823
 20
13.70791276276276
 30
0.0
 10
7.331946340838232
 20
13.70803909547067
 30
0.0
  0
LWPOLYLINE
  5
16A
330
1F
100
AcDbEntity
  8
0
  6
SLD-Solid
 62
     7
370
    25
100
AcDbPolyline
 90
        2
 70
   128
 43
0.0
 10
7.3319463413
 20
13.7080390955
 10
7.3319463413
 20
13.7080390955
  0
SPLINE
  5
16B
330
1F
100
AcDbEntity
  8
0
  6
SLD-Solid
 62
     7
370
    25
100
AcDbSpline
210
0.0
220
0.0
230
1.0
 70
     8
 71
     3
 72
    36
 73
    32
 74
     0
 42
0.00000001
 43
0.00000001
 40
0.0
 40
0.0
 40
0.0
 40
0.0
 40
0.0009765624999979
 40
0.0009765624999979
 40
0.0019531249999958
 40
0.0019531249999958
 40
0.0039062499999955
 40
0.0039062499999955
 40
0.0078124999999949
 40
0.0078124999999949
 40
0.0156249999999966
 40
0.0156249999999966
 40
0.0312499999999966
 40
0.0312499999999966
 40
0.0624999999999972
 40
0.0624999999999972
 40
0.1249999999999983
 40
0.1249999999999983
 40
0.1874999999999995
 40
0.1874999999999995
 40
0.2500000000000006
 40
0.2500000000000006
 40
0.3750000000000001
 40
0.3750000000000001
 40
0.4999999999999996
 40
0.4999999999999996
 40
0.624999999999999
 40
0.624999999999999
 40
0.7499999999999986
 40
0.7499999999999986
 40
1.0
 40
1.0
 40
1.0
 40
1.0
 10
11.74694631088867
 20
11.37833439788113
 30
0.0
 10
11.74694630405641
 20
11.37818238529861
 30
0.0
 10
11.74694611011133
 20
11.37825155574128
 30
0.0
 10
11.74694546697133
 20
11.37830559914736
 30
0.0
 10
11.74694500812014
 20
11.37834198593038
 30
0.0
 10
11.74694323936021
 20
11.37845600886134
 30
0.0
 10
11.74694153313162
 20
11.37854113708196
 30
0.0
 10
11.74693485641657
 20
11.37880163958171
 30
0.0
 10
11.74692832702829
 20
11.3789843855462
 30
0.0
 10
11.74690257547152
 20
11.37953887986923
 30
0.0
 10
11.74687718847669
 20
11.37991926706786
 30
0.0
 10
11.74677676003778
 20
11.3810752477434
 30
0.0
 10
11.74667745616128
 20
11.38186788592112
 30
0.0
 10
11.74628514984224
 20
11.38429814374913
 30
0.0
 10
11.74589785068135
 20
11.38598973500473
 30
0.0
 10
11.74437573855193
 20
11.39126137557445
 30
0.0
 10
11.7428818536495
 20
11.39503838078563
 30
0.0
 10
11.7389930924186
 20
11.40309119983393
 30
0.0
 10
11.73658986173698
 20
11.40737699729926
 30
0.0
 10
11.731001159309
 20
11.41631508565196
 30
0.0
 10
11.72784043211221
 20
11.42093346902843
 30
0.0
 10
11.71738942661954
 20
11.43521808608858
 30
0.0
 10
11.7091380891286
 20
11.44530983202996
 30
0.0
 10
11.69046455740459
 20
11.46667354117339
 30
0.0
 10
11.67994723695798
 20
11.4780363991185
 30
0.0
 10
11.65777305421689
 20
11.50123058165966
 30
0.0
 10
11.64605107477497
 20
11.51314187653638
 30
0.0
 10
11.62158569413283
 20
11.53768489621456
 30
0.0
 10
11.60875742905523
 20
11.55039890804337
 30
0.0
 10
11.56999965355375
 20
11.58875510037469
 30
0.0
 10
11.54360131398577
 20
11.61485186548977
 30
0.0
 10
11.51694632600565
 20
11.6416912058233
 30
0.0
  0
ARC
  5
16C
330
1F
100
AcDbEntity
  8
0
  6
SLD-Solid
 62
     7
370
    25
100
AcDbCircle
 10
9.2826330328
 20
14.9191734027
 30
0.0
 40
2.233598865985986
100
AcDbArc
 50
219.6354364903
 51
268.5402729959
  0
ARC
  5
16D
330
1F
100
AcDbEntity
  8
0
  6
SLD-Solid
 62
     7
370
    25
100
AcDbCircle
 10
9.1444135672
 20
9.4950917151
 30
0.0
 40
3.192243628394875
100
AcDbArc
 50
45.4708958408
 51
88.5402729959
  0
SPLINE
  5
16E
330
1F
100
AcDbEntity
  8
0
  6
SLD-Solid
 62
     7
370
    25
100
AcDbSpline
210
0.0
220
0.0
230
1.0
 70
     8
 71
     3
 72
     8
 73
     4
 74
     0
 42
0.00000001
 43
0.00000001
 40
0.0
 40
0.0
 40
0.0
 40
0.0
 40
1.0
 40
1.0
 40
1.0
 40
1.0
 10
11.44977502495286
 20
11.70461023977916
 30
0.0
 10
11.42760950062233
 20
11.72676062180117
 30
0.0
 10
11.40538235831961
 20
11.74884890360197
 30
0.0
 10
11.38304297778176
 20
11.77082406874241
 30
0.0
  0
SPLINE
  5
16F
330
1F
100
AcDbEntity
  8
0
  6
SLD-Solid
 62
     7
370
    25
100
AcDbSpline
210
0.0
220
0.0
230
1.0
 70
     8
 71
     3
 72
     8
 73
     4
 74
     0
 42
0.00000001
 43
0.00000001
 40
0.0
 40
0.0
 40
0.0
 40
0.0
 40
1.0
 40
1.0
 40
1.0
 40
1.0
 10
7.561946326005681
 20
13.49502423811404
 30
0.0
 10
7.544794889236347
 20
13.52026012023511
 30
0.0
 10
7.527609878149018
 20
13.54532497800005
 30
0.0
 10
7.509897455322583
 20
13.56984242394439
 30
0.0
  0
SPLINE
  5
170
330
1F
100
AcDbEntity
  8
0
  6
SLD-Solid
 62
     7
370
    25
100
AcDbSpline
210
0.0
220
0.0
230
1.0
 70
     8
 71
     3
 72
    10
 73
     6
 74
     0
 42
0.00000001
 43
0.00000001
 40
0.0
 40
0.0
 40
0.0
 40
0.0
 40
0.5
 40
0.5
 40
1.0
 40
1.0
 40
1.0
 40
1.0
 10
11.51694632600565
 20
11.6416912058233
 30
0.0
 10
11.50510359926459
 20
11.65148644081902
 30
0.0
 10
11.49377956702504
 20
11.66183542532939
 30
0.0
 10
11.47153877160693
 20
11.68296818794093
 30
0.0
 10
11.46063105596052
 20
11.69376162503508
 30
0.0
 10
11.44977502495286
 20
11.70461023977916
 30
0.0
  0
LINE
  5
171
330
1F
100
AcDbEntity
  8
0
  6
SLD-Solid
 62
     7
370
    25
100
AcDbLine
 10
11.746946326
 20
19.798127221
 30
0.0
 11
11.746946326
 21
19.0290572631
 31
0.0
  0
LINE
  5
172
330
1F
100
AcDbEntity
  8
0
  6
SLD-Solid
 62
     7
370
    25
100
AcDbLine
 10
9.7643039233
 20
11.9501425652
 30
0.0
 11
9.7643039233
 21
11.9100597901
 31
0.0
  0
LINE
  5
173
330
1F
100
AcDbEntity
  8
0
  6
SLD-Solid
 62
     7
370
    25
100
AcDbLine
 10
9.7643039233
 20
11.9100597901
 30
0.0
 11
9.7038801029
 21
11.9100597901
 31
0.0
  0
LINE
  5
174
330
1F
100
AcDbEntity
  8
0
  6
SLD-Solid
 62
     7
370
    25
100
AcDbLine
 10
9.7038801029
 20
11.9100597901
 30
0.0
 11
9.7038801029
 21
11.9501425652
 31
0.0
  0
LINE
  5
175
330
1F
100
AcDbEntity
  8
0
  6
SLD-Solid
 62
     7
370
    25
100
AcDbLine
 10
9.7038801029
 20
11.9501425652
 30
0.0
 11
9.3840920131
 21
11.9501425652
 31
0.0
  0
LINE
  5
176
330
1F
100
AcDbEntity
  8
0
  6
SLD-Solid
 62
     7
370
    25
100
AcDbLine
 10
9.3840920131
 20
11.9501425652
 30
0.0
 11
9.3840920131
 21
11.8181425652
 31
0.0
  0
LINE
  5
177
330
1F
100
AcDbEntity
  8
0
  6
SLD-Solid
 62
     7
370
    25
100
AcDbLine
 10
9.3840920131
 20
11.8181425652
 30
0.0
 11
10.0840920131
 21
11.8181425652
 31
0.0
  0
LINE
  5
178
330
1F
100
AcDbEntity
  8
0
  6
SLD-Solid
 62
     7
370
    25
100
AcDbLine
 10
10.0840920131
 20
11.9551425652
 30
0.0
 11
10.0840920131
 21
12.0381425652
 31
0.0
  0
LINE
  5
179
330
1F
100
AcDbEntity
  8
0
  6
SLD-Solid
 62
     7
370
    25
100
AcDbLine
 10
9.3840920131
 20
12.0381425652
 30
0.0
 11
9.3840920131
 21
11.9551425652
 31
0.0
  0
LINE
  5
17A
330
1F
100
AcDbEntity
  8
0
  6
SLD-Solid
 62
     7
370
    25
100
AcDbLine
 10
9.3840920131
 20
11.9551425652
 30
0.0
 11
10.0840920131
 21
11.9551425652
 31
0.0
  0
LINE
  5
17B
330
1F
100
AcDbEntity
  8
0
  6
SLD-Solid
 62
     7
370
    25
100
AcDbLine
 10
10.0890920131
 20
12.0431425652
 30
0.0
 11
9.3790920131
 21
12.0431425652
 31
0.0
  0
LINE
  5
17C
330
1F
100
AcDbEntity
  8
0
  6
SLD-Solid
 62
     7
370
    25
100
AcDbLine
 10
10.0890920131
 20
11.8131425652
 30
0.0
 11
10.0890920131
 21
12.0431425652
 31
0.0
  0
LINE
  5
17D
330
1F
100
AcDbEntity
  8
0
  6
SLD-Solid
 62
     7
370
    25
100
AcDbLine
 10
9.3790920131
 20
11.8131425652
 30
0.0
 11
10.0890920131
 21
11.8131425652
 31
0.0
  0
LINE
  5
17E
330
1F
100
AcDbEntity
  8
0
  6
SLD-Solid
 62
     7
370
    25
100
AcDbLine
 10
9.3790920131
 20
12.0431425652
 30
0.0
 11
9.3790920131
 21
11.8131425652
 31
0.0
  0
LINE
  5
17F
330
1F
100
AcDbEntity
  8
0
  6
SLD-Solid
 62
     7
370
    25
100
AcDbLine
 10
10.0840920131
 20
11.8181425652
 30
0.0
 11
10.0840920131
 21
11.9501425652
 31
0.0
  0
LINE
  5
180
330
1F
100
AcDbEntity
  8
0
  6
SLD-Solid
 62
     7
370
    25
100
AcDbLine
 10
10.0840920131
 20
11.9501425652
 30
0.0
 11
9.7643039233
 21
11.9501425652
 31
0.0
  0
LINE
  5
181
330
1F
100
AcDbEntity
  8
0
  6
SLD-Solid
 62
     7
370
    25
100
AcDbLine
 10
10.0840920131
 20
12.0381425652
 30
0.0
 11
9.3840920131
 21
12.0381425652
 31
0.0
  0
ARC
  5
182
330
1F
100
AcDbEntity
  8
0
  6
SLD-Solid
 62
     7
370
    25
100
AcDbCircle
 10
9.7482875128
 20
11.6595698276
 30
0.0
 40
0.0768487933354041
100
AcDbArc
 50
282.3636814584
 51
341.044517604
  0
LINE
  5
183
330
1F
100
AcDbEntity
  8
0
  6
SLD-Solid
 62
     7
370
    25
100
AcDbLine
 10
9.8375841607
 20
11.3243719274
 30
0.0
 11
9.9660962522
 21
11.2344145283
 31
0.0
  0
ARC
  5
184
330
1F
100
AcDbEntity
  8
0
  6
SLD-Solid
 62
     7
370
    25
100
AcDbCircle
 10
9.8056451001
 20
11.5957543291
 30
0.0
 40
0.2732553961495627
100
AcDbArc
 50
241.9699530649
 51
276.7122772497
  0
LINE
  5
185
330
1F
100
AcDbEntity
  8
0
  6
SLD-Solid
 62
     7
370
    25
100
AcDbLine
 10
9.5484509866
 20
11.444697753
 30
0.0
 11
9.6772329534
 21
11.3545514433
 31
0.0
  0
ARC
  5
186
330
1F
100
AcDbEntity
  8
0
  6
SLD-Solid
 62
     7
370
    25
100
AcDbCircle
 10
9.5656576003
 20
11.4692789206
 30
0.0
 40
0.0300050222455923
100
AcDbArc
 50
55.0082984485
 51
235.0082984485
  0
LINE
  5
187
330
1F
100
AcDbEntity
  8
0
  6
SLD-Solid
 62
     7
370
    25
100
AcDbLine
 10
9.6772329534
 20
11.4278027527
 30
0.0
 11
9.5828642139
 21
11.4938600883
 31
0.0
  0
LINE
  5
188
330
1F
100
AcDbEntity
  8
0
  6
SLD-Solid
 62
     7
370
    25
100
AcDbLine
 10
9.6813735969
 20
11.4337180277
 30
0.0
 11
9.6772329534
 21
11.4278027527
 31
0.0
  0
LINE
  5
189
330
1F
100
AcDbEntity
  8
0
  6
SLD-Solid
 62
     7
370
    25
100
AcDbLine
 10
9.4940303776
 20
11.5648567287
 30
0.0
 11
9.6813735969
 21
11.4337180277
 31
0.0
  0
ARC
  5
18A
330
1F
100
AcDbEntity
  8
0
  6
SLD-Solid
 62
     7
370
    25
100
AcDbCircle
 10
9.5160465445
 20
11.5963087681
 30
0.0
 40
0.0383919573025013
100
AcDbArc
 50
55.0082984485
 51
235.0082984485
  0
ARC
  5
18B
330
1F
100
AcDbEntity
  8
0
  6
SLD-Solid
 62
     7
370
    25
100
AcDbCircle
 10
9.5706089928
 20
11.6604373938
 30
0.0
 40
0.0382231608163056
100
AcDbArc
 50
55.0082984485
 51
235.0082984485
  0
ARC
  5
18C
330
1F
100
AcDbEntity
  8
0
  6
SLD-Solid
 62
     7
370
    25
100
AcDbCircle
 10
9.6524575513
 20
11.7078324265
 30
0.0
 40
0.0416451138312755
100
AcDbArc
 50
55.0082984485
 51
235.0082984485
  0
LINE
  5
18D
330
1F
100
AcDbEntity
  8
0
  6
SLD-Solid
 62
     7
370
    25
100
AcDbLine
 10
9.7482875128
 20
11.7946799804
 30
0.0
 11
9.7002482511
 21
11.7252134746
 31
0.0
  0
LINE
  5
18E
330
1F
100
AcDbEntity
  8
0
  6
SLD-Solid
 62
     7
370
    25
100
AcDbLine
 10
9.7952949384
 20
11.7267055468
 30
0.0
 11
9.7482875128
 21
11.7946799804
 31
0.0
  0
LINE
  5
18F
330
1F
100
AcDbEntity
  8
0
  6
SLD-Solid
 62
     7
370
    25
100
AcDbLine
 10
9.9314622563
 20
11.6667342341
 30
0.0
 11
9.8434395563
 21
11.7283493947
 31
0.0
  0
ARC
  5
190
330
1F
100
AcDbEntity
  8
0
  6
SLD-Solid
 62
     7
370
    25
100
AcDbCircle
 10
9.8384536725
 20
11.5338632557
 30
0.0
 40
0.1621890672742453
100
AcDbArc
 50
351.1460616105
 51
55.0082984485
  0
LINE
  5
191
330
1F
100
AcDbEntity
  8
0
  6
SLD-Solid
 62
     7
370
    25
100
AcDbLine
 10
10.1058523068
 20
11.4338001952
 30
0.0
 11
9.9987100823
 21
11.5088997488
 31
0.0
  0
LINE
  5
192
330
1F
100
AcDbEntity
  8
0
  6
SLD-Solid
 62
     7
370
    25
100
AcDbLine
 10
10.102982431
 20
11.4297058316
 30
0.0
 11
10.1058523068
 21
11.4338001952
 31
0.0
  0
LINE
  5
193
330
1F
100
AcDbEntity
  8
0
  6
SLD-Solid
 62
     7
370
    25
100
AcDbLine
 10
9.9932625258
 20
11.5066121675
 30
0.0
 11
10.102982431
 21
11.4297058316
 31
0.0
  0
ARC
  5
194
330
1F
100
AcDbEntity
  8
0
  6
SLD-Solid
 62
     7
370
    25
100
AcDbCircle
 10
9.8384536725
 20
11.5338632557
 30
0.0
 40
0.1571890672742512
100
AcDbArc
 50
350.0164726902
 51
55.0082984485
  0
LINE
  5
195
330
1F
100
AcDbEntity
  8
0
  6
SLD-Solid
 62
     7
370
    25
100
AcDbLine
 10
9.8405722673
 20
11.7242532191
 30
0.0
 11
9.9285949674
 21
11.6626380585
 31
0.0
  0
LINE
  5
196
330
1F
100
AcDbEntity
  8
0
  6
SLD-Solid
 62
     7
370
    25
100
AcDbLine
 10
9.8114945233
 20
11.7032803625
 30
0.0
 11
9.7981477806
 21
11.722580234
 31
0.0
  0
ARC
  5
197
330
1F
100
AcDbEntity
  8
0
  6
SLD-Solid
 62
     7
370
    25
100
AcDbCircle
 10
9.7482875128
 20
11.6595698276
 30
0.0
 40
0.0768487933354044
100
AcDbArc
 50
352.7471771308
 51
34.6656286201
  0
LINE
  5
198
330
1F
100
AcDbEntity
  8
0
  6
SLD-Solid
 62
     7
370
    25
100
AcDbLine
 10
9.7767607844
 20
11.5699870515
 30
0.0
 11
9.7733796236
 21
11.5651567647
 31
0.0
  0
LINE
  5
199
330
1F
100
AcDbEntity
  8
0
  6
SLD-Solid
 62
     7
370
    25
100
AcDbLine
 10
9.9204691947
 20
11.5045210911
 30
0.0
 11
9.8992947326
 21
11.5858825869
 31
0.0
  0
LINE
  5
19A
330
1F
100
AcDbEntity
  8
0
  6
SLD-Solid
 62
     7
370
    25
100
AcDbLine
 10
9.9256617694
 20
11.5045210911
 30
0.0
 11
9.9204691947
 21
11.5045210911
 31
0.0
  0
LINE
  5
19B
330
1F
100
AcDbEntity
  8
0
  6
SLD-Solid
 62
     7
370
    25
100
AcDbLine
 10
9.9038806033
 20
11.5882138072
 30
0.0
 11
9.9256617694
 21
11.5045210911
 31
0.0
  0
ARC
  5
19C
330
1F
100
AcDbEntity
  8
0
  6
SLD-Solid
 62
     7
370
    25
100
AcDbCircle
 10
9.7482875128
 20
11.6595698276
 30
0.0
 40
0.0768487933354041
100
AcDbArc
 50
344.9648699682
 51
348.6102285784
  0
LINE
  5
19D
330
1F
100
AcDbEntity
  8
0
  6
SLD-Solid
 62
     7
370
    25
100
AcDbLine
 10
9.6974042739
 20
11.721100981
 30
0.0
 11
9.6850805022
 21
11.7032803625
 31
0.0
  0
LINE
  5
19E
330
1F
100
AcDbEntity
  8
0
  6
SLD-Solid
 62
     7
370
    25
100
AcDbLine
 10
9.7295408851
 20
11.502529254
 30
0.0
 11
9.7254059307
 21
11.4966221064
 31
0.0
  0
LINE
  5
19F
330
1F
100
AcDbEntity
  8
0
  6
SLD-Solid
 62
     7
370
    25
100
AcDbLine
 10
9.5486896235
 20
11.6291236384
 30
0.0
 11
9.7295408851
 21
11.502529254
 31
0.0
  0
ARC
  5
1A0
330
1F
100
AcDbEntity
  8
0
  6
SLD-Solid
 62
     7
370
    25
100
AcDbCircle
 10
9.7482875128
 20
11.6595698276
 30
0.0
 40
0.0768487933354051
100
AcDbArc
 50
145.3343713799
 51
187.6529154385
  0
ARC
  5
1A1
330
1F
100
AcDbEntity
  8
0
  6
SLD-Solid
 62
     7
370
    25
100
AcDbCircle
 10
9.5706089928
 20
11.6604373938
 30
0.0
 40
0.033223160816306
100
AcDbArc
 50
55.0082984485
 51
235.0082984485
  0
LINE
  5
1A2
330
1F
100
AcDbEntity
  8
0
  6
SLD-Solid
 62
     7
370
    25
100
AcDbLine
 10
9.7365043496
 20
11.5037581406
 30
0.0
 11
9.5515569125
 21
11.633219814
 31
0.0
  0
LINE
  5
1A3
330
1F
100
AcDbEntity
  8
0
  6
SLD-Solid
 62
     7
370
    25
100
AcDbLine
 10
9.7266348173
 20
11.4896586419
 30
0.0
 11
9.7365043496
 21
11.5037581406
 31
0.0
  0
LINE
  5
1A4
330
1F
100
AcDbEntity
  8
0
  6
SLD-Solid
 62
     7
370
    25
100
AcDbLine
 10
9.5351954225
 20
11.6236646319
 30
0.0
 11
9.7266348173
 21
11.4896586419
 31
0.0
  0
ARC
  5
1A5
330
1F
100
AcDbEntity
  8
0
  6
SLD-Solid
 62
     7
370
    25
100
AcDbCircle
 10
9.5160465445
 20
11.5963087681
 30
0.0
 40
0.0333919573025016
100
AcDbArc
 50
55.0082984485
 51
235.0082984485
  0
LINE
  5
1A6
330
1F
100
AcDbEntity
  8
0
  6
SLD-Solid
 62
     7
370
    25
100
AcDbLine
 10
9.6883370614
 20
11.4349469143
 30
0.0
 11
9.4968976665
 21
11.5689529043
 31
0.0
  0
ARC
  5
1A7
330
1F
100
AcDbEntity
  8
0
  6
SLD-Solid
 62
     7
370
    25
100
AcDbCircle
 10
9.7482875128
 20
11.6595698276
 30
0.0
 40
0.0768487933354055
100
AcDbArc
 50
192.9541229747
 51
200.016596897
  0
LINE
  5
1A8
330
1F
100
AcDbEntity
  8
0
  6
SLD-Solid
 62
     7
370
    25
100
AcDbLine
 10
9.7254059307
 20
11.4966221064
 30
0.0
 11
9.5380627114
 21
11.6277608074
 31
0.0
  0
LINE
  5
1A9
330
1F
100
AcDbEntity
  8
0
  6
SLD-Solid
 62
     7
370
    25
100
AcDbLine
 10
9.6798499307
 20
11.3588228349
 30
0.0
 11
9.5513182755
 21
11.4487939285
 31
0.0
  0
LINE
  5
1AA
330
1F
100
AcDbEntity
  8
0
  6
SLD-Solid
 62
     7
370
    25
100
AcDbLine
 10
9.9689635411
 20
11.2385107039
 30
0.0
 11
9.8388829443
 21
11.3295660437
 31
0.0
  0
LINE
  5
1AB
330
1F
100
AcDbEntity
  8
0
  6
SLD-Solid
 62
     7
370
    25
100
AcDbLine
 10
9.9660962522
 20
11.2344145283
 30
0.0
 11
9.9689635411
 21
11.2385107039
 31
0.0
  0
LINE
  5
1AC
330
1F
100
AcDbEntity
  8
0
  6
SLD-Solid
 62
     7
370
    25
100
AcDbLine
 10
9.7746085102
 20
11.5581933002
 30
0.0
 11
9.7837242489
 21
11.5712159381
 31
0.0
  0
LINE
  5
1AD
330
1F
100
AcDbEntity
  8
0
  6
SLD-Solid
 62
     7
370
    25
100
AcDbLine
 10
9.8209688921
 20
11.6346067722
 30
0.0
 11
9.8949195092
 21
11.582841953
 31
0.0
  0
LINE
  5
1AE
330
1F
100
AcDbEntity
  8
0
  6
SLD-Solid
 62
     7
370
    25
100
AcDbLine
 10
9.6734719772
 20
11.7378533904
 30
0.0
 11
9.6974042739
 21
11.721100981
 31
0.0
  0
LINE
  5
1AF
330
1F
100
AcDbEntity
  8
0
  6
SLD-Solid
 62
     7
370
    25
100
AcDbLine
 10
9.7733796236
 20
11.5651567647
 30
0.0
 11
9.7482875128
 21
11.5827210343
 31
0.0
  0
LINE
  5
1B0
330
1F
100
AcDbEntity
  8
0
  6
SLD-Solid
 62
     7
370
    25
100
AcDbLine
 10
9.6760808855
 20
11.6332650751
 30
0.0
 11
9.592528362
 21
11.6917511491
 31
0.0
  0
LINE
  5
1B1
330
1F
100
AcDbEntity
  8
0
  6
SLD-Solid
 62
     7
370
    25
100
AcDbLine
 10
9.6285758364
 20
11.6737152871
 30
0.0
 11
9.6733945311
 21
11.6423425722
 31
0.0
  0
LINE
  5
1B2
330
1F
100
AcDbEntity
  8
0
  6
SLD-Solid
 62
     7
370
    25
100
AcDbLine
 10
9.7577361887
 20
11.5833041108
 30
0.0
 11
9.7767607844
 21
11.5699870515
 31
0.0
  0
LINE
  5
1B3
330
1F
100
AcDbEntity
  8
0
  6
SLD-Solid
 62
     7
370
    25
100
AcDbLine
 10
9.8992947326
 20
11.5858825869
 30
0.0
 11
9.8225055378
 21
11.6396343869
 31
0.0
  0
LINE
  5
1B4
330
1F
100
AcDbEntity
  8
0
  6
SLD-Solid
 62
     7
370
    25
100
AcDbLine
 10
9.9321295808
 20
11.4995210911
 30
0.0
 11
9.9082558267
 21
11.5912544412
 31
0.0
  0
LINE
  5
1B5
330
1F
100
AcDbEntity
  8
0
  6
SLD-Solid
 62
     7
370
    25
100
AcDbLine
 10
9.9166038996
 20
11.4995210911
 30
0.0
 11
9.9321295808
 21
11.4995210911
 31
0.0
  0
LINE
  5
1B6
330
1F
100
AcDbEntity
  8
0
  6
SLD-Solid
 62
     7
370
    25
100
AcDbLine
 10
9.8949195092
 20
11.582841953
 30
0.0
 11
9.9166038996
 21
11.4995210911
 31
0.0
  0
ARC
  5
1B7
330
1F
100
AcDbEntity
  8
0
  6
SLD-Solid
 62
     7
370
    25
100
AcDbCircle
 10
9.6524575513
 20
11.7078324265
 30
0.0
 40
0.0366451138312759
100
AcDbArc
 50
55.0082984485
 51
235.0082984485
  0
ARC
  5
1B8
330
1F
100
AcDbEntity
  8
0
  6
SLD-Solid
 62
     7
370
    25
100
AcDbCircle
 10
9.7482875128
 20
11.6595698276
 30
0.0
 40
0.0768487933354061
100
AcDbArc
 50
207.1735474596
 51
262.8430494374
  0
LINE
  5
1B9
330
1F
100
AcDbEntity
  8
0
  6
SLD-Solid
 62
     7
370
    25
100
AcDbLine
 10
9.9082558267
 20
11.5912544412
 30
0.0
 11
9.8245214182
 21
11.6498678332
 31
0.0
  0
LINE
  5
1BA
330
1F
100
AcDbEntity
  8
0
  6
SLD-Solid
 62
     7
370
    25
100
AcDbLine
 10
9.7837242489
 20
11.5712159381
 30
0.0
 11
9.7647420838
 21
11.5845032963
 31
0.0
  0
LINE
  5
1BB
330
1F
100
AcDbEntity
  8
0
  6
SLD-Solid
 62
     7
370
    25
100
AcDbLine
 10
9.6721232138
 20
11.6493357378
 30
0.0
 11
9.6314431253
 21
11.6778114627
 31
0.0
  0
LINE
  5
1BC
330
1F
100
AcDbEntity
  8
0
  6
SLD-Solid
 62
     7
370
    25
100
AcDbLine
 10
9.5896610731
 20
11.6876549736
 30
0.0
 11
9.6799207272
 21
11.6244739636
 31
0.0
  0
LINE
  5
1BD
330
1F
100
AcDbEntity
  8
0
  6
SLD-Solid
 62
     7
370
    25
100
AcDbLine
 10
9.7387130931
 20
11.5833197947
 30
0.0
 11
9.7746085102
 21
11.5581933002
 31
0.0
  0
ARC
  5
1BE
330
1F
100
AcDbEntity
  8
0
  6
SLD-Solid
 62
     7
370
    25
100
AcDbCircle
 10
9.8204600693
 20
11.6955211675
 30
0.0
 40
0.035071802115889
100
AcDbArc
 50
55.0082984485
 51
129.5082133658
  0
ARC
  5
1BF
330
1F
100
AcDbEntity
  8
0
  6
SLD-Solid
 62
     7
370
    25
100
AcDbCircle
 10
9.7482875128
 20
11.6595698276
 30
0.0
 40
0.0768487933354045
100
AcDbArc
 50
270.0
 51
277.0624739222
  0
LINE
  5
1C0
330
1F
100
AcDbEntity
  8
0
  6
SLD-Solid
 62
     7
370
    25
100
AcDbLine
 10
9.7002482511
 20
11.7252134746
 30
0.0
 11
9.6763392661
 21
11.7419495659
 31
0.0
  0
ARC
  5
1C1
330
1F
100
AcDbEntity
  8
0
  6
SLD-Solid
 62
     7
370
    25
100
AcDbCircle
 10
9.8056451001
 20
11.5957543291
 30
0.0
 40
0.2682553961495624
100
AcDbArc
 50
242.0346131914
 51
277.1174519989
  0
ARC
  5
1C2
330
1F
100
AcDbEntity
  8
0
  6
SLD-Solid
 62
     7
370
    25
100
AcDbCircle
 10
9.8204600693
 20
11.6955211675
 30
0.0
 40
0.0400718021158879
100
AcDbArc
 50
55.0082984485
 51
128.9027917248
  0
ARC
  5
1C3
330
1F
100
AcDbEntity
  8
0
  6
SLD-Solid
 62
     7
370
    25
100
AcDbCircle
 10
9.5656576003
 20
11.4692789206
 30
0.0
 40
0.0250050222455902
100
AcDbArc
 50
55.0082984485
 51
235.0082984485
  0
LINE
  5
1C4
330
1F
100
AcDbEntity
  8
0
  6
SLD-Solid
 62
     7
370
    25
100
AcDbLine
 10
9.67846184
 20
11.4208392882
 30
0.0
 11
9.6883370614
 21
11.4349469143
 31
0.0
  0
LINE
  5
1C5
330
1F
100
AcDbEntity
  8
0
  6
SLD-Solid
 62
     7
370
    25
100
AcDbLine
 10
9.579996925
 20
11.4897639128
 30
0.0
 11
9.67846184
 21
11.4208392882
 31
0.0
  0
LINE
  5
1C6
330
1F
100
AcDbEntity
  8
0
  6
SLD-Solid
 62
     7
370
    25
100
AcDbLine
 10
9.8236228802
 20
11.6443935483
 30
0.0
 11
9.9038806033
 21
11.5882138072
 31
0.0
  0
LINE
  5
1C7
330
1F
100
AcDbEntity
  8
0
  6
SLD-Solid
 62
     7
370
    25
100
AcDbLine
 10
11.746946326
 20
19.0290572631
 30
0.0
 11
11.746946326
 21
13.295793053
 31
0.0
  0
LINE
  5
1C8
330
1F
100
AcDbEntity
  8
0
  6
SLD-Solid
 62
     7
370
    25
100
AcDbLine
 10
11.746946326
 20
13.295793053
 30
0.0
 11
11.746946326
 21
13.2556937232
 31
0.0
  0
LINE
  5
1C9
330
1F
100
AcDbEntity
  8
0
  6
SLD-Solid
 62
     7
370
    25
100
AcDbLine
 10
11.746946326
 20
11.2102766968
 30
0.0
 11
11.746946326
 21
10.8981425652
 31
0.0
  0
LINE
  5
1CA
330
1F
100
AcDbEntity
  8
0
  6
SLD-Solid
 62
     7
370
    25
100
AcDbLine
 10
11.746946326
 20
11.3784073589
 30
0.0
 11
11.746946326
 21
11.2102766968
 31
0.0
  0
SPLINE
  5
1CB
330
1F
100
AcDbEntity
  8
0
  6
SLD-Solid
 62
     7
370
    25
100
AcDbSpline
210
0.0
220
0.0
230
1.0
 70
     8
 71
     3
 72
    18
 73
    14
 74
     0
 42
0.00000001
 43
0.00000001
 40
0.0
 40
0.0
 40
0.0
 40
0.0
 40
0.2499999999999951
 40
0.2499999999999951
 40
0.3749999999999956
 40
0.3749999999999956
 40
0.4999999999999961
 40
0.4999999999999961
 40
0.6249999999999967
 40
0.6249999999999967
 40
0.7499999999999971
 40
0.7499999999999971
 40
1.0
 40
1.0
 40
1.0
 40
1.0
 10
7.561946326005647
 20
11.03671627418764
 30
0.0
 10
7.555759904477084
 20
11.04645787272761
 30
0.0
 10
7.550852632130269
 20
11.05675775664693
 30
0.0
 10
7.545737312278417
 20
11.07319484850536
 30
0.0
 10
7.544413803543784
 20
11.07885469424264
 30
0.0
 10
7.542656133990927
 20
11.09026025561239
 30
0.0
 10
7.542222439942454
 20
11.0959552248484
 30
0.0
 10
7.542221823613438
 20
11.10732993262287
 30
0.0
 10
7.542654942035579
 20
11.1130096704837
 30
0.0
 10
7.544397131364998
 20
11.12435377474524
 30
0.0
 10
7.545716786987799
 20
11.13002687092881
 30
0.0
 10
7.550841153628428
 20
11.14652163914344
 30
0.0
 10
7.555758605612478
 20
11.15683733972194
 30
0.0
 10
7.561946326006248
 20
11.16658098355132
 30
0.0
  0
SPLINE
  5
1CC
330
1F
100
AcDbEntity
  8
0
  6
SLD-Solid
 62
     7
370
    25
100
AcDbSpline
210
0.0
220
0.0
230
1.0
 70
     8
 71
     3
 72
    18
 73
    14
 74
     0
 42
0.00000001
 43
0.00000001
 40
0.0
 40
0.0
 40
0.0
 40
0.0
 40
0.2500000000000017
 40
0.2500000000000017
 40
0.5000000000000033
 40
0.5000000000000033
 40
0.6250000000000024
 40
0.6250000000000024
 40
0.7500000000000017
 40
0.7500000000000017
 40
0.8750000000000008
 40
0.8750000000000008
 40
1.0
 40
1.0
 40
1.0
 40
1.0
 10
7.797654951875293
 20
10.89814256519197
 30
0.0
 10
7.774486657910037
 20
10.90160869070552
 30
0.0
 10
7.751539114103477
 20
10.90667340014414
 30
0.0
 10
7.706179526322483
 20
10.92068069357677
 30
0.0
 10
7.684245501557253
 20
10.92947712825383
 30
0.0
 10
7.653031013777414
 20
10.9459399299711
 30
0.0
 10
7.642897323900216
 20
10.95198352067033
 30
0.0
 10
7.623290531508989
 20
10.96542528231491
 30
0.0
 10
7.613896841652266
 20
10.97277812354601
 30
0.0
 10
7.596462375811297
 20
10.98868594145242
 30
0.0
 10
7.588363792835807
 20
10.99727211495377
 30
0.0
 10
7.573700517867047
 20
11.01601210921259
 30
0.0
 10
7.567219239219186
 20
11.02610673127551
 30
0.0
 10
7.56194632600565
 20
11.03671627418763
 30
0.0
  0
LINE
  5
1CD
330
1F
100
AcDbEntity
  8
0
  6
SLD-Solid
 62
     7
370
    25
100
AcDbLine
 10
11.746946326
 20
10.8981425652
 30
0.0
 11
11.746946326
 21
10.82814398
 31
0.0
  0
ARC
  5
1CE
330
1F
100
AcDbEntity
  8
0
  6
SLD-Solid
 62
     7
370
    25
100
AcDbCircle
 10
11.5169486504
 20
10.8281463045
 30
0.0
 40
0.2299976756257074
100
AcDbArc
 50
269.9994209615
 51
359.9994209498
  0
SPLINE
  5
1CF
330
1F
100
AcDbEntity
  8
0
  6
SLD-Solid
 62
     7
370
    25
100
AcDbSpline
210
0.0
220
0.0
230
1.0
 70
     8
 71
     3
 72
    60
 73
    56
 74
     0
 42
0.00000001
 43
0.00000001
 40
0.0
 40
0.0
 40
0.0
 40
0.0
 40
0.0312499999999987
 40
0.0312499999999987
 40
0.0624999999999974
 40
0.0624999999999974
 40
0.0937499999999962
 40
0.0937499999999962
 40
0.1249999999999949
 40
0.1249999999999949
 40
0.1562499999999936
 40
0.1562499999999936
 40
0.1874999999999923
 40
0.1874999999999923
 40
0.2499999999999907
 40
0.2499999999999907
 40
0.2812499999999902
 40
0.2812499999999902
 40
0.3124999999999897
 40
0.3124999999999897
 40
0.3749999999999887
 40
0.3749999999999887
 40
0.4062499999999883
 40
0.4062499999999883
 40
0.4374999999999878
 40
0.4374999999999878
 40
0.4999999999999878
 40
0.4999999999999878
 40
0.5624999999999877
 40
0.5624999999999877
 40
0.5937499999999873
 40
0.5937499999999873
 40
0.6249999999999871
 40
0.6249999999999871
 40
0.6562499999999868
 40
0.6562499999999868
 40
0.6874999999999866
 40
0.6874999999999866
 40
0.7187499999999862
 40
0.7187499999999862
 40
0.7343749999999866
 40
0.7343749999999866
 40
0.7499999999999868
 40
0.7499999999999868
 40
0.7812499999999882
 40
0.7812499999999882
 40
0.8124999999999898
 40
0.8124999999999898
 40
0.8437499999999912
 40
0.8437499999999912
 40
0.8749999999999928
 40
0.8749999999999928
 40
0.9374999999999963
 40
0.9374999999999963
 40
1.0
 40
1.0
 40
1.0
 40
1.0
 10
7.56194632600605
 20
11.16658098355119
 30
0.0
 10
7.567244480501801
 20
11.17724131403656
 30
0.0
 10
7.573799956133001
 20
11.18742654206043
 30
0.0
 10
7.588442218580578
 20
11.20611088845597
 30
0.0
 10
7.596582245357689
 20
11.21474203426606
 30
0.0
 10
7.614238746612193
 20
11.23080918932865
 30
0.0
 10
7.62370678680703
 20
11.23818210208769
 30
0.0
 10
7.643301132818056
 20
11.25156475970491
 30
0.0
 10
7.653489473355464
 20
11.25762453370784
 30
0.0
 10
7.674531414495638
 20
11.26866999412449
 30
0.0
 10
7.685436257200425
 20
11.27367443967078
 30
0.0
 10
7.707479432364438
 20
11.28257845935371
 30
0.0
 10
7.718639608054477
 20
11.2864945537955
 30
0.0
 10
7.752480435392267
 20
11.29684956850137
 30
0.0
 10
7.775518864800128
 20
11.30190497459509
 30
0.0
 10
7.810701103402996
 20
11.30707279853494
 30
0.0
 10
7.822576896688684
 20
11.30838851508869
 30
0.0
 10
7.846254421178958
 20
11.31019446063807
 30
0.0
 10
7.858067849210141
 20
11.31069070558163
 30
0.0
 10
7.893434575601058
 20
11.31099850916617
 30
0.0
 10
7.916915268346003
 20
11.30964442184378
 30
0.0
 10
7.951984832373262
 20
11.30518143585954
 30
0.0
 10
7.963649214731921
 20
11.30328482885851
 30
0.0
 10
7.986923109133071
 20
11.29861070002989
 30
0.0
 10
7.998561616462504
 20
11.29582076494615
 30
0.0
 10
8.032821801307477
 20
11.2861346440473
 30
0.0
 10
8.05496704341433
 20
11.27793491062721
 30
0.0
 10
8.097499234871886
 20
11.25712676490389
 30
0.0
 10
8.118029803309723
 20
11.24437388048662
 30
0.0
 10
8.14525160469541
 20
11.22154545319428
 30
0.0
 10
8.15378211034364
 20
11.2132887575186
 30
0.0
 10
8.169479549482954
 20
11.19515135928457
 30
0.0
 10
8.176483017612108
 20
11.18544017686648
 30
0.0
 10
8.188322269143095
 20
11.16473613566554
 30
0.0
 10
8.193190081242735
 20
11.15362038134785
 30
0.0
 10
8.200014558642307
 20
11.13083766093325
 30
0.0
 10
8.20205085993723
 20
11.11897002327986
 30
0.0
 10
8.202969119592984
 20
11.09491362117559
 30
0.0
 10
8.201855992111167
 20
11.08296834414751
 30
0.0
 10
8.19797186754132
 20
11.06545907189544
 30
0.0
 10
8.19629346582388
 20
11.05964899119713
 30
0.0
 10
8.192311018421327
 20
11.04841529444701
 30
0.0
 10
8.190002847997498
 20
11.04295906261137
 30
0.0
 10
8.182212834785316
 20
11.02702897055634
 30
0.0
 10
8.175838451507756
 20
11.01694974722928
 30
0.0
 10
8.161181993068809
 20
10.99800464087279
 30
0.0
 10
8.153068697515693
 20
10.98932764070957
 30
0.0
 10
8.13557825815239
 20
10.9732543707474
 30
0.0
 10
8.126134528807405
 20
10.9658238916911
 30
0.0
 10
8.106515820579492
 20
10.95230849920061
 30
0.0
 10
8.096344232761068
 20
10.94621366374519
 30
0.0
 10
8.064924110177419
 20
10.9295858973772
 30
0.0
 10
8.042589649571031
 20
10.9206410260257
 30
0.0
 10
7.997425799369185
 20
10.90669725406839
 30
0.0
 10
7.974483719935115
 20
10.90162031898925
 30
0.0
 10
7.951237700135994
 20
10.89814256519197
 30
0.0
  0
LINE
  5
1D0
330
1F
100
AcDbEntity
  8
0
  6
SLD-Solid
 62
     7
370
    25
100
AcDbLine
 10
11.516946326
 20
10.5981486289
 30
0.0
 11
7.561946326
 21
10.5981486289
 31
0.0
  0
SPLINE
  5
1D1
330
1F
100
AcDbEntity
  8
0
  6
SLD-Solid
 62
     7
370
    25
100
AcDbSpline
210
0.0
220
0.0
230
1.0
 70
     8
 71
     3
 72
     9
 73
     5
 74
     0
 42
0.00000001
 43
0.00000001
 40
0.0
 40
0.0
 40
0.0
 40
0.0
 40
0.5
 40
1.0
 40
1.0
 40
1.0
 40
1.0
 10
7.951237700135991
 20
10.89814256519197
 30
0.0
 10
7.925640575425875
 20
10.8935471721692
 30
0.0
 10
7.874446326005644
 20
10.88920986222038
 30
0.0
 10
7.823252076585406
 20
10.8935471721692
 30
0.0
 10
7.797654951875291
 20
10.89814256519197
 30
0.0
  0
LINE
  5
1D2
330
1F
100
AcDbEntity
  8
0
  6
SLD-Solid
 62
     7
370
    25
100
AcDbLine
 10
7.331946326
 20
10.8981425652
 30
0.0
 11
7.331946326
 21
13.7077060568
 31
0.0
  0
LINE
  5
1D3
330
1F
100
AcDbEntity
  8
0
  6
SLD-Solid
 62
     7
370
    25
100
AcDbLine
 10
7.331946326
 20
13.8939449741
 30
0.0
 11
7.331946326
 21
13.8981425652
 31
0.0
  0
ARC
  5
1D4
330
1F
100
AcDbEntity
  8
0
  6
SLD-Solid
 62
     7
370
    25
100
AcDbCircle
 10
7.5619440016
 20
10.8281463045
 30
0.0
 40
0.2299976756256999
100
AcDbArc
 50
180.0005790502
 51
270.0005790385
  0
LINE
  5
1D5
330
1F
100
AcDbEntity
  8
0
  6
SLD-Solid
 62
     7
370
    25
100
AcDbLine
 10
7.331946326
 20
10.82814398
 30
0.0
 11
7.331946326
 21
10.8981425652
 31
0.0
  0
SPLINE
  5
1D6
330
1F
100
AcDbEntity
  8
0
  6
SLD-Solid
 62
     7
370
    25
100
AcDbSpline
210
0.0
220
0.0
230
1.0
 70
     8
 71
     3
 72
    34
 73
    30
 74
     0
 42
0.00000001
 43
0.00000001
 40
0.0
 40
0.0
 40
0.0
 40
0.0
 40
0.0156249999999997
 40
0.0156249999999997
 40
0.0312499999999995
 40
0.0312499999999995
 40
0.062499999999999
 40
0.062499999999999
 40
0.1249999999999995
 40
0.1249999999999995
 40
0.2499999999999996
 40
0.2499999999999996
 40
0.3749999999999996
 40
0.3749999999999996
 40
0.4999999999999997
 40
0.4999999999999997
 40
0.6249999999999997
 40
0.6249999999999997
 40
0.7499999999999998
 40
0.7499999999999998
 40
0.8749999999999998
 40
0.8749999999999998
 40
0.9374999999999999
 40
0.9374999999999999
 40
0.96875
 40
0.96875
 40
0.9843749999999999
 40
0.9843749999999999
 40
1.0
 40
1.0
 40
1.0
 40
1.0
 10
7.688737183002844
 20
11.10164862886901
 30
0.0
 10
7.689439226670533
 20
11.09961942706798
 30
0.0
 10
7.690615118171281
 20
11.09782954198487
 30
0.0
 10
7.693075815504997
 20
11.09435987796502
 30
0.0
 10
7.694438821325517
 20
11.09271250536432
 30
0.0
 10
7.698723190478516
 20
11.08798504558216
 30
0.0
 10
7.701872471712588
 20
11.08509292107326
 30
0.0
 10
7.71174425791445
 20
11.07701766713135
 30
0.0
 10
7.718923980560612
 20
11.07236951072107
 30
0.0
 10
7.741267107537852
 20
11.05997507668081
 30
0.0
 10
7.757230475729505
 20
11.05373843721997
 30
0.0
 10
7.789876528373601
 20
11.04400080272768
 30
0.0
 10
7.806606907739085
 20
11.04053731150393
 30
0.0
 10
7.840363621588107
 20
11.03594664319031
 30
0.0
 10
7.857399757330561
 20
11.03483142405859
 30
0.0
 10
7.891467139686023
 20
11.0348302813834
 30
0.0
 10
7.908503347808071
 20
11.03594437655306
 30
0.0
 10
7.94226029538784
 20
11.04053262648411
 30
0.0
 10
7.958991019706755
 20
11.04399487592998
 30
0.0
 10
7.991637825807221
 20
11.05372961516607
 30
0.0
 10
8.007601965256457
 20
11.05996478015217
 30
0.0
 10
8.029946690694366
 20
11.07235592865735
 30
0.0
 10
8.037127535576614
 20
11.07700181060639
 30
0.0
 10
8.047016832897633
 20
11.08508958110035
 30
0.0
 10
8.05016272653776
 20
11.08797805768127
 30
0.0
 10
8.054452480506546
 20
11.09271079409996
 30
0.0
 10
8.055812525087045
 20
11.09435422234169
 30
0.0
 10
8.05827643854443
 20
11.09782757489159
 30
0.0
 10
8.059459164547452
 20
11.09963601579195
 30
0.0
 10
8.060155469008448
 20
11.10164862886901
 30
0.0
  0
SPLINE
  5
1D7
330
1F
100
AcDbEntity
  8
0
  6
SLD-Solid
 62
     7
370
    25
100
AcDbSpline
210
0.0
220
0.0
230
1.0
 70
     8
 71
     3
 72
    34
 73
    30
 74
     0
 42
0.00000001
 43
0.00000001
 40
0.0
 40
0.0
 40
0.0
 40
0.0
 40
0.015625
 40
0.015625
 40
0.03125
 40
0.03125
 40
0.0625
 40
0.0625
 40
0.1249999999999999
 40
0.1249999999999999
 40
0.2499999999999998
 40
0.2499999999999998
 40
0.3749999999999998
 40
0.3749999999999998
 40
0.4999999999999997
 40
0.4999999999999997
 40
0.6249999999999996
 40
0.6249999999999996
 40
0.7499999999999996
 40
0.7499999999999996
 40
0.8749999999999994
 40
0.8749999999999994
 40
0.9374999999999989
 40
0.9374999999999989
 40
0.9687499999999994
 40
0.9687499999999994
 40
0.9843749999999998
 40
0.9843749999999998
 40
1.0
 40
1.0
 40
1.0
 40
1.0
 10
8.06015546900868
 20
11.10164862886909
 30
0.0
 10
8.059452665556774
 20
11.10368002676632
 30
0.0
 10
8.05827971350037
 20
11.10546487648038
 30
0.0
 10
8.055811669366566
 20
11.10894443120557
 30
0.0
 10
8.054454157762493
 20
11.11058419433036
 30
0.0
 10
8.050177210840193
 20
11.11530405511299
 30
0.0
 10
8.047028725944058
 20
11.11819699149429
 30
0.0
 10
8.0371475137305
 20
11.12628101932167
 30
0.0
 10
8.029968883194197
 20
11.13092761359045
 30
0.0
 10
8.007625896131053
 20
11.14332201791179
 30
0.0
 10
7.991662378497219
 20
11.14955874479254
 30
0.0
 10
7.959016409858121
 20
11.15929638504517
 30
0.0
 10
7.94228594926795
 20
11.16275990783817
 30
0.0
 10
7.908529264397868
 20
11.16735059324662
 30
0.0
 10
7.891492838652615
 20
11.16846582389807
 30
0.0
 10
7.857426009385937
 20
11.16846698612163
 30
0.0
 10
7.840389483694496
 20
11.16735289671758
 30
0.0
 10
7.806632547109076
 20
11.16276466600915
 30
0.0
 10
7.789901792783649
 20
11.15930241944331
 30
0.0
 10
7.75725498964584
 20
11.14956770152392
 30
0.0
 10
7.741290679144167
 20
11.14333245557345
 30
0.0
 10
7.718946181209534
 20
11.130941459917
 30
0.0
 10
7.71176524098981
 20
11.12629553547161
 30
0.0
 10
7.701875911488396
 20
11.11820775894648
 30
0.0
 10
7.698730110548726
 20
11.11531939091764
 30
0.0
 10
7.694440220782639
 20
11.11058652466673
 30
0.0
 10
7.693080211949259
 20
11.10894314388057
 30
0.0
 10
7.690616273846172
 20
11.10546977933566
 30
0.0
 10
7.689433399975125
 20
11.10366098906671
 30
0.0
 10
7.688737183002851
 20
11.101648628869
 30
0.0
  0
LINE
  5
1D8
330
1F
100
AcDbEntity
  8
0
  6
SLD-Solid
 62
     7
370
    25
100
AcDbLine
 10
7.331946326
 20
19.0835677321
 30
0.0
 11
7.331946326
 21
19.798127221
 31
0.0
  0
LINE
  5
1D9
330
1F
100
AcDbEntity
  8
0
  6
SLD-Solid
 62
     7
370
    25
100
AcDbLine
 10
11.746946326
 20
10.82814398
 30
0.0
 11
11.746946326
 21
10.8155970508
 31
0.0
  0
LINE
  5
1DA
330
1F
100
AcDbEntity
  8
0
  6
SLD-Solid
 62
     7
370
    25
100
AcDbLine
 10
7.331946326
 20
10.8155970508
 30
0.0
 11
7.331946326
 21
10.82814398
 31
0.0
  0
SPLINE
  5
1DB
330
1F
100
AcDbEntity
  8
0
  6
SLD-Solid
 62
     7
370
    25
100
AcDbSpline
210
0.0
220
0.0
230
1.0
 70
     8
 71
     3
 72
     8
 73
     4
 74
     0
 42
0.00000001
 43
0.00000001
 40
0.0
 40
0.0
 40
0.0
 40
0.0
 40
1.0
 40
1.0
 40
1.0
 40
1.0
 10
11.5026687183985
 20
20.17825649145246
 30
0.0
 10
11.50478117625678
 20
20.17798511066814
 30
0.0
 10
11.50690231413484
 20
20.17784941627058
 30
0.0
 10
11.50903213254512
 20
20.17784941627058
 30
0.0
  0
LINE
  5
1DC
330
1F
100
AcDbEntity
  8
0
  6
SLD-Solid
 62
     7
370
    25
100
AcDbLine
 10
11.516946326
 20
20.1778494163
 30
0.0
 11
11.5090321325
 21
20.1778494163
 31
0.0
  0
ELLIPSE
  5
1DD
330
1F
100
AcDbEntity
  8
0
  6
SLD-Solid
 62
     7
370
    25
100
AcDbEllipse
 10
11.516946326
 20
19.9475712756
 30
0.0
 11
0.0
 21
0.2302781407189585
 31
0.0
210
0.0
220
0.0
230
1.0
 40
0.9987921532
 41
4.712388980384704
 42
6.283185307179586
  0
LINE
  5
1DE
330
1F
100
AcDbEntity
  8
0
  6
SLD-Solid
 62
     7
370
    25
100
AcDbLine
 10
11.746946326
 20
19.9475712756
 30
0.0
 11
11.746946326
 21
19.798127221
 31
0.0
  0
LINE
  5
1DF
330
1F
100
AcDbEntity
  8
0
  6
SLD-Solid
 62
     7
370
    25
100
AcDbLine
 10
7.5755944658
 20
20.1778494163
 30
0.0
 11
7.561946326
 21
20.1778494163
 31
0.0
  0
ELLIPSE
  5
1E0
330
1F
100
AcDbEntity
  8
0
  6
SLD-Solid
 62
     7
370
    25
100
AcDbEllipse
 10
7.561946326
 20
19.9475712756
 30
0.0
 11
0.0
 21
-0.2302781407189549
 31
0.0
210
0.0
220
0.0
230
1.0
 40
0.9987921532
 41
3.141592653589786
 42
4.712388980384704
  0
LINE
  5
1E1
330
1F
100
AcDbEntity
  8
0
  6
SLD-Solid
 62
     7
370
    25
100
AcDbLine
 10
7.331946326
 20
19.798127221
 30
0.0
 11
7.331946326
 21
19.9475712756
 31
0.0
  0
LINE
  5
1E2
330
1F
100
AcDbEntity
  8
0
  6
SLD-Solid
 62
     7
370
    25
100
AcDbLine
 10
7.331946326
 20
10.8155970508
 30
0.0
 11
7.331946326
 21
10.3556063484
 31
0.0
  0
LINE
  5
1E3
330
1F
100
AcDbEntity
  8
0
  6
SLD-Solid
 62
     7
370
    25
100
AcDbLine
 10
11.746946326
 20
10.3556063484
 30
0.0
 11
11.746946326
 21
10.8155970508
 31
0.0
  0
LINE
  5
1E4
330
1F
100
AcDbEntity
  8
0
  6
SLD-Solid
 62
     7
370
    25
100
AcDbLine
 10
7.331946326
 20
10.0141486289
 30
0.0
 11
7.331946326
 21
10.3556063484
 31
0.0
  0
LINE
  5
1E5
330
1F
100
AcDbEntity
  8
0
  6
SLD-Solid
 62
     7
370
    25
100
AcDbLine
 10
11.746946326
 20
10.3556063484
 30
0.0
 11
11.746946326
 21
10.0141486289
 31
0.0
  0
ARC
  5
1E6
330
1F
100
AcDbEntity
  8
0
  6
SLD-Solid
 62
     7
370
    25
100
AcDbCircle
 10
7.561946326
 20
10.0141486289
 30
0.0
 40
0.2300000000000004
100
AcDbArc
 50
180.0
 51
270.0
  0
ARC
  5
1E7
330
1F
100
AcDbEntity
  8
0
  6
SLD-Solid
 62
     7
370
    25
100
AcDbCircle
 10
11.516946326
 20
10.0141486289
 30
0.0
 40
0.2300000000000004
100
AcDbArc
 50
270.0
 51
0.0
  0
LINE
  5
1E8
330
1F
100
AcDbEntity
  8
0
  6
SLD-Solid
 62
     7
370
    25
100
AcDbLine
 10
11.516946326
 20
9.7841486289
 30
0.0
 11
7.561946326
 21
9.7841486289
 31
0.0
  0
LINE
  5
1E9
330
1F
100
AcDbEntity
  8
0
  6
SLD-Solid
 62
     8
370
    25
100
AcDbLine
 10
7.3319463408
 20
13.8939449741
 30
0.0
 11
7.3319463408
 21
13.8981425652
 31
0.0
  0
LINE
  5
1EA
330
1F
100
AcDbEntity
  8
DIMS
100
AcDbLine
 10
5.4411742058
 20
6.1091009382
 30
0.0
 11
22.4063313717
 21
6.1091009382
 31
0.0
  0
LINE
  5
1EB
330
1F
100
AcDbEntity
  8
DIMS
100
AcDbLine
 10
6.4260537029
 20
6.1091009382
 30
0.0
 11
6.4260537029
 21
6.371835431
 31
0.0
  0
LINE
  5
1EC
330
1F
100
AcDbEntity
  8
DIMS
100
AcDbLine
 10
6.4260537029
 20
6.371835431
 30
0.0
 11
6.529541655
 21
6.5187565688
 31
0.0
  0
LINE
  5
1ED
330
1F
100
AcDbEntity
  8
DIMS
100
AcDbLine
 10
6.529541655
 20
6.5187565688
 30
0.0
 11
6.3225657508
 21
6.7811789716
 31
0.0
  0
LINE
  5
1EE
330
1F
100
AcDbEntity
  8
DIMS
100
AcDbLine
 10
6.3225657508
 20
6.7811789716
 30
0.0
 11
6.4260537029
 21
6.9281001094
 31
0.0
  0
LINE
  5
1EF
330
1F
100
AcDbEntity
  8
DIMS
100
AcDbLine
 10
6.4260537029
 20
6.9281001094
 30
0.0
 11
6.4260537029
 21
7.0971350066
 31
0.0
  0
DIMENSION
  5
1F0
330
1F
100
AcDbEntity
  8
DIMS
100
AcDbDimension
  2
_D
 10
6.4404429467
 20
6.1091009382
 30
0.0
 11
6.4404429467
 21
6.6394932053
 31
0.0
 70
   160
  1
                                                               44" [1117]Max. for unrestricted access  \P \P 
 71
     2
 42
-1.0
  3
SLDDIMSTYLE0
100
AcDbAlignedDimension
 13
7.561946326
 23
9.7841486289
 33
0.0
 14
5.4411742058
 24
6.1091009382
 34
0.0
 50
90.0
100
AcDbRotatedDimension
  0
DIMENSION
  5
202
330
1F
100
AcDbEntity
  8
DIMS
100
AcDbDimension
  2
_D_1
 10
6.409976236
 20
9.7841486289
 30
0.0
 11
6.409976236
 21
14.6452501639
 31
0.0
 70
   160
  1
<>
 71
     2
 42
-1.0
  3
SLDDIMSTYLE1
100
AcDbAlignedDimension
 13
9.539446326
 23
20.1891176841
 33
0.0
 14
7.561946326
 24
9.7841486289
 34
0.0
 50
90.0
100
AcDbRotatedDimension
  0
MTEXT
  5
212
330
1F
100
AcDbEntity
  8
NOTES
100
AcDbMText
 10
6.7931201477
 20
6.6518549853
 30
0.0
 40
0.5
 41
0.0
 71
     1
 72
     1
  1
Floor
  7
SLDTEXTSTYLE0
 73
     1
 44
1.0
  0
MTEXT
  5
213
330
1F
100
AcDbEntity
  8
NOTES
100
AcDbMText
 10
13.8679400731
 20
21.3926379831
 30
0.0
 40
0.5
 41
0.0
 71
     1
 72
     1
  1
soap level window
  7
SLDTEXTSTYLE0
 73
     1
 44
1.0
  0
LEADER
  5
215
330
1F
100
AcDbEntity
  8
NOTES
100
AcDbLeader
  3
SLDDIMSTYLE2
 76
     3
 10
10.0998108239
 20
16.2408914399
 30
0.0
 10
13.3471034504
 20
21.1494600119
 30
0.0
 10
13.8471034504
 20
21.1494600119
 30
0.0
  0
MTEXT
  5
216
330
1F
100
AcDbEntity
  8
NOTES
100
AcDbMText
 10
7.6749486857
 20
8.5237218272
 30
0.0
 40
0.5
 41
0.0
 71
     1
 72
     1
  1
battery indicator light
  7
SLDTEXTSTYLE0
 73
     1
 44
1.0
  0
LEADER
  5
217
330
1F
100
AcDbEntity
  8
NOTES
100
AcDbLeader
  3
SLDDIMSTYLE2
 76
     3
 10
7.8312541735
 20
10.989722644
 30
0.0
 10
7.1515773696
 20
8.2810392294
 30
0.0
 10
7.6515773696
 20
8.2810392294
 30
0.0
  0
INSERT
  5
21D
330
1F
100
AcDbEntity
  8
NOTES
100
AcDbBlockReference
  2
SW_NOTE_0_3
 10
20.1705525732
 20
7.409274457
 30
0.0
  0
SPLINE
  5
21E
330
1F
100
AcDbEntity
  8
0
  6
SLD-Solid
 62
     7
370
    25
100
AcDbSpline
210
0.0
220
0.0
230
1.0
 70
     8
 71
     3
 72
    11
 73
     7
 74
     0
 42
0.00000001
 43
0.00000001
 40
0.0
 40
0.0
 40
0.0
 40
0.0
 40
0.1330442153554552
 40
0.4191273431827294
 40
0.734201943276866
 40
1.0
 40
1.0
 40
1.0
 40
1.0
 10
17.28170057018198
 20
11.75618389362048
 30
0.0
 10
17.28282675603241
 20
11.74843665774995
 30
0.0
 10
17.28637456367033
 20
11.72403064822335
 30
0.0
 10
17.2990656434045
 20
11.68050831029815
 30
0.0
 10
17.31763624049492
 20
11.62860525102875
 30
0.0
 10
17.3345845095226
 20
11.59381551974107
 30
0.0
 10
17.34233976692627
 20
11.57789629396643
 30
0.0
  0
SPLINE
  5
21F
330
1F
100
AcDbEntity
  8
0
  6
SLD-Solid
 62
     7
370
    25
100
AcDbSpline
210
0.0
220
0.0
230
1.0
 70
     8
 71
     3
 72
    11
 73
     7
 74
     0
 42
0.00000001
 43
0.00000001
 40
0.0
 40
0.0
 40
0.0
 40
0.0
 40
0.270961224336128
 40
0.6074596604140854
 40
0.9483096547330238
 40
1.0
 40
1.0
 40
1.0
 40
1.0
 10
17.22569744656404
 20
12.08370451977759
 30
0.0
 10
17.23058336125613
 20
12.05605979046114
 30
0.0
 10
17.24153694358858
 20
11.99408391947093
 30
0.0
 10
17.2591301970343
 20
11.89038036153523
 30
0.0
 10
17.27276743141234
 20
11.80865247687441
 30
0.0
 10
17.28008640020314
 20
11.76213456853041
 30
0.0
 10
17.28105017382241
 20
11.75600901530463
 30
0.0
  0
LWPOLYLINE
  5
220
330
1F
100
AcDbEntity
  8
0
  6
SLD-Solid
 62
     7
370
    25
100
AcDbPolyline
 90
        9
 70
   128
 43
0.0
 10
17.5831997797
 20
19.3296279272
 10
17.583129933
 20
19.3296367246
 10
17.5830600736
 20
19.3296455272
 10
17.5829902014
 20
19.3296543351
 10
17.5829203167
 20
19.3296631481
 10
17.5828504196
 20
19.3296719663
 10
17.5827805103
 20
19.3296807896
 10
17.5827105888
 20
19.3296896181
 10
17.5826406554
 20
19.3296984517
  0
ARC
  5
221
330
1F
100
AcDbEntity
  8
0
  6
SLD-Solid
 62
     7
370
    25
100
AcDbCircle
 10
18.3266096157
 20
19.0290572631
 30
0.0
 40
0.7700000000000002
100
AcDbArc
 50
92.8163542619
 51
180.0
  0
SPLINE
  5
222
330
1F
100
AcDbEntity
  8
0
  6
SLD-Solid
 62
     7
370
    25
100
AcDbSpline
210
0.0
220
0.0
230
1.0
 70
     8
 71
     3
 72
     8
 73
     4
 74
     0
 42
0.00000001
 43
0.00000001
 40
0.0
 40
0.0
 40
0.0
 40
0.0
 40
1.0
 40
1.0
 40
1.0
 40
1.0
 10
17.33854913316536
 20
19.11253227147888
 30
0.0
 10
17.33305082225495
 20
19.08518338196859
 30
0.0
 10
17.32977961652157
 20
19.05731872729327
 30
0.0
 10
17.32845726028594
 20
19.0290572630861
 30
0.0
  0
SPLINE
  5
223
330
1F
100
AcDbEntity
  8
0
  6
SLD-Solid
 62
     7
370
    25
100
AcDbSpline
210
0.0
220
0.0
230
1.0
 70
     8
 71
     3
 72
    32
 73
    28
 74
     0
 42
0.00000001
 43
0.00000001
 40
0.0
 40
0.0
 40
0.0
 40
0.0
 40
0.0039062499999973
 40
0.0039062499999973
 40
0.0078124999999946
 40
0.0078124999999946
 40
0.0156249999999927
 40
0.0156249999999927
 40
0.0312499999999927
 40
0.0312499999999927
 40
0.0624999999999926
 40
0.0624999999999926
 40
0.1249999999999929
 40
0.1249999999999929
 40
0.1874999999999933
 40
0.1874999999999933
 40
0.2499999999999936
 40
0.2499999999999936
 40
0.3749999999999943
 40
0.3749999999999943
 40
0.499999999999995
 40
0.499999999999995
 40
0.6249999999999957
 40
0.6249999999999957
 40
0.7499999999999963
 40
0.7499999999999963
 40
1.0
 40
1.0
 40
1.0
 40
1.0
 10
17.5831997796781
 20
19.32962792720992
 30
0.0
 10
17.58310417527137
 20
19.32907821125112
 30
0.0
 10
17.58265655177811
 20
19.328639914112
 30
0.0
 10
17.58158522685472
 20
19.32837224899246
 30
0.0
 10
17.58103801462927
 20
19.32840897970014
 30
0.0
 10
17.5794233845197
 20
19.32860375206389
 30
0.0
 10
17.578386412418
 20
19.32888412632723
 30
0.0
 10
17.57529227290413
 20
19.32977641043516
 30
0.0
 10
17.5732638061645
 20
19.33048426664869
 30
0.0
 10
17.5671924803911
 20
19.33255655895163
 30
0.0
 10
17.56316470305697
 20
19.33391039727112
 30
0.0
 10
17.55100838472218
 20
19.33747412697119
 30
0.0
 10
17.5428637998311
 20
19.33919839981826
 30
0.0
 10
17.52682582729247
 20
19.34093083926559
 30
0.0
 10
17.51887528376582
 20
19.34097314429813
 30
0.0
 10
17.50306486560727
 20
19.33932379540526
 30
0.0
 10
17.49541560980908
 20
19.33764934346491
 30
0.0
 10
17.47342943298719
 20
19.33053697929557
 30
0.0
 10
17.45978307682293
 20
19.32290144117914
 30
0.0
 10
17.43539284950738
 20
19.30464005284109
 30
0.0
 10
17.42435134157501
 20
19.2938592469162
 30
0.0
 10
17.40438812027608
 20
19.27035001550393
 30
0.0
 10
17.39556304745589
 20
19.25775130052919
 30
0.0
 10
17.379696575792
 20
19.23128364099978
 30
0.0
 10
17.3726641611305
 20
19.21740792173913
 30
0.0
 10
17.35392504507055
 20
19.17414060204321
 30
0.0
 10
17.34484890035744
 20
19.1438676469576
 30
0.0
 10
17.33854913316536
 20
19.11253227147888
 30
0.0
  0
SPLINE
  5
224
330
1F
100
AcDbEntity
  8
0
  6
SLD-Solid
 62
     7
370
    25
100
AcDbSpline
210
0.0
220
0.0
230
1.0
 70
     8
 71
     3
 72
    40
 73
    36
 74
     0
 42
0.00000001
 43
0.00000001
 40
0.0
 40
0.0
 40
0.0
 40
0.0
 40
0.2499999999999898
 40
0.2499999999999898
 40
0.374999999999988
 40
0.374999999999988
 40
0.4999999999999861
 40
0.4999999999999861
 40
0.5624999999999879
 40
0.5624999999999879
 40
0.6249999999999897
 40
0.6249999999999897
 40
0.6874999999999915
 40
0.6874999999999915
 40
0.7499999999999932
 40
0.7499999999999932
 40
0.8124999999999951
 40
0.8124999999999951
 40
0.8749999999999969
 40
0.8749999999999969
 40
0.9374999999999987
 40
0.9374999999999987
 40
0.9687500000000011
 40
0.9687500000000011
 40
0.9843750000000008
 40
0.9843750000000008
 40
0.9921875000000021
 40
0.9921875000000021
 40
0.996093750000001
 40
0.996093750000001
 40
0.9980468750000006
 40
0.9980468750000006
 40
0.9990234375000002
 40
0.9990234375000002
 40
1.0
 40
1.0
 40
1.0
 40
1.0
 10
17.31411021321475
 20
19.13153961077587
 30
0.0
 10
17.3212230244248
 20
19.16426112783386
 30
0.0
 10
17.33155587173181
 20
19.19562500204898
 30
0.0
 10
17.35298299210065
 20
19.23984952236118
 30
0.0
 10
17.36101903468513
 20
19.25389267321931
 30
0.0
 10
17.37911957077606
 20
19.28035133683005
 30
0.0
 10
17.38917390578436
 20
19.29277553214934
 30
0.0
 10
17.40620184113768
 20
19.30980917226307
 30
0.0
 10
17.41221121590333
 20
19.31521201433207
 30
0.0
 10
17.42471533791068
 20
19.32513362402488
 30
0.0
 10
17.43123870187395
 20
19.32968476143794
 30
0.0
 10
17.44491876858984
 20
19.33782219221956
 30
0.0
 10
17.45207396986444
 20
19.34141061729509
 30
0.0
 10
17.46717516358486
 20
19.34737864322859
 30
0.0
 10
17.47501453219147
 20
19.34970306080952
 30
0.0
 10
17.49104834016795
 20
19.35272778261327
 30
0.0
 10
17.49928529508139
 20
19.35344670336474
 30
0.0
 10
17.51630373974084
 20
19.35300212416376
 30
0.0
 10
17.52477954482415
 20
19.35183734095642
 30
0.0
 10
17.54158342091982
 20
19.3477273652794
 30
0.0
 10
17.54997483741577
 20
19.34475417940963
 30
0.0
 10
17.56238905678584
 20
19.33914218500581
 30
0.0
 10
17.56646788975756
 20
19.33709119842508
 30
0.0
 10
17.57254703565734
 20
19.33384534670355
 30
0.0
 10
17.57456557916234
 20
19.33273173466094
 30
0.0
 10
17.5776174100668
 20
19.33108955778777
 30
0.0
 10
17.57863694320502
 20
19.33054395330348
 30
0.0
 10
17.58020250810555
 20
19.32979411181752
 30
0.0
 10
17.58073142856317
 20
19.32955062032134
 30
0.0
 10
17.58155436075957
 20
19.32926882391377
 30
0.0
 10
17.58183531926161
 20
19.32918052613052
 30
0.0
 10
17.58227322085913
 20
19.32916160024604
 30
0.0
 10
17.58243515247663
 20
19.32917442754734
 30
0.0
 10
17.58265263636136
 20
19.32938307254201
 30
0.0
 10
17.5826612147498
 20
19.32955049762618
 30
0.0
 10
17.58264065538048
 20
19.32969845169643
 30
0.0
  0
SPLINE
  5
225
330
1F
100
AcDbEntity
  8
0
  6
SLD-Solid
 62
     7
370
    25
100
AcDbSpline
210
0.0
220
0.0
230
1.0
 70
     8
 71
     3
 72
    20
 73
    16
 74
     0
 42
0.00000001
 43
0.00000001
 40
0.0
 40
0.0
 40
0.0
 40
0.0
 40
0.25
 40
0.25
 40
0.375
 40
0.375
 40
0.5
 40
0.5
 40
0.625
 40
0.625
 40
0.75
 40
0.75
 40
0.875
 40
0.875
 40
1.0
 40
1.0
 40
1.0
 40
1.0
 10
17.28127988334762
 20
11.7642284005546
 30
0.0
 10
17.28745704739492
 20
11.73256628066298
 30
0.0
 10
17.29888514960999
 20
11.69992758598307
 30
0.0
 10
17.32205912047663
 20
11.64976857149484
 30
0.0
 10
17.33083545149012
 20
11.63282239579341
 30
0.0
 10
17.35042601112155
 20
11.59863313237605
 30
0.0
 10
17.3610770233136
 20
11.58166979791551
 30
0.0
 10
17.38407367330687
 20
11.54803339957642
 30
0.0
 10
17.39641811844702
 20
11.53135982446745
 30
0.0
 10
17.42296290110705
 20
11.49837768558038
 30
0.0
 10
17.43715784422866
 20
11.48206739539105
 30
0.0
 10
17.46782889117054
 20
11.44996361602268
 30
0.0
 10
17.48407514300414
 20
11.43441450873029
 30
0.0
 10
17.51858831440245
 20
11.40495122713374
 30
0.0
 10
17.53697890012158
 20
11.39093605530075
 30
0.0
 10
17.5563999059951
 20
11.37840735890784
 30
0.0
  0
SPLINE
  5
226
330
1F
100
AcDbEntity
  8
0
  6
SLD-Solid
 62
     7
370
    25
100
AcDbSpline
210
0.0
220
0.0
230
1.0
 70
     8
 71
     3
 72
    40
 73
    36
 74
     0
 42
0.00000001
 43
0.00000001
 40
0.0
 40
0.0
 40
0.0
 40
0.0
 40
0.0004882812499984
 40
0.0004882812499984
 40
0.0009765624999969
 40
0.0009765624999969
 40
0.0019531249999937
 40
0.0019531249999937
 40
0.0039062499999918
 40
0.0039062499999918
 40
0.0078124999999931
 40
0.0078124999999931
 40
0.0156249999999957
 40
0.0156249999999957
 40
0.0312499999999956
 40
0.0312499999999956
 40
0.0624999999999998
 40
0.0624999999999998
 40
0.1250000000000029
 40
0.1250000000000029
 40
0.2500000000000041
 40
0.2500000000000041
 40
0.3750000000000052
 40
0.3750000000000052
 40
0.5000000000000064
 40
0.5000000000000064
 40
0.6250000000000077
 40
0.6250000000000077
 40
0.6875000000000069
 40
0.6875000000000069
 40
0.750000000000006
 40
0.750000000000006
 40
0.875000000000003
 40
0.875000000000003
 40
1.0
 40
1.0
 40
1.0
 40
1.0
 10
17.55649355955164
 20
13.25573901917029
 30
0.0
 10
17.55649436775985
 20
13.25580100056125
 30
0.0
 10
17.55638603369173
 20
13.25577311979487
 30
0.0
 10
17.55626494235138
 20
13.25576123257439
 30
0.0
 10
17.55620476802955
 20
13.2557518768577
 30
0.0
 10
17.5560247915576
 20
13.25572136943753
 30
0.0
 10
17.55590551776616
 20
13.25569712547677
 30
0.0
 10
17.5555483080674
 20
13.25562182011385
 30
0.0
 10
17.55531108319621
 20
13.25556742196852
 30
0.0
 10
17.5545999643637
 20
13.25540205769615
 30
0.0
 10
17.55412679478848
 20
13.25528797127181
 30
0.0
 10
17.55270757120262
 20
13.25494488443899
 30
0.0
 10
17.55176201817446
 20
13.25471391041692
 30
0.0
 10
17.54892519452106
 20
13.25402362719493
 30
0.0
 10
17.54703351158018
 20
13.25356566622054
 30
0.0
 10
17.54136338291491
 20
13.25220709046203
 30
0.0
 10
17.53758830717919
 20
13.25132036676297
 30
0.0
 10
17.52627731768652
 20
13.24872072799196
 30
0.0
 10
17.51875577854369
 20
13.24706748417793
 30
0.0
 10
17.4962497873181
 20
13.24235097352092
 30
0.0
 10
17.48158619956441
 20
13.23958209857494
 30
0.0
 10
17.45296084800887
 20
13.23481990674153
 30
0.0
 10
17.43900460464221
 20
13.23283330223894
 30
0.0
 10
17.41259265421895
 20
13.22984519892276
 30
0.0
 10
17.40000255360319
 20
13.22883220905602
 30
0.0
 10
17.37697215209829
 20
13.22794980322663
 30
0.0
 10
17.36641226674136
 20
13.22806300644803
 30
0.0
 10
17.35203318071875
 20
13.22919972228614
 30
0.0
 10
17.3474877330278
 20
13.22974395365962
 30
0.0
 10
17.33910483553986
 20
13.23114845814264
 30
0.0
 10
17.33523612793208
 20
13.2320104274918
 30
0.0
 10
17.32456461778001
 20
13.23508544241172
 30
0.0
 10
17.3186897865213
 20
13.23778486850983
 30
0.0
 10
17.30941399493759
 20
13.24460128291249
 30
0.0
 10
17.30607492705188
 20
13.24870023345389
 30
0.0
 10
17.30406479173113
 20
13.25340315158684
 30
0.0
  0
ARC
  5
227
330
1F
100
AcDbEntity
  8
0
  6
SLD-Solid
 62
     7
370
    25
100
AcDbCircle
 10
17.2792179752
 20
13.2948675884
 30
0.0
 40
0.0483390505507252
100
AcDbArc
 50
300.9313893829
 51
357.4251772291
  0
ARC
  5
228
330
1F
100
AcDbEntity
  8
0
  6
SLD-Solid
 62
     7
370
    25
100
AcDbCircle
 10
17.6266096157
 20
10.8981425652
 30
0.0
 40
0.0700000000000003
100
AcDbArc
 50
180.0
 51
269.6357112452
  0
LINE
  5
229
330
1F
100
AcDbEntity
  8
0
  6
SLD-Solid
 62
     7
370
    25
100
AcDbLine
 10
17.5566096157
 20
11.2102766968
 30
0.0
 11
17.5566096157
 21
10.8981425652
 31
0.0
  0
LINE
  5
22A
330
1F
100
AcDbEntity
  8
0
  6
SLD-Solid
 62
     7
370
    25
100
AcDbLine
 10
17.556399906
 20
11.3784073589
 30
0.0
 11
17.556399906
 21
11.2102766968
 31
0.0
  0
LINE
  5
22B
330
1F
100
AcDbEntity
  8
0
  6
SLD-Solid
 62
     7
370
    25
100
AcDbLine
 10
17.556399906
 20
13.2556937232
 30
0.0
 11
17.556399906
 21
11.3784073589
 31
0.0
  0
LINE
  5
22C
330
1F
100
AcDbEntity
  8
0
  6
SLD-Solid
 62
     7
370
    25
100
AcDbLine
 10
17.556399906
 20
13.295793053
 30
0.0
 11
17.556399906
 21
13.2556937232
 31
0.0
  0
LINE
  5
22D
330
1F
100
AcDbEntity
  8
0
  6
SLD-Solid
 62
     7
370
    25
100
AcDbLine
 10
17.5566096157
 20
19.0290572631
 30
0.0
 11
17.5566096157
 21
13.295793053
 31
0.0
  0
LINE
  5
22E
330
1F
100
AcDbEntity
  8
0
  6
SLD-Solid
 62
     7
370
    25
100
AcDbLine
 10
21.3266096157
 20
19.9475712756
 30
0.0
 11
18.2887757714
 21
19.798127221
 31
0.0
  0
LINE
  5
22F
330
1F
100
AcDbEntity
  8
0
  6
SLD-Solid
 62
     7
370
    25
100
AcDbLine
 10
21.3266096157
 20
19.9475712756
 30
0.0
 11
21.3266096157
 21
10.2841486289
 31
0.0
  0
ARC
  5
230
330
1F
100
AcDbEntity
  8
0
  6
SLD-Solid
 62
     7
370
    25
100
AcDbCircle
 10
20.8266096157
 20
10.2841486289
 30
0.0
 40
0.499999999999998
100
AcDbArc
 50
327.3163611537
 51
0.0
  0
LINE
  5
231
330
1F
100
AcDbEntity
  8
0
  6
SLD-Solid
 62
     7
370
    25
100
AcDbLine
 10
17.3266096157
 20
10.8981425652
 30
0.0
 11
17.3266096157
 21
11.6115481918
 31
0.0
  0
LINE
  5
232
330
1F
100
AcDbEntity
  8
0
  6
SLD-Solid
 62
     7
370
    25
100
AcDbLine
 10
17.3266096157
 20
13.3020164449
 30
0.0
 11
17.3266096157
 21
18.9458614735
 31
0.0
  0
SPLINE
  5
233
330
1F
100
AcDbEntity
  8
0
  6
SLD-Solid
 62
     7
370
    25
100
AcDbSpline
210
0.0
220
0.0
230
1.0
 70
     8
 71
     3
 72
     8
 73
     4
 74
     0
 42
0.00000001
 43
0.00000001
 40
0.0
 40
0.0
 40
0.0
 40
0.0
 40
0.0010044544471563
 40
0.0010044544471563
 40
0.0010044544471563
 40
0.0010044544471563
 10
17.32697997229526
 20
18.98319080015045
 30
0.0
 10
17.32673258032314
 20
18.97075131416909
 30
0.0
 10
17.32660961569243
 20
18.95830702213026
 30
0.0
 10
17.32660961569243
 20
18.94586147345115
 30
0.0
  0
SPLINE
  5
234
330
1F
100
AcDbEntity
  8
0
  6
SLD-Solid
 62
     7
370
    25
100
AcDbSpline
210
0.0
220
0.0
230
1.0
 70
     8
 71
     3
 72
     8
 73
     4
 74
     0
 42
0.00000001
 43
0.00000001
 40
0.0
 40
0.0
 40
0.0
 40
0.0
 40
0.0003124095342072
 40
0.0003124095342072
 40
0.0003124095342072
 40
0.0003124095342072
 10
17.32724686564548
 20
18.99479713477646
 30
0.0
 10
17.32714586348635
 20
18.99092862876994
 30
0.0
 10
17.32705691715923
 20
18.98705978000523
 30
0.0
 10
17.32697997229528
 20
18.98319080015033
 30
0.0
  0
SPLINE
  5
235
330
1F
100
AcDbEntity
  8
0
  6
SLD-Solid
 62
     7
370
    25
100
AcDbSpline
210
0.0
220
0.0
230
1.0
 70
     8
 71
     3
 72
     8
 73
     4
 74
     0
 42
0.00000001
 43
0.00000001
 40
0.0
 40
0.0
 40
0.0
 40
0.0
 40
0.0009224331712393
 40
0.0009224331712393
 40
0.0009224331712393
 40
0.0009224331712393
 10
17.32845726028592
 20
19.02905726308615
 30
0.0
 10
17.32794833169061
 20
19.01763994329466
 30
0.0
 10
17.32754506921166
 20
19.00621952604488
 30
0.0
 10
17.3272468565555
 20
18.99479717766374
 30
0.0
  0
SPLINE
  5
236
330
1F
100
AcDbEntity
  8
0
  6
SLD-Solid
 62
     7
370
    25
100
AcDbSpline
210
0.0
220
0.0
230
1.0
 70
     8
 71
     3
 72
     8
 73
     4
 74
     0
 42
0.00000001
 43
0.00000001
 40
0.0
 40
0.0
 40
0.0
 40
0.0
 40
1.0
 40
1.0
 40
1.0
 40
1.0
 10
17.32660961569243
 20
13.30201644488686
 30
0.0
 10
17.32660961569243
 20
13.29875290740246
 30
0.0
 10
17.32690193851827
 20
13.29562482420257
 30
0.0
 10
17.32750822303181
 20
13.29269600436459
 30
0.0
  0
LINE
  5
237
330
1F
100
AcDbEntity
  8
0
  6
SLD-Solid
 62
     7
370
    25
100
AcDbLine
 10
21.3266096157
 20
20.1778494163
 30
0.0
 11
21.3266096157
 21
19.9475712756
 31
0.0
  0
LINE
  5
238
330
1F
100
AcDbEntity
  8
0
  6
SLD-Solid
 62
     7
370
    25
100
AcDbLine
 10
20.8266096157
 20
9.7841486289
 30
0.0
 11
20.0566096157
 21
9.7841486289
 31
0.0
  0
SPLINE
  5
239
330
1F
100
AcDbEntity
  8
0
  6
SLD-Solid
 62
     7
370
    25
100
AcDbSpline
210
0.0
220
0.0
230
1.0
 70
     8
 71
     3
 72
    28
 73
    24
 74
     0
 42
0.00000001
 43
0.00000001
 40
0.0
 40
0.0
 40
0.0
 40
0.0
 40
0.1249999999999984
 40
0.1249999999999984
 40
0.1874999999999977
 40
0.1874999999999977
 40
0.249999999999997
 40
0.249999999999997
 40
0.3749999999999962
 40
0.3749999999999962
 40
0.4374999999999962
 40
0.4374999999999962
 40
0.4999999999999962
 40
0.4999999999999962
 40
0.7499999999999971
 40
0.7499999999999971
 40
0.874999999999998
 40
0.874999999999998
 40
0.9374999999999989
 40
0.9374999999999989
 40
0.9687499999999994
 40
0.9687499999999994
 40
1.0
 40
1.0
 40
1.0
 40
1.0
 10
21.24744212394245
 20
10.014148628869
 30
0.0
 10
21.23469526178272
 20
9.994280873406058
 30
0.0
 10
21.22087256821788
 20
9.97580544657302
 30
0.0
 10
21.19862205477946
 20
9.949878612841319
 30
0.0
 10
21.19095128725123
 20
9.941536940752993
 30
0.0
 10
21.1751054382601
 20
9.925431074070179
 30
0.0
 10
21.16691996435259
 20
9.917663847604906
 30
0.0
 10
21.14212248651117
 20
9.895637957765523
 30
0.0
 10
21.1251032776797
 20
9.882465812906352
 30
0.0
 10
21.09885543989131
 20
9.864632122724329
 30
0.0
 10
21.0899859813719
 20
9.859011060456346
 30
0.0
 10
21.07200470988376
 20
9.848384575944511
 30
0.0
 10
21.06286177291175
 20
9.843364249300151
 30
0.0
 10
21.01700952942524
 20
9.819990153934679
 30
0.0
 10
20.97984025806674
 20
9.806616488915882
 30
0.0
 10
20.92300083012358
 20
9.793141625463601
 30
0.0
 10
20.9038288209398
 20
9.789765986318136
 30
0.0
 10
20.87490013951772
 20
9.786391382776761
 30
0.0
 10
20.86525332018922
 20
9.785550391701767
 30
0.0
 10
20.85077046543926
 20
9.784709305386771
 30
0.0
 10
20.84594074438281
 20
9.784499072614041
 30
0.0
 10
20.83627597328071
 20
9.784218700645857
 30
0.0
 10
20.83140220966048
 20
9.784148628869003
 30
0.0
 10
20.82660961569243
 20
9.784148628869003
 30
0.0
  0
ARC
  5
23A
330
1F
100
AcDbEntity
  8
0
  6
SLD-Solid
 62
     7
370
    25
100
AcDbCircle
 10
19.5966096157
 20
10.3556063484
 30
0.0
 40
0.2300000000000005
100
AcDbArc
 50
0.0
 51
89.6357112452
  0
ARC
  5
23B
330
1F
100
AcDbEntity
  8
0
  6
SLD-Solid
 62
     7
370
    25
100
AcDbCircle
 10
20.0566096157
 20
10.0141486289
 30
0.0
 40
0.2300000000000004
100
AcDbArc
 50
180.0
 51
270.0
  0
LINE
  5
23C
330
1F
100
AcDbEntity
  8
0
  6
SLD-Solid
 62
     7
370
    25
100
AcDbLine
 10
19.8266096157
 20
10.0141486289
 30
0.0
 11
19.8266096157
 21
10.3556063484
 31
0.0
  0
LINE
  5
23D
330
1F
100
AcDbEntity
  8
0
  6
SLD-Solid
 62
     7
370
    25
100
AcDbLine
 10
19.5980719546
 20
10.5856016996
 30
0.0
 11
17.6247022171
 21
10.5981486289
 31
0.0
  0
LINE
  5
23E
330
1F
100
AcDbEntity
  8
0
  6
SLD-Solid
 62
     7
370
    25
100
AcDbLine
 10
17.626164556
 20
10.82814398
 30
0.0
 11
17.6247022171
 21
10.5981486289
 31
0.0
  0
ARC
  5
23F
330
1F
100
AcDbEntity
  8
0
  6
SLD-Solid
 62
     7
370
    25
100
AcDbCircle
 10
17.6266096157
 20
10.8981425652
 30
0.0
 40
0.3000000000000007
100
AcDbArc
 50
180.0
 51
269.6357112452
  0
SPLINE
  5
240
330
1F
100
AcDbEntity
  8
0
  6
SLD-Solid
 62
     7
370
    25
100
AcDbSpline
210
0.0
220
0.0
230
1.0
 70
     8
 71
     3
 72
     8
 73
     4
 74
     0
 42
0.00000001
 43
0.00000001
 40
0.0
 40
0.0
 40
0.0
 40
0.0
 40
1.0
 40
1.0
 40
1.0
 40
1.0
 10
17.30122060900874
 20
19.04553511694624
 30
0.0
 10
17.30372467925361
 20
19.07463905967779
 30
0.0
 10
17.30797895161142
 20
19.10333266979668
 30
0.0
 10
17.31411021321476
 20
19.13153961077587
 30
0.0
  0
SPLINE
  5
241
330
1F
100
AcDbEntity
  8
0
  6
SLD-Solid
 62
     7
370
    25
100
AcDbSpline
210
0.0
220
0.0
230
1.0
 70
     8
 71
     3
 72
     8
 73
     4
 74
     0
 42
0.00000001
 43
0.00000001
 40
0.0
 40
0.0
 40
0.0
 40
0.0
 40
1.0
 40
1.0
 40
1.0
 40
1.0
 10
17.29882437745411
 20
19.01192488176629
 30
0.0
 10
17.29945888762932
 20
19.0231462619491
 30
0.0
 10
17.30025818453278
 20
19.03434918999792
 30
0.0
 10
17.30122060900875
 20
19.04553511694619
 30
0.0
  0
SPLINE
  5
242
330
1F
100
AcDbEntity
  8
0
  6
SLD-Solid
 62
     7
370
    25
100
AcDbSpline
210
0.0
220
0.0
230
1.0
 70
     8
 71
     3
 72
     8
 73
     4
 74
     0
 42
0.00000001
 43
0.00000001
 40
0.0
 40
0.0
 40
0.0
 40
0.0
 40
1.0
 40
1.0
 40
1.0
 40
1.0
 10
17.30406479173113
 20
13.25340315158683
 30
0.0
 10
17.30292714533196
 20
13.25603247324419
 30
0.0
 10
17.30198058380551
 20
13.25877408511715
 30
0.0
 10
17.30122133224379
 20
13.26159802154876
 30
0.0
  0
SPLINE
  5
243
330
1F
100
AcDbEntity
  8
0
  6
SLD-Solid
 62
     7
370
    25
100
AcDbSpline
210
0.0
220
0.0
230
1.0
 70
     8
 71
     3
 72
    24
 73
    20
 74
     0
 42
0.00000001
 43
0.00000001
 40
0.0000015256144352
 40
0.0000015256144352
 40
0.0000015256144352
 40
0.0000015256144352
 40
0.0036588147282595
 40
0.0036588147282595
 40
0.0380154073238367
 40
0.0380154073238367
 40
0.1754417777061458
 40
0.1754417777061458
 40
0.3128681480884548
 40
0.3128681480884548
 40
0.4502945184707638
 40
0.4502945184707638
 40
0.5877208888530729
 40
0.5877208888530729
 40
0.7251472592353819
 40
0.7251472592353819
 40
0.8625736296176909
 40
0.8625736296176909
 40
1.0
 40
1.0
 40
1.0
 40
1.0
 10
18.04841895550791
 20
20.02785748591516
 30
0.0
 10
18.04673793319542
 20
20.02776934975296
 30
0.0
 10
18.04505642389812
 20
20.02767977952524
 30
0.0
 10
18.02757281719533
 20
20.0267311449895
 30
0.0
 10
18.01164252332182
 20
20.02549047828775
 30
0.0
 10
17.93147237712937
 20
20.01727475610916
 30
0.0
 10
17.8656283476333
 20
20.00421030778797
 30
0.0
 10
17.73454694438851
 20
19.96336934497157
 30
0.0
 10
17.66933588195035
 20
19.93557053625503
 30
0.0
 10
17.54443972025222
 20
19.86524018217802
 30
0.0
 10
17.4847936449978
 20
19.82270572216838
 30
0.0
 10
17.37581246966357
 20
19.72507628260484
 30
0.0
 10
17.32651228494199
 20
19.67000385417094
 30
0.0
 10
17.24169285186419
 20
19.55137871241353
 30
0.0
 10
17.2061874808525
 20
19.48786475042389
 30
0.0
 10
17.15032327854904
 20
19.35737515169088
 30
0.0
 10
17.12995320703108
 20
19.29043584438819
 30
0.0
 10
17.10358126252819
 20
19.15785283263088
 30
0.0
 10
17.09755316096472
 20
19.09222906745254
 30
0.0
 10
17.09755316096472
 20
19.02905726308612
 30
0.0
  0
LWPOLYLINE
  5
244
330
1F
100
AcDbEntity
  8
0
  6
SLD-Solid
 62
     7
370
    25
100
AcDbPolyline
 90
        3
 70
   128
 43
0.0
 10
21.3266096157
 20
20.1891176841
 10
20.3883190639
 20
20.1429591542
 10
18.0484210592
 20
20.0278575962
  0
SPLINE
  5
245
330
1F
100
AcDbEntity
  8
0
  6
SLD-Solid
 62
     7
370
    25
100
AcDbSpline
210
0.0
220
0.0
230
1.0
 70
    24
 71
     3
 72
    11
 73
     7
 74
     0
 42
0.00000001
 43
0.00000001
 40
0.0
 40
0.0
 40
0.0
 40
0.0
 40
0.241131365817209
 40
0.5286128008412994
 40
0.816094907111185
 40
0.9999999999999999
 40
0.9999999999999999
 40
0.9999999999999999
 40
0.9999999999999999
 10
21.32660961569243
 20
20.18601177696619
 30
0.0
 10
21.32660961569243
 20
20.18648598966685
 30
0.0
 10
21.32660961569243
 20
20.18752556783637
 30
0.0
 10
21.32660961569243
 20
20.18850671059575
 30
0.0
 10
21.32660961569243
 20
20.18904552345204
 30
0.0
 10
21.32660961569243
 20
20.1890974324932
 30
0.0
 10
21.32660961569243
 20
20.1891176840763
 30
0.0
  0
SPLINE
  5
246
330
1F
100
AcDbEntity
  8
0
  6
SLD-Solid
 62
     7
370
    25
100
AcDbSpline
210
0.0
220
0.0
230
1.0
 70
     8
 71
     3
 72
    10
 73
     6
 74
     0
 42
0.00000001
 43
0.00000001
 40
0.0
 40
0.0
 40
0.0
 40
0.0
 40
0.5000000000000001
 40
0.5000000000000001
 40
1.0
 40
1.0
 40
1.0
 40
1.0
 10
17.12642224787769
 20
13.9119614519102
 30
0.0
 10
17.12642224786894
 20
13.79246983590345
 30
0.0
 10
17.14036178191725
 20
13.67931594188383
 30
0.0
 10
17.19719777834782
 20
13.46617365569212
 30
0.0
 10
17.23998143172875
 20
13.36663043873525
 30
0.0
 10
17.29774052877964
 20
13.27450759930591
 30
0.0
  0
SPLINE
  5
247
330
1F
100
AcDbEntity
  8
0
  6
SLD-Solid
 62
     7
370
    25
100
AcDbSpline
210
0.0
220
0.0
230
1.0
 70
     8
 71
     3
 72
     8
 73
     4
 74
     0
 42
0.00000001
 43
0.00000001
 40
0.0
 40
0.0
 40
0.0
 40
0.0
 40
0.0010266016727693
 40
0.0010266016727693
 40
0.0010266016727693
 40
0.0010266016727693
 10
17.30122133224379
 20
13.26159802154876
 30
0.0
 10
17.30004989146244
 20
13.26595504162844
 30
0.0
 10
17.29888956975894
 20
13.27025472614424
 30
0.0
 10
17.29774052877955
 20
13.27450759930587
 30
0.0
  0
LINE
  5
248
330
1F
100
AcDbEntity
  8
0
  6
SLD-Solid
 62
     7
370
    25
100
AcDbLine
 10
18.2774747529
 20
20.0278494163
 30
0.0
 11
18.2774547755
 21
20.0282555087
 31
0.0
  0
SPLINE
  5
249
330
1F
100
AcDbEntity
  8
0
  6
SLD-Solid
 62
     7
370
    25
100
AcDbSpline
210
0.0
220
0.0
230
1.0
 70
     8
 71
     3
 72
    17
 73
    13
 74
     0
 42
0.00000001
 43
0.00000001
 40
0.0
 40
0.0
 40
0.0
 40
0.0
 40
0.0000012801541637
 40
0.1121854308499888
 40
0.2066417356997456
 40
0.3014420071641215
 40
0.4559929987317408
 40
0.6125449263886799
 40
0.7299630748904354
 40
0.8287533087162947
 40
0.9278753127042848
 40
1.0
 40
1.0
 40
1.0
 40
1.0
 10
17.09755316096472
 20
12.8345697548838
 30
0.0
 10
17.09755316096478
 20
12.83456966281113
 30
0.0
 10
17.09755316594415
 20
12.82650093773616
 30
0.0
 10
17.09876689094642
 20
12.80721895862069
 30
0.0
 10
17.10367986311956
 20
12.76743122442398
 30
0.0
 10
17.11241339442515
 20
12.71010269614829
 30
0.0
 10
17.12730902547168
 20
12.62426794790746
 30
0.0
 10
17.14830296573322
 20
12.5108550502969
 30
0.0
 10
17.16984984115338
 20
12.39612370249006
 30
0.0
 10
17.1899507778953
 20
12.28814283163785
 30
0.0
 10
17.20812668289787
 20
12.18999610780392
 30
0.0
 10
17.22052549084734
 20
12.11963634598608
 30
0.0
 10
17.22574754880065
 20
12.09000262996347
 30
0.0
  0
LINE
  5
24A
330
1F
100
AcDbEntity
  8
0
  6
SLD-Solid
 62
     7
370
    25
100
AcDbLine
 10
17.097553161
 20
13.8695870411
 30
0.0
 11
17.097553161
 21
12.8345697549
 31
0.0
  0
SPLINE
  5
24B
330
1F
100
AcDbEntity
  8
0
  6
SLD-Solid
 62
     7
370
    25
100
AcDbSpline
210
0.0
220
0.0
230
1.0
 70
     8
 71
     3
 72
    18
 73
    14
 74
     0
 42
0.00000001
 43
0.00000001
 40
0.0
 40
0.0
 40
0.0
 40
0.0
 40
0.2499999999999993
 40
0.2499999999999993
 40
0.4999999999999987
 40
0.4999999999999987
 40
0.5624999999999984
 40
0.5624999999999984
 40
0.6249999999999983
 40
0.6249999999999983
 40
0.7499999999999989
 40
0.7499999999999989
 40
1.0
 40
1.0
 40
1.0
 40
1.0
 10
17.29819139768721
 20
19.00052092785087
 30
0.0
 10
17.28031384045293
 20
18.78171771144248
 30
0.0
 10
17.26070977178157
 20
18.57508610661198
 30
0.0
 10
17.22180550051786
 20
18.18382120792927
 30
0.0
 10
17.20248837047937
 20
17.9992036244051
 30
0.0
 10
17.18096786486814
 20
17.78197216739395
 30
0.0
 10
17.17679752095403
 20
17.73921470439073
 30
0.0
 10
17.16885458914363
 20
17.65578597092824
 30
0.0
 10
17.16507233877624
 20
17.61501833554433
 30
0.0
 10
17.15437313729705
 20
17.49548983814224
 30
0.0
 10
17.14810352515664
 20
17.4194988274212
 30
0.0
 10
17.13252261098487
 20
17.20226296262684
 30
0.0
 10
17.1264222478719
 20
17.07169327208787
 30
0.0
 10
17.12642224787769
 20
16.95526937725032
 30
0.0
  0
SPLINE
  5
24C
330
1F
100
AcDbEntity
  8
0
  6
SLD-Solid
 62
     7
370
    25
100
AcDbSpline
210
0.0
220
0.0
230
1.0
 70
     8
 71
     3
 72
     8
 73
     4
 74
     0
 42
0.00000001
 43
0.00000001
 40
0.0
 40
0.0
 40
0.0
 40
0.0
 40
1.0
 40
1.0
 40
1.0
 40
1.0
 10
17.12642224787769
 20
16.95526937725032
 30
0.0
 10
17.12642224787456
 20
16.89239617766497
 30
0.0
 10
17.12820731459404
 20
16.83417765341711
 30
0.0
 10
17.13199255734029
 20
16.78051721398299
 30
0.0
  0
LINE
  5
24D
330
1F
100
AcDbEntity
  8
0
  6
SLD-Solid
 62
     7
370
    25
100
AcDbLine
 10
17.097553161
 20
19.0290572631
 30
0.0
 11
17.097553161
 21
16.9949420532
 31
0.0
  0
SPLINE
  5
24E
330
1F
100
AcDbEntity
  8
0
  6
SLD-Solid
 62
     7
370
    25
100
AcDbSpline
210
0.0
220
0.0
230
1.0
 70
     8
 71
     3
 72
     8
 73
     4
 74
     0
 42
0.00000001
 43
0.00000001
 40
0.0
 40
0.0
 40
0.0
 40
0.0
 40
1.0
 40
1.0
 40
1.0
 40
1.0
 10
17.13073729670686
 20
14.02914153288804
 30
0.0
 10
17.12786854921698
 20
13.98946598868894
 30
0.0
 10
17.12642224787487
 20
13.95040253997139
 30
0.0
 10
17.12642224787769
 20
13.9119614519102
 30
0.0
  0
LINE
  5
24F
330
1F
100
AcDbEntity
  8
0
  6
SLD-Solid
 62
     7
370
    25
100
AcDbLine
 10
17.3241096157
 20
11.4297058316
 30
0.0
 11
17.3266096157
 21
11.4297058316
 31
0.0
  0
LINE
  5
250
330
1F
100
AcDbEntity
  8
0
  6
SLD-Solid
 62
     7
370
    25
100
AcDbLine
 10
17.3241096157
 20
11.4297058316
 30
0.0
 11
17.3241096157
 21
11.4338001952
 31
0.0
  0
LINE
  5
251
330
1F
100
AcDbEntity
  8
0
  6
SLD-Solid
 62
     7
370
    25
100
AcDbLine
 10
17.3241096157
 20
11.4338001952
 30
0.0
 11
17.3266096157
 21
11.4338001952
 31
0.0
  0
LINE
  5
252
330
1F
100
AcDbEntity
  8
0
  6
SLD-Solid
 62
     7
370
    25
100
AcDbLine
 10
17.3241096157
 20
11.4338001952
 30
0.0
 11
17.3241096157
 21
11.5088997488
 31
0.0
  0
LINE
  5
253
330
1F
100
AcDbEntity
  8
0
  6
SLD-Solid
 62
     7
370
    25
100
AcDbLine
 10
17.3241096157
 20
11.5088997488
 30
0.0
 11
17.3266096157
 21
11.5088997488
 31
0.0
  0
LINE
  5
254
330
1F
100
AcDbEntity
  8
0
  6
SLD-Solid
 62
     7
370
    25
100
AcDbLine
 10
17.3241096157
 20
11.5088997488
 30
0.0
 11
17.3241096157
 21
11.6180264988
 31
0.0
  0
LINE
  5
255
330
1F
100
AcDbEntity
  8
0
  6
SLD-Solid
 62
     7
370
    25
100
AcDbLine
 10
17.3241096157
 20
11.2344145283
 30
0.0
 11
17.3266096157
 21
11.2344145283
 31
0.0
  0
LINE
  5
256
330
1F
100
AcDbEntity
  8
0
  6
SLD-Solid
 62
     7
370
    25
100
AcDbLine
 10
17.3241096157
 20
11.2385107039
 30
0.0
 11
17.3266096157
 21
11.2385107039
 31
0.0
  0
LINE
  5
257
330
1F
100
AcDbEntity
  8
0
  6
SLD-Solid
 62
     7
370
    25
100
AcDbLine
 10
17.3241096157
 20
11.2344145283
 30
0.0
 11
17.3241096157
 21
11.2385107039
 31
0.0
  0
LINE
  5
258
330
1F
100
AcDbEntity
  8
0
  6
SLD-Solid
 62
     7
370
    25
100
AcDbLine
 10
17.3241096157
 20
11.3295660437
 30
0.0
 11
17.3266096157
 21
11.3295660437
 31
0.0
  0
LINE
  5
259
330
1F
100
AcDbEntity
  8
0
  6
SLD-Solid
 62
     7
370
    25
100
AcDbLine
 10
17.3241096157
 20
11.2385107039
 30
0.0
 11
17.3241096157
 21
11.3295660437
 31
0.0
  0
LINE
  5
25A
330
1F
100
AcDbEntity
  8
0
  6
SLD-Solid
 62
     7
370
    25
100
AcDbLine
 10
17.3241096157
 20
11.3588228349
 30
0.0
 11
17.3266096157
 21
11.3588228349
 31
0.0
  0
LINE
  5
25B
330
1F
100
AcDbEntity
  8
0
  6
SLD-Solid
 62
     7
370
    25
100
AcDbLine
 10
17.3241096157
 20
11.3295660437
 30
0.0
 11
17.3241096157
 21
11.3588228349
 31
0.0
  0
LINE
  5
25C
330
1F
100
AcDbEntity
  8
0
  6
SLD-Solid
 62
     7
370
    25
100
AcDbLine
 10
17.3241096157
 20
11.4208392882
 30
0.0
 11
17.3266096157
 21
11.4208392882
 31
0.0
  0
LINE
  5
25D
330
1F
100
AcDbEntity
  8
0
  6
SLD-Solid
 62
     7
370
    25
100
AcDbLine
 10
17.3241096157
 20
11.4208392882
 30
0.0
 11
17.3241096157
 21
11.4297058316
 31
0.0
  0
LINE
  5
25E
330
1F
100
AcDbEntity
  8
0
  6
SLD-Solid
 62
     7
370
    25
100
AcDbLine
 10
17.3241096157
 20
11.3588228349
 30
0.0
 11
17.3241096157
 21
11.4208392882
 31
0.0
  0
SPLINE
  5
25F
330
1F
100
AcDbEntity
  8
0
  6
SLD-Solid
 62
     7
370
    25
100
AcDbSpline
210
0.0
220
0.0
230
1.0
 70
     8
 71
     3
 72
    10
 73
     6
 74
     0
 42
0.00000001
 43
0.00000001
 40
0.0
 40
0.0
 40
0.0
 40
0.0
 40
0.5
 40
0.5
 40
1.0
 40
1.0
 40
1.0
 40
1.0
 10
17.10314953719282
 20
16.82204511211377
 30
0.0
 10
17.10124836065417
 20
16.84859133208399
 30
0.0
 10
17.09984941834252
 20
16.87626556239592
 30
0.0
 10
17.098001808548
 20
16.93388950571894
 30
0.0
 10
17.09755316096316
 20
16.96386667849199
 30
0.0
 10
17.09755316096472
 20
16.99494205324644
 30
0.0
  0
SPLINE
  5
260
330
1F
100
AcDbEntity
  8
0
  6
SLD-Solid
 62
     7
370
    25
100
AcDbSpline
210
0.0
220
0.0
230
1.0
 70
     8
 71
     3
 72
     8
 73
     4
 74
     0
 42
0.00000001
 43
0.00000001
 40
0.0
 40
0.0
 40
0.0
 40
0.0
 40
1.0
 40
1.0
 40
1.0
 40
1.0
 10
17.09755316096472
 20
13.86958787491938
 30
0.0
 10
17.09755316096189
 20
13.90802587856033
 30
0.0
 10
17.09900630315324
 20
13.94709325201394
 30
0.0
 10
17.10188840660702
 20
13.98676795589617
 30
0.0
  0
SPLINE
  5
261
330
1F
100
AcDbEntity
  8
0
  6
SLD-Solid
 62
     7
370
    25
100
AcDbSpline
210
0.0
220
0.0
230
1.0
 70
     8
 71
     3
 72
    64
 73
    60
 74
     0
 42
0.00000001
 43
0.00000001
 40
0.0
 40
0.0
 40
0.0
 40
0.0
 40
0.0039062500000001
 40
0.0039062500000001
 40
0.0078125000000002
 40
0.0156250000000005
 40
0.0156250000000005
 40
0.0312500000000005
 40
0.0312500000000005
 40
0.0625000000000005
 40
0.0625000000000005
 40
0.0937500000000005
 40
0.0937500000000005
 40
0.1250000000000005
 40
0.1250000000000005
 40
0.1874999999999998
 40
0.1874999999999998
 40
0.2187499999999994
 40
0.2187499999999994
 40
0.2499999999999991
 40
0.2499999999999991
 40
0.3124999999999982
 40
0.3124999999999982
 40
0.3749999999999974
 40
0.3749999999999974
 40
0.4062499999999975
 40
0.4062499999999975
 40
0.4374999999999976
 40
0.4374999999999976
 40
0.4999999999999978
 40
0.4999999999999978
 40
0.5624999999999979
 40
0.5624999999999979
 40
0.624999999999998
 40
0.624999999999998
 40
0.6874999999999982
 40
0.6874999999999982
 40
0.7499999999999983
 40
0.7499999999999983
 40
0.7656249999999983
 40
0.7656249999999983
 40
0.7812499999999984
 40
0.7812499999999984
 40
0.8124999999999986
 40
0.8124999999999986
 40
0.8749999999999992
 40
0.8749999999999992
 40
0.9062499999999996
 40
0.9062499999999996
 40
0.9374999999999999
 40
0.9374999999999999
 40
0.9687500000000001
 40
0.9687500000000001
 40
0.9843750000000003
 40
0.9843750000000003
 40
0.9921875000000002
 40
0.9960937500000001
 40
0.9960937500000001
 40
1.0
 40
1.0
 40
1.0
 40
1.0
 10
17.13199255734069
 20
16.78051721398282
 30
0.0
 10
17.13212486385298
 20
16.77875033654331
 30
0.0
 10
17.13226262807536
 20
16.77690609978491
 30
0.0
 10
17.1325378667342
 20
16.77321193474259
 30
0.0
 10
17.13295582842711
 20
16.7675880872729
 30
0.0
 10
17.13338853659781
 20
16.76172032453594
 30
0.0
 10
17.13427220066938
 20
16.74966874587735
 30
0.0
 10
17.13488561448577
 20
16.74121330551387
 30
0.0
 10
17.13678849810083
 20
16.71464333632851
 30
0.0
 10
17.13814089778501
 20
16.69532573953717
 30
0.0
 10
17.14096303181771
 20
16.65370300190977
 30
0.0
 10
17.14243653445542
 20
16.63135139483746
 30
0.0
 10
17.14544548864094
 20
16.5840517405982
 30
0.0
 10
17.14696383037954
 20
16.55937744394975
 30
0.0
 10
17.15150431417186
 20
16.48261311076104
 30
0.0
 10
17.15450976884334
 20
16.42780244353033
 30
0.0
 10
17.15882445558571
 20
16.34094508151433
 30
0.0
 10
17.16023386848764
 20
16.31114500279961
 30
0.0
 10
17.16295240247742
 20
16.25035166733732
 30
0.0
 10
17.16425244494767
 20
16.21956121004477
 30
0.0
 10
17.16795834707216
 20
16.12612126768494
 30
0.0
 10
17.17017190277449
 20
16.06241172132539
 30
0.0
 10
17.17401716082766
 20
15.93249936687749
 30
0.0
 10
17.17564869502443
 20
15.86629156560121
 30
0.0
 10
17.17760688810813
 20
15.76520158039194
 30
0.0
 10
17.17817859934105
 20
15.73119150116984
 30
0.0
 10
17.17914568557009
 20
15.66329521156474
 30
0.0
 10
17.17954295570524
 20
15.62932056263904
 30
0.0
 10
17.18047574382859
 20
15.52731950074173
 30
0.0
 10
17.18075288857304
 20
15.4592164338692
 30
0.0
 10
17.1806006232277
 20
15.32280650333344
 30
0.0
 10
17.18017235522102
 20
15.25450008697883
 30
0.0
 10
17.17861356815896
 20
15.11767605787678
 30
0.0
 10
17.17749568758765
 20
15.05027704809056
 30
0.0
 10
17.17463271419826
 20
14.91760686467063
 30
0.0
 10
17.17288382589571
 20
14.85232923039194
 30
0.0
 10
17.16881483880455
 20
14.72406348424114
 30
0.0
 10
17.16649499915264
 20
14.6610700550391
 30
0.0
 10
17.16327813943849
 20
14.58399067297823
 30
0.0
 10
17.16261903814011
 20
14.56865841389073
 30
0.0
 10
17.1612694752186
 20
14.53817158506834
 30
0.0
 10
17.16057842698957
 20
14.52300106314309
 30
0.0
 10
17.15847935694266
 20
14.47814385379165
 30
0.0
 10
17.15704038134588
 20
14.44899373252147
 30
0.0
 10
17.15264180313118
 20
14.36393267760422
 30
0.0
 10
17.14959838530957
 20
14.31038024963737
 30
0.0
 10
17.14504128978109
 20
14.23573508149143
 30
0.0
 10
17.14351830520833
 20
14.21172577529544
 30
0.0
 10
17.1405813149981
 20
14.16683752754228
 30
0.0
 10
17.13916035953779
 20
14.14584057564274
 30
0.0
 10
17.13645691256758
 20
14.10691871597308
 30
0.0
 10
17.13517417494081
 20
14.08899888290561
 30
0.0
 10
17.13339275000478
 20
14.0646116886402
 30
0.0
 10
17.13282267168684
 20
14.05689847545754
 30
0.0
 10
17.13200847510567
 20
14.04598582291774
 30
0.0
 10
17.13161161593798
 20
14.0406939358657
 30
0.0
 10
17.13123120469079
 20
14.03565643539041
 30
0.0
 10
17.13098138045098
 20
14.03235560400856
 30
0.0
 10
17.13085641409452
 20
14.03070830988908
 30
0.0
 10
17.13073729670676
 20
14.02914153288228
 30
0.0
  0
SPLINE
  5
262
330
1F
100
AcDbEntity
  8
0
  6
SLD-Solid
 62
     7
370
    25
100
AcDbSpline
210
0.0
220
0.0
230
1.0
 70
     8
 71
     3
 72
    48
 73
    44
 74
     0
 42
0.00000001
 43
0.00000001
 40
0.0
 40
0.0
 40
0.0
 40
0.0
 40
0.0625000000000009
 40
0.0625000000000009
 40
0.0937500000000012
 40
0.0937500000000012
 40
0.1250000000000015
 40
0.1250000000000015
 40
0.1875000000000022
 40
0.1875000000000022
 40
0.2187500000000027
 40
0.2187500000000027
 40
0.2500000000000033
 40
0.2500000000000033
 40
0.3125000000000041
 40
0.3125000000000041
 40
0.3750000000000047
 40
0.3750000000000047
 40
0.4375000000000054
 40
0.4375000000000054
 40
0.5000000000000061
 40
0.5000000000000061
 40
0.5625000000000069
 40
0.5625000000000069
 40
0.5937500000000068
 40
0.5937500000000068
 40
0.6250000000000067
 40
0.6250000000000067
 40
0.6875000000000063
 40
0.6875000000000063
 40
0.750000000000006
 40
0.750000000000006
 40
0.7812500000000054
 40
0.7812500000000054
 40
0.8125000000000049
 40
0.8125000000000049
 40
0.8750000000000037
 40
0.8750000000000037
 40
0.9062500000000027
 40
0.9062500000000027
 40
0.9375000000000018
 40
0.9375000000000018
 40
1.0
 40
1.0
 40
1.0
 40
1.0
 10
17.10188840660702
 20
13.98676795589617
 30
0.0
 10
17.10379070421536
 20
14.0129547654874
 30
0.0
 10
17.10617415916544
 20
14.04656440166275
 30
0.0
 10
17.11016805610657
 20
14.1063000068461
 30
0.0
 10
17.11157022571723
 20
14.12777991470534
 30
0.0
 10
17.11447529423486
 20
14.17370894096453
 30
0.0
 10
17.11598614317973
 20
14.19829455916014
 30
0.0
 10
17.1205253346516
 20
14.2748697488085
 30
0.0
 10
17.12357259336567
 20
14.32985423569236
 30
0.0
 10
17.12799312275358
 20
14.41727204360861
 30
0.0
 10
17.1294421901562
 20
14.44724255091645
 30
0.0
 10
17.13226604992332
 20
14.50876169550106
 30
0.0
 10
17.13364051671425
 20
14.54033189807037
 30
0.0
 10
17.13755815680776
 20
14.63570903594907
 30
0.0
 10
17.13992061332799
 20
14.70069684084862
 30
0.0
 10
17.14406996164654
 20
14.83307705122432
 30
0.0
 10
17.145856784241
 20
14.90047459566907
 30
0.0
 10
17.14878970015713
 20
15.0375042796472
 30
0.0
 10
17.14993823926272
 20
15.10713052192232
 30
0.0
 10
17.1515401712932
 20
15.24857279505062
 30
0.0
 10
17.15198021031895
 20
15.31922574432336
 30
0.0
 10
17.15214000403167
 20
15.46027395570634
 30
0.0
 10
17.15185849053379
 20
15.53069035052518
 30
0.0
 10
17.15090423294281
 20
15.63615267117497
 30
0.0
 10
17.15049739360489
 20
15.67127960904175
 30
0.0
 10
17.14950682840627
 20
15.74147743743776
 30
0.0
 10
17.14892113396787
 20
15.77663913739168
 30
0.0
 10
17.14691812852992
 20
15.88108750399114
 30
0.0
 10
17.14525251526922
 20
15.94946761982637
 30
0.0
 10
17.1413329952801
 20
16.08358952903513
 30
0.0
 10
17.13907922427369
 20
16.14933607417236
 30
0.0
 10
17.13531790787959
 20
16.24571763259258
 30
0.0
 10
17.1340006232536
 20
16.27746921726457
 30
0.0
 10
17.13125078051236
 20
16.34014383968362
 30
0.0
 10
17.12983120835592
 20
16.37077401202691
 30
0.0
 10
17.12548901163038
 20
16.46011577101284
 30
0.0
 10
17.12247475602927
 20
16.51644505721993
 30
0.0
 10
17.11794338123867
 20
16.5952761405913
 30
0.0
 10
17.11643177513485
 20
16.62060481161241
 30
0.0
 10
17.11344315339635
 20
16.66914239308
 30
0.0
 10
17.11198707530796
 20
16.69200841872651
 30
0.0
 10
17.10780671868398
 20
16.75597397243083
 30
0.0
 10
17.10526033319213
 20
16.79257196545131
 30
0.0
 10
17.10314953719282
 20
16.82204511211377
 30
0.0
  0
LWPOLYLINE
  5
263
330
1F
100
AcDbEntity
  8
0
  6
SLD-Solid
 62
     8
370
    25
100
AcDbPolyline
 90
        3
 70
   128
 43
0.0
 10
17.2810907418
 20
11.7561063714
 10
17.2807925575
 20
11.75957296
 10
17.2812798833
 20
11.7642284006
  0
LWPOLYLINE
  5
264
330
1F
100
AcDbEntity
  8
0
  6
SLD-Solid
 62
     8
370
    25
100
AcDbPolyline
 90
       23
 70
   128
 43
0.0
 10
17.3426939752
 20
11.5780759802
 10
17.3474829775
 20
11.567241396
 10
17.3724952448
 20
11.5273261703
 10
17.4043102566
 20
11.4882951671
 10
17.4408441857
 20
11.4528920929
 10
17.4841022508
 20
11.4194586391
 10
17.5062571787
 20
11.4050589332
 10
17.529654175
 20
11.3915756918
 10
17.548726868
 20
11.3818234417
 10
17.5554075867
 20
11.3786993881
 10
17.5558431388
 20
11.3785133665
 10
17.5560773319
 20
11.3784194402
 10
17.5562260826
 20
11.3783648157
 10
17.5563241063
 20
11.3783333501
 10
17.5563894391
 20
11.3783165838
 10
17.5564517973
 20
11.37830842
 10
17.5564729233
 20
11.3783105493
 10
17.5564815878
 20
11.3783135947
 10
17.5564891105
 20
11.3783190491
 10
17.5564928021
 20
11.3783247459
 10
17.5564942654
 20
11.3783297973
 10
17.5564946188
 20
11.3783358274
 10
17.5564946188
 20
11.3783358274
  0
SPLINE
  5
265
330
1F
100
AcDbEntity
  8
0
  6
SLD-Solid
 62
     8
370
    25
100
AcDbSpline
210
0.0
220
0.0
230
1.0
 70
     8
 71
     3
 72
    24
 73
    20
 74
     0
 42
0.00000001
 43
0.00000001
 40
0.0
 40
0.0
 40
0.0
 40
0.0
 40
0.0000406301952718
 40
0.0000973552951275
 40
0.0001750547080939
 40
0.0002481386447201
 40
0.0004324629926166
 40
0.0006151378613295
 40
0.0008849215863471
 40
0.0012921775721039
 40
0.0855669815352018
 40
0.1705675784476452
 40
0.2124532706512396
 40
0.3558743422011029
 40
0.4994945056396701
 40
0.6450702519285859
 40
0.7907570910834089
 40
0.965742872248484
 40
0.9999999999999999
 40
0.9999999999999999
 40
0.9999999999999999
 40
0.9999999999999999
 10
17.55652622618969
 20
11.37833439788113
 30
0.0
 10
17.55652530764816
 20
11.3783291113084
 30
0.0
 10
17.55652310670177
 20
11.3783164439844
 30
0.0
 10
17.55651258784671
 20
11.37829538546549
 30
0.0
 10
17.55649186631172
 20
11.37827652851656
 30
0.0
 10
17.55645137186343
 20
11.37825805488365
 30
0.0
 10
17.55639306119265
 20
11.3782500613685
 30
0.0
 10
17.55630924486366
 20
11.37825098007453
 30
0.0
 10
17.55619640181589
 20
11.3782629678424
 30
0.0
 10
17.54519681494716
 20
11.38032540934954
 30
0.0
 10
17.5240802090382
 20
11.38846007264257
 30
0.0
 10
17.49986266000831
 20
11.40116018177092
 30
0.0
 10
17.46949829577569
 20
11.41720715090063
 30
0.0
 10
17.4356589552944
 20
11.43949776746229
 30
0.0
 10
17.39823879065762
 20
11.47203488924179
 30
0.0
 10
17.36839616390375
 20
11.50758343626073
 30
0.0
 10
17.34557306147122
 20
11.54792023940134
 30
0.0
 10
17.33291809461472
 20
11.57986988782984
 30
0.0
 10
17.33113254814273
 20
11.59931415352654
 30
0.0
 10
17.3308402195094
 20
11.60249755743473
 30
0.0
  0
SPLINE
  5
266
330
1F
100
AcDbEntity
  8
0
  6
SLD-Solid
 62
     8
370
    25
100
AcDbSpline
210
0.0
220
0.0
230
1.0
 70
     8
 71
     3
 72
     9
 73
     5
 74
     0
 42
0.00000001
 43
0.00000001
 40
0.0
 40
0.0
 40
0.0
 40
0.0
 40
0.3533923597857061
 40
1.0
 40
1.0
 40
1.0
 40
1.0
 10
17.22574754880065
 20
12.09000262996347
 30
0.0
 10
17.23210351138069
 20
12.05457203150345
 30
0.0
 10
17.25008908012331
 20
11.95431350163171
 30
0.0
 10
17.26903154246986
 20
11.83887306735049
 30
0.0
 10
17.28127988334762
 20
11.7642284005546
 30
0.0
  0
MTEXT
  5
267
330
1F
100
AcDbEntity
  8
NOTES
100
AcDbMText
 10
15.3190362348
 20
10.0208666732
 30
0.0
 40
0.5
 41
0.0
 71
     1
 72
     1
  1
sensor
  7
SLDTEXTSTYLE0
 73
     1
 44
1.0
  0
LEADER
  5
268
330
1F
100
AcDbEntity
  8
NOTES
100
AcDbLeader
  3
SLDDIMSTYLE2
 76
     3
 10
18.6102582588
 20
10.5918823415
 30
0.0
 10
17.8291172918
 20
9.7747410434
 30
0.0
 10
17.3291172918
 20
9.7747410434
 30
0.0
  0
SPLINE
  5
269
330
1F
100
AcDbEntity
  8
0
  6
SLD-Solid
 62
     7
370
    25
100
AcDbSpline
210
0.0
220
0.0
230
1.0
 70
     8
 71
     3
 72
    17
 73
    13
 74
     0
 42
0.00000001
 43
0.00000001
 40
0.0
 40
0.0
 40
0.0
 40
0.0
 40
0.089738853281467
 40
0.1982780525866837
 40
0.3068220557330149
 40
0.4144695769031558
 40
0.5196878696204771
 40
0.6271534087708548
 40
0.7369096182405019
 40
0.8489164544961203
 40
0.962955647475622
 40
1.0
 40
1.0
 40
1.0
 40
1.0
 10
38.34119780736979
 20
19.92742710053784
 30
0.0
 10
38.3279773408057
 20
19.90736643424697
 30
0.0
 10
38.29876671164386
 20
19.86304237950039
 30
0.0
 10
38.25853743882782
 20
19.79107438708748
 30
0.0
 10
38.22010432412747
 20
19.71310267836962
 30
0.0
 10
38.18724054022849
 20
19.63423946763776
 30
0.0
 10
38.15956186185531
 20
19.55478207860784
 30
0.0
 10
38.1369004095893
 20
19.47447844565977
 30
0.0
 10
38.11920836911649
 20
19.39267666765599
 30
0.0
 10
38.10703260239453
 20
19.30993577698628
 30
0.0
 10
38.10198115116797
 20
19.24589012226763
 30
0.0
 10
38.10133338825824
 20
19.20963420012171
 30
0.0
 10
38.10117456250723
 20
19.20074456785507
 30
0.0
  0
SPLINE
  5
26A
330
1F
100
AcDbEntity
  8
0
  6
SLD-Solid
 62
     7
370
    25
100
AcDbSpline
210
0.0
220
0.0
230
1.0
 70
     8
 71
     3
 72
    15
 73
    11
 74
     0
 42
0.00000001
 43
0.00000001
 40
0.0
 40
0.0
 40
0.0
 40
0.0
 40
0.0750327105982072
 40
0.2114924676456529
 40
0.347557512764411
 40
0.4832299487996363
 40
0.6184383180548008
 40
0.7532237294464379
 40
0.8876917090868708
 40
0.9999999999999999
 40
0.9999999999999999
 40
0.9999999999999999
 40
0.9999999999999999
 10
38.74036714780411
 20
20.34109026364669
 30
0.0
 10
38.72821382727156
 20
20.33316289727042
 30
0.0
 10
38.69395762448978
 20
20.31081826566267
 30
0.0
 10
38.63906419060594
 20
20.26933804963868
 30
0.0
 10
38.57663040378782
 20
20.21536610216688
 30
0.0
 10
38.51685227863384
 20
20.15633459695155
 30
0.0
 10
38.45999672054516
 20
20.09288075997808
 30
0.0
 10
38.40654408580715
 20
20.02539464332564
 30
0.0
 10
38.35899394630968
 20
19.95858115262246
 30
0.0
 10
38.33127873434291
 20
19.91307628983045
 30
0.0
 10
38.31866549530942
 20
19.89236695113696
 30
0.0
  0
LINE
  5
26B
330
1F
100
AcDbEntity
  8
0
  6
SLD-Solid
 62
     7
370
    25
100
AcDbLine
 10
40.893957268
 20
21.7066719667
 30
0.0
 11
38.7403671478
 21
20.3410902636
 31
0.0
  0
LINE
  5
26C
330
1F
100
AcDbEntity
  8
0
  6
SLD-Solid
 62
     7
370
    25
100
AcDbLine
 10
38.1010514515
 20
19.201150995
 30
0.0
 11
38.1010514515
 21
14.8832343608
 31
0.0
  0
SPLINE
  5
26D
330
1F
100
AcDbEntity
  8
0
  6
SLD-Solid
 62
     7
370
    25
100
AcDbSpline
210
0.0
220
0.0
230
1.0
 70
     8
 71
     3
 72
    23
 73
    19
 74
     0
 42
0.00000001
 43
0.00000001
 40
0.0
 40
0.0
 40
0.0
 40
0.0
 40
0.0654246186529699
 40
0.1296274744094016
 40
0.1936665272020938
 40
0.2577331067259307
 40
0.3219713304174799
 40
0.3865572589108872
 40
0.451680572630051
 40
0.5174500242034848
 40
0.5833798443887989
 40
0.6498006906474154
 40
0.7162613372681031
 40
0.782935636783971
 40
0.850047020762957
 40
0.9178310806034228
 40
0.9865219020884138
 40
1.0
 40
1.0
 40
1.0
 40
1.0
 10
39.42588209508252
 20
13.14697231837255
 30
0.0
 10
39.46095596819863
 20
13.12162628656832
 30
0.0
 10
39.53044873228969
 20
13.07140754388813
 30
0.0
 10
39.63492083184268
 20
12.99026742869192
 30
0.0
 10
39.73873536105147
 20
12.90561132389025
 30
0.0
 10
39.84241240821983
 20
12.81658490657497
 30
0.0
 10
39.94590668357063
 20
12.723293916474
 30
0.0
 10
40.0491985041871
 20
12.62567717975804
 30
0.0
 10
40.15223672349394
 20
12.5237191915866
 30
0.0
 10
40.25465348978774
 20
12.41776246417368
 30
0.0
 10
40.35605349450868
 20
12.30802634338434
 30
0.0
 10
40.45574035237455
 20
12.19494663161746
 30
0.0
 10
40.55338921195494
 20
12.07867296089454
 30
0.0
 10
40.64860276932284
 20
11.95942637992056
 30
0.0
 10
40.74146822646902
 20
11.83708654762743
 30
0.0
 10
40.83153391600992
 20
11.71126344223658
 30
0.0
 10
40.8961588740427
 20
11.61758421063461
 30
0.0
 10
40.92946895289325
 20
11.56539311254221
 30
0.0
 10
40.93493277677565
 20
11.55683225114391
 30
0.0
  0
SPLINE
  5
26E
330
1F
100
AcDbEntity
  8
0
  6
SLD-Solid
 62
     7
370
    25
100
AcDbSpline
210
0.0
220
0.0
230
1.0
 70
     8
 71
     3
 72
    10
 73
     6
 74
     0
 42
0.00000001
 43
0.00000001
 40
0.0
 40
0.0
 40
0.0
 40
0.0
 40
0.210899689084569
 40
0.6472241502442091
 40
0.9999999999999999
 40
0.9999999999999999
 40
0.9999999999999999
 40
0.9999999999999999
 10
40.93543132871024
 20
11.55718254499492
 30
0.0
 10
40.94070749278435
 20
11.54902415900087
 30
0.0
 10
40.95689936496888
 20
11.52398711667386
 30
0.0
 10
40.98338870529754
 20
11.48722459472155
 30
0.0
 10
41.00482491185494
 20
11.46013430129961
 30
0.0
 10
41.01440820041689
 20
11.44802329190086
 30
0.0
  0
SPLINE
  5
26F
330
1F
100
AcDbEntity
  8
0
  6
SLD-Solid
 62
     7
370
    25
100
AcDbSpline
210
0.0
220
0.0
230
1.0
 70
     8
 71
     3
 72
    14
 73
    10
 74
     0
 42
0.00000001
 43
0.00000001
 40
0.0
 40
0.0
 40
0.0
 40
0.0
 40
0.0964640201162734
 40
0.2520087139900871
 40
0.4030847167910829
 40
0.5510106141833178
 40
0.6971758266533533
 40
0.8431828827685328
 40
0.9999999999999999
 40
0.9999999999999999
 40
0.9999999999999999
 40
0.9999999999999999
 10
41.04265616910352
 20
10.73575590586242
 30
0.0
 10
41.05031216148865
 20
10.73123345357387
 30
0.0
 10
41.07031316075206
 20
10.71941871286592
 30
0.0
 10
41.10594477776057
 20
10.7079934522357
 30
0.0
 10
41.14721158838879
 20
10.70083421782105
 30
0.0
 10
41.18830723216394
 20
10.70060536649598
 30
0.0
 10
41.22834262259973
 20
10.7066284049719
 30
0.0
 10
41.26799277631282
 20
10.71840832420177
 30
0.0
 10
41.29269939929627
 20
10.73114478510887
 30
0.0
 10
41.30549369292869
 20
10.73774034536785
 30
0.0
  0
LINE
  5
270
330
1F
100
AcDbEntity
  8
0
  6
SLD-Solid
 62
     7
370
    25
100
AcDbLine
 10
38.245324775
 20
12.3495345544
 30
0.0
 11
41.0419320946
 21
10.7350875133
 31
0.0
  0
LINE
  5
271
330
1F
100
AcDbEntity
  8
0
  6
SLD-Solid
 62
     7
370
    25
100
AcDbLine
 10
41.3054936929
 20
10.7377403454
 30
0.0
 11
42.7008768161
 21
11.5330327963
 31
0.0
  0
LINE
  5
272
330
1F
100
AcDbEntity
  8
0
  6
SLD-Solid
 62
     7
370
    25
100
AcDbLine
 10
38.1158151102
 20
14.7805048121
 30
0.0
 11
38.1158151102
 21
12.5807749292
 31
0.0
  0
LINE
  5
273
330
1F
100
AcDbEntity
  8
0
  6
SLD-Solid
 62
     7
370
    25
100
AcDbLine
 10
39.7658107368
 20
12.1485757712
 30
0.0
 11
39.7675785038
 21
12.1495962813
 31
0.0
  0
LINE
  5
274
330
1F
100
AcDbEntity
  8
0
  6
SLD-Solid
 62
     7
370
    25
100
AcDbLine
 10
39.6405743494
 20
12.3307443555
 30
0.0
 11
39.6388065824
 21
12.3297238453
 31
0.0
  0
LINE
  5
275
330
1F
100
AcDbEntity
  8
0
  6
SLD-Solid
 62
     7
370
    25
100
AcDbLine
 10
39.5844095161
 20
12.322491712
 30
0.0
 11
39.5826417492
 21
12.3214712018
 31
0.0
  0
LINE
  5
276
330
1F
100
AcDbEntity
  8
0
  6
SLD-Solid
 62
     7
370
    25
100
AcDbLine
 10
39.5457436476
 20
12.2925468706
 30
0.0
 11
39.5439758806
 21
12.2915263604
 31
0.0
  0
LINE
  5
277
330
1F
100
AcDbEntity
  8
0
  6
SLD-Solid
 62
     7
370
    25
100
AcDbLine
 10
39.5850170882
 20
12.1613068861
 30
0.0
 11
39.5832493213
 21
12.1602863759
 31
0.0
  0
SPLINE
  5
278
330
1F
100
AcDbEntity
  8
0
  6
SLD-Solid
 62
     7
370
    25
100
AcDbSpline
210
0.0
220
0.0
230
1.0
 70
     8
 71
     3
 72
    11
 73
     7
 74
     0
 42
0.00000001
 43
0.00000001
 40
0.0
 40
0.0
 40
0.0
 40
0.0
 40
0.1754123766087507
 40
0.4978485839341649
 40
0.8246793293179536
 40
1.0
 40
1.0
 40
1.0
 40
1.0
 10
42.70087681613294
 20
11.53303279625609
 30
0.0
 10
42.70415953572483
 20
11.53482090195645
 30
0.0
 10
42.7134764227762
 20
11.53989583399979
 30
0.0
 10
42.72481236464632
 20
11.54443993611726
 30
0.0
 10
42.73184243396682
 20
11.54603996629716
 30
0.0
 10
42.73136035081386
 20
11.54597504890454
 30
0.0
 10
42.73119203675758
 20
11.54595238370745
 30
0.0
  0
SPLINE
  5
279
330
1F
100
AcDbEntity
  8
0
  6
SLD-Solid
 62
     7
370
    25
100
AcDbSpline
210
0.0
220
0.0
230
1.0
 70
     8
 71
     3
 72
    24
 73
    20
 74
     0
 42
0.00000001
 43
0.00000001
 40
0.0
 40
0.0
 40
0.0
 40
0.0
 40
0.037503957696481
 40
0.103461898927632
 40
0.1740685411728211
 40
0.2556831734326173
 40
0.3406487736796985
 40
0.4296489596873782
 40
0.5108751220591309
 40
0.5846771928673382
 40
0.652545658583689
 40
0.7124225785219416
 40
0.7637710050301888
 40
0.8088346798568612
 40
0.8485630978038718
 40
0.8892801564791751
 40
0.924495881654542
 40
0.9618246334728637
 40
1.0
 40
1.0
 40
1.0
 40
1.0
 10
38.28746367011611
 20
12.7129346578512
 30
0.0
 10
38.29078055903315
 20
12.71332089420282
 30
0.0
 10
38.29993083668295
 20
12.71438640165397
 30
0.0
 10
38.32188147168071
 20
12.71138860327957
 30
0.0
 10
38.35078211776944
 20
12.70380215957293
 30
0.0
 10
38.38475381019146
 20
12.68998672097872
 30
0.0
 10
38.42257026971016
 20
12.66948126473897
 30
0.0
 10
38.46086333431364
 20
12.64382153160738
 30
0.0
 10
38.49710528197214
 20
12.61471139634965
 30
0.0
 10
38.52937430510875
 20
12.5837944621781
 30
0.0
 10
38.5571439959386
 20
12.55204770054045
 30
0.0
 10
38.58002769594742
 20
12.52096641854771
 30
0.0
 10
38.59765251512433
 20
12.49162816927711
 30
0.0
 10
38.61016948006714
 20
12.46479895756236
 30
0.0
 10
38.61823579460845
 20
12.44013614186308
 30
0.0
 10
38.62166600806928
 20
12.41922277153119
 30
0.0
 10
38.62139286014016
 20
12.40260488738539
 30
0.0
 10
38.61884047013567
 20
12.39290792644907
 30
0.0
 10
38.61687144736524
 20
12.38987604975369
 30
0.0
 10
38.61587589682298
 20
12.38834311344972
 30
0.0
  0
ARC
  5
27A
330
1F
100
AcDbEntity
  8
0
  6
SLD-Solid
 62
     7
370
    25
100
AcDbCircle
 10
42.9101893828
 20
11.2650209014
 30
0.0
 40
0.2300000000000048
100
AcDbArc
 50
240.0026882664
 51
299.9973117337
  0
LINE
  5
27B
330
1F
100
AcDbEntity
  8
0
  6
SLD-Solid
 62
     7
370
    25
100
AcDbLine
 10
43.0251800371
 20
11.065829663
 30
0.0
 11
43.7467484231
 21
11.4823822257
 31
0.0
  0
LINE
  5
27C
330
1F
100
AcDbEntity
  8
0
  6
SLD-Solid
 62
     7
370
    25
100
AcDbLine
 10
42.3410962439
 20
11.3279774474
 30
0.0
 11
42.7951987286
 21
11.065829663
 31
0.0
  0
SPLINE
  5
27D
330
1F
100
AcDbEntity
  8
0
  6
SLD-Solid
 62
     7
370
    25
100
AcDbSpline
210
0.0
220
0.0
230
1.0
 70
     8
 71
     3
 72
    14
 73
    10
 74
     0
 42
0.00000001
 43
0.00000001
 40
0.0
 40
0.0
 40
0.0
 40
0.0
 40
0.1679385379407005
 40
0.320699594670156
 40
0.4716302883981071
 40
0.6215473336151331
 40
0.7709960375286716
 40
0.9370613734109038
 40
0.9999999999999999
 40
0.9999999999999999
 40
0.9999999999999999
 40
0.9999999999999999
 10
38.11581511024792
 20
12.58077492920344
 30
0.0
 10
38.11651649273146
 20
12.56526537699012
 30
0.0
 10
38.11785587010687
 20
12.53564795165514
 30
0.0
 10
38.12849166115763
 20
12.49318139819455
 30
0.0
 10
38.14454362145872
 20
12.4543423551139
 30
0.0
 10
38.1664842047667
 20
12.41866441883711
 30
0.0
 10
38.19500047095119
 20
12.38628581221889
 30
0.0
 10
38.22174296922741
 20
12.36297811779846
 30
0.0
 10
38.24054848273187
 20
12.35310104217676
 30
0.0
 10
38.24571692252437
 20
12.35038646218592
 30
0.0
  0
SPLINE
  5
27E
330
1F
100
AcDbEntity
  8
0
  6
SLD-Solid
 62
     7
370
    25
100
AcDbSpline
210
0.0
220
0.0
230
1.0
 70
    11
 71
     3
 72
   130
 73
   126
 74
     0
 42
0.00000001
 43
0.00000001
 40
0.0
 40
0.0
 40
0.0
 40
0.0
 40
0.0078125000000002
 40
0.0078125000000002
 40
0.0156250000000004
 40
0.0156250000000004
 40
0.0234375000000006
 40
0.0234375000000006
 40
0.0312500000000008
 40
0.0312500000000008
 40
0.046875000000001
 40
0.046875000000001
 40
0.0625000000000012
 40
0.0625000000000012
 40
0.0781250000000014
 40
0.0781250000000014
 40
0.0937500000000016
 40
0.0937500000000016
 40
0.1093750000000018
 40
0.1093750000000018
 40
0.125000000000002
 40
0.125000000000002
 40
0.1562500000000019
 40
0.1562500000000019
 40
0.1875000000000019
 40
0.1875000000000019
 40
0.2031250000000018
 40
0.2031250000000018
 40
0.2187500000000017
 40
0.2187500000000017
 40
0.2500000000000017
 40
0.2500000000000017
 40
0.2656250000000013
 40
0.2656250000000013
 40
0.281250000000001
 40
0.281250000000001
 40
0.3125000000000009
 40
0.3125000000000009
 40
0.3281250000000012
 40
0.3281250000000012
 40
0.3437500000000014
 40
0.3437500000000014
 40
0.3593750000000016
 40
0.3593750000000016
 40
0.3750000000000018
 40
0.3750000000000018
 40
0.3906250000000018
 40
0.3906250000000018
 40
0.4062500000000018
 40
0.4062500000000018
 40
0.4218750000000018
 40
0.4218750000000018
 40
0.4375000000000018
 40
0.4375000000000018
 40
0.4531250000000019
 40
0.4531250000000019
 40
0.4687500000000019
 40
0.4687500000000019
 40
0.4843750000000019
 40
0.4843750000000019
 40
0.5000000000000019
 40
0.5000000000000019
 40
0.5156250000000019
 40
0.5156250000000019
 40
0.5312500000000018
 40
0.5312500000000018
 40
0.5390625000000018
 40
0.5390625000000018
 40
0.5468750000000018
 40
0.5468750000000018
 40
0.5625000000000016
 40
0.5625000000000016
 40
0.5781250000000014
 40
0.5781250000000014
 40
0.5937500000000012
 40
0.5937500000000012
 40
0.6093750000000011
 40
0.6093750000000011
 40
0.6250000000000009
 40
0.6250000000000009
 40
0.6406250000000008
 40
0.6406250000000008
 40
0.6562500000000007
 40
0.6562500000000007
 40
0.6875000000000003
 40
0.6875000000000003
 40
0.7031250000000001
 40
0.7031250000000001
 40
0.71875
 40
0.71875
 40
0.7500000000000002
 40
0.7500000000000002
 40
0.7656250000000004
 40
0.7656250000000004
 40
0.7812500000000006
 40
0.7812500000000006
 40
0.7968750000000008
 40
0.7968750000000008
 40
0.8125000000000009
 40
0.8125000000000009
 40
0.8281250000000011
 40
0.8281250000000011
 40
0.8437500000000012
 40
0.8437500000000012
 40
0.8593750000000014
 40
0.8593750000000014
 40
0.8750000000000016
 40
0.8750000000000016
 40
0.8906250000000018
 40
0.8906250000000018
 40
0.906250000000002
 40
0.906250000000002
 40
0.9375000000000022
 40
0.9375000000000022
 40
0.9453125000000021
 40
0.9453125000000021
 40
0.9531250000000019
 40
0.9531250000000019
 40
0.9687500000000013
 40
0.9687500000000013
 40
0.976562500000001
 40
0.976562500000001
 40
0.9843750000000006
 40
0.9843750000000006
 40
1.0
 40
1.0
 40
1.0
 40
1.0
 10
39.55938712345933
 20
16.31274346766233
 30
0.0
 10
39.54781237396278
 20
16.31942542831715
 30
0.0
 10
39.53625540189275
 20
16.32547254610396
 30
0.0
 10
39.51338413736723
 20
16.33622656922874
 30
0.0
 10
39.50204091225237
 20
16.34095083876505
 30
0.0
 10
39.47953347391135
 20
16.34913488060378
 30
0.0
 10
39.46836926869796
 20
16.35259459630602
 30
0.0
 10
39.44621621680027
 20
16.35827533693618
 30
0.0
 10
39.43520351046942
 20
16.36049846278128
 30
0.0
 10
39.40268301224263
 20
16.36529828994528
 30
0.0
 10
39.38198766817461
 20
16.36598856532946
 30
0.0
 10
39.34236619176347
 20
16.36310923715867
 30
0.0
 10
39.32342331290351
 20
16.35953703349463
 30
0.0
 10
39.28708525115833
 20
16.34858956413982
 30
0.0
 10
39.26961942410062
 20
16.34116033667226
 30
0.0
 10
39.23669629942994
 20
16.3231156335449
 30
0.0
 10
39.22117976722785
 20
16.31250067841746
 30
0.0
 10
39.19182514140525
 20
16.28844219458321
 30
0.0
 10
39.17808628693069
 20
16.27507657161102
 30
0.0
 10
39.15232466079033
 20
16.24604131830739
 30
0.0
 10
39.14027376367016
 20
16.23033312094347
 30
0.0
 10
39.10657516143107
 20
16.18021501774251
 30
0.0
 10
39.08746593137838
 20
16.1430440290743
 30
0.0
 10
39.05494683537712
 20
16.06231938452598
 30
0.0
 10
39.041722329632
 20
16.01919539017652
 30
0.0
 10
39.02592458523388
 20
15.95086412245962
 30
0.0
 10
39.02133230261967
 20
15.92743921156202
 30
0.0
 10
39.01350706254259
 20
15.87965518781042
 30
0.0
 10
39.01026787701473
 20
15.85527872954602
 30
0.0
 10
39.00250888088105
 20
15.7807404315068
 30
0.0
 10
38.99994296300027
 20
15.72904364795929
 30
0.0
 10
38.99996935959333
 20
15.6494817978057
 30
0.0
 10
39.00062215995595
 20
15.62260613820323
 30
0.0
 10
39.0032242541859
 20
15.56814005234788
 30
0.0
 10
39.00517775701088
 20
15.54051011613023
 30
0.0
 10
39.01300005394477
 20
15.45687262021985
 30
0.0
 10
39.02080522823224
 20
15.40012960496543
 30
0.0
 10
39.03667346074344
 20
15.31343351365039
 30
0.0
 10
39.04265575655158
 20
15.2843061379779
 30
0.0
 10
39.05600739588886
 20
15.22587896671001
 30
0.0
 10
39.06338384207858
 20
15.19653706511749
 30
0.0
 10
39.07962949415758
 20
15.13757987106586
 30
0.0
 10
39.08851542950368
 20
15.10791294171701
 30
0.0
 10
39.10783511441767
 20
15.0485388518836
 30
0.0
 10
39.11825088989564
 20
15.01887719326257
 30
0.0
 10
39.14073005749179
 20
14.95960920748772
 30
0.0
 10
39.15282330253779
 20
14.92993760207104
 30
0.0
 10
39.17865055620364
 20
14.87112588163794
 30
0.0
 10
39.19238959061832
 20
14.84195931028483
 30
0.0
 10
39.22171956764211
 20
14.78416304295605
 30
0.0
 10
39.23734877253155
 20
14.75548469758725
 30
0.0
 10
39.27014113373321
 20
14.6997507162887
 30
0.0
 10
39.2873588999441
 20
14.6725753074988
 30
0.0
 10
39.32364731954787
 20
14.61978418515572
 30
0.0
 10
39.34271618448786
 20
14.59416568028535
 30
0.0
 10
39.38304518990054
 20
14.54477835504485
 30
0.0
 10
39.40381365126409
 20
14.52161800000872
 30
0.0
 10
39.44665337476123
 20
14.47860479166265
 30
0.0
 10
39.46876587433786
 20
14.45871618528047
 30
0.0
 10
39.51428915296967
 20
14.42281554966257
 30
0.0
 10
39.53725730796973
 20
14.40714967365931
 30
0.0
 10
39.58356672128568
 20
14.38056258883337
 30
0.0
 10
39.6067157652281
 20
14.36979717763269
 30
0.0
 10
39.65169160554171
 20
14.35361627462694
 30
0.0
 10
39.67365585104181
 20
14.34810309117996
 30
0.0
 10
39.70587208563335
 20
14.34342667331797
 30
0.0
 10
39.71653128106712
 20
14.34246801150817
 30
0.0
 10
39.73740071868046
 20
14.34173334509187
 30
0.0
 10
39.74757030569243
 20
14.34195271062619
 30
0.0
 10
39.77735292308058
 20
14.34421765926845
 30
0.0
 10
39.79624344988162
 20
14.34786203945559
 30
0.0
 10
39.83234800150691
 20
14.35886065893081
 30
0.0
 10
39.84956047293657
 20
14.36621833565898
 30
0.0
 10
39.88245700319691
 20
14.38431584760298
 30
0.0
 10
39.89799494127595
 20
14.39498535787722
 30
0.0
 10
39.927221732465
 20
14.41900342400576
 30
0.0
 10
39.94098500002277
 20
14.43241577924524
 30
0.0
 10
39.9667416519169
 20
14.46151030195103
 30
0.0
 10
39.97873453935446
 20
14.4771789477936
 30
0.0
 10
40.00112711233303
 20
14.51053398760747
 30
0.0
 10
40.01154423596203
 20
14.52826046897331
 30
0.0
 10
40.03077596060405
 20
14.56534211874602
 30
0.0
 10
40.03959932270857
 20
14.5847009823981
 30
0.0
 10
40.06387547570638
 20
14.64504220680715
 30
0.0
 10
40.07716067288396
 20
14.68839491197441
 30
0.0
 10
40.09291214233567
 20
14.75663102086914
 30
0.0
 10
40.0974766717796
 20
14.77994242789596
 30
0.0
 10
40.10528379654632
 20
14.82765606902314
 30
0.0
 10
40.10852974071387
 20
14.85209778458851
 30
0.0
 10
40.11628365361263
 20
14.9267006264796
 30
0.0
 10
40.11882878366783
 20
14.97809551270604
 30
0.0
 10
40.11880617330819
 20
15.05761666906815
 30
0.0
 10
40.11815235380863
 20
15.08457180012317
 30
0.0
 10
40.11555152696633
 20
15.13902356930284
 30
0.0
 10
40.11360667977345
 20
15.16653412821894
 30
0.0
 10
40.10841370721968
 20
15.22213096050113
 30
0.0
 10
40.1051656828859
 20
15.25021718923914
 30
0.0
 10
40.09732393311566
 20
15.30698410121397
 30
0.0
 10
40.09272284705472
 20
15.33569823397871
 30
0.0
 10
40.08216542048086
 20
15.39342699485999
 30
0.0
 10
40.07620651566607
 20
15.42247186045342
 30
0.0
 10
40.06285718607982
 20
15.48094143773882
 30
0.0
 10
40.05545567012158
 20
15.51040208436755
 30
0.0
 10
40.03920768012748
 20
15.56939491140492
 30
0.0
 10
40.0303562507992
 20
15.59895746680436
 30
0.0
 10
40.01108394377295
 20
15.65822527951107
 30
0.0
 10
40.00064197708294
 20
15.68798177041081
 30
0.0
 10
39.97819794419582
 20
15.7471927401438
 30
0.0
 10
39.96618621079396
 20
15.77668713771022
 30
0.0
 10
39.94041454310534
 20
15.83543001826028
 30
0.0
 10
39.92660084755224
 20
15.86477679169613
 30
0.0
 10
39.88281609735579
 20
15.95113869173479
 30
0.0
 10
39.85046125355618
 20
16.00679064297272
 30
0.0
 10
39.80488489058076
 20
16.07323755507289
 30
0.0
 10
39.79547591300576
 20
16.08641099925184
 30
0.0
 10
39.77624763099355
 20
16.11218893957171
 30
0.0
 10
39.76645309841418
 20
16.12476412256134
 30
0.0
 10
39.73650357853902
 20
16.16150526243177
 30
0.0
 10
39.71578613922427
 20
16.18469284640816
 30
0.0
 10
39.683432181241
 20
16.21725151912398
 30
0.0
 10
39.67239573478462
 20
16.22776274084694
 30
0.0
 10
39.65023187460513
 20
16.24765701179995
 30
0.0
 10
39.63907047024536
 20
16.25707812224874
 30
0.0
 10
39.6053439333698
 20
16.28373755862888
 30
0.0
 10
39.58253662245242
 20
16.29937954635269
 30
0.0
 10
39.55938712345933
 20
16.31274346766233
 30
0.0
  0
SPLINE
  5
27F
330
1F
100
AcDbEntity
  8
0
  6
SLD-Solid
 62
     7
370
    25
100
AcDbSpline
210
0.0
220
0.0
230
1.0
 70
     8
 71
     3
 72
     8
 73
     4
 74
     0
 42
0.00000001
 43
0.00000001
 40
0.0
 40
0.0
 40
0.0
 40
0.0
 40
1.0
 40
1.0
 40
1.0
 40
1.0
 10
43.77470443777472
 20
20.10404571741136
 30
0.0
 10
43.78259263260625
 20
20.09941020791297
 30
0.0
 10
43.79039647224286
 20
20.09428101016766
 30
0.0
 10
43.79811920175586
 20
20.08867711593478
 30
0.0
  0
SPLINE
  5
280
330
1F
100
AcDbEntity
  8
0
  6
SLD-Solid
 62
     7
370
    25
100
AcDbSpline
210
0.0
220
0.0
230
1.0
 70
     8
 71
     3
 72
     8
 73
     4
 74
     0
 42
0.00000001
 43
0.00000001
 40
0.0
 40
0.0
 40
0.0
 40
0.0
 40
1.0
 40
1.0
 40
1.0
 40
1.0
 10
43.77470443777472
 20
20.10404571741135
 30
0.0
 10
43.31978590363511
 20
20.37137927483925
 30
0.0
 10
42.86484858791169
 20
20.63631138037223
 30
0.0
 10
42.40991133511761
 20
20.89894106620865
 30
0.0
  0
SPLINE
  5
281
330
1F
100
AcDbEntity
  8
0
  6
SLD-Solid
 62
     7
370
    25
100
AcDbSpline
210
0.0
220
0.0
230
1.0
 70
     8
 71
     3
 72
    10
 73
     6
 74
     0
 42
0.00000001
 43
0.00000001
 40
0.0
 40
0.0
 40
0.0
 40
0.0
 40
0.5
 40
0.5
 40
0.7285367051196935
 40
0.7285367051196935
 40
0.7285367051196935
 40
0.7285367051196935
 10
39.4195168379589
 20
18.22538639071887
 30
0.0
 10
39.73238765437625
 20
18.04476991290588
 30
0.0
 10
40.06462886641755
 20
17.87534830296447
 30
0.0
 10
40.57314957046592
 20
17.64658233663643
 30
0.0
 10
40.73617823582043
 20
17.57742010536285
 30
0.0
 10
40.90245355353971
 20
17.51096496603262
 30
0.0
  0
ARC
  5
282
330
1F
100
AcDbEntity
  8
0
  6
SLD-Solid
 62
     7
370
    25
100
AcDbCircle
 10
42.4894874517
 20
17.4580848315
 30
0.0
 40
1.185641731703083
100
AcDbArc
 50
124.2164373538
 51
177.4098896089
  0
ARC
  5
283
330
1F
100
AcDbEntity
  8
0
  6
SLD-Solid
 62
     7
370
    25
100
AcDbCircle
 10
41.1414561626
 20
17.8308697586
 30
0.0
 40
0.3586880758836919
100
AcDbArc
 50
247.0627797031
 51
297.1363061042
  0
LINE
  5
284
330
1F
100
AcDbEntity
  8
0
  6
SLD-Solid
 62
     7
370
    25
100
AcDbLine
 10
43.0728239425
 20
11.4499481321
 30
0.0
 11
43.0728239425
 21
11.1711339685
 31
0.0
  0
LWPOLYLINE
  5
285
330
1F
100
AcDbEntity
  8
0
  6
SLD-Solid
 62
     7
370
    25
100
AcDbPolyline
 90
       12
 70
   128
 43
0.0
 10
43.0728239425
 20
11.4499481321
 10
43.0695398742
 20
11.5012920794
 10
43.0597539843
 20
11.5478075374
 10
43.0436638786
 20
11.5885552228
 10
43.0215944635
 20
11.6227123204
 10
42.9939913852
 20
11.6495890983
 10
42.9614120305
 20
11.6686428356
 10
42.9245142723
 20
11.6794887816
 10
42.8840431843
 20
11.6819079247
 10
42.8408159963
 20
11.6758514155
 10
42.7957055921
 20
11.6614415526
 10
42.7496228827
 20
11.6389693133
  0
LINE
  5
286
330
1F
100
AcDbEntity
  8
0
  6
SLD-Solid
 62
     7
370
    25
100
AcDbLine
 10
41.3542397595
 20
10.8436768624
 30
0.0
 11
42.7496228827
 21
11.6389693133
 31
0.0
  0
ARC
  5
287
330
1F
100
AcDbEntity
  8
0
  6
SLD-Solid
 62
     7
370
    25
100
AcDbCircle
 10
41.3351749036
 20
10.867508538
 30
0.0
 40
0.0305191331748228
100
AcDbArc
 50
170.6992225334
 51
308.6590978429
  0
LINE
  5
288
330
1F
100
AcDbEntity
  8
0
  6
SLD-Solid
 62
     7
370
    25
100
AcDbLine
 10
41.3050569895
 20
11.1273112124
 30
0.0
 11
41.3050569895
 21
10.8724409552
 31
0.0
  0
LINE
  5
289
330
1F
100
AcDbEntity
  8
0
  6
SLD-Solid
 62
     7
370
    25
100
AcDbLine
 10
41.3049087024
 20
11.2645111554
 30
0.0
 11
41.3049087024
 21
11.1272256081
 31
0.0
  0
LINE
  5
28A
330
1F
100
AcDbEntity
  8
0
  6
SLD-Solid
 62
     7
370
    25
100
AcDbLine
 10
41.3049087024
 20
12.7973920875
 30
0.0
 11
41.3049087024
 21
11.2645111554
 31
0.0
  0
LINE
  5
28B
330
1F
100
AcDbEntity
  8
0
  6
SLD-Solid
 62
     7
370
    25
100
AcDbLine
 10
41.3049087024
 20
12.8301348268
 30
0.0
 11
41.3049087024
 21
12.7973920875
 31
0.0
  0
LINE
  5
28C
330
1F
100
AcDbEntity
  8
0
  6
SLD-Solid
 62
     7
370
    25
100
AcDbLine
 10
41.3050569895
 20
17.511664644
 30
0.0
 11
41.3050569895
 21
12.8302204311
 31
0.0
  0
LINE
  5
28D
330
1F
100
AcDbEntity
  8
0
  6
SLD-Solid
 62
     7
370
    25
100
AcDbLine
 10
43.9708495546
 20
19.8005981123
 30
0.0
 11
41.8227766432
 21
18.4385148462
 31
0.0
  0
LINE
  5
28E
330
1F
100
AcDbEntity
  8
0
  6
SLD-Solid
 62
     7
370
    25
100
AcDbLine
 10
43.9708495546
 20
19.8005981123
 30
0.0
 11
43.9708495546
 21
11.9100191387
 31
0.0
  0
ARC
  5
28F
330
1F
100
AcDbEntity
  8
0
  6
SLD-Solid
 62
     7
370
    25
100
AcDbCircle
 10
43.30601196
 20
11.9246607789
 30
0.0
 40
0.6649988006306032
100
AcDbArc
 50
336.2878271934
 51
358.7383857206
  0
SPLINE
  5
290
330
1F
100
AcDbEntity
  8
0
  6
SLD-Solid
 62
     7
370
    25
100
AcDbSpline
210
0.0
220
0.0
230
1.0
 70
     8
 71
     3
 72
    10
 73
     6
 74
     0
 42
0.00000001
 43
0.00000001
 40
0.0
 40
0.0
 40
0.0
 40
0.0
 40
0.5
 40
0.5
 40
1.0
 40
1.0
 40
1.0
 40
1.0
 10
40.90244805737721
 20
17.51096716237627
 30
0.0
 10
40.90844110853897
 20
17.50583621450027
 30
0.0
 10
40.9155490840978
 20
17.50164329927738
 30
0.0
 10
40.93040317820337
 20
17.496072476024
 30
0.0
 10
40.93813615036261
 20
17.49469949844898
 30
0.0
 10
40.94530921607606
 20
17.49489268708536
 30
0.0
  0
SPLINE
  5
291
330
1F
100
AcDbEntity
  8
0
  6
SLD-Solid
 62
     7
370
    25
100
AcDbSpline
210
0.0
220
0.0
230
1.0
 70
     8
 71
     3
 72
    18
 73
    14
 74
     0
 42
0.00000001
 43
0.00000001
 40
0.0
 40
0.0
 40
0.0
 40
0.0
 40
0.2499999999999993
 40
0.2499999999999993
 40
0.4999999999999987
 40
0.4999999999999987
 40
0.5624999999999984
 40
0.5624999999999984
 40
0.6249999999999983
 40
0.6249999999999983
 40
0.7499999999999989
 40
0.7499999999999989
 40
1.0
 40
1.0
 40
1.0
 40
1.0
 10
40.94131741629227
 20
17.48737121826314
 30
0.0
 10
40.85825938117907
 20
17.34206246260899
 30
0.0
 10
40.76161188572621
 20
17.21312781508021
 30
0.0
 10
40.54583854573438
 20
16.98644559217611
 30
0.0
 10
40.42668622146464
 20
16.88871231164371
 30
0.0
 10
40.26539304187284
 20
16.78687701663871
 30
0.0
 10
40.23251211226707
 20
16.76754085710668
 30
0.0
 10
40.16612910083187
 20
16.73125531418173
 30
0.0
 10
40.13255700662819
 20
16.71425977365858
 30
0.0
 10
40.03078790618694
 20
16.66667501362348
 30
0.0
 10
39.96154038455342
 20
16.6394824331553
 30
0.0
 10
39.75020820369053
 20
16.57137957020635
 30
0.0
 10
39.60455577037208
 20
16.54386706314559
 30
0.0
 10
39.45541524950741
 20
16.53489919160598
 30
0.0
  0
ELLIPSE
  5
292
330
1F
100
AcDbEntity
  8
0
  6
SLD-Solid
 62
     7
370
    25
100
AcDbEllipse
 10
43.8082149949
 20
19.8944850451
 30
0.0
 11
-0.1148515616517969
 21
0.1994321411497459
 31
0.0
210
0.0
220
0.0
230
1.0
 40
0.5773805884
 41
3.928280753622083
 42
5.499077080416965
  0
SPLINE
  5
293
330
1F
100
AcDbEntity
  8
0
  6
SLD-Solid
 62
     7
370
    25
100
AcDbSpline
210
0.0
220
0.0
230
1.0
 70
     8
 71
     3
 72
     8
 73
     4
 74
     0
 42
0.00000001
 43
0.00000001
 40
0.0
 40
0.0
 40
0.0
 40
0.0
 40
1.0
 40
1.0
 40
1.0
 40
1.0
 10
39.45541524950741
 20
16.53489919160598
 30
0.0
 10
39.37487386452211
 20
16.53005621003452
 30
0.0
 10
39.29396480259514
 20
16.53068355917512
 30
0.0
 10
39.21287684098218
 20
16.53676900711391
 30
0.0
  0
SPLINE
  5
294
330
1F
100
AcDbEntity
  8
0
  6
SLD-Solid
 62
     7
370
    25
100
AcDbSpline
210
0.0
220
0.0
230
1.0
 70
     8
 71
     3
 72
     8
 73
     4
 74
     0
 42
0.00000001
 43
0.00000001
 40
0.0
 40
0.0
 40
0.0
 40
0.0
 40
1.0
 40
1.0
 40
1.0
 40
1.0
 10
40.94531364760793
 20
17.49489280663508
 30
0.0
 10
40.94924393670406
 20
17.50230463317396
 30
0.0
 10
40.95330150243554
 20
17.50976245077643
 30
0.0
 10
40.95748303346946
 20
17.51726800131408
 30
0.0
  0
LINE
  5
295
330
1F
100
AcDbEntity
  8
0
  6
SLD-Solid
 62
     7
370
    25
100
AcDbLine
 10
43.8082149949
 20
20.0825165451
 30
0.0
 11
43.8026188151
 21
20.085747151
 31
0.0
  0
SPLINE
  5
296
330
1F
100
AcDbEntity
  8
0
  6
SLD-Solid
 62
     7
370
    25
100
AcDbSpline
210
0.0
220
0.0
230
1.0
 70
     8
 71
     3
 72
     8
 73
     4
 74
     0
 42
0.00000001
 43
0.00000001
 40
0.0
 40
0.0
 40
0.0
 40
0.0
 40
1.0
 40
1.0
 40
1.0
 40
1.0
 10
43.79811920175586
 20
20.08867711593478
 30
0.0
 10
43.79961293503242
 20
20.08759320858312
 30
0.0
 10
43.80111280600983
 20
20.0866165514846
 30
0.0
 10
43.80261881505044
 20
20.08574715097117
 30
0.0
  0
ARC
  5
297
330
1F
100
AcDbEntity
  8
0
  6
SLD-Solid
 62
     7
370
    25
100
AcDbCircle
 10
40.9579608432
 20
17.4518063531
 30
0.0
 40
0.0654633919515995
100
AcDbArc
 50
48.1141111131
 51
90.4181989557
  0
SPLINE
  5
298
330
1F
100
AcDbEntity
  8
0
  6
SLD-Solid
 62
     7
370
    25
100
AcDbSpline
210
0.0
220
0.0
230
1.0
 70
     8
 71
     3
 72
     8
 73
     4
 74
     0
 42
0.00000001
 43
0.00000001
 40
0.0
 40
0.0
 40
0.0
 40
0.0
 40
0.7497712194666656
 40
0.7497712194666656
 40
0.7497712194666656
 40
0.7497712194666656
 10
39.41951683795889
 20
18.22538639071887
 30
0.0
 10
38.9503537708113
 20
18.49622846430994
 30
0.0
 10
38.52479649585426
 20
18.79221534612591
 30
0.0
 10
38.14998854926171
 20
19.10826615963339
 30
0.0
  0
SPLINE
  5
299
330
1F
100
AcDbEntity
  8
0
  6
SLD-Solid
 62
     7
370
    25
100
AcDbSpline
210
0.0
220
0.0
230
1.0
 70
     8
 71
     3
 72
    10
 73
     6
 74
     0
 42
0.00000001
 43
0.00000001
 40
0.0
 40
0.0
 40
0.0
 40
0.0
 40
0.5
 40
0.5
 40
1.0
 40
1.0
 40
1.0
 40
1.0
 10
42.40991133511761
 20
20.89894008259189
 30
0.0
 10
42.18243458141217
 20
21.03025961721426
 30
0.0
 10
41.95495797444862
 20
21.16102025103732
 30
0.0
 10
41.50000978371882
 20
21.42126109971643
 30
0.0
 10
41.27253860002019
 20
21.55066846195182
 30
0.0
 10
41.04507158570053
 20
21.67956296295872
 30
0.0
  0
SPLINE
  5
29A
330
1F
100
AcDbEntity
  8
0
  6
SLD-Solid
 62
     7
370
    25
100
AcDbSpline
210
0.0
220
0.0
230
1.0
 70
     8
 71
     3
 72
    10
 73
     6
 74
     0
 42
0.00000001
 43
0.00000001
 40
0.0
 40
0.0
 40
0.0
 40
0.0
 40
0.4999999999999999
 40
0.4999999999999999
 40
1.0
 40
1.0
 40
1.0
 40
1.0
 10
39.20288471885368
 20
13.31248630341664
 30
0.0
 10
39.23857289997195
 20
13.29014855799739
 30
0.0
 10
39.27447120416567
 20
13.2668823738276
 30
0.0
 10
39.34668350166137
 20
13.21849905592699
 30
0.0
 10
39.38305188588907
 20
13.19334313618511
 30
0.0
 10
39.41951683795889
 20
13.16733453155547
 30
0.0
  0
SPLINE
  5
29B
330
1F
100
AcDbEntity
  8
0
  6
SLD-Solid
 62
     7
370
    25
100
AcDbSpline
210
0.0
220
0.0
230
1.0
 70
     8
 71
     3
 72
    24
 73
    20
 74
     0
 42
0.00000001
 43
0.00000001
 40
0.0
 40
0.0
 40
0.0
 40
0.0
 40
0.1250000000000007
 40
0.1250000000000007
 40
0.1875000000000006
 40
0.1875000000000006
 40
0.2500000000000005
 40
0.2500000000000005
 40
0.3750000000000002
 40
0.3750000000000002
 40
0.4999999999999999
 40
0.4999999999999999
 40
0.5624999999999998
 40
0.5624999999999998
 40
0.6249999999999997
 40
0.6249999999999997
 40
0.7499999999999997
 40
0.7499999999999997
 40
1.0
 40
1.0
 40
1.0
 40
1.0
 10
38.14999118586318
 20
14.6937829916588
 30
0.0
 10
38.17959673522403
 20
14.6195538572696
 30
0.0
 10
38.21126961872382
 20
14.546630002764
 30
0.0
 10
38.26195588607609
 20
14.43920764717976
 30
0.0
 10
38.27938204815636
 20
14.40372824291595
 30
0.0
 10
38.31532350665689
 20
14.33343600718231
 30
0.0
 10
38.33385497551347
 20
14.2986011834726
 30
0.0
 10
38.39058172168059
 20
14.19608724335154
 30
0.0
 10
38.43007160440462
 20
14.13005778087858
 30
0.0
 10
38.51246891861562
 20
14.00252934800135
 30
0.0
 10
38.55537632618103
 20
13.94103082361856
 30
0.0
 10
38.6224309961374
 20
13.85223181898357
 30
0.0
 10
38.64523225993938
 20
13.82320816894092
 30
0.0
 10
38.69176599965244
 20
13.76633641311456
 30
0.0
 10
38.71556699619556
 20
13.73841248179749
 30
0.0
 10
38.78788868382456
 20
13.65705190285537
 30
0.0
 10
38.83716401713323
 20
13.60617189639003
 30
0.0
 10
38.98822547664938
 20
13.46335096925883
 30
0.0
 10
39.09322709416332
 20
13.3811225865462
 30
0.0
 10
39.20288471885369
 20
13.31248630341664
 30
0.0
  0
SPLINE
  5
29C
330
1F
100
AcDbEntity
  8
0
  6
SLD-Solid
 62
     7
370
    25
100
AcDbSpline
210
0.0
220
0.0
230
1.0
 70
     8
 71
     3
 72
     8
 73
     4
 74
     0
 42
0.00000001
 43
0.00000001
 40
0.0
 40
0.0
 40
0.0
 40
0.0
 40
1.0
 40
1.0
 40
1.0
 40
1.0
 10
41.02125836752388
 20
21.691392360209
 30
0.0
 10
41.02914106494112
 20
21.68803217837807
 30
0.0
 10
41.03707850130075
 20
21.68409225538513
 30
0.0
 10
41.04507158570053
 20
21.67956296295872
 30
0.0
  0
LINE
  5
29D
330
1F
100
AcDbEntity
  8
0
  6
SLD-Solid
 62
     7
370
    25
100
AcDbLine
 10
41.0212583675
 20
21.6913923602
 30
0.0
 11
41.0116076753
 21
21.6969635862
 31
0.0
  0
ELLIPSE
  5
29E
330
1F
100
AcDbEntity
  8
0
  6
SLD-Solid
 62
     7
370
    25
100
AcDbEllipse
 10
41.0116076753
 20
21.5089320862
 30
0.0
 11
-0.114851561651804
 21
0.1994321411497495
 31
0.0
210
0.0
220
0.0
230
1.0
 40
0.5773805884
 41
5.499077080416958
 42
6.307796301046261
  0
SPLINE
  5
29F
330
1F
100
AcDbEntity
  8
0
  6
SLD-Solid
 62
     7
370
    25
100
AcDbSpline
210
0.0
220
0.0
230
1.0
 70
     8
 71
     3
 72
    11
 73
     7
 74
     0
 42
0.00000001
 43
0.00000001
 40
0.0
 40
0.0
 40
0.0
 40
0.0
 40
0.0787646095487665
 40
0.3768005906895932
 40
0.6842289723673131
 40
1.0
 40
1.0
 40
1.0
 40
1.0
 10
38.10146898841983
 20
14.88323426024585
 30
0.0
 10
38.10140257282822
 20
14.87868809460726
 30
0.0
 10
38.10108484848104
 20
14.85693977505353
 30
0.0
 10
38.10852522516525
 20
14.81291545482283
 30
0.0
 10
38.12486378179856
 20
14.75341026264281
 30
0.0
 10
38.14154096646217
 20
14.71383534250262
 30
0.0
 10
38.14999118586318
 20
14.6937829916588
 30
0.0
  0
SPLINE
  5
2A0
330
1F
100
AcDbEntity
  8
0
  6
SLD-Solid
 62
     7
370
    25
100
AcDbSpline
210
0.0
220
0.0
230
1.0
 70
     8
 71
     3
 72
     9
 73
     5
 74
     0
 42
0.00000001
 43
0.00000001
 40
0.0
 40
0.0
 40
0.0
 40
0.0
 40
0.0000716598714859
 40
1.0
 40
1.0
 40
1.0
 40
1.0
 10
39.21287684098235
 20
16.5367690071139
 30
0.0
 10
39.2128763514805
 20
16.53676904391797
 30
0.0
 10
39.20604544541452
 20
16.53728263778809
 30
0.0
 10
39.19971700404124
 20
16.53654429572903
 30
0.0
 10
39.19338901616325
 20
16.53580600657945
 30
0.0
  0
SPLINE
  5
2A1
330
1F
100
AcDbEntity
  8
0
  6
SLD-Solid
 62
     7
370
    25
100
AcDbSpline
210
0.0
220
0.0
230
1.0
 70
     8
 71
     3
 72
     8
 73
     4
 74
     0
 42
0.00000001
 43
0.00000001
 40
0.0
 40
0.0
 40
0.0
 40
0.0
 40
1.0
 40
1.0
 40
1.0
 40
1.0
 10
39.23975097732924
 20
14.27361956102028
 30
0.0
 10
39.30906923450853
 20
14.19886421313364
 30
0.0
 10
39.37957473847938
 20
14.12508457977815
 30
0.0
 10
39.45128740001753
 20
14.05229702421827
 30
0.0
  0
SPLINE
  5
2A2
330
1F
100
AcDbEntity
  8
0
  6
SLD-Solid
 62
     7
370
    25
100
AcDbSpline
210
0.0
220
0.0
230
1.0
 70
     8
 71
     3
 72
    10
 73
     6
 74
     0
 42
0.00000001
 43
0.00000001
 40
0.0
 40
0.0
 40
0.0
 40
0.0
 40
0.5000000000000001
 40
0.5000000000000001
 40
1.0
 40
1.0
 40
1.0
 40
1.0
 10
39.45128740001753
 20
14.05229702421827
 30
0.0
 10
39.67420153295254
 20
13.82604165326985
 30
0.0
 10
39.90811720780192
 20
13.60999058469636
 30
0.0
 10
40.3988023243104
 20
13.19908608954803
 30
0.0
 10
40.65455656791209
 20
13.00509012988497
 30
0.0
 10
40.92098884271343
 20
12.82321498880219
 30
0.0
  0
SPLINE
  5
2A3
330
1F
100
AcDbEntity
  8
0
  6
SLD-Solid
 62
     7
370
    25
100
AcDbSpline
210
0.0
220
0.0
230
1.0
 70
     8
 71
     3
 72
     8
 73
     4
 74
     0
 42
0.00000001
 43
0.00000001
 40
0.0
 40
0.0
 40
0.0
 40
0.0
 40
0.0010266016727693
 40
0.0010266016727693
 40
0.0010266016727693
 40
0.0010266016727693
 10
40.95042042348024
 20
12.79852505795913
 30
0.0
 10
40.94061569407356
 20
12.80678651872278
 30
0.0
 10
40.93080411559784
 20
12.8150141942473
 30
0.0
 10
40.92098884271336
 20
12.82321498880213
 30
0.0
  0
SPLINE
  5
2A4
330
1F
100
AcDbEntity
  8
0
  6
SLD-Solid
 62
     7
370
    25
100
AcDbSpline
210
0.0
220
0.0
230
1.0
 70
     8
 71
     3
 72
     8
 73
     4
 74
     0
 42
0.00000001
 43
0.00000001
 40
0.0
 40
0.0
 40
0.0
 40
0.0
 40
1.0
 40
1.0
 40
1.0
 40
1.0
 10
40.96990370988264
 20
12.78290757374707
 30
0.0
 10
40.96326650908625
 20
12.78795731290162
 30
0.0
 10
40.9567752100241
 20
12.79317051756175
 30
0.0
 10
40.95042042348024
 20
12.79852505795913
 30
0.0
  0
SPLINE
  5
2A5
330
1F
100
AcDbEntity
  8
0
  6
SLD-Solid
 62
     7
370
    25
100
AcDbSpline
210
0.0
220
0.0
230
1.0
 70
     8
 71
     3
 72
    40
 73
    36
 74
     0
 42
0.00000001
 43
0.00000001
 40
0.0
 40
0.0
 40
0.0
 40
0.0
 40
0.0004882812499984
 40
0.0004882812499984
 40
0.0009765624999969
 40
0.0009765624999969
 40
0.0019531249999937
 40
0.0019531249999937
 40
0.0039062499999918
 40
0.0039062499999918
 40
0.0078124999999931
 40
0.0078124999999931
 40
0.0156249999999957
 40
0.0156249999999957
 40
0.0312499999999956
 40
0.0312499999999956
 40
0.0624999999999998
 40
0.0624999999999998
 40
0.1250000000000029
 40
0.1250000000000029
 40
0.2500000000000041
 40
0.2500000000000041
 40
0.3750000000000052
 40
0.3750000000000052
 40
0.5000000000000064
 40
0.5000000000000064
 40
0.6250000000000077
 40
0.6250000000000077
 40
0.6875000000000069
 40
0.6875000000000069
 40
0.750000000000006
 40
0.750000000000006
 40
0.875000000000003
 40
0.875000000000003
 40
1.0
 40
1.0
 40
1.0
 40
1.0
 10
41.30497491406845
 20
12.79746730981604
 30
0.0
 10
41.30497548034948
 20
12.79751825307199
 30
0.0
 10
41.30489885713632
 20
12.79745127611579
 30
0.0
 10
41.30481316383882
 20
12.79739217945025
 30
0.0
 10
41.30477056470962
 20
12.79736000527511
 30
0.0
 10
41.30464310881936
 20
12.79726173918911
 30
0.0
 10
41.30455858080791
 20
12.79719336389719
 30
0.0
 10
41.30430525100915
 20
12.79698648927926
 30
0.0
 10
41.30413677378722
 20
12.79684565849433
 30
0.0
 10
41.30363102492951
 20
12.79642203123473
 30
0.0
 10
41.30329355521094
 20
12.79613739265543
 30
0.0
 10
41.30227850946313
 20
12.79528455604385
 30
0.0
 10
41.30159844873592
 20
12.79471658986729
 30
0.0
 10
41.29954678756025
 20
12.7930213383884
 30
0.0
 10
41.29816351217909
 20
12.79190155714461
 30
0.0
 10
41.29397181231004
 20
12.78858290238149
 30
0.0
 10
41.2911204387275
 20
12.78642291677071
 30
0.0
 10
41.28239497248501
 20
12.78010292648748
 30
0.0
 10
41.27635000547715
 20
12.77610202504532
 30
0.0
 10
41.25751841518465
 20
12.7647479734779
 30
0.0
 10
41.24426006614459
 20
12.75816948407433
 30
0.0
 10
41.21634942436133
 20
12.74702346141249
 30
0.0
 10
41.20168367518914
 20
12.74247368424957
 30
0.0
 10
41.17172458431407
 20
12.73576586039461
 30
0.0
 10
41.15627105198594
 20
12.73358118687636
 30
0.0
 10
41.12558474371401
 20
12.73177328859154
 30
0.0
 10
41.11022590425402
 20
12.73211101686868
 30
0.0
 10
41.0871629616685
 20
12.73461394263171
 30
0.0
 10
41.07946862628552
 20
12.73578923466177
 30
0.0
 10
41.06444728891422
 20
12.73876383786644
 30
0.0
 10
41.05707179086615
 20
12.74056701113903
 30
0.0
 10
41.035339934943
 20
12.74691111225
 30
0.0
 10
41.02137550124263
 20
12.75238053991403
 30
0.0
 10
40.99450602915784
 20
12.76588500503678
 30
0.0
 10
40.9817293226865
 20
12.77388175897875
 30
0.0
 10
40.96990370988265
 20
12.78290757374708
 30
0.0
  0
LINE
  5
2A6
330
1F
100
AcDbEntity
  8
0
  6
SLD-Solid
 62
     7
370
    25
100
AcDbLine
 10
39.9701424029
 20
12.2024317199
 30
0.0
 11
39.9701424029
 21
12.3902361066
 31
0.0
  0
LINE
  5
2A7
330
1F
100
AcDbEntity
  8
0
  6
SLD-Solid
 62
     7
370
    25
100
AcDbLine
 10
39.9701424029
 20
12.3902361066
 30
0.0
 11
39.4680965883
 21
12.6800609863
 31
0.0
  0
LINE
  5
2A8
330
1F
100
AcDbEntity
  8
0
  6
SLD-Solid
 62
     7
370
    25
100
AcDbLine
 10
39.6948207908
 20
12.2898709131
 30
0.0
 11
39.6782821366
 21
12.3127870758
 31
0.0
  0
LWPOLYLINE
  5
2A9
330
1F
100
AcDbEntity
  8
0
  6
SLD-Solid
 62
     7
370
    25
100
AcDbPolyline
 90
        5
 70
   128
 43
0.0
 10
39.6782821366
 20
12.3127870758
 10
39.6677646648
 20
12.3242005943
 10
39.6562775018
 20
12.3311195125
 10
39.6455694642
 20
12.3324904878
 10
39.6405743494
 20
12.3307443555
  0
LINE
  5
2AA
330
1F
100
AcDbEntity
  8
0
  6
SLD-Solid
 62
     7
370
    25
100
AcDbLine
 10
39.675080792
 20
12.2283298929
 30
0.0
 11
39.619018878
 21
12.3060099708
 31
0.0
  0
LWPOLYLINE
  5
2AB
330
1F
100
AcDbEntity
  8
0
  6
SLD-Solid
 62
     7
370
    25
100
AcDbPolyline
 90
        5
 70
   128
 43
0.0
 10
39.619018878
 20
12.3060099708
 10
39.6093656203
 20
12.3164856476
 10
39.5988223503
 20
12.3228360426
 10
39.5889941854
 20
12.3240943657
 10
39.5844095161
 20
12.322491712
  0
LINE
  5
2AC
330
1F
100
AcDbEntity
  8
0
  6
SLD-Solid
 62
     7
370
    25
100
AcDbLine
 10
39.7126214341
 20
12.0929313616
 30
0.0
 11
39.5805058471
 21
12.2759923448
 31
0.0
  0
LWPOLYLINE
  5
2AD
330
1F
100
AcDbEntity
  8
0
  6
SLD-Solid
 62
     7
370
    25
100
AcDbPolyline
 90
        5
 70
   128
 43
0.0
 10
39.5805058471
 20
12.2759923448
 10
39.5708099599
 20
12.286514283
 10
39.56022013
 20
12.2928927218
 10
39.5503485631
 20
12.2941566017
 10
39.5457436476
 20
12.2925468706
  0
LINE
  5
2AE
330
1F
100
AcDbEntity
  8
0
  6
SLD-Solid
 62
     7
370
    25
100
AcDbLine
 10
39.6785579952
 20
12.0564019554
 30
0.0
 11
39.6121852934
 21
12.1483687878
 31
0.0
  0
LWPOLYLINE
  5
2AF
330
1F
100
AcDbEntity
  8
0
  6
SLD-Solid
 62
     7
370
    25
100
AcDbPolyline
 90
        5
 70
   128
 43
0.0
 10
39.6121852934
 20
12.1483687878
 10
39.6046075262
 20
12.1565921506
 10
39.5963311031
 20
12.1615771842
 10
39.5886160346
 20
12.1625649626
 10
39.5850170882
 20
12.1613068861
  0
LINE
  5
2B0
330
1F
100
AcDbEntity
  8
0
  6
SLD-Solid
 62
     7
370
    25
100
AcDbLine
 10
39.8831712663
 20
11.7800840273
 30
0.0
 11
39.8851987458
 21
11.7822582828
 31
0.0
  0
LINE
  5
2B1
330
1F
100
AcDbEntity
  8
0
  6
SLD-Solid
 62
     7
370
    25
100
AcDbLine
 10
39.8851987458
 20
11.7822582828
 30
0.0
 11
39.7932178737
 21
11.9097081111
 31
0.0
  0
ARC
  5
2B2
330
1F
100
AcDbEntity
  8
0
  6
SLD-Solid
 62
     7
370
    25
100
AcDbCircle
 10
39.9292143396
 20
12.1975166638
 30
0.0
 40
0.3183218524305043
100
AcDbArc
 50
218.6937424724
 51
244.7081386604
  0
LINE
  5
2B3
330
1F
100
AcDbEntity
  8
0
  6
SLD-Solid
 62
     7
370
    25
100
AcDbLine
 10
39.6807645514
 20
11.9985153963
 30
0.0
 11
39.5898789464
 21
12.1244476091
 31
0.0
  0
LWPOLYLINE
  5
2B4
330
1F
100
AcDbEntity
  8
0
  6
SLD-Solid
 62
     7
370
    25
100
AcDbPolyline
 90
        6
 70
   128
 43
0.0
 10
39.5898789464
 20
12.1244476091
 10
39.5851075659
 20
12.1329560267
 10
39.5826062217
 20
12.1418245009
 10
39.5827557208
 20
12.1497028867
 10
39.5855333033
 20
12.1553917715
 10
39.5866642768
 20
12.1564122105
  0
LINE
  5
2B5
330
1F
100
AcDbEntity
  8
0
  6
SLD-Solid
 62
     7
370
    25
100
AcDbLine
 10
39.679783023
 20
12.0497209857
 30
0.0
 11
39.686765859
 21
12.0572093327
 31
0.0
  0
LINE
  5
2B6
330
1F
100
AcDbEntity
  8
0
  6
SLD-Solid
 62
     7
370
    25
100
AcDbLine
 10
39.686765859
 20
12.0572093327
 30
0.0
 11
39.5513977647
 21
12.24477703
 31
0.0
  0
LWPOLYLINE
  5
2B7
330
1F
100
AcDbEntity
  8
0
  6
SLD-Solid
 62
     7
370
    25
100
AcDbPolyline
 90
        6
 70
   128
 43
0.0
 10
39.5513977647
 20
12.24477703
 10
39.5450260154
 20
12.2561392562
 10
39.5416856953
 20
12.2679823055
 10
39.5418853379
 20
12.2785031809
 10
39.5455945494
 20
12.2861001746
 10
39.547382968
 20
12.2876658246
  0
LINE
  5
2B8
330
1F
100
AcDbEntity
  8
0
  6
SLD-Solid
 62
     7
370
    25
100
AcDbLine
 10
39.713846462
 20
12.0862503919
 30
0.0
 11
39.7208252751
 21
12.0937344249
 31
0.0
  0
LINE
  5
2B9
330
1F
100
AcDbEntity
  8
0
  6
SLD-Solid
 62
     7
370
    25
100
AcDbLine
 10
39.7208252751
 20
12.0937344249
 30
0.0
 11
39.5900476882
 21
12.2749414588
 31
0.0
  0
LWPOLYLINE
  5
2BA
330
1F
100
AcDbEntity
  8
0
  6
SLD-Solid
 62
     7
370
    25
100
AcDbPolyline
 90
        6
 70
   128
 43
0.0
 10
39.5900476882
 20
12.2749414588
 10
39.5837081481
 20
12.2862462489
 10
39.5803847133
 20
12.2980294314
 10
39.5805833467
 20
12.3084971238
 10
39.5842738081
 20
12.3160557146
 10
39.5860489556
 20
12.3176104597
  0
LINE
  5
2BB
330
1F
100
AcDbEntity
  8
0
  6
SLD-Solid
 62
     7
370
    25
100
AcDbLine
 10
39.7477689855
 20
12.1226286814
 30
0.0
 11
39.7542147861
 21
12.1295411153
 31
0.0
  0
LINE
  5
2BC
330
1F
100
AcDbEntity
  8
0
  6
SLD-Solid
 62
     7
370
    25
100
AcDbLine
 10
39.7542147861
 20
12.1295411153
 30
0.0
 11
39.7421848829
 21
12.1462098972
 31
0.0
  0
ARC
  5
2BD
330
1F
100
AcDbEntity
  8
0
  6
SLD-Solid
 62
     7
370
    25
100
AcDbCircle
 10
39.7524147869
 20
12.1747095347
 30
0.0
 40
0.0293362200099778
100
AcDbArc
 50
301.124138568
 51
338.2782306977
  0
LINE
  5
2BE
330
1F
100
AcDbEntity
  8
0
  6
SLD-Solid
 62
     7
370
    25
100
AcDbLine
 10
39.8591532027
 20
12.0104196883
 30
0.0
 11
39.8422719092
 21
12.0950690757
 31
0.0
  0
LINE
  5
2BF
330
1F
100
AcDbEntity
  8
0
  6
SLD-Solid
 62
     7
370
    25
100
AcDbLine
 10
39.8422719092
 20
12.0950690757
 30
0.0
 11
39.7830627412
 21
12.1771100276
 31
0.0
  0
ARC
  5
2C0
330
1F
100
AcDbEntity
  8
0
  6
SLD-Solid
 62
     7
370
    25
100
AcDbCircle
 10
39.6867253878
 20
12.1843068931
 30
0.0
 40
0.0966057997112936
100
AcDbArc
 50
355.7276644783
 51
25.5949273321
  0
LINE
  5
2C1
330
1F
100
AcDbEntity
  8
0
  6
SLD-Solid
 62
     7
370
    25
100
AcDbLine
 10
39.7738513355
 20
12.2260411689
 30
0.0
 11
39.7646199012
 21
12.24678528
 31
0.0
  0
LINE
  5
2C2
330
1F
100
AcDbEntity
  8
0
  6
SLD-Solid
 62
     7
370
    25
100
AcDbLine
 10
39.9799644117
 20
11.8836698532
 30
0.0
 11
39.9819937203
 21
11.8858415732
 31
0.0
  0
LINE
  5
2C3
330
1F
100
AcDbEntity
  8
0
  6
SLD-Solid
 62
     7
370
    25
100
AcDbLine
 10
39.9819937203
 20
11.8858415732
 30
0.0
 11
39.9062327268
 21
11.9908993143
 31
0.0
  0
ARC
  5
2C4
330
1F
100
AcDbEntity
  8
0
  6
SLD-Solid
 62
     7
370
    25
100
AcDbCircle
 10
39.6776753951
 20
12.0067744545
 30
0.0
 40
0.2291079962558999
100
AcDbArc
 50
356.0267298446
 51
37.810156104
  0
LINE
  5
2C5
330
1F
100
AcDbEntity
  8
0
  6
SLD-Solid
 62
     7
370
    25
100
AcDbLine
 10
39.858681333
 20
12.1472284483
 30
0.0
 11
39.7964398849
 21
12.2334709648
 31
0.0
  0
ARC
  5
2C6
330
1F
100
AcDbEntity
  8
0
  6
SLD-Solid
 62
     7
370
    25
100
AcDbCircle
 10
39.7659431925
 20
12.2175732355
 30
0.0
 40
0.0343916566535446
100
AcDbArc
 50
27.5327408811
 51
95.9192404902
  0
LINE
  5
2C7
330
1F
100
AcDbEntity
  8
0
  6
SLD-Solid
 62
     7
370
    25
100
AcDbLine
 10
39.7623964992
 20
12.2517815242
 30
0.0
 11
39.7291572297
 21
12.3264740452
 31
0.0
  0
LINE
  5
2C8
330
1F
100
AcDbEntity
  8
0
  6
SLD-Solid
 62
     7
370
    25
100
AcDbLine
 10
39.968374636
 20
12.3892155965
 30
0.0
 11
39.9701424029
 21
12.3902361066
 31
0.0
  0
LINE
  5
2C9
330
1F
100
AcDbEntity
  8
0
  6
SLD-Solid
 62
     7
370
    25
100
AcDbLine
 10
39.968374636
 20
12.3892155965
 30
0.0
 11
39.4663288213
 21
12.6790404762
 31
0.0
  0
LINE
  5
2CA
330
1F
100
AcDbEntity
  8
0
  6
SLD-Solid
 62
     7
370
    25
100
AcDbLine
 10
39.4663288213
 20
12.6790404762
 30
0.0
 11
39.4680965883
 21
12.6800609863
 31
0.0
  0
LINE
  5
2CB
330
1F
100
AcDbEntity
  8
0
  6
SLD-Solid
 62
     7
370
    25
100
AcDbLine
 10
39.7387147753
 20
12.4458571165
 30
0.0
 11
39.7387147753
 21
12.4131278949
 31
0.0
  0
LINE
  5
2CC
330
1F
100
AcDbEntity
  8
0
  6
SLD-Solid
 62
     7
370
    25
100
AcDbLine
 10
39.7387147753
 20
12.4131278949
 30
0.0
 11
39.6959886821
 21
12.4377931434
 31
0.0
  0
LINE
  5
2CD
330
1F
100
AcDbEntity
  8
0
  6
SLD-Solid
 62
     7
370
    25
100
AcDbLine
 10
39.6959886821
 20
12.4377931434
 30
0.0
 11
39.6959886821
 21
12.4705223651
 31
0.0
  0
LINE
  5
2CE
330
1F
100
AcDbEntity
  8
0
  6
SLD-Solid
 62
     7
370
    25
100
AcDbLine
 10
39.6959886821
 20
12.4705223651
 30
0.0
 11
39.4698643553
 21
12.6010611604
 31
0.0
  0
LINE
  5
2CF
330
1F
100
AcDbEntity
  8
0
  6
SLD-Solid
 62
     7
370
    25
100
AcDbLine
 10
39.4698643553
 20
12.6010611604
 30
0.0
 11
39.4698643553
 21
12.4932777732
 31
0.0
  0
LINE
  5
2D0
330
1F
100
AcDbEntity
  8
0
  6
SLD-Solid
 62
     7
370
    25
100
AcDbLine
 10
39.4698643553
 20
12.4932777732
 30
0.0
 11
39.9648391021
 21
12.2075349341
 31
0.0
  0
LINE
  5
2D1
330
1F
100
AcDbEntity
  8
0
  6
SLD-Solid
 62
     7
370
    25
100
AcDbLine
 10
39.9648391021
 20
12.2075349341
 30
0.0
 11
39.9648391021
 21
12.3153183212
 31
0.0
  0
LINE
  5
2D2
330
1F
100
AcDbEntity
  8
0
  6
SLD-Solid
 62
     7
370
    25
100
AcDbLine
 10
39.9648391021
 20
12.3153183212
 30
0.0
 11
39.7387147753
 21
12.4458571165
 31
0.0
  0
LINE
  5
2D3
330
1F
100
AcDbEntity
  8
0
  6
SLD-Solid
 62
     7
370
    25
100
AcDbLine
 10
39.9648391021
 20
12.3194010253
 30
0.0
 11
39.9648391021
 21
12.3871739127
 31
0.0
  0
LINE
  5
2D4
330
1F
100
AcDbEntity
  8
0
  6
SLD-Solid
 62
     7
370
    25
100
AcDbLine
 10
39.9648391021
 20
12.3871739127
 30
0.0
 11
39.4698643553
 21
12.6729167518
 31
0.0
  0
LINE
  5
2D5
330
1F
100
AcDbEntity
  8
0
  6
SLD-Solid
 62
     7
370
    25
100
AcDbLine
 10
39.4698643553
 20
12.6729167518
 30
0.0
 11
39.4698643553
 21
12.6051438644
 31
0.0
  0
LINE
  5
2D6
330
1F
100
AcDbEntity
  8
0
  6
SLD-Solid
 62
     7
370
    25
100
AcDbLine
 10
39.4698643553
 20
12.6051438644
 30
0.0
 11
39.9648391021
 21
12.3194010253
 31
0.0
  0
LINE
  5
2D7
330
1F
100
AcDbEntity
  8
0
  6
SLD-Solid
 62
     7
370
    25
100
AcDbLine
 10
39.968374636
 20
12.2014112097
 30
0.0
 11
39.968374636
 21
12.3892155965
 31
0.0
  0
LINE
  5
2D8
330
1F
100
AcDbEntity
  8
0
  6
SLD-Solid
 62
     7
370
    25
100
AcDbLine
 10
39.4663288213
 20
12.4912360894
 30
0.0
 11
39.968374636
 21
12.2014112097
 31
0.0
  0
LINE
  5
2D9
330
1F
100
AcDbEntity
  8
0
  6
SLD-Solid
 62
     7
370
    25
100
AcDbLine
 10
39.4663288213
 20
12.6790404762
 30
0.0
 11
39.4663288213
 21
12.4912360894
 31
0.0
  0
LINE
  5
2DA
330
1F
100
AcDbEntity
  8
0
  6
SLD-Solid
 62
     7
370
    25
100
AcDbLine
 10
39.968374636
 20
12.2014112097
 30
0.0
 11
39.9701424029
 21
12.2024317199
 31
0.0
  0
LINE
  5
2DB
330
1F
100
AcDbEntity
  8
0
  6
SLD-Solid
 62
     7
370
    25
100
AcDbLine
 10
39.4716321222
 20
12.6061643746
 30
0.0
 11
39.9648391021
 21
12.3214420456
 31
0.0
  0
LINE
  5
2DC
330
1F
100
AcDbEntity
  8
0
  6
SLD-Solid
 62
     7
370
    25
100
AcDbLine
 10
39.4716321222
 20
12.6718962417
 30
0.0
 11
39.4716321222
 21
12.6061643746
 31
0.0
  0
LINE
  5
2DD
330
1F
100
AcDbEntity
  8
0
  6
SLD-Solid
 62
     7
370
    25
100
AcDbLine
 10
39.4698643553
 20
12.6051438644
 30
0.0
 11
39.4716321222
 21
12.6061643746
 31
0.0
  0
LINE
  5
2DE
330
1F
100
AcDbEntity
  8
0
  6
SLD-Solid
 62
     7
370
    25
100
AcDbLine
 10
39.4716321222
 20
12.6000406502
 30
0.0
 11
39.4716321222
 21
12.4942982834
 31
0.0
  0
LINE
  5
2DF
330
1F
100
AcDbEntity
  8
0
  6
SLD-Solid
 62
     7
370
    25
100
AcDbLine
 10
39.7404825422
 20
12.4448366064
 30
0.0
 11
39.7404825422
 21
12.414148405
 31
0.0
  0
LINE
  5
2E0
330
1F
100
AcDbEntity
  8
0
  6
SLD-Solid
 62
     7
370
    25
100
AcDbLine
 10
39.4716321222
 20
12.4942982834
 30
0.0
 11
39.9648391021
 21
12.2095759544
 31
0.0
  0
LINE
  5
2E1
330
1F
100
AcDbEntity
  8
0
  6
SLD-Solid
 62
     7
370
    25
100
AcDbLine
 10
39.4698643553
 20
12.4932777732
 30
0.0
 11
39.4716321222
 21
12.4942982834
 31
0.0
  0
LINE
  5
2E2
330
1F
100
AcDbEntity
  8
0
  6
SLD-Solid
 62
     7
370
    25
100
AcDbLine
 10
39.8573854358
 20
12.0093991782
 30
0.0
 11
39.8405041423
 21
12.0940485656
 31
0.0
  0
LINE
  5
2E3
330
1F
100
AcDbEntity
  8
0
  6
SLD-Solid
 62
     7
370
    25
100
AcDbLine
 10
39.8464071213
 20
12.0157368242
 30
0.0
 11
39.8573854358
 21
12.0093991782
 31
0.0
  0
LINE
  5
2E4
330
1F
100
AcDbEntity
  8
0
  6
SLD-Solid
 62
     7
370
    25
100
AcDbLine
 10
39.8310739418
 20
12.0926233645
 30
0.0
 11
39.8464071213
 21
12.0157368242
 31
0.0
  0
LINE
  5
2E5
330
1F
100
AcDbEntity
  8
0
  6
SLD-Solid
 62
     7
370
    25
100
AcDbLine
 10
39.778782959
 20
12.1650783938
 30
0.0
 11
39.8310739418
 21
12.0926233645
 31
0.0
  0
ARC
  5
2E6
330
1F
100
AcDbEntity
  8
0
  6
SLD-Solid
 62
     7
370
    25
100
AcDbCircle
 10
39.7507388563
 20
12.1741739455
 30
0.0
 40
0.0294822108420825
100
AcDbArc
 50
246.5884442777
 51
342.0305515755
  0
LINE
  5
2E7
330
1F
100
AcDbEntity
  8
0
  6
SLD-Solid
 62
     7
370
    25
100
AcDbLine
 10
39.7524470192
 20
12.1285206051
 30
0.0
 11
39.7390246016
 21
12.1471188721
 31
0.0
  0
LINE
  5
2E8
330
1F
100
AcDbEntity
  8
0
  6
SLD-Solid
 62
     7
370
    25
100
AcDbLine
 10
39.7460012186
 20
12.1216081713
 30
0.0
 11
39.7524470192
 21
12.1285206051
 31
0.0
  0
LINE
  5
2E9
330
1F
100
AcDbEntity
  8
0
  6
SLD-Solid
 62
     7
370
    25
100
AcDbLine
 10
39.7206193257
 20
12.1567776344
 30
0.0
 11
39.7460012186
 21
12.1216081713
 31
0.0
  0
ARC
  5
2EA
330
1F
100
AcDbEntity
  8
0
  6
SLD-Solid
 62
     7
370
    25
100
AcDbCircle
 10
39.7956184495
 20
12.2547078508
 30
0.0
 40
0.1233498920108174
100
AcDbArc
 50
199.0825914665
 51
232.5535719896
  0
LINE
  5
2EB
330
1F
100
AcDbEntity
  8
0
  6
SLD-Solid
 62
     7
370
    25
100
AcDbLine
 10
39.6152236316
 20
12.3028152051
 30
0.0
 11
39.6790468451
 21
12.2143809751
 31
0.0
  0
LWPOLYLINE
  5
2EC
330
1F
100
AcDbEntity
  8
0
  6
SLD-Solid
 62
     7
370
    25
100
AcDbPolyline
 90
        9
 70
   128
 43
0.0
 10
39.5882799212
 20
12.2739209487
 10
39.5819403811
 20
12.2852257387
 10
39.5786169464
 20
12.2970089213
 10
39.5788155798
 20
12.3074766137
 10
39.5825060412
 20
12.3150352045
 10
39.5891264913
 20
12.3185339669
 10
39.5976690267
 20
12.317440246
 10
39.6068331237
 20
12.3119205509
 10
39.6152236316
 20
12.3028152051
  0
LINE
  5
2ED
330
1F
100
AcDbEntity
  8
0
  6
SLD-Solid
 62
     7
370
    25
100
AcDbLine
 10
39.7190575082
 20
12.0927139148
 30
0.0
 11
39.5882799212
 21
12.2739209487
 31
0.0
  0
LINE
  5
2EE
330
1F
100
AcDbEntity
  8
0
  6
SLD-Solid
 62
     7
370
    25
100
AcDbLine
 10
39.712078695
 20
12.0852298818
 30
0.0
 11
39.7190575082
 21
12.0927139148
 31
0.0
  0
LINE
  5
2EF
330
1F
100
AcDbEntity
  8
0
  6
SLD-Solid
 62
     7
370
    25
100
AcDbLine
 10
39.5767106007
 20
12.2727975791
 30
0.0
 11
39.712078695
 21
12.0852298818
 31
0.0
  0
LWPOLYLINE
  5
2F0
330
1F
100
AcDbEntity
  8
0
  6
SLD-Solid
 62
     7
370
    25
100
AcDbPolyline
 90
        9
 70
   128
 43
0.0
 10
39.5496299978
 20
12.2437565199
 10
39.5432582485
 20
12.2551187461
 10
39.5399179284
 20
12.2669617953
 10
39.540117571
 20
12.2774826707
 10
39.5438267825
 20
12.2850796644
 10
39.550480869
 20
12.2885962029
 10
39.5590668063
 20
12.2874969252
 10
39.5682774632
 20
12.2819491863
 10
39.5767106007
 20
12.2727975791
  0
LINE
  5
2F1
330
1F
100
AcDbEntity
  8
0
  6
SLD-Solid
 62
     7
370
    25
100
AcDbLine
 10
39.6849980921
 20
12.0561888226
 30
0.0
 11
39.5496299978
 21
12.2437565199
 31
0.0
  0
LINE
  5
2F2
330
1F
100
AcDbEntity
  8
0
  6
SLD-Solid
 62
     7
370
    25
100
AcDbLine
 10
39.6780152561
 20
12.0487004756
 30
0.0
 11
39.6849980921
 21
12.0561888226
 31
0.0
  0
LINE
  5
2F3
330
1F
100
AcDbEntity
  8
0
  6
SLD-Solid
 62
     7
370
    25
100
AcDbLine
 10
39.608390047
 20
12.1451740222
 30
0.0
 11
39.6780152561
 21
12.0487004756
 31
0.0
  0
LWPOLYLINE
  5
2F4
330
1F
100
AcDbEntity
  8
0
  6
SLD-Solid
 62
     7
370
    25
100
AcDbPolyline
 90
        9
 70
   128
 43
0.0
 10
39.5881111794
 20
12.123427099
 10
39.5833397989
 20
12.1319355166
 10
39.5808384547
 20
12.1408039907
 10
39.5809879538
 20
12.1486823766
 10
39.5837655363
 20
12.1543712613
 10
39.5887483405
 20
12.1570045638
 10
39.5951777795
 20
12.1561813876
 10
39.6020750296
 20
12.1520270538
 10
39.608390047
 20
12.1451740222
  0
LINE
  5
2F5
330
1F
100
AcDbEntity
  8
0
  6
SLD-Solid
 62
     7
370
    25
100
AcDbLine
 10
39.6789967844
 20
11.9974948862
 30
0.0
 11
39.5881111794
 21
12.123427099
 31
0.0
  0
ARC
  5
2F6
330
1F
100
AcDbEntity
  8
0
  6
SLD-Solid
 62
     7
370
    25
100
AcDbCircle
 10
39.9274465727
 20
12.1964961537
 30
0.0
 40
0.3183218524305804
100
AcDbArc
 50
218.6937424724
 51
244.7081386604
  0
LINE
  5
2F7
330
1F
100
AcDbEntity
  8
0
  6
SLD-Solid
 62
     7
370
    25
100
AcDbLine
 10
39.8834309788
 20
11.7812377727
 30
0.0
 11
39.7914501068
 21
11.908687601
 31
0.0
  0
LINE
  5
2F8
330
1F
100
AcDbEntity
  8
0
  6
SLD-Solid
 62
     7
370
    25
100
AcDbLine
 10
39.8814034994
 20
11.7790635171
 30
0.0
 11
39.8834309788
 21
11.7812377727
 31
0.0
  0
LINE
  5
2F9
330
1F
100
AcDbEntity
  8
0
  6
SLD-Solid
 62
     7
370
    25
100
AcDbLine
 10
39.790531728
 20
11.9049765618
 30
0.0
 11
39.8814034994
 21
11.7790635171
 31
0.0
  0
ARC
  5
2FA
330
1F
100
AcDbEntity
  8
0
  6
SLD-Solid
 62
     7
370
    25
100
AcDbCircle
 10
39.9315306587
 20
12.1988122637
 30
0.0
 40
0.3259142803753079
100
AcDbArc
 50
218.6912991502
 51
244.3656833521
  0
LINE
  5
2FB
330
1F
100
AcDbEntity
  8
0
  6
SLD-Solid
 62
     7
370
    25
100
AcDbLine
 10
39.5860837
 20
12.1212528434
 30
0.0
 11
39.677146302
 21
11.9950753814
 31
0.0
  0
LWPOLYLINE
  5
2FC
330
1F
100
AcDbEntity
  8
0
  6
SLD-Solid
 62
     7
370
    25
100
AcDbPolyline
 90
        9
 70
   128
 43
0.0
 10
39.6104175264
 20
12.1473482777
 10
39.6028397592
 20
12.1555716404
 10
39.5945633362
 20
12.1605566741
 10
39.5868482676
 20
12.1615444524
 10
39.5808691028
 20
12.1583845952
 10
39.5775361154
 20
12.1515581621
 10
39.5773567225
 20
12.1421044155
 10
39.580358235
 20
12.1314626028
 10
39.5860837
 20
12.1212528434
  0
LINE
  5
2FD
330
1F
100
AcDbEntity
  8
0
  6
SLD-Solid
 62
     7
370
    25
100
AcDbLine
 10
39.677146302
 20
12.054888065
 30
0.0
 11
39.6104175264
 21
12.1473482777
 31
0.0
  0
LINE
  5
2FE
330
1F
100
AcDbEntity
  8
0
  6
SLD-Solid
 62
     7
370
    25
100
AcDbLine
 10
39.6800741791
 20
12.058027901
 30
0.0
 11
39.677146302
 21
12.054888065
 31
0.0
  0
LINE
  5
2FF
330
1F
100
AcDbEntity
  8
0
  6
SLD-Solid
 62
     7
370
    25
100
AcDbLine
 10
39.5476025183
 20
12.2415822644
 30
0.0
 11
39.6800741791
 21
12.058027901
 31
0.0
  0
LWPOLYLINE
  5
300
330
1F
100
AcDbEntity
  8
0
  6
SLD-Solid
 62
     7
370
    25
100
AcDbPolyline
 90
        9
 70
   128
 43
0.0
 10
39.5787380802
 20
12.2749718346
 10
39.5690421929
 20
12.2854937728
 10
39.558452363
 20
12.2918722117
 10
39.5485807962
 20
12.2931360916
 10
39.5409303489
 20
12.2890929983
 10
39.5366657325
 20
12.2803584562
 10
39.5364361961
 20
12.2682622201
 10
39.5402766846
 20
12.2546458323
 10
39.5476025183
 20
12.2415822644
  0
LINE
  5
301
330
1F
100
AcDbEntity
  8
0
  6
SLD-Solid
 62
     7
370
    25
100
AcDbLine
 10
39.7112097409
 20
12.0914174712
 30
0.0
 11
39.5787380802
 21
12.2749718346
 31
0.0
  0
LINE
  5
302
330
1F
100
AcDbEntity
  8
0
  6
SLD-Solid
 62
     7
370
    25
100
AcDbLine
 10
39.7141335952
 20
12.0945529932
 30
0.0
 11
39.7112097409
 21
12.0914174712
 31
0.0
  0
LINE
  5
303
330
1F
100
AcDbEntity
  8
0
  6
SLD-Solid
 62
     7
370
    25
100
AcDbLine
 10
39.5862524418
 20
12.2717466931
 30
0.0
 11
39.7141335952
 21
12.0945529932
 31
0.0
  0
LWPOLYLINE
  5
304
330
1F
100
AcDbEntity
  8
0
  6
SLD-Solid
 62
     7
370
    25
100
AcDbPolyline
 90
        9
 70
   128
 43
0.0
 10
39.6172511111
 20
12.3049894607
 10
39.6075978533
 20
12.3154651375
 10
39.5970545834
 20
12.3218155325
 10
39.5872264185
 20
12.3230738555
 10
39.5796096077
 20
12.3190485384
 10
39.5753637413
 20
12.3103523991
 10
39.5751352141
 20
12.2983093461
 10
39.5789588172
 20
12.2847528249
 10
39.5862524418
 20
12.2717466931
  0
LINE
  5
305
330
1F
100
AcDbEntity
  8
0
  6
SLD-Solid
 62
     7
370
    25
100
AcDbLine
 10
39.676331667
 20
12.2231267154
 30
0.0
 11
39.6172511111
 21
12.3049894607
 31
0.0
  0
ARC
  5
306
330
1F
100
AcDbEntity
  8
0
  6
SLD-Solid
 62
     7
370
    25
100
AcDbCircle
 10
39.7766852045
 20
12.2499966371
 30
0.0
 40
0.1038885229076438
100
AcDbArc
 50
190.1798957465
 51
194.989490715
  0
LINE
  5
307
330
1F
100
AcDbEntity
  8
0
  6
SLD-Solid
 62
     7
370
    25
100
AcDbLine
 10
39.6427405246
 20
12.275547718
 30
0.0
 11
39.6744321276
 21
12.231635443
 31
0.0
  0
LWPOLYLINE
  5
308
330
1F
100
AcDbEntity
  8
0
  6
SLD-Solid
 62
     7
370
    25
100
AcDbPolyline
 90
        9
 70
   128
 43
0.0
 10
39.6765143697
 20
12.3117665657
 10
39.6659968979
 20
12.3231800842
 10
39.6545097349
 20
12.3300990024
 10
39.6438016972
 20
12.3314699776
 10
39.6355029865
 20
12.3270842914
 10
39.6308770063
 20
12.3176096247
 10
39.63062802
 20
12.3044884096
 10
39.6347939337
 20
12.2897182321
 10
39.6427405246
 20
12.275547718
  0
LINE
  5
309
330
1F
100
AcDbEntity
  8
0
  6
SLD-Solid
 62
     7
370
    25
100
AcDbLine
 10
39.6934205751
 20
12.2883411195
 30
0.0
 11
39.6765143697
 21
12.3117665657
 31
0.0
  0
LINE
  5
30A
330
1F
100
AcDbEntity
  8
0
  6
SLD-Solid
 62
     7
370
    25
100
AcDbLine
 10
39.7273894628
 20
12.3254535351
 30
0.0
 11
39.6934205751
 21
12.2883411195
 31
0.0
  0
LINE
  5
30B
330
1F
100
AcDbEntity
  8
0
  6
SLD-Solid
 62
     7
370
    25
100
AcDbLine
 10
39.7606287322
 20
12.2507610141
 30
0.0
 11
39.7273894628
 21
12.3254535351
 31
0.0
  0
ARC
  5
30C
330
1F
100
AcDbEntity
  8
0
  6
SLD-Solid
 62
     7
370
    25
100
AcDbCircle
 10
39.7641754255
 20
12.2165527254
 30
0.0
 40
0.0343916566535488
100
AcDbArc
 50
27.5327408811
 51
95.9192404902
  0
LINE
  5
30D
330
1F
100
AcDbEntity
  8
0
  6
SLD-Solid
 62
     7
370
    25
100
AcDbLine
 10
39.8569135661
 20
12.1462079382
 30
0.0
 11
39.794672118
 21
12.2324504547
 31
0.0
  0
ARC
  5
30E
330
1F
100
AcDbEntity
  8
0
  6
SLD-Solid
 62
     7
370
    25
100
AcDbCircle
 10
39.6759076281
 20
12.0057539444
 30
0.0
 40
0.2291079962558653
100
AcDbArc
 50
356.0267298445
 51
37.810156104
  0
LINE
  5
30F
330
1F
100
AcDbEntity
  8
0
  6
SLD-Solid
 62
     7
370
    25
100
AcDbLine
 10
39.9802259533
 20
11.8848210631
 30
0.0
 11
39.9044649598
 21
11.9898788042
 31
0.0
  0
LINE
  5
310
330
1F
100
AcDbEntity
  8
0
  6
SLD-Solid
 62
     7
370
    25
100
AcDbLine
 10
39.9781966447
 20
11.8826493431
 30
0.0
 11
39.9802259533
 21
11.8848210631
 31
0.0
  0
LINE
  5
311
330
1F
100
AcDbEntity
  8
0
  6
SLD-Solid
 62
     7
370
    25
100
AcDbLine
 10
39.9006129557
 20
11.9902346153
 30
0.0
 11
39.9781966447
 21
11.8826493431
 31
0.0
  0
ARC
  5
312
330
1F
100
AcDbEntity
  8
0
  6
SLD-Solid
 62
     7
370
    25
100
AcDbCircle
 10
39.6814419986
 20
12.008768851
 30
0.0
 40
0.2199532367265722
100
AcDbArc
 50
355.1662715074
 51
37.9498031096
  0
LINE
  5
313
330
1F
100
AcDbEntity
  8
0
  6
SLD-Solid
 62
     7
370
    25
100
AcDbLine
 10
39.7926446385
 20
12.2302761991
 30
0.0
 11
39.8548860866
 21
12.1440336827
 31
0.0
  0
ARC
  5
314
330
1F
100
AcDbEntity
  8
0
  6
SLD-Solid
 62
     7
370
    25
100
AcDbCircle
 10
39.7661134552
 20
12.2165654809
 30
0.0
 40
0.029864485310784
100
AcDbArc
 50
27.3289028131
 51
96.6674466364
  0
LINE
  5
315
330
1F
100
AcDbEntity
  8
0
  6
SLD-Solid
 62
     7
370
    25
100
AcDbLine
 10
39.7720835686
 20
12.2250206587
 30
0.0
 11
39.7626459963
 21
12.246227986
 31
0.0
  0
ARC
  5
316
330
1F
100
AcDbEntity
  8
0
  6
SLD-Solid
 62
     7
370
    25
100
AcDbCircle
 10
39.6849576209
 20
12.183286383
 30
0.0
 40
0.0966057997109287
100
AcDbArc
 50
355.7276644783
 51
25.5949273321
  0
LINE
  5
317
330
1F
100
AcDbEntity
  8
0
  6
SLD-Solid
 62
     7
370
    25
100
AcDbLine
 10
39.8405041423
 20
12.0940485656
 30
0.0
 11
39.7812949743
 21
12.1760895174
 31
0.0
  0
LINE
  5
318
330
1F
100
AcDbEntity
  8
0
  6
SLD-Solid
 62
     7
370
    25
100
AcDbLine
 10
39.7451322645
 20
12.1277957607
 30
0.0
 11
39.7273894628
 21
12.1523804051
 31
0.0
  0
LINE
  5
319
330
1F
100
AcDbEntity
  8
0
  6
SLD-Solid
 62
     7
370
    25
100
AcDbLine
 10
39.7475231062
 20
12.1303596835
 30
0.0
 11
39.7451322645
 21
12.1277957607
 31
0.0
  0
LINE
  5
31A
330
1F
100
AcDbEntity
  8
0
  6
SLD-Solid
 62
     7
370
    25
100
AcDbLine
 10
39.7340706856
 20
12.1489995231
 30
0.0
 11
39.7475231062
 21
12.1303596835
 31
0.0
  0
ARC
  5
31B
330
1F
100
AcDbEntity
  8
0
  6
SLD-Solid
 62
     7
370
    25
100
AcDbCircle
 10
39.7604103793
 20
12.2093435132
 30
0.0
 40
0.0658420580554621
100
AcDbArc
 50
239.8995801343
 51
246.4190960499
  0
LINE
  5
31C
330
1F
100
AcDbEntity
  8
0
  6
SLD-Solid
 62
     7
370
    25
100
AcDbLine
 10
39.8341676919
 20
12.0933201823
 30
0.0
 11
39.7798695316
 21
12.1685563814
 31
0.0
  0
LINE
  5
31D
330
1F
100
AcDbEntity
  8
0
  6
SLD-Solid
 62
     7
370
    25
100
AcDbLine
 10
39.8491402977
 20
12.0182416991
 30
0.0
 11
39.8341676919
 21
12.0933201823
 31
0.0
  0
LINE
  5
31E
330
1F
100
AcDbEntity
  8
0
  6
SLD-Solid
 62
     7
370
    25
100
AcDbLine
 10
39.8528120024
 20
12.0161220691
 30
0.0
 11
39.8491402977
 21
12.0182416991
 31
0.0
  0
LINE
  5
31F
330
1F
100
AcDbEntity
  8
0
  6
SLD-Solid
 62
     7
370
    25
100
AcDbLine
 10
39.8374103922
 20
12.0933517477
 30
0.0
 11
39.8528120024
 21
12.0161220691
 31
0.0
  0
LINE
  5
320
330
1F
100
AcDbEntity
  8
0
  6
SLD-Solid
 62
     7
370
    25
100
AcDbLine
 10
39.7806596119
 20
12.1719863273
 30
0.0
 11
39.8374103922
 21
12.0933517477
 31
0.0
  0
ARC
  5
321
330
1F
100
AcDbEntity
  8
0
  6
SLD-Solid
 62
     7
370
    25
100
AcDbCircle
 10
39.731883819
 20
12.1814157528
 30
0.0
 40
0.0496788893095916
100
AcDbArc
 50
344.9981747249
 51
349.0584499324
  0
LINE
  5
322
330
1F
100
AcDbEntity
  8
0
  6
SLD-Solid
 62
     7
370
    25
100
AcDbLine
 10
39.6914095795
 20
12.2861440236
 30
0.0
 11
39.682695357
 21
12.2766233749
 31
0.0
  0
LINE
  5
323
330
1F
100
AcDbEntity
  8
0
  6
SLD-Solid
 62
     7
370
    25
100
AcDbLine
 10
39.6744868902
 20
12.3095923102
 30
0.0
 11
39.6914095795
 21
12.2861440236
 31
0.0
  0
LWPOLYLINE
  5
324
330
1F
100
AcDbEntity
  8
0
  6
SLD-Solid
 62
     7
370
    25
100
AcDbPolyline
 90
        9
 70
   128
 43
0.0
 10
39.6447680041
 20
12.2777219736
 10
39.6377754976
 20
12.2901911459
 10
39.6341097523
 20
12.3031879848
 10
39.6343288447
 20
12.3147338392
 10
39.63839942
 20
12.3230709575
 10
39.6457017701
 20
12.326930089
 10
39.6551241782
 20
12.3257237159
 10
39.6652321682
 20
12.3196354976
 10
39.6744868902
 20
12.3095923102
  0
LINE
  5
325
330
1F
100
AcDbEntity
  8
0
  6
SLD-Solid
 62
     7
370
    25
100
AcDbLine
 10
39.6735331705
 20
12.237864605
 30
0.0
 11
39.6447680041
 21
12.2777219736
 31
0.0
  0
ARC
  5
326
330
1F
100
AcDbEntity
  8
0
  6
SLD-Solid
 62
     7
370
    25
100
AcDbCircle
 10
39.7220139746
 20
12.2468665363
 30
0.0
 40
0.0493094628987249
100
AcDbArc
 50
142.8810924373
 51
190.5189031323
  0
LINE
  5
327
330
1F
100
AcDbEntity
  8
0
  6
SLD-Solid
 62
     7
370
    25
100
AcDbLine
 10
39.7387147753
 20
12.4131278949
 30
0.0
 11
39.7404825422
 21
12.414148405
 31
0.0
  0
LINE
  5
328
330
1F
100
AcDbEntity
  8
0
  6
SLD-Solid
 62
     7
370
    25
100
AcDbLine
 10
39.9044649598
 20
11.9898788042
 30
0.0
 11
39.9062327268
 21
11.9908993143
 31
0.0
  0
LINE
  5
329
330
1F
100
AcDbEntity
  8
0
  6
SLD-Solid
 62
     7
370
    25
100
AcDbLine
 10
39.8569135661
 20
12.1462079382
 30
0.0
 11
39.858681333
 21
12.1472284483
 31
0.0
  0
LINE
  5
32A
330
1F
100
AcDbEntity
  8
0
  6
SLD-Solid
 62
     7
370
    25
100
AcDbLine
 10
39.794672118
 20
12.2324504547
 30
0.0
 11
39.7964398849
 21
12.2334709648
 31
0.0
  0
LINE
  5
32B
330
1F
100
AcDbEntity
  8
0
  6
SLD-Solid
 62
     7
370
    25
100
AcDbLine
 10
39.9802259533
 20
11.8848210631
 30
0.0
 11
39.9819937203
 21
11.8858415732
 31
0.0
  0
LINE
  5
32C
330
1F
100
AcDbEntity
  8
0
  6
SLD-Solid
 62
     7
370
    25
100
AcDbLine
 10
39.7273894628
 20
12.3254535351
 30
0.0
 11
39.7291572297
 21
12.3264740452
 31
0.0
  0
LINE
  5
32D
330
1F
100
AcDbEntity
  8
0
  6
SLD-Solid
 62
     7
370
    25
100
AcDbLine
 10
39.7606287322
 20
12.2507610141
 30
0.0
 11
39.7623964992
 21
12.2517815242
 31
0.0
  0
LINE
  5
32E
330
1F
100
AcDbEntity
  8
0
  6
SLD-Solid
 62
     7
370
    25
100
AcDbLine
 10
39.852352013
 20
12.0184286356
 30
0.0
 11
39.8509080646
 21
12.0192622093
 31
0.0
  0
LINE
  5
32F
330
1F
100
AcDbEntity
  8
0
  6
SLD-Solid
 62
     7
370
    25
100
AcDbLine
 10
39.8509080646
 20
12.0192622093
 30
0.0
 11
39.8359354588
 21
12.0943406924
 31
0.0
  0
LINE
  5
330
330
1F
100
AcDbEntity
  8
0
  6
SLD-Solid
 62
     7
370
    25
100
AcDbLine
 10
39.8359354588
 20
12.0943406924
 30
0.0
 11
39.7816372985
 21
12.1695768916
 31
0.0
  0
LINE
  5
331
330
1F
100
AcDbEntity
  8
0
  6
SLD-Solid
 62
     7
370
    25
100
AcDbLine
 10
39.8405041423
 20
12.0940485656
 30
0.0
 11
39.8422719092
 21
12.0950690757
 31
0.0
  0
LINE
  5
332
330
1F
100
AcDbEntity
  8
0
  6
SLD-Solid
 62
     7
370
    25
100
AcDbLine
 10
39.7812949743
 20
12.1760895174
 30
0.0
 11
39.7830627412
 21
12.1771100276
 31
0.0
  0
LINE
  5
333
330
1F
100
AcDbEntity
  8
0
  6
SLD-Solid
 62
     7
370
    25
100
AcDbLine
 10
39.9781966447
 20
11.8826493431
 30
0.0
 11
39.9799644117
 21
11.8836698532
 31
0.0
  0
LINE
  5
334
330
1F
100
AcDbEntity
  8
0
  6
SLD-Solid
 62
     7
370
    25
100
AcDbLine
 10
39.8341676919
 20
12.0933201823
 30
0.0
 11
39.8359354588
 21
12.0943406924
 31
0.0
  0
LINE
  5
335
330
1F
100
AcDbEntity
  8
0
  6
SLD-Solid
 62
     7
370
    25
100
AcDbLine
 10
39.7798695316
 20
12.1685563814
 30
0.0
 11
39.7816372985
 21
12.1695768916
 31
0.0
  0
LINE
  5
336
330
1F
100
AcDbEntity
  8
0
  6
SLD-Solid
 62
     7
370
    25
100
AcDbLine
 10
39.7720835686
 20
12.2250206587
 30
0.0
 11
39.7738513355
 21
12.2260411689
 31
0.0
  0
LINE
  5
337
330
1F
100
AcDbEntity
  8
0
  6
SLD-Solid
 62
     7
370
    25
100
AcDbLine
 10
39.8573854358
 20
12.0093991782
 30
0.0
 11
39.8591532027
 21
12.0104196883
 31
0.0
  0
LINE
  5
338
330
1F
100
AcDbEntity
  8
0
  6
SLD-Solid
 62
     7
370
    25
100
AcDbLine
 10
39.8491402977
 20
12.0182416991
 30
0.0
 11
39.8509080646
 21
12.0192622093
 31
0.0
  0
LINE
  5
339
330
1F
100
AcDbEntity
  8
0
  6
SLD-Solid
 62
     7
370
    25
100
AcDbLine
 10
39.6765143697
 20
12.3117665657
 30
0.0
 11
39.6782821366
 21
12.3127870758
 31
0.0
  0
LINE
  5
33A
330
1F
100
AcDbEntity
  8
0
  6
SLD-Solid
 62
     7
370
    25
100
AcDbLine
 10
39.6731962755
 20
12.2418013607
 30
0.0
 11
39.646535771
 21
12.2787424837
 31
0.0
  0
LWPOLYLINE
  5
33B
330
1F
100
AcDbEntity
  8
0
  6
SLD-Solid
 62
     7
370
    25
100
AcDbPolyline
 90
        6
 70
   128
 43
0.0
 10
39.646535771
 20
12.2787424837
 10
39.6395432645
 20
12.2912116561
 10
39.6358775192
 20
12.3042084949
 10
39.6360966117
 20
12.3157543493
 10
39.640167187
 20
12.3240914676
 10
39.6422115893
 20
12.3258669134
  0
LINE
  5
33C
330
1F
100
AcDbEntity
  8
0
  6
SLD-Solid
 62
     7
370
    25
100
AcDbLine
 10
39.6447680041
 20
12.2777219736
 30
0.0
 11
39.646535771
 21
12.2787424837
 31
0.0
  0
LINE
  5
33D
330
1F
100
AcDbEntity
  8
0
  6
SLD-Solid
 62
     7
370
    25
100
AcDbLine
 10
39.7190575082
 20
12.0927139148
 30
0.0
 11
39.7208252751
 21
12.0937344249
 31
0.0
  0
LINE
  5
33E
330
1F
100
AcDbEntity
  8
0
  6
SLD-Solid
 62
     7
370
    25
100
AcDbLine
 10
39.5882799212
 20
12.2739209487
 30
0.0
 11
39.5900476882
 21
12.2749414588
 31
0.0
  0
LINE
  5
33F
330
1F
100
AcDbEntity
  8
0
  6
SLD-Solid
 62
     7
370
    25
100
AcDbLine
 10
39.7524470192
 20
12.1285206051
 30
0.0
 11
39.7542147861
 21
12.1295411153
 31
0.0
  0
LINE
  5
340
330
1F
100
AcDbEntity
  8
0
  6
SLD-Solid
 62
     7
370
    25
100
AcDbLine
 10
39.6172511111
 20
12.3049894607
 30
0.0
 11
39.619018878
 21
12.3060099708
 31
0.0
  0
LINE
  5
341
330
1F
100
AcDbEntity
  8
0
  6
SLD-Solid
 62
     7
370
    25
100
AcDbLine
 10
39.7465439577
 20
12.1293096511
 30
0.0
 11
39.731463724
 21
12.1502050084
 31
0.0
  0
LINE
  5
342
330
1F
100
AcDbEntity
  8
0
  6
SLD-Solid
 62
     7
370
    25
100
AcDbLine
 10
39.7460012186
 20
12.1216081713
 30
0.0
 11
39.7477689855
 21
12.1226286814
 31
0.0
  0
LINE
  5
343
330
1F
100
AcDbEntity
  8
0
  6
SLD-Solid
 62
     7
370
    25
100
AcDbLine
 10
39.5787380802
 20
12.2749718346
 30
0.0
 11
39.5805058471
 21
12.2759923448
 31
0.0
  0
LINE
  5
344
330
1F
100
AcDbEntity
  8
0
  6
SLD-Solid
 62
     7
370
    25
100
AcDbLine
 10
39.8834309788
 20
11.7812377727
 30
0.0
 11
39.8851987458
 21
11.7822582828
 31
0.0
  0
LINE
  5
345
330
1F
100
AcDbEntity
  8
0
  6
SLD-Solid
 62
     7
370
    25
100
AcDbLine
 10
39.7914501068
 20
11.908687601
 30
0.0
 11
39.7932178737
 21
11.9097081111
 31
0.0
  0
LINE
  5
346
330
1F
100
AcDbEntity
  8
0
  6
SLD-Solid
 62
     7
370
    25
100
AcDbLine
 10
39.6849980921
 20
12.0561888226
 30
0.0
 11
39.686765859
 21
12.0572093327
 31
0.0
  0
LINE
  5
347
330
1F
100
AcDbEntity
  8
0
  6
SLD-Solid
 62
     7
370
    25
100
AcDbLine
 10
39.5496299978
 20
12.2437565199
 30
0.0
 11
39.5513977647
 21
12.24477703
 31
0.0
  0
LINE
  5
348
330
1F
100
AcDbEntity
  8
0
  6
SLD-Solid
 62
     7
370
    25
100
AcDbLine
 10
39.712078695
 20
12.0852298818
 30
0.0
 11
39.713846462
 21
12.0862503919
 31
0.0
  0
LINE
  5
349
330
1F
100
AcDbEntity
  8
0
  6
SLD-Solid
 62
     7
370
    25
100
AcDbLine
 10
39.8814034994
 20
11.7790635171
 30
0.0
 11
39.8831712663
 21
11.7800840273
 31
0.0
  0
LINE
  5
34A
330
1F
100
AcDbEntity
  8
0
  6
SLD-Solid
 62
     7
370
    25
100
AcDbLine
 10
39.6789967844
 20
11.9974948862
 30
0.0
 11
39.6807645514
 21
11.9985153963
 31
0.0
  0
LINE
  5
34B
330
1F
100
AcDbEntity
  8
0
  6
SLD-Solid
 62
     7
370
    25
100
AcDbLine
 10
39.6104175264
 20
12.1473482777
 30
0.0
 11
39.6121852934
 21
12.1483687878
 31
0.0
  0
LINE
  5
34C
330
1F
100
AcDbEntity
  8
0
  6
SLD-Solid
 62
     7
370
    25
100
AcDbLine
 10
39.5881111794
 20
12.123427099
 30
0.0
 11
39.5898789464
 21
12.1244476091
 31
0.0
  0
LINE
  5
34D
330
1F
100
AcDbEntity
  8
0
  6
SLD-Solid
 62
     7
370
    25
100
AcDbLine
 10
39.6780152561
 20
12.0487004756
 30
0.0
 11
39.679783023
 21
12.0497209857
 31
0.0
  0
LINE
  5
34E
330
1F
100
AcDbEntity
  8
0
  6
SLD-Solid
 62
     7
370
    25
100
AcDbLine
 10
42.7475548231
 20
11.1711339685
 30
0.0
 11
42.7475548231
 21
11.4499481321
 31
0.0
  0
SPLINE
  5
34F
330
1F
100
AcDbEntity
  8
0
  6
SLD-Solid
 62
     7
370
    25
100
AcDbSpline
210
0.0
220
0.0
230
1.0
 70
     8
 71
     3
 72
     9
 73
     5
 74
     0
 42
0.00000001
 43
0.00000001
 40
0.0
 40
0.0
 40
0.0
 40
0.0
 40
0.5
 40
1.0
 40
1.0
 40
1.0
 40
1.0
 10
38.37864259571295
 20
12.43975849955517
 30
0.0
 10
38.39509389015606
 20
12.42741944329564
 30
0.0
 10
38.42808600118811
 20
12.40580585695837
 30
0.0
 10
38.46089860757198
 20
12.38943118853417
 30
0.0
 10
38.47734967183683
 20
12.38277611741296
 30
0.0
  0
SPLINE
  5
350
330
1F
100
AcDbEntity
  8
0
  6
SLD-Solid
 62
     7
370
    25
100
AcDbSpline
210
0.0
220
0.0
230
1.0
 70
     8
 71
     3
 72
    18
 73
    14
 74
     0
 42
0.00000001
 43
0.00000001
 40
0.0
 40
0.0
 40
0.0
 40
0.0
 40
0.1249999999999999
 40
0.1249999999999999
 40
0.2499999999999998
 40
0.2499999999999998
 40
0.3749999999999986
 40
0.3749999999999986
 40
0.4999999999999973
 40
0.4999999999999973
 40
0.7499999999999987
 40
0.7499999999999987
 40
1.0
 40
1.0
 40
1.0
 40
1.0
 10
38.23696158076972
 20
12.61370358963168
 30
0.0
 10
38.24009775642973
 20
12.60460669588313
 30
0.0
 10
38.24408846165048
 20
12.59543414092702
 30
0.0
 10
38.25306572366377
 20
12.57769629508977
 30
0.0
 10
38.25803600776258
 20
12.5691209252018
 30
0.0
 10
38.26870960539918
 20
12.55241703493325
 30
0.0
 10
38.27445499923377
 20
12.54424182796352
 30
0.0
 10
38.28628227157651
 20
12.52862567267612
 30
0.0
 10
38.29238119106385
 20
12.5211520862253
 30
0.0
 10
38.31112892959694
 20
12.49954310469821
 30
0.0
 10
38.32428944677067
 20
12.48614897724108
 30
0.0
 10
38.35125919984289
 20
12.46133458726565
 30
0.0
 10
38.36489029144937
 20
12.4500732171352
 30
0.0
 10
38.37864259571295
 20
12.43975849955517
 30
0.0
  0
SPLINE
  5
351
330
1F
100
AcDbEntity
  8
0
  6
SLD-Solid
 62
     7
370
    25
100
AcDbSpline
210
0.0
220
0.0
230
1.0
 70
     8
 71
     3
 72
    15
 73
    11
 74
     0
 42
0.00000001
 43
0.00000001
 40
0.0
 40
0.0
 40
0.0
 40
0.0
 40
0.0757855726032906
 40
0.2241321203728083
 40
0.3751956113495188
 40
0.5274113555247247
 40
0.6432839824039797
 40
0.7599192757525155
 40
0.8793638515504367
 40
1.0
 40
1.0
 40
1.0
 40
1.0
 10
43.74660040513603
 20
11.48263816225718
 30
0.0
 10
43.75207068847966
 20
11.48573199276172
 30
0.0
 10
43.76824878363325
 20
11.49488184499925
 30
0.0
 10
43.79388127364705
 20
11.51245348443503
 30
0.0
 10
43.82323969625861
 20
11.53545312784687
 30
0.0
 10
43.84841002514475
 20
11.55910975874616
 30
0.0
 10
43.86952709639561
 20
11.58263136245295
 30
0.0
 10
43.88692404420566
 20
11.6056561229966
 30
0.0
 10
43.90254231627768
 20
11.63039710284741
 30
0.0
 10
43.91074698778574
 20
11.64826056640534
 30
0.0
 10
43.91486968432096
 20
11.65723662830432
 30
0.0
  0
SPLINE
  5
352
330
1F
100
AcDbEntity
  8
0
  6
SLD-Solid
 62
     8
370
    25
100
AcDbSpline
210
0.0
220
0.0
230
1.0
 70
     8
 71
     3
 72
     9
 73
     5
 74
     0
 42
0.00000001
 43
0.00000001
 40
0.0
 40
0.0
 40
0.0
 40
0.0
 40
0.4297424540585574
 40
1.0
 40
1.0
 40
1.0
 40
1.0
 10
38.10416533991542
 20
19.20080243115927
 30
0.0
 10
38.10437991591233
 20
19.18659580663395
 30
0.0
 10
38.10487922891921
 20
19.15353734477812
 30
0.0
 10
38.13360656762257
 20
19.12470692439321
 30
0.0
 10
38.14998854929298
 20
19.10826615961605
 30
0.0
  0
LWPOLYLINE
  5
353
330
1F
100
AcDbEntity
  8
0
  6
SLD-Solid
 62
     8
370
    25
100
AcDbPolyline
 90
       29
 70
   128
 43
0.0
 10
39.1933890162
 20
16.5358060066
 10
39.1247086559
 20
16.5324114876
 10
39.0453234518
 20
16.5063821713
 10
38.9986772084
 20
16.4786259598
 10
38.9563087091
 20
16.4431527802
 10
38.9179582912
 20
16.400314443
 10
38.8838700987
 20
16.3510077418
 10
38.8586051662
 20
16.3053404446
 10
38.8127898773
 20
16.192013779
 10
38.7874351403
 20
16.0993290275
 10
38.7685606967
 20
15.998555839
 10
38.7562251637
 20
15.8917570884
 10
38.7502250588
 20
15.7790604387
 10
38.7506362312
 20
15.6597492528
 10
38.7576531769
 20
15.5354831383
 10
38.7646677214
 20
15.4627004375
 10
38.7855879019
 20
15.3129228703
 10
38.8165497408
 20
15.1573168368
 10
38.8587275788
 20
14.9967858022
 10
38.8843680364
 20
14.9154200507
 10
38.9516897913
 20
14.7377420946
 10
38.9919812314
 20
14.649069738
 10
39.0365821622
 20
14.5623076452
 10
39.0813137526
 20
14.4852247001
 10
39.129722488
 20
14.4112788241
 10
39.1829990932
 20
14.3398011352
 10
39.2397494704
 20
14.2736211914
 10
39.2397509773
 20
14.273619561
 10
39.2397509773
 20
14.273619561
  0
ARC
  5
354
330
1F
100
AcDbEntity
  8
0
  6
SLD-Solid
 62
     8
370
    25
100
AcDbCircle
 10
39.4395889638
 20
13.1624614158
 30
0.0
 40
0.0206552049610731
100
AcDbArc
 50
166.3537410632
 51
228.4761492975
  0
LWPOLYLINE
  5
355
330
1F
100
AcDbEntity
  8
0
  6
SLD-Solid
 62
     8
370
    25
100
AcDbPolyline
 90
       24
 70
   128
 43
0.0
 10
41.0147722912
 20
11.4482995091
 10
41.027755311
 20
11.4313868537
 10
41.0754726141
 20
11.3805910128
 10
41.1165769275
 20
11.3446898049
 10
41.1601778202
 20
11.3136231719
 10
41.2028338771
 20
11.2899168955
 10
41.2461149927
 20
11.2729476951
 10
41.2658041624
 20
11.2679108947
 10
41.2849634714
 20
11.2649423417
 10
41.2993962903
 20
11.2642184437
 10
41.3042052099
 20
11.2643455892
 10
41.3045143153
 20
11.2643708405
 10
41.3046802961
 20
11.2643895244
 10
41.3047856402
 20
11.2644055487
 10
41.3048550258
 20
11.2644198276
 10
41.3049012564
 20
11.2644327871
 10
41.3049453715
 20
11.2644515636
 10
41.3049603151
 20
11.264461923
 10
41.3049664438
 20
11.2644679454
 10
41.304971765
 20
11.2644754689
 10
41.3049743765
 20
11.2644816268
 10
41.304975412
 20
11.2644863484
 10
41.3049756626
 20
11.264491416
 10
41.3049756626
 20
11.264491416
  0
ARC
  5
356
330
1F
100
AcDbEntity
  8
0
  6
SLD-Solid
 62
     8
370
    25
100
AcDbCircle
 10
42.6231774737
 20
11.4595838879
 30
0.0
 40
0.1247500414679572
100
AcDbArc
 50
355.5700328136
 51
41.7586592597
  0
SPLINE
  5
357
330
1F
100
AcDbEntity
  8
0
  6
SLD-Solid
 62
     8
370
    25
100
AcDbSpline
210
0.0
220
0.0
230
1.0
 70
     8
 71
     3
 72
    20
 73
    16
 74
     0
 42
0.00000001
 43
0.00000001
 40
0.0
 40
0.0
 40
0.0
 40
0.0
 40
0.0975135116282903
 40
0.1952835267607477
 40
0.2939306636948554
 40
0.392924030201961
 40
0.4747080634887277
 40
0.5567766011724147
 40
0.6399080011372269
 40
0.7235093265738707
 40
0.7821801279327901
 40
0.8411221463624732
 40
0.901101788301691
 40
0.9615477607455039
 40
1.0
 40
1.0
 40
1.0
 40
1.0
 10
38.47734967183683
 20
12.38277611741296
 30
0.0
 10
38.4825403170042
 20
12.3807634318207
 30
0.0
 10
38.49293526102296
 20
12.37673276638622
 30
0.0
 10
38.50839028009841
 20
12.37193937742225
 30
0.0
 10
38.52371234485058
 20
12.36816288561334
 30
0.0
 10
38.53793225945498
 20
12.36575439034991
 30
0.0
 10
38.5509977676506
 20
12.36458180255874
 30
0.0
 10
38.5629468697183
 20
12.36450421819791
 30
0.0
 10
38.57456205725795
 20
12.36558264405927
 30
0.0
 10
38.58459245838434
 20
12.36775112533949
 30
0.0
 10
38.59305948103841
 20
12.37071543238424
 30
0.0
 10
38.60010552742659
 20
12.3741550644953
 30
0.0
 10
38.60667388424324
 20
12.37857603764141
 30
0.0
 10
38.61196260953179
 20
12.38333760481074
 30
0.0
 10
38.61478661945636
 20
12.38693547178298
 30
0.0
 10
38.61588461206322
 20
12.38833434481866
 30
0.0
  0
SPLINE
  5
358
330
1F
100
AcDbEntity
  8
0
  6
SLD-Solid
 62
     8
370
    25
100
AcDbSpline
210
0.0
220
0.0
230
1.0
 70
     8
 71
     3
 72
    15
 73
    11
 74
     0
 42
0.00000001
 43
0.00000001
 40
0.0
 40
0.0
 40
0.0
 40
0.0
 40
0.0506246124872928
 40
0.2280534413600218
 40
0.4065635614813671
 40
0.5279104132360585
 40
0.6498278723633008
 40
0.7739069124130208
 40
0.8989465973977219
 40
1.0
 40
1.0
 40
1.0
 40
1.0
 10
38.28743624108053
 20
12.71332972315362
 30
0.0
 10
38.28637871116619
 20
12.71326335843697
 30
0.0
 10
38.28161475694596
 20
12.7129643990717
 30
0.0
 10
38.27356069579814
 20
12.71131276241442
 30
0.0
 10
38.26452002702669
 20
12.70850193478944
 30
0.0
 10
38.25706099292568
 20
12.70497691964008
 30
0.0
 10
38.25097961896459
 20
12.70117241303895
 30
0.0
 10
38.24537130959894
 20
12.69647816854162
 30
0.0
 10
38.24062196769666
 20
12.69124489852418
 30
0.0
 10
38.23809225025558
 20
12.68719311765926
 30
0.0
 10
38.23696158076996
 20
12.68538215454062
 30
0.0
  0
ARC
  5
359
330
1F
100
AcDbEntity
  8
0
  6
SLD-Solid
 62
     8
370
    25
100
AcDbCircle
 10
42.8602552607
 20
11.1586940189
 30
0.0
 40
0.1133849239045269
100
AcDbArc
 50
173.7011524828
 51
234.9866671238
  0
ARC
  5
35A
330
1F
100
AcDbEntity
  8
0
  6
SLD-Solid
 62
     8
370
    25
100
AcDbCircle
 10
42.9601235049
 20
11.1586940189
 30
0.0
 40
0.113384923904534
100
AcDbArc
 50
305.0133328762
 51
6.2988475172
  0
SPLINE
  5
35B
330
1F
100
AcDbEntity
  8
0
  6
SLD-Solid
 62
     8
370
    25
100
AcDbSpline
210
0.0
220
0.0
230
1.0
 70
     8
 71
     3
 72
    79
 73
    75
 74
     0
 42
0.00000001
 43
0.00000001
 40
0.0
 40
0.0
 40
0.0
 40
0.0
 40
0.006544060095312
 40
0.0434965577053252
 40
0.0559000731729173
 40
0.0620539805263557
 40
0.06820788564269
 40
0.1375800703266805
 40
0.1420367127531644
 40
0.1543446623427929
 40
0.1666525961447841
 40
0.172806477625102
 40
0.1851143915062741
 40
0.1974222941417508
 40
0.2097301868659633
 40
0.2158840636373022
 40
0.2281919435744007
 40
0.2404998161483244
 40
0.2528076821434648
 40
0.2651155422432535
 40
0.2774233970464544
 40
0.2835772694196677
 40
0.2958851150636588
 40
0.3081929545682784
 40
0.320500788535852
 40
0.3328086174977576
 40
0.3451164419248907
 40
0.3574242622363126
 40
0.3697320788064563
 40
0.3820398919712296
 40
0.4066561024856715
 40
0.4189639071360788
 40
0.4312717094303444
 40
0.4435795095744142
 40
0.4558873077569481
 40
0.4681951041513391
 40
0.4805028989174396
 40
0.4928106918494254
 40
0.5051184825236754
 40
0.5174262711366177
 40
0.5297340578517691
 40
0.5420418428201838
 40
0.5666578469649534
 40
0.5789656274942273
 40
0.5912734067811201
 40
0.6035811849316698
 40
0.6158889620455054
 40
0.6281967382164986
 40
0.6405045135333365
 40
0.6651204513644173
 40
0.67742822460705
 40
0.6897359973086008
 40
0.7020437695390166
 40
0.7143515413116298
 40
0.7266593122470747
 40
0.7512752145603647
 40
0.7635829833046989
 40
0.7758907514559722
 40
0.7881985190784212
 40
0.800506286234099
 40
0.825122163506848
 40
0.8374299296163072
 40
0.8497376954901398
 40
0.8620454611830195
 40
0.8743532267487415
 40
0.898969095707832
 40
0.911276861209373
 40
0.9235846267943375
 40
0.9358923925151461
 40
0.9482001584217569
 40
0.9728160291773104
 40
0.98512379471496
 40
0.9974315601947823
 40
1.0
 40
1.0
 40
1.0
 40
1.0
 10
38.42991310171799
 20
12.66368802308685
 30
0.0
 10
38.43013298372876
 20
12.66333846023557
 30
0.0
 10
38.43159447864635
 20
12.6610150126341
 30
0.0
 10
38.43362027287758
 20
12.65814810603607
 30
0.0
 10
38.43564290588504
 20
12.65532387791566
 30
0.0
 10
38.43655362434207
 20
12.65407707221139
 30
0.0
 10
38.4395793943935
 20
12.64997396137378
 30
0.0
 10
38.44264236845649
 20
12.64606657349875
 30
0.0
 10
38.44601049597087
 20
12.64197169751553
 30
0.0
 10
38.44715279651116
 20
12.64059786583445
 30
0.0
 10
38.44836975953331
 20
12.6391565390993
 30
0.0
 10
38.44959238385378
 20
12.63772458439376
 30
0.0
 10
38.45082053338312
 20
12.63630191288736
 30
0.0
 10
38.45230268247442
 20
12.63460937078753
 30
0.0
 10
38.45354444036423
 20
12.63321098007519
 30
0.0
 10
38.45479092662418
 20
12.6318215429524
 30
0.0
 10
38.45604204887721
 20
12.63044099057166
 30
0.0
 10
38.45755046261878
 20
12.62879841780592
 30
0.0
 10
38.45906563556756
 20
12.6271698070388
 30
0.0
 10
38.46058727745967
 20
12.62555504930172
 30
0.0
 10
38.46186048036148
 20
12.62422087681072
 30
0.0
 10
38.46313739574649
 20
12.62289525625904
 30
0.0
 10
38.46441795639227
 20
12.62157813148919
 30
0.0
 10
38.46596016955385
 20
12.62001099118207
 30
0.0
 10
38.4675076725341
 20
12.61845709604097
 30
0.0
 10
38.46906022743826
 20
12.61691629291674
 30
0.0
 10
38.47061761410544
 20
12.61538844119198
 30
0.0
 10
38.47217962525577
 20
12.6138734128728
 30
0.0
 10
38.47374606857355
 20
12.61237108877459
 30
0.0
 10
38.47584034205644
 20
12.61038477239063
 30
0.0
 10
38.47794280562133
 20
12.60842341913623
 30
0.0
 10
38.48005274206272
 20
12.60648677432825
 30
0.0
 10
38.48163879288537
 20
12.60504657011165
 30
0.0
 10
38.48322831429095
 20
12.60361857174498
 30
0.0
 10
38.48482117508852
 20
12.60220272327936
 30
0.0
 10
38.48641724757872
 20
12.60079897895951
 30
0.0
 10
38.48801640940079
 20
12.59940729661113
 30
0.0
 10
38.48961854545569
 20
12.59802765207
 30
0.0
 10
38.49122353085209
 20
12.59665996715307
 30
0.0
 10
38.49283124156078
 20
12.59530415152808
 30
0.0
 10
38.49444156241181
 20
12.59396012702079
 30
0.0
 10
38.49659200032531
 20
12.59218371085389
 30
0.0
 10
38.4987472486723
 20
12.59043057945654
 30
0.0
 10
38.50090684239232
 20
12.58870056409833
 30
0.0
 10
38.50252862138541
 20
12.58741456193028
 30
0.0
 10
38.50415240148047
 20
12.58614002167742
 30
0.0
 10
38.50577809524647
 20
12.58487690873132
 30
0.0
 10
38.50740561775731
 20
12.58362519413663
 30
0.0
 10
38.50957798634003
 20
12.58197140090673
 30
0.0
 10
38.51175370986866
 20
12.58034030354645
 30
0.0
 10
38.51393242204595
 20
12.57873190597822
 30
0.0
 10
38.51556788076402
 20
12.57753695358671
 30
0.0
 10
38.51720469845336
 20
12.57635334315289
 30
0.0
 10
38.51884280610579
 20
12.57518108516609
 30
0.0
 10
38.52102858285718
 20
12.57363320071065
 30
0.0
 10
38.52321666835253
 20
12.57210792407274
 30
0.0
 10
38.52540672557625
 20
12.57060519899821
 30
0.0
 10
38.5270501899163
 20
12.5694894122549
 30
0.0
 10
38.52869451695823
 20
12.56838486481422
 30
0.0
 10
38.5308880264487
 20
12.56692710459055
 30
0.0
 10
38.53308302343947
 20
12.56549178839085
 30
0.0
 10
38.53527920436666
 20
12.56407896939869
 30
0.0
 10
38.536926873683
 20
12.56303061443212
 30
0.0
 10
38.53857502324337
 20
12.56199353016377
 30
0.0
 10
38.54077312579002
 20
12.56062580129115
 30
0.0
 10
38.54297196883139
 20
12.55928069542663
 30
0.0
 10
38.54517126223968
 20
12.55795837543745
 30
0.0
 10
38.54682090086263
 20
12.55697807361067
 30
0.0
 10
38.54847065649711
 20
12.55600922872933
 30
0.0
 10
38.55067041460323
 20
12.55473288427476
 30
0.0
 10
38.55287019861034
 20
12.5534792002824
 30
0.0
 10
38.55506967404472
 20
12.55225013831434
 30
0.0
 10
38.55628408033055
 20
12.55157735294008
 30
0.0
 10
38.55694851501892
 20
12.55121542533436
 30
0.0
 10
38.55706323248005
 20
12.5511529370014
 30
0.0
  0
ELLIPSE
  5
35C
330
1F
100
AcDbEntity
  8
0
  6
SLD-Solid
 62
     7
370
    25
100
AcDbEllipse
 10
28.7083185524
 20
19.9475712756
 30
0.0
 11
0.0
 21
0.2302781407189585
 31
0.0
210
0.0
220
0.0
230
1.0
 40
0.9987921532
 41
0.0
 42
1.570796326794897
  0
LINE
  5
35D
330
1F
100
AcDbEntity
  8
0
  6
SLD-Solid
 62
     7
370
    25
100
AcDbLine
 10
28.7083185524
 20
20.1778494163
 30
0.0
 11
28.7162327459
 21
20.1778494163
 31
0.0
  0
SPLINE
  5
35E
330
1F
100
AcDbEntity
  8
0
  6
SLD-Solid
 62
     7
370
    25
100
AcDbSpline
210
0.0
220
0.0
230
1.0
 70
     8
 71
     3
 72
     8
 73
     4
 74
     0
 42
0.00000001
 43
0.00000001
 40
0.0
 40
0.0
 40
0.0
 40
0.0
 40
1.0
 40
1.0
 40
1.0
 40
1.0
 10
28.72259616004427
 20
20.17825649145246
 30
0.0
 10
28.72048370218598
 20
20.17798511066814
 30
0.0
 10
28.71836256430792
 20
20.17784941627058
 30
0.0
 10
28.71623274589764
 20
20.17784941627058
 30
0.0
  0
SPLINE
  5
35F
330
1F
100
AcDbEntity
  8
0
  6
SLD-Solid
 62
     7
370
    25
100
AcDbSpline
210
0.0
220
0.0
230
1.0
 70
     8
 71
     3
 72
     8
 73
     4
 74
     0
 42
0.00000001
 43
0.00000001
 40
0.0
 40
0.0
 40
0.0
 40
0.0
 40
1.0
 40
1.0
 40
1.0
 40
1.0
 10
28.75570963682615
 20
20.18052404002068
 30
0.0
 10
28.74455404471277
 20
20.18042392065075
 30
0.0
 10
28.73351774886009
 20
20.17965955344837
 30
0.0
 10
28.72259616004427
 20
20.17825649145247
 30
0.0
  0
SPLINE
  5
360
330
1F
100
AcDbEntity
  8
0
  6
SLD-Solid
 62
     7
370
    25
100
AcDbSpline
210
0.0
220
0.0
230
1.0
 70
     8
 71
     3
 72
     8
 73
     4
 74
     0
 42
0.00000001
 43
0.00000001
 40
0.0
 40
0.0
 40
0.0
 40
0.0
 40
1.0
 40
1.0
 40
1.0
 40
1.0
 10
32.64967041263779
 20
20.17784941627058
 30
0.0
 10
32.63852259504225
 20
20.17930727668466
 30
0.0
 10
32.627297364892
 20
20.18009384053251
 30
0.0
 10
32.61599343652864
 20
20.18019795900156
 30
0.0
  0
LINE
  5
361
330
1F
100
AcDbEntity
  8
0
  6
SLD-Solid
 62
     7
370
    25
100
AcDbLine
 10
32.6496704126
 20
20.1778494163
 30
0.0
 11
32.6633185524
 21
20.1778494163
 31
0.0
  0
ELLIPSE
  5
362
330
1F
100
AcDbEntity
  8
0
  6
SLD-Solid
 62
     7
370
    25
100
AcDbEllipse
 10
32.6633185524
 20
19.9475712756
 30
0.0
 11
0.0
 21
-0.2302781407189549
 31
0.0
210
0.0
220
0.0
230
1.0
 40
0.9987921532
 41
1.570796326794897
 42
3.141592653589793
  0
LINE
  5
363
330
1F
100
AcDbEntity
  8
0
  6
SLD-Solid
 62
     7
370
    25
100
AcDbLine
 10
32.8933185524
 20
19.9475712756
 30
0.0
 11
32.8933185524
 21
10.2841486289
 31
0.0
  0
LINE
  5
364
330
1F
100
AcDbEntity
  8
0
  6
SLD-Solid
 62
     7
370
    25
100
AcDbLine
 10
28.4783185524
 20
19.9475712756
 30
0.0
 11
28.4783185524
 21
10.2841486289
 31
0.0
  0
ARC
  5
365
330
1F
100
AcDbEntity
  8
0
  6
SLD-Solid
 62
     7
370
    25
100
AcDbCircle
 10
29.6288185524
 20
19.8416176841
 30
0.0
 40
0.0675000000000026
100
AcDbArc
 50
0.0
 51
180.0
  0
LINE
  5
366
330
1F
100
AcDbEntity
  8
0
  6
SLD-Solid
 62
     7
370
    25
100
AcDbLine
 10
29.5613185524
 20
19.8416176841
 30
0.0
 11
29.5613185524
 21
19.7084351391
 31
0.0
  0
ARC
  5
367
330
1F
100
AcDbEntity
  8
0
  6
SLD-Solid
 62
     7
370
    25
100
AcDbCircle
 10
29.6288185524
 20
19.5606176841
 30
0.0
 40
0.1625000000000022
100
AcDbArc
 50
114.543539879
 51
65.456460121
  0
LINE
  5
368
330
1F
100
AcDbEntity
  8
0
  6
SLD-Solid
 62
     7
370
    25
100
AcDbLine
 10
29.6963185524
 20
19.7084351391
 30
0.0
 11
29.6963185524
 21
19.8416176841
 31
0.0
  0
CIRCLE
  5
369
330
1F
100
AcDbEntity
  8
0
  6
SLD-Solid
 62
     7
370
    25
100
AcDbCircle
 10
29.2753185524
 20
14.5104747158
 30
0.0
 40
0.0999999999999979
  0
CIRCLE
  5
36A
330
1F
100
AcDbEntity
  8
0
  6
SLD-Solid
 62
     7
370
    25
100
AcDbCircle
 10
32.0963185524
 20
14.5104747158
 30
0.0
 40
0.1000000000000014
  0
ARC
  5
36B
330
1F
100
AcDbEntity
  8
0
  6
SLD-Solid
 62
     7
370
    25
100
AcDbCircle
 10
31.7428185524
 20
19.5606176841
 30
0.0
 40
0.1625000000000022
100
AcDbArc
 50
114.543539879
 51
65.456460121
  0
LINE
  5
36C
330
1F
100
AcDbEntity
  8
0
  6
SLD-Solid
 62
     7
370
    25
100
AcDbLine
 10
31.8103185524
 20
19.7084351391
 30
0.0
 11
31.8103185524
 21
19.8416176841
 31
0.0
  0
ARC
  5
36D
330
1F
100
AcDbEntity
  8
0
  6
SLD-Solid
 62
     7
370
    25
100
AcDbCircle
 10
31.7428185524
 20
19.8416176841
 30
0.0
 40
0.067499999999999
100
AcDbArc
 50
360.0
 51
180.0
  0
LINE
  5
36E
330
1F
100
AcDbEntity
  8
0
  6
SLD-Solid
 62
     7
370
    25
100
AcDbLine
 10
31.6753185524
 20
19.8416176841
 30
0.0
 11
31.6753185524
 21
19.7084351391
 31
0.0
  0
SPLINE
  5
36F
330
1F
100
AcDbEntity
  8
0
  6
SLD-Solid
 62
     7
370
    25
100
AcDbSpline
210
0.0
220
0.0
230
1.0
 70
     8
 71
     3
 72
     8
 73
     4
 74
     0
 42
0.00000001
 43
0.00000001
 40
0.0
 40
0.0
 40
0.0
 40
0.0
 40
1.0
 40
1.0
 40
1.0
 40
1.0
 10
28.75570963682615
 20
20.18052404002068
 30
0.0
 10
29.39906159758128
 20
20.18629800453108
 30
0.0
 10
30.04244011950696
 20
20.18911768404146
 30
0.0
 10
30.68581855243711
 20
20.1891176840763
 30
0.0
  0
SPLINE
  5
370
330
1F
100
AcDbEntity
  8
0
  6
SLD-Solid
 62
     7
370
    25
100
AcDbSpline
210
0.0
220
0.0
230
1.0
 70
     8
 71
     3
 72
    10
 73
     6
 74
     0
 42
0.00000001
 43
0.00000001
 40
0.0
 40
0.0
 40
0.0
 40
0.0
 40
0.5
 40
0.5
 40
1.0
 40
1.0
 40
1.0
 40
1.0
 10
30.68581855243711
 20
20.18911647946198
 30
0.0
 10
31.00751926265195
 20
20.1891164793678
 30
0.0
 10
31.32921976534241
 20
20.18843210921046
 30
0.0
 10
31.97261366684958
 20
20.18549881863897
 30
0.0
 10
32.29430649988525
 20
20.18316096002908
 30
0.0
 10
32.61599343652864
 20
20.18019795900156
 30
0.0
  0
LINE
  5
371
330
1F
100
AcDbEntity
  8
0
  6
SLD-Solid
 62
     7
370
    25
100
AcDbLine
 10
28.4783185524
 20
10.0141486289
 30
0.0
 11
28.4783185524
 21
10.2841486289
 31
0.0
  0
SPLINE
  5
372
330
1F
100
AcDbEntity
  8
0
  6
SLD-Solid
 62
     7
370
    25
100
AcDbSpline
210
0.0
220
0.0
230
1.0
 70
     8
 71
     3
 72
    28
 73
    24
 74
     0
 42
0.00000001
 43
0.00000001
 40
0.0
 40
0.0
 40
0.0
 40
0.0
 40
0.1249999999999984
 40
0.1249999999999984
 40
0.1874999999999977
 40
0.1874999999999977
 40
0.249999999999997
 40
0.249999999999997
 40
0.3749999999999962
 40
0.3749999999999962
 40
0.4374999999999962
 40
0.4374999999999962
 40
0.4999999999999962
 40
0.4999999999999962
 40
0.7499999999999971
 40
0.7499999999999971
 40
0.874999999999998
 40
0.874999999999998
 40
0.9374999999999989
 40
0.9374999999999989
 40
0.9687499999999994
 40
0.9687499999999994
 40
1.0
 40
1.0
 40
1.0
 40
1.0
 10
32.89331855243712
 20
10.014148628869
 30
0.0
 10
32.89331855243712
 20
9.994280873406058
 30
0.0
 10
32.8907984814425
 20
9.97580544657302
 30
0.0
 10
32.88433596005927
 20
9.949878612841319
 30
0.0
 10
32.88172525527506
 20
9.941536940752993
 30
0.0
 10
32.87569355229849
 20
9.925431074070179
 30
0.0
 10
32.87226444842342
 20
9.917663847604906
 30
0.0
 10
32.86112154203792
 20
9.895637957765523
 30
0.0
 10
32.85250425379424
 20
9.882465812906352
 30
0.0
 10
32.83825486311832
 20
9.864632122724329
 30
0.0
 10
32.83328128075906
 20
9.859011060456346
 30
0.0
 10
32.82293456952085
 20
9.848384575944511
 30
0.0
 10
32.81754232950272
 20
9.843364249300151
 30
0.0
 10
32.78996345002385
 20
9.819990153934679
 30
0.0
 10
32.76598019019022
 20
9.806616488915882
 30
0.0
 10
32.72838125058808
 20
9.793141625463601
 30
0.0
 10
32.71553484974438
 20
9.789765986318136
 30
0.0
 10
32.69603192658479
 20
9.786391382776761
 30
0.0
 10
32.68950855061885
 20
9.785550391701767
 30
0.0
 10
32.67970038231652
 20
9.784709305386771
 30
0.0
 10
32.67642713373825
 20
9.784499072614041
 30
0.0
 10
32.66987459538453
 20
9.784218700645857
 30
0.0
 10
32.66656904678482
 20
9.784148628869003
 30
0.0
 10
32.66331855243711
 20
9.784148628869003
 30
0.0
  0
LINE
  5
373
330
1F
100
AcDbEntity
  8
0
  6
SLD-Solid
 62
     7
370
    25
100
AcDbLine
 10
32.6633185524
 20
9.7841486289
 30
0.0
 11
28.7083185524
 21
9.7841486289
 31
0.0
  0
SPLINE
  5
374
330
1F
100
AcDbEntity
  8
0
  6
SLD-Solid
 62
     7
370
    25
100
AcDbSpline
210
0.0
220
0.0
230
1.0
 70
     8
 71
     3
 72
    28
 73
    24
 74
     0
 42
0.00000001
 43
0.00000001
 40
0.0
 40
0.0
 40
0.0
 40
0.0
 40
0.1249999999999984
 40
0.1249999999999984
 40
0.1874999999999977
 40
0.1874999999999977
 40
0.249999999999997
 40
0.249999999999997
 40
0.3749999999999962
 40
0.3749999999999962
 40
0.4374999999999962
 40
0.4374999999999962
 40
0.4999999999999962
 40
0.4999999999999962
 40
0.7499999999999971
 40
0.7499999999999971
 40
0.874999999999998
 40
0.874999999999998
 40
0.9374999999999989
 40
0.9374999999999989
 40
0.9687499999999994
 40
0.9687499999999994
 40
1.0
 40
1.0
 40
1.0
 40
1.0
 10
28.47831855243711
 20
10.014148628869
 30
0.0
 10
28.47831855243711
 20
9.994280873406058
 30
0.0
 10
28.48083862343172
 20
9.97580544657302
 30
0.0
 10
28.48730114481495
 20
9.949878612841319
 30
0.0
 10
28.48991184959916
 20
9.941536940752993
 30
0.0
 10
28.49594355257574
 20
9.925431074070179
 30
0.0
 10
28.4993726564508
 20
9.917663847604906
 30
0.0
 10
28.51051556283631
 20
9.895637957765523
 30
0.0
 10
28.51913285107998
 20
9.882465812906352
 30
0.0
 10
28.53338224175591
 20
9.864632122724329
 30
0.0
 10
28.53835582411516
 20
9.859011060456346
 30
0.0
 10
28.54870253535337
 20
9.848384575944511
 30
0.0
 10
28.55409477537151
 20
9.843364249300151
 30
0.0
 10
28.58167365485038
 20
9.819990153934679
 30
0.0
 10
28.605656914684
 20
9.806616488915882
 30
0.0
 10
28.64325585428615
 20
9.793141625463601
 30
0.0
 10
28.65610225512984
 20
9.789765986318136
 30
0.0
 10
28.67560517828943
 20
9.786391382776761
 30
0.0
 10
28.68212855425537
 20
9.785550391701767
 30
0.0
 10
28.6919367225577
 20
9.784709305386771
 30
0.0
 10
28.69520997113598
 20
9.784499072614041
 30
0.0
 10
28.70176250948969
 20
9.784218700645857
 30
0.0
 10
28.7050680580894
 20
9.784148628869003
 30
0.0
 10
28.70831855243711
 20
9.784148628869003
 30
0.0
  0
LINE
  5
375
330
1F
100
AcDbEntity
  8
0
  6
SLD-Solid
 62
     7
370
    25
100
AcDbLine
 10
32.8933185524
 20
10.2841486289
 30
0.0
 11
32.8933185524
 21
10.0141486289
 31
0.0
  0
DIMENSION
  5
376
330
1F
100
AcDbEntity
  8
DIMS
100
AcDbDimension
  2
_D_2
 10
26.2469281565
 20
14.5104747158
 30
0.0
 11
26.2469281565
 21
16.7001123669
 31
0.0
 70
   160
  1
<>
 71
     2
 42
-1.0
  3
SLDDIMSTYLE1
100
AcDbAlignedDimension
 13
29.6288185524
 23
19.8416176841
 33
0.0
 14
29.2753185524
 24
14.5104747158
 34
0.0
 50
90.0
100
AcDbRotatedDimension
  0
DIMENSION
  5
385
330
1F
100
AcDbEntity
  8
DIMS
100
AcDbDimension
  2
_D_3
 10
31.7428185524
 20
21.1185779657
 30
0.0
 11
30.7523097325
 21
21.1185779657
 31
0.0
 70
   160
  1
<>
 71
     2
 42
-1.0
  3
SLDDIMSTYLE1
100
AcDbAlignedDimension
 13
29.6288185524
 23
19.8416176841
 33
0.0
 14
31.7428185524
 24
19.8416176841
 34
0.0
 50
0.0
100
AcDbRotatedDimension
  0
DIMENSION
  5
394
330
1F
100
AcDbEntity
  8
DIMS
100
AcDbDimension
  2
_D_4
 10
32.0963185524
 20
15.4385471281
 30
0.0
 11
30.7523097325
 21
15.4385471281
 31
0.0
 70
   160
  1
<>
 71
     2
 42
-1.0
  3
SLDDIMSTYLE1
100
AcDbAlignedDimension
 13
29.2753185524
 23
14.5104747158
 33
0.0
 14
32.0963185524
 24
14.5104747158
 34
0.0
 50
0.0
100
AcDbRotatedDimension
  0
DIMENSION
  5
3A3
330
1F
100
AcDbEntity
  8
DIMS
100
AcDbDimension
  2
_D_5
 10
26.2469281565
 20
14.5104747158
 30
0.0
 11
26.2469281565
 21
12.6044799699
 31
0.0
 70
   160
  1
<>
 71
     2
 42
-1.0
  3
SLDDIMSTYLE1
100
AcDbAlignedDimension
 13
28.7083185524
 23
9.7841486289
 33
0.0
 14
29.2753185524
 24
14.5104747158
 34
0.0
 50
90.0
100
AcDbRotatedDimension
  0
MTEXT
  5
3B2
330
1F
100
AcDbEntity
  8
NOTES
100
AcDbMText
 10
22.13534297
 20
21.4370204626
 30
0.0
 40
0.5
 41
0.0
 71
     1
 72
     1
  1
mounting hole (4)
  7
SLDTEXTSTYLE0
 73
     1
 44
1.0
  0
LEADER
  5
3B3
330
1F
100
AcDbEntity
  8
NOTES
100
AcDbLeader
  3
SLDDIMSTYLE2
 76
     3
 10
29.588344102
 20
19.8956368368
 30
0.0
 10
28.378374533
 20
21.1905239792
 30
0.0
 10
27.878374533
 20
21.1905239792
 30
0.0
  0
SPLINE
  5
3B4
330
1F
100
AcDbEntity
  8
0
  6
SLD-Solid
 62
     7
370
    25
100
AcDbSpline
210
0.0
220
0.0
230
1.0
 70
     8
 71
     3
 72
     8
 73
     4
 74
     0
 42
0.00000001
 43
0.00000001
 40
0.0
 40
0.0
 40
0.0
 40
0.0
 40
0.7497712194666656
 40
0.7497712194666656
 40
0.7497712194666656
 40
0.7497712194666656
 10
9.539446326005647
 20
21.88972039102376
 30
0.0
 10
8.875949553499382
 20
21.88972039100535
 30
0.0
 10
8.212487420314368
 20
21.95135365437958
 30
0.0
 10
7.560334621054797
 20
22.07344797228275
 30
0.0
  0
SPLINE
  5
3B5
330
1F
100
AcDbEntity
  8
0
  6
SLD-Solid
 62
     7
370
    25
100
AcDbSpline
210
0.0
220
0.0
230
1.0
 70
    24
 71
     3
 72
    10
 73
     6
 74
     0
 42
0.00000001
 43
0.00000001
 40
0.0
 40
0.0
 40
0.0
 40
0.0
 40
0.5
 40
0.5
 40
1.0
 40
1.0
 40
1.0
 40
1.0
 10
9.539446326005647
 20
26.11877684575148
 30
0.0
 10
9.217745615790813
 20
26.11877684575148
 30
0.0
 10
8.89604511310035
 20
26.11877684575147
 30
0.0
 10
8.252651211593179
 20
26.11877684575147
 30
0.0
 10
7.930958378557511
 20
26.11877684575148
 30
0.0
 10
7.609271441914115
 20
26.11877684575148
 30
0.0
  0
SPLINE
  5
3B6
330
1F
100
AcDbEntity
  8
0
  6
SLD-Solid
 62
     7
370
    25
100
AcDbSpline
210
0.0
220
0.0
230
1.0
 70
    24
 71
     3
 72
     8
 73
     4
 74
     0
 42
0.00000001
 43
0.00000001
 40
0.0
 40
0.0
 40
0.0
 40
0.0
 40
1.0
 40
1.0
 40
1.0
 40
1.0
 10
11.46955524161661
 20
26.11877684575147
 30
0.0
 10
10.82620328086148
 20
26.11877684575147
 30
0.0
 10
10.1828247589358
 20
26.11877684575148
 30
0.0
 10
9.539446326005647
 20
26.11877684575148
 30
0.0
  0
SPLINE
  5
3B7
330
1F
100
AcDbEntity
  8
0
  6
SLD-Solid
 62
     7
370
    25
100
AcDbSpline
210
0.0
220
0.0
230
1.0
 70
     8
 71
     3
 72
     8
 73
     4
 74
     0
 42
0.00000001
 43
0.00000001
 40
0.0
 40
0.0
 40
0.0
 40
0.0
 40
1.0
 40
1.0
 40
1.0
 40
1.0
 10
11.4631263077152
 20
22.06323740278638
 30
0.0
 10
11.48109197524019
 20
22.06650371301374
 30
0.0
 10
11.49948466781532
 20
22.07250239864156
 30
0.0
 10
11.51816546291293
 20
22.08105398767326
 30
0.0
  0
SPLINE
  5
3B8
330
1F
100
AcDbEntity
  8
0
  6
SLD-Solid
 62
     7
370
    25
100
AcDbSpline
210
0.0
220
0.0
230
1.0
 70
     8
 71
     3
 72
    10
 73
     6
 74
     0
 42
0.00000001
 43
0.00000001
 40
0.0
 40
0.0
 40
0.0
 40
0.0
 40
0.5
 40
0.5
 40
0.7285367051196935
 40
0.7285367051196935
 40
0.7285367051196935
 40
0.7285367051196935
 10
9.539446326005647
 20
21.88972039102376
 30
0.0
 10
9.9819124778661
 20
21.88972039101149
 30
0.0
 10
10.424363225076
 20
21.91712967184966
 30
0.0
 10
11.06415196867029
 20
21.99649780466809
 30
0.0
 10
11.26414591057891
 20
22.02706121235941
 30
0.0
 10
11.46311972614198
 20
22.06323620620284
 30
0.0
  0
SPLINE
  5
3B9
330
1F
100
AcDbEntity
  8
0
  6
SLD-Solid
 62
     7
370
    25
100
AcDbSpline
210
0.0
220
0.0
230
1.0
 70
    24
 71
     3
 72
     8
 73
     4
 74
     0
 42
0.00000001
 43
0.00000001
 40
0.0
 40
0.0
 40
0.0
 40
0.0
 40
1.0
 40
1.0
 40
1.0
 40
1.0
 10
11.46955524161661
 20
26.11877684575148
 30
0.0
 10
11.48071083372999
 20
26.11877684575148
 30
0.0
 10
11.49174712958267
 20
26.11877684575147
 30
0.0
 10
11.5026687183985
 20
26.11877684575147
 30
0.0
  0
SPLINE
  5
3BA
330
1F
100
AcDbEntity
  8
0
  6
SLD-Solid
 62
     7
370
    25
100
AcDbSpline
210
0.0
220
0.0
230
1.0
 70
     8
 71
     3
 72
    14
 73
    10
 74
     0
 42
0.00000001
 43
0.00000001
 40
0.0
 40
0.0
 40
0.0
 40
0.0
 40
0.25
 40
0.25
 40
0.5
 40
0.5
 40
0.75
 40
0.75
 40
1.0
 40
1.0
 40
1.0
 40
1.0
 10
7.560338831388218
 20
22.07347045927693
 30
0.0
 10
7.52856888478828
 20
22.07941837523683
 30
0.0
 10
7.49784697055055
 20
22.09092228333341
 30
0.0
 10
7.442121066697386
 20
22.12368586806804
 30
0.0
 10
7.417130378122727
 20
22.14493772446906
 30
0.0
 10
7.375839723414556
 20
22.19467614702835
 30
0.0
 10
7.359549612817591
 20
22.22315084127892
 30
0.0
 10
7.33760029460626
 20
22.28395426449648
 30
0.0
 10
7.331946326005647
 20
22.31626848048555
 30
0.0
 10
7.331946326005647
 20
22.34859041129466
 30
0.0
  0
SPLINE
  5
3BB
330
1F
100
AcDbEntity
  8
0
  6
SLD-Solid
 62
     7
370
    25
100
AcDbSpline
210
0.0
220
0.0
230
1.0
 70
    24
 71
     3
 72
     8
 73
     4
 74
     0
 42
0.00000001
 43
0.00000001
 40
0.0
 40
0.0
 40
0.0
 40
0.0
 40
1.0
 40
1.0
 40
1.0
 40
1.0
 10
7.575594465804969
 20
26.11877684575147
 30
0.0
 10
7.586742283400506
 20
26.11877684575147
 30
0.0
 10
7.597967513550757
 20
26.11877684575147
 30
0.0
 10
7.609271441914117
 20
26.11877684575147
 30
0.0
  0
SPLINE
  5
3BC
330
1F
100
AcDbEntity
  8
0
  6
SLD-Solid
 62
     7
370
    25
100
AcDbSpline
210
0.0
220
0.0
230
1.0
 70
    24
 71
     3
 72
     8
 73
     4
 74
     0
 42
0.00000001
 43
0.00000001
 40
0.0
 40
0.0
 40
0.0
 40
0.0
 40
1.0
 40
1.0
 40
1.0
 40
1.0
 10
11.5026687183985
 20
26.11877684575147
 30
0.0
 10
11.50478117625678
 20
26.11877684575147
 30
0.0
 10
11.50690231413484
 20
26.11877684575147
 30
0.0
 10
11.50903213254512
 20
26.11877684575147
 30
0.0
  0
LINE
  5
3BD
330
1F
100
AcDbEntity
  8
0
  6
SLD-Solid
 62
     7
370
    25
100
AcDbLine
 10
11.746946326
 20
26.1187768458
 30
0.0
 11
11.746946326
 21
23.0809430014
 31
0.0
  0
LINE
  5
3BE
330
1F
100
AcDbEntity
  8
0
  6
SLD-Solid
 62
     7
370
    25
100
AcDbLine
 10
11.516946326
 20
26.1187768458
 30
0.0
 11
11.746946326
 21
26.1187768458
 31
0.0
  0
LINE
  5
3BF
330
1F
100
AcDbEntity
  8
0
  6
SLD-Solid
 62
     7
370
    25
100
AcDbLine
 10
7.331946326
 20
23.0809430014
 30
0.0
 11
7.331946326
 21
26.1187768458
 31
0.0
  0
LINE
  5
3C0
330
1F
100
AcDbEntity
  8
0
  6
SLD-Solid
 62
     7
370
    25
100
AcDbLine
 10
7.331946326
 20
26.1187768458
 30
0.0
 11
7.561946326
 21
26.1187768458
 31
0.0
  0
LINE
  5
3C1
330
1F
100
AcDbEntity
  8
0
  6
SLD-Solid
 62
     7
370
    25
100
AcDbLine
 10
11.516946326
 20
26.1187768458
 30
0.0
 11
11.5090321325
 21
26.1187768458
 31
0.0
  0
LINE
  5
3C2
330
1F
100
AcDbEntity
  8
0
  6
SLD-Solid
 62
     7
370
    25
100
AcDbLine
 10
7.5755944658
 20
26.1187768458
 30
0.0
 11
7.561946326
 21
26.1187768458
 31
0.0
  0
LINE
  5
3C3
330
1F
100
AcDbEntity
  8
0
  6
SLD-Solid
 62
     7
370
    25
100
AcDbLine
 10
7.331946326
 20
22.3507087441
 30
0.0
 11
7.331946326
 21
23.0809430014
 31
0.0
  0
LINE
  5
3C4
330
1F
100
AcDbEntity
  8
0
  6
SLD-Solid
 62
     7
370
    25
100
AcDbLine
 10
11.746946326
 20
23.0809430014
 30
0.0
 11
11.746946326
 21
22.3487768458
 31
0.0
  0
LINE
  5
3C5
330
1F
100
AcDbEntity
  8
0
  6
SLD-Solid
 62
     7
370
    25
100
AcDbLine
 10
11.5185534434
 20
22.0734471134
 30
0.0
 11
11.4799931366
 21
22.0671613777
 31
0.0
  0
LWPOLYLINE
  5
3C6
330
1F
100
AcDbEntity
  8
0
  6
SLD-Solid
 62
     7
370
    25
100
AcDbPolyline
 90
        5
 70
   128
 43
0.0
 10
9.9382694515
 20
21.897946431
 10
9.8746370292
 20
21.8949598139
 10
9.5394485362
 20
21.889720391
 10
9.539446326
 20
21.889720391
 10
9.539446326
 20
21.889720391
  0
ARC
  5
3C7
330
1F
100
AcDbEntity
  8
0
  6
SLD-Solid
 62
     7
370
    25
100
AcDbCircle
 10
11.467046326
 20
22.3485671361
 30
0.0
 40
0.279900000000001
100
AcDbArc
 50
280.6039848379
 51
0.0
  0
ARC
  5
3C8
330
1F
100
AcDbEntity
  8
0
  6
SLD-Solid
 62
     8
370
    25
100
AcDbCircle
 10
9.2341412398
 20
21.903534436
 30
0.0
 40
0.0094877206933466
100
AcDbArc
 50
272.484885194
 51
317.6918709736
  0
DIMENSION
  5
3C9
330
1F
100
AcDbEntity
  8
DIMS
100
AcDbDimension
  2
_D_6
 10
7.331946326
 20
21.2344873492
 30
0.0
 11
6.1737557635
 21
21.2344873492
 31
0.0
 70
   160
  1
<>
 71
     2
 42
-1.0
  3
SLDDIMSTYLE1
100
AcDbAlignedDimension
 13
11.746946326
 23
23.0809430014
 33
0.0
 14
7.331946326
 24
23.0809430014
 34
0.0
100
AcDbRotatedDimension
  0
DIMENSION
  5
3D8
330
1F
100
AcDbEntity
  8
DIMS
100
AcDbDimension
  2
_D_7
 10
12.7972343597
 20
21.889720391
 30
0.0
 11
12.7972343597
 21
24.0321674218
 31
0.0
 70
   160
  1
<>
 71
     2
 42
-1.0
  3
SLDDIMSTYLE1
100
AcDbAlignedDimension
 13
11.5090321325
 23
26.1187768458
 33
0.0
 14
9.539446326
 24
21.889720391
 34
0.0
 50
90.0
100
AcDbRotatedDimension
  0
ENDSEC
  0
SECTION
  2
OBJECTS
  0
DICTIONARY
  5
C
330
0
100
AcDbDictionary
281
     1
  3
ACAD_GROUP
350
D
  3
ACAD_LAYOUT
350
1A
  3
ACAD_MLINESTYLE
350
17
  3
ACAD_PLOTSETTINGS
350
19
  3
ACAD_PLOTSTYLENAME
350
E
  3
ACAD_SCALELIST
350
47
  3
DWGPROPS
350
3E7
  0
DICTIONARY
  5
D
102
{ACAD_REACTORS
330
C
102
}
330
C
100
AcDbDictionary
281
     1
  0
DICTIONARY
  5
1A
102
{ACAD_REACTORS
330
C
102
}
330
C
100
AcDbDictionary
281
     1
  3
Layout1
350
1E
  3
Layout2
350
26
  3
Model
350
22
  0
DICTIONARY
  5
17
102
{ACAD_REACTORS
330
C
102
}
330
C
100
AcDbDictionary
281
     1
  3
Standard
350
18
  0
DICTIONARY
  5
19
102
{ACAD_REACTORS
330
C
102
}
330
C
100
AcDbDictionary
281
     1
  0
ACDBDICTIONARYWDFLT
  5
E
102
{ACAD_REACTORS
330
C
102
}
330
C
100
AcDbDictionary
281
     1
  3
Normal
350
F
100
AcDbDictionaryWithDefault
340
F
  0
DICTIONARY
  5
47
102
{ACAD_REACTORS
330
C
102
}
330
C
100
AcDbDictionary
281
     1
  3
A0
350
48
  3
A1
350
49
  3
A2
350
4A
  3
A3
350
4B
  3
A4
350
4C
  3
A5
350
4D
  3
A6
350
4E
  3
A7
350
4F
  3
A8
350
50
  3
A9
350
51
  3
B0
350
52
  3
B1
350
53
  3
B2
350
54
  3
B3
350
55
  3
B4
350
56
  3
B5
350
57
  3
B6
350
58
  3
B7
350
59
  3
B8
350
5A
  3
B9
350
5B
  3
C0
350
5C
  3
C1
350
5D
  3
C2
350
5E
  3
C3
350
5F
  3
C4
350
60
  3
C5
350
61
  3
C6
350
62
  3
C7
350
63
  3
C8
350
64
  3
C9
350
65
  3
D0
350
66
  3
D1
350
67
  3
D2
350
68
  0
XRECORD
  5
3E7
102
{ACAD_REACTORS
330
C
102
}
330
C
100
AcDbXrecord
280
     1
  1
DWGPROPS COOKIE
  2

  3

  4

  6

  7

  8
carl
  9

300
=
301
=
302
=
303
=
304
=
305
=
306
=
307
=
308
=
309
=
 40
0.0
 41
2459502.630619815
 42
2459502.630625151
  1

 90
        0
  0
LAYOUT
  5
1E
102
{ACAD_REACTORS
330
1A
102
}
330
1A
100
AcDbPlotSettings
  1

  2
none_device
  4

  6

 40
0.0
 41
0.0
 42
0.0
 43
0.0
 44
0.0
 45
0.0
 46
0.0
 47
0.0
 48
0.0
 49
0.0
140
0.0
141
0.0
142
1.0
143
1.0
 70
   688
 72
     0
 73
     0
 74
     5
  7

 75
    16
147
1.0
148
0.0
149
0.0
100
AcDbLayout
  1
Layout1
 70
     1
 71
     1
 10
0.0
 20
0.0
 11
12.0
 21
9.0
 12
0.0
 22
0.0
 32
0.0
 14
1.0000000000E+20
 24
1.0000000000E+20
 34
1.0000000000E+20
 15
-1.0000000000E+20
 25
-1.0000000000E+20
 35
-1.0000000000E+20
146
0.0
 13
0.0
 23
0.0
 33
0.0
 16
1.0
 26
0.0
 36
0.0
 17
0.0
 27
1.0
 37
0.0
 76
     0
330
1B
  0
LAYOUT
  5
26
102
{ACAD_REACTORS
330
1A
102
}
330
1A
100
AcDbPlotSettings
  1

  2
none_device
  4

  6

 40
0.0
 41
0.0
 42
0.0
 43
0.0
 44
0.0
 45
0.0
 46
0.0
 47
0.0
 48
0.0
 49
0.0
140
0.0
141
0.0
142
1.0
143
1.0
 70
   688
 72
     0
 73
     0
 74
     5
  7

 75
    16
147
1.0
148
0.0
149
0.0
100
AcDbLayout
  1
Layout2
 70
     1
 71
     2
 10
0.0
 20
0.0
 11
0.0
 21
0.0
 12
0.0
 22
0.0
 32
0.0
 14
0.0
 24
0.0
 34
0.0
 15
0.0
 25
0.0
 35
0.0
146
0.0
 13
0.0
 23
0.0
 33
0.0
 16
1.0
 26
0.0
 36
0.0
 17
0.0
 27
1.0
 37
0.0
 76
     0
330
23
  0
LAYOUT
  5
22
102
{ACAD_REACTORS
330
1A
102
}
330
1A
100
AcDbPlotSettings
  1

  2
none_device
  4
Letter_(8.50_x_11.00_Inches)
  6

 40
6.35
 41
6.35
 42
6.35000508
 43
6.35000508
 44
215.9
 45
279.4
 46
0.0
 47
0.0
 48
0.0
 49
0.0
140
0.0
141
0.0
142
1.0
143
1.0
 70
  1712
 72
     0
 73
     0
 74
     0
  7

 75
     0
147
1.0
148
0.0
149
0.0
100
AcDbLayout
  1
Model
 70
     1
 71
     0
 10
0.0
 20
0.0
 11
48.0
 21
36.0
 12
0.0
 22
0.0
 32
0.0
 14
0.0
 24
0.0
 34
0.0
 15
48.0
 25
36.0
 35
0.0
146
0.0
 13
0.0
 23
0.0
 33
0.0
 16
1.0
 26
0.0
 36
0.0
 17
0.0
 27
1.0
 37
0.0
 76
     0
330
1F
331
29
  0
MLINESTYLE
  5
18
102
{ACAD_REACTORS
330
17
102
}
330
17
100
AcDbMlineStyle
  2
Standard
 70
     0
  3

 62
   256
 51
90.0
 52
90.0
 71
     2
 49
0.5
 62
   256
  6
BYLAYER
 49
-0.5
 62
   256
  6
BYLAYER
  0
ACDBPLACEHOLDER
  5
F
102
{ACAD_REACTORS
330
E
102
}
330
E
  0
SCALE
  5
48
102
{ACAD_REACTORS
330
47
102
}
330
47
100
AcDbScale
 70
     0
300
1:1
140
1.0
141
1.0
290
     1
  0
SCALE
  5
49
102
{ACAD_REACTORS
330
47
102
}
330
47
100
AcDbScale
 70
     0
300
1:2
140
1.0
141
2.0
290
     0
  0
SCALE
  5
4A
102
{ACAD_REACTORS
330
47
102
}
330
47
100
AcDbScale
 70
     0
300
1:4
140
1.0
141
4.0
290
     0
  0
SCALE
  5
4B
102
{ACAD_REACTORS
330
47
102
}
330
47
100
AcDbScale
 70
     0
300
1:5
140
1.0
141
5.0
290
     0
  0
SCALE
  5
4C
102
{ACAD_REACTORS
330
47
102
}
330
47
100
AcDbScale
 70
     0
300
1:8
140
1.0
141
8.0
290
     0
  0
SCALE
  5
4D
102
{ACAD_REACTORS
330
47
102
}
330
47
100
AcDbScale
 70
     0
300
1:10
140
1.0
141
10.0
290
     0
  0
SCALE
  5
4E
102
{ACAD_REACTORS
330
47
102
}
330
47
100
AcDbScale
 70
     0
300
1:16
140
1.0
141
16.0
290
     0
  0
SCALE
  5
4F
102
{ACAD_REACTORS
330
47
102
}
330
47
100
AcDbScale
 70
     0
300
1:20
140
1.0
141
20.0
290
     0
  0
SCALE
  5
50
102
{ACAD_REACTORS
330
47
102
}
330
47
100
AcDbScale
 70
     0
300
1:30
140
1.0
141
30.0
290
     0
  0
SCALE
  5
51
102
{ACAD_REACTORS
330
47
102
}
330
47
100
AcDbScale
 70
     0
300
1:40
140
1.0
141
40.0
290
     0
  0
SCALE
  5
52
102
{ACAD_REACTORS
330
47
102
}
330
47
100
AcDbScale
 70
     0
300
1:50
140
1.0
141
50.0
290
     0
  0
SCALE
  5
53
102
{ACAD_REACTORS
330
47
102
}
330
47
100
AcDbScale
 70
     0
300
1:100
140
1.0
141
100.0
290
     0
  0
SCALE
  5
54
102
{ACAD_REACTORS
330
47
102
}
330
47
100
AcDbScale
 70
     0
300
2:1
140
2.0
141
1.0
290
     0
  0
SCALE
  5
55
102
{ACAD_REACTORS
330
47
102
}
330
47
100
AcDbScale
 70
     0
300
4:1
140
4.0
141
1.0
290
     0
  0
SCALE
  5
56
102
{ACAD_REACTORS
330
47
102
}
330
47
100
AcDbScale
 70
     0
300
8:1
140
8.0
141
1.0
290
     0
  0
SCALE
  5
57
102
{ACAD_REACTORS
330
47
102
}
330
47
100
AcDbScale
 70
     0
300
10:1
140
10.0
141
1.0
290
     0
  0
SCALE
  5
58
102
{ACAD_REACTORS
330
47
102
}
330
47
100
AcDbScale
 70
     0
300
100:1
140
100.0
141
1.0
290
     0
  0
SCALE
  5
59
102
{ACAD_REACTORS
330
47
102
}
330
47
100
AcDbScale
 70
     0
300
1/128" = 1'-0"
140
0.0078125
141
12.0
290
     0
  0
SCALE
  5
5A
102
{ACAD_REACTORS
330
47
102
}
330
47
100
AcDbScale
 70
     0
300
1/64" = 1'-0"
140
0.015625
141
12.0
290
     0
  0
SCALE
  5
5B
102
{ACAD_REACTORS
330
47
102
}
330
47
100
AcDbScale
 70
     0
300
1/32" = 1'-0"
140
0.03125
141
12.0
290
     0
  0
SCALE
  5
5C
102
{ACAD_REACTORS
330
47
102
}
330
47
100
AcDbScale
 70
     0
300
1/16" = 1'-0"
140
0.0625
141
12.0
290
     0
  0
SCALE
  5
5D
102
{ACAD_REACTORS
330
47
102
}
330
47
100
AcDbScale
 70
     0
300
3/32" = 1'-0"
140
0.09375
141
12.0
290
     0
  0
SCALE
  5
5E
102
{ACAD_REACTORS
330
47
102
}
330
47
100
AcDbScale
 70
     0
300
1/8" = 1'-0"
140
0.125
141
12.0
290
     0
  0
SCALE
  5
5F
102
{ACAD_REACTORS
330
47
102
}
330
47
100
AcDbScale
 70
     0
300
3/16" = 1'-0"
140
0.1875
141
12.0
290
     0
  0
SCALE
  5
60
102
{ACAD_REACTORS
330
47
102
}
330
47
100
AcDbScale
 70
     0
300
1/4" = 1'-0"
140
0.25
141
12.0
290
     0
  0
SCALE
  5
61
102
{ACAD_REACTORS
330
47
102
}
330
47
100
AcDbScale
 70
     0
300
3/8" = 1'-0"
140
0.375
141
12.0
290
     0
  0
SCALE
  5
62
102
{ACAD_REACTORS
330
47
102
}
330
47
100
AcDbScale
 70
     0
300
1/2" = 1'-0"
140
0.5
141
12.0
290
     0
  0
SCALE
  5
63
102
{ACAD_REACTORS
330
47
102
}
330
47
100
AcDbScale
 70
     0
300
3/4" = 1'-0"
140
0.75
141
12.0
290
     0
  0
SCALE
  5
64
102
{ACAD_REACTORS
330
47
102
}
330
47
100
AcDbScale
 70
     0
300
1" = 1'-0"
140
1.0
141
12.0
290
     0
  0
SCALE
  5
65
102
{ACAD_REACTORS
330
47
102
}
330
47
100
AcDbScale
 70
     0
300
1-1/2" = 1'-0"
140
1.5
141
12.0
290
     0
  0
SCALE
  5
66
102
{ACAD_REACTORS
330
47
102
}
330
47
100
AcDbScale
 70
     0
300
3" = 1'-0"
140
3.0
141
12.0
290
     0
  0
SCALE
  5
67
102
{ACAD_REACTORS
330
47
102
}
330
47
100
AcDbScale
 70
     0
300
6" = 1'-0"
140
6.0
141
12.0
290
     0
  0
SCALE
  5
68
102
{ACAD_REACTORS
330
47
102
}
330
47
100
AcDbScale
 70
     0
300
1'-0" = 1'-0"
140
12.0
141
12.0
290
     0
  0
ENDSEC
  0
EOF
