  0
SECTION
  2
HEADER
  9
$ACADVER
  1
AC1018
  9
$ACADMAINTVER
 70
     0
  9
$DWGCODEPAGE
  3
ANSI_1252
  9
$LASTSAVEDBY
  1
carl
  9
$INSBASE
 10
0.0
 20
0.0
 30
0.0
  9
$EXTMIN
 10
0.0
 20
0.0
 30
0.0
  9
$EXTMAX
 10
48.0
 20
36.0
 30
0.0
  9
$LIMMIN
 10
0.0
 20
0.0
  9
$LIMMAX
 10
48.0
 20
36.0
  9
$ORTHOMODE
 70
     0
  9
$REGENMODE
 70
     1
  9
$FILLMODE
 70
     1
  9
$QTEXTMODE
 70
     0
  9
$MIRRTEXT
 70
     1
  9
$LTSCALE
 40
1.0
  9
$ATTMODE
 70
     1
  9
$TEXTSIZE
 40
0.5
  9
$TRACEWID
 40
0.05
  9
$TEXTSTYLE
  7
Standard
  9
$CLAYER
  8
0
  9
$CELTYPE
  6
ByLayer
  9
$CECOLOR
 62
   256
  9
$CELTSCALE
 40
1.0
  9
$DISPSILH
 70
     0
  9
$DIMSCALE
 40
1.0
  9
$DIMASZ
 40
0.3
  9
$DIMEXO
 40
0.1666666667
  9
$DIMDLI
 40
0.38
  9
$DIMRND
 40
0.0
  9
$DIMDLE
 40
0.0
  9
$DIMEXE
 40
0.375
  9
$DIMTP
 40
0.0
  9
$DIMTM
 40
0.0
  9
$DIMTXT
 40
0.5
  9
$DIMCEN
 40
0.09
  9
$DIMTSZ
 40
0.0
  9
$DIMTOL
 70
     0
  9
$DIMLIM
 70
     0
  9
$DIMTIH
 70
     1
  9
$DIMTOH
 70
     1
  9
$DIMSE1
 70
     0
  9
$DIMSE2
 70
     0
  9
$DIMTAD
 70
     0
  9
$DIMZIN
 70
     1
  9
$DIMBLK
  1

  9
$DIMASO
 70
     1
  9
$DIMSHO
 70
     1
  9
$DIMPOST
  1

  9
$DIMAPOST
  1

  9
$DIMALT
 70
     0
  9
$DIMALTD
 70
     2
  9
$DIMALTF
 40
25.4
  9
$DIMLFAC
 40
1.0
  9
$DIMTOFL
 70
     0
  9
$DIMTVP
 40
0.0
  9
$DIMTIX
 70
     0
  9
$DIMSOXD
 70
     0
  9
$DIMSAH
 70
     0
  9
$DIMBLK1
  1

  9
$DIMBLK2
  1

  9
$DIMSTYLE
  2
Standard
  9
$DIMCLRD
 70
     0
  9
$DIMCLRE
 70
     0
  9
$DIMCLRT
 70
     0
  9
$DIMTFAC
 40
1.0
  9
$DIMGAP
 40
0.125
  9
$DIMJUST
 70
     0
  9
$DIMSD1
 70
     0
  9
$DIMSD2
 70
     0
  9
$DIMTOLJ
 70
     1
  9
$DIMTZIN
 70
     1
  9
$DIMALTZ
 70
     0
  9
$DIMALTTZ
 70
     0
  9
$DIMUPT
 70
     0
  9
$DIMDEC
 70
     4
  9
$DIMTDEC
 70
     4
  9
$DIMALTU
 70
     2
  9
$DIMALTTD
 70
     2
  9
$DIMTXSTY
  7
Standard
  9
$DIMAUNIT
 70
     0
  9
$DIMADEC
 70
     2
  9
$DIMALTRND
 40
0.0
  9
$DIMAZIN
 70
     0
  9
$DIMDSEP
 70
    46
  9
$DIMATFIT
 70
     3
  9
$DIMFRAC
 70
     0
  9
$DIMLDRBLK
  1

  9
$DIMLUNIT
 70
     2
  9
$DIMLWD
 70
    -2
  9
$DIMLWE
 70
    -2
  9
$DIMTMOVE
 70
     0
  9
$LUNITS
 70
     2
  9
$LUPREC
 70
     4
  9
$SKETCHINC
 40
0.1
  9
$FILLETRAD
 40
0.5
  9
$AUNITS
 70
     0
  9
$AUPREC
 70
     2
  9
$MENU
  1
.
  9
$ELEVATION
 40
0.0
  9
$PELEVATION
 40
0.0
  9
$THICKNESS
 40
0.0
  9
$LIMCHECK
 70
     0
  9
$CHAMFERA
 40
0.0
  9
$CHAMFERB
 40
0.0
  9
$CHAMFERC
 40
0.0
  9
$CHAMFERD
 40
0.0
  9
$SKPOLY
 70
     0
  9
$TDCREATE
 40
2460430.654441713
  9
$TDUCREATE
 40
2460430.821108379
  9
$TDUPDATE
 40
2460430.654447188
  9
$TDUUPDATE
 40
2460430.821113854
  9
$TDINDWG
 40
0.0000000116
  9
$TDUSRTIMER
 40
0.0000000116
  9
$USRTIMER
 70
     1
  9
$ANGBASE
 50
0.0
  9
$ANGDIR
 70
     0
  9
$PDMODE
 70
     0
  9
$PDSIZE
 40
-1.0
  9
$PLINEWID
 40
0.0
  9
$SPLFRAME
 70
     0
  9
$SPLINETYPE
 70
     6
  9
$SPLINESEGS
 70
     8
  9
$HANDSEED
  5
490
  9
$SURFTAB1
 70
     6
  9
$SURFTAB2
 70
     6
  9
$SURFTYPE
 70
     6
  9
$SURFU
 70
     6
  9
$SURFV
 70
     6
  9
$UCSBASE
  2

  9
$UCSNAME
  2

  9
$UCSORG
 10
0.0
 20
0.0
 30
0.0
  9
$UCSXDIR
 10
1.0
 20
0.0
 30
0.0
  9
$UCSYDIR
 10
0.0
 20
1.0
 30
0.0
  9
$UCSORTHOREF
  2

  9
$UCSORTHOVIEW
 70
     0
  9
$UCSORGTOP
 10
0.0
 20
0.0
 30
0.0
  9
$UCSORGBOTTOM
 10
0.0
 20
0.0
 30
0.0
  9
$UCSORGLEFT
 10
0.0
 20
0.0
 30
0.0
  9
$UCSORGRIGHT
 10
0.0
 20
0.0
 30
0.0
  9
$UCSORGFRONT
 10
0.0
 20
0.0
 30
0.0
  9
$UCSORGBACK
 10
0.0
 20
0.0
 30
0.0
  9
$PUCSBASE
  2

  9
$PUCSNAME
  2

  9
$PUCSORG
 10
0.0
 20
0.0
 30
0.0
  9
$PUCSXDIR
 10
1.0
 20
0.0
 30
0.0
  9
$PUCSYDIR
 10
0.0
 20
1.0
 30
0.0
  9
$PUCSORTHOREF
  2

  9
$PUCSORTHOVIEW
 70
     0
  9
$PUCSORGTOP
 10
0.0
 20
0.0
 30
0.0
  9
$PUCSORGBOTTOM
 10
0.0
 20
0.0
 30
0.0
  9
$PUCSORGLEFT
 10
0.0
 20
0.0
 30
0.0
  9
$PUCSORGRIGHT
 10
0.0
 20
0.0
 30
0.0
  9
$PUCSORGFRONT
 10
0.0
 20
0.0
 30
0.0
  9
$PUCSORGBACK
 10
0.0
 20
0.0
 30
0.0
  9
$USERI1
 70
     0
  9
$USERI2
 70
     0
  9
$USERI3
 70
     0
  9
$USERI4
 70
     0
  9
$USERI5
 70
     0
  9
$USERR1
 40
0.0
  9
$USERR2
 40
0.0
  9
$USERR3
 40
0.0
  9
$USERR4
 40
0.0
  9
$USERR5
 40
0.0
  9
$WORLDVIEW
 70
     1
  9
$SHADEDGE
 70
     3
  9
$SHADEDIF
 70
    70
  9
$TILEMODE
 70
     1
  9
$MAXACTVP
 70
    64
  9
$PINSBASE
 10
0.0
 20
0.0
 30
0.0
  9
$PLIMCHECK
 70
     0
  9
$PEXTMIN
 10
1.0000000000E+20
 20
1.0000000000E+20
 30
1.0000000000E+20
  9
$PEXTMAX
 10
-1.0000000000E+20
 20
-1.0000000000E+20
 30
-1.0000000000E+20
  9
$PLIMMIN
 10
0.0
 20
0.0
  9
$PLIMMAX
 10
12.0
 20
9.0
  9
$UNITMODE
 70
     0
  9
$VISRETAIN
 70
     1
  9
$PLINEGEN
 70
     0
  9
$PSLTSCALE
 70
     1
  9
$TREEDEPTH
 70
  3020
  9
$CMLSTYLE
  2
Standard
  9
$CMLJUST
 70
     0
  9
$CMLSCALE
 40
1.0
  9
$PROXYGRAPHICS
 70
     1
  9
$MEASUREMENT
 70
     0
  9
$CELWEIGHT
370
    -1
  9
$ENDCAPS
280
     0
  9
$JOINSTYLE
280
     0
  9
$LWDISPLAY
290
     1
  9
$INSUNITS
 70
     1
  9
$HYPERLINKBASE
  1

  9
$STYLESHEET
  1

  9
$XEDIT
290
     1
  9
$CEPSNTYPE
380
     0
  9
$PSTYLEMODE
290
     1
  9
$FINGERPRINTGUID
  2
{8da4f995-a554-45ec-b9ca-5e7312d1fbdc}
  9
$VERSIONGUID
  2
{FAEB1C32-E019-11D5-929B-00C0DF256EC4}
  9
$EXTNAMES
290
     1
  9
$PSVPSCALE
 40
0.0
  9
$OLESTARTUP
290
     0
  9
$SORTENTS
280
   127
  9
$INDEXCTL
280
     0
  9
$HIDETEXT
280
     1
  9
$XCLIPFRAME
290
     0
  9
$HALOGAP
280
     0
  9
$OBSCOLOR
 70
   257
  9
$OBSLTYPE
280
     0
  9
$INTERSECTIONDISPLAY
280
     0
  9
$INTERSECTIONCOLOR
 70
   257
  9
$DIMASSOC
280
     2
  9
$PROJECTNAME
  1

  0
ENDSEC
  0
SECTION
  2
CLASSES
  0
CLASS
  1
ACDBDICTIONARYWDFLT
  2
AcDbDictionaryWithDefault
  3
ObjectDBX Classes
 90
        0
 91
        3
280
     0
281
     0
  0
CLASS
  1
VISUALSTYLE
  2
AcDbVisualStyle
  3
ObjectDBX Classes
 90
     4095
 91
        3
280
     0
281
     0
  0
CLASS
  1
MATERIAL
  2
AcDbMaterial
  3
ObjectDBX Classes
 90
     1153
 91
        3
280
     0
281
     0
  0
CLASS
  1
SCALE
  2
AcDbScale
  3
ObjectDBX Classes
 90
     1153
 91
        3
280
     0
281
     0
  0
CLASS
  1
TABLESTYLE
  2
AcDbTableStyle
  3
ObjectDBX Classes
 90
     4095
 91
        3
280
     0
281
     0
  0
CLASS
  1
MLEADERSTYLE
  2
AcDbMLeaderStyle
  3
ACDB_MLEADERSTYLE_CLASS
 90
     4095
 91
        3
280
     0
281
     0
  0
CLASS
  1
SUN
  2
AcDbSun
  3
SCENEOE
 90
     1153
 91
        3
280
     0
281
     0
  0
CLASS
  1
DICTIONARYVAR
  2
AcDbDictionaryVar
  3
ObjectDBX Classes
 90
        0
 91
        3
280
     0
281
     0
  0
CLASS
  1
CELLSTYLEMAP
  2
AcDbCellStyleMap
  3
ObjectDBX Classes
 90
     1152
 91
        3
280
     0
281
     0
  0
ENDSEC
  0
SECTION
  2
TABLES
  0
TABLE
  2
VPORT
  5
8
330
0
100
AcDbSymbolTable
 70
     1
  0
VPORT
  5
29
330
8
100
AcDbSymbolTableRecord
100
AcDbViewportTableRecord
  2
*Active
 70
     0
 10
0.0
 20
0.0
 11
1.0
 21
1.0
 12
24.0
 22
18.0
 13
0.0
 23
0.0
 14
0.5
 24
0.5
 15
0.5
 25
0.5
 16
0.0
 26
0.0
 36
1.0
 17
0.0
 27
0.0
 37
0.0
 40
36.0
 41
1.3333333333
 42
50.0
 43
0.0
 44
0.0
 50
0.0
 51
0.0
 71
     0
 72
  2000
 73
     1
 74
     3
 75
     0
 76
     0
 77
     0
 78
     0
281
     0
 65
     1
110
0.0
120
0.0
130
0.0
111
1.0
121
0.0
131
0.0
112
0.0
122
1.0
132
0.0
 79
     0
146
0.0
  0
ENDTAB
  0
TABLE
  2
LTYPE
  5
5
330
0
100
AcDbSymbolTable
 70
     6
  0
LTYPE
  5
14
330
5
100
AcDbSymbolTableRecord
100
AcDbLinetypeTableRecord
  2
ByBlock
 70
     0
  3

 72
    65
 73
     0
 40
0.0
  0
LTYPE
  5
15
330
5
100
AcDbSymbolTableRecord
100
AcDbLinetypeTableRecord
  2
ByLayer
 70
     0
  3

 72
    65
 73
     0
 40
0.0
  0
LTYPE
  5
16
330
5
100
AcDbSymbolTableRecord
100
AcDbLinetypeTableRecord
  2
Continuous
 70
     0
  3
Solid line
 72
    65
 73
     0
 40
0.0
  0
LTYPE
  5
6E
330
5
100
AcDbSymbolTableRecord
100
AcDbLinetypeTableRecord
  2
HIDDEN
 70
     0
  3
Hidden __ __ __ __ __ __ __ __ __ __ __ __ __ __
 72
    65
 73
     2
 40
0.075
 49
0.05
 74
     0
 49
-0.025
 74
     0
  0
LTYPE
  5
6F
330
5
100
AcDbSymbolTableRecord
100
AcDbLinetypeTableRecord
  2
PHANTOM
 70
     0
  3
Phantom ______  __  __  ______  __  __  ______
 72
    65
 73
     6
 40
0.5
 49
0.25
 74
     0
 49
-0.05
 74
     0
 49
0.05
 74
     0
 49
-0.05
 74
     0
 49
0.05
 74
     0
 49
-0.05
 74
     0
  0
LTYPE
  5
70
330
5
100
AcDbSymbolTableRecord
100
AcDbLinetypeTableRecord
  2
CENTER
 70
     0
  3
Center ____ _ ____ _ ____ _ ____ _ ____ _ ____
 72
    65
 73
     4
 40
0.4
 49
0.25
 74
     0
 49
-0.05
 74
     0
 49
0.05
 74
     0
 49
-0.05
 74
     0
  0
LTYPE
  5
71
330
5
100
AcDbSymbolTableRecord
100
AcDbLinetypeTableRecord
  2
CENTERX2
 70
     0
  3
Center (2x) ________  __  ________  __  _____
 72
    65
 73
     4
 40
0.8
 49
0.5
 74
     0
 49
-0.1
 74
     0
 49
0.1
 74
     0
 49
-0.1
 74
     0
  0
LTYPE
  5
72
330
5
100
AcDbSymbolTableRecord
100
AcDbLinetypeTableRecord
  2
DOT2
 70
     0
  3
Dot (.5x) ........................................
 72
    65
 73
     2
 40
0.025
 49
0.0
 74
     0
 49
-0.025
 74
     0
  0
ENDTAB
  0
TABLE
  2
LAYER
  5
2
330
0
100
AcDbSymbolTable
 70
     6
  0
LAYER
  5
10
330
2
100
AcDbSymbolTableRecord
100
AcDbLayerTableRecord
  2
0
 70
     0
 62
     7
  6
Continuous
370
    -3
390
F
  0
LAYER
  5
73
330
2
100
AcDbSymbolTableRecord
100
AcDbLayerTableRecord
  2
FORMAT
 70
     0
 62
     7
  6
Continuous
370
    -3
390
F
  0
LAYER
  5
74
330
2
100
AcDbSymbolTableRecord
100
AcDbLayerTableRecord
  2
NOTES
 70
     0
 62
     1
  6
Continuous
370
    -3
390
F
  0
LAYER
  5
75
330
2
100
AcDbSymbolTableRecord
100
AcDbLayerTableRecord
  2
OBJECT
 70
     0
 62
     7
  6
Continuous
370
    25
390
F
  0
LAYER
  5
76
330
2
100
AcDbSymbolTableRecord
100
AcDbLayerTableRecord
  2
DIMS
 70
     0
 62
     5
  6
Continuous
370
    -3
390
F
  0
LAYER
  5
77
330
2
100
AcDbSymbolTableRecord
100
AcDbLayerTableRecord
  2
TITLE
 70
     0
 62
     8
  6
Continuous
370
    -3
390
F
  0
ENDTAB
  0
TABLE
  2
STYLE
  5
3
330
0
100
AcDbSymbolTable
 70
     4
  0
STYLE
  5
11
330
3
100
AcDbSymbolTableRecord
100
AcDbTextStyleTableRecord
  2
Standard
 70
     0
 40
0.0
 41
1.0
 50
0.0
 71
     0
 42
0.5
  3
txt
  4

  0
STYLE
  5
DD
330
3
100
AcDbSymbolTableRecord
100
AcDbTextStyleTableRecord
  2
SLDTEXTSTYLE0
 70
     0
 40
0.0
 41
0.75
 50
0.0
 71
     0
 42
0.5
  3
TXT
  4

  0
STYLE
  5
EF
330
3
100
AcDbSymbolTableRecord
100
AcDbTextStyleTableRecord
  2
SLDTEXTSTYLE1
 70
     0
 40
0.0
 41
0.605
 50
0.0
 71
     0
 42
0.5
  3
TXT
  4

  0
STYLE
  5
F5
330
3
100
AcDbSymbolTableRecord
100
AcDbTextStyleTableRecord
  2
SLDTEXTSTYLE2
 70
     0
 40
0.0
 41
0.6607142857
 50
0.0
 71
     0
 42
0.5
  3
TXT
  4

  0
ENDTAB
  0
TABLE
  2
VIEW
  5
6
330
0
100
AcDbSymbolTable
 70
     0
  0
ENDTAB
  0
TABLE
  2
UCS
  5
7
330
0
100
AcDbSymbolTable
 70
     0
  0
ENDTAB
  0
TABLE
  2
APPID
  5
9
330
0
100
AcDbSymbolTable
 70
     2
  0
APPID
  5
12
330
9
100
AcDbSymbolTableRecord
100
AcDbRegAppTableRecord
  2
ACAD
 70
     0
  0
APPID
  5
48A
330
9
100
AcDbSymbolTableRecord
100
AcDbRegAppTableRecord
  2
ACAD_MLEADERVER
 70
     0
  0
ENDTAB
  0
TABLE
  2
DIMSTYLE
  5
A
330
0
100
AcDbSymbolTable
 70
     4
100
AcDbDimStyleTable
  0
DIMSTYLE
105
27
330
A
100
AcDbSymbolTableRecord
100
AcDbDimStyleTableRecord
  2
Standard
 70
     0
178
     0
340
11
  0
DIMSTYLE
105
23C
102
{ACAD_REACTORS
330
23B
330
428
330
478
102
}
330
A
100
AcDbSymbolTableRecord
100
AcDbDimStyleTableRecord
  2
SLDDIMSTYLE0
 70
     0
 41
0.3
 44
0.0
 45
0.000000001
 78
    12
 79
     3
140
0.5
147
0.125
173
     1
178
     0
276
     2
277
     5
284
    12
340
DD
341
23D
343
23D
344
23D
  0
DIMSTYLE
105
24E
102
{ACAD_REACTORS
330
24D
330
3FB
330
40A
330
419
330
469
102
}
330
A
100
AcDbSymbolTableRecord
100
AcDbDimStyleTableRecord
  2
SLDDIMSTYLE1
 70
     0
 41
0.3
 44
0.0
 45
0.000000001
 78
    12
 79
     3
140
0.5
147
0.125
173
     1
178
     0
271
     6
276
     2
277
     5
284
    12
340
DD
341
23D
343
23D
344
23D
  0
DIMSTYLE
105
265
330
A
100
AcDbSymbolTableRecord
100
AcDbDimStyleTableRecord
  2
SLDDIMSTYLE2
 70
     0
 41
0.3
 44
0.0
 45
0.000000001
146
0.3
147
0.0
173
     1
178
     0
271
     0
272
     0
276
     2
277
     5
340
11
341
23D
343
23D
344
23D
  0
ENDTAB
  0
TABLE
  2
BLOCK_RECORD
  5
1
330
0
100
AcDbSymbolTable
 70
    15
  0
BLOCK_RECORD
  5
1F
330
1
100
AcDbSymbolTableRecord
100
AcDbBlockTableRecord
  2
*Model_Space
340
22
  0
BLOCK_RECORD
  5
1B
330
1
100
AcDbSymbolTableRecord
100
AcDbBlockTableRecord
  2
*Paper_Space
340
1E
  0
BLOCK_RECORD
  5
23
330
1
100
AcDbSymbolTableRecord
100
AcDbBlockTableRecord
  2
*Paper_Space0
340
26
  0
BLOCK_RECORD
  5
E2
330
1
100
AcDbSymbolTableRecord
100
AcDbBlockTableRecord
  2
SW_NOTE_0
340
0
102
{BLKREFS
331
E7
102
}
  0
BLOCK_RECORD
  5
E8
330
1
100
AcDbSymbolTableRecord
100
AcDbBlockTableRecord
  2
SW_NOTE_0_1
340
0
102
{BLKREFS
331
EE
102
}
  0
BLOCK_RECORD
  5
F9
330
1
100
AcDbSymbolTableRecord
100
AcDbBlockTableRecord
  2
SW_NOTE_0_2
340
0
102
{BLKREFS
331
FE
102
}
  0
BLOCK_RECORD
  5
FF
330
1
100
AcDbSymbolTableRecord
100
AcDbBlockTableRecord
  2
SW_NOTE_0_3
340
0
102
{BLKREFS
331
106
102
}
  0
BLOCK_RECORD
  5
23D
330
1
100
AcDbSymbolTableRecord
100
AcDbBlockTableRecord
  2
_Open90
340
0
102
{BLKREFS
331
246
331
247
331
252
331
253
331
3FF
331
400
331
40E
331
40F
331
41D
331
41E
331
42C
331
42D
331
46D
331
46E
331
47C
331
47D
102
}
  0
BLOCK_RECORD
  5
243
330
1
100
AcDbSymbolTableRecord
100
AcDbBlockTableRecord
  2
_D
340
0
  0
BLOCK_RECORD
  5
24F
330
1
100
AcDbSymbolTableRecord
100
AcDbBlockTableRecord
  2
_D_1
340
0
  0
BLOCK_RECORD
  5
25E
330
1
100
AcDbSymbolTableRecord
100
AcDbBlockTableRecord
  2
SW_NOTE_0_4
340
0
102
{BLKREFS
331
264
102
}
  0
BLOCK_RECORD
  5
3FC
330
1
100
AcDbSymbolTableRecord
100
AcDbBlockTableRecord
  2
_D_2
340
0
  0
BLOCK_RECORD
  5
40B
330
1
100
AcDbSymbolTableRecord
100
AcDbBlockTableRecord
  2
_D_3
340
0
  0
BLOCK_RECORD
  5
41A
330
1
100
AcDbSymbolTableRecord
100
AcDbBlockTableRecord
  2
_D_4
340
0
  0
BLOCK_RECORD
  5
429
330
1
100
AcDbSymbolTableRecord
100
AcDbBlockTableRecord
  2
_D_5
340
0
  0
BLOCK_RECORD
  5
46A
330
1
100
AcDbSymbolTableRecord
100
AcDbBlockTableRecord
  2
_D_6
340
0
  0
BLOCK_RECORD
  5
479
330
1
100
AcDbSymbolTableRecord
100
AcDbBlockTableRecord
  2
_D_7
340
0
  0
ENDTAB
  0
ENDSEC
  0
SECTION
  2
BLOCKS
  0
BLOCK
  5
20
330
1F
100
AcDbEntity
  8
0
100
AcDbBlockBegin
  2
*Model_Space
 70
     0
 10
0.0
 20
0.0
 30
0.0
  3
*Model_Space
  1

  0
ENDBLK
  5
21
330
1F
100
AcDbEntity
  8
0
100
AcDbBlockEnd
  0
BLOCK
  5
1C
330
1B
100
AcDbEntity
 67
     1
  8
0
100
AcDbBlockBegin
  2
*Paper_Space
 70
     0
 10
0.0
 20
0.0
 30
0.0
  3
*Paper_Space
  1

  0
ENDBLK
  5
1D
330
1B
100
AcDbEntity
 67
     1
  8
0
100
AcDbBlockEnd
  0
BLOCK
  5
24
330
23
100
AcDbEntity
  8
0
100
AcDbBlockBegin
  2
*Paper_Space0
 70
     0
 10
0.0
 20
0.0
 30
0.0
  3
*Paper_Space0
  1

  0
ENDBLK
  5
25
330
23
100
AcDbEntity
  8
0
100
AcDbBlockEnd
  0
BLOCK
  5
E3
330
E2
100
AcDbEntity
  8
0
100
AcDbBlockBegin
  2
SW_NOTE_0
 70
     0
 10
0.0
 20
0.0
 30
0.0
  3
SW_NOTE_0
  1

  0
MTEXT
  5
E5
330
E2
100
AcDbEntity
  8
NOTES
 62
     0
100
AcDbMText
 10
0.0
 20
0.6445338699
 30
0.0
 40
0.5
 41
0.0
 71
     1
 72
     1
  1
3D view
  7
SLDTEXTSTYLE0
 73
     1
 44
1.0
  0
MTEXT
  5
E6
330
E2
100
AcDbEntity
  8
NOTES
 62
     0
100
AcDbMText
 10
0.0
 20
-0.3554661914
 30
0.0
 40
0.5
 41
0.0
 71
     1
 72
     1
  1
code 714-P
  7
SLDTEXTSTYLE0
 73
     1
 44
1.0
  0
ENDBLK
  5
E4
330
E2
100
AcDbEntity
  8
0
100
AcDbBlockEnd
  0
BLOCK
  5
E9
330
E8
100
AcDbEntity
  8
0
100
AcDbBlockBegin
  2
SW_NOTE_0_1
 70
     0
 10
0.0
 20
0.0
 30
0.0
  3
SW_NOTE_0_1
  1

  0
MTEXT
  5
EB
330
E8
100
AcDbEntity
  8
NOTES
 62
     0
100
AcDbMText
 10
0.0
 20
0.6445338699
 30
0.0
 40
0.5
 41
0.0
 71
     1
 72
     1
  1
*ensure unit is mounted 7 7/8" [200mm] above
  7
SLDTEXTSTYLE0
 73
     1
 44
1.0
  0
MTEXT
  5
EC
330
E8
100
AcDbEntity
  8
NOTES
 62
     0
100
AcDbMText
 10
0.0
 20
-0.001993928
 30
0.0
 40
0.5
 41
0.0
 71
     1
 72
     1
  1
any horizontal surfaces and 11 13/16" [300mm]
  7
SLDTEXTSTYLE0
 73
     1
 44
1.0
  0
MTEXT
  5
ED
330
E8
100
AcDbEntity
  8
NOTES
 62
     0
100
AcDbMText
 10
0.0
 20
-0.648521726
 30
0.0
 40
0.5
 41
0.0
 71
     1
 72
     1
  1
above any reflective surfaces
  7
SLDTEXTSTYLE0
 73
     1
 44
1.0
  0
ENDBLK
  5
EA
330
E8
100
AcDbEntity
  8
0
100
AcDbBlockEnd
  0
BLOCK
  5
FA
330
F9
100
AcDbEntity
  8
0
100
AcDbBlockBegin
  2
SW_NOTE_0_2
 70
     0
 10
0.0
 20
0.0
 30
0.0
  3
SW_NOTE_0_2
  1

  0
MTEXT
  5
FC
330
F9
100
AcDbEntity
  8
NOTES
 62
     0
100
AcDbMText
 10
0.0
 20
0.3759780908
 30
0.0
 40
0.2916666667
 41
0.0
 71
     1
 72
     1
  1
FROST PRODUCTS LTD.
  7
SLDTEXTSTYLE1
 73
     1
 44
1.0
  0
MTEXT
  5
FD
330
F9
100
AcDbEntity
  8
NOTES
 62
     0
100
AcDbMText
 10
0.0
 20
-0.0495142709
 30
0.0
 40
0.2291666667
 41
0.0
 71
     1
 72
     1
  1
5280 JOHN LUCAS DRIVE, BURLINGTON, ON, L7L 5Z9
  7
SLDTEXTSTYLE1
 73
     1
 44
1.0
  0
ENDBLK
  5
FB
330
F9
100
AcDbEntity
  8
0
100
AcDbBlockEnd
  0
BLOCK
  5
100
330
FF
100
AcDbEntity
  8
0
100
AcDbBlockBegin
  2
SW_NOTE_0_3
 70
     0
 10
0.0
 20
0.0
 30
0.0
  3
SW_NOTE_0_3
  1

  0
MTEXT
  5
102
330
FF
100
AcDbEntity
  8
NOTES
 62
     0
100
AcDbMText
 10
0.0
 20
0.2381282771
 30
0.0
 40
0.184729064
 41
0.0
 71
     1
 72
     1
  1
PROPRIETARY AND CONFIDENTIAL
  7
SLDTEXTSTYLE1
 73
     1
 44
1.0
  0
MTEXT
  5
103
330
FF
100
AcDbEntity
  8
NOTES
 62
     0
100
AcDbMText
 10
0.0
 20
-0.0504364796
 30
0.0
 40
0.25
 41
0.0
 71
     1
 72
     1
  1
THE INFORMATION CONTAINED IN THIS DRAWING IS THE SOLE PROPERTY OF
  7
SLDTEXTSTYLE1
 73
     1
 44
1.0
  0
MTEXT
  5
104
330
FF
100
AcDbEntity
  8
NOTES
 62
     0
100
AcDbMText
 10
0.0
 20
-0.4231398941
 30
0.0
 40
0.25
 41
0.0
 71
     1
 72
     1
  1
FROST PRODUCTS LTD.  ANY REPRODUCTION IN PART OR AS A WHOLE WITHOUT
  7
SLDTEXTSTYLE1
 73
     1
 44
1.0
  0
MTEXT
  5
105
330
FF
100
AcDbEntity
  8
NOTES
 62
     0
100
AcDbMText
 10
0.0
 20
-0.7958433086
 30
0.0
 40
0.25
 41
0.0
 71
     1
 72
     1
  1
THE WRITTEN PERMISSION OF FROST PRODUCTS LTD. IS PROHIBITED.
  7
SLDTEXTSTYLE1
 73
     1
 44
1.0
  0
ENDBLK
  5
101
330
FF
100
AcDbEntity
  8
0
100
AcDbBlockEnd
  0
BLOCK
  5
23E
330
23D
100
AcDbEntity
  8
0
100
AcDbBlockBegin
  2
_Open90
 70
     0
 10
0.0
 20
0.0
 30
0.0
  3
_Open90
  1

  0
LINE
  5
240
330
23D
100
AcDbEntity
  8
0
  6
ByBlock
 62
     0
370
    -2
100
AcDbLine
 10
-0.5
 20
0.5
 30
0.0
 11
0.0
 21
0.0
 31
0.0
  0
LINE
  5
241
330
23D
100
AcDbEntity
  8
0
  6
ByBlock
 62
     0
370
    -2
100
AcDbLine
 10
0.0
 20
0.0
 30
0.0
 11
-0.5
 21
-0.5
 31
0.0
  0
LINE
  5
242
330
23D
100
AcDbEntity
  8
0
  6
ByBlock
 62
     0
370
    -2
100
AcDbLine
 10
0.0
 20
0.0
 30
0.0
 11
-1.0
 21
0.0
 31
0.0
  0
ENDBLK
  5
23F
330
23D
100
AcDbEntity
  8
0
100
AcDbBlockEnd
  0
BLOCK
  5
244
330
243
100
AcDbEntity
  8
0
100
AcDbBlockBegin
  2
_D
 70
     0
 10
0.0
 20
0.0
 30
0.0
  3
_D
  1

  0
INSERT
  5
246
330
243
100
AcDbEntity
  8
DIMS
100
AcDbBlockReference
  2
_Open90
 10
6.4258989321
 20
9.7841486289
 30
0.0
 41
0.3
 42
0.3
 50
90.0
  0
INSERT
  5
247
330
243
100
AcDbEntity
  8
DIMS
100
AcDbBlockReference
  2
_Open90
 10
6.4258989321
 20
6.1091009382
 30
0.0
 41
0.3
 42
0.3
 50
270.0
  0
LINE
  5
248
330
243
100
AcDbEntity
  8
DIMS
100
AcDbLine
 10
8.9612796593
 20
9.7841486289
 30
0.0
 11
6.0508989321
 21
9.7841486289
 31
0.0
  0
LINE
  5
249
330
243
100
AcDbEntity
  8
DIMS
100
AcDbLine
 10
6.4258989321
 20
9.7841486289
 30
0.0
 11
6.4258989321
 21
7.8716655715
 31
0.0
  0
MTEXT
  5
24A
330
243
100
AcDbEntity
  8
DIMS
100
AcDbMText
 10
6.1696481114
 20
7.7224494725
 30
0.0
 40
0.5
 41
0.0
 71
     1
 72
     1
  1
47" [1194]Max. for unrestricted access
  7
SLDTEXTSTYLE0
 73
     1
 44
1.0
  0
MTEXT
  5
24B
330
243
100
AcDbEntity
  8
DIMS
100
AcDbMText
 10
6.5210378208
 20
6.9286994486
 30
0.0
 40
0.5
 41
0.0
 71
     1
 72
     1
  1

  7
SLDTEXTSTYLE0
 73
     1
 44
1.0
  0
MTEXT
  5
24C
330
243
100
AcDbEntity
  8
DIMS
100
AcDbMText
 10
6.5210378208
 20
6.1349494248
 30
0.0
 40
0.5
 41
0.0
 71
     1
 72
     1
  1

  7
SLDTEXTSTYLE0
 73
     1
 44
1.0
  0
ENDBLK
  5
245
330
243
100
AcDbEntity
  8
0
100
AcDbBlockEnd
  0
BLOCK
  5
250
330
24F
100
AcDbEntity
  8
0
100
AcDbBlockBegin
  2
_D_1
 70
     0
 10
0.0
 20
0.0
 30
0.0
  3
_D_1
  1

  0
INSERT
  5
252
330
24F
100
AcDbEntity
  8
DIMS
100
AcDbBlockReference
  2
_Open90
 10
5.8859583217
 20
20.6526604399
 30
-2.1250755416
 41
0.3
 42
0.3
 50
90.0
  0
INSERT
  5
253
330
24F
100
AcDbEntity
  8
DIMS
100
AcDbBlockReference
  2
_Open90
 10
5.8859583217
 20
9.7841486289
 30
-2.1250755416
 41
0.3
 42
0.3
 50
270.0
  0
LINE
  5
254
330
24F
100
AcDbEntity
  8
DIMS
100
AcDbLine
 10
5.8942916605
 20
14.99623453
 30
0.0
 11
6.4102639099
 21
14.99623453
 31
0.0
  0
LINE
  5
255
330
24F
100
AcDbEntity
  8
DIMS
100
AcDbLine
 10
9.3727796593
 20
20.6526604399
 30
0.0
 11
5.5109583217
 21
20.6526604399
 31
0.0
  0
LINE
  5
256
330
24F
100
AcDbEntity
  8
DIMS
100
AcDbLine
 10
6.9723710104
 20
9.7841486289
 30
0.0
 11
5.5109583217
 21
9.7841486289
 31
0.0
  0
LINE
  5
257
330
24F
100
AcDbEntity
  8
DIMS
100
AcDbLine
 10
5.8859583217
 20
20.6526604399
 30
0.0
 11
5.8859583217
 21
15.5988039849
 31
0.0
  0
LINE
  5
258
330
24F
100
AcDbEntity
  8
DIMS
100
AcDbLine
 10
5.8859583217
 20
9.7841486289
 30
0.0
 11
5.8859583217
 21
14.2910956783
 31
0.0
  0
MTEXT
  5
259
330
24F
100
AcDbEntity
  8
DIMS
100
AcDbMText
 10
5.0821388675
 20
15.2314975853
 30
0.0
 40
0.5
 41
0.0
 71
     1
 72
     1
  1
10
  7
SLDTEXTSTYLE0
 73
     1
 44
1.0
  0
MTEXT
  5
25A
330
24F
100
AcDbEntity
  8
DIMS
100
AcDbMText
 10
5.9675555624
 20
15.5968100843
 30
0.0
 40
0.5
 41
0.0
 71
     1
 72
     1
  1
7
  7
SLDTEXTSTYLE0
 73
     1
 44
1.0
  0
MTEXT
  5
25B
330
24F
100
AcDbEntity
  8
DIMS
100
AcDbMText
 10
5.9675555624
 20
14.9356295058
 30
0.0
 40
0.5
 41
0.0
 71
     1
 72
     1
  1
8
  7
SLDTEXTSTYLE0
 73
     1
 44
1.0
  0
MTEXT
  5
25C
330
24F
100
AcDbEntity
  8
DIMS
100
AcDbMText
 10
6.4835278119
 20
15.2314975853
 30
0.0
 40
0.5
 41
0.0
 71
     1
 72
     1
  1
"
  7
SLDTEXTSTYLE0
 73
     1
 44
1.0
  0
ENDBLK
  5
251
330
24F
100
AcDbEntity
  8
0
100
AcDbBlockEnd
  0
BLOCK
  5
25F
330
25E
100
AcDbEntity
  8
0
100
AcDbBlockBegin
  2
SW_NOTE_0_4
 70
     0
 10
0.0
 20
0.0
 30
0.0
  3
SW_NOTE_0_4
  1

  0
MTEXT
  5
261
330
25E
100
AcDbEntity
  8
NOTES
 62
     0
100
AcDbMText
 10
0.0209414552
 20
0.2518503976
 30
0.0
 40
0.5
 41
0.0
 71
     1
 72
     1
  1
indicator light
  7
SLDTEXTSTYLE0
 73
     1
 44
1.0
  0
MTEXT
  5
262
330
25E
100
AcDbEntity
  8
NOTES
 62
     0
100
AcDbMText
 10
0.0209414552
 20
-0.3946774003
 30
0.0
 40
0.5
 41
0.0
 71
     1
 72
     1
  1
- battery low
  7
SLDTEXTSTYLE0
 73
     1
 44
1.0
  0
MTEXT
  5
263
330
25E
100
AcDbEntity
  8
NOTES
 62
     0
100
AcDbMText
 10
0.0209414552
 20
-1.0412051982
 30
0.0
 40
0.5
 41
0.0
 71
     1
 72
     1
  1
- sensor calibration
  7
SLDTEXTSTYLE0
 73
     1
 44
1.0
  0
ENDBLK
  5
260
330
25E
100
AcDbEntity
  8
0
100
AcDbBlockEnd
  0
BLOCK
  5
3FD
330
3FC
100
AcDbEntity
  8
0
100
AcDbBlockBegin
  2
_D_2
 70
     0
 10
0.0
 20
0.0
 30
0.0
  3
_D_2
  1

  0
INSERT
  5
3FF
330
3FC
100
AcDbEntity
  8
DIMS
100
AcDbBlockReference
  2
_Open90
 10
29.6348185524
 20
21.5882535193
 30
2.1250755416
 41
0.3
 42
0.3
 50
180.0
  0
INSERT
  5
400
330
3FC
100
AcDbEntity
  8
DIMS
100
AcDbBlockReference
  2
_Open90
 10
31.7368185524
 20
21.5882535193
 30
2.1250755416
 41
0.3
 42
0.3
 50
0.0
  0
LINE
  5
401
330
3FC
100
AcDbEntity
  8
DIMS
100
AcDbLine
 10
30.5759208118
 20
21.6395382177
 30
0.0
 11
31.0918930613
 21
21.6395382177
 31
0.0
  0
LINE
  5
402
330
3FC
100
AcDbEntity
  8
DIMS
100
AcDbLine
 10
29.6348185524
 20
20.0218152955
 30
0.0
 11
29.6348185524
 21
21.9632535193
 31
0.0
  0
LINE
  5
403
330
3FC
100
AcDbEntity
  8
DIMS
100
AcDbLine
 10
31.7368185524
 20
20.0218152955
 30
0.0
 11
31.7368185524
 21
21.9632535193
 31
0.0
  0
LINE
  5
404
330
3FC
100
AcDbEntity
  8
DIMS
100
AcDbLine
 10
29.6348185524
 20
21.5882535193
 30
0.0
 11
30.1332124644
 21
21.5882535193
 31
0.0
  0
LINE
  5
405
330
3FC
100
AcDbEntity
  8
DIMS
100
AcDbLine
 10
31.7368185524
 20
21.5882535193
 30
0.0
 11
31.3714070006
 21
21.5882535193
 31
0.0
  0
MTEXT
  5
406
330
3FC
100
AcDbEntity
  8
DIMS
100
AcDbMText
 10
30.1332124644
 20
21.874801273
 30
0.0
 40
0.5
 41
0.0
 71
     1
 72
     1
  1
2
  7
SLDTEXTSTYLE0
 73
     1
 44
1.0
  0
MTEXT
  5
407
330
3FC
100
AcDbEntity
  8
DIMS
100
AcDbMText
 10
30.6491847138
 20
22.2401137721
 30
0.0
 40
0.5
 41
0.0
 71
     1
 72
     1
  1
1
  7
SLDTEXTSTYLE0
 73
     1
 44
1.0
  0
MTEXT
  5
408
330
3FC
100
AcDbEntity
  8
DIMS
100
AcDbMText
 10
30.6491847138
 20
21.5789331935
 30
0.0
 40
0.5
 41
0.0
 71
     1
 72
     1
  1
8
  7
SLDTEXTSTYLE0
 73
     1
 44
1.0
  0
MTEXT
  5
409
330
3FC
100
AcDbEntity
  8
DIMS
100
AcDbMText
 10
31.1651569632
 20
21.874801273
 30
0.0
 40
0.5
 41
0.0
 71
     1
 72
     1
  1
"
  7
SLDTEXTSTYLE0
 73
     1
 44
1.0
  0
ENDBLK
  5
3FE
330
3FC
100
AcDbEntity
  8
0
100
AcDbBlockEnd
  0
BLOCK
  5
40C
330
40B
100
AcDbEntity
  8
0
100
AcDbBlockBegin
  2
_D_3
 70
     0
 10
0.0
 20
0.0
 30
0.0
  3
_D_3
  1

  0
INSERT
  5
40E
330
40B
100
AcDbEntity
  8
DIMS
100
AcDbBlockReference
  2
_Open90
 10
26.2469281565
 20
19.8551486289
 30
2.1250755416
 41
0.3
 42
0.3
 50
90.0
  0
INSERT
  5
40F
330
40B
100
AcDbEntity
  8
DIMS
100
AcDbBlockReference
  2
_Open90
 10
26.2469281565
 20
14.7986486289
 30
2.1250755416
 41
0.3
 42
0.3
 50
270.0
  0
LINE
  5
410
330
40B
100
AcDbEntity
  8
DIMS
100
AcDbLine
 10
25.8858170498
 20
16.9561877517
 30
0.0
 11
26.7712337447
 21
16.9561877517
 31
0.0
  0
LINE
  5
411
330
40B
100
AcDbEntity
  8
DIMS
100
AcDbLine
 10
29.4681518858
 20
19.8551486289
 30
0.0
 11
25.8719281565
 21
19.8551486289
 31
0.0
  0
LINE
  5
412
330
40B
100
AcDbEntity
  8
DIMS
100
AcDbLine
 10
28.9431518858
 20
14.7986486289
 30
0.0
 11
25.8719281565
 21
14.7986486289
 31
0.0
  0
LINE
  5
413
330
40B
100
AcDbEntity
  8
DIMS
100
AcDbLine
 10
26.2469281565
 20
19.8551486289
 30
0.0
 11
26.2469281565
 21
17.5587572066
 31
0.0
  0
LINE
  5
414
330
40B
100
AcDbEntity
  8
DIMS
100
AcDbLine
 10
26.2469281565
 20
14.7986486289
 30
0.0
 11
26.2469281565
 21
16.2510489001
 31
0.0
  0
MTEXT
  5
415
330
40B
100
AcDbEntity
  8
DIMS
100
AcDbMText
 10
25.4431087023
 20
17.1914508071
 30
0.0
 40
0.5
 41
0.0
 71
     1
 72
     1
  1
5
  7
SLDTEXTSTYLE0
 73
     1
 44
1.0
  0
MTEXT
  5
416
330
40B
100
AcDbEntity
  8
DIMS
100
AcDbMText
 10
26.1438031745
 20
17.5567633061
 30
0.0
 40
0.5
 41
0.0
 71
     1
 72
     1
  1
1
  7
SLDTEXTSTYLE0
 73
     1
 44
1.0
  0
MTEXT
  5
417
330
40B
100
AcDbEntity
  8
DIMS
100
AcDbMText
 10
25.9590809518
 20
16.8955827276
 30
0.0
 40
0.5
 41
0.0
 71
     1
 72
     1
  1
16
  7
SLDTEXTSTYLE0
 73
     1
 44
1.0
  0
MTEXT
  5
418
330
40B
100
AcDbEntity
  8
DIMS
100
AcDbMText
 10
26.8444976467
 20
17.1914508071
 30
0.0
 40
0.5
 41
0.0
 71
     1
 72
     1
  1
"
  7
SLDTEXTSTYLE0
 73
     1
 44
1.0
  0
ENDBLK
  5
40D
330
40B
100
AcDbEntity
  8
0
100
AcDbBlockEnd
  0
BLOCK
  5
41B
330
41A
100
AcDbEntity
  8
0
100
AcDbBlockBegin
  2
_D_4
 70
     0
 10
0.0
 20
0.0
 30
0.0
  3
_D_4
  1

  0
INSERT
  5
41D
330
41A
100
AcDbEntity
  8
DIMS
100
AcDbBlockReference
  2
_Open90
 10
29.1098185524
 20
17.0157916755
 30
2.1250755416
 41
0.3
 42
0.3
 50
180.0
  0
INSERT
  5
41E
330
41A
100
AcDbEntity
  8
DIMS
100
AcDbBlockReference
  2
_Open90
 10
32.2618185524
 20
17.0157916755
 30
2.1250755416
 41
0.3
 42
0.3
 50
0.0
  0
LINE
  5
41F
330
41A
100
AcDbEntity
  8
DIMS
100
AcDbLine
 10
30.5759208118
 20
17.0670763739
 30
0.0
 11
31.0918930613
 21
17.0670763739
 31
0.0
  0
LINE
  5
420
330
41A
100
AcDbEntity
  8
DIMS
100
AcDbLine
 10
29.1098185524
 20
14.9653152955
 30
0.0
 11
29.1098185524
 21
17.3907916755
 31
0.0
  0
LINE
  5
421
330
41A
100
AcDbEntity
  8
DIMS
100
AcDbLine
 10
32.2618185524
 20
14.9653152955
 30
0.0
 11
32.2618185524
 21
17.3907916755
 31
0.0
  0
LINE
  5
422
330
41A
100
AcDbEntity
  8
DIMS
100
AcDbLine
 10
29.1098185524
 20
17.0157916755
 30
0.0
 11
30.1332124644
 21
17.0157916755
 31
0.0
  0
LINE
  5
423
330
41A
100
AcDbEntity
  8
DIMS
100
AcDbLine
 10
32.2618185524
 20
17.0157916755
 30
0.0
 11
31.3714070006
 21
17.0157916755
 31
0.0
  0
MTEXT
  5
424
330
41A
100
AcDbEntity
  8
DIMS
100
AcDbMText
 10
30.1332124644
 20
17.3023394292
 30
0.0
 40
0.5
 41
0.0
 71
     1
 72
     1
  1
3
  7
SLDTEXTSTYLE0
 73
     1
 44
1.0
  0
MTEXT
  5
425
330
41A
100
AcDbEntity
  8
DIMS
100
AcDbMText
 10
30.6491847138
 20
17.6676519282
 30
0.0
 40
0.5
 41
0.0
 71
     1
 72
     1
  1
1
  7
SLDTEXTSTYLE0
 73
     1
 44
1.0
  0
MTEXT
  5
426
330
41A
100
AcDbEntity
  8
DIMS
100
AcDbMText
 10
30.6491847138
 20
17.0064713497
 30
0.0
 40
0.5
 41
0.0
 71
     1
 72
     1
  1
8
  7
SLDTEXTSTYLE0
 73
     1
 44
1.0
  0
MTEXT
  5
427
330
41A
100
AcDbEntity
  8
DIMS
100
AcDbMText
 10
31.1651569632
 20
17.3023394292
 30
0.0
 40
0.5
 41
0.0
 71
     1
 72
     1
  1
"
  7
SLDTEXTSTYLE0
 73
     1
 44
1.0
  0
ENDBLK
  5
41C
330
41A
100
AcDbEntity
  8
0
100
AcDbBlockEnd
  0
BLOCK
  5
42A
330
429
100
AcDbEntity
  8
0
100
AcDbBlockBegin
  2
_D_5
 70
     0
 10
0.0
 20
0.0
 30
0.0
  3
_D_5
  1

  0
INSERT
  5
42C
330
429
100
AcDbEntity
  8
DIMS
100
AcDbBlockReference
  2
_Open90
 10
26.2469281565
 20
14.7986486289
 30
2.1250755416
 41
0.3
 42
0.3
 50
90.0
  0
INSERT
  5
42D
330
429
100
AcDbEntity
  8
DIMS
100
AcDbBlockReference
  2
_Open90
 10
26.2469281565
 20
9.7841486289
 30
2.1250755416
 41
0.3
 42
0.3
 50
270.0
  0
LINE
  5
42E
330
429
100
AcDbEntity
  8
DIMS
100
AcDbLine
 10
28.9431518858
 20
14.7986486289
 30
0.0
 11
25.8719281565
 21
14.7986486289
 31
0.0
  0
LINE
  5
42F
330
429
100
AcDbEntity
  8
DIMS
100
AcDbLine
 10
28.0191518858
 20
9.7841486289
 30
0.0
 11
25.8719281565
 21
9.7841486289
 31
0.0
  0
LINE
  5
430
330
429
100
AcDbEntity
  8
DIMS
100
AcDbLine
 10
26.2469281565
 20
14.7986486289
 30
0.0
 11
26.2469281565
 21
12.6979696172
 31
0.0
  0
LINE
  5
431
330
429
100
AcDbEntity
  8
DIMS
100
AcDbLine
 10
26.2469281565
 20
9.7841486289
 30
0.0
 11
26.2469281565
 21
11.9042195933
 31
0.0
  0
MTEXT
  5
432
330
429
100
AcDbEntity
  8
DIMS
100
AcDbMText
 10
25.9590809334
 20
12.5487535182
 30
0.0
 40
0.5
 41
0.0
 71
     1
 72
     1
  1
5"
  7
SLDTEXTSTYLE0
 73
     1
 44
1.0
  0
ENDBLK
  5
42B
330
429
100
AcDbEntity
  8
0
100
AcDbBlockEnd
  0
BLOCK
  5
46B
330
46A
100
AcDbEntity
  8
0
100
AcDbBlockBegin
  2
_D_6
 70
     0
 10
0.0
 20
0.0
 30
0.0
  3
_D_6
  1

  0
INSERT
  5
46D
330
46A
100
AcDbEntity
  8
DIMS
100
AcDbBlockReference
  2
_Open90
 10
13.4978279802
 20
28.7459378333
 30
-5.2047390477
 41
0.3
 42
0.3
 50
90.0
  0
INSERT
  5
46E
330
46A
100
AcDbEntity
  8
DIMS
100
AcDbBlockReference
  2
_Open90
 10
13.4978279802
 20
24.3009378333
 30
-5.2047390477
 41
0.3
 42
0.3
 50
270.0
  0
LINE
  5
46F
330
46A
100
AcDbEntity
  8
DIMS
100
AcDbLine
 10
13.1367168734
 20
26.7022171221
 30
0.0
 11
14.0221335683
 21
26.7022171221
 31
0.0
  0
LINE
  5
470
330
46A
100
AcDbEntity
  8
DIMS
100
AcDbLine
 10
11.1566129927
 20
28.7459378333
 30
0.0
 11
13.8728279802
 21
28.7459378333
 31
0.0
  0
LINE
  5
471
330
46A
100
AcDbEntity
  8
DIMS
100
AcDbLine
 10
9.7061129927
 20
24.3009378333
 30
0.0
 11
13.8728279802
 21
24.3009378333
 31
0.0
  0
LINE
  5
472
330
46A
100
AcDbEntity
  8
DIMS
100
AcDbLine
 10
13.4978279802
 20
28.7459378333
 30
0.0
 11
13.4978279802
 21
27.304786577
 31
0.0
  0
LINE
  5
473
330
46A
100
AcDbEntity
  8
DIMS
100
AcDbLine
 10
13.4978279802
 20
24.3009378333
 30
0.0
 11
13.4978279802
 21
25.9970782704
 31
0.0
  0
MTEXT
  5
474
330
46A
100
AcDbEntity
  8
DIMS
100
AcDbMText
 10
12.694008526
 20
26.9374801774
 30
0.0
 40
0.5
 41
0.0
 71
     1
 72
     1
  1
4
  7
SLDTEXTSTYLE0
 73
     1
 44
1.0
  0
MTEXT
  5
475
330
46A
100
AcDbEntity
  8
DIMS
100
AcDbMText
 10
13.3947029981
 20
27.3027926764
 30
0.0
 40
0.5
 41
0.0
 71
     1
 72
     1
  1
7
  7
SLDTEXTSTYLE0
 73
     1
 44
1.0
  0
MTEXT
  5
476
330
46A
100
AcDbEntity
  8
DIMS
100
AcDbMText
 10
13.2099807754
 20
26.6416120979
 30
0.0
 40
0.5
 41
0.0
 71
     1
 72
     1
  1
16
  7
SLDTEXTSTYLE0
 73
     1
 44
1.0
  0
MTEXT
  5
477
330
46A
100
AcDbEntity
  8
DIMS
100
AcDbMText
 10
14.0953974703
 20
26.9374801774
 30
0.0
 40
0.5
 41
0.0
 71
     1
 72
     1
  1
"
  7
SLDTEXTSTYLE0
 73
     1
 44
1.0
  0
ENDBLK
  5
46C
330
46A
100
AcDbEntity
  8
0
100
AcDbBlockEnd
  0
BLOCK
  5
47A
330
479
100
AcDbEntity
  8
0
100
AcDbBlockBegin
  2
_D_7
 70
     0
 10
0.0
 20
0.0
 30
0.0
  3
_D_7
  1

  0
INSERT
  5
47C
330
479
100
AcDbEntity
  8
DIMS
100
AcDbBlockReference
  2
_Open90
 10
12.039446326
 20
29.3758590931
 30
-5.2047390477
 41
0.3
 42
0.3
 50
0.0
  0
INSERT
  5
47D
330
479
100
AcDbEntity
  8
DIMS
100
AcDbBlockReference
  2
_Open90
 10
7.039446326
 20
29.3758590931
 30
-5.2047390477
 41
0.3
 42
0.3
 50
180.0
  0
LINE
  5
47E
330
479
100
AcDbEntity
  8
DIMS
100
AcDbLine
 10
12.039446326
 20
28.8676045
 30
0.0
 11
12.039446326
 21
29.7508590931
 31
0.0
  0
LINE
  5
47F
330
479
100
AcDbEntity
  8
DIMS
100
AcDbLine
 10
7.039446326
 20
28.8676045
 30
0.0
 11
7.039446326
 21
29.7508590931
 31
0.0
  0
LINE
  5
480
330
479
100
AcDbEntity
  8
DIMS
100
AcDbLine
 10
12.039446326
 20
29.3758590931
 30
0.0
 11
9.8508691421
 21
29.3758590931
 31
0.0
  0
LINE
  5
481
330
479
100
AcDbEntity
  8
DIMS
100
AcDbLine
 10
7.039446326
 20
29.3758590931
 30
0.0
 11
9.2751746959
 21
29.3758590931
 31
0.0
  0
MTEXT
  5
482
330
479
100
AcDbEntity
  8
DIMS
100
AcDbMText
 10
9.2751746959
 20
29.6235180061
 30
0.0
 40
0.5
 41
0.0
 71
     1
 72
     1
  1
5"
  7
SLDTEXTSTYLE0
 73
     1
 44
1.0
  0
ENDBLK
  5
47B
330
479
100
AcDbEntity
  8
0
100
AcDbBlockEnd
  0
ENDSEC
  0
SECTION
  2
ENTITIES
  0
LINE
  5
78
330
1F
100
AcDbEntity
  8
TITLE
370
    35
100
AcDbLine
 10
30.5182229757
 20
1.4876117645
 30
0.0
 11
47.4999864512
 21
1.4876117645
 31
0.0
  0
LINE
  5
79
330
1F
100
AcDbEntity
  8
TITLE
370
    35
100
AcDbLine
 10
47.4999317442
 20
5.4753603936
 30
0.0
 11
37.3105350723
 21
5.4753603936
 31
0.0
  0
LINE
  5
7A
330
1F
100
AcDbEntity
  8
TITLE
  6
Continuous
370
    18
100
AcDbLine
 10
0.5
 20
0.5
 30
0.0
 11
0.5
 21
35.5
 31
0.0
  0
LINE
  5
7B
330
1F
100
AcDbEntity
  8
TITLE
  6
Continuous
370
    18
100
AcDbLine
 10
0.5
 20
35.5
 30
0.0
 11
47.5
 21
35.5
 31
0.0
  0
LINE
  5
7C
330
1F
100
AcDbEntity
  8
TITLE
370
    35
100
AcDbLine
 10
30.5182229757
 20
2.5427877231
 30
0.0
 11
23.5059791203
 21
2.5427877231
 31
0.0
  0
LINE
  5
7D
330
1F
100
AcDbEntity
  8
TITLE
370
    35
100
AcDbLine
 10
30.5182229757
 20
1.4876117645
 30
0.0
 11
23.5059791203
 21
1.4876117645
 31
0.0
  0
LINE
  5
7E
330
1F
100
AcDbEntity
  8
TITLE
  6
Continuous
370
    18
100
AcDbLine
 10
47.5
 20
35.5
 30
0.0
 11
47.5
 21
0.5
 31
0.0
  0
LINE
  5
7F
330
1F
100
AcDbEntity
  8
TITLE
  6
Continuous
370
    18
100
AcDbLine
 10
47.5
 20
0.5
 30
0.0
 11
0.5
 21
0.5
 31
0.0
  0
LINE
  5
80
330
1F
100
AcDbEntity
  8
TITLE
370
    35
100
AcDbLine
 10
30.5182229757
 20
1.4876117645
 30
0.0
 11
30.5182229757
 21
3.5979636817
 31
0.0
  0
LINE
  5
81
330
1F
100
AcDbEntity
  8
TITLE
370
    35
100
AcDbLine
 10
23.5059791203
 20
3.5979636817
 30
0.0
 11
23.5059791203
 21
0.5
 31
0.0
  0
LINE
  5
82
330
1F
100
AcDbEntity
  8
TITLE
370
    35
100
AcDbLine
 10
23.5059791203
 20
0.5
 30
0.0
 11
47.5
 21
0.5
 31
0.0
  0
LINE
  5
83
330
1F
100
AcDbEntity
  8
TITLE
370
    35
100
AcDbLine
 10
47.4999317442
 20
5.4753603936
 30
0.0
 11
47.5
 21
0.5
 31
0.0
  0
LINE
  5
84
330
1F
100
AcDbEntity
  8
TITLE
  6
Continuous
370
    18
100
AcDbLine
 10
0.4999606299
 20
18.0
 30
0.0
 11
0.5000393701
 21
18.0
 31
0.0
  0
LINE
  5
85
330
1F
100
AcDbEntity
  8
TITLE
370
    35
100
AcDbLine
 10
30.5182229757
 20
3.5979636817
 30
0.0
 11
23.5059791203
 21
3.5979636817
 31
0.0
  0
LINE
  5
86
330
1F
100
AcDbEntity
  8
TITLE
370
    35
100
AcDbLine
 10
30.5182229757
 20
3.5979636817
 30
0.0
 11
47.4997615643
 21
3.5979648343
 31
0.0
  0
LINE
  5
87
330
1F
100
AcDbEntity
  8
TITLE
370
    35
100
AcDbLine
 10
37.3105350723
 20
5.4753603936
 30
0.0
 11
37.3105350723
 21
0.4636772425
 31
0.0
  0
LINE
  5
88
330
1F
100
AcDbEntity
  8
TITLE
  6
Continuous
370
    18
100
AcDbLine
 10
24.0
 20
35.5000393701
 30
0.0
 11
24.0
 21
35.4999606299
 31
0.0
  0
LINE
  5
89
330
1F
100
AcDbEntity
  8
TITLE
  6
Continuous
370
    18
100
AcDbLine
 10
47.5000393701
 20
18.0
 30
0.0
 11
47.4999606299
 21
18.0
 31
0.0
  0
LINE
  5
8A
330
1F
100
AcDbEntity
  8
TITLE
  6
Continuous
370
    18
100
AcDbLine
 10
24.0
 20
0.4999606299
 30
0.0
 11
24.0
 21
0.5000393701
 31
0.0
  0
LINE
  5
8B
330
1F
100
AcDbEntity
  8
TITLE
  6
Continuous
370
    18
100
AcDbLine
 10
0.5
 20
2.2519685039
 30
0.0
 11
0.1653543307
 21
2.2519685039
 31
0.0
  0
LINE
  5
8C
330
1F
100
AcDbEntity
  8
TITLE
  6
Continuous
370
    18
100
AcDbLine
 10
47.5
 20
2.2519685039
 30
0.0
 11
47.8346456693
 21
2.2519685039
 31
0.0
  0
LINE
  5
8D
330
1F
100
AcDbEntity
  8
TITLE
  6
Continuous
370
    18
100
AcDbLine
 10
0.5
 20
4.2204724409
 30
0.0
 11
0.1653543307
 21
4.2204724409
 31
0.0
  0
LINE
  5
8E
330
1F
100
AcDbEntity
  8
TITLE
  6
Continuous
370
    18
100
AcDbLine
 10
47.5
 20
4.2204724409
 30
0.0
 11
47.8346456693
 21
4.2204724409
 31
0.0
  0
LINE
  5
8F
330
1F
100
AcDbEntity
  8
TITLE
  6
Continuous
370
    18
100
AcDbLine
 10
0.5
 20
6.188976378
 30
0.0
 11
0.1653543307
 21
6.188976378
 31
0.0
  0
LINE
  5
90
330
1F
100
AcDbEntity
  8
TITLE
  6
Continuous
370
    18
100
AcDbLine
 10
47.5
 20
6.188976378
 30
0.0
 11
47.8346456693
 21
6.188976378
 31
0.0
  0
LINE
  5
91
330
1F
100
AcDbEntity
  8
TITLE
  6
Continuous
370
    18
100
AcDbLine
 10
0.5
 20
8.157480315
 30
0.0
 11
0.1653543307
 21
8.157480315
 31
0.0
  0
LINE
  5
92
330
1F
100
AcDbEntity
  8
TITLE
  6
Continuous
370
    18
100
AcDbLine
 10
47.5
 20
8.157480315
 30
0.0
 11
47.8346456693
 21
8.157480315
 31
0.0
  0
LINE
  5
93
330
1F
100
AcDbEntity
  8
TITLE
  6
Continuous
370
    18
100
AcDbLine
 10
0.5
 20
10.125984252
 30
0.0
 11
0.1653543307
 21
10.125984252
 31
0.0
  0
LINE
  5
94
330
1F
100
AcDbEntity
  8
TITLE
  6
Continuous
370
    18
100
AcDbLine
 10
47.5
 20
10.125984252
 30
0.0
 11
47.8346456693
 21
10.125984252
 31
0.0
  0
LINE
  5
95
330
1F
100
AcDbEntity
  8
TITLE
  6
Continuous
370
    18
100
AcDbLine
 10
0.5
 20
12.094488189
 30
0.0
 11
0.1653543307
 21
12.094488189
 31
0.0
  0
LINE
  5
96
330
1F
100
AcDbEntity
  8
TITLE
  6
Continuous
370
    18
100
AcDbLine
 10
47.5
 20
12.094488189
 30
0.0
 11
47.8346456693
 21
12.094488189
 31
0.0
  0
LINE
  5
97
330
1F
100
AcDbEntity
  8
TITLE
  6
Continuous
370
    18
100
AcDbLine
 10
0.5
 20
14.062992126
 30
0.0
 11
0.1653543307
 21
14.062992126
 31
0.0
  0
LINE
  5
98
330
1F
100
AcDbEntity
  8
TITLE
  6
Continuous
370
    18
100
AcDbLine
 10
47.5
 20
14.062992126
 30
0.0
 11
47.8346456693
 21
14.062992126
 31
0.0
  0
LINE
  5
99
330
1F
100
AcDbEntity
  8
TITLE
  6
Continuous
370
    18
100
AcDbLine
 10
0.5
 20
16.031496063
 30
0.0
 11
0.1653543307
 21
16.031496063
 31
0.0
  0
LINE
  5
9A
330
1F
100
AcDbEntity
  8
TITLE
  6
Continuous
370
    18
100
AcDbLine
 10
47.5
 20
16.031496063
 30
0.0
 11
47.8346456693
 21
16.031496063
 31
0.0
  0
LINE
  5
9B
330
1F
100
AcDbEntity
  8
TITLE
  6
Continuous
370
    18
100
AcDbLine
 10
0.4999606299
 20
18.0
 30
0.0
 11
0.1653543307
 21
18.0
 31
0.0
  0
LINE
  5
9C
330
1F
100
AcDbEntity
  8
TITLE
  6
Continuous
370
    18
100
AcDbLine
 10
47.5000393701
 20
18.0
 30
0.0
 11
47.8346456693
 21
18.0
 31
0.0
  0
LINE
  5
9D
330
1F
100
AcDbEntity
  8
TITLE
  6
Continuous
370
    18
100
AcDbLine
 10
0.5
 20
19.968503937
 30
0.0
 11
0.1653543307
 21
19.968503937
 31
0.0
  0
LINE
  5
9E
330
1F
100
AcDbEntity
  8
TITLE
  6
Continuous
370
    18
100
AcDbLine
 10
47.5
 20
19.968503937
 30
0.0
 11
47.8346456693
 21
19.968503937
 31
0.0
  0
LINE
  5
9F
330
1F
100
AcDbEntity
  8
TITLE
  6
Continuous
370
    18
100
AcDbLine
 10
0.5
 20
21.937007874
 30
0.0
 11
0.1653543307
 21
21.937007874
 31
0.0
  0
LINE
  5
A0
330
1F
100
AcDbEntity
  8
TITLE
  6
Continuous
370
    18
100
AcDbLine
 10
47.5
 20
21.937007874
 30
0.0
 11
47.8346456693
 21
21.937007874
 31
0.0
  0
LINE
  5
A1
330
1F
100
AcDbEntity
  8
TITLE
  6
Continuous
370
    18
100
AcDbLine
 10
0.5
 20
23.905511811
 30
0.0
 11
0.1653543307
 21
23.905511811
 31
0.0
  0
LINE
  5
A2
330
1F
100
AcDbEntity
  8
TITLE
  6
Continuous
370
    18
100
AcDbLine
 10
47.5
 20
23.905511811
 30
0.0
 11
47.8346456693
 21
23.905511811
 31
0.0
  0
LINE
  5
A3
330
1F
100
AcDbEntity
  8
TITLE
  6
Continuous
370
    18
100
AcDbLine
 10
0.5
 20
25.874015748
 30
0.0
 11
0.1653543307
 21
25.874015748
 31
0.0
  0
LINE
  5
A4
330
1F
100
AcDbEntity
  8
TITLE
  6
Continuous
370
    18
100
AcDbLine
 10
47.5
 20
25.874015748
 30
0.0
 11
47.8346456693
 21
25.874015748
 31
0.0
  0
LINE
  5
A5
330
1F
100
AcDbEntity
  8
TITLE
  6
Continuous
370
    18
100
AcDbLine
 10
0.5
 20
27.842519685
 30
0.0
 11
0.1653543307
 21
27.842519685
 31
0.0
  0
LINE
  5
A6
330
1F
100
AcDbEntity
  8
TITLE
  6
Continuous
370
    18
100
AcDbLine
 10
47.5
 20
27.842519685
 30
0.0
 11
47.8346456693
 21
27.842519685
 31
0.0
  0
LINE
  5
A7
330
1F
100
AcDbEntity
  8
TITLE
  6
Continuous
370
    18
100
AcDbLine
 10
0.5
 20
29.811023622
 30
0.0
 11
0.1653543307
 21
29.811023622
 31
0.0
  0
LINE
  5
A8
330
1F
100
AcDbEntity
  8
TITLE
  6
Continuous
370
    18
100
AcDbLine
 10
47.5
 20
29.811023622
 30
0.0
 11
47.8346456693
 21
29.811023622
 31
0.0
  0
LINE
  5
A9
330
1F
100
AcDbEntity
  8
TITLE
  6
Continuous
370
    18
100
AcDbLine
 10
0.5
 20
31.7795275591
 30
0.0
 11
0.1653543307
 21
31.7795275591
 31
0.0
  0
LINE
  5
AA
330
1F
100
AcDbEntity
  8
TITLE
  6
Continuous
370
    18
100
AcDbLine
 10
47.5
 20
31.7795275591
 30
0.0
 11
47.8346456693
 21
31.7795275591
 31
0.0
  0
LINE
  5
AB
330
1F
100
AcDbEntity
  8
TITLE
  6
Continuous
370
    18
100
AcDbLine
 10
47.5
 20
33.7480314961
 30
0.0
 11
47.8346456693
 21
33.7480314961
 31
0.0
  0
LINE
  5
AC
330
1F
100
AcDbEntity
  8
TITLE
  6
Continuous
370
    18
100
AcDbLine
 10
2.3464566929
 20
35.5
 30
0.0
 11
2.3464566929
 21
35.8346456693
 31
0.0
  0
LINE
  5
AD
330
1F
100
AcDbEntity
  8
TITLE
  6
Continuous
370
    18
100
AcDbLine
 10
2.3464566929
 20
0.5
 30
0.0
 11
2.3464566929
 21
0.1653543307
 31
0.0
  0
LINE
  5
AE
330
1F
100
AcDbEntity
  8
TITLE
  6
Continuous
370
    18
100
AcDbLine
 10
4.3149606299
 20
0.5
 30
0.0
 11
4.3149606299
 21
0.1653543307
 31
0.0
  0
LINE
  5
AF
330
1F
100
AcDbEntity
  8
TITLE
  6
Continuous
370
    18
100
AcDbLine
 10
6.2834645669
 20
35.5
 30
0.0
 11
6.2834645669
 21
35.8346456693
 31
0.0
  0
LINE
  5
B0
330
1F
100
AcDbEntity
  8
TITLE
  6
Continuous
370
    18
100
AcDbLine
 10
6.2834645669
 20
0.5
 30
0.0
 11
6.2834645669
 21
0.1653543307
 31
0.0
  0
LINE
  5
B1
330
1F
100
AcDbEntity
  8
TITLE
  6
Continuous
370
    18
100
AcDbLine
 10
8.2519685039
 20
35.5
 30
0.0
 11
8.2519685039
 21
35.8346456693
 31
0.0
  0
LINE
  5
B2
330
1F
100
AcDbEntity
  8
TITLE
  6
Continuous
370
    18
100
AcDbLine
 10
8.2519685039
 20
0.5
 30
0.0
 11
8.2519685039
 21
0.1653543307
 31
0.0
  0
LINE
  5
B3
330
1F
100
AcDbEntity
  8
TITLE
  6
Continuous
370
    18
100
AcDbLine
 10
10.2204724409
 20
35.5
 30
0.0
 11
10.2204724409
 21
35.8346456693
 31
0.0
  0
LINE
  5
B4
330
1F
100
AcDbEntity
  8
TITLE
  6
Continuous
370
    18
100
AcDbLine
 10
10.2204724409
 20
0.5
 30
0.0
 11
10.2204724409
 21
0.1653543307
 31
0.0
  0
LINE
  5
B5
330
1F
100
AcDbEntity
  8
TITLE
  6
Continuous
370
    18
100
AcDbLine
 10
12.188976378
 20
35.5
 30
0.0
 11
12.188976378
 21
35.8346456693
 31
0.0
  0
LINE
  5
B6
330
1F
100
AcDbEntity
  8
TITLE
  6
Continuous
370
    18
100
AcDbLine
 10
12.188976378
 20
0.5
 30
0.0
 11
12.188976378
 21
0.1653543307
 31
0.0
  0
LINE
  5
B7
330
1F
100
AcDbEntity
  8
TITLE
  6
Continuous
370
    18
100
AcDbLine
 10
14.157480315
 20
35.5
 30
0.0
 11
14.157480315
 21
35.8346456693
 31
0.0
  0
LINE
  5
B8
330
1F
100
AcDbEntity
  8
TITLE
  6
Continuous
370
    18
100
AcDbLine
 10
14.157480315
 20
0.5
 30
0.0
 11
14.157480315
 21
0.1653543307
 31
0.0
  0
LINE
  5
B9
330
1F
100
AcDbEntity
  8
TITLE
  6
Continuous
370
    18
100
AcDbLine
 10
16.125984252
 20
35.5
 30
0.0
 11
16.125984252
 21
35.8346456693
 31
0.0
  0
LINE
  5
BA
330
1F
100
AcDbEntity
  8
TITLE
  6
Continuous
370
    18
100
AcDbLine
 10
16.125984252
 20
0.5
 30
0.0
 11
16.125984252
 21
0.1653543307
 31
0.0
  0
LINE
  5
BB
330
1F
100
AcDbEntity
  8
TITLE
  6
Continuous
370
    18
100
AcDbLine
 10
18.094488189
 20
35.5
 30
0.0
 11
18.094488189
 21
35.8346456693
 31
0.0
  0
LINE
  5
BC
330
1F
100
AcDbEntity
  8
TITLE
  6
Continuous
370
    18
100
AcDbLine
 10
18.094488189
 20
0.5
 30
0.0
 11
18.094488189
 21
0.1653543307
 31
0.0
  0
LINE
  5
BD
330
1F
100
AcDbEntity
  8
TITLE
  6
Continuous
370
    18
100
AcDbLine
 10
20.062992126
 20
35.5
 30
0.0
 11
20.062992126
 21
35.8346456693
 31
0.0
  0
LINE
  5
BE
330
1F
100
AcDbEntity
  8
TITLE
  6
Continuous
370
    18
100
AcDbLine
 10
20.062992126
 20
0.5
 30
0.0
 11
20.062992126
 21
0.1653543307
 31
0.0
  0
LINE
  5
BF
330
1F
100
AcDbEntity
  8
TITLE
  6
Continuous
370
    18
100
AcDbLine
 10
22.031496063
 20
35.5
 30
0.0
 11
22.031496063
 21
35.8346456693
 31
0.0
  0
LINE
  5
C0
330
1F
100
AcDbEntity
  8
TITLE
  6
Continuous
370
    18
100
AcDbLine
 10
22.031496063
 20
0.5
 30
0.0
 11
22.031496063
 21
0.1653543307
 31
0.0
  0
LINE
  5
C1
330
1F
100
AcDbEntity
  8
TITLE
  6
Continuous
370
    18
100
AcDbLine
 10
24.0
 20
35.5000393701
 30
0.0
 11
24.0
 21
35.8346456693
 31
0.0
  0
LINE
  5
C2
330
1F
100
AcDbEntity
  8
TITLE
  6
Continuous
370
    18
100
AcDbLine
 10
24.0
 20
0.4999606299
 30
0.0
 11
24.0
 21
0.1653543307
 31
0.0
  0
LINE
  5
C3
330
1F
100
AcDbEntity
  8
TITLE
  6
Continuous
370
    18
100
AcDbLine
 10
25.968503937
 20
35.5
 30
0.0
 11
25.968503937
 21
35.8346456693
 31
0.0
  0
LINE
  5
C4
330
1F
100
AcDbEntity
  8
TITLE
  6
Continuous
370
    18
100
AcDbLine
 10
25.968503937
 20
0.5
 30
0.0
 11
25.968503937
 21
0.1653543307
 31
0.0
  0
LINE
  5
C5
330
1F
100
AcDbEntity
  8
TITLE
  6
Continuous
370
    18
100
AcDbLine
 10
27.937007874
 20
35.5
 30
0.0
 11
27.937007874
 21
35.8346456693
 31
0.0
  0
LINE
  5
C6
330
1F
100
AcDbEntity
  8
TITLE
  6
Continuous
370
    18
100
AcDbLine
 10
27.937007874
 20
0.5
 30
0.0
 11
27.937007874
 21
0.1653543307
 31
0.0
  0
LINE
  5
C7
330
1F
100
AcDbEntity
  8
TITLE
  6
Continuous
370
    18
100
AcDbLine
 10
29.905511811
 20
35.5
 30
0.0
 11
29.905511811
 21
35.8346456693
 31
0.0
  0
LINE
  5
C8
330
1F
100
AcDbEntity
  8
TITLE
  6
Continuous
370
    18
100
AcDbLine
 10
29.905511811
 20
0.5
 30
0.0
 11
29.905511811
 21
0.1653543307
 31
0.0
  0
LINE
  5
C9
330
1F
100
AcDbEntity
  8
TITLE
  6
Continuous
370
    18
100
AcDbLine
 10
31.874015748
 20
35.5
 30
0.0
 11
31.874015748
 21
35.8346456693
 31
0.0
  0
LINE
  5
CA
330
1F
100
AcDbEntity
  8
TITLE
  6
Continuous
370
    18
100
AcDbLine
 10
31.874015748
 20
0.5
 30
0.0
 11
31.874015748
 21
0.1653543307
 31
0.0
  0
LINE
  5
CB
330
1F
100
AcDbEntity
  8
TITLE
  6
Continuous
370
    18
100
AcDbLine
 10
33.842519685
 20
35.5
 30
0.0
 11
33.842519685
 21
35.8346456693
 31
0.0
  0
LINE
  5
CC
330
1F
100
AcDbEntity
  8
TITLE
  6
Continuous
370
    18
100
AcDbLine
 10
33.842519685
 20
0.5
 30
0.0
 11
33.842519685
 21
0.1653543307
 31
0.0
  0
LINE
  5
CD
330
1F
100
AcDbEntity
  8
TITLE
  6
Continuous
370
    18
100
AcDbLine
 10
35.811023622
 20
35.5
 30
0.0
 11
35.811023622
 21
35.8346456693
 31
0.0
  0
LINE
  5
CE
330
1F
100
AcDbEntity
  8
TITLE
  6
Continuous
370
    18
100
AcDbLine
 10
35.811023622
 20
0.5
 30
0.0
 11
35.811023622
 21
0.1653543307
 31
0.0
  0
LINE
  5
CF
330
1F
100
AcDbEntity
  8
TITLE
  6
Continuous
370
    18
100
AcDbLine
 10
37.7795275591
 20
35.5
 30
0.0
 11
37.7795275591
 21
35.8346456693
 31
0.0
  0
LINE
  5
D0
330
1F
100
AcDbEntity
  8
TITLE
  6
Continuous
370
    18
100
AcDbLine
 10
37.7795275591
 20
0.5
 30
0.0
 11
37.7795275591
 21
0.1653543307
 31
0.0
  0
LINE
  5
D1
330
1F
100
AcDbEntity
  8
TITLE
  6
Continuous
370
    18
100
AcDbLine
 10
39.7480314961
 20
35.5
 30
0.0
 11
39.7480314961
 21
35.8346456693
 31
0.0
  0
LINE
  5
D2
330
1F
100
AcDbEntity
  8
TITLE
  6
Continuous
370
    18
100
AcDbLine
 10
39.7480314961
 20
0.5
 30
0.0
 11
39.7480314961
 21
0.1653543307
 31
0.0
  0
LINE
  5
D3
330
1F
100
AcDbEntity
  8
TITLE
  6
Continuous
370
    18
100
AcDbLine
 10
41.7165354331
 20
35.5
 30
0.0
 11
41.7165354331
 21
35.8346456693
 31
0.0
  0
LINE
  5
D4
330
1F
100
AcDbEntity
  8
TITLE
  6
Continuous
370
    18
100
AcDbLine
 10
41.7165354331
 20
0.5
 30
0.0
 11
41.7165354331
 21
0.1653543307
 31
0.0
  0
LINE
  5
D5
330
1F
100
AcDbEntity
  8
TITLE
  6
Continuous
370
    18
100
AcDbLine
 10
43.6850393701
 20
35.5
 30
0.0
 11
43.6850393701
 21
35.8346456693
 31
0.0
  0
LINE
  5
D6
330
1F
100
AcDbEntity
  8
TITLE
  6
Continuous
370
    18
100
AcDbLine
 10
43.6850393701
 20
0.5
 30
0.0
 11
43.6850393701
 21
0.1653543307
 31
0.0
  0
LINE
  5
D7
330
1F
100
AcDbEntity
  8
TITLE
  6
Continuous
370
    18
100
AcDbLine
 10
45.6535433071
 20
35.5
 30
0.0
 11
45.6535433071
 21
35.8346456693
 31
0.0
  0
LINE
  5
D8
330
1F
100
AcDbEntity
  8
TITLE
  6
Continuous
370
    18
100
AcDbLine
 10
45.6535433071
 20
0.5
 30
0.0
 11
45.6535433071
 21
0.1653543307
 31
0.0
  0
LINE
  5
D9
330
1F
100
AcDbEntity
  8
TITLE
370
    35
100
AcDbLine
 10
0.5
 20
35.5
 30
0.0
 11
47.5
 21
35.5
 31
0.0
  0
LINE
  5
DA
330
1F
100
AcDbEntity
  8
TITLE
370
    35
100
AcDbLine
 10
0.5
 20
35.5
 30
0.0
 11
0.5
 21
0.5
 31
0.0
  0
LINE
  5
DB
330
1F
100
AcDbEntity
  8
TITLE
370
    35
100
AcDbLine
 10
0.5
 20
0.5
 30
0.0
 11
47.5
 21
0.5
 31
0.0
  0
LINE
  5
DC
330
1F
100
AcDbEntity
  8
TITLE
370
    35
100
AcDbLine
 10
47.5
 20
35.5
 30
0.0
 11
47.5
 21
0.5
 31
0.0
  0
MTEXT
  5
DE
330
1F
100
AcDbEntity
  8
NOTES
100
AcDbMText
 10
8.188667006
 20
24.0329974844
 30
0.0
 40
0.5
 41
0.0
 71
     1
 72
     1
  1
Top view
  7
SLDTEXTSTYLE0
 73
     1
 44
1.0
  0
MTEXT
  5
DF
330
1F
100
AcDbEntity
  8
NOTES
100
AcDbMText
 10
7.9163905623
 20
9.4728811057
 30
0.0
 40
0.5
 41
0.0
 71
     1
 72
     1
  1
Front view
  7
SLDTEXTSTYLE0
 73
     1
 44
1.0
  0
MTEXT
  5
E0
330
1F
100
AcDbEntity
  8
NOTES
100
AcDbMText
 10
17.9506090751
 20
9.4728811057
 30
0.0
 40
0.5
 41
0.0
 71
     1
 72
     1
  1
Side view
  7
SLDTEXTSTYLE0
 73
     1
 44
1.0
  0
MTEXT
  5
E1
330
1F
100
AcDbEntity
  8
NOTES
100
AcDbMText
 10
29.1185267921
 20
9.4728811057
 30
0.0
 40
0.5
 41
0.0
 71
     1
 72
     1
  1
Back view
  7
SLDTEXTSTYLE0
 73
     1
 44
1.0
  0
INSERT
  5
E7
330
1F
100
AcDbEntity
  8
NOTES
100
AcDbBlockReference
  2
SW_NOTE_0
 10
39.4862105047
 20
10.4312075374
 30
0.0
  0
INSERT
  5
EE
330
1F
100
AcDbEntity
  8
NOTES
100
AcDbBlockReference
  2
SW_NOTE_0_1
 10
6.9291511844
 20
5.1030300237
 30
0.0
  0
MTEXT
  5
F0
330
1F
100
AcDbEntity
  8
NOTES
100
AcDbMText
 10
24.408297803
 20
1.0702903347
 30
0.0
 40
0.25
 41
0.0
 71
     1
 72
     1
  1
UNLESS OTHERWISE SPECIFIED DIMENSIONS ARE IN INCHES.
  7
SLDTEXTSTYLE1
 73
     1
 44
1.0
  0
MTEXT
  5
F1
330
1F
100
AcDbEntity
  8
NOTES
100
AcDbMText
 10
24.4368251132
 20
3.2193045501
 30
0.0
 40
0.25
 41
0.0
 71
     1
 72
     1
  1
DATE:
  7
SLDTEXTSTYLE1
 73
     1
 44
1.0
  0
MTEXT
  5
F2
330
1F
100
AcDbEntity
  8
NOTES
100
AcDbMText
 10
26.7130669976
 20
2.1722148141
 30
0.0
 40
0.25
 41
0.0
 71
     2
 72
     1
  1
DO NOT SCALE DRAWING
  7
SLDTEXTSTYLE1
 73
     1
 44
1.0
  0
MTEXT
  5
F3
330
1F
100
AcDbEntity
  8
NOTES
100
AcDbMText
 10
30.8307373075
 20
3.2712065527
 30
0.0
 40
0.25
 41
0.0
 71
     1
 72
     1
  1
TITLE:
  7
SLDTEXTSTYLE0
 73
     1
 44
1.0
  0
MTEXT
  5
F4
330
1F
100
AcDbEntity
  8
NOTES
100
AcDbMText
 10
38.1561831052
 20
3.2712065527
 30
0.0
 40
0.25
 41
0.0
 71
     1
 72
     1
  1
DWG NO.
  7
SLDTEXTSTYLE0
 73
     1
 44
1.0
  0
MTEXT
  5
F6
330
1F
100
AcDbEntity
  8
NOTES
100
AcDbMText
 10
38.1831753203
 20
1.0619793396
 30
0.0
 40
0.375
 41
0.0
 71
     1
 72
     1
  1
SCALE:     1:1
  7
SLDTEXTSTYLE2
 73
     1
 44
1.0
  0
MTEXT
  5
F7
330
1F
100
AcDbEntity
  8
NOTES
100
AcDbMText
 10
42.1818560562
 20
2.6484322297
 30
0.0
 40
0.375
 41
0.0
 71
     2
 72
     1
  1
714-P CAD
  7
SLDTEXTSTYLE0
 73
     1
 44
1.0
  0
MTEXT
  5
F8
330
1F
100
AcDbEntity
  8
NOTES
100
AcDbMText
 10
33.9568340961
 20
2.6362839444
 30
0.0
 40
0.375
 41
0.0
 71
     2
 72
     1
  1
714-P
  7
SLDTEXTSTYLE0
 73
     1
 44
1.0
  0
INSERT
  5
FE
330
1F
100
AcDbEntity
  8
NOTES
100
AcDbBlockReference
  2
SW_NOTE_0_2
 10
38.266131557
 20
4.6105227838
 30
0.0
  0
INSERT
  5
106
330
1F
100
AcDbEntity
  8
NOTES
100
AcDbBlockReference
  2
SW_NOTE_0_3
 10
24.6159726246
 20
5.1481526848
 30
0.0
  0
MTEXT
  5
107
330
1F
100
AcDbEntity
  8
NOTES
100
AcDbMText
 10
28.0154041725
 20
3.2109935734
 30
0.0
 40
0.375
 41
0.0
 71
     2
 72
     1
  1
April 29, 2024
  7
SLDTEXTSTYLE0
 73
     1
 44
1.0
  0
MTEXT
  5
108
330
1F
100
AcDbEntity
  8
TITLE
100
AcDbMText
 10
0.3276279776
 20
1.4573276952
 30
0.0
 40
0.125
 41
0.0
 71
     2
 72
     1
  1
A
  7
SLDTEXTSTYLE0
 73
     1
 44
1.0
  0
MTEXT
  5
109
330
1F
100
AcDbEntity
  8
TITLE
100
AcDbMText
 10
47.6622736469
 20
1.4573276952
 30
0.0
 40
0.125
 41
0.0
 71
     2
 72
     1
  1
A
  7
SLDTEXTSTYLE0
 73
     1
 44
1.0
  0
MTEXT
  5
10A
330
1F
100
AcDbEntity
  8
TITLE
100
AcDbMText
 10
0.3317512413
 20
3.3175639157
 30
0.0
 40
0.125
 41
0.0
 71
     2
 72
     1
  1
B
  7
SLDTEXTSTYLE0
 73
     1
 44
1.0
  0
MTEXT
  5
10B
330
1F
100
AcDbEntity
  8
TITLE
100
AcDbMText
 10
47.6663969106
 20
3.3175639157
 30
0.0
 40
0.125
 41
0.0
 71
     2
 72
     1
  1
B
  7
SLDTEXTSTYLE0
 73
     1
 44
1.0
  0
MTEXT
  5
10C
330
1F
100
AcDbEntity
  8
TITLE
100
AcDbMText
 10
0.3313750817
 20
5.2860678527
 30
0.0
 40
0.125
 41
0.0
 71
     2
 72
     1
  1
C
  7
SLDTEXTSTYLE0
 73
     1
 44
1.0
  0
MTEXT
  5
10D
330
1F
100
AcDbEntity
  8
TITLE
100
AcDbMText
 10
47.666020751
 20
5.2860678527
 30
0.0
 40
0.125
 41
0.0
 71
     2
 72
     1
  1
C
  7
SLDTEXTSTYLE0
 73
     1
 44
1.0
  0
MTEXT
  5
10E
330
1F
100
AcDbEntity
  8
TITLE
100
AcDbMText
 10
0.3311870028
 20
7.2545717897
 30
0.0
 40
0.125
 41
0.0
 71
     2
 72
     1
  1
D
  7
SLDTEXTSTYLE0
 73
     1
 44
1.0
  0
MTEXT
  5
10F
330
1F
100
AcDbEntity
  8
TITLE
100
AcDbMText
 10
47.6658326721
 20
7.2545717897
 30
0.0
 40
0.125
 41
0.0
 71
     2
 72
     1
  1
D
  7
SLDTEXTSTYLE0
 73
     1
 44
1.0
  0
MTEXT
  5
110
330
1F
100
AcDbEntity
  8
TITLE
100
AcDbMText
 10
0.332923116
 20
9.2230757267
 30
0.0
 40
0.125
 41
0.0
 71
     2
 72
     1
  1
E
  7
SLDTEXTSTYLE0
 73
     1
 44
1.0
  0
MTEXT
  5
111
330
1F
100
AcDbEntity
  8
TITLE
100
AcDbMText
 10
47.6675687853
 20
9.2230757267
 30
0.0
 40
0.125
 41
0.0
 71
     2
 72
     1
  1
E
  7
SLDTEXTSTYLE0
 73
     1
 44
1.0
  0
MTEXT
  5
112
330
1F
100
AcDbEntity
  8
TITLE
100
AcDbMText
 10
0.3313461474
 20
11.1915796637
 30
0.0
 40
0.125
 41
0.0
 71
     2
 72
     1
  1
F
  7
SLDTEXTSTYLE0
 73
     1
 44
1.0
  0
MTEXT
  5
113
330
1F
100
AcDbEntity
  8
TITLE
100
AcDbMText
 10
47.6659918167
 20
11.1915796637
 30
0.0
 40
0.125
 41
0.0
 71
     2
 72
     1
  1
F
  7
SLDTEXTSTYLE0
 73
     1
 44
1.0
  0
MTEXT
  5
114
330
1F
100
AcDbEntity
  8
TITLE
100
AcDbMText
 10
0.3322576054
 20
13.1600836007
 30
0.0
 40
0.125
 41
0.0
 71
     2
 72
     1
  1
G
  7
SLDTEXTSTYLE0
 73
     1
 44
1.0
  0
MTEXT
  5
115
330
1F
100
AcDbEntity
  8
TITLE
100
AcDbMText
 10
47.6669032747
 20
13.1600836007
 30
0.0
 40
0.125
 41
0.0
 71
     2
 72
     1
  1
G
  7
SLDTEXTSTYLE0
 73
     1
 44
1.0
  0
MTEXT
  5
116
330
1F
100
AcDbEntity
  8
TITLE
100
AcDbMText
 10
0.3323733457
 20
15.1285875377
 30
0.0
 40
0.125
 41
0.0
 71
     2
 72
     1
  1
H
  7
SLDTEXTSTYLE0
 73
     1
 44
1.0
  0
MTEXT
  5
117
330
1F
100
AcDbEntity
  8
TITLE
100
AcDbMText
 10
47.667019015
 20
15.1285875377
 30
0.0
 40
0.125
 41
0.0
 71
     2
 72
     1
  1
H
  7
SLDTEXTSTYLE0
 73
     1
 44
1.0
  0
MTEXT
  5
118
330
1F
100
AcDbEntity
  8
TITLE
100
AcDbMText
 10
0.3315776306
 20
17.0970914747
 30
0.0
 40
0.125
 41
0.0
 71
     2
 72
     1
  1
J
  7
SLDTEXTSTYLE0
 73
     1
 44
1.0
  0
MTEXT
  5
119
330
1F
100
AcDbEntity
  8
TITLE
100
AcDbMText
 10
47.6662232999
 20
17.0970914747
 30
0.0
 40
0.125
 41
0.0
 71
     2
 72
     1
  1
J
  7
SLDTEXTSTYLE0
 73
     1
 44
1.0
  0
MTEXT
  5
11A
330
1F
100
AcDbEntity
  8
TITLE
100
AcDbMText
 10
0.3323154765
 20
19.0655954117
 30
0.0
 40
0.125
 41
0.0
 71
     2
 72
     1
  1
K
  7
SLDTEXTSTYLE0
 73
     1
 44
1.0
  0
MTEXT
  5
11B
330
1F
100
AcDbEntity
  8
TITLE
100
AcDbMText
 10
47.6669611458
 20
19.0655954117
 30
0.0
 40
0.125
 41
0.0
 71
     2
 72
     1
  1
K
  7
SLDTEXTSTYLE0
 73
     1
 44
1.0
  0
MTEXT
  5
11C
330
1F
100
AcDbEntity
  8
TITLE
100
AcDbMText
 10
0.3312448739
 20
21.0340993488
 30
0.0
 40
0.125
 41
0.0
 71
     2
 72
     1
  1
L
  7
SLDTEXTSTYLE0
 73
     1
 44
1.0
  0
MTEXT
  5
11D
330
1F
100
AcDbEntity
  8
TITLE
100
AcDbMText
 10
47.6658905432
 20
21.0340993488
 30
0.0
 40
0.125
 41
0.0
 71
     2
 72
     1
  1
L
  7
SLDTEXTSTYLE0
 73
     1
 44
1.0
  0
MTEXT
  5
11E
330
1F
100
AcDbEntity
  8
TITLE
100
AcDbMText
 10
0.3283224192
 20
23.0026032858
 30
0.0
 40
0.125
 41
0.0
 71
     2
 72
     1
  1
M
  7
SLDTEXTSTYLE0
 73
     1
 44
1.0
  0
MTEXT
  5
11F
330
1F
100
AcDbEntity
  8
TITLE
100
AcDbMText
 10
47.6629680885
 20
23.0026032858
 30
0.0
 40
0.125
 41
0.0
 71
     2
 72
     1
  1
M
  7
SLDTEXTSTYLE0
 73
     1
 44
1.0
  0
MTEXT
  5
120
330
1F
100
AcDbEntity
  8
TITLE
100
AcDbMText
 10
0.3315342276
 20
24.9711072228
 30
0.0
 40
0.125
 41
0.0
 71
     2
 72
     1
  1
N
  7
SLDTEXTSTYLE0
 73
     1
 44
1.0
  0
MTEXT
  5
121
330
1F
100
AcDbEntity
  8
TITLE
100
AcDbMText
 10
47.6661798969
 20
24.9711072228
 30
0.0
 40
0.125
 41
0.0
 71
     2
 72
     1
  1
N
  7
SLDTEXTSTYLE0
 73
     1
 44
1.0
  0
MTEXT
  5
122
330
1F
100
AcDbEntity
  8
TITLE
100
AcDbMText
 10
0.3321997349
 20
26.9396111598
 30
0.0
 40
0.125
 41
0.0
 71
     2
 72
     1
  1
P
  7
SLDTEXTSTYLE0
 73
     1
 44
1.0
  0
MTEXT
  5
123
330
1F
100
AcDbEntity
  8
TITLE
100
AcDbMText
 10
47.6668454042
 20
26.9396111598
 30
0.0
 40
0.125
 41
0.0
 71
     2
 72
     1
  1
P
  7
SLDTEXTSTYLE0
 73
     1
 44
1.0
  0
MTEXT
  5
124
330
1F
100
AcDbEntity
  8
TITLE
100
AcDbMText
 10
0.3309265867
 20
28.9081150968
 30
0.0
 40
0.125
 41
0.0
 71
     2
 72
     1
  1
R
  7
SLDTEXTSTYLE0
 73
     1
 44
1.0
  0
MTEXT
  5
125
330
1F
100
AcDbEntity
  8
TITLE
100
AcDbMText
 10
47.665572256
 20
28.9081150968
 30
0.0
 40
0.125
 41
0.0
 71
     2
 72
     1
  1
R
  7
SLDTEXTSTYLE0
 73
     1
 44
1.0
  0
MTEXT
  5
126
330
1F
100
AcDbEntity
  8
TITLE
100
AcDbMText
 10
0.3323010071
 20
30.8766190338
 30
0.0
 40
0.125
 41
0.0
 71
     2
 72
     1
  1
T
  7
SLDTEXTSTYLE0
 73
     1
 44
1.0
  0
MTEXT
  5
127
330
1F
100
AcDbEntity
  8
TITLE
100
AcDbMText
 10
47.6669466764
 20
30.8766190338
 30
0.0
 40
0.125
 41
0.0
 71
     2
 72
     1
  1
T
  7
SLDTEXTSTYLE0
 73
     1
 44
1.0
  0
MTEXT
  5
128
330
1F
100
AcDbEntity
  8
TITLE
100
AcDbMText
 10
0.3328507755
 20
32.8451229708
 30
0.0
 40
0.125
 41
0.0
 71
     2
 72
     1
  1
U
  7
SLDTEXTSTYLE0
 73
     1
 44
1.0
  0
MTEXT
  5
129
330
1F
100
AcDbEntity
  8
TITLE
100
AcDbMText
 10
47.6674964448
 20
32.8451229708
 30
0.0
 40
0.125
 41
0.0
 71
     2
 72
     1
  1
U
  7
SLDTEXTSTYLE0
 73
     1
 44
1.0
  0
MTEXT
  5
12A
330
1F
100
AcDbEntity
  8
TITLE
100
AcDbMText
 10
0.3307529773
 20
34.7053591913
 30
0.0
 40
0.125
 41
0.0
 71
     2
 72
     1
  1
V
  7
SLDTEXTSTYLE0
 73
     1
 44
1.0
  0
MTEXT
  5
12B
330
1F
100
AcDbEntity
  8
TITLE
100
AcDbMText
 10
47.6653986466
 20
34.7053591913
 30
0.0
 40
0.125
 41
0.0
 71
     2
 72
     1
  1
V
  7
SLDTEXTSTYLE0
 73
     1
 44
1.0
  0
MTEXT
  5
12C
330
1F
100
AcDbEntity
  8
TITLE
100
AcDbMText
 10
1.4207109851
 20
0.4140206086
 30
0.0
 40
0.125
 41
0.0
 71
     2
 72
     1
  1
24
  7
SLDTEXTSTYLE0
 73
     1
 44
1.0
  0
MTEXT
  5
12D
330
1F
100
AcDbEntity
  8
TITLE
100
AcDbMText
 10
1.4207109851
 20
35.7486662779
 30
0.0
 40
0.125
 41
0.0
 71
     2
 72
     1
  1
24
  7
SLDTEXTSTYLE0
 73
     1
 44
1.0
  0
MTEXT
  5
12E
330
1F
100
AcDbEntity
  8
TITLE
100
AcDbMText
 10
3.3281913
 20
0.4140206086
 30
0.0
 40
0.125
 41
0.0
 71
     2
 72
     1
  1
23
  7
SLDTEXTSTYLE0
 73
     1
 44
1.0
  0
MTEXT
  5
12F
330
1F
100
AcDbEntity
  8
TITLE
100
AcDbMText
 10
3.3281913
 20
35.7486662779
 30
0.0
 40
0.125
 41
0.0
 71
     2
 72
     1
  1
23
  7
SLDTEXTSTYLE0
 73
     1
 44
1.0
  0
MTEXT
  5
130
330
1F
100
AcDbEntity
  8
TITLE
100
AcDbMText
 10
5.2966952371
 20
0.4140206086
 30
0.0
 40
0.125
 41
0.0
 71
     2
 72
     1
  1
22
  7
SLDTEXTSTYLE0
 73
     1
 44
1.0
  0
MTEXT
  5
131
330
1F
100
AcDbEntity
  8
TITLE
100
AcDbMText
 10
5.2966952371
 20
35.7486662779
 30
0.0
 40
0.125
 41
0.0
 71
     2
 72
     1
  1
22
  7
SLDTEXTSTYLE0
 73
     1
 44
1.0
  0
MTEXT
  5
132
330
1F
100
AcDbEntity
  8
TITLE
100
AcDbMText
 10
7.2651991741
 20
0.4140206086
 30
0.0
 40
0.125
 41
0.0
 71
     2
 72
     1
  1
21
  7
SLDTEXTSTYLE0
 73
     1
 44
1.0
  0
MTEXT
  5
133
330
1F
100
AcDbEntity
  8
TITLE
100
AcDbMText
 10
7.2651991741
 20
35.7486662779
 30
0.0
 40
0.125
 41
0.0
 71
     2
 72
     1
  1
21
  7
SLDTEXTSTYLE0
 73
     1
 44
1.0
  0
MTEXT
  5
134
330
1F
100
AcDbEntity
  8
TITLE
100
AcDbMText
 10
9.2337031111
 20
0.4140206086
 30
0.0
 40
0.125
 41
0.0
 71
     2
 72
     1
  1
20
  7
SLDTEXTSTYLE0
 73
     1
 44
1.0
  0
MTEXT
  5
135
330
1F
100
AcDbEntity
  8
TITLE
100
AcDbMText
 10
9.2337031111
 20
35.7486662779
 30
0.0
 40
0.125
 41
0.0
 71
     2
 72
     1
  1
20
  7
SLDTEXTSTYLE0
 73
     1
 44
1.0
  0
MTEXT
  5
136
330
1F
100
AcDbEntity
  8
TITLE
100
AcDbMText
 10
11.2022070481
 20
0.4140206086
 30
0.0
 40
0.125
 41
0.0
 71
     2
 72
     1
  1
19
  7
SLDTEXTSTYLE0
 73
     1
 44
1.0
  0
MTEXT
  5
137
330
1F
100
AcDbEntity
  8
TITLE
100
AcDbMText
 10
11.2022070481
 20
35.7486662779
 30
0.0
 40
0.125
 41
0.0
 71
     2
 72
     1
  1
19
  7
SLDTEXTSTYLE0
 73
     1
 44
1.0
  0
MTEXT
  5
138
330
1F
100
AcDbEntity
  8
TITLE
100
AcDbMText
 10
13.1707109851
 20
0.4140206086
 30
0.0
 40
0.125
 41
0.0
 71
     2
 72
     1
  1
18
  7
SLDTEXTSTYLE0
 73
     1
 44
1.0
  0
MTEXT
  5
139
330
1F
100
AcDbEntity
  8
TITLE
100
AcDbMText
 10
13.1707109851
 20
35.7486662779
 30
0.0
 40
0.125
 41
0.0
 71
     2
 72
     1
  1
18
  7
SLDTEXTSTYLE0
 73
     1
 44
1.0
  0
MTEXT
  5
13A
330
1F
100
AcDbEntity
  8
TITLE
100
AcDbMText
 10
15.1392149221
 20
0.4140206086
 30
0.0
 40
0.125
 41
0.0
 71
     2
 72
     1
  1
17
  7
SLDTEXTSTYLE0
 73
     1
 44
1.0
  0
MTEXT
  5
13B
330
1F
100
AcDbEntity
  8
TITLE
100
AcDbMText
 10
15.1392149221
 20
35.7486662779
 30
0.0
 40
0.125
 41
0.0
 71
     2
 72
     1
  1
17
  7
SLDTEXTSTYLE0
 73
     1
 44
1.0
  0
MTEXT
  5
13C
330
1F
100
AcDbEntity
  8
TITLE
100
AcDbMText
 10
17.1077188591
 20
0.4140206086
 30
0.0
 40
0.125
 41
0.0
 71
     2
 72
     1
  1
16
  7
SLDTEXTSTYLE0
 73
     1
 44
1.0
  0
MTEXT
  5
13D
330
1F
100
AcDbEntity
  8
TITLE
100
AcDbMText
 10
17.1077188591
 20
35.7486662779
 30
0.0
 40
0.125
 41
0.0
 71
     2
 72
     1
  1
16
  7
SLDTEXTSTYLE0
 73
     1
 44
1.0
  0
MTEXT
  5
13E
330
1F
100
AcDbEntity
  8
TITLE
100
AcDbMText
 10
19.0762227961
 20
0.4140206086
 30
0.0
 40
0.125
 41
0.0
 71
     2
 72
     1
  1
15
  7
SLDTEXTSTYLE0
 73
     1
 44
1.0
  0
MTEXT
  5
13F
330
1F
100
AcDbEntity
  8
TITLE
100
AcDbMText
 10
19.0762227961
 20
35.7486662779
 30
0.0
 40
0.125
 41
0.0
 71
     2
 72
     1
  1
15
  7
SLDTEXTSTYLE0
 73
     1
 44
1.0
  0
MTEXT
  5
140
330
1F
100
AcDbEntity
  8
TITLE
100
AcDbMText
 10
21.0447267331
 20
0.4140206086
 30
0.0
 40
0.125
 41
0.0
 71
     2
 72
     1
  1
14
  7
SLDTEXTSTYLE0
 73
     1
 44
1.0
  0
MTEXT
  5
141
330
1F
100
AcDbEntity
  8
TITLE
100
AcDbMText
 10
21.0447267331
 20
35.7486662779
 30
0.0
 40
0.125
 41
0.0
 71
     2
 72
     1
  1
14
  7
SLDTEXTSTYLE0
 73
     1
 44
1.0
  0
MTEXT
  5
142
330
1F
100
AcDbEntity
  8
TITLE
100
AcDbMText
 10
23.0132306701
 20
0.4140206086
 30
0.0
 40
0.125
 41
0.0
 71
     2
 72
     1
  1
13
  7
SLDTEXTSTYLE0
 73
     1
 44
1.0
  0
MTEXT
  5
143
330
1F
100
AcDbEntity
  8
TITLE
100
AcDbMText
 10
23.0132306701
 20
35.7486662779
 30
0.0
 40
0.125
 41
0.0
 71
     2
 72
     1
  1
13
  7
SLDTEXTSTYLE0
 73
     1
 44
1.0
  0
MTEXT
  5
144
330
1F
100
AcDbEntity
  8
TITLE
100
AcDbMText
 10
24.9817346071
 20
0.4140206086
 30
0.0
 40
0.125
 41
0.0
 71
     2
 72
     1
  1
12
  7
SLDTEXTSTYLE0
 73
     1
 44
1.0
  0
MTEXT
  5
145
330
1F
100
AcDbEntity
  8
TITLE
100
AcDbMText
 10
24.9817346071
 20
35.7486662779
 30
0.0
 40
0.125
 41
0.0
 71
     2
 72
     1
  1
12
  7
SLDTEXTSTYLE0
 73
     1
 44
1.0
  0
MTEXT
  5
146
330
1F
100
AcDbEntity
  8
TITLE
100
AcDbMText
 10
26.9502385441
 20
0.4140206086
 30
0.0
 40
0.125
 41
0.0
 71
     2
 72
     1
  1
11
  7
SLDTEXTSTYLE0
 73
     1
 44
1.0
  0
MTEXT
  5
147
330
1F
100
AcDbEntity
  8
TITLE
100
AcDbMText
 10
26.9502385441
 20
35.7486662779
 30
0.0
 40
0.125
 41
0.0
 71
     2
 72
     1
  1
11
  7
SLDTEXTSTYLE0
 73
     1
 44
1.0
  0
MTEXT
  5
148
330
1F
100
AcDbEntity
  8
TITLE
100
AcDbMText
 10
28.9187424811
 20
0.4140206086
 30
0.0
 40
0.125
 41
0.0
 71
     2
 72
     1
  1
10
  7
SLDTEXTSTYLE0
 73
     1
 44
1.0
  0
MTEXT
  5
149
330
1F
100
AcDbEntity
  8
TITLE
100
AcDbMText
 10
28.9187424811
 20
35.7486662779
 30
0.0
 40
0.125
 41
0.0
 71
     2
 72
     1
  1
10
  7
SLDTEXTSTYLE0
 73
     1
 44
1.0
  0
MTEXT
  5
14A
330
1F
100
AcDbEntity
  8
TITLE
100
AcDbMText
 10
30.8885050988
 20
0.4140206086
 30
0.0
 40
0.125
 41
0.0
 71
     2
 72
     1
  1
9
  7
SLDTEXTSTYLE0
 73
     1
 44
1.0
  0
MTEXT
  5
14B
330
1F
100
AcDbEntity
  8
TITLE
100
AcDbMText
 10
30.8885050988
 20
35.7486662779
 30
0.0
 40
0.125
 41
0.0
 71
     2
 72
     1
  1
9
  7
SLDTEXTSTYLE0
 73
     1
 44
1.0
  0
MTEXT
  5
14C
330
1F
100
AcDbEntity
  8
TITLE
100
AcDbMText
 10
32.8570090359
 20
0.4140206086
 30
0.0
 40
0.125
 41
0.0
 71
     2
 72
     1
  1
8
  7
SLDTEXTSTYLE0
 73
     1
 44
1.0
  0
MTEXT
  5
14D
330
1F
100
AcDbEntity
  8
TITLE
100
AcDbMText
 10
32.8570090359
 20
35.7486662779
 30
0.0
 40
0.125
 41
0.0
 71
     2
 72
     1
  1
8
  7
SLDTEXTSTYLE0
 73
     1
 44
1.0
  0
MTEXT
  5
14E
330
1F
100
AcDbEntity
  8
TITLE
100
AcDbMText
 10
34.8255129729
 20
0.4140206086
 30
0.0
 40
0.125
 41
0.0
 71
     2
 72
     1
  1
7
  7
SLDTEXTSTYLE0
 73
     1
 44
1.0
  0
MTEXT
  5
14F
330
1F
100
AcDbEntity
  8
TITLE
100
AcDbMText
 10
34.8255129729
 20
35.7486662779
 30
0.0
 40
0.125
 41
0.0
 71
     2
 72
     1
  1
7
  7
SLDTEXTSTYLE0
 73
     1
 44
1.0
  0
MTEXT
  5
150
330
1F
100
AcDbEntity
  8
TITLE
100
AcDbMText
 10
36.7940169099
 20
0.4140206086
 30
0.0
 40
0.125
 41
0.0
 71
     2
 72
     1
  1
6
  7
SLDTEXTSTYLE0
 73
     1
 44
1.0
  0
MTEXT
  5
151
330
1F
100
AcDbEntity
  8
TITLE
100
AcDbMText
 10
36.7940169099
 20
35.7486662779
 30
0.0
 40
0.125
 41
0.0
 71
     2
 72
     1
  1
6
  7
SLDTEXTSTYLE0
 73
     1
 44
1.0
  0
MTEXT
  5
152
330
1F
100
AcDbEntity
  8
TITLE
100
AcDbMText
 10
38.7625208469
 20
0.4140206086
 30
0.0
 40
0.125
 41
0.0
 71
     2
 72
     1
  1
5
  7
SLDTEXTSTYLE0
 73
     1
 44
1.0
  0
MTEXT
  5
153
330
1F
100
AcDbEntity
  8
TITLE
100
AcDbMText
 10
38.7625208469
 20
35.7486662779
 30
0.0
 40
0.125
 41
0.0
 71
     2
 72
     1
  1
5
  7
SLDTEXTSTYLE0
 73
     1
 44
1.0
  0
MTEXT
  5
154
330
1F
100
AcDbEntity
  8
TITLE
100
AcDbMText
 10
40.7310247839
 20
0.4140206086
 30
0.0
 40
0.125
 41
0.0
 71
     2
 72
     1
  1
4
  7
SLDTEXTSTYLE0
 73
     1
 44
1.0
  0
MTEXT
  5
155
330
1F
100
AcDbEntity
  8
TITLE
100
AcDbMText
 10
40.7310247839
 20
35.7486662779
 30
0.0
 40
0.125
 41
0.0
 71
     2
 72
     1
  1
4
  7
SLDTEXTSTYLE0
 73
     1
 44
1.0
  0
MTEXT
  5
156
330
1F
100
AcDbEntity
  8
TITLE
100
AcDbMText
 10
42.6995287209
 20
0.4140206086
 30
0.0
 40
0.125
 41
0.0
 71
     2
 72
     1
  1
3
  7
SLDTEXTSTYLE0
 73
     1
 44
1.0
  0
MTEXT
  5
157
330
1F
100
AcDbEntity
  8
TITLE
100
AcDbMText
 10
42.6995287209
 20
35.7486662779
 30
0.0
 40
0.125
 41
0.0
 71
     2
 72
     1
  1
3
  7
SLDTEXTSTYLE0
 73
     1
 44
1.0
  0
MTEXT
  5
158
330
1F
100
AcDbEntity
  8
TITLE
100
AcDbMText
 10
44.6680326579
 20
0.4140206086
 30
0.0
 40
0.125
 41
0.0
 71
     2
 72
     1
  1
2
  7
SLDTEXTSTYLE0
 73
     1
 44
1.0
  0
MTEXT
  5
159
330
1F
100
AcDbEntity
  8
TITLE
100
AcDbMText
 10
44.6680326579
 20
35.7486662779
 30
0.0
 40
0.125
 41
0.0
 71
     2
 72
     1
  1
2
  7
SLDTEXTSTYLE0
 73
     1
 44
1.0
  0
MTEXT
  5
15A
330
1F
100
AcDbEntity
  8
TITLE
100
AcDbMText
 10
46.5755129729
 20
0.4140206086
 30
0.0
 40
0.125
 41
0.0
 71
     2
 72
     1
  1
1
  7
SLDTEXTSTYLE0
 73
     1
 44
1.0
  0
MTEXT
  5
15B
330
1F
100
AcDbEntity
  8
TITLE
100
AcDbMText
 10
46.5755129729
 20
35.7486662779
 30
0.0
 40
0.125
 41
0.0
 71
     2
 72
     1
  1
1
  7
SLDTEXTSTYLE0
 73
     1
 44
1.0
  0
LINE
  5
15C
330
1F
100
AcDbEntity
  8
0
  6
Continuous
 62
     7
370
    25
100
AcDbLine
 10
9.395446326
 20
10.5525491933
 30
0.0
 11
9.395446326
 21
10.2542364906
 31
0.0
  0
LINE
  5
15D
330
1F
100
AcDbEntity
  8
0
  6
Continuous
 62
     7
370
    25
100
AcDbLine
 10
9.683446326
 20
10.2542364906
 30
0.0
 11
9.683446326
 21
10.5525428163
 31
0.0
  0
ARC
  5
15E
330
1F
100
AcDbEntity
  8
0
  6
Continuous
 62
     7
370
    25
100
AcDbCircle
 10
11.8394463648
 20
20.1571240966
 30
0.0
 40
0.1999999611574351
100
AcDbArc
 50
0.0068851843
 51
72.0176813849
  0
ARC
  5
15F
330
1F
100
AcDbEntity
  8
0
  6
Continuous
 62
     7
370
    25
100
AcDbCircle
 10
7.2394462872
 20
20.1571240966
 30
0.0
 40
0.1999999611569888
100
AcDbArc
 50
107.9827620106
 51
179.9931148157
  0
CIRCLE
  5
160
330
1F
100
AcDbEntity
  8
0
  6
Continuous
 62
     7
370
    25
100
AcDbCircle
 10
9.5394529864
 20
13.9695083292
 30
0.0
 40
0.0995313557850096
  0
CIRCLE
  5
161
330
1F
100
AcDbEntity
  8
0
  6
Continuous
 62
     7
370
    25
100
AcDbCircle
 10
9.539446326
 20
13.9696486289
 30
0.0
 40
0.1044999999999998
  0
ARC
  5
162
330
1F
100
AcDbEntity
  8
0
  6
Continuous
 62
     7
370
    25
100
AcDbCircle
 10
24.2233458489
 20
14.8033034294
 30
0.0
 40
14.95926890996487
100
AcDbArc
 50
170.6706449017
 51
180.4063995668
  0
ARC
  5
163
330
1F
100
AcDbEntity
  8
0
  6
Continuous
 62
     7
370
    25
100
AcDbCircle
 10
9.4744810163
 20
17.2815803928
 30
0.0
 40
0.0546944287574989
100
AcDbArc
 50
256.7513928099
 51
261.9704634637
  0
ARC
  5
164
330
1F
100
AcDbEntity
  8
0
  6
Continuous
 62
     7
370
    25
100
AcDbCircle
 10
24.2153266125
 20
14.8031890013
 30
0.0
 40
14.94639526172016
100
AcDbArc
 50
170.665665016
 51
180.4065924593
  0
ARC
  5
165
330
1F
100
AcDbEntity
  8
0
  6
Continuous
 62
     7
370
    25
100
AcDbCircle
 10
9.2677228138
 20
14.7528463133
 30
0.0
 40
0.0557442137991616
100
AcDbArc
 50
266.6374959503
 51
271.6292073163
  0
ARC
  5
166
330
1F
100
AcDbEntity
  8
0
  6
Continuous
 62
     7
370
    25
100
AcDbCircle
 10
9.539446326
 20
17.2154606356
 30
0.0
 40
0.0735839446390816
100
AcDbArc
 50
9.3553108166
 51
170.6446891834
  0
ARC
  5
167
330
1F
100
AcDbEntity
  8
0
  6
Continuous
 62
     7
370
    25
100
AcDbCircle
 10
-5.1364339605
 20
14.8031890013
 30
0.0
 40
14.94639526171916
100
AcDbArc
 50
359.5934075407
 51
9.334334984
  0
ARC
  5
168
330
1F
100
AcDbEntity
  8
0
  6
Continuous
 62
     7
370
    25
100
AcDbCircle
 10
9.539446326
 20
14.6991566542
 30
0.0
 40
0.2701462797420361
100
AcDbArc
 50
180.4309786524
 51
359.5690213476
  0
ARC
  5
169
330
1F
100
AcDbEntity
  8
0
  6
Continuous
 62
     7
370
    25
100
AcDbCircle
 10
9.6044116357
 20
17.2815803928
 30
0.0
 40
0.0546944287569897
100
AcDbArc
 50
278.0295365362
 51
283.2486071901
  0
ARC
  5
16A
330
1F
100
AcDbEntity
  8
0
  6
Continuous
 62
     7
370
    25
100
AcDbCircle
 10
-5.1444531969
 20
14.8033034294
 30
0.0
 40
14.95926890996447
100
AcDbArc
 50
359.5936004332
 51
9.3293550983
  0
ARC
  5
16B
330
1F
100
AcDbEntity
  8
0
  6
Continuous
 62
     7
370
    25
100
AcDbCircle
 10
9.8111698382
 20
14.7528463133
 30
0.0
 40
0.0557442137991609
100
AcDbArc
 50
268.3707926836
 51
273.3625040496
  0
ARC
  5
16C
330
1F
100
AcDbEntity
  8
0
  6
Continuous
 62
     7
370
    25
100
AcDbCircle
 10
9.539446326
 20
17.215609779
 30
0.0
 40
0.0785388498377978
100
AcDbArc
 50
9.3293550983
 51
170.6706449017
  0
ARC
  5
16D
330
1F
100
AcDbEntity
  8
0
  6
Continuous
 62
     7
370
    25
100
AcDbCircle
 10
9.539446326
 20
14.6991486289
 30
0.0
 40
0.2749999999999995
100
AcDbArc
 50
180.4063995668
 51
359.5936004332
  0
CIRCLE
  5
16E
330
1F
100
AcDbEntity
  8
0
  6
Continuous
 62
     7
370
    25
100
AcDbCircle
 10
9.539446326
 20
13.9696486289
 30
0.0
 40
0.1094999999999864
  0
ARC
  5
16F
330
1F
100
AcDbEntity
  8
0
  6
Continuous
 62
     7
370
    25
100
AcDbCircle
 10
24.2234696202
 20
14.8032937721
 30
0.0
 40
14.96439260970463
100
AcDbArc
 50
170.670685238
 51
180.4063592305
  0
ARC
  5
170
330
1F
100
AcDbEntity
  8
0
  6
Continuous
 62
     7
370
    25
100
AcDbCircle
 10
9.539446326
 20
14.6991486289
 30
0.0
 40
0.2800000000000009
100
AcDbArc
 50
180.4063995668
 51
359.5936004332
  0
ARC
  5
171
330
1F
100
AcDbEntity
  8
0
  6
Continuous
 62
     7
370
    25
100
AcDbCircle
 10
-5.1444531969
 20
14.8033034294
 30
0.0
 40
14.96426890996489
100
AcDbArc
 50
359.5936004332
 51
9.3293550983
  0
ARC
  5
172
330
1F
100
AcDbEntity
  8
0
  6
Continuous
 62
     7
370
    25
100
AcDbCircle
 10
9.539446326
 20
17.215609779
 30
0.0
 40
0.0835388498377927
100
AcDbArc
 50
9.3293550983
 51
170.6706449017
  0
ARC
  5
173
330
1F
100
AcDbEntity
  8
0
  6
Continuous
 62
     7
370
    25
100
AcDbCircle
 10
8.1895046815
 20
10.7419267611
 30
0.0
 40
0.0742442652413877
100
AcDbArc
 50
174.6556690396
 51
177.1906718437
  0
ARC
  5
174
330
1F
100
AcDbEntity
  8
0
  6
Continuous
 62
     7
370
    25
100
AcDbCircle
 10
-28.3522732449
 20
14.1600414164
 30
0.0
 40
36.62705055954831
100
AcDbArc
 50
354.6561084174
 51
5.2380031208
  0
ARC
  5
175
330
1F
100
AcDbEntity
  8
0
  6
Continuous
 62
     7
370
    25
100
AcDbCircle
 10
8.1218740458
 20
17.5033098591
 30
0.0
 40
0.0005311705949357
100
AcDbArc
 50
89.8951554451
 51
95.2843643304
  0
LWPOLYLINE
  5
176
330
1F
100
AcDbEntity
  8
0
  6
Continuous
 62
     7
370
    25
100
AcDbPolyline
 90
       11
 70
   128
 43
0.0
 10
8.1218750178
 20
17.5038410288
 10
8.1971740314
 20
17.5037187668
 10
8.4464069036
 20
17.5033619012
 10
8.7422680569
 20
17.5030333903
 10
8.8415934482
 20
17.50294621
 10
8.9409991826
 20
17.5028705738
 10
9.0404738156
 20
17.5028065095
 10
9.2398827824
 20
17.5027130815
 10
9.3396795715
 20
17.5026838488
 10
9.4394994446
 20
17.5026662994
 10
9.539446326
 20
17.5026604399
  0
LWPOLYLINE
  5
177
330
1F
100
AcDbEntity
  8
0
  6
Continuous
 62
     7
370
    25
100
AcDbPolyline
 90
       11
 70
   128
 43
0.0
 10
10.9570176343
 20
17.5038410288
 10
10.8817186206
 20
17.5037187668
 10
10.6324857484
 20
17.5033619012
 10
10.3366245951
 20
17.5030333903
 10
10.2372992038
 20
17.50294621
 10
10.1378934694
 20
17.5028705738
 10
10.0384188364
 20
17.5028065095
 10
9.8390098696
 20
17.5027130815
 10
9.7392130805
 20
17.5026838488
 10
9.6393932074
 20
17.5026662994
 10
9.539446326
 20
17.5026604399
  0
ARC
  5
178
330
1F
100
AcDbEntity
  8
0
  6
Continuous
 62
     7
370
    25
100
AcDbCircle
 10
10.9570186062
 20
17.5033098591
 30
0.0
 40
0.0005311705586551
100
AcDbArc
 50
84.7156354852
 51
90.1048447389
  0
ARC
  5
179
330
1F
100
AcDbEntity
  8
0
  6
Continuous
 62
     7
370
    25
100
AcDbCircle
 10
47.431238752
 20
14.1600414837
 30
0.0
 40
36.62712310432723
100
AcDbArc
 50
174.7620073885
 51
185.3438810733
  0
ARC
  5
17A
330
1F
100
AcDbEntity
  8
0
  6
Continuous
 62
     7
370
    25
100
AcDbCircle
 10
10.8893879705
 20
10.7419267611
 30
0.0
 40
0.0742442652443358
100
AcDbArc
 50
2.8093281564
 51
5.3443309603
  0
ARC
  5
17B
330
1F
100
AcDbEntity
  8
0
  6
Continuous
 62
     7
370
    25
100
AcDbCircle
 10
9.539446326
 20
24.0409748509
 30
0.0
 40
13.37146054821188
100
AcDbArc
 50
263.8862494263
 51
276.1137505737
  0
ARC
  5
17C
330
1F
100
AcDbEntity
  8
0
  6
Continuous
 62
     7
370
    25
100
AcDbCircle
 10
9.157423896
 20
11.9591486289
 30
0.0
 40
0.0250000000000012
100
AcDbArc
 50
73.6243959762
 51
253.6243959762
  0
ARC
  5
17D
330
1F
100
AcDbEntity
  8
0
  6
Continuous
 62
     7
370
    25
100
AcDbCircle
 10
9.296423896
 20
12.4321736289
 30
0.0
 40
0.5180250000000638
100
AcDbArc
 50
253.6243959762
 51
286.3756040238
  0
ARC
  5
17E
330
1F
100
AcDbEntity
  8
0
  6
Continuous
 62
     7
370
    25
100
AcDbCircle
 10
9.435423896
 20
11.9591486289
 30
0.0
 40
0.0250000000000022
100
AcDbArc
 50
286.3756040238
 51
106.3756040238
  0
ARC
  5
17F
330
1F
100
AcDbEntity
  8
0
  6
Continuous
 62
     7
370
    25
100
AcDbCircle
 10
9.296423896
 20
12.4321736289
 30
0.0
 40
0.4680249999999934
100
AcDbArc
 50
253.6243959762
 51
286.3756040238
  0
ARC
  5
180
330
1F
100
AcDbEntity
  8
0
  6
Continuous
 62
     7
370
    25
100
AcDbCircle
 10
9.1790052469
 20
12.0341486289
 30
0.0
 40
0.0250000000000004
100
AcDbArc
 50
74.6307638569
 51
254.6307638569
  0
ARC
  5
181
330
1F
100
AcDbEntity
  8
0
  6
Continuous
 62
     7
370
    25
100
AcDbCircle
 10
9.296423896
 20
12.4613301026
 30
0.0
 40
0.4680250000000105
100
AcDbArc
 50
254.6307638569
 51
285.3692361431
  0
ARC
  5
182
330
1F
100
AcDbEntity
  8
0
  6
Continuous
 62
     7
370
    25
100
AcDbCircle
 10
9.413842545
 20
12.0341486289
 30
0.0
 40
0.025
100
AcDbArc
 50
285.3692361431
 51
105.3692361431
  0
ARC
  5
183
330
1F
100
AcDbEntity
  8
0
  6
Continuous
 62
     7
370
    25
100
AcDbCircle
 10
9.296423896
 20
12.4613301026
 30
0.0
 40
0.4180249999999512
100
AcDbArc
 50
254.6307638569
 51
285.3692361431
  0
ARC
  5
184
330
1F
100
AcDbEntity
  8
0
  6
Continuous
 62
     7
370
    25
100
AcDbCircle
 10
9.2005861853
 20
12.1091486289
 30
0.0
 40
0.0250000000000017
100
AcDbArc
 50
75.886333304
 51
255.886333304
  0
ARC
  5
185
330
1F
100
AcDbEntity
  8
0
  6
Continuous
 62
     7
370
    25
100
AcDbCircle
 10
9.296423896
 20
12.4903097285
 30
0.0
 40
0.4180250000000501
100
AcDbArc
 50
255.886333304
 51
284.113666696
  0
ARC
  5
186
330
1F
100
AcDbEntity
  8
0
  6
Continuous
 62
     7
370
    25
100
AcDbCircle
 10
9.3922616066
 20
12.1091486289
 30
0.0
 40
0.0250000000000007
100
AcDbArc
 50
284.113666696
 51
104.113666696
  0
ARC
  5
187
330
1F
100
AcDbEntity
  8
0
  6
Continuous
 62
     7
370
    25
100
AcDbCircle
 10
9.296423896
 20
12.4903097285
 30
0.0
 40
0.3680249999999886
100
AcDbArc
 50
255.886333304
 51
284.113666696
  0
LINE
  5
188
330
1F
100
AcDbEntity
  8
0
  6
Continuous
 62
     7
370
    25
100
AcDbLine
 10
9.727191114
 20
11.2059501024
 30
0.0
 11
9.7119235855
 21
11.1841486289
 31
0.0
  0
LINE
  5
189
330
1F
100
AcDbEntity
  8
0
  6
Continuous
 62
     7
370
    25
100
AcDbLine
 10
9.5646945549
 20
11.3197461193
 30
0.0
 11
9.727191114
 21
11.2059501024
 31
0.0
  0
ARC
  5
18A
330
1F
100
AcDbEntity
  8
0
  6
Continuous
 62
     7
370
    25
100
AcDbCircle
 10
9.5060355981
 20
11.6733047189
 30
0.0
 40
0.3583916245256822
100
AcDbArc
 50
242.8508540794
 51
279.4201427621
  0
LINE
  5
18B
330
1F
100
AcDbEntity
  8
0
  6
Continuous
 62
     7
370
    25
100
AcDbLine
 10
9.1777772759
 20
11.4698137742
 30
0.0
 11
9.3424985156
 21
11.3544000636
 31
0.0
  0
ARC
  5
18C
330
1F
100
AcDbEntity
  8
0
  6
Continuous
 62
     7
370
    25
100
AcDbCircle
 10
9.2003776626
 20
11.5020695927
 30
0.0
 40
0.039385470748271
100
AcDbArc
 50
55.0161538915
 51
234.9825787454
  0
LINE
  5
18D
330
1F
100
AcDbEntity
  8
0
  6
Continuous
 62
     7
370
    25
100
AcDbLine
 10
9.3455315538
 20
11.448564015
 30
0.0
 11
9.2229591435
 21
11.5343386495
 31
0.0
  0
LINE
  5
18E
330
1F
100
AcDbEntity
  8
0
  6
Continuous
 62
     7
370
    25
100
AcDbLine
 10
9.3584803179
 20
11.4670624684
 30
0.0
 11
9.3455315538
 21
11.448564015
 31
0.0
  0
LINE
  5
18F
330
1F
100
AcDbEntity
  8
0
  6
Continuous
 62
     7
370
    25
100
AcDbLine
 10
9.1149098492
 20
11.6375100258
 30
0.0
 11
9.3584803179
 21
11.4670624684
 31
0.0
  0
ARC
  5
190
330
1F
100
AcDbEntity
  8
0
  6
Continuous
 62
     7
370
    25
100
AcDbCircle
 10
9.1397214388
 20
11.6729659196
 30
0.0
 40
0.0432751127642912
100
AcDbArc
 50
55.0082984484
 51
235.0161538885
  0
LINE
  5
191
330
1F
100
AcDbEntity
  8
0
  6
Continuous
 62
     7
370
    25
100
AcDbLine
 10
9.4080898451
 20
11.5379340605
 30
0.0
 11
9.1645378892
 21
11.7084184114
 31
0.0
  0
LINE
  5
192
330
1F
100
AcDbEntity
  8
0
  6
Continuous
 62
     7
370
    25
100
AcDbLine
 10
9.4187270368
 20
11.5531302286
 30
0.0
 11
9.4080898451
 21
11.5379340605
 31
0.0
  0
LINE
  5
193
330
1F
100
AcDbEntity
  8
0
  6
Continuous
 62
     7
370
    25
100
AcDbLine
 10
9.170471912
 20
11.7269067588
 30
0.0
 11
9.4187270368
 21
11.5531302286
 31
0.0
  0
ARC
  5
194
330
1F
100
AcDbEntity
  8
0
  6
Continuous
 62
     7
370
    25
100
AcDbCircle
 10
9.1972979696
 20
11.7652301519
 30
0.0
 40
0.0467794808260742
100
AcDbArc
 50
55.0082984484
 51
235.0082984484
  0
LINE
  5
195
330
1F
100
AcDbEntity
  8
0
  6
Continuous
 62
     7
370
    25
100
AcDbLine
 10
9.472379152
 20
11.6297770148
 30
0.0
 11
9.2241240272
 21
11.803553545
 31
0.0
  0
LINE
  5
196
330
1F
100
AcDbEntity
  8
0
  6
Continuous
 62
     7
370
    25
100
AcDbLine
 10
9.4818860623
 20
11.6433584759
 30
0.0
 11
9.472379152
 21
11.6297770148
 31
0.0
  0
LINE
  5
197
330
1F
100
AcDbEntity
  8
0
  6
Continuous
 62
     7
370
    25
100
AcDbLine
 10
9.2883346788
 20
11.7788428405
 30
0.0
 11
9.4818860623
 21
11.6433584759
 31
0.0
  0
ARC
  5
198
330
1F
100
AcDbEntity
  8
0
  6
Continuous
 62
     7
370
    25
100
AcDbCircle
 10
9.3195713338
 20
11.8234671615
 30
0.0
 40
0.0544707136257817
100
AcDbArc
 50
53.9804256803
 51
235.0082984484
  0
LINE
  5
199
330
1F
100
AcDbEntity
  8
0
  6
Continuous
 62
     7
370
    25
100
AcDbLine
 10
9.6241941118
 20
11.6764894169
 30
0.0
 11
9.3516034692
 21
11.8675239538
 31
0.0
  0
LINE
  5
19A
330
1F
100
AcDbEntity
  8
0
  6
Continuous
 62
     7
370
    25
100
AcDbLine
 10
9.6548330656
 20
11.558761227
 30
0.0
 11
9.6241941118
 21
11.6764894169
 31
0.0
  0
LINE
  5
19B
330
1F
100
AcDbEntity
  8
0
  6
Continuous
 62
     7
370
    25
100
AcDbLine
 10
9.6758132882
 20
11.558761227
 30
0.0
 11
9.6548330656
 21
11.558761227
 31
0.0
  0
LINE
  5
19C
330
1F
100
AcDbEntity
  8
0
  6
Continuous
 62
     7
370
    25
100
AcDbLine
 10
9.6466765504
 20
11.6787763206
 30
0.0
 11
9.6758132882
 21
11.558761227
 31
0.0
  0
LINE
  5
19D
330
1F
100
AcDbEntity
  8
0
  6
Continuous
 62
     7
370
    25
100
AcDbLine
 10
9.5128226998
 20
11.7725825793
 30
0.0
 11
9.6466765504
 21
11.6787763206
 31
0.0
  0
ARC
  5
19E
330
1F
100
AcDbEntity
  8
0
  6
Continuous
 62
     7
370
    25
100
AcDbCircle
 10
9.542213274
 20
11.8145205223
 30
0.0
 40
0.0512112967218291
100
AcDbArc
 50
56.8920572762
 51
234.9768035975
  0
LINE
  5
19F
330
1F
100
AcDbEntity
  8
0
  6
Continuous
 62
     7
370
    25
100
AcDbLine
 10
9.6879859979
 20
11.7748616326
 30
0.0
 11
9.5701858105
 21
11.8574173067
 31
0.0
  0
ARC
  5
1A0
330
1F
100
AcDbEntity
  8
0
  6
Continuous
 62
     7
370
    25
100
AcDbCircle
 10
9.5737942753
 20
11.5975348728
 30
0.0
 40
0.2109135587869917
100
AcDbArc
 50
348.9546840851
 51
57.2199974407
  0
LINE
  5
1A1
330
1F
100
AcDbEntity
  8
0
  6
Continuous
 62
     7
370
    25
100
AcDbLine
 10
9.909918679
 20
11.4666203601
 30
0.0
 11
9.7808008636
 21
11.5571269319
 31
0.0
  0
LINE
  5
1A2
330
1F
100
AcDbEntity
  8
0
  6
Continuous
 62
     7
370
    25
100
AcDbLine
 10
9.9251959031
 20
11.4884150405
 30
0.0
 11
9.909918679
 21
11.4666203601
 31
0.0
  0
LINE
  5
1A3
330
1F
100
AcDbEntity
  8
0
  6
Continuous
 62
     7
370
    25
100
AcDbLine
 10
9.8096522949
 20
11.5694066205
 30
0.0
 11
9.9251959031
 21
11.4884150405
 31
0.0
  0
ARC
  5
1A4
330
1F
100
AcDbEntity
  8
0
  6
Continuous
 62
     7
370
    25
100
AcDbCircle
 10
9.5737942753
 20
11.5975348728
 30
0.0
 40
0.2375293749900625
100
AcDbArc
 50
353.1990691943
 51
57.0905714213
  0
LINE
  5
1A5
330
1F
100
AcDbEntity
  8
0
  6
Continuous
 62
     7
370
    25
100
AcDbLine
 10
9.5851345016
 20
11.8794422269
 30
0.0
 11
9.70284698
 21
11.7969480202
 31
0.0
  0
ARC
  5
1A6
330
1F
100
AcDbEntity
  8
0
  6
Continuous
 62
     7
370
    25
100
AcDbCircle
 10
9.542213274
 20
11.8145205223
 30
0.0
 40
0.0778271129249095
100
AcDbArc
 50
56.5303950242
 51
175.366541262
  0
LINE
  5
1A7
330
1F
100
AcDbEntity
  8
0
  6
Continuous
 62
     7
370
    25
100
AcDbLine
 10
9.3670492335
 20
11.8892005195
 30
0.0
 11
9.4646405098
 21
11.8208074739
 31
0.0
  0
ARC
  5
1A8
330
1F
100
AcDbEntity
  8
0
  6
Continuous
 62
     7
370
    25
100
AcDbCircle
 10
9.3195713338
 20
11.8234671615
 30
0.0
 40
0.0810865298288519
100
AcDbArc
 50
54.1601658085
 51
178.2426080994
  0
ARC
  5
1A9
330
1F
100
AcDbEntity
  8
0
  6
Continuous
 62
     7
370
    25
100
AcDbCircle
 10
9.1972979696
 20
11.7652301519
 30
0.0
 40
0.0733952970291621
100
AcDbArc
 50
55.8276528089
 51
198.598830937
  0
ARC
  5
1AA
330
1F
100
AcDbEntity
  8
0
  6
Continuous
 62
     7
370
    25
100
AcDbCircle
 10
9.1397214388
 20
11.6729659196
 30
0.0
 40
0.0698909289673708
100
AcDbArc
 50
99.8745414867
 51
235.0161538885
  0
LINE
  5
1AB
330
1F
100
AcDbEntity
  8
0
  6
Continuous
 62
     7
370
    25
100
AcDbLine
 10
9.1749796076
 20
11.5629884624
 30
0.0
 11
9.0996497917
 21
11.6157033223
 31
0.0
  0
ARC
  5
1AC
330
1F
100
AcDbEntity
  8
0
  6
Continuous
 62
     7
370
    25
100
AcDbCircle
 10
9.2003776626
 20
11.5020695927
 30
0.0
 40
0.0660012869513511
100
AcDbArc
 50
112.6320390869
 51
234.9825787484
  0
LINE
  5
1AD
330
1F
100
AcDbEntity
  8
0
  6
Continuous
 62
     7
370
    25
100
AcDbLine
 10
9.3286977858
 20
11.3315708608
 30
0.0
 11
9.1625044424
 21
11.4480160167
 31
0.0
  0
ARC
  5
1AE
330
1F
100
AcDbEntity
  8
0
  6
Continuous
 62
     7
370
    25
100
AcDbCircle
 10
9.5060355981
 20
11.6733047189
 30
0.0
 40
0.3850074407287519
100
AcDbArc
 50
242.5736012663
 51
277.7785616863
  0
LINE
  5
1AF
330
1F
100
AcDbEntity
  8
0
  6
Continuous
 62
     7
370
    25
100
AcDbLine
 10
9.7119235855
 20
11.1841486289
 30
0.0
 11
9.5581443746
 21
11.2918399042
 31
0.0
  0
ARC
  5
1B0
330
1F
100
AcDbEntity
  8
0
  6
Continuous
 62
     7
370
    25
100
AcDbCircle
 10
-19.1360599443
 20
14.9862543383
 30
0.0
 40
27.37395223824926
100
AcDbArc
 50
5.2769589567
 51
6.5898408553
  0
ARC
  5
1B1
330
1F
100
AcDbEntity
  8
0
  6
Continuous
 62
     7
370
    25
100
AcDbCircle
 10
-21.5628677761
 20
14.9798118748
 30
0.0
 40
29.78670867181831
100
AcDbArc
 50
6.0664338539
 51
10.3301423881
  0
ARC
  5
1B2
330
1F
100
AcDbEntity
  8
0
  6
Continuous
 62
     7
370
    25
100
AcDbCircle
 10
7.7410223343
 20
20.3210328277
 30
0.0
 40
0.0001255864247943
100
AcDbArc
 50
89.5712141352
 51
101.9096489433
  0
ARC
  5
1B3
330
1F
100
AcDbEntity
  8
0
  6
Continuous
 62
     7
370
    25
100
AcDbCircle
 10
9.5416186168
 20
10.9292774359
 30
0.0
 40
9.562929354363376
100
AcDbArc
 50
100.8531185697
 51
104.2428539935
  0
LINE
  5
1B4
330
1F
100
AcDbEntity
  8
0
  6
Continuous
 62
     7
370
    25
100
AcDbLine
 10
7.1888275658
 20
20.1982575366
 30
0.0
 11
7.1888280866
 21
20.1982576687
 31
0.0
  0
LWPOLYLINE
  5
1B5
330
1F
100
AcDbEntity
  8
0
  6
Continuous
 62
     7
370
    25
100
AcDbPolyline
 90
        6
 70
   128
 43
0.0
 10
7.188816988
 20
20.3502747186
 10
7.1888217158
 20
20.3439941435
 10
7.1888269741
 20
20.3210490733
 10
7.1888247172
 20
20.2771338221
 10
7.18882589
 20
20.2427585961
 10
7.1888275658
 20
20.1982575366
  0
ARC
  5
1B6
330
1F
100
AcDbEntity
  8
0
  6
Continuous
 62
     7
370
    25
100
AcDbCircle
 10
9.539446326
 20
11.3650271066
 30
0.0
 40
9.287633333336704
100
AcDbArc
 50
93.6174601707
 51
104.6605797817
  0
LINE
  5
1B7
330
1F
100
AcDbEntity
  8
0
  6
Continuous
 62
     7
370
    25
100
AcDbLine
 10
8.953446326
 20
20.6328303835
 30
0.0
 11
8.953446326
 21
20.6341552713
 31
0.0
  0
ARC
  5
1B8
330
1F
100
AcDbEntity
  8
0
  6
Continuous
 62
     7
370
    25
100
AcDbCircle
 10
9.5394467747
 20
11.3664760774
 30
0.0
 40
9.284865031412807
100
AcDbArc
 50
91.4564870942
 51
93.6185429347
  0
LINE
  5
1B9
330
1F
100
AcDbEntity
  8
0
  6
Continuous
 62
     7
370
    25
100
AcDbLine
 10
9.303446326
 20
20.64966156
 30
0.0
 11
9.303446326
 21
20.6483413231
 31
0.0
  0
ARC
  5
1BA
330
1F
100
AcDbEntity
  8
0
  6
Continuous
 62
     7
370
    25
100
AcDbCircle
 10
9.539446326
 20
11.3650271065
 30
0.0
 40
9.287633333380771
100
AcDbArc
 50
90.0
 51
91.4560501064
  0
LWPOLYLINE
  5
1BB
330
1F
100
AcDbEntity
  8
0
  6
Continuous
 62
     7
370
    25
100
AcDbPolyline
 90
       48
 70
   128
 43
0.0
 10
9.539446326
 20
19.1161652945
 10
9.4464776504
 20
19.1145496568
 10
9.3535089748
 20
19.1096379582
 10
9.3071754014
 20
19.1059010845
 10
9.2609072308
 20
19.1012616635
 10
9.2146880032
 20
19.095665174
 10
9.1685838085
 20
19.0890503484
 10
9.1227512736
 20
19.0813546567
 10
9.077111806
 20
19.0724511896
 10
9.0317949998
 20
19.0622085621
 10
8.9868168483
 20
19.0504116482
 10
8.9424260292
 20
19.0368121204
 10
8.8987066621
 20
19.0209533387
 10
8.8758424969
 20
19.0113793467
 10
8.8533847675
 20
19.0008453914
 10
8.8313635153
 20
18.9890894288
 10
8.8101256631
 20
18.9758765618
 10
8.7939065522
 20
18.9639381119
 10
8.778810679
 20
18.9504867026
 10
8.7657213643
 20
18.9354309736
 10
8.7600794417
 20
18.9269781907
 10
8.7553681879
 20
18.9179157751
 10
8.7515990936
 20
18.9073223571
 10
8.7496373354
 20
18.8960375177
 10
8.7497834921
 20
18.8849210945
 10
8.7520493595
 20
18.8736954089
 10
8.7570865068
 20
18.8612800952
 10
8.7643904037
 20
18.8495128532
 10
8.7713459463
 20
18.8409098098
 10
8.7791375168
 20
18.8328611013
 10
8.796784503
 20
18.8181294099
 10
8.8093215193
 20
18.8094746544
 10
8.8224179125
 20
18.8014882145
 10
8.8499662064
 20
18.7871295307
 10
8.8791293493
 20
18.7744221316
 10
8.9091245962
 20
18.7632187339
 10
8.9413263958
 20
18.7527638356
 10
8.9740071141
 20
18.7434589143
 10
9.0071332892
 20
18.735118675
 10
9.0405426847
 20
18.7276414267
 10
9.1075278073
 20
18.7149843363
 10
9.1751754056
 20
18.7048062973
 10
9.2430631658
 20
18.6967785354
 10
9.3112810272
 20
18.6906290375
 10
9.3681500281
 20
18.6868320646
 10
9.4251361185
 20
18.6841596052
 10
9.4822641506
 20
18.6825694338
 10
9.539446326
 20
18.6820417284
  0
ARC
  5
1BC
330
1F
100
AcDbEntity
  8
0
  6
Continuous
 62
     7
370
    25
100
AcDbCircle
 10
9.539446326
 20
11.3650271065
 30
0.0
 40
9.28763333336121
100
AcDbArc
 50
88.5439498936
 51
90.0
  0
LINE
  5
1BD
330
1F
100
AcDbEntity
  8
0
  6
Continuous
 62
     7
370
    25
100
AcDbLine
 10
9.775446326
 20
20.64966156
 30
0.0
 11
9.775446326
 21
20.6483413231
 31
0.0
  0
ARC
  5
1BE
330
1F
100
AcDbEntity
  8
0
  6
Continuous
 62
     7
370
    25
100
AcDbCircle
 10
9.5394458773
 20
11.3664760774
 30
0.0
 40
9.284865031403804
100
AcDbArc
 50
86.3814570653
 51
88.5435129058
  0
LINE
  5
1BF
330
1F
100
AcDbEntity
  8
0
  6
Continuous
 62
     7
370
    25
100
AcDbLine
 10
10.125446326
 20
20.6328303835
 30
0.0
 11
10.125446326
 21
20.6341552713
 31
0.0
  0
ARC
  5
1C0
330
1F
100
AcDbEntity
  8
0
  6
Continuous
 62
     7
370
    25
100
AcDbCircle
 10
9.539446326
 20
11.3650271066
 30
0.0
 40
9.28763333333671
100
AcDbArc
 50
75.3394202183
 51
86.3825398293
  0
LWPOLYLINE
  5
1C1
330
1F
100
AcDbEntity
  8
0
  6
Continuous
 62
     7
370
    25
100
AcDbPolyline
 90
        6
 70
   128
 43
0.0
 10
11.890075664
 20
20.3502747186
 10
11.8900709362
 20
20.3439941435
 10
11.8900656779
 20
20.3210490733
 10
11.8900679349
 20
20.2771338221
 10
11.890066762
 20
20.2427585961
 10
11.8900650862
 20
20.1982575366
  0
LINE
  5
1C2
330
1F
100
AcDbEntity
  8
0
  6
Continuous
 62
     7
370
    25
100
AcDbLine
 10
11.8900650862
 20
20.1982575366
 30
0.0
 11
11.8900645654
 21
20.1982576687
 31
0.0
  0
ARC
  5
1C3
330
1F
100
AcDbEntity
  8
0
  6
Continuous
 62
     7
370
    25
100
AcDbCircle
 10
9.5372740352
 20
10.9292774359
 30
0.0
 40
9.56292935436458
100
AcDbArc
 50
75.7571460065
 51
79.1468814303
  0
ARC
  5
1C4
330
1F
100
AcDbEntity
  8
0
  6
Continuous
 62
     7
370
    25
100
AcDbCircle
 10
11.3378703177
 20
20.3210328277
 30
0.0
 40
0.0001255864247981
100
AcDbArc
 50
78.0903510563
 51
90.4287858648
  0
ARC
  5
1C5
330
1F
100
AcDbEntity
  8
0
  6
Continuous
 62
     7
370
    25
100
AcDbCircle
 10
39.2458808052
 20
15.1809186316
 30
0.0
 40
28.37744116036346
100
AcDbArc
 50
169.563933855
 51
174.0394899117
  0
ARC
  5
1C6
330
1F
100
AcDbEntity
  8
0
  6
Continuous
 62
     7
370
    25
100
AcDbCircle
 10
38.1330697619
 20
14.9947643439
 30
0.0
 40
27.29163379233663
100
AcDbArc
 50
173.4081790508
 51
174.7250211061
  0
LWPOLYLINE
  5
1C7
330
1F
100
AcDbEntity
  8
0
  6
Continuous
 62
     7
370
    25
100
AcDbPolyline
 90
       20
 70
   128
 43
0.0
 10
9.539446326
 20
18.6820417284
 10
9.7253836772
 20
18.6876992396
 10
9.9102986591
 20
18.7056953622
 10
10.0476306714
 20
18.7296326132
 10
10.1244974369
 20
18.7488176293
 10
10.1990974876
 20
18.7741550891
 10
10.2610073784
 20
18.8041495163
 10
10.2895643624
 20
18.8238210673
 10
10.3134767586
 20
18.8481286229
 10
10.3255154998
 20
18.8696995263
 10
10.3293749473
 20
18.8941791384
 10
10.324372728
 20
18.9159314253
 10
10.3076614606
 20
18.9423307978
 10
10.2642789061
 20
18.9788617246
 10
10.188223711
 20
19.0177034934
 10
10.1110538297
 20
19.0449392744
 10
10.0317566162
 20
19.0658461101
 10
9.8709754333
 20
19.0947603797
 10
9.7059663836
 20
19.1109439959
 10
9.539446326
 20
19.1161652945
  0
LWPOLYLINE
  5
1C8
330
1F
100
AcDbEntity
  8
0
  6
Continuous
 62
     7
370
    25
100
AcDbPolyline
 90
       47
 70
   128
 43
0.0
 10
11.3378693779
 20
20.3211584106
 10
11.3378729532
 20
20.3211575966
 10
11.3378743312
 20
20.3211571897
 10
11.3378797157
 20
20.3211550757
 10
11.3378824601
 20
20.3211536605
 10
11.3378889211
 20
20.3211493548
 10
11.3379012699
 20
20.3211368209
 10
11.3379096395
 20
20.3211245437
 10
11.3379188771
 20
20.3211066977
 10
11.3379290797
 20
20.3210806197
 10
11.3379402578
 20
20.3210423268
 10
11.3379522987
 20
20.3209858568
 10
11.3379649197
 20
20.3209022501
 10
11.3379776154
 20
20.3207778907
 10
11.3379896071
 20
20.3205913642
 10
11.3379725316
 20
20.3168372017
 10
11.3378829654
 20
20.313019552
 10
11.33763452
 20
20.3051650734
 10
11.3376346006
 20
20.3051673073
 10
11.3373080856
 20
20.2970208034
 10
11.3369049848
 20
20.2885647039
 10
11.3362481695
 20
20.2768233836
 10
11.3358668399
 20
20.2707535853
 10
11.3354490548
 20
20.2645528315
 10
11.3345000984
 20
20.2517397282
 10
11.3333424186
 20
20.2377578348
 10
11.3320126914
 20
20.2231873013
 10
11.3305081386
 20
20.2080253257
 10
11.3288226133
 20
20.1922287028
 10
11.3269553265
 20
20.175804688
 10
11.3249083827
 20
20.1587766018
 10
11.3249077996
 20
20.158771873
 10
11.3226818576
 20
20.141142334
 10
11.3202695297
 20
20.1228485123
 10
11.318178061
 20
20.1075342117
 10
11.3159697144
 20
20.0918146067
 10
11.3136457823
 20
20.0756891642
 10
11.3112028831
 20
20.0591242291
 10
11.3086440673
 20
20.0421294299
 10
11.3059745077
 20
20.0247255434
 10
11.3059739355
 20
20.0247218448
 10
11.3031969987
 20
20.0069126834
 10
11.3003085497
 20
19.9886519505
 10
11.2973868635
 20
19.9704063294
 10
11.2958905346
 20
19.9611361886
 10
11.2943716533
 20
19.9517713193
 10
11.2912637195
 20
19.9327315412
  0
ARC
  5
1C9
330
1F
100
AcDbEntity
  8
0
  6
Continuous
 62
     7
370
    25
100
AcDbCircle
 10
48.0173527334
 20
13.9682779901
 30
0.0
 40
37.20726166241752
100
AcDbArc
 50
170.7754882422
 51
173.5901230433
  0
ARC
  5
1CA
330
1F
100
AcDbEntity
  8
0
  6
Continuous
 62
     7
370
    25
100
AcDbCircle
 10
-28.6636519995
 20
14.0060060298
 30
0.0
 40
36.9299601525776
100
AcDbArc
 50
6.399307477
 51
9.2350812501
  0
LWPOLYLINE
  5
1CB
330
1F
100
AcDbEntity
  8
0
  6
Continuous
 62
     7
370
    25
100
AcDbPolyline
 90
       29
 70
   128
 43
0.0
 10
7.7410232741
 20
20.3211584106
 10
7.7410196988
 20
20.3211575966
 10
7.7410183209
 20
20.3211571897
 10
7.7410129363
 20
20.3211550757
 10
7.7410101919
 20
20.3211536605
 10
7.7410037309
 20
20.3211493548
 10
7.7409913822
 20
20.3211368209
 10
7.7409830125
 20
20.3211245437
 10
7.7409737749
 20
20.3211066977
 10
7.7409635723
 20
20.3210806197
 10
7.7409523942
 20
20.3210423268
 10
7.7409403533
 20
20.3209858568
 10
7.7409277323
 20
20.3209022501
 10
7.7409150366
 20
20.3207778907
 10
7.7409030449
 20
20.3205913642
 10
7.741258132
 20
20.3051650734
 10
7.7419876672
 20
20.2885647039
 10
7.7430258121
 20
20.2707535853
 10
7.7443925536
 20
20.2517397282
 10
7.7468803111
 20
20.2231836246
 10
7.7500700387
 20
20.1922287028
 10
7.7539848524
 20
20.158771873
 10
7.7586231223
 20
20.1228485123
 10
7.7629233824
 20
20.0918114818
 10
7.7676897689
 20
20.0591242291
 10
7.7729187165
 20
20.0247218448
 10
7.7785841023
 20
19.9886519505
 10
7.7830021174
 20
19.9611361886
 10
7.7876289325
 20
19.9327315412
  0
ARC
  5
1CC
330
1F
100
AcDbEntity
  8
0
  6
Continuous
 62
     7
370
    25
100
AcDbCircle
 10
8.2045633137
 20
10.7292678532
 30
0.0
 40
0.0906901142265288
100
AcDbArc
 50
169.6472112119
 51
254.2853175227
  0
LWPOLYLINE
  5
1CD
330
1F
100
AcDbEntity
  8
0
  6
Continuous
 62
     7
370
    25
100
AcDbPolyline
 90
       12
 70
   128
 43
0.0
 10
10.8988924958
 20
10.6419675204
 10
10.8991476668
 20
10.6420032784
 10
10.8994620683
 20
10.6420489536
 10
10.9004843803
 20
10.6422098508
 10
10.9033389851
 20
10.6427602961
 10
10.9113743847
 20
10.6451367937
 10
10.9261649917
 20
10.6530794693
 10
10.9399622356
 20
10.6659376602
 10
10.9483429803
 20
10.6777702719
 10
10.9554007354
 20
10.6921451631
 10
10.9622147795
 20
10.717163528
 10
10.9635430068
 20
10.7455656494
  0
ARC
  5
1CE
330
1F
100
AcDbEntity
  8
0
  6
Continuous
 62
     7
370
    25
100
AcDbCircle
 10
9.539446326
 20
23.7621405276
 30
0.0
 40
13.19041446005568
100
AcDbArc
 50
264.084410007
 51
275.915589993
  0
ARC
  5
1CF
330
1F
100
AcDbEntity
  8
0
  6
Continuous
 62
     7
370
    25
100
AcDbCircle
 10
8.2717204403
 20
15.8289299711
 30
0.0
 40
1.681602835776679
100
AcDbArc
 50
95.1140393783
 51
95.8335411989
  0
ARC
  5
1D0
330
1F
100
AcDbEntity
  8
0
  6
Continuous
 62
     7
370
    25
100
AcDbCircle
 10
8.1260763716
 20
10.9074509907
 30
0.0
 40
0.1589557708531225
100
AcDbArc
 50
258.5617954621
 51
266.2149585138
  0
ARC
  5
1D1
330
1F
100
AcDbEntity
  8
0
  6
Continuous
 62
     7
370
    25
100
AcDbCircle
 10
-28.4472298376
 20
14.1605798373
 30
0.0
 40
36.70044593626358
100
AcDbArc
 50
354.6703885636
 51
5.2234967604
  0
ARC
  5
1D2
330
1F
100
AcDbEntity
  8
0
  6
Continuous
 62
     7
370
    25
100
AcDbCircle
 10
10.9528162804
 20
10.9074509907
 30
0.0
 40
0.1589557708532065
100
AcDbArc
 50
273.7850414862
 51
281.4382045379
  0
ARC
  5
1D3
330
1F
100
AcDbEntity
  8
0
  6
Continuous
 62
     7
370
    25
100
AcDbCircle
 10
10.7885096007
 20
15.6341775867
 30
0.0
 40
1.877243916626133
100
AcDbArc
 50
84.2039514474
 51
84.8484679754
  0
ARC
  5
1D4
330
1F
100
AcDbEntity
  8
0
  6
Continuous
 62
     7
370
    25
100
AcDbCircle
 10
47.5261224896
 20
14.1605798373
 30
0.0
 40
36.70044593626369
100
AcDbArc
 50
174.7765032396
 51
185.3296114364
  0
ARC
  5
1D5
330
1F
100
AcDbEntity
  8
0
  6
Continuous
 62
     7
370
    25
100
AcDbCircle
 10
47.767343744
 20
14.0914759781
 30
0.0
 40
36.94082674369608
100
AcDbArc
 50
170.9019386538
 51
173.7328094557
  0
ARC
  5
1D6
330
1F
100
AcDbEntity
  8
0
  6
Continuous
 62
     7
370
    25
100
AcDbCircle
 10
-28.6902207456
 20
14.0912372579
 30
0.0
 40
36.94261188113047
100
AcDbArc
 50
6.2672589548
 51
9.0979929357
  0
ARC
  5
1D7
330
1F
100
AcDbEntity
  8
0
  6
Continuous
 62
     7
370
    25
100
AcDbCircle
 10
37.6688873832
 20
15.0357041933
 30
0.0
 40
26.80448683499376
100
AcDbArc
 50
173.3880139952
 51
174.7210932567
  0
ARC
  5
1D8
330
1F
100
AcDbEntity
  8
0
  6
Continuous
 62
     7
370
    25
100
AcDbCircle
 10
-18.5184700258
 20
15.0431529066
 30
0.0
 40
26.73258019339812
100
AcDbArc
 50
5.2771137471
 51
6.6137789496
  0
LWPOLYLINE
  5
1D9
330
1F
100
AcDbEntity
  8
0
  6
Continuous
 62
     7
370
    25
100
AcDbPolyline
 90
        3
 70
   128
 43
0.0
 10
8.0793193007
 20
10.7462008416
 10
8.0869364496
 20
10.7489242043
 10
8.0945537038
 20
10.751652215
  0
ARC
  5
1DA
330
1F
100
AcDbEntity
  8
0
  6
Continuous
 62
     7
370
    25
100
AcDbCircle
 10
-27.7324331003
 20
14.2037096955
 30
0.0
 40
35.97827090772487
100
AcDbArc
 50
354.4853699055
 51
6.2517346383
  0
LWPOLYLINE
  5
1DB
330
1F
100
AcDbEntity
  8
0
  6
Continuous
 62
     7
370
    25
100
AcDbPolyline
 90
        3
 70
   128
 43
0.0
 10
10.9995733513
 20
10.7462008416
 10
10.9919562024
 20
10.7489242043
 10
10.9843389482
 20
10.751652215
  0
ARC
  5
1DC
330
1F
100
AcDbEntity
  8
0
  6
Continuous
 62
     7
370
    25
100
AcDbCircle
 10
46.8113257524
 20
14.2037096955
 30
0.0
 40
35.97827090772439
100
AcDbArc
 50
173.7482653617
 51
185.5146300945
  0
LINE
  5
1DD
330
1F
100
AcDbEntity
  8
0
  6
Continuous
 62
     7
370
    25
100
AcDbLine
 10
8.164446326
 20
10.5788561397
 30
0.0
 11
8.164446326
 21
10.6166392118
 31
0.0
  0
ELLIPSE
  5
1DE
330
1F
100
AcDbEntity
  8
0
  6
Continuous
 62
     7
370
    25
100
AcDbEllipse
 10
9.539446326
 20
23.254134345
 30
0.0
 11
1.012523398458143E-13
 21
-12.74968711595945
 31
0.0
210
0.0
220
0.0
230
1.0
 40
0.9996777828
 41
0.0112982756032447
 42
0.1080909044252706
  0
ELLIPSE
  5
1DF
330
1F
100
AcDbEntity
  8
0
  6
Continuous
 62
     7
370
    25
100
AcDbEllipse
 10
9.539446326
 20
23.254134345
 30
0.0
 11
1.012523398458143E-13
 21
-12.74968711595945
 31
0.0
210
0.0
220
0.0
230
1.0
 40
0.9996777828
 41
6.175094402754313
 42
6.271887031576338
  0
LINE
  5
1E0
330
1F
100
AcDbEntity
  8
0
  6
Continuous
 62
     7
370
    25
100
AcDbLine
 10
10.914446326
 20
10.5788561397
 30
0.0
 11
10.914446326
 21
10.6166392118
 31
0.0
  0
ELLIPSE
  5
1E1
330
1F
100
AcDbEntity
  8
0
  6
Continuous
 62
     7
370
    25
100
AcDbEllipse
 10
9.539446326
 20
23.2919174171
 30
0.0
 11
-1.669775429036235E-13
 21
-12.74968711595945
 31
0.0
210
0.0
220
0.0
230
1.0
 40
0.9996777828
 41
0.0434012179152629
 42
0.1080909044252919
  0
LWPOLYLINE
  5
1E2
330
1F
100
AcDbEntity
  8
0
  6
Continuous
 62
     7
370
    25
100
AcDbPolyline
 90
       27
 70
   128
 43
0.0
 10
8.986446326
 20
10.5542364906
 10
9.0043922714
 20
10.5546140673
 10
9.0261681187
 20
10.5548279161
 10
9.0521009592
 20
10.5548918532
 10
9.0817987407
 20
10.5548201403
 10
9.1137688614
 20
10.5546438397
 10
9.1489310894
 20
10.5543847629
 10
9.1872480068
 20
10.554065613
 10
9.2286956132
 20
10.5537097429
 10
9.315538278
 20
10.5530225509
 10
9.3621161814
 20
10.5527204004
 10
9.4106690426
 20
10.5524709988
 10
9.4423199199
 20
10.5523483195
 10
9.5068036546
 20
10.5522026194
 10
9.539446326
 20
10.5521839062
 10
9.5881153196
 20
10.5522254563
 10
9.6367843132
 20
10.5523490303
 10
9.6852828562
 20
10.5525504433
 10
9.7334203028
 20
10.5528217755
 10
9.822575968
 20
10.5534782411
 10
9.8649325612
 20
10.5538358997
 10
9.9055250306
 20
10.5541836499
 10
9.9596284756
 20
10.5546067983
 10
10.0079052951
 20
10.5548593472
 10
10.0363815525
 20
10.5548858102
 10
10.0807961298
 20
10.5545091138
 10
10.092446326
 20
10.5542364906
  0
ELLIPSE
  5
1E3
330
1F
100
AcDbEntity
  8
0
  6
Continuous
 62
     7
370
    25
100
AcDbEllipse
 10
9.539446326
 20
23.2919174171
 30
0.0
 11
1.687538997430238E-13
 21
-12.74968711595945
 31
0.0
210
3.484260791007486E-16
220
4.611741377309702E-30
230
1.0
 40
0.9996777828
 41
6.175094402754308
 42
6.239784089264337
  0
ARC
  5
1E4
330
1F
100
AcDbEntity
  8
0
  6
Continuous
 62
     7
370
    25
100
AcDbCircle
 10
10.8755802297
 20
11.6902555271
 30
0.0
 40
1.053140306064387
100
AcDbArc
 50
271.9211911934
 51
277.7318176712
  0
ARC
  5
1E5
330
1F
100
AcDbEntity
  8
0
  6
Continuous
 62
     7
370
    25
100
AcDbCircle
 10
9.5407178797
 20
23.7243326185
 30
0.0
 40
13.16073473573794
100
AcDbArc
 50
276.4417734383
 51
280.2524690498
  0
ARC
  5
1E6
330
1F
100
AcDbEntity
  8
0
  6
Continuous
 62
     7
370
    25
100
AcDbCircle
 10
12.0516866544
 20
9.9502689942
 30
0.0
 40
0.8405372684281845
100
AcDbArc
 50
96.370339242
 51
101.5672546663
  0
LINE
  5
1E7
330
1F
100
AcDbEntity
  8
0
  6
Continuous
 62
     7
370
    25
100
AcDbLine
 10
11.958425291
 20
10.7856163577
 30
0.0
 11
11.958425291
 21
10.7296794978
 31
0.0
  0
LINE
  5
1E8
330
1F
100
AcDbEntity
  8
0
  6
Continuous
 62
     7
370
    25
100
AcDbLine
 10
7.120467361
 20
10.7856163577
 30
0.0
 11
7.120467361
 21
10.7296794978
 31
0.0
  0
ARC
  5
1E9
330
1F
100
AcDbEntity
  8
0
  6
Continuous
 62
     7
370
    25
100
AcDbCircle
 10
7.0451980278
 20
10.0642679798
 30
0.0
 40
0.7252647481079083
100
AcDbArc
 50
78.0193956278
 51
84.0430104639
  0
ARC
  5
1EA
330
1F
100
AcDbEntity
  8
0
  6
Continuous
 62
     7
370
    25
100
AcDbCircle
 10
9.5381747723
 20
23.7243326185
 30
0.0
 40
13.16073473573817
100
AcDbArc
 50
259.7475309502
 51
263.5582265617
  0
ARC
  5
1EB
330
1F
100
AcDbEntity
  8
0
  6
Continuous
 62
     7
370
    25
100
AcDbCircle
 10
8.2033124223
 20
11.6902555271
 30
0.0
 40
1.053140306064291
100
AcDbArc
 50
262.2681823288
 51
268.0788088066
  0
LINE
  5
1EC
330
1F
100
AcDbEntity
  8
0
  6
Continuous
 62
     7
370
    25
100
AcDbLine
 10
8.1800001562
 20
10.6419675204
 30
0.0
 11
8.1680060738
 21
10.6377072071
 31
0.0
  0
LINE
  5
1ED
330
1F
100
AcDbEntity
  8
0
  6
Continuous
 62
     7
370
    25
100
AcDbLine
 10
10.8988924958
 20
10.6419675204
 30
0.0
 11
10.9108865782
 21
10.6377072071
 31
0.0
  0
ARC
  5
1EE
330
1F
100
AcDbEntity
  8
0
  6
Continuous
 62
     7
370
    25
100
AcDbCircle
 10
47.2263971721
 20
14.1160547339
 30
0.0
 40
36.37958235764081
100
AcDbArc
 50
170.8338786197
 51
173.6787793965
  0
ARC
  5
1EF
330
1F
100
AcDbEntity
  8
0
  6
Continuous
 62
     7
370
    25
100
AcDbCircle
 10
11.3142584226
 20
19.9340813575
 30
0.0
 40
0.0230342868768102
100
AcDbArc
 50
183.3594748256
 51
262.7692361667
  0
ARC
  5
1F0
330
1F
100
AcDbEntity
  8
0
  6
Continuous
 62
     7
370
    25
100
AcDbCircle
 10
-28.1511641946
 20
14.1155570858
 30
0.0
 40
36.38327457453563
100
AcDbArc
 50
6.3213649851
 51
9.1659769987
  0
ARC
  5
1F1
330
1F
100
AcDbEntity
  8
0
  6
Continuous
 62
     7
370
    25
100
AcDbCircle
 10
7.7646342294
 20
19.9340813575
 30
0.0
 40
0.0230342868768068
100
AcDbArc
 50
277.2307638333
 51
356.6405251744
  0
LINE
  5
1F2
330
1F
100
AcDbEntity
  8
0
  6
Continuous
 62
     7
370
    25
100
AcDbLine
 10
11.8900645654
 20
20.1982576687
 30
0.0
 11
11.8900645654
 21
18.1223254904
 31
0.0
  0
LWPOLYLINE
  5
1F3
330
1F
100
AcDbEntity
  8
0
  6
Continuous
 62
     7
370
    25
100
AcDbPolyline
 90
       27
 70
   128
 43
0.0
 10
11.3113591911
 20
19.9112302562
 10
11.316001782
 20
19.9406088918
 10
11.3203468541
 20
19.9691961677
 10
11.3257972355
 20
20.0071971626
 10
11.3305955204
 20
20.0436590241
 10
11.3347088515
 20
20.0786103569
 10
11.338098919
 20
20.1119516619
 10
11.3412463509
 20
20.1506772765
 10
11.3432540966
 20
20.1868657705
 10
11.3441258021
 20
20.2205422153
 10
11.3438803788
 20
20.2515378177
 10
11.3424130918
 20
20.282192135
 10
11.340978439
 20
20.2991260585
 10
11.3399414602
 20
20.3085978657
 10
11.3392638886
 20
20.3139519335
 10
11.3388371763
 20
20.3169997001
 10
11.3382119493
 20
20.3205520829
 10
11.3381531895
 20
20.3207478081
 10
11.3381048149
 20
20.3208791946
 10
11.3380642993
 20
20.3209683121
 10
11.3380300549
 20
20.3210291853
 10
11.3380009394
 20
20.3210710496
 10
11.3379760447
 20
20.3211000637
 10
11.3379545962
 20
20.3211203584
 10
11.3379358999
 20
20.3211347127
 10
11.3379093715
 20
20.3211501086
 10
11.3378962349
 20
20.3211557108
  0
LWPOLYLINE
  5
1F4
330
1F
100
AcDbEntity
  8
0
  6
Continuous
 62
     7
370
    25
100
AcDbPolyline
 90
        9
 70
   128
 43
0.0
 10
8.0572627159
 20
10.7381820286
 10
8.0612652631
 20
10.7378981866
 10
8.0652019552
 20
10.7380170235
 10
8.0687692992
 20
10.7385278419
 10
8.0719739051
 20
10.7394153309
 10
8.0746849234
 20
10.7406379457
 10
8.0768409247
 20
10.742158268
 10
8.0784609315
 20
10.7440599131
 10
8.0793193007
 20
10.7462008416
  0
ARC
  5
1F5
330
1F
100
AcDbEntity
  8
0
  6
Continuous
 62
     7
370
    25
100
AcDbCircle
 10
-27.8076036781
 20
14.2047902351
 30
0.0
 40
36.0320137366443
100
AcDbArc
 50
354.4790841199
 51
6.2365024977
  0
LWPOLYLINE
  5
1F6
330
1F
100
AcDbEntity
  8
0
  6
Continuous
 62
     7
370
    25
100
AcDbPolyline
 90
        9
 70
   128
 43
0.0
 10
11.0216299361
 20
10.7381820286
 10
11.0176273889
 20
10.7378981866
 10
11.0136906968
 20
10.7380170235
 10
11.0101233528
 20
10.7385278419
 10
11.0069187469
 20
10.7394153309
 10
11.0042077286
 20
10.7406379457
 10
11.0020517273
 20
10.742158268
 10
11.0004317205
 20
10.7440599131
 10
10.9995733513
 20
10.7462008416
  0
ARC
  5
1F7
330
1F
100
AcDbEntity
  8
0
  6
Continuous
 62
     7
370
    25
100
AcDbCircle
 10
46.8864963301
 20
14.2047902351
 30
0.0
 40
36.0320137366445
100
AcDbArc
 50
173.7634975023
 51
185.5209158801
  0
ARC
  5
1F8
330
1F
100
AcDbEntity
  8
0
  6
Continuous
 62
     7
370
    25
100
AcDbCircle
 10
9.5411678378
 20
23.9686536308
 30
0.0
 40
13.31304423644618
100
AcDbArc
 50
276.3847182927
 51
280.1622197692
  0
LINE
  5
1F9
330
1F
100
AcDbEntity
  8
0
  6
Continuous
 62
     7
370
    25
100
AcDbLine
 10
11.8900645654
 20
18.1223254904
 30
0.0
 11
11.8900645654
 21
10.8644622782
 31
0.0
  0
LWPOLYLINE
  5
1FA
330
1F
100
AcDbEntity
  8
0
  6
Continuous
 62
     7
370
    25
100
AcDbPolyline
 90
        9
 70
   128
 43
0.0
 10
8.0108988917
 20
18.1215353824
 10
7.907315883
 20
18.1216157991
 10
7.8039419395
 20
18.1217014813
 10
7.7007903029
 20
18.1217924182
 10
7.597874186
 20
18.121888598
 10
7.4952067719
 20
18.1219900085
 10
7.3928012115
 20
18.1220966366
 10
7.2906706223
 20
18.1222084687
 10
7.1888280866
 20
18.1223254904
  0
ARC
  5
1FB
330
1F
100
AcDbEntity
  8
0
  6
Continuous
 62
     7
370
    25
100
AcDbCircle
 10
9.5377248142
 20
23.9686536308
 30
0.0
 40
13.31304423644894
100
AcDbArc
 50
259.8377802308
 51
263.6152817073
  0
LINE
  5
1FC
330
1F
100
AcDbEntity
  8
0
  6
Continuous
 62
     7
370
    25
100
AcDbLine
 10
7.1888280866
 20
18.1223254904
 30
0.0
 11
7.1888280866
 21
10.8644622782
 31
0.0
  0
ARC
  5
1FD
330
1F
100
AcDbEntity
  8
0
  6
Continuous
 62
     7
370
    25
100
AcDbCircle
 10
8.1940375432
 20
10.7409680472
 30
0.0
 40
0.0999907622927611
100
AcDbArc
 50
176.3778962303
 51
261.9297684521
  0
ARC
  5
1FE
330
1F
100
AcDbEntity
  8
0
  6
Continuous
 62
     7
370
    25
100
AcDbCircle
 10
8.1206302924
 20
10.9407462313
 30
0.0
 40
0.1952520032576665
100
AcDbArc
 50
262.2340494166
 51
268.4502300015
  0
ARC
  5
1FF
330
1F
100
AcDbEntity
  8
0
  6
Continuous
 62
     7
370
    25
100
AcDbCircle
 10
10.9582623596
 20
10.9407462313
 30
0.0
 40
0.1952520032579352
100
AcDbArc
 50
271.5497699985
 51
277.7659505834
  0
ARC
  5
200
330
1F
100
AcDbEntity
  8
0
  6
Continuous
 62
     7
370
    25
100
AcDbCircle
 10
10.8849602509
 20
10.7408824364
 30
0.0
 40
0.0998912811712157
100
AcDbArc
 50
278.0174148939
 51
3.6749204236
  0
ARC
  5
201
330
1F
100
AcDbEntity
  8
0
  6
Continuous
 62
     7
370
    25
100
AcDbCircle
 10
10.8853007305
 20
10.7424915612
 30
0.0
 40
0.0994609779892935
100
AcDbArc
 50
2.7624023344
 51
5.2846023758
  0
LINE
  5
202
330
1F
100
AcDbEntity
  8
0
  6
Continuous
 62
     7
370
    25
100
AcDbLine
 10
8.0942465194
 20
10.7472850173
 30
0.0
 11
8.0945537038
 21
10.751652215
 31
0.0
  0
ARC
  5
203
330
1F
100
AcDbEntity
  8
0
  6
Continuous
 62
     7
370
    25
100
AcDbCircle
 10
8.1790627018
 20
10.7372011315
 30
0.0
 40
0.1001485938307376
100
AcDbArc
 50
174.8442416358
 51
206.7684259865
  0
LWPOLYLINE
  5
204
330
1F
100
AcDbEntity
  8
0
  6
Continuous
 62
     7
370
    25
100
AcDbPolyline
 90
        3
 70
   128
 43
0.0
 10
10.9961339809
 20
10.7097193867
 10
10.9994395465
 20
10.7268231474
 10
10.9995733513
 20
10.7462008416
  0
LWPOLYLINE
  5
205
330
1F
100
AcDbEntity
  8
0
  6
Continuous
 62
     7
370
    25
100
AcDbPolyline
 90
       21
 70
   128
 43
0.0
 10
7.767533461
 20
19.9112302562
 10
7.758545798
 20
19.9691961677
 10
7.740793733
 20
20.1119516619
 10
7.7356385554
 20
20.1868657705
 10
7.7350122732
 20
20.2515378177
 10
7.7364795602
 20
20.282192135
 10
7.737914213
 20
20.2991260585
 10
7.7389511918
 20
20.3085978657
 10
7.7396287634
 20
20.3139519335
 10
7.7400554757
 20
20.3169997001
 10
7.7406807027
 20
20.3205520829
 10
7.7407394625
 20
20.3207478081
 10
7.7407878371
 20
20.3208791946
 10
7.7408283527
 20
20.3209683121
 10
7.7408625971
 20
20.3210291853
 10
7.7408917126
 20
20.3210710496
 10
7.7409166073
 20
20.3211000637
 10
7.7409380559
 20
20.3211203584
 10
7.7409567521
 20
20.3211347127
 10
7.7409832805
 20
20.3211501086
 10
7.7409964171
 20
20.3211557108
  0
LINE
  5
206
330
1F
100
AcDbEntity
  8
0
  6
Continuous
 62
     7
370
    25
100
AcDbLine
 10
7.1888280866
 20
20.1982576687
 30
0.0
 11
7.1888280866
 21
18.1223254904
 31
0.0
  0
ARC
  5
207
330
1F
100
AcDbEntity
  8
0
  6
Continuous
 62
     7
370
    25
100
AcDbCircle
 10
11.8448548654
 20
20.0089802177
 30
0.0
 40
0.1946018177917052
100
AcDbArc
 50
0.5911355443
 51
76.5662027544
  0
LINE
  5
208
330
1F
100
AcDbEntity
  8
0
  6
Continuous
 62
     7
370
    25
100
AcDbLine
 10
12.039446326
 20
18.1231954131
 30
0.0
 11
12.039446326
 21
20.01098794
 31
0.0
  0
LINE
  5
209
330
1F
100
AcDbEntity
  8
0
  6
Continuous
 62
     7
370
    25
100
AcDbLine
 10
7.039446326
 20
18.1231954131
 30
0.0
 11
7.039446326
 21
20.01098794
 31
0.0
  0
ARC
  5
20A
330
1F
100
AcDbEntity
  8
0
  6
Continuous
 62
     7
370
    25
100
AcDbCircle
 10
7.2340377866
 20
20.0089802177
 30
0.0
 40
0.1946018177917544
100
AcDbArc
 50
103.4337972456
 51
179.4088644557
  0
ARC
  5
20B
330
1F
100
AcDbEntity
  8
0
  6
Continuous
 62
     7
370
    25
100
AcDbCircle
 10
7.2966156955
 20
12.2861359582
 30
0.0
 40
1.425753913153639
100
AcDbArc
 50
259.6084373048
 51
265.6642776415
  0
LINE
  5
20C
330
1F
100
AcDbEntity
  8
0
  6
Continuous
 62
     7
370
    25
100
AcDbLine
 10
7.039446326
 20
10.8837671992
 30
0.0
 11
7.039446326
 21
18.1231954131
 31
0.0
  0
ARC
  5
20D
330
1F
100
AcDbEntity
  8
0
  6
Continuous
 62
     7
370
    25
100
AcDbCircle
 10
11.8044281306
 20
12.1147298495
 30
0.0
 40
1.253196951312747
100
AcDbArc
 50
273.9183250251
 51
280.8089600286
  0
LINE
  5
20E
330
1F
100
AcDbEntity
  8
0
  6
Continuous
 62
     7
370
    25
100
AcDbLine
 10
12.039446326
 20
10.8837671992
 30
0.0
 11
12.039446326
 21
18.1231954131
 31
0.0
  0
ARC
  5
20F
330
1F
100
AcDbEntity
  8
0
  6
Continuous
 62
     7
370
    25
100
AcDbCircle
 10
8.2199041551
 20
10.7000893099
 30
0.0
 40
0.1670427877639222
100
AcDbArc
 50
166.8181951122
 51
198.6433472085
  0
ARC
  5
210
330
1F
100
AcDbEntity
  8
0
  6
Continuous
 62
     7
370
    25
100
AcDbCircle
 10
10.8589884969
 20
10.7000893099
 30
0.0
 40
0.167042787763905
100
AcDbArc
 50
341.3566527915
 51
13.1818048878
  0
ARC
  5
211
330
1F
100
AcDbEntity
  8
0
  6
Continuous
 62
     7
370
    25
100
AcDbCircle
 10
7.2966982659
 20
10.8270631373
 30
0.0
 40
0.1141694850709118
100
AcDbArc
 50
160.8783080614
 51
207.8459956828
  0
ARC
  5
212
330
1F
100
AcDbEntity
  8
0
  6
Continuous
 62
     7
370
    25
100
AcDbCircle
 10
11.7821943861
 20
10.8270631373
 30
0.0
 40
0.1141694850708862
100
AcDbArc
 50
332.1540043172
 51
19.1216919386
  0
ARC
  5
213
330
1F
100
AcDbEntity
  8
0
  6
Continuous
 62
     7
370
    25
100
AcDbCircle
 10
7.1393884964
 20
10.8837679305
 30
0.0
 40
0.0999421703662173
100
AcDbArc
 50
180.0004192652
 51
207.3398215491
  0
ARC
  5
214
330
1F
100
AcDbEntity
  8
0
  6
Continuous
 62
     7
370
    25
100
AcDbCircle
 10
11.9395048472
 20
10.8837678385
 30
0.0
 40
0.0999414787762915
100
AcDbArc
 50
334.9059906669
 51
359.9996334556
  0
ARC
  5
215
330
1F
100
AcDbEntity
  8
0
  6
Continuous
 62
     7
370
    25
100
AcDbCircle
 10
7.1394226298
 20
10.8278424198
 30
0.0
 40
0.0999763045268413
100
AcDbArc
 50
180.0069232953
 51
259.0706976604
  0
LINE
  5
216
330
1F
100
AcDbEntity
  8
0
  6
Continuous
 62
     7
370
    25
100
AcDbLine
 10
7.039446326
 20
10.8278303392
 30
0.0
 11
7.039446326
 21
10.8837671992
 31
0.0
  0
ARC
  5
217
330
1F
100
AcDbEntity
  8
0
  6
Continuous
 62
     7
370
    25
100
AcDbCircle
 10
11.9394700222
 20
10.8278424198
 30
0.0
 40
0.0999763045268448
100
AcDbArc
 50
280.9293023396
 51
359.9930767047
  0
LINE
  5
218
330
1F
100
AcDbEntity
  8
0
  6
Continuous
 62
     7
370
    25
100
AcDbLine
 10
12.039446326
 20
10.8278303392
 30
0.0
 11
12.039446326
 21
10.8837671992
 31
0.0
  0
LINE
  5
219
330
1F
100
AcDbEntity
  8
0
  6
Continuous
 62
     7
370
    25
100
AcDbLine
 10
9.683446326
 20
10.2542364906
 30
0.0
 11
9.395446326
 21
10.2542364906
 31
0.0
  0
LWPOLYLINE
  5
21A
330
1F
100
AcDbEntity
  8
0
  6
Continuous
 62
     7
370
    25
100
AcDbPolyline
 90
        9
 70
   128
 43
0.0
 10
11.9011910499
 20
20.3473544263
 10
11.9011040663
 20
20.3473823463
 10
11.898512607
 20
20.348063298
 10
11.8946291957
 20
20.3490822369
 10
11.8923464346
 20
20.349680356
 10
11.8912093653
 20
20.3499780548
 10
11.8907163103
 20
20.3501070948
 10
11.8903805066
 20
20.3501949633
 10
11.890075664
 20
20.3502747186
  0
LINE
  5
21B
330
1F
100
AcDbEntity
  8
0
  6
Continuous
 62
     7
370
    25
100
AcDbLine
 10
12.039446326
 20
20.01098794
 30
0.0
 11
12.039446326
 21
20.1561954714
 31
0.0
  0
LWPOLYLINE
  5
21C
330
1F
100
AcDbEntity
  8
0
  6
Continuous
 62
     7
370
    25
100
AcDbPolyline
 90
        9
 70
   128
 43
0.0
 10
7.17770013
 20
20.3473539485
 10
7.1777885857
 20
20.3473823463
 10
7.180380045
 20
20.348063298
 10
7.1842634563
 20
20.3490822369
 10
7.1865462174
 20
20.349680356
 10
7.1876832867
 20
20.3499780548
 10
7.1881763417
 20
20.3501070948
 10
7.1885121454
 20
20.3501949633
 10
7.188816988
 20
20.3502747186
  0
LINE
  5
21D
330
1F
100
AcDbEntity
  8
0
  6
Continuous
 62
     7
370
    25
100
AcDbLine
 10
7.039446326
 20
20.01098794
 30
0.0
 11
7.039446326
 21
20.1569168368
 31
0.0
  0
ARC
  5
21E
330
1F
100
AcDbEntity
  8
0
  6
Continuous
 62
     7
370
    25
100
AcDbCircle
 10
82.1488952611
 20
17.3364789565
 30
0.0
 40
75.31875458509667
100
AcDbArc
 50
185.0323303807
 51
185.1904921161
  0
ARC
  5
21F
330
1F
100
AcDbEntity
  8
0
  6
Continuous
 62
     7
370
    25
100
AcDbCircle
 10
-61.579340307
 20
17.2031416342
 30
0.0
 40
73.82214221478496
100
AcDbArc
 50
354.8079046592
 51
354.969272844
  0
ARC
  5
220
330
1F
100
AcDbEntity
  8
0
  6
Continuous
 62
     7
370
    25
100
AcDbCircle
 10
7.1141792423
 20
-18.3945650538
 30
0.0
 40
28.91716893012852
100
AcDbArc
 50
89.9508387925
 51
90.1480741586
  0
LINE
  5
221
330
1F
100
AcDbEntity
  8
0
  6
Continuous
 62
     7
370
    25
100
AcDbLine
 10
7.039446326
 20
10.5225073071
 30
0.0
 11
7.039446326
 21
10.8278303392
 31
0.0
  0
ARC
  5
222
330
1F
100
AcDbEntity
  8
0
  6
Continuous
 62
     7
370
    25
100
AcDbCircle
 10
11.9647134097
 20
-18.3945650533
 30
0.0
 40
28.91716892964606
100
AcDbArc
 50
89.8519258414
 51
90.0491612075
  0
LINE
  5
223
330
1F
100
AcDbEntity
  8
0
  6
Continuous
 62
     7
370
    25
100
AcDbLine
 10
12.039446326
 20
10.5225073071
 30
0.0
 11
12.039446326
 21
10.8278303392
 31
0.0
  0
LWPOLYLINE
  5
224
330
1F
100
AcDbEntity
  8
0
  6
Continuous
 62
     7
370
    25
100
AcDbPolyline
 90
        4
 70
   128
 43
0.0
 10
11.9399017608
 20
10.5225932318
 10
11.9398883074
 20
10.3225933028
 10
11.9398711396
 20
10.053370971
 10
11.939854975
 20
9.7841486289
  0
LINE
  5
225
330
1F
100
AcDbEntity
  8
0
  6
Continuous
 62
     7
370
    25
100
AcDbLine
 10
11.939854975
 20
9.7841486289
 30
0.0
 11
12.039446326
 21
9.7841486289
 31
0.0
  0
LINE
  5
226
330
1F
100
AcDbEntity
  8
0
  6
Continuous
 62
     7
370
    25
100
AcDbLine
 10
12.039446326
 20
9.7841486289
 30
0.0
 11
12.039446326
 21
10.5225073071
 31
0.0
  0
LWPOLYLINE
  5
227
330
1F
100
AcDbEntity
  8
0
  6
Continuous
 62
     7
370
    25
100
AcDbPolyline
 90
        3
 70
   128
 43
0.0
 10
7.1389908912
 20
10.5225932318
 10
7.1390043446
 20
10.3225933028
 10
7.139037677
 20
9.7841486289
  0
LINE
  5
228
330
1F
100
AcDbEntity
  8
0
  6
Continuous
 62
     7
370
    25
100
AcDbLine
 10
7.139037677
 20
9.7841486289
 30
0.0
 11
7.039446326
 21
9.7841486289
 31
0.0
  0
LINE
  5
229
330
1F
100
AcDbEntity
  8
0
  6
Continuous
 62
     7
370
    25
100
AcDbLine
 10
7.039446326
 20
9.7841486289
 30
0.0
 11
7.039446326
 21
10.5225073071
 31
0.0
  0
LINE
  5
22A
330
1F
100
AcDbEntity
  8
0
  6
Continuous
 62
     7
370
    25
100
AcDbLine
 10
9.539446326
 20
9.7841486289
 30
0.0
 11
11.939854975
 21
9.7841486289
 31
0.0
  0
LINE
  5
22B
330
1F
100
AcDbEntity
  8
0
  6
Continuous
 62
     7
370
    25
100
AcDbLine
 10
9.539446326
 20
9.7841486289
 30
0.0
 11
7.139037677
 21
9.7841486289
 31
0.0
  0
ARC
  5
22C
330
1F
100
AcDbEntity
  8
0
  6
Continuous
 62
     8
370
    25
100
AcDbCircle
 10
9.5608408676
 20
23.089366548
 30
0.0
 40
12.59008637963574
100
AcDbArc
 50
270.5579696706
 51
280.9781311625
  0
ARC
  5
22D
330
1F
100
AcDbEntity
  8
0
  6
Continuous
 62
     8
370
    25
100
AcDbCircle
 10
9.5180517845
 20
23.089366548
 30
0.0
 40
12.59008637963603
100
AcDbArc
 50
259.0218688375
 51
269.4420303294
  0
ARC
  5
22E
330
1F
100
AcDbEntity
  8
0
  6
Continuous
 62
     8
370
    25
100
AcDbCircle
 10
8.1789434996
 20
10.7371070819
 30
0.0
 40
0.0999998120114107
100
AcDbArc
 50
206.7510746307
 51
263.7207425842
  0
ARC
  5
22F
330
1F
100
AcDbEntity
  8
0
  6
Continuous
 62
     8
370
    25
100
AcDbCircle
 10
10.8999242899
 20
10.7371479334
 30
0.0
 40
0.1000431397910501
100
AcDbArc
 50
276.2908520743
 51
344.0876096226
  0
ARC
  5
230
330
1F
100
AcDbEntity
  8
0
  6
Continuous
 62
     8
370
    25
100
AcDbCircle
 10
7.1394330062
 20
10.8837958292
 30
0.0
 40
0.0999945214434472
100
AcDbArc
 50
207.3423086067
 51
259.0666578281
  0
ARC
  5
231
330
1F
100
AcDbEntity
  8
0
  6
Continuous
 62
     8
370
    25
100
AcDbCircle
 10
11.9394601839
 20
10.8837947144
 30
0.0
 40
0.0999933248257438
100
AcDbArc
 50
280.9331605971
 51
334.9028980675
  0
ARC
  5
232
330
1F
100
AcDbEntity
  8
0
  6
Continuous
 62
     8
370
    25
100
AcDbCircle
 10
9.517737744
 20
23.0842794106
 30
0.0
 40
12.78492848021808
100
AcDbArc
 50
259.2771382911
 51
269.4519414805
  0
ARC
  5
233
330
1F
100
AcDbEntity
  8
0
  6
Continuous
 62
     8
370
    25
100
AcDbCircle
 10
9.561154908
 20
23.0842794106
 30
0.0
 40
12.78492848021867
100
AcDbArc
 50
270.5480585195
 51
280.7228617089
  0
LINE
  5
234
330
1F
100
AcDbEntity
  8
0
  6
Continuous
 62
     8
370
    25
100
AcDbLine
 10
9.539446326
 20
10.2542364906
 30
0.0
 11
9.539446326
 21
9.7841486289
 31
0.0
  0
LINE
  5
235
330
1F
100
AcDbEntity
  8
DIMS
100
AcDbLine
 10
5.4411742058
 20
6.1091009382
 30
0.0
 11
22.4063313717
 21
6.1091009382
 31
0.0
  0
LINE
  5
236
330
1F
100
AcDbEntity
  8
DIMS
100
AcDbLine
 10
6.4260537029
 20
6.1091009382
 30
0.0
 11
6.4260537029
 21
6.371835431
 31
0.0
  0
LINE
  5
237
330
1F
100
AcDbEntity
  8
DIMS
100
AcDbLine
 10
6.4260537029
 20
6.371835431
 30
0.0
 11
6.529541655
 21
6.5187565688
 31
0.0
  0
LINE
  5
238
330
1F
100
AcDbEntity
  8
DIMS
100
AcDbLine
 10
6.529541655
 20
6.5187565688
 30
0.0
 11
6.3225657508
 21
6.7811789716
 31
0.0
  0
LINE
  5
239
330
1F
100
AcDbEntity
  8
DIMS
100
AcDbLine
 10
6.3225657508
 20
6.7811789716
 30
0.0
 11
6.4260537029
 21
6.9281001094
 31
0.0
  0
LINE
  5
23A
330
1F
100
AcDbEntity
  8
DIMS
100
AcDbLine
 10
6.4260537029
 20
6.9281001094
 30
0.0
 11
6.4260537029
 21
7.0971350066
 31
0.0
  0
DIMENSION
  5
23B
330
1F
100
AcDbEntity
  8
DIMS
100
AcDbDimension
  2
_D
 10
6.4258989321
 20
6.1091009382
 30
0.0
 11
6.4258989321
 21
6.681040499
 31
0.0
 70
   160
  1
                                                               47" [1194]Max. for unrestricted access  \P \P 
 71
     2
 42
-1.0
  3
SLDDIMSTYLE0
100
AcDbAlignedDimension
 13
9.127946326
 23
9.7841486289
 33
0.0
 14
5.4411742058
 24
6.1091009382
 34
0.0
 50
90.0
100
AcDbRotatedDimension
  0
DIMENSION
  5
24D
330
1F
100
AcDbEntity
  8
DIMS
100
AcDbDimension
  2
_D_1
 10
5.8859583217
 20
9.7841486289
 30
0.0
 11
5.8859583217
 21
14.9449498316
 31
0.0
 70
   160
  1
<>
 71
     2
 42
-1.0
  3
SLDDIMSTYLE1
100
AcDbAlignedDimension
 13
9.539446326
 23
20.6526604399
 33
0.0
 14
7.139037677
 24
9.7841486289
 34
0.0
 50
90.0
100
AcDbRotatedDimension
  0
MTEXT
  5
25D
330
1F
100
AcDbEntity
  8
NOTES
100
AcDbMText
 10
6.7931201477
 20
6.6577169802
 30
0.0
 40
0.5
 41
0.0
 71
     1
 72
     1
  1
Floor
  7
SLDTEXTSTYLE0
 73
     1
 44
1.0
  0
INSERT
  5
264
102
{ACAD_REACTORS
330
266
102
}
330
1F
100
AcDbEntity
  8
NOTES
100
AcDbBlockReference
  2
SW_NOTE_0_4
 10
13.6902489462
 20
21.7713950559
 30
0.0
  0
LEADER
  5
266
330
1F
100
AcDbEntity
  8
NOTES
100
AcDbLeader
  3
SLDDIMSTYLE2
 73
     2
 76
     3
 10
9.6339157081
 20
14.0250181678
 30
0.0
 10
13.1904561396
 20
21.7713950559
 30
0.0
 10
13.6902489462
 20
21.7713950559
 30
0.0
340
264
  0
MTEXT
  5
267
330
1F
100
AcDbEntity
  8
NOTES
100
AcDbMText
 10
13.7111904014
 20
23.1904753788
 30
0.0
 40
0.5
 41
0.0
 71
     1
 72
     1
  1
soap level window
  7
SLDTEXTSTYLE0
 73
     1
 44
1.0
  0
LEADER
  5
268
330
1F
100
AcDbEntity
  8
NOTES
100
AcDbLeader
  3
SLDDIMSTYLE2
 76
     3
 10
9.5949291789
 20
17.2780629012
 30
0.0
 10
12.3355542557
 20
22.9395728973
 30
0.0
 10
13.6902489462
 20
22.9395728973
 30
0.0
  0
LINE
  5
269
330
1F
100
AcDbEntity
  8
0
  6
Continuous
 62
     7
370
    25
100
AcDbLine
 10
19.2089419532
 20
14.0690396847
 30
0.0
 11
19.2132789596
 21
13.8700396847
 31
0.0
  0
LINE
  5
26A
330
1F
100
AcDbEntity
  8
0
  6
Continuous
 62
     7
370
    25
100
AcDbLine
 10
19.1387652668
 20
17.2890396847
 30
0.0
 11
19.2010961125
 21
14.4290396847
 31
0.0
  0
LWPOLYLINE
  5
26B
330
1F
100
AcDbEntity
  8
0
  6
Continuous
 62
     7
370
    25
100
AcDbPolyline
 90
        3
 70
   128
 43
0.0
 10
19.2013735652
 20
14.4275028497
 10
19.2011813299
 20
14.4282231652
 10
19.2010950597
 20
14.4291852748
  0
LINE
  5
26C
330
1F
100
AcDbEntity
  8
0
  6
Continuous
 62
     7
370
    25
100
AcDbLine
 10
22.0301400519
 20
10.5044472291
 30
0.0
 11
22.280186354
 21
10.498098091
 31
0.0
  0
LINE
  5
26D
330
1F
100
AcDbEntity
  8
0
  6
Continuous
 62
     7
370
    25
100
AcDbLine
 10
19.380469068
 20
10.571727276
 30
0.0
 11
20.1501400519
 21
10.5521839062
 31
0.0
  0
LINE
  5
26E
330
1F
100
AcDbEntity
  8
0
  6
Continuous
 62
     7
370
    25
100
AcDbLine
 10
23.5341096157
 20
20.6526604399
 30
0.0
 11
22.8841357384
 21
20.6526604399
 31
0.0
  0
LINE
  5
26F
330
1F
100
AcDbEntity
  8
0
  6
Continuous
 62
     7
370
    25
100
AcDbLine
 10
23.5341096157
 20
14.4931486289
 30
0.0
 11
23.5791096157
 21
14.4931486289
 31
0.0
  0
LINE
  5
270
330
1F
100
AcDbEntity
  8
0
  6
Continuous
 62
     7
370
    25
100
AcDbLine
 10
23.5791096157
 20
15.1041486289
 30
0.0
 11
23.5341096157
 21
15.1041486289
 31
0.0
  0
LINE
  5
271
330
1F
100
AcDbEntity
  8
0
  6
Continuous
 62
     7
370
    25
100
AcDbLine
 10
19.2694897416
 20
11.2908538083
 30
0.0
 11
19.2830311753
 21
10.6695161715
 31
0.0
  0
LINE
  5
272
330
1F
100
AcDbEntity
  8
0
  6
Continuous
 62
     7
370
    25
100
AcDbLine
 10
19.259790805
 20
11.7358816024
 30
0.0
 11
19.2688677975
 21
11.3193912084
 31
0.0
  0
LINE
  5
273
330
1F
100
AcDbEntity
  8
0
  6
Continuous
 62
     7
370
    25
100
AcDbLine
 10
19.2569694884
 20
11.8653354115
 30
0.0
 11
19.2593975792
 21
11.7539244477
 31
0.0
  0
LINE
  5
274
330
1F
100
AcDbEntity
  8
0
  6
Continuous
 62
     7
370
    25
100
AcDbLine
 10
19.2134639228
 20
13.8615527956
 30
0.0
 11
19.2564024521
 21
11.8913534097
 31
0.0
  0
LINE
  5
275
330
1F
100
AcDbEntity
  8
0
  6
Continuous
 62
     7
370
    25
100
AcDbLine
 10
19.2012314593
 20
14.4228294068
 30
0.0
 11
19.2087259111
 21
14.0789526008
 31
0.0
  0
LINE
  5
276
330
1F
100
AcDbEntity
  8
0
  6
Continuous
 62
     7
370
    25
100
AcDbLine
 10
19.1341096157
 20
17.5026604399
 30
0.0
 11
19.138559785
 21
17.298468051
 31
0.0
  0
LINE
  5
277
330
1F
100
AcDbEntity
  8
0
  6
Continuous
 62
     7
370
    25
100
AcDbLine
 10
23.5791096157
 20
20.2546486289
 30
0.0
 11
23.5341096157
 21
20.2546486289
 31
0.0
  0
LINE
  5
278
330
1F
100
AcDbEntity
  8
0
  6
Continuous
 62
     7
370
    25
100
AcDbLine
 10
23.5341096157
 20
19.1361486289
 30
0.0
 11
23.5791096157
 21
19.1361486289
 31
0.0
  0
ARC
  5
279
330
1F
100
AcDbEntity
  8
0
  6
Continuous
 62
     7
370
    25
100
AcDbCircle
 10
19.3806517631
 20
10.6690740603
 30
0.0
 40
0.0969225763781192
100
AcDbArc
 50
179.7184961075
 51
269.9049826604
  0
LINE
  5
27A
330
1F
100
AcDbEntity
  8
0
  6
Continuous
 62
     7
370
    25
100
AcDbLine
 10
19.2688677975
 20
11.3193912084
 30
0.0
 11
19.2694897416
 21
11.2908538083
 31
0.0
  0
LINE
  5
27B
330
1F
100
AcDbEntity
  8
0
  6
Continuous
 62
     7
370
    25
100
AcDbLine
 10
19.2593975792
 20
11.7539244477
 30
0.0
 11
19.259790805
 21
11.7358816024
 31
0.0
  0
LINE
  5
27C
330
1F
100
AcDbEntity
  8
0
  6
Continuous
 62
     7
370
    25
100
AcDbLine
 10
19.2564024521
 20
11.8913534097
 30
0.0
 11
19.2569694884
 21
11.8653354115
 31
0.0
  0
LINE
  5
27D
330
1F
100
AcDbEntity
  8
0
  6
Continuous
 62
     7
370
    25
100
AcDbLine
 10
20.5341096157
 20
10.554281202
 30
0.0
 11
20.5341096157
 21
10.2542364906
 31
0.0
  0
LINE
  5
27E
330
1F
100
AcDbEntity
  8
0
  6
Continuous
 62
     7
370
    25
100
AcDbLine
 10
20.8221096157
 20
10.2542364906
 30
0.0
 11
20.8221096157
 21
10.6095302668
 31
0.0
  0
ARC
  5
27F
330
1F
100
AcDbEntity
  8
0
  6
Continuous
 62
     7
370
    25
100
AcDbCircle
 10
9.9312382818
 20
13.7672941324
 30
0.0
 40
9.282609320197587
100
AcDbArc
 50
0.6341974032
 51
1.8628159665
  0
LWPOLYLINE
  5
280
330
1F
100
AcDbEntity
  8
0
  6
Continuous
 62
     7
370
    25
100
AcDbPolyline
 90
        5
 70
   128
 43
0.0
 10
19.140392023
 20
17.2274221777
 10
19.1551678194
 20
16.6008530375
 10
19.1702111635
 20
15.9710680458
 10
19.1850212641
 20
15.3345868219
 10
19.1991838378
 20
14.697124634
  0
ARC
  5
281
330
1F
100
AcDbEntity
  8
0
  6
Continuous
 62
     7
370
    25
100
AcDbCircle
 10
9.9244031
 20
14.4969174716
 30
0.0
 40
9.276941340875027
100
AcDbArc
 50
359.5807728784
 51
1.2366054317
  0
LWPOLYLINE
  5
282
330
1F
100
AcDbEntity
  8
0
  6
Continuous
 62
     7
370
    25
100
AcDbPolyline
 90
        3
 70
   128
 43
0.0
 10
22.4807247374
 20
10.5225932318
 10
22.4805567299
 20
10.3225933028
 10
22.4801404561
 20
9.7841486289
  0
LINE
  5
283
330
1F
100
AcDbEntity
  8
0
  6
Continuous
 62
     7
370
    25
100
AcDbLine
 10
22.4751096205
 20
10.2981625341
 30
0.0
 11
22.4751096191
 21
9.7841486289
 31
0.0
  0
LWPOLYLINE
  5
284
330
1F
100
AcDbEntity
  8
0
  6
Continuous
 62
     7
370
    25
100
AcDbPolyline
 90
        5
 70
   128
 43
0.0
 10
22.4754037915
 20
10.3099176597
 10
22.4755027524
 20
10.3138721524
 10
22.4766859488
 20
10.3611159173
 10
22.4783952643
 20
10.4294263141
 10
22.4807247374
 20
10.5225932318
  0
LWPOLYLINE
  5
285
330
1F
100
AcDbEntity
  8
0
  6
Continuous
 62
     7
370
    25
100
AcDbPolyline
 90
        6
 70
   128
 43
0.0
 10
22.9016360915
 20
20.3502747186
 10
22.4380517925
 20
20.3439941435
 10
21.9745334076
 20
20.3210490733
 10
21.581215406
 20
20.2771338221
 10
21.3848787738
 20
20.2427585961
 10
21.1906133572
 20
20.1982575366
  0
LWPOLYLINE
  5
286
330
1F
100
AcDbEntity
  8
0
  6
Continuous
 62
     7
370
    25
100
AcDbPolyline
 90
       10
 70
   128
 43
0.0
 10
23.5341096157
 20
20.3502776221
 10
23.5217088584
 20
20.3501354009
 10
23.1500674136
 20
20.3473666442
 10
22.9633155391
 20
20.348063298
 10
22.9167461909
 20
20.3490822369
 10
22.9052525108
 20
20.349680356
 10
22.9025366342
 20
20.3499780548
 10
22.9019272424
 20
20.3501070948
 10
22.9017044415
 20
20.3501949633
 10
22.9016360915
 20
20.3502747186
  0
LINE
  5
287
330
1F
100
AcDbEntity
  8
0
  6
Continuous
 62
     7
370
    25
100
AcDbLine
 10
23.5341096157
 20
20.1567891371
 30
0.0
 11
23.5341096157
 21
20.3502776221
 31
0.0
  0
ARC
  5
288
330
1F
100
AcDbEntity
  8
0
  6
Continuous
 62
     7
370
    25
100
AcDbCircle
 10
21.7287409552
 20
18.1319254349
 30
0.0
 40
2.135254005051638
100
AcDbArc
 50
104.597102135
 51
180.2575984645
  0
ARC
  5
289
330
1F
100
AcDbEntity
  8
0
  6
Continuous
 62
     7
370
    25
100
AcDbCircle
 10
20.0761700545
 20
10.0069563434
 30
0.0
 40
0.8768607421042222
100
AcDbArc
 50
89.3888253217
 51
102.0605978881
  0
ARC
  5
28A
330
1F
100
AcDbEntity
  8
0
  6
Continuous
 62
     7
370
    25
100
AcDbCircle
 10
118.4758570687
 20
18.5669042375
 30
0.0
 40
98.88334795446289
100
AcDbArc
 50
180.2576022375
 51
184.4675360544
  0
ARC
  5
28B
330
1F
100
AcDbEntity
  8
0
  6
Continuous
 62
     7
370
    25
100
AcDbCircle
 10
20.061428601
 20
10.565620274
 30
0.0
 40
0.2210541699832213
100
AcDbArc
 50
84.391816915
 51
109.7010041359
  0
ARC
  5
28C
330
1F
100
AcDbEntity
  8
0
  6
Continuous
 62
     7
370
    25
100
AcDbCircle
 10
19.9952641184
 20
10.8764003418
 30
0.0
 40
0.1030048303150788
100
AcDbArc
 50
186.6554284778
 51
265.347206965
  0
LWPOLYLINE
  5
28D
330
1F
100
AcDbEntity
  8
0
  6
Continuous
 62
     7
370
    25
100
AcDbPolyline
 90
        3
 70
   128
 43
0.0
 10
22.5801396476
 20
9.7841486289
 10
22.5801628813
 20
9.8159695804
 10
22.5807236633
 20
10.5225073071
  0
LINE
  5
28E
330
1F
100
AcDbEntity
  8
0
  6
Continuous
 62
     7
370
    25
100
AcDbLine
 10
22.4801404561
 20
9.7841486289
 30
0.0
 11
22.5801396476
 21
9.7841486289
 31
0.0
  0
ARC
  5
28F
330
1F
100
AcDbEntity
  8
0
  6
Continuous
 62
     7
370
    25
100
AcDbCircle
 10
22.2785528256
 20
10.5258042512
 30
0.0
 40
0.302188823445085
100
AcDbArc
 50
359.374878505
 51
88.1195623213
  0
LINE
  5
290
330
1F
100
AcDbEntity
  8
0
  6
Continuous
 62
     7
370
    25
100
AcDbLine
 10
22.2884688307
 20
10.8278303392
 30
0.0
 11
20.0855233598
 21
10.8837671992
 31
0.0
  0
LINE
  5
291
330
1F
100
AcDbEntity
  8
0
  6
Continuous
 62
     7
370
    25
100
AcDbLine
 10
23.5341096157
 20
20.1567891371
 30
0.0
 11
23.5341096157
 21
9.7841486289
 31
0.0
  0
LINE
  5
292
330
1F
100
AcDbEntity
  8
0
  6
Continuous
 62
     7
370
    25
100
AcDbLine
 10
22.5801396476
 20
9.7841486289
 30
0.0
 11
23.5341096157
 21
9.7841486289
 31
0.0
  0
ARC
  5
293
330
1F
100
AcDbEntity
  8
0
  6
Continuous
 62
     7
370
    25
100
AcDbCircle
 10
22.277281772
 20
10.5263870165
 30
0.0
 40
0.2034783353944914
100
AcDbArc
 50
358.9316776862
 51
87.55094988
  0
LINE
  5
294
330
1F
100
AcDbEntity
  8
0
  6
Continuous
 62
     7
370
    25
100
AcDbLine
 10
20.0830311284
 20
10.7856163577
 30
0.0
 11
22.2859765993
 21
10.7296794978
 31
0.0
  0
ARC
  5
295
330
1F
100
AcDbEntity
  8
0
  6
Continuous
 62
     7
370
    25
100
AcDbCircle
 10
22.2751096205
 20
10.2981625344
 30
0.0
 40
0.2000000000040494
100
AcDbArc
 50
359.9999999149
 51
88.5454667373
  0
LINE
  5
296
330
1F
100
AcDbEntity
  8
0
  6
Continuous
 62
     7
370
    25
100
AcDbLine
 10
22.0301400519
 20
10.5788561397
 30
0.0
 11
22.0301400519
 21
10.5044472291
 31
0.0
  0
LINE
  5
297
330
1F
100
AcDbEntity
  8
0
  6
Continuous
 62
     7
370
    25
100
AcDbLine
 10
22.0301400519
 20
10.5788561397
 30
0.0
 11
20.5421400519
 21
10.6166392118
 31
0.0
  0
LINE
  5
298
330
1F
100
AcDbEntity
  8
0
  6
Continuous
 62
     7
370
    25
100
AcDbLine
 10
20.5421400519
 20
10.6166392118
 30
0.0
 11
20.5421400519
 21
10.5542364906
 31
0.0
  0
ARC
  5
299
330
1F
100
AcDbEntity
  8
0
  6
Continuous
 62
     7
370
    25
100
AcDbCircle
 10
20.4128938836
 20
-2.1953528802
 30
0.0
 40
12.75024445630225
100
AcDbArc
 50
89.4191964861
 51
91.1808206059
  0
ARC
  5
29A
330
1F
100
AcDbEntity
  8
0
  6
Continuous
 62
     7
370
    25
100
AcDbCircle
 10
19.7292783074
 20
10.9927291893
 30
0.0
 40
0.356465805176676
100
AcDbArc
 50
264.8413940907
 51
283.8917947719
  0
LWPOLYLINE
  5
29B
330
1F
100
AcDbEntity
  8
0
  6
Continuous
 62
     7
370
    25
100
AcDbPolyline
 90
        3
 70
   128
 43
0.0
 10
19.8148618352
 20
10.6466896973
 10
19.891134982
 20
10.7031922163
 10
19.9869086412
 20
10.7737349578
  0
LINE
  5
29C
330
1F
100
AcDbEntity
  8
0
  6
Continuous
 62
     7
370
    25
100
AcDbLine
 10
19.4785311116
 20
10.6419675204
 30
0.0
 11
19.6972273737
 21
10.6377072071
 31
0.0
  0
LINE
  5
29D
330
1F
100
AcDbEntity
  8
0
  6
Continuous
 62
     7
370
    25
100
AcDbLine
 10
22.9051096157
 20
20.6341552713
 30
0.0
 11
22.8851719556
 21
20.6341552713
 31
0.0
  0
LINE
  5
29E
330
1F
100
AcDbEntity
  8
0
  6
Continuous
 62
     7
370
    25
100
AcDbLine
 10
22.9051096157
 20
20.64966156
 30
0.0
 11
22.9051096157
 21
20.6341552713
 31
0.0
  0
LINE
  5
29F
330
1F
100
AcDbEntity
  8
0
  6
Continuous
 62
     7
370
    25
100
AcDbLine
 10
22.8843033718
 20
20.64966156
 30
0.0
 11
22.9051096157
 21
20.64966156
 31
0.0
  0
LINE
  5
2A0
330
1F
100
AcDbEntity
  8
0
  6
Continuous
 62
     7
370
    25
100
AcDbLine
 10
22.8841357384
 20
20.6526604399
 30
0.0
 11
22.8843033718
 21
20.64966156
 31
0.0
  0
LINE
  5
2A1
330
1F
100
AcDbEntity
  8
0
  6
Continuous
 62
     7
370
    25
100
AcDbLine
 10
23.5341096157
 20
20.6526604399
 30
0.0
 11
23.5341096157
 21
20.3502776221
 31
0.0
  0
LWPOLYLINE
  5
2A2
330
1F
100
AcDbEntity
  8
0
  6
Continuous
 62
     7
370
    25
100
AcDbPolyline
 90
       17
 70
   128
 43
0.0
 10
22.8841357384
 20
20.6526604399
 10
22.544842156
 20
20.6489577409
 10
22.2228915645
 20
20.6389453126
 10
21.9161495431
 20
20.619729547
 10
21.6356842862
 20
20.5901575132
 10
21.3652681107
 20
20.5470581339
 10
21.1030468004
 20
20.487917669
 10
20.8472743229
 20
20.410212628
 10
20.5985325432
 20
20.3112097129
 10
20.3986519339
 20
20.2103206915
 10
20.2073018414
 20
20.0908995597
 10
20.0261692216
 20
19.9512428552
 10
19.8569410302
 20
19.7896471155
 10
19.701304223
 20
19.6044088782
 10
19.5609457557
 20
19.3938246808
 10
19.4873506446
 20
19.2596909034
 10
19.4197659885
 20
19.1161652945
  0
LINE
  5
2A3
330
1F
100
AcDbEntity
  8
0
  6
Continuous
 62
     7
370
    25
100
AcDbLine
 10
22.8843033718
 20
20.64966156
 30
0.0
 11
22.7051096157
 21
20.6483413231
 31
0.0
  0
LINE
  5
2A4
330
1F
100
AcDbEntity
  8
0
  6
Continuous
 62
     7
370
    25
100
AcDbLine
 10
22.7051096157
 20
20.6483413231
 30
0.0
 11
22.7051096157
 21
20.6328303835
 31
0.0
  0
LINE
  5
2A5
330
1F
100
AcDbEntity
  8
0
  6
Continuous
 62
     7
370
    25
100
AcDbLine
 10
22.7051096157
 20
20.6328303835
 30
0.0
 11
22.8851719556
 21
20.6341552713
 31
0.0
  0
ARC
  5
2A6
330
1F
100
AcDbEntity
  8
0
  6
Continuous
 62
     7
370
    25
100
AcDbCircle
 10
23.7453875012
 20
17.5664686505
 30
0.0
 40
4.611719335079156
100
AcDbArc
 50
166.0013163505
 51
180.7927754402
  0
ARC
  5
2A7
330
1F
100
AcDbEntity
  8
0
  6
Continuous
 62
     7
370
    25
100
AcDbCircle
 10
18.3541716537
 20
19.2395536083
 30
0.0
 40
1.07271429672214
100
AcDbArc
 50
328.6864781067
 51
353.3949678402
  0
LWPOLYLINE
  5
2A8
330
1F
100
AcDbEntity
  8
0
  6
Continuous
 62
     7
370
    25
100
AcDbPolyline
 90
        3
 70
   128
 43
0.0
 10
19.8929534264
 20
10.8644622782
 10
19.7963679764
 20
10.7945365423
 10
19.718973418
 20
10.7381820286
  0
ARC
  5
2A9
330
1F
100
AcDbEntity
  8
0
  6
Continuous
 62
     7
370
    25
100
AcDbCircle
 10
19.8196765698
 20
10.7477298039
 30
0.0
 40
0.1011547567225681
100
AcDbArc
 50
185.416085216
 51
267.2718213858
  0
ARC
  5
2AA
330
1F
100
AcDbEntity
  8
0
  6
Continuous
 62
     7
370
    25
100
AcDbCircle
 10
88.818363337
 20
17.2548973868
 30
0.0
 40
69.40600309949068
100
AcDbArc
 50
179.2866136901
 51
185.3875899392
  0
ARC
  5
2AB
330
1F
100
AcDbEntity
  8
0
  6
Continuous
 62
     7
370
    25
100
AcDbCircle
 10
21.7051069406
 20
18.0876866471
 30
0.0
 40
2.287583167611125
100
AcDbArc
 50
127.1413346264
 51
179.152179262
  0
LWPOLYLINE
  5
2AC
330
1F
100
AcDbEntity
  8
0
  6
Continuous
 62
     7
370
    25
100
AcDbPolyline
 90
       21
 70
   128
 43
0.0
 10
20.3239025914
 20
19.9112302562
 10
20.4036013551
 20
19.9691961677
 10
20.6354558992
 20
20.1119516619
 10
20.786626697
 20
20.1870539981
 10
20.9427068771
 20
20.2515378177
 10
21.0299757501
 20
20.282192135
 10
21.0834158502
 20
20.2991260585
 10
21.1153673244
 20
20.3085978657
 10
21.1341857195
 20
20.3139519335
 10
21.1451595664
 20
20.3169997001
 10
21.1581372458
 20
20.3205520829
 10
21.1588424659
 20
20.3207478081
 10
21.1593093926
 20
20.3208791946
 10
21.1596202944
 20
20.3209683121
 10
21.1598276117
 20
20.3210291853
 10
21.1599658696
 20
20.3210710496
 10
21.1600580089
 20
20.3211000637
 10
21.1601192996
 20
20.3211203584
 10
21.1601598862
 20
20.3211347127
 10
21.1601983373
 20
20.3211501086
 10
21.1602095938
 20
20.3211557108
  0
LWPOLYLINE
  5
2AD
330
1F
100
AcDbEntity
  8
0
  6
Continuous
 62
     7
370
    25
100
AcDbPolyline
 90
       20
 70
   128
 43
0.0
 10
21.1602095938
 20
20.3211557108
 10
21.1601985422
 20
20.3211575966
 10
21.1601980567
 20
20.3211571897
 10
21.1601941378
 20
20.3211550757
 10
21.1601908382
 20
20.3211536605
 10
21.1601793132
 20
20.3211493548
 10
21.1601406851
 20
20.3211368209
 10
21.1600999204
 20
20.3211245437
 10
21.160038367
 20
20.3211066977
 10
21.1599458397
 20
20.3210806197
 10
21.1598070069
 20
20.3210423268
 10
21.1595988359
 20
20.3209858568
 10
21.1592866625
 20
20.3209022501
 10
21.1588178346
 20
20.3207778907
 10
21.1581097494
 20
20.3205913642
 10
20.931764397
 20
20.2517397282
 10
20.7771583878
 20
20.1920865313
 10
20.6267458792
 20
20.1228485123
 10
20.3921070568
 20
19.9886519505
 10
20.3100035892
 20
19.9327315412
  0
LWPOLYLINE
  5
2AE
330
1F
100
AcDbEntity
  8
0
  6
Continuous
 62
     7
370
    25
100
AcDbPolyline
 90
       11
 70
   128
 43
0.0
 10
19.3112635946
 20
18.1221056706
 10
19.3112639166
 20
18.1221079978
 10
19.3493586628
 20
18.3515273746
 10
19.4014411478
 20
18.5786455293
 10
19.4691356484
 20
18.801259533
 10
19.5540664415
 20
19.0171664566
 10
19.6627921257
 20
19.2322571513
 10
19.7936298201
 20
19.4354293148
 10
19.9460682129
 20
19.6220127885
 10
20.1188212557
 20
19.7879598341
 10
20.3100035892
 20
19.9327315412
  0
LINE
  5
2AF
330
1F
100
AcDbEntity
  8
0
  6
Continuous
 62
     7
370
    25
100
AcDbLine
 10
23.5791096157
 20
14.7986486289
 30
0.0
 11
23.5791096157
 21
15.1041486289
 31
0.0
  0
LINE
  5
2B0
330
1F
100
AcDbEntity
  8
0
  6
Continuous
 62
     7
370
    25
100
AcDbLine
 10
23.5791096157
 20
14.4931486289
 30
0.0
 11
23.5791096157
 21
14.7986486289
 31
0.0
  0
ARC
  5
2B1
330
1F
100
AcDbEntity
  8
0
  6
Continuous
 62
     7
370
    25
100
AcDbCircle
 10
19.7235518664
 20
10.7934482492
 30
0.0
 40
0.055455543785149
100
AcDbArc
 50
238.4284590307
 51
265.2642299069
  0
LINE
  5
2B2
330
1F
100
AcDbEntity
  8
0
  6
Continuous
 62
     7
370
    25
100
AcDbLine
 10
19.6945174075
 20
10.7462008416
 30
0.0
 11
19.4145119781
 21
10.751652215
 31
0.0
  0
ARC
  5
2B3
330
1F
100
AcDbEntity
  8
0
  6
Continuous
 62
     7
370
    25
100
AcDbCircle
 10
267.4452592223
 20
19.5731507981
 30
0.0
 40
248.1875710340023
100
AcDbArc
 50
180.4781852552
 51
182.036931664
  0
LWPOLYLINE
  5
2B4
330
1F
100
AcDbEntity
  8
0
  6
Continuous
 62
     7
370
    25
100
AcDbPolyline
 90
        4
 70
   128
 43
0.0
 10
19.2663317872
 20
17.501824424
 10
19.2793112586
 20
17.8122672542
 10
19.3112632743
 20
18.1221033458
 10
19.3112635946
 20
18.1221056706
  0
ARC
  5
2B5
330
1F
100
AcDbEntity
  8
0
  6
Continuous
 62
     7
370
    25
100
AcDbCircle
 10
19.4133912036
 20
10.6622357807
 30
0.0
 40
0.0894234581325292
100
AcDbArc
 50
89.2818737802
 51
104.4203194473
  0
ARC
  5
2B6
330
1F
100
AcDbEntity
  8
0
  6
Continuous
 62
     7
370
    25
100
AcDbCircle
 10
9.9460572097
 20
13.7689958452
 30
0.0
 40
9.267868901526464
100
AcDbArc
 50
0.5722146955
 51
1.240571712
  0
LWPOLYLINE
  5
2B7
330
1F
100
AcDbEntity
  8
0
  6
Continuous
 62
     7
370
    25
100
AcDbPolyline
 90
        7
 70
   128
 43
0.0
 10
19.2087259111
 20
14.0789526008
 10
19.2087218564
 20
14.0791421518
 10
19.2089398663
 20
14.0725820644
 10
19.2095189211
 20
14.0544311703
 10
19.210334424
 20
14.026724121
 10
19.2112258876
 20
13.9925709958
 10
19.2117537532
 20
13.9696486289
  0
ARC
  5
2B8
330
1F
100
AcDbEntity
  8
0
  6
Continuous
 62
     7
370
    25
100
AcDbCircle
 10
9.9338045066
 20
14.4969503736
 30
0.0
 40
9.267833386511786
100
AcDbArc
 50
359.541777863
 51
1.2378522236
  0
LWPOLYLINE
  5
2B9
330
1F
100
AcDbEntity
  8
0
  6
Continuous
 62
     7
370
    25
100
AcDbPolyline
 90
        5
 70
   128
 43
0.0
 10
19.1994750567
 20
14.6971626026
 10
19.1853987141
 20
15.330454915
 10
19.1706534748
 20
15.9627882457
 10
19.1554256711
 20
16.5975971553
 10
19.140436376
 20
17.2291522126
  0
LINE
  5
2BA
330
1F
100
AcDbEntity
  8
0
  6
Continuous
 62
     7
370
    25
100
AcDbLine
 10
19.3911217784
 20
10.7488419442
 30
0.0
 11
19.3912294216
 21
10.7455656494
 31
0.0
  0
ELLIPSE
  5
2BB
330
1F
100
AcDbEntity
  8
0
  6
Continuous
 62
     7
370
    25
100
AcDbEllipse
 10
28.5670217307
 20
10.9378573971
 30
0.0
 11
-0.5667082759608171
 21
13.25647044843499
 31
0.0
210
0.0
220
0.0
230
1.0
 40
0.6998122994
 41
1.520672710721921
 42
1.52231687574394
  0
ELLIPSE
  5
2BC
330
1F
100
AcDbEntity
  8
0
  6
Continuous
 62
     7
370
    25
100
AcDbEllipse
 10
28.5583135012
 20
11.3374274037
 30
0.0
 11
9.289923147201524
 21
-0.1944943144389662
 31
0.0
210
0.0
220
0.0
230
1.0
 40
0.6998122994
 41
3.17421888246454
 42
3.19171626966279
  0
ELLIPSE
  5
2BD
330
1F
100
AcDbEntity
  8
0
  6
Continuous
 62
     7
370
    25
100
AcDbEllipse
 10
28.5438270308
 20
12.0021272803
 30
0.0
 11
-0.8342537703799522
 21
35.68646783179753
 31
0.0
210
0.0
220
0.0
230
1.0
 40
0.2601808747
 41
1.573838997213751
 42
1.57713808806147
  0
LINE
  5
2BE
330
1F
100
AcDbEntity
  8
0
  6
Continuous
 62
     7
370
    25
100
AcDbLine
 10
19.2646523719
 20
11.558761227
 30
0.0
 11
19.2643679296
 21
11.558761227
 31
0.0
  0
ELLIPSE
  5
2BF
330
1F
100
AcDbEntity
  8
0
  6
Continuous
 62
     7
370
    25
100
AcDbEllipse
 10
28.5412480695
 20
12.1204608183
 30
0.0
 11
-0.8859556960794953
 21
38.25543483172552
 31
0.0
210
0.0
220
0.0
230
1.0
 40
0.2427107596
 41
1.576721200453638
 42
1.579858625728404
  0
ELLIPSE
  5
2C0
330
1F
100
AcDbEntity
  8
0
  6
Continuous
 62
     7
370
    25
100
AcDbEllipse
 10
28.5465113414
 20
11.8789598774
 30
0.0
 11
9.289917524174605
 21
-0.1950534259357219
 31
0.0
210
0.0
220
0.0
230
1.0
 40
0.7003240734
 41
3.174874165942777
 42
3.187558394548069
  0
ARC
  5
2C1
330
1F
100
AcDbEntity
  8
0
  6
Continuous
 62
     7
370
    25
100
AcDbCircle
 10
11.833345351
 20
11.4375496285
 30
0.0
 40
7.434440223870745
100
AcDbArc
 50
0.921598674
 51
2.6004905077
  0
ELLIPSE
  5
2C2
330
1F
100
AcDbEntity
  8
0
  6
Continuous
 62
     7
370
    25
100
AcDbEllipse
 10
28.5498382567
 20
11.7263070852
 30
0.0
 11
9.289915869072761
 21
-0.1952173629820262
 31
0.0
210
0.0
220
0.0
230
1.0
 40
0.7004737867
 41
3.197572793399161
 42
3.211482575597798
  0
ELLIPSE
  5
2C3
330
1F
100
AcDbEntity
  8
0
  6
Continuous
 62
     7
370
    25
100
AcDbEllipse
 10
28.567016447
 20
10.938099835
 30
0.0
 11
-0.567203187185335
 21
13.24389646179344
 31
0.0
210
0.0
220
0.0
230
1.0
 40
0.7004737867
 41
1.499260140192812
 42
1.500906404786911
  0
ELLIPSE
  5
2C4
330
1F
100
AcDbEntity
  8
0
  6
Continuous
 62
     7
370
    25
100
AcDbEllipse
 10
28.5491298771
 20
11.7588105061
 30
0.0
 11
9.289915869072754
 21
-0.1952173629820315
 31
0.0
210
0.0
220
0.0
230
1.0
 40
0.7004737867
 41
3.200680408573724
 42
3.213128840191897
  0
ARC
  5
2C5
330
1F
100
AcDbEntity
  8
0
  6
Continuous
 62
     7
370
    25
100
AcDbCircle
 10
11.5794421895
 20
11.4314679926
 30
0.0
 40
7.689146467974745
100
AcDbArc
 50
1.0279067017
 51
2.7244059242
  0
ELLIPSE
  5
2C6
330
1F
100
AcDbEntity
  8
0
  6
Continuous
 62
     7
370
    25
100
AcDbEllipse
 10
28.5458030118
 20
11.9114610056
 30
0.0
 11
9.289917524174605
 21
-0.1950534259357308
 31
0.0
210
0.0
220
0.0
230
1.0
 40
0.7003240734
 41
3.176483706149283
 42
3.189158703165496
  0
ELLIPSE
  5
2C7
330
1F
100
AcDbEntity
  8
0
  6
Continuous
 62
     7
370
    25
100
AcDbEllipse
 10
28.5590216601
 20
11.3049341104
 30
0.0
 11
9.28992314720152
 21
-0.1944943144389662
 31
0.0
210
0.0
220
0.0
230
1.0
 40
0.6998122994
 41
3.173513622202642
 42
3.190072104640771
  0
LWPOLYLINE
  5
2C8
330
1F
100
AcDbEntity
  8
0
  6
Continuous
 62
     7
370
    25
100
AcDbPolyline
 90
       10
 70
   128
 43
0.0
 10
19.4785311116
 20
10.6419675204
 10
19.4783036125
 20
10.6420091098
 10
19.4780259981
 20
10.6420614463
 10
19.477118306
 20
10.6422447445
 10
19.4745756843
 20
10.6428578702
 10
19.4673530688
 20
10.6454149807
 10
19.4408220477
 20
10.6669156589
 10
19.4254817811
 20
10.693540069
 10
19.4177644165
 20
10.7187786586
 10
19.4145941348
 20
10.7472850173
  0
LINE
  5
2C9
330
1F
100
AcDbEntity
  8
0
  6
Continuous
 62
     7
370
    25
100
AcDbLine
 10
19.4145941348
 20
10.7472850173
 30
0.0
 11
19.4145119781
 21
10.751652215
 31
0.0
  0
ARC
  5
2CA
330
1F
100
AcDbEntity
  8
0
  6
Continuous
 62
     7
370
    25
100
AcDbCircle
 10
19.415130084
 20
10.580389196
 30
0.0
 40
0.1668966818650975
100
AcDbArc
 50
90.1839921365
 51
98.233425881
  0
LINE
  5
2CB
330
1F
100
AcDbEntity
  8
0
  6
Continuous
 62
     7
370
    25
100
AcDbLine
 10
23.5791096157
 20
19.8551486289
 30
0.0
 11
23.5791096157
 21
20.2546486289
 31
0.0
  0
LINE
  5
2CC
330
1F
100
AcDbEntity
  8
0
  6
Continuous
 62
     7
370
    25
100
AcDbLine
 10
23.5791096157
 20
19.8551486289
 30
0.0
 11
23.5341096157
 21
19.8551486289
 31
0.0
  0
LINE
  5
2CD
330
1F
100
AcDbEntity
  8
0
  6
Continuous
 62
     7
370
    25
100
AcDbLine
 10
23.5791096157
 20
19.5356486289
 30
0.0
 11
23.5341096157
 21
19.5356486289
 31
0.0
  0
LINE
  5
2CE
330
1F
100
AcDbEntity
  8
0
  6
Continuous
 62
     7
370
    25
100
AcDbLine
 10
23.5791096157
 20
19.1361486289
 30
0.0
 11
23.5791096157
 21
19.5356486289
 31
0.0
  0
LINE
  5
2CF
330
1F
100
AcDbEntity
  8
0
  6
Continuous
 62
     7
370
    25
100
AcDbLine
 10
23.5791096157
 20
19.5356486289
 30
0.0
 11
23.5791096157
 21
19.8551486289
 31
0.0
  0
LINE
  5
2D0
330
1F
100
AcDbEntity
  8
0
  6
Continuous
 62
     7
370
    25
100
AcDbLine
 10
23.5791096157
 20
13.8231486289
 30
0.0
 11
23.5341096157
 21
13.8231486289
 31
0.0
  0
LINE
  5
2D1
330
1F
100
AcDbEntity
  8
0
  6
Continuous
 62
     7
370
    25
100
AcDbLine
 10
23.5791096157
 20
13.7231486289
 30
0.0
 11
23.5791096157
 21
13.8231486289
 31
0.0
  0
LINE
  5
2D2
330
1F
100
AcDbEntity
  8
0
  6
Continuous
 62
     7
370
    25
100
AcDbLine
 10
23.5791096157
 20
13.7231486289
 30
0.0
 11
23.5341096157
 21
13.7231486289
 31
0.0
  0
LINE
  5
2D3
330
1F
100
AcDbEntity
  8
0
  6
Continuous
 62
     7
370
    25
100
AcDbLine
 10
23.5791096157
 20
18.1221486289
 30
0.0
 11
23.5341096157
 21
18.1221486289
 31
0.0
  0
LINE
  5
2D4
330
1F
100
AcDbEntity
  8
0
  6
Continuous
 62
     7
370
    25
100
AcDbLine
 10
23.5791096157
 20
18.0221486289
 30
0.0
 11
23.5791096157
 21
18.1221486289
 31
0.0
  0
LINE
  5
2D5
330
1F
100
AcDbEntity
  8
0
  6
Continuous
 62
     7
370
    25
100
AcDbLine
 10
23.5791096157
 20
18.0221486289
 30
0.0
 11
23.5341096157
 21
18.0221486289
 31
0.0
  0
LINE
  5
2D6
330
1F
100
AcDbEntity
  8
0
  6
Continuous
 62
     7
370
    25
100
AcDbLine
 10
23.5791096157
 20
14.1361486289
 30
0.0
 11
23.5341096157
 21
14.1361486289
 31
0.0
  0
LINE
  5
2D7
330
1F
100
AcDbEntity
  8
0
  6
Continuous
 62
     7
370
    25
100
AcDbLine
 10
23.5791096157
 20
16.3181486289
 30
0.0
 11
23.5341096157
 21
16.3181486289
 31
0.0
  0
LINE
  5
2D8
330
1F
100
AcDbEntity
  8
0
  6
Continuous
 62
     7
370
    25
100
AcDbLine
 10
23.5791096157
 20
14.1361486289
 30
0.0
 11
23.5791096157
 21
14.4931486289
 31
0.0
  0
LINE
  5
2D9
330
1F
100
AcDbEntity
  8
0
  6
Continuous
 62
     7
370
    25
100
AcDbLine
 10
23.5791096157
 20
15.1041486289
 30
0.0
 11
23.5791096157
 21
16.3181486289
 31
0.0
  0
LWPOLYLINE
  5
2DA
330
1F
100
AcDbEntity
  8
0
  6
Continuous
 62
     7
370
    25
100
AcDbPolyline
 90
        3
 70
   128
 43
0.0
 10
19.4197659885
 20
19.1161652945
 10
19.339098201
 20
18.9082540244
 10
19.2706303086
 20
18.6820417284
  0
LINE
  5
2DB
330
1F
100
AcDbEntity
  8
0
  6
Continuous
 62
     7
370
    25
100
AcDbLine
 10
20.8221096157
 20
10.2542364906
 30
0.0
 11
20.5341096157
 21
10.2542364906
 31
0.0
  0
LWPOLYLINE
  5
2DC
330
1F
100
AcDbEntity
  8
0
  6
Continuous
 62
     8
370
    25
100
AcDbPolyline
 90
        3
 70
   128
 43
0.0
 10
19.1994750567
 20
14.6971626026
 10
19.1993043082
 20
14.697120465
 10
19.1991838378
 20
14.697124634
  0
LINE
  5
2DD
330
1F
100
AcDbEntity
  8
0
  6
Continuous
 62
     8
370
    25
100
AcDbLine
 10
22.4751096205
 20
10.2981625341
 30
0.0
 11
22.4754037915
 21
10.3099176597
 31
0.0
  0
ARC
  5
2DE
330
1F
100
AcDbEntity
  8
0
  6
Continuous
 62
     8
370
    25
100
AcDbCircle
 10
46.0360373356
 20
-26.5384022665
 30
0.0
 40
45.69114831478563
100
AcDbArc
 50
125.5377790502
 51
125.6890376369
  0
ARC
  5
2DF
330
1F
100
AcDbEntity
  8
0
  6
Continuous
 62
     8
370
    25
100
AcDbCircle
 10
45.8800807365
 20
-27.0560410091
 30
0.0
 40
46.15864718497148
100
AcDbArc
 50
125.0202153159
 51
125.1843760842
  0
LINE
  5
2E0
330
1F
100
AcDbEntity
  8
0
  6
Continuous
 62
     8
370
    25
100
AcDbLine
 10
19.2689794697
 20
11.3193936421
 30
0.0
 11
19.2688943891
 21
11.3197461193
 31
0.0
  0
ELLIPSE
  5
2E1
330
1F
100
AcDbEntity
  8
0
  6
Continuous
 62
     8
370
    25
100
AcDbEllipse
 10
28.5496295896
 20
11.7358816024
 30
0.0
 11
9.289917524174609
 21
-0.1950534259357202
 31
0.0
210
0.0
220
0.0
230
1.0
 40
0.7003240734
 41
3.171564437887326
 42
3.180689363352852
  0
ELLIPSE
  5
2E2
330
1F
100
AcDbEntity
  8
0
  6
Continuous
 62
     8
370
    25
100
AcDbEllipse
 10
28.5492363638
 20
11.7539244477
 30
0.0
 11
9.289917524174601
 21
-0.1950534259357219
 31
0.0
210
0.0
220
0.0
230
1.0
 40
0.7003240734
 41
3.171564437887326
 42
3.183110178655347
  0
LWPOLYLINE
  5
2E3
330
1F
100
AcDbEntity
  8
0
  6
Continuous
 62
     8
370
    25
100
AcDbPolyline
 90
        3
 70
   128
 43
0.0
 10
19.2571929374
 20
11.8574173067
 10
19.2570050542
 20
11.8642570781
 10
19.2569694884
 20
11.8653354115
  0
ARC
  5
2E4
330
1F
100
AcDbEntity
  8
0
  6
Continuous
 62
     8
370
    25
100
AcDbCircle
 10
16.9115563863
 20
11.8121606538
 30
0.0
 40
2.346182977742544
100
AcDbArc
 50
1.6432984021
 51
1.9343217322
  0
LINE
  5
2E5
330
1F
100
AcDbEntity
  8
0
  6
Continuous
 62
     8
370
    25
100
AcDbLine
 10
19.2694870768
 20
11.2918399042
 30
0.0
 11
19.2694897416
 21
11.2908538083
 31
0.0
  0
MTEXT
  5
2E6
330
1F
100
AcDbEntity
  8
NOTES
100
AcDbMText
 10
22.7538590907
 20
9.2457494021
 30
0.0
 40
0.5
 41
0.0
 71
     1
 72
     1
  1
sensor
  7
SLDTEXTSTYLE0
 73
     1
 44
1.0
  0
LEADER
  5
2E7
330
1F
100
AcDbEntity
  8
NOTES
100
AcDbLeader
  3
SLDDIMSTYLE2
 76
     3
 10
21.2520674496
 20
10.5986128422
 30
0.0
 10
22.2324425356
 20
8.9960033435
 30
0.0
 10
22.7324425356
 20
8.9960033435
 30
0.0
  0
LWPOLYLINE
  5
2E8
330
1F
100
AcDbEntity
  8
0
  6
Continuous
 62
     7
370
    25
100
AcDbPolyline
 90
       19
 70
   128
 43
0.0
 10
40.6207018418
 20
21.2410845789
 10
40.5414370102
 20
21.1333732248
 10
40.4656519699
 20
21.0204195649
 10
40.3969482768
 20
20.9076921444
 10
40.3341154018
 20
20.7942750346
 10
40.2752980253
 20
20.6772910655
 10
40.2209538811
 20
20.5576048695
 10
40.1715030849
 20
20.4361521913
 10
40.1272595586
 20
20.3137857529
 10
40.0880123743
 20
20.1906620994
 10
40.0524036409
 20
20.0630639766
 10
40.0205626356
 20
19.9310531052
 10
39.9926670013
 20
19.794868464
 10
39.968912499
 20
19.6548826216
 10
39.9494615144
 20
19.5115448517
 10
39.9341825355
 20
19.3639802972
 10
39.9230935594
 20
19.2101478459
 10
39.9165387855
 20
19.0515932599
 10
39.9158847198
 20
18.9953747848
  0
LWPOLYLINE
  5
2E9
330
1F
100
AcDbEntity
  8
0
  6
Continuous
 62
     7
370
    25
100
AcDbPolyline
 90
       22
 70
   128
 43
0.0
 10
40.5899248474
 20
21.8070633054
 10
40.5412102582
 20
21.7632599007
 10
40.45109822
 20
21.6766232091
 10
40.3634363331
 20
21.5849296083
 10
40.2785177856
 20
21.4885397575
 10
40.1966282192
 20
21.3878244036
 10
40.11804553
 20
21.2831640846
 10
40.0430394948
 20
21.1749487807
 10
39.9718711247
 20
21.0635772517
 10
39.9047918927
 20
20.949456096
 10
39.842042946
 20
20.8329985844
 10
39.7838577194
 20
20.7146304428
 10
39.7304545962
 20
20.5947762897
 10
39.6820387541
 20
20.4738610602
 10
39.6388030097
 20
20.3523103923
 10
39.6009278561
 20
20.230549299
 10
39.5685817407
 20
20.1090010978
 10
39.5419215596
 20
19.9880867587
 10
39.5210932966
 20
19.8682248753
 10
39.5062326485
 20
19.7498325097
 10
39.4974653529
 20
19.6333271914
 10
39.4948953684
 20
19.5216431976
  0
ARC
  5
2EA
330
1F
100
AcDbEntity
  8
0
  6
Continuous
 62
     7
370
    25
100
AcDbCircle
 10
47.263837436
 20
18.9048173817
 30
0.0
 40
7.348147175485992
100
AcDbArc
 50
179.2906432557
 51
183.6079000938
  0
ARC
  5
2EB
330
1F
100
AcDbEntity
  8
0
  6
Continuous
 62
     7
370
    25
100
AcDbCircle
 10
0.1400399182
 20
14.9753399809
 30
0.0
 40
39.93881669174425
100
AcDbArc
 50
357.153760677
 51
4.9796773532
  0
LWPOLYLINE
  5
2EC
330
1F
100
AcDbEntity
  8
0
  6
Continuous
 62
     7
370
    25
100
AcDbPolyline
 90
       11
 70
   128
 43
0.0
 10
42.244523499
 20
22.8859459754
 10
42.1527994374
 20
22.8330169611
 10
41.777414641
 20
22.6161686392
 10
41.5416189979
 20
22.4771628792
 10
41.3525619894
 20
22.3613618727
 10
41.1846751252
 20
22.2537019562
 10
41.039525605
 20
22.1558306001
 10
40.9076380409
 20
22.0617619062
 10
40.7858148845
 20
21.9694267518
 10
40.6718752689
 20
21.8773995449
 10
40.5899888515
 20
21.8068003377
  0
ARC
  5
2ED
330
1F
100
AcDbEntity
  8
0
  6
Continuous
 62
     7
370
    25
100
AcDbCircle
 10
126.8684445203
 20
19.8036424603
 30
0.0
 40
87.37400422892127
100
AcDbArc
 50
180.1849222291
 51
183.9926718839
  0
ARC
  5
2EE
330
1F
100
AcDbEntity
  8
0
  6
Continuous
 62
     7
370
    25
100
AcDbCircle
 10
43.1418254703
 20
11.9831128214
 30
0.0
 40
0.2897969859758227
100
AcDbArc
 50
259.9149580897
 51
297.834465195
  0
ARC
  5
2EF
330
1F
100
AcDbEntity
  8
0
  6
Continuous
 62
     7
370
    25
100
AcDbCircle
 10
43.9747071047
 20
16.9512148889
 30
0.0
 40
5.326551340598484
100
AcDbArc
 50
252.2398922832
 51
260.4514196344
  0
LINE
  5
2F0
330
1F
100
AcDbEntity
  8
0
  6
Continuous
 62
     7
370
    25
100
AcDbLine
 10
43.2774419796
 20
11.7267396486
 30
0.0
 11
44.8351596607
 21
12.5803161957
 31
0.0
  0
ARC
  5
2F1
330
1F
100
AcDbEntity
  8
0
  6
Continuous
 62
     7
370
    25
100
AcDbCircle
 10
43.6148438337
 20
16.7826173497
 30
0.0
 40
5.24163851834197
100
AcDbArc
 50
227.2360722965
 51
252.7164716666
  0
ARC
  5
2F2
330
1F
100
AcDbEntity
  8
0
  6
Continuous
 62
     7
370
    25
100
AcDbCircle
 10
42.0651368258
 20
11.7950027323
 30
0.0
 40
0.0203494780294417
100
AcDbArc
 50
246.5385215206
 51
301.4927970921
  0
LWPOLYLINE
  5
2F3
330
1F
100
AcDbEntity
  8
0
  6
Continuous
 62
     7
370
    25
100
AcDbPolyline
 90
        3
 70
   128
 43
0.0
 10
42.0759109503
 20
11.7774593064
 10
42.0875192942
 20
11.7832202211
 10
42.26615426
 20
11.8718805804
  0
ARC
  5
2F4
330
1F
100
AcDbEntity
  8
0
  6
Continuous
 62
     7
370
    25
100
AcDbCircle
 10
42.316810702
 20
11.7574175654
 30
0.0
 40
0.1250921701952668
100
AcDbArc
 50
74.8328856655
 51
113.7234236991
  0
ARC
  5
2F5
330
1F
100
AcDbEntity
  8
0
  6
Continuous
 62
     7
370
    25
100
AcDbCircle
 10
44.8727186455
 20
12.5343352995
 30
0.0
 40
0.0590239296004886
100
AcDbArc
 50
83.2170798288
 51
129.8481925784
  0
ARC
  5
2F6
330
1F
100
AcDbEntity
  8
0
  6
Continuous
 62
     7
370
    25
100
AcDbCircle
 10
40.0909421422
 20
12.9859544624
 30
0.0
 40
0.061046023223926
100
AcDbArc
 50
177.5343243786
 51
226.0590318173
  0
LWPOLYLINE
  5
2F7
330
1F
100
AcDbEntity
  8
0
  6
Continuous
 62
     7
370
    25
100
AcDbPolyline
 90
        3
 70
   128
 43
0.0
 10
40.0533785386
 20
12.9366091113
 10
40.0570580376
 20
12.9324758645
 10
40.0575428995
 20
12.9321367382
  0
ARC
  5
2F8
330
1F
100
AcDbEntity
  8
0
  6
Continuous
 62
     7
370
    25
100
AcDbCircle
 10
43.1199650868
 20
16.3022052326
 30
0.0
 40
4.30493959656891
100
AcDbArc
 50
218.3320616624
 51
224.3967606967
  0
ARC
  5
2F9
330
1F
100
AcDbEntity
  8
0
  6
Continuous
 62
     7
370
    25
100
AcDbCircle
 10
39.8599096385
 20
13.7311206541
 30
0.0
 40
0.1537493672630558
100
AcDbArc
 50
184.7534667875
 51
220.2301388681
  0
ARC
  5
2FA
330
1F
100
AcDbEntity
  8
0
  6
Continuous
 62
     7
370
    25
100
AcDbCircle
 10
40.8927925287
 20
15.0061247736
 30
0.0
 40
0.0500094116863584
100
AcDbArc
 50
123.5551788775
 51
195.8248429064
  0
LWPOLYLINE
  5
2FB
330
1F
100
AcDbEntity
  8
0
  6
Continuous
 62
     7
370
    25
100
AcDbPolyline
 90
        3
 70
   128
 43
0.0
 10
40.9902553386
 20
14.927946133
 10
40.9914195461
 20
14.9061260169
 10
40.9905916161
 20
14.9033391386
  0
LWPOLYLINE
  5
2FC
330
1F
100
AcDbEntity
  8
0
  6
Continuous
 62
     7
370
    25
100
AcDbPolyline
 90
        5
 70
   128
 43
0.0
 10
40.9709155626
 20
14.869438552
 10
40.9701915392
 20
14.8687129156
 10
40.9498815787
 20
14.8644722701
 10
40.9352424132
 20
14.8672562912
 10
40.9190955918
 20
14.8745326299
  0
LWPOLYLINE
  5
2FD
330
1F
100
AcDbEntity
  8
0
  6
Continuous
 62
     7
370
    25
100
AcDbPolyline
 90
       21
 70
   128
 43
0.0
 10
40.9124941706
 20
15.0372070789
 10
40.8900966186
 20
15.046006169
 10
40.8696327026
 20
15.0452765932
 10
40.8542118155
 20
15.0345917452
 10
40.8455356881
 20
15.0151372662
 10
40.8445500316
 20
14.9890933114
 10
40.8513600406
 20
14.959388325
 10
40.8652178637
 20
14.9293890354
 10
40.8845968435
 20
14.9025004252
 10
40.907352912
 20
14.8817715163
 10
40.9155608973
 20
14.8764858409
 10
40.9309425307
 20
14.8695523446
 10
40.952703303
 20
14.867218219
 10
40.9642266018
 20
14.8709225743
 10
40.977932103
 20
14.8846526905
 10
40.9844158946
 20
14.906519293
 10
40.9829210329
 20
14.9340419431
 10
40.9736221788
 20
14.9641101864
 10
40.9576014895
 20
14.9933478946
 10
40.9367002993
 20
15.018494007
 10
40.9124941706
 20
15.0372070789
  0
ARC
  5
2FE
330
1F
100
AcDbEntity
  8
0
  6
Continuous
 62
     7
370
    25
100
AcDbCircle
 10
53.1097007301
 20
16.0195752474
 30
0.0
 40
12.400444192369
100
AcDbArc
 50
172.5948150613
 51
181.6784971199
  0
LWPOLYLINE
  5
2FF
330
1F
100
AcDbEntity
  8
0
  6
Continuous
 62
     7
370
    25
100
AcDbPolyline
 90
       11
 70
   128
 43
0.0
 10
40.9153616958
 20
17.5585351779
 10
40.9138869939
 20
17.5660740227
 10
40.9059161913
 20
17.5883860323
 10
40.893224069
 20
17.6095715263
 10
40.8772599097
 20
17.6272625086
 10
40.8628717599
 20
17.6378220852
 10
40.8598459552
 20
17.6394700588
 10
40.8429401384
 20
17.644826929
 10
40.8284408772
 20
17.6427168687
 10
40.817968258
 20
17.6333636224
 10
40.8126824046
 20
17.617810671
  0
ARC
  5
300
330
1F
100
AcDbEntity
  8
0
  6
Continuous
 62
     7
370
    25
100
AcDbCircle
 10
25.6215573271
 20
15.1835701943
 30
0.0
 40
15.47710925008633
100
AcDbArc
 50
0.9338219049
 51
8.8269220172
  0
LWPOLYLINE
  5
301
330
1F
100
AcDbEntity
  8
0
  6
Continuous
 62
     7
370
    25
100
AcDbPolyline
 90
       12
 70
   128
 43
0.0
 10
40.7145772788
 20
15.6563524585
 10
40.7268440646
 20
15.5776332897
 10
40.7587448684
 20
15.4952320533
 10
40.8069388878
 20
15.4185933207
 10
40.8663052796
 20
15.3565111156
 10
40.9069463235
 20
15.3279590672
 10
40.9303573251
 20
15.3161166533
 10
40.9918959175
 20
15.3019861891
 10
41.0438187083
 20
15.3156174984
 10
41.0799857399
 20
15.355307126
 10
41.0960407728
 20
15.4163997871
 10
41.0966110034
 20
15.4358090837
  0
ARC
  5
302
330
1F
100
AcDbEntity
  8
0
  6
Continuous
 62
     7
370
    25
100
AcDbCircle
 10
40.9179447608
 20
17.5669998519
 30
0.0
 40
0.0088500243242357
100
AcDbArc
 50
253.0299998121
 51
299.9076392838
  0
ARC
  5
303
330
1F
100
AcDbEntity
  8
0
  6
Continuous
 62
     7
370
    25
100
AcDbCircle
 10
25.6198803035
 20
15.1839212839
 30
0.0
 40
15.48574714211013
100
AcDbArc
 50
0.9324385622
 51
8.8236144719
  0
ARC
  5
304
330
1F
100
AcDbEntity
  8
0
  6
Continuous
 62
     7
370
    25
100
AcDbCircle
 10
41.0999807629
 20
15.4425456629
 30
0.0
 40
0.0075323820697947
100
AcDbArc
 50
243.4249481591
 51
298.5165196998
  0
ARC
  5
305
330
1F
100
AcDbEntity
  8
0
  6
Continuous
 62
     7
370
    25
100
AcDbCircle
 10
52.018307686
 20
16.1230083766
 30
0.0
 40
11.30535667797511
100
AcDbArc
 50
172.3997549518
 51
179.3099742647
  0
ARC
  5
306
330
1F
100
AcDbEntity
  8
0
  6
Continuous
 62
     7
370
    25
100
AcDbCircle
 10
40.8140338691
 20
17.6201851764
 30
0.0
 40
0.002732166287268
100
AcDbArc
 50
117.8892245177
 51
240.3533630695
  0
LWPOLYLINE
  5
307
330
1F
100
AcDbEntity
  8
0
  6
Continuous
 62
     7
370
    25
100
AcDbPolyline
 90
        3
 70
   128
 43
0.0
 10
40.8127558612
 20
17.6226000115
 10
40.8184251841
 20
17.6392281039
 10
40.8279032754
 20
17.647694235
  0
LWPOLYLINE
  5
308
330
1F
100
AcDbEntity
  8
0
  6
Continuous
 62
     7
370
    25
100
AcDbPolyline
 90
        8
 70
   128
 43
0.0
 10
41.1035768134
 20
15.4359271132
 10
41.1029899993
 20
15.4161543234
 10
41.0866309201
 20
15.3539157173
 10
41.0498092307
 20
15.3134767473
 10
40.9969548074
 20
15.2995774425
 10
40.9343125114
 20
15.3139514213
 10
40.910481018
 20
15.3260058562
 10
40.9096413797
 20
15.3265957777
  0
LINE
  5
309
330
1F
100
AcDbEntity
  8
0
  6
Continuous
 62
     7
370
    25
100
AcDbLine
 10
43.6782443534
 20
21.8145146885
 30
0.0
 11
43.5515352333
 21
21.7402890432
 31
0.0
  0
LINE
  5
30A
330
1F
100
AcDbEntity
  8
0
  6
Continuous
 62
     7
370
    25
100
AcDbLine
 10
43.5515352333
 20
21.7402890432
 30
0.0
 11
43.7990226068
 21
21.5847523083
 31
0.0
  0
LINE
  5
30B
330
1F
100
AcDbEntity
  8
0
  6
Continuous
 62
     7
370
    25
100
AcDbLine
 10
43.7990226068
 20
21.5847523083
 30
0.0
 11
43.9263459083
 21
21.6593363108
 31
0.0
  0
LWPOLYLINE
  5
30C
330
1F
100
AcDbEntity
  8
0
  6
Continuous
 62
     7
370
    25
100
AcDbPolyline
 90
       14
 70
   128
 43
0.0
 10
43.5639183036
 20
20.2047045828
 10
43.3986563349
 20
20.0680665746
 10
43.2351060211
 20
19.9215726647
 10
43.0754261867
 20
19.7650073741
 10
42.910697521
 20
19.5853927953
 10
42.754549164
 20
19.3941142379
 10
42.6107439276
 20
19.1943287123
 10
42.4819383473
 20
18.9888408845
 10
42.367698714
 20
18.7790792044
 10
42.2689441392
 20
18.5688030675
 10
42.1882335698
 20
18.3679328596
 10
42.1199271235
 20
18.168558117
 10
42.06305933
 20
17.9717188328
 10
42.016664719
 20
17.778455
  0
LWPOLYLINE
  5
30D
330
1F
100
AcDbEntity
  8
0
  6
Continuous
 62
     7
370
    25
100
AcDbPolyline
 90
        3
 70
   128
 43
0.0
 10
42.016664719
 20
17.778455
 10
41.9699273276
 20
17.5258031805
 10
41.9389010432
 20
17.277077917
  0
LWPOLYLINE
  5
30E
330
1F
100
AcDbEntity
  8
0
  6
Continuous
 62
     7
370
    25
100
AcDbPolyline
 90
       20
 70
   128
 43
0.0
 10
40.9561144251
 20
18.8290929497
 10
41.09001188
 20
18.7592091322
 10
41.2282469332
 20
18.7027390071
 10
41.3348044184
 20
18.6716801074
 10
41.3963405862
 20
18.6601148787
 10
41.4580195364
 20
18.6555063622
 10
41.5116235321
 20
18.6603992271
 10
41.5378356283
 20
18.668279619
 10
41.5617128633
 20
18.6823894904
 10
41.5760025063
 20
18.6984237227
 10
41.5848316178
 20
18.7203583783
 10
41.5863191433
 20
18.7430625909
 10
41.5801142456
 20
18.774679959
 10
41.5563519416
 20
18.826209135
 10
41.5088792937
 20
18.8926117264
 10
41.4581246439
 20
18.9485529345
 10
41.4046265162
 20
18.9994792957
 10
41.2940407559
 20
19.0905122382
 10
41.1788663562
 20
19.1719527824
 10
41.0615692757
 20
19.2444503483
  0
LWPOLYLINE
  5
30F
330
1F
100
AcDbEntity
  8
0
  6
Continuous
 62
     7
370
    25
100
AcDbPolyline
 90
       11
 70
   128
 43
0.0
 10
42.1410071331
 20
17.8075221187
 10
42.1747630433
 20
18.0137000286
 10
42.2309644556
 20
18.2308275996
 10
42.2855980994
 20
18.3932586573
 10
42.351150674
 20
18.5575592662
 10
42.4295097854
 20
18.727446488
 10
42.5182253094
 20
18.8969663588
 10
42.6136747183
 20
19.0602038252
 10
42.7174561138
 20
19.2209318252
 10
42.832125197
 20
19.3826059542
 10
42.9538220012
 20
19.5394235478
  0
LWPOLYLINE
  5
310
330
1F
100
AcDbEntity
  8
0
  6
Continuous
 62
     7
370
    25
100
AcDbPolyline
 90
       21
 70
   128
 43
0.0
 10
42.9538220012
 20
19.5394235478
 10
43.016532775
 20
19.6156196383
 10
43.1930313009
 20
19.8195828258
 10
43.3035631688
 20
19.9405153249
 10
43.4143786603
 20
20.0566216988
 10
43.4750495436
 20
20.1178746604
 10
43.511822948
 20
20.1541019967
 10
43.5336827973
 20
20.1753021342
 10
43.5465102966
 20
20.1876322818
 10
43.5539682471
 20
20.194774662
 10
43.56270275
 20
20.2032280892
 10
43.5631598663
 20
20.2036997665
 10
43.5634558275
 20
20.204017397
 10
43.5636470193
 20
20.2042336151
 10
43.5637694004
 20
20.204381927
 10
43.5638465757
 20
20.2044844334
 10
43.5638941248
 20
20.2045558984
 10
43.5639222975
 20
20.2046062443
 10
43.5639377763
 20
20.2046421647
 10
43.5639462069
 20
20.204681261
 10
43.5639183036
 20
20.2047045828
  0
LWPOLYLINE
  5
311
330
1F
100
AcDbEntity
  8
0
  6
Continuous
 62
     7
370
    25
100
AcDbPolyline
 90
       20
 70
   128
 43
0.0
 10
43.0890063953
 20
17.5630441718
 10
43.0918922513
 20
17.6748294655
 10
43.101393245
 20
17.7899363482
 10
43.1174635048
 20
17.9078090737
 10
43.140025442
 20
18.0278785419
 10
43.1689701257
 20
18.1495650468
 10
43.2041578082
 20
18.272281075
 10
43.2454186004
 20
18.3954341428
 10
43.2925532914
 20
18.518429656
 10
43.3453343108
 20
18.6406737815
 10
43.4035068271
 20
18.7615763137
 10
43.4667899782
 20
18.8805535245
 10
43.5348782275
 20
18.9970309812
 10
43.6074428388
 20
19.1104463204
 10
43.6841334637
 20
19.2202519626
 10
43.7645798331
 20
19.3259177565
 10
43.8483935447
 20
19.4269335383
 10
43.9351699385
 20
19.5228115947
 10
44.0244900502
 20
19.613089018
 10
44.1159226346
 20
19.6973299406
  0
ARC
  5
312
330
1F
100
AcDbEntity
  8
0
  6
Continuous
 62
     7
370
    25
100
AcDbCircle
 10
130.4456201628
 20
17.8496372089
 30
0.0
 40
87.35708388265417
100
AcDbArc
 50
180.1879710287
 51
183.9883620224
  0
LWPOLYLINE
  5
313
330
1F
100
AcDbEntity
  8
0
  6
Continuous
 62
     7
370
    25
100
AcDbPolyline
 90
        7
 70
   128
 43
0.0
 10
44.1159226346
 20
19.6973299406
 10
44.2463630055
 20
19.8071109622
 10
44.3781936934
 20
19.9098446475
 10
44.646425952
 20
20.0992441076
 10
44.9189018605
 20
20.2732961168
 10
45.1917823978
 20
20.4367502849
 10
45.7386165076
 20
20.7531438018
  0
LINE
  5
314
330
1F
100
AcDbEntity
  8
0
  6
Continuous
 62
     7
370
    25
100
AcDbLine
 10
45.7386165076
 20
20.7531438018
 30
0.0
 11
45.7386165076
 21
12.2834594999
 31
0.0
  0
LINE
  5
315
330
1F
100
AcDbEntity
  8
0
  6
Continuous
 62
     7
370
    25
100
AcDbLine
 10
45.0640578741
 20
11.8940450897
 30
0.0
 11
45.7386165076
 21
12.2834594999
 31
0.0
  0
ARC
  5
316
330
1F
100
AcDbEntity
  8
0
  6
Continuous
 62
     7
370
    25
100
AcDbCircle
 10
45.4255664873
 20
20.7370932999
 30
0.0
 40
0.3134612157633088
100
AcDbArc
 50
2.9350627934
 51
48.5694009295
  0
LWPOLYLINE
  5
317
330
1F
100
AcDbEntity
  8
0
  6
Continuous
 62
     7
370
    25
100
AcDbPolyline
 90
        3
 70
   128
 43
0.0
 10
39.9202201257
 20
18.9887067027
 10
39.9216744438
 20
18.7082344016
 10
39.9341524734
 20
18.4343946322
  0
LWPOLYLINE
  5
318
330
1F
100
AcDbEntity
  8
0
  6
Continuous
 62
     7
370
    25
100
AcDbPolyline
 90
       14
 70
   128
 43
0.0
 10
41.0205640328
 20
21.6729517508
 10
40.8727896406
 20
21.5262183796
 10
40.7304410751
 20
21.3674849608
 10
40.5954590236
 20
21.1966619437
 10
40.4610619084
 20
20.9995373335
 10
40.3390695659
 20
20.7885409287
 10
40.232517396
 20
20.5672496655
 10
40.1433496189
 20
20.3388794211
 10
40.0705162312
 20
20.1052144242
 10
40.0138463994
 20
19.8706432822
 10
39.9735724514
 20
19.6464295097
 10
39.9454304154
 20
19.4238683466
 10
39.9280898029
 20
19.2042105064
 10
39.9202201257
 20
18.9887067027
  0
LINE
  5
319
330
1F
100
AcDbEntity
  8
0
  6
Continuous
 62
     7
370
    25
100
AcDbLine
 10
42.9702934592
 20
22.0631674619
 30
0.0
 11
43.0976167608
 21
22.1377514643
 31
0.0
  0
LINE
  5
31A
330
1F
100
AcDbEntity
  8
0
  6
Continuous
 62
     7
370
    25
100
AcDbLine
 10
43.2177808326
 20
21.9329613576
 30
0.0
 11
42.9702934592
 21
22.0631674619
 31
0.0
  0
LINE
  5
31B
330
1F
100
AcDbEntity
  8
0
  6
Continuous
 62
     7
370
    25
100
AcDbLine
 10
43.3444899527
 20
22.0071870029
 30
0.0
 11
43.2177808326
 21
21.9329613576
 31
0.0
  0
LWPOLYLINE
  5
31C
330
1F
100
AcDbEntity
  8
0
  6
Continuous
 62
     7
370
    25
100
AcDbPolyline
 90
       19
 70
   128
 43
0.0
 10
41.0615692757
 20
19.2444503483
 10
40.9295260142
 20
19.3146943213
 10
40.7968044627
 20
19.3722395827
 10
40.7303472284
 20
19.3949992322
 10
40.6638633731
 20
19.4123402705
 10
40.5975332501
 20
19.4219286642
 10
40.5275816297
 20
19.4170576715
 10
40.5006816879
 20
19.4063626164
 10
40.4773055744
 20
19.3854110216
 10
40.4682321128
 20
19.3669872482
 10
40.4644224216
 20
19.3445755206
 10
40.4667256183
 20
19.3160837554
 10
40.4805699237
 20
19.2720032351
 10
40.5086452695
 20
19.218643244
 10
40.5420851404
 20
19.1709630425
 10
40.6219210759
 20
19.0807102303
 10
40.708074415
 20
19.0018844337
 10
40.7984373337
 20
18.9313557915
 10
40.9561144251
 20
18.8290929497
  0
ARC
  5
31D
330
1F
100
AcDbEntity
  8
0
  6
Continuous
 62
     7
370
    25
100
AcDbCircle
 10
63.5614551558
 20
15.5170013644
 30
0.0
 40
21.54257394702411
100
AcDbArc
 50
173.9016508428
 51
189.610206927
  0
ARC
  5
31E
330
1F
100
AcDbEntity
  8
0
  6
Continuous
 62
     7
370
    25
100
AcDbCircle
 10
41.9553371169
 20
17.3088930038
 30
0.0
 40
0.0358080714990477
100
AcDbArc
 50
242.7504894769
 51
294.7848250574
  0
LINE
  5
31F
330
1F
100
AcDbEntity
  8
0
  6
Continuous
 62
     7
370
    25
100
AcDbLine
 10
41.9389010432
 20
17.277077917
 30
0.0
 11
41.9389418069
 21
17.2770588744
 31
0.0
  0
LWPOLYLINE
  5
320
330
1F
100
AcDbEntity
  8
0
  6
Continuous
 62
     7
370
    25
100
AcDbPolyline
 90
       17
 70
   128
 43
0.0
 10
42.3087114575
 20
22.8911770855
 10
42.5127399804
 20
22.831020848
 10
42.7182600128
 20
22.7624397507
 10
42.9250613268
 20
22.6855039454
 10
43.1329323842
 20
22.6002921303
 10
43.3416605522
 20
22.5068914692
 10
43.5510323217
 20
22.4053975021
 10
43.7608335248
 20
22.2959140479
 10
43.9708495546
 20
22.1785530978
 10
44.1808655844
 20
22.0534347012
 10
44.3906667875
 20
21.9206868423
 10
44.600038557
 20
21.7804453099
 10
44.808766725
 20
21.6328535579
 10
45.0166377824
 20
21.4780625587
 10
45.2234390964
 20
21.3162306491
 10
45.4289591287
 20
21.147523368
 10
45.6329876517
 20
20.972113287
  0
LINE
  5
321
330
1F
100
AcDbEntity
  8
0
  6
Continuous
 62
     7
370
    25
100
AcDbLine
 10
43.940443963
 20
21.6674749445
 30
0.0
 11
43.9263459083
 21
21.6593363108
 31
0.0
  0
ARC
  5
322
330
1F
100
AcDbEntity
  8
0
  6
Continuous
 62
     7
370
    25
100
AcDbCircle
 10
38.8465191907
 20
13.836581776
 30
0.0
 40
9.341892602741353
100
AcDbArc
 50
56.9563641566
 51
58.749186915
  0
LINE
  5
323
330
1F
100
AcDbEntity
  8
0
  6
Continuous
 62
     7
370
    25
100
AcDbLine
 10
43.6782443534
 20
21.8145146885
 30
0.0
 11
43.6929565896
 21
21.8230078816
 31
0.0
  0
LINE
  5
324
330
1F
100
AcDbEntity
  8
0
  6
Continuous
 62
     7
370
    25
100
AcDbLine
 10
43.3444899527
 20
22.0071870029
 30
0.0
 11
43.3592021889
 21
22.015680196
 31
0.0
  0
ARC
  5
325
330
1F
100
AcDbEntity
  8
0
  6
Continuous
 62
     7
370
    25
100
AcDbCircle
 10
39.42693365
 20
14.8419976366
 30
0.0
 40
8.1807369670942
100
AcDbArc
 50
61.2705609185
 51
63.229259245
  0
LINE
  5
326
330
1F
100
AcDbEntity
  8
0
  6
Continuous
 62
     7
370
    25
100
AcDbLine
 10
43.1117148154
 20
22.145890098
 30
0.0
 11
43.0976167608
 21
22.1377514643
 31
0.0
  0
LWPOLYLINE
  5
327
330
1F
100
AcDbEntity
  8
0
  6
Continuous
 62
     7
370
    25
100
AcDbPolyline
 90
       20
 70
   128
 43
0.0
 10
40.9919106061
 20
14.9124996695
 10
40.9880542467
 20
14.885716829
 10
40.9758175125
 20
14.8669435512
 10
40.9566240401
 20
14.8583242249
 10
40.9326877346
 20
14.8608561698
 10
40.9067407734
 20
14.8742727508
 10
40.8817131883
 20
14.8970643589
 10
40.8604001555
 20
14.9266456908
 10
40.8451575339
 20
14.9596542266
 10
40.8376561929
 20
14.9923431633
 10
40.8387159852
 20
15.0210162302
 10
40.8482274911
 20
15.0424455781
 10
40.8651579748
 20
15.0542294606
 10
40.88764378
 20
15.0550621002
 10
40.9131806881
 20
15.0448801487
 10
40.9389025213
 20
15.0248526564
 10
40.9619030194
 20
14.9972265508
 10
40.979556925
 20
14.9650770146
 10
40.9898218206
 20
14.9319915941
 10
40.9919106061
 20
14.9124996695
  0
ARC
  5
328
330
1F
100
AcDbEntity
  8
0
  6
Continuous
 62
     7
370
    25
100
AcDbCircle
 10
53.1339392222
 20
16.0242154259
 30
0.0
 40
12.43144522386151
100
AcDbArc
 50
172.6096545421
 51
181.6764668007
  0
LWPOLYLINE
  5
329
330
1F
100
AcDbEntity
  8
0
  6
Continuous
 62
     7
370
    25
100
AcDbPolyline
 90
       11
 70
   128
 43
0.0
 10
41.1037849822
 20
15.4319363902
 10
41.0932542693
 20
15.3637131662
 10
41.061054535
 20
15.3159141332
 10
41.0110903609
 20
15.2940933633
 10
40.9492955613
 20
15.3008966444
 10
40.8828619598
 20
15.3356976747
 10
40.8193160845
 20
15.3945881604
 10
40.7656413436
 20
15.4708298155
 10
40.7275857889
 20
15.5556463487
 10
40.7091388763
 20
15.6392814226
 10
40.7078151457
 20
15.6605249111
  0
ARC
  5
32A
330
1F
100
AcDbEntity
  8
0
  6
Continuous
 62
     7
370
    25
100
AcDbCircle
 10
25.633099544
 20
15.1801273275
 30
0.0
 40
15.4727345912603
100
AcDbArc
 50
0.9324940848
 51
8.8326661381
  0
LWPOLYLINE
  5
32B
330
1F
100
AcDbEntity
  8
0
  6
Continuous
 62
     7
370
    25
100
AcDbPolyline
 90
       10
 70
   128
 43
0.0
 10
40.8057638683
 20
17.6232535112
 10
40.811758698
 20
17.6409198507
 10
40.823638784
 20
17.6515428952
 10
40.8400915979
 20
17.6539394569
 10
40.8592814603
 20
17.6478571756
 10
40.8790545995
 20
17.6339971874
 10
40.8971811107
 20
17.6139201723
 10
40.9116023807
 20
17.5898684804
 10
40.9206638521
 20
17.5645294787
 10
40.9223429567
 20
17.555953836
  0
LINE
  5
32C
330
1F
100
AcDbEntity
  8
0
  6
Continuous
 62
     7
370
    25
100
AcDbLine
 10
39.9341524734
 20
18.4343946322
 30
0.0
 11
39.934122679
 21
18.4344163219
 31
0.0
  0
ARC
  5
32D
330
1F
100
AcDbEntity
  8
0
  6
Continuous
 62
     7
370
    25
100
AcDbCircle
 10
71.607476886
 20
15.1406627616
 30
0.0
 40
29.74535530272505
100
AcDbArc
 50
175.8813077254
 51
186.4110674063
  0
LWPOLYLINE
  5
32E
330
1F
100
AcDbEntity
  8
0
  6
Continuous
 62
     7
370
    25
100
AcDbPolyline
 90
       11
 70
   128
 43
0.0
 10
40.6760304588
 20
13.4759424202
 10
40.6708687998
 20
13.4821243085
 10
40.6667863397
 20
13.4894582769
 10
40.6642433716
 20
13.4971102511
 10
40.663521388
 20
13.5042179705
 10
40.664699267
 20
13.509986183
 10
40.6676481067
 20
13.5137682562
 10
40.6720426687
 20
13.5151355977
 10
40.6773920729
 20
13.5139289564
 10
40.6830919498
 20
13.510282424
 10
40.6848485719
 20
13.5086952457
  0
ARC
  5
32F
330
1F
100
AcDbEntity
  8
0
  6
Continuous
 62
     7
370
    25
100
AcDbCircle
 10
41.0048395311
 20
13.7899555997
 30
0.0
 40
0.454664362951779
100
AcDbArc
 50
223.6814511445
 51
253.6915086114
  0
LWPOLYLINE
  5
330
330
1F
100
AcDbEntity
  8
0
  6
Continuous
 62
     7
370
    25
100
AcDbPolyline
 90
       11
 70
   128
 43
0.0
 10
40.8665702698
 20
13.3981481118
 10
40.8723808806
 20
13.3954989632
 10
40.8781391745
 20
13.3906398038
 10
40.8831937997
 20
13.3841189636
 10
40.8869736674
 20
13.3766697856
 10
40.8890509745
 20
13.3691288185
 10
40.8891893726
 20
13.3623443135
 10
40.8873720275
 20
13.3570818005
 10
40.8838046792
 20
13.3539369927
 10
40.8788922583
 20
13.3532669112
 10
40.877165708
 20
13.3535852549
  0
ARC
  5
331
330
1F
100
AcDbEntity
  8
0
  6
Continuous
 62
     7
370
    25
100
AcDbCircle
 10
40.9906705057
 20
13.8067831089
 30
0.0
 40
0.4270637298764802
100
AcDbArc
 50
224.2662722497
 51
253.1067481707
  0
LWPOLYLINE
  5
332
330
1F
100
AcDbEntity
  8
0
  6
Continuous
 62
     7
370
    25
100
AcDbPolyline
 90
       11
 70
   128
 43
0.0
 10
40.6898014528
 20
13.5270707344
 10
40.684585897
 20
13.5331651511
 10
40.6804246912
 20
13.5404532823
 10
40.6777868157
 20
13.5481067766
 10
40.6769646892
 20
13.5552629911
 10
40.6780485128
 20
13.5611206078
 10
40.6809196415
 20
13.5650226851
 10
40.6852611726
 20
13.5665274335
 10
40.6905880951
 20
13.5654606509
 10
40.6962988834
 20
13.5619408926
 10
40.6980649793
 20
13.5603891685
  0
ARC
  5
333
330
1F
100
AcDbEntity
  8
0
  6
Continuous
 62
     7
370
    25
100
AcDbCircle
 10
40.9855559311
 20
13.8208719943
 30
0.0
 40
0.4168811481710948
100
AcDbArc
 50
224.8101778069
 51
252.5628739463
  0
LWPOLYLINE
  5
334
330
1F
100
AcDbEntity
  8
0
  6
Continuous
 62
     7
370
    25
100
AcDbPolyline
 90
       11
 70
   128
 43
0.0
 10
40.8506469868
 20
13.4675687874
 10
40.8564576315
 20
13.4647868797
 10
40.8621817603
 20
13.4598177555
 10
40.8671715676
 20
13.4532223231
 10
40.8708632307
 20
13.4457425114
 10
40.8728390872
 20
13.4382182486
 10
40.872874411
 20
13.4314957223
 10
40.8709640306
 20
13.4263333774
 10
40.867324085
 20
13.4233157294
 10
40.8623675845
 20
13.4227856805
 10
40.8606337221
 20
13.423148053
  0
ARC
  5
335
330
1F
100
AcDbEntity
  8
0
  6
Continuous
 62
     7
370
    25
100
AcDbCircle
 10
40.966565314
 20
13.82994068
 30
0.0
 40
0.3804608352282338
100
AcDbArc
 50
225.1119370089
 51
252.2611629144
  0
LWPOLYLINE
  5
336
330
1F
100
AcDbEntity
  8
0
  6
Continuous
 62
     7
370
    25
100
AcDbPolyline
 90
       11
 70
   128
 43
0.0
 10
40.7036825661
 20
13.5781594772
 10
40.6984048943
 20
13.5841437148
 10
40.6941492388
 20
13.591372697
 10
40.6913950668
 20
13.5990252564
 10
40.6904481136
 20
13.6062386128
 10
40.6914126331
 20
13.6122044222
 10
40.6941830458
 20
13.6162533491
 10
40.6984533846
 20
13.6179273937
 10
40.7037465944
 20
13.6170337792
 10
40.7094652927
 20
13.6136717241
 10
40.7112417293
 20
13.612164013
  0
ARC
  5
337
330
1F
100
AcDbEntity
  8
0
  6
Continuous
 62
     7
370
    25
100
AcDbCircle
 10
40.9660807534
 20
13.8514186977
 30
0.0
 40
0.3788448366767781
100
AcDbArc
 50
226.1615747203
 51
251.2115543713
  0
LWPOLYLINE
  5
338
330
1F
100
AcDbEntity
  8
0
  6
Continuous
 62
     7
370
    25
100
AcDbPolyline
 90
       11
 70
   128
 43
0.0
 10
40.8348325129
 20
13.5369799917
 10
40.8406439968
 20
13.5340356025
 10
40.8463264273
 20
13.5289334931
 10
40.8512363849
 20
13.5222497469
 10
40.8548190148
 20
13.5147364029
 10
40.8566691443
 20
13.5072370877
 10
40.8565764114
 20
13.5005950169
 10
40.8545501382
 20
13.4955594969
 10
40.8508194578
 20
13.4927008581
 10
40.8458075139
 20
13.4923442933
 10
40.8440643838
 20
13.4927609
  0
ARC
  5
339
330
1F
100
AcDbEntity
  8
0
  6
Continuous
 62
     7
370
    25
100
AcDbCircle
 10
40.9421757368
 20
13.852609459
 30
0.0
 40
0.3333834553601948
100
AcDbArc
 50
226.1559505478
 51
251.2172147138
  0
ELLIPSE
  5
33A
330
1F
100
AcDbEntity
  8
0
  6
Continuous
 62
     7
370
    25
100
AcDbEllipse
 10
47.5296558403
 20
16.3004750723
 30
0.0
 11
9.071291963832053
 21
7.773664330714333
 31
0.0
210
0.0
220
0.0
230
1.0
 40
0.1494405356
 41
2.224532311705189
 42
2.226176476727208
  0
ELLIPSE
  5
33B
330
1F
100
AcDbEntity
  8
0
  6
Continuous
 62
     7
370
    25
100
AcDbEllipse
 10
47.5234981921
 20
16.6231855554
 30
0.0
 11
-7.49038478985937
 21
8.452150133788361
 31
0.0
210
0.0
220
0.0
230
1.0
 40
0.6640445768
 41
1.43862916616368
 42
1.456126553361929
  0
ARC
  5
33C
330
1F
100
AcDbEntity
  8
0
  6
Continuous
 62
     7
370
    25
100
AcDbCircle
 10
41.1401304696
 20
13.187028728
 30
0.0
 40
0.4157520146544995
100
AcDbArc
 50
218.8930352974
 51
246.257891783
  0
ELLIPSE
  5
33D
330
1F
100
AcDbEntity
  8
0
  6
Continuous
 62
     7
370
    25
100
AcDbEllipse
 10
47.525363208
 20
16.5254436657
 30
0.0
 11
-7.48915620246332
 21
8.455980592672365
 31
0.0
210
0.0
220
0.0
230
1.0
 40
0.6639449222
 41
1.397187939731651
 42
1.41493174362546
  0
LWPOLYLINE
  5
33E
330
1F
100
AcDbEntity
  8
0
  6
Continuous
 62
     7
370
    25
100
AcDbPolyline
 90
       11
 70
   128
 43
0.0
 10
40.7315803937
 20
13.1214636404
 10
40.7233360575
 20
13.1310787591
 10
40.7143556984
 20
13.1377537721
 10
40.7056462215
 20
13.1407418841
 10
40.6981845633
 20
13.1396992277
 10
40.6928119228
 20
13.1347328107
 10
40.690133469
 20
13.1264000383
 10
40.6904465896
 20
13.1156468952
 10
40.693709809
 20
13.103692882
 10
40.6995543634
 20
13.0918859345
 10
40.7017938104
 20
13.088467861
  0
ELLIPSE
  5
33F
330
1F
100
AcDbEntity
  8
0
  6
Continuous
 62
     7
370
    25
100
AcDbEllipse
 10
47.5238767173
 20
16.6033477791
 30
0.0
 11
-7.492115625423586
 21
8.446756495557672
 31
0.0
210
0.0
220
0.0
230
1.0
 40
0.6641847624
 41
1.401506540038118
 42
1.414708999323266
  0
ELLIPSE
  5
340
330
1F
100
AcDbEntity
  8
0
  6
Continuous
 62
     7
370
    25
100
AcDbEllipse
 10
47.5175163647
 20
16.9366816129
 30
0.0
 11
9.070994781930303
 21
7.777591995516534
 31
0.0
210
0.0
220
0.0
230
1.0
 40
0.1496002652
 41
2.264038528242708
 42
2.265433006528532
  0
ELLIPSE
  5
341
330
1F
100
AcDbEntity
  8
0
  6
Continuous
 62
     7
370
    25
100
AcDbEllipse
 10
47.5234520013
 20
16.6256063267
 30
0.0
 11
-7.492115625423572
 21
8.446756495557651
 31
0.0
210
0.0
220
0.0
230
1.0
 40
0.6641847624
 41
1.389863532113008
 42
1.416103477609092
  0
LWPOLYLINE
  5
342
330
1F
100
AcDbEntity
  8
0
  6
Continuous
 62
     7
370
    25
100
AcDbPolyline
 90
       11
 70
   128
 43
0.0
 10
40.6891266937
 20
13.286794457
 10
40.6801268926
 20
13.2973952952
 10
40.6703261927
 20
13.304768983
 10
40.6608214315
 20
13.3080920437
 10
40.6526788974
 20
13.3069799276
 10
40.6468180564
 20
13.3015449309
 10
40.6438992546
 20
13.2923985959
 10
40.6442446573
 20
13.2805822561
 10
40.6478062608
 20
13.26743709
 10
40.654181308
 20
13.2544433739
 10
40.6566391904
 20
13.2506569643
  0
ELLIPSE
  5
343
330
1F
100
AcDbEntity
  8
0
  6
Continuous
 62
     7
370
    25
100
AcDbEllipse
 10
47.5218252356
 20
16.7108619859
 30
0.0
 11
-7.491422922245612
 21
8.448914719970764
 31
0.0
210
0.0
220
0.0
230
1.0
 40
0.6641286874
 41
1.395340572665962
 42
1.421574324348919
  0
ELLIPSE
  5
344
330
1F
100
AcDbEntity
  8
0
  6
Continuous
 62
     7
370
    25
100
AcDbEllipse
 10
47.5175163647
 20
16.9366816129
 30
0.0
 11
9.070994781930359
 21
7.777591995515831
 31
0.0
210
0.0
220
0.0
230
1.0
 40
0.1496002652
 41
2.257550893561464
 42
2.258696306128001
  0
ELLIPSE
  5
345
330
1F
100
AcDbEntity
  8
0
  6
Continuous
 62
     7
370
    25
100
AcDbEllipse
 10
47.5214763051
 20
16.7291487629
 30
0.0
 11
-7.491422922245597
 21
8.448914719970801
 31
0.0
210
0.0
220
0.0
230
1.0
 40
0.6641286874
 41
1.395980002188947
 42
1.422719736915458
  0
LWPOLYLINE
  5
346
330
1F
100
AcDbEntity
  8
0
  6
Continuous
 62
     7
370
    25
100
AcDbPolyline
 90
       11
 70
   128
 43
0.0
 10
40.7282272648
 20
13.3384018492
 10
40.7184359502
 20
13.3498230082
 10
40.7077728649
 20
13.3577542842
 10
40.6974337326
 20
13.3613086704
 10
40.6885773553
 20
13.3600766952
 10
40.6822010497
 20
13.3541835616
 10
40.6790219884
 20
13.3442898873
 10
40.6793922142
 20
13.3315189086
 10
40.68326231
 20
13.3173192607
 10
40.6901957604
 20
13.3032921523
 10
40.6928695519
 20
13.299207069
  0
ELLIPSE
  5
347
330
1F
100
AcDbEntity
  8
0
  6
Continuous
 62
     7
370
    25
100
AcDbEllipse
 10
47.5197163612
 20
16.8213840341
 30
0.0
 11
-7.491422922245603
 21
8.448914719970794
 31
0.0
210
0.0
220
0.0
230
1.0
 40
0.6641286874
 41
1.401760660368746
 42
1.428496766413661
  0
ELLIPSE
  5
348
330
1F
100
AcDbEntity
  8
0
  6
Continuous
 62
     7
370
    25
100
AcDbEllipse
 10
47.5175163647
 20
16.9366816129
 30
0.0
 11
9.070994781930304
 21
7.777591995516234
 31
0.0
210
0.0
220
0.0
230
1.0
 40
0.1496002652
 41
2.250750231421343
 42
2.251773864063242
  0
ELLIPSE
  5
349
330
1F
100
AcDbEntity
  8
0
  6
Continuous
 62
     7
370
    25
100
AcDbEllipse
 10
47.5194045071
 20
16.8377277037
 30
0.0
 11
-7.491422922245598
 21
8.448914719970805
 31
0.0
210
0.0
220
0.0
230
1.0
 40
0.6641286874
 41
1.40867745529303
 42
1.429520399055559
  0
LWPOLYLINE
  5
34A
330
1F
100
AcDbEntity
  8
0
  6
Continuous
 62
     7
370
    25
100
AcDbPolyline
 90
       11
 70
   128
 43
0.0
 10
40.8149397339
 20
13.336619091
 10
40.8034757421
 20
13.3500030669
 10
40.7909080322
 20
13.359387606
 10
40.7786519325
 20
13.3637203205
 10
40.7680794949
 20
13.3625072265
 10
40.7603749299
 20
13.3558707553
 10
40.7564013246
 20
13.3445493471
 10
40.7566010346
 20
13.329821069
 10
40.7609469663
 20
13.3133542397
 10
40.7689513489
 20
13.2970102975
 10
40.772626337
 20
13.2914334924
  0
ELLIPSE
  5
34B
330
1F
100
AcDbEntity
  8
0
  6
Continuous
 62
     7
370
    25
100
AcDbEllipse
 10
47.5173577393
 20
16.9449948623
 30
0.0
 11
-7.488647498304679
 21
8.457567088200268
 31
0.0
210
0.0
220
0.0
230
1.0
 40
0.6639036237
 41
1.416006684331472
 42
1.445358039790497
  0
ELLIPSE
  5
34C
330
1F
100
AcDbEntity
  8
0
  6
Continuous
 62
     7
370
    25
100
AcDbEllipse
 10
47.5132547106
 20
17.1600266963
 30
0.0
 11
-6.624324233982847
 21
32.8024637821359
 31
0.0
210
0.0
220
0.0
230
1.0
 40
0.2154034218
 41
1.652203562552601
 42
1.655502653400321
  0
ELLIPSE
  5
34D
330
1F
100
AcDbEntity
  8
0
  6
Continuous
 62
     7
370
    25
100
AcDbEllipse
 10
47.5200872859
 20
16.8019445809
 30
0.0
 11
9.288736059036076
 21
0.001909562918463337
 31
0.0
210
0.0
220
0.0
230
1.0
 40
0.5772876795
 41
3.939177439021908
 42
3.941436588751449
  0
ELLIPSE
  5
34E
330
1F
100
AcDbEntity
  8
0
  6
Continuous
 62
     7
370
    25
100
AcDbEllipse
 10
47.5114311096
 20
17.255598117
 30
0.0
 11
-6.678824614936552
 21
34.86901861752085
 31
0.0
210
0.0
220
0.0
230
1.0
 40
0.2023124521
 41
1.652498058772292
 42
1.655635484047058
  0
ELLIPSE
  5
34F
330
1F
100
AcDbEntity
  8
0
  6
Continuous
 62
     7
370
    25
100
AcDbEllipse
 10
47.5170796867
 20
16.9595670655
 30
0.0
 11
-7.488647498304658
 21
8.4575670882003
 31
0.0
210
0.0
220
0.0
230
1.0
 40
0.6639036237
 41
1.433366543079138
 42
1.447778855092995
  0
LWPOLYLINE
  5
350
330
1F
100
AcDbEntity
  8
0
  6
Continuous
 62
     7
370
    25
100
AcDbPolyline
 90
       11
 70
   128
 43
0.0
 10
40.9683488667
 20
13.238475412
 10
40.9570640709
 20
13.2504215491
 10
40.9449117914
 20
13.2584140033
 10
40.9332655386
 20
13.2615519937
 10
40.923430102
 20
13.2594806138
 10
40.9165021922
 20
13.2524256556
 10
40.9132541741
 20
13.2411726318
 10
40.9140491784
 20
13.2269855228
 10
40.9187995387
 20
13.2114665542
 10
40.9269759299
 20
13.1963722624
 10
40.9290853938
 20
13.1933697832
  0
ELLIPSE
  5
351
330
1F
100
AcDbEntity
  8
0
  6
Continuous
 62
     7
370
    25
100
AcDbEllipse
 10
47.5151528049
 20
17.0605512316
 30
0.0
 11
-7.488647498304666
 21
8.457567088200278
 31
0.0
210
0.0
220
0.0
230
1.0
 40
0.6639036237
 41
1.439542842380423
 42
1.452227070985715
  0
ARC
  5
352
330
1F
100
AcDbEntity
  8
0
  6
Continuous
 62
     7
370
    25
100
AcDbCircle
 10
40.8274517018
 20
12.9313129554
 30
0.0
 40
0.297313405742977
100
AcDbArc
 50
356.1275111308
 51
40.4429892966
  0
ELLIPSE
  5
353
330
1F
100
AcDbEntity
  8
0
  6
Continuous
 62
     7
370
    25
100
AcDbEllipse
 10
47.5175052892
 20
16.937262057
 30
0.0
 11
-7.488139647790781
 21
8.459151196937913
 31
0.0
210
0.0
220
0.0
230
1.0
 40
0.6638623736
 41
1.462316927089254
 42
1.476226709287892
  0
ELLIPSE
  5
354
330
1F
100
AcDbEntity
  8
0
  6
Continuous
 62
     7
370
    25
100
AcDbEllipse
 10
47.5296521041
 20
16.300670876
 30
0.0
 11
9.071933137369676
 21
7.765175626197705
 31
0.0
210
0.0
220
0.0
230
1.0
 40
0.1490946363
 41
2.203625169227625
 42
2.205271433821723
  0
ELLIPSE
  5
355
330
1F
100
AcDbEntity
  8
0
  6
Continuous
 62
     7
370
    25
100
AcDbEllipse
 10
47.5170043892
 20
16.9635132633
 30
0.0
 11
-7.488139647790761
 21
8.459151196937958
 31
0.0
210
0.0
220
0.0
230
1.0
 40
0.6638623736
 41
1.46542454226382
 42
1.477872973881993
  0
ARC
  5
356
330
1F
100
AcDbEntity
  8
0
  6
Continuous
 62
     7
370
    25
100
AcDbCircle
 10
40.816211154
 20
12.919987296
 30
0.0
 40
0.3288101430831009
100
AcDbArc
 50
358.20685204
 51
41.0796817429
  0
ELLIPSE
  5
357
330
1F
100
AcDbEntity
  8
0
  6
Continuous
 62
     7
370
    25
100
AcDbEllipse
 10
47.5146519402
 20
17.0868005862
 30
0.0
 11
-7.48864749830463
 21
8.457567088200388
 31
0.0
210
0.0
220
0.0
230
1.0
 40
0.6639036237
 41
1.441152382586934
 42
1.453827379603148
  0
LWPOLYLINE
  5
358
330
1F
100
AcDbEntity
  8
0
  6
Continuous
 62
     7
370
    25
100
AcDbPolyline
 90
        8
 70
   128
 43
0.0
 10
40.8944583469
 20
13.2520939399
 10
40.898598247
 20
13.2698944472
 10
40.9084334728
 20
13.2815219706
 10
40.9228778447
 20
13.285677538
 10
40.9403213919
 20
13.2819076316
 10
40.9588080534
 20
13.2706527009
 10
40.976255692
 20
13.2531844083
 10
40.9786232706
 20
13.2501867126
  0
ELLIPSE
  5
359
330
1F
100
AcDbEntity
  8
0
  6
Continuous
 62
     7
370
    25
100
AcDbEllipse
 10
47.5168568746
 20
16.9712442169
 30
0.0
 11
-7.488647498304658
 21
8.457567088200296
 31
0.0
210
0.0
220
0.0
230
1.0
 40
0.6639036237
 41
1.417670043663096
 42
1.428178680829401
  0
LWPOLYLINE
  5
35A
330
1F
100
AcDbEntity
  8
0
  6
Continuous
 62
     7
370
    25
100
AcDbPolyline
 90
        8
 70
   128
 43
0.0
 10
40.7377255855
 20
13.3504205085
 10
40.7410058781
 20
13.369706309
 10
40.7501843307
 20
13.3827424021
 10
40.7642570004
 20
13.3880785442
 10
40.7816663324
 20
13.385118227
 10
40.8004569793
 20
13.3742050938
 10
40.8185026786
 20
13.3565826858
 10
40.8253155853
 20
13.3476986958
  0
LWPOLYLINE
  5
35B
330
1F
100
AcDbEntity
  8
0
  6
Continuous
 62
     7
370
    25
100
AcDbPolyline
 90
        9
 70
   128
 43
0.0
 10
40.6636921546
 20
13.3294319277
 10
40.6607316052
 20
13.3507111533
 10
40.6633523791
 20
13.3683786631
 10
40.6712688336
 20
13.3804622758
 10
40.6836230612
 20
13.3856076233
 10
40.6990517511
 20
13.3832267496
 10
40.71582138
 20
13.3735878987
 10
40.7320282936
 20
13.3577904424
 10
40.7377255855
 20
13.3504205085
  0
LWPOLYLINE
  5
35C
330
1F
100
AcDbEntity
  8
0
  6
Continuous
 62
     7
370
    25
100
AcDbPolyline
 90
        8
 70
   128
 43
0.0
 10
40.646687517
 20
13.2395643569
 10
40.6352086155
 20
13.2600055003
 10
40.6279652239
 20
13.2814312659
 10
40.6257591902
 20
13.3014055613
 10
40.6288268824
 20
13.3176913286
 10
40.6368383664
 20
13.3284723444
 10
40.6489263657
 20
13.3325335419
 10
40.6636921546
 20
13.3294319277
  0
ELLIPSE
  5
35D
330
1F
100
AcDbEntity
  8
0
  6
Continuous
 62
     7
370
    25
100
AcDbEllipse
 10
47.5239526252
 20
16.599369594
 30
0.0
 11
-7.49211562542358
 21
8.446756495557679
 31
0.0
210
0.0
220
0.0
230
1.0
 40
0.6641847624
 41
1.388218699049752
 42
1.396337100194707
  0
LWPOLYLINE
  5
35E
330
1F
100
AcDbEntity
  8
0
  6
Continuous
 62
     7
370
    25
100
AcDbPolyline
 90
        8
 70
   128
 43
0.0
 10
40.6917600697
 20
13.0773456124
 10
40.6808481055
 20
13.096612609
 10
40.6739684147
 20
13.1168201541
 10
40.6718826452
 20
13.1356752894
 10
40.6748169392
 20
13.1510635288
 10
40.6824548536
 20
13.1612639516
 10
40.6939647521
 20
13.1651267099
 10
40.6984570846
 20
13.1649065849
  0
ELLIPSE
  5
35F
330
1F
100
AcDbEntity
  8
0
  6
Continuous
 62
     7
370
    25
100
AcDbEllipse
 10
47.5258640373
 20
16.4991961651
 30
0.0
 11
-7.489156202463278
 21
8.455980592672514
 31
0.0
210
0.0
220
0.0
230
1.0
 40
0.6639449222
 41
1.395542211157252
 42
1.413445460108353
  0
ARC
  5
360
330
1F
100
AcDbEntity
  8
0
  6
Continuous
 62
     7
370
    25
100
AcDbCircle
 10
41.1478615564
 20
13.1805564192
 30
0.0
 40
0.4328607650840453
100
AcDbArc
 50
218.1261271842
 51
245.5247891895
  0
ELLIPSE
  5
361
330
1F
100
AcDbEntity
  8
0
  6
Continuous
 62
     7
370
    25
100
AcDbEllipse
 10
47.5239989361
 20
16.5969425286
 30
0.0
 11
-7.490384789859376
 21
8.452150133788344
 31
0.0
210
0.0
220
0.0
230
1.0
 40
0.6640445768
 41
1.43792390590178
 42
1.45448238833991
  0
ARC
  5
362
330
1F
100
AcDbEntity
  8
0
  6
Continuous
 62
     7
370
    25
100
AcDbCircle
 10
42.3662355198
 20
20.0061117115
 30
0.0
 40
2.135708818704825
100
AcDbArc
 50
132.4130013972
 51
144.7806599168
  0
LINE
  5
363
330
1F
100
AcDbEntity
  8
0
  6
Continuous
 62
     7
370
    25
100
AcDbLine
 10
43.6929565896
 20
21.7821675828
 30
0.0
 11
43.6929565896
 21
21.8230078816
 31
0.0
  0
ARC
  5
364
330
1F
100
AcDbEntity
  8
0
  6
Continuous
 62
     7
370
    25
100
AcDbCircle
 10
38.8820203325
 20
13.8560025808
 30
0.0
 40
9.271957684793552
100
AcDbArc
 50
57.1854938809
 51
58.7435481862
  0
LINE
  5
365
330
1F
100
AcDbEntity
  8
0
  6
Continuous
 62
     7
370
    25
100
AcDbLine
 10
43.678242841
 20
21.7736735165
 30
0.0
 11
43.6929565896
 21
21.7821675828
 31
0.0
  0
LINE
  5
366
330
1F
100
AcDbEntity
  8
0
  6
Continuous
 62
     7
370
    25
100
AcDbLine
 10
43.6783964866
 20
21.7737625858
 30
0.0
 11
43.585170833
 21
21.7191503027
 31
0.0
  0
LWPOLYLINE
  5
367
330
1F
100
AcDbEntity
  8
0
  6
Continuous
 62
     7
370
    25
100
AcDbPolyline
 90
        3
 70
   128
 43
0.0
 10
39.9294046301
 20
18.4423230808
 10
39.9304044515
 20
18.4381369443
 10
39.934122679
 20
18.4344163219
  0
LINE
  5
368
330
1F
100
AcDbEntity
  8
0
  6
Continuous
 62
     7
370
    25
100
AcDbLine
 10
43.1117148154
 20
22.1049811066
 30
0.0
 11
43.1117148154
 21
22.145890098
 31
0.0
  0
ARC
  5
369
330
1F
100
AcDbEntity
  8
0
  6
Continuous
 62
     7
370
    25
100
AcDbCircle
 10
39.4706314982
 20
14.8809543766
 30
0.0
 40
8.089749682049975
100
AcDbArc
 50
61.5676694388
 51
63.250796327
  0
LINE
  5
36A
330
1F
100
AcDbEntity
  8
0
  6
Continuous
 62
     7
370
    25
100
AcDbLine
 10
43.1117148154
 20
22.1049811066
 30
0.0
 11
43.0976124817
 21
22.0968400026
 31
0.0
  0
LINE
  5
36B
330
1F
100
AcDbEntity
  8
0
  6
Continuous
 62
     7
370
    25
100
AcDbLine
 10
43.0070873686
 20
22.0438097406
 30
0.0
 11
43.0977668444
 21
22.0969294431
 31
0.0
  0
ARC
  5
36C
330
1F
100
AcDbEntity
  8
0
  6
Continuous
 62
     7
370
    25
100
AcDbCircle
 10
42.2828844997
 20
22.8144144192
 30
0.0
 40
0.0809909790010185
100
AcDbArc
 50
71.404380639
 51
118.1719069138
  0
ARC
  5
36D
330
1F
100
AcDbEntity
  8
0
  6
Continuous
 62
     7
370
    25
100
AcDbCircle
 10
40.0855059302
 20
12.9764708287
 30
0.0
 40
0.0511756286660539
100
AcDbArc
 50
176.9571017556
 51
234.8514285558
  0
LWPOLYLINE
  5
36E
330
1F
100
AcDbEntity
  8
0
  6
Continuous
 62
     7
370
    25
100
AcDbPolyline
 90
        3
 70
   128
 43
0.0
 10
44.9233722798
 20
12.497068171
 10
44.9232439676
 20
12.333696977
 10
44.922926048
 20
11.8938786075
  0
LINE
  5
36F
330
1F
100
AcDbEntity
  8
0
  6
Continuous
 62
     7
370
    25
100
AcDbLine
 10
44.2687534424
 20
12.2699447658
 30
0.0
 11
44.922926048
 21
11.8938786075
 31
0.0
  0
ARC
  5
370
330
1F
100
AcDbEntity
  8
0
  6
Continuous
 62
     7
370
    25
100
AcDbCircle
 10
44.99333371
 20
12.0281159591
 30
0.0
 40
0.151581349170319
100
AcDbArc
 50
242.3229324749
 51
297.8122421308
  0
LWPOLYLINE
  5
371
330
1F
100
AcDbEntity
  8
0
  6
Continuous
 62
     8
370
    25
100
AcDbPolyline
 90
        3
 70
   128
 43
0.0
 10
39.9202201257
 20
18.9887067027
 10
39.9164186834
 20
18.9919984667
 10
39.9154782575
 20
18.9953580002
  0
ARC
  5
372
330
1F
100
AcDbEntity
  8
0
  6
Continuous
 62
     8
370
    25
100
AcDbCircle
 10
41.1945374376
 20
21.3948583073
 30
0.0
 40
0.3280285183929343
100
AcDbArc
 50
122.02982296
 51
145.0207378199
  0
LWPOLYLINE
  5
373
330
1F
100
AcDbEntity
  8
0
  6
Continuous
 62
     8
370
    25
100
AcDbPolyline
 90
       21
 70
   128
 43
0.0
 10
40.5542158873
 20
21.1507381787
 10
40.6493524098
 20
21.2880173931
 10
40.7526083344
 20
21.4131502049
 10
40.8625235504
 20
21.5297762968
 10
40.9252694909
 20
21.5898313533
 10
40.9640718007
 20
21.6248874275
 10
40.9873981596
 20
21.645240967
 10
41.0011838898
 20
21.6570179397
 10
41.0092453026
 20
21.6638119486
 10
41.0188640099
 20
21.6717549353
 10
41.0194042253
 20
21.6721786406
 10
41.0197685983
 20
21.6724567777
 10
41.020017088
 20
21.6726399186
 10
41.0201878979
 20
21.6727602731
 10
41.0203062487
 20
21.6728390094
 10
41.0203890043
 20
21.6728901501
 10
41.0204475098
 20
21.6729229852
 10
41.0204894291
 20
21.6729436418
 10
41.0205353765
 20
21.6729610801
 10
41.020552625
 20
21.672964887
 10
41.0205640328
 20
21.6729517508
  0
LINE
  5
374
330
1F
100
AcDbEntity
  8
0
  6
Continuous
 62
     8
370
    25
100
AcDbLine
 10
40.8106564935
 20
17.6260779636
 30
0.0
 11
40.8057638683
 21
17.6232535112
 31
0.0
  0
ARC
  5
375
330
1F
100
AcDbEntity
  8
0
  6
Continuous
 62
     8
370
    25
100
AcDbCircle
 10
43.248062725
 20
11.7698641298
 30
0.0
 40
0.0521701432979163
100
AcDbArc
 50
304.1426245357
 51
4.1240933406
  0
ARC
  5
376
330
1F
100
AcDbEntity
  8
0
  6
Continuous
 62
     8
370
    25
100
AcDbCircle
 10
43.108584177
 20
11.7449787398
 30
0.0
 40
0.0505071373073263
100
AcDbArc
 50
185.4027326623
 51
249.5634638232
  0
ARC
  5
377
330
1F
100
AcDbEntity
  8
0
  6
Continuous
 62
     8
370
    25
100
AcDbCircle
 10
42.3704052488
 20
11.9229037077
 30
0.0
 40
0.0492566869234305
100
AcDbArc
 50
182.6929951091
 51
245.3161518833
  0
LWPOLYLINE
  5
378
330
1F
100
AcDbEntity
  8
0
  6
Continuous
 62
     8
370
    25
100
AcDbPolyline
 90
        4
 70
   128
 43
0.0
 10
44.8785931751
 20
12.590540433
 10
44.8998980571
 20
12.5809419602
 10
44.9196580702
 20
12.5465437519
 10
44.9233722798
 20
12.497068171
  0
ARC
  5
379
330
1F
100
AcDbEntity
  8
0
  6
Continuous
 62
     7
370
    25
100
AcDbCircle
 10
28.385818514
 20
20.1571240964
 30
0.0
 40
0.1999999615307499
100
AcDbArc
 50
107.6085999629
 51
179.9931147683
  0
ARC
  5
37A
330
1F
100
AcDbEntity
  8
0
  6
Continuous
 62
     7
370
    25
100
AcDbCircle
 10
32.9858185909
 20
20.1571240964
 30
0.0
 40
0.1999999615325652
100
AcDbArc
 50
0.0068852319
 51
72.3932062645
  0
LINE
  5
37B
330
1F
100
AcDbEntity
  8
0
  6
Continuous
 62
     7
370
    25
100
AcDbLine
 10
31.0973185524
 20
9.7841486289
 30
0.0
 11
32.6058185524
 21
9.7841486289
 31
0.0
  0
LINE
  5
37C
330
1F
100
AcDbEntity
  8
0
  6
Continuous
 62
     7
370
    25
100
AcDbLine
 10
28.7658185524
 20
9.7841486289
 30
0.0
 11
30.2743185524
 21
9.7841486289
 31
0.0
  0
CIRCLE
  5
37D
330
1F
100
AcDbEntity
  8
0
  6
Continuous
 62
     7
370
    25
100
AcDbCircle
 10
32.2618185524
 20
14.7986486289
 30
0.0
 40
0.0955000000000013
  0
CIRCLE
  5
37E
330
1F
100
AcDbEntity
  8
0
  6
Continuous
 62
     7
370
    25
100
AcDbCircle
 10
32.2618185524
 20
14.7986486289
 30
0.0
 40
0.3055000000000021
  0
ARC
  5
37F
330
1F
100
AcDbEntity
  8
0
  6
Continuous
 62
     7
370
    25
100
AcDbCircle
 10
31.7368185524
 20
19.8551486289
 30
0.0
 40
0.0800000000000018
100
AcDbArc
 50
0.0
 51
180.0
  0
LINE
  5
380
330
1F
100
AcDbEntity
  8
0
  6
Continuous
 62
     7
370
    25
100
AcDbLine
 10
31.6568185524
 20
19.8551486289
 30
0.0
 11
31.6568185524
 21
19.7074341056
 31
0.0
  0
ARC
  5
381
330
1F
100
AcDbEntity
  8
0
  6
Continuous
 62
     7
370
    25
100
AcDbCircle
 10
31.7368185524
 20
19.5356486289
 30
0.0
 40
0.1895000000000062
100
AcDbArc
 50
114.971259412
 51
65.028740588
  0
LINE
  5
382
330
1F
100
AcDbEntity
  8
0
  6
Continuous
 62
     7
370
    25
100
AcDbLine
 10
31.8168185524
 20
19.7074341056
 30
0.0
 11
31.8168185524
 21
19.8551486289
 31
0.0
  0
LINE
  5
383
330
1F
100
AcDbEntity
  8
0
  6
Continuous
 62
     7
370
    25
100
AcDbLine
 10
32.1363185524
 20
19.5356486289
 30
0.0
 11
32.1363185524
 21
19.8551486289
 31
0.0
  0
ARC
  5
384
330
1F
100
AcDbEntity
  8
0
  6
Continuous
 62
     7
370
    25
100
AcDbCircle
 10
31.7368185524
 20
19.5356486289
 30
0.0
 40
0.3995000000000033
100
AcDbArc
 50
180.0
 51
0.0
  0
LINE
  5
385
330
1F
100
AcDbEntity
  8
0
  6
Continuous
 62
     7
370
    25
100
AcDbLine
 10
31.3373185524
 20
19.8551486289
 30
0.0
 11
31.3373185524
 21
19.5356486289
 31
0.0
  0
ARC
  5
386
330
1F
100
AcDbEntity
  8
0
  6
Continuous
 62
     7
370
    25
100
AcDbCircle
 10
31.7368185524
 20
19.8551486289
 30
0.0
 40
0.3994999999999997
100
AcDbArc
 50
0.0
 51
180.0
  0
LINE
  5
387
330
1F
100
AcDbEntity
  8
0
  6
Continuous
 62
     7
370
    25
100
AcDbLine
 10
29.2473185524
 20
13.7231486289
 30
0.0
 11
32.1243185524
 21
13.7231486289
 31
0.0
  0
LINE
  5
388
330
1F
100
AcDbEntity
  8
0
  6
Continuous
 62
     7
370
    25
100
AcDbLine
 10
29.2473185524
 20
13.7231486289
 30
0.0
 11
29.2473185524
 21
13.8231486289
 31
0.0
  0
LINE
  5
389
330
1F
100
AcDbEntity
  8
0
  6
Continuous
 62
     7
370
    25
100
AcDbLine
 10
32.1243185524
 20
13.8231486289
 30
0.0
 11
29.2473185524
 21
13.8231486289
 31
0.0
  0
LINE
  5
38A
330
1F
100
AcDbEntity
  8
0
  6
Continuous
 62
     7
370
    25
100
AcDbLine
 10
32.1243185524
 20
13.7231486289
 30
0.0
 11
32.1243185524
 21
13.8231486289
 31
0.0
  0
LINE
  5
38B
330
1F
100
AcDbEntity
  8
0
  6
Continuous
 62
     7
370
    25
100
AcDbLine
 10
29.2473185524
 20
18.0221486289
 30
0.0
 11
29.2473185524
 21
18.1221486289
 31
0.0
  0
LINE
  5
38C
330
1F
100
AcDbEntity
  8
0
  6
Continuous
 62
     7
370
    25
100
AcDbLine
 10
32.1243185524
 20
18.0221486289
 30
0.0
 11
32.1243185524
 21
18.1221486289
 31
0.0
  0
LINE
  5
38D
330
1F
100
AcDbEntity
  8
0
  6
Continuous
 62
     7
370
    25
100
AcDbLine
 10
29.2473185524
 20
18.0221486289
 30
0.0
 11
32.1243185524
 21
18.0221486289
 31
0.0
  0
LINE
  5
38E
330
1F
100
AcDbEntity
  8
0
  6
Continuous
 62
     7
370
    25
100
AcDbLine
 10
32.1243185524
 20
18.1221486289
 30
0.0
 11
29.2473185524
 21
18.1221486289
 31
0.0
  0
LINE
  5
38F
330
1F
100
AcDbEntity
  8
0
  6
Continuous
 62
     7
370
    25
100
AcDbLine
 10
31.3338185524
 20
16.3181486289
 30
0.0
 11
31.3338185524
 21
14.3881486289
 31
0.0
  0
LINE
  5
390
330
1F
100
AcDbEntity
  8
0
  6
Continuous
 62
     7
370
    25
100
AcDbLine
 10
31.5858185524
 20
16.3181486289
 30
0.0
 11
31.3338185524
 21
16.3181486289
 31
0.0
  0
LINE
  5
391
330
1F
100
AcDbEntity
  8
0
  6
Continuous
 62
     7
370
    25
100
AcDbLine
 10
31.5858185524
 20
14.1361486289
 30
0.0
 11
31.5858185524
 21
16.3181486289
 31
0.0
  0
LINE
  5
392
330
1F
100
AcDbEntity
  8
0
  6
Continuous
 62
     7
370
    25
100
AcDbLine
 10
29.7858185524
 20
14.1361486289
 30
0.0
 11
31.5858185524
 21
14.1361486289
 31
0.0
  0
LINE
  5
393
330
1F
100
AcDbEntity
  8
0
  6
Continuous
 62
     7
370
    25
100
AcDbLine
 10
29.7858185524
 20
14.1361486289
 30
0.0
 11
29.7858185524
 21
16.3181486289
 31
0.0
  0
LINE
  5
394
330
1F
100
AcDbEntity
  8
0
  6
Continuous
 62
     7
370
    25
100
AcDbLine
 10
29.7858185524
 20
16.3181486289
 30
0.0
 11
30.0378185524
 21
16.3181486289
 31
0.0
  0
LINE
  5
395
330
1F
100
AcDbEntity
  8
0
  6
Continuous
 62
     7
370
    25
100
AcDbLine
 10
30.0378185524
 20
16.3181486289
 30
0.0
 11
30.0378185524
 21
14.3881486289
 31
0.0
  0
LINE
  5
396
330
1F
100
AcDbEntity
  8
0
  6
Continuous
 62
     7
370
    25
100
AcDbLine
 10
31.3338185524
 20
14.3881486289
 30
0.0
 11
30.0378185524
 21
14.3881486289
 31
0.0
  0
LINE
  5
397
330
1F
100
AcDbEntity
  8
0
  6
Continuous
 62
     7
370
    25
100
AcDbLine
 10
29.9418185524
 20
16.2221486289
 30
0.0
 11
29.8818185524
 21
16.2221486289
 31
0.0
  0
LINE
  5
398
330
1F
100
AcDbEntity
  8
0
  6
Continuous
 62
     7
370
    25
100
AcDbLine
 10
29.8818185524
 20
16.2221486289
 30
0.0
 11
29.8818185524
 21
14.2321486289
 31
0.0
  0
LINE
  5
399
330
1F
100
AcDbEntity
  8
0
  6
Continuous
 62
     7
370
    25
100
AcDbLine
 10
31.4898185524
 20
14.2321486289
 30
0.0
 11
29.8818185524
 21
14.2321486289
 31
0.0
  0
LINE
  5
39A
330
1F
100
AcDbEntity
  8
0
  6
Continuous
 62
     7
370
    25
100
AcDbLine
 10
31.4898185524
 20
16.2221486289
 30
0.0
 11
31.4898185524
 21
14.2321486289
 31
0.0
  0
LINE
  5
39B
330
1F
100
AcDbEntity
  8
0
  6
Continuous
 62
     7
370
    25
100
AcDbLine
 10
31.4298185524
 20
16.2221486289
 30
0.0
 11
31.4898185524
 21
16.2221486289
 31
0.0
  0
LINE
  5
39C
330
1F
100
AcDbEntity
  8
0
  6
Continuous
 62
     7
370
    25
100
AcDbLine
 10
31.4298185524
 20
14.2921486289
 30
0.0
 11
31.4298185524
 21
16.2221486289
 31
0.0
  0
LINE
  5
39D
330
1F
100
AcDbEntity
  8
0
  6
Continuous
 62
     7
370
    25
100
AcDbLine
 10
29.9418185524
 20
14.2921486289
 30
0.0
 11
31.4298185524
 21
14.2921486289
 31
0.0
  0
LINE
  5
39E
330
1F
100
AcDbEntity
  8
0
  6
Continuous
 62
     7
370
    25
100
AcDbLine
 10
29.9418185524
 20
14.2921486289
 30
0.0
 11
29.9418185524
 21
16.2221486289
 31
0.0
  0
ARC
  5
39F
330
1F
100
AcDbEntity
  8
0
  6
Continuous
 62
     7
370
    25
100
AcDbCircle
 10
29.6348185524
 20
19.5356486289
 30
0.0
 40
0.1895000000000065
100
AcDbArc
 50
114.971259412
 51
65.028740588
  0
LINE
  5
3A0
330
1F
100
AcDbEntity
  8
0
  6
Continuous
 62
     7
370
    25
100
AcDbLine
 10
29.7148185524
 20
19.8551486289
 30
0.0
 11
29.7148185524
 21
19.7074341056
 31
0.0
  0
ARC
  5
3A1
330
1F
100
AcDbEntity
  8
0
  6
Continuous
 62
     7
370
    25
100
AcDbCircle
 10
29.6348185524
 20
19.8551486289
 30
0.0
 40
0.0800000000000018
100
AcDbArc
 50
0.0
 51
180.0
  0
LINE
  5
3A2
330
1F
100
AcDbEntity
  8
0
  6
Continuous
 62
     7
370
    25
100
AcDbLine
 10
29.5548185524
 20
19.7074341056
 30
0.0
 11
29.5548185524
 21
19.8551486289
 31
0.0
  0
LINE
  5
3A3
330
1F
100
AcDbEntity
  8
0
  6
Continuous
 62
     7
370
    25
100
AcDbLine
 10
29.2353185524
 20
19.5356486289
 30
0.0
 11
29.2353185524
 21
19.8551486289
 31
0.0
  0
ARC
  5
3A4
330
1F
100
AcDbEntity
  8
0
  6
Continuous
 62
     7
370
    25
100
AcDbCircle
 10
29.6348185524
 20
19.8551486289
 30
0.0
 40
0.3994999999999997
100
AcDbArc
 50
0.0
 51
180.0
  0
LINE
  5
3A5
330
1F
100
AcDbEntity
  8
0
  6
Continuous
 62
     7
370
    25
100
AcDbLine
 10
30.0343185524
 20
19.8551486289
 30
0.0
 11
30.0343185524
 21
19.5356486289
 31
0.0
  0
ARC
  5
3A6
330
1F
100
AcDbEntity
  8
0
  6
Continuous
 62
     7
370
    25
100
AcDbCircle
 10
29.6348185524
 20
19.5356486289
 30
0.0
 40
0.3994999999999997
100
AcDbArc
 50
180.0
 51
360.0
  0
CIRCLE
  5
3A7
330
1F
100
AcDbEntity
  8
0
  6
Continuous
 62
     7
370
    25
100
AcDbCircle
 10
29.1098185524
 20
14.7986486289
 30
0.0
 40
0.0954999999999977
  0
CIRCLE
  5
3A8
330
1F
100
AcDbEntity
  8
0
  6
Continuous
 62
     7
370
    25
100
AcDbCircle
 10
29.1098185524
 20
14.7986486289
 30
0.0
 40
0.3055000000000021
  0
ARC
  5
3A9
330
1F
100
AcDbEntity
  8
0
  6
Continuous
 62
     7
370
    25
100
AcDbCircle
 10
32.9896920876
 20
20.0093429963
 30
0.0
 40
0.1461357231250675
100
AcDbArc
 50
0.6449505831
 51
76.5097461816
  0
LWPOLYLINE
  5
3AA
330
1F
100
AcDbEntity
  8
0
  6
Continuous
 62
     7
370
    25
100
AcDbPolyline
 90
        6
 70
   128
 43
0.0
 10
33.023782232
 20
20.3019055008
 10
33.0237870227
 20
20.2956552952
 10
33.0237830664
 20
20.2728223201
 10
33.0237847603
 20
20.2294190532
 10
33.0237838825
 20
20.1954488135
 10
33.0237826229
 20
20.1514467787
  0
ARC
  5
3AB
330
1F
100
AcDbEntity
  8
0
  6
Continuous
 62
     7
370
    25
100
AcDbCircle
 10
32.9858185524
 20
20.1567891371
 30
0.0
 40
0.1499999999999986
100
AcDbArc
 50
359.9999999811
 51
75.3394909898
  0
LWPOLYLINE
  5
3AC
330
1F
100
AcDbEntity
  8
0
  6
Continuous
 62
     7
370
    25
100
AcDbPolyline
 90
        6
 70
   128
 43
0.0
 10
28.3478548729
 20
20.3019055008
 10
28.3478500822
 20
20.2956552952
 10
28.3478540385
 20
20.2728223201
 10
28.3478523446
 20
20.2294190532
 10
28.3478532224
 20
20.1954488135
 10
28.347854482
 20
20.1514467787
  0
ARC
  5
3AD
330
1F
100
AcDbEntity
  8
0
  6
Continuous
 62
     7
370
    25
100
AcDbCircle
 10
28.3819450173
 20
20.0093429963
 30
0.0
 40
0.1461357231250538
100
AcDbArc
 50
103.4902538184
 51
179.3550494169
  0
ARC
  5
3AE
330
1F
100
AcDbEntity
  8
0
  6
Continuous
 62
     7
370
    25
100
AcDbCircle
 10
28.3858185524
 20
20.1567891371
 30
0.0
 40
0.1499999999999986
100
AcDbArc
 50
104.6605090102
 51
180.0000000189
  0
ARC
  5
3AF
330
1F
100
AcDbEntity
  8
0
  6
Continuous
 62
     7
370
    25
100
AcDbCircle
 10
28.3858185524
 20
20.1567891371
 30
0.0
 40
0.2000000000000025
100
AcDbArc
 50
104.6605090102
 51
180.0000000142
  0
LWPOLYLINE
  5
3B0
330
1F
100
AcDbEntity
  8
0
  6
Continuous
 62
     7
370
    25
100
AcDbPolyline
 90
        4
 70
   128
 43
0.0
 10
28.335200313
 20
20.3502776221
 10
28.3346567388
 20
20.3501354009
 10
28.3241010916
 20
20.3473666442
 10
28.3254202327
 20
20.3477132765
  0
ARC
  5
3B1
330
1F
100
AcDbEntity
  8
0
  6
Continuous
 62
     7
370
    25
100
AcDbCircle
 10
32.9858185524
 20
20.1567891371
 30
0.0
 40
0.1999999999999973
100
AcDbArc
 50
359.9999999858
 51
75.3394909898
  0
LWPOLYLINE
  5
3B2
330
1F
100
AcDbEntity
  8
0
  6
Continuous
 62
     7
370
    25
100
AcDbPolyline
 90
        4
 70
   128
 43
0.0
 10
33.0364367919
 20
20.3502776221
 10
33.036980366
 20
20.3501354009
 10
33.0475360133
 20
20.3473666442
 10
33.0462168645
 20
20.3477132785
  0
LINE
  5
3B3
330
1F
100
AcDbEntity
  8
0
  6
Continuous
 62
     7
370
    25
100
AcDbLine
 10
28.1858185524
 20
20.156789137
 30
0.0
 11
28.1858185524
 21
9.7841486289
 31
0.0
  0
LINE
  5
3B4
330
1F
100
AcDbEntity
  8
0
  6
Continuous
 62
     7
370
    25
100
AcDbLine
 10
33.1858185524
 20
20.156789137
 30
0.0
 11
33.1858185524
 21
9.7841486289
 31
0.0
  0
LINE
  5
3B5
330
1F
100
AcDbEntity
  8
0
  6
Continuous
 62
     7
370
    25
100
AcDbLine
 10
33.1858185524
 20
9.7841486289
 30
0.0
 11
33.1358185524
 21
9.7841486289
 31
0.0
  0
LINE
  5
3B6
330
1F
100
AcDbEntity
  8
0
  6
Continuous
 62
     7
370
    25
100
AcDbLine
 10
28.1858185524
 20
9.7841486289
 30
0.0
 11
28.2358185524
 21
9.7841486289
 31
0.0
  0
LINE
  5
3B7
330
1F
100
AcDbEntity
  8
0
  6
Continuous
 62
     7
370
    25
100
AcDbLine
 10
28.2358185524
 20
20.156789137
 30
0.0
 11
28.2358185524
 21
9.7841486289
 31
0.0
  0
LINE
  5
3B8
330
1F
100
AcDbEntity
  8
0
  6
Continuous
 62
     7
370
    25
100
AcDbLine
 10
33.1358185524
 20
20.156789137
 30
0.0
 11
33.1358185524
 21
9.7841486289
 31
0.0
  0
ARC
  5
3B9
330
1F
100
AcDbEntity
  8
0
  6
Continuous
 62
     7
370
    25
100
AcDbCircle
 10
30.6858185524
 20
11.3650271066
 30
0.0
 40
9.287633333333504
100
AcDbArc
 50
75.3394909898
 51
104.6605090102
  0
ARC
  5
3BA
330
1F
100
AcDbEntity
  8
0
  6
Continuous
 62
     7
370
    25
100
AcDbCircle
 10
30.6858185524
 20
11.3650271066
 30
0.0
 40
9.237633333333505
100
AcDbArc
 50
75.3394909898
 51
104.6605090102
  0
LINE
  5
3BB
330
1F
100
AcDbEntity
  8
0
  6
Continuous
 62
     7
370
    25
100
AcDbLine
 10
32.9858185524
 20
10.7031486289
 30
0.0
 11
32.6058185524
 21
10.7031486289
 31
0.0
  0
LINE
  5
3BC
330
1F
100
AcDbEntity
  8
0
  6
Continuous
 62
     7
370
    25
100
AcDbLine
 10
32.6058185524
 20
10.7031486289
 30
0.0
 11
32.6058185524
 21
10.1591486289
 31
0.0
  0
LINE
  5
3BD
330
1F
100
AcDbEntity
  8
0
  6
Continuous
 62
     7
370
    25
100
AcDbLine
 10
31.0973185524
 20
10.1591486289
 30
0.0
 11
31.0973185524
 21
10.4921486289
 31
0.0
  0
LINE
  5
3BE
330
1F
100
AcDbEntity
  8
0
  6
Continuous
 62
     7
370
    25
100
AcDbLine
 10
31.0973185524
 20
10.4921486289
 30
0.0
 11
30.2743185524
 21
10.4921486289
 31
0.0
  0
LINE
  5
3BF
330
1F
100
AcDbEntity
  8
0
  6
Continuous
 62
     7
370
    25
100
AcDbLine
 10
30.2743185524
 20
10.1591486289
 30
0.0
 11
30.2743185524
 21
10.4921486289
 31
0.0
  0
LINE
  5
3C0
330
1F
100
AcDbEntity
  8
0
  6
Continuous
 62
     7
370
    25
100
AcDbLine
 10
28.7658185524
 20
10.7031486289
 30
0.0
 11
28.7658185524
 21
10.1591486289
 31
0.0
  0
LINE
  5
3C1
330
1F
100
AcDbEntity
  8
0
  6
Continuous
 62
     7
370
    25
100
AcDbLine
 10
28.3858185524
 20
10.7031486289
 30
0.0
 11
28.7658185524
 21
10.7031486289
 31
0.0
  0
LINE
  5
3C2
330
1F
100
AcDbEntity
  8
0
  6
Continuous
 62
     7
370
    25
100
AcDbLine
 10
28.3858185524
 20
20.1567891371
 30
0.0
 11
28.3858185524
 21
10.7031486289
 31
0.0
  0
ARC
  5
3C3
330
1F
100
AcDbEntity
  8
0
  6
Continuous
 62
     7
370
    25
100
AcDbCircle
 10
30.6858185524
 20
11.3650271066
 30
0.0
 40
9.087633333333503
100
AcDbArc
 50
75.3394909898
 51
104.6605090102
  0
LINE
  5
3C4
330
1F
100
AcDbEntity
  8
0
  6
Continuous
 62
     7
370
    25
100
AcDbLine
 10
32.9858185524
 20
20.1567891371
 30
0.0
 11
32.9858185524
 21
10.7031486289
 31
0.0
  0
LINE
  5
3C5
330
1F
100
AcDbEntity
  8
0
  6
Continuous
 62
     7
370
    25
100
AcDbLine
 10
31.0973185524
 20
9.7841486289
 30
0.0
 11
31.0973185524
 21
10.1591486289
 31
0.0
  0
LINE
  5
3C6
330
1F
100
AcDbEntity
  8
0
  6
Continuous
 62
     7
370
    25
100
AcDbLine
 10
32.6058185524
 20
10.1591486289
 30
0.0
 11
32.6058185524
 21
9.7841486289
 31
0.0
  0
LINE
  5
3C7
330
1F
100
AcDbEntity
  8
0
  6
Continuous
 62
     7
370
    25
100
AcDbLine
 10
30.2743185524
 20
9.7841486289
 30
0.0
 11
30.2743185524
 21
10.1591486289
 31
0.0
  0
LINE
  5
3C8
330
1F
100
AcDbEntity
  8
0
  6
Continuous
 62
     7
370
    25
100
AcDbLine
 10
28.7658185524
 20
10.1591486289
 30
0.0
 11
28.7658185524
 21
9.7841486289
 31
0.0
  0
LINE
  5
3C9
330
1F
100
AcDbEntity
  8
0
  6
Continuous
 62
     7
370
    25
100
AcDbLine
 10
30.9218185524
 20
20.599645778
 30
0.0
 11
30.9218185524
 21
20.5983221141
 31
0.0
  0
LINE
  5
3CA
330
1F
100
AcDbEntity
  8
0
  6
Continuous
 62
     7
370
    25
100
AcDbLine
 10
30.0998185524
 20
20.5827269996
 30
0.0
 11
30.0998185524
 21
20.5840553105
 31
0.0
  0
LINE
  5
3CB
330
1F
100
AcDbEntity
  8
0
  6
Continuous
 62
     7
370
    25
100
AcDbLine
 10
30.4498185524
 20
20.599645778
 30
0.0
 11
30.4498185524
 21
20.5983221141
 31
0.0
  0
LINE
  5
3CC
330
1F
100
AcDbEntity
  8
0
  6
Continuous
 62
     7
370
    25
100
AcDbLine
 10
32.9858185524
 20
10.6734310572
 30
0.0
 11
32.6058185524
 21
10.6734310572
 31
0.0
  0
LINE
  5
3CD
330
1F
100
AcDbEntity
  8
0
  6
Continuous
 62
     7
370
    25
100
AcDbLine
 10
32.9858185524
 20
10.6734310572
 30
0.0
 11
32.9858185524
 21
10.7031486289
 31
0.0
  0
LINE
  5
3CE
330
1F
100
AcDbEntity
  8
0
  6
Continuous
 62
     7
370
    25
100
AcDbLine
 10
28.3858185524
 20
10.6734310572
 30
0.0
 11
28.7658185524
 21
10.6734310572
 31
0.0
  0
LINE
  5
3CF
330
1F
100
AcDbEntity
  8
0
  6
Continuous
 62
     7
370
    25
100
AcDbLine
 10
28.3858185524
 20
10.6734310572
 30
0.0
 11
28.3858185524
 21
10.7031486289
 31
0.0
  0
ARC
  5
3D0
330
1F
100
AcDbEntity
  8
0
  6
Continuous
 62
     7
370
    25
100
AcDbCircle
 10
33.0984520943
 20
-3.9360288798
 30
0.0
 40
14.45858447153928
100
AcDbArc
 50
89.8519258414
 51
90.0491612075
  0
ARC
  5
3D1
330
1F
100
AcDbEntity
  8
0
  6
Continuous
 62
     7
370
    25
100
AcDbCircle
 10
-183.9574364498
 20
18.4969139824
 30
0.0
 40
217.1899257969849
100
AcDbArc
 50
357.8958503682
 51
357.9634825772
  0
ARC
  5
3D2
330
1F
100
AcDbEntity
  8
0
  6
Continuous
 62
     7
370
    25
100
AcDbCircle
 10
33.0858304005
 20
10.8278363795
 30
0.0
 40
0.049988152263422
100
AcDbArc
 50
280.9293023397
 51
359.9930767047
  0
ARC
  5
3D3
330
1F
100
AcDbEntity
  8
0
  6
Continuous
 62
     7
370
    25
100
AcDbCircle
 10
245.3290735349
 20
18.4969139817
 30
0.0
 40
217.1899257771732
100
AcDbArc
 50
182.0365174228
 51
182.1041496318
  0
ARC
  5
3D4
330
1F
100
AcDbEntity
  8
0
  6
Continuous
 62
     7
370
    25
100
AcDbCircle
 10
28.2731850106
 20
-3.9360288798
 30
0.0
 40
14.45858447153125
100
AcDbArc
 50
89.9508387925
 51
90.1480741586
  0
ARC
  5
3D5
330
1F
100
AcDbEntity
  8
0
  6
Continuous
 62
     7
370
    25
100
AcDbCircle
 10
28.2858067043
 20
10.8278363795
 30
0.0
 40
0.0499881522634189
100
AcDbArc
 50
180.0069232953
 51
259.0706976603
  0
LINE
  5
3D6
330
1F
100
AcDbEntity
  8
0
  6
Continuous
 62
     7
370
    25
100
AcDbLine
 10
33.0953080349
 20
10.7787549185
 30
0.0
 11
32.9858185524
 21
10.7580947251
 31
0.0
  0
LWPOLYLINE
  5
3D7
330
1F
100
AcDbEntity
  8
0
  6
Continuous
 62
     7
370
    25
100
AcDbPolyline
 90
        5
 70
   128
 43
0.0
 10
33.0860462698
 20
10.5225502695
 10
33.0860428677
 20
10.4225503056
 10
33.0860300105
 20
10.0225504344
 10
33.0860238095
 20
9.8160062144
 10
33.086022878
 20
9.7841486289
  0
LINE
  5
3D8
330
1F
100
AcDbEntity
  8
0
  6
Continuous
 62
     7
370
    25
100
AcDbLine
 10
30.6858185524
 20
10.2981625341
 30
0.0
 11
30.6858185524
 21
9.7841486289
 31
0.0
  0
LINE
  5
3D9
330
1F
100
AcDbEntity
  8
0
  6
Continuous
 62
     7
370
    25
100
AcDbLine
 10
30.6858185524
 20
9.7841486289
 30
0.0
 11
31.0927736234
 21
9.7841486289
 31
0.0
  0
LINE
  5
3DA
330
1F
100
AcDbEntity
  8
0
  6
Continuous
 62
     7
370
    25
100
AcDbLine
 10
32.6103634814
 20
9.7841486289
 30
0.0
 11
33.086022878
 21
9.7841486289
 31
0.0
  0
LINE
  5
3DB
330
1F
100
AcDbEntity
  8
0
  6
Continuous
 62
     7
370
    25
100
AcDbLine
 10
28.2763290699
 20
10.7787549185
 30
0.0
 11
28.3858185524
 21
10.7580947251
 31
0.0
  0
LWPOLYLINE
  5
3DC
330
1F
100
AcDbEntity
  8
0
  6
Continuous
 62
     7
370
    25
100
AcDbPolyline
 90
        5
 70
   128
 43
0.0
 10
28.2855908351
 20
10.5225502695
 10
28.2855942371
 20
10.4225503056
 10
28.2856070944
 20
10.0225504344
 10
28.2856132953
 20
9.8160062144
 10
28.2856142269
 20
9.7841486289
  0
LINE
  5
3DD
330
1F
100
AcDbEntity
  8
0
  6
Continuous
 62
     7
370
    25
100
AcDbLine
 10
30.6858185524
 20
9.7841486289
 30
0.0
 11
30.2788634814
 21
9.7841486289
 31
0.0
  0
LINE
  5
3DE
330
1F
100
AcDbEntity
  8
0
  6
Continuous
 62
     7
370
    25
100
AcDbLine
 10
28.7612736234
 20
9.7841486289
 30
0.0
 11
28.2856142269
 21
9.7841486289
 31
0.0
  0
LINE
  5
3DF
330
1F
100
AcDbEntity
  8
0
  6
Continuous
 62
     7
370
    25
100
AcDbLine
 10
33.086022878
 20
9.7841486289
 30
0.0
 11
33.1358185524
 21
9.7841486289
 31
0.0
  0
LINE
  5
3E0
330
1F
100
AcDbEntity
  8
0
  6
Continuous
 62
     7
370
    25
100
AcDbLine
 10
28.2856142269
 20
9.7841486289
 30
0.0
 11
28.2358185524
 21
9.7841486289
 31
0.0
  0
LINE
  5
3E1
330
1F
100
AcDbEntity
  8
0
  6
Continuous
 62
     7
370
    25
100
AcDbLine
 10
33.0953080349
 20
10.8346917785
 30
0.0
 11
33.0953080349
 21
10.7787549185
 31
0.0
  0
ARC
  5
3E2
330
1F
100
AcDbEntity
  8
0
  6
Continuous
 62
     7
370
    25
100
AcDbCircle
 10
33.0858304005
 20
10.8837732394
 30
0.0
 40
0.0499881522634198
100
AcDbArc
 50
280.9293023396
 51
359.9930767047
  0
LINE
  5
3E3
330
1F
100
AcDbEntity
  8
0
  6
Continuous
 62
     7
370
    25
100
AcDbLine
 10
28.2763290699
 20
10.8346917785
 30
0.0
 11
28.2763290699
 21
10.7787549185
 31
0.0
  0
ARC
  5
3E4
330
1F
100
AcDbEntity
  8
0
  6
Continuous
 62
     7
370
    25
100
AcDbCircle
 10
28.2858067043
 20
10.8837732394
 30
0.0
 40
0.0499881522634189
100
AcDbArc
 50
180.0069232953
 51
259.0706976604
  0
LINE
  5
3E5
330
1F
100
AcDbEntity
  8
0
  6
Continuous
 62
     7
370
    25
100
AcDbLine
 10
32.9858185524
 20
10.8166741293
 30
0.0
 11
33.0203218306
 21
10.822866527
 31
0.0
  0
ARC
  5
3E6
330
1F
100
AcDbEntity
  8
0
  6
Continuous
 62
     7
370
    25
100
AcDbCircle
 10
33.1697126596
 20
10.1192140429
 30
0.0
 40
0.7193361093676754
100
AcDbArc
 50
95.9370152452
 51
101.9863560618
  0
ARC
  5
3E7
330
1F
100
AcDbEntity
  8
0
  6
Continuous
 62
     7
370
    25
100
AcDbCircle
 10
28.2019244452
 20
10.1192140429
 30
0.0
 40
0.7193361093671389
100
AcDbArc
 50
78.0136439382
 51
84.0629847548
  0
LINE
  5
3E8
330
1F
100
AcDbEntity
  8
0
  6
Continuous
 62
     7
370
    25
100
AcDbLine
 10
28.3858185524
 20
10.8166741293
 30
0.0
 11
28.3513152743
 21
10.822866527
 31
0.0
  0
LINE
  5
3E9
330
1F
100
AcDbEntity
  8
0
  6
Continuous
 62
     7
370
    25
100
AcDbLine
 10
33.023782232
 20
20.151446907
 30
0.0
 11
33.023782232
 21
18.1225429711
 31
0.0
  0
LINE
  5
3EA
330
1F
100
AcDbEntity
  8
0
  6
Continuous
 62
     7
370
    25
100
AcDbLine
 10
28.3478548729
 20
20.151446907
 30
0.0
 11
28.3478548729
 21
18.1225429711
 31
0.0
  0
ARC
  5
3EB
330
1F
100
AcDbEntity
  8
0
  6
Continuous
 62
     7
370
    25
100
AcDbCircle
 10
32.7321498289
 20
13.3828829067
 30
0.0
 40
2.531507013256633
100
AcDbArc
 50
276.6152245616
 51
279.1754306372
  0
LINE
  5
3EC
330
1F
100
AcDbEntity
  8
0
  6
Continuous
 62
     7
370
    25
100
AcDbLine
 10
33.023782232
 20
18.1225429711
 30
0.0
 11
33.023782232
 21
10.8682301872
 31
0.0
  0
ARC
  5
3ED
330
1F
100
AcDbEntity
  8
0
  6
Continuous
 62
     7
370
    25
100
AcDbCircle
 10
32.9698471424
 20
10.8495306168
 30
0.0
 40
0.0570847425354236
100
AcDbArc
 50
332.1540043172
 51
19.1216919386
  0
LINE
  5
3EE
330
1F
100
AcDbEntity
  8
0
  6
Continuous
 62
     7
370
    25
100
AcDbLine
 10
28.3478548729
 20
18.1225429711
 30
0.0
 11
28.3478548729
 21
10.8682301872
 31
0.0
  0
ARC
  5
3EF
330
1F
100
AcDbEntity
  8
0
  6
Continuous
 62
     7
370
    25
100
AcDbCircle
 10
28.639487276
 20
13.3828829067
 30
0.0
 40
2.531507013257784
100
AcDbArc
 50
260.8245693628
 51
263.3847754384
  0
ARC
  5
3F0
330
1F
100
AcDbEntity
  8
0
  6
Continuous
 62
     7
370
    25
100
AcDbCircle
 10
28.4017899625
 20
10.8495306168
 30
0.0
 40
0.0570847425354536
100
AcDbArc
 50
160.8783080614
 51
207.8459956828
  0
LINE
  5
3F1
330
1F
100
AcDbEntity
  8
0
  6
Continuous
 62
     7
370
    25
100
AcDbLine
 10
33.023782232
 20
10.8682301872
 30
0.0
 11
32.9858185524
 21
10.8614525775
 31
0.0
  0
LINE
  5
3F2
330
1F
100
AcDbEntity
  8
0
  6
Continuous
 62
     7
370
    25
100
AcDbLine
 10
28.3478548729
 20
10.8682301872
 30
0.0
 11
28.3858185524
 21
10.8614525775
 31
0.0
  0
LINE
  5
3F3
330
1F
100
AcDbEntity
  8
0
  6
Continuous
 62
     8
370
    25
100
AcDbLine
 10
30.6858185524
 20
20.6026609102
 30
0.0
 11
30.6858185524
 21
20.4518750426
 31
0.0
  0
LINE
  5
3F4
330
1F
100
AcDbEntity
  8
0
  6
Continuous
 62
     8
370
    25
100
AcDbLine
 10
33.023782232
 20
20.151446907
 30
0.0
 11
32.987523639
 21
20.1597779676
 31
0.0
  0
LINE
  5
3F5
330
1F
100
AcDbEntity
  8
0
  6
Continuous
 62
     8
370
    25
100
AcDbLine
 10
28.3478548729
 20
20.151446907
 30
0.0
 11
28.3841134659
 21
20.1597779676
 31
0.0
  0
LINE
  5
3F6
330
1F
100
AcDbEntity
  8
0
  6
Continuous
 62
     8
370
    25
100
AcDbLine
 10
30.6858185524
 20
10.2981625341
 30
0.0
 11
31.0973185524
 21
10.3082993078
 31
0.0
  0
LINE
  5
3F7
330
1F
100
AcDbEntity
  8
0
  6
Continuous
 62
     8
370
    25
100
AcDbLine
 10
32.6058185524
 20
10.442852203
 30
0.0
 11
33.0860462698
 21
10.5225502695
 31
0.0
  0
LINE
  5
3F8
330
1F
100
AcDbEntity
  8
0
  6
Continuous
 62
     8
370
    25
100
AcDbLine
 10
30.6858185524
 20
10.4921486289
 30
0.0
 11
30.6858185524
 21
10.2981625341
 31
0.0
  0
LINE
  5
3F9
330
1F
100
AcDbEntity
  8
0
  6
Continuous
 62
     8
370
    25
100
AcDbLine
 10
30.6858185524
 20
10.2981625341
 30
0.0
 11
30.2743185524
 21
10.3082993078
 31
0.0
  0
LINE
  5
3FA
330
1F
100
AcDbEntity
  8
0
  6
Continuous
 62
     8
370
    25
100
AcDbLine
 10
28.7658185524
 20
10.442852203
 30
0.0
 11
28.2855908351
 21
10.5225502695
 31
0.0
  0
DIMENSION
  5
3FB
330
1F
100
AcDbEntity
  8
DIMS
100
AcDbDimension
  2
_D_2
 10
31.7368185524
 20
21.5882535193
 30
0.0
 11
30.7523097325
 21
21.5882535193
 31
0.0
 70
   160
  1
<>
 71
     2
 42
-1.0
  3
SLDDIMSTYLE1
100
AcDbAlignedDimension
 13
29.6348185524
 23
19.8551486289
 33
0.0
 14
31.7368185524
 24
19.8551486289
 34
0.0
100
AcDbRotatedDimension
  0
DIMENSION
  5
40A
330
1F
100
AcDbEntity
  8
DIMS
100
AcDbDimension
  2
_D_3
 10
26.2469281565
 20
14.7986486289
 30
0.0
 11
26.2469281565
 21
16.9049030534
 31
0.0
 70
   160
  1
<>
 71
     2
 42
-1.0
  3
SLDDIMSTYLE1
100
AcDbAlignedDimension
 13
29.6348185524
 23
19.8551486289
 33
0.0
 14
29.1098185524
 24
14.7986486289
 34
0.0
 50
90.0
100
AcDbRotatedDimension
  0
DIMENSION
  5
419
330
1F
100
AcDbEntity
  8
DIMS
100
AcDbDimension
  2
_D_4
 10
32.2618185524
 20
17.0157916755
 30
0.0
 11
30.7523097325
 21
17.0157916755
 31
0.0
 70
   160
  1
<>
 71
     2
 42
-1.0
  3
SLDDIMSTYLE1
100
AcDbAlignedDimension
 13
29.1098185524
 23
14.7986486289
 33
0.0
 14
32.2618185524
 24
14.7986486289
 34
0.0
100
AcDbRotatedDimension
  0
DIMENSION
  5
428
330
1F
100
AcDbEntity
  8
DIMS
100
AcDbDimension
  2
_D_5
 10
26.2469281565
 20
9.7841486289
 30
0.0
 11
26.2469281565
 21
12.3010946053
 31
0.0
 70
   160
  1
<>
 71
     2
 42
-1.0
  3
SLDDIMSTYLE0
100
AcDbAlignedDimension
 13
29.1098185524
 23
14.7986486289
 33
0.0
 14
28.1858185524
 24
9.7841486289
 34
0.0
 50
90.0
100
AcDbRotatedDimension
  0
MTEXT
  5
433
330
1F
100
AcDbEntity
  8
NOTES
100
AcDbMText
 10
35.0955836954
 20
22.7587548532
 30
0.0
 40
0.5
 41
0.0
 71
     1
 72
     1
  1
mounting hole (4)
  7
SLDTEXTSTYLE0
 73
     1
 44
1.0
  0
LEADER
  5
434
330
1F
100
AcDbEntity
  8
NOTES
100
AcDbLeader
  3
SLDDIMSTYLE2
 76
     3
 10
31.7896533881
 20
19.9152192551
 30
0.0
 10
34.5753598982
 20
22.5070985475
 30
0.0
 10
35.0753598982
 20
22.5070985475
 30
0.0
  0
ARC
  5
435
330
1F
100
AcDbEntity
  8
0
  6
Continuous
 62
     7
370
    25
100
AcDbCircle
 10
9.539446326
 20
33.7455656826
 30
0.0
 40
9.287633333333606
100
AcDbArc
 50
279.7511653755
 51
284.6605090102
  0
ARC
  5
436
330
1F
100
AcDbEntity
  8
0
  6
Continuous
 62
     7
370
    25
100
AcDbCircle
 10
9.539446326
 20
33.7455656826
 30
0.0
 40
9.287633333333613
100
AcDbArc
 50
255.3394909898
 51
260.2733665584
  0
LWPOLYLINE
  5
437
330
1F
100
AcDbEntity
  8
0
  6
Continuous
 62
     7
370
    25
100
AcDbPolyline
 90
        3
 70
   128
 43
0.0
 10
11.2920644385
 20
25.482832638
 10
11.2923441184
 20
25.4851976862
 10
11.3032436749
 20
25.5883034632
  0
ARC
  5
438
330
1F
100
AcDbEntity
  8
0
  6
Continuous
 62
     7
370
    25
100
AcDbCircle
 10
8.3083064703
 20
24.6916702395
 30
0.0
 40
0.3505068416426748
100
AcDbArc
 50
202.5084372607
 51
220.5502490185
  0
LWPOLYLINE
  5
439
330
1F
100
AcDbEntity
  8
0
  6
Continuous
 62
     7
370
    25
100
AcDbPolyline
 90
        3
 70
   128
 43
0.0
 10
7.774383415
 20
25.6014677201
 10
7.7852633371
 20
25.4967317534
 10
7.7868630835
 20
25.4830651411
  0
ARC
  5
43A
330
1F
100
AcDbEntity
  8
0
  6
Continuous
 62
     7
370
    25
100
AcDbCircle
 10
7.239446326
 20
24.9538036521
 30
0.0
 40
0.2000000000000002
100
AcDbArc
 50
180.0
 51
255.3394909898
  0
ARC
  5
43B
330
1F
100
AcDbEntity
  8
0
  6
Continuous
 62
     7
370
    25
100
AcDbCircle
 10
11.839446326
 20
24.9538036521
 30
0.0
 40
0.2000000000000017
100
AcDbArc
 50
284.6605090102
 51
0.0
  0
LWPOLYLINE
  5
43C
330
1F
100
AcDbEntity
  8
0
  6
Continuous
 62
     7
370
    25
100
AcDbPolyline
 90
        3
 70
   128
 43
0.0
 10
8.0453628756
 20
24.4604000223
 10
8.067155199
 20
24.4395093713
 10
8.0888443756
 20
24.4250045123
  0
LINE
  5
43D
330
1F
100
AcDbEntity
  8
0
  6
Continuous
 62
     7
370
    25
100
AcDbLine
 10
7.657946326
 20
28.7459378333
 30
0.0
 11
7.657946326
 21
28.7009378333
 31
0.0
  0
LINE
  5
43E
330
1F
100
AcDbEntity
  8
0
  6
Continuous
 62
     7
370
    25
100
AcDbLine
 10
11.420946326
 20
28.7009378333
 30
0.0
 11
11.420946326
 21
28.7459378333
 31
0.0
  0
LINE
  5
43F
330
1F
100
AcDbEntity
  8
0
  6
Continuous
 62
     7
370
    25
100
AcDbLine
 10
7.1888280866
 20
28.7009378333
 30
0.0
 11
11.8900645654
 21
28.7009378333
 31
0.0
  0
LINE
  5
440
330
1F
100
AcDbEntity
  8
0
  6
Continuous
 62
     7
370
    25
100
AcDbLine
 10
10.125446326
 20
28.0719378333
 30
0.0
 11
10.125446326
 21
28.0520001732
 31
0.0
  0
LINE
  5
441
330
1F
100
AcDbEntity
  8
0
  6
Continuous
 62
     7
370
    25
100
AcDbLine
 10
9.775446326
 20
28.0719378333
 30
0.0
 11
10.125446326
 21
28.0719378333
 31
0.0
  0
LINE
  5
442
330
1F
100
AcDbEntity
  8
0
  6
Continuous
 62
     7
370
    25
100
AcDbLine
 10
9.775446326
 20
28.0511315894
 30
0.0
 11
9.775446326
 21
28.0719378333
 31
0.0
  0
LINE
  5
443
330
1F
100
AcDbEntity
  8
0
  6
Continuous
 62
     7
370
    25
100
AcDbLine
 10
9.303446326
 20
28.0511315894
 30
0.0
 11
9.303446326
 21
28.0719378333
 31
0.0
  0
LINE
  5
444
330
1F
100
AcDbEntity
  8
0
  6
Continuous
 62
     7
370
    25
100
AcDbLine
 10
9.303446326
 20
28.0719378333
 30
0.0
 11
8.953446326
 21
28.0719378333
 31
0.0
  0
LINE
  5
445
330
1F
100
AcDbEntity
  8
0
  6
Continuous
 62
     7
370
    25
100
AcDbLine
 10
8.953446326
 20
28.0719378333
 30
0.0
 11
8.953446326
 21
28.0520001732
 31
0.0
  0
ARC
  5
446
330
1F
100
AcDbEntity
  8
0
  6
Continuous
 62
     7
370
    25
100
AcDbCircle
 10
9.5394457026
 20
33.5885537144
 30
0.0
 40
9.287615881097011
100
AcDbArc
 50
261.2206185094
 51
270.000003846
  0
LWPOLYLINE
  5
447
330
1F
100
AcDbEntity
  8
0
  6
Continuous
 62
     7
370
    25
100
AcDbPolyline
 90
        3
 70
   128
 43
0.0
 10
8.0570361378
 20
24.4548929471
 10
8.0911128223
 20
24.4228729789
 10
8.1218750178
 20
24.4097573822
  0
LWPOLYLINE
  5
448
330
1F
100
AcDbEntity
  8
0
  6
Continuous
 62
     7
370
    25
100
AcDbPolyline
 90
       14
 70
   128
 43
0.0
 10
7.7410232741
 20
26.3270270874
 10
7.7533888581
 20
26.1056769538
 10
7.7683807581
 20
25.8893737819
 10
7.7858447278
 20
25.6810163642
 10
7.8072923729
 20
25.4695024962
 10
7.8314443224
 20
25.2728273213
 10
7.8577862183
 20
25.0957979017
 10
7.8858143777
 20
24.9416674625
 10
7.9150930148
 20
24.8093868608
 10
7.944851422
 20
24.6994852089
 10
7.9734444311
 20
24.6139362362
 10
8.001844958
 20
24.5457368603
 10
8.0297948958
 20
24.4932635933
 10
8.0570361376
 20
24.4548929471
  0
LINE
  5
449
330
1F
100
AcDbEntity
  8
0
  6
Continuous
 62
     7
370
    25
100
AcDbLine
 10
8.953446326
 20
27.8719378333
 30
0.0
 11
8.953446326
 21
28.0520001732
 31
0.0
  0
LINE
  5
44A
330
1F
100
AcDbEntity
  8
0
  6
Continuous
 62
     7
370
    25
100
AcDbLine
 10
9.303446326
 20
27.8719378333
 30
0.0
 11
8.953446326
 21
27.8719378333
 31
0.0
  0
LINE
  5
44B
330
1F
100
AcDbEntity
  8
0
  6
Continuous
 62
     7
370
    25
100
AcDbLine
 10
9.303446326
 20
28.0511315894
 30
0.0
 11
9.303446326
 21
27.8719378333
 31
0.0
  0
LWPOLYLINE
  5
44C
330
1F
100
AcDbEntity
  8
0
  6
Continuous
 62
     7
370
    25
100
AcDbPolyline
 90
       19
 70
   128
 43
0.0
 10
9.539446326
 20
24.5865942061
 10
9.3535089748
 20
24.5857941861
 10
9.1685838085
 20
24.5830227342
 10
9.077111806
 20
24.5805100147
 10
8.9868168483
 20
24.5767826026
 10
8.8987066621
 20
24.5710878292
 10
8.8101256631
 20
24.560742298
 10
8.778810679
 20
24.5540150194
 10
8.7553681879
 20
24.5443986938
 10
8.7496373354
 20
24.5372977339
 10
8.7520493595
 20
24.5294979929
 10
8.7643904037
 20
24.5204141606
 10
8.796784503
 20
24.5075988658
 10
8.8505185758
 20
24.4935693278
 10
8.9091245962
 20
24.4822544264
 10
9.0405426847
 20
24.4637414006
 10
9.1751754056
 20
24.4509479003
 10
9.3112810272
 20
24.4426347438
 10
9.539446326
 20
24.4374585262
  0
LINE
  5
44D
330
1F
100
AcDbEntity
  8
0
  6
Continuous
 62
     7
370
    25
100
AcDbLine
 10
9.775446326
 20
28.0511315894
 30
0.0
 11
9.775446326
 21
27.8719378333
 31
0.0
  0
LINE
  5
44E
330
1F
100
AcDbEntity
  8
0
  6
Continuous
 62
     7
370
    25
100
AcDbLine
 10
9.775446326
 20
27.8719378333
 30
0.0
 11
10.125446326
 21
27.8719378333
 31
0.0
  0
LINE
  5
44F
330
1F
100
AcDbEntity
  8
0
  6
Continuous
 62
     7
370
    25
100
AcDbLine
 10
10.125446326
 20
27.8719378333
 30
0.0
 11
10.125446326
 21
28.0520001732
 31
0.0
  0
LWPOLYLINE
  5
450
330
1F
100
AcDbEntity
  8
0
  6
Continuous
 62
     7
370
    25
100
AcDbPolyline
 90
        3
 70
   128
 43
0.0
 10
11.3378962349
 20
26.3270378114
 10
11.3378803669
 20
26.3270344229
 10
11.3378693779
 20
26.3270270874
  0
LWPOLYLINE
  5
451
330
1F
100
AcDbEntity
  8
0
  6
Continuous
 62
     7
370
    25
100
AcDbPolyline
 90
       14
 70
   128
 43
0.0
 10
11.3378693779
 20
26.3270270874
 10
11.3255037939
 20
26.1056769538
 10
11.3105118939
 20
25.8893737819
 10
11.2930479242
 20
25.6810163642
 10
11.2716002791
 20
25.4695024962
 10
11.2474483296
 20
25.2728273213
 10
11.2211064337
 20
25.0957979017
 10
11.1930782743
 20
24.9416674625
 10
11.1637996372
 20
24.8093868608
 10
11.1340412301
 20
24.6994852089
 10
11.1054482209
 20
24.6139362362
 10
11.077047694
 20
24.5457368603
 10
11.0490977562
 20
24.4932635933
 10
11.0218565144
 20
24.4548929471
  0
ARC
  5
452
330
1F
100
AcDbEntity
  8
0
  6
Continuous
 62
     7
370
    25
100
AcDbCircle
 10
9.5394469494
 20
33.5885537144
 30
0.0
 40
9.287615881096976
100
AcDbArc
 50
269.999996154
 51
278.7793814906
  0
LWPOLYLINE
  5
453
330
1F
100
AcDbEntity
  8
0
  6
Continuous
 62
     7
370
    25
100
AcDbPolyline
 90
       20
 70
   128
 43
0.0
 10
9.539446326
 20
24.4374585262
 10
9.7253836772
 20
24.4408807718
 10
9.9102986591
 20
24.4514596768
 10
10.0476306714
 20
24.4648227052
 10
10.1244974369
 20
24.4749812229
 10
10.1990974876
 20
24.4876083801
 10
10.2610073784
 20
24.5015059869
 10
10.2895643624
 20
24.5100185049
 10
10.3134767586
 20
24.5198736183
 10
10.3255154998
 20
24.528043484
 10
10.3293749473
 20
24.5366702858
 10
10.324372728
 20
24.5437761838
 10
10.3076614606
 20
24.5517124007
 10
10.2642789061
 20
24.5614899827
 10
10.188223711
 20
24.5704087153
 10
10.1110538297
 20
24.5758006824
 10
10.0317566162
 20
24.5794401181
 10
9.8709754333
 20
24.583829419
 10
9.7059663836
 20
24.5859572707
 10
9.539446326
 20
24.5865942061
  0
LINE
  5
454
330
1F
100
AcDbEntity
  8
0
  6
Continuous
 62
     7
370
    25
100
AcDbLine
 10
7.039446326
 20
26.4061021505
 30
0.0
 11
7.039446326
 21
28.7009378333
 31
0.0
  0
LINE
  5
455
330
1F
100
AcDbEntity
  8
0
  6
Continuous
 62
     7
370
    25
100
AcDbLine
 10
7.039446326
 20
28.7009378333
 30
0.0
 11
7.1888280866
 21
28.7009378333
 31
0.0
  0
LINE
  5
456
330
1F
100
AcDbEntity
  8
0
  6
Continuous
 62
     7
370
    25
100
AcDbLine
 10
12.039446326
 20
26.4061021505
 30
0.0
 11
12.039446326
 21
28.7009378333
 31
0.0
  0
LINE
  5
457
330
1F
100
AcDbEntity
  8
0
  6
Continuous
 62
     7
370
    25
100
AcDbLine
 10
12.039446326
 20
28.7009378333
 30
0.0
 11
11.8900645654
 21
28.7009378333
 31
0.0
  0
LWPOLYLINE
  5
458
330
1F
100
AcDbEntity
  8
0
  6
Continuous
 62
     7
370
    25
100
AcDbPolyline
 90
       21
 70
   128
 43
0.0
 10
11.3113591911
 20
25.490730809
 10
11.3203468541
 20
25.5704295727
 10
11.338098919
 20
25.8022841168
 10
11.3432437879
 20
25.9534549146
 10
11.3438803788
 20
26.1095350947
 10
11.3424130918
 20
26.1968039677
 10
11.340978439
 20
26.2502440678
 10
11.3399414602
 20
26.2821955419
 10
11.3392638886
 20
26.3010139371
 10
11.3388371763
 20
26.311987784
 10
11.3382119493
 20
26.3249654634
 10
11.3381531895
 20
26.3256706835
 10
11.3381048149
 20
26.3261376102
 10
11.3380642993
 20
26.326448512
 10
11.3380300549
 20
26.3266558293
 10
11.3380009394
 20
26.3267940872
 10
11.3379760447
 20
26.3268862265
 10
11.3379545962
 20
26.3269475172
 10
11.3379358999
 20
26.3269881038
 10
11.3379093715
 20
26.3270265549
 10
11.3378962349
 20
26.3270378114
  0
LWPOLYLINE
  5
459
330
1F
100
AcDbEntity
  8
0
  6
Continuous
 62
     7
370
    25
100
AcDbPolyline
 90
       21
 70
   128
 43
0.0
 10
7.767533461
 20
25.490730809
 10
7.758545798
 20
25.5704295727
 10
7.740793733
 20
25.8022841168
 10
7.7356488641
 20
25.9534549146
 10
7.7350122732
 20
26.1095350947
 10
7.7364795602
 20
26.1968039677
 10
7.737914213
 20
26.2502440678
 10
7.7389511918
 20
26.2821955419
 10
7.7396287634
 20
26.3010139371
 10
7.7400554757
 20
26.311987784
 10
7.7406807027
 20
26.3249654634
 10
7.7407394625
 20
26.3256706835
 10
7.7407878371
 20
26.3261376102
 10
7.7408283527
 20
26.326448512
 10
7.7408625971
 20
26.3266558293
 10
7.7408917126
 20
26.3267940872
 10
7.7409166073
 20
26.3268862265
 10
7.7409380559
 20
26.3269475172
 10
7.7409567521
 20
26.3269881038
 10
7.7409832805
 20
26.3270265549
 10
7.7410232741
 20
26.3270270874
  0
LINE
  5
45A
330
1F
100
AcDbEntity
  8
0
  6
Continuous
 62
     7
370
    25
100
AcDbLine
 10
8.088946326
 20
28.7459378333
 30
0.0
 11
8.088946326
 21
28.7009378333
 31
0.0
  0
LINE
  5
45B
330
1F
100
AcDbEntity
  8
0
  6
Continuous
 62
     7
370
    25
100
AcDbLine
 10
8.887946326
 20
28.7459378333
 30
0.0
 11
8.887946326
 21
28.7009378333
 31
0.0
  0
LINE
  5
45C
330
1F
100
AcDbEntity
  8
0
  6
Continuous
 62
     7
370
    25
100
AcDbLine
 10
8.088946326
 20
28.7459378333
 30
0.0
 11
8.887946326
 21
28.7459378333
 31
0.0
  0
LINE
  5
45D
330
1F
100
AcDbEntity
  8
0
  6
Continuous
 62
     7
370
    25
100
AcDbLine
 10
10.190946326
 20
28.7459378333
 30
0.0
 11
10.190946326
 21
28.7009378333
 31
0.0
  0
LINE
  5
45E
330
1F
100
AcDbEntity
  8
0
  6
Continuous
 62
     7
370
    25
100
AcDbLine
 10
10.989946326
 20
28.7459378333
 30
0.0
 11
10.989946326
 21
28.7009378333
 31
0.0
  0
LINE
  5
45F
330
1F
100
AcDbEntity
  8
0
  6
Continuous
 62
     7
370
    25
100
AcDbLine
 10
10.989946326
 20
28.7459378333
 30
0.0
 11
10.190946326
 21
28.7459378333
 31
0.0
  0
LINE
  5
460
330
1F
100
AcDbEntity
  8
0
  6
Continuous
 62
     7
370
    25
100
AcDbLine
 10
7.039446326
 20
24.9538036521
 30
0.0
 11
7.039446326
 21
26.4061021505
 31
0.0
  0
LINE
  5
461
330
1F
100
AcDbEntity
  8
0
  6
Continuous
 62
     7
370
    25
100
AcDbLine
 10
12.039446326
 20
24.9538036521
 30
0.0
 11
12.039446326
 21
26.4061021505
 31
0.0
  0
LINE
  5
462
330
1F
100
AcDbEntity
  8
0
  6
Continuous
 62
     7
370
    25
100
AcDbLine
 10
8.1218750178
 20
24.4097573822
 30
0.0
 11
8.1218251256
 21
24.4097651386
 31
0.0
  0
LINE
  5
463
330
1F
100
AcDbEntity
  8
0
  6
Continuous
 62
     7
370
    25
100
AcDbLine
 10
8.887946326
 20
28.7459378333
 30
0.0
 11
10.190946326
 21
28.7459378333
 31
0.0
  0
LINE
  5
464
330
1F
100
AcDbEntity
  8
0
  6
Continuous
 62
     7
370
    25
100
AcDbLine
 10
7.657946326
 20
28.7459378333
 30
0.0
 11
8.088946326
 21
28.7459378333
 31
0.0
  0
LINE
  5
465
330
1F
100
AcDbEntity
  8
0
  6
Continuous
 62
     7
370
    25
100
AcDbLine
 10
11.420946326
 20
28.7459378333
 30
0.0
 11
10.989946326
 21
28.7459378333
 31
0.0
  0
LWPOLYLINE
  5
466
330
1F
100
AcDbEntity
  8
0
  6
Continuous
 62
     8
370
    25
100
AcDbPolyline
 90
        9
 70
   128
 43
0.0
 10
11.1387597903
 20
24.6739776054
 10
11.1522471109
 20
24.7048315845
 10
11.176003931
 20
24.7737801044
 10
11.2004683674
 20
24.8601321861
 10
11.2246559922
 20
24.9614072586
 10
11.2476046838
 20
25.0734444156
 10
11.2697183096
 20
25.1980998467
 10
11.2912909209
 20
25.3386938081
 10
11.3113591911
 20
25.490730809
  0
LWPOLYLINE
  5
467
330
1F
100
AcDbEntity
  8
0
  6
Continuous
 62
     8
370
    25
100
AcDbPolyline
 90
        9
 70
   128
 43
0.0
 10
7.940017467
 20
24.6742415855
 10
7.9266455411
 20
24.7048315845
 10
7.902888721
 20
24.7737801044
 10
7.8784242846
 20
24.8601321861
 10
7.8542366598
 20
24.9614072586
 10
7.8312879683
 20
25.0734444156
 10
7.8091743424
 20
25.1980998467
 10
7.7876017312
 20
25.3386938081
 10
7.767533461
 20
25.490730809
  0
ARC
  5
468
330
1F
100
AcDbEntity
  8
0
  6
Continuous
 62
     8
370
    25
100
AcDbCircle
 10
8.0586159059
 20
24.4752186895
 30
0.0
 40
0.020387041782745
100
AcDbArc
 50
214.4395614494
 51
265.5557617164
  0
DIMENSION
  5
469
330
1F
100
AcDbEntity
  8
DIMS
100
AcDbDimension
  2
_D_6
 10
13.4978279802
 20
24.3009378333
 30
0.0
 11
13.4978279802
 21
26.6509324237
 31
0.0
 70
   160
  1
<>
 71
     2
 42
-1.0
  3
SLDDIMSTYLE1
100
AcDbAlignedDimension
 13
10.989946326
 23
28.7459378333
 33
0.0
 14
9.539446326
 24
24.3009378333
 34
0.0
 50
90.0
100
AcDbRotatedDimension
  0
DIMENSION
  5
478
330
1F
100
AcDbEntity
  8
DIMS
100
AcDbDimension
  2
_D_7
 10
7.039446326
 20
29.3758590931
 30
0.0
 11
9.563021919
 21
29.3758590931
 31
0.0
 70
   160
  1
<>
 71
     2
 42
-1.0
  3
SLDDIMSTYLE0
100
AcDbAlignedDimension
 13
12.039446326
 23
28.7009378333
 33
0.0
 14
7.039446326
 24
28.7009378333
 34
0.0
100
AcDbRotatedDimension
  0
MTEXT
  5
483
330
1F
100
AcDbEntity
  8
NOTES
100
AcDbMText
 10
15.0321289521
 20
30.1009172197
 30
0.0
 40
0.5
 41
0.0
 71
     1
 72
     1
  1
lock
  7
SLDTEXTSTYLE0
 73
     1
 44
1.0
  0
LEADER
  5
484
330
1F
100
AcDbEntity
  8
NOTES
100
AcDbLeader
  3
SLDDIMSTYLE2
 76
     3
 10
10.125446326
 20
28.0520001732
 30
0.0
 10
14.5075558737
 20
29.849220555
 30
0.0
 10
15.0075558737
 20
29.849220555
 30
0.0
  0
ENDSEC
  0
SECTION
  2
OBJECTS
  0
DICTIONARY
  5
C
330
0
100
AcDbDictionary
281
     1
  3
ACAD_DETAILVIEWSTYLE
350
48E
  3
ACAD_GROUP
350
D
  3
ACAD_LAYOUT
350
1A
  3
ACAD_MATERIAL
350
43
  3
ACAD_MLEADERSTYLE
350
6B
  3
ACAD_MLINESTYLE
350
17
  3
ACAD_PLOTSETTINGS
350
19
  3
ACAD_PLOTSTYLENAME
350
E
  3
ACAD_SCALELIST
350
47
  3
ACAD_SECTIONVIEWSTYLE
350
48F
  3
ACAD_TABLESTYLE
350
69
  3
ACDB_RECOMPOSE_DATA
350
48B
  3
AcDbVariableDictionary
350
485
  0
DICTIONARY
  5
48E
102
{ACAD_REACTORS
330
C
102
}
330
C
100
AcDbDictionary
281
     1
  0
DICTIONARY
  5
D
102
{ACAD_REACTORS
330
C
102
}
330
C
100
AcDbDictionary
281
     1
  0
DICTIONARY
  5
1A
102
{ACAD_REACTORS
330
C
102
}
330
C
100
AcDbDictionary
281
     1
  3
Layout1
350
1E
  3
Layout2
350
26
  3
Model
350
22
  0
DICTIONARY
  5
43
102
{ACAD_REACTORS
330
C
102
}
330
C
100
AcDbDictionary
281
     1
  3
ByBlock
350
45
  3
ByLayer
350
44
  3
Global
350
46
  0
DICTIONARY
  5
6B
102
{ACAD_REACTORS
330
C
102
}
330
C
100
AcDbDictionary
281
     1
  3
Standard
350
6C
  0
DICTIONARY
  5
17
102
{ACAD_REACTORS
330
C
102
}
330
C
100
AcDbDictionary
281
     1
  3
Standard
350
18
  0
DICTIONARY
  5
19
102
{ACAD_REACTORS
330
C
102
}
330
C
100
AcDbDictionary
281
     1
  0
ACDBDICTIONARYWDFLT
  5
E
102
{ACAD_REACTORS
330
C
102
}
330
C
100
AcDbDictionary
281
     1
  3
Normal
350
F
100
AcDbDictionaryWithDefault
340
F
  0
DICTIONARY
  5
47
102
{ACAD_REACTORS
330
C
102
}
330
C
100
AcDbDictionary
281
     1
  3
A0
350
48
  3
A1
350
49
  3
A2
350
4A
  3
A3
350
4B
  3
A4
350
4C
  3
A5
350
4D
  3
A6
350
4E
  3
A7
350
4F
  3
A8
350
50
  3
A9
350
51
  3
B0
350
52
  3
B1
350
53
  3
B2
350
54
  3
B3
350
55
  3
B4
350
56
  3
B5
350
57
  3
B6
350
58
  3
B7
350
59
  3
B8
350
5A
  3
B9
350
5B
  3
C0
350
5C
  3
C1
350
5D
  3
C2
350
5E
  3
C3
350
5F
  3
C4
350
60
  3
C5
350
61
  3
C6
350
62
  3
C7
350
63
  3
C8
350
64
  3
C9
350
65
  3
D0
350
66
  3
D1
350
67
  3
D2
350
68
  0
DICTIONARY
  5
48F
102
{ACAD_REACTORS
330
C
102
}
330
C
100
AcDbDictionary
281
     1
  0
DICTIONARY
  5
69
102
{ACAD_REACTORS
330
C
102
}
330
C
100
AcDbDictionary
281
     1
  3
Standard
350
6A
  0
XRECORD
  5
48B
102
{ACAD_REACTORS
330
C
102
}
330
C
100
AcDbXrecord
280
     1
 90
        1
330
6A
  0
DICTIONARY
  5
485
102
{ACAD_REACTORS
330
C
102
}
330
C
100
AcDbDictionary
281
     1
  3
CANNOSCALE
350
486
  3
CMLEADERSTYLE
350
48D
  3
CTABLESTYLE
350
48C
  0
LAYOUT
  5
1E
102
{ACAD_REACTORS
330
1A
102
}
330
1A
100
AcDbPlotSettings
  1

  2
none_device
  4

  6

 40
0.0
 41
0.0
 42
0.0
 43
0.0
 44
0.0
 45
0.0
 46
0.0
 47
0.0
 48
0.0
 49
0.0
140
0.0
141
0.0
142
1.0
143
1.0
 70
   688
 72
     0
 73
     0
 74
     5
  7

 75
    16
 76
     0
 77
     2
 78
   300
147
1.0
148
0.0
149
0.0
100
AcDbLayout
  1
Layout1
 70
     1
 71
     1
 10
0.0
 20
0.0
 11
12.0
 21
9.0
 12
0.0
 22
0.0
 32
0.0
 14
1.0000000000E+20
 24
1.0000000000E+20
 34
1.0000000000E+20
 15
-1.0000000000E+20
 25
-1.0000000000E+20
 35
-1.0000000000E+20
146
0.0
 13
0.0
 23
0.0
 33
0.0
 16
1.0
 26
0.0
 36
0.0
 17
0.0
 27
1.0
 37
0.0
 76
     0
330
1B
  0
LAYOUT
  5
26
102
{ACAD_REACTORS
330
1A
102
}
330
1A
100
AcDbPlotSettings
  1

  2
none_device
  4

  6

 40
0.0
 41
0.0
 42
0.0
 43
0.0
 44
0.0
 45
0.0
 46
0.0
 47
0.0
 48
0.0
 49
0.0
140
0.0
141
0.0
142
1.0
143
1.0
 70
   688
 72
     0
 73
     0
 74
     5
  7

 75
    16
 76
     0
 77
     2
 78
   300
147
1.0
148
0.0
149
0.0
100
AcDbLayout
  1
Layout2
 70
     1
 71
     2
 10
0.0
 20
0.0
 11
0.0
 21
0.0
 12
0.0
 22
0.0
 32
0.0
 14
0.0
 24
0.0
 34
0.0
 15
0.0
 25
0.0
 35
0.0
146
0.0
 13
0.0
 23
0.0
 33
0.0
 16
1.0
 26
0.0
 36
0.0
 17
0.0
 27
1.0
 37
0.0
 76
     0
330
23
  0
LAYOUT
  5
22
102
{ACAD_REACTORS
330
1A
102
}
330
1A
100
AcDbPlotSettings
  1

  2
none_device
  4
Letter_(8.50_x_11.00_Inches)
  6

 40
6.35
 41
6.35
 42
6.35000508
 43
6.35000508
 44
215.9
 45
279.4
 46
0.0
 47
0.0
 48
0.0
 49
0.0
140
0.0
141
0.0
142
1.0
143
1.0
 70
  1712
 72
     0
 73
     0
 74
     0
  7

 75
     0
 76
     0
 77
     2
 78
   300
147
1.0
148
0.0
149
0.0
100
AcDbLayout
  1
Model
 70
     1
 71
     0
 10
0.0
 20
0.0
 11
48.0
 21
36.0
 12
0.0
 22
0.0
 32
0.0
 14
0.0
 24
0.0
 34
0.0
 15
48.0
 25
36.0
 35
0.0
146
0.0
 13
0.0
 23
0.0
 33
0.0
 16
1.0
 26
0.0
 36
0.0
 17
0.0
 27
1.0
 37
0.0
 76
     0
330
1F
331
29
  0
MATERIAL
  5
45
102
{ACAD_REACTORS
330
43
102
}
330
43
100
AcDbMaterial
  1
ByBlock
  0
MATERIAL
  5
44
102
{ACAD_REACTORS
330
43
102
}
330
43
100
AcDbMaterial
  1
ByLayer
  0
MATERIAL
  5
46
102
{ACAD_REACTORS
330
43
102
}
330
43
100
AcDbMaterial
  1
Global
  0
MLEADERSTYLE
  5
6C
102
{ACAD_REACTORS
330
6B
102
}
330
6B
100
AcDbMLeaderStyle
170
     2
171
     1
172
     0
 90
        2
 40
0.0
 41
0.0
173
     1
 91
-1056964608
340
14
 92
       -2
290
     1
 42
0.09
291
     1
 43
0.36
  3
Standard
341
0
 44
0.18
300

342
11
174
     1
178
     6
175
     1
176
     0
 93
-1056964608
 45
0.18
292
     0
297
     0
 46
0.18
343
0
 94
-1056964608
 47
1.0
 49
1.0
140
1.0
293
     1
141
0.0
294
     1
177
     0
142
1.0
295
     0
296
     0
143
0.125
1001
ACAD_MLEADERVER
1070
     2
  0
MLINESTYLE
  5
18
102
{ACAD_REACTORS
330
17
102
}
330
17
100
AcDbMlineStyle
  2
Standard
 70
     0
  3

 62
   256
 51
90.0
 52
90.0
 71
     2
 49
0.5
 62
   256
  6
BYLAYER
 49
-0.5
 62
   256
  6
BYLAYER
  0
ACDBPLACEHOLDER
  5
F
102
{ACAD_REACTORS
330
E
102
}
330
E
  0
SCALE
  5
48
102
{ACAD_REACTORS
330
47
102
}
330
47
100
AcDbScale
 70
     0
300
1:1
140
1.0
141
1.0
290
     1
  0
SCALE
  5
49
102
{ACAD_REACTORS
330
47
102
}
330
47
100
AcDbScale
 70
     0
300
1:2
140
1.0
141
2.0
290
     0
  0
SCALE
  5
4A
102
{ACAD_REACTORS
330
47
102
}
330
47
100
AcDbScale
 70
     0
300
1:4
140
1.0
141
4.0
290
     0
  0
SCALE
  5
4B
102
{ACAD_REACTORS
330
47
102
}
330
47
100
AcDbScale
 70
     0
300
1:5
140
1.0
141
5.0
290
     0
  0
SCALE
  5
4C
102
{ACAD_REACTORS
330
47
102
}
330
47
100
AcDbScale
 70
     0
300
1:8
140
1.0
141
8.0
290
     0
  0
SCALE
  5
4D
102
{ACAD_REACTORS
330
47
102
}
330
47
100
AcDbScale
 70
     0
300
1:10
140
1.0
141
10.0
290
     0
  0
SCALE
  5
4E
102
{ACAD_REACTORS
330
47
102
}
330
47
100
AcDbScale
 70
     0
300
1:16
140
1.0
141
16.0
290
     0
  0
SCALE
  5
4F
102
{ACAD_REACTORS
330
47
102
}
330
47
100
AcDbScale
 70
     0
300
1:20
140
1.0
141
20.0
290
     0
  0
SCALE
  5
50
102
{ACAD_REACTORS
330
47
102
}
330
47
100
AcDbScale
 70
     0
300
1:30
140
1.0
141
30.0
290
     0
  0
SCALE
  5
51
102
{ACAD_REACTORS
330
47
102
}
330
47
100
AcDbScale
 70
     0
300
1:40
140
1.0
141
40.0
290
     0
  0
SCALE
  5
52
102
{ACAD_REACTORS
330
47
102
}
330
47
100
AcDbScale
 70
     0
300
1:50
140
1.0
141
50.0
290
     0
  0
SCALE
  5
53
102
{ACAD_REACTORS
330
47
102
}
330
47
100
AcDbScale
 70
     0
300
1:100
140
1.0
141
100.0
290
     0
  0
SCALE
  5
54
102
{ACAD_REACTORS
330
47
102
}
330
47
100
AcDbScale
 70
     0
300
2:1
140
2.0
141
1.0
290
     0
  0
SCALE
  5
55
102
{ACAD_REACTORS
330
47
102
}
330
47
100
AcDbScale
 70
     0
300
4:1
140
4.0
141
1.0
290
     0
  0
SCALE
  5
56
102
{ACAD_REACTORS
330
47
102
}
330
47
100
AcDbScale
 70
     0
300
8:1
140
8.0
141
1.0
290
     0
  0
SCALE
  5
57
102
{ACAD_REACTORS
330
47
102
}
330
47
100
AcDbScale
 70
     0
300
10:1
140
10.0
141
1.0
290
     0
  0
SCALE
  5
58
102
{ACAD_REACTORS
330
47
102
}
330
47
100
AcDbScale
 70
     0
300
100:1
140
100.0
141
1.0
290
     0
  0
SCALE
  5
59
102
{ACAD_REACTORS
330
47
102
}
330
47
100
AcDbScale
 70
     0
300
1/128" = 1'-0"
140
0.0078125
141
12.0
290
     0
  0
SCALE
  5
5A
102
{ACAD_REACTORS
330
47
102
}
330
47
100
AcDbScale
 70
     0
300
1/64" = 1'-0"
140
0.015625
141
12.0
290
     0
  0
SCALE
  5
5B
102
{ACAD_REACTORS
330
47
102
}
330
47
100
AcDbScale
 70
     0
300
1/32" = 1'-0"
140
0.03125
141
12.0
290
     0
  0
SCALE
  5
5C
102
{ACAD_REACTORS
330
47
102
}
330
47
100
AcDbScale
 70
     0
300
1/16" = 1'-0"
140
0.0625
141
12.0
290
     0
  0
SCALE
  5
5D
102
{ACAD_REACTORS
330
47
102
}
330
47
100
AcDbScale
 70
     0
300
3/32" = 1'-0"
140
0.09375
141
12.0
290
     0
  0
SCALE
  5
5E
102
{ACAD_REACTORS
330
47
102
}
330
47
100
AcDbScale
 70
     0
300
1/8" = 1'-0"
140
0.125
141
12.0
290
     0
  0
SCALE
  5
5F
102
{ACAD_REACTORS
330
47
102
}
330
47
100
AcDbScale
 70
     0
300
3/16" = 1'-0"
140
0.1875
141
12.0
290
     0
  0
SCALE
  5
60
102
{ACAD_REACTORS
330
47
102
}
330
47
100
AcDbScale
 70
     0
300
1/4" = 1'-0"
140
0.25
141
12.0
290
     0
  0
SCALE
  5
61
102
{ACAD_REACTORS
330
47
102
}
330
47
100
AcDbScale
 70
     0
300
3/8" = 1'-0"
140
0.375
141
12.0
290
     0
  0
SCALE
  5
62
102
{ACAD_REACTORS
330
47
102
}
330
47
100
AcDbScale
 70
     0
300
1/2" = 1'-0"
140
0.5
141
12.0
290
     0
  0
SCALE
  5
63
102
{ACAD_REACTORS
330
47
102
}
330
47
100
AcDbScale
 70
     0
300
3/4" = 1'-0"
140
0.75
141
12.0
290
     0
  0
SCALE
  5
64
102
{ACAD_REACTORS
330
47
102
}
330
47
100
AcDbScale
 70
     0
300
1" = 1'-0"
140
1.0
141
12.0
290
     0
  0
SCALE
  5
65
102
{ACAD_REACTORS
330
47
102
}
330
47
100
AcDbScale
 70
     0
300
1-1/2" = 1'-0"
140
1.5
141
12.0
290
     0
  0
SCALE
  5
66
102
{ACAD_REACTORS
330
47
102
}
330
47
100
AcDbScale
 70
     0
300
3" = 1'-0"
140
3.0
141
12.0
290
     0
  0
SCALE
  5
67
102
{ACAD_REACTORS
330
47
102
}
330
47
100
AcDbScale
 70
     0
300
6" = 1'-0"
140
6.0
141
12.0
290
     0
  0
SCALE
  5
68
102
{ACAD_REACTORS
330
47
102
}
330
47
100
AcDbScale
 70
     0
300
1'-0" = 1'-0"
140
12.0
141
12.0
290
     0
  0
TABLESTYLE
  5
6A
102
{ACAD_REACTORS
330
69
102
}
102
{ACAD_XDICTIONARY
360
487
102
}
330
69
100
AcDbTableStyle
  3
Standard
 70
     0
 71
     0
 40
0.06
 41
0.06
280
     0
281
     0
  7
Standard
140
0.18
170
     2
 62
     0
 63
   257
283
     0
274
    -2
284
     1
 64
     0
275
    -2
285
     1
 65
     0
276
    -2
286
     1
 66
     0
277
    -2
287
     1
 67
     0
278
    -2
288
     1
 68
     0
279
    -2
289
     1
 69
     0
  7
Standard
140
0.25
170
     5
 62
     0
 63
   257
283
     0
274
    -2
284
     1
 64
     0
275
    -2
285
     1
 65
     0
276
    -2
286
     1
 66
     0
277
    -2
287
     1
 67
     0
278
    -2
288
     1
 68
     0
279
    -2
289
     1
 69
     0
  7
Standard
140
0.18
170
     5
 62
     0
 63
   257
283
     0
274
    -2
284
     1
 64
     0
275
    -2
285
     1
 65
     0
276
    -2
286
     1
 66
     0
277
    -2
287
     1
 67
     0
278
    -2
288
     1
 68
     0
279
    -2
289
     1
 69
     0
  0
DICTIONARYVAR
  5
486
102
{ACAD_REACTORS
330
485
102
}
330
485
100
DictionaryVariables
280
     0
  1
1:1
  0
DICTIONARYVAR
  5
48D
102
{ACAD_REACTORS
330
485
102
}
330
485
100
DictionaryVariables
280
     0
  1
Standard
  0
DICTIONARYVAR
  5
48C
102
{ACAD_REACTORS
330
485
102
}
330
485
100
DictionaryVariables
280
     0
  1
Standard
  0
DICTIONARY
  5
487
330
6A
100
AcDbDictionary
280
     1
281
     1
  3
ACAD_ROUNDTRIP_2008_TABLESTYLE_CELLSTYLEMAP
360
489
  3
ACAD_XREC_ROUNDTRIP
360
488
  0
CELLSTYLEMAP
  5
489
102
{ACAD_REACTORS
330
487
102
}
330
487
100
AcDbCellStyleMap
 90
        3
300
CELLSTYLE
  1
TABLEFORMAT_BEGIN
 90
        5
170
     1
 91
        0
 92
    32768
 62
   257
 93
        1
300
CONTENTFORMAT
  1
CONTENTFORMAT_BEGIN
 90
        0
 91
        0
 92
        4
 93
        0
300

 40
0.0
140
1.0
 94
        5
 62
     0
340
11
144
0.25
309
CONTENTFORMAT_END
171
     1
301
MARGIN
  1
CELLMARGIN_BEGIN
 40
0.06
 40
0.06
 40
0.06
 40
0.06
 40
0.06
 40
0.06
309
CELLMARGIN_END
 94
        6
 95
        1
302
GRIDFORMAT
  1
GRIDFORMAT_BEGIN
 90
        0
 91
        1
 62
     0
 92
       -2
340
14
 93
        0
 40
0.045
309
GRIDFORMAT_END
 95
        2
302
GRIDFORMAT
  1
GRIDFORMAT_BEGIN
 90
        0
 91
        1
 62
     0
 92
       -2
340
14
 93
        0
 40
0.045
309
GRIDFORMAT_END
 95
        4
302
GRIDFORMAT
  1
GRIDFORMAT_BEGIN
 90
        0
 91
        1
 62
     0
 92
       -2
340
14
 93
        0
 40
0.045
309
GRIDFORMAT_END
 95
        8
302
GRIDFORMAT
  1
GRIDFORMAT_BEGIN
 90
        0
 91
        1
 62
     0
 92
       -2
340
14
 93
        0
 40
0.045
309
GRIDFORMAT_END
 95
       16
302
GRIDFORMAT
  1
GRIDFORMAT_BEGIN
 90
        0
 91
        1
 62
     0
 92
       -2
340
14
 93
        0
 40
0.045
309
GRIDFORMAT_END
 95
       32
302
GRIDFORMAT
  1
GRIDFORMAT_BEGIN
 90
        0
 91
        1
 62
     0
 92
       -2
340
14
 93
        0
 40
0.045
309
GRIDFORMAT_END
309
TABLEFORMAT_END
  1
CELLSTYLE_BEGIN
 90
        1
 91
        1
300
_TITLE
309
CELLSTYLE_END
300
CELLSTYLE
  1
TABLEFORMAT_BEGIN
 90
        5
170
     1
 91
        0
 92
        0
 62
   257
 93
        1
300
CONTENTFORMAT
  1
CONTENTFORMAT_BEGIN
 90
        0
 91
        0
 92
        4
 93
        0
300

 40
0.0
140
1.0
 94
        5
 62
     0
340
11
144
0.18
309
CONTENTFORMAT_END
171
     1
301
MARGIN
  1
CELLMARGIN_BEGIN
 40
0.06
 40
0.06
 40
0.06
 40
0.06
 40
0.06
 40
0.06
309
CELLMARGIN_END
 94
        6
 95
        1
302
GRIDFORMAT
  1
GRIDFORMAT_BEGIN
 90
        0
 91
        1
 62
     0
 92
       -2
340
14
 93
        0
 40
0.045
309
GRIDFORMAT_END
 95
        2
302
GRIDFORMAT
  1
GRIDFORMAT_BEGIN
 90
        0
 91
        1
 62
     0
 92
       -2
340
14
 93
        0
 40
0.045
309
GRIDFORMAT_END
 95
        4
302
GRIDFORMAT
  1
GRIDFORMAT_BEGIN
 90
        0
 91
        1
 62
     0
 92
       -2
340
14
 93
        0
 40
0.045
309
GRIDFORMAT_END
 95
        8
302
GRIDFORMAT
  1
GRIDFORMAT_BEGIN
 90
        0
 91
        1
 62
     0
 92
       -2
340
14
 93
        0
 40
0.045
309
GRIDFORMAT_END
 95
       16
302
GRIDFORMAT
  1
GRIDFORMAT_BEGIN
 90
        0
 91
        1
 62
     0
 92
       -2
340
14
 93
        0
 40
0.045
309
GRIDFORMAT_END
 95
       32
302
GRIDFORMAT
  1
GRIDFORMAT_BEGIN
 90
        0
 91
        1
 62
     0
 92
       -2
340
14
 93
        0
 40
0.045
309
GRIDFORMAT_END
309
TABLEFORMAT_END
  1
CELLSTYLE_BEGIN
 90
        2
 91
        1
300
_HEADER
309
CELLSTYLE_END
300
CELLSTYLE
  1
TABLEFORMAT_BEGIN
 90
        5
170
     1
 91
        0
 92
        0
 62
   257
 93
        1
300
CONTENTFORMAT
  1
CONTENTFORMAT_BEGIN
 90
        0
 91
        0
 92
        4
 93
        0
300

 40
0.0
140
1.0
 94
        2
 62
     0
340
11
144
0.18
309
CONTENTFORMAT_END
171
     1
301
MARGIN
  1
CELLMARGIN_BEGIN
 40
0.06
 40
0.06
 40
0.06
 40
0.06
 40
0.06
 40
0.06
309
CELLMARGIN_END
 94
        6
 95
        1
302
GRIDFORMAT
  1
GRIDFORMAT_BEGIN
 90
        0
 91
        1
 62
     0
 92
       -2
340
14
 93
        0
 40
0.045
309
GRIDFORMAT_END
 95
        2
302
GRIDFORMAT
  1
GRIDFORMAT_BEGIN
 90
        0
 91
        1
 62
     0
 92
       -2
340
14
 93
        0
 40
0.045
309
GRIDFORMAT_END
 95
        4
302
GRIDFORMAT
  1
GRIDFORMAT_BEGIN
 90
        0
 91
        1
 62
     0
 92
       -2
340
14
 93
        0
 40
0.045
309
GRIDFORMAT_END
 95
        8
302
GRIDFORMAT
  1
GRIDFORMAT_BEGIN
 90
        0
 91
        1
 62
     0
 92
       -2
340
14
 93
        0
 40
0.045
309
GRIDFORMAT_END
 95
       16
302
GRIDFORMAT
  1
GRIDFORMAT_BEGIN
 90
        0
 91
        1
 62
     0
 92
       -2
340
14
 93
        0
 40
0.045
309
GRIDFORMAT_END
 95
       32
302
GRIDFORMAT
  1
GRIDFORMAT_BEGIN
 90
        0
 91
        1
 62
     0
 92
       -2
340
14
 93
        0
 40
0.045
309
GRIDFORMAT_END
309
TABLEFORMAT_END
  1
CELLSTYLE_BEGIN
 90
        3
 91
        2
300
_DATA
309
CELLSTYLE_END
  0
XRECORD
  5
488
102
{ACAD_REACTORS
330
487
102
}
330
487
100
AcDbXrecord
280
     1
102
ACAD_ROUNDTRIP_PRE2007_TABLESTYLE
 90
        4
 91
        0
  1

 92
        4
 93
        0
  2

 94
        4
 95
        0
  3

  0
ENDSEC
  0
EOF
