  0
SECTION
  2
HEADER
  9
$ACADVER
  1
AC1015
  9
$ACADMAINTVER
 70
     6
  9
$DWGCODEPAGE
  3
ANSI_1252
  9
$INSBASE
 10
0.0
 20
0.0
 30
0.0
  9
$EXTMIN
 10
0.0
 20
0.0
 30
0.0
  9
$EXTMAX
 10
90.0
 20
120.0
 30
0.0
  9
$LIMMIN
 10
0.0
 20
0.0
  9
$LIMMAX
 10
90.0
 20
120.0
  9
$ORTHOMODE
 70
     0
  9
$REGENMODE
 70
     1
  9
$FILLMODE
 70
     1
  9
$QTEXTMODE
 70
     0
  9
$MIRRTEXT
 70
     1
  9
$LTSCALE
 40
1.0
  9
$ATTMODE
 70
     1
  9
$TEXTSIZE
 40
0.5
  9
$TRACEWID
 40
0.05
  9
$TEXTSTYLE
  7
STANDARD
  9
$CLAYER
  8
0
  9
$CELTYPE
  6
ByLayer
  9
$CECOLOR
 62
   256
  9
$CELTSCALE
 40
1.0
  9
$DISPSILH
 70
     0
  9
$DIMSCALE
 40
1.0
  9
$DIMASZ
 40
0.3
  9
$DIMEXO
 40
0.1666666667
  9
$DIMDLI
 40
0.38
  9
$DIMRND
 40
0.0
  9
$DIMDLE
 40
0.0
  9
$DIMEXE
 40
0.375
  9
$DIMTP
 40
0.0
  9
$DIMTM
 40
0.0
  9
$DIMTXT
 40
0.5
  9
$DIMCEN
 40
0.09
  9
$DIMTSZ
 40
0.0
  9
$DIMTOL
 70
     0
  9
$DIMLIM
 70
     0
  9
$DIMTIH
 70
     1
  9
$DIMTOH
 70
     1
  9
$DIMSE1
 70
     0
  9
$DIMSE2
 70
     0
  9
$DIMTAD
 70
     0
  9
$DIMZIN
 70
     1
  9
$DIMBLK
  1

  9
$DIMASO
 70
     1
  9
$DIMSHO
 70
     1
  9
$DIMPOST
  1

  9
$DIMAPOST
  1

  9
$DIMALT
 70
     0
  9
$DIMALTD
 70
     2
  9
$DIMALTF
 40
25.4
  9
$DIMLFAC
 40
1.0
  9
$DIMTOFL
 70
     0
  9
$DIMTVP
 40
0.0
  9
$DIMTIX
 70
     0
  9
$DIMSOXD
 70
     0
  9
$DIMSAH
 70
     0
  9
$DIMBLK1
  1

  9
$DIMBLK2
  1

  9
$DIMSTYLE
  2
Standard
  9
$DIMCLRD
 70
     0
  9
$DIMCLRE
 70
     0
  9
$DIMCLRT
 70
     0
  9
$DIMTFAC
 40
1.0
  9
$DIMGAP
 40
0.125
  9
$DIMJUST
 70
     0
  9
$DIMSD1
 70
     0
  9
$DIMSD2
 70
     0
  9
$DIMTOLJ
 70
     1
  9
$DIMTZIN
 70
     1
  9
$DIMALTZ
 70
     0
  9
$DIMALTTZ
 70
     0
  9
$DIMUPT
 70
     0
  9
$DIMDEC
 70
     2
  9
$DIMTDEC
 70
     2
  9
$DIMALTU
 70
     2
  9
$DIMALTTD
 70
     2
  9
$DIMTXSTY
  7
STANDARD
  9
$DIMAUNIT
 70
     0
  9
$DIMADEC
 70
     2
  9
$DIMALTRND
 40
0.0
  9
$DIMAZIN
 70
     0
  9
$DIMDSEP
 70
    46
  9
$DIMATFIT
 70
     3
  9
$DIMFRAC
 70
     0
  9
$DIMLDRBLK
  1

  9
$DIMLUNIT
 70
     2
  9
$DIMLWD
 70
    -2
  9
$DIMLWE
 70
    -2
  9
$DIMTMOVE
 70
     0
  9
$LUNITS
 70
     2
  9
$LUPREC
 70
     4
  9
$SKETCHINC
 40
0.1
  9
$FILLETRAD
 40
0.5
  9
$AUNITS
 70
     0
  9
$AUPREC
 70
     2
  9
$MENU
  1
.
  9
$ELEVATION
 40
0.0
  9
$PELEVATION
 40
0.0
  9
$THICKNESS
 40
0.0
  9
$LIMCHECK
 70
     0
  9
$CHAMFERA
 40
0.0
  9
$CHAMFERB
 40
0.0
  9
$CHAMFERC
 40
0.0
  9
$CHAMFERD
 40
0.0
  9
$SKPOLY
 70
     0
  9
$TDCREATE
 40
2459502.590574514
  9
$TDUCREATE
 40
2459502.757241181
  9
$TDUPDATE
 40
2459502.590580984
  9
$TDUUPDATE
 40
2459502.757247651
  9
$TDINDWG
 40
0.0000000116
  9
$TDUSRTIMER
 40
0.0000000116
  9
$USRTIMER
 70
     1
  9
$ANGBASE
 50
0.0
  9
$ANGDIR
 70
     0
  9
$PDMODE
 70
     0
  9
$PDSIZE
 40
-1.0
  9
$PLINEWID
 40
0.0
  9
$SPLFRAME
 70
     0
  9
$SPLINETYPE
 70
     6
  9
$SPLINESEGS
 70
     8
  9
$HANDSEED
  5
457
  9
$SURFTAB1
 70
     6
  9
$SURFTAB2
 70
     6
  9
$SURFTYPE
 70
     6
  9
$SURFU
 70
     6
  9
$SURFV
 70
     6
  9
$UCSBASE
  2

  9
$UCSNAME
  2

  9
$UCSORG
 10
0.0
 20
0.0
 30
0.0
  9
$UCSXDIR
 10
1.0
 20
0.0
 30
0.0
  9
$UCSYDIR
 10
0.0
 20
1.0
 30
0.0
  9
$UCSORTHOREF
  2

  9
$UCSORTHOVIEW
 70
     0
  9
$UCSORGTOP
 10
0.0
 20
0.0
 30
0.0
  9
$UCSORGBOTTOM
 10
0.0
 20
0.0
 30
0.0
  9
$UCSORGLEFT
 10
0.0
 20
0.0
 30
0.0
  9
$UCSORGRIGHT
 10
0.0
 20
0.0
 30
0.0
  9
$UCSORGFRONT
 10
0.0
 20
0.0
 30
0.0
  9
$UCSORGBACK
 10
0.0
 20
0.0
 30
0.0
  9
$PUCSBASE
  2

  9
$PUCSNAME
  2

  9
$PUCSORG
 10
0.0
 20
0.0
 30
0.0
  9
$PUCSXDIR
 10
1.0
 20
0.0
 30
0.0
  9
$PUCSYDIR
 10
0.0
 20
1.0
 30
0.0
  9
$PUCSORTHOREF
  2

  9
$PUCSORTHOVIEW
 70
     0
  9
$PUCSORGTOP
 10
0.0
 20
0.0
 30
0.0
  9
$PUCSORGBOTTOM
 10
0.0
 20
0.0
 30
0.0
  9
$PUCSORGLEFT
 10
0.0
 20
0.0
 30
0.0
  9
$PUCSORGRIGHT
 10
0.0
 20
0.0
 30
0.0
  9
$PUCSORGFRONT
 10
0.0
 20
0.0
 30
0.0
  9
$PUCSORGBACK
 10
0.0
 20
0.0
 30
0.0
  9
$USERI1
 70
     0
  9
$USERI2
 70
     0
  9
$USERI3
 70
     0
  9
$USERI4
 70
     0
  9
$USERI5
 70
     0
  9
$USERR1
 40
0.0
  9
$USERR2
 40
0.0
  9
$USERR3
 40
0.0
  9
$USERR4
 40
0.0
  9
$USERR5
 40
0.0
  9
$WORLDVIEW
 70
     1
  9
$SHADEDGE
 70
     3
  9
$SHADEDIF
 70
    70
  9
$TILEMODE
 70
     1
  9
$MAXACTVP
 70
    64
  9
$PINSBASE
 10
0.0
 20
0.0
 30
0.0
  9
$PLIMCHECK
 70
     0
  9
$PEXTMIN
 10
1.0000000000E+20
 20
1.0000000000E+20
 30
1.0000000000E+20
  9
$PEXTMAX
 10
-1.0000000000E+20
 20
-1.0000000000E+20
 30
-1.0000000000E+20
  9
$PLIMMIN
 10
0.0
 20
0.0
  9
$PLIMMAX
 10
12.0
 20
9.0
  9
$UNITMODE
 70
     0
  9
$VISRETAIN
 70
     1
  9
$PLINEGEN
 70
     0
  9
$PSLTSCALE
 70
     1
  9
$TREEDEPTH
 70
  3020
  9
$CMLSTYLE
  2
Standard
  9
$CMLJUST
 70
     0
  9
$CMLSCALE
 40
1.0
  9
$PROXYGRAPHICS
 70
     1
  9
$MEASUREMENT
 70
     0
  9
$CELWEIGHT
370
    -1
  9
$ENDCAPS
280
     0
  9
$JOINSTYLE
280
     0
  9
$LWDISPLAY
290
     1
  9
$INSUNITS
 70
     1
  9
$HYPERLINKBASE
  1

  9
$STYLESHEET
  1

  9
$XEDIT
290
     1
  9
$CEPSNTYPE
380
     0
  9
$PSTYLEMODE
290
     1
  9
$FINGERPRINTGUID
  2
{206dac25-6df5-424f-bdaa-c88a039c97da}
  9
$VERSIONGUID
  2
{FAEB1C32-E019-11D5-929B-00C0DF256EC4}
  9
$EXTNAMES
290
     1
  9
$PSVPSCALE
 40
0.0
  9
$OLESTARTUP
290
     0
  0
ENDSEC
  0
SECTION
  2
CLASSES
  0
CLASS
  1
ACDBDICTIONARYWDFLT
  2
AcDbDictionaryWithDefault
  3
ObjectDBX Classes
 90
        0
280
     0
281
     0
  0
CLASS
  1
VISUALSTYLE
  2
AcDbVisualStyle
  3
ObjectDBX Classes
 90
     4095
280
     0
281
     0
  0
CLASS
  1
MATERIAL
  2
AcDbMaterial
  3
ObjectDBX Classes
 90
     1153
280
     0
281
     0
  0
CLASS
  1
SCALE
  2
AcDbScale
  3
ObjectDBX Classes
 90
     1153
280
     0
281
     0
  0
CLASS
  1
TABLESTYLE
  2
AcDbTableStyle
  3
ObjectDBX Classes
 90
     4095
280
     0
281
     0
  0
CLASS
  1
MLEADERSTYLE
  2
AcDbMLeaderStyle
  3
ACDB_MLEADERSTYLE_CLASS
 90
     4095
280
     0
281
     0
  0
CLASS
  1
SUN
  2
AcDbSun
  3
SCENEOE
 90
     1153
280
     0
281
     0
  0
CLASS
  1
ACDBPLACEHOLDER
  2
AcDbPlaceHolder
  3
ObjectDBX Classes
 90
        0
280
     0
281
     0
  0
CLASS
  1
LAYOUT
  2
AcDbLayout
  3
ObjectDBX Classes
 90
        0
280
     0
281
     0
  0
ENDSEC
  0
SECTION
  2
TABLES
  0
TABLE
  2
VPORT
  5
8
330
0
100
AcDbSymbolTable
 70
     1
  0
VPORT
  5
29
330
8
100
AcDbSymbolTableRecord
100
AcDbViewportTableRecord
  2
*Active
 70
     0
 10
0.0
 20
0.0
 11
1.0
 21
1.0
 12
45.0
 22
60.0
 13
0.0
 23
0.0
 14
0.5
 24
0.5
 15
0.5
 25
0.5
 16
0.0
 26
0.0
 36
1.0
 17
0.0
 27
0.0
 37
0.0
 40
120.0
 41
0.75
 42
50.0
 43
0.0
 44
0.0
 50
0.0
 51
0.0
 71
     0
 72
  2000
 73
     1
 74
     3
 75
     0
 76
     0
 77
     0
 78
     0
281
     0
 65
     1
110
0.0
120
0.0
130
0.0
111
1.0
121
0.0
131
0.0
112
0.0
122
1.0
132
0.0
 79
     0
146
0.0
  0
ENDTAB
  0
TABLE
  2
LTYPE
  5
5
330
0
100
AcDbSymbolTable
 70
     8
  0
LTYPE
  5
14
330
5
100
AcDbSymbolTableRecord
100
AcDbLinetypeTableRecord
  2
ByBlock
 70
     0
  3

 72
    65
 73
     0
 40
0.0
  0
LTYPE
  5
15
330
5
100
AcDbSymbolTableRecord
100
AcDbLinetypeTableRecord
  2
ByLayer
 70
     0
  3

 72
    65
 73
     0
 40
0.0
  0
LTYPE
  5
16
330
5
100
AcDbSymbolTableRecord
100
AcDbLinetypeTableRecord
  2
Continuous
 70
     0
  3
Solid line
 72
    65
 73
     0
 40
0.0
  0
LTYPE
  5
6E
330
5
100
AcDbSymbolTableRecord
100
AcDbLinetypeTableRecord
  2
SLD-Solid
 70
     0
  3
SolidWorks Line Style
 72
    65
 73
     0
 40
0.0
  0
LTYPE
  5
6F
330
5
100
AcDbSymbolTableRecord
100
AcDbLinetypeTableRecord
  2
SLD-Dashed
 70
     0
  3
SolidWorks Line Style
 72
    65
 73
     2
 40
0.075
 49
0.05
 74
     0
 49
-0.025
 74
     0
  0
LTYPE
  5
70
330
5
100
AcDbSymbolTableRecord
100
AcDbLinetypeTableRecord
  2
SLD-Phantom
 70
     0
  3
SolidWorks Line Style
 72
    65
 73
     6
 40
0.5
 49
0.25
 74
     0
 49
-0.05
 74
     0
 49
0.05
 74
     0
 49
-0.05
 74
     0
 49
0.05
 74
     0
 49
-0.05
 74
     0
  0
LTYPE
  5
71
330
5
100
AcDbSymbolTableRecord
100
AcDbLinetypeTableRecord
  2
SLD-Chain
 70
     0
  3
SolidWorks Line Style
 72
    65
 73
     4
 40
0.4
 49
0.25
 74
     0
 49
-0.05
 74
     0
 49
0.05
 74
     0
 49
-0.05
 74
     0
  0
LTYPE
  5
72
330
5
100
AcDbSymbolTableRecord
100
AcDbLinetypeTableRecord
  2
SLD-Center
 70
     0
  3
SolidWorks Line Style
 72
    65
 73
     4
 40
0.75
 49
0.6
 74
     0
 49
-0.05
 74
     0
 49
0.05
 74
     0
 49
-0.05
 74
     0
  0
LTYPE
  5
73
330
5
100
AcDbSymbolTableRecord
100
AcDbLinetypeTableRecord
  2
SLD-Stitch
 70
     0
  3
SolidWorks Line Style
 72
    65
 73
     2
 40
0.025
 49
0.0
 74
     0
 49
-0.025
 74
     0
  0
LTYPE
  5
74
330
5
100
AcDbSymbolTableRecord
100
AcDbLinetypeTableRecord
  2
SLD-Thin-Thick-Chain
 70
     0
  3
SolidWorks Line Style
 72
    65
 73
     4
 40
0.4
 49
0.25
 74
     0
 49
-0.05
 74
     0
 49
0.05
 74
     0
 49
-0.05
 74
     0
  0
ENDTAB
  0
TABLE
  2
LAYER
  5
2
330
0
100
AcDbSymbolTable
 70
     6
  0
LAYER
  5
10
330
2
100
AcDbSymbolTableRecord
100
AcDbLayerTableRecord
  2
0
 70
     0
 62
     7
  6
Continuous
370
    -3
390
F
  0
LAYER
  5
75
330
2
100
AcDbSymbolTableRecord
100
AcDbLayerTableRecord
  2
FORMAT
 70
     0
 62
     7
  6
SLD-Solid
370
    -3
390
F
  0
LAYER
  5
76
330
2
100
AcDbSymbolTableRecord
100
AcDbLayerTableRecord
  2
NOTES
 70
     0
 62
     1
  6
SLD-Solid
370
    -3
390
F
  0
LAYER
  5
77
330
2
100
AcDbSymbolTableRecord
100
AcDbLayerTableRecord
  2
OBJECT
 70
     0
 62
     7
  6
SLD-Solid
370
    25
390
F
  0
LAYER
  5
78
330
2
100
AcDbSymbolTableRecord
100
AcDbLayerTableRecord
  2
DIMS
 70
     0
 62
     5
  6
SLD-Solid
370
    -3
390
F
  0
LAYER
  5
79
330
2
100
AcDbSymbolTableRecord
100
AcDbLayerTableRecord
  2
TITLE
 70
     0
 62
     8
  6
SLD-Solid
370
    -3
390
F
  0
ENDTAB
  0
TABLE
  2
STYLE
  5
3
330
0
100
AcDbSymbolTable
 70
     5
  0
STYLE
  5
11
330
3
100
AcDbSymbolTableRecord
100
AcDbTextStyleTableRecord
  2
STANDARD
 70
     0
 40
0.0
 41
1.0
 50
0.0
 71
     0
 42
0.5
  3
GOTHIC.TTF
  4

1001
ACAD
1000
CENTURY GOTHIC
1071
       34
  0
STYLE
  5
15D
330
3
100
AcDbSymbolTableRecord
100
AcDbTextStyleTableRecord
  2
SLDTEXTSTYLE0
 70
     0
 40
0.0
 41
0.948
 50
0.0
 71
     0
 42
0.5
  3
ARIAL.TTF
  4

1001
ACAD
1000
Arial
1071
      290
  0
STYLE
  5
161
330
3
100
AcDbSymbolTableRecord
100
AcDbTextStyleTableRecord
  2
SLDTEXTSTYLE1
 70
     0
 40
0.0
 41
0.913
 50
0.0
 71
     0
 42
0.5
  3
GOTHIC.TTF
  4

1001
ACAD
1000
Century Gothic
1071
      290
  0
STYLE
  5
170
330
3
100
AcDbSymbolTableRecord
100
AcDbTextStyleTableRecord
  2
SLDTEXTSTYLE2
 70
     0
 40
0.0
 41
0.87
 50
0.0
 71
     0
 42
0.5
  3
ARIALNB.TTF
  4

1001
ACAD
1000
Arial Narrow
1071
 33554722
  0
STYLE
  5
172
330
3
100
AcDbSymbolTableRecord
100
AcDbTextStyleTableRecord
  2
SLDTEXTSTYLE3
 70
     0
 40
0.0
 41
0.87
 50
0.0
 71
     0
 42
0.5
  3
ARIALN.TTF
  4

1001
ACAD
1000
Arial Narrow
1071
      290
  0
ENDTAB
  0
TABLE
  2
VIEW
  5
6
330
0
100
AcDbSymbolTable
 70
     0
  0
ENDTAB
  0
TABLE
  2
UCS
  5
7
330
0
100
AcDbSymbolTable
 70
     0
  0
ENDTAB
  0
TABLE
  2
APPID
  5
9
330
0
100
AcDbSymbolTable
 70
     1
  0
APPID
  5
12
330
9
100
AcDbSymbolTableRecord
100
AcDbRegAppTableRecord
  2
ACAD
 70
     0
  0
ENDTAB
  0
TABLE
  2
DIMSTYLE
  5
A
330
0
100
AcDbSymbolTable
 70
     4
100
AcDbDimStyleTable
  0
DIMSTYLE
105
27
330
A
100
AcDbSymbolTableRecord
100
AcDbDimStyleTableRecord
  2
Standard
 70
     0
178
     0
340
11
  0
DIMSTYLE
105
29E
102
{ACAD_REACTORS
330
29D
330
2B3
330
2C2
330
372
330
3DE
102
}
330
A
100
AcDbSymbolTableRecord
100
AcDbDimStyleTableRecord
  2
SLDDIMSTYLE0
 70
     0
 41
0.3
 44
0.0
 45
0.000000001
 78
    12
 79
     3
140
0.5
147
0.125
173
     1
178
     0
271
     6
272
     2
276
     2
277
     5
284
    12
340
161
341
29F
343
29F
344
29F
  0
DIMSTYLE
105
2D3
102
{ACAD_REACTORS
330
2D2
330
3ED
102
}
330
A
100
AcDbSymbolTableRecord
100
AcDbDimStyleTableRecord
  2
SLDDIMSTYLE1
 70
     0
 41
0.3
 44
0.0
 45
0.000000001
 78
    12
 79
     3
140
0.5
147
0.125
172
     1
173
     1
178
     0
271
     6
272
     2
276
     2
277
     5
284
    12
289
     0
340
161
341
29F
343
29F
344
29F
  0
DIMSTYLE
105
2E6
330
A
100
AcDbSymbolTableRecord
100
AcDbDimStyleTableRecord
  2
SLDDIMSTYLE2
 70
     0
 41
0.3
 44
0.0
 45
0.000000001
146
0.3
147
0.0
173
     1
178
     0
271
     0
272
     0
276
     2
277
     5
340
11
341
29F
343
29F
344
29F
  0
ENDTAB
  0
TABLE
  2
BLOCK_RECORD
  5
1
330
0
100
AcDbSymbolTable
 70
    18
  0
BLOCK_RECORD
  5
1F
330
1
100
AcDbSymbolTableRecord
100
AcDbBlockTableRecord
  2
*Model_Space
340
22
  0
BLOCK_RECORD
  5
1B
330
1
100
AcDbSymbolTableRecord
100
AcDbBlockTableRecord
  2
*Paper_Space
340
1E
  0
BLOCK_RECORD
  5
23
330
1
100
AcDbSymbolTableRecord
100
AcDbBlockTableRecord
  2
*Paper_Space0
340
26
  0
BLOCK_RECORD
  5
167
330
1
100
AcDbSymbolTableRecord
100
AcDbBlockTableRecord
  2
SW_NOTE_0
340
0
102
{BLKREFS
331
16C
102
}
  0
BLOCK_RECORD
  5
16D
330
1
100
AcDbSymbolTableRecord
100
AcDbBlockTableRecord
  2
SW_NOTE_0_1
340
0
102
{BLKREFS
331
176
102
}
  0
BLOCK_RECORD
  5
29F
330
1
100
AcDbSymbolTableRecord
100
AcDbBlockTableRecord
  2
_Open90
340
0
102
{BLKREFS
331
2A8
331
2A9
331
2B7
331
2B8
331
2C6
331
2C7
331
2D7
331
2D8
331
376
331
377
331
3E2
331
3E3
331
3F1
331
3F2
102
}
  0
BLOCK_RECORD
  5
2A5
330
1
100
AcDbSymbolTableRecord
100
AcDbBlockTableRecord
  2
_D
340
0
  0
BLOCK_RECORD
  5
2B4
330
1
100
AcDbSymbolTableRecord
100
AcDbBlockTableRecord
  2
_D_1
340
0
  0
BLOCK_RECORD
  5
2C3
330
1
100
AcDbSymbolTableRecord
100
AcDbBlockTableRecord
  2
_D_2
340
0
  0
BLOCK_RECORD
  5
2D4
330
1
100
AcDbSymbolTableRecord
100
AcDbBlockTableRecord
  2
_D_3
340
0
  0
BLOCK_RECORD
  5
2E1
330
1
100
AcDbSymbolTableRecord
100
AcDbBlockTableRecord
  2
SW_NOTE_0_2
340
0
102
{BLKREFS
331
2E5
102
}
  0
BLOCK_RECORD
  5
2E8
330
1
100
AcDbSymbolTableRecord
100
AcDbBlockTableRecord
  2
SW_NOTE_0_3
340
0
102
{BLKREFS
331
2EC
102
}
  0
BLOCK_RECORD
  5
2EE
330
1
100
AcDbSymbolTableRecord
100
AcDbBlockTableRecord
  2
SW_NOTE_0_4
340
0
102
{BLKREFS
331
2F2
102
}
  0
BLOCK_RECORD
  5
2F4
330
1
100
AcDbSymbolTableRecord
100
AcDbBlockTableRecord
  2
SW_NOTE_0_5
340
0
102
{BLKREFS
331
2F8
102
}
  0
BLOCK_RECORD
  5
361
330
1
100
AcDbSymbolTableRecord
100
AcDbBlockTableRecord
  2
SW_NOTE_0_6
340
0
102
{BLKREFS
331
366
102
}
  0
BLOCK_RECORD
  5
373
330
1
100
AcDbSymbolTableRecord
100
AcDbBlockTableRecord
  2
_D_4
340
0
  0
BLOCK_RECORD
  5
3DF
330
1
100
AcDbSymbolTableRecord
100
AcDbBlockTableRecord
  2
_D_5
340
0
  0
BLOCK_RECORD
  5
3EE
330
1
100
AcDbSymbolTableRecord
100
AcDbBlockTableRecord
  2
_D_6
340
0
  0
BLOCK_RECORD
  5
3FB
330
1
100
AcDbSymbolTableRecord
100
AcDbBlockTableRecord
  2
SW_NOTE_0_7
340
0
102
{BLKREFS
331
400
102
}
  0
BLOCK_RECORD
  5
450
330
1
100
AcDbSymbolTableRecord
100
AcDbBlockTableRecord
  2
SW_NOTE_0_8
340
0
102
{BLKREFS
331
455
102
}
  0
ENDTAB
  0
ENDSEC
  0
SECTION
  2
BLOCKS
  0
BLOCK
  5
20
330
1F
100
AcDbEntity
  8
0
100
AcDbBlockBegin
  2
*Model_Space
 70
     0
 10
0.0
 20
0.0
 30
0.0
  3
*Model_Space
  1

  0
ENDBLK
  5
21
330
1F
100
AcDbEntity
  8
0
100
AcDbBlockEnd
  0
BLOCK
  5
1C
330
1B
100
AcDbEntity
 67
     1
  8
0
100
AcDbBlockBegin
  2
*Paper_Space
 70
     0
 10
0.0
 20
0.0
 30
0.0
  3
*Paper_Space
  1

  0
ENDBLK
  5
1D
330
1B
100
AcDbEntity
 67
     1
  8
0
100
AcDbBlockEnd
  0
BLOCK
  5
24
330
23
100
AcDbEntity
  8
0
100
AcDbBlockBegin
  2
*Paper_Space0
 70
     0
 10
0.0
 20
0.0
 30
0.0
  3
*Paper_Space0
  1

  0
ENDBLK
  5
25
330
23
100
AcDbEntity
  8
0
100
AcDbBlockEnd
  0
BLOCK
  5
168
330
167
100
AcDbEntity
  8
0
100
AcDbBlockBegin
  2
SW_NOTE_0
 70
     0
 10
0.0
 20
0.0
 30
0.0
  3
SW_NOTE_0
  1

  0
MTEXT
  5
16A
330
167
100
AcDbEntity
  8
NOTES
 62
     0
100
AcDbMText
 10
0.0
 20
0.3759780908
 30
0.0
 40
0.2916666667
 41
0.0
 71
     1
 72
     1
  1
FROST PRODUCTS LTD.
  7
SLDTEXTSTYLE0
 73
     1
 44
1.0
  0
MTEXT
  5
16B
330
167
100
AcDbEntity
  8
NOTES
 62
     0
100
AcDbMText
 10
0.0
 20
-0.0495142709
 30
0.0
 40
0.2291666667
 41
0.0
 71
     1
 72
     1
  1
5280 JOHN LUCAS DRIVE, BURLINGTON, ON, L7L 5Z9
  7
SLDTEXTSTYLE0
 73
     1
 44
1.0
  0
ENDBLK
  5
169
330
167
100
AcDbEntity
  8
0
100
AcDbBlockEnd
  0
BLOCK
  5
16E
330
16D
100
AcDbEntity
  8
0
100
AcDbBlockBegin
  2
SW_NOTE_0_1
 70
     0
 10
0.0
 20
0.0
 30
0.0
  3
SW_NOTE_0_1
  1

  0
MTEXT
  5
171
330
16D
100
AcDbEntity
  8
NOTES
 62
     0
100
AcDbMText
 10
0.0
 20
0.2381282771
 30
0.0
 40
0.184729064
 41
0.0
 71
     1
 72
     1
  1
PROPRIETARY AND CONFIDENTIAL
  7
SLDTEXTSTYLE2
 73
     1
 44
1.0
  0
MTEXT
  5
173
330
16D
100
AcDbEntity
  8
NOTES
 62
     0
100
AcDbMText
 10
0.0
 20
-0.0504364796
 30
0.0
 40
0.25
 41
0.0
 71
     1
 72
     1
  1
THE INFORMATION CONTAINED IN THIS DRAWING IS THE SOLE PROPERTY OF 
  7
SLDTEXTSTYLE3
 73
     1
 44
1.0
  0
MTEXT
  5
174
330
16D
100
AcDbEntity
  8
NOTES
 62
     0
100
AcDbMText
 10
0.0
 20
-0.4231398941
 30
0.0
 40
0.25
 41
0.0
 71
     1
 72
     1
  1
FROST PRODUCTS LTD.  ANY REPRODUCTION IN PART OR AS A WHOLE WITHOUT 
  7
SLDTEXTSTYLE3
 73
     1
 44
1.0
  0
MTEXT
  5
175
330
16D
100
AcDbEntity
  8
NOTES
 62
     0
100
AcDbMText
 10
0.0
 20
-0.7958433086
 30
0.0
 40
0.25
 41
0.0
 71
     1
 72
     1
  1
THE WRITTEN PERMISSION OF FROST PRODUCTS LTD. IS PROHIBITED.
  7
SLDTEXTSTYLE3
 73
     1
 44
1.0
  0
ENDBLK
  5
16F
330
16D
100
AcDbEntity
  8
0
100
AcDbBlockEnd
  0
BLOCK
  5
2A0
330
29F
100
AcDbEntity
  8
0
100
AcDbBlockBegin
  2
_Open90
 70
     0
 10
0.0
 20
0.0
 30
0.0
  3
_Open90
  1

  0
LINE
  5
2A2
330
29F
100
AcDbEntity
  8
0
  6
ByBlock
 62
     0
370
    -2
100
AcDbLine
 10
-0.5
 20
0.5
 30
0.0
 11
0.0
 21
0.0
 31
0.0
  0
LINE
  5
2A3
330
29F
100
AcDbEntity
  8
0
  6
ByBlock
 62
     0
370
    -2
100
AcDbLine
 10
0.0
 20
0.0
 30
0.0
 11
-0.5
 21
-0.5
 31
0.0
  0
LINE
  5
2A4
330
29F
100
AcDbEntity
  8
0
  6
ByBlock
 62
     0
370
    -2
100
AcDbLine
 10
0.0
 20
0.0
 30
0.0
 11
-1.0
 21
0.0
 31
0.0
  0
ENDBLK
  5
2A1
330
29F
100
AcDbEntity
  8
0
100
AcDbBlockEnd
  0
BLOCK
  5
2A6
330
2A5
100
AcDbEntity
  8
0
100
AcDbBlockBegin
  2
_D
 70
     0
 10
0.0
 20
0.0
 30
0.0
  3
_D
  1

  0
INSERT
  5
2A8
330
2A5
100
AcDbEntity
  8
DIMS
100
AcDbBlockReference
  2
_Open90
 10
14.2144379525
 20
50.5856367377
 30
-1.7836492697
 41
0.3
 42
0.3
 50
90.0
  0
INSERT
  5
2A9
330
2A5
100
AcDbEntity
  8
DIMS
100
AcDbBlockReference
  2
_Open90
 10
14.2144379525
 20
46.6506367377
 30
-1.7836492697
 41
0.3
 42
0.3
 50
270.0
  0
LINE
  5
2AA
330
2A5
100
AcDbEntity
  8
DIMS
100
AcDbLine
 10
13.8533268457
 20
48.3980858914
 30
0.0
 11
14.7387435407
 21
48.3980858914
 31
0.0
  0
LINE
  5
2AB
330
2A5
100
AcDbEntity
  8
DIMS
100
AcDbLine
 10
15.5448337745
 20
50.5856367377
 30
0.0
 11
13.8394379525
 21
50.5856367377
 31
0.0
  0
LINE
  5
2AC
330
2A5
100
AcDbEntity
  8
DIMS
100
AcDbLine
 10
15.0598337745
 20
46.6506367377
 30
0.0
 11
13.8394379525
 21
46.6506367377
 31
0.0
  0
LINE
  5
2AD
330
2A5
100
AcDbEntity
  8
DIMS
100
AcDbLine
 10
14.2144379525
 20
50.5856367377
 30
0.0
 11
14.2144379525
 21
49.0006553463
 31
0.0
  0
LINE
  5
2AE
330
2A5
100
AcDbEntity
  8
DIMS
100
AcDbLine
 10
14.2144379525
 20
46.6506367377
 30
0.0
 11
14.2144379525
 21
47.6929470397
 31
0.0
  0
MTEXT
  5
2AF
330
2A5
100
AcDbEntity
  8
DIMS
100
AcDbMText
 10
13.4106184983
 20
48.6274869518
 30
0.0
 40
0.5
 41
0.0
 71
     1
 72
     1
  1
3
  7
SLDTEXTSTYLE1
 73
     1
 44
1.0
  0
MTEXT
  5
2B0
330
2A5
100
AcDbEntity
  8
DIMS
100
AcDbMText
 10
13.9265907477
 20
48.9927994509
 30
0.0
 40
0.5
 41
0.0
 71
     1
 72
     1
  1
15
  7
SLDTEXTSTYLE1
 73
     1
 44
1.0
  0
MTEXT
  5
2B1
330
2A5
100
AcDbEntity
  8
DIMS
100
AcDbMText
 10
13.9265907477
 20
48.3316188723
 30
0.0
 40
0.5
 41
0.0
 71
     1
 72
     1
  1
16
  7
SLDTEXTSTYLE1
 73
     1
 44
1.0
  0
MTEXT
  5
2B2
330
2A5
100
AcDbEntity
  8
DIMS
100
AcDbMText
 10
14.8120074426
 20
48.6274869518
 30
0.0
 40
0.5
 41
0.0
 71
     1
 72
     1
  1
"
  7
SLDTEXTSTYLE1
 73
     1
 44
1.0
  0
ENDBLK
  5
2A7
330
2A5
100
AcDbEntity
  8
0
100
AcDbBlockEnd
  0
BLOCK
  5
2B5
330
2B4
100
AcDbEntity
  8
0
100
AcDbBlockBegin
  2
_D_1
 70
     0
 10
0.0
 20
0.0
 30
0.0
  3
_D_1
  1

  0
INSERT
  5
2B7
330
2B4
100
AcDbEntity
  8
DIMS
100
AcDbBlockReference
  2
_Open90
 10
12.8941972915
 20
50.5856367377
 30
-1.7836492697
 41
0.3
 42
0.3
 50
90.0
  0
INSERT
  5
2B8
330
2B4
100
AcDbEntity
  8
DIMS
100
AcDbBlockReference
  2
_Open90
 10
12.8941972915
 20
32.9441367377
 30
-1.7836492697
 41
0.3
 42
0.3
 50
270.0
  0
LINE
  5
2B9
330
2B4
100
AcDbEntity
  8
DIMS
100
AcDbLine
 10
12.9025306303
 20
41.8453141106
 30
0.0
 11
13.4185028797
 21
41.8453141106
 31
0.0
  0
LINE
  5
2BA
330
2B4
100
AcDbEntity
  8
DIMS
100
AcDbLine
 10
15.5448337745
 20
50.5856367377
 30
0.0
 11
12.5191972915
 21
50.5856367377
 31
0.0
  0
LINE
  5
2BB
330
2B4
100
AcDbEntity
  8
DIMS
100
AcDbLine
 10
14.5023337745
 20
32.9441367377
 30
0.0
 11
12.5191972915
 21
32.9441367377
 31
0.0
  0
LINE
  5
2BC
330
2B4
100
AcDbEntity
  8
DIMS
100
AcDbLine
 10
12.8941972915
 20
50.5856367377
 30
0.0
 11
12.8941972915
 21
42.4478835655
 31
0.0
  0
LINE
  5
2BD
330
2B4
100
AcDbEntity
  8
DIMS
100
AcDbLine
 10
12.8941972915
 20
32.9441367377
 30
0.0
 11
12.8941972915
 21
41.1401752589
 31
0.0
  0
MTEXT
  5
2BE
330
2B4
100
AcDbEntity
  8
DIMS
100
AcDbMText
 10
12.0903778373
 20
42.074715171
 30
0.0
 40
0.5
 41
0.0
 71
     1
 72
     1
  1
17
  7
SLDTEXTSTYLE1
 73
     1
 44
1.0
  0
MTEXT
  5
2BF
330
2B4
100
AcDbEntity
  8
DIMS
100
AcDbMText
 10
12.9757945323
 20
42.4400276701
 30
0.0
 40
0.5
 41
0.0
 71
     1
 72
     1
  1
5
  7
SLDTEXTSTYLE1
 73
     1
 44
1.0
  0
MTEXT
  5
2C0
330
2B4
100
AcDbEntity
  8
DIMS
100
AcDbMText
 10
12.9757945323
 20
41.7788470915
 30
0.0
 40
0.5
 41
0.0
 71
     1
 72
     1
  1
8
  7
SLDTEXTSTYLE1
 73
     1
 44
1.0
  0
MTEXT
  5
2C1
330
2B4
100
AcDbEntity
  8
DIMS
100
AcDbMText
 10
13.4917667817
 20
42.074715171
 30
0.0
 40
0.5
 41
0.0
 71
     1
 72
     1
  1
"
  7
SLDTEXTSTYLE1
 73
     1
 44
1.0
  0
ENDBLK
  5
2B6
330
2B4
100
AcDbEntity
  8
0
100
AcDbBlockEnd
  0
BLOCK
  5
2C4
330
2C3
100
AcDbEntity
  8
0
100
AcDbBlockBegin
  2
_D_2
 70
     0
 10
0.0
 20
0.0
 30
0.0
  3
_D_2
  1

  0
INSERT
  5
2C6
330
2C3
100
AcDbEntity
  8
DIMS
100
AcDbBlockReference
  2
_Open90
 10
17.4406713453
 20
50.5856367377
 30
-1.7836492697
 41
0.3
 42
0.3
 50
90.0
  0
INSERT
  5
2C7
330
2C3
100
AcDbEntity
  8
DIMS
100
AcDbBlockReference
  2
_Open90
 10
17.4406713453
 20
49.4806367377
 30
-1.7836492697
 41
0.3
 42
0.3
 50
270.0
  0
LINE
  5
2C8
330
2C3
100
AcDbEntity
  8
DIMS
100
AcDbLine
 10
18.1833796927
 20
49.0322134811
 30
0.0
 11
18.6993519422
 21
49.0322134811
 31
0.0
  0
LINE
  5
2C9
330
2C3
100
AcDbEntity
  8
DIMS
100
AcDbLine
 10
16.6681671078
 20
50.5856367377
 30
0.0
 11
17.8156713453
 21
50.5856367377
 31
0.0
  0
LINE
  5
2CA
330
2C3
100
AcDbEntity
  8
DIMS
100
AcDbLine
 10
16.9631671078
 20
49.4806367377
 30
0.0
 11
17.8156713453
 21
49.4806367377
 31
0.0
  0
LINE
  5
2CB
330
2C3
100
AcDbEntity
  8
DIMS
100
AcDbLine
 10
17.7406713453
 20
48.9809287827
 30
0.0
 11
17.4406713453
 21
48.9809287827
 31
0.0
  0
LINE
  5
2CC
330
2C3
100
AcDbEntity
  8
DIMS
100
AcDbLine
 10
17.4406713453
 20
48.9809287827
 30
0.0
 11
17.4406713453
 21
49.4806367377
 31
0.0
  0
LINE
  5
2CD
330
2C3
100
AcDbEntity
  8
DIMS
100
AcDbLine
 10
17.4406713453
 20
50.5856367377
 30
0.0
 11
17.4406713453
 21
49.4806367377
 31
0.0
  0
MTEXT
  5
2CE
330
2C3
100
AcDbEntity
  8
DIMS
100
AcDbMText
 10
17.7406713453
 20
49.2616145415
 30
0.0
 40
0.5
 41
0.0
 71
     1
 72
     1
  1
1
  7
SLDTEXTSTYLE1
 73
     1
 44
1.0
  0
MTEXT
  5
2CF
330
2C3
100
AcDbEntity
  8
DIMS
100
AcDbMText
 10
18.2566435947
 20
49.6269270405
 30
0.0
 40
0.5
 41
0.0
 71
     1
 72
     1
  1
1
  7
SLDTEXTSTYLE1
 73
     1
 44
1.0
  0
MTEXT
  5
2D0
330
2C3
100
AcDbEntity
  8
DIMS
100
AcDbMText
 10
18.2566435947
 20
48.965746462
 30
0.0
 40
0.5
 41
0.0
 71
     1
 72
     1
  1
8
  7
SLDTEXTSTYLE1
 73
     1
 44
1.0
  0
MTEXT
  5
2D1
330
2C3
100
AcDbEntity
  8
DIMS
100
AcDbMText
 10
18.7726158441
 20
49.2616145415
 30
0.0
 40
0.5
 41
0.0
 71
     1
 72
     1
  1
"
  7
SLDTEXTSTYLE1
 73
     1
 44
1.0
  0
ENDBLK
  5
2C5
330
2C3
100
AcDbEntity
  8
0
100
AcDbBlockEnd
  0
BLOCK
  5
2D5
330
2D4
100
AcDbEntity
  8
0
100
AcDbBlockBegin
  2
_D_3
 70
     0
 10
0.0
 20
0.0
 30
0.0
  3
_D_3
  1

  0
INSERT
  5
2D7
330
2D4
100
AcDbEntity
  8
DIMS
100
AcDbBlockReference
  2
_Open90
 10
16.5655004412
 20
45.0523082712
 30
-1.7836492697
 41
0.3
 42
0.3
 50
180.0
  0
INSERT
  5
2D8
330
2D4
100
AcDbEntity
  8
DIMS
100
AcDbBlockReference
  2
_Open90
 10
15.6475004412
 20
45.0523082712
 30
-1.7836492697
 41
0.3
 42
0.3
 50
0.0
  0
LINE
  5
2D9
330
2D4
100
AcDbEntity
  8
DIMS
100
AcDbLine
 10
13.670277093
 20
45.1035929696
 30
0.0
 11
14.5556937879
 21
45.1035929696
 31
0.0
  0
LINE
  5
2DA
330
2D4
100
AcDbEntity
  8
DIMS
100
AcDbLine
 10
16.5655004412
 20
45.0523082712
 30
0.0
 11
16.8655004412
 21
45.0523082712
 31
0.0
  0
LINE
  5
2DB
330
2D4
100
AcDbEntity
  8
DIMS
100
AcDbLine
 10
15.6475004412
 20
45.0523082712
 30
0.0
 11
14.8352076539
 21
45.0523082712
 31
0.0
  0
MTEXT
  5
2DC
330
2D4
100
AcDbEntity
  8
DIMS
100
AcDbMText
 10
12.8429507087
 20
45.3253551407
 30
0.0
 40
0.5
 41
0.0
 71
     1
 72
     1
  1
%%c
  7
SLDTEXTSTYLE1
 73
     1
 44
1.0
  0
MTEXT
  5
2DD
330
2D4
100
AcDbEntity
  8
DIMS
100
AcDbMText
 10
13.743540995
 20
45.698306529
 30
0.0
 40
0.5
 41
0.0
 71
     1
 72
     1
  1
15
  7
SLDTEXTSTYLE1
 73
     1
 44
1.0
  0
MTEXT
  5
2DE
330
2D4
100
AcDbEntity
  8
DIMS
100
AcDbMText
 10
13.743540995
 20
45.0371259505
 30
0.0
 40
0.5
 41
0.0
 71
     1
 72
     1
  1
16
  7
SLDTEXTSTYLE1
 73
     1
 44
1.0
  0
MTEXT
  5
2DF
330
2D4
100
AcDbEntity
  8
DIMS
100
AcDbMText
 10
14.6289576899
 20
45.33299403
 30
0.0
 40
0.5
 41
0.0
 71
     1
 72
     1
  1
"
  7
SLDTEXTSTYLE1
 73
     1
 44
1.0
  0
ENDBLK
  5
2D6
330
2D4
100
AcDbEntity
  8
0
100
AcDbBlockEnd
  0
BLOCK
  5
2E2
330
2E1
100
AcDbEntity
  8
0
100
AcDbBlockBegin
  2
SW_NOTE_0_2
 70
     0
 10
0.0
 20
0.0
 30
0.0
  3
SW_NOTE_0_2
  1

  0
MTEXT
  5
2E4
330
2E1
100
AcDbEntity
  8
0
  6
Continuous
 62
     0
370
     0
100
AcDbMText
 10
0.0230187439
 20
0.2431111594
 30
0.0
 40
0.5
 41
0.0
 71
     1
 72
     1
  1
Stainless steel washer
  7
SLDTEXTSTYLE1
 73
     1
 44
1.0
  0
ENDBLK
  5
2E3
330
2E1
100
AcDbEntity
  8
0
100
AcDbBlockEnd
  0
BLOCK
  5
2E9
330
2E8
100
AcDbEntity
  8
0
100
AcDbBlockBegin
  2
SW_NOTE_0_3
 70
     0
 10
0.0
 20
0.0
 30
0.0
  3
SW_NOTE_0_3
  1

  0
MTEXT
  5
2EB
330
2E8
100
AcDbEntity
  8
0
  6
Continuous
 62
     0
370
     0
100
AcDbMText
 10
0.0205975274
 20
0.2422669384
 30
0.0
 40
0.5
 41
0.0
 71
     1
 72
     1
  1
Rubber washer
  7
SLDTEXTSTYLE1
 73
     1
 44
1.0
  0
ENDBLK
  5
2EA
330
2E8
100
AcDbEntity
  8
0
100
AcDbBlockEnd
  0
BLOCK
  5
2EF
330
2EE
100
AcDbEntity
  8
0
100
AcDbBlockBegin
  2
SW_NOTE_0_4
 70
     0
 10
0.0
 20
0.0
 30
0.0
  3
SW_NOTE_0_4
  1

  0
MTEXT
  5
2F1
330
2EE
100
AcDbEntity
  8
0
  6
Continuous
 62
     0
370
     0
100
AcDbMText
 10
0.0230187439
 20
0.2442465335
 30
0.0
 40
0.5
 41
0.0
 71
     1
 72
     1
  1
Mounting nut
  7
SLDTEXTSTYLE1
 73
     1
 44
1.0
  0
ENDBLK
  5
2F0
330
2EE
100
AcDbEntity
  8
0
100
AcDbBlockEnd
  0
BLOCK
  5
2F5
330
2F4
100
AcDbEntity
  8
0
100
AcDbBlockBegin
  2
SW_NOTE_0_5
 70
     0
 10
0.0
 20
0.0
 30
0.0
  3
SW_NOTE_0_5
  1

  0
MTEXT
  5
2F7
330
2F4
100
AcDbEntity
  8
0
  6
Continuous
 62
     0
370
     0
100
AcDbMText
 10
0.0230187439
 20
0.2445293595
 30
0.0
 40
0.5
 41
0.0
 71
     1
 72
     1
  1
Threaded post
  7
SLDTEXTSTYLE1
 73
     1
 44
1.0
  0
ENDBLK
  5
2F6
330
2F4
100
AcDbEntity
  8
0
100
AcDbBlockEnd
  0
BLOCK
  5
362
330
361
100
AcDbEntity
  8
0
100
AcDbBlockBegin
  2
SW_NOTE_0_6
 70
     0
 10
0.0
 20
0.0
 30
0.0
  3
SW_NOTE_0_6
  1

  0
MTEXT
  5
364
330
361
100
AcDbEntity
  8
NOTES
 62
     0
100
AcDbMText
 10
0.0
 20
0.638671875
 30
0.0
 40
0.5
 41
0.0
 71
     1
 72
     1
  1
3D view 
  7
SLDTEXTSTYLE1
 73
     1
 44
1.0
  0
MTEXT
  5
365
330
361
100
AcDbEntity
  8
NOTES
 62
     0
100
AcDbMText
 10
0.0
 20
-0.3613281862
 30
0.0
 40
0.5
 41
0.0
 71
     1
 72
     1
  1
code 713
  7
SLDTEXTSTYLE1
 73
     1
 44
1.0
  0
ENDBLK
  5
363
330
361
100
AcDbEntity
  8
0
100
AcDbBlockEnd
  0
BLOCK
  5
374
330
373
100
AcDbEntity
  8
0
100
AcDbBlockBegin
  2
_D_4
 70
     0
 10
0.0
 20
0.0
 30
0.0
  3
_D_4
  1

  0
INSERT
  5
376
330
373
100
AcDbEntity
  8
DIMS
100
AcDbBlockReference
  2
_Open90
 10
18.8463626459
 20
58.0243586113
 30
4.88575
 41
0.3
 42
0.3
 50
90.0
  0
INSERT
  5
377
330
373
100
AcDbEntity
  8
DIMS
100
AcDbBlockReference
  2
_Open90
 10
18.8463626459
 20
52.9538249607
 30
4.88575
 41
0.3
 42
0.3
 50
270.0
  0
LINE
  5
378
330
373
100
AcDbEntity
  8
DIMS
100
AcDbLine
 10
18.4852515391
 20
55.7798101357
 30
0.0
 11
19.3706682341
 21
55.7798101357
 31
0.0
  0
LINE
  5
379
330
373
100
AcDbEntity
  8
DIMS
100
AcDbLine
 10
16.2731671078
 20
58.0243586113
 30
0.0
 11
19.2213626459
 21
58.0243586113
 31
0.0
  0
LINE
  5
37A
330
373
100
AcDbEntity
  8
DIMS
100
AcDbLine
 10
16.2731671078
 20
52.9538249607
 30
0.0
 11
19.2213626459
 21
52.9538249607
 31
0.0
  0
LINE
  5
37B
330
373
100
AcDbEntity
  8
DIMS
100
AcDbLine
 10
18.8463626459
 20
58.0243586113
 30
0.0
 11
18.8463626459
 21
56.3823795906
 31
0.0
  0
LINE
  5
37C
330
373
100
AcDbEntity
  8
DIMS
100
AcDbLine
 10
18.8463626459
 20
52.9538249607
 30
0.0
 11
18.8463626459
 21
55.074671284
 31
0.0
  0
MTEXT
  5
37D
330
373
100
AcDbEntity
  8
DIMS
100
AcDbMText
 10
18.0425431917
 20
56.0092111961
 30
0.0
 40
0.5
 41
0.0
 71
     1
 72
     1
  1
5
  7
SLDTEXTSTYLE1
 73
     1
 44
1.0
  0
MTEXT
  5
37E
330
373
100
AcDbEntity
  8
DIMS
100
AcDbMText
 10
18.7432376639
 20
56.3745236952
 30
0.0
 40
0.5
 41
0.0
 71
     1
 72
     1
  1
1
  7
SLDTEXTSTYLE1
 73
     1
 44
1.0
  0
MTEXT
  5
37F
330
373
100
AcDbEntity
  8
DIMS
100
AcDbMText
 10
18.5585154411
 20
55.7133431166
 30
0.0
 40
0.5
 41
0.0
 71
     1
 72
     1
  1
16
  7
SLDTEXTSTYLE1
 73
     1
 44
1.0
  0
MTEXT
  5
380
330
373
100
AcDbEntity
  8
DIMS
100
AcDbMText
 10
19.443932136
 20
56.0092111961
 30
0.0
 40
0.5
 41
0.0
 71
     1
 72
     1
  1
"
  7
SLDTEXTSTYLE1
 73
     1
 44
1.0
  0
ENDBLK
  5
375
330
373
100
AcDbEntity
  8
0
100
AcDbBlockEnd
  0
BLOCK
  5
3E0
330
3DF
100
AcDbEntity
  8
0
100
AcDbBlockBegin
  2
_D_5
 70
     0
 10
0.0
 20
0.0
 30
0.0
  3
_D_5
  1

  0
INSERT
  5
3E2
330
3DF
100
AcDbEntity
  8
DIMS
100
AcDbBlockReference
  2
_Open90
 10
40.9594466556
 20
51.7864782634
 30
0.0
 41
0.3
 42
0.3
 50
180.0
  0
INSERT
  5
3E3
330
3DF
100
AcDbEntity
  8
DIMS
100
AcDbBlockReference
  2
_Open90
 10
46.0971125849
 20
51.7864782634
 30
0.0
 41
0.3
 42
0.3
 50
0.0
  0
LINE
  5
3E4
330
3DF
100
AcDbEntity
  8
DIMS
100
AcDbLine
 10
43.6883664621
 20
51.8377629618
 30
0.0
 11
44.2043387115
 21
51.8377629618
 31
0.0
  0
LINE
  5
3E5
330
3DF
100
AcDbEntity
  8
DIMS
100
AcDbLine
 10
40.9594466556
 20
50.0551748167
 30
0.0
 11
40.9594466556
 21
52.1614782634
 31
0.0
  0
LINE
  5
3E6
330
3DF
100
AcDbEntity
  8
DIMS
100
AcDbLine
 10
46.0971125849
 20
49.6690506463
 30
0.0
 11
46.0971125849
 21
52.1614782634
 31
0.0
  0
LINE
  5
3E7
330
3DF
100
AcDbEntity
  8
DIMS
100
AcDbLine
 10
40.9594466556
 20
51.7864782634
 30
0.0
 11
43.2456581146
 21
51.7864782634
 31
0.0
  0
LINE
  5
3E8
330
3DF
100
AcDbEntity
  8
DIMS
100
AcDbLine
 10
46.0971125849
 20
51.7864782634
 30
0.0
 11
44.4838526509
 21
51.7864782634
 31
0.0
  0
MTEXT
  5
3E9
330
3DF
100
AcDbEntity
  8
DIMS
100
AcDbMText
 10
43.2456581146
 20
52.0671640222
 30
0.0
 40
0.5
 41
0.0
 71
     1
 72
     1
  1
5
  7
SLDTEXTSTYLE1
 73
     1
 44
1.0
  0
MTEXT
  5
3EA
330
3DF
100
AcDbEntity
  8
DIMS
100
AcDbMText
 10
43.7616303641
 20
52.4324765213
 30
0.0
 40
0.5
 41
0.0
 71
     1
 72
     1
  1
1
  7
SLDTEXTSTYLE1
 73
     1
 44
1.0
  0
MTEXT
  5
3EB
330
3DF
100
AcDbEntity
  8
DIMS
100
AcDbMText
 10
43.7616303641
 20
51.7712959427
 30
0.0
 40
0.5
 41
0.0
 71
     1
 72
     1
  1
8
  7
SLDTEXTSTYLE1
 73
     1
 44
1.0
  0
MTEXT
  5
3EC
330
3DF
100
AcDbEntity
  8
DIMS
100
AcDbMText
 10
44.2776026135
 20
52.0671640222
 30
0.0
 40
0.5
 41
0.0
 71
     1
 72
     1
  1
"
  7
SLDTEXTSTYLE1
 73
     1
 44
1.0
  0
ENDBLK
  5
3E1
330
3DF
100
AcDbEntity
  8
0
100
AcDbBlockEnd
  0
BLOCK
  5
3EF
330
3EE
100
AcDbEntity
  8
0
100
AcDbBlockBegin
  2
_D_6
 70
     0
 10
0.0
 20
0.0
 30
0.0
  3
_D_6
  1

  0
INSERT
  5
3F1
330
3EE
100
AcDbEntity
  8
DIMS
100
AcDbBlockReference
  2
_Open90
 10
44.7171125849
 20
48.9092327809
 30
-0.4778508661
 41
0.3
 42
0.3
 50
0.0
  0
INSERT
  5
3F2
330
3EE
100
AcDbEntity
  8
DIMS
100
AcDbBlockReference
  2
_Open90
 10
46.0971125849
 20
48.9092327809
 30
-0.4778508661
 41
0.3
 42
0.3
 50
180.0
  0
LINE
  5
3F3
330
3EE
100
AcDbEntity
  8
DIMS
100
AcDbLine
 10
43.1391583439
 20
48.9605174793
 30
0.0
 11
43.6551305933
 21
48.9605174793
 31
0.0
  0
LINE
  5
3F4
330
3EE
100
AcDbEntity
  8
DIMS
100
AcDbLine
 10
44.7171125849
 20
48.9092327809
 30
0.0
 11
43.9346444594
 21
48.9092327809
 31
0.0
  0
LINE
  5
3F5
330
3EE
100
AcDbEntity
  8
DIMS
100
AcDbLine
 10
46.0971125849
 20
48.9092327809
 30
0.0
 11
46.3971125849
 21
48.9092327809
 31
0.0
  0
MTEXT
  5
3F6
330
3EE
100
AcDbEntity
  8
DIMS
100
AcDbMText
 10
41.9423875141
 20
49.1822796505
 30
0.0
 40
0.5
 41
0.0
 71
     1
 72
     1
  1
%%c
  7
SLDTEXTSTYLE1
 73
     1
 44
1.0
  0
MTEXT
  5
3F7
330
3EE
100
AcDbEntity
  8
DIMS
100
AcDbMText
 10
42.6964499964
 20
49.1899185397
 30
0.0
 40
0.5
 41
0.0
 71
     1
 72
     1
  1
1
  7
SLDTEXTSTYLE1
 73
     1
 44
1.0
  0
MTEXT
  5
3F8
330
3EE
100
AcDbEntity
  8
DIMS
100
AcDbMText
 10
43.2124222459
 20
49.5552310388
 30
0.0
 40
0.5
 41
0.0
 71
     1
 72
     1
  1
3
  7
SLDTEXTSTYLE1
 73
     1
 44
1.0
  0
MTEXT
  5
3F9
330
3EE
100
AcDbEntity
  8
DIMS
100
AcDbMText
 10
43.2124222459
 20
48.8940504602
 30
0.0
 40
0.5
 41
0.0
 71
     1
 72
     1
  1
8
  7
SLDTEXTSTYLE1
 73
     1
 44
1.0
  0
MTEXT
  5
3FA
330
3EE
100
AcDbEntity
  8
DIMS
100
AcDbMText
 10
43.7283944953
 20
49.1899185397
 30
0.0
 40
0.5
 41
0.0
 71
     1
 72
     1
  1
"
  7
SLDTEXTSTYLE1
 73
     1
 44
1.0
  0
ENDBLK
  5
3F0
330
3EE
100
AcDbEntity
  8
0
100
AcDbBlockEnd
  0
BLOCK
  5
3FC
330
3FB
100
AcDbEntity
  8
0
100
AcDbBlockBegin
  2
SW_NOTE_0_7
 70
     0
 10
0.0
 20
0.0
 30
0.0
  3
SW_NOTE_0_7
  1

  0
MTEXT
  5
3FE
330
3FB
100
AcDbEntity
  8
NOTES
 62
     0
100
AcDbMText
 10
0.0
 20
0.638671875
 30
0.0
 40
0.5
 41
0.0
 71
     1
 72
     1
  1
Side view
  7
SLDTEXTSTYLE1
 73
     1
 44
1.0
  0
MTEXT
  5
3FF
330
3FB
100
AcDbEntity
  8
NOTES
 62
     0
100
AcDbMText
 10
0.0
 20
-0.3613281862
 30
0.0
 40
0.5
 41
0.0
 71
     1
 72
     1
  1
installed in counter
  7
SLDTEXTSTYLE1
 73
     1
 44
1.0
  0
ENDBLK
  5
3FD
330
3FB
100
AcDbEntity
  8
0
100
AcDbBlockEnd
  0
BLOCK
  5
451
330
450
100
AcDbEntity
  8
0
100
AcDbBlockBegin
  2
SW_NOTE_0_8
 70
     0
 10
0.0
 20
0.0
 30
0.0
  3
SW_NOTE_0_8
  1

  0
MTEXT
  5
453
330
450
100
AcDbEntity
  8
NOTES
 62
     0
100
AcDbMText
 10
0.0
 20
0.638671875
 30
0.0
 40
0.5
 41
0.0
 71
     1
 72
     1
  1
3D view 
  7
SLDTEXTSTYLE1
 73
     1
 44
1.0
  0
MTEXT
  5
454
330
450
100
AcDbEntity
  8
NOTES
 62
     0
100
AcDbMText
 10
0.0
 20
-0.3613281862
 30
0.0
 40
0.5
 41
0.0
 71
     1
 72
     1
  1
dispenser top removed for refilling reservoir
  7
SLDTEXTSTYLE1
 73
     1
 44
1.0
  0
ENDBLK
  5
452
330
450
100
AcDbEntity
  8
0
100
AcDbBlockEnd
  0
ENDSEC
  0
SECTION
  2
ENTITIES
  0
LINE
  5
7A
330
1F
100
AcDbEntity
  8
TITLE
370
    35
100
AcDbLine
 10
72.5182230965
 20
1.4876117645
 30
0.0
 11
89.4999864512
 21
1.4876117645
 31
0.0
  0
LINE
  5
7B
330
1F
100
AcDbEntity
  8
TITLE
370
    35
100
AcDbLine
 10
89.4999317442
 20
5.4753603936
 30
0.0
 11
79.3105350723
 21
5.4753603936
 31
0.0
  0
LINE
  5
7C
330
1F
100
AcDbEntity
  8
TITLE
  6
SLD-Solid
370
    18
100
AcDbLine
 10
0.5
 20
0.5
 30
0.0
 11
0.5
 21
119.5
 31
0.0
  0
LINE
  5
7D
330
1F
100
AcDbEntity
  8
TITLE
  6
SLD-Solid
370
    18
100
AcDbLine
 10
0.5
 20
119.5
 30
0.0
 11
89.5
 21
119.5
 31
0.0
  0
LINE
  5
7E
330
1F
100
AcDbEntity
  8
TITLE
370
    35
100
AcDbLine
 10
72.5182230965
 20
2.5427877231
 30
0.0
 11
65.5059791203
 21
2.5427877231
 31
0.0
  0
LINE
  5
7F
330
1F
100
AcDbEntity
  8
TITLE
370
    35
100
AcDbLine
 10
72.5182230965
 20
1.4876117645
 30
0.0
 11
65.5059791203
 21
1.4876117645
 31
0.0
  0
LINE
  5
80
330
1F
100
AcDbEntity
  8
TITLE
  6
SLD-Solid
370
    18
100
AcDbLine
 10
89.5
 20
119.5
 30
0.0
 11
89.5
 21
0.5
 31
0.0
  0
LINE
  5
81
330
1F
100
AcDbEntity
  8
TITLE
  6
SLD-Solid
370
    18
100
AcDbLine
 10
89.5
 20
0.5
 30
0.0
 11
0.5
 21
0.5
 31
0.0
  0
LINE
  5
82
330
1F
100
AcDbEntity
  8
TITLE
370
    35
100
AcDbLine
 10
72.5182230965
 20
1.4876117645
 30
0.0
 11
72.5182230965
 21
3.5979636817
 31
0.0
  0
LINE
  5
83
330
1F
100
AcDbEntity
  8
TITLE
370
    35
100
AcDbLine
 10
65.5059791203
 20
3.5979636817
 30
0.0
 11
65.5059791203
 21
0.5
 31
0.0
  0
LINE
  5
84
330
1F
100
AcDbEntity
  8
TITLE
370
    35
100
AcDbLine
 10
65.5059791203
 20
0.5
 30
0.0
 11
89.5
 21
0.5
 31
0.0
  0
LINE
  5
85
330
1F
100
AcDbEntity
  8
TITLE
370
    35
100
AcDbLine
 10
89.4999317442
 20
5.4753603936
 30
0.0
 11
89.5
 21
0.5
 31
0.0
  0
LINE
  5
86
330
1F
100
AcDbEntity
  8
TITLE
  6
SLD-Solid
370
    18
100
AcDbLine
 10
0.4999606299
 20
60.0
 30
0.0
 11
0.5000393701
 21
60.0
 31
0.0
  0
LINE
  5
87
330
1F
100
AcDbEntity
  8
TITLE
370
    35
100
AcDbLine
 10
72.5182230965
 20
3.5979636817
 30
0.0
 11
65.5059791203
 21
3.5979636817
 31
0.0
  0
LINE
  5
88
330
1F
100
AcDbEntity
  8
TITLE
370
    35
100
AcDbLine
 10
72.5182230965
 20
3.5979636817
 30
0.0
 11
89.4997615643
 21
3.5979648343
 31
0.0
  0
LINE
  5
89
330
1F
100
AcDbEntity
  8
TITLE
370
    35
100
AcDbLine
 10
79.3105350723
 20
5.4753603936
 30
0.0
 11
79.3105350723
 21
0.4636772425
 31
0.0
  0
LINE
  5
8A
330
1F
100
AcDbEntity
  8
TITLE
  6
SLD-Solid
370
    18
100
AcDbLine
 10
45.0
 20
119.5000393701
 30
0.0
 11
45.0
 21
119.4999606299
 31
0.0
  0
LINE
  5
8B
330
1F
100
AcDbEntity
  8
TITLE
  6
SLD-Solid
370
    18
100
AcDbLine
 10
89.5000393701
 20
60.0
 30
0.0
 11
89.4999606299
 21
60.0
 31
0.0
  0
LINE
  5
8C
330
1F
100
AcDbEntity
  8
TITLE
  6
SLD-Solid
370
    18
100
AcDbLine
 10
45.0
 20
0.4999606299
 30
0.0
 11
45.0
 21
0.5000393701
 31
0.0
  0
LINE
  5
8D
330
1F
100
AcDbEntity
  8
TITLE
  6
SLD-Solid
370
    18
100
AcDbLine
 10
0.5
 20
2.9133858268
 30
0.0
 11
0.1653543307
 21
2.9133858268
 31
0.0
  0
LINE
  5
8E
330
1F
100
AcDbEntity
  8
TITLE
  6
SLD-Solid
370
    18
100
AcDbLine
 10
89.5
 20
2.9133858268
 30
0.0
 11
89.8346456693
 21
2.9133858268
 31
0.0
  0
LINE
  5
8F
330
1F
100
AcDbEntity
  8
TITLE
  6
SLD-Solid
370
    18
100
AcDbLine
 10
0.5
 20
4.8818897638
 30
0.0
 11
0.1653543307
 21
4.8818897638
 31
0.0
  0
LINE
  5
90
330
1F
100
AcDbEntity
  8
TITLE
  6
SLD-Solid
370
    18
100
AcDbLine
 10
89.5
 20
4.8818897638
 30
0.0
 11
89.8346456693
 21
4.8818897638
 31
0.0
  0
LINE
  5
91
330
1F
100
AcDbEntity
  8
TITLE
  6
SLD-Solid
370
    18
100
AcDbLine
 10
0.5
 20
6.8503937008
 30
0.0
 11
0.1653543307
 21
6.8503937008
 31
0.0
  0
LINE
  5
92
330
1F
100
AcDbEntity
  8
TITLE
  6
SLD-Solid
370
    18
100
AcDbLine
 10
89.5
 20
6.8503937008
 30
0.0
 11
89.8346456693
 21
6.8503937008
 31
0.0
  0
LINE
  5
93
330
1F
100
AcDbEntity
  8
TITLE
  6
SLD-Solid
370
    18
100
AcDbLine
 10
0.5
 20
8.8188976378
 30
0.0
 11
0.1653543307
 21
8.8188976378
 31
0.0
  0
LINE
  5
94
330
1F
100
AcDbEntity
  8
TITLE
  6
SLD-Solid
370
    18
100
AcDbLine
 10
89.5
 20
8.8188976378
 30
0.0
 11
89.8346456693
 21
8.8188976378
 31
0.0
  0
LINE
  5
95
330
1F
100
AcDbEntity
  8
TITLE
  6
SLD-Solid
370
    18
100
AcDbLine
 10
0.5
 20
10.7874015748
 30
0.0
 11
0.1653543307
 21
10.7874015748
 31
0.0
  0
LINE
  5
96
330
1F
100
AcDbEntity
  8
TITLE
  6
SLD-Solid
370
    18
100
AcDbLine
 10
89.5
 20
10.7874015748
 30
0.0
 11
89.8346456693
 21
10.7874015748
 31
0.0
  0
LINE
  5
97
330
1F
100
AcDbEntity
  8
TITLE
  6
SLD-Solid
370
    18
100
AcDbLine
 10
0.5
 20
12.7559055118
 30
0.0
 11
0.1653543307
 21
12.7559055118
 31
0.0
  0
LINE
  5
98
330
1F
100
AcDbEntity
  8
TITLE
  6
SLD-Solid
370
    18
100
AcDbLine
 10
89.5
 20
12.7559055118
 30
0.0
 11
89.8346456693
 21
12.7559055118
 31
0.0
  0
LINE
  5
99
330
1F
100
AcDbEntity
  8
TITLE
  6
SLD-Solid
370
    18
100
AcDbLine
 10
0.5
 20
14.7244094488
 30
0.0
 11
0.1653543307
 21
14.7244094488
 31
0.0
  0
LINE
  5
9A
330
1F
100
AcDbEntity
  8
TITLE
  6
SLD-Solid
370
    18
100
AcDbLine
 10
89.5
 20
14.7244094488
 30
0.0
 11
89.8346456693
 21
14.7244094488
 31
0.0
  0
LINE
  5
9B
330
1F
100
AcDbEntity
  8
TITLE
  6
SLD-Solid
370
    18
100
AcDbLine
 10
0.5
 20
16.6929133858
 30
0.0
 11
0.1653543307
 21
16.6929133858
 31
0.0
  0
LINE
  5
9C
330
1F
100
AcDbEntity
  8
TITLE
  6
SLD-Solid
370
    18
100
AcDbLine
 10
89.5
 20
16.6929133858
 30
0.0
 11
89.8346456693
 21
16.6929133858
 31
0.0
  0
LINE
  5
9D
330
1F
100
AcDbEntity
  8
TITLE
  6
SLD-Solid
370
    18
100
AcDbLine
 10
0.5
 20
18.6614173228
 30
0.0
 11
0.1653543307
 21
18.6614173228
 31
0.0
  0
LINE
  5
9E
330
1F
100
AcDbEntity
  8
TITLE
  6
SLD-Solid
370
    18
100
AcDbLine
 10
89.5
 20
18.6614173228
 30
0.0
 11
89.8346456693
 21
18.6614173228
 31
0.0
  0
LINE
  5
9F
330
1F
100
AcDbEntity
  8
TITLE
  6
SLD-Solid
370
    18
100
AcDbLine
 10
0.5
 20
20.6299212598
 30
0.0
 11
0.1653543307
 21
20.6299212598
 31
0.0
  0
LINE
  5
A0
330
1F
100
AcDbEntity
  8
TITLE
  6
SLD-Solid
370
    18
100
AcDbLine
 10
89.5
 20
20.6299212598
 30
0.0
 11
89.8346456693
 21
20.6299212598
 31
0.0
  0
LINE
  5
A1
330
1F
100
AcDbEntity
  8
TITLE
  6
SLD-Solid
370
    18
100
AcDbLine
 10
0.5
 20
22.5984251969
 30
0.0
 11
0.1653543307
 21
22.5984251969
 31
0.0
  0
LINE
  5
A2
330
1F
100
AcDbEntity
  8
TITLE
  6
SLD-Solid
370
    18
100
AcDbLine
 10
89.5
 20
22.5984251969
 30
0.0
 11
89.8346456693
 21
22.5984251969
 31
0.0
  0
LINE
  5
A3
330
1F
100
AcDbEntity
  8
TITLE
  6
SLD-Solid
370
    18
100
AcDbLine
 10
0.5
 20
24.5669291339
 30
0.0
 11
0.1653543307
 21
24.5669291339
 31
0.0
  0
LINE
  5
A4
330
1F
100
AcDbEntity
  8
TITLE
  6
SLD-Solid
370
    18
100
AcDbLine
 10
89.5
 20
24.5669291339
 30
0.0
 11
89.8346456693
 21
24.5669291339
 31
0.0
  0
LINE
  5
A5
330
1F
100
AcDbEntity
  8
TITLE
  6
SLD-Solid
370
    18
100
AcDbLine
 10
0.5
 20
26.5354330709
 30
0.0
 11
0.1653543307
 21
26.5354330709
 31
0.0
  0
LINE
  5
A6
330
1F
100
AcDbEntity
  8
TITLE
  6
SLD-Solid
370
    18
100
AcDbLine
 10
89.5
 20
26.5354330709
 30
0.0
 11
89.8346456693
 21
26.5354330709
 31
0.0
  0
LINE
  5
A7
330
1F
100
AcDbEntity
  8
TITLE
  6
SLD-Solid
370
    18
100
AcDbLine
 10
0.5
 20
28.5039370079
 30
0.0
 11
0.1653543307
 21
28.5039370079
 31
0.0
  0
LINE
  5
A8
330
1F
100
AcDbEntity
  8
TITLE
  6
SLD-Solid
370
    18
100
AcDbLine
 10
89.5
 20
28.5039370079
 30
0.0
 11
89.8346456693
 21
28.5039370079
 31
0.0
  0
LINE
  5
A9
330
1F
100
AcDbEntity
  8
TITLE
  6
SLD-Solid
370
    18
100
AcDbLine
 10
0.5
 20
30.4724409449
 30
0.0
 11
0.1653543307
 21
30.4724409449
 31
0.0
  0
LINE
  5
AA
330
1F
100
AcDbEntity
  8
TITLE
  6
SLD-Solid
370
    18
100
AcDbLine
 10
89.5
 20
30.4724409449
 30
0.0
 11
89.8346456693
 21
30.4724409449
 31
0.0
  0
LINE
  5
AB
330
1F
100
AcDbEntity
  8
TITLE
  6
SLD-Solid
370
    18
100
AcDbLine
 10
0.5
 20
32.4409448819
 30
0.0
 11
0.1653543307
 21
32.4409448819
 31
0.0
  0
LINE
  5
AC
330
1F
100
AcDbEntity
  8
TITLE
  6
SLD-Solid
370
    18
100
AcDbLine
 10
89.5
 20
32.4409448819
 30
0.0
 11
89.8346456693
 21
32.4409448819
 31
0.0
  0
LINE
  5
AD
330
1F
100
AcDbEntity
  8
TITLE
  6
SLD-Solid
370
    18
100
AcDbLine
 10
0.5
 20
34.4094488189
 30
0.0
 11
0.1653543307
 21
34.4094488189
 31
0.0
  0
LINE
  5
AE
330
1F
100
AcDbEntity
  8
TITLE
  6
SLD-Solid
370
    18
100
AcDbLine
 10
89.5
 20
34.4094488189
 30
0.0
 11
89.8346456693
 21
34.4094488189
 31
0.0
  0
LINE
  5
AF
330
1F
100
AcDbEntity
  8
TITLE
  6
SLD-Solid
370
    18
100
AcDbLine
 10
0.5
 20
36.3779527559
 30
0.0
 11
0.1653543307
 21
36.3779527559
 31
0.0
  0
LINE
  5
B0
330
1F
100
AcDbEntity
  8
TITLE
  6
SLD-Solid
370
    18
100
AcDbLine
 10
89.5
 20
36.3779527559
 30
0.0
 11
89.8346456693
 21
36.3779527559
 31
0.0
  0
LINE
  5
B1
330
1F
100
AcDbEntity
  8
TITLE
  6
SLD-Solid
370
    18
100
AcDbLine
 10
0.5
 20
38.3464566929
 30
0.0
 11
0.1653543307
 21
38.3464566929
 31
0.0
  0
LINE
  5
B2
330
1F
100
AcDbEntity
  8
TITLE
  6
SLD-Solid
370
    18
100
AcDbLine
 10
89.5
 20
38.3464566929
 30
0.0
 11
89.8346456693
 21
38.3464566929
 31
0.0
  0
LINE
  5
B3
330
1F
100
AcDbEntity
  8
TITLE
  6
SLD-Solid
370
    18
100
AcDbLine
 10
0.5
 20
40.3149606299
 30
0.0
 11
0.1653543307
 21
40.3149606299
 31
0.0
  0
LINE
  5
B4
330
1F
100
AcDbEntity
  8
TITLE
  6
SLD-Solid
370
    18
100
AcDbLine
 10
89.5
 20
40.3149606299
 30
0.0
 11
89.8346456693
 21
40.3149606299
 31
0.0
  0
LINE
  5
B5
330
1F
100
AcDbEntity
  8
TITLE
  6
SLD-Solid
370
    18
100
AcDbLine
 10
0.5
 20
42.2834645669
 30
0.0
 11
0.1653543307
 21
42.2834645669
 31
0.0
  0
LINE
  5
B6
330
1F
100
AcDbEntity
  8
TITLE
  6
SLD-Solid
370
    18
100
AcDbLine
 10
89.5
 20
42.2834645669
 30
0.0
 11
89.8346456693
 21
42.2834645669
 31
0.0
  0
LINE
  5
B7
330
1F
100
AcDbEntity
  8
TITLE
  6
SLD-Solid
370
    18
100
AcDbLine
 10
0.5
 20
44.2519685039
 30
0.0
 11
0.1653543307
 21
44.2519685039
 31
0.0
  0
LINE
  5
B8
330
1F
100
AcDbEntity
  8
TITLE
  6
SLD-Solid
370
    18
100
AcDbLine
 10
89.5
 20
44.2519685039
 30
0.0
 11
89.8346456693
 21
44.2519685039
 31
0.0
  0
LINE
  5
B9
330
1F
100
AcDbEntity
  8
TITLE
  6
SLD-Solid
370
    18
100
AcDbLine
 10
0.5
 20
46.2204724409
 30
0.0
 11
0.1653543307
 21
46.2204724409
 31
0.0
  0
LINE
  5
BA
330
1F
100
AcDbEntity
  8
TITLE
  6
SLD-Solid
370
    18
100
AcDbLine
 10
89.5
 20
46.2204724409
 30
0.0
 11
89.8346456693
 21
46.2204724409
 31
0.0
  0
LINE
  5
BB
330
1F
100
AcDbEntity
  8
TITLE
  6
SLD-Solid
370
    18
100
AcDbLine
 10
0.5
 20
48.188976378
 30
0.0
 11
0.1653543307
 21
48.188976378
 31
0.0
  0
LINE
  5
BC
330
1F
100
AcDbEntity
  8
TITLE
  6
SLD-Solid
370
    18
100
AcDbLine
 10
89.5
 20
48.188976378
 30
0.0
 11
89.8346456693
 21
48.188976378
 31
0.0
  0
LINE
  5
BD
330
1F
100
AcDbEntity
  8
TITLE
  6
SLD-Solid
370
    18
100
AcDbLine
 10
0.5
 20
50.157480315
 30
0.0
 11
0.1653543307
 21
50.157480315
 31
0.0
  0
LINE
  5
BE
330
1F
100
AcDbEntity
  8
TITLE
  6
SLD-Solid
370
    18
100
AcDbLine
 10
89.5
 20
50.157480315
 30
0.0
 11
89.8346456693
 21
50.157480315
 31
0.0
  0
LINE
  5
BF
330
1F
100
AcDbEntity
  8
TITLE
  6
SLD-Solid
370
    18
100
AcDbLine
 10
0.5
 20
52.125984252
 30
0.0
 11
0.1653543307
 21
52.125984252
 31
0.0
  0
LINE
  5
C0
330
1F
100
AcDbEntity
  8
TITLE
  6
SLD-Solid
370
    18
100
AcDbLine
 10
89.5
 20
52.125984252
 30
0.0
 11
89.8346456693
 21
52.125984252
 31
0.0
  0
LINE
  5
C1
330
1F
100
AcDbEntity
  8
TITLE
  6
SLD-Solid
370
    18
100
AcDbLine
 10
0.5
 20
54.094488189
 30
0.0
 11
0.1653543307
 21
54.094488189
 31
0.0
  0
LINE
  5
C2
330
1F
100
AcDbEntity
  8
TITLE
  6
SLD-Solid
370
    18
100
AcDbLine
 10
89.5
 20
54.094488189
 30
0.0
 11
89.8346456693
 21
54.094488189
 31
0.0
  0
LINE
  5
C3
330
1F
100
AcDbEntity
  8
TITLE
  6
SLD-Solid
370
    18
100
AcDbLine
 10
0.5
 20
56.062992126
 30
0.0
 11
0.1653543307
 21
56.062992126
 31
0.0
  0
LINE
  5
C4
330
1F
100
AcDbEntity
  8
TITLE
  6
SLD-Solid
370
    18
100
AcDbLine
 10
89.5
 20
56.062992126
 30
0.0
 11
89.8346456693
 21
56.062992126
 31
0.0
  0
LINE
  5
C5
330
1F
100
AcDbEntity
  8
TITLE
  6
SLD-Solid
370
    18
100
AcDbLine
 10
0.5
 20
58.031496063
 30
0.0
 11
0.1653543307
 21
58.031496063
 31
0.0
  0
LINE
  5
C6
330
1F
100
AcDbEntity
  8
TITLE
  6
SLD-Solid
370
    18
100
AcDbLine
 10
89.5
 20
58.031496063
 30
0.0
 11
89.8346456693
 21
58.031496063
 31
0.0
  0
LINE
  5
C7
330
1F
100
AcDbEntity
  8
TITLE
  6
SLD-Solid
370
    18
100
AcDbLine
 10
0.5
 20
60.0
 30
0.0
 11
0.1653543307
 21
60.0
 31
0.0
  0
LINE
  5
C8
330
1F
100
AcDbEntity
  8
TITLE
  6
SLD-Solid
370
    18
100
AcDbLine
 10
89.5
 20
60.0
 30
0.0
 11
89.8346456693
 21
60.0
 31
0.0
  0
LINE
  5
C9
330
1F
100
AcDbEntity
  8
TITLE
  6
SLD-Solid
370
    18
100
AcDbLine
 10
0.5
 20
61.968503937
 30
0.0
 11
0.1653543307
 21
61.968503937
 31
0.0
  0
LINE
  5
CA
330
1F
100
AcDbEntity
  8
TITLE
  6
SLD-Solid
370
    18
100
AcDbLine
 10
89.5
 20
61.968503937
 30
0.0
 11
89.8346456693
 21
61.968503937
 31
0.0
  0
LINE
  5
CB
330
1F
100
AcDbEntity
  8
TITLE
  6
SLD-Solid
370
    18
100
AcDbLine
 10
0.5
 20
63.937007874
 30
0.0
 11
0.1653543307
 21
63.937007874
 31
0.0
  0
LINE
  5
CC
330
1F
100
AcDbEntity
  8
TITLE
  6
SLD-Solid
370
    18
100
AcDbLine
 10
89.5
 20
63.937007874
 30
0.0
 11
89.8346456693
 21
63.937007874
 31
0.0
  0
LINE
  5
CD
330
1F
100
AcDbEntity
  8
TITLE
  6
SLD-Solid
370
    18
100
AcDbLine
 10
0.5
 20
65.905511811
 30
0.0
 11
0.1653543307
 21
65.905511811
 31
0.0
  0
LINE
  5
CE
330
1F
100
AcDbEntity
  8
TITLE
  6
SLD-Solid
370
    18
100
AcDbLine
 10
89.5
 20
65.905511811
 30
0.0
 11
89.8346456693
 21
65.905511811
 31
0.0
  0
LINE
  5
CF
330
1F
100
AcDbEntity
  8
TITLE
  6
SLD-Solid
370
    18
100
AcDbLine
 10
0.5
 20
67.874015748
 30
0.0
 11
0.1653543307
 21
67.874015748
 31
0.0
  0
LINE
  5
D0
330
1F
100
AcDbEntity
  8
TITLE
  6
SLD-Solid
370
    18
100
AcDbLine
 10
89.5
 20
67.874015748
 30
0.0
 11
89.8346456693
 21
67.874015748
 31
0.0
  0
LINE
  5
D1
330
1F
100
AcDbEntity
  8
TITLE
  6
SLD-Solid
370
    18
100
AcDbLine
 10
0.5
 20
69.842519685
 30
0.0
 11
0.1653543307
 21
69.842519685
 31
0.0
  0
LINE
  5
D2
330
1F
100
AcDbEntity
  8
TITLE
  6
SLD-Solid
370
    18
100
AcDbLine
 10
89.5
 20
69.842519685
 30
0.0
 11
89.8346456693
 21
69.842519685
 31
0.0
  0
LINE
  5
D3
330
1F
100
AcDbEntity
  8
TITLE
  6
SLD-Solid
370
    18
100
AcDbLine
 10
0.5
 20
71.811023622
 30
0.0
 11
0.1653543307
 21
71.811023622
 31
0.0
  0
LINE
  5
D4
330
1F
100
AcDbEntity
  8
TITLE
  6
SLD-Solid
370
    18
100
AcDbLine
 10
89.5
 20
71.811023622
 30
0.0
 11
89.8346456693
 21
71.811023622
 31
0.0
  0
LINE
  5
D5
330
1F
100
AcDbEntity
  8
TITLE
  6
SLD-Solid
370
    18
100
AcDbLine
 10
0.5
 20
73.7795275591
 30
0.0
 11
0.1653543307
 21
73.7795275591
 31
0.0
  0
LINE
  5
D6
330
1F
100
AcDbEntity
  8
TITLE
  6
SLD-Solid
370
    18
100
AcDbLine
 10
89.5
 20
73.7795275591
 30
0.0
 11
89.8346456693
 21
73.7795275591
 31
0.0
  0
LINE
  5
D7
330
1F
100
AcDbEntity
  8
TITLE
  6
SLD-Solid
370
    18
100
AcDbLine
 10
0.5
 20
75.7480314961
 30
0.0
 11
0.1653543307
 21
75.7480314961
 31
0.0
  0
LINE
  5
D8
330
1F
100
AcDbEntity
  8
TITLE
  6
SLD-Solid
370
    18
100
AcDbLine
 10
89.5
 20
75.7480314961
 30
0.0
 11
89.8346456693
 21
75.7480314961
 31
0.0
  0
LINE
  5
D9
330
1F
100
AcDbEntity
  8
TITLE
  6
SLD-Solid
370
    18
100
AcDbLine
 10
0.5
 20
77.7165354331
 30
0.0
 11
0.1653543307
 21
77.7165354331
 31
0.0
  0
LINE
  5
DA
330
1F
100
AcDbEntity
  8
TITLE
  6
SLD-Solid
370
    18
100
AcDbLine
 10
89.5
 20
77.7165354331
 30
0.0
 11
89.8346456693
 21
77.7165354331
 31
0.0
  0
LINE
  5
DB
330
1F
100
AcDbEntity
  8
TITLE
  6
SLD-Solid
370
    18
100
AcDbLine
 10
0.5
 20
79.6850393701
 30
0.0
 11
0.1653543307
 21
79.6850393701
 31
0.0
  0
LINE
  5
DC
330
1F
100
AcDbEntity
  8
TITLE
  6
SLD-Solid
370
    18
100
AcDbLine
 10
89.5
 20
79.6850393701
 30
0.0
 11
89.8346456693
 21
79.6850393701
 31
0.0
  0
LINE
  5
DD
330
1F
100
AcDbEntity
  8
TITLE
  6
SLD-Solid
370
    18
100
AcDbLine
 10
0.5
 20
81.6535433071
 30
0.0
 11
0.1653543307
 21
81.6535433071
 31
0.0
  0
LINE
  5
DE
330
1F
100
AcDbEntity
  8
TITLE
  6
SLD-Solid
370
    18
100
AcDbLine
 10
89.5
 20
81.6535433071
 30
0.0
 11
89.8346456693
 21
81.6535433071
 31
0.0
  0
LINE
  5
DF
330
1F
100
AcDbEntity
  8
TITLE
  6
SLD-Solid
370
    18
100
AcDbLine
 10
0.5
 20
83.6220472441
 30
0.0
 11
0.1653543307
 21
83.6220472441
 31
0.0
  0
LINE
  5
E0
330
1F
100
AcDbEntity
  8
TITLE
  6
SLD-Solid
370
    18
100
AcDbLine
 10
89.5
 20
83.6220472441
 30
0.0
 11
89.8346456693
 21
83.6220472441
 31
0.0
  0
LINE
  5
E1
330
1F
100
AcDbEntity
  8
TITLE
  6
SLD-Solid
370
    18
100
AcDbLine
 10
0.5
 20
85.5905511811
 30
0.0
 11
0.1653543307
 21
85.5905511811
 31
0.0
  0
LINE
  5
E2
330
1F
100
AcDbEntity
  8
TITLE
  6
SLD-Solid
370
    18
100
AcDbLine
 10
89.5
 20
85.5905511811
 30
0.0
 11
89.8346456693
 21
85.5905511811
 31
0.0
  0
LINE
  5
E3
330
1F
100
AcDbEntity
  8
TITLE
  6
SLD-Solid
370
    18
100
AcDbLine
 10
0.5
 20
87.5590551181
 30
0.0
 11
0.1653543307
 21
87.5590551181
 31
0.0
  0
LINE
  5
E4
330
1F
100
AcDbEntity
  8
TITLE
  6
SLD-Solid
370
    18
100
AcDbLine
 10
89.5
 20
87.5590551181
 30
0.0
 11
89.8346456693
 21
87.5590551181
 31
0.0
  0
LINE
  5
E5
330
1F
100
AcDbEntity
  8
TITLE
  6
SLD-Solid
370
    18
100
AcDbLine
 10
0.5
 20
89.5275590551
 30
0.0
 11
0.1653543307
 21
89.5275590551
 31
0.0
  0
LINE
  5
E6
330
1F
100
AcDbEntity
  8
TITLE
  6
SLD-Solid
370
    18
100
AcDbLine
 10
89.5
 20
89.5275590551
 30
0.0
 11
89.8346456693
 21
89.5275590551
 31
0.0
  0
LINE
  5
E7
330
1F
100
AcDbEntity
  8
TITLE
  6
SLD-Solid
370
    18
100
AcDbLine
 10
0.5
 20
91.4960629921
 30
0.0
 11
0.1653543307
 21
91.4960629921
 31
0.0
  0
LINE
  5
E8
330
1F
100
AcDbEntity
  8
TITLE
  6
SLD-Solid
370
    18
100
AcDbLine
 10
89.5
 20
91.4960629921
 30
0.0
 11
89.8346456693
 21
91.4960629921
 31
0.0
  0
LINE
  5
E9
330
1F
100
AcDbEntity
  8
TITLE
  6
SLD-Solid
370
    18
100
AcDbLine
 10
0.5
 20
93.4645669291
 30
0.0
 11
0.1653543307
 21
93.4645669291
 31
0.0
  0
LINE
  5
EA
330
1F
100
AcDbEntity
  8
TITLE
  6
SLD-Solid
370
    18
100
AcDbLine
 10
89.5
 20
93.4645669291
 30
0.0
 11
89.8346456693
 21
93.4645669291
 31
0.0
  0
LINE
  5
EB
330
1F
100
AcDbEntity
  8
TITLE
  6
SLD-Solid
370
    18
100
AcDbLine
 10
0.5
 20
95.4330708661
 30
0.0
 11
0.1653543307
 21
95.4330708661
 31
0.0
  0
LINE
  5
EC
330
1F
100
AcDbEntity
  8
TITLE
  6
SLD-Solid
370
    18
100
AcDbLine
 10
89.5
 20
95.4330708661
 30
0.0
 11
89.8346456693
 21
95.4330708661
 31
0.0
  0
LINE
  5
ED
330
1F
100
AcDbEntity
  8
TITLE
  6
SLD-Solid
370
    18
100
AcDbLine
 10
0.5
 20
97.4015748031
 30
0.0
 11
0.1653543307
 21
97.4015748031
 31
0.0
  0
LINE
  5
EE
330
1F
100
AcDbEntity
  8
TITLE
  6
SLD-Solid
370
    18
100
AcDbLine
 10
89.5
 20
97.4015748031
 30
0.0
 11
89.8346456693
 21
97.4015748031
 31
0.0
  0
LINE
  5
EF
330
1F
100
AcDbEntity
  8
TITLE
  6
SLD-Solid
370
    18
100
AcDbLine
 10
0.5
 20
99.3700787402
 30
0.0
 11
0.1653543307
 21
99.3700787402
 31
0.0
  0
LINE
  5
F0
330
1F
100
AcDbEntity
  8
TITLE
  6
SLD-Solid
370
    18
100
AcDbLine
 10
89.5
 20
99.3700787402
 30
0.0
 11
89.8346456693
 21
99.3700787402
 31
0.0
  0
LINE
  5
F1
330
1F
100
AcDbEntity
  8
TITLE
  6
SLD-Solid
370
    18
100
AcDbLine
 10
0.5
 20
101.3385826772
 30
0.0
 11
0.1653543307
 21
101.3385826772
 31
0.0
  0
LINE
  5
F2
330
1F
100
AcDbEntity
  8
TITLE
  6
SLD-Solid
370
    18
100
AcDbLine
 10
89.5
 20
101.3385826772
 30
0.0
 11
89.8346456693
 21
101.3385826772
 31
0.0
  0
LINE
  5
F3
330
1F
100
AcDbEntity
  8
TITLE
  6
SLD-Solid
370
    18
100
AcDbLine
 10
0.5
 20
103.3070866142
 30
0.0
 11
0.1653543307
 21
103.3070866142
 31
0.0
  0
LINE
  5
F4
330
1F
100
AcDbEntity
  8
TITLE
  6
SLD-Solid
370
    18
100
AcDbLine
 10
89.5
 20
103.3070866142
 30
0.0
 11
89.8346456693
 21
103.3070866142
 31
0.0
  0
LINE
  5
F5
330
1F
100
AcDbEntity
  8
TITLE
  6
SLD-Solid
370
    18
100
AcDbLine
 10
0.5
 20
105.2755905512
 30
0.0
 11
0.1653543307
 21
105.2755905512
 31
0.0
  0
LINE
  5
F6
330
1F
100
AcDbEntity
  8
TITLE
  6
SLD-Solid
370
    18
100
AcDbLine
 10
89.5
 20
105.2755905512
 30
0.0
 11
89.8346456693
 21
105.2755905512
 31
0.0
  0
LINE
  5
F7
330
1F
100
AcDbEntity
  8
TITLE
  6
SLD-Solid
370
    18
100
AcDbLine
 10
0.5
 20
107.2440944882
 30
0.0
 11
0.1653543307
 21
107.2440944882
 31
0.0
  0
LINE
  5
F8
330
1F
100
AcDbEntity
  8
TITLE
  6
SLD-Solid
370
    18
100
AcDbLine
 10
89.5
 20
107.2440944882
 30
0.0
 11
89.8346456693
 21
107.2440944882
 31
0.0
  0
LINE
  5
F9
330
1F
100
AcDbEntity
  8
TITLE
  6
SLD-Solid
370
    18
100
AcDbLine
 10
0.5
 20
109.2125984252
 30
0.0
 11
0.1653543307
 21
109.2125984252
 31
0.0
  0
LINE
  5
FA
330
1F
100
AcDbEntity
  8
TITLE
  6
SLD-Solid
370
    18
100
AcDbLine
 10
89.5
 20
109.2125984252
 30
0.0
 11
89.8346456693
 21
109.2125984252
 31
0.0
  0
LINE
  5
FB
330
1F
100
AcDbEntity
  8
TITLE
  6
SLD-Solid
370
    18
100
AcDbLine
 10
0.5
 20
111.1811023622
 30
0.0
 11
0.1653543307
 21
111.1811023622
 31
0.0
  0
LINE
  5
FC
330
1F
100
AcDbEntity
  8
TITLE
  6
SLD-Solid
370
    18
100
AcDbLine
 10
89.5
 20
111.1811023622
 30
0.0
 11
89.8346456693
 21
111.1811023622
 31
0.0
  0
LINE
  5
FD
330
1F
100
AcDbEntity
  8
TITLE
  6
SLD-Solid
370
    18
100
AcDbLine
 10
0.5
 20
113.1496062992
 30
0.0
 11
0.1653543307
 21
113.1496062992
 31
0.0
  0
LINE
  5
FE
330
1F
100
AcDbEntity
  8
TITLE
  6
SLD-Solid
370
    18
100
AcDbLine
 10
89.5
 20
113.1496062992
 30
0.0
 11
89.8346456693
 21
113.1496062992
 31
0.0
  0
LINE
  5
FF
330
1F
100
AcDbEntity
  8
TITLE
  6
SLD-Solid
370
    18
100
AcDbLine
 10
0.5
 20
115.1181102362
 30
0.0
 11
0.1653543307
 21
115.1181102362
 31
0.0
  0
LINE
  5
100
330
1F
100
AcDbEntity
  8
TITLE
  6
SLD-Solid
370
    18
100
AcDbLine
 10
89.5
 20
115.1181102362
 30
0.0
 11
89.8346456693
 21
115.1181102362
 31
0.0
  0
LINE
  5
101
330
1F
100
AcDbEntity
  8
TITLE
  6
SLD-Solid
370
    18
100
AcDbLine
 10
0.5
 20
117.0866141732
 30
0.0
 11
0.1653543307
 21
117.0866141732
 31
0.0
  0
LINE
  5
102
330
1F
100
AcDbEntity
  8
TITLE
  6
SLD-Solid
370
    18
100
AcDbLine
 10
89.5
 20
117.0866141732
 30
0.0
 11
89.8346456693
 21
117.0866141732
 31
0.0
  0
LINE
  5
103
330
1F
100
AcDbEntity
  8
TITLE
  6
SLD-Solid
370
    18
100
AcDbLine
 10
1.6929133858
 20
119.5
 30
0.0
 11
1.6929133858
 21
119.8346456693
 31
0.0
  0
LINE
  5
104
330
1F
100
AcDbEntity
  8
TITLE
  6
SLD-Solid
370
    18
100
AcDbLine
 10
1.6929133858
 20
0.5
 30
0.0
 11
1.6929133858
 21
0.1653543307
 31
0.0
  0
LINE
  5
105
330
1F
100
AcDbEntity
  8
TITLE
  6
SLD-Solid
370
    18
100
AcDbLine
 10
3.6614173228
 20
119.5
 30
0.0
 11
3.6614173228
 21
119.8346456693
 31
0.0
  0
LINE
  5
106
330
1F
100
AcDbEntity
  8
TITLE
  6
SLD-Solid
370
    18
100
AcDbLine
 10
3.6614173228
 20
0.5
 30
0.0
 11
3.6614173228
 21
0.1653543307
 31
0.0
  0
LINE
  5
107
330
1F
100
AcDbEntity
  8
TITLE
  6
SLD-Solid
370
    18
100
AcDbLine
 10
5.6299212598
 20
119.5
 30
0.0
 11
5.6299212598
 21
119.8346456693
 31
0.0
  0
LINE
  5
108
330
1F
100
AcDbEntity
  8
TITLE
  6
SLD-Solid
370
    18
100
AcDbLine
 10
5.6299212598
 20
0.5
 30
0.0
 11
5.6299212598
 21
0.1653543307
 31
0.0
  0
LINE
  5
109
330
1F
100
AcDbEntity
  8
TITLE
  6
SLD-Solid
370
    18
100
AcDbLine
 10
7.5984251969
 20
119.5
 30
0.0
 11
7.5984251969
 21
119.8346456693
 31
0.0
  0
LINE
  5
10A
330
1F
100
AcDbEntity
  8
TITLE
  6
SLD-Solid
370
    18
100
AcDbLine
 10
7.5984251969
 20
0.5
 30
0.0
 11
7.5984251969
 21
0.1653543307
 31
0.0
  0
LINE
  5
10B
330
1F
100
AcDbEntity
  8
TITLE
  6
SLD-Solid
370
    18
100
AcDbLine
 10
9.5669291339
 20
119.5
 30
0.0
 11
9.5669291339
 21
119.8346456693
 31
0.0
  0
LINE
  5
10C
330
1F
100
AcDbEntity
  8
TITLE
  6
SLD-Solid
370
    18
100
AcDbLine
 10
9.5669291339
 20
0.5
 30
0.0
 11
9.5669291339
 21
0.1653543307
 31
0.0
  0
LINE
  5
10D
330
1F
100
AcDbEntity
  8
TITLE
  6
SLD-Solid
370
    18
100
AcDbLine
 10
11.5354330709
 20
119.5
 30
0.0
 11
11.5354330709
 21
119.8346456693
 31
0.0
  0
LINE
  5
10E
330
1F
100
AcDbEntity
  8
TITLE
  6
SLD-Solid
370
    18
100
AcDbLine
 10
11.5354330709
 20
0.5
 30
0.0
 11
11.5354330709
 21
0.1653543307
 31
0.0
  0
LINE
  5
10F
330
1F
100
AcDbEntity
  8
TITLE
  6
SLD-Solid
370
    18
100
AcDbLine
 10
13.5039370079
 20
119.5
 30
0.0
 11
13.5039370079
 21
119.8346456693
 31
0.0
  0
LINE
  5
110
330
1F
100
AcDbEntity
  8
TITLE
  6
SLD-Solid
370
    18
100
AcDbLine
 10
13.5039370079
 20
0.5
 30
0.0
 11
13.5039370079
 21
0.1653543307
 31
0.0
  0
LINE
  5
111
330
1F
100
AcDbEntity
  8
TITLE
  6
SLD-Solid
370
    18
100
AcDbLine
 10
15.4724409449
 20
119.5
 30
0.0
 11
15.4724409449
 21
119.8346456693
 31
0.0
  0
LINE
  5
112
330
1F
100
AcDbEntity
  8
TITLE
  6
SLD-Solid
370
    18
100
AcDbLine
 10
15.4724409449
 20
0.5
 30
0.0
 11
15.4724409449
 21
0.1653543307
 31
0.0
  0
LINE
  5
113
330
1F
100
AcDbEntity
  8
TITLE
  6
SLD-Solid
370
    18
100
AcDbLine
 10
17.4409448819
 20
119.5
 30
0.0
 11
17.4409448819
 21
119.8346456693
 31
0.0
  0
LINE
  5
114
330
1F
100
AcDbEntity
  8
TITLE
  6
SLD-Solid
370
    18
100
AcDbLine
 10
17.4409448819
 20
0.5
 30
0.0
 11
17.4409448819
 21
0.1653543307
 31
0.0
  0
LINE
  5
115
330
1F
100
AcDbEntity
  8
TITLE
  6
SLD-Solid
370
    18
100
AcDbLine
 10
19.4094488189
 20
119.5
 30
0.0
 11
19.4094488189
 21
119.8346456693
 31
0.0
  0
LINE
  5
116
330
1F
100
AcDbEntity
  8
TITLE
  6
SLD-Solid
370
    18
100
AcDbLine
 10
19.4094488189
 20
0.5
 30
0.0
 11
19.4094488189
 21
0.1653543307
 31
0.0
  0
LINE
  5
117
330
1F
100
AcDbEntity
  8
TITLE
  6
SLD-Solid
370
    18
100
AcDbLine
 10
21.3779527559
 20
119.5
 30
0.0
 11
21.3779527559
 21
119.8346456693
 31
0.0
  0
LINE
  5
118
330
1F
100
AcDbEntity
  8
TITLE
  6
SLD-Solid
370
    18
100
AcDbLine
 10
21.3779527559
 20
0.5
 30
0.0
 11
21.3779527559
 21
0.1653543307
 31
0.0
  0
LINE
  5
119
330
1F
100
AcDbEntity
  8
TITLE
  6
SLD-Solid
370
    18
100
AcDbLine
 10
23.3464566929
 20
119.5
 30
0.0
 11
23.3464566929
 21
119.8346456693
 31
0.0
  0
LINE
  5
11A
330
1F
100
AcDbEntity
  8
TITLE
  6
SLD-Solid
370
    18
100
AcDbLine
 10
23.3464566929
 20
0.5
 30
0.0
 11
23.3464566929
 21
0.1653543307
 31
0.0
  0
LINE
  5
11B
330
1F
100
AcDbEntity
  8
TITLE
  6
SLD-Solid
370
    18
100
AcDbLine
 10
25.3149606299
 20
119.5
 30
0.0
 11
25.3149606299
 21
119.8346456693
 31
0.0
  0
LINE
  5
11C
330
1F
100
AcDbEntity
  8
TITLE
  6
SLD-Solid
370
    18
100
AcDbLine
 10
25.3149606299
 20
0.5
 30
0.0
 11
25.3149606299
 21
0.1653543307
 31
0.0
  0
LINE
  5
11D
330
1F
100
AcDbEntity
  8
TITLE
  6
SLD-Solid
370
    18
100
AcDbLine
 10
27.2834645669
 20
119.5
 30
0.0
 11
27.2834645669
 21
119.8346456693
 31
0.0
  0
LINE
  5
11E
330
1F
100
AcDbEntity
  8
TITLE
  6
SLD-Solid
370
    18
100
AcDbLine
 10
27.2834645669
 20
0.5
 30
0.0
 11
27.2834645669
 21
0.1653543307
 31
0.0
  0
LINE
  5
11F
330
1F
100
AcDbEntity
  8
TITLE
  6
SLD-Solid
370
    18
100
AcDbLine
 10
29.2519685039
 20
119.5
 30
0.0
 11
29.2519685039
 21
119.8346456693
 31
0.0
  0
LINE
  5
120
330
1F
100
AcDbEntity
  8
TITLE
  6
SLD-Solid
370
    18
100
AcDbLine
 10
29.2519685039
 20
0.5
 30
0.0
 11
29.2519685039
 21
0.1653543307
 31
0.0
  0
LINE
  5
121
330
1F
100
AcDbEntity
  8
TITLE
  6
SLD-Solid
370
    18
100
AcDbLine
 10
31.2204724409
 20
119.5
 30
0.0
 11
31.2204724409
 21
119.8346456693
 31
0.0
  0
LINE
  5
122
330
1F
100
AcDbEntity
  8
TITLE
  6
SLD-Solid
370
    18
100
AcDbLine
 10
31.2204724409
 20
0.5
 30
0.0
 11
31.2204724409
 21
0.1653543307
 31
0.0
  0
LINE
  5
123
330
1F
100
AcDbEntity
  8
TITLE
  6
SLD-Solid
370
    18
100
AcDbLine
 10
33.188976378
 20
119.5
 30
0.0
 11
33.188976378
 21
119.8346456693
 31
0.0
  0
LINE
  5
124
330
1F
100
AcDbEntity
  8
TITLE
  6
SLD-Solid
370
    18
100
AcDbLine
 10
33.188976378
 20
0.5
 30
0.0
 11
33.188976378
 21
0.1653543307
 31
0.0
  0
LINE
  5
125
330
1F
100
AcDbEntity
  8
TITLE
  6
SLD-Solid
370
    18
100
AcDbLine
 10
35.157480315
 20
119.5
 30
0.0
 11
35.157480315
 21
119.8346456693
 31
0.0
  0
LINE
  5
126
330
1F
100
AcDbEntity
  8
TITLE
  6
SLD-Solid
370
    18
100
AcDbLine
 10
35.157480315
 20
0.5
 30
0.0
 11
35.157480315
 21
0.1653543307
 31
0.0
  0
LINE
  5
127
330
1F
100
AcDbEntity
  8
TITLE
  6
SLD-Solid
370
    18
100
AcDbLine
 10
37.125984252
 20
119.5
 30
0.0
 11
37.125984252
 21
119.8346456693
 31
0.0
  0
LINE
  5
128
330
1F
100
AcDbEntity
  8
TITLE
  6
SLD-Solid
370
    18
100
AcDbLine
 10
37.125984252
 20
0.5
 30
0.0
 11
37.125984252
 21
0.1653543307
 31
0.0
  0
LINE
  5
129
330
1F
100
AcDbEntity
  8
TITLE
  6
SLD-Solid
370
    18
100
AcDbLine
 10
39.094488189
 20
119.5
 30
0.0
 11
39.094488189
 21
119.8346456693
 31
0.0
  0
LINE
  5
12A
330
1F
100
AcDbEntity
  8
TITLE
  6
SLD-Solid
370
    18
100
AcDbLine
 10
39.094488189
 20
0.5
 30
0.0
 11
39.094488189
 21
0.1653543307
 31
0.0
  0
LINE
  5
12B
330
1F
100
AcDbEntity
  8
TITLE
  6
SLD-Solid
370
    18
100
AcDbLine
 10
41.062992126
 20
119.5
 30
0.0
 11
41.062992126
 21
119.8346456693
 31
0.0
  0
LINE
  5
12C
330
1F
100
AcDbEntity
  8
TITLE
  6
SLD-Solid
370
    18
100
AcDbLine
 10
41.062992126
 20
0.5
 30
0.0
 11
41.062992126
 21
0.1653543307
 31
0.0
  0
LINE
  5
12D
330
1F
100
AcDbEntity
  8
TITLE
  6
SLD-Solid
370
    18
100
AcDbLine
 10
43.031496063
 20
119.5
 30
0.0
 11
43.031496063
 21
119.8346456693
 31
0.0
  0
LINE
  5
12E
330
1F
100
AcDbEntity
  8
TITLE
  6
SLD-Solid
370
    18
100
AcDbLine
 10
43.031496063
 20
0.5
 30
0.0
 11
43.031496063
 21
0.1653543307
 31
0.0
  0
LINE
  5
12F
330
1F
100
AcDbEntity
  8
TITLE
  6
SLD-Solid
370
    18
100
AcDbLine
 10
45.0
 20
119.5
 30
0.0
 11
45.0
 21
119.8346456693
 31
0.0
  0
LINE
  5
130
330
1F
100
AcDbEntity
  8
TITLE
  6
SLD-Solid
370
    18
100
AcDbLine
 10
45.0
 20
0.5
 30
0.0
 11
45.0
 21
0.1653543307
 31
0.0
  0
LINE
  5
131
330
1F
100
AcDbEntity
  8
TITLE
  6
SLD-Solid
370
    18
100
AcDbLine
 10
46.968503937
 20
119.5
 30
0.0
 11
46.968503937
 21
119.8346456693
 31
0.0
  0
LINE
  5
132
330
1F
100
AcDbEntity
  8
TITLE
  6
SLD-Solid
370
    18
100
AcDbLine
 10
46.968503937
 20
0.5
 30
0.0
 11
46.968503937
 21
0.1653543307
 31
0.0
  0
LINE
  5
133
330
1F
100
AcDbEntity
  8
TITLE
  6
SLD-Solid
370
    18
100
AcDbLine
 10
48.937007874
 20
119.5
 30
0.0
 11
48.937007874
 21
119.8346456693
 31
0.0
  0
LINE
  5
134
330
1F
100
AcDbEntity
  8
TITLE
  6
SLD-Solid
370
    18
100
AcDbLine
 10
48.937007874
 20
0.5
 30
0.0
 11
48.937007874
 21
0.1653543307
 31
0.0
  0
LINE
  5
135
330
1F
100
AcDbEntity
  8
TITLE
  6
SLD-Solid
370
    18
100
AcDbLine
 10
50.905511811
 20
119.5
 30
0.0
 11
50.905511811
 21
119.8346456693
 31
0.0
  0
LINE
  5
136
330
1F
100
AcDbEntity
  8
TITLE
  6
SLD-Solid
370
    18
100
AcDbLine
 10
50.905511811
 20
0.5
 30
0.0
 11
50.905511811
 21
0.1653543307
 31
0.0
  0
LINE
  5
137
330
1F
100
AcDbEntity
  8
TITLE
  6
SLD-Solid
370
    18
100
AcDbLine
 10
52.874015748
 20
119.5
 30
0.0
 11
52.874015748
 21
119.8346456693
 31
0.0
  0
LINE
  5
138
330
1F
100
AcDbEntity
  8
TITLE
  6
SLD-Solid
370
    18
100
AcDbLine
 10
52.874015748
 20
0.5
 30
0.0
 11
52.874015748
 21
0.1653543307
 31
0.0
  0
LINE
  5
139
330
1F
100
AcDbEntity
  8
TITLE
  6
SLD-Solid
370
    18
100
AcDbLine
 10
54.842519685
 20
119.5
 30
0.0
 11
54.842519685
 21
119.8346456693
 31
0.0
  0
LINE
  5
13A
330
1F
100
AcDbEntity
  8
TITLE
  6
SLD-Solid
370
    18
100
AcDbLine
 10
54.842519685
 20
0.5
 30
0.0
 11
54.842519685
 21
0.1653543307
 31
0.0
  0
LINE
  5
13B
330
1F
100
AcDbEntity
  8
TITLE
  6
SLD-Solid
370
    18
100
AcDbLine
 10
56.811023622
 20
119.5
 30
0.0
 11
56.811023622
 21
119.8346456693
 31
0.0
  0
LINE
  5
13C
330
1F
100
AcDbEntity
  8
TITLE
  6
SLD-Solid
370
    18
100
AcDbLine
 10
56.811023622
 20
0.5
 30
0.0
 11
56.811023622
 21
0.1653543307
 31
0.0
  0
LINE
  5
13D
330
1F
100
AcDbEntity
  8
TITLE
  6
SLD-Solid
370
    18
100
AcDbLine
 10
58.7795275591
 20
119.5
 30
0.0
 11
58.7795275591
 21
119.8346456693
 31
0.0
  0
LINE
  5
13E
330
1F
100
AcDbEntity
  8
TITLE
  6
SLD-Solid
370
    18
100
AcDbLine
 10
58.7795275591
 20
0.5
 30
0.0
 11
58.7795275591
 21
0.1653543307
 31
0.0
  0
LINE
  5
13F
330
1F
100
AcDbEntity
  8
TITLE
  6
SLD-Solid
370
    18
100
AcDbLine
 10
60.7480314961
 20
119.5
 30
0.0
 11
60.7480314961
 21
119.8346456693
 31
0.0
  0
LINE
  5
140
330
1F
100
AcDbEntity
  8
TITLE
  6
SLD-Solid
370
    18
100
AcDbLine
 10
60.7480314961
 20
0.5
 30
0.0
 11
60.7480314961
 21
0.1653543307
 31
0.0
  0
LINE
  5
141
330
1F
100
AcDbEntity
  8
TITLE
  6
SLD-Solid
370
    18
100
AcDbLine
 10
62.7165354331
 20
119.5
 30
0.0
 11
62.7165354331
 21
119.8346456693
 31
0.0
  0
LINE
  5
142
330
1F
100
AcDbEntity
  8
TITLE
  6
SLD-Solid
370
    18
100
AcDbLine
 10
62.7165354331
 20
0.5
 30
0.0
 11
62.7165354331
 21
0.1653543307
 31
0.0
  0
LINE
  5
143
330
1F
100
AcDbEntity
  8
TITLE
  6
SLD-Solid
370
    18
100
AcDbLine
 10
64.6850393701
 20
119.5
 30
0.0
 11
64.6850393701
 21
119.8346456693
 31
0.0
  0
LINE
  5
144
330
1F
100
AcDbEntity
  8
TITLE
  6
SLD-Solid
370
    18
100
AcDbLine
 10
64.6850393701
 20
0.5
 30
0.0
 11
64.6850393701
 21
0.1653543307
 31
0.0
  0
LINE
  5
145
330
1F
100
AcDbEntity
  8
TITLE
  6
SLD-Solid
370
    18
100
AcDbLine
 10
66.6535433071
 20
119.5
 30
0.0
 11
66.6535433071
 21
119.8346456693
 31
0.0
  0
LINE
  5
146
330
1F
100
AcDbEntity
  8
TITLE
  6
SLD-Solid
370
    18
100
AcDbLine
 10
66.6535433071
 20
0.5
 30
0.0
 11
66.6535433071
 21
0.1653543307
 31
0.0
  0
LINE
  5
147
330
1F
100
AcDbEntity
  8
TITLE
  6
SLD-Solid
370
    18
100
AcDbLine
 10
68.6220472441
 20
119.5
 30
0.0
 11
68.6220472441
 21
119.8346456693
 31
0.0
  0
LINE
  5
148
330
1F
100
AcDbEntity
  8
TITLE
  6
SLD-Solid
370
    18
100
AcDbLine
 10
68.6220472441
 20
0.5
 30
0.0
 11
68.6220472441
 21
0.1653543307
 31
0.0
  0
LINE
  5
149
330
1F
100
AcDbEntity
  8
TITLE
  6
SLD-Solid
370
    18
100
AcDbLine
 10
70.5905511811
 20
119.5
 30
0.0
 11
70.5905511811
 21
119.8346456693
 31
0.0
  0
LINE
  5
14A
330
1F
100
AcDbEntity
  8
TITLE
  6
SLD-Solid
370
    18
100
AcDbLine
 10
70.5905511811
 20
0.5
 30
0.0
 11
70.5905511811
 21
0.1653543307
 31
0.0
  0
LINE
  5
14B
330
1F
100
AcDbEntity
  8
TITLE
  6
SLD-Solid
370
    18
100
AcDbLine
 10
72.5590551181
 20
119.5
 30
0.0
 11
72.5590551181
 21
119.8346456693
 31
0.0
  0
LINE
  5
14C
330
1F
100
AcDbEntity
  8
TITLE
  6
SLD-Solid
370
    18
100
AcDbLine
 10
72.5590551181
 20
0.5
 30
0.0
 11
72.5590551181
 21
0.1653543307
 31
0.0
  0
LINE
  5
14D
330
1F
100
AcDbEntity
  8
TITLE
  6
SLD-Solid
370
    18
100
AcDbLine
 10
74.5275590551
 20
119.5
 30
0.0
 11
74.5275590551
 21
119.8346456693
 31
0.0
  0
LINE
  5
14E
330
1F
100
AcDbEntity
  8
TITLE
  6
SLD-Solid
370
    18
100
AcDbLine
 10
74.5275590551
 20
0.5
 30
0.0
 11
74.5275590551
 21
0.1653543307
 31
0.0
  0
LINE
  5
14F
330
1F
100
AcDbEntity
  8
TITLE
  6
SLD-Solid
370
    18
100
AcDbLine
 10
76.4960629921
 20
119.5
 30
0.0
 11
76.4960629921
 21
119.8346456693
 31
0.0
  0
LINE
  5
150
330
1F
100
AcDbEntity
  8
TITLE
  6
SLD-Solid
370
    18
100
AcDbLine
 10
76.4960629921
 20
0.5
 30
0.0
 11
76.4960629921
 21
0.1653543307
 31
0.0
  0
LINE
  5
151
330
1F
100
AcDbEntity
  8
TITLE
  6
SLD-Solid
370
    18
100
AcDbLine
 10
78.4645669291
 20
119.5
 30
0.0
 11
78.4645669291
 21
119.8346456693
 31
0.0
  0
LINE
  5
152
330
1F
100
AcDbEntity
  8
TITLE
  6
SLD-Solid
370
    18
100
AcDbLine
 10
78.4645669291
 20
0.5
 30
0.0
 11
78.4645669291
 21
0.1653543307
 31
0.0
  0
LINE
  5
153
330
1F
100
AcDbEntity
  8
TITLE
  6
SLD-Solid
370
    18
100
AcDbLine
 10
80.4330708661
 20
119.5
 30
0.0
 11
80.4330708661
 21
119.8346456693
 31
0.0
  0
LINE
  5
154
330
1F
100
AcDbEntity
  8
TITLE
  6
SLD-Solid
370
    18
100
AcDbLine
 10
80.4330708661
 20
0.5
 30
0.0
 11
80.4330708661
 21
0.1653543307
 31
0.0
  0
LINE
  5
155
330
1F
100
AcDbEntity
  8
TITLE
  6
SLD-Solid
370
    18
100
AcDbLine
 10
82.4015748031
 20
119.5
 30
0.0
 11
82.4015748031
 21
119.8346456693
 31
0.0
  0
LINE
  5
156
330
1F
100
AcDbEntity
  8
TITLE
  6
SLD-Solid
370
    18
100
AcDbLine
 10
82.4015748031
 20
0.5
 30
0.0
 11
82.4015748031
 21
0.1653543307
 31
0.0
  0
LINE
  5
157
330
1F
100
AcDbEntity
  8
TITLE
  6
SLD-Solid
370
    18
100
AcDbLine
 10
84.3700787402
 20
119.5
 30
0.0
 11
84.3700787402
 21
119.8346456693
 31
0.0
  0
LINE
  5
158
330
1F
100
AcDbEntity
  8
TITLE
  6
SLD-Solid
370
    18
100
AcDbLine
 10
84.3700787402
 20
0.5
 30
0.0
 11
84.3700787402
 21
0.1653543307
 31
0.0
  0
LINE
  5
159
330
1F
100
AcDbEntity
  8
TITLE
  6
SLD-Solid
370
    18
100
AcDbLine
 10
86.3385826772
 20
119.5
 30
0.0
 11
86.3385826772
 21
119.8346456693
 31
0.0
  0
LINE
  5
15A
330
1F
100
AcDbEntity
  8
TITLE
  6
SLD-Solid
370
    18
100
AcDbLine
 10
86.3385826772
 20
0.5
 30
0.0
 11
86.3385826772
 21
0.1653543307
 31
0.0
  0
LINE
  5
15B
330
1F
100
AcDbEntity
  8
TITLE
  6
SLD-Solid
370
    18
100
AcDbLine
 10
88.3070866142
 20
119.5
 30
0.0
 11
88.3070866142
 21
119.8346456693
 31
0.0
  0
LINE
  5
15C
330
1F
100
AcDbEntity
  8
TITLE
  6
SLD-Solid
370
    18
100
AcDbLine
 10
88.3070866142
 20
0.5
 30
0.0
 11
88.3070866142
 21
0.1653543307
 31
0.0
  0
MTEXT
  5
15E
330
1F
100
AcDbEntity
  8
NOTES
100
AcDbMText
 10
66.408297803
 20
1.0702903347
 30
0.0
 40
0.25
 41
0.0
 71
     1
 72
     1
  1
UNLESS OTHERWISE SPECIFIED DIMENSIONS ARE IN INCHES.
  7
SLDTEXTSTYLE0
 73
     1
 44
1.0
  0
MTEXT
  5
15F
330
1F
100
AcDbEntity
  8
NOTES
100
AcDbMText
 10
66.4368251132
 20
3.2193045501
 30
0.0
 40
0.25
 41
0.0
 71
     1
 72
     1
  1
DATE:
  7
SLDTEXTSTYLE0
 73
     1
 44
1.0
  0
MTEXT
  5
160
330
1F
100
AcDbEntity
  8
NOTES
100
AcDbMText
 10
68.7130669976
 20
2.1722148141
 30
0.0
 40
0.25
 41
0.0
 71
     2
 72
     1
  1
DO NOT SCALE DRAWING
  7
SLDTEXTSTYLE0
 73
     1
 44
1.0
  0
MTEXT
  5
162
330
1F
100
AcDbEntity
  8
NOTES
100
AcDbMText
 10
72.8307373075
 20
3.2682755553
 30
0.0
 40
0.25
 41
0.0
 71
     1
 72
     1
  1
TITLE:
  7
SLDTEXTSTYLE1
 73
     1
 44
1.0
  0
MTEXT
  5
163
330
1F
100
AcDbEntity
  8
NOTES
100
AcDbMText
 10
80.1561831052
 20
3.2682755553
 30
0.0
 40
0.25
 41
0.0
 71
     1
 72
     1
  1
DWG NO.
  7
SLDTEXTSTYLE1
 73
     1
 44
1.0
  0
MTEXT
  5
164
330
1F
100
AcDbEntity
  8
NOTES
100
AcDbMText
 10
80.1831753203
 20
1.0645815577
 30
0.0
 40
0.25
 41
0.0
 71
     1
 72
     1
  1
SCALE:     1:1
  7
SLDTEXTSTYLE1
 73
     1
 44
1.0
  0
MTEXT
  5
165
330
1F
100
AcDbEntity
  8
NOTES
100
AcDbMText
 10
84.1809156055
 20
2.6510344295
 30
0.0
 40
0.25
 41
0.0
 71
     2
 72
     1
  1
713 CAD
  7
SLDTEXTSTYLE1
 73
     1
 44
1.0
  0
MTEXT
  5
166
330
1F
100
AcDbEntity
  8
NOTES
100
AcDbMText
 10
75.9515968033
 20
2.6388861441
 30
0.0
 40
0.25
 41
0.0
 71
     2
 72
     1
  1
713
  7
SLDTEXTSTYLE1
 73
     1
 44
1.0
  0
INSERT
  5
16C
330
1F
100
AcDbEntity
  8
NOTES
100
AcDbBlockReference
  2
SW_NOTE_0
 10
80.266131557
 20
4.6105227838
 30
0.0
  0
INSERT
  5
176
330
1F
100
AcDbEntity
  8
NOTES
100
AcDbBlockReference
  2
SW_NOTE_0_1
 10
66.6159726246
 20
5.1481526848
 30
0.0
  0
MTEXT
  5
177
330
1F
100
AcDbEntity
  8
NOTES
100
AcDbMText
 10
69.5286275485
 20
3.2135957731
 30
0.0
 40
0.25
 41
0.0
 71
     2
 72
     1
  1
October 14, 2021
  7
SLDTEXTSTYLE1
 73
     1
 44
1.0
  0
MTEXT
  5
178
330
1F
100
AcDbEntity
  8
TITLE
100
AcDbMText
 10
0.3276279776
 20
1.7865708579
 30
0.0
 40
0.125
 41
0.0
 71
     2
 72
     1
  1
A
  7
SLDTEXTSTYLE1
 73
     1
 44
1.0
  0
MTEXT
  5
179
330
1F
100
AcDbEntity
  8
TITLE
100
AcDbMText
 10
89.6622736469
 20
1.7865708579
 30
0.0
 40
0.125
 41
0.0
 71
     2
 72
     1
  1
A
  7
SLDTEXTSTYLE1
 73
     1
 44
1.0
  0
MTEXT
  5
17A
330
1F
100
AcDbEntity
  8
TITLE
100
AcDbMText
 10
0.3317512413
 20
3.9775157398
 30
0.0
 40
0.125
 41
0.0
 71
     2
 72
     1
  1
B
  7
SLDTEXTSTYLE1
 73
     1
 44
1.0
  0
MTEXT
  5
17B
330
1F
100
AcDbEntity
  8
TITLE
100
AcDbMText
 10
89.6663969106
 20
3.9775157398
 30
0.0
 40
0.125
 41
0.0
 71
     2
 72
     1
  1
B
  7
SLDTEXTSTYLE1
 73
     1
 44
1.0
  0
MTEXT
  5
17C
330
1F
100
AcDbEntity
  8
TITLE
100
AcDbMText
 10
0.3313750817
 20
5.9460196768
 30
0.0
 40
0.125
 41
0.0
 71
     2
 72
     1
  1
C
  7
SLDTEXTSTYLE1
 73
     1
 44
1.0
  0
MTEXT
  5
17D
330
1F
100
AcDbEntity
  8
TITLE
100
AcDbMText
 10
89.666020751
 20
5.9460196768
 30
0.0
 40
0.125
 41
0.0
 71
     2
 72
     1
  1
C
  7
SLDTEXTSTYLE1
 73
     1
 44
1.0
  0
MTEXT
  5
17E
330
1F
100
AcDbEntity
  8
TITLE
100
AcDbMText
 10
0.3311870028
 20
7.9145236138
 30
0.0
 40
0.125
 41
0.0
 71
     2
 72
     1
  1
D
  7
SLDTEXTSTYLE1
 73
     1
 44
1.0
  0
MTEXT
  5
17F
330
1F
100
AcDbEntity
  8
TITLE
100
AcDbMText
 10
89.6658326721
 20
7.9145236138
 30
0.0
 40
0.125
 41
0.0
 71
     2
 72
     1
  1
D
  7
SLDTEXTSTYLE1
 73
     1
 44
1.0
  0
MTEXT
  5
180
330
1F
100
AcDbEntity
  8
TITLE
100
AcDbMText
 10
0.332923116
 20
9.8830275508
 30
0.0
 40
0.125
 41
0.0
 71
     2
 72
     1
  1
E
  7
SLDTEXTSTYLE1
 73
     1
 44
1.0
  0
MTEXT
  5
181
330
1F
100
AcDbEntity
  8
TITLE
100
AcDbMText
 10
89.6675687853
 20
9.8830275508
 30
0.0
 40
0.125
 41
0.0
 71
     2
 72
     1
  1
E
  7
SLDTEXTSTYLE1
 73
     1
 44
1.0
  0
MTEXT
  5
182
330
1F
100
AcDbEntity
  8
TITLE
100
AcDbMText
 10
0.3313461474
 20
11.8515314878
 30
0.0
 40
0.125
 41
0.0
 71
     2
 72
     1
  1
F
  7
SLDTEXTSTYLE1
 73
     1
 44
1.0
  0
MTEXT
  5
183
330
1F
100
AcDbEntity
  8
TITLE
100
AcDbMText
 10
89.6659918167
 20
11.8515314878
 30
0.0
 40
0.125
 41
0.0
 71
     2
 72
     1
  1
F
  7
SLDTEXTSTYLE1
 73
     1
 44
1.0
  0
MTEXT
  5
184
330
1F
100
AcDbEntity
  8
TITLE
100
AcDbMText
 10
0.3322576054
 20
13.8200354248
 30
0.0
 40
0.125
 41
0.0
 71
     2
 72
     1
  1
G
  7
SLDTEXTSTYLE1
 73
     1
 44
1.0
  0
MTEXT
  5
185
330
1F
100
AcDbEntity
  8
TITLE
100
AcDbMText
 10
89.6669032747
 20
13.8200354248
 30
0.0
 40
0.125
 41
0.0
 71
     2
 72
     1
  1
G
  7
SLDTEXTSTYLE1
 73
     1
 44
1.0
  0
MTEXT
  5
186
330
1F
100
AcDbEntity
  8
TITLE
100
AcDbMText
 10
0.3323733457
 20
15.7885393618
 30
0.0
 40
0.125
 41
0.0
 71
     2
 72
     1
  1
H
  7
SLDTEXTSTYLE1
 73
     1
 44
1.0
  0
MTEXT
  5
187
330
1F
100
AcDbEntity
  8
TITLE
100
AcDbMText
 10
89.667019015
 20
15.7885393618
 30
0.0
 40
0.125
 41
0.0
 71
     2
 72
     1
  1
H
  7
SLDTEXTSTYLE1
 73
     1
 44
1.0
  0
MTEXT
  5
188
330
1F
100
AcDbEntity
  8
TITLE
100
AcDbMText
 10
0.3315776306
 20
17.7570432988
 30
0.0
 40
0.125
 41
0.0
 71
     2
 72
     1
  1
J
  7
SLDTEXTSTYLE1
 73
     1
 44
1.0
  0
MTEXT
  5
189
330
1F
100
AcDbEntity
  8
TITLE
100
AcDbMText
 10
89.6662232999
 20
17.7570432988
 30
0.0
 40
0.125
 41
0.0
 71
     2
 72
     1
  1
J
  7
SLDTEXTSTYLE1
 73
     1
 44
1.0
  0
MTEXT
  5
18A
330
1F
100
AcDbEntity
  8
TITLE
100
AcDbMText
 10
0.3323154765
 20
19.7255472359
 30
0.0
 40
0.125
 41
0.0
 71
     2
 72
     1
  1
K
  7
SLDTEXTSTYLE1
 73
     1
 44
1.0
  0
MTEXT
  5
18B
330
1F
100
AcDbEntity
  8
TITLE
100
AcDbMText
 10
89.6669611458
 20
19.7255472359
 30
0.0
 40
0.125
 41
0.0
 71
     2
 72
     1
  1
K
  7
SLDTEXTSTYLE1
 73
     1
 44
1.0
  0
MTEXT
  5
18C
330
1F
100
AcDbEntity
  8
TITLE
100
AcDbMText
 10
0.3312448739
 20
21.6940511729
 30
0.0
 40
0.125
 41
0.0
 71
     2
 72
     1
  1
L
  7
SLDTEXTSTYLE1
 73
     1
 44
1.0
  0
MTEXT
  5
18D
330
1F
100
AcDbEntity
  8
TITLE
100
AcDbMText
 10
89.6658905432
 20
21.6940511729
 30
0.0
 40
0.125
 41
0.0
 71
     2
 72
     1
  1
L
  7
SLDTEXTSTYLE1
 73
     1
 44
1.0
  0
MTEXT
  5
18E
330
1F
100
AcDbEntity
  8
TITLE
100
AcDbMText
 10
0.3283224192
 20
23.6625551099
 30
0.0
 40
0.125
 41
0.0
 71
     2
 72
     1
  1
M
  7
SLDTEXTSTYLE1
 73
     1
 44
1.0
  0
MTEXT
  5
18F
330
1F
100
AcDbEntity
  8
TITLE
100
AcDbMText
 10
89.6629680885
 20
23.6625551099
 30
0.0
 40
0.125
 41
0.0
 71
     2
 72
     1
  1
M
  7
SLDTEXTSTYLE1
 73
     1
 44
1.0
  0
MTEXT
  5
190
330
1F
100
AcDbEntity
  8
TITLE
100
AcDbMText
 10
0.3315342276
 20
25.6310590469
 30
0.0
 40
0.125
 41
0.0
 71
     2
 72
     1
  1
N
  7
SLDTEXTSTYLE1
 73
     1
 44
1.0
  0
MTEXT
  5
191
330
1F
100
AcDbEntity
  8
TITLE
100
AcDbMText
 10
89.6661798969
 20
25.6310590469
 30
0.0
 40
0.125
 41
0.0
 71
     2
 72
     1
  1
N
  7
SLDTEXTSTYLE1
 73
     1
 44
1.0
  0
MTEXT
  5
192
330
1F
100
AcDbEntity
  8
TITLE
100
AcDbMText
 10
0.3321997349
 20
27.5995629839
 30
0.0
 40
0.125
 41
0.0
 71
     2
 72
     1
  1
P
  7
SLDTEXTSTYLE1
 73
     1
 44
1.0
  0
MTEXT
  5
193
330
1F
100
AcDbEntity
  8
TITLE
100
AcDbMText
 10
89.6668454042
 20
27.5995629839
 30
0.0
 40
0.125
 41
0.0
 71
     2
 72
     1
  1
P
  7
SLDTEXTSTYLE1
 73
     1
 44
1.0
  0
MTEXT
  5
194
330
1F
100
AcDbEntity
  8
TITLE
100
AcDbMText
 10
0.3309265867
 20
29.5680669209
 30
0.0
 40
0.125
 41
0.0
 71
     2
 72
     1
  1
R
  7
SLDTEXTSTYLE1
 73
     1
 44
1.0
  0
MTEXT
  5
195
330
1F
100
AcDbEntity
  8
TITLE
100
AcDbMText
 10
89.665572256
 20
29.5680669209
 30
0.0
 40
0.125
 41
0.0
 71
     2
 72
     1
  1
R
  7
SLDTEXTSTYLE1
 73
     1
 44
1.0
  0
MTEXT
  5
196
330
1F
100
AcDbEntity
  8
TITLE
100
AcDbMText
 10
0.3323010071
 20
31.5365708579
 30
0.0
 40
0.125
 41
0.0
 71
     2
 72
     1
  1
T
  7
SLDTEXTSTYLE1
 73
     1
 44
1.0
  0
MTEXT
  5
197
330
1F
100
AcDbEntity
  8
TITLE
100
AcDbMText
 10
89.6669466764
 20
31.5365708579
 30
0.0
 40
0.125
 41
0.0
 71
     2
 72
     1
  1
T
  7
SLDTEXTSTYLE1
 73
     1
 44
1.0
  0
MTEXT
  5
198
330
1F
100
AcDbEntity
  8
TITLE
100
AcDbMText
 10
0.3328507755
 20
33.5050747949
 30
0.0
 40
0.125
 41
0.0
 71
     2
 72
     1
  1
U
  7
SLDTEXTSTYLE1
 73
     1
 44
1.0
  0
MTEXT
  5
199
330
1F
100
AcDbEntity
  8
TITLE
100
AcDbMText
 10
89.6674964448
 20
33.5050747949
 30
0.0
 40
0.125
 41
0.0
 71
     2
 72
     1
  1
U
  7
SLDTEXTSTYLE1
 73
     1
 44
1.0
  0
MTEXT
  5
19A
330
1F
100
AcDbEntity
  8
TITLE
100
AcDbMText
 10
0.3307529773
 20
35.4735787319
 30
0.0
 40
0.125
 41
0.0
 71
     2
 72
     1
  1
V
  7
SLDTEXTSTYLE1
 73
     1
 44
1.0
  0
MTEXT
  5
19B
330
1F
100
AcDbEntity
  8
TITLE
100
AcDbMText
 10
89.6653986466
 20
35.4735787319
 30
0.0
 40
0.125
 41
0.0
 71
     2
 72
     1
  1
V
  7
SLDTEXTSTYLE1
 73
     1
 44
1.0
  0
MTEXT
  5
19C
330
1F
100
AcDbEntity
  8
TITLE
100
AcDbMText
 10
0.3327784409
 20
37.4420826689
 30
0.0
 40
0.125
 41
0.0
 71
     2
 72
     1
  1
W
  7
SLDTEXTSTYLE1
 73
     1
 44
1.0
  0
MTEXT
  5
19D
330
1F
100
AcDbEntity
  8
TITLE
100
AcDbMText
 10
89.6674241102
 20
37.4420826689
 30
0.0
 40
0.125
 41
0.0
 71
     2
 72
     1
  1
W
  7
SLDTEXTSTYLE1
 73
     1
 44
1.0
  0
MTEXT
  5
19E
330
1F
100
AcDbEntity
  8
TITLE
100
AcDbMText
 10
0.3321997349
 20
39.4105866059
 30
0.0
 40
0.125
 41
0.0
 71
     2
 72
     1
  1
Y
  7
SLDTEXTSTYLE1
 73
     1
 44
1.0
  0
MTEXT
  5
19F
330
1F
100
AcDbEntity
  8
TITLE
100
AcDbMText
 10
89.6668454042
 20
39.4105866059
 30
0.0
 40
0.125
 41
0.0
 71
     2
 72
     1
  1
Y
  7
SLDTEXTSTYLE1
 73
     1
 44
1.0
  0
MTEXT
  5
1A0
330
1F
100
AcDbEntity
  8
TITLE
100
AcDbMText
 10
0.3225787898
 20
41.3790905429
 30
0.0
 40
0.125
 41
0.0
 71
     2
 72
     1
  1
AA
  7
SLDTEXTSTYLE1
 73
     1
 44
1.0
  0
MTEXT
  5
1A1
330
1F
100
AcDbEntity
  8
TITLE
100
AcDbMText
 10
89.6572244591
 20
41.3790905429
 30
0.0
 40
0.125
 41
0.0
 71
     2
 72
     1
  1
AA
  7
SLDTEXTSTYLE1
 73
     1
 44
1.0
  0
MTEXT
  5
1A2
330
1F
100
AcDbEntity
  8
TITLE
100
AcDbMText
 10
0.3267020535
 20
43.34759448
 30
0.0
 40
0.125
 41
0.0
 71
     2
 72
     1
  1
AB
  7
SLDTEXTSTYLE1
 73
     1
 44
1.0
  0
MTEXT
  5
1A3
330
1F
100
AcDbEntity
  8
TITLE
100
AcDbMText
 10
89.6613477228
 20
43.34759448
 30
0.0
 40
0.125
 41
0.0
 71
     2
 72
     1
  1
AB
  7
SLDTEXTSTYLE1
 73
     1
 44
1.0
  0
MTEXT
  5
1A4
330
1F
100
AcDbEntity
  8
TITLE
100
AcDbMText
 10
0.3263258985
 20
45.316098417
 30
0.0
 40
0.125
 41
0.0
 71
     2
 72
     1
  1
AC
  7
SLDTEXTSTYLE1
 73
     1
 44
1.0
  0
MTEXT
  5
1A5
330
1F
100
AcDbEntity
  8
TITLE
100
AcDbMText
 10
89.6609715678
 20
45.316098417
 30
0.0
 40
0.125
 41
0.0
 71
     2
 72
     1
  1
AC
  7
SLDTEXTSTYLE1
 73
     1
 44
1.0
  0
MTEXT
  5
1A6
330
1F
100
AcDbEntity
  8
TITLE
100
AcDbMText
 10
0.3261378197
 20
47.284602354
 30
0.0
 40
0.125
 41
0.0
 71
     2
 72
     1
  1
AD
  7
SLDTEXTSTYLE1
 73
     1
 44
1.0
  0
MTEXT
  5
1A7
330
1F
100
AcDbEntity
  8
TITLE
100
AcDbMText
 10
89.6607834889
 20
47.284602354
 30
0.0
 40
0.125
 41
0.0
 71
     2
 72
     1
  1
AD
  7
SLDTEXTSTYLE1
 73
     1
 44
1.0
  0
MTEXT
  5
1A8
330
1F
100
AcDbEntity
  8
TITLE
100
AcDbMText
 10
0.3278739283
 20
49.253106291
 30
0.0
 40
0.125
 41
0.0
 71
     2
 72
     1
  1
AE
  7
SLDTEXTSTYLE1
 73
     1
 44
1.0
  0
MTEXT
  5
1A9
330
1F
100
AcDbEntity
  8
TITLE
100
AcDbMText
 10
89.6625195976
 20
49.253106291
 30
0.0
 40
0.125
 41
0.0
 71
     2
 72
     1
  1
AE
  7
SLDTEXTSTYLE1
 73
     1
 44
1.0
  0
MTEXT
  5
1AA
330
1F
100
AcDbEntity
  8
TITLE
100
AcDbMText
 10
0.3262969596
 20
51.221610228
 30
0.0
 40
0.125
 41
0.0
 71
     2
 72
     1
  1
AF
  7
SLDTEXTSTYLE1
 73
     1
 44
1.0
  0
MTEXT
  5
1AB
330
1F
100
AcDbEntity
  8
TITLE
100
AcDbMText
 10
89.6609426289
 20
51.221610228
 30
0.0
 40
0.125
 41
0.0
 71
     2
 72
     1
  1
AF
  7
SLDTEXTSTYLE1
 73
     1
 44
1.0
  0
MTEXT
  5
1AC
330
1F
100
AcDbEntity
  8
TITLE
100
AcDbMText
 10
0.3272084177
 20
53.190114165
 30
0.0
 40
0.125
 41
0.0
 71
     2
 72
     1
  1
AG
  7
SLDTEXTSTYLE1
 73
     1
 44
1.0
  0
MTEXT
  5
1AD
330
1F
100
AcDbEntity
  8
TITLE
100
AcDbMText
 10
89.661854087
 20
53.190114165
 30
0.0
 40
0.125
 41
0.0
 71
     2
 72
     1
  1
AG
  7
SLDTEXTSTYLE1
 73
     1
 44
1.0
  0
MTEXT
  5
1AE
330
1F
100
AcDbEntity
  8
TITLE
100
AcDbMText
 10
0.3273241625
 20
55.158618102
 30
0.0
 40
0.125
 41
0.0
 71
     2
 72
     1
  1
AH
  7
SLDTEXTSTYLE1
 73
     1
 44
1.0
  0
MTEXT
  5
1AF
330
1F
100
AcDbEntity
  8
TITLE
100
AcDbMText
 10
89.6619698318
 20
55.158618102
 30
0.0
 40
0.125
 41
0.0
 71
     2
 72
     1
  1
AH
  7
SLDTEXTSTYLE1
 73
     1
 44
1.0
  0
MTEXT
  5
1B0
330
1F
100
AcDbEntity
  8
TITLE
100
AcDbMText
 10
0.3265284428
 20
57.127122039
 30
0.0
 40
0.125
 41
0.0
 71
     2
 72
     1
  1
AJ
  7
SLDTEXTSTYLE1
 73
     1
 44
1.0
  0
MTEXT
  5
1B1
330
1F
100
AcDbEntity
  8
TITLE
100
AcDbMText
 10
89.6611741121
 20
57.127122039
 30
0.0
 40
0.125
 41
0.0
 71
     2
 72
     1
  1
AJ
  7
SLDTEXTSTYLE1
 73
     1
 44
1.0
  0
MTEXT
  5
1B2
330
1F
100
AcDbEntity
  8
TITLE
100
AcDbMText
 10
0.3272662887
 20
59.095625976
 30
0.0
 40
0.125
 41
0.0
 71
     2
 72
     1
  1
AK
  7
SLDTEXTSTYLE1
 73
     1
 44
1.0
  0
MTEXT
  5
1B3
330
1F
100
AcDbEntity
  8
TITLE
100
AcDbMText
 10
89.661911958
 20
59.095625976
 30
0.0
 40
0.125
 41
0.0
 71
     2
 72
     1
  1
AK
  7
SLDTEXTSTYLE1
 73
     1
 44
1.0
  0
MTEXT
  5
1B4
330
1F
100
AcDbEntity
  8
TITLE
100
AcDbMText
 10
0.3261956816
 20
61.064129913
 30
0.0
 40
0.125
 41
0.0
 71
     2
 72
     1
  1
AL
  7
SLDTEXTSTYLE1
 73
     1
 44
1.0
  0
MTEXT
  5
1B5
330
1F
100
AcDbEntity
  8
TITLE
100
AcDbMText
 10
89.6608413509
 20
61.064129913
 30
0.0
 40
0.125
 41
0.0
 71
     2
 72
     1
  1
AL
  7
SLDTEXTSTYLE1
 73
     1
 44
1.0
  0
MTEXT
  5
1B6
330
1F
100
AcDbEntity
  8
TITLE
100
AcDbMText
 10
0.3232732315
 20
63.03263385
 30
0.0
 40
0.125
 41
0.0
 71
     2
 72
     1
  1
AM
  7
SLDTEXTSTYLE1
 73
     1
 44
1.0
  0
MTEXT
  5
1B7
330
1F
100
AcDbEntity
  8
TITLE
100
AcDbMText
 10
89.6579189008
 20
63.03263385
 30
0.0
 40
0.125
 41
0.0
 71
     2
 72
     1
  1
AM
  7
SLDTEXTSTYLE1
 73
     1
 44
1.0
  0
MTEXT
  5
1B8
330
1F
100
AcDbEntity
  8
TITLE
100
AcDbMText
 10
0.3264850398
 20
65.001137787
 30
0.0
 40
0.125
 41
0.0
 71
     2
 72
     1
  1
AN
  7
SLDTEXTSTYLE1
 73
     1
 44
1.0
  0
MTEXT
  5
1B9
330
1F
100
AcDbEntity
  8
TITLE
100
AcDbMText
 10
89.6611307091
 20
65.001137787
 30
0.0
 40
0.125
 41
0.0
 71
     2
 72
     1
  1
AN
  7
SLDTEXTSTYLE1
 73
     1
 44
1.0
  0
MTEXT
  5
1BA
330
1F
100
AcDbEntity
  8
TITLE
100
AcDbMText
 10
0.3271505426
 20
66.969641724
 30
0.0
 40
0.125
 41
0.0
 71
     2
 72
     1
  1
AP
  7
SLDTEXTSTYLE1
 73
     1
 44
1.0
  0
MTEXT
  5
1BB
330
1F
100
AcDbEntity
  8
TITLE
100
AcDbMText
 10
89.6617962119
 20
66.969641724
 30
0.0
 40
0.125
 41
0.0
 71
     2
 72
     1
  1
AP
  7
SLDTEXTSTYLE1
 73
     1
 44
1.0
  0
MTEXT
  5
1BC
330
1F
100
AcDbEntity
  8
TITLE
100
AcDbMText
 10
0.325877399
 20
68.9381456611
 30
0.0
 40
0.125
 41
0.0
 71
     2
 72
     1
  1
AR
  7
SLDTEXTSTYLE1
 73
     1
 44
1.0
  0
MTEXT
  5
1BD
330
1F
100
AcDbEntity
  8
TITLE
100
AcDbMText
 10
89.6605230682
 20
68.9381456611
 30
0.0
 40
0.125
 41
0.0
 71
     2
 72
     1
  1
AR
  7
SLDTEXTSTYLE1
 73
     1
 44
1.0
  0
MTEXT
  5
1BE
330
1F
100
AcDbEntity
  8
TITLE
100
AcDbMText
 10
0.3272518193
 20
70.9066495981
 30
0.0
 40
0.125
 41
0.0
 71
     2
 72
     1
  1
AT
  7
SLDTEXTSTYLE1
 73
     1
 44
1.0
  0
MTEXT
  5
1BF
330
1F
100
AcDbEntity
  8
TITLE
100
AcDbMText
 10
89.6618974886
 20
70.9066495981
 30
0.0
 40
0.125
 41
0.0
 71
     2
 72
     1
  1
AT
  7
SLDTEXTSTYLE1
 73
     1
 44
1.0
  0
MTEXT
  5
1C0
330
1F
100
AcDbEntity
  8
TITLE
100
AcDbMText
 10
0.3278015877
 20
72.8751535351
 30
0.0
 40
0.125
 41
0.0
 71
     2
 72
     1
  1
AU
  7
SLDTEXTSTYLE1
 73
     1
 44
1.0
  0
MTEXT
  5
1C1
330
1F
100
AcDbEntity
  8
TITLE
100
AcDbMText
 10
89.662447257
 20
72.8751535351
 30
0.0
 40
0.125
 41
0.0
 71
     2
 72
     1
  1
AU
  7
SLDTEXTSTYLE1
 73
     1
 44
1.0
  0
MTEXT
  5
1C2
330
1F
100
AcDbEntity
  8
TITLE
100
AcDbMText
 10
0.3257037895
 20
74.8436574721
 30
0.0
 40
0.125
 41
0.0
 71
     2
 72
     1
  1
AV
  7
SLDTEXTSTYLE1
 73
     1
 44
1.0
  0
MTEXT
  5
1C3
330
1F
100
AcDbEntity
  8
TITLE
100
AcDbMText
 10
89.6603494588
 20
74.8436574721
 30
0.0
 40
0.125
 41
0.0
 71
     2
 72
     1
  1
AV
  7
SLDTEXTSTYLE1
 73
     1
 44
1.0
  0
MTEXT
  5
1C4
330
1F
100
AcDbEntity
  8
TITLE
100
AcDbMText
 10
0.3277292486
 20
76.8121614091
 30
0.0
 40
0.125
 41
0.0
 71
     2
 72
     1
  1
AW
  7
SLDTEXTSTYLE1
 73
     1
 44
1.0
  0
MTEXT
  5
1C5
330
1F
100
AcDbEntity
  8
TITLE
100
AcDbMText
 10
89.6623749179
 20
76.8121614091
 30
0.0
 40
0.125
 41
0.0
 71
     2
 72
     1
  1
AW
  7
SLDTEXTSTYLE1
 73
     1
 44
1.0
  0
MTEXT
  5
1C6
330
1F
100
AcDbEntity
  8
TITLE
100
AcDbMText
 10
0.3271505426
 20
78.7806653461
 30
0.0
 40
0.125
 41
0.0
 71
     2
 72
     1
  1
AY
  7
SLDTEXTSTYLE1
 73
     1
 44
1.0
  0
MTEXT
  5
1C7
330
1F
100
AcDbEntity
  8
TITLE
100
AcDbMText
 10
89.6617962119
 20
78.7806653461
 30
0.0
 40
0.125
 41
0.0
 71
     2
 72
     1
  1
AY
  7
SLDTEXTSTYLE1
 73
     1
 44
1.0
  0
MTEXT
  5
1C8
330
1F
100
AcDbEntity
  8
TITLE
100
AcDbMText
 10
0.3267020535
 20
80.7491692831
 30
0.0
 40
0.125
 41
0.0
 71
     2
 72
     1
  1
BA
  7
SLDTEXTSTYLE1
 73
     1
 44
1.0
  0
MTEXT
  5
1C9
330
1F
100
AcDbEntity
  8
TITLE
100
AcDbMText
 10
89.6613477228
 20
80.7491692831
 30
0.0
 40
0.125
 41
0.0
 71
     2
 72
     1
  1
BA
  7
SLDTEXTSTYLE1
 73
     1
 44
1.0
  0
MTEXT
  5
1CA
330
1F
100
AcDbEntity
  8
TITLE
100
AcDbMText
 10
0.3308253173
 20
82.7176732201
 30
0.0
 40
0.125
 41
0.0
 71
     2
 72
     1
  1
BB
  7
SLDTEXTSTYLE1
 73
     1
 44
1.0
  0
MTEXT
  5
1CB
330
1F
100
AcDbEntity
  8
TITLE
100
AcDbMText
 10
89.6654709865
 20
82.7176732201
 30
0.0
 40
0.125
 41
0.0
 71
     2
 72
     1
  1
BB
  7
SLDTEXTSTYLE1
 73
     1
 44
1.0
  0
MTEXT
  5
1CC
330
1F
100
AcDbEntity
  8
TITLE
100
AcDbMText
 10
0.3304491531
 20
84.6861771571
 30
0.0
 40
0.125
 41
0.0
 71
     2
 72
     1
  1
BC
  7
SLDTEXTSTYLE1
 73
     1
 44
1.0
  0
MTEXT
  5
1CD
330
1F
100
AcDbEntity
  8
TITLE
100
AcDbMText
 10
89.6650948224
 20
84.6861771571
 30
0.0
 40
0.125
 41
0.0
 71
     2
 72
     1
  1
BC
  7
SLDTEXTSTYLE1
 73
     1
 44
1.0
  0
MTEXT
  5
1CE
330
1F
100
AcDbEntity
  8
TITLE
100
AcDbMText
 10
0.3302610742
 20
86.6546810941
 30
0.0
 40
0.125
 41
0.0
 71
     2
 72
     1
  1
BD
  7
SLDTEXTSTYLE1
 73
     1
 44
1.0
  0
MTEXT
  5
1CF
330
1F
100
AcDbEntity
  8
TITLE
100
AcDbMText
 10
89.6649067435
 20
86.6546810941
 30
0.0
 40
0.125
 41
0.0
 71
     2
 72
     1
  1
BD
  7
SLDTEXTSTYLE1
 73
     1
 44
1.0
  0
MTEXT
  5
1D0
330
1F
100
AcDbEntity
  8
TITLE
100
AcDbMText
 10
0.331997192
 20
88.6231850311
 30
0.0
 40
0.125
 41
0.0
 71
     2
 72
     1
  1
BE
  7
SLDTEXTSTYLE1
 73
     1
 44
1.0
  0
MTEXT
  5
1D1
330
1F
100
AcDbEntity
  8
TITLE
100
AcDbMText
 10
89.6666428613
 20
88.6231850311
 30
0.0
 40
0.125
 41
0.0
 71
     2
 72
     1
  1
BE
  7
SLDTEXTSTYLE1
 73
     1
 44
1.0
  0
MTEXT
  5
1D2
330
1F
100
AcDbEntity
  8
TITLE
100
AcDbMText
 10
0.3304202234
 20
90.5916889681
 30
0.0
 40
0.125
 41
0.0
 71
     2
 72
     1
  1
BF
  7
SLDTEXTSTYLE1
 73
     1
 44
1.0
  0
MTEXT
  5
1D3
330
1F
100
AcDbEntity
  8
TITLE
100
AcDbMText
 10
89.6650658926
 20
90.5916889681
 30
0.0
 40
0.125
 41
0.0
 71
     2
 72
     1
  1
BF
  7
SLDTEXTSTYLE1
 73
     1
 44
1.0
  0
MTEXT
  5
1D4
330
1F
100
AcDbEntity
  8
TITLE
100
AcDbMText
 10
0.3313316814
 20
92.5601929051
 30
0.0
 40
0.125
 41
0.0
 71
     2
 72
     1
  1
BG
  7
SLDTEXTSTYLE1
 73
     1
 44
1.0
  0
MTEXT
  5
1D5
330
1F
100
AcDbEntity
  8
TITLE
100
AcDbMText
 10
89.6659773507
 20
92.5601929051
 30
0.0
 40
0.125
 41
0.0
 71
     2
 72
     1
  1
BG
  7
SLDTEXTSTYLE1
 73
     1
 44
1.0
  0
MTEXT
  5
1D6
330
1F
100
AcDbEntity
  8
TITLE
100
AcDbMText
 10
0.331447417
 20
94.5286968422
 30
0.0
 40
0.125
 41
0.0
 71
     2
 72
     1
  1
BH
  7
SLDTEXTSTYLE1
 73
     1
 44
1.0
  0
MTEXT
  5
1D7
330
1F
100
AcDbEntity
  8
TITLE
100
AcDbMText
 10
89.6660930863
 20
94.5286968422
 30
0.0
 40
0.125
 41
0.0
 71
     2
 72
     1
  1
BH
  7
SLDTEXTSTYLE1
 73
     1
 44
1.0
  0
MTEXT
  5
1D8
330
1F
100
AcDbEntity
  8
TITLE
100
AcDbMText
 10
0.3306517065
 20
96.4972007792
 30
0.0
 40
0.125
 41
0.0
 71
     2
 72
     1
  1
BJ
  7
SLDTEXTSTYLE1
 73
     1
 44
1.0
  0
MTEXT
  5
1D9
330
1F
100
AcDbEntity
  8
TITLE
100
AcDbMText
 10
89.6652973758
 20
96.4972007792
 30
0.0
 40
0.125
 41
0.0
 71
     2
 72
     1
  1
BJ
  7
SLDTEXTSTYLE1
 73
     1
 44
1.0
  0
MTEXT
  5
1DA
330
1F
100
AcDbEntity
  8
TITLE
100
AcDbMText
 10
0.3313895525
 20
98.4657047162
 30
0.0
 40
0.125
 41
0.0
 71
     2
 72
     1
  1
BK
  7
SLDTEXTSTYLE1
 73
     1
 44
1.0
  0
MTEXT
  5
1DB
330
1F
100
AcDbEntity
  8
TITLE
100
AcDbMText
 10
89.6660352218
 20
98.4657047162
 30
0.0
 40
0.125
 41
0.0
 71
     2
 72
     1
  1
BK
  7
SLDTEXTSTYLE1
 73
     1
 44
1.0
  0
MTEXT
  5
1DC
330
1F
100
AcDbEntity
  8
TITLE
100
AcDbMText
 10
0.3303189545
 20
100.4342086532
 30
0.0
 40
0.125
 41
0.0
 71
     2
 72
     1
  1
BL
  7
SLDTEXTSTYLE1
 73
     1
 44
1.0
  0
MTEXT
  5
1DD
330
1F
100
AcDbEntity
  8
TITLE
100
AcDbMText
 10
89.6649646237
 20
100.4342086532
 30
0.0
 40
0.125
 41
0.0
 71
     2
 72
     1
  1
BL
  7
SLDTEXTSTYLE1
 73
     1
 44
1.0
  0
MTEXT
  5
1DE
330
1F
100
AcDbEntity
  8
TITLE
100
AcDbMText
 10
0.3273964952
 20
102.4027125902
 30
0.0
 40
0.125
 41
0.0
 71
     2
 72
     1
  1
BM
  7
SLDTEXTSTYLE1
 73
     1
 44
1.0
  0
MTEXT
  5
1DF
330
1F
100
AcDbEntity
  8
TITLE
100
AcDbMText
 10
89.6620421645
 20
102.4027125902
 30
0.0
 40
0.125
 41
0.0
 71
     2
 72
     1
  1
BM
  7
SLDTEXTSTYLE1
 73
     1
 44
1.0
  0
MTEXT
  5
1E0
330
1F
100
AcDbEntity
  8
TITLE
100
AcDbMText
 10
0.3306083035
 20
104.3712165272
 30
0.0
 40
0.125
 41
0.0
 71
     2
 72
     1
  1
BN
  7
SLDTEXTSTYLE1
 73
     1
 44
1.0
  0
MTEXT
  5
1E1
330
1F
100
AcDbEntity
  8
TITLE
100
AcDbMText
 10
89.6652539728
 20
104.3712165272
 30
0.0
 40
0.125
 41
0.0
 71
     2
 72
     1
  1
BN
  7
SLDTEXTSTYLE1
 73
     1
 44
1.0
  0
MTEXT
  5
1E2
330
1F
100
AcDbEntity
  8
TITLE
100
AcDbMText
 10
0.3312738155
 20
106.3397204642
 30
0.0
 40
0.125
 41
0.0
 71
     2
 72
     1
  1
BP
  7
SLDTEXTSTYLE1
 73
     1
 44
1.0
  0
MTEXT
  5
1E3
330
1F
100
AcDbEntity
  8
TITLE
100
AcDbMText
 10
89.6659194848
 20
106.3397204642
 30
0.0
 40
0.125
 41
0.0
 71
     2
 72
     1
  1
BP
  7
SLDTEXTSTYLE1
 73
     1
 44
1.0
  0
MTEXT
  5
1E4
330
1F
100
AcDbEntity
  8
TITLE
100
AcDbMText
 10
0.3300006627
 20
108.3082244012
 30
0.0
 40
0.125
 41
0.0
 71
     2
 72
     1
  1
BR
  7
SLDTEXTSTYLE1
 73
     1
 44
1.0
  0
MTEXT
  5
1E5
330
1F
100
AcDbEntity
  8
TITLE
100
AcDbMText
 10
89.664646332
 20
108.3082244012
 30
0.0
 40
0.125
 41
0.0
 71
     2
 72
     1
  1
BR
  7
SLDTEXTSTYLE1
 73
     1
 44
1.0
  0
MTEXT
  5
1E6
330
1F
100
AcDbEntity
  8
TITLE
100
AcDbMText
 10
0.331375083
 20
110.2767283382
 30
0.0
 40
0.125
 41
0.0
 71
     2
 72
     1
  1
BT
  7
SLDTEXTSTYLE1
 73
     1
 44
1.0
  0
MTEXT
  5
1E7
330
1F
100
AcDbEntity
  8
TITLE
100
AcDbMText
 10
89.6660207523
 20
110.2767283382
 30
0.0
 40
0.125
 41
0.0
 71
     2
 72
     1
  1
BT
  7
SLDTEXTSTYLE1
 73
     1
 44
1.0
  0
MTEXT
  5
1E8
330
1F
100
AcDbEntity
  8
TITLE
100
AcDbMText
 10
0.3319248515
 20
112.2452322752
 30
0.0
 40
0.125
 41
0.0
 71
     2
 72
     1
  1
BU
  7
SLDTEXTSTYLE1
 73
     1
 44
1.0
  0
MTEXT
  5
1E9
330
1F
100
AcDbEntity
  8
TITLE
100
AcDbMText
 10
89.6665705208
 20
112.2452322752
 30
0.0
 40
0.125
 41
0.0
 71
     2
 72
     1
  1
BU
  7
SLDTEXTSTYLE1
 73
     1
 44
1.0
  0
MTEXT
  5
1EA
330
1F
100
AcDbEntity
  8
TITLE
100
AcDbMText
 10
0.3298270533
 20
114.2137362122
 30
0.0
 40
0.125
 41
0.0
 71
     2
 72
     1
  1
BV
  7
SLDTEXTSTYLE1
 73
     1
 44
1.0
  0
MTEXT
  5
1EB
330
1F
100
AcDbEntity
  8
TITLE
100
AcDbMText
 10
89.6644727226
 20
114.2137362122
 30
0.0
 40
0.125
 41
0.0
 71
     2
 72
     1
  1
BV
  7
SLDTEXTSTYLE1
 73
     1
 44
1.0
  0
MTEXT
  5
1EC
330
1F
100
AcDbEntity
  8
TITLE
100
AcDbMText
 10
0.3318525215
 20
116.1822401492
 30
0.0
 40
0.125
 41
0.0
 71
     2
 72
     1
  1
BW
  7
SLDTEXTSTYLE1
 73
     1
 44
1.0
  0
MTEXT
  5
1ED
330
1F
100
AcDbEntity
  8
TITLE
100
AcDbMText
 10
89.6664981907
 20
116.1822401492
 30
0.0
 40
0.125
 41
0.0
 71
     2
 72
     1
  1
BW
  7
SLDTEXTSTYLE1
 73
     1
 44
1.0
  0
MTEXT
  5
1EE
330
1F
100
AcDbEntity
  8
TITLE
100
AcDbMText
 10
0.3312738155
 20
118.3731850311
 30
0.0
 40
0.125
 41
0.0
 71
     2
 72
     1
  1
BY
  7
SLDTEXTSTYLE1
 73
     1
 44
1.0
  0
MTEXT
  5
1EF
330
1F
100
AcDbEntity
  8
TITLE
100
AcDbMText
 10
89.6659194848
 20
118.3731850311
 30
0.0
 40
0.125
 41
0.0
 71
     2
 72
     1
  1
BY
  7
SLDTEXTSTYLE1
 73
     1
 44
1.0
  0
MTEXT
  5
1F0
330
1F
100
AcDbEntity
  8
TITLE
100
AcDbMText
 10
1.0939393315
 20
0.4125551099
 30
0.0
 40
0.125
 41
0.0
 71
     2
 72
     1
  1
46
  7
SLDTEXTSTYLE1
 73
     1
 44
1.0
  0
MTEXT
  5
1F1
330
1F
100
AcDbEntity
  8
TITLE
100
AcDbMText
 10
1.0939393315
 20
119.7472007792
 30
0.0
 40
0.125
 41
0.0
 71
     2
 72
     1
  1
46
  7
SLDTEXTSTYLE1
 73
     1
 44
1.0
  0
MTEXT
  5
1F2
330
1F
100
AcDbEntity
  8
TITLE
100
AcDbMText
 10
2.674647993
 20
0.4125551099
 30
0.0
 40
0.125
 41
0.0
 71
     2
 72
     1
  1
45
  7
SLDTEXTSTYLE1
 73
     1
 44
1.0
  0
MTEXT
  5
1F3
330
1F
100
AcDbEntity
  8
TITLE
100
AcDbMText
 10
2.674647993
 20
119.7472007792
 30
0.0
 40
0.125
 41
0.0
 71
     2
 72
     1
  1
45
  7
SLDTEXTSTYLE1
 73
     1
 44
1.0
  0
MTEXT
  5
1F4
330
1F
100
AcDbEntity
  8
TITLE
100
AcDbMText
 10
4.64315193
 20
0.4125551099
 30
0.0
 40
0.125
 41
0.0
 71
     2
 72
     1
  1
44
  7
SLDTEXTSTYLE1
 73
     1
 44
1.0
  0
MTEXT
  5
1F5
330
1F
100
AcDbEntity
  8
TITLE
100
AcDbMText
 10
4.64315193
 20
119.7472007792
 30
0.0
 40
0.125
 41
0.0
 71
     2
 72
     1
  1
44
  7
SLDTEXTSTYLE1
 73
     1
 44
1.0
  0
MTEXT
  5
1F6
330
1F
100
AcDbEntity
  8
TITLE
100
AcDbMText
 10
6.611655867
 20
0.4125551099
 30
0.0
 40
0.125
 41
0.0
 71
     2
 72
     1
  1
43
  7
SLDTEXTSTYLE1
 73
     1
 44
1.0
  0
MTEXT
  5
1F7
330
1F
100
AcDbEntity
  8
TITLE
100
AcDbMText
 10
6.611655867
 20
119.7472007792
 30
0.0
 40
0.125
 41
0.0
 71
     2
 72
     1
  1
43
  7
SLDTEXTSTYLE1
 73
     1
 44
1.0
  0
MTEXT
  5
1F8
330
1F
100
AcDbEntity
  8
TITLE
100
AcDbMText
 10
8.580159804
 20
0.4125551099
 30
0.0
 40
0.125
 41
0.0
 71
     2
 72
     1
  1
42
  7
SLDTEXTSTYLE1
 73
     1
 44
1.0
  0
MTEXT
  5
1F9
330
1F
100
AcDbEntity
  8
TITLE
100
AcDbMText
 10
8.580159804
 20
119.7472007792
 30
0.0
 40
0.125
 41
0.0
 71
     2
 72
     1
  1
42
  7
SLDTEXTSTYLE1
 73
     1
 44
1.0
  0
MTEXT
  5
1FA
330
1F
100
AcDbEntity
  8
TITLE
100
AcDbMText
 10
10.548663741
 20
0.4125551099
 30
0.0
 40
0.125
 41
0.0
 71
     2
 72
     1
  1
41
  7
SLDTEXTSTYLE1
 73
     1
 44
1.0
  0
MTEXT
  5
1FB
330
1F
100
AcDbEntity
  8
TITLE
100
AcDbMText
 10
10.548663741
 20
119.7472007792
 30
0.0
 40
0.125
 41
0.0
 71
     2
 72
     1
  1
41
  7
SLDTEXTSTYLE1
 73
     1
 44
1.0
  0
MTEXT
  5
1FC
330
1F
100
AcDbEntity
  8
TITLE
100
AcDbMText
 10
12.517167678
 20
0.4125551099
 30
0.0
 40
0.125
 41
0.0
 71
     2
 72
     1
  1
40
  7
SLDTEXTSTYLE1
 73
     1
 44
1.0
  0
MTEXT
  5
1FD
330
1F
100
AcDbEntity
  8
TITLE
100
AcDbMText
 10
12.517167678
 20
119.7472007792
 30
0.0
 40
0.125
 41
0.0
 71
     2
 72
     1
  1
40
  7
SLDTEXTSTYLE1
 73
     1
 44
1.0
  0
MTEXT
  5
1FE
330
1F
100
AcDbEntity
  8
TITLE
100
AcDbMText
 10
14.485671615
 20
0.4125551099
 30
0.0
 40
0.125
 41
0.0
 71
     2
 72
     1
  1
39
  7
SLDTEXTSTYLE1
 73
     1
 44
1.0
  0
MTEXT
  5
1FF
330
1F
100
AcDbEntity
  8
TITLE
100
AcDbMText
 10
14.485671615
 20
119.7472007792
 30
0.0
 40
0.125
 41
0.0
 71
     2
 72
     1
  1
39
  7
SLDTEXTSTYLE1
 73
     1
 44
1.0
  0
MTEXT
  5
200
330
1F
100
AcDbEntity
  8
TITLE
100
AcDbMText
 10
16.454175552
 20
0.4125551099
 30
0.0
 40
0.125
 41
0.0
 71
     2
 72
     1
  1
38
  7
SLDTEXTSTYLE1
 73
     1
 44
1.0
  0
MTEXT
  5
201
330
1F
100
AcDbEntity
  8
TITLE
100
AcDbMText
 10
16.454175552
 20
119.7472007792
 30
0.0
 40
0.125
 41
0.0
 71
     2
 72
     1
  1
38
  7
SLDTEXTSTYLE1
 73
     1
 44
1.0
  0
MTEXT
  5
202
330
1F
100
AcDbEntity
  8
TITLE
100
AcDbMText
 10
18.422679489
 20
0.4125551099
 30
0.0
 40
0.125
 41
0.0
 71
     2
 72
     1
  1
37
  7
SLDTEXTSTYLE1
 73
     1
 44
1.0
  0
MTEXT
  5
203
330
1F
100
AcDbEntity
  8
TITLE
100
AcDbMText
 10
18.422679489
 20
119.7472007792
 30
0.0
 40
0.125
 41
0.0
 71
     2
 72
     1
  1
37
  7
SLDTEXTSTYLE1
 73
     1
 44
1.0
  0
MTEXT
  5
204
330
1F
100
AcDbEntity
  8
TITLE
100
AcDbMText
 10
20.391183426
 20
0.4125551099
 30
0.0
 40
0.125
 41
0.0
 71
     2
 72
     1
  1
36
  7
SLDTEXTSTYLE1
 73
     1
 44
1.0
  0
MTEXT
  5
205
330
1F
100
AcDbEntity
  8
TITLE
100
AcDbMText
 10
20.391183426
 20
119.7472007792
 30
0.0
 40
0.125
 41
0.0
 71
     2
 72
     1
  1
36
  7
SLDTEXTSTYLE1
 73
     1
 44
1.0
  0
MTEXT
  5
206
330
1F
100
AcDbEntity
  8
TITLE
100
AcDbMText
 10
22.359687363
 20
0.4125551099
 30
0.0
 40
0.125
 41
0.0
 71
     2
 72
     1
  1
35
  7
SLDTEXTSTYLE1
 73
     1
 44
1.0
  0
MTEXT
  5
207
330
1F
100
AcDbEntity
  8
TITLE
100
AcDbMText
 10
22.359687363
 20
119.7472007792
 30
0.0
 40
0.125
 41
0.0
 71
     2
 72
     1
  1
35
  7
SLDTEXTSTYLE1
 73
     1
 44
1.0
  0
MTEXT
  5
208
330
1F
100
AcDbEntity
  8
TITLE
100
AcDbMText
 10
24.3281913
 20
0.4125551099
 30
0.0
 40
0.125
 41
0.0
 71
     2
 72
     1
  1
34
  7
SLDTEXTSTYLE1
 73
     1
 44
1.0
  0
MTEXT
  5
209
330
1F
100
AcDbEntity
  8
TITLE
100
AcDbMText
 10
24.3281913
 20
119.7472007792
 30
0.0
 40
0.125
 41
0.0
 71
     2
 72
     1
  1
34
  7
SLDTEXTSTYLE1
 73
     1
 44
1.0
  0
MTEXT
  5
20A
330
1F
100
AcDbEntity
  8
TITLE
100
AcDbMText
 10
26.2966952371
 20
0.4125551099
 30
0.0
 40
0.125
 41
0.0
 71
     2
 72
     1
  1
33
  7
SLDTEXTSTYLE1
 73
     1
 44
1.0
  0
MTEXT
  5
20B
330
1F
100
AcDbEntity
  8
TITLE
100
AcDbMText
 10
26.2966952371
 20
119.7472007792
 30
0.0
 40
0.125
 41
0.0
 71
     2
 72
     1
  1
33
  7
SLDTEXTSTYLE1
 73
     1
 44
1.0
  0
MTEXT
  5
20C
330
1F
100
AcDbEntity
  8
TITLE
100
AcDbMText
 10
28.2651991741
 20
0.4125551099
 30
0.0
 40
0.125
 41
0.0
 71
     2
 72
     1
  1
32
  7
SLDTEXTSTYLE1
 73
     1
 44
1.0
  0
MTEXT
  5
20D
330
1F
100
AcDbEntity
  8
TITLE
100
AcDbMText
 10
28.2651991741
 20
119.7472007792
 30
0.0
 40
0.125
 41
0.0
 71
     2
 72
     1
  1
32
  7
SLDTEXTSTYLE1
 73
     1
 44
1.0
  0
MTEXT
  5
20E
330
1F
100
AcDbEntity
  8
TITLE
100
AcDbMText
 10
30.2337031111
 20
0.4125551099
 30
0.0
 40
0.125
 41
0.0
 71
     2
 72
     1
  1
31
  7
SLDTEXTSTYLE1
 73
     1
 44
1.0
  0
MTEXT
  5
20F
330
1F
100
AcDbEntity
  8
TITLE
100
AcDbMText
 10
30.2337031111
 20
119.7472007792
 30
0.0
 40
0.125
 41
0.0
 71
     2
 72
     1
  1
31
  7
SLDTEXTSTYLE1
 73
     1
 44
1.0
  0
MTEXT
  5
210
330
1F
100
AcDbEntity
  8
TITLE
100
AcDbMText
 10
32.2022070481
 20
0.4125551099
 30
0.0
 40
0.125
 41
0.0
 71
     2
 72
     1
  1
30
  7
SLDTEXTSTYLE1
 73
     1
 44
1.0
  0
MTEXT
  5
211
330
1F
100
AcDbEntity
  8
TITLE
100
AcDbMText
 10
32.2022070481
 20
119.7472007792
 30
0.0
 40
0.125
 41
0.0
 71
     2
 72
     1
  1
30
  7
SLDTEXTSTYLE1
 73
     1
 44
1.0
  0
MTEXT
  5
212
330
1F
100
AcDbEntity
  8
TITLE
100
AcDbMText
 10
34.1707109851
 20
0.4125551099
 30
0.0
 40
0.125
 41
0.0
 71
     2
 72
     1
  1
29
  7
SLDTEXTSTYLE1
 73
     1
 44
1.0
  0
MTEXT
  5
213
330
1F
100
AcDbEntity
  8
TITLE
100
AcDbMText
 10
34.1707109851
 20
119.7472007792
 30
0.0
 40
0.125
 41
0.0
 71
     2
 72
     1
  1
29
  7
SLDTEXTSTYLE1
 73
     1
 44
1.0
  0
MTEXT
  5
214
330
1F
100
AcDbEntity
  8
TITLE
100
AcDbMText
 10
36.1392149221
 20
0.4125551099
 30
0.0
 40
0.125
 41
0.0
 71
     2
 72
     1
  1
28
  7
SLDTEXTSTYLE1
 73
     1
 44
1.0
  0
MTEXT
  5
215
330
1F
100
AcDbEntity
  8
TITLE
100
AcDbMText
 10
36.1392149221
 20
119.7472007792
 30
0.0
 40
0.125
 41
0.0
 71
     2
 72
     1
  1
28
  7
SLDTEXTSTYLE1
 73
     1
 44
1.0
  0
MTEXT
  5
216
330
1F
100
AcDbEntity
  8
TITLE
100
AcDbMText
 10
38.1077188591
 20
0.4125551099
 30
0.0
 40
0.125
 41
0.0
 71
     2
 72
     1
  1
27
  7
SLDTEXTSTYLE1
 73
     1
 44
1.0
  0
MTEXT
  5
217
330
1F
100
AcDbEntity
  8
TITLE
100
AcDbMText
 10
38.1077188591
 20
119.7472007792
 30
0.0
 40
0.125
 41
0.0
 71
     2
 72
     1
  1
27
  7
SLDTEXTSTYLE1
 73
     1
 44
1.0
  0
MTEXT
  5
218
330
1F
100
AcDbEntity
  8
TITLE
100
AcDbMText
 10
40.0762227961
 20
0.4125551099
 30
0.0
 40
0.125
 41
0.0
 71
     2
 72
     1
  1
26
  7
SLDTEXTSTYLE1
 73
     1
 44
1.0
  0
MTEXT
  5
219
330
1F
100
AcDbEntity
  8
TITLE
100
AcDbMText
 10
40.0762227961
 20
119.7472007792
 30
0.0
 40
0.125
 41
0.0
 71
     2
 72
     1
  1
26
  7
SLDTEXTSTYLE1
 73
     1
 44
1.0
  0
MTEXT
  5
21A
330
1F
100
AcDbEntity
  8
TITLE
100
AcDbMText
 10
42.0447267331
 20
0.4125551099
 30
0.0
 40
0.125
 41
0.0
 71
     2
 72
     1
  1
25
  7
SLDTEXTSTYLE1
 73
     1
 44
1.0
  0
MTEXT
  5
21B
330
1F
100
AcDbEntity
  8
TITLE
100
AcDbMText
 10
42.0447267331
 20
119.7472007792
 30
0.0
 40
0.125
 41
0.0
 71
     2
 72
     1
  1
25
  7
SLDTEXTSTYLE1
 73
     1
 44
1.0
  0
MTEXT
  5
21C
330
1F
100
AcDbEntity
  8
TITLE
100
AcDbMText
 10
44.0132306701
 20
0.4125551099
 30
0.0
 40
0.125
 41
0.0
 71
     2
 72
     1
  1
24
  7
SLDTEXTSTYLE1
 73
     1
 44
1.0
  0
MTEXT
  5
21D
330
1F
100
AcDbEntity
  8
TITLE
100
AcDbMText
 10
44.0132306701
 20
119.7472007792
 30
0.0
 40
0.125
 41
0.0
 71
     2
 72
     1
  1
24
  7
SLDTEXTSTYLE1
 73
     1
 44
1.0
  0
MTEXT
  5
21E
330
1F
100
AcDbEntity
  8
TITLE
100
AcDbMText
 10
45.9817346071
 20
0.4125551099
 30
0.0
 40
0.125
 41
0.0
 71
     2
 72
     1
  1
23
  7
SLDTEXTSTYLE1
 73
     1
 44
1.0
  0
MTEXT
  5
21F
330
1F
100
AcDbEntity
  8
TITLE
100
AcDbMText
 10
45.9817346071
 20
119.7472007792
 30
0.0
 40
0.125
 41
0.0
 71
     2
 72
     1
  1
23
  7
SLDTEXTSTYLE1
 73
     1
 44
1.0
  0
MTEXT
  5
220
330
1F
100
AcDbEntity
  8
TITLE
100
AcDbMText
 10
47.9502385441
 20
0.4125551099
 30
0.0
 40
0.125
 41
0.0
 71
     2
 72
     1
  1
22
  7
SLDTEXTSTYLE1
 73
     1
 44
1.0
  0
MTEXT
  5
221
330
1F
100
AcDbEntity
  8
TITLE
100
AcDbMText
 10
47.9502385441
 20
119.7472007792
 30
0.0
 40
0.125
 41
0.0
 71
     2
 72
     1
  1
22
  7
SLDTEXTSTYLE1
 73
     1
 44
1.0
  0
MTEXT
  5
222
330
1F
100
AcDbEntity
  8
TITLE
100
AcDbMText
 10
49.9187424811
 20
0.4125551099
 30
0.0
 40
0.125
 41
0.0
 71
     2
 72
     1
  1
21
  7
SLDTEXTSTYLE1
 73
     1
 44
1.0
  0
MTEXT
  5
223
330
1F
100
AcDbEntity
  8
TITLE
100
AcDbMText
 10
49.9187424811
 20
119.7472007792
 30
0.0
 40
0.125
 41
0.0
 71
     2
 72
     1
  1
21
  7
SLDTEXTSTYLE1
 73
     1
 44
1.0
  0
MTEXT
  5
224
330
1F
100
AcDbEntity
  8
TITLE
100
AcDbMText
 10
51.8872464182
 20
0.4125551099
 30
0.0
 40
0.125
 41
0.0
 71
     2
 72
     1
  1
20
  7
SLDTEXTSTYLE1
 73
     1
 44
1.0
  0
MTEXT
  5
225
330
1F
100
AcDbEntity
  8
TITLE
100
AcDbMText
 10
51.8872464182
 20
119.7472007792
 30
0.0
 40
0.125
 41
0.0
 71
     2
 72
     1
  1
20
  7
SLDTEXTSTYLE1
 73
     1
 44
1.0
  0
MTEXT
  5
226
330
1F
100
AcDbEntity
  8
TITLE
100
AcDbMText
 10
53.8557503552
 20
0.4125551099
 30
0.0
 40
0.125
 41
0.0
 71
     2
 72
     1
  1
19
  7
SLDTEXTSTYLE1
 73
     1
 44
1.0
  0
MTEXT
  5
227
330
1F
100
AcDbEntity
  8
TITLE
100
AcDbMText
 10
53.8557503552
 20
119.7472007792
 30
0.0
 40
0.125
 41
0.0
 71
     2
 72
     1
  1
19
  7
SLDTEXTSTYLE1
 73
     1
 44
1.0
  0
MTEXT
  5
228
330
1F
100
AcDbEntity
  8
TITLE
100
AcDbMText
 10
55.8242542922
 20
0.4125551099
 30
0.0
 40
0.125
 41
0.0
 71
     2
 72
     1
  1
18
  7
SLDTEXTSTYLE1
 73
     1
 44
1.0
  0
MTEXT
  5
229
330
1F
100
AcDbEntity
  8
TITLE
100
AcDbMText
 10
55.8242542922
 20
119.7472007792
 30
0.0
 40
0.125
 41
0.0
 71
     2
 72
     1
  1
18
  7
SLDTEXTSTYLE1
 73
     1
 44
1.0
  0
MTEXT
  5
22A
330
1F
100
AcDbEntity
  8
TITLE
100
AcDbMText
 10
57.7927582292
 20
0.4125551099
 30
0.0
 40
0.125
 41
0.0
 71
     2
 72
     1
  1
17
  7
SLDTEXTSTYLE1
 73
     1
 44
1.0
  0
MTEXT
  5
22B
330
1F
100
AcDbEntity
  8
TITLE
100
AcDbMText
 10
57.7927582292
 20
119.7472007792
 30
0.0
 40
0.125
 41
0.0
 71
     2
 72
     1
  1
17
  7
SLDTEXTSTYLE1
 73
     1
 44
1.0
  0
MTEXT
  5
22C
330
1F
100
AcDbEntity
  8
TITLE
100
AcDbMText
 10
59.7612621662
 20
0.4125551099
 30
0.0
 40
0.125
 41
0.0
 71
     2
 72
     1
  1
16
  7
SLDTEXTSTYLE1
 73
     1
 44
1.0
  0
MTEXT
  5
22D
330
1F
100
AcDbEntity
  8
TITLE
100
AcDbMText
 10
59.7612621662
 20
119.7472007792
 30
0.0
 40
0.125
 41
0.0
 71
     2
 72
     1
  1
16
  7
SLDTEXTSTYLE1
 73
     1
 44
1.0
  0
MTEXT
  5
22E
330
1F
100
AcDbEntity
  8
TITLE
100
AcDbMText
 10
61.7297661032
 20
0.4125551099
 30
0.0
 40
0.125
 41
0.0
 71
     2
 72
     1
  1
15
  7
SLDTEXTSTYLE1
 73
     1
 44
1.0
  0
MTEXT
  5
22F
330
1F
100
AcDbEntity
  8
TITLE
100
AcDbMText
 10
61.7297661032
 20
119.7472007792
 30
0.0
 40
0.125
 41
0.0
 71
     2
 72
     1
  1
15
  7
SLDTEXTSTYLE1
 73
     1
 44
1.0
  0
MTEXT
  5
230
330
1F
100
AcDbEntity
  8
TITLE
100
AcDbMText
 10
63.6982700402
 20
0.4125551099
 30
0.0
 40
0.125
 41
0.0
 71
     2
 72
     1
  1
14
  7
SLDTEXTSTYLE1
 73
     1
 44
1.0
  0
MTEXT
  5
231
330
1F
100
AcDbEntity
  8
TITLE
100
AcDbMText
 10
63.6982700402
 20
119.7472007792
 30
0.0
 40
0.125
 41
0.0
 71
     2
 72
     1
  1
14
  7
SLDTEXTSTYLE1
 73
     1
 44
1.0
  0
MTEXT
  5
232
330
1F
100
AcDbEntity
  8
TITLE
100
AcDbMText
 10
65.6667739772
 20
0.4125551099
 30
0.0
 40
0.125
 41
0.0
 71
     2
 72
     1
  1
13
  7
SLDTEXTSTYLE1
 73
     1
 44
1.0
  0
MTEXT
  5
233
330
1F
100
AcDbEntity
  8
TITLE
100
AcDbMText
 10
65.6667739772
 20
119.7472007792
 30
0.0
 40
0.125
 41
0.0
 71
     2
 72
     1
  1
13
  7
SLDTEXTSTYLE1
 73
     1
 44
1.0
  0
MTEXT
  5
234
330
1F
100
AcDbEntity
  8
TITLE
100
AcDbMText
 10
67.6352779142
 20
0.4125551099
 30
0.0
 40
0.125
 41
0.0
 71
     2
 72
     1
  1
12
  7
SLDTEXTSTYLE1
 73
     1
 44
1.0
  0
MTEXT
  5
235
330
1F
100
AcDbEntity
  8
TITLE
100
AcDbMText
 10
67.6352779142
 20
119.7472007792
 30
0.0
 40
0.125
 41
0.0
 71
     2
 72
     1
  1
12
  7
SLDTEXTSTYLE1
 73
     1
 44
1.0
  0
MTEXT
  5
236
330
1F
100
AcDbEntity
  8
TITLE
100
AcDbMText
 10
69.6037818512
 20
0.4125551099
 30
0.0
 40
0.125
 41
0.0
 71
     2
 72
     1
  1
11
  7
SLDTEXTSTYLE1
 73
     1
 44
1.0
  0
MTEXT
  5
237
330
1F
100
AcDbEntity
  8
TITLE
100
AcDbMText
 10
69.6037818512
 20
119.7472007792
 30
0.0
 40
0.125
 41
0.0
 71
     2
 72
     1
  1
11
  7
SLDTEXTSTYLE1
 73
     1
 44
1.0
  0
MTEXT
  5
238
330
1F
100
AcDbEntity
  8
TITLE
100
AcDbMText
 10
71.5722857882
 20
0.4125551099
 30
0.0
 40
0.125
 41
0.0
 71
     2
 72
     1
  1
10
  7
SLDTEXTSTYLE1
 73
     1
 44
1.0
  0
MTEXT
  5
239
330
1F
100
AcDbEntity
  8
TITLE
100
AcDbMText
 10
71.5722857882
 20
119.7472007792
 30
0.0
 40
0.125
 41
0.0
 71
     2
 72
     1
  1
10
  7
SLDTEXTSTYLE1
 73
     1
 44
1.0
  0
MTEXT
  5
23A
330
1F
100
AcDbEntity
  8
TITLE
100
AcDbMText
 10
73.5420484059
 20
0.4125551099
 30
0.0
 40
0.125
 41
0.0
 71
     2
 72
     1
  1
9
  7
SLDTEXTSTYLE1
 73
     1
 44
1.0
  0
MTEXT
  5
23B
330
1F
100
AcDbEntity
  8
TITLE
100
AcDbMText
 10
73.5420484059
 20
119.7472007792
 30
0.0
 40
0.125
 41
0.0
 71
     2
 72
     1
  1
9
  7
SLDTEXTSTYLE1
 73
     1
 44
1.0
  0
MTEXT
  5
23C
330
1F
100
AcDbEntity
  8
TITLE
100
AcDbMText
 10
75.5105523429
 20
0.4125551099
 30
0.0
 40
0.125
 41
0.0
 71
     2
 72
     1
  1
8
  7
SLDTEXTSTYLE1
 73
     1
 44
1.0
  0
MTEXT
  5
23D
330
1F
100
AcDbEntity
  8
TITLE
100
AcDbMText
 10
75.5105523429
 20
119.7472007792
 30
0.0
 40
0.125
 41
0.0
 71
     2
 72
     1
  1
8
  7
SLDTEXTSTYLE1
 73
     1
 44
1.0
  0
MTEXT
  5
23E
330
1F
100
AcDbEntity
  8
TITLE
100
AcDbMText
 10
77.4790562799
 20
0.4125551099
 30
0.0
 40
0.125
 41
0.0
 71
     2
 72
     1
  1
7
  7
SLDTEXTSTYLE1
 73
     1
 44
1.0
  0
MTEXT
  5
23F
330
1F
100
AcDbEntity
  8
TITLE
100
AcDbMText
 10
77.4790562799
 20
119.7472007792
 30
0.0
 40
0.125
 41
0.0
 71
     2
 72
     1
  1
7
  7
SLDTEXTSTYLE1
 73
     1
 44
1.0
  0
MTEXT
  5
240
330
1F
100
AcDbEntity
  8
TITLE
100
AcDbMText
 10
79.447560217
 20
0.4125551099
 30
0.0
 40
0.125
 41
0.0
 71
     2
 72
     1
  1
6
  7
SLDTEXTSTYLE1
 73
     1
 44
1.0
  0
MTEXT
  5
241
330
1F
100
AcDbEntity
  8
TITLE
100
AcDbMText
 10
79.447560217
 20
119.7472007792
 30
0.0
 40
0.125
 41
0.0
 71
     2
 72
     1
  1
6
  7
SLDTEXTSTYLE1
 73
     1
 44
1.0
  0
MTEXT
  5
242
330
1F
100
AcDbEntity
  8
TITLE
100
AcDbMText
 10
81.416064154
 20
0.4125551099
 30
0.0
 40
0.125
 41
0.0
 71
     2
 72
     1
  1
5
  7
SLDTEXTSTYLE1
 73
     1
 44
1.0
  0
MTEXT
  5
243
330
1F
100
AcDbEntity
  8
TITLE
100
AcDbMText
 10
81.416064154
 20
119.7472007792
 30
0.0
 40
0.125
 41
0.0
 71
     2
 72
     1
  1
5
  7
SLDTEXTSTYLE1
 73
     1
 44
1.0
  0
MTEXT
  5
244
330
1F
100
AcDbEntity
  8
TITLE
100
AcDbMText
 10
83.384568091
 20
0.4125551099
 30
0.0
 40
0.125
 41
0.0
 71
     2
 72
     1
  1
4
  7
SLDTEXTSTYLE1
 73
     1
 44
1.0
  0
MTEXT
  5
245
330
1F
100
AcDbEntity
  8
TITLE
100
AcDbMText
 10
83.384568091
 20
119.7472007792
 30
0.0
 40
0.125
 41
0.0
 71
     2
 72
     1
  1
4
  7
SLDTEXTSTYLE1
 73
     1
 44
1.0
  0
MTEXT
  5
246
330
1F
100
AcDbEntity
  8
TITLE
100
AcDbMText
 10
85.353072028
 20
0.4125551099
 30
0.0
 40
0.125
 41
0.0
 71
     2
 72
     1
  1
3
  7
SLDTEXTSTYLE1
 73
     1
 44
1.0
  0
MTEXT
  5
247
330
1F
100
AcDbEntity
  8
TITLE
100
AcDbMText
 10
85.353072028
 20
119.7472007792
 30
0.0
 40
0.125
 41
0.0
 71
     2
 72
     1
  1
3
  7
SLDTEXTSTYLE1
 73
     1
 44
1.0
  0
MTEXT
  5
248
330
1F
100
AcDbEntity
  8
TITLE
100
AcDbMText
 10
87.321575965
 20
0.4125551099
 30
0.0
 40
0.125
 41
0.0
 71
     2
 72
     1
  1
2
  7
SLDTEXTSTYLE1
 73
     1
 44
1.0
  0
MTEXT
  5
249
330
1F
100
AcDbEntity
  8
TITLE
100
AcDbMText
 10
87.321575965
 20
119.7472007792
 30
0.0
 40
0.125
 41
0.0
 71
     2
 72
     1
  1
2
  7
SLDTEXTSTYLE1
 73
     1
 44
1.0
  0
MTEXT
  5
24A
330
1F
100
AcDbEntity
  8
TITLE
100
AcDbMText
 10
88.9022846264
 20
0.4125551099
 30
0.0
 40
0.125
 41
0.0
 71
     2
 72
     1
  1
1
  7
SLDTEXTSTYLE1
 73
     1
 44
1.0
  0
MTEXT
  5
24B
330
1F
100
AcDbEntity
  8
TITLE
100
AcDbMText
 10
88.9022846264
 20
119.7472007792
 30
0.0
 40
0.125
 41
0.0
 71
     2
 72
     1
  1
1
  7
SLDTEXTSTYLE1
 73
     1
 44
1.0
  0
SPLINE
  5
24C
330
1F
100
AcDbEntity
  8
0
  6
SLD-Solid
 62
     7
370
    25
100
AcDbSpline
210
0.0
220
0.0
230
1.0
 70
     8
 71
     3
 72
    13
 73
     9
 74
     0
 42
0.00000001
 43
0.00000001
 40
0.0
 40
0.0
 40
0.0
 40
0.0
 40
0.155607049270833
 40
0.3118713443687026
 40
0.4713628403381158
 40
0.6406398303285075
 40
0.8187760775320228
 40
1.0
 40
1.0
 40
1.0
 40
1.0
 10
15.94671932082642
 20
49.80336820773012
 30
0.0
 10
15.94771294234196
 20
49.79249378189642
 30
0.0
 10
15.94970438218544
 20
49.77069899933426
 30
0.0
 10
15.96643434593041
 20
49.74139703432348
 30
0.0
 10
15.9910077742548
 20
49.716812461712
 30
0.0
 10
16.02373022601667
 20
49.69788180025052
 30
0.0
 10
16.06312976539012
 20
49.68506435550472
 30
0.0
 10
16.09196097523751
 20
49.68341895207913
 30
0.0
 10
16.10650044115222
 20
49.68258918159259
 30
0.0
  0
SPLINE
  5
24D
330
1F
100
AcDbEntity
  8
0
  6
SLD-Solid
 62
     7
370
    25
100
AcDbSpline
210
0.0
220
0.0
230
1.0
 70
     8
 71
     3
 72
    14
 73
    10
 74
     0
 42
0.00000001
 43
0.00000001
 40
0.0
 40
0.0
 40
0.0
 40
0.0
 40
0.1007477220115443
 40
0.2848540097210211
 40
0.4734036481415158
 40
0.64238226392858
 40
0.8018352722304315
 40
0.9556047420929373
 40
0.9999999999999999
 40
0.9999999999999999
 40
0.9999999999999999
 40
0.9999999999999999
 10
16.10650044115222
 20
49.6825891815926
 30
0.0
 10
16.11455795946487
 20
49.68285401535382
 30
0.0
 10
16.13733977878479
 20
49.68360280606876
 30
0.0
 10
16.17415181423791
 20
49.69184013693745
 30
0.0
 10
16.21135295646657
 20
49.70924440691694
 30
0.0
 10
16.24033841714846
 20
49.73337110717399
 30
0.0
 10
16.2585653441061
 20
49.7618470118825
 30
0.0
 10
16.26724113701562
 20
49.78632620330012
 30
0.0
 10
16.2656442524731
 20
49.80005451586679
 30
0.0
 10
16.26528649909332
 20
49.80313009840807
 30
0.0
  0
LINE
  5
24E
330
1F
100
AcDbEntity
  8
0
  6
SLD-Solid
 62
     7
370
    25
100
AcDbLine
 10
16.2665004412
 20
49.8032958187
 30
0.0
 11
16.2665004412
 21
50.1226185115
 31
0.0
  0
LINE
  5
24F
330
1F
100
AcDbEntity
  8
0
  6
SLD-Solid
 62
     7
370
    25
100
AcDbLine
 10
15.9465004412
 20
50.1226185115
 30
0.0
 11
15.9465004412
 21
49.8032958187
 31
0.0
  0
LINE
  5
250
330
1F
100
AcDbEntity
  8
0
  6
SLD-Solid
 62
     7
370
    25
100
AcDbLine
 10
15.9465004412
 20
50.3012247067
 30
0.0
 11
15.9465004412
 21
50.1226185115
 31
0.0
  0
LINE
  5
251
330
1F
100
AcDbEntity
  8
0
  6
SLD-Solid
 62
     7
370
    25
100
AcDbLine
 10
16.2665004412
 20
50.1226185115
 30
0.0
 11
16.2665004412
 21
50.3012247067
 31
0.0
  0
LINE
  5
252
330
1F
100
AcDbEntity
  8
0
  6
SLD-Solid
 62
     7
370
    25
100
AcDbLine
 10
14.4690004412
 20
40.6323333389
 30
0.0
 11
14.4690004412
 21
33.1441367377
 31
0.0
  0
LINE
  5
253
330
1F
100
AcDbEntity
  8
0
  6
SLD-Solid
 62
     7
370
    25
100
AcDbLine
 10
17.7440004412
 20
33.1441367377
 30
0.0
 11
17.7440004412
 21
40.6323333389
 31
0.0
  0
ARC
  5
254
330
1F
100
AcDbEntity
  8
0
  6
SLD-Solid
 62
     7
370
    25
100
AcDbCircle
 10
14.5690004412
 20
40.6323333389
 30
0.0
 40
0.1000000000000032
100
AcDbArc
 50
116.5650511771
 51
180.0
  0
ARC
  5
255
330
1F
100
AcDbEntity
  8
0
  6
SLD-Solid
 62
     7
370
    25
100
AcDbCircle
 10
17.6440004412
 20
40.6323333389
 30
0.0
 40
0.1000000000000014
100
AcDbArc
 50
0.0
 51
63.4349488229
  0
ARC
  5
256
330
1F
100
AcDbEntity
  8
0
  6
SLD-Solid
 62
     7
370
    25
100
AcDbCircle
 10
17.5440004412
 20
33.1441367377
 30
0.0
 40
0.2000000000000028
100
AcDbArc
 50
270.0
 51
0.0
  0
ARC
  5
257
330
1F
100
AcDbEntity
  8
0
  6
SLD-Solid
 62
     7
370
    25
100
AcDbCircle
 10
14.6690004412
 20
33.1441367377
 30
0.0
 40
0.2000000000000028
100
AcDbArc
 50
180.0
 51
270.0
  0
LINE
  5
258
330
1F
100
AcDbEntity
  8
0
  6
SLD-Solid
 62
     7
370
    25
100
AcDbLine
 10
17.6887218007
 20
40.721776058
 30
0.0
 11
16.8317790816
 21
41.1502474175
 31
0.0
  0
LINE
  5
259
330
1F
100
AcDbEntity
  8
0
  6
SLD-Solid
 62
     7
370
    25
100
AcDbLine
 10
15.3812218007
 20
41.1502474175
 30
0.0
 11
14.5242790816
 21
40.721776058
 31
0.0
  0
LINE
  5
25A
330
1F
100
AcDbEntity
  8
0
  6
SLD-Solid
 62
     7
370
    25
100
AcDbLine
 10
16.9865004412
 20
46.6506367377
 30
0.0
 11
16.9865004412
 21
46.6806367377
 31
0.0
  0
LINE
  5
25B
330
1F
100
AcDbEntity
  8
0
  6
SLD-Solid
 62
     7
370
    25
100
AcDbLine
 10
15.2265004412
 20
46.6806367377
 30
0.0
 11
15.2265004412
 21
46.6506367377
 31
0.0
  0
LINE
  5
25C
330
1F
100
AcDbEntity
  8
0
  6
SLD-Solid
 62
     7
370
    25
100
AcDbLine
 10
15.2465004412
 20
41.9941367377
 30
0.0
 11
15.2465004412
 21
41.3441367377
 31
0.0
  0
LINE
  5
25D
330
1F
100
AcDbEntity
  8
0
  6
SLD-Solid
 62
     7
370
    25
100
AcDbLine
 10
16.9665004412
 20
41.3441367377
 30
0.0
 11
16.9665004412
 21
41.9941367377
 31
0.0
  0
ARC
  5
25E
330
1F
100
AcDbEntity
  8
0
  6
SLD-Solid
 62
     7
370
    25
100
AcDbCircle
 10
15.3365004412
 20
41.2396901366
 30
0.0
 40
0.1000000000000014
100
AcDbArc
 50
296.5650511771
 51
0.0
  0
ARC
  5
25F
330
1F
100
AcDbEntity
  8
0
  6
SLD-Solid
 62
     7
370
    25
100
AcDbCircle
 10
16.8765004412
 20
41.2396901366
 30
0.0
 40
0.1000000000000014
100
AcDbArc
 50
180.0
 51
243.4349488229
  0
LINE
  5
260
330
1F
100
AcDbEntity
  8
0
  6
SLD-Solid
 62
     7
370
    25
100
AcDbLine
 10
15.3815004412
 20
46.0256367377
 30
0.0
 11
15.3815004412
 21
45.9296367377
 31
0.0
  0
LINE
  5
261
330
1F
100
AcDbEntity
  8
0
  6
SLD-Solid
 62
     7
370
    25
100
AcDbLine
 10
16.8315004412
 20
45.9296367377
 30
0.0
 11
16.8315004412
 21
46.0256367377
 31
0.0
  0
LINE
  5
262
330
1F
100
AcDbEntity
  8
0
  6
SLD-Solid
 62
     7
370
    25
100
AcDbLine
 10
16.7965004412
 20
46.6806367377
 30
0.0
 11
16.7965004412
 21
49.4806367377
 31
0.0
  0
LINE
  5
263
330
1F
100
AcDbEntity
  8
0
  6
SLD-Solid
 62
     7
370
    25
100
AcDbLine
 10
15.4165004412
 20
49.4806367377
 30
0.0
 11
15.4165004412
 21
46.6806367377
 31
0.0
  0
LINE
  5
264
330
1F
100
AcDbEntity
  8
0
  6
SLD-Solid
 62
     7
370
    25
100
AcDbLine
 10
15.4365004412
 20
41.3441367377
 30
0.0
 11
15.4365004412
 21
41.2396901366
 31
0.0
  0
LINE
  5
265
330
1F
100
AcDbEntity
  8
0
  6
SLD-Solid
 62
     7
370
    25
100
AcDbLine
 10
16.7765004412
 20
41.2396901366
 30
0.0
 11
16.7765004412
 21
41.3441367377
 31
0.0
  0
LINE
  5
266
330
1F
100
AcDbEntity
  8
0
  6
SLD-Solid
 62
     7
370
    25
100
AcDbLine
 10
15.5490004412
 20
42.4371367377
 30
0.0
 11
15.5490004412
 21
42.3691367377
 31
0.0
  0
LINE
  5
267
330
1F
100
AcDbEntity
  8
0
  6
SLD-Solid
 62
     7
370
    25
100
AcDbLine
 10
16.6640004412
 20
42.3691367377
 30
0.0
 11
16.6640004412
 21
42.4371367377
 31
0.0
  0
LINE
  5
268
330
1F
100
AcDbEntity
  8
0
  6
SLD-Solid
 62
     7
370
    25
100
AcDbLine
 10
15.5490004412
 20
45.4796367377
 30
0.0
 11
15.5490004412
 21
45.4296367377
 31
0.0
  0
LINE
  5
269
330
1F
100
AcDbEntity
  8
0
  6
SLD-Solid
 62
     7
370
    25
100
AcDbLine
 10
16.6640004412
 20
45.4296367377
 30
0.0
 11
16.6640004412
 21
45.4796367377
 31
0.0
  0
LINE
  5
26A
330
1F
100
AcDbEntity
  8
0
  6
SLD-Solid
 62
     7
370
    25
100
AcDbLine
 10
15.6475004412
 20
46.6506367377
 30
0.0
 11
15.6475004412
 21
46.0256367377
 31
0.0
  0
LINE
  5
26B
330
1F
100
AcDbEntity
  8
0
  6
SLD-Solid
 62
     7
370
    25
100
AcDbLine
 10
16.5655004412
 20
46.0256367377
 30
0.0
 11
16.5655004412
 21
46.6506367377
 31
0.0
  0
LINE
  5
26C
330
1F
100
AcDbEntity
  8
0
  6
SLD-Solid
 62
     7
370
    25
100
AcDbLine
 10
15.6475004412
 20
45.4296367377
 30
0.0
 11
15.6475004412
 21
44.8041367377
 31
0.0
  0
LINE
  5
26D
330
1F
100
AcDbEntity
  8
0
  6
SLD-Solid
 62
     7
370
    25
100
AcDbLine
 10
16.5655004412
 20
44.8041367377
 30
0.0
 11
16.5655004412
 21
45.4296367377
 31
0.0
  0
LINE
  5
26E
330
1F
100
AcDbEntity
  8
0
  6
SLD-Solid
 62
     7
370
    25
100
AcDbLine
 10
15.6475004412
 20
44.6171367377
 30
0.0
 11
15.6475004412
 21
42.4371367377
 31
0.0
  0
LINE
  5
26F
330
1F
100
AcDbEntity
  8
0
  6
SLD-Solid
 62
     7
370
    25
100
AcDbLine
 10
16.5655004412
 20
42.4371367377
 30
0.0
 11
16.5655004412
 21
44.6171367377
 31
0.0
  0
LINE
  5
270
330
1F
100
AcDbEntity
  8
0
  6
SLD-Solid
 62
     7
370
    25
100
AcDbLine
 10
15.6840004412
 20
44.8041367377
 30
0.0
 11
15.6840004412
 21
44.6171367377
 31
0.0
  0
LINE
  5
271
330
1F
100
AcDbEntity
  8
0
  6
SLD-Solid
 62
     7
370
    25
100
AcDbLine
 10
16.5290004412
 20
44.6171367377
 30
0.0
 11
16.5290004412
 21
44.8041367377
 31
0.0
  0
LINE
  5
272
330
1F
100
AcDbEntity
  8
0
  6
SLD-Solid
 62
     7
370
    25
100
AcDbLine
 10
16.5015004412
 20
49.9926367377
 30
0.0
 11
16.5015004412
 21
50.5856367377
 31
0.0
  0
LINE
  5
273
330
1F
100
AcDbEntity
  8
0
  6
SLD-Solid
 62
     7
370
    25
100
AcDbLine
 10
15.7115004412
 20
50.5856367377
 30
0.0
 11
15.7115004412
 21
49.9926367377
 31
0.0
  0
LINE
  5
274
330
1F
100
AcDbEntity
  8
0
  6
SLD-Solid
 62
     7
370
    25
100
AcDbLine
 10
16.3645004412
 20
49.4806367377
 30
0.0
 11
16.3645004412
 21
49.9926367377
 31
0.0
  0
LINE
  5
275
330
1F
100
AcDbEntity
  8
0
  6
SLD-Solid
 62
     7
370
    25
100
AcDbLine
 10
15.8485004412
 20
49.9926367377
 30
0.0
 11
15.8485004412
 21
49.4806367377
 31
0.0
  0
ARC
  5
276
330
1F
100
AcDbEntity
  8
0
  6
SLD-Solid
 62
     7
370
    25
100
AcDbCircle
 10
16.1065004412
 20
50.3012247067
 30
0.0
 40
0.1600000000000019
100
AcDbArc
 50
0.0
 51
180.0
  0
LINE
  5
277
330
1F
100
AcDbEntity
  8
0
  6
SLD-Solid
 62
     7
370
    25
100
AcDbLine
 10
17.5440004412
 20
32.9441367377
 30
0.0
 11
14.6690004412
 21
32.9441367377
 31
0.0
  0
LINE
  5
278
330
1F
100
AcDbEntity
  8
0
  6
SLD-Solid
 62
     7
370
    25
100
AcDbLine
 10
16.1065004412
 20
46.6506367377
 30
0.0
 11
16.9865004412
 21
46.6506367377
 31
0.0
  0
LINE
  5
279
330
1F
100
AcDbEntity
  8
0
  6
SLD-Solid
 62
     7
370
    25
100
AcDbLine
 10
15.2265004412
 20
46.6506367377
 30
0.0
 11
16.1065004412
 21
46.6506367377
 31
0.0
  0
LINE
  5
27A
330
1F
100
AcDbEntity
  8
0
  6
SLD-Solid
 62
     7
370
    25
100
AcDbLine
 10
16.1065004412
 20
46.6806367377
 30
0.0
 11
16.9865004412
 21
46.6806367377
 31
0.0
  0
LINE
  5
27B
330
1F
100
AcDbEntity
  8
0
  6
SLD-Solid
 62
     7
370
    25
100
AcDbLine
 10
15.2265004412
 20
46.6806367377
 30
0.0
 11
16.1065004412
 21
46.6806367377
 31
0.0
  0
LINE
  5
27C
330
1F
100
AcDbEntity
  8
0
  6
SLD-Solid
 62
     7
370
    25
100
AcDbLine
 10
16.9665004412
 20
41.9941367377
 30
0.0
 11
15.2465004412
 21
41.9941367377
 31
0.0
  0
LINE
  5
27D
330
1F
100
AcDbEntity
  8
0
  6
SLD-Solid
 62
     7
370
    25
100
AcDbLine
 10
16.9665004412
 20
41.3441367377
 30
0.0
 11
15.2465004412
 21
41.3441367377
 31
0.0
  0
LINE
  5
27E
330
1F
100
AcDbEntity
  8
0
  6
SLD-Solid
 62
     7
370
    25
100
AcDbLine
 10
16.8315004412
 20
46.0256367377
 30
0.0
 11
15.3815004412
 21
46.0256367377
 31
0.0
  0
LINE
  5
27F
330
1F
100
AcDbEntity
  8
0
  6
SLD-Solid
 62
     7
370
    25
100
AcDbLine
 10
16.8315004412
 20
45.9296367377
 30
0.0
 11
15.3815004412
 21
45.9296367377
 31
0.0
  0
LINE
  5
280
330
1F
100
AcDbEntity
  8
0
  6
SLD-Solid
 62
     7
370
    25
100
AcDbLine
 10
16.1065004412
 20
49.4806367377
 30
0.0
 11
16.7965004412
 21
49.4806367377
 31
0.0
  0
LINE
  5
281
330
1F
100
AcDbEntity
  8
0
  6
SLD-Solid
 62
     7
370
    25
100
AcDbLine
 10
15.4165004412
 20
49.4806367377
 30
0.0
 11
16.1065004412
 21
49.4806367377
 31
0.0
  0
LINE
  5
282
330
1F
100
AcDbEntity
  8
0
  6
SLD-Solid
 62
     7
370
    25
100
AcDbLine
 10
16.1565004412
 20
45.4796367377
 30
0.0
 11
16.1565004412
 21
45.9296367377
 31
0.0
  0
LINE
  5
283
330
1F
100
AcDbEntity
  8
0
  6
SLD-Solid
 62
     7
370
    25
100
AcDbLine
 10
16.0565004412
 20
45.4796367377
 30
0.0
 11
16.0565004412
 21
45.9296367377
 31
0.0
  0
LINE
  5
284
330
1F
100
AcDbEntity
  8
0
  6
SLD-Solid
 62
     7
370
    25
100
AcDbLine
 10
16.1565004412
 20
45.4796367377
 30
0.0
 11
16.0565004412
 21
45.4796367377
 31
0.0
  0
LINE
  5
285
330
1F
100
AcDbEntity
  8
0
  6
SLD-Solid
 62
     7
370
    25
100
AcDbLine
 10
16.0565004412
 20
42.3691367377
 30
0.0
 11
16.0565004412
 21
41.9941367377
 31
0.0
  0
LINE
  5
286
330
1F
100
AcDbEntity
  8
0
  6
SLD-Solid
 62
     7
370
    25
100
AcDbLine
 10
16.0565004412
 20
42.3691367377
 30
0.0
 11
16.1565004412
 21
42.3691367377
 31
0.0
  0
LINE
  5
287
330
1F
100
AcDbEntity
  8
0
  6
SLD-Solid
 62
     7
370
    25
100
AcDbLine
 10
16.1565004412
 20
42.3691367377
 30
0.0
 11
16.1565004412
 21
41.9941367377
 31
0.0
  0
LINE
  5
288
330
1F
100
AcDbEntity
  8
0
  6
SLD-Solid
 62
     7
370
    25
100
AcDbLine
 10
16.6617537617
 20
42.3691367377
 30
0.0
 11
16.6617537617
 21
41.9941367377
 31
0.0
  0
LINE
  5
289
330
1F
100
AcDbEntity
  8
0
  6
SLD-Solid
 62
     7
370
    25
100
AcDbLine
 10
15.5512471206
 20
42.3691367377
 30
0.0
 11
15.5512471206
 21
41.9941367377
 31
0.0
  0
LINE
  5
28A
330
1F
100
AcDbEntity
  8
0
  6
SLD-Solid
 62
     7
370
    25
100
AcDbLine
 10
16.6640004412
 20
42.4371367377
 30
0.0
 11
15.5490004412
 21
42.4371367377
 31
0.0
  0
LINE
  5
28B
330
1F
100
AcDbEntity
  8
0
  6
SLD-Solid
 62
     7
370
    25
100
AcDbLine
 10
15.5512471206
 20
45.4796367377
 30
0.0
 11
15.5512471206
 21
45.9296367377
 31
0.0
  0
LINE
  5
28C
330
1F
100
AcDbEntity
  8
0
  6
SLD-Solid
 62
     7
370
    25
100
AcDbLine
 10
16.6617537617
 20
45.4796367377
 30
0.0
 11
16.6617537617
 21
45.9296367377
 31
0.0
  0
LINE
  5
28D
330
1F
100
AcDbEntity
  8
0
  6
SLD-Solid
 62
     7
370
    25
100
AcDbLine
 10
16.6640004412
 20
45.4296367377
 30
0.0
 11
15.5490004412
 21
45.4296367377
 31
0.0
  0
LINE
  5
28E
330
1F
100
AcDbEntity
  8
0
  6
SLD-Solid
 62
     7
370
    25
100
AcDbLine
 10
16.5655004412
 20
44.8041367377
 30
0.0
 11
15.6475004412
 21
44.8041367377
 31
0.0
  0
LINE
  5
28F
330
1F
100
AcDbEntity
  8
0
  6
SLD-Solid
 62
     7
370
    25
100
AcDbLine
 10
16.5655004412
 20
44.6171367377
 30
0.0
 11
15.6475004412
 21
44.6171367377
 31
0.0
  0
LINE
  5
290
330
1F
100
AcDbEntity
  8
0
  6
SLD-Solid
 62
     7
370
    25
100
AcDbLine
 10
16.2665004412
 20
49.9926367377
 30
0.0
 11
16.5015004412
 21
49.9926367377
 31
0.0
  0
LINE
  5
291
330
1F
100
AcDbEntity
  8
0
  6
SLD-Solid
 62
     7
370
    25
100
AcDbLine
 10
15.7115004412
 20
49.9926367377
 30
0.0
 11
15.9465004412
 21
49.9926367377
 31
0.0
  0
LINE
  5
292
330
1F
100
AcDbEntity
  8
0
  6
SLD-Solid
 62
     7
370
    25
100
AcDbLine
 10
16.1065004412
 20
50.5856367377
 30
0.0
 11
16.5015004412
 21
50.5856367377
 31
0.0
  0
LINE
  5
293
330
1F
100
AcDbEntity
  8
0
  6
SLD-Solid
 62
     7
370
    25
100
AcDbLine
 10
15.7115004412
 20
50.5856367377
 30
0.0
 11
16.1065004412
 21
50.5856367377
 31
0.0
  0
LINE
  5
294
330
1F
100
AcDbEntity
  8
0
  6
SLD-Solid
 62
     7
370
    25
100
AcDbLine
 10
16.7417537617
 20
45.4796367377
 30
0.0
 11
16.7417537617
 21
45.9296367377
 31
0.0
  0
LINE
  5
295
330
1F
100
AcDbEntity
  8
0
  6
SLD-Solid
 62
     7
370
    25
100
AcDbLine
 10
16.7417537617
 20
45.4796367377
 30
0.0
 11
16.6617537617
 21
45.4796367377
 31
0.0
  0
LINE
  5
296
330
1F
100
AcDbEntity
  8
0
  6
SLD-Solid
 62
     7
370
    25
100
AcDbLine
 10
16.6617537617
 20
42.3691367377
 30
0.0
 11
16.7367537617
 21
42.3691367377
 31
0.0
  0
LINE
  5
297
330
1F
100
AcDbEntity
  8
0
  6
SLD-Solid
 62
     7
370
    25
100
AcDbLine
 10
16.7367537617
 20
42.3691367377
 30
0.0
 11
16.7367537617
 21
41.9941367377
 31
0.0
  0
LINE
  5
298
330
1F
100
AcDbEntity
  8
0
  6
SLD-Solid
 62
     7
370
    25
100
AcDbLine
 10
15.4762471206
 20
42.3691367377
 30
0.0
 11
15.4762471206
 21
41.9941367377
 31
0.0
  0
LINE
  5
299
330
1F
100
AcDbEntity
  8
0
  6
SLD-Solid
 62
     7
370
    25
100
AcDbLine
 10
15.4762471206
 20
42.3691367377
 30
0.0
 11
15.5512471206
 21
42.3691367377
 31
0.0
  0
LINE
  5
29A
330
1F
100
AcDbEntity
  8
0
  6
SLD-Solid
 62
     7
370
    25
100
AcDbLine
 10
15.4712471206
 20
45.4796367377
 30
0.0
 11
15.4712471206
 21
45.9296367377
 31
0.0
  0
LINE
  5
29B
330
1F
100
AcDbEntity
  8
0
  6
SLD-Solid
 62
     7
370
    25
100
AcDbLine
 10
15.5512471206
 20
45.4796367377
 30
0.0
 11
15.4712471206
 21
45.4796367377
 31
0.0
  0
LINE
  5
29C
330
1F
100
AcDbEntity
  8
OBJECT
100
AcDbLine
 10
15.4165004412
 20
46.7445783533
 30
0.0
 11
16.7965004412
 21
46.7445783533
 31
0.0
  0
DIMENSION
  5
29D
330
1F
100
AcDbEntity
  8
DIMS
100
AcDbDimension
  2
_D
 10
14.2144379525
 20
46.6506367377
 30
0.0
 11
14.2144379525
 21
48.346801193
 31
0.0
 70
   160
  1
<>
 71
     2
 42
-1.0
  3
SLDDIMSTYLE0
100
AcDbAlignedDimension
 13
15.7115004412
 23
50.5856367377
 33
0.0
 14
15.2265004412
 24
46.6506367377
 34
0.0
 50
90.0
100
AcDbRotatedDimension
  0
DIMENSION
  5
2B3
330
1F
100
AcDbEntity
  8
DIMS
100
AcDbDimension
  2
_D_1
 10
12.8941972915
 20
32.9441367377
 30
0.0
 11
12.8941972915
 21
41.7940294122
 31
0.0
 70
   160
  1
<>
 71
     2
 42
-1.0
  3
SLDDIMSTYLE0
100
AcDbAlignedDimension
 13
15.7115004412
 23
50.5856367377
 33
0.0
 14
14.6690004412
 24
32.9441367377
 34
0.0
 50
90.0
100
AcDbRotatedDimension
  0
DIMENSION
  5
2C2
330
1F
100
AcDbEntity
  8
DIMS
100
AcDbDimension
  2
_D_2
 10
17.4406713453
 20
49.4806367377
 30
0.0
 11
17.4406713453
 21
48.9809287827
 31
0.0
 70
   160
  1
<>
 71
     2
 42
-1.0
  3
SLDDIMSTYLE0
100
AcDbAlignedDimension
 13
16.5015004412
 23
50.5856367377
 33
0.0
 14
16.7965004412
 24
49.4806367377
 34
0.0
 50
90.0
100
AcDbRotatedDimension
  0
DIMENSION
  5
2D2
330
1F
100
AcDbEntity
  8
DIMS
100
AcDbDimension
  2
_D_3
 10
15.6475004412
 20
45.0523082712
 30
0.0
 11
13.8390791813
 21
45.0523082712
 31
0.0
 70
   160
  1
%%c<>
 71
     2
 42
-1.0
  3
SLDDIMSTYLE1
100
AcDbAlignedDimension
 13
16.5655004412
 23
44.8041367377
 33
0.0
 14
15.6475004412
 24
44.8041367377
 34
0.0
100
AcDbRotatedDimension
  0
MTEXT
  5
2E0
330
1F
100
AcDbEntity
  8
NOTES
100
AcDbMText
 10
14.6010055202
 20
32.3161235933
 30
0.0
 40
0.5
 41
0.0
 71
     1
 72
     1
  1
Front view
  7
SLDTEXTSTYLE1
 73
     1
 44
1.0
  0
INSERT
  5
2E5
330
1F
100
AcDbEntity
  8
0
  6
Continuous
 62
     7
370
     0
100
AcDbBlockReference
  2
SW_NOTE_0_2
 10
19.6165908694
 20
46.193347127
 30
0.0
  0
LEADER
  5
2E7
330
1F
100
AcDbEntity
  8
0
  6
Continuous
 62
     7
370
     0
100
AcDbLeader
  3
SLDDIMSTYLE2
 76
     2
 10
16.9865004412
 20
46.6806367377
 30
0.0
 10
19.6165908694
 20
46.193347127
 30
0.0
  0
INSERT
  5
2EC
330
1F
100
AcDbEntity
  8
0
  6
Continuous
 62
     7
370
     0
100
AcDbBlockReference
  2
SW_NOTE_0_3
 10
18.7491145582
 20
48.0514916516
 30
0.0
  0
LEADER
  5
2ED
330
1F
100
AcDbEntity
  8
0
  6
Continuous
 62
     7
370
     0
100
AcDbLeader
  3
SLDDIMSTYLE2
 76
     2
 10
16.7965004412
 20
46.729856265
 30
0.0
 10
18.7491145582
 20
48.0514916516
 30
0.0
  0
INSERT
  5
2F2
330
1F
100
AcDbEntity
  8
0
  6
Continuous
 62
     7
370
     0
100
AcDbBlockReference
  2
SW_NOTE_0_4
 10
19.6165908694
 20
45.3002058362
 30
0.0
  0
LEADER
  5
2F3
330
1F
100
AcDbEntity
  8
0
  6
Continuous
 62
     7
370
     0
100
AcDbLeader
  3
SLDDIMSTYLE2
 76
     2
 10
16.7417537617
 20
45.8160225578
 30
0.0
 10
19.6165908694
 20
45.3002058362
 30
0.0
  0
INSERT
  5
2F8
330
1F
100
AcDbEntity
  8
0
  6
Continuous
 62
     7
370
     0
100
AcDbBlockReference
  2
SW_NOTE_0_5
 10
19.6165908694
 20
43.1546135398
 30
0.0
  0
LEADER
  5
2F9
330
1F
100
AcDbEntity
  8
0
  6
Continuous
 62
     7
370
     0
100
AcDbLeader
  3
SLDDIMSTYLE2
 76
     2
 10
16.5655004412
 20
43.8488961057
 30
0.0
 10
19.6165908694
 20
43.1546135398
 30
0.0
  0
LINE
  5
2FA
330
1F
100
AcDbEntity
  8
0
  6
SLD-Solid
 62
     7
370
    25
100
AcDbLine
 10
27.8979314544
 20
47.0821915393
 30
0.0
 11
28.0873961583
 21
47.4523071956
 31
0.0
  0
LINE
  5
2FB
330
1F
100
AcDbEntity
  8
0
  6
SLD-Solid
 62
     7
370
    25
100
AcDbLine
 10
27.8025489603
 20
47.5981223999
 30
0.0
 11
27.6130842564
 21
47.2280067436
 31
0.0
  0
SPLINE
  5
2FC
330
1F
100
AcDbEntity
  8
0
  6
SLD-Solid
 62
     7
370
    25
100
AcDbSpline
210
0.0
220
0.0
230
1.0
 70
     8
 71
     3
 72
    14
 73
    10
 74
     0
 42
0.00000001
 43
0.00000001
 40
0.0
 40
0.0
 40
0.0
 40
0.0
 40
0.0949236713515262
 40
0.2657980970582848
 40
0.4362104868309264
 40
0.6059924164801523
 40
0.7751124799732395
 40
0.9438996638855802
 40
1.0
 40
1.0
 40
1.0
 40
1.0
 10
28.13581667090254
 20
47.96597308767955
 30
0.0
 10
28.12321996295319
 20
47.958347888164
 30
0.0
 10
28.08794761250084
 20
47.93699638024122
 30
0.0
 10
28.03222956321827
 20
47.89438617237006
 30
0.0
 10
27.97036580971872
 20
47.83653760323517
 30
0.0
 10
27.913033010391
 20
47.77139193469754
 30
0.0
 10
27.86109667951912
 20
47.7003298886569
 30
0.0
 10
27.8252311070267
 20
47.64147587110858
 30
0.0
 10
27.80707754054909
 20
47.60677809176705
 30
0.0
 10
27.80254896030174
 20
47.59812239987605
 30
0.0
  0
SPLINE
  5
2FD
330
1F
100
AcDbEntity
  8
0
  6
SLD-Solid
 62
     7
370
    25
100
AcDbSpline
210
0.0
220
0.0
230
1.0
 70
     8
 71
     3
 72
    13
 73
     9
 74
     0
 42
0.00000001
 43
0.00000001
 40
0.0
 40
0.0
 40
0.0
 40
0.0
 40
0.0934805224445144
 40
0.2768100581953694
 40
0.4597090878507407
 40
0.6408963270353486
 40
0.8194191926662544
 40
1.0
 40
1.0
 40
1.0
 40
1.0
 10
28.0873961583054
 20
47.4523071956295
 30
0.0
 10
28.09251917290242
 20
47.46197593331853
 30
0.0
 10
28.10768919903892
 20
47.49060653755979
 30
0.0
 10
28.1368467391125
 20
47.53618397830419
 30
0.0
 10
28.17525349527533
 20
47.58589799416504
 30
0.0
 10
28.21578628899216
 20
47.62873013348644
 30
0.0
 10
28.25711529863181
 20
47.66446436895629
 30
0.0
 10
28.28285836906083
 20
47.68068211073064
 30
0.0
 10
28.29580366812431
 20
47.68883745171773
 30
0.0
  0
SPLINE
  5
2FE
330
1F
100
AcDbEntity
  8
0
  6
SLD-Solid
 62
     7
370
    25
100
AcDbSpline
210
0.0
220
0.0
230
1.0
 70
     8
 71
     3
 72
    17
 73
    13
 74
     0
 42
0.00000001
 43
0.00000001
 40
0.0
 40
0.0
 40
0.0
 40
0.0
 40
0.0185614363755319
 40
0.1764380359541893
 40
0.3348777845968854
 40
0.4961141032420222
 40
0.6708473920494864
 40
0.7416070342530846
 40
0.8073770745889166
 40
0.8757816352422717
 40
0.9523461056092335
 40
1.0
 40
1.0
 40
1.0
 40
1.0
 10
27.72287821848375
 20
47.10691568389765
 30
0.0
 10
27.72414478435772
 20
47.10624332840241
 30
0.0
 10
27.73618428338611
 20
47.09985216983883
 30
0.0
 10
27.76035921756157
 20
47.08799320459184
 30
0.0
 10
27.79124036359183
 20
47.07344742860317
 30
0.0
 10
27.81802425786102
 20
47.06228379071393
 30
0.0
 10
27.83266696188812
 20
47.05692193496913
 30
0.0
 10
27.84882771572847
 20
47.05408224490752
 30
0.0
 10
27.8638138169397
 20
47.05499599616966
 30
0.0
 10
27.8789064694884
 20
47.0609178264727
 30
0.0
 10
27.89125031328119
 20
47.07034974008616
 30
0.0
 10
27.89551501931848
 20
47.07910612343716
 30
0.0
 10
27.89715108860263
 20
47.08246533500193
 30
0.0
  0
SPLINE
  5
2FF
330
1F
100
AcDbEntity
  8
0
  6
SLD-Solid
 62
     7
370
    25
100
AcDbSpline
210
0.0
220
0.0
230
1.0
 70
     8
 71
     3
 72
    18
 73
    14
 74
     0
 42
0.00000001
 43
0.00000001
 40
0.0
 40
0.0
 40
0.0
 40
0.0
 40
0.0078361232312252
 40
0.0937016552947405
 40
0.1619358907126547
 40
0.220652675743994
 40
0.2731215676250464
 40
0.3223905518929746
 40
0.3836209702134148
 40
0.5060480711322531
 40
0.6737842083849973
 40
0.8507722450392053
 40
1.0
 40
1.0
 40
1.0
 40
1.0
 10
27.61356328307356
 20
47.22831137621948
 30
0.0
 10
27.61321706468893
 20
47.22785262748864
 30
0.0
 10
27.60907710481632
 20
47.22236706859989
 30
0.0
 10
27.60711813421707
 20
47.20983924042844
 30
0.0
 10
27.60793508081907
 20
47.19442257092219
 30
0.0
 10
27.61237390557931
 20
47.18223450926072
 30
0.0
 10
27.61813961842514
 20
47.17321546267528
 30
0.0
 10
27.6241785985805
 20
47.16656112069062
 30
0.0
 10
27.63168463556681
 20
47.16002453829304
 30
0.0
 10
27.64291160519204
 20
47.15202781238066
 30
0.0
 10
27.66336796416709
 20
47.13932407056633
 30
0.0
 10
27.69161427408499
 20
47.12327567100651
 30
0.0
 10
27.71306538525161
 20
47.11205060299589
 30
0.0
 10
27.72287821848375
 20
47.10691568389765
 30
0.0
  0
LINE
  5
300
330
1F
100
AcDbEntity
  8
0
  6
SLD-Solid
 62
     7
370
    25
100
AcDbLine
 10
28.2958036681
 20
47.6888374517
 30
0.0
 11
31.153346887
 21
49.3384620387
 31
0.0
  0
LINE
  5
301
330
1F
100
AcDbEntity
  8
0
  6
SLD-Solid
 62
     7
370
    25
100
AcDbLine
 10
30.9933488314
 20
49.6155912908
 30
0.0
 11
28.1358166709
 21
47.9659730877
 31
0.0
  0
LINE
  5
302
330
1F
100
AcDbEntity
  8
0
  6
SLD-Solid
 62
     7
370
    25
100
AcDbLine
 10
31.735916584
 20
49.3795161311
 30
0.0
 11
31.735916584
 21
49.8637248325
 31
0.0
  0
LINE
  5
303
330
1F
100
AcDbEntity
  8
0
  6
SLD-Solid
 62
     7
370
    25
100
AcDbLine
 10
30.945916584
 20
49.8637248325
 30
0.0
 11
30.945916584
 21
49.5882092373
 31
0.0
  0
LINE
  5
304
330
1F
100
AcDbEntity
  8
0
  6
SLD-Solid
 62
     7
370
    25
100
AcDbLine
 10
32.030916584
 20
46.6751329621
 30
0.0
 11
32.030916584
 21
48.9614472354
 31
0.0
  0
LINE
  5
305
330
1F
100
AcDbEntity
  8
0
  6
SLD-Solid
 62
     7
370
    25
100
AcDbLine
 10
30.650916584
 20
48.9614472354
 30
0.0
 11
30.650916584
 21
46.6751329621
 31
0.0
  0
LINE
  5
306
330
1F
100
AcDbEntity
  8
0
  6
SLD-Solid
 62
     7
370
    25
100
AcDbLine
 10
31.598916584
 20
48.9614472354
 30
0.0
 11
31.598916584
 21
49.206849193
 31
0.0
  0
LINE
  5
307
330
1F
100
AcDbEntity
  8
0
  6
SLD-Solid
 62
     7
370
    25
100
AcDbLine
 10
31.082916584
 20
49.206849193
 30
0.0
 11
31.082916584
 21
48.9614472354
 31
0.0
  0
LINE
  5
308
330
1F
100
AcDbEntity
  8
0
  6
SLD-Solid
 62
     7
370
    25
100
AcDbLine
 10
32.220916584
 20
46.6506367377
 30
0.0
 11
32.220916584
 21
46.6751329621
 31
0.0
  0
LINE
  5
309
330
1F
100
AcDbEntity
  8
0
  6
SLD-Solid
 62
     7
370
    25
100
AcDbLine
 10
30.460916584
 20
46.6751329621
 30
0.0
 11
30.460916584
 21
46.6506367377
 31
0.0
  0
LINE
  5
30A
330
1F
100
AcDbEntity
  8
0
  6
SLD-Solid
 62
     7
370
    25
100
AcDbLine
 10
30.881916584
 20
46.2172020651
 30
0.0
 11
30.881916584
 21
46.1402987303
 31
0.0
  0
LINE
  5
30B
330
1F
100
AcDbEntity
  8
0
  6
SLD-Solid
 62
     7
370
    25
100
AcDbLine
 10
31.799916584
 20
46.1402987303
 30
0.0
 11
31.799916584
 21
46.2172020651
 31
0.0
  0
LINE
  5
30C
330
1F
100
AcDbEntity
  8
0
  6
SLD-Solid
 62
     7
370
    25
100
AcDbLine
 10
30.615916584
 20
46.1402987303
 30
0.0
 11
30.615916584
 21
46.0619108124
 31
0.0
  0
LINE
  5
30D
330
1F
100
AcDbEntity
  8
0
  6
SLD-Solid
 62
     7
370
    25
100
AcDbLine
 10
32.065916584
 20
46.0619108124
 30
0.0
 11
32.065916584
 21
46.1402987303
 31
0.0
  0
LINE
  5
30E
330
1F
100
AcDbEntity
  8
0
  6
SLD-Solid
 62
     7
370
    25
100
AcDbLine
 10
30.783416584
 20
45.7943463651
 30
0.0
 11
30.783416584
 21
45.6536404064
 31
0.0
  0
LINE
  5
30F
330
1F
100
AcDbEntity
  8
0
  6
SLD-Solid
 62
     7
370
    25
100
AcDbLine
 10
31.898416584
 20
45.6536404064
 30
0.0
 11
31.898416584
 21
45.7943463651
 31
0.0
  0
LINE
  5
310
330
1F
100
AcDbEntity
  8
0
  6
SLD-Solid
 62
     7
370
    25
100
AcDbLine
 10
30.881916584
 20
45.4408165429
 30
0.0
 11
30.881916584
 21
45.1428941286
 31
0.0
  0
LINE
  5
311
330
1F
100
AcDbEntity
  8
0
  6
SLD-Solid
 62
     7
370
    25
100
AcDbLine
 10
31.799916584
 20
45.1428941286
 30
0.0
 11
31.799916584
 21
45.4408165429
 31
0.0
  0
LINE
  5
312
330
1F
100
AcDbEntity
  8
0
  6
SLD-Solid
 62
     7
370
    25
100
AcDbLine
 10
30.918416584
 20
45.0393441761
 30
0.0
 11
30.918416584
 21
44.9902009968
 31
0.0
  0
LINE
  5
313
330
1F
100
AcDbEntity
  8
0
  6
SLD-Solid
 62
     7
370
    25
100
AcDbLine
 10
31.763416584
 20
44.9902009968
 30
0.0
 11
31.763416584
 21
45.0393441761
 31
0.0
  0
LINE
  5
314
330
1F
100
AcDbEntity
  8
0
  6
SLD-Solid
 62
     7
370
    25
100
AcDbLine
 10
30.881916584
 20
44.9902009968
 30
0.0
 11
30.881916584
 21
43.2101420269
 31
0.0
  0
LINE
  5
315
330
1F
100
AcDbEntity
  8
0
  6
SLD-Solid
 62
     7
370
    25
100
AcDbLine
 10
31.799916584
 20
43.2101420269
 30
0.0
 11
31.799916584
 21
44.9902009968
 31
0.0
  0
SPLINE
  5
316
330
1F
100
AcDbEntity
  8
0
  6
SLD-Solid
 62
     7
370
    25
100
AcDbSpline
210
0.0
220
0.0
230
1.0
 70
     8
 71
     3
 72
    20
 73
    16
 74
     0
 42
0.00000001
 43
0.00000001
 40
0.0
 40
0.0
 40
0.0
 40
0.0
 40
0.0212311514637785
 40
0.1021011772404353
 40
0.1829722823512318
 40
0.2642691539763553
 40
0.346345506024192
 40
0.4293762220365714
 40
0.5133466409685429
 40
0.5980969436256371
 40
0.6833982376046652
 40
0.7690242778306029
 40
0.854794330734855
 40
0.9405660254276129
 40
1.0
 40
1.0
 40
1.0
 40
1.0
 10
32.9772631292172
 20
41.73502932499371
 30
0.0
 10
32.97762383477226
 20
41.74247337411855
 30
0.0
 10
32.97935847746801
 20
41.77827200616067
 30
0.0
 10
32.97062061419031
 20
41.84239027014698
 30
0.0
 10
32.95082813094452
 20
41.92628859830906
 30
0.0
 10
32.91861470501549
 20
42.0085336332146
 30
0.0
 10
32.87532896848658
 20
42.08869716924251
 30
0.0
 10
32.82081036831955
 20
42.16633129181615
 30
0.0
 10
32.75539567200807
 20
42.24090220931439
 30
0.0
 10
32.67946719622912
 20
42.31182964258515
 30
0.0
 10
32.59357566317089
 20
42.37850264427871
 30
0.0
 10
32.49849998458875
 20
42.44045175699914
 30
0.0
 10
32.39474669241064
 20
42.49690944897333
 30
0.0
 10
32.29555356420679
 20
42.54327848804697
 30
0.0
 10
32.2284022254689
 20
42.56806313553511
 30
0.0
 10
32.20091658403874
 20
42.57820771264461
 30
0.0
  0
SPLINE
  5
317
330
1F
100
AcDbEntity
  8
0
  6
SLD-Solid
 62
     7
370
    25
100
AcDbSpline
210
0.0
220
0.0
230
1.0
 70
     8
 71
     3
 72
    20
 73
    16
 74
     0
 42
0.00000001
 43
0.00000001
 40
0.0
 40
0.0
 40
0.0
 40
0.0
 40
0.0253884615600817
 40
0.1106120723806345
 40
0.1959747526002603
 40
0.2814638804363487
 40
0.3670378492420923
 40
0.4525740100674354
 40
0.5379009182174775
 40
0.6227854595490292
 40
0.7069579870927292
 40
0.7901821807094336
 40
0.8723494807749109
 40
0.9535512997512073
 40
0.9999999999999999
 40
0.9999999999999999
 40
0.9999999999999999
 40
0.9999999999999999
 10
30.48091658403874
 20
42.57822329897374
 30
0.0
 10
30.46890361401823
 20
42.57405823897579
 30
0.0
 10
30.41656568459031
 20
42.55591196741565
 30
0.0
 10
30.33019493748599
 20
42.51756367405292
 30
0.0
 10
30.22292919931084
 20
42.46335028437554
 30
0.0
 10
30.12402561246241
 20
42.40306598418548
 30
0.0
 10
30.03370331136504
 20
42.33762244740707
 30
0.0
 10
29.95289876942477
 20
42.26725884240636
 30
0.0
 10
29.88233333804966
 20
42.19250596993965
 30
0.0
 10
29.82270165771137
 20
42.11395106281184
 30
0.0
 10
29.77464621497789
 20
42.03232006225765
 30
0.0
 10
29.73839807579027
 20
41.94843739774512
 30
0.0
 10
29.71489071634222
 20
41.863176964863
 30
0.0
 10
29.70337396903152
 20
41.78934792236931
 30
0.0
 10
29.70451395288151
 20
41.74424737037285
 30
0.0
 10
29.70492876332221
 20
41.72783645380583
 30
0.0
  0
LINE
  5
318
330
1F
100
AcDbEntity
  8
0
  6
SLD-Solid
 62
     7
370
    25
100
AcDbLine
 10
29.703416584
 20
41.7364463943
 30
0.0
 11
29.703416584
 21
35.622028262
 31
0.0
  0
LINE
  5
319
330
1F
100
AcDbEntity
  8
0
  6
SLD-Solid
 62
     7
370
    25
100
AcDbLine
 10
32.978416584
 20
35.622028262
 30
0.0
 11
32.978416584
 21
41.7364463943
 31
0.0
  0
LINE
  5
31A
330
1F
100
AcDbEntity
  8
0
  6
SLD-Solid
 62
     7
370
    25
100
AcDbLine
 10
30.480916584
 20
42.8484144472
 30
0.0
 11
30.480916584
 21
42.3176629195
 31
0.0
  0
LINE
  5
31B
330
1F
100
AcDbEntity
  8
0
  6
SLD-Solid
 62
     7
370
    25
100
AcDbLine
 10
32.200916584
 20
42.3176629195
 30
0.0
 11
32.200916584
 21
42.8484144472
 31
0.0
  0
LINE
  5
31C
330
1F
100
AcDbEntity
  8
0
  6
SLD-Solid
 62
     7
370
    25
100
AcDbLine
 10
30.783416584
 20
43.2101420269
 30
0.0
 11
30.783416584
 21
42.8484144472
 31
0.0
  0
LINE
  5
31D
330
1F
100
AcDbEntity
  8
0
  6
SLD-Solid
 62
     7
370
    25
100
AcDbLine
 10
31.898416584
 20
42.8484144472
 30
0.0
 11
31.898416584
 21
43.2101420269
 31
0.0
  0
SPLINE
  5
31E
330
1F
100
AcDbEntity
  8
0
  6
SLD-Solid
 62
     7
370
    25
100
AcDbSpline
210
0.0
220
0.0
230
1.0
 70
     8
 71
     3
 72
    44
 73
    40
 74
     0
 42
0.00000001
 43
0.00000001
 40
0.0
 40
0.0
 40
0.0
 40
0.0
 40
0.0170305088737896
 40
0.042280151063481
 40
0.0675750309139208
 40
0.093107828558126
 40
0.1190321790198155
 40
0.14544093696931
 40
0.1723521114194137
 40
0.1997105918592793
 40
0.2274097618869253
 40
0.2553254720395874
 40
0.2833467254193798
 40
0.3113812471484865
 40
0.3393791739408131
 40
0.3673221933011168
 40
0.3952068999232902
 40
0.4230389066203466
 40
0.4508289312793684
 40
0.478590440013608
 40
0.5063383325713392
 40
0.5340882592824245
 40
0.561852452474442
 40
0.5896456805080103
 40
0.6174842222115737
 40
0.6453839081811035
 40
0.6733592146012524
 40
0.7014215308271605
 40
0.7295760689079709
 40
0.7578167446062067
 40
0.7861184753311755
 40
0.8144047918942899
 40
0.8425676225242795
 40
0.8704673606021385
 40
0.8979545556230083
 40
0.9249133424441593
 40
0.9513032464947182
 40
0.9771761042392049
 40
1.0
 40
1.0
 40
1.0
 40
1.0
 10
29.70473232141392
 20
35.62433262381357
 30
0.0
 10
29.70466336920404
 20
35.60419187506547
 30
0.0
 10
29.70449218759864
 20
35.55419020418694
 30
0.0
 10
29.71776468992544
 20
35.47489677855902
 30
0.0
 10
29.74246265450858
 20
35.38758069193239
 30
0.0
 10
29.77888215574473
 20
35.3024352385545
 30
0.0
 10
29.82630694555026
 20
35.21979194265006
 30
0.0
 10
29.88479856767633
 20
35.14004642440552
 30
0.0
 10
29.95414566543104
 20
35.06369836252571
 30
0.0
 10
30.03402230556131
 20
34.99134590961894
 30
0.0
 10
30.12386369263604
 20
34.92363059340235
 30
0.0
 10
30.22290212817348
 20
34.86116280697532
 30
0.0
 10
30.33021579845679
 20
34.80447078000175
 30
0.0
 10
30.44481754890148
 20
34.75396730699548
 30
0.0
 10
30.56571892941306
 20
34.70995505331738
 30
0.0
 10
30.69197023425093
 20
34.67264956395636
 30
0.0
 10
30.82264569862761
 20
34.64221145038495
 30
0.0
 10
30.9568239160002
 20
34.61876419855476
 30
0.0
 10
31.09358198810466
 20
34.60240025490108
 30
0.0
 10
31.23199299307747
 20
34.59318325225833
 30
0.0
 10
31.37112662087118
 20
34.59114846202516
 30
0.0
 10
31.51004575546284
 20
34.59630262888433
 30
0.0
 10
31.6478149368623
 20
34.60862300275231
 30
0.0
 10
31.78350853526731
 20
34.62805838482733
 30
0.0
 10
31.91622171205409
 20
34.65453327512498
 30
0.0
 10
32.04506940088077
 20
34.68795167484446
 30
0.0
 10
32.16918424327109
 20
34.72820034619572
 30
0.0
 10
32.28771318919821
 20
34.7751513117653
 30
0.0
 10
32.39980892200089
 20
34.82866101970297
 30
0.0
 10
32.5046156612486
 20
34.8885622168907
 30
0.0
 10
32.60122539479801
 20
34.95462552409575
 30
0.0
 10
32.68868466219882
 20
35.02651715413847
 30
0.0
 10
32.76601645418398
 20
35.10374371040075
 30
0.0
 10
32.83231255386595
 20
35.18562605371142
 30
0.0
 10
32.88677275808224
 20
35.27128907146219
 30
0.0
 10
32.92898316964151
 20
35.35971122326907
 30
0.0
 10
32.95831697225837
 20
35.4498321162512
 30
0.0
 10
32.9756565455466
 20
35.53753634743703
 30
0.0
 10
32.97715304602951
 20
35.59512212604949
 30
0.0
 10
32.97785444742837
 20
35.62211225811676
 30
0.0
  0
SPLINE
  5
31F
330
1F
100
AcDbEntity
  8
0
  6
SLD-Solid
 62
     7
370
    25
100
AcDbSpline
210
0.0
220
0.0
230
1.0
 70
     8
 71
     3
 72
    10
 73
     6
 74
     0
 42
0.00000001
 43
0.00000001
 40
0.0
 40
0.0
 40
0.0
 40
0.0
 40
0.4047923146093459
 40
0.8087360309856234
 40
1.0
 40
1.0
 40
1.0
 40
1.0
 10
31.1986862866165
 20
49.41875770088404
 30
0.0
 10
31.19693707904499
 20
49.40527009444804
 30
0.0
 10
31.19344233090455
 20
49.37832315671513
 30
0.0
 10
31.17431608556004
 20
49.35081247858196
 30
0.0
 10
31.15764197749009
 20
49.34289047586751
 30
0.0
 10
31.1522839215249
 20
49.34034482042841
 30
0.0
  0
SPLINE
  5
320
330
1F
100
AcDbEntity
  8
0
  6
SLD-Solid
 62
     7
370
    25
100
AcDbSpline
210
0.0
220
0.0
230
1.0
 70
     8
 71
     3
 72
    15
 73
    11
 74
     0
 42
0.00000001
 43
0.00000001
 40
0.0
 40
0.0
 40
0.0
 40
0.0
 40
0.1389815369061178
 40
0.2847266012483257
 40
0.420749643533536
 40
0.552479281053325
 40
0.690132095940559
 40
0.8365341672318559
 40
0.9814156255548837
 40
1.0
 40
1.0
 40
1.0
 40
1.0
 10
30.99352179352132
 20
49.61521805323601
 30
0.0
 10
31.00032370287962
 20
49.61747493749831
 30
0.0
 10
31.01425853607187
 20
49.62209853714842
 30
0.0
 10
31.04701971679895
 20
49.61006290631911
 30
0.0
 10
31.08530827389395
 20
49.58692612361079
 30
0.0
 10
31.12459205307528
 20
49.55506517800028
 30
0.0
 10
31.16116655481
 20
49.51616128655605
 30
0.0
 10
31.18930170905633
 20
49.47149985244972
 30
0.0
 10
31.19835825928011
 20
49.4376229961357
 30
0.0
 10
31.198652800344
 20
49.42068354165259
 30
0.0
 10
31.1986862866165
 20
49.41875770088404
 30
0.0
  0
LWPOLYLINE
  5
321
330
1F
100
AcDbEntity
  8
0
  6
SLD-Solid
 62
     7
370
    25
100
AcDbPolyline
 90
       14
 70
   128
 43
0.0
 10
31.0616094055
 20
49.218275529
 10
31.1176877003
 20
49.1913930738
 10
31.1813677871
 20
49.1709169236
 10
31.2504811168
 20
49.1575443693
 10
31.3226741179
 20
49.1517307971
 10
31.3954883442
 20
49.1536741813
 10
31.4664441948
 20
49.1633083421
 10
31.5331253531
 20
49.1803052
 10
31.5932610723
 20
49.2040859471
 10
31.6448035026
 20
49.2338407588
 10
31.6859974283
 20
49.2685563705
 10
31.7154400398
 20
49.3070505839
 10
31.7321287042
 20
49.3480125245
 10
31.735916584
 20
49.3795161311
  0
LWPOLYLINE
  5
322
330
1F
100
AcDbEntity
  8
0
  6
SLD-Solid
 62
     7
370
    25
100
AcDbPolyline
 90
        3
 70
   128
 43
0.0
 10
31.0095190086
 20
49.2554319719
 10
31.0150425816
 20
49.2506488395
 10
31.0616094055
 20
49.218275529
  0
LWPOLYLINE
  5
323
330
1F
100
AcDbEntity
  8
0
  6
SLD-Solid
 62
     7
370
    25
100
AcDbPolyline
 90
       35
 70
   128
 43
0.0
 10
31.0616094055
 20
49.7024842304
 10
31.1176877003
 20
49.6756017752
 10
31.1813677871
 20
49.6551256251
 10
31.2504811168
 20
49.6417530707
 10
31.3226741179
 20
49.6359394986
 10
31.3954883442
 20
49.6378828827
 10
31.4664441948
 20
49.6475170436
 10
31.5331253531
 20
49.6645139014
 10
31.5932610723
 20
49.6882946486
 10
31.6448035026
 20
49.7180494602
 10
31.6859974283
 20
49.752765072
 10
31.7154400398
 20
49.7912592853
 10
31.7321287042
 20
49.8322212259
 10
31.7354951091
 20
49.8742559841
 10
31.7254246155
 20
49.9159321165
 10
31.7022601621
 20
49.9558303925
 10
31.6667905865
 20
49.9925921241
 10
31.6202237626
 20
50.0249654346
 10
31.5641454677
 20
50.0518478898
 10
31.500465381
 20
50.07232404
 10
31.4313520513
 20
50.0856965943
 10
31.3591590502
 20
50.0915101665
 10
31.2863448238
 20
50.0895667823
 10
31.2153889733
 20
50.0799326214
 10
31.148707815
 20
50.0629357636
 10
31.0885720958
 20
50.0391550165
 10
31.0370296655
 20
50.0094002048
 10
30.9958357397
 20
49.974684593
 10
30.9663931282
 20
49.9361903797
 10
30.9497044638
 20
49.8952284391
 10
30.946338059
 20
49.853193681
 10
30.9564085526
 20
49.8115175485
 10
30.979573006
 20
49.7716192726
 10
31.0150425816
 20
49.734857541
 10
31.0616094055
 20
49.7024842304
  0
LWPOLYLINE
  5
324
330
1F
100
AcDbEntity
  8
0
  6
SLD-Solid
 62
     7
370
    25
100
AcDbPolyline
 90
       18
 70
   128
 43
0.0
 10
30.853012905
 20
46.3934721635
 10
30.9256642181
 20
46.3570136603
 10
31.0063979461
 20
46.3267469874
 10
31.0936426989
 20
46.3032612513
 10
31.1857003565
 20
46.287013575
 10
31.2807791215
 20
46.278320201
 10
31.3770283938
 20
46.2773503362
 10
31.4725747908
 20
46.2841228576
 10
31.5655586106
 20
46.298505946
 10
31.6541700289
 20
46.3202196508
 10
31.7366843251
 20
46.3488413395
 10
31.8114954525
 20
46.3838139236
 10
31.8771472974
 20
46.4244567013
 10
31.9323620215
 20
46.4699786073
 10
31.9760649329
 20
46.5194936094
 10
32.0074054042
 20
46.5720379546
 10
32.0257734287
 20
46.6265889267
 10
32.030916584
 20
46.6751329621
  0
LWPOLYLINE
  5
325
330
1F
100
AcDbEntity
  8
0
  6
SLD-Solid
 62
     7
370
    25
100
AcDbPolyline
 90
        7
 70
   128
 43
0.0
 10
30.650916584
 20
46.6751329621
 10
30.6535422424
 20
46.640416344
 10
30.6686012393
 20
46.5855285413
 10
30.6967460898
 20
46.5323847867
 10
30.7374289861
 20
46.4820194629
 10
30.7898580821
 20
46.4354128738
 10
30.853012905
 20
46.3934721635
  0
LWPOLYLINE
  5
326
330
1F
100
AcDbEntity
  8
0
  6
SLD-Solid
 62
     7
370
    25
100
AcDbPolyline
 90
       26
 70
   128
 43
0.0
 10
30.853012905
 20
48.6797864368
 10
30.9256642181
 20
48.6433279336
 10
31.0063979461
 20
48.6130612607
 10
31.0936426989
 20
48.5895755245
 10
31.1857003565
 20
48.5733278482
 10
31.2807791215
 20
48.5646344743
 10
31.3770283938
 20
48.5636646094
 10
31.4725747908
 20
48.5704371309
 10
31.5655586106
 20
48.5848202193
 10
31.6541700289
 20
48.6065339241
 10
31.7366843251
 20
48.6351556128
 10
31.8114954525
 20
48.6701281968
 10
31.8771472974
 20
48.7107709746
 10
31.9323620215
 20
48.7562928806
 10
31.9760649329
 20
48.8058078827
 10
32.0074054042
 20
48.8583522279
 10
32.0257734287
 20
48.9129032
 10
32.0308114937
 20
48.9683990266
 10
32.022421539
 20
49.0237595445
 10
32.0007668657
 20
49.0779072242
 10
31.9662689571
 20
49.1297881427
 10
31.9195992759
 20
49.1783924969
 10
31.8616661944
 20
49.2227742583
 10
31.793597314
 20
49.2620695865
 10
31.7167175182
 20
49.2955136426
 10
31.7098511964
 20
49.2980546126
  0
LWPOLYLINE
  5
327
330
1F
100
AcDbEntity
  8
0
  6
SLD-Solid
 62
     7
370
    25
100
AcDbPolyline
 90
        9
 70
   128
 43
0.0
 10
30.6728477181
 20
49.0610757729
 10
30.6635938275
 20
49.0374519004
 10
30.6518622051
 20
48.9822941394
 10
30.6535422424
 20
48.9267306172
 10
30.6686012393
 20
48.8718428145
 10
30.6967460898
 20
48.8186990599
 10
30.7374289861
 20
48.7683337362
 10
30.7898580821
 20
48.7217271471
 10
30.853012905
 20
48.6797864368
  0
LWPOLYLINE
  5
328
330
1F
100
AcDbEntity
  8
0
  6
SLD-Solid
 62
     7
370
    25
100
AcDbPolyline
 90
       12
 70
   128
 43
0.0
 10
31.1584830345
 20
48.856130589
 10
31.2054726263
 20
48.8346817227
 10
31.259764037
 20
48.820066818
 10
31.3184304024
 20
48.8130737682
 10
31.3783090037
 20
48.8140795704
 10
31.43617177
 20
48.8230300016
 10
31.4888993046
 20
48.8394425417
 10
31.5336490524
 20
48.8624323864
 10
31.568008543
 20
48.8907601473
 10
31.5901254472
 20
48.9228986673
 10
31.5988074372
 20
48.9571153507
 10
31.598916584
 20
48.9614472354
  0
ARC
  5
329
330
1F
100
AcDbEntity
  8
0
  6
SLD-Solid
 62
     7
370
    25
100
AcDbCircle
 10
31.2084611306
 20
48.9717591241
 30
0.0
 40
0.1259673299868856
100
AcDbArc
 50
184.6955792933
 51
246.6245616643
  0
LWPOLYLINE
  5
32A
330
1F
100
AcDbEntity
  8
0
  6
SLD-Solid
 62
     7
370
    25
100
AcDbPolyline
 90
       26
 70
   128
 43
0.0
 10
30.7186626166
 20
46.3159133929
 10
30.7998467109
 20
46.2744922153
 10
30.889232873
 20
46.2391443431
 10
30.9854660998
 20
46.2104056139
 10
31.0870875935
 20
46.1887116775
 10
31.192556876
 20
46.174391392
 10
31.3002751404
 20
46.1676618383
 10
31.4086094877
 20
46.1686250296
 10
31.5159176796
 20
46.1772663648
 10
31.6205730333
 20
46.1934548501
 10
31.7209890802
 20
46.2169450846
 10
31.8156436156
 20
46.2473809802
 10
31.903101773
 20
46.2843011599
 10
31.9820377761
 20
46.3271459513
 10
32.0512550354
 20
46.3752658711
 10
32.1097042878
 20
46.4279314703
 10
32.1564995023
 20
46.4843443922
 10
32.1909313112
 20
46.5436494742
 10
32.2124777632
 20
46.604947712
 10
32.2208122362
 20
46.6673098865
 10
32.215808388
 20
46.729790651
 10
32.1975420719
 20
46.7914428606
 10
32.1662901866
 20
46.8513319306
 10
32.1225264788
 20
46.908550004
 10
32.0669143617
 20
46.9622297129
 10
32.030916584
 20
46.9904293098
  0
LWPOLYLINE
  5
32B
330
1F
100
AcDbEntity
  8
0
  6
SLD-Solid
 62
     7
370
    25
100
AcDbPolyline
 90
       13
 70
   128
 43
0.0
 10
30.650916584
 20
46.9904293098
 10
30.5999481329
 20
46.949187044
 10
30.5472259027
 20
46.8945441439
 10
30.5065352142
 20
46.8365751938
 10
30.4784928967
 20
46.7761589442
 10
30.4635240432
 20
46.7142112436
 10
30.4618555662
 20
46.6516711561
 10
30.4735127582
 20
46.5894867257
 10
30.4983189081
 20
46.5286006049
 10
30.5358979798
 20
46.4699357653
 10
30.5856803129
 20
46.414381506
 10
30.6469112581
 20
46.362779973
 10
30.7186626166
 20
46.3159133929
  0
LWPOLYLINE
  5
32C
330
1F
100
AcDbEntity
  8
0
  6
SLD-Solid
 62
     7
370
    25
100
AcDbPolyline
 90
       21
 70
   128
 43
0.0
 10
30.7186626166
 20
46.2914171685
 10
30.7998467109
 20
46.249995991
 10
30.889232873
 20
46.2146481187
 10
30.9854660998
 20
46.1859093895
 10
31.0870875935
 20
46.1642154532
 10
31.192556876
 20
46.1498951677
 10
31.3002751404
 20
46.143165614
 10
31.4086094877
 20
46.1441288052
 10
31.5159176796
 20
46.1527701404
 10
31.6205730333
 20
46.1689586257
 10
31.7209890802
 20
46.1924488602
 10
31.8156436156
 20
46.2228847559
 10
31.903101773
 20
46.2598049356
 10
31.9820377761
 20
46.302649727
 10
32.0512550354
 20
46.3507696467
 10
32.1097042878
 20
46.403435246
 10
32.1564995023
 20
46.4598481678
 10
32.1909313112
 20
46.5191532499
 10
32.2124777632
 20
46.5804514876
 10
32.2208122362
 20
46.6428136622
 10
32.220916584
 20
46.6506367377
  0
LWPOLYLINE
  5
32D
330
1F
100
AcDbEntity
  8
0
  6
SLD-Solid
 62
     7
370
    25
100
AcDbPolyline
 90
        8
 70
   128
 43
0.0
 10
30.460916584
 20
46.6506367377
 10
30.4618555662
 20
46.6271749317
 10
30.4735127582
 20
46.5649905013
 10
30.4983189081
 20
46.5041043805
 10
30.5358979798
 20
46.4454395409
 10
30.5856803129
 20
46.3898852816
 10
30.6469112581
 20
46.3382837486
 10
30.7186626166
 20
46.2914171685
  0
LWPOLYLINE
  5
32E
330
1F
100
AcDbEntity
  8
0
  6
SLD-Solid
 62
     7
370
    25
100
AcDbPolyline
 90
       21
 70
   128
 43
0.0
 10
31.799916584
 20
46.1402987303
 10
31.7989862161
 20
46.1234362738
 10
31.7874608219
 20
46.0789885911
 10
31.763089163
 20
46.0363046894
 10
31.7265723677
 20
45.996612507
 10
31.6789609576
 20
45.9610539156
 10
31.6216246264
 20
45.9306518711
 10
31.5562128358
 20
45.9062809851
 10
31.4846073641
 20
45.8886423636
 10
31.4088681703
 20
45.8782434375
 10
31.3311741331
 20
45.8753833651
 10
31.2537603684
 20
45.8801444254
 10
31.1788539294
 20
45.8923896514
 10
31.1086097379
 20
45.9117667702
 10
31.0450485914
 20
45.9377183374
 10
30.9899990283
 20
45.9694977737
 10
30.9450447244
 20
46.0061908426
 10
30.9114789332
 20
46.0467419512
 10
30.8902672813
 20
46.089984518
 10
30.8820199893
 20
46.1346745331
 10
30.881916584
 20
46.1402987303
  0
LWPOLYLINE
  5
32F
330
1F
100
AcDbEntity
  8
0
  6
SLD-Solid
 62
     7
370
    25
100
AcDbPolyline
 90
       31
 70
   128
 43
0.0
 10
32.0003394063
 20
46.3142401657
 10
32.0153684555
 20
46.293839544
 10
32.0453027239
 20
46.2393925935
 10
32.0621156112
 20
46.1830997118
 10
32.0654939253
 20
46.1260095289
 10
32.0553747344
 20
46.0691855267
 10
32.03194654
 20
46.0136862289
 10
31.995645765
 20
45.9605454825
 10
31.9471486241
 20
45.910753199
 10
31.8873585274
 20
45.8652369144
 10
31.8173892512
 20
45.824844511
 10
31.7385441907
 20
45.7903284229
 10
31.6522920802
 20
45.7623316194
 10
31.5602396334
 20
45.7413756281
 10
31.4641016132
 20
45.7278508193
 10
31.3656688889
 20
45.7220091348
 10
31.2667750761
 20
45.723959394
 10
31.1692623792
 20
45.7336652672
 10
31.0749472754
 20
45.7509459526
 10
30.9855866766
 20
45.7754795434
 10
30.9028452016
 20
45.8068090255
 10
30.8282641677
 20
45.8443507898
 10
30.7632328783
 20
45.8874055042
 10
30.7089627433
 20
45.935171141
 10
30.6664647126
 20
45.9867579166
 10
30.6365304442
 20
46.0412048671
 10
30.6197175569
 20
46.0974977488
 10
30.6163392428
 20
46.1545879318
 10
30.6264584337
 20
46.211411934
 10
30.6498866281
 20
46.2669112317
 10
30.6814937618
 20
46.3142401657
  0
LWPOLYLINE
  5
330
330
1F
100
AcDbEntity
  8
0
  6
SLD-Solid
 62
     7
370
    25
100
AcDbPolyline
 90
       25
 70
   128
 43
0.0
 10
32.065916584
 20
46.0619108124
 10
32.0654939253
 20
46.0476216109
 10
32.0553747344
 20
45.9907976087
 10
32.03194654
 20
45.935298311
 10
31.995645765
 20
45.8821575646
 10
31.9471486241
 20
45.8323652811
 10
31.8873585274
 20
45.7868489965
 10
31.8173892512
 20
45.7464565931
 10
31.7385441907
 20
45.711940505
 10
31.6522920802
 20
45.6839437015
 10
31.5602396334
 20
45.6629877101
 10
31.4641016132
 20
45.6494629014
 10
31.3656688889
 20
45.6436212168
 10
31.2667750761
 20
45.645571476
 10
31.1692623792
 20
45.6552773493
 10
31.0749472754
 20
45.6725580346
 10
30.9855866766
 20
45.6970916255
 10
30.9028452016
 20
45.7284211076
 10
30.8282641677
 20
45.7659628718
 10
30.7632328783
 20
45.8090175863
 10
30.7089627433
 20
45.8567832231
 10
30.6664647126
 20
45.9083699987
 10
30.6365304442
 20
45.9628169492
 10
30.6197175569
 20
46.0191098309
 10
30.615916584
 20
46.0619108124
  0
LINE
  5
331
330
1F
100
AcDbEntity
  8
0
  6
SLD-Solid
 62
     7
370
    25
100
AcDbLine
 10
30.9836485348
 20
45.4474005867
 30
0.0
 11
30.9836485348
 21
45.6977229942
 31
0.0
  0
LINE
  5
332
330
1F
100
AcDbEntity
  8
0
  6
SLD-Solid
 62
     7
370
    25
100
AcDbLine
 10
31.6981846332
 20
45.4474005867
 30
0.0
 11
31.6981846332
 21
45.6977229942
 31
0.0
  0
ARC
  5
333
330
1F
100
AcDbEntity
  8
0
  6
SLD-Solid
 62
     7
370
    25
100
AcDbCircle
 10
31.6643610788
 20
45.6646140117
 30
0.0
 40
0.2343126107043114
100
AcDbArc
 50
313.4368654138
 51
357.3156744147
  0
ARC
  5
334
330
1F
100
AcDbEntity
  8
0
  6
SLD-Solid
 62
     7
370
    25
100
AcDbCircle
 10
31.340916584
 20
46.1798342768
 30
0.0
 40
0.8506281778590885
100
AcDbArc
 50
242.3904900633
 51
297.6095099367
  0
ARC
  5
335
330
1F
100
AcDbEntity
  8
0
  6
SLD-Solid
 62
     7
370
    25
100
AcDbCircle
 10
31.0174720893
 20
45.6646140117
 30
0.0
 40
0.2343126107043107
100
AcDbArc
 50
182.6843255853
 51
226.5631345862
  0
LINE
  5
336
330
1F
100
AcDbEntity
  8
0
  6
SLD-Solid
 62
     7
370
    25
100
AcDbLine
 10
31.8254638538
 20
45.4555646678
 30
0.0
 11
31.8254638538
 21
45.7505825179
 31
0.0
  0
LINE
  5
337
330
1F
100
AcDbEntity
  8
0
  6
SLD-Solid
 62
     7
370
    25
100
AcDbLine
 10
31.8254638538
 20
45.4555646678
 30
0.0
 11
31.7547531757
 21
45.4147442622
 31
0.0
  0
LINE
  5
338
330
1F
100
AcDbEntity
  8
0
  6
SLD-Solid
 62
     7
370
    25
100
AcDbLine
 10
31.7547531757
 20
45.4147442622
 30
0.0
 11
31.7547531757
 21
45.7182600753
 31
0.0
  0
LINE
  5
339
330
1F
100
AcDbEntity
  8
0
  6
SLD-Solid
 62
     7
370
    25
100
AcDbLine
 10
31.7547531757
 20
45.4147442622
 30
0.0
 11
31.6981846332
 21
45.4474005867
 31
0.0
  0
LINE
  5
33A
330
1F
100
AcDbEntity
  8
0
  6
SLD-Solid
 62
     7
370
    25
100
AcDbLine
 10
30.9836485348
 20
45.4474005867
 30
0.0
 11
30.9270799924
 21
45.4147442622
 31
0.0
  0
LINE
  5
33B
330
1F
100
AcDbEntity
  8
0
  6
SLD-Solid
 62
     7
370
    25
100
AcDbLine
 10
30.9270799924
 20
45.4147442622
 30
0.0
 11
30.9270799924
 21
45.7182600753
 31
0.0
  0
LINE
  5
33C
330
1F
100
AcDbEntity
  8
0
  6
SLD-Solid
 62
     7
370
    25
100
AcDbLine
 10
30.9270799924
 20
45.4147442622
 30
0.0
 11
30.8563693142
 21
45.4555646678
 31
0.0
  0
LINE
  5
33D
330
1F
100
AcDbEntity
  8
0
  6
SLD-Solid
 62
     7
370
    25
100
AcDbLine
 10
30.8563693142
 20
45.4555646678
 30
0.0
 11
30.8563693142
 21
45.7505825179
 31
0.0
  0
LWPOLYLINE
  5
33E
330
1F
100
AcDbEntity
  8
0
  6
SLD-Solid
 62
     7
370
    25
100
AcDbPolyline
 90
       21
 70
   128
 43
0.0
 10
31.799916584
 20
45.1428941286
 10
31.7989862161
 20
45.1260316721
 10
31.7874608219
 20
45.0815839894
 10
31.763089163
 20
45.0389000877
 10
31.7265723677
 20
44.9992079053
 10
31.6789609576
 20
44.9636493138
 10
31.6216246264
 20
44.9332472694
 10
31.5562128358
 20
44.9088763834
 10
31.4846073641
 20
44.8912377618
 10
31.4088681703
 20
44.8808388358
 10
31.3311741331
 20
44.8779787633
 10
31.2537603684
 20
44.8827398237
 10
31.1788539294
 20
44.8949850497
 10
31.1086097379
 20
44.9143621685
 10
31.0450485914
 20
44.9403137357
 10
30.9899990283
 20
44.972093172
 10
30.9450447244
 20
45.0087862409
 10
30.9114789332
 20
45.0493373495
 10
30.8902672813
 20
45.0925799163
 10
30.8820199893
 20
45.1372699314
 10
30.881916584
 20
45.1428941286
  0
LWPOLYLINE
  5
33F
330
1F
100
AcDbEntity
  8
0
  6
SLD-Solid
 62
     7
370
    25
100
AcDbPolyline
 90
       19
 70
   128
 43
0.0
 10
31.763416584
 20
44.9902009968
 10
31.7607599927
 20
44.9628924067
 10
31.7455663041
 20
44.9200543536
 10
31.7173668405
 20
44.8794708714
 10
31.6770679559
 20
44.8424463466
 10
31.6259648897
 20
44.8101707777
 10
31.5657001364
 20
44.7836815283
 10
31.4982106547
 20
44.7638299845
 10
31.4256656122
 20
44.7512541912
 10
31.3503966662
 20
44.7463583449
 10
31.2748230226
 20
44.7492998021
 10
31.2013736804
 20
44.7599840219
 10
31.1324093619
 20
44.7780676047
 10
31.0701466371
 20
44.8029693292
 10
31.0165866812
 20
44.8338888336
 10
30.9734509553
 20
44.8698323396
 10
30.942125877
 20
44.9096445932
 10
30.9236182601
 20
44.9520459959
 10
30.918416584
 20
44.9902009968
  0
LWPOLYLINE
  5
340
330
1F
100
AcDbEntity
  8
0
  6
SLD-Solid
 62
     7
370
    25
100
AcDbPolyline
 90
       24
 70
   128
 43
0.0
 10
31.7804513558
 20
45.0665475627
 10
31.7825510541
 20
45.0623965779
 10
31.797333781
 20
45.0182713252
 10
31.7989862161
 20
44.9733385403
 10
31.7874608219
 20
44.9288908576
 10
31.763089163
 20
44.8862069559
 10
31.7265723677
 20
44.8465147734
 10
31.6789609576
 20
44.810956182
 10
31.6216246264
 20
44.7805541376
 10
31.5562128358
 20
44.7561832516
 10
31.4846073641
 20
44.73854463
 10
31.4088681703
 20
44.7281457039
 10
31.3311741331
 20
44.7252856315
 10
31.2537603684
 20
44.7300466918
 10
31.1788539294
 20
44.7422919178
 10
31.1086097379
 20
44.7616690367
 10
31.0450485914
 20
44.7876206039
 10
30.9899990283
 20
44.8194000402
 10
30.9450447244
 20
44.8560931091
 10
30.9114789332
 20
44.8966442177
 10
30.8902672813
 20
44.9398867845
 10
30.8820199893
 20
44.9845767996
 10
30.8869743169
 20
45.0294286126
 10
30.9013818122
 20
45.0665475627
  0
LWPOLYLINE
  5
341
330
1F
100
AcDbEntity
  8
0
  6
SLD-Solid
 62
     7
370
    25
100
AcDbPolyline
 90
       21
 70
   128
 43
0.0
 10
31.799916584
 20
43.2101420269
 10
31.7989862161
 20
43.1932795704
 10
31.7874608219
 20
43.1488318876
 10
31.763089163
 20
43.106147986
 10
31.7265723677
 20
43.0664558035
 10
31.6789609576
 20
43.0308972121
 10
31.6216246264
 20
43.0004951677
 10
31.5562128358
 20
42.9761242817
 10
31.4846073641
 20
42.9584856601
 10
31.4088681703
 20
42.948086734
 10
31.3311741331
 20
42.9452266616
 10
31.2537603684
 20
42.9499877219
 10
31.1788539294
 20
42.9622329479
 10
31.1086097379
 20
42.9816100668
 10
31.0450485914
 20
43.007561634
 10
30.9899990283
 20
43.0393410703
 10
30.9450447244
 20
43.0760341391
 10
30.9114789332
 20
43.1165852478
 10
30.8902672813
 20
43.1598278146
 10
30.8820199893
 20
43.2045178296
 10
30.881916584
 20
43.2101420269
  0
LINE
  5
342
330
1F
100
AcDbEntity
  8
0
  6
SLD-Solid
 62
     7
370
    25
100
AcDbLine
 10
29.703470761
 20
41.7287568307
 30
0.0
 11
29.703416584
 21
41.7364463943
 31
0.0
  0
ARC
  5
343
330
1F
100
AcDbEntity
  8
0
  6
SLD-Solid
 62
     7
370
    25
100
AcDbCircle
 10
31.0113893943
 20
42.8562563009
 30
0.0
 40
0.228107643218562
100
AcDbArc
 50
181.9700947525
 51
228.3872676219
  0
LINE
  5
344
330
1F
100
AcDbEntity
  8
0
  6
SLD-Solid
 62
     7
370
    25
100
AcDbLine
 10
30.8599048481
 20
42.6115526883
 30
0.0
 11
30.9306155263
 21
42.5707322827
 31
0.0
  0
LINE
  5
345
330
1F
100
AcDbEntity
  8
0
  6
SLD-Solid
 62
     7
370
    25
100
AcDbLine
 10
30.9306155263
 20
42.5707322827
 30
0.0
 11
30.9836485348
 21
42.6013475869
 31
0.0
  0
ARC
  5
346
330
1F
100
AcDbEntity
  8
0
  6
SLD-Solid
 62
     7
370
    25
100
AcDbCircle
 10
31.340916584
 20
43.401356423
 30
0.0
 40
0.8761590020227482
100
AcDbArc
 50
245.9354103871
 51
294.0645896129
  0
LINE
  5
347
330
1F
100
AcDbEntity
  8
0
  6
SLD-Solid
 62
     7
370
    25
100
AcDbLine
 10
31.6981846332
 20
42.6013475869
 30
0.0
 11
31.7512176418
 21
42.5707322827
 31
0.0
  0
LINE
  5
348
330
1F
100
AcDbEntity
  8
0
  6
SLD-Solid
 62
     7
370
    25
100
AcDbLine
 10
31.7512176418
 20
42.5707322827
 30
0.0
 11
31.8219283199
 21
42.6115526883
 31
0.0
  0
ARC
  5
349
330
1F
100
AcDbEntity
  8
0
  6
SLD-Solid
 62
     7
370
    25
100
AcDbCircle
 10
31.6704437738
 20
42.8562563009
 30
0.0
 40
0.228107643218562
100
AcDbArc
 50
311.6127323781
 51
358.0299052475
  0
LWPOLYLINE
  5
34A
330
1F
100
AcDbEntity
  8
0
  6
SLD-Solid
 62
     7
370
    25
100
AcDbPolyline
 90
       41
 70
   128
 43
0.0
 10
31.8976690512
 20
43.2268029572
 10
31.9490284159
 20
43.1994699353
 10
32.0204498947
 20
43.1527028384
 10
32.0811547273
 20
43.1011369319
 10
32.1301855621
 20
43.0455854407
 10
32.1667691537
 20
42.9869244453
 10
32.190328557
 20
42.9260790644
 10
32.200492226
 20
42.8640088661
 10
32.1970998736
 20
42.8016927345
 10
32.1802049993
 20
42.7401134322
 10
32.1500740453
 20
42.6802421017
 10
32.1071821948
 20
42.6230229495
 10
32.0522058779
 20
42.5693583558
 10
31.9860121039
 20
42.5200946434
 10
31.9096447882
 20
42.4760087304
 10
31.824308289
 20
42.4377958781
 10
31.7313484138
 20
42.4060587259
 10
31.6322311954
 20
42.3812977876
 10
31.5285197716
 20
42.3639035582
 10
31.4218497335
 20
42.3541503548
 10
31.3139033312
 20
42.3521919915
 10
31.2063829441
 20
42.3580593527
 10
31.1009842328
 20
42.3716599067
 10
30.9993693981
 20
42.3927791646
 10
30.9031409665
 20
42.4210840631
 10
30.8138165179
 20
42.456128217
 10
30.7328047522
 20
42.4973589591
 10
30.6613832734
 20
42.544126056
 10
30.6006784408
 20
42.5956919625
 10
30.551647606
 20
42.6512434537
 10
30.5150640144
 20
42.7099044491
 10
30.4915046111
 20
42.77074983
 10
30.4813409421
 20
42.8328200283
 10
30.4847332945
 20
42.8951361599
 10
30.5016281688
 20
42.9567154621
 10
30.5317591227
 20
43.0165867927
 10
30.5746509732
 20
43.0738059449
 10
30.6296272902
 20
43.1274705386
 10
30.6958210642
 20
43.176734251
 10
30.7721883799
 20
43.2208201639
 10
30.7841641169
 20
43.2268029572
  0
LWPOLYLINE
  5
34B
330
1F
100
AcDbEntity
  8
0
  6
SLD-Solid
 62
     7
370
    25
100
AcDbPolyline
 90
       27
 70
   128
 43
0.0
 10
32.200916584
 20
42.3176629195
 10
32.1970998736
 20
42.2709412068
 10
32.1802049993
 20
42.2093619045
 10
32.1500740453
 20
42.149490574
 10
32.1071821948
 20
42.0922714217
 10
32.0522058779
 20
42.0386068281
 10
31.9860121039
 20
41.9893431157
 10
31.9096447882
 20
41.9452572027
 10
31.824308289
 20
41.9070443504
 10
31.7313484138
 20
41.8753071982
 10
31.6322311954
 20
41.8505462599
 10
31.5285197716
 20
41.8331520304
 10
31.4218497335
 20
41.8233988271
 10
31.3139033312
 20
41.8214404638
 10
31.2063829441
 20
41.827307825
 10
31.1009842328
 20
41.840908379
 10
30.9993693981
 20
41.8620276369
 10
30.9031409665
 20
41.8903325354
 10
30.8138165179
 20
41.9253766893
 10
30.7328047522
 20
41.9666074314
 10
30.6613832734
 20
42.0133745282
 10
30.6006784408
 20
42.0649404348
 10
30.551647606
 20
42.1204919259
 10
30.5150640144
 20
42.1791529214
 10
30.4915046111
 20
42.2399983023
 10
30.4813409421
 20
42.3020685006
 10
30.480916584
 20
42.3176629195
  0
LWPOLYLINE
  5
34C
330
1F
100
AcDbEntity
  8
0
  6
SLD-Solid
 62
     7
370
    25
100
AcDbPolyline
 90
       29
 70
   128
 43
0.0
 10
31.799916584
 20
43.3928107193
 10
31.8376527213
 20
43.3562533757
 10
31.8711305919
 20
43.3095954072
 10
31.8915528339
 20
43.2604885665
 10
31.898416584
 20
43.2101420269
 10
31.8915528339
 20
43.1597954872
 10
31.8711305919
 20
43.1106886465
 10
31.8376527213
 20
43.064030678
 10
31.7919435584
 20
43.0209704559
 10
31.7351286146
 20
42.9825682657
 10
31.6686068622
 20
42.9497696967
 10
31.5940162876
 20
42.9233823587
 10
31.5131935584
 20
42.9040559954
 10
31.4281287983
 20
42.892266486
 10
31.340916584
 20
42.8883041274
 10
31.2537043698
 20
42.892266486
 10
31.1686396097
 20
42.9040559954
 10
31.0878168804
 20
42.9233823587
 10
31.0132263059
 20
42.9497696967
 10
30.9467045535
 20
42.9825682657
 10
30.8898896097
 20
43.0209704559
 10
30.8441804468
 20
43.064030678
 10
30.8107025762
 20
43.1106886465
 10
30.7902803342
 20
43.1597954872
 10
30.783416584
 20
43.2101420269
 10
30.7902803342
 20
43.2604885665
 10
30.8107025762
 20
43.3095954072
 10
30.8441804468
 20
43.3562533757
 10
30.881916584
 20
43.3928107193
  0
ARC
  5
34D
330
1F
100
AcDbEntity
  8
0
  6
SLD-Solid
 62
     7
370
    25
100
AcDbCircle
 10
31.4718052265
 20
43.3813475973
 30
0.0
 40
0.5251013503599533
100
AcDbArc
 50
295.5383825501
 51
304.4562409172
  0
LINE
  5
34E
330
1F
100
AcDbEntity
  8
0
  6
SLD-Solid
 62
     7
370
    25
100
AcDbLine
 10
31.6981846332
 20
42.9075503913
 30
0.0
 11
31.6981846332
 21
42.6013475869
 31
0.0
  0
LINE
  5
34F
330
1F
100
AcDbEntity
  8
0
  6
SLD-Solid
 62
     7
370
    25
100
AcDbLine
 10
30.9836485348
 20
42.9075503913
 30
0.0
 11
30.9836485348
 21
42.6013475869
 31
0.0
  0
ARC
  5
350
330
1F
100
AcDbEntity
  8
0
  6
SLD-Solid
 62
     7
370
    25
100
AcDbCircle
 10
31.2100279415
 20
43.3813475973
 30
0.0
 40
0.5251013503573954
100
AcDbArc
 50
235.5437590828
 51
244.4616174499
  0
LINE
  5
351
330
1F
100
AcDbEntity
  8
0
  6
SLD-Solid
 62
     7
370
    25
100
AcDbLine
 10
31.6981846332
 20
42.9075503913
 30
0.0
 11
31.7512176418
 21
42.8769350872
 31
0.0
  0
LINE
  5
352
330
1F
100
AcDbEntity
  8
0
  6
SLD-Solid
 62
     7
370
    25
100
AcDbLine
 10
31.7512176418
 20
42.8769350872
 30
0.0
 11
31.7512176418
 21
42.5707322827
 31
0.0
  0
LINE
  5
353
330
1F
100
AcDbEntity
  8
0
  6
SLD-Solid
 62
     7
370
    25
100
AcDbLine
 10
31.7512176418
 20
42.8769350872
 30
0.0
 11
31.8219283199
 21
42.9177554927
 31
0.0
  0
LINE
  5
354
330
1F
100
AcDbEntity
  8
0
  6
SLD-Solid
 62
     7
370
    25
100
AcDbLine
 10
31.8219283199
 20
42.9177554927
 30
0.0
 11
31.7688953113
 21
42.9483707969
 31
0.0
  0
LINE
  5
355
330
1F
100
AcDbEntity
  8
0
  6
SLD-Solid
 62
     7
370
    25
100
AcDbLine
 10
31.8219283199
 20
42.9177554927
 30
0.0
 11
31.8219283199
 21
42.6115526883
 31
0.0
  0
LINE
  5
356
330
1F
100
AcDbEntity
  8
0
  6
SLD-Solid
 62
     7
370
    25
100
AcDbLine
 10
30.8599048481
 20
42.9177554927
 30
0.0
 11
30.8599048481
 21
42.6115526883
 31
0.0
  0
LINE
  5
357
330
1F
100
AcDbEntity
  8
0
  6
SLD-Solid
 62
     7
370
    25
100
AcDbLine
 10
30.8599048481
 20
42.9177554927
 30
0.0
 11
30.9306155263
 21
42.8769350872
 31
0.0
  0
LINE
  5
358
330
1F
100
AcDbEntity
  8
0
  6
SLD-Solid
 62
     7
370
    25
100
AcDbLine
 10
30.9306155263
 20
42.8769350872
 30
0.0
 11
30.9306155263
 21
42.5707322827
 31
0.0
  0
LINE
  5
359
330
1F
100
AcDbEntity
  8
0
  6
SLD-Solid
 62
     7
370
    25
100
AcDbLine
 10
30.9129378567
 20
42.9483707969
 30
0.0
 11
30.8599048481
 21
42.9177554927
 31
0.0
  0
LINE
  5
35A
330
1F
100
AcDbEntity
  8
0
  6
SLD-Solid
 62
     7
370
    25
100
AcDbLine
 10
30.9306155263
 20
42.8769350872
 30
0.0
 11
30.9836485348
 21
42.9075503913
 31
0.0
  0
LINE
  5
35B
330
1F
100
AcDbEntity
  8
0
  6
SLD-Solid
 62
     7
370
    25
100
AcDbLine
 10
30.881916584
 20
43.4041861152
 30
0.0
 11
30.8599048481
 21
43.3914790106
 31
0.0
  0
LINE
  5
35C
330
1F
100
AcDbEntity
  8
0
  6
SLD-Solid
 62
     7
370
    25
100
AcDbLine
 10
30.8599048481
 20
43.3914790106
 30
0.0
 11
30.8721912814
 21
43.3843862036
 31
0.0
  0
LINE
  5
35D
330
1F
100
AcDbEntity
  8
0
  6
SLD-Solid
 62
     7
370
    25
100
AcDbLine
 10
30.8599048481
 20
43.3914790106
 30
0.0
 11
30.8599048481
 21
43.3728449742
 31
0.0
  0
LINE
  5
35E
330
1F
100
AcDbEntity
  8
0
  6
SLD-Solid
 62
     7
370
    25
100
AcDbLine
 10
31.8219283199
 20
43.3914790106
 30
0.0
 11
31.799916584
 21
43.4041861152
 31
0.0
  0
LINE
  5
35F
330
1F
100
AcDbEntity
  8
0
  6
SLD-Solid
 62
     7
370
    25
100
AcDbLine
 10
31.8096418867
 20
43.3843862036
 30
0.0
 11
31.8219283199
 21
43.3914790106
 31
0.0
  0
LINE
  5
360
330
1F
100
AcDbEntity
  8
0
  6
SLD-Solid
 62
     7
370
    25
100
AcDbLine
 10
31.8219283199
 20
43.3914790106
 30
0.0
 11
31.8219283199
 21
43.3728449742
 31
0.0
  0
INSERT
  5
366
330
1F
100
AcDbEntity
  8
NOTES
100
AcDbBlockReference
  2
SW_NOTE_0_6
 10
30.0782517299
 20
33.0461874592
 30
0.0
  0
LINE
  5
367
330
1F
100
AcDbEntity
  8
0
  6
SLD-Solid
 62
     7
370
    25
100
AcDbLine
 10
16.2665004412
 20
53.6047907361
 30
0.0
 11
16.2665004412
 21
57.6632145957
 31
0.0
  0
LINE
  5
368
330
1F
100
AcDbEntity
  8
0
  6
SLD-Solid
 62
     7
370
    25
100
AcDbLine
 10
15.9465004412
 20
57.6622783142
 30
0.0
 11
15.9465004412
 21
53.6047907361
 31
0.0
  0
LINE
  5
369
330
1F
100
AcDbEntity
  8
0
  6
SLD-Solid
 62
     7
370
    25
100
AcDbLine
 10
15.9465004412
 20
53.6047907361
 30
0.0
 11
15.9465004412
 21
53.2217685145
 31
0.0
  0
LINE
  5
36A
330
1F
100
AcDbEntity
  8
0
  6
SLD-Solid
 62
     7
370
    25
100
AcDbLine
 10
16.2665004412
 20
53.2217685145
 30
0.0
 11
16.2665004412
 21
53.6047907361
 31
0.0
  0
LINE
  5
36B
330
1F
100
AcDbEntity
  8
0
  6
SLD-Solid
 62
     7
370
    25
100
AcDbLine
 10
16.2665004412
 20
52.9538249607
 30
0.0
 11
16.2665004412
 21
53.2217685145
 31
0.0
  0
LINE
  5
36C
330
1F
100
AcDbEntity
  8
0
  6
SLD-Solid
 62
     7
370
    25
100
AcDbLine
 10
15.9465004412
 20
53.2217685145
 30
0.0
 11
15.9465004412
 21
52.9538249607
 31
0.0
  0
SPLINE
  5
36D
330
1F
100
AcDbEntity
  8
0
  6
SLD-Solid
 62
     7
370
    25
100
AcDbSpline
210
0.0
220
0.0
230
1.0
 70
     8
 71
     3
 72
    19
 73
    15
 74
     0
 42
0.00000001
 43
0.00000001
 40
0.0
 40
0.0
 40
0.0
 40
0.0
 40
0.0764477953434614
 40
0.158749915998542
 40
0.2416619504763475
 40
0.3269416283266112
 40
0.4147371339969192
 40
0.504241531327673
 40
0.594855606925923
 40
0.6865610506941089
 40
0.7791526499256932
 40
0.8612373552968057
 40
0.9413074885081922
 40
1.0
 40
1.0
 40
1.0
 40
1.0
 10
15.94699302309948
 20
52.95274470886962
 30
0.0
 10
15.94787241976579
 20
52.9414774427029
 30
0.0
 10
15.94969855675614
 20
52.91808007003225
 30
0.0
 10
15.96646806598524
 20
52.88553503410353
 30
0.0
 10
15.99206960853988
 20
52.8573430955792
 30
0.0
 10
16.02593950014147
 20
52.8357623266289
 30
0.0
 10
16.06599038128566
 20
52.82218428527167
 30
0.0
 10
16.10971125957854
 20
52.8179130398793
 30
0.0
 10
16.15386010056332
 20
52.82367902598908
 30
0.0
 10
16.19501947970989
 20
52.83954934507255
 30
0.0
 10
16.22868595641142
 20
52.86403137304725
 30
0.0
 10
16.25203562066136
 20
52.89454282589103
 30
0.0
 10
16.26520078686758
 20
52.92528963161038
 30
0.0
 10
16.26516629617932
 20
52.94578124510797
 30
0.0
 10
16.26515170763409
 20
52.9544485940423
 30
0.0
  0
CIRCLE
  5
36E
330
1F
100
AcDbEntity
  8
0
  6
SLD-Solid
 62
     7
370
    25
100
AcDbCircle
 10
16.1065004412
 20
58.0243586113
 30
0.0
 40
0.394999999999996
  0
ARC
  5
36F
330
1F
100
AcDbEntity
  8
0
  6
SLD-Solid
 62
     7
370
    25
100
AcDbCircle
 10
16.1065004412
 20
58.0243586113
 30
0.0
 40
0.6899999999999982
100
AcDbArc
 50
283.4080195317
 51
256.5919804683
  0
ARC
  5
370
330
1F
100
AcDbEntity
  8
0
  6
SLD-Solid
 62
     7
370
    25
100
AcDbCircle
 10
16.1065004412
 20
58.0243586113
 30
0.0
 40
0.8799999999999983
100
AcDbArc
 50
280.4756816964
 51
259.5243183036
  0
ARC
  5
371
330
1F
100
AcDbEntity
  8
0
  6
SLD-Solid
 62
     7
370
    25
100
AcDbCircle
 10
16.1065004412
 20
58.0243586113
 30
0.0
 40
1.637499999999997
100
AcDbArc
 50
275.6073128807
 51
264.3926871193
  0
DIMENSION
  5
372
330
1F
100
AcDbEntity
  8
DIMS
100
AcDbDimension
  2
_D_4
 10
18.8463626459
 20
52.9538249607
 30
0.0
 11
18.8463626459
 21
55.7285254373
 31
0.0
 70
   160
  1
<>
 71
     2
 42
-1.0
  3
SLDDIMSTYLE0
100
AcDbAlignedDimension
 13
16.1065004412
 23
58.0243586113
 33
0.0
 14
16.1065004412
 24
52.9538249607
 34
0.0
 50
90.0
100
AcDbRotatedDimension
  0
MTEXT
  5
381
330
1F
100
AcDbEntity
  8
NOTES
100
AcDbMText
 10
14.8798253473
 20
52.0964588754
 30
0.0
 40
0.5
 41
0.0
 71
     1
 72
     1
  1
Top view
  7
SLDTEXTSTYLE1
 73
     1
 44
1.0
  0
SPLINE
  5
382
330
1F
100
AcDbEntity
  8
0
  6
SLD-Solid
 62
     7
370
    25
100
AcDbSpline
210
0.0
220
0.0
230
1.0
 70
     8
 71
     3
 72
    17
 73
    13
 74
     0
 42
0.00000001
 43
0.00000001
 40
0.0
 40
0.0
 40
0.0
 40
0.0
 40
0.0712177514148671
 40
0.1458781915322686
 40
0.2233454367802025
 40
0.3164890334507201
 40
0.4349801935973749
 40
0.5514979116889951
 40
0.6638699670418565
 40
0.7767634590763409
 40
0.8937363149848077
 40
1.0
 40
1.0
 40
1.0
 40
1.0
 10
40.97148139848801
 20
49.91710780443468
 30
0.0
 10
40.96729139241884
 20
49.91034854299654
 30
0.0
 10
40.95870883405755
 20
49.89650327527747
 30
0.0
 10
40.95829473036581
 20
49.87201713320998
 30
0.0
 10
40.96434307298289
 20
49.84834683688403
 30
0.0
 10
40.97811888152563
 20
49.82296529695602
 30
0.0
 10
41.00102916035905
 20
49.79498696578191
 30
0.0
 10
41.0327522398935
 20
49.76621659830307
 30
0.0
 10
41.06841523654906
 20
49.74084290036406
 30
0.0
 10
41.10539235461691
 20
49.72081954042477
 30
0.0
 10
41.1401243280331
 20
49.70728229304474
 30
0.0
 10
41.16215838249482
 20
49.70528646518606
 30
0.0
 10
41.17264689756156
 20
49.70433642348571
 30
0.0
  0
SPLINE
  5
383
330
1F
100
AcDbEntity
  8
0
  6
SLD-Solid
 62
     7
370
    25
100
AcDbSpline
210
0.0
220
0.0
230
1.0
 70
     8
 71
     3
 72
    10
 73
     6
 74
     0
 42
0.00000001
 43
0.00000001
 40
0.0
 40
0.0
 40
0.0
 40
0.0
 40
0.3497002715703215
 40
0.7296119862078075
 40
1.0
 40
1.0
 40
1.0
 40
1.0
 10
41.17264689756156
 20
49.70433642348571
 30
0.0
 10
41.17999424120956
 20
49.70484662380108
 30
0.0
 10
41.19532368310072
 20
49.70591110185764
 30
0.0
 10
41.21711306361939
 20
49.71518733420328
 30
0.0
 10
41.2263492717375
 20
49.72737712683622
 30
0.0
 10
41.23018959314445
 20
49.73244551864767
 30
0.0
  0
LINE
  5
384
330
1F
100
AcDbEntity
  8
0
  6
SLD-Solid
 62
     7
370
    25
100
AcDbLine
 10
41.2313891284
 20
49.7321917781
 30
0.0
 11
41.4589335788
 21
50.051514471
 31
0.0
  0
LINE
  5
385
330
1F
100
AcDbEntity
  8
0
  6
SLD-Solid
 62
     7
370
    25
100
AcDbLine
 10
41.1983293628
 20
50.2372170359
 30
0.0
 11
40.9707849124
 21
49.917894343
 31
0.0
  0
SPLINE
  5
386
330
1F
100
AcDbEntity
  8
0
  6
SLD-Solid
 62
     7
370
    25
100
AcDbSpline
210
0.0
220
0.0
230
1.0
 70
     8
 71
     3
 72
    14
 73
    10
 74
     0
 42
0.00000001
 43
0.00000001
 40
0.0
 40
0.0
 40
0.0
 40
0.0
 40
0.0960126750167108
 40
0.2481694943108936
 40
0.4003020915160879
 40
0.5528235213092574
 40
0.7061218667802203
 40
0.8604352481072168
 40
1.0
 40
1.0
 40
1.0
 40
1.0
 10
41.65390363962526
 20
50.48297194857857
 30
0.0
 10
41.63700534031309
 20
50.48248116776499
 30
0.0
 10
41.59332733223461
 20
50.48121261831253
 30
0.0
 10
41.52357806306765
 20
50.4684509756378
 30
0.0
 10
41.44672820736267
 20
50.4425614865817
 30
0.0
 10
41.37387360150465
 20
50.40504294534711
 30
0.0
 10
41.30645069792604
 20
50.35663562943196
 30
0.0
 10
41.24697906637351
 20
50.30069850878466
 30
0.0
 10
41.21399413440834
 20
50.25765750523536
 30
0.0
 10
41.19832936277159
 20
50.23721703586202
 30
0.0
  0
SPLINE
  5
387
330
1F
100
AcDbEntity
  8
0
  6
SLD-Solid
 62
     7
370
    25
100
AcDbSpline
210
0.0
220
0.0
230
1.0
 70
     8
 71
     3
 72
    13
 73
     9
 74
     0
 42
0.00000001
 43
0.00000001
 40
0.0
 40
0.0
 40
0.0
 40
0.0
 40
0.0956605545906914
 40
0.3034349770308202
 40
0.5138376297538149
 40
0.7306748002364453
 40
0.9557886438291452
 40
1.0
 40
1.0
 40
1.0
 40
1.0
 10
41.45893357877135
 20
50.05151447098166
 30
0.0
 10
41.4641213838329
 20
50.05843251913746
 30
0.0
 10
41.48057708510317
 20
50.08037654603798
 30
0.0
 10
41.51215457300449
 20
50.11113236879621
 30
0.0
 10
41.55406854075412
 20
50.13922775621587
 30
0.0
 10
41.59871551113847
 20
50.1570837030117
 30
0.0
 10
41.63228557961613
 20
50.1626585386973
 30
0.0
 10
41.65085530687843
 20
50.16292775508462
 30
0.0
 10
41.65390363962526
 20
50.16297194857857
 30
0.0
  0
LINE
  5
388
330
1F
100
AcDbEntity
  8
0
  6
SLD-Solid
 62
     7
370
    25
100
AcDbLine
 10
41.6539036396
 20
50.1629719486
 30
0.0
 11
45.0722074052
 21
50.1629719486
 31
0.0
  0
LINE
  5
389
330
1F
100
AcDbEntity
  8
0
  6
SLD-Solid
 62
     7
370
    25
100
AcDbLine
 10
45.0723236624
 20
50.4829719486
 30
0.0
 11
41.6539036396
 21
50.4829719486
 31
0.0
  0
ARC
  5
38A
330
1F
100
AcDbEntity
  8
0
  6
SLD-Solid
 62
     7
370
    25
100
AcDbCircle
 10
43.8696125849
 20
40.6540805808
 30
0.0
 40
0.1000000000000068
100
AcDbArc
 50
116.5650511771
 51
180.0
  0
ARC
  5
38B
330
1F
100
AcDbEntity
  8
0
  6
SLD-Solid
 62
     7
370
    25
100
AcDbCircle
 10
46.9446125849
 20
40.6540805808
 30
0.0
 40
0.1000000000000037
100
AcDbArc
 50
0.0
 51
63.4349488229
  0
ARC
  5
38C
330
1F
100
AcDbEntity
  8
0
  6
SLD-Solid
 62
     7
370
    25
100
AcDbCircle
 10
46.8446125849
 20
33.1658839796
 30
0.0
 40
0.2000000000000028
100
AcDbArc
 50
270.0
 51
0.0
  0
ARC
  5
38D
330
1F
100
AcDbEntity
  8
0
  6
SLD-Solid
 62
     7
370
    25
100
AcDbCircle
 10
43.9696125849
 20
33.1658839796
 30
0.0
 40
0.2000000000000028
100
AcDbArc
 50
180.0
 51
270.0
  0
LINE
  5
38E
330
1F
100
AcDbEntity
  8
0
  6
SLD-Solid
 62
     7
370
    25
100
AcDbLine
 10
43.7696125849
 20
40.6540805808
 30
0.0
 11
43.7696125849
 21
33.1658839796
 31
0.0
  0
LINE
  5
38F
330
1F
100
AcDbEntity
  8
0
  6
SLD-Solid
 62
     7
370
    25
100
AcDbLine
 10
47.0446125849
 20
33.1658839796
 30
0.0
 11
47.0446125849
 21
40.6540805808
 31
0.0
  0
LINE
  5
390
330
1F
100
AcDbEntity
  8
0
  6
SLD-Solid
 62
     7
370
    25
100
AcDbLine
 10
46.9893339444
 20
40.7435232999
 30
0.0
 11
46.1323912253
 21
41.1719946594
 31
0.0
  0
LINE
  5
391
330
1F
100
AcDbEntity
  8
0
  6
SLD-Solid
 62
     7
370
    25
100
AcDbLine
 10
44.6818339444
 20
41.1719946594
 30
0.0
 11
43.8248912253
 21
40.7435232999
 31
0.0
  0
LINE
  5
392
330
1F
100
AcDbEntity
  8
0
  6
SLD-Solid
 62
     7
370
    25
100
AcDbLine
 10
46.2871125849
 20
46.6723839796
 30
0.0
 11
46.2871125849
 21
46.7023839796
 31
0.0
  0
LINE
  5
393
330
1F
100
AcDbEntity
  8
0
  6
SLD-Solid
 62
     7
370
    25
100
AcDbLine
 10
44.5271125849
 20
46.7023839796
 30
0.0
 11
44.5271125849
 21
46.6723839796
 31
0.0
  0
LINE
  5
394
330
1F
100
AcDbEntity
  8
0
  6
SLD-Solid
 62
     7
370
    25
100
AcDbLine
 10
44.5471125849
 20
42.0158839796
 30
0.0
 11
44.5471125849
 21
41.3658839796
 31
0.0
  0
LINE
  5
395
330
1F
100
AcDbEntity
  8
0
  6
SLD-Solid
 62
     7
370
    25
100
AcDbLine
 10
46.2671125849
 20
41.3658839796
 30
0.0
 11
46.2671125849
 21
42.0158839796
 31
0.0
  0
ARC
  5
396
330
1F
100
AcDbEntity
  8
0
  6
SLD-Solid
 62
     7
370
    25
100
AcDbCircle
 10
44.6371125849
 20
41.2614373785
 30
0.0
 40
0.1000000000000005
100
AcDbArc
 50
296.5650511771
 51
0.0
  0
ARC
  5
397
330
1F
100
AcDbEntity
  8
0
  6
SLD-Solid
 62
     7
370
    25
100
AcDbCircle
 10
46.1771125849
 20
41.2614373785
 30
0.0
 40
0.0999999999999973
100
AcDbArc
 50
180.0
 51
243.4349488229
  0
LINE
  5
398
330
1F
100
AcDbEntity
  8
0
  6
SLD-Solid
 62
     7
370
    25
100
AcDbLine
 10
44.6821125849
 20
46.0473839796
 30
0.0
 11
44.6821125849
 21
45.9513839796
 31
0.0
  0
LINE
  5
399
330
1F
100
AcDbEntity
  8
0
  6
SLD-Solid
 62
     7
370
    25
100
AcDbLine
 10
46.1321125849
 20
45.9513839796
 30
0.0
 11
46.1321125849
 21
46.0473839796
 31
0.0
  0
LINE
  5
39A
330
1F
100
AcDbEntity
  8
0
  6
SLD-Solid
 62
     7
370
    25
100
AcDbLine
 10
46.0971125849
 20
46.7023839796
 30
0.0
 11
46.0971125849
 21
49.5023839796
 31
0.0
  0
LINE
  5
39B
330
1F
100
AcDbEntity
  8
0
  6
SLD-Solid
 62
     7
370
    25
100
AcDbLine
 10
44.7171125849
 20
49.5023839796
 30
0.0
 11
44.7171125849
 21
46.7023839796
 31
0.0
  0
LINE
  5
39C
330
1F
100
AcDbEntity
  8
0
  6
SLD-Solid
 62
     7
370
    25
100
AcDbLine
 10
44.7371125849
 20
41.3658839796
 30
0.0
 11
44.7371125849
 21
41.2614373785
 31
0.0
  0
LINE
  5
39D
330
1F
100
AcDbEntity
  8
0
  6
SLD-Solid
 62
     7
370
    25
100
AcDbLine
 10
46.0771125849
 20
41.2614373785
 30
0.0
 11
46.0771125849
 21
41.3658839796
 31
0.0
  0
LINE
  5
39E
330
1F
100
AcDbEntity
  8
0
  6
SLD-Solid
 62
     7
370
    25
100
AcDbLine
 10
44.8496125849
 20
42.4588839796
 30
0.0
 11
44.8496125849
 21
42.3908839796
 31
0.0
  0
LINE
  5
39F
330
1F
100
AcDbEntity
  8
0
  6
SLD-Solid
 62
     7
370
    25
100
AcDbLine
 10
45.9646125849
 20
42.0158839796
 30
0.0
 11
45.9646125849
 21
42.4588839796
 31
0.0
  0
LINE
  5
3A0
330
1F
100
AcDbEntity
  8
0
  6
SLD-Solid
 62
     7
370
    25
100
AcDbLine
 10
44.8496125849
 20
45.5013839796
 30
0.0
 11
44.8496125849
 21
45.4513839796
 31
0.0
  0
LINE
  5
3A1
330
1F
100
AcDbEntity
  8
0
  6
SLD-Solid
 62
     7
370
    25
100
AcDbLine
 10
45.9646125849
 20
45.4513839796
 30
0.0
 11
45.9646125849
 21
45.9513839796
 31
0.0
  0
LINE
  5
3A2
330
1F
100
AcDbEntity
  8
0
  6
SLD-Solid
 62
     7
370
    25
100
AcDbLine
 10
44.9481125849
 20
45.4513839796
 30
0.0
 11
44.9481125849
 21
44.8258839796
 31
0.0
  0
LINE
  5
3A3
330
1F
100
AcDbEntity
  8
0
  6
SLD-Solid
 62
     7
370
    25
100
AcDbLine
 10
45.8661125849
 20
44.8258839796
 30
0.0
 11
45.8661125849
 21
45.4513839796
 31
0.0
  0
LINE
  5
3A4
330
1F
100
AcDbEntity
  8
0
  6
SLD-Solid
 62
     7
370
    25
100
AcDbLine
 10
44.9481125849
 20
44.6388839796
 30
0.0
 11
44.9481125849
 21
42.4588839796
 31
0.0
  0
LINE
  5
3A5
330
1F
100
AcDbEntity
  8
0
  6
SLD-Solid
 62
     7
370
    25
100
AcDbLine
 10
45.8661125849
 20
42.4588839796
 30
0.0
 11
45.8661125849
 21
44.6388839796
 31
0.0
  0
LINE
  5
3A6
330
1F
100
AcDbEntity
  8
0
  6
SLD-Solid
 62
     7
370
    25
100
AcDbLine
 10
44.9846125849
 20
44.8258839796
 30
0.0
 11
44.9846125849
 21
44.6388839796
 31
0.0
  0
LINE
  5
3A7
330
1F
100
AcDbEntity
  8
0
  6
SLD-Solid
 62
     7
370
    25
100
AcDbLine
 10
45.8296125849
 20
44.6388839796
 30
0.0
 11
45.8296125849
 21
44.8258839796
 31
0.0
  0
LINE
  5
3A8
330
1F
100
AcDbEntity
  8
0
  6
SLD-Solid
 62
     7
370
    25
100
AcDbLine
 10
45.8021125849
 20
50.0143839796
 30
0.0
 11
45.8021125849
 21
50.6073839796
 31
0.0
  0
LINE
  5
3A9
330
1F
100
AcDbEntity
  8
0
  6
SLD-Solid
 62
     7
370
    25
100
AcDbLine
 10
45.0121125849
 20
50.6073839796
 30
0.0
 11
45.0121125849
 21
50.4829719486
 31
0.0
  0
LINE
  5
3AA
330
1F
100
AcDbEntity
  8
0
  6
SLD-Solid
 62
     7
370
    25
100
AcDbLine
 10
45.0121125849
 20
50.1629719486
 30
0.0
 11
45.0121125849
 21
50.0143839796
 31
0.0
  0
LINE
  5
3AB
330
1F
100
AcDbEntity
  8
0
  6
SLD-Solid
 62
     7
370
    25
100
AcDbLine
 10
45.6651125849
 20
49.5023839796
 30
0.0
 11
45.6651125849
 21
50.0143839796
 31
0.0
  0
LINE
  5
3AC
330
1F
100
AcDbEntity
  8
0
  6
SLD-Solid
 62
     7
370
    25
100
AcDbLine
 10
45.1491125849
 20
50.0143839796
 30
0.0
 11
45.1491125849
 21
49.5023839796
 31
0.0
  0
LINE
  5
3AD
330
1F
100
AcDbEntity
  8
0
  6
SLD-Solid
 62
     7
370
    25
100
AcDbLine
 10
50.6001262957
 20
46.6723839796
 30
0.0
 11
50.6001262957
 21
46.0473839796
 31
0.0
  0
LINE
  5
3AE
330
1F
100
AcDbEntity
  8
0
  6
SLD-Solid
 62
     7
370
    25
100
AcDbLine
 10
43.9160829673
 20
46.0473839796
 30
0.0
 11
50.6001262957
 21
46.0473839796
 31
0.0
  0
LINE
  5
3AF
330
1F
100
AcDbEntity
  8
0
  6
SLD-Solid
 62
     7
370
    25
100
AcDbLine
 10
43.9160829673
 20
46.0473839796
 30
0.0
 11
43.9160829673
 21
46.6723839796
 31
0.0
  0
LINE
  5
3B0
330
1F
100
AcDbEntity
  8
0
  6
SLD-Solid
 62
     7
370
    25
100
AcDbLine
 10
43.9160829673
 20
46.6723839796
 30
0.0
 11
50.6001262957
 21
46.6723839796
 31
0.0
  0
LINE
  5
3B1
330
1F
100
AcDbEntity
  8
0
  6
SLD-Solid
 62
     7
370
    25
100
AcDbLine
 10
43.9160829673
 20
46.0473839796
 30
0.0
 11
38.6001262957
 21
46.0473839796
 31
0.0
  0
LINE
  5
3B2
330
1F
100
AcDbEntity
  8
0
  6
SLD-Solid
 62
     7
370
    25
100
AcDbLine
 10
38.6001262957
 20
46.0473839796
 30
0.0
 11
38.6001262957
 21
46.6723839796
 31
0.0
  0
LINE
  5
3B3
330
1F
100
AcDbEntity
  8
0
  6
SLD-Solid
 62
     7
370
    25
100
AcDbLine
 10
43.9160829673
 20
46.6723839796
 30
0.0
 11
38.6001262957
 21
46.6723839796
 31
0.0
  0
SPLINE
  5
3B4
330
1F
100
AcDbEntity
  8
0
  6
SLD-Solid
 62
     7
370
    25
100
AcDbSpline
210
0.0
220
0.0
230
1.0
 70
     8
 71
     3
 72
    12
 73
     8
 74
     0
 42
0.00000001
 43
0.00000001
 40
0.0
 40
0.0
 40
0.0
 40
0.0
 40
0.2024892961639617
 40
0.4045540979570117
 40
0.617368382717349
 40
0.8386663762819422
 40
1.0
 40
1.0
 40
1.0
 40
1.0
 10
45.18490484463952
 20
50.32297194857857
 30
0.0
 10
45.18342432607363
 20
50.30582958942772
 30
0.0
 10
45.18046639267035
 20
50.27158080801305
 30
0.0
 10
45.15863516010466
 20
50.22533666385532
 30
0.0
 10
45.12888572821457
 20
50.18872657844452
 30
0.0
 10
45.09702446661887
 20
50.16587727436207
 30
0.0
 10
45.07951541844326
 20
50.16494742379749
 30
0.0
 10
45.07213286545381
 20
50.16455535959182
 30
0.0
  0
SPLINE
  5
3B5
330
1F
100
AcDbEntity
  8
0
  6
SLD-Solid
 62
     7
370
    25
100
AcDbSpline
210
0.0
220
0.0
230
1.0
 70
     8
 71
     3
 72
    13
 73
     9
 74
     0
 42
0.00000001
 43
0.00000001
 40
0.0
 40
0.0
 40
0.0
 40
0.0
 40
0.1314046452555651
 40
0.3289353846923761
 40
0.53534802517466
 40
0.7548803182997075
 40
0.972132427483808
 40
1.0
 40
1.0
 40
1.0
 40
1.0
 10
45.07227652764057
 20
50.48105450212773
 30
0.0
 10
45.07814710426076
 20
50.48113855561171
 30
0.0
 10
45.09284247804437
 20
50.48134896038874
 30
0.0
 10
45.12127510741919
 20
50.46335867422447
 30
0.0
 10
45.15198492500048
 20
50.43099327694135
 30
0.0
 10
45.17658105239814
 20
50.38502555136746
 30
0.0
 10
45.18461434403952
 20
50.34598573720548
 30
0.0
 10
45.18487518923835
 20
50.32532128325822
 30
0.0
 10
45.18490484463952
 20
50.32297194857857
 30
0.0
  0
LINE
  5
3B6
330
1F
100
AcDbEntity
  8
0
  6
SLD-Solid
 62
     7
370
    25
100
AcDbLine
 10
46.8446125849
 20
32.9658839796
 30
0.0
 11
43.9696125849
 21
32.9658839796
 31
0.0
  0
LINE
  5
3B7
330
1F
100
AcDbEntity
  8
0
  6
SLD-Solid
 62
     7
370
    25
100
AcDbLine
 10
44.6597943029
 20
46.7023839796
 30
0.0
 11
46.2871125849
 21
46.7023839796
 31
0.0
  0
LINE
  5
3B8
330
1F
100
AcDbEntity
  8
0
  6
SLD-Solid
 62
     7
370
    25
100
AcDbLine
 10
44.5271125849
 20
46.7023839796
 30
0.0
 11
44.6597943029
 21
46.7023839796
 31
0.0
  0
LINE
  5
3B9
330
1F
100
AcDbEntity
  8
0
  6
SLD-Solid
 62
     7
370
    25
100
AcDbLine
 10
46.2671125849
 20
42.0158839796
 30
0.0
 11
44.5471125849
 21
42.0158839796
 31
0.0
  0
LINE
  5
3BA
330
1F
100
AcDbEntity
  8
0
  6
SLD-Solid
 62
     7
370
    25
100
AcDbLine
 10
46.2671125849
 20
41.3658839796
 30
0.0
 11
44.5471125849
 21
41.3658839796
 31
0.0
  0
LINE
  5
3BB
330
1F
100
AcDbEntity
  8
0
  6
SLD-Solid
 62
     7
370
    25
100
AcDbLine
 10
46.1321125849
 20
45.9513839796
 30
0.0
 11
44.6821125849
 21
45.9513839796
 31
0.0
  0
LINE
  5
3BC
330
1F
100
AcDbEntity
  8
0
  6
SLD-Solid
 62
     7
370
    25
100
AcDbLine
 10
44.8211471138
 20
49.5023839796
 30
0.0
 11
46.0971125849
 21
49.5023839796
 31
0.0
  0
LINE
  5
3BD
330
1F
100
AcDbEntity
  8
0
  6
SLD-Solid
 62
     7
370
    25
100
AcDbLine
 10
44.7171125849
 20
49.5023839796
 30
0.0
 11
44.8211471138
 21
49.5023839796
 31
0.0
  0
LINE
  5
3BE
330
1F
100
AcDbEntity
  8
0
  6
SLD-Solid
 62
     7
370
    25
100
AcDbLine
 10
45.6578420842
 20
42.3908839796
 30
0.0
 11
45.6578420842
 21
42.0158839796
 31
0.0
  0
LINE
  5
3BF
330
1F
100
AcDbEntity
  8
0
  6
SLD-Solid
 62
     7
370
    25
100
AcDbLine
 10
44.9619789377
 20
42.3908839796
 30
0.0
 11
44.9619789377
 21
42.0158839796
 31
0.0
  0
LINE
  5
3C0
330
1F
100
AcDbEntity
  8
0
  6
SLD-Solid
 62
     7
370
    25
100
AcDbLine
 10
45.9646125849
 20
42.4588839796
 30
0.0
 11
44.8496125849
 21
42.4588839796
 31
0.0
  0
LINE
  5
3C1
330
1F
100
AcDbEntity
  8
0
  6
SLD-Solid
 62
     7
370
    25
100
AcDbLine
 10
44.9619789377
 20
45.5013839796
 30
0.0
 11
44.9619789377
 21
45.9513839796
 31
0.0
  0
LINE
  5
3C2
330
1F
100
AcDbEntity
  8
0
  6
SLD-Solid
 62
     7
370
    25
100
AcDbLine
 10
45.6578420842
 20
45.5013839796
 30
0.0
 11
45.6578420842
 21
45.9513839796
 31
0.0
  0
LINE
  5
3C3
330
1F
100
AcDbEntity
  8
0
  6
SLD-Solid
 62
     7
370
    25
100
AcDbLine
 10
45.9646125849
 20
45.4513839796
 30
0.0
 11
44.8496125849
 21
45.4513839796
 31
0.0
  0
LINE
  5
3C4
330
1F
100
AcDbEntity
  8
0
  6
SLD-Solid
 62
     7
370
    25
100
AcDbLine
 10
45.8661125849
 20
44.8258839796
 30
0.0
 11
44.9481125849
 21
44.8258839796
 31
0.0
  0
LINE
  5
3C5
330
1F
100
AcDbEntity
  8
0
  6
SLD-Solid
 62
     7
370
    25
100
AcDbLine
 10
45.8661125849
 20
44.6388839796
 30
0.0
 11
44.9481125849
 21
44.6388839796
 31
0.0
  0
LINE
  5
3C6
330
1F
100
AcDbEntity
  8
0
  6
SLD-Solid
 62
     7
370
    25
100
AcDbLine
 10
45.7000845352
 20
45.5013839796
 30
0.0
 11
45.7000845352
 21
45.9513839796
 31
0.0
  0
LINE
  5
3C7
330
1F
100
AcDbEntity
  8
0
  6
SLD-Solid
 62
     7
370
    25
100
AcDbLine
 10
45.7000845352
 20
45.5013839796
 30
0.0
 11
45.6578420842
 21
45.5013839796
 31
0.0
  0
LINE
  5
3C8
330
1F
100
AcDbEntity
  8
0
  6
SLD-Solid
 62
     7
370
    25
100
AcDbLine
 10
45.7850070673
 20
45.5013839796
 30
0.0
 11
45.7850070673
 21
45.9513839796
 31
0.0
  0
LINE
  5
3C9
330
1F
100
AcDbEntity
  8
0
  6
SLD-Solid
 62
     7
370
    25
100
AcDbLine
 10
45.7850070673
 20
45.5013839796
 30
0.0
 11
45.7000845352
 21
45.5013839796
 31
0.0
  0
LINE
  5
3CA
330
1F
100
AcDbEntity
  8
0
  6
SLD-Solid
 62
     7
370
    25
100
AcDbLine
 10
45.6974443821
 20
42.3908839796
 30
0.0
 11
45.6974443821
 21
42.0158839796
 31
0.0
  0
LINE
  5
3CB
330
1F
100
AcDbEntity
  8
0
  6
SLD-Solid
 62
     7
370
    25
100
AcDbLine
 10
45.7823669141
 20
42.3908839796
 30
0.0
 11
45.7823669141
 21
42.0158839796
 31
0.0
  0
LINE
  5
3CC
330
1F
100
AcDbEntity
  8
0
  6
SLD-Solid
 62
     7
370
    25
100
AcDbLine
 10
45.6974443821
 20
42.3908839796
 30
0.0
 11
45.7823669141
 21
42.3908839796
 31
0.0
  0
LINE
  5
3CD
330
1F
100
AcDbEntity
  8
0
  6
SLD-Solid
 62
     7
370
    25
100
AcDbLine
 10
45.6578420842
 20
42.3908839796
 30
0.0
 11
45.6974443821
 21
42.3908839796
 31
0.0
  0
LINE
  5
3CE
330
1F
100
AcDbEntity
  8
0
  6
SLD-Solid
 62
     7
370
    25
100
AcDbLine
 10
45.0716685833
 20
50.0143839796
 30
0.0
 11
45.8021125849
 21
50.0143839796
 31
0.0
  0
LINE
  5
3CF
330
1F
100
AcDbEntity
  8
0
  6
SLD-Solid
 62
     7
370
    25
100
AcDbLine
 10
45.0121125849
 20
50.0143839796
 30
0.0
 11
45.0716685833
 21
50.0143839796
 31
0.0
  0
LINE
  5
3D0
330
1F
100
AcDbEntity
  8
0
  6
SLD-Solid
 62
     7
370
    25
100
AcDbLine
 10
45.0716685833
 20
50.6073839796
 30
0.0
 11
45.8021125849
 21
50.6073839796
 31
0.0
  0
LINE
  5
3D1
330
1F
100
AcDbEntity
  8
0
  6
SLD-Solid
 62
     7
370
    25
100
AcDbLine
 10
45.0121125849
 20
50.6073839796
 30
0.0
 11
45.0716685833
 21
50.6073839796
 31
0.0
  0
LINE
  5
3D2
330
1F
100
AcDbEntity
  8
0
  6
SLD-Solid
 62
     7
370
    25
100
AcDbLine
 10
44.9619789377
 20
45.5013839796
 30
0.0
 11
44.8940409121
 21
45.5013839796
 31
0.0
  0
LINE
  5
3D3
330
1F
100
AcDbEntity
  8
0
  6
SLD-Solid
 62
     7
370
    25
100
AcDbLine
 10
44.8940409121
 20
45.5013839796
 30
0.0
 11
44.8940409121
 21
45.9513839796
 31
0.0
  0
LINE
  5
3D4
330
1F
100
AcDbEntity
  8
0
  6
SLD-Solid
 62
     7
370
    25
100
AcDbLine
 10
44.8940409121
 20
45.5013839796
 30
0.0
 11
44.8412378482
 21
45.5013839796
 31
0.0
  0
LINE
  5
3D5
330
1F
100
AcDbEntity
  8
0
  6
SLD-Solid
 62
     7
370
    25
100
AcDbLine
 10
44.8412378482
 20
45.5013839796
 30
0.0
 11
44.8412378482
 21
45.9513839796
 31
0.0
  0
LINE
  5
3D6
330
1F
100
AcDbEntity
  8
0
  6
SLD-Solid
 62
     7
370
    25
100
AcDbLine
 10
44.8454839748
 20
42.3908839796
 30
0.0
 11
44.8454839748
 21
42.0158839796
 31
0.0
  0
LINE
  5
3D7
330
1F
100
AcDbEntity
  8
0
  6
SLD-Solid
 62
     7
370
    25
100
AcDbLine
 10
44.8982870387
 20
42.3908839796
 30
0.0
 11
44.8982870387
 21
42.0158839796
 31
0.0
  0
LINE
  5
3D8
330
1F
100
AcDbEntity
  8
0
  6
SLD-Solid
 62
     7
370
    25
100
AcDbLine
 10
44.8454839748
 20
42.3908839796
 30
0.0
 11
44.8982870387
 21
42.3908839796
 31
0.0
  0
LINE
  5
3D9
330
1F
100
AcDbEntity
  8
0
  6
SLD-Solid
 62
     7
370
    25
100
AcDbLine
 10
44.8982870387
 20
42.3908839796
 30
0.0
 11
44.9619789377
 21
42.3908839796
 31
0.0
  0
LINE
  5
3DA
330
1F
100
AcDbEntity
  8
0
  6
SLD-Solid
 62
     7
370
    25
100
AcDbLine
 10
45.9729873215
 20
45.5013839796
 30
0.0
 11
45.9729873215
 21
45.9513839796
 31
0.0
  0
LINE
  5
3DB
330
1F
100
AcDbEntity
  8
0
  6
SLD-Solid
 62
     7
370
    25
100
AcDbLine
 10
45.9729873215
 20
45.5013839796
 30
0.0
 11
45.9646125849
 21
45.5013839796
 31
0.0
  0
LINE
  5
3DC
330
1F
100
AcDbEntity
  8
0
  6
SLD-Solid
 62
     7
370
    25
100
AcDbLine
 10
45.9687411949
 20
42.3908839796
 30
0.0
 11
45.9687411949
 21
42.0158839796
 31
0.0
  0
LINE
  5
3DD
330
1F
100
AcDbEntity
  8
0
  6
SLD-Solid
 62
     7
370
    25
100
AcDbLine
 10
45.9646125849
 20
42.3908839796
 30
0.0
 11
45.9687411949
 21
42.3908839796
 31
0.0
  0
DIMENSION
  5
3DE
330
1F
100
AcDbEntity
  8
DIMS
100
AcDbDimension
  2
_D_5
 10
46.0971125849
 20
51.7864782634
 30
0.0
 11
43.8647553827
 21
51.7864782634
 31
0.0
 70
   160
  1
<>
 71
     2
 42
-1.0
  3
SLDDIMSTYLE0
100
AcDbAlignedDimension
 13
40.9594466556
 23
49.88850815
 33
0.0
 14
46.0971125849
 24
49.5023839796
 34
0.0
100
AcDbRotatedDimension
  0
DIMENSION
  5
3ED
330
1F
100
AcDbEntity
  8
DIMS
100
AcDbDimension
  2
_D_6
 10
46.0971125849
 20
48.9092327809
 30
0.0
 11
42.9385159867
 21
48.9092327809
 31
0.0
 70
   160
  1
%%c<>
 71
     2
 42
-1.0
  3
SLDDIMSTYLE1
100
AcDbAlignedDimension
 13
44.7171125849
 23
49.5023839796
 33
0.0
 14
46.0971125849
 24
49.5023839796
 34
0.0
100
AcDbRotatedDimension
  0
INSERT
  5
400
330
1F
100
AcDbEntity
  8
NOTES
100
AcDbBlockReference
  2
SW_NOTE_0_7
 10
40.1866333754
 20
32.8484012155
 30
0.0
  0
MTEXT
  5
401
330
1F
100
AcDbEntity
  8
NOTES
100
AcDbMText
 10
39.0626057533
 20
43.921243949
 30
0.0
 40
0.5
 41
0.0
 71
     1
 72
     1
  1
1" Dia. hole
  7
SLDTEXTSTYLE1
 73
     1
 44
1.0
  0
LEADER
  5
402
330
1F
100
AcDbEntity
  8
NOTES
100
AcDbLeader
  3
SLDDIMSTYLE2
 76
     3
 10
45.3992089895
 20
46.0473839796
 30
0.0
 10
42.7840467269
 20
43.678179124
 30
0.0
 10
42.7035231245
 20
43.678179124
 30
0.0
  0
SPLINE
  5
403
330
1F
100
AcDbEntity
  8
0
  6
SLD-Solid
 62
     7
370
    25
100
AcDbSpline
210
0.0
220
0.0
230
1.0
 70
     8
 71
     3
 72
    14
 73
    10
 74
     0
 42
0.00000001
 43
0.00000001
 40
0.0
 40
0.0
 40
0.0
 40
0.0
 40
0.0945103902232621
 40
0.2603140674730403
 40
0.4264258111865438
 40
0.5928399470350543
 40
0.7595185718490738
 40
0.9263551329086266
 40
0.9999999999999999
 40
0.9999999999999999
 40
0.9999999999999999
 40
0.9999999999999999
 10
58.32756360787376
 20
58.20632809042426
 30
0.0
 10
58.31037260334453
 20
58.20439459469396
 30
0.0
 10
58.26302267385658
 20
58.19906908353262
 30
0.0
 10
58.18632616110455
 20
58.18169374277122
 30
0.0
 10
58.09967786685563
 20
58.15161270061086
 30
0.0
 10
58.01742914090585
 20
58.11149526543141
 30
0.0
 10
57.94132918426924
 20
58.06208762890656
 30
0.0
 10
57.8851799276262
 20
58.01524127014975
 30
0.0
 10
57.85571418113744
 20
57.98461320530121
 30
0.0
 10
57.84669061120692
 20
57.97523368779592
 30
0.0
  0
SPLINE
  5
404
330
1F
100
AcDbEntity
  8
0
  6
SLD-Solid
 62
     7
370
    25
100
AcDbSpline
210
0.0
220
0.0
230
1.0
 70
     8
 71
     3
 72
    13
 73
     9
 74
     0
 42
0.00000001
 43
0.00000001
 40
0.0
 40
0.0
 40
0.0
 40
0.0
 40
0.0940339503804937
 40
0.2932791569715865
 40
0.4923070390736153
 40
0.6908540420455146
 40
0.8890286554599285
 40
1.0
 40
1.0
 40
1.0
 40
1.0
 10
58.08122478088659
 20
57.75753269273007
 30
0.0
 10
58.08741846754401
 20
57.76390464691029
 30
0.0
 10
58.10673573746711
 20
57.78377790909569
 30
0.0
 10
58.1456985753203
 20
57.81436522583466
 30
0.0
 10
58.19981379012726
 20
57.8455983758205
 30
0.0
 10
58.25925017476145
 20
57.86919047059601
 30
0.0
 10
58.31254219477516
 20
57.88253683618937
 30
0.0
 10
58.34515491154941
 20
57.88631566721905
 30
0.0
 10
58.35686160522086
 20
57.88767212021273
 30
0.0
  0
LINE
  5
405
330
1F
100
AcDbEntity
  8
0
  6
SLD-Solid
 62
     7
370
    25
100
AcDbLine
 10
58.3568616052
 20
57.8876721202
 30
0.0
 11
62.3423638887
 21
58.2541087988
 31
0.0
  0
LINE
  5
406
330
1F
100
AcDbEntity
  8
0
  6
SLD-Solid
 62
     7
370
    25
100
AcDbLine
 10
62.3117720421
 20
58.5726458094
 30
0.0
 11
58.3275636079
 21
58.2063280904
 31
0.0
  0
LINE
  5
407
330
1F
100
AcDbEntity
  8
0
  6
SLD-Solid
 62
     7
370
    25
100
AcDbLine
 10
57.816616204
 20
57.472463932
 30
0.0
 11
58.0812247809
 21
57.7575326927
 31
0.0
  0
LINE
  5
408
330
1F
100
AcDbEntity
  8
0
  6
SLD-Solid
 62
     7
370
    25
100
AcDbLine
 10
57.8466906112
 20
57.9752336878
 30
0.0
 11
57.5820820343
 21
57.6901649271
 31
0.0
  0
SPLINE
  5
409
330
1F
100
AcDbEntity
  8
0
  6
SLD-Solid
 62
     7
370
    25
100
AcDbSpline
210
0.0
220
0.0
230
1.0
 70
     8
 71
     3
 72
    20
 73
    16
 74
     0
 42
0.00000001
 43
0.00000001
 40
0.0
 40
0.0
 40
0.0
 40
0.0
 40
0.0304310882475586
 40
0.0968988395425992
 40
0.1604082415040751
 40
0.2320563463529886
 40
0.3219905918357301
 40
0.4200695368529507
 40
0.5137972822081729
 40
0.606709370076335
 40
0.7017240489198394
 40
0.8041751022990957
 40
0.8774294587678625
 40
0.9450966400953732
 40
1.0
 40
1.0
 40
1.0
 40
1.0
 10
57.5831587378752
 20
57.68924829226147
 30
0.0
 10
57.58016130525154
 20
57.68649359009044
 30
0.0
 10
57.57061686370949
 20
57.67772205219843
 30
0.0
 10
57.56434632944715
 20
57.6564772992274
 30
0.0
 10
57.56397149238628
 20
57.63148915246152
 30
0.0
 10
57.57122532178957
 20
57.60500216277804
 30
0.0
 10
57.58656733460028
 20
57.57524757875363
 30
0.0
 10
57.61111871066633
 20
57.54255993523496
 30
0.0
 10
57.6420439872967
 20
57.51117689566879
 30
0.0
 10
57.6758417627437
 20
57.48432978731424
 30
0.0
 10
57.71114730692597
 20
57.46348369700051
 30
0.0
 10
57.74313505831059
 20
57.45197028169798
 30
0.0
 10
57.77262684472336
 20
57.45010748957226
 30
0.0
 10
57.79802633333551
 20
57.45611680766554
 30
0.0
 10
57.81004423399698
 20
57.46740090753428
 30
0.0
 10
57.81542744531907
 20
57.47245542544753
 30
0.0
  0
LINE
  5
40A
330
1F
100
AcDbEntity
  8
0
  6
SLD-Solid
 62
     7
370
    25
100
AcDbLine
 10
63.1017720421
 20
58.1963135407
 30
0.0
 11
63.1017720421
 21
58.6805222421
 31
0.0
  0
LINE
  5
40B
330
1F
100
AcDbEntity
  8
0
  6
SLD-Solid
 62
     7
370
    25
100
AcDbLine
 10
62.3117720421
 20
58.2512961107
 30
0.0
 11
62.3117720421
 21
58.1963135407
 31
0.0
  0
LINE
  5
40C
330
1F
100
AcDbEntity
  8
0
  6
SLD-Solid
 62
     7
370
    25
100
AcDbLine
 10
62.3117720421
 20
58.6805222421
 30
0.0
 11
62.3117720421
 21
58.5675090189
 31
0.0
  0
LINE
  5
40D
330
1F
100
AcDbEntity
  8
0
  6
SLD-Solid
 62
     7
370
    25
100
AcDbLine
 10
63.3967720421
 20
55.5409228204
 30
0.0
 11
63.3967720421
 21
57.778244645
 31
0.0
  0
LINE
  5
40E
330
1F
100
AcDbEntity
  8
0
  6
SLD-Solid
 62
     7
370
    25
100
AcDbLine
 10
62.0167720421
 20
57.778244645
 30
0.0
 11
62.0167720421
 21
55.5409228204
 31
0.0
  0
LINE
  5
40F
330
1F
100
AcDbEntity
  8
0
  6
SLD-Solid
 62
     7
370
    25
100
AcDbLine
 10
62.9647720421
 20
57.778244645
 30
0.0
 11
62.9647720421
 21
58.0236466026
 31
0.0
  0
LINE
  5
410
330
1F
100
AcDbEntity
  8
0
  6
SLD-Solid
 62
     7
370
    25
100
AcDbLine
 10
62.4487720421
 20
58.0236466026
 30
0.0
 11
62.4487720421
 21
57.778244645
 31
0.0
  0
LINE
  5
411
330
1F
100
AcDbEntity
  8
0
  6
SLD-Solid
 62
     7
370
    25
100
AcDbLine
 10
62.8382720421
 20
53.2211034996
 30
0.0
 11
62.8382720421
 21
55.1498949741
 31
0.0
  0
LINE
  5
412
330
1F
100
AcDbEntity
  8
0
  6
SLD-Solid
 62
     7
370
    25
100
AcDbLine
 10
62.5752720421
 20
55.1498949741
 30
0.0
 11
62.5752720421
 21
53.2211034996
 31
0.0
  0
SPLINE
  5
413
330
1F
100
AcDbEntity
  8
0
  6
SLD-Solid
 62
     7
370
    25
100
AcDbSpline
210
0.0
220
0.0
230
1.0
 70
     8
 71
     3
 72
    37
 73
    33
 74
     0
 42
0.00000001
 43
0.00000001
 40
0.0
 40
0.0
 40
0.0
 40
0.0
 40
0.0179290931232589
 40
0.0522404340527359
 40
0.0865493673123096
 40
0.1208536437800177
 40
0.155153031003036
 40
0.1894473727867398
 40
0.2237365856810778
 40
0.2580206541739734
 40
0.2922996246601284
 40
0.3265735985346473
 40
0.3608427247474578
 40
0.3951071921258894
 40
0.4293672217337358
 40
0.4636230594895684
 40
0.497874969219769
 40
0.5321232262750982
 40
0.5663681117965138
 40
0.6006099076776656
 40
0.6348488922393651
 40
0.6690853366050381
 40
0.7033195017461847
 40
0.7375516361524412
 40
0.7717819740710228
 40
0.8060107342554257
 40
0.8402381191607535
 40
0.8744643145241032
 40
0.9086894892709272
 40
0.9429137956922197
 40
0.9771373698425407
 40
0.9999999999999999
 40
0.9999999999999999
 40
0.9999999999999999
 40
0.9999999999999999
 10
62.57527204205212
 20
53.22110349962891
 30
0.0
 10
62.57493474393786
 20
53.16385593833709
 30
0.0
 10
62.57395195023085
 20
52.99705232870747
 30
0.0
 10
62.56298901348782
 20
52.71990230322612
 30
0.0
 10
62.53830695655646
 20
52.38968336588908
 30
0.0
 10
62.50122143660759
 20
52.05910068705103
 30
0.0
 10
62.45198016281466
 20
51.72849682467142
 30
0.0
 10
62.39057548514813
 20
51.39818003682411
 30
0.0
 10
62.31708261145717
 20
51.06846535604605
 30
0.0
 10
62.23156897666421
 20
50.73966491448246
 30
0.0
 10
62.13411837137815
 20
50.41209021170523
 30
0.0
 10
62.02482432819404
 20
50.08605119433088
 30
0.0
 10
61.90379174507397
 20
49.76185619759448
 30
0.0
 10
61.77113630364954
 20
49.43981166058963
 30
0.0
 10
61.62698447910569
 20
49.12022190379427
 30
0.0
 10
61.47147339121831
 20
48.80338888914844
 30
0.0
 10
61.3047506960235
 20
48.48961198214778
 30
0.0
 10
61.12697446275833
 20
48.17918770956495
 30
0.0
 10
60.9383130495031
 20
47.87240951333543
 30
0.0
 10
60.73894497037682
 20
47.56956750185277
 30
0.0
 10
60.52905876098536
 20
47.27094819246026
 30
0.0
 10
60.30885281471669
 20
46.97683427000641
 30
0.0
 10
60.07853528601712
 20
46.68750427106706
 30
0.0
 10
59.83832369791185
 20
46.40323253458013
 30
0.0
 10
59.58844560403937
 20
46.12428815132326
 30
0.0
 10
59.32913526399827
 20
45.85093764685342
 30
0.0
 10
59.06064514321862
 20
45.58343373385499
 30
0.0
 10
58.78320203666082
 20
45.3220560574543
 30
0.0
 10
58.49716979480621
 20
45.06695792108907
 30
0.0
 10
58.20244098102251
 20
44.81873708526697
 30
0.0
 10
57.93409242830101
 20
44.60312912260443
 30
0.0
 10
57.76076272522753
 20
44.47341655372704
 30
0.0
 10
57.69134537746858
 20
44.42146756666479
 30
0.0
  0
SPLINE
  5
414
330
1F
100
AcDbEntity
  8
0
  6
SLD-Solid
 62
     7
370
    25
100
AcDbSpline
210
0.0
220
0.0
230
1.0
 70
     8
 71
     3
 72
    38
 73
    34
 74
     0
 42
0.00000001
 43
0.00000001
 40
0.0
 40
0.0
 40
0.0
 40
0.0
 40
0.0101533452435323
 40
0.0436439143953152
 40
0.077135457536905
 40
0.1106266032023838
 40
0.1441172391999767
 40
0.1776072387331403
 40
0.2110964597021938
 40
0.2445847442913383
 40
0.278071918752398
 40
0.3115577934295617
 40
0.3450421630729584
 40
0.3785248074922724
 40
0.4120054926033094
 40
0.4454839719204377
 40
0.478959988545622
 40
0.5124332776993795
 40
0.5459035698306365
 40
0.5793705943295078
 40
0.6128340838501688
 40
0.6462937792293527
 40
0.6797494349597688
 40
0.7132008251474714
 40
0.7466477498486165
 40
0.7800900416456399
 40
0.8135275722870496
 40
0.8469602591818701
 40
0.8803880715110574
 40
0.9138110356977593
 40
0.9472292399683802
 40
0.9806428377398465
 40
1.0
 40
1.0
 40
1.0
 40
1.0
 10
57.71580478884548
 20
44.11142722354207
 30
0.0
 10
57.74802771229886
 20
44.13494942490969
 30
0.0
 10
57.88653718666757
 20
44.23605905117125
 30
0.0
 10
58.12597478720289
 20
44.41996993109386
 30
0.0
 10
58.43079836366672
 20
44.66579116634967
 30
0.0
 10
58.72722155217294
 20
44.91870514939941
 30
0.0
 10
59.01524691865944
 20
45.17819154582198
 30
0.0
 10
59.29452887228396
 20
45.44408464593376
 30
0.0
 10
59.56482626277649
 20
45.71611678983582
 30
0.0
 10
59.8258804000213
 20
45.99404013555931
 30
0.0
 10
60.0774480571243
 20
46.27759430695401
 30
0.0
 10
60.3192929409422
 20
46.56651534503821
 30
0.0
 10
60.55118828449752
 20
46.86053360111997
 30
0.0
 10
60.772916452777
 20
47.15937460197718
 30
0.0
 10
60.98426934167389
 20
47.46275912844575
 30
0.0
 10
61.18504855675184
 20
47.77040351512136
 30
0.0
 10
61.37506564255245
 20
48.08201990181741
 30
0.0
 10
61.55414228895123
 20
48.39731650956337
 30
0.0
 10
61.7221105329774
 20
48.71599792217118
 30
0.0
 10
61.878812950009
 20
49.0377653788808
 30
0.0
 10
62.02410283329223
 20
49.36231707671002
 30
0.0
 10
62.15784436405413
 20
49.68934848317539
 30
0.0
 10
62.27991275525938
 20
50.01855265741435
 30
0.0
 10
62.39019442491568
 20
50.34962058455199
 30
0.0
 10
62.4885869823211
 20
50.68224150154293
 30
0.0
 10
62.57499982771556
 20
51.01610329008903
 30
0.0
 10
62.64935237134858
 20
51.3508926470262
 30
0.0
 10
62.7115810371353
 20
51.68629610333467
 30
0.0
 10
62.76161338627691
 20
52.02199788380522
 30
0.0
 10
62.79946481908371
 20
52.35768954934297
 30
0.0
 10
62.82487780240466
 20
52.69303565597963
 30
0.0
 10
62.83673481177613
 20
52.98087485547089
 30
0.0
 10
62.83785949147617
 20
53.15663269973962
 30
0.0
 10
62.83827204205212
 20
53.22110349962891
 30
0.0
  0
LINE
  5
415
330
1F
100
AcDbEntity
  8
0
  6
SLD-Solid
 62
     7
370
    25
100
AcDbLine
 10
64.1132265161
 20
46.4005262544
 30
0.0
 11
64.1132265161
 21
46.5842479371
 31
0.0
  0
LINE
  5
416
330
1F
100
AcDbEntity
  8
0
  6
SLD-Solid
 62
     7
370
    25
100
AcDbLine
 10
62.8532265161
 20
46.5842479371
 30
0.0
 11
62.8532265161
 21
46.4005262544
 31
0.0
  0
LINE
  5
417
330
1F
100
AcDbEntity
  8
0
  6
SLD-Solid
 62
     7
370
    25
100
AcDbLine
 10
64.3632265161
 20
46.141682817
 30
0.0
 11
64.3632265161
 21
46.1661790414
 31
0.0
  0
LINE
  5
418
330
1F
100
AcDbEntity
  8
0
  6
SLD-Solid
 62
     7
370
    25
100
AcDbLine
 10
62.6032265161
 20
46.1661790414
 30
0.0
 11
62.6032265161
 21
46.141682817
 31
0.0
  0
LINE
  5
419
330
1F
100
AcDbEntity
  8
0
  6
SLD-Solid
 62
     7
370
    25
100
AcDbLine
 10
63.9832265161
 20
46.5842479371
 30
0.0
 11
63.9832265161
 21
46.6250749777
 31
0.0
  0
LINE
  5
41A
330
1F
100
AcDbEntity
  8
0
  6
SLD-Solid
 62
     7
370
    25
100
AcDbLine
 10
62.9832265161
 20
46.6250749777
 30
0.0
 11
62.9832265161
 21
46.5842479371
 31
0.0
  0
LINE
  5
41B
330
1F
100
AcDbEntity
  8
0
  6
SLD-Solid
 62
     7
370
    25
100
AcDbLine
 10
64.1732265161
 20
46.1661790414
 30
0.0
 11
64.1732265161
 21
46.2151714901
 31
0.0
  0
LINE
  5
41C
330
1F
100
AcDbEntity
  8
0
  6
SLD-Solid
 62
     7
370
    25
100
AcDbLine
 10
62.7932265161
 20
46.2151714901
 30
0.0
 11
62.7932265161
 21
46.1661790414
 31
0.0
  0
LINE
  5
41D
330
1F
100
AcDbEntity
  8
0
  6
SLD-Solid
 62
     7
370
    25
100
AcDbLine
 10
64.0332265161
 20
46.2151714901
 30
0.0
 11
64.0332265161
 21
46.2231570122
 31
0.0
  0
LINE
  5
41E
330
1F
100
AcDbEntity
  8
0
  6
SLD-Solid
 62
     7
370
    25
100
AcDbLine
 10
62.9332265161
 20
46.2231570122
 30
0.0
 11
62.9332265161
 21
46.2151714901
 31
0.0
  0
SPLINE
  5
41F
330
1F
100
AcDbEntity
  8
0
  6
SLD-Solid
 62
     7
370
    25
100
AcDbSpline
210
0.0
220
0.0
230
1.0
 70
     8
 71
     3
 72
    19
 73
    15
 74
     0
 42
0.00000001
 43
0.00000001
 40
0.0
 40
0.0
 40
0.0
 40
0.0
 40
0.0128663800252604
 40
0.1071311425567083
 40
0.2012673360364787
 40
0.2957497798749087
 40
0.3910626445499191
 40
0.4874826964984832
 40
0.5850458054270203
 40
0.6835884153000823
 40
0.7828398832455836
 40
0.8825185805649401
 40
0.9823940050890363
 40
1.0
 40
1.0
 40
1.0
 40
1.0
 10
65.1197019474643
 20
41.20879009095068
 30
0.0
 10
65.1200614049287
 20
41.21275414971667
 30
0.0
 10
65.1230544059736
 20
41.24576064757615
 30
0.0
 10
65.11674050914432
 20
41.30806842127864
 30
0.0
 10
65.10006474611319
 20
41.39447903395288
 30
0.0
 10
65.07004265974183
 20
41.47930073035141
 30
0.0
 10
65.02841661366807
 20
41.56201964938765
 30
0.0
 10
64.97492917190895
 20
41.64218585720403
 30
0.0
 10
64.90995123314302
 20
41.71926001779727
 30
0.0
 10
64.83378325584722
 20
41.79257546515608
 30
0.0
 10
64.74724484319415
 20
41.86168035038948
 30
0.0
 10
64.65018478378961
 20
41.92527925484261
 30
0.0
 10
64.57518797201007
 20
41.96892205237722
 30
0.0
 10
64.53051607602364
 20
41.98938269316523
 30
0.0
 10
64.52382145846471
 20
41.99244896474521
 30
0.0
  0
LINE
  5
420
330
1F
100
AcDbEntity
  8
0
  6
SLD-Solid
 62
     7
370
    25
100
AcDbLine
 10
61.8457265161
 20
40.4464176627
 30
0.0
 11
61.8457265161
 21
35.1130743413
 31
0.0
  0
LINE
  5
421
330
1F
100
AcDbEntity
  8
0
  6
SLD-Solid
 62
     7
370
    25
100
AcDbLine
 10
65.1207265161
 20
35.1130743413
 30
0.0
 11
65.1207265161
 21
41.2274924736
 31
0.0
  0
LINE
  5
422
330
1F
100
AcDbEntity
  8
0
  6
SLD-Solid
 62
     7
370
    25
100
AcDbLine
 10
64.3432265161
 20
41.8087089988
 30
0.0
 11
64.3432265161
 21
41.8881937237
 31
0.0
  0
SPLINE
  5
423
330
1F
100
AcDbEntity
  8
0
  6
SLD-Solid
 62
     7
370
    25
100
AcDbSpline
210
0.0
220
0.0
230
1.0
 70
     8
 71
     3
 72
    44
 73
    40
 74
     0
 42
0.00000001
 43
0.00000001
 40
0.0
 40
0.0
 40
0.0
 40
0.0
 40
0.0075672599023512
 40
0.0335123388250401
 40
0.0594464669818601
 40
0.0855719020389156
 40
0.11206941872643
 40
0.1390585775867062
 40
0.1665789136528461
 40
0.194586970861796
 40
0.2229760994824532
 40
0.2516132938012924
 40
0.2803755525198046
 40
0.3091609979711392
 40
0.3379105826183806
 40
0.3666033151735963
 40
0.3952350514662624
 40
0.4238117520530745
 40
0.4523450262902858
 40
0.480849480346573
 40
0.5093412614916778
 40
0.5378373158985035
 40
0.5663501967823165
 40
0.5948965739597942
 40
0.6234940049005373
 40
0.6521594239506554
 40
0.6809079696220836
 40
0.7097507380369189
 40
0.7386907842537502
 40
0.7677165616921322
 40
0.7967879217682442
 40
0.825804900015541
 40
0.8546385548134064
 40
0.8831291201800193
 40
0.9111241479842269
 40
0.9385305556953256
 40
0.9653517303115731
 40
0.991689947073117
 40
1.0
 40
1.0
 40
1.0
 40
1.0
 10
61.84702604411163
 20
35.1107297994603
 30
0.0
 10
61.84668049271414
 20
35.10180232107464
 30
0.0
 10
61.84515018509106
 20
35.06226612377542
 30
0.0
 10
61.85502160778238
 20
34.99227820695483
 30
0.0
 10
61.87664577345446
 20
34.90219711391917
 30
0.0
 10
61.91109705423383
 20
34.81430049636123
 30
0.0
 10
61.95700392218177
 20
34.72896562327342
 30
0.0
 10
62.01458392385927
 20
34.64658418582718
 30
0.0
 10
62.08359551799284
 20
34.56766092118327
 30
0.0
 10
62.16374655856914
 20
34.49281520952156
 30
0.0
 10
62.25447399893071
 20
34.42273107182135
 30
0.0
 10
62.35498642124529
 20
34.35807418372263
 30
0.0
 10
62.46430924269513
 20
34.29942772158644
 30
0.0
 10
62.58138181635368
 20
34.24725160683965
 30
0.0
 10
62.7051360506752
 20
34.20188219801528
 30
0.0
 10
62.83454210361241
 20
34.16355782703523
 30
0.0
 10
62.96860028888671
 20
34.13245334386531
 30
0.0
 10
63.10631609402367
 20
34.10870202041239
 30
0.0
 10
63.2466936018047
 20
34.09240257800101
 30
0.0
 10
63.3887326954875
 20
34.08362174623103
 30
0.0
 10
63.53142989511314
 20
34.082394805207
 30
0.0
 10
63.6737738051623
 20
34.08872538066949
 30
0.0
 10
63.81475694014829
 20
34.10258443112082
 30
0.0
 10
63.95338372056753
 20
34.12391181405562
 30
0.0
 10
64.08868332390841
 20
34.15262150497718
 30
0.0
 10
64.21970605386569
 20
34.18860557324646
 30
0.0
 10
64.34552149536275
 20
34.23173793241335
 30
0.0
 10
64.4652134162063
 20
34.2818766347659
 30
0.0
 10
64.57786831160988
 20
34.33886135937578
 30
0.0
 10
64.68255252826327
 20
34.40249764768352
 30
0.0
 10
64.77826724417827
 20
34.47250635297272
 30
0.0
 10
64.8639735184524
 20
34.54847440822232
 30
0.0
 10
64.93862420796566
 20
34.62979417036956
 30
0.0
 10
65.00130814261136
 20
34.71564707780788
 30
0.0
 10
65.05120565925628
 20
34.80500834010095
 30
0.0
 10
65.08822488892844
 20
34.89673990719727
 30
0.0
 10
65.11107609343175
 20
34.98969731804917
 30
0.0
 10
65.12131450342012
 20
35.06205883656501
 30
0.0
 10
65.1197440939009
 20
35.10293702788737
 30
0.0
 10
65.11936744634133
 20
35.11274126736307
 30
0.0
  0
SPLINE
  5
424
330
1F
100
AcDbEntity
  8
0
  6
SLD-Solid
 62
     7
370
    25
100
AcDbSpline
210
0.0
220
0.0
230
1.0
 70
     8
 71
     3
 72
    10
 73
     6
 74
     0
 42
0.00000001
 43
0.00000001
 40
0.0
 40
0.0
 40
0.0
 40
0.0
 40
0.3342215216424269
 40
0.6677423882020339
 40
0.9999999999999999
 40
0.9999999999999999
 40
0.9999999999999999
 40
0.9999999999999999
 10
62.37528844701863
 20
58.32428064807627
 30
0.0
 10
62.37430567802082
 20
58.31120317209822
 30
0.0
 10
62.37234220028181
 20
58.2850756354922
 30
0.0
 10
62.35866313914865
 20
58.26017432484649
 30
0.0
 10
62.34775729737152
 20
58.25642301510854
 30
0.0
 10
62.34231472290973
 20
58.25455091912591
 30
0.0
  0
SPLINE
  5
425
330
1F
100
AcDbEntity
  8
0
  6
SLD-Solid
 62
     7
370
    25
100
AcDbSpline
210
0.0
220
0.0
230
1.0
 70
     8
 71
     3
 72
    14
 73
    10
 74
     0
 42
0.00000001
 43
0.00000001
 40
0.0
 40
0.0
 40
0.0
 40
0.0
 40
0.1444182197471225
 40
0.3071236088709187
 40
0.4646933968400283
 40
0.6293482555605999
 40
0.804468629122271
 40
0.9777701055283319
 40
1.0
 40
1.0
 40
1.0
 40
1.0
 10
62.31227845861334
 20
58.56752192130669
 30
0.0
 10
62.31250423194814
 20
58.56350987238419
 30
0.0
 10
62.31298436749815
 20
58.55497774294648
 30
0.0
 10
62.3223307564183
 20
58.52329198628932
 30
0.0
 10
62.33697948953903
 20
58.4817272760425
 30
0.0
 10
62.35438049084101
 20
58.43260229459676
 30
0.0
 10
62.36976833436542
 20
58.37982163548904
 30
0.0
 10
62.37509848637114
 20
58.34324279023441
 30
0.0
 10
62.37526905511649
 20
58.32621637534372
 30
0.0
 10
62.37528844701863
 20
58.32428064807627
 30
0.0
  0
LWPOLYLINE
  5
426
330
1F
100
AcDbEntity
  8
0
  6
SLD-Solid
 62
     7
370
    25
100
AcDbPolyline
 90
       34
 70
   128
 43
0.0
 10
62.3166884353
 20
58.6446570158
 10
62.3354953901
 20
58.60268757
 10
62.3677212505
 20
58.563531272
 10
62.4122012898
 20
58.5286033325
 10
62.4673278837
 20
58.4991661382
 10
62.5311086132
 20
58.476283626
 10
62.6012382768
 20
58.4607828295
 10
62.6751822057
 20
58.4532239879
 10
62.7502678735
 20
58.4538802975
 10
62.8237814886
 20
58.4627280374
 10
62.8930660775
 20
58.4794474274
 10
62.9556175146
 20
58.5034341851
 10
63.0091750279
 20
58.5338213665
 10
63.0518029094
 20
58.5695106998
 10
63.0819604764
 20
58.6092122795
 10
63.0985577558
 20
58.651491187
 10
63.1009948788
 20
58.6948193525
 10
63.0891837613
 20
58.7376307832
 10
63.0635512879
 20
58.7783781624
 10
63.0250238829
 20
58.8155887737
 10
62.9749940273
 20
58.8479177286
 10
62.9152699302
 20
58.8741965745
 10
62.8480101763
 20
58.8934755254
 10
62.7756457081
 20
58.9050577898
 10
62.7007919663
 20
58.9085247545
 10
62.6261543599
 20
58.9037511144
 10
62.5544304867
 20
58.8909094011
 10
62.4882126341
 20
58.8704637478
 10
62.4298940881
 20
58.8431531136
 10
62.3815826326
 20
58.809964576
 10
62.3450243697
 20
58.7720976551
 10
62.3215406102
 20
58.7309209603
 10
62.3119801184
 20
58.6879227244
 10
62.3166884353
 20
58.6446570158
  0
LWPOLYLINE
  5
427
330
1F
100
AcDbEntity
  8
0
  6
SLD-Solid
 62
     7
370
    25
100
AcDbPolyline
 90
       18
 70
   128
 43
0.0
 10
62.3117720421
 20
58.1963135407
 10
62.3166884353
 20
58.1604483144
 10
62.3354953901
 20
58.1184788685
 10
62.3677212505
 20
58.0793225705
 10
62.4122012898
 20
58.044394631
 10
62.4673278837
 20
58.0149574367
 10
62.5311086132
 20
57.9920749245
 10
62.6012382768
 20
57.9765741281
 10
62.6751822057
 20
57.9690152865
 10
62.7502678735
 20
57.969671596
 10
62.8237814886
 20
57.978519336
 10
62.8930660775
 20
57.9952387259
 10
62.9556175146
 20
58.0192254836
 10
63.0091750279
 20
58.049612665
 10
63.0518029094
 20
58.0853019984
 10
63.0819604764
 20
58.125003578
 10
63.0985577558
 20
58.1672824856
 10
63.1017720421
 20
58.1963135407
  0
LWPOLYLINE
  5
428
330
1F
100
AcDbEntity
  8
0
  6
SLD-Solid
 62
     7
370
    25
100
AcDbPolyline
 90
       29
 70
   128
 43
0.0
 10
62.025360172
 20
57.7155939965
 10
62.0477408033
 20
57.6602492023
 10
62.0835374101
 20
57.6073064551
 10
62.1320212768
 20
57.5578435164
 10
62.1922054116
 20
57.5128673091
 10
62.2628646391
 20
57.4732934192
 10
62.3425605412
 20
57.4399274567
 10
62.4296707391
 20
57.4134486566
 10
62.5224219205
 20
57.3943960508
 10
62.6189259388
 20
57.3831574955
 10
62.7172182504
 20
57.3799617752
 10
62.8152979073
 20
57.3848739455
 10
62.9111682905
 20
57.397794009
 10
63.0028777556
 20
57.4184589502
 10
63.0885593622
 20
57.4464480907
 10
63.16646888
 20
57.4811916521
 10
63.2350202958
 20
57.5219823559
 10
63.2928181005
 20
57.5679898209
 10
63.3386856975
 20
57.6182774678
 10
63.3716893547
 20
57.6718215851
 10
63.3911572129
 20
57.727532169
 10
63.3966929627
 20
57.7842751127
 10
63.3881839121
 20
57.8408952934
 10
63.3658032808
 20
57.8962400876
 10
63.330006674
 20
57.9491828349
 10
63.2815228073
 20
57.9986457735
 10
63.2213386725
 20
58.0436219808
 10
63.150679445
 20
58.0831958708
 10
63.0757066544
 20
58.1148520222
  0
LWPOLYLINE
  5
429
330
1F
100
AcDbEntity
  8
0
  6
SLD-Solid
 62
     7
370
    25
100
AcDbPolyline
 90
       10
 70
   128
 43
0.0
 10
62.3378374297
 20
58.1148520222
 10
62.3249847219
 20
58.1100411993
 10
62.2470752041
 20
58.0752976378
 10
62.1785237883
 20
58.034506934
 10
62.1207259836
 20
57.988499469
 10
62.0748583866
 20
57.9382118221
 10
62.0418547294
 20
57.8846677048
 10
62.0223868712
 20
57.8289571209
 10
62.0168511214
 20
57.7722141773
 10
62.025360172
 20
57.7155939965
  0
LWPOLYLINE
  5
42A
330
1F
100
AcDbEntity
  8
0
  6
SLD-Solid
 62
     7
370
    25
100
AcDbPolyline
 90
       22
 70
   128
 43
0.0
 10
62.025360172
 20
55.478272172
 10
62.0477408033
 20
55.4229273778
 10
62.0835374101
 20
55.3699846305
 10
62.1320212768
 20
55.3205216918
 10
62.1922054116
 20
55.2755454846
 10
62.2628646391
 20
55.2359715946
 10
62.3425605412
 20
55.2026056321
 10
62.4296707391
 20
55.176126832
 10
62.5224219205
 20
55.1570742262
 10
62.6189259388
 20
55.1458356709
 10
62.7172182504
 20
55.1426399506
 10
62.8152979073
 20
55.147552121
 10
62.9111682905
 20
55.1604721844
 10
63.0028777556
 20
55.1811371257
 10
63.0885593622
 20
55.2091262661
 10
63.16646888
 20
55.2438698276
 10
63.2350202958
 20
55.2846605314
 10
63.2928181005
 20
55.3306679964
 10
63.3386856975
 20
55.3809556432
 10
63.3716893547
 20
55.4344997605
 10
63.3911572129
 20
55.4902103444
 10
63.3967720421
 20
55.5409228204
  0
LWPOLYLINE
  5
42B
330
1F
100
AcDbEntity
  8
0
  6
SLD-Solid
 62
     7
370
    25
100
AcDbPolyline
 90
        3
 70
   128
 43
0.0
 10
62.0167720421
 20
55.5409228204
 10
62.0168511214
 20
55.5348923527
 10
62.025360172
 20
55.478272172
  0
LWPOLYLINE
  5
42C
330
1F
100
AcDbEntity
  8
0
  6
SLD-Solid
 62
     7
370
    25
100
AcDbPolyline
 90
       15
 70
   128
 43
0.0
 10
62.4487720421
 20
57.778244645
 10
62.4519832559
 20
57.7548187503
 10
62.4682093366
 20
57.721529732
 10
62.4972963944
 20
57.6912982293
 10
62.5376763387
 20
57.6657540303
 10
62.5871722761
 20
57.6462742295
 10
62.6431158678
 20
57.633908988
 10
62.7024911804
 20
57.6293249191
 10
62.7620972753
 20
57.6327691511
 10
62.8187207726
 20
57.6440560047
 10
62.8693090849
 20
57.6625770026
 10
62.9111349831
 20
57.6873336731
 10
62.9419436222
 20
57.7169913776
 10
62.9600741006
 20
57.7499512616
 10
62.9647720421
 20
57.778244645
  0
SPLINE
  5
42D
330
1F
100
AcDbEntity
  8
0
  6
SLD-Solid
 62
     7
370
    25
100
AcDbSpline
210
0.0
220
0.0
230
1.0
 70
    11
 71
     3
 72
    26
 73
    22
 74
     0
 42
0.00000001
 43
0.00000001
 40
0.0
 40
0.0
 40
0.0
 40
0.0
 40
0.0515346248437331
 40
0.1027455578151139
 40
0.163761284165255
 40
0.2354144061221768
 40
0.3109176611064462
 40
0.3602081478977384
 40
0.4014423599887496
 40
0.4428513537597877
 40
0.4802366770936831
 40
0.5184517053360049
 40
0.562156800552146
 40
0.6266824539754213
 40
0.6920279679371382
 40
0.7668894514762515
 40
0.8252611635535284
 40
0.8721103923573172
 40
0.9192631618445232
 40
0.959377601996235
 40
0.9999999999999999
 40
0.9999999999999999
 40
0.9999999999999999
 40
0.9999999999999999
 10
57.69458602667048
 20
44.17673763890868
 30
0.0
 10
57.69258870442184
 20
44.19225887858521
 30
0.0
 10
57.68860660521773
 20
44.22320386816034
 30
0.0
 10
57.68476902542216
 20
44.27489790387984
 30
0.0
 10
57.68268728345581
 20
44.32851268681198
 30
0.0
 10
57.68338807500768
 20
44.37985457491961
 30
0.0
 10
57.68725430121064
 20
44.4131473958213
 30
0.0
 10
57.69297421893858
 20
44.42361135935457
 30
0.0
 10
57.69883460309106
 20
44.41814854711278
 30
0.0
 10
57.70483831907669
 20
44.39998719264867
 30
0.0
 10
57.71051131097595
 20
44.37192007866224
 30
0.0
 10
57.71553209132567
 20
44.3371899316208
 30
0.0
 10
57.72033040520144
 20
44.29135338178376
 30
0.0
 10
57.72381109030653
 20
44.23739230580293
 30
0.0
 10
57.72494888355699
 20
44.18073165020752
 30
0.0
 10
57.72302745190468
 20
44.13696994917359
 30
0.0
 10
57.71851580168919
 20
44.11290932452398
 30
0.0
 10
57.71277868291978
 20
44.1076287122342
 30
0.0
 10
57.70643578626269
 20
44.11865486433186
 30
0.0
 10
57.69995883813642
 20
44.14315160471456
 30
0.0
 10
57.69638445992267
 20
44.16549543525298
 30
0.0
 10
57.69458602667048
 20
44.17673763890868
 30
0.0
  0
LWPOLYLINE
  5
42E
330
1F
100
AcDbEntity
  8
0
  6
SLD-Solid
 62
     7
370
    25
100
AcDbPolyline
 90
       43
 70
   128
 43
0.0
 10
63.037749244
 20
46.3270793819
 10
63.1091197992
 20
46.2916227579
 10
63.1888472803
 20
46.2627028969
 10
63.2751507071
 20
46.2409658207
 10
63.3661022036
 20
46.2268970998
 10
63.4596700637
 20
46.220811006
 10
63.5537641361
 20
46.2228434928
 10
63.6462825145
 20
46.2329491576
 10
63.7351584914
 20
46.2509022567
 10
63.8184067243
 20
46.2763017474
 10
63.8941675852
 20
46.3085802471
 10
63.9607487017
 20
46.3470167075
 10
64.0166627616
 20
46.3907525216
 10
64.0606607373
 20
46.4388107035
 10
64.0917597867
 20
46.4901177128
 10
64.1092652083
 20
46.5435274359
 10
64.1127859601
 20
46.5978467876
 10
64.1022433943
 20
46.6518623635
 10
64.0778730142
 20
46.7043675448
 10
64.040219214
 20
46.7541894526
 10
63.9901231174
 20
46.8002151478
 10
63.9287037883
 20
46.8414164923
 10
63.857333233
 20
46.8768731163
 10
63.7776057519
 20
46.9057929773
 10
63.6913023251
 20
46.9275300535
 10
63.6003508286
 20
46.9415987744
 10
63.5067829685
 20
46.9476848681
 10
63.4126888962
 20
46.9456523814
 10
63.3201705177
 20
46.9355467166
 10
63.2312945408
 20
46.9175936175
 10
63.1480463079
 20
46.8921941268
 10
63.072285447
 20
46.8599156271
 10
63.0057043305
 20
46.8214791667
 10
62.9497902706
 20
46.7777433526
 10
62.9057922949
 20
46.7296851707
 10
62.8746932456
 20
46.6783781614
 10
62.8571878239
 20
46.6249684383
 10
62.8536670721
 20
46.5706490866
 10
62.864209638
 20
46.5166335107
 10
62.888580018
 20
46.4641283294
 10
62.9262338182
 20
46.4143064216
 10
62.9763299149
 20
46.3682807264
 10
63.037749244
 20
46.3270793819
  0
LWPOLYLINE
  5
42F
330
1F
100
AcDbEntity
  8
0
  6
SLD-Solid
 62
     7
370
    25
100
AcDbPolyline
 90
       15
 70
   128
 43
0.0
 10
63.1296731255
 20
46.3801459091
 10
63.1945094822
 20
46.3485883208
 10
63.2676517023
 20
46.3238102307
 10
63.3469956173
 20
46.3065244591
 10
63.4302586473
 20
46.2972282864
 10
63.5150454663
 20
46.2961891464
 10
63.5989169121
 20
46.3034369334
 10
63.6794601559
 20
46.3187631416
 10
63.7543581151
 20
46.3417268641
 10
63.8214561119
 20
46.3716674763
 10
63.878823859
 20
46.4077236413
 10
63.9248109908
 20
46.4488580889
 10
63.9580945412
 20
46.4938874559
 10
63.9777170032
 20
46.5415163295
 10
63.9832265161
 20
46.5842479371
  0
ARC
  5
430
330
1F
100
AcDbEntity
  8
0
  6
SLD-Solid
 62
     7
370
    25
100
AcDbCircle
 10
63.2341780995
 20
46.6097199275
 30
0.0
 40
0.2522409949337841
100
AcDbArc
 50
185.7957646458
 51
245.5243763118
  0
LWPOLYLINE
  5
431
330
1F
100
AcDbEntity
  8
0
  6
SLD-Solid
 62
     7
370
    25
100
AcDbPolyline
 90
       17
 70
   128
 43
0.0
 10
63.037749244
 20
46.1433576992
 10
63.1091197992
 20
46.1079010752
 10
63.1888472803
 20
46.0789812142
 10
63.2751507071
 20
46.057244138
 10
63.3661022036
 20
46.0431754171
 10
63.4596700637
 20
46.0370893234
 10
63.5537641361
 20
46.0391218101
 10
63.6462825145
 20
46.0492274749
 10
63.7351584914
 20
46.067180574
 10
63.8184067243
 20
46.0925800647
 10
63.8941675852
 20
46.1248585644
 10
63.9607487017
 20
46.1632950248
 10
64.0166627616
 20
46.2070308389
 10
64.0606607373
 20
46.2550890208
 10
64.0917597867
 20
46.3063960301
 10
64.1092652083
 20
46.3598057532
 10
64.1132265161
 20
46.4005262544
  0
LWPOLYLINE
  5
432
330
1F
100
AcDbEntity
  8
0
  6
SLD-Solid
 62
     7
370
    25
100
AcDbPolyline
 90
        7
 70
   128
 43
0.0
 10
62.8532265161
 20
46.4005262544
 10
62.8536670721
 20
46.3869274039
 10
62.864209638
 20
46.332911828
 10
62.888580018
 20
46.2804066467
 10
62.9262338182
 20
46.2305847389
 10
62.9763299149
 20
46.1845590437
 10
63.037749244
 20
46.1433576992
  0
LWPOLYLINE
  5
433
330
1F
100
AcDbEntity
  8
0
  6
SLD-Solid
 62
     7
370
    25
100
AcDbPolyline
 90
       20
 70
   128
 43
0.0
 10
62.8609725487
 20
45.7824632478
 10
62.9438683089
 20
45.7402736513
 10
63.0352700703
 20
45.704414517
 10
63.1337363724
 20
45.6754513651
 10
63.2377143428
 20
45.6538409617
 10
63.3455641869
 20
45.6399241157
 10
63.4555850481
 20
45.6339203043
 10
63.5660418318
 20
45.6359242109
 10
63.6751925685
 20
45.6459042329
 10
63.7813158859
 20
45.6637029794
 10
63.8827381559
 20
45.6890397534
 10
63.9778598886
 20
45.7215149789
 10
64.0651809576
 20
45.7606165022
 10
64.1433242574
 20
45.805727669
 10
64.2110574215
 20
45.8561370491
 10
64.2673122574
 20
45.9110496566
 10
64.3112015928
 20
45.9695994867
 10
64.3420332666
 20
46.0308631738
 10
64.359321045
 20
46.0938745529
 10
64.3632265161
 20
46.141682817
  0
LWPOLYLINE
  5
434
330
1F
100
AcDbEntity
  8
0
  6
SLD-Solid
 62
     7
370
    25
100
AcDbPolyline
 90
        8
 70
   128
 43
0.0
 10
62.6032265161
 20
46.141682817
 10
62.603660743
 20
46.1257257372
 10
62.6140607764
 20
46.062212046
 10
62.6381680727
 20
45.9999516562
 10
62.6756024455
 20
45.9399264516
 10
62.7257735324
 20
45.8830830653
 10
62.7878901052
 20
45.8303179516
 10
62.8609725487
 20
45.7824632478
  0
LWPOLYLINE
  5
435
330
1F
100
AcDbEntity
  8
0
  6
SLD-Solid
 62
     7
370
    25
100
AcDbPolyline
 90
       26
 70
   128
 43
0.0
 10
62.8609725487
 20
45.8069594722
 10
62.9438683089
 20
45.7647698756
 10
63.0352700703
 20
45.7289107414
 10
63.1337363724
 20
45.6999475895
 10
63.2377143428
 20
45.678337186
 10
63.3455641869
 20
45.6644203401
 10
63.4555850481
 20
45.6584165286
 10
63.5660418318
 20
45.6604204353
 10
63.6751925685
 20
45.6704004573
 10
63.7813158859
 20
45.6881992037
 10
63.8827381559
 20
45.7135359777
 10
63.9778598886
 20
45.7460112033
 10
64.0651809576
 20
45.7851127266
 10
64.1433242574
 20
45.8302238933
 10
64.2110574215
 20
45.8806332735
 10
64.2673122574
 20
45.9355458809
 10
64.3112015928
 20
45.9940957111
 10
64.3420332666
 20
46.0553593982
 10
64.359321045
 20
46.1183707773
 10
64.3627922892
 20
46.1821361212
 10
64.3523922558
 20
46.2456498125
 10
64.3282849595
 20
46.3079102022
 10
64.2908505867
 20
46.3679354069
 10
64.2406794999
 20
46.4247787931
 10
64.178562927
 20
46.4775439068
 10
64.1132265161
 20
46.5208705499
  0
LWPOLYLINE
  5
436
330
1F
100
AcDbEntity
  8
0
  6
SLD-Solid
 62
     7
370
    25
100
AcDbPolyline
 90
       14
 70
   128
 43
0.0
 10
62.8532265161
 20
46.5208705499
 10
62.8231287748
 20
46.5021341895
 10
62.7553956108
 20
46.4517248093
 10
62.6991407748
 20
46.3968122019
 10
62.6552514394
 20
46.3382623717
 10
62.6244197656
 20
46.2769986846
 10
62.6071319873
 20
46.2139873055
 10
62.603660743
 20
46.1502219616
 10
62.6140607764
 20
46.0867082703
 10
62.6381680727
 20
46.0244478806
 10
62.6756024455
 20
45.9644226759
 10
62.7257735324
 20
45.9075792897
 10
62.7878901052
 20
45.854814176
 10
62.8609725487
 20
45.8069594722
  0
LWPOLYLINE
  5
437
330
1F
100
AcDbEntity
  8
0
  6
SLD-Solid
 62
     7
370
    25
100
AcDbPolyline
 90
       18
 70
   128
 43
0.0
 10
62.9953228371
 20
45.8845182428
 10
63.0697249262
 20
45.8473006326
 10
63.1525447153
 20
45.8165744673
 10
63.2420962322
 20
45.7929652429
 10
63.3365564663
 20
45.7769535752
 10
63.4340024797
 20
45.7688654155
 10
63.5324505525
 20
45.7688654155
 10
63.6298965659
 20
45.7769535752
 10
63.7243568
 20
45.7929652429
 10
63.813908317
 20
45.8165744673
 10
63.896728106
 20
45.8473006326
 10
63.9711301951
 20
45.8845182428
 10
64.0355999724
 20
45.9274696546
 10
64.0888250189
 20
45.9752805012
 10
64.1297218264
 20
46.0269774915
 10
64.1574578536
 20
46.0815082239
 10
64.1714684752
 20
46.13776261
 10
64.1732265161
 20
46.1661790414
  0
LWPOLYLINE
  5
438
330
1F
100
AcDbEntity
  8
0
  6
SLD-Solid
 62
     7
370
    25
100
AcDbPolyline
 90
        7
 70
   128
 43
0.0
 10
62.7932265161
 20
46.1661790414
 10
62.794984557
 20
46.13776261
 10
62.8089951786
 20
46.0815082239
 10
62.8367312059
 20
46.0269774915
 10
62.8776280133
 20
45.9752805012
 10
62.9308530599
 20
45.9274696546
 10
62.9953228371
 20
45.8845182428
  0
LWPOLYLINE
  5
439
330
1F
100
AcDbEntity
  8
0
  6
SLD-Solid
 62
     7
370
    25
100
AcDbPolyline
 90
       38
 70
   128
 43
0.0
 10
63.1296731255
 20
46.4209729497
 10
63.1945094822
 20
46.3894153614
 10
63.2676517023
 20
46.3646372713
 10
63.3469956173
 20
46.3473514997
 10
63.4302586473
 20
46.338055327
 10
63.5150454663
 20
46.337016187
 10
63.5989169121
 20
46.344263974
 10
63.6794601559
 20
46.3595901822
 10
63.7543581151
 20
46.3825539047
 10
63.8214561119
 20
46.4124945169
 10
63.878823859
 20
46.4485506819
 10
63.9248109908
 20
46.4896851295
 10
63.9580945412
 20
46.5347144965
 10
63.9777170032
 20
46.5823433701
 10
63.9831138742
 20
46.6312015542
 10
63.974129896
 20
46.6798834878
 10
63.9510235214
 20
46.7269886804
 10
63.9144594786
 20
46.7711620013
 10
63.8654896487
 20
46.8111326646
 10
63.8055228044
 20
46.8457507869
 10
63.7362840827
 20
46.874020468
 10
63.6597653556
 20
46.8951284406
 10
63.5781679275
 20
46.9084674667
 10
63.4938392078
 20
46.9136538069
 10
63.4092051803
 20
46.9105382596
 10
63.3267006119
 20
46.8992104535
 10
63.2486990087
 20
46.8799962688
 10
63.1774443349
 20
46.8534484626
 10
63.1149864578
 20
46.8203307672
 10
63.0631221767
 20
46.7815959181
 10
63.0233435325
 20
46.7383582466
 10
62.9967948845
 20
46.6918616217
 10
62.9842399888
 20
46.6434436667
 10
62.9860400271
 20
46.5944972779
 10
63.0021432154
 20
46.5464305538
 10
63.0320862944
 20
46.5006262867
 10
63.0750078562
 20
46.4584021817
 10
63.1296731255
 20
46.4209729497
  0
LWPOLYLINE
  5
43A
330
1F
100
AcDbEntity
  8
0
  6
SLD-Solid
 62
     7
370
    25
100
AcDbPolyline
 90
       34
 70
   128
 43
0.0
 10
63.2050474944
 20
46.4644856467
 10
63.2627202777
 20
46.4369959744
 10
63.328362731
 20
46.4163039673
 10
63.399602365
 20
46.4031574885
 10
63.4738643937
 20
46.3980316859
 10
63.5484647939
 20
46.4011118195
 10
63.6207073128
 20
46.4122865651
 10
63.6879809174
 20
46.4311520383
 10
63.7478541646
 20
46.4570263919
 10
63.798163079
 20
46.4889744592
 10
63.8370893654
 20
46.5258415538
 10
63.8632261266
 20
46.566295203
 10
63.8756287117
 20
46.6088733063
 10
63.8738488591
 20
46.6520369802
 10
63.8579508972
 20
46.6942261772
 10
63.8285094199
 20
46.7339160696
 10
63.7865885188
 20
46.7696721614
 10
63.7337033245
 20
46.8002021342
 10
63.6717652458
 20
46.8244025552
 10
63.6030128861
 20
46.8413987583
 10
63.529931135
 20
46.8505764563
 10
63.4551613572
 20
46.8516039434
 10
63.3814059274
 20
46.8444440834
 10
63.3113305589
 20
46.8293556524
 10
63.2474679582
 20
46.8068839855
 10
63.1921262861
 20
46.7778412674
 10
63.1473057347
 20
46.7432771776
 10
63.1146262356
 20
46.7044409522
 10
63.095268911
 20
46.6627362338
 10
63.0899333851
 20
46.6196703395
 10
63.0988124976
 20
46.5767997828
 10
63.1215853344
 20
46.5356740175
 10
63.1574288257
 20
46.4977794358
 10
63.2050474944
 20
46.4644856467
  0
LWPOLYLINE
  5
43B
330
1F
100
AcDbEntity
  8
0
  6
SLD-Solid
 62
     7
370
    25
100
AcDbPolyline
 90
       21
 70
   128
 43
0.0
 10
62.9953228371
 20
45.9335106915
 10
63.0697249262
 20
45.8962930813
 10
63.1525447153
 20
45.865566916
 10
63.2420962322
 20
45.8419576916
 10
63.3365564663
 20
45.8259460239
 10
63.4340024797
 20
45.8178578642
 10
63.5324505525
 20
45.8178578642
 10
63.6298965659
 20
45.8259460239
 10
63.7243568
 20
45.8419576916
 10
63.813908317
 20
45.865566916
 10
63.896728106
 20
45.8962930813
 10
63.9711301951
 20
45.9335106915
 10
64.0355999724
 20
45.9764621033
 10
64.0888250189
 20
46.0242729499
 10
64.1297218264
 20
46.0759699402
 10
64.1574578536
 20
46.1305006726
 10
64.1714684752
 20
46.1867550588
 10
64.1714684752
 20
46.2435879215
 10
64.1574578536
 20
46.2998423076
 10
64.1297218264
 20
46.35437304
 10
64.1121269717
 20
46.3790482272
  0
LWPOLYLINE
  5
43C
330
1F
100
AcDbEntity
  8
0
  6
SLD-Solid
 62
     7
370
    25
100
AcDbPolyline
 90
       10
 70
   128
 43
0.0
 10
62.8543260605
 20
46.3790482272
 10
62.8367312059
 20
46.35437304
 10
62.8089951786
 20
46.2998423076
 10
62.794984557
 20
46.2435879215
 10
62.794984557
 20
46.1867550588
 10
62.8089951786
 20
46.1305006726
 10
62.8367312059
 20
46.0759699402
 10
62.8776280133
 20
46.0242729499
 10
62.9308530599
 20
45.9764621033
 10
62.9953228371
 20
45.9335106915
  0
LWPOLYLINE
  5
43D
330
1F
100
AcDbEntity
  8
0
  6
SLD-Solid
 62
     7
370
    25
100
AcDbPolyline
 90
       16
 70
   128
 43
0.0
 10
63.0943177865
 20
45.9906592594
 10
63.1617393998
 20
45.9575523393
 10
63.2374873606
 20
45.9311176199
 10
63.3195998365
 20
45.9120397465
 10
63.4059501574
 20
45.9008128261
 10
63.4943018954
 20
45.8977276299
 10
63.5823667869
 20
45.902864063
 10
63.6678639975
 20
45.9160890944
 10
63.7485791943
 20
45.9370602027
 10
63.8224218961
 20
45.9652342473
 10
63.8874796157
 20
45.9998815352
 10
63.9420673924
 20
46.0401047199
 10
63.9847714314
 20
46.0848620419
 10
64.0144857206
 20
46.1329943102
 10
64.0304406754
 20
46.1832549243
 10
64.0332265161
 20
46.2151714901
  0
ARC
  5
43E
330
1F
100
AcDbEntity
  8
0
  6
SLD-Solid
 62
     7
370
    25
100
AcDbCircle
 10
63.2113982301
 20
46.2447153826
 30
0.0
 40
0.2797362044319135
100
AcDbArc
 50
186.0625084805
 51
245.2576324772
  0
LINE
  5
43F
330
1F
100
AcDbEntity
  8
0
  6
SLD-Solid
 62
     7
370
    25
100
AcDbLine
 10
65.1207265161
 20
41.2274924736
 30
0.0
 11
65.1204715166
 21
41.2108103725
 31
0.0
  0
LWPOLYLINE
  5
440
330
1F
100
AcDbEntity
  8
0
  6
SLD-Solid
 62
     7
370
    25
100
AcDbPolyline
 90
       15
 70
   128
 43
0.0
 10
64.3432265161
 20
41.8087089988
 10
64.3378190166
 20
41.7531222828
 10
64.3184896025
 20
41.6904909948
 10
64.2854451916
 20
41.6298008432
 10
64.2392283722
 20
41.5720483585
 10
64.1805980233
 20
41.518181835
 10
64.1105168535
 20
41.4690857595
 10
64.0301355937
 20
41.4255662882
 10
63.9407741019
 20
41.3883380096
 10
63.8438996915
 20
41.3580122111
 10
63.7411030374
 20
41.3350868413
 10
63.6340720581
 20
41.3199383343
 10
63.5245641991
 20
41.312815428
 10
63.4143775764
 20
41.3138350805
 10
63.3551330209
 20
41.3177794905
  0
LINE
  5
441
330
1F
100
AcDbEntity
  8
0
  6
SLD-Solid
 62
     7
370
    25
100
AcDbLine
 10
61.55773111
 20
50.5873968029
 30
0.0
 11
60.2905481258
 21
49.8558676372
 31
0.0
  0
LINE
  5
442
330
1F
100
AcDbEntity
  8
0
  6
SLD-Solid
 62
     7
370
    25
100
AcDbLine
 10
70.0430124842
 20
45.688948132
 30
0.0
 11
62.3206273313
 21
50.1469861888
 31
0.0
  0
LINE
  5
443
330
1F
100
AcDbEntity
  8
0
  6
SLD-Solid
 62
     7
370
    25
100
AcDbLine
 10
62.0881748319
 20
50.2811781603
 30
0.0
 11
61.55773111
 21
50.5873968029
 31
0.0
  0
LINE
  5
444
330
1F
100
AcDbEntity
  8
0
  6
SLD-Solid
 62
     7
370
    25
100
AcDbLine
 10
61.55773111
 20
40.7904994611
 30
0.0
 11
70.0430124842
 21
45.688948132
 31
0.0
  0
LINE
  5
445
330
1F
100
AcDbEntity
  8
0
  6
SLD-Solid
 62
     7
370
    25
100
AcDbLine
 10
56.8313987467
 20
43.5189530576
 30
0.0
 11
61.55773111
 21
40.7904994611
 31
0.0
  0
LWPOLYLINE
  5
446
330
1F
100
AcDbEntity
  8
0
  6
SLD-Solid
 62
     7
370
    25
100
AcDbPolyline
 90
       30
 70
   128
 43
0.0
 10
56.8313987467
 20
43.5189530576
 10
57.1297881579
 20
43.6031410412
 10
57.4216835047
 20
43.6946020827
 10
57.7065531494
 20
43.7931696014
 10
57.9838782505
 20
43.8986640735
 10
58.2531537076
 20
44.0108933587
 10
58.5138890814
 20
44.1296530506
 10
58.7656094868
 20
44.2547268485
 10
59.0078564581
 20
44.3858869519
 10
59.2401887837
 20
44.522894475
 10
59.4621833098
 20
44.6654998819
 10
59.6734357113
 20
44.8134434413
 10
59.8735612279
 20
44.9664556992
 10
60.0621953652
 20
45.1242579697
 10
60.2389945581
 20
45.2865628431
 10
60.4036367972
 20
45.4530747085
 10
60.5558222145
 20
45.6234902931
 10
60.6952736304
 20
45.7974992139
 10
60.8217370579
 20
45.9747845433
 10
60.9349821653
 20
46.1550233863
 10
61.0348026961
 20
46.3378874686
 10
61.1210168441
 20
46.5230437344
 10
61.1934675849
 20
46.7101549531
 10
61.252022962
 20
46.8988803337
 10
61.2965763266
 20
47.0888761449
 10
61.3270465324
 20
47.2797963417
 10
61.3433780831
 20
47.4712931957
 10
61.3455412336
 20
47.6630179279
 10
61.3335320441
 20
47.8546213443
 10
61.3178427456
 20
47.980905342
  0
LWPOLYLINE
  5
447
330
1F
100
AcDbEntity
  8
0
  6
SLD-Solid
 62
     7
370
    25
100
AcDbPolyline
 90
       10
 70
   128
 43
0.0
 10
61.2337000479
 20
48.3581992185
 10
61.2128179388
 20
48.4252188866
 10
61.144595362
 20
48.6128590436
 10
61.0625664338
 20
48.7986479113
 10
60.966880556
 20
48.9822471067
 10
60.857712004
 20
49.1633222355
 10
60.7352596097
 20
49.3415434999
 10
60.5997463994
 20
49.5165863005
 10
60.4514191871
 20
49.6881318266
 10
60.2905481258
 20
49.8558676372
  0
LINE
  5
448
330
1F
100
AcDbEntity
  8
0
  6
SLD-Solid
 62
     7
370
    25
100
AcDbLine
 10
61.55773111
 20
40.7904994611
 30
0.0
 11
61.55773111
 21
40.2801614536
 31
0.0
  0
LINE
  5
449
330
1F
100
AcDbEntity
  8
0
  6
SLD-Solid
 62
     7
370
    25
100
AcDbLine
 10
70.0430124842
 20
45.688948132
 30
0.0
 11
70.0430124842
 21
45.1786101246
 31
0.0
  0
LINE
  5
44A
330
1F
100
AcDbEntity
  8
0
  6
SLD-Solid
 62
     7
370
    25
100
AcDbLine
 10
61.55773111
 20
40.2801614536
 30
0.0
 11
70.0430124842
 21
45.1786101246
 31
0.0
  0
LINE
  5
44B
330
1F
100
AcDbEntity
  8
0
  6
SLD-Solid
 62
     7
370
    25
100
AcDbLine
 10
56.8313987467
 20
43.0086150502
 30
0.0
 11
61.55773111
 21
40.2801614536
 31
0.0
  0
LINE
  5
44C
330
1F
100
AcDbEntity
  8
0
  6
SLD-Solid
 62
     7
370
    25
100
AcDbLine
 10
56.8313987467
 20
43.0086150502
 30
0.0
 11
56.8313987467
 21
43.5189530576
 31
0.0
  0
LINE
  5
44D
330
1F
100
AcDbEntity
  8
0
  6
SLD-Solid
 62
     7
370
    25
100
AcDbLine
 10
60.2905481258
 20
49.3455296297
 30
0.0
 11
60.2905481258
 21
49.8558676372
 31
0.0
  0
ARC
  5
44E
330
1F
100
AcDbEntity
  8
0
  6
SLD-Solid
 62
     7
370
    25
100
AcDbCircle
 10
58.6555170851
 20
47.0750511603
 30
0.0
 40
2.691511965118916
100
AcDbArc
 50
5.6758077318
 51
16.618906672
  0
ARC
  5
44F
330
1F
100
AcDbEntity
  8
0
  6
SLD-Solid
 62
     7
370
    25
100
AcDbCircle
 10
57.6447502089
 20
46.6090902219
 30
0.0
 40
3.806356164357155
100
AcDbArc
 50
24.0767437005
 51
45.9648188443
  0
INSERT
  5
455
330
1F
100
AcDbEntity
  8
NOTES
100
AcDbBlockReference
  2
SW_NOTE_0_8
 10
56.8917591988
 20
33.2009799886
 30
0.0
  0
ENDSEC
  0
SECTION
  2
OBJECTS
  0
DICTIONARY
  5
C
330
0
100
AcDbDictionary
281
     1
  3
ACAD_GROUP
350
D
  3
ACAD_LAYOUT
350
1A
  3
ACAD_MLINESTYLE
350
17
  3
ACAD_PLOTSETTINGS
350
19
  3
ACAD_PLOTSTYLENAME
350
E
  3
ACAD_SCALELIST
350
47
  3
DWGPROPS
350
456
  0
DICTIONARY
  5
D
102
{ACAD_REACTORS
330
C
102
}
330
C
100
AcDbDictionary
281
     1
  0
DICTIONARY
  5
1A
102
{ACAD_REACTORS
330
C
102
}
330
C
100
AcDbDictionary
281
     1
  3
Layout1
350
1E
  3
Layout2
350
26
  3
Model
350
22
  0
DICTIONARY
  5
17
102
{ACAD_REACTORS
330
C
102
}
330
C
100
AcDbDictionary
281
     1
  3
Standard
350
18
  0
DICTIONARY
  5
19
102
{ACAD_REACTORS
330
C
102
}
330
C
100
AcDbDictionary
281
     1
  0
ACDBDICTIONARYWDFLT
  5
E
102
{ACAD_REACTORS
330
C
102
}
330
C
100
AcDbDictionary
281
     1
  3
Normal
350
F
100
AcDbDictionaryWithDefault
340
F
  0
DICTIONARY
  5
47
102
{ACAD_REACTORS
330
C
102
}
330
C
100
AcDbDictionary
281
     1
  3
A0
350
48
  3
A1
350
49
  3
A2
350
4A
  3
A3
350
4B
  3
A4
350
4C
  3
A5
350
4D
  3
A6
350
4E
  3
A7
350
4F
  3
A8
350
50
  3
A9
350
51
  3
B0
350
52
  3
B1
350
53
  3
B2
350
54
  3
B3
350
55
  3
B4
350
56
  3
B5
350
57
  3
B6
350
58
  3
B7
350
59
  3
B8
350
5A
  3
B9
350
5B
  3
C0
350
5C
  3
C1
350
5D
  3
C2
350
5E
  3
C3
350
5F
  3
C4
350
60
  3
C5
350
61
  3
C6
350
62
  3
C7
350
63
  3
C8
350
64
  3
C9
350
65
  3
D0
350
66
  3
D1
350
67
  3
D2
350
68
  0
XRECORD
  5
456
102
{ACAD_REACTORS
330
C
102
}
330
C
100
AcDbXrecord
280
     1
  1
DWGPROPS COOKIE
  2

  3

  4

  6

  7

  8
carl
  9

300
=
301
=
302
=
303
=
304
=
305
=
306
=
307
=
308
=
309
=
 40
0.0
 41
2459502.757241181
 42
2459502.757247651
  1

 90
        0
  0
LAYOUT
  5
1E
102
{ACAD_REACTORS
330
1A
102
}
330
1A
100
AcDbPlotSettings
  1

  2
none_device
  4

  6

 40
0.0
 41
0.0
 42
0.0
 43
0.0
 44
0.0
 45
0.0
 46
0.0
 47
0.0
 48
0.0
 49
0.0
140
0.0
141
0.0
142
1.0
143
1.0
 70
   688
 72
     0
 73
     0
 74
     5
  7

 75
    16
147
1.0
148
0.0
149
0.0
100
AcDbLayout
  1
Layout1
 70
     1
 71
     1
 10
0.0
 20
0.0
 11
12.0
 21
9.0
 12
0.0
 22
0.0
 32
0.0
 14
1.0000000000E+20
 24
1.0000000000E+20
 34
1.0000000000E+20
 15
-1.0000000000E+20
 25
-1.0000000000E+20
 35
-1.0000000000E+20
146
0.0
 13
0.0
 23
0.0
 33
0.0
 16
1.0
 26
0.0
 36
0.0
 17
0.0
 27
1.0
 37
0.0
 76
     0
330
1B
  0
LAYOUT
  5
26
102
{ACAD_REACTORS
330
1A
102
}
330
1A
100
AcDbPlotSettings
  1

  2
none_device
  4

  6

 40
0.0
 41
0.0
 42
0.0
 43
0.0
 44
0.0
 45
0.0
 46
0.0
 47
0.0
 48
0.0
 49
0.0
140
0.0
141
0.0
142
1.0
143
1.0
 70
   688
 72
     0
 73
     0
 74
     5
  7

 75
    16
147
1.0
148
0.0
149
0.0
100
AcDbLayout
  1
Layout2
 70
     1
 71
     2
 10
0.0
 20
0.0
 11
0.0
 21
0.0
 12
0.0
 22
0.0
 32
0.0
 14
0.0
 24
0.0
 34
0.0
 15
0.0
 25
0.0
 35
0.0
146
0.0
 13
0.0
 23
0.0
 33
0.0
 16
1.0
 26
0.0
 36
0.0
 17
0.0
 27
1.0
 37
0.0
 76
     0
330
23
  0
LAYOUT
  5
22
102
{ACAD_REACTORS
330
1A
102
}
330
1A
100
AcDbPlotSettings
  1

  2
none_device
  4
Letter_(8.50_x_11.00_Inches)
  6

 40
6.35
 41
6.35
 42
6.35000508
 43
6.35000508
 44
215.9
 45
279.4
 46
0.0
 47
0.0
 48
0.0
 49
0.0
140
0.0
141
0.0
142
1.0
143
1.0
 70
  1712
 72
     0
 73
     0
 74
     0
  7

 75
     0
147
1.0
148
0.0
149
0.0
100
AcDbLayout
  1
Model
 70
     1
 71
     0
 10
0.0
 20
0.0
 11
90.0
 21
120.0
 12
0.0
 22
0.0
 32
0.0
 14
0.0
 24
0.0
 34
0.0
 15
90.0
 25
120.0
 35
0.0
146
0.0
 13
0.0
 23
0.0
 33
0.0
 16
1.0
 26
0.0
 36
0.0
 17
0.0
 27
1.0
 37
0.0
 76
     0
330
1F
331
29
  0
MLINESTYLE
  5
18
102
{ACAD_REACTORS
330
17
102
}
330
17
100
AcDbMlineStyle
  2
Standard
 70
     0
  3

 62
   256
 51
90.0
 52
90.0
 71
     2
 49
0.5
 62
   256
  6
BYLAYER
 49
-0.5
 62
   256
  6
BYLAYER
  0
ACDBPLACEHOLDER
  5
F
102
{ACAD_REACTORS
330
E
102
}
330
E
  0
SCALE
  5
48
102
{ACAD_REACTORS
330
47
102
}
330
47
100
AcDbScale
 70
     0
300
1:1
140
1.0
141
1.0
290
     1
  0
SCALE
  5
49
102
{ACAD_REACTORS
330
47
102
}
330
47
100
AcDbScale
 70
     0
300
1:2
140
1.0
141
2.0
290
     0
  0
SCALE
  5
4A
102
{ACAD_REACTORS
330
47
102
}
330
47
100
AcDbScale
 70
     0
300
1:4
140
1.0
141
4.0
290
     0
  0
SCALE
  5
4B
102
{ACAD_REACTORS
330
47
102
}
330
47
100
AcDbScale
 70
     0
300
1:5
140
1.0
141
5.0
290
     0
  0
SCALE
  5
4C
102
{ACAD_REACTORS
330
47
102
}
330
47
100
AcDbScale
 70
     0
300
1:8
140
1.0
141
8.0
290
     0
  0
SCALE
  5
4D
102
{ACAD_REACTORS
330
47
102
}
330
47
100
AcDbScale
 70
     0
300
1:10
140
1.0
141
10.0
290
     0
  0
SCALE
  5
4E
102
{ACAD_REACTORS
330
47
102
}
330
47
100
AcDbScale
 70
     0
300
1:16
140
1.0
141
16.0
290
     0
  0
SCALE
  5
4F
102
{ACAD_REACTORS
330
47
102
}
330
47
100
AcDbScale
 70
     0
300
1:20
140
1.0
141
20.0
290
     0
  0
SCALE
  5
50
102
{ACAD_REACTORS
330
47
102
}
330
47
100
AcDbScale
 70
     0
300
1:30
140
1.0
141
30.0
290
     0
  0
SCALE
  5
51
102
{ACAD_REACTORS
330
47
102
}
330
47
100
AcDbScale
 70
     0
300
1:40
140
1.0
141
40.0
290
     0
  0
SCALE
  5
52
102
{ACAD_REACTORS
330
47
102
}
330
47
100
AcDbScale
 70
     0
300
1:50
140
1.0
141
50.0
290
     0
  0
SCALE
  5
53
102
{ACAD_REACTORS
330
47
102
}
330
47
100
AcDbScale
 70
     0
300
1:100
140
1.0
141
100.0
290
     0
  0
SCALE
  5
54
102
{ACAD_REACTORS
330
47
102
}
330
47
100
AcDbScale
 70
     0
300
2:1
140
2.0
141
1.0
290
     0
  0
SCALE
  5
55
102
{ACAD_REACTORS
330
47
102
}
330
47
100
AcDbScale
 70
     0
300
4:1
140
4.0
141
1.0
290
     0
  0
SCALE
  5
56
102
{ACAD_REACTORS
330
47
102
}
330
47
100
AcDbScale
 70
     0
300
8:1
140
8.0
141
1.0
290
     0
  0
SCALE
  5
57
102
{ACAD_REACTORS
330
47
102
}
330
47
100
AcDbScale
 70
     0
300
10:1
140
10.0
141
1.0
290
     0
  0
SCALE
  5
58
102
{ACAD_REACTORS
330
47
102
}
330
47
100
AcDbScale
 70
     0
300
100:1
140
100.0
141
1.0
290
     0
  0
SCALE
  5
59
102
{ACAD_REACTORS
330
47
102
}
330
47
100
AcDbScale
 70
     0
300
1/128" = 1'-0"
140
0.0078125
141
12.0
290
     0
  0
SCALE
  5
5A
102
{ACAD_REACTORS
330
47
102
}
330
47
100
AcDbScale
 70
     0
300
1/64" = 1'-0"
140
0.015625
141
12.0
290
     0
  0
SCALE
  5
5B
102
{ACAD_REACTORS
330
47
102
}
330
47
100
AcDbScale
 70
     0
300
1/32" = 1'-0"
140
0.03125
141
12.0
290
     0
  0
SCALE
  5
5C
102
{ACAD_REACTORS
330
47
102
}
330
47
100
AcDbScale
 70
     0
300
1/16" = 1'-0"
140
0.0625
141
12.0
290
     0
  0
SCALE
  5
5D
102
{ACAD_REACTORS
330
47
102
}
330
47
100
AcDbScale
 70
     0
300
3/32" = 1'-0"
140
0.09375
141
12.0
290
     0
  0
SCALE
  5
5E
102
{ACAD_REACTORS
330
47
102
}
330
47
100
AcDbScale
 70
     0
300
1/8" = 1'-0"
140
0.125
141
12.0
290
     0
  0
SCALE
  5
5F
102
{ACAD_REACTORS
330
47
102
}
330
47
100
AcDbScale
 70
     0
300
3/16" = 1'-0"
140
0.1875
141
12.0
290
     0
  0
SCALE
  5
60
102
{ACAD_REACTORS
330
47
102
}
330
47
100
AcDbScale
 70
     0
300
1/4" = 1'-0"
140
0.25
141
12.0
290
     0
  0
SCALE
  5
61
102
{ACAD_REACTORS
330
47
102
}
330
47
100
AcDbScale
 70
     0
300
3/8" = 1'-0"
140
0.375
141
12.0
290
     0
  0
SCALE
  5
62
102
{ACAD_REACTORS
330
47
102
}
330
47
100
AcDbScale
 70
     0
300
1/2" = 1'-0"
140
0.5
141
12.0
290
     0
  0
SCALE
  5
63
102
{ACAD_REACTORS
330
47
102
}
330
47
100
AcDbScale
 70
     0
300
3/4" = 1'-0"
140
0.75
141
12.0
290
     0
  0
SCALE
  5
64
102
{ACAD_REACTORS
330
47
102
}
330
47
100
AcDbScale
 70
     0
300
1" = 1'-0"
140
1.0
141
12.0
290
     0
  0
SCALE
  5
65
102
{ACAD_REACTORS
330
47
102
}
330
47
100
AcDbScale
 70
     0
300
1-1/2" = 1'-0"
140
1.5
141
12.0
290
     0
  0
SCALE
  5
66
102
{ACAD_REACTORS
330
47
102
}
330
47
100
AcDbScale
 70
     0
300
3" = 1'-0"
140
3.0
141
12.0
290
     0
  0
SCALE
  5
67
102
{ACAD_REACTORS
330
47
102
}
330
47
100
AcDbScale
 70
     0
300
6" = 1'-0"
140
6.0
141
12.0
290
     0
  0
SCALE
  5
68
102
{ACAD_REACTORS
330
47
102
}
330
47
100
AcDbScale
 70
     0
300
1'-0" = 1'-0"
140
12.0
141
12.0
290
     0
  0
ENDSEC
  0
EOF
