  0
SECTION
  2
HEADER
  9
$ACADVER
  1
AC1015
  9
$ACADMAINTVER
 70
     6
  9
$DWGCODEPAGE
  3
ANSI_1252
  9
$INSBASE
 10
0.0
 20
0.0
 30
0.0
  9
$EXTMIN
 10
0.0
 20
0.0
 30
0.0
  9
$EXTMAX
 10
48.0
 20
36.0
 30
0.0
  9
$LIMMIN
 10
0.0
 20
0.0
  9
$LIMMAX
 10
48.0
 20
36.0
  9
$ORTHOMODE
 70
     0
  9
$REGENMODE
 70
     1
  9
$FILLMODE
 70
     1
  9
$QTEXTMODE
 70
     0
  9
$MIRRTEXT
 70
     1
  9
$LTSCALE
 40
1.0
  9
$ATTMODE
 70
     1
  9
$TEXTSIZE
 40
0.5
  9
$TRACEWID
 40
0.05
  9
$TEXTSTYLE
  7
STANDARD
  9
$CLAYER
  8
0
  9
$CELTYPE
  6
ByLayer
  9
$CECOLOR
 62
   256
  9
$CELTSCALE
 40
1.0
  9
$DISPSILH
 70
     0
  9
$DIMSCALE
 40
1.0
  9
$DIMASZ
 40
0.3
  9
$DIMEXO
 40
0.1666666667
  9
$DIMDLI
 40
0.38
  9
$DIMRND
 40
0.0
  9
$DIMDLE
 40
0.0
  9
$DIMEXE
 40
0.375
  9
$DIMTP
 40
0.0
  9
$DIMTM
 40
0.0
  9
$DIMTXT
 40
0.5
  9
$DIMCEN
 40
0.09
  9
$DIMTSZ
 40
0.0
  9
$DIMTOL
 70
     0
  9
$DIMLIM
 70
     0
  9
$DIMTIH
 70
     1
  9
$DIMTOH
 70
     1
  9
$DIMSE1
 70
     0
  9
$DIMSE2
 70
     0
  9
$DIMTAD
 70
     0
  9
$DIMZIN
 70
     1
  9
$DIMBLK
  1

  9
$DIMASO
 70
     1
  9
$DIMSHO
 70
     1
  9
$DIMPOST
  1

  9
$DIMAPOST
  1

  9
$DIMALT
 70
     0
  9
$DIMALTD
 70
     2
  9
$DIMALTF
 40
25.4
  9
$DIMLFAC
 40
1.0
  9
$DIMTOFL
 70
     0
  9
$DIMTVP
 40
0.0
  9
$DIMTIX
 70
     0
  9
$DIMSOXD
 70
     0
  9
$DIMSAH
 70
     0
  9
$DIMBLK1
  1

  9
$DIMBLK2
  1

  9
$DIMSTYLE
  2
Standard
  9
$DIMCLRD
 70
     0
  9
$DIMCLRE
 70
     0
  9
$DIMCLRT
 70
     0
  9
$DIMTFAC
 40
1.0
  9
$DIMGAP
 40
0.125
  9
$DIMJUST
 70
     0
  9
$DIMSD1
 70
     0
  9
$DIMSD2
 70
     0
  9
$DIMTOLJ
 70
     1
  9
$DIMTZIN
 70
     1
  9
$DIMALTZ
 70
     0
  9
$DIMALTTZ
 70
     0
  9
$DIMUPT
 70
     0
  9
$DIMDEC
 70
     2
  9
$DIMTDEC
 70
     2
  9
$DIMALTU
 70
     2
  9
$DIMALTTD
 70
     2
  9
$DIMTXSTY
  7
STANDARD
  9
$DIMAUNIT
 70
     0
  9
$DIMADEC
 70
     2
  9
$DIMALTRND
 40
0.0
  9
$DIMAZIN
 70
     0
  9
$DIMDSEP
 70
    46
  9
$DIMATFIT
 70
     3
  9
$DIMFRAC
 70
     0
  9
$DIMLDRBLK
  1

  9
$DIMLUNIT
 70
     2
  9
$DIMLWD
 70
    -2
  9
$DIMLWE
 70
    -2
  9
$DIMTMOVE
 70
     0
  9
$LUNITS
 70
     2
  9
$LUPREC
 70
     4
  9
$SKETCHINC
 40
0.1
  9
$FILLETRAD
 40
0.5
  9
$AUNITS
 70
     0
  9
$AUPREC
 70
     2
  9
$MENU
  1
.
  9
$ELEVATION
 40
0.0
  9
$PELEVATION
 40
0.0
  9
$THICKNESS
 40
0.0
  9
$LIMCHECK
 70
     0
  9
$CHAMFERA
 40
0.0
  9
$CHAMFERB
 40
0.0
  9
$CHAMFERC
 40
0.0
  9
$CHAMFERD
 40
0.0
  9
$SKPOLY
 70
     0
  9
$TDCREATE
 40
2459460.452361261
  9
$TDUCREATE
 40
2459460.619027928
  9
$TDUPDATE
 40
2459460.452365185
  9
$TDUUPDATE
 40
2459460.619031852
  9
$TDINDWG
 40
0.0000000116
  9
$TDUSRTIMER
 40
0.0000000116
  9
$USRTIMER
 70
     1
  9
$ANGBASE
 50
0.0
  9
$ANGDIR
 70
     0
  9
$PDMODE
 70
     0
  9
$PDSIZE
 40
-1.0
  9
$PLINEWID
 40
0.0
  9
$SPLFRAME
 70
     0
  9
$SPLINETYPE
 70
     6
  9
$SPLINESEGS
 70
     8
  9
$HANDSEED
  5
3CC
  9
$SURFTAB1
 70
     6
  9
$SURFTAB2
 70
     6
  9
$SURFTYPE
 70
     6
  9
$SURFU
 70
     6
  9
$SURFV
 70
     6
  9
$UCSBASE
  2

  9
$UCSNAME
  2

  9
$UCSORG
 10
0.0
 20
0.0
 30
0.0
  9
$UCSXDIR
 10
1.0
 20
0.0
 30
0.0
  9
$UCSYDIR
 10
0.0
 20
1.0
 30
0.0
  9
$UCSORTHOREF
  2

  9
$UCSORTHOVIEW
 70
     0
  9
$UCSORGTOP
 10
0.0
 20
0.0
 30
0.0
  9
$UCSORGBOTTOM
 10
0.0
 20
0.0
 30
0.0
  9
$UCSORGLEFT
 10
0.0
 20
0.0
 30
0.0
  9
$UCSORGRIGHT
 10
0.0
 20
0.0
 30
0.0
  9
$UCSORGFRONT
 10
0.0
 20
0.0
 30
0.0
  9
$UCSORGBACK
 10
0.0
 20
0.0
 30
0.0
  9
$PUCSBASE
  2

  9
$PUCSNAME
  2

  9
$PUCSORG
 10
0.0
 20
0.0
 30
0.0
  9
$PUCSXDIR
 10
1.0
 20
0.0
 30
0.0
  9
$PUCSYDIR
 10
0.0
 20
1.0
 30
0.0
  9
$PUCSORTHOREF
  2

  9
$PUCSORTHOVIEW
 70
     0
  9
$PUCSORGTOP
 10
0.0
 20
0.0
 30
0.0
  9
$PUCSORGBOTTOM
 10
0.0
 20
0.0
 30
0.0
  9
$PUCSORGLEFT
 10
0.0
 20
0.0
 30
0.0
  9
$PUCSORGRIGHT
 10
0.0
 20
0.0
 30
0.0
  9
$PUCSORGFRONT
 10
0.0
 20
0.0
 30
0.0
  9
$PUCSORGBACK
 10
0.0
 20
0.0
 30
0.0
  9
$USERI1
 70
     0
  9
$USERI2
 70
     0
  9
$USERI3
 70
     0
  9
$USERI4
 70
     0
  9
$USERI5
 70
     0
  9
$USERR1
 40
0.0
  9
$USERR2
 40
0.0
  9
$USERR3
 40
0.0
  9
$USERR4
 40
0.0
  9
$USERR5
 40
0.0
  9
$WORLDVIEW
 70
     1
  9
$SHADEDGE
 70
     3
  9
$SHADEDIF
 70
    70
  9
$TILEMODE
 70
     1
  9
$MAXACTVP
 70
    64
  9
$PINSBASE
 10
0.0
 20
0.0
 30
0.0
  9
$PLIMCHECK
 70
     0
  9
$PEXTMIN
 10
1.0000000000E+20
 20
1.0000000000E+20
 30
1.0000000000E+20
  9
$PEXTMAX
 10
-1.0000000000E+20
 20
-1.0000000000E+20
 30
-1.0000000000E+20
  9
$PLIMMIN
 10
0.0
 20
0.0
  9
$PLIMMAX
 10
12.0
 20
9.0
  9
$UNITMODE
 70
     0
  9
$VISRETAIN
 70
     1
  9
$PLINEGEN
 70
     0
  9
$PSLTSCALE
 70
     1
  9
$TREEDEPTH
 70
  3020
  9
$CMLSTYLE
  2
Standard
  9
$CMLJUST
 70
     0
  9
$CMLSCALE
 40
1.0
  9
$PROXYGRAPHICS
 70
     1
  9
$MEASUREMENT
 70
     0
  9
$CELWEIGHT
370
    -1
  9
$ENDCAPS
280
     0
  9
$JOINSTYLE
280
     0
  9
$LWDISPLAY
290
     1
  9
$INSUNITS
 70
     1
  9
$HYPERLINKBASE
  1

  9
$STYLESHEET
  1

  9
$XEDIT
290
     1
  9
$CEPSNTYPE
380
     0
  9
$PSTYLEMODE
290
     1
  9
$FINGERPRINTGUID
  2
{e68c7776-a3bc-4b24-9dee-cf087d0782ed}
  9
$VERSIONGUID
  2
{FAEB1C32-E019-11D5-929B-00C0DF256EC4}
  9
$EXTNAMES
290
     1
  9
$PSVPSCALE
 40
0.0
  9
$OLESTARTUP
290
     0
  0
ENDSEC
  0
SECTION
  2
CLASSES
  0
CLASS
  1
ACDBDICTIONARYWDFLT
  2
AcDbDictionaryWithDefault
  3
ObjectDBX Classes
 90
        0
280
     0
281
     0
  0
CLASS
  1
VISUALSTYLE
  2
AcDbVisualStyle
  3
ObjectDBX Classes
 90
     4095
280
     0
281
     0
  0
CLASS
  1
MATERIAL
  2
AcDbMaterial
  3
ObjectDBX Classes
 90
     1153
280
     0
281
     0
  0
CLASS
  1
SCALE
  2
AcDbScale
  3
ObjectDBX Classes
 90
     1153
280
     0
281
     0
  0
CLASS
  1
TABLESTYLE
  2
AcDbTableStyle
  3
ObjectDBX Classes
 90
     4095
280
     0
281
     0
  0
CLASS
  1
MLEADERSTYLE
  2
AcDbMLeaderStyle
  3
ACDB_MLEADERSTYLE_CLASS
 90
     4095
280
     0
281
     0
  0
CLASS
  1
SUN
  2
AcDbSun
  3
SCENEOE
 90
     1153
280
     0
281
     0
  0
CLASS
  1
ACDBPLACEHOLDER
  2
AcDbPlaceHolder
  3
ObjectDBX Classes
 90
        0
280
     0
281
     0
  0
CLASS
  1
LAYOUT
  2
AcDbLayout
  3
ObjectDBX Classes
 90
        0
280
     0
281
     0
  0
ENDSEC
  0
SECTION
  2
TABLES
  0
TABLE
  2
VPORT
  5
8
330
0
100
AcDbSymbolTable
 70
     1
  0
VPORT
  5
29
330
8
100
AcDbSymbolTableRecord
100
AcDbViewportTableRecord
  2
*Active
 70
     0
 10
0.0
 20
0.0
 11
1.0
 21
1.0
 12
24.0
 22
18.0
 13
0.0
 23
0.0
 14
0.5
 24
0.5
 15
0.5
 25
0.5
 16
0.0
 26
0.0
 36
1.0
 17
0.0
 27
0.0
 37
0.0
 40
36.0
 41
1.3333333333
 42
50.0
 43
0.0
 44
0.0
 50
0.0
 51
0.0
 71
     0
 72
  2000
 73
     1
 74
     3
 75
     0
 76
     0
 77
     0
 78
     0
281
     0
 65
     1
110
0.0
120
0.0
130
0.0
111
1.0
121
0.0
131
0.0
112
0.0
122
1.0
132
0.0
 79
     0
146
0.0
  0
ENDTAB
  0
TABLE
  2
LTYPE
  5
5
330
0
100
AcDbSymbolTable
 70
     8
  0
LTYPE
  5
14
330
5
100
AcDbSymbolTableRecord
100
AcDbLinetypeTableRecord
  2
ByBlock
 70
     0
  3

 72
    65
 73
     0
 40
0.0
  0
LTYPE
  5
15
330
5
100
AcDbSymbolTableRecord
100
AcDbLinetypeTableRecord
  2
ByLayer
 70
     0
  3

 72
    65
 73
     0
 40
0.0
  0
LTYPE
  5
16
330
5
100
AcDbSymbolTableRecord
100
AcDbLinetypeTableRecord
  2
Continuous
 70
     0
  3
Solid line
 72
    65
 73
     0
 40
0.0
  0
LTYPE
  5
6E
330
5
100
AcDbSymbolTableRecord
100
AcDbLinetypeTableRecord
  2
SLD-Solid
 70
     0
  3
SolidWorks Line Style
 72
    65
 73
     0
 40
0.0
  0
LTYPE
  5
6F
330
5
100
AcDbSymbolTableRecord
100
AcDbLinetypeTableRecord
  2
SLD-Dashed
 70
     0
  3
SolidWorks Line Style
 72
    65
 73
     2
 40
0.075
 49
0.05
 74
     0
 49
-0.025
 74
     0
  0
LTYPE
  5
70
330
5
100
AcDbSymbolTableRecord
100
AcDbLinetypeTableRecord
  2
SLD-Phantom
 70
     0
  3
SolidWorks Line Style
 72
    65
 73
     6
 40
0.5
 49
0.25
 74
     0
 49
-0.05
 74
     0
 49
0.05
 74
     0
 49
-0.05
 74
     0
 49
0.05
 74
     0
 49
-0.05
 74
     0
  0
LTYPE
  5
71
330
5
100
AcDbSymbolTableRecord
100
AcDbLinetypeTableRecord
  2
SLD-Chain
 70
     0
  3
SolidWorks Line Style
 72
    65
 73
     4
 40
0.4
 49
0.25
 74
     0
 49
-0.05
 74
     0
 49
0.05
 74
     0
 49
-0.05
 74
     0
  0
LTYPE
  5
72
330
5
100
AcDbSymbolTableRecord
100
AcDbLinetypeTableRecord
  2
SLD-Center
 70
     0
  3
SolidWorks Line Style
 72
    65
 73
     4
 40
0.75
 49
0.6
 74
     0
 49
-0.05
 74
     0
 49
0.05
 74
     0
 49
-0.05
 74
     0
  0
LTYPE
  5
73
330
5
100
AcDbSymbolTableRecord
100
AcDbLinetypeTableRecord
  2
SLD-Stitch
 70
     0
  3
SolidWorks Line Style
 72
    65
 73
     2
 40
0.025
 49
0.0
 74
     0
 49
-0.025
 74
     0
  0
LTYPE
  5
74
330
5
100
AcDbSymbolTableRecord
100
AcDbLinetypeTableRecord
  2
SLD-Thin-Thick-Chain
 70
     0
  3
SolidWorks Line Style
 72
    65
 73
     4
 40
0.4
 49
0.25
 74
     0
 49
-0.05
 74
     0
 49
0.05
 74
     0
 49
-0.05
 74
     0
  0
ENDTAB
  0
TABLE
  2
LAYER
  5
2
330
0
100
AcDbSymbolTable
 70
     6
  0
LAYER
  5
10
330
2
100
AcDbSymbolTableRecord
100
AcDbLayerTableRecord
  2
0
 70
     0
 62
     7
  6
Continuous
370
    -3
390
F
  0
LAYER
  5
75
330
2
100
AcDbSymbolTableRecord
100
AcDbLayerTableRecord
  2
FORMAT
 70
     0
 62
     7
  6
SLD-Solid
370
    -3
390
F
  0
LAYER
  5
76
330
2
100
AcDbSymbolTableRecord
100
AcDbLayerTableRecord
  2
NOTES
 70
     0
 62
     1
  6
SLD-Solid
370
    -3
390
F
  0
LAYER
  5
77
330
2
100
AcDbSymbolTableRecord
100
AcDbLayerTableRecord
  2
OBJECT
 70
     0
 62
     7
  6
SLD-Solid
370
    25
390
F
  0
LAYER
  5
78
330
2
100
AcDbSymbolTableRecord
100
AcDbLayerTableRecord
  2
DIMS
 70
     0
 62
     5
  6
SLD-Solid
370
    -3
390
F
  0
LAYER
  5
79
330
2
100
AcDbSymbolTableRecord
100
AcDbLayerTableRecord
  2
TITLE
 70
     0
 62
     8
  6
SLD-Solid
370
    -3
390
F
  0
ENDTAB
  0
TABLE
  2
STYLE
  5
3
330
0
100
AcDbSymbolTable
 70
     5
  0
STYLE
  5
11
330
3
100
AcDbSymbolTableRecord
100
AcDbTextStyleTableRecord
  2
STANDARD
 70
     0
 40
0.0
 41
1.0
 50
0.0
 71
     0
 42
0.5
  3
GOTHIC.TTF
  4

1001
ACAD
1000
CENTURY GOTHIC
1071
       34
  0
STYLE
  5
DD
330
3
100
AcDbSymbolTableRecord
100
AcDbTextStyleTableRecord
  2
SLDTEXTSTYLE0
 70
     0
 40
0.0
 41
0.948
 50
0.0
 71
     0
 42
0.5
  3
ARIAL.TTF
  4

1001
ACAD
1000
Arial
1071
      290
  0
STYLE
  5
E1
330
3
100
AcDbSymbolTableRecord
100
AcDbTextStyleTableRecord
  2
SLDTEXTSTYLE1
 70
     0
 40
0.0
 41
0.913
 50
0.0
 71
     0
 42
0.5
  3
GOTHIC.TTF
  4

1001
ACAD
1000
Century Gothic
1071
      290
  0
STYLE
  5
F0
330
3
100
AcDbSymbolTableRecord
100
AcDbTextStyleTableRecord
  2
SLDTEXTSTYLE2
 70
     0
 40
0.0
 41
0.87
 50
0.0
 71
     0
 42
0.5
  3
ARIALNB.TTF
  4

1001
ACAD
1000
Arial Narrow
1071
 33554722
  0
STYLE
  5
F2
330
3
100
AcDbSymbolTableRecord
100
AcDbTextStyleTableRecord
  2
SLDTEXTSTYLE3
 70
     0
 40
0.0
 41
0.87
 50
0.0
 71
     0
 42
0.5
  3
ARIALN.TTF
  4

1001
ACAD
1000
Arial Narrow
1071
      290
  0
ENDTAB
  0
TABLE
  2
VIEW
  5
6
330
0
100
AcDbSymbolTable
 70
     0
  0
ENDTAB
  0
TABLE
  2
UCS
  5
7
330
0
100
AcDbSymbolTable
 70
     0
  0
ENDTAB
  0
TABLE
  2
APPID
  5
9
330
0
100
AcDbSymbolTable
 70
     1
  0
APPID
  5
12
330
9
100
AcDbSymbolTableRecord
100
AcDbRegAppTableRecord
  2
ACAD
 70
     0
  0
ENDTAB
  0
TABLE
  2
DIMSTYLE
  5
A
330
0
100
AcDbSymbolTable
 70
     4
100
AcDbDimStyleTable
  0
DIMSTYLE
105
27
330
A
100
AcDbSymbolTableRecord
100
AcDbDimStyleTableRecord
  2
Standard
 70
     0
178
     0
340
11
  0
DIMSTYLE
105
20B
102
{ACAD_REACTORS
330
20A
330
220
330
23D
330
24D
102
}
330
A
100
AcDbSymbolTableRecord
100
AcDbDimStyleTableRecord
  2
SLDDIMSTYLE0
 70
     0
 41
0.3
 44
0.0
 45
0.000000001
 78
    12
 79
     3
140
0.5
147
0.125
173
     1
178
     0
271
     6
272
     2
276
     2
277
     5
284
    12
340
E1
341
20C
343
20C
344
20C
  0
DIMSTYLE
105
230
102
{ACAD_REACTORS
330
22F
102
}
330
A
100
AcDbSymbolTableRecord
100
AcDbDimStyleTableRecord
  2
SLDDIMSTYLE1
 70
     0
 41
0.3
 44
0.0
 45
0.000000001
 78
    12
 79
     3
140
0.5
147
0.125
172
     1
173
     1
178
     0
271
     2
272
     2
276
     2
277
     5
284
    12
289
     0
340
E1
341
20C
343
20C
344
20C
  0
DIMSTYLE
105
263
330
A
100
AcDbSymbolTableRecord
100
AcDbDimStyleTableRecord
  2
SLDDIMSTYLE2
 70
     0
 41
0.3
 44
0.0
 45
0.000000001
146
0.3
147
0.0
173
     1
178
     0
271
     0
272
     0
276
     2
277
     5
340
11
341
20C
343
20C
344
20C
  0
ENDTAB
  0
TABLE
  2
BLOCK_RECORD
  5
1
330
0
100
AcDbSymbolTable
 70
    17
  0
BLOCK_RECORD
  5
1F
330
1
100
AcDbSymbolTableRecord
100
AcDbBlockTableRecord
  2
*Model_Space
340
22
  0
BLOCK_RECORD
  5
1B
330
1
100
AcDbSymbolTableRecord
100
AcDbBlockTableRecord
  2
*Paper_Space
340
1E
  0
BLOCK_RECORD
  5
23
330
1
100
AcDbSymbolTableRecord
100
AcDbBlockTableRecord
  2
*Paper_Space0
340
26
  0
BLOCK_RECORD
  5
E7
330
1
100
AcDbSymbolTableRecord
100
AcDbBlockTableRecord
  2
SW_NOTE_0
340
0
102
{BLKREFS
331
EC
102
}
  0
BLOCK_RECORD
  5
ED
330
1
100
AcDbSymbolTableRecord
100
AcDbBlockTableRecord
  2
SW_NOTE_0_1
340
0
102
{BLKREFS
331
F6
102
}
  0
BLOCK_RECORD
  5
1E8
330
1
100
AcDbSymbolTableRecord
100
AcDbBlockTableRecord
  2
SW_HATCH_0
340
0
102
{BLKREFS
331
1FB
102
}
  0
BLOCK_RECORD
  5
1FC
330
1
100
AcDbSymbolTableRecord
100
AcDbBlockTableRecord
  2
SW_HATCH_1
340
0
102
{BLKREFS
331
209
102
}
  0
BLOCK_RECORD
  5
20C
330
1
100
AcDbSymbolTableRecord
100
AcDbBlockTableRecord
  2
_Open90
340
0
102
{BLKREFS
331
215
331
216
331
224
331
225
331
234
331
235
331
241
331
242
331
251
331
252
102
}
  0
BLOCK_RECORD
  5
212
330
1
100
AcDbSymbolTableRecord
100
AcDbBlockTableRecord
  2
_D
340
0
  0
BLOCK_RECORD
  5
221
330
1
100
AcDbSymbolTableRecord
100
AcDbBlockTableRecord
  2
_D_1
340
0
  0
BLOCK_RECORD
  5
231
330
1
100
AcDbSymbolTableRecord
100
AcDbBlockTableRecord
  2
_D_2
340
0
  0
BLOCK_RECORD
  5
23E
330
1
100
AcDbSymbolTableRecord
100
AcDbBlockTableRecord
  2
_D_3
340
0
  0
BLOCK_RECORD
  5
24E
330
1
100
AcDbSymbolTableRecord
100
AcDbBlockTableRecord
  2
_D_4
340
0
  0
BLOCK_RECORD
  5
25C
330
1
100
AcDbSymbolTableRecord
100
AcDbBlockTableRecord
  2
SW_NOTE_0_2
340
0
102
{BLKREFS
331
261
102
}
  0
BLOCK_RECORD
  5
2E0
330
1
100
AcDbSymbolTableRecord
100
AcDbBlockTableRecord
  2
SW_NOTE_0_3
340
0
102
{BLKREFS
331
2E5
102
}
  0
BLOCK_RECORD
  5
393
330
1
100
AcDbSymbolTableRecord
100
AcDbBlockTableRecord
  2
SW_HATCH_2
340
0
102
{BLKREFS
331
3A6
102
}
  0
BLOCK_RECORD
  5
3A7
330
1
100
AcDbSymbolTableRecord
100
AcDbBlockTableRecord
  2
SW_HATCH_3
340
0
102
{BLKREFS
331
3BB
102
}
  0
BLOCK_RECORD
  5
3BC
330
1
100
AcDbSymbolTableRecord
100
AcDbBlockTableRecord
  2
SW_NOTE_0_4
340
0
102
{BLKREFS
331
3C1
102
}
  0
BLOCK_RECORD
  5
3C4
330
1
100
AcDbSymbolTableRecord
100
AcDbBlockTableRecord
  2
SW_NOTE_0_5
340
0
102
{BLKREFS
331
3C9
102
}
  0
ENDTAB
  0
ENDSEC
  0
SECTION
  2
BLOCKS
  0
BLOCK
  5
20
330
1F
100
AcDbEntity
  8
0
100
AcDbBlockBegin
  2
*Model_Space
 70
     0
 10
0.0
 20
0.0
 30
0.0
  3
*Model_Space
  1

  0
ENDBLK
  5
21
330
1F
100
AcDbEntity
  8
0
100
AcDbBlockEnd
  0
BLOCK
  5
1C
330
1B
100
AcDbEntity
 67
     1
  8
0
100
AcDbBlockBegin
  2
*Paper_Space
 70
     0
 10
0.0
 20
0.0
 30
0.0
  3
*Paper_Space
  1

  0
ENDBLK
  5
1D
330
1B
100
AcDbEntity
 67
     1
  8
0
100
AcDbBlockEnd
  0
BLOCK
  5
24
330
23
100
AcDbEntity
  8
0
100
AcDbBlockBegin
  2
*Paper_Space0
 70
     0
 10
0.0
 20
0.0
 30
0.0
  3
*Paper_Space0
  1

  0
ENDBLK
  5
25
330
23
100
AcDbEntity
  8
0
100
AcDbBlockEnd
  0
BLOCK
  5
E8
330
E7
100
AcDbEntity
  8
0
100
AcDbBlockBegin
  2
SW_NOTE_0
 70
     0
 10
0.0
 20
0.0
 30
0.0
  3
SW_NOTE_0
  1

  0
MTEXT
  5
EA
330
E7
100
AcDbEntity
  8
NOTES
 62
     0
100
AcDbMText
 10
0.0
 20
0.3759780908
 30
0.0
 40
0.2916666667
 41
0.0
 71
     1
 72
     1
  1
FROST PRODUCTS LTD.
  7
SLDTEXTSTYLE0
 73
     1
 44
1.0
  0
MTEXT
  5
EB
330
E7
100
AcDbEntity
  8
NOTES
 62
     0
100
AcDbMText
 10
0.0
 20
-0.0495142709
 30
0.0
 40
0.2291666667
 41
0.0
 71
     1
 72
     1
  1
5280 JOHN LUCAS DRIVE, BURLINGTON, ON, L7L 5Z9
  7
SLDTEXTSTYLE0
 73
     1
 44
1.0
  0
ENDBLK
  5
E9
330
E7
100
AcDbEntity
  8
0
100
AcDbBlockEnd
  0
BLOCK
  5
EE
330
ED
100
AcDbEntity
  8
0
100
AcDbBlockBegin
  2
SW_NOTE_0_1
 70
     0
 10
0.0
 20
0.0
 30
0.0
  3
SW_NOTE_0_1
  1

  0
MTEXT
  5
F1
330
ED
100
AcDbEntity
  8
NOTES
 62
     0
100
AcDbMText
 10
0.0
 20
0.2381282771
 30
0.0
 40
0.184729064
 41
0.0
 71
     1
 72
     1
  1
PROPRIETARY AND CONFIDENTIAL
  7
SLDTEXTSTYLE2
 73
     1
 44
1.0
  0
MTEXT
  5
F3
330
ED
100
AcDbEntity
  8
NOTES
 62
     0
100
AcDbMText
 10
0.0
 20
-0.0504364796
 30
0.0
 40
0.25
 41
0.0
 71
     1
 72
     1
  1
THE INFORMATION CONTAINED IN THIS DRAWING IS THE SOLE PROPERTY OF 
  7
SLDTEXTSTYLE3
 73
     1
 44
1.0
  0
MTEXT
  5
F4
330
ED
100
AcDbEntity
  8
NOTES
 62
     0
100
AcDbMText
 10
0.0
 20
-0.4231398941
 30
0.0
 40
0.25
 41
0.0
 71
     1
 72
     1
  1
FROST PRODUCTS LTD.  ANY REPRODUCTION IN PART OR AS A WHOLE WITHOUT 
  7
SLDTEXTSTYLE3
 73
     1
 44
1.0
  0
MTEXT
  5
F5
330
ED
100
AcDbEntity
  8
NOTES
 62
     0
100
AcDbMText
 10
0.0
 20
-0.7958433086
 30
0.0
 40
0.25
 41
0.0
 71
     1
 72
     1
  1
THE WRITTEN PERMISSION OF FROST PRODUCTS LTD. IS PROHIBITED.
  7
SLDTEXTSTYLE3
 73
     1
 44
1.0
  0
ENDBLK
  5
EF
330
ED
100
AcDbEntity
  8
0
100
AcDbBlockEnd
  0
BLOCK
  5
1E9
330
1E8
100
AcDbEntity
  8
0
100
AcDbBlockBegin
  2
SW_HATCH_0
 70
     0
 10
0.0
 20
0.0
 30
0.0
  3
SW_HATCH_0
  1

  0
LINE
  5
1EB
330
1E8
100
AcDbEntity
  8
0
  6
SLD-Solid
 62
     0
370
     0
100
AcDbLine
 10
0.0
 20
0.0
 30
0.0
 11
-0.1869233126
 21
-0.1869233126
 31
0.0
  0
LINE
  5
1EC
330
1E8
100
AcDbEntity
  8
0
  6
SLD-Solid
 62
     0
370
     0
100
AcDbLine
 10
-0.1166077357
 20
-0.3523099961
 30
0.0
 11
-0.3413085408
 21
-0.5770108012
 31
0.0
  0
LINE
  5
1ED
330
1E8
100
AcDbEntity
  8
0
  6
SLD-Solid
 62
     0
370
     0
100
AcDbLine
 10
0.2357022604
 20
0.0
 30
0.0
 11
-0.0696695382
 21
-0.3053717986
 31
0.0
  0
LINE
  5
1EE
330
1E8
100
AcDbEntity
  8
0
  6
SLD-Solid
 62
     0
370
     0
100
AcDbLine
 10
0.4714045208
 20
0.0
 30
0.0
 11
-0.221665466
 21
-0.6930699868
 31
0.0
  0
LINE
  5
1EF
330
1E8
100
AcDbEntity
  8
0
  6
SLD-Solid
 62
     0
370
     0
100
AcDbLine
 10
0.7071067812
 20
0.0
 30
0.0
 11
-0.1798932188
 21
-0.887
 31
0.0
  0
LINE
  5
1F0
330
1E8
100
AcDbEntity
  8
0
  6
SLD-Solid
 62
     0
370
     0
100
AcDbLine
 10
0.9428090416
 20
0.0
 30
0.0
 11
0.0558090416
 21
-0.887
 31
0.0
  0
LINE
  5
1F1
330
1E8
100
AcDbEntity
  8
0
  6
SLD-Solid
 62
     0
370
     0
100
AcDbLine
 10
1.178511302
 20
0.0
 30
0.0
 11
0.291511302
 21
-0.887
 31
0.0
  0
LINE
  5
1F2
330
1E8
100
AcDbEntity
  8
0
  6
SLD-Solid
 62
     0
370
     0
100
AcDbLine
 10
1.4142135624
 20
0.0
 30
0.0
 11
0.5272135624
 21
-0.887
 31
0.0
  0
LINE
  5
1F3
330
1E8
100
AcDbEntity
  8
0
  6
SLD-Solid
 62
     0
370
     0
100
AcDbLine
 10
1.6499158228
 20
0.0
 30
0.0
 11
0.7629158228
 21
-0.887
 31
0.0
  0
LINE
  5
1F4
330
1E8
100
AcDbEntity
  8
0
  6
SLD-Solid
 62
     0
370
     0
100
AcDbLine
 10
1.8856180832
 20
0.0
 30
0.0
 11
0.9986180832
 21
-0.887
 31
0.0
  0
LINE
  5
1F5
330
1E8
100
AcDbEntity
  8
0
  6
SLD-Solid
 62
     0
370
     0
100
AcDbLine
 10
2.1213203436
 20
0.0
 30
0.0
 11
1.2343203436
 21
-0.887
 31
0.0
  0
LINE
  5
1F6
330
1E8
100
AcDbEntity
  8
0
  6
SLD-Solid
 62
     0
370
     0
100
AcDbLine
 10
2.357022604
 20
0.0
 30
0.0
 11
1.470022604
 21
-0.887
 31
0.0
  0
LINE
  5
1F7
330
1E8
100
AcDbEntity
  8
0
  6
SLD-Solid
 62
     0
370
     0
100
AcDbLine
 10
2.5922092292
 20
-0.0005156351
 30
0.0
 11
1.7057248644
 21
-0.887
 31
0.0
  0
LINE
  5
1F8
330
1E8
100
AcDbEntity
  8
0
  6
SLD-Solid
 62
     0
370
     0
100
AcDbLine
 10
2.5922092292
 20
-0.2362178955
 30
0.0
 11
1.9414271247
 21
-0.887
 31
0.0
  0
LINE
  5
1F9
330
1E8
100
AcDbEntity
  8
0
  6
SLD-Solid
 62
     0
370
     0
100
AcDbLine
 10
2.5922092292
 20
-0.4719201559
 30
0.0
 11
2.1771293851
 21
-0.887
 31
0.0
  0
LINE
  5
1FA
330
1E8
100
AcDbEntity
  8
0
  6
SLD-Solid
 62
     0
370
     0
100
AcDbLine
 10
2.5922092292
 20
-0.7076224163
 30
0.0
 11
2.4128316455
 21
-0.887
 31
0.0
  0
ENDBLK
  5
1EA
330
1E8
100
AcDbEntity
  8
0
100
AcDbBlockEnd
  0
BLOCK
  5
1FD
330
1FC
100
AcDbEntity
  8
0
100
AcDbBlockBegin
  2
SW_HATCH_1
 70
     0
 10
0.0
 20
0.0
 30
0.0
  3
SW_HATCH_1
  1

  0
LINE
  5
1FF
330
1FC
100
AcDbEntity
  8
0
  6
SLD-Solid
 62
     0
370
     0
100
AcDbLine
 10
0.0
 20
0.0
 30
0.0
 11
-0.0683246767
 21
-0.0683246767
 31
0.0
  0
LINE
  5
200
330
1FC
100
AcDbEntity
  8
0
  6
SLD-Solid
 62
     0
370
     0
100
AcDbLine
 10
0.2357022604
 20
0.0
 30
0.0
 11
-0.0683246767
 21
-0.3040269371
 31
0.0
  0
LINE
  5
201
330
1FC
100
AcDbEntity
  8
0
  6
SLD-Solid
 62
     0
370
     0
100
AcDbLine
 10
0.4714045208
 20
0.0
 30
0.0
 11
-0.0683246767
 21
-0.5397291975
 31
0.0
  0
LINE
  5
202
330
1FC
100
AcDbEntity
  8
0
  6
SLD-Solid
 62
     0
370
     0
100
AcDbLine
 10
0.7071067812
 20
0.0
 30
0.0
 11
-0.0683246767
 21
-0.7754314579
 31
0.0
  0
LINE
  5
203
330
1FC
100
AcDbEntity
  8
0
  6
SLD-Solid
 62
     0
370
     0
100
AcDbLine
 10
1.6302307834
 20
-0.0196850394
 30
0.0
 11
0.7629158228
 21
-0.887
 31
0.0
  0
LINE
  5
204
330
1FC
100
AcDbEntity
  8
0
  6
SLD-Solid
 62
     0
370
     0
100
AcDbLine
 10
2.5927248644
 20
0.0
 30
0.0
 11
1.7254099037
 21
-0.8673149606
 31
0.0
  0
LINE
  5
205
330
1FC
100
AcDbEntity
  8
0
  6
SLD-Solid
 62
     0
370
     0
100
AcDbLine
 10
2.729833417
 20
-0.0985937077
 30
0.0
 11
1.9414271247
 21
-0.887
 31
0.0
  0
LINE
  5
206
330
1FC
100
AcDbEntity
  8
0
  6
SLD-Solid
 62
     0
370
     0
100
AcDbLine
 10
2.8127072422
 20
-0.251422143
 30
0.0
 11
2.1771293851
 21
-0.887
 31
0.0
  0
LINE
  5
207
330
1FC
100
AcDbEntity
  8
0
  6
SLD-Solid
 62
     0
370
     0
100
AcDbLine
 10
2.6596230612
 20
-0.6402085843
 30
0.0
 11
2.4128316455
 21
-0.887
 31
0.0
  0
LINE
  5
208
330
1FC
100
AcDbEntity
  8
0
  6
SLD-Solid
 62
     0
370
     0
100
AcDbLine
 10
2.729833417
 20
-0.8057004889
 30
0.0
 11
2.6485339059
 21
-0.887
 31
0.0
  0
ENDBLK
  5
1FE
330
1FC
100
AcDbEntity
  8
0
100
AcDbBlockEnd
  0
BLOCK
  5
20D
330
20C
100
AcDbEntity
  8
0
100
AcDbBlockBegin
  2
_Open90
 70
     0
 10
0.0
 20
0.0
 30
0.0
  3
_Open90
  1

  0
LINE
  5
20F
330
20C
100
AcDbEntity
  8
0
  6
ByBlock
 62
     0
370
    -2
100
AcDbLine
 10
-0.5
 20
0.5
 30
0.0
 11
0.0
 21
0.0
 31
0.0
  0
LINE
  5
210
330
20C
100
AcDbEntity
  8
0
  6
ByBlock
 62
     0
370
    -2
100
AcDbLine
 10
0.0
 20
0.0
 30
0.0
 11
-0.5
 21
-0.5
 31
0.0
  0
LINE
  5
211
330
20C
100
AcDbEntity
  8
0
  6
ByBlock
 62
     0
370
    -2
100
AcDbLine
 10
0.0
 20
0.0
 30
0.0
 11
-1.0
 21
0.0
 31
0.0
  0
ENDBLK
  5
20E
330
20C
100
AcDbEntity
  8
0
100
AcDbBlockEnd
  0
BLOCK
  5
213
330
212
100
AcDbEntity
  8
0
100
AcDbBlockBegin
  2
_D
 70
     0
 10
0.0
 20
0.0
 30
0.0
  3
_D
  1

  0
INSERT
  5
215
330
212
100
AcDbEntity
  8
DIMS
100
AcDbBlockReference
  2
_Open90
 10
5.4301091122
 20
26.1448531343
 30
0.0
 41
0.3
 42
0.3
 50
90.0
  0
INSERT
  5
216
330
212
100
AcDbEntity
  8
DIMS
100
AcDbBlockReference
  2
_Open90
 10
5.4301091122
 20
23.3556136891
 30
0.0
 41
0.3
 42
0.3
 50
270.0
  0
LINE
  5
217
330
212
100
AcDbEntity
  8
DIMS
100
AcDbLine
 10
5.0689980055
 20
24.6943246828
 30
0.0
 11
5.9544147004
 21
24.6943246828
 31
0.0
  0
LINE
  5
218
330
212
100
AcDbEntity
  8
DIMS
100
AcDbLine
 10
11.4725704794
 20
26.1448531343
 30
0.0
 11
5.0551091122
 21
26.1448531343
 31
0.0
  0
LINE
  5
219
330
212
100
AcDbEntity
  8
DIMS
100
AcDbLine
 10
7.8344660676
 20
23.3556136891
 30
0.0
 11
5.0551091122
 21
23.3556136891
 31
0.0
  0
LINE
  5
21A
330
212
100
AcDbEntity
  8
DIMS
100
AcDbLine
 10
5.4301091122
 20
26.1448531343
 30
0.0
 11
5.4301091122
 21
25.2968941377
 31
0.0
  0
LINE
  5
21B
330
212
100
AcDbEntity
  8
DIMS
100
AcDbLine
 10
5.4301091122
 20
23.3556136891
 30
0.0
 11
5.4301091122
 21
23.9891858312
 31
0.0
  0
MTEXT
  5
21C
330
212
100
AcDbEntity
  8
DIMS
100
AcDbMText
 10
4.626289658
 20
24.9237257433
 30
0.0
 40
0.5
 41
0.0
 71
     1
 72
     1
  1
2
  7
SLDTEXTSTYLE1
 73
     1
 44
1.0
  0
MTEXT
  5
21D
330
212
100
AcDbEntity
  8
DIMS
100
AcDbMText
 10
5.1422619075
 20
25.2890382423
 30
0.0
 40
0.5
 41
0.0
 71
     1
 72
     1
  1
13
  7
SLDTEXTSTYLE1
 73
     1
 44
1.0
  0
MTEXT
  5
21E
330
212
100
AcDbEntity
  8
DIMS
100
AcDbMText
 10
5.1422619075
 20
24.6278576638
 30
0.0
 40
0.5
 41
0.0
 71
     1
 72
     1
  1
16
  7
SLDTEXTSTYLE1
 73
     1
 44
1.0
  0
MTEXT
  5
21F
330
212
100
AcDbEntity
  8
DIMS
100
AcDbMText
 10
6.0276786024
 20
24.9237257433
 30
0.0
 40
0.5
 41
0.0
 71
     1
 72
     1
  1
"
  7
SLDTEXTSTYLE1
 73
     1
 44
1.0
  0
ENDBLK
  5
214
330
212
100
AcDbEntity
  8
0
100
AcDbBlockEnd
  0
BLOCK
  5
222
330
221
100
AcDbEntity
  8
0
100
AcDbBlockBegin
  2
_D_1
 70
     0
 10
0.0
 20
0.0
 30
0.0
  3
_D_1
  1

  0
INSERT
  5
224
330
221
100
AcDbEntity
  8
DIMS
100
AcDbBlockReference
  2
_Open90
 10
8.9511327343
 20
27.4865313611
 30
0.0
 41
0.3
 42
0.3
 50
180.0
  0
INSERT
  5
225
330
221
100
AcDbEntity
  8
DIMS
100
AcDbBlockReference
  2
_Open90
 10
12.7800165399
 20
27.4865313611
 30
0.0
 41
0.3
 42
0.3
 50
0.0
  0
LINE
  5
226
330
221
100
AcDbEntity
  8
DIMS
100
AcDbLine
 10
10.717845848
 20
27.5378160595
 30
0.0
 11
11.6032625429
 21
27.5378160595
 31
0.0
  0
LINE
  5
227
330
221
100
AcDbEntity
  8
DIMS
100
AcDbLine
 10
8.9511327343
 20
26.1902803558
 30
0.0
 11
8.9511327343
 21
27.8615313611
 31
0.0
  0
LINE
  5
228
330
221
100
AcDbEntity
  8
DIMS
100
AcDbLine
 10
12.7800165399
 20
25.4794366429
 30
0.0
 11
12.7800165399
 21
27.8615313611
 31
0.0
  0
LINE
  5
229
330
221
100
AcDbEntity
  8
DIMS
100
AcDbLine
 10
8.9511327343
 20
27.4865313611
 30
0.0
 11
10.2751375006
 21
27.4865313611
 31
0.0
  0
LINE
  5
22A
330
221
100
AcDbEntity
  8
DIMS
100
AcDbLine
 10
12.7800165399
 20
27.4865313611
 30
0.0
 11
11.882776409
 21
27.4865313611
 31
0.0
  0
MTEXT
  5
22B
330
221
100
AcDbEntity
  8
DIMS
100
AcDbMText
 10
10.2751375006
 20
27.7672171199
 30
0.0
 40
0.5
 41
0.0
 71
     1
 72
     1
  1
3
  7
SLDTEXTSTYLE1
 73
     1
 44
1.0
  0
MTEXT
  5
22C
330
221
100
AcDbEntity
  8
DIMS
100
AcDbMText
 10
10.79110975
 20
28.132529619
 30
0.0
 40
0.5
 41
0.0
 71
     1
 72
     1
  1
13
  7
SLDTEXTSTYLE1
 73
     1
 44
1.0
  0
MTEXT
  5
22D
330
221
100
AcDbEntity
  8
DIMS
100
AcDbMText
 10
10.79110975
 20
27.4713490404
 30
0.0
 40
0.5
 41
0.0
 71
     1
 72
     1
  1
16
  7
SLDTEXTSTYLE1
 73
     1
 44
1.0
  0
MTEXT
  5
22E
330
221
100
AcDbEntity
  8
DIMS
100
AcDbMText
 10
11.6765264449
 20
27.7672171199
 30
0.0
 40
0.5
 41
0.0
 71
     1
 72
     1
  1
"
  7
SLDTEXTSTYLE1
 73
     1
 44
1.0
  0
ENDBLK
  5
223
330
221
100
AcDbEntity
  8
0
100
AcDbBlockEnd
  0
BLOCK
  5
232
330
231
100
AcDbEntity
  8
0
100
AcDbBlockBegin
  2
_D_2
 70
     0
 10
0.0
 20
0.0
 30
0.0
  3
_D_2
  1

  0
INSERT
  5
234
330
231
100
AcDbEntity
  8
DIMS
100
AcDbBlockReference
  2
_Open90
 10
11.0789569548
 20
23.3556136891
 30
0.0539631326
 41
0.3
 42
0.3
 50
270.0
  0
INSERT
  5
235
330
231
100
AcDbEntity
  8
DIMS
100
AcDbBlockReference
  2
_Open90
 10
11.0789569548
 20
22.4686136891
 30
0.0539631326
 41
0.3
 42
0.3
 50
90.0
  0
LINE
  5
236
330
231
100
AcDbEntity
  8
DIMS
100
AcDbLine
 10
10.067799401
 20
23.3556136891
 30
0.0
 11
11.4539569548
 21
23.3556136891
 31
0.0
  0
LINE
  5
237
330
231
100
AcDbEntity
  8
DIMS
100
AcDbLine
 10
10.117799401
 20
22.4686136891
 30
0.0
 11
11.4539569548
 21
22.4686136891
 31
0.0
  0
LINE
  5
238
330
231
100
AcDbEntity
  8
DIMS
100
AcDbLine
 10
13.2007453524
 20
21.6203586138
 30
0.0
 11
11.0789569548
 21
21.6203586138
 31
0.0
  0
LINE
  5
239
330
231
100
AcDbEntity
  8
DIMS
100
AcDbLine
 10
11.0789569548
 20
21.6203586138
 30
0.0
 11
11.0789569548
 21
22.4686136891
 31
0.0
  0
LINE
  5
23A
330
231
100
AcDbEntity
  8
DIMS
100
AcDbLine
 10
11.0789569548
 20
23.3556136891
 30
0.0
 11
11.0789569548
 21
23.6556136891
 31
0.0
  0
MTEXT
  5
23B
330
231
100
AcDbEntity
  8
DIMS
100
AcDbMText
 10
13.2007453524
 20
22.2590305438
 30
0.0
 40
0.5
 41
0.0
 71
     1
 72
     1
  1
counter top thickness 
  7
SLDTEXTSTYLE1
 73
     1
 44
1.0
  0
MTEXT
  5
23C
330
231
100
AcDbEntity
  8
DIMS
100
AcDbMText
 10
13.2007453524
 20
21.4652805199
 30
0.0
 40
0.5
 41
0.0
 71
     1
 72
     1
  1
1/16" to 3" (1.5mm to 76mm)
  7
SLDTEXTSTYLE1
 73
     1
 44
1.0
  0
ENDBLK
  5
233
330
231
100
AcDbEntity
  8
0
100
AcDbBlockEnd
  0
BLOCK
  5
23F
330
23E
100
AcDbEntity
  8
0
100
AcDbBlockBegin
  2
_D_3
 70
     0
 10
0.0
 20
0.0
 30
0.0
  3
_D_3
  1

  0
INSERT
  5
241
330
23E
100
AcDbEntity
  8
DIMS
100
AcDbBlockReference
  2
_Open90
 10
10.6611327343
 20
10.4334719569
 30
0.0539631326
 41
0.3
 42
0.3
 50
0.0
  0
INSERT
  5
242
330
23E
100
AcDbEntity
  8
DIMS
100
AcDbBlockReference
  2
_Open90
 10
7.2411327343
 20
10.4334719569
 30
0.0539631326
 41
0.3
 42
0.3
 50
180.0
  0
LINE
  5
243
330
23E
100
AcDbEntity
  8
DIMS
100
AcDbLine
 10
8.9583821966
 20
10.4847566552
 30
0.0
 11
9.8437988915
 21
10.4847566552
 31
0.0
  0
LINE
  5
244
330
23E
100
AcDbEntity
  8
DIMS
100
AcDbLine
 10
10.6611327343
 20
11.3329470225
 30
0.0
 11
10.6611327343
 21
10.0584719569
 31
0.0
  0
LINE
  5
245
330
23E
100
AcDbEntity
  8
DIMS
100
AcDbLine
 10
7.2411327343
 20
11.3329470225
 30
0.0
 11
7.2411327343
 21
10.0584719569
 31
0.0
  0
LINE
  5
246
330
23E
100
AcDbEntity
  8
DIMS
100
AcDbLine
 10
10.6611327343
 20
10.4334719569
 30
0.0
 11
10.1233128309
 21
10.4334719569
 31
0.0
  0
LINE
  5
247
330
23E
100
AcDbEntity
  8
DIMS
100
AcDbLine
 10
7.2411327343
 20
10.4334719569
 30
0.0
 11
7.7616113668
 21
10.4334719569
 31
0.0
  0
MTEXT
  5
248
330
23E
100
AcDbEntity
  8
DIMS
100
AcDbMText
 10
7.7616113668
 20
10.7065188264
 30
0.0
 40
0.5
 41
0.0
 71
     1
 72
     1
  1
%%c
  7
SLDTEXTSTYLE1
 73
     1
 44
1.0
  0
MTEXT
  5
249
330
23E
100
AcDbEntity
  8
DIMS
100
AcDbMText
 10
8.5156738491
 20
10.7141577157
 30
0.0
 40
0.5
 41
0.0
 71
     1
 72
     1
  1
3
  7
SLDTEXTSTYLE1
 73
     1
 44
1.0
  0
MTEXT
  5
24A
330
23E
100
AcDbEntity
  8
DIMS
100
AcDbMText
 10
9.2163683213
 20
11.0794702147
 30
0.0
 40
0.5
 41
0.0
 71
     1
 72
     1
  1
7
  7
SLDTEXTSTYLE1
 73
     1
 44
1.0
  0
MTEXT
  5
24B
330
23E
100
AcDbEntity
  8
DIMS
100
AcDbMText
 10
9.0316460986
 20
10.4182896362
 30
0.0
 40
0.5
 41
0.0
 71
     1
 72
     1
  1
16
  7
SLDTEXTSTYLE1
 73
     1
 44
1.0
  0
MTEXT
  5
24C
330
23E
100
AcDbEntity
  8
DIMS
100
AcDbMText
 10
9.9170628668
 20
10.7141577157
 30
0.0
 40
0.5
 41
0.0
 71
     1
 72
     1
  1
"
  7
SLDTEXTSTYLE1
 73
     1
 44
1.0
  0
ENDBLK
  5
240
330
23E
100
AcDbEntity
  8
0
100
AcDbBlockEnd
  0
BLOCK
  5
24F
330
24E
100
AcDbEntity
  8
0
100
AcDbBlockBegin
  2
_D_4
 70
     0
 10
0.0
 20
0.0
 30
0.0
  3
_D_4
  1

  0
INSERT
  5
251
330
24E
100
AcDbEntity
  8
DIMS
100
AcDbBlockReference
  2
_Open90
 10
5.4301091122
 20
23.3556136891
 30
0.0539631326
 41
0.3
 42
0.3
 50
90.0
  0
INSERT
  5
252
330
24E
100
AcDbEntity
  8
DIMS
100
AcDbBlockReference
  2
_Open90
 10
5.4301091122
 20
11.2996136891
 30
0.0539631326
 41
0.3
 42
0.3
 50
270.0
  0
LINE
  5
253
330
24E
100
AcDbEntity
  8
DIMS
100
AcDbLine
 10
5.2537201916
 20
17.723591007
 30
0.0
 11
6.1391368865
 21
17.723591007
 31
0.0
  0
LINE
  5
254
330
24E
100
AcDbEntity
  8
DIMS
100
AcDbLine
 10
7.8344660676
 20
23.3556136891
 30
0.0
 11
5.0551091122
 21
23.3556136891
 31
0.0
  0
LINE
  5
255
330
24E
100
AcDbEntity
  8
DIMS
100
AcDbLine
 10
7.2744660676
 20
11.2996136891
 30
0.0
 11
5.0551091122
 21
11.2996136891
 31
0.0
  0
LINE
  5
256
330
24E
100
AcDbEntity
  8
DIMS
100
AcDbLine
 10
5.4301091122
 20
23.3556136891
 30
0.0
 11
5.4301091122
 21
18.3261604619
 31
0.0
  0
LINE
  5
257
330
24E
100
AcDbEntity
  8
DIMS
100
AcDbLine
 10
5.4301091122
 20
11.2996136891
 30
0.0
 11
5.4301091122
 21
17.0184521553
 31
0.0
  0
MTEXT
  5
258
330
24E
100
AcDbEntity
  8
DIMS
100
AcDbMText
 10
4.4415673986
 20
17.9529920674
 30
0.0
 40
0.5
 41
0.0
 71
     1
 72
     1
  1
12
  7
SLDTEXTSTYLE1
 73
     1
 44
1.0
  0
MTEXT
  5
259
330
24E
100
AcDbEntity
  8
DIMS
100
AcDbMText
 10
5.5117063163
 20
18.3183045665
 30
0.0
 40
0.5
 41
0.0
 71
     1
 72
     1
  1
1
  7
SLDTEXTSTYLE1
 73
     1
 44
1.0
  0
MTEXT
  5
25A
330
24E
100
AcDbEntity
  8
DIMS
100
AcDbMText
 10
5.3269840936
 20
17.6571239879
 30
0.0
 40
0.5
 41
0.0
 71
     1
 72
     1
  1
16
  7
SLDTEXTSTYLE1
 73
     1
 44
1.0
  0
MTEXT
  5
25B
330
24E
100
AcDbEntity
  8
DIMS
100
AcDbMText
 10
6.2124008618
 20
17.9529920674
 30
0.0
 40
0.5
 41
0.0
 71
     1
 72
     1
  1
"
  7
SLDTEXTSTYLE1
 73
     1
 44
1.0
  0
ENDBLK
  5
250
330
24E
100
AcDbEntity
  8
0
100
AcDbBlockEnd
  0
BLOCK
  5
25D
330
25C
100
AcDbEntity
  8
0
100
AcDbBlockBegin
  2
SW_NOTE_0_2
 70
     0
 10
0.0
 20
0.0
 30
0.0
  3
SW_NOTE_0_2
  1

  0
MTEXT
  5
25F
330
25C
100
AcDbEntity
  8
NOTES
 62
     0
100
AcDbMText
 10
0.0
 20
0.638671875
 30
0.0
 40
0.5
 41
0.0
 71
     1
 72
     1
  1
Section view
  7
SLDTEXTSTYLE1
 73
     1
 44
1.0
  0
MTEXT
  5
260
330
25C
100
AcDbEntity
  8
NOTES
 62
     0
100
AcDbMText
 10
0.0
 20
-0.3613281862
 30
0.0
 40
0.5
 41
0.0
 71
     1
 72
     1
  1
installed
  7
SLDTEXTSTYLE1
 73
     1
 44
1.0
  0
ENDBLK
  5
25E
330
25C
100
AcDbEntity
  8
0
100
AcDbBlockEnd
  0
BLOCK
  5
2E1
330
2E0
100
AcDbEntity
  8
0
100
AcDbBlockBegin
  2
SW_NOTE_0_3
 70
     0
 10
0.0
 20
0.0
 30
0.0
  3
SW_NOTE_0_3
  1

  0
MTEXT
  5
2E3
330
2E0
100
AcDbEntity
  8
NOTES
 62
     0
100
AcDbMText
 10
0.0
 20
0.638671875
 30
0.0
 40
0.5
 41
0.0
 71
     1
 72
     1
  1
3d view
  7
SLDTEXTSTYLE1
 73
     1
 44
1.0
  0
MTEXT
  5
2E4
330
2E0
100
AcDbEntity
  8
NOTES
 62
     0
100
AcDbMText
 10
0.0
 20
-0.3613281862
 30
0.0
 40
0.5
 41
0.0
 71
     1
 72
     1
  1
code 712
  7
SLDTEXTSTYLE1
 73
     1
 44
1.0
  0
ENDBLK
  5
2E2
330
2E0
100
AcDbEntity
  8
0
100
AcDbBlockEnd
  0
BLOCK
  5
394
330
393
100
AcDbEntity
  8
0
100
AcDbBlockBegin
  2
SW_HATCH_2
 70
     0
 10
0.0
 20
0.0
 30
0.0
  3
SW_HATCH_2
  1

  0
LINE
  5
396
330
393
100
AcDbEntity
  8
0
  6
SLD-Solid
 62
     0
370
     0
100
AcDbLine
 10
0.0
 20
0.0
 30
0.0
 11
-0.1869233126
 21
-0.1869233126
 31
0.0
  0
LINE
  5
397
330
393
100
AcDbEntity
  8
0
  6
SLD-Solid
 62
     0
370
     0
100
AcDbLine
 10
-0.1166077357
 20
-0.3523099961
 30
0.0
 11
-0.3413085408
 21
-0.5770108012
 31
0.0
  0
LINE
  5
398
330
393
100
AcDbEntity
  8
0
  6
SLD-Solid
 62
     0
370
     0
100
AcDbLine
 10
0.2357022604
 20
0.0
 30
0.0
 11
-0.0696695382
 21
-0.3053717986
 31
0.0
  0
LINE
  5
399
330
393
100
AcDbEntity
  8
0
  6
SLD-Solid
 62
     0
370
     0
100
AcDbLine
 10
0.4714045208
 20
0.0
 30
0.0
 11
-0.221665466
 21
-0.6930699868
 31
0.0
  0
LINE
  5
39A
330
393
100
AcDbEntity
  8
0
  6
SLD-Solid
 62
     0
370
     0
100
AcDbLine
 10
0.7071067812
 20
0.0
 30
0.0
 11
-0.1798932188
 21
-0.887
 31
0.0
  0
LINE
  5
39B
330
393
100
AcDbEntity
  8
0
  6
SLD-Solid
 62
     0
370
     0
100
AcDbLine
 10
0.9428090416
 20
0.0
 30
0.0
 11
0.0558090416
 21
-0.887
 31
0.0
  0
LINE
  5
39C
330
393
100
AcDbEntity
  8
0
  6
SLD-Solid
 62
     0
370
     0
100
AcDbLine
 10
1.178511302
 20
0.0
 30
0.0
 11
0.291511302
 21
-0.887
 31
0.0
  0
LINE
  5
39D
330
393
100
AcDbEntity
  8
0
  6
SLD-Solid
 62
     0
370
     0
100
AcDbLine
 10
1.4142135624
 20
0.0
 30
0.0
 11
0.5272135624
 21
-0.887
 31
0.0
  0
LINE
  5
39E
330
393
100
AcDbEntity
  8
0
  6
SLD-Solid
 62
     0
370
     0
100
AcDbLine
 10
1.6499158228
 20
0.0
 30
0.0
 11
0.7629158228
 21
-0.887
 31
0.0
  0
LINE
  5
39F
330
393
100
AcDbEntity
  8
0
  6
SLD-Solid
 62
     0
370
     0
100
AcDbLine
 10
1.8856180832
 20
0.0
 30
0.0
 11
0.9986180832
 21
-0.887
 31
0.0
  0
LINE
  5
3A0
330
393
100
AcDbEntity
  8
0
  6
SLD-Solid
 62
     0
370
     0
100
AcDbLine
 10
2.1213203436
 20
0.0
 30
0.0
 11
1.2343203436
 21
-0.887
 31
0.0
  0
LINE
  5
3A1
330
393
100
AcDbEntity
  8
0
  6
SLD-Solid
 62
     0
370
     0
100
AcDbLine
 10
2.357022604
 20
0.0
 30
0.0
 11
1.470022604
 21
-0.887
 31
0.0
  0
LINE
  5
3A2
330
393
100
AcDbEntity
  8
0
  6
SLD-Solid
 62
     0
370
     0
100
AcDbLine
 10
2.5922092292
 20
-0.0005156351
 30
0.0
 11
1.7057248644
 21
-0.887
 31
0.0
  0
LINE
  5
3A3
330
393
100
AcDbEntity
  8
0
  6
SLD-Solid
 62
     0
370
     0
100
AcDbLine
 10
2.5922092292
 20
-0.2362178955
 30
0.0
 11
1.9414271247
 21
-0.887
 31
0.0
  0
LINE
  5
3A4
330
393
100
AcDbEntity
  8
0
  6
SLD-Solid
 62
     0
370
     0
100
AcDbLine
 10
2.5922092292
 20
-0.4719201559
 30
0.0
 11
2.1771293851
 21
-0.887
 31
0.0
  0
LINE
  5
3A5
330
393
100
AcDbEntity
  8
0
  6
SLD-Solid
 62
     0
370
     0
100
AcDbLine
 10
2.5922092292
 20
-0.7076224163
 30
0.0
 11
2.4128316455
 21
-0.887
 31
0.0
  0
ENDBLK
  5
395
330
393
100
AcDbEntity
  8
0
100
AcDbBlockEnd
  0
BLOCK
  5
3A8
330
3A7
100
AcDbEntity
  8
0
100
AcDbBlockBegin
  2
SW_HATCH_3
 70
     0
 10
0.0
 20
0.0
 30
0.0
  3
SW_HATCH_3
  1

  0
LINE
  5
3AA
330
3A7
100
AcDbEntity
  8
0
  6
SLD-Solid
 62
     0
370
     0
100
AcDbLine
 10
0.0
 20
0.0
 30
0.0
 11
-0.0683246767
 21
-0.0683246767
 31
0.0
  0
LINE
  5
3AB
330
3A7
100
AcDbEntity
  8
0
  6
SLD-Solid
 62
     0
370
     0
100
AcDbLine
 10
0.2357022604
 20
0.0
 30
0.0
 11
-0.0683246767
 21
-0.3040269371
 31
0.0
  0
LINE
  5
3AC
330
3A7
100
AcDbEntity
  8
0
  6
SLD-Solid
 62
     0
370
     0
100
AcDbLine
 10
0.4714045208
 20
0.0
 30
0.0
 11
0.047568719
 21
-0.4238358018
 31
0.0
  0
LINE
  5
3AD
330
3A7
100
AcDbEntity
  8
0
  6
SLD-Solid
 62
     0
370
     0
100
AcDbLine
 10
0.7071067812
 20
0.0
 30
0.0
 11
0.1834441377
 21
-0.5236626435
 31
0.0
  0
LINE
  5
3AE
330
3A7
100
AcDbEntity
  8
0
  6
SLD-Solid
 62
     0
370
     0
100
AcDbLine
 10
0.9428090416
 20
0.0
 30
0.0
 11
0.3193195564
 21
-0.6234894852
 31
0.0
  0
LINE
  5
3AF
330
3A7
100
AcDbEntity
  8
0
  6
SLD-Solid
 62
     0
370
     0
100
AcDbLine
 10
1.178511302
 20
0.0
 30
0.0
 11
0.4551949751
 21
-0.7233163269
 31
0.0
  0
LINE
  5
3B0
330
3A7
100
AcDbEntity
  8
0
  6
SLD-Solid
 62
     0
370
     0
100
AcDbLine
 10
1.4142135624
 20
0.0
 30
0.0
 11
0.5910703938
 21
-0.8231431686
 31
0.0
  0
LINE
  5
3B1
330
3A7
100
AcDbEntity
  8
0
  6
SLD-Solid
 62
     0
370
     0
100
AcDbLine
 10
2.5927248644
 20
0.0
 30
0.0
 11
1.7057248644
 21
-0.887
 31
0.0
  0
LINE
  5
3B2
330
3A7
100
AcDbEntity
  8
0
  6
SLD-Solid
 62
     0
370
     0
100
AcDbLine
 10
2.729833417
 20
-0.0985937077
 30
0.0
 11
1.9414271247
 21
-0.887
 31
0.0
  0
LINE
  5
3B3
330
3A7
100
AcDbEntity
  8
0
  6
SLD-Solid
 62
     0
370
     0
100
AcDbLine
 10
2.8127072422
 20
-0.251422143
 30
0.0
 11
2.1771293851
 21
-0.887
 31
0.0
  0
LINE
  5
3B4
330
3A7
100
AcDbEntity
  8
0
  6
SLD-Solid
 62
     0
370
     0
100
AcDbLine
 10
2.6596230612
 20
-0.6402085843
 30
0.0
 11
2.4128316455
 21
-0.887
 31
0.0
  0
LINE
  5
3B5
330
3A7
100
AcDbEntity
  8
0
  6
SLD-Solid
 62
     0
370
     0
100
AcDbLine
 10
2.729833417
 20
-0.8057004889
 30
0.0
 11
2.6485339059
 21
-0.887
 31
0.0
  0
LINE
  5
3B6
330
3A7
100
AcDbEntity
  8
0
  6
SLD-Solid
 62
     0
370
     0
100
AcDbLine
 10
0.0194061621
 20
-0.4519983587
 30
0.0
 11
-0.0683246767
 21
-0.5397291975
 31
0.0
  0
LINE
  5
3B7
330
3A7
100
AcDbEntity
  8
0
  6
SLD-Solid
 62
     0
370
     0
100
AcDbLine
 10
0.1552815808
 20
-0.5518252004
 30
0.0
 11
-0.0683246767
 21
-0.7754314579
 31
0.0
  0
LINE
  5
3B8
330
3A7
100
AcDbEntity
  8
0
  6
SLD-Solid
 62
     0
370
     0
100
AcDbLine
 10
0.2911569995
 20
-0.6516520421
 30
0.0
 11
0.0558090416
 21
-0.887
 31
0.0
  0
LINE
  5
3B9
330
3A7
100
AcDbEntity
  8
0
  6
SLD-Solid
 62
     0
370
     0
100
AcDbLine
 10
0.4270324182
 20
-0.7514788838
 30
0.0
 11
0.291511302
 21
-0.887
 31
0.0
  0
LINE
  5
3BA
330
3A7
100
AcDbEntity
  8
0
  6
SLD-Solid
 62
     0
370
     0
100
AcDbLine
 10
0.5629078369
 20
-0.8513057255
 30
0.0
 11
0.5272135624
 21
-0.887
 31
0.0
  0
ENDBLK
  5
3A9
330
3A7
100
AcDbEntity
  8
0
100
AcDbBlockEnd
  0
BLOCK
  5
3BD
330
3BC
100
AcDbEntity
  8
0
100
AcDbBlockBegin
  2
SW_NOTE_0_4
 70
     0
 10
0.0
 20
0.0
 30
0.0
  3
SW_NOTE_0_4
  1

  0
MTEXT
  5
3BF
330
3BC
100
AcDbEntity
  8
NOTES
 62
     0
100
AcDbMText
 10
0.0
 20
0.638671875
 30
0.0
 40
0.5
 41
0.0
 71
     1
 72
     1
  1
Section view
  7
SLDTEXTSTYLE1
 73
     1
 44
1.0
  0
MTEXT
  5
3C0
330
3BC
100
AcDbEntity
  8
NOTES
 62
     0
100
AcDbMText
 10
0.0
 20
-0.3613281862
 30
0.0
 40
0.5
 41
0.0
 71
     1
 72
     1
  1
top loading
  7
SLDTEXTSTYLE1
 73
     1
 44
1.0
  0
ENDBLK
  5
3BE
330
3BC
100
AcDbEntity
  8
0
100
AcDbBlockEnd
  0
BLOCK
  5
3C5
330
3C4
100
AcDbEntity
  8
0
100
AcDbBlockBegin
  2
SW_NOTE_0_5
 70
     0
 10
0.0
 20
0.0
 30
0.0
  3
SW_NOTE_0_5
  1

  0
MTEXT
  5
3C7
330
3C4
100
AcDbEntity
  8
NOTES
 62
     0
100
AcDbMText
 10
0.0235176117
 20
0.2456918264
 30
0.0
 40
0.5
 41
0.0
 71
     1
 72
     1
  1
7/8"(22mm) Dia. 
  7
SLDTEXTSTYLE1
 73
     1
 44
1.0
  0
MTEXT
  5
3C8
330
3C4
100
AcDbEntity
  8
NOTES
 62
     0
100
AcDbMText
 10
0.0235176117
 20
-0.4008359716
 30
0.0
 40
0.5
 41
0.0
 71
     1
 72
     1
  1
hole in vanity
  7
SLDTEXTSTYLE1
 73
     1
 44
1.0
  0
ENDBLK
  5
3C6
330
3C4
100
AcDbEntity
  8
0
100
AcDbBlockEnd
  0
ENDSEC
  0
SECTION
  2
ENTITIES
  0
LINE
  5
7A
330
1F
100
AcDbEntity
  8
TITLE
370
    35
100
AcDbLine
 10
30.5182229757
 20
1.4876117645
 30
0.0
 11
47.4999864512
 21
1.4876117645
 31
0.0
  0
LINE
  5
7B
330
1F
100
AcDbEntity
  8
TITLE
370
    35
100
AcDbLine
 10
47.4999317442
 20
5.4753603936
 30
0.0
 11
37.3105350723
 21
5.4753603936
 31
0.0
  0
LINE
  5
7C
330
1F
100
AcDbEntity
  8
TITLE
  6
SLD-Solid
370
    18
100
AcDbLine
 10
0.5
 20
0.5
 30
0.0
 11
0.5
 21
35.5
 31
0.0
  0
LINE
  5
7D
330
1F
100
AcDbEntity
  8
TITLE
  6
SLD-Solid
370
    18
100
AcDbLine
 10
0.5
 20
35.5
 30
0.0
 11
47.5
 21
35.5
 31
0.0
  0
LINE
  5
7E
330
1F
100
AcDbEntity
  8
TITLE
370
    35
100
AcDbLine
 10
30.5182229757
 20
2.5427877231
 30
0.0
 11
23.5059791203
 21
2.5427877231
 31
0.0
  0
LINE
  5
7F
330
1F
100
AcDbEntity
  8
TITLE
370
    35
100
AcDbLine
 10
30.5182229757
 20
1.4876117645
 30
0.0
 11
23.5059791203
 21
1.4876117645
 31
0.0
  0
LINE
  5
80
330
1F
100
AcDbEntity
  8
TITLE
  6
SLD-Solid
370
    18
100
AcDbLine
 10
47.5
 20
35.5
 30
0.0
 11
47.5
 21
0.5
 31
0.0
  0
LINE
  5
81
330
1F
100
AcDbEntity
  8
TITLE
  6
SLD-Solid
370
    18
100
AcDbLine
 10
47.5
 20
0.5
 30
0.0
 11
0.5
 21
0.5
 31
0.0
  0
LINE
  5
82
330
1F
100
AcDbEntity
  8
TITLE
370
    35
100
AcDbLine
 10
30.5182229757
 20
1.4876117645
 30
0.0
 11
30.5182229757
 21
3.5979636817
 31
0.0
  0
LINE
  5
83
330
1F
100
AcDbEntity
  8
TITLE
370
    35
100
AcDbLine
 10
23.5059791203
 20
3.5979636817
 30
0.0
 11
23.5059791203
 21
0.5
 31
0.0
  0
LINE
  5
84
330
1F
100
AcDbEntity
  8
TITLE
370
    35
100
AcDbLine
 10
23.5059791203
 20
0.5
 30
0.0
 11
47.5
 21
0.5
 31
0.0
  0
LINE
  5
85
330
1F
100
AcDbEntity
  8
TITLE
370
    35
100
AcDbLine
 10
47.4999317442
 20
5.4753603936
 30
0.0
 11
47.5
 21
0.5
 31
0.0
  0
LINE
  5
86
330
1F
100
AcDbEntity
  8
TITLE
  6
SLD-Solid
370
    18
100
AcDbLine
 10
0.4999606299
 20
18.0
 30
0.0
 11
0.5000393701
 21
18.0
 31
0.0
  0
LINE
  5
87
330
1F
100
AcDbEntity
  8
TITLE
370
    35
100
AcDbLine
 10
30.5182229757
 20
3.5979636817
 30
0.0
 11
23.5059791203
 21
3.5979636817
 31
0.0
  0
LINE
  5
88
330
1F
100
AcDbEntity
  8
TITLE
370
    35
100
AcDbLine
 10
30.5182229757
 20
3.5979636817
 30
0.0
 11
47.4997615643
 21
3.5979648343
 31
0.0
  0
LINE
  5
89
330
1F
100
AcDbEntity
  8
TITLE
370
    35
100
AcDbLine
 10
37.3105350723
 20
5.4753603936
 30
0.0
 11
37.3105350723
 21
0.4636772425
 31
0.0
  0
LINE
  5
8A
330
1F
100
AcDbEntity
  8
TITLE
  6
SLD-Solid
370
    18
100
AcDbLine
 10
24.0
 20
35.5000393701
 30
0.0
 11
24.0
 21
35.4999606299
 31
0.0
  0
LINE
  5
8B
330
1F
100
AcDbEntity
  8
TITLE
  6
SLD-Solid
370
    18
100
AcDbLine
 10
47.5000393701
 20
18.0
 30
0.0
 11
47.4999606299
 21
18.0
 31
0.0
  0
LINE
  5
8C
330
1F
100
AcDbEntity
  8
TITLE
  6
SLD-Solid
370
    18
100
AcDbLine
 10
24.0
 20
0.4999606299
 30
0.0
 11
24.0
 21
0.5000393701
 31
0.0
  0
LINE
  5
8D
330
1F
100
AcDbEntity
  8
TITLE
  6
SLD-Solid
370
    18
100
AcDbLine
 10
0.5
 20
2.2519685039
 30
0.0
 11
0.1653543307
 21
2.2519685039
 31
0.0
  0
LINE
  5
8E
330
1F
100
AcDbEntity
  8
TITLE
  6
SLD-Solid
370
    18
100
AcDbLine
 10
47.5
 20
2.2519685039
 30
0.0
 11
47.8346456693
 21
2.2519685039
 31
0.0
  0
LINE
  5
8F
330
1F
100
AcDbEntity
  8
TITLE
  6
SLD-Solid
370
    18
100
AcDbLine
 10
0.5
 20
4.2204724409
 30
0.0
 11
0.1653543307
 21
4.2204724409
 31
0.0
  0
LINE
  5
90
330
1F
100
AcDbEntity
  8
TITLE
  6
SLD-Solid
370
    18
100
AcDbLine
 10
47.5
 20
4.2204724409
 30
0.0
 11
47.8346456693
 21
4.2204724409
 31
0.0
  0
LINE
  5
91
330
1F
100
AcDbEntity
  8
TITLE
  6
SLD-Solid
370
    18
100
AcDbLine
 10
0.5
 20
6.188976378
 30
0.0
 11
0.1653543307
 21
6.188976378
 31
0.0
  0
LINE
  5
92
330
1F
100
AcDbEntity
  8
TITLE
  6
SLD-Solid
370
    18
100
AcDbLine
 10
47.5
 20
6.188976378
 30
0.0
 11
47.8346456693
 21
6.188976378
 31
0.0
  0
LINE
  5
93
330
1F
100
AcDbEntity
  8
TITLE
  6
SLD-Solid
370
    18
100
AcDbLine
 10
0.5
 20
8.157480315
 30
0.0
 11
0.1653543307
 21
8.157480315
 31
0.0
  0
LINE
  5
94
330
1F
100
AcDbEntity
  8
TITLE
  6
SLD-Solid
370
    18
100
AcDbLine
 10
47.5
 20
8.157480315
 30
0.0
 11
47.8346456693
 21
8.157480315
 31
0.0
  0
LINE
  5
95
330
1F
100
AcDbEntity
  8
TITLE
  6
SLD-Solid
370
    18
100
AcDbLine
 10
0.5
 20
10.125984252
 30
0.0
 11
0.1653543307
 21
10.125984252
 31
0.0
  0
LINE
  5
96
330
1F
100
AcDbEntity
  8
TITLE
  6
SLD-Solid
370
    18
100
AcDbLine
 10
47.5
 20
10.125984252
 30
0.0
 11
47.8346456693
 21
10.125984252
 31
0.0
  0
LINE
  5
97
330
1F
100
AcDbEntity
  8
TITLE
  6
SLD-Solid
370
    18
100
AcDbLine
 10
0.5
 20
12.094488189
 30
0.0
 11
0.1653543307
 21
12.094488189
 31
0.0
  0
LINE
  5
98
330
1F
100
AcDbEntity
  8
TITLE
  6
SLD-Solid
370
    18
100
AcDbLine
 10
47.5
 20
12.094488189
 30
0.0
 11
47.8346456693
 21
12.094488189
 31
0.0
  0
LINE
  5
99
330
1F
100
AcDbEntity
  8
TITLE
  6
SLD-Solid
370
    18
100
AcDbLine
 10
0.5
 20
14.062992126
 30
0.0
 11
0.1653543307
 21
14.062992126
 31
0.0
  0
LINE
  5
9A
330
1F
100
AcDbEntity
  8
TITLE
  6
SLD-Solid
370
    18
100
AcDbLine
 10
47.5
 20
14.062992126
 30
0.0
 11
47.8346456693
 21
14.062992126
 31
0.0
  0
LINE
  5
9B
330
1F
100
AcDbEntity
  8
TITLE
  6
SLD-Solid
370
    18
100
AcDbLine
 10
0.5
 20
16.031496063
 30
0.0
 11
0.1653543307
 21
16.031496063
 31
0.0
  0
LINE
  5
9C
330
1F
100
AcDbEntity
  8
TITLE
  6
SLD-Solid
370
    18
100
AcDbLine
 10
47.5
 20
16.031496063
 30
0.0
 11
47.8346456693
 21
16.031496063
 31
0.0
  0
LINE
  5
9D
330
1F
100
AcDbEntity
  8
TITLE
  6
SLD-Solid
370
    18
100
AcDbLine
 10
0.5
 20
18.0
 30
0.0
 11
0.1653543307
 21
18.0
 31
0.0
  0
LINE
  5
9E
330
1F
100
AcDbEntity
  8
TITLE
  6
SLD-Solid
370
    18
100
AcDbLine
 10
47.5
 20
18.0
 30
0.0
 11
47.8346456693
 21
18.0
 31
0.0
  0
LINE
  5
9F
330
1F
100
AcDbEntity
  8
TITLE
  6
SLD-Solid
370
    18
100
AcDbLine
 10
0.5
 20
19.968503937
 30
0.0
 11
0.1653543307
 21
19.968503937
 31
0.0
  0
LINE
  5
A0
330
1F
100
AcDbEntity
  8
TITLE
  6
SLD-Solid
370
    18
100
AcDbLine
 10
47.5
 20
19.968503937
 30
0.0
 11
47.8346456693
 21
19.968503937
 31
0.0
  0
LINE
  5
A1
330
1F
100
AcDbEntity
  8
TITLE
  6
SLD-Solid
370
    18
100
AcDbLine
 10
0.5
 20
21.937007874
 30
0.0
 11
0.1653543307
 21
21.937007874
 31
0.0
  0
LINE
  5
A2
330
1F
100
AcDbEntity
  8
TITLE
  6
SLD-Solid
370
    18
100
AcDbLine
 10
47.5
 20
21.937007874
 30
0.0
 11
47.8346456693
 21
21.937007874
 31
0.0
  0
LINE
  5
A3
330
1F
100
AcDbEntity
  8
TITLE
  6
SLD-Solid
370
    18
100
AcDbLine
 10
0.5
 20
23.905511811
 30
0.0
 11
0.1653543307
 21
23.905511811
 31
0.0
  0
LINE
  5
A4
330
1F
100
AcDbEntity
  8
TITLE
  6
SLD-Solid
370
    18
100
AcDbLine
 10
47.5
 20
23.905511811
 30
0.0
 11
47.8346456693
 21
23.905511811
 31
0.0
  0
LINE
  5
A5
330
1F
100
AcDbEntity
  8
TITLE
  6
SLD-Solid
370
    18
100
AcDbLine
 10
0.5
 20
25.874015748
 30
0.0
 11
0.1653543307
 21
25.874015748
 31
0.0
  0
LINE
  5
A6
330
1F
100
AcDbEntity
  8
TITLE
  6
SLD-Solid
370
    18
100
AcDbLine
 10
47.5
 20
25.874015748
 30
0.0
 11
47.8346456693
 21
25.874015748
 31
0.0
  0
LINE
  5
A7
330
1F
100
AcDbEntity
  8
TITLE
  6
SLD-Solid
370
    18
100
AcDbLine
 10
0.5
 20
27.842519685
 30
0.0
 11
0.1653543307
 21
27.842519685
 31
0.0
  0
LINE
  5
A8
330
1F
100
AcDbEntity
  8
TITLE
  6
SLD-Solid
370
    18
100
AcDbLine
 10
47.5
 20
27.842519685
 30
0.0
 11
47.8346456693
 21
27.842519685
 31
0.0
  0
LINE
  5
A9
330
1F
100
AcDbEntity
  8
TITLE
  6
SLD-Solid
370
    18
100
AcDbLine
 10
0.5
 20
29.811023622
 30
0.0
 11
0.1653543307
 21
29.811023622
 31
0.0
  0
LINE
  5
AA
330
1F
100
AcDbEntity
  8
TITLE
  6
SLD-Solid
370
    18
100
AcDbLine
 10
47.5
 20
29.811023622
 30
0.0
 11
47.8346456693
 21
29.811023622
 31
0.0
  0
LINE
  5
AB
330
1F
100
AcDbEntity
  8
TITLE
  6
SLD-Solid
370
    18
100
AcDbLine
 10
0.5
 20
31.7795275591
 30
0.0
 11
0.1653543307
 21
31.7795275591
 31
0.0
  0
LINE
  5
AC
330
1F
100
AcDbEntity
  8
TITLE
  6
SLD-Solid
370
    18
100
AcDbLine
 10
47.5
 20
31.7795275591
 30
0.0
 11
47.8346456693
 21
31.7795275591
 31
0.0
  0
LINE
  5
AD
330
1F
100
AcDbEntity
  8
TITLE
  6
SLD-Solid
370
    18
100
AcDbLine
 10
0.5
 20
33.7480314961
 30
0.0
 11
0.1653543307
 21
33.7480314961
 31
0.0
  0
LINE
  5
AE
330
1F
100
AcDbEntity
  8
TITLE
  6
SLD-Solid
370
    18
100
AcDbLine
 10
47.5
 20
33.7480314961
 30
0.0
 11
47.8346456693
 21
33.7480314961
 31
0.0
  0
LINE
  5
AF
330
1F
100
AcDbEntity
  8
TITLE
  6
SLD-Solid
370
    18
100
AcDbLine
 10
2.3464566929
 20
35.5
 30
0.0
 11
2.3464566929
 21
35.8346456693
 31
0.0
  0
LINE
  5
B0
330
1F
100
AcDbEntity
  8
TITLE
  6
SLD-Solid
370
    18
100
AcDbLine
 10
2.3464566929
 20
0.5
 30
0.0
 11
2.3464566929
 21
0.1653543307
 31
0.0
  0
LINE
  5
B1
330
1F
100
AcDbEntity
  8
TITLE
  6
SLD-Solid
370
    18
100
AcDbLine
 10
4.3149606299
 20
35.5
 30
0.0
 11
4.3149606299
 21
35.8346456693
 31
0.0
  0
LINE
  5
B2
330
1F
100
AcDbEntity
  8
TITLE
  6
SLD-Solid
370
    18
100
AcDbLine
 10
4.3149606299
 20
0.5
 30
0.0
 11
4.3149606299
 21
0.1653543307
 31
0.0
  0
LINE
  5
B3
330
1F
100
AcDbEntity
  8
TITLE
  6
SLD-Solid
370
    18
100
AcDbLine
 10
6.2834645669
 20
35.5
 30
0.0
 11
6.2834645669
 21
35.8346456693
 31
0.0
  0
LINE
  5
B4
330
1F
100
AcDbEntity
  8
TITLE
  6
SLD-Solid
370
    18
100
AcDbLine
 10
6.2834645669
 20
0.5
 30
0.0
 11
6.2834645669
 21
0.1653543307
 31
0.0
  0
LINE
  5
B5
330
1F
100
AcDbEntity
  8
TITLE
  6
SLD-Solid
370
    18
100
AcDbLine
 10
8.2519685039
 20
35.5
 30
0.0
 11
8.2519685039
 21
35.8346456693
 31
0.0
  0
LINE
  5
B6
330
1F
100
AcDbEntity
  8
TITLE
  6
SLD-Solid
370
    18
100
AcDbLine
 10
8.2519685039
 20
0.5
 30
0.0
 11
8.2519685039
 21
0.1653543307
 31
0.0
  0
LINE
  5
B7
330
1F
100
AcDbEntity
  8
TITLE
  6
SLD-Solid
370
    18
100
AcDbLine
 10
10.2204724409
 20
35.5
 30
0.0
 11
10.2204724409
 21
35.8346456693
 31
0.0
  0
LINE
  5
B8
330
1F
100
AcDbEntity
  8
TITLE
  6
SLD-Solid
370
    18
100
AcDbLine
 10
10.2204724409
 20
0.5
 30
0.0
 11
10.2204724409
 21
0.1653543307
 31
0.0
  0
LINE
  5
B9
330
1F
100
AcDbEntity
  8
TITLE
  6
SLD-Solid
370
    18
100
AcDbLine
 10
12.188976378
 20
35.5
 30
0.0
 11
12.188976378
 21
35.8346456693
 31
0.0
  0
LINE
  5
BA
330
1F
100
AcDbEntity
  8
TITLE
  6
SLD-Solid
370
    18
100
AcDbLine
 10
12.188976378
 20
0.5
 30
0.0
 11
12.188976378
 21
0.1653543307
 31
0.0
  0
LINE
  5
BB
330
1F
100
AcDbEntity
  8
TITLE
  6
SLD-Solid
370
    18
100
AcDbLine
 10
14.157480315
 20
35.5
 30
0.0
 11
14.157480315
 21
35.8346456693
 31
0.0
  0
LINE
  5
BC
330
1F
100
AcDbEntity
  8
TITLE
  6
SLD-Solid
370
    18
100
AcDbLine
 10
14.157480315
 20
0.5
 30
0.0
 11
14.157480315
 21
0.1653543307
 31
0.0
  0
LINE
  5
BD
330
1F
100
AcDbEntity
  8
TITLE
  6
SLD-Solid
370
    18
100
AcDbLine
 10
16.125984252
 20
35.5
 30
0.0
 11
16.125984252
 21
35.8346456693
 31
0.0
  0
LINE
  5
BE
330
1F
100
AcDbEntity
  8
TITLE
  6
SLD-Solid
370
    18
100
AcDbLine
 10
16.125984252
 20
0.5
 30
0.0
 11
16.125984252
 21
0.1653543307
 31
0.0
  0
LINE
  5
BF
330
1F
100
AcDbEntity
  8
TITLE
  6
SLD-Solid
370
    18
100
AcDbLine
 10
18.094488189
 20
35.5
 30
0.0
 11
18.094488189
 21
35.8346456693
 31
0.0
  0
LINE
  5
C0
330
1F
100
AcDbEntity
  8
TITLE
  6
SLD-Solid
370
    18
100
AcDbLine
 10
18.094488189
 20
0.5
 30
0.0
 11
18.094488189
 21
0.1653543307
 31
0.0
  0
LINE
  5
C1
330
1F
100
AcDbEntity
  8
TITLE
  6
SLD-Solid
370
    18
100
AcDbLine
 10
20.062992126
 20
35.5
 30
0.0
 11
20.062992126
 21
35.8346456693
 31
0.0
  0
LINE
  5
C2
330
1F
100
AcDbEntity
  8
TITLE
  6
SLD-Solid
370
    18
100
AcDbLine
 10
20.062992126
 20
0.5
 30
0.0
 11
20.062992126
 21
0.1653543307
 31
0.0
  0
LINE
  5
C3
330
1F
100
AcDbEntity
  8
TITLE
  6
SLD-Solid
370
    18
100
AcDbLine
 10
22.031496063
 20
35.5
 30
0.0
 11
22.031496063
 21
35.8346456693
 31
0.0
  0
LINE
  5
C4
330
1F
100
AcDbEntity
  8
TITLE
  6
SLD-Solid
370
    18
100
AcDbLine
 10
22.031496063
 20
0.5
 30
0.0
 11
22.031496063
 21
0.1653543307
 31
0.0
  0
LINE
  5
C5
330
1F
100
AcDbEntity
  8
TITLE
  6
SLD-Solid
370
    18
100
AcDbLine
 10
24.0
 20
35.5
 30
0.0
 11
24.0
 21
35.8346456693
 31
0.0
  0
LINE
  5
C6
330
1F
100
AcDbEntity
  8
TITLE
  6
SLD-Solid
370
    18
100
AcDbLine
 10
24.0
 20
0.5
 30
0.0
 11
24.0
 21
0.1653543307
 31
0.0
  0
LINE
  5
C7
330
1F
100
AcDbEntity
  8
TITLE
  6
SLD-Solid
370
    18
100
AcDbLine
 10
25.968503937
 20
35.5
 30
0.0
 11
25.968503937
 21
35.8346456693
 31
0.0
  0
LINE
  5
C8
330
1F
100
AcDbEntity
  8
TITLE
  6
SLD-Solid
370
    18
100
AcDbLine
 10
25.968503937
 20
0.5
 30
0.0
 11
25.968503937
 21
0.1653543307
 31
0.0
  0
LINE
  5
C9
330
1F
100
AcDbEntity
  8
TITLE
  6
SLD-Solid
370
    18
100
AcDbLine
 10
27.937007874
 20
35.5
 30
0.0
 11
27.937007874
 21
35.8346456693
 31
0.0
  0
LINE
  5
CA
330
1F
100
AcDbEntity
  8
TITLE
  6
SLD-Solid
370
    18
100
AcDbLine
 10
27.937007874
 20
0.5
 30
0.0
 11
27.937007874
 21
0.1653543307
 31
0.0
  0
LINE
  5
CB
330
1F
100
AcDbEntity
  8
TITLE
  6
SLD-Solid
370
    18
100
AcDbLine
 10
29.905511811
 20
35.5
 30
0.0
 11
29.905511811
 21
35.8346456693
 31
0.0
  0
LINE
  5
CC
330
1F
100
AcDbEntity
  8
TITLE
  6
SLD-Solid
370
    18
100
AcDbLine
 10
29.905511811
 20
0.5
 30
0.0
 11
29.905511811
 21
0.1653543307
 31
0.0
  0
LINE
  5
CD
330
1F
100
AcDbEntity
  8
TITLE
  6
SLD-Solid
370
    18
100
AcDbLine
 10
31.874015748
 20
35.5
 30
0.0
 11
31.874015748
 21
35.8346456693
 31
0.0
  0
LINE
  5
CE
330
1F
100
AcDbEntity
  8
TITLE
  6
SLD-Solid
370
    18
100
AcDbLine
 10
31.874015748
 20
0.5
 30
0.0
 11
31.874015748
 21
0.1653543307
 31
0.0
  0
LINE
  5
CF
330
1F
100
AcDbEntity
  8
TITLE
  6
SLD-Solid
370
    18
100
AcDbLine
 10
33.842519685
 20
35.5
 30
0.0
 11
33.842519685
 21
35.8346456693
 31
0.0
  0
LINE
  5
D0
330
1F
100
AcDbEntity
  8
TITLE
  6
SLD-Solid
370
    18
100
AcDbLine
 10
33.842519685
 20
0.5
 30
0.0
 11
33.842519685
 21
0.1653543307
 31
0.0
  0
LINE
  5
D1
330
1F
100
AcDbEntity
  8
TITLE
  6
SLD-Solid
370
    18
100
AcDbLine
 10
35.811023622
 20
35.5
 30
0.0
 11
35.811023622
 21
35.8346456693
 31
0.0
  0
LINE
  5
D2
330
1F
100
AcDbEntity
  8
TITLE
  6
SLD-Solid
370
    18
100
AcDbLine
 10
35.811023622
 20
0.5
 30
0.0
 11
35.811023622
 21
0.1653543307
 31
0.0
  0
LINE
  5
D3
330
1F
100
AcDbEntity
  8
TITLE
  6
SLD-Solid
370
    18
100
AcDbLine
 10
37.7795275591
 20
35.5
 30
0.0
 11
37.7795275591
 21
35.8346456693
 31
0.0
  0
LINE
  5
D4
330
1F
100
AcDbEntity
  8
TITLE
  6
SLD-Solid
370
    18
100
AcDbLine
 10
37.7795275591
 20
0.5
 30
0.0
 11
37.7795275591
 21
0.1653543307
 31
0.0
  0
LINE
  5
D5
330
1F
100
AcDbEntity
  8
TITLE
  6
SLD-Solid
370
    18
100
AcDbLine
 10
39.7480314961
 20
35.5
 30
0.0
 11
39.7480314961
 21
35.8346456693
 31
0.0
  0
LINE
  5
D6
330
1F
100
AcDbEntity
  8
TITLE
  6
SLD-Solid
370
    18
100
AcDbLine
 10
39.7480314961
 20
0.5
 30
0.0
 11
39.7480314961
 21
0.1653543307
 31
0.0
  0
LINE
  5
D7
330
1F
100
AcDbEntity
  8
TITLE
  6
SLD-Solid
370
    18
100
AcDbLine
 10
41.7165354331
 20
35.5
 30
0.0
 11
41.7165354331
 21
35.8346456693
 31
0.0
  0
LINE
  5
D8
330
1F
100
AcDbEntity
  8
TITLE
  6
SLD-Solid
370
    18
100
AcDbLine
 10
41.7165354331
 20
0.5
 30
0.0
 11
41.7165354331
 21
0.1653543307
 31
0.0
  0
LINE
  5
D9
330
1F
100
AcDbEntity
  8
TITLE
  6
SLD-Solid
370
    18
100
AcDbLine
 10
43.6850393701
 20
35.5
 30
0.0
 11
43.6850393701
 21
35.8346456693
 31
0.0
  0
LINE
  5
DA
330
1F
100
AcDbEntity
  8
TITLE
  6
SLD-Solid
370
    18
100
AcDbLine
 10
43.6850393701
 20
0.5
 30
0.0
 11
43.6850393701
 21
0.1653543307
 31
0.0
  0
LINE
  5
DB
330
1F
100
AcDbEntity
  8
TITLE
  6
SLD-Solid
370
    18
100
AcDbLine
 10
45.6535433071
 20
35.5
 30
0.0
 11
45.6535433071
 21
35.8346456693
 31
0.0
  0
LINE
  5
DC
330
1F
100
AcDbEntity
  8
TITLE
  6
SLD-Solid
370
    18
100
AcDbLine
 10
45.6535433071
 20
0.5
 30
0.0
 11
45.6535433071
 21
0.1653543307
 31
0.0
  0
MTEXT
  5
DE
330
1F
100
AcDbEntity
  8
NOTES
100
AcDbMText
 10
24.408297803
 20
1.0702903347
 30
0.0
 40
0.25
 41
0.0
 71
     1
 72
     1
  1
UNLESS OTHERWISE SPECIFIED DIMENSIONS ARE IN INCHES.
  7
SLDTEXTSTYLE0
 73
     1
 44
1.0
  0
MTEXT
  5
DF
330
1F
100
AcDbEntity
  8
NOTES
100
AcDbMText
 10
24.4368251132
 20
3.2193045501
 30
0.0
 40
0.25
 41
0.0
 71
     1
 72
     1
  1
DATE:
  7
SLDTEXTSTYLE0
 73
     1
 44
1.0
  0
MTEXT
  5
E0
330
1F
100
AcDbEntity
  8
NOTES
100
AcDbMText
 10
26.7130669976
 20
2.1722148141
 30
0.0
 40
0.25
 41
0.0
 71
     2
 72
     1
  1
DO NOT SCALE DRAWING
  7
SLDTEXTSTYLE0
 73
     1
 44
1.0
  0
MTEXT
  5
E2
330
1F
100
AcDbEntity
  8
NOTES
100
AcDbMText
 10
30.8307373075
 20
3.2682755553
 30
0.0
 40
0.25
 41
0.0
 71
     1
 72
     1
  1
TITLE:
  7
SLDTEXTSTYLE1
 73
     1
 44
1.0
  0
MTEXT
  5
E3
330
1F
100
AcDbEntity
  8
NOTES
100
AcDbMText
 10
38.1561831052
 20
3.2682755553
 30
0.0
 40
0.25
 41
0.0
 71
     1
 72
     1
  1
DWG NO.
  7
SLDTEXTSTYLE1
 73
     1
 44
1.0
  0
MTEXT
  5
E4
330
1F
100
AcDbEntity
  8
NOTES
100
AcDbMText
 10
38.1831753203
 20
1.0645815577
 30
0.0
 40
0.25
 41
0.0
 71
     1
 72
     1
  1
SCALE:     1:1
  7
SLDTEXTSTYLE1
 73
     1
 44
1.0
  0
MTEXT
  5
E5
330
1F
100
AcDbEntity
  8
NOTES
100
AcDbMText
 10
42.1807709205
 20
2.6510344295
 30
0.0
 40
0.25
 41
0.0
 71
     2
 72
     1
  1
712 CAD
  7
SLDTEXTSTYLE1
 73
     1
 44
1.0
  0
MTEXT
  5
E6
330
1F
100
AcDbEntity
  8
NOTES
100
AcDbMText
 10
33.9676846865
 20
2.6388861441
 30
0.0
 40
0.25
 41
0.0
 71
     2
 72
     1
  1
712 Soap Dispenser
  7
SLDTEXTSTYLE1
 73
     1
 44
1.0
  0
INSERT
  5
EC
330
1F
100
AcDbEntity
  8
NOTES
100
AcDbBlockReference
  2
SW_NOTE_0
 10
38.266131557
 20
4.6105227838
 30
0.0
  0
INSERT
  5
F6
330
1F
100
AcDbEntity
  8
NOTES
100
AcDbBlockReference
  2
SW_NOTE_0_1
 10
24.6159726246
 20
5.1481526848
 30
0.0
  0
MTEXT
  5
F7
330
1F
100
AcDbEntity
  8
NOTES
100
AcDbMText
 10
27.5199178859
 20
3.2135957731
 30
0.0
 40
0.25
 41
0.0
 71
     2
 72
     1
  1
September 2, 2021
  7
SLDTEXTSTYLE1
 73
     1
 44
1.0
  0
MTEXT
  5
F8
330
1F
100
AcDbEntity
  8
TITLE
100
AcDbMText
 10
0.3276279776
 20
1.4558621965
 30
0.0
 40
0.125
 41
0.0
 71
     2
 72
     1
  1
A
  7
SLDTEXTSTYLE1
 73
     1
 44
1.0
  0
MTEXT
  5
F9
330
1F
100
AcDbEntity
  8
TITLE
100
AcDbMText
 10
47.6622736469
 20
1.4558621965
 30
0.0
 40
0.125
 41
0.0
 71
     2
 72
     1
  1
A
  7
SLDTEXTSTYLE1
 73
     1
 44
1.0
  0
MTEXT
  5
FA
330
1F
100
AcDbEntity
  8
TITLE
100
AcDbMText
 10
0.3317512413
 20
3.316098417
 30
0.0
 40
0.125
 41
0.0
 71
     2
 72
     1
  1
B
  7
SLDTEXTSTYLE1
 73
     1
 44
1.0
  0
MTEXT
  5
FB
330
1F
100
AcDbEntity
  8
TITLE
100
AcDbMText
 10
47.6663969106
 20
3.316098417
 30
0.0
 40
0.125
 41
0.0
 71
     2
 72
     1
  1
B
  7
SLDTEXTSTYLE1
 73
     1
 44
1.0
  0
MTEXT
  5
FC
330
1F
100
AcDbEntity
  8
TITLE
100
AcDbMText
 10
0.3313750817
 20
5.284602354
 30
0.0
 40
0.125
 41
0.0
 71
     2
 72
     1
  1
C
  7
SLDTEXTSTYLE1
 73
     1
 44
1.0
  0
MTEXT
  5
FD
330
1F
100
AcDbEntity
  8
TITLE
100
AcDbMText
 10
47.666020751
 20
5.284602354
 30
0.0
 40
0.125
 41
0.0
 71
     2
 72
     1
  1
C
  7
SLDTEXTSTYLE1
 73
     1
 44
1.0
  0
MTEXT
  5
FE
330
1F
100
AcDbEntity
  8
TITLE
100
AcDbMText
 10
0.3311870028
 20
7.253106291
 30
0.0
 40
0.125
 41
0.0
 71
     2
 72
     1
  1
D
  7
SLDTEXTSTYLE1
 73
     1
 44
1.0
  0
MTEXT
  5
FF
330
1F
100
AcDbEntity
  8
TITLE
100
AcDbMText
 10
47.6658326721
 20
7.253106291
 30
0.0
 40
0.125
 41
0.0
 71
     2
 72
     1
  1
D
  7
SLDTEXTSTYLE1
 73
     1
 44
1.0
  0
MTEXT
  5
100
330
1F
100
AcDbEntity
  8
TITLE
100
AcDbMText
 10
0.332923116
 20
9.221610228
 30
0.0
 40
0.125
 41
0.0
 71
     2
 72
     1
  1
E
  7
SLDTEXTSTYLE1
 73
     1
 44
1.0
  0
MTEXT
  5
101
330
1F
100
AcDbEntity
  8
TITLE
100
AcDbMText
 10
47.6675687853
 20
9.221610228
 30
0.0
 40
0.125
 41
0.0
 71
     2
 72
     1
  1
E
  7
SLDTEXTSTYLE1
 73
     1
 44
1.0
  0
MTEXT
  5
102
330
1F
100
AcDbEntity
  8
TITLE
100
AcDbMText
 10
0.3313461474
 20
11.190114165
 30
0.0
 40
0.125
 41
0.0
 71
     2
 72
     1
  1
F
  7
SLDTEXTSTYLE1
 73
     1
 44
1.0
  0
MTEXT
  5
103
330
1F
100
AcDbEntity
  8
TITLE
100
AcDbMText
 10
47.6659918167
 20
11.190114165
 30
0.0
 40
0.125
 41
0.0
 71
     2
 72
     1
  1
F
  7
SLDTEXTSTYLE1
 73
     1
 44
1.0
  0
MTEXT
  5
104
330
1F
100
AcDbEntity
  8
TITLE
100
AcDbMText
 10
0.3322576054
 20
13.158618102
 30
0.0
 40
0.125
 41
0.0
 71
     2
 72
     1
  1
G
  7
SLDTEXTSTYLE1
 73
     1
 44
1.0
  0
MTEXT
  5
105
330
1F
100
AcDbEntity
  8
TITLE
100
AcDbMText
 10
47.6669032747
 20
13.158618102
 30
0.0
 40
0.125
 41
0.0
 71
     2
 72
     1
  1
G
  7
SLDTEXTSTYLE1
 73
     1
 44
1.0
  0
MTEXT
  5
106
330
1F
100
AcDbEntity
  8
TITLE
100
AcDbMText
 10
0.3323733457
 20
15.127122039
 30
0.0
 40
0.125
 41
0.0
 71
     2
 72
     1
  1
H
  7
SLDTEXTSTYLE1
 73
     1
 44
1.0
  0
MTEXT
  5
107
330
1F
100
AcDbEntity
  8
TITLE
100
AcDbMText
 10
47.667019015
 20
15.127122039
 30
0.0
 40
0.125
 41
0.0
 71
     2
 72
     1
  1
H
  7
SLDTEXTSTYLE1
 73
     1
 44
1.0
  0
MTEXT
  5
108
330
1F
100
AcDbEntity
  8
TITLE
100
AcDbMText
 10
0.3315776306
 20
17.095625976
 30
0.0
 40
0.125
 41
0.0
 71
     2
 72
     1
  1
J
  7
SLDTEXTSTYLE1
 73
     1
 44
1.0
  0
MTEXT
  5
109
330
1F
100
AcDbEntity
  8
TITLE
100
AcDbMText
 10
47.6662232999
 20
17.095625976
 30
0.0
 40
0.125
 41
0.0
 71
     2
 72
     1
  1
J
  7
SLDTEXTSTYLE1
 73
     1
 44
1.0
  0
MTEXT
  5
10A
330
1F
100
AcDbEntity
  8
TITLE
100
AcDbMText
 10
0.3323154765
 20
19.064129913
 30
0.0
 40
0.125
 41
0.0
 71
     2
 72
     1
  1
K
  7
SLDTEXTSTYLE1
 73
     1
 44
1.0
  0
MTEXT
  5
10B
330
1F
100
AcDbEntity
  8
TITLE
100
AcDbMText
 10
47.6669611458
 20
19.064129913
 30
0.0
 40
0.125
 41
0.0
 71
     2
 72
     1
  1
K
  7
SLDTEXTSTYLE1
 73
     1
 44
1.0
  0
MTEXT
  5
10C
330
1F
100
AcDbEntity
  8
TITLE
100
AcDbMText
 10
0.3312448739
 20
21.03263385
 30
0.0
 40
0.125
 41
0.0
 71
     2
 72
     1
  1
L
  7
SLDTEXTSTYLE1
 73
     1
 44
1.0
  0
MTEXT
  5
10D
330
1F
100
AcDbEntity
  8
TITLE
100
AcDbMText
 10
47.6658905432
 20
21.03263385
 30
0.0
 40
0.125
 41
0.0
 71
     2
 72
     1
  1
L
  7
SLDTEXTSTYLE1
 73
     1
 44
1.0
  0
MTEXT
  5
10E
330
1F
100
AcDbEntity
  8
TITLE
100
AcDbMText
 10
0.3283224192
 20
23.001137787
 30
0.0
 40
0.125
 41
0.0
 71
     2
 72
     1
  1
M
  7
SLDTEXTSTYLE1
 73
     1
 44
1.0
  0
MTEXT
  5
10F
330
1F
100
AcDbEntity
  8
TITLE
100
AcDbMText
 10
47.6629680885
 20
23.001137787
 30
0.0
 40
0.125
 41
0.0
 71
     2
 72
     1
  1
M
  7
SLDTEXTSTYLE1
 73
     1
 44
1.0
  0
MTEXT
  5
110
330
1F
100
AcDbEntity
  8
TITLE
100
AcDbMText
 10
0.3315342276
 20
24.969641724
 30
0.0
 40
0.125
 41
0.0
 71
     2
 72
     1
  1
N
  7
SLDTEXTSTYLE1
 73
     1
 44
1.0
  0
MTEXT
  5
111
330
1F
100
AcDbEntity
  8
TITLE
100
AcDbMText
 10
47.6661798969
 20
24.969641724
 30
0.0
 40
0.125
 41
0.0
 71
     2
 72
     1
  1
N
  7
SLDTEXTSTYLE1
 73
     1
 44
1.0
  0
MTEXT
  5
112
330
1F
100
AcDbEntity
  8
TITLE
100
AcDbMText
 10
0.3321997349
 20
26.9381456611
 30
0.0
 40
0.125
 41
0.0
 71
     2
 72
     1
  1
P
  7
SLDTEXTSTYLE1
 73
     1
 44
1.0
  0
MTEXT
  5
113
330
1F
100
AcDbEntity
  8
TITLE
100
AcDbMText
 10
47.6668454042
 20
26.9381456611
 30
0.0
 40
0.125
 41
0.0
 71
     2
 72
     1
  1
P
  7
SLDTEXTSTYLE1
 73
     1
 44
1.0
  0
MTEXT
  5
114
330
1F
100
AcDbEntity
  8
TITLE
100
AcDbMText
 10
0.3309265867
 20
28.9066495981
 30
0.0
 40
0.125
 41
0.0
 71
     2
 72
     1
  1
R
  7
SLDTEXTSTYLE1
 73
     1
 44
1.0
  0
MTEXT
  5
115
330
1F
100
AcDbEntity
  8
TITLE
100
AcDbMText
 10
47.665572256
 20
28.9066495981
 30
0.0
 40
0.125
 41
0.0
 71
     2
 72
     1
  1
R
  7
SLDTEXTSTYLE1
 73
     1
 44
1.0
  0
MTEXT
  5
116
330
1F
100
AcDbEntity
  8
TITLE
100
AcDbMText
 10
0.3323010071
 20
30.8751535351
 30
0.0
 40
0.125
 41
0.0
 71
     2
 72
     1
  1
T
  7
SLDTEXTSTYLE1
 73
     1
 44
1.0
  0
MTEXT
  5
117
330
1F
100
AcDbEntity
  8
TITLE
100
AcDbMText
 10
47.6669466764
 20
30.8751535351
 30
0.0
 40
0.125
 41
0.0
 71
     2
 72
     1
  1
T
  7
SLDTEXTSTYLE1
 73
     1
 44
1.0
  0
MTEXT
  5
118
330
1F
100
AcDbEntity
  8
TITLE
100
AcDbMText
 10
0.3328507755
 20
32.8436574721
 30
0.0
 40
0.125
 41
0.0
 71
     2
 72
     1
  1
U
  7
SLDTEXTSTYLE1
 73
     1
 44
1.0
  0
MTEXT
  5
119
330
1F
100
AcDbEntity
  8
TITLE
100
AcDbMText
 10
47.6674964448
 20
32.8436574721
 30
0.0
 40
0.125
 41
0.0
 71
     2
 72
     1
  1
U
  7
SLDTEXTSTYLE1
 73
     1
 44
1.0
  0
MTEXT
  5
11A
330
1F
100
AcDbEntity
  8
TITLE
100
AcDbMText
 10
0.3307529773
 20
34.7038936925
 30
0.0
 40
0.125
 41
0.0
 71
     2
 72
     1
  1
V
  7
SLDTEXTSTYLE1
 73
     1
 44
1.0
  0
MTEXT
  5
11B
330
1F
100
AcDbEntity
  8
TITLE
100
AcDbMText
 10
47.6653986466
 20
34.7038936925
 30
0.0
 40
0.125
 41
0.0
 71
     2
 72
     1
  1
V
  7
SLDTEXTSTYLE1
 73
     1
 44
1.0
  0
MTEXT
  5
11C
330
1F
100
AcDbEntity
  8
TITLE
100
AcDbMText
 10
1.4207109851
 20
0.4125551099
 30
0.0
 40
0.125
 41
0.0
 71
     2
 72
     1
  1
24
  7
SLDTEXTSTYLE1
 73
     1
 44
1.0
  0
MTEXT
  5
11D
330
1F
100
AcDbEntity
  8
TITLE
100
AcDbMText
 10
1.4207109851
 20
35.7472007792
 30
0.0
 40
0.125
 41
0.0
 71
     2
 72
     1
  1
24
  7
SLDTEXTSTYLE1
 73
     1
 44
1.0
  0
MTEXT
  5
11E
330
1F
100
AcDbEntity
  8
TITLE
100
AcDbMText
 10
3.3281913
 20
0.4125551099
 30
0.0
 40
0.125
 41
0.0
 71
     2
 72
     1
  1
23
  7
SLDTEXTSTYLE1
 73
     1
 44
1.0
  0
MTEXT
  5
11F
330
1F
100
AcDbEntity
  8
TITLE
100
AcDbMText
 10
3.3281913
 20
35.7472007792
 30
0.0
 40
0.125
 41
0.0
 71
     2
 72
     1
  1
23
  7
SLDTEXTSTYLE1
 73
     1
 44
1.0
  0
MTEXT
  5
120
330
1F
100
AcDbEntity
  8
TITLE
100
AcDbMText
 10
5.2966952371
 20
0.4125551099
 30
0.0
 40
0.125
 41
0.0
 71
     2
 72
     1
  1
22
  7
SLDTEXTSTYLE1
 73
     1
 44
1.0
  0
MTEXT
  5
121
330
1F
100
AcDbEntity
  8
TITLE
100
AcDbMText
 10
5.2966952371
 20
35.7472007792
 30
0.0
 40
0.125
 41
0.0
 71
     2
 72
     1
  1
22
  7
SLDTEXTSTYLE1
 73
     1
 44
1.0
  0
MTEXT
  5
122
330
1F
100
AcDbEntity
  8
TITLE
100
AcDbMText
 10
7.2651991741
 20
0.4125551099
 30
0.0
 40
0.125
 41
0.0
 71
     2
 72
     1
  1
21
  7
SLDTEXTSTYLE1
 73
     1
 44
1.0
  0
MTEXT
  5
123
330
1F
100
AcDbEntity
  8
TITLE
100
AcDbMText
 10
7.2651991741
 20
35.7472007792
 30
0.0
 40
0.125
 41
0.0
 71
     2
 72
     1
  1
21
  7
SLDTEXTSTYLE1
 73
     1
 44
1.0
  0
MTEXT
  5
124
330
1F
100
AcDbEntity
  8
TITLE
100
AcDbMText
 10
9.2337031111
 20
0.4125551099
 30
0.0
 40
0.125
 41
0.0
 71
     2
 72
     1
  1
20
  7
SLDTEXTSTYLE1
 73
     1
 44
1.0
  0
MTEXT
  5
125
330
1F
100
AcDbEntity
  8
TITLE
100
AcDbMText
 10
9.2337031111
 20
35.7472007792
 30
0.0
 40
0.125
 41
0.0
 71
     2
 72
     1
  1
20
  7
SLDTEXTSTYLE1
 73
     1
 44
1.0
  0
MTEXT
  5
126
330
1F
100
AcDbEntity
  8
TITLE
100
AcDbMText
 10
11.2022070481
 20
0.4125551099
 30
0.0
 40
0.125
 41
0.0
 71
     2
 72
     1
  1
19
  7
SLDTEXTSTYLE1
 73
     1
 44
1.0
  0
MTEXT
  5
127
330
1F
100
AcDbEntity
  8
TITLE
100
AcDbMText
 10
11.2022070481
 20
35.7472007792
 30
0.0
 40
0.125
 41
0.0
 71
     2
 72
     1
  1
19
  7
SLDTEXTSTYLE1
 73
     1
 44
1.0
  0
MTEXT
  5
128
330
1F
100
AcDbEntity
  8
TITLE
100
AcDbMText
 10
13.1707109851
 20
0.4125551099
 30
0.0
 40
0.125
 41
0.0
 71
     2
 72
     1
  1
18
  7
SLDTEXTSTYLE1
 73
     1
 44
1.0
  0
MTEXT
  5
129
330
1F
100
AcDbEntity
  8
TITLE
100
AcDbMText
 10
13.1707109851
 20
35.7472007792
 30
0.0
 40
0.125
 41
0.0
 71
     2
 72
     1
  1
18
  7
SLDTEXTSTYLE1
 73
     1
 44
1.0
  0
MTEXT
  5
12A
330
1F
100
AcDbEntity
  8
TITLE
100
AcDbMText
 10
15.1392149221
 20
0.4125551099
 30
0.0
 40
0.125
 41
0.0
 71
     2
 72
     1
  1
17
  7
SLDTEXTSTYLE1
 73
     1
 44
1.0
  0
MTEXT
  5
12B
330
1F
100
AcDbEntity
  8
TITLE
100
AcDbMText
 10
15.1392149221
 20
35.7472007792
 30
0.0
 40
0.125
 41
0.0
 71
     2
 72
     1
  1
17
  7
SLDTEXTSTYLE1
 73
     1
 44
1.0
  0
MTEXT
  5
12C
330
1F
100
AcDbEntity
  8
TITLE
100
AcDbMText
 10
17.1077188591
 20
0.4125551099
 30
0.0
 40
0.125
 41
0.0
 71
     2
 72
     1
  1
16
  7
SLDTEXTSTYLE1
 73
     1
 44
1.0
  0
MTEXT
  5
12D
330
1F
100
AcDbEntity
  8
TITLE
100
AcDbMText
 10
17.1077188591
 20
35.7472007792
 30
0.0
 40
0.125
 41
0.0
 71
     2
 72
     1
  1
16
  7
SLDTEXTSTYLE1
 73
     1
 44
1.0
  0
MTEXT
  5
12E
330
1F
100
AcDbEntity
  8
TITLE
100
AcDbMText
 10
19.0762227961
 20
0.4125551099
 30
0.0
 40
0.125
 41
0.0
 71
     2
 72
     1
  1
15
  7
SLDTEXTSTYLE1
 73
     1
 44
1.0
  0
MTEXT
  5
12F
330
1F
100
AcDbEntity
  8
TITLE
100
AcDbMText
 10
19.0762227961
 20
35.7472007792
 30
0.0
 40
0.125
 41
0.0
 71
     2
 72
     1
  1
15
  7
SLDTEXTSTYLE1
 73
     1
 44
1.0
  0
MTEXT
  5
130
330
1F
100
AcDbEntity
  8
TITLE
100
AcDbMText
 10
21.0447267331
 20
0.4125551099
 30
0.0
 40
0.125
 41
0.0
 71
     2
 72
     1
  1
14
  7
SLDTEXTSTYLE1
 73
     1
 44
1.0
  0
MTEXT
  5
131
330
1F
100
AcDbEntity
  8
TITLE
100
AcDbMText
 10
21.0447267331
 20
35.7472007792
 30
0.0
 40
0.125
 41
0.0
 71
     2
 72
     1
  1
14
  7
SLDTEXTSTYLE1
 73
     1
 44
1.0
  0
MTEXT
  5
132
330
1F
100
AcDbEntity
  8
TITLE
100
AcDbMText
 10
23.0132306701
 20
0.4125551099
 30
0.0
 40
0.125
 41
0.0
 71
     2
 72
     1
  1
13
  7
SLDTEXTSTYLE1
 73
     1
 44
1.0
  0
MTEXT
  5
133
330
1F
100
AcDbEntity
  8
TITLE
100
AcDbMText
 10
23.0132306701
 20
35.7472007792
 30
0.0
 40
0.125
 41
0.0
 71
     2
 72
     1
  1
13
  7
SLDTEXTSTYLE1
 73
     1
 44
1.0
  0
MTEXT
  5
134
330
1F
100
AcDbEntity
  8
TITLE
100
AcDbMText
 10
24.9817346071
 20
0.4125551099
 30
0.0
 40
0.125
 41
0.0
 71
     2
 72
     1
  1
12
  7
SLDTEXTSTYLE1
 73
     1
 44
1.0
  0
MTEXT
  5
135
330
1F
100
AcDbEntity
  8
TITLE
100
AcDbMText
 10
24.9817346071
 20
35.7472007792
 30
0.0
 40
0.125
 41
0.0
 71
     2
 72
     1
  1
12
  7
SLDTEXTSTYLE1
 73
     1
 44
1.0
  0
MTEXT
  5
136
330
1F
100
AcDbEntity
  8
TITLE
100
AcDbMText
 10
26.9502385441
 20
0.4125551099
 30
0.0
 40
0.125
 41
0.0
 71
     2
 72
     1
  1
11
  7
SLDTEXTSTYLE1
 73
     1
 44
1.0
  0
MTEXT
  5
137
330
1F
100
AcDbEntity
  8
TITLE
100
AcDbMText
 10
26.9502385441
 20
35.7472007792
 30
0.0
 40
0.125
 41
0.0
 71
     2
 72
     1
  1
11
  7
SLDTEXTSTYLE1
 73
     1
 44
1.0
  0
MTEXT
  5
138
330
1F
100
AcDbEntity
  8
TITLE
100
AcDbMText
 10
28.9187424811
 20
0.4125551099
 30
0.0
 40
0.125
 41
0.0
 71
     2
 72
     1
  1
10
  7
SLDTEXTSTYLE1
 73
     1
 44
1.0
  0
MTEXT
  5
139
330
1F
100
AcDbEntity
  8
TITLE
100
AcDbMText
 10
28.9187424811
 20
35.7472007792
 30
0.0
 40
0.125
 41
0.0
 71
     2
 72
     1
  1
10
  7
SLDTEXTSTYLE1
 73
     1
 44
1.0
  0
MTEXT
  5
13A
330
1F
100
AcDbEntity
  8
TITLE
100
AcDbMText
 10
30.8885050988
 20
0.4125551099
 30
0.0
 40
0.125
 41
0.0
 71
     2
 72
     1
  1
9
  7
SLDTEXTSTYLE1
 73
     1
 44
1.0
  0
MTEXT
  5
13B
330
1F
100
AcDbEntity
  8
TITLE
100
AcDbMText
 10
30.8885050988
 20
35.7472007792
 30
0.0
 40
0.125
 41
0.0
 71
     2
 72
     1
  1
9
  7
SLDTEXTSTYLE1
 73
     1
 44
1.0
  0
MTEXT
  5
13C
330
1F
100
AcDbEntity
  8
TITLE
100
AcDbMText
 10
32.8570090359
 20
0.4125551099
 30
0.0
 40
0.125
 41
0.0
 71
     2
 72
     1
  1
8
  7
SLDTEXTSTYLE1
 73
     1
 44
1.0
  0
MTEXT
  5
13D
330
1F
100
AcDbEntity
  8
TITLE
100
AcDbMText
 10
32.8570090359
 20
35.7472007792
 30
0.0
 40
0.125
 41
0.0
 71
     2
 72
     1
  1
8
  7
SLDTEXTSTYLE1
 73
     1
 44
1.0
  0
MTEXT
  5
13E
330
1F
100
AcDbEntity
  8
TITLE
100
AcDbMText
 10
34.8255129729
 20
0.4125551099
 30
0.0
 40
0.125
 41
0.0
 71
     2
 72
     1
  1
7
  7
SLDTEXTSTYLE1
 73
     1
 44
1.0
  0
MTEXT
  5
13F
330
1F
100
AcDbEntity
  8
TITLE
100
AcDbMText
 10
34.8255129729
 20
35.7472007792
 30
0.0
 40
0.125
 41
0.0
 71
     2
 72
     1
  1
7
  7
SLDTEXTSTYLE1
 73
     1
 44
1.0
  0
MTEXT
  5
140
330
1F
100
AcDbEntity
  8
TITLE
100
AcDbMText
 10
36.7940169099
 20
0.4125551099
 30
0.0
 40
0.125
 41
0.0
 71
     2
 72
     1
  1
6
  7
SLDTEXTSTYLE1
 73
     1
 44
1.0
  0
MTEXT
  5
141
330
1F
100
AcDbEntity
  8
TITLE
100
AcDbMText
 10
36.7940169099
 20
35.7472007792
 30
0.0
 40
0.125
 41
0.0
 71
     2
 72
     1
  1
6
  7
SLDTEXTSTYLE1
 73
     1
 44
1.0
  0
MTEXT
  5
142
330
1F
100
AcDbEntity
  8
TITLE
100
AcDbMText
 10
38.7625208469
 20
0.4125551099
 30
0.0
 40
0.125
 41
0.0
 71
     2
 72
     1
  1
5
  7
SLDTEXTSTYLE1
 73
     1
 44
1.0
  0
MTEXT
  5
143
330
1F
100
AcDbEntity
  8
TITLE
100
AcDbMText
 10
38.7625208469
 20
35.7472007792
 30
0.0
 40
0.125
 41
0.0
 71
     2
 72
     1
  1
5
  7
SLDTEXTSTYLE1
 73
     1
 44
1.0
  0
MTEXT
  5
144
330
1F
100
AcDbEntity
  8
TITLE
100
AcDbMText
 10
40.7310247839
 20
0.4125551099
 30
0.0
 40
0.125
 41
0.0
 71
     2
 72
     1
  1
4
  7
SLDTEXTSTYLE1
 73
     1
 44
1.0
  0
MTEXT
  5
145
330
1F
100
AcDbEntity
  8
TITLE
100
AcDbMText
 10
40.7310247839
 20
35.7472007792
 30
0.0
 40
0.125
 41
0.0
 71
     2
 72
     1
  1
4
  7
SLDTEXTSTYLE1
 73
     1
 44
1.0
  0
MTEXT
  5
146
330
1F
100
AcDbEntity
  8
TITLE
100
AcDbMText
 10
42.6995287209
 20
0.4125551099
 30
0.0
 40
0.125
 41
0.0
 71
     2
 72
     1
  1
3
  7
SLDTEXTSTYLE1
 73
     1
 44
1.0
  0
MTEXT
  5
147
330
1F
100
AcDbEntity
  8
TITLE
100
AcDbMText
 10
42.6995287209
 20
35.7472007792
 30
0.0
 40
0.125
 41
0.0
 71
     2
 72
     1
  1
3
  7
SLDTEXTSTYLE1
 73
     1
 44
1.0
  0
MTEXT
  5
148
330
1F
100
AcDbEntity
  8
TITLE
100
AcDbMText
 10
44.6680326579
 20
0.4125551099
 30
0.0
 40
0.125
 41
0.0
 71
     2
 72
     1
  1
2
  7
SLDTEXTSTYLE1
 73
     1
 44
1.0
  0
MTEXT
  5
149
330
1F
100
AcDbEntity
  8
TITLE
100
AcDbMText
 10
44.6680326579
 20
35.7472007792
 30
0.0
 40
0.125
 41
0.0
 71
     2
 72
     1
  1
2
  7
SLDTEXTSTYLE1
 73
     1
 44
1.0
  0
MTEXT
  5
14A
330
1F
100
AcDbEntity
  8
TITLE
100
AcDbMText
 10
46.5755129729
 20
0.4125551099
 30
0.0
 40
0.125
 41
0.0
 71
     2
 72
     1
  1
1
  7
SLDTEXTSTYLE1
 73
     1
 44
1.0
  0
MTEXT
  5
14B
330
1F
100
AcDbEntity
  8
TITLE
100
AcDbMText
 10
46.5755129729
 20
35.7472007792
 30
0.0
 40
0.125
 41
0.0
 71
     2
 72
     1
  1
1
  7
SLDTEXTSTYLE1
 73
     1
 44
1.0
  0
ARC
  5
14C
330
1F
100
AcDbEntity
  8
0
  6
SLD-Solid
 62
     7
370
    25
100
AcDbCircle
 10
7.4411327343
 20
11.4996136891
 30
0.0
 40
0.2000000000000011
100
AcDbArc
 50
180.0
 51
270.0
  0
ARC
  5
14D
330
1F
100
AcDbEntity
  8
0
  6
SLD-Solid
 62
     7
370
    25
100
AcDbCircle
 10
10.4611327343
 20
11.4996136891
 30
0.0
 40
0.2000000000000011
100
AcDbArc
 50
270.0
 51
0.0
  0
ARC
  5
14E
330
1F
100
AcDbEntity
  8
0
  6
SLD-Solid
 62
     7
370
    25
100
AcDbCircle
 10
10.4611327343
 20
15.3602352731
 30
0.0
 40
0.1999999999999993
100
AcDbArc
 50
0.0
 51
69.6928815087
  0
ARC
  5
14F
330
1F
100
AcDbEntity
  8
0
  6
SLD-Solid
 62
     7
370
    25
100
AcDbCircle
 10
7.4411327343
 20
15.3602352731
 30
0.0
 40
0.2000000000000002
100
AcDbArc
 50
110.3071184913
 51
180.0
  0
LINE
  5
150
330
1F
100
AcDbEntity
  8
0
  6
SLD-Solid
 62
     7
370
    25
100
AcDbLine
 10
7.2411327343
 20
15.3602352731
 30
0.0
 11
7.2411327343
 21
11.4996136891
 31
0.0
  0
LINE
  5
151
330
1F
100
AcDbEntity
  8
0
  6
SLD-Solid
 62
     7
370
    25
100
AcDbLine
 10
10.6611327343
 20
11.4996136891
 30
0.0
 11
10.6611327343
 21
15.3602352731
 31
0.0
  0
LINE
  5
152
330
1F
100
AcDbEntity
  8
0
  6
SLD-Solid
 62
     7
370
    25
100
AcDbLine
 10
7.2461327343
 20
17.5096136891
 30
0.0
 11
7.4261327343
 21
15.5679391541
 31
0.0
  0
LINE
  5
153
330
1F
100
AcDbEntity
  8
0
  6
SLD-Solid
 62
     7
370
    25
100
AcDbLine
 10
10.4761327343
 20
15.5679391541
 30
0.0
 11
10.6561327343
 21
17.5096136891
 31
0.0
  0
LINE
  5
154
330
1F
100
AcDbEntity
  8
0
  6
SLD-Solid
 62
     7
370
    25
100
AcDbLine
 10
10.6561327343
 20
17.5096136891
 30
0.0
 11
9.7161327343
 21
18.4086136891
 31
0.0
  0
LINE
  5
155
330
1F
100
AcDbEntity
  8
0
  6
SLD-Solid
 62
     7
370
    25
100
AcDbLine
 10
8.1861327343
 20
18.4086136891
 30
0.0
 11
7.2461327343
 21
17.5096136891
 31
0.0
  0
LINE
  5
156
330
1F
100
AcDbEntity
  8
0
  6
SLD-Solid
 62
     7
370
    25
100
AcDbLine
 10
10.5305431689
 20
15.5478044378
 30
0.0
 11
10.4761327343
 21
15.5679391541
 31
0.0
  0
LINE
  5
157
330
1F
100
AcDbEntity
  8
0
  6
SLD-Solid
 62
     7
370
    25
100
AcDbLine
 10
7.4261327343
 20
15.5679391541
 30
0.0
 11
7.3717222996
 21
15.5478044378
 31
0.0
  0
ARC
  5
158
330
1F
100
AcDbEntity
  8
0
  6
SLD-Solid
 62
     7
370
    25
100
AcDbCircle
 10
9.9057857636
 20
23.4536136891
 30
0.0
 40
0.0299999999999994
100
AcDbArc
 50
270.0
 51
23.0254920085
  0
ARC
  5
159
330
1F
100
AcDbEntity
  8
0
  6
SLD-Solid
 62
     7
370
    25
100
AcDbCircle
 10
7.996479705
 20
23.4536136891
 30
0.0
 40
0.0300000000000002
100
AcDbArc
 50
156.9745079915
 51
270.0
  0
LINE
  5
15A
330
1F
100
AcDbEntity
  8
0
  6
SLD-Solid
 62
     7
370
    25
100
AcDbLine
 10
9.9333956911
 20
23.4653479084
 30
0.0
 11
9.5338956911
 21
24.4053479084
 31
0.0
  0
LINE
  5
15B
330
1F
100
AcDbEntity
  8
0
  6
SLD-Solid
 62
     7
370
    25
100
AcDbLine
 10
8.3683697775
 20
24.4053479084
 30
0.0
 11
7.9688697775
 21
23.4653479084
 31
0.0
  0
LINE
  5
15C
330
1F
100
AcDbEntity
  8
0
  6
SLD-Solid
 62
     7
370
    25
100
AcDbLine
 10
8.0461327343
 20
19.1866136891
 30
0.0
 11
8.0461327343
 21
18.5086136891
 31
0.0
  0
LINE
  5
15D
330
1F
100
AcDbEntity
  8
0
  6
SLD-Solid
 62
     7
370
    25
100
AcDbLine
 10
9.8561327343
 20
18.5086136891
 30
0.0
 11
9.8561327343
 21
19.1866136891
 31
0.0
  0
LINE
  5
15E
330
1F
100
AcDbEntity
  8
0
  6
SLD-Solid
 62
     7
370
    25
100
AcDbLine
 10
8.1861327343
 20
18.5086136891
 30
0.0
 11
8.1861327343
 21
18.4086136891
 31
0.0
  0
LINE
  5
15F
330
1F
100
AcDbEntity
  8
0
  6
SLD-Solid
 62
     7
370
    25
100
AcDbLine
 10
9.7161327343
 20
18.4086136891
 30
0.0
 11
9.7161327343
 21
18.5086136891
 31
0.0
  0
ARC
  5
160
330
1F
100
AcDbEntity
  8
0
  6
SLD-Solid
 62
     7
370
    25
100
AcDbCircle
 10
8.395979705
 20
24.3936136891
 30
0.0
 40
0.0300000000000011
100
AcDbArc
 50
90.0
 51
156.9745079915
  0
ARC
  5
161
330
1F
100
AcDbEntity
  8
0
  6
SLD-Solid
 62
     7
370
    25
100
AcDbCircle
 10
9.5062857636
 20
24.3936136891
 30
0.0
 40
0.0300000000000011
100
AcDbArc
 50
23.0254920085
 51
90.0
  0
LINE
  5
162
330
1F
100
AcDbEntity
  8
0
  6
SLD-Solid
 62
     7
370
    25
100
AcDbLine
 10
8.3961327343
 20
19.4996136891
 30
0.0
 11
8.3961327343
 21
19.1866136891
 31
0.0
  0
LINE
  5
163
330
1F
100
AcDbEntity
  8
0
  6
SLD-Solid
 62
     7
370
    25
100
AcDbLine
 10
9.5061327343
 20
19.1866136891
 30
0.0
 11
9.5061327343
 21
19.4996136891
 31
0.0
  0
ARC
  5
164
330
1F
100
AcDbEntity
  8
0
  6
SLD-Solid
 62
     7
370
    25
100
AcDbCircle
 10
8.4959519584
 20
25.3563153964
 30
0.0
 40
0.0299999999999996
100
AcDbArc
 50
168.0819228728
 51
250.9229086802
  0
ARC
  5
165
330
1F
100
AcDbEntity
  8
0
  6
SLD-Solid
 62
     7
370
    25
100
AcDbCircle
 10
9.4063135101
 20
25.3563153964
 30
0.0
 40
0.0299999999999996
100
AcDbArc
 50
289.0770913198
 51
11.9180771272
  0
LINE
  5
166
330
1F
100
AcDbEntity
  8
0
  6
SLD-Solid
 62
     7
370
    25
100
AcDbLine
 10
9.3381268116
 20
25.824648647
 30
0.0
 11
9.3011569976
 21
25.9998090761
 31
0.0
  0
LINE
  5
167
330
1F
100
AcDbEntity
  8
0
  6
SLD-Solid
 62
     7
370
    25
100
AcDbLine
 10
9.4356668265
 20
25.3625107834
 30
0.0
 11
9.413398261
 21
25.468017711
 31
0.0
  0
LINE
  5
168
330
1F
100
AcDbEntity
  8
0
  6
SLD-Solid
 62
     7
370
    25
100
AcDbLine
 10
8.601108471
 20
25.9998090761
 30
0.0
 11
8.4665986421
 21
25.3625107834
 31
0.0
  0
LINE
  5
169
330
1F
100
AcDbEntity
  8
0
  6
SLD-Solid
 62
     7
370
    25
100
AcDbLine
 10
8.4861467569
 20
25.3279630063
 30
0.0
 11
8.7011327343
 21
25.2536136891
 31
0.0
  0
LINE
  5
16A
330
1F
100
AcDbEntity
  8
0
  6
SLD-Solid
 62
     7
370
    25
100
AcDbLine
 10
9.2011327343
 20
25.2536136891
 30
0.0
 11
9.4161187117
 21
25.3279630063
 31
0.0
  0
LINE
  5
16B
330
1F
100
AcDbEntity
  8
0
  6
SLD-Solid
 62
     7
370
    25
100
AcDbLine
 10
9.3596327343
 20
19.7396136891
 30
0.0
 11
9.3596327343
 21
20.3396136891
 31
0.0
  0
LINE
  5
16C
330
1F
100
AcDbEntity
  8
0
  6
SLD-Solid
 62
     7
370
    25
100
AcDbLine
 10
8.5426327343
 20
20.3396136891
 30
0.0
 11
8.5426327343
 21
19.7396136891
 31
0.0
  0
LINE
  5
16D
330
1F
100
AcDbEntity
  8
0
  6
SLD-Solid
 62
     7
370
    25
100
AcDbLine
 10
9.3596327343
 20
20.3396136891
 30
0.0
 11
9.3196327343
 21
20.3796136891
 31
0.0
  0
LINE
  5
16E
330
1F
100
AcDbEntity
  8
0
  6
SLD-Solid
 62
     7
370
    25
100
AcDbLine
 10
8.5826327343
 20
20.3796136891
 30
0.0
 11
8.5426327343
 21
20.3396136891
 31
0.0
  0
LINE
  5
16F
330
1F
100
AcDbEntity
  8
0
  6
SLD-Solid
 62
     7
370
    25
100
AcDbLine
 10
8.5431327343
 20
20.5856136891
 30
0.0
 11
8.5831327343
 21
20.5456136891
 31
0.0
  0
LINE
  5
170
330
1F
100
AcDbEntity
  8
0
  6
SLD-Solid
 62
     7
370
    25
100
AcDbLine
 10
9.3191327343
 20
20.5456136891
 30
0.0
 11
9.3591327343
 21
20.5856136891
 31
0.0
  0
LINE
  5
171
330
1F
100
AcDbEntity
  8
0
  6
SLD-Solid
 62
     7
370
    25
100
AcDbLine
 10
9.3591327343
 20
20.5856136891
 30
0.0
 11
9.3591327343
 21
21.8536136891
 31
0.0
  0
LINE
  5
172
330
1F
100
AcDbEntity
  8
0
  6
SLD-Solid
 62
     7
370
    25
100
AcDbLine
 10
9.3591327343
 20
22.4686136891
 30
0.0
 11
9.3591327343
 21
23.3556136891
 31
0.0
  0
LINE
  5
173
330
1F
100
AcDbEntity
  8
0
  6
SLD-Solid
 62
     7
370
    25
100
AcDbLine
 10
8.5431327343
 20
23.3556136891
 30
0.0
 11
8.5431327343
 21
22.4686136891
 31
0.0
  0
LINE
  5
174
330
1F
100
AcDbEntity
  8
0
  6
SLD-Solid
 62
     7
370
    25
100
AcDbLine
 10
8.5431327343
 20
21.8536136891
 30
0.0
 11
8.5431327343
 21
20.5856136891
 31
0.0
  0
ARC
  5
175
330
1F
100
AcDbEntity
  8
0
  6
SLD-Solid
 62
     7
370
    25
100
AcDbCircle
 10
8.6304617873
 20
25.9936136891
 30
0.0
 40
0.0300000000000011
100
AcDbArc
 50
90.0
 51
168.0819228728
  0
ARC
  5
176
330
1F
100
AcDbEntity
  8
0
  6
SLD-Solid
 62
     7
370
    25
100
AcDbCircle
 10
9.2718036813
 20
25.9936136891
 30
0.0
 40
0.0300000000000011
100
AcDbArc
 50
11.9180771272
 51
90.0
  0
LINE
  5
177
330
1F
100
AcDbEntity
  8
0
  6
SLD-Solid
 62
     7
370
    25
100
AcDbLine
 10
9.2955312778
 20
20.3796136891
 30
0.0
 11
9.2955312778
 21
20.5456136891
 31
0.0
  0
LINE
  5
178
330
1F
100
AcDbEntity
  8
0
  6
SLD-Solid
 62
     7
370
    25
100
AcDbLine
 10
8.6067341908
 20
20.5456136891
 30
0.0
 11
8.6067341908
 21
20.3796136891
 31
0.0
  0
LINE
  5
179
330
1F
100
AcDbEntity
  8
0
  6
SLD-Solid
 62
     7
370
    25
100
AcDbLine
 10
9.2011327343
 20
24.4236136891
 30
0.0
 11
9.2011327343
 21
25.2536136891
 31
0.0
  0
LINE
  5
17A
330
1F
100
AcDbEntity
  8
0
  6
SLD-Solid
 62
     7
370
    25
100
AcDbLine
 10
8.7011327343
 20
25.2536136891
 30
0.0
 11
8.7011327343
 21
24.4236136891
 31
0.0
  0
SPLINE
  5
17B
330
1F
100
AcDbEntity
  8
0
  6
SLD-Solid
 62
     7
370
    25
100
AcDbSpline
210
0.0
220
0.0
230
1.0
 70
     8
 71
     3
 72
    19
 73
    15
 74
     0
 42
0.00000001
 43
0.00000001
 40
0.0
 40
0.0
 40
0.0
 40
0.0
 40
0.0890689265443942
 40
0.1572711908403347
 40
0.2199153559532883
 40
0.2781585673025326
 40
0.3722058375942377
 40
0.4402926251899804
 40
0.5278172361939201
 40
0.6421385284770713
 40
0.7118185314234025
 40
0.793579724419623
 40
0.8897290476284595
 40
1.0
 40
1.0
 40
1.0
 40
1.0
 10
11.45113273428917
 20
25.76604173937999
 30
0.0
 10
11.47537209925467
 20
25.76965690489723
 30
0.0
 10
11.5181721412136
 20
25.77604029142764
 30
0.0
 10
11.57852386225776
 20
25.78129171918945
 30
0.0
 10
11.63061692918488
 20
25.78067141023394
 30
0.0
 10
11.6895791585309
 20
25.77578341739219
 30
0.0
 10
11.74950137854213
 20
25.76567276606108
 30
0.0
 10
11.81587060356213
 20
25.7477028205994
 30
0.0
 10
11.88576282141129
 20
25.72240425637569
 30
0.0
 10
11.95365351536276
 20
25.69064415985252
 30
0.0
 10
12.01523284199217
 20
25.65092153220073
 30
0.0
 10
12.06756722948756
 20
25.60706892269212
 30
0.0
 10
12.12263411243978
 20
25.54978841983354
 30
0.0
 10
12.15744264706052
 20
25.50487367535403
 30
0.0
 10
12.17603757555044
 20
25.4808799487913
 30
0.0
  0
SPLINE
  5
17C
330
1F
100
AcDbEntity
  8
0
  6
SLD-Solid
 62
     7
370
    25
100
AcDbSpline
210
0.0
220
0.0
230
1.0
 70
     8
 71
     3
 72
    18
 73
    14
 74
     0
 42
0.00000001
 43
0.00000001
 40
0.0
 40
0.0
 40
0.0
 40
0.0
 40
0.1438038526412993
 40
0.2696365014826332
 40
0.3392065451834268
 40
0.3943756243472413
 40
0.4419990226484693
 40
0.5366068871718501
 40
0.6597783777011832
 40
0.7324603732283679
 40
0.8150858384771762
 40
0.9086016720565735
 40
1.0
 40
1.0
 40
1.0
 40
1.0
 10
12.47439750211539
 20
25.70732053975317
 30
0.0
 10
12.43886297678845
 20
25.75038130713733
 30
0.0
 10
12.3722346847433
 20
25.83112152692535
 30
0.0
 10
12.27029289853714
 20
25.91505439623574
 30
0.0
 10
12.19068416794042
 20
25.97059702740852
 30
0.0
 10
12.13355050660927
 20
26.00524293868492
 30
0.0
 10
12.06606337802301
 20
26.04126280144722
 30
0.0
 10
11.97149737155029
 20
26.08209259187931
 30
0.0
 10
11.86351596166242
 20
26.11481932329692
 30
0.0
 10
11.75755072072382
 20
26.13564158785263
 30
0.0
 10
11.66153811856512
 20
26.1453231982513
 30
0.0
 10
11.55767943297543
 20
26.14706019942481
 30
0.0
 10
11.48637612892047
 20
26.13968641293982
 30
0.0
 10
11.45113273428917
 20
26.13604173937999
 30
0.0
  0
LINE
  5
17D
330
1F
100
AcDbEntity
  8
0
  6
SLD-Solid
 62
     7
370
    25
100
AcDbLine
 10
12.1760375756
 20
25.4808799488
 30
0.0
 11
12.4839170526
 21
25.0834111848
 31
0.0
  0
LINE
  5
17E
330
1F
100
AcDbEntity
  8
0
  6
SLD-Solid
 62
     7
370
    25
100
AcDbLine
 10
12.7800165399
 20
25.3127699762
 30
0.0
 11
12.4743975021
 21
25.7073205398
 31
0.0
  0
LINE
  5
17F
330
1F
100
AcDbEntity
  8
0
  6
SLD-Solid
 62
     7
370
    25
100
AcDbLine
 10
9.4138642162
 20
25.4658100472
 30
0.0
 11
11.451518292
 21
25.7660985589
 31
0.0
  0
LINE
  5
180
330
1F
100
AcDbEntity
  8
0
  6
SLD-Solid
 62
     7
370
    25
100
AcDbLine
 10
11.450978872
 20
26.1360190647
 30
0.0
 11
9.3381268116
 21
25.824648647
 31
0.0
  0
LINE
  5
181
330
1F
100
AcDbEntity
  8
0
  6
SLD-Solid
 62
     7
370
    25
100
AcDbLine
 10
9.9011327343
 20
23.3556136891
 30
0.0
 11
9.9011327343
 21
23.4236136891
 31
0.0
  0
LINE
  5
182
330
1F
100
AcDbEntity
  8
0
  6
SLD-Solid
 62
     7
370
    25
100
AcDbLine
 10
8.0011327343
 20
23.4236136891
 30
0.0
 11
8.0011327343
 21
23.3556136891
 31
0.0
  0
LINE
  5
183
330
1F
100
AcDbEntity
  8
0
  6
SLD-Solid
 62
     7
370
    25
100
AcDbLine
 10
7.9511327343
 20
22.4686136891
 30
0.0
 11
7.9511327343
 21
22.4236136891
 31
0.0
  0
LINE
  5
184
330
1F
100
AcDbEntity
  8
0
  6
SLD-Solid
 62
     7
370
    25
100
AcDbLine
 10
9.9511327343
 20
22.4236136891
 30
0.0
 11
9.9511327343
 21
22.4686136891
 31
0.0
  0
LINE
  5
185
330
1F
100
AcDbEntity
  8
0
  6
SLD-Solid
 62
     7
370
    25
100
AcDbLine
 10
9.8461327343
 20
22.2456136891
 30
0.0
 11
9.8461327343
 21
22.4236136891
 31
0.0
  0
LINE
  5
186
330
1F
100
AcDbEntity
  8
0
  6
SLD-Solid
 62
     7
370
    25
100
AcDbLine
 10
8.0561327343
 20
22.4236136891
 30
0.0
 11
8.0561327343
 21
22.2456136891
 31
0.0
  0
LINE
  5
187
330
1F
100
AcDbEntity
  8
0
  6
SLD-Solid
 62
     7
370
    25
100
AcDbLine
 10
9.6191327343
 20
22.1336136891
 30
0.0
 11
9.6191327343
 21
22.2456136891
 31
0.0
  0
LINE
  5
188
330
1F
100
AcDbEntity
  8
0
  6
SLD-Solid
 62
     7
370
    25
100
AcDbLine
 10
9.4861327343
 20
21.8536136891
 30
0.0
 11
9.4861327343
 21
22.1336136891
 31
0.0
  0
LINE
  5
189
330
1F
100
AcDbEntity
  8
0
  6
SLD-Solid
 62
     7
370
    25
100
AcDbLine
 10
8.4161327343
 20
21.9256136891
 30
0.0
 11
8.4161327343
 21
21.8536136891
 31
0.0
  0
LINE
  5
18A
330
1F
100
AcDbEntity
  8
0
  6
SLD-Solid
 62
     7
370
    25
100
AcDbLine
 10
12.186790828
 20
23.1879097818
 30
0.0
 11
12.186790828
 21
23.3556136891
 31
0.0
  0
LINE
  5
18B
330
1F
100
AcDbEntity
  8
0
  6
SLD-Solid
 62
     7
370
    25
100
AcDbLine
 10
12.186790828
 20
23.3556136891
 30
0.0
 11
9.8990745838
 21
23.3556136891
 31
0.0
  0
LINE
  5
18C
330
1F
100
AcDbEntity
  8
0
  6
SLD-Solid
 62
     7
370
    25
100
AcDbLine
 10
12.3233068594
 20
23.0500027736
 30
0.0
 11
12.186790828
 21
23.1879097818
 31
0.0
  0
LINE
  5
18D
330
1F
100
AcDbEntity
  8
0
  6
SLD-Solid
 62
     7
370
    25
100
AcDbLine
 10
12.186790828
 20
22.4686136891
 30
0.0
 11
12.186790828
 21
22.647297889
 31
0.0
  0
LINE
  5
18E
330
1F
100
AcDbEntity
  8
0
  6
SLD-Solid
 62
     7
370
    25
100
AcDbLine
 10
9.3886327343
 20
23.3556136891
 30
0.0
 11
9.3886327343
 21
22.4686136891
 31
0.0
  0
LINE
  5
18F
330
1F
100
AcDbEntity
  8
0
  6
SLD-Solid
 62
     7
370
    25
100
AcDbLine
 10
12.0502747966
 20
22.7797246046
 30
0.0
 11
12.3233068594
 21
23.0500027736
 31
0.0
  0
LINE
  5
190
330
1F
100
AcDbEntity
  8
0
  6
SLD-Solid
 62
     7
370
    25
100
AcDbLine
 10
12.186790828
 20
22.647297889
 30
0.0
 11
12.0502747966
 21
22.7797246046
 31
0.0
  0
LINE
  5
191
330
1F
100
AcDbEntity
  8
0
  6
SLD-Solid
 62
     7
370
    25
100
AcDbLine
 10
9.9491776982
 20
22.4686136891
 30
0.0
 11
12.186790828
 21
22.4686136891
 31
0.0
  0
LINE
  5
192
330
1F
100
AcDbEntity
  8
0
  6
SLD-Solid
 62
     7
370
    25
100
AcDbLine
 10
5.5789586092
 20
22.7797246046
 30
0.0
 11
5.7154746406
 21
22.647297889
 31
0.0
  0
LINE
  5
193
330
1F
100
AcDbEntity
  8
0
  6
SLD-Solid
 62
     7
370
    25
100
AcDbLine
 10
5.851990672
 20
23.0500027736
 30
0.0
 11
5.5789586092
 21
22.7797246046
 31
0.0
  0
LINE
  5
194
330
1F
100
AcDbEntity
  8
0
  6
SLD-Solid
 62
     7
370
    25
100
AcDbLine
 10
5.7154746406
 20
23.1879097818
 30
0.0
 11
5.851990672
 21
23.0500027736
 31
0.0
  0
LINE
  5
195
330
1F
100
AcDbEntity
  8
0
  6
SLD-Solid
 62
     7
370
    25
100
AcDbLine
 10
8.0031908848
 20
23.3556136891
 30
0.0
 11
5.7154746406
 21
23.3556136891
 31
0.0
  0
LINE
  5
196
330
1F
100
AcDbEntity
  8
0
  6
SLD-Solid
 62
     7
370
    25
100
AcDbLine
 10
8.5136327343
 20
22.4686136891
 30
0.0
 11
8.5136327343
 21
23.3556136891
 31
0.0
  0
LINE
  5
197
330
1F
100
AcDbEntity
  8
0
  6
SLD-Solid
 62
     7
370
    25
100
AcDbLine
 10
5.7154746406
 20
22.4686136891
 30
0.0
 11
7.9530877704
 21
22.4686136891
 31
0.0
  0
LINE
  5
198
330
1F
100
AcDbEntity
  8
0
  6
SLD-Solid
 62
     7
370
    25
100
AcDbLine
 10
5.7154746406
 20
22.647297889
 30
0.0
 11
5.7154746406
 21
22.4686136891
 31
0.0
  0
LINE
  5
199
330
1F
100
AcDbEntity
  8
0
  6
SLD-Solid
 62
     7
370
    25
100
AcDbLine
 10
5.7154746406
 20
23.3556136891
 30
0.0
 11
5.7154746406
 21
23.1879097818
 31
0.0
  0
LINE
  5
19A
330
1F
100
AcDbEntity
  8
0
  6
SLD-Solid
 62
     7
370
    25
100
AcDbLine
 10
10.4611327343
 20
11.2996136891
 30
0.0
 11
7.4411327343
 21
11.2996136891
 31
0.0
  0
LINE
  5
19B
330
1F
100
AcDbEntity
  8
0
  6
SLD-Solid
 62
     7
370
    25
100
AcDbLine
 10
7.4261327343
 20
15.5679391541
 30
0.0
 11
10.4761327343
 21
15.5679391541
 31
0.0
  0
LINE
  5
19C
330
1F
100
AcDbEntity
  8
0
  6
SLD-Solid
 62
     7
370
    25
100
AcDbLine
 10
7.2461327343
 20
17.5096136891
 30
0.0
 11
10.6561327343
 21
17.5096136891
 31
0.0
  0
LINE
  5
19D
330
1F
100
AcDbEntity
  8
0
  6
SLD-Solid
 62
     7
370
    25
100
AcDbLine
 10
8.1861327343
 20
18.4086136891
 30
0.0
 11
9.7161327343
 21
18.4086136891
 31
0.0
  0
LINE
  5
19E
330
1F
100
AcDbEntity
  8
0
  6
SLD-Solid
 62
     7
370
    25
100
AcDbLine
 10
9.9057857636
 20
23.4236136891
 30
0.0
 11
7.9964797076
 21
23.4236136891
 31
0.0
  0
LINE
  5
19F
330
1F
100
AcDbEntity
  8
0
  6
SLD-Solid
 62
     7
370
    25
100
AcDbLine
 10
8.0461327343
 20
18.5086136891
 30
0.0
 11
9.8561327343
 21
18.5086136891
 31
0.0
  0
LINE
  5
1A0
330
1F
100
AcDbEntity
  8
0
  6
SLD-Solid
 62
     7
370
    25
100
AcDbLine
 10
8.0461327343
 20
19.1866136891
 30
0.0
 11
9.8561327343
 21
19.1866136891
 31
0.0
  0
LINE
  5
1A1
330
1F
100
AcDbEntity
  8
0
  6
SLD-Solid
 62
     7
370
    25
100
AcDbLine
 10
8.395979705
 20
24.4236136891
 30
0.0
 11
9.5062857581
 21
24.4236136891
 31
0.0
  0
LINE
  5
1A2
330
1F
100
AcDbEntity
  8
0
  6
SLD-Solid
 62
     7
370
    25
100
AcDbLine
 10
8.3961327343
 20
19.4996136891
 30
0.0
 11
8.449017942
 21
19.4996136891
 31
0.0
  0
LINE
  5
1A3
330
1F
100
AcDbEntity
  8
0
  6
SLD-Solid
 62
     7
370
    25
100
AcDbLine
 10
8.59953486
 20
19.4996136891
 30
0.0
 11
8.9048417942
 21
19.4996136891
 31
0.0
  0
LINE
  5
1A4
330
1F
100
AcDbEntity
  8
0
  6
SLD-Solid
 62
     7
370
    25
100
AcDbLine
 10
9.1472248445
 20
19.4996136891
 30
0.0
 11
9.4069565865
 21
19.4996136891
 31
0.0
  0
ARC
  5
1A5
330
1F
100
AcDbEntity
  8
0
  6
SLD-Solid
 62
     7
370
    25
100
AcDbCircle
 10
9.7633005124
 20
25.727165904
 30
0.0
 40
0.4362058700276849
100
AcDbArc
 50
167.0865606324
 51
216.4774189148
  0
LINE
  5
1A6
330
1F
100
AcDbEntity
  8
0
  6
SLD-Solid
 62
     7
370
    25
100
AcDbLine
 10
9.2011327343
 20
25.2536136891
 30
0.0
 11
8.7011327343
 21
25.2536136891
 31
0.0
  0
LINE
  5
1A7
330
1F
100
AcDbEntity
  8
0
  6
SLD-Solid
 62
     7
370
    25
100
AcDbLine
 10
8.5826327343
 20
20.3796136891
 30
0.0
 11
9.3196327343
 21
20.3796136891
 31
0.0
  0
LINE
  5
1A8
330
1F
100
AcDbEntity
  8
0
  6
SLD-Solid
 62
     7
370
    25
100
AcDbLine
 10
9.3191327343
 20
20.5456136891
 30
0.0
 11
8.5831327343
 21
20.5456136891
 31
0.0
  0
LINE
  5
1A9
330
1F
100
AcDbEntity
  8
0
  6
SLD-Solid
 62
     7
370
    25
100
AcDbLine
 10
8.6304617873
 20
26.0236136891
 30
0.0
 11
9.2718036551
 21
26.0236136891
 31
0.0
  0
SPLINE
  5
1AA
330
1F
100
AcDbEntity
  8
0
  6
SLD-Solid
 62
     7
370
    25
100
AcDbSpline
210
0.0
220
0.0
230
1.0
 70
    24
 71
     3
 72
    17
 73
    13
 74
     0
 42
0.00000001
 43
0.00000001
 40
0.0
 40
0.0
 40
0.0
 40
0.0
 40
0.1044954264579764
 40
0.2038629161919349
 40
0.2942763123618713
 40
0.4090588770772468
 40
0.5
 40
0.5909411229227457
 40
0.7057236876381272
 40
0.7961370838080651
 40
0.8955045735420241
 40
1.0
 40
1.0
 40
1.0
 40
1.0
 10
12.78001653990364
 20
25.31276997620486
 30
0.0
 10
12.77845172761396
 20
25.31155787192603
 30
0.0
 10
12.7753988935572
 20
25.30919314534052
 30
0.0
 10
12.75281615657318
 20
25.29170054747014
 30
0.0
 10
12.71936114343192
 20
25.265786279769
 30
0.0
 10
12.67760408708318
 20
25.23344124579566
 30
0.0
 10
12.63196679627066
 20
25.19809058052236
 30
0.0
 10
12.58632950545813
 20
25.16273991524907
 30
0.0
 10
12.54457244910939
 20
25.13039488127572
 30
0.0
 10
12.51111743596812
 20
25.10448061357458
 30
0.0
 10
12.48853469898411
 20
25.08698801570421
 30
0.0
 10
12.48548186492734
 20
25.08462328911869
 30
0.0
 10
12.48391705263766
 20
25.08341118483986
 30
0.0
  0
LINE
  5
1AB
330
1F
100
AcDbEntity
  8
0
  6
SLD-Solid
 62
     7
370
    25
100
AcDbLine
 10
8.9511327343
 20
23.3556136891
 30
0.0
 11
9.8990745838
 21
23.3556136891
 31
0.0
  0
LINE
  5
1AC
330
1F
100
AcDbEntity
  8
0
  6
SLD-Solid
 62
     7
370
    25
100
AcDbLine
 10
8.0031908848
 20
23.3556136891
 30
0.0
 11
8.9511327343
 21
23.3556136891
 31
0.0
  0
LINE
  5
1AD
330
1F
100
AcDbEntity
  8
0
  6
SLD-Solid
 62
     7
370
    25
100
AcDbLine
 10
8.4041885957
 20
22.4686136891
 30
0.0
 11
7.9530877704
 21
22.4686136891
 31
0.0
  0
LINE
  5
1AE
330
1F
100
AcDbEntity
  8
0
  6
SLD-Solid
 62
     7
370
    25
100
AcDbLine
 10
9.9491776982
 20
22.4686136891
 30
0.0
 11
8.4041885957
 21
22.4686136891
 31
0.0
  0
LINE
  5
1AF
330
1F
100
AcDbEntity
  8
0
  6
SLD-Solid
 62
     7
370
    25
100
AcDbLine
 10
8.4041885957
 20
22.4236136891
 30
0.0
 11
7.9511327343
 21
22.4236136891
 31
0.0
  0
LINE
  5
1B0
330
1F
100
AcDbEntity
  8
0
  6
SLD-Solid
 62
     7
370
    25
100
AcDbLine
 10
9.9511327343
 20
22.4236136891
 30
0.0
 11
8.4041885957
 21
22.4236136891
 31
0.0
  0
LINE
  5
1B1
330
1F
100
AcDbEntity
  8
0
  6
SLD-Solid
 62
     7
370
    25
100
AcDbLine
 10
8.0655245414
 20
22.2456136891
 30
0.0
 11
8.0561327343
 21
22.2456136891
 31
0.0
  0
LINE
  5
1B2
330
1F
100
AcDbEntity
  8
0
  6
SLD-Solid
 62
     7
370
    25
100
AcDbLine
 10
9.8461327343
 20
22.2456136891
 30
0.0
 11
8.0655245414
 21
22.2456136891
 31
0.0
  0
LINE
  5
1B3
330
1F
100
AcDbEntity
  8
0
  6
SLD-Solid
 62
     7
370
    25
100
AcDbLine
 10
9.1239632213
 20
22.0256136891
 30
0.0
 11
9.1239632213
 21
22.2456136891
 31
0.0
  0
LINE
  5
1B4
330
1F
100
AcDbEntity
  8
0
  6
SLD-Solid
 62
     7
370
    25
100
AcDbLine
 10
9.0250125852
 20
22.0256136891
 30
0.0
 11
9.1239632213
 21
22.0256136891
 31
0.0
  0
LINE
  5
1B5
330
1F
100
AcDbEntity
  8
0
  6
SLD-Solid
 62
     7
370
    25
100
AcDbLine
 10
9.0250125852
 20
22.0256136891
 30
0.0
 11
9.0250125852
 21
22.2456136891
 31
0.0
  0
LINE
  5
1B6
330
1F
100
AcDbEntity
  8
0
  6
SLD-Solid
 62
     7
370
    25
100
AcDbLine
 10
8.9786208673
 20
22.1336136891
 30
0.0
 11
8.9786208673
 21
21.9256136891
 31
0.0
  0
LINE
  5
1B7
330
1F
100
AcDbEntity
  8
0
  6
SLD-Solid
 62
     7
370
    25
100
AcDbLine
 10
8.9979055219
 20
22.2456136891
 30
0.0
 11
8.9979055219
 21
22.1336136891
 31
0.0
  0
ARC
  5
1B8
330
1F
100
AcDbEntity
  8
0
  6
SLD-Solid
 62
     7
370
    25
100
AcDbCircle
 10
8.8411527114
 20
22.0011356182
 30
0.0
 40
0.1854821532613885
100
AcDbArc
 50
335.9731016859
 51
7.5834431971
  0
LINE
  5
1B9
330
1F
100
AcDbEntity
  8
0
  6
SLD-Solid
 62
     7
370
    25
100
AcDbLine
 10
9.0105636538
 20
21.9256136891
 30
0.0
 11
8.9786208673
 21
21.9256136891
 31
0.0
  0
LINE
  5
1BA
330
1F
100
AcDbEntity
  8
0
  6
SLD-Solid
 62
     7
370
    25
100
AcDbLine
 10
9.1095142899
 20
21.9256136891
 30
0.0
 11
9.0105636538
 21
21.9256136891
 31
0.0
  0
ARC
  5
1BB
330
1F
100
AcDbEntity
  8
0
  6
SLD-Solid
 62
     7
370
    25
100
AcDbCircle
 10
8.9401033474
 20
22.0011356182
 30
0.0
 40
0.1854821532614008
100
AcDbArc
 50
335.9731016859
 51
7.5834431971
  0
LINE
  5
1BC
330
1F
100
AcDbEntity
  8
0
  6
SLD-Solid
 62
     7
370
    25
100
AcDbLine
 10
8.299221173
 20
22.1336136891
 30
0.0
 11
8.299221173
 21
22.2456136891
 31
0.0
  0
LINE
  5
1BD
330
1F
100
AcDbEntity
  8
0
  6
SLD-Solid
 62
     7
370
    25
100
AcDbLine
 10
8.9979055219
 20
22.1336136891
 30
0.0
 11
8.299221173
 21
22.1336136891
 31
0.0
  0
LINE
  5
1BE
330
1F
100
AcDbEntity
  8
0
  6
SLD-Solid
 62
     7
370
    25
100
AcDbLine
 10
9.6191327343
 20
22.1336136891
 30
0.0
 11
9.1239632213
 21
22.1336136891
 31
0.0
  0
LINE
  5
1BF
330
1F
100
AcDbEntity
  8
0
  6
SLD-Solid
 62
     7
370
    25
100
AcDbLine
 10
8.4312882983
 20
21.9256136891
 30
0.0
 11
8.4312882983
 21
22.1336136891
 31
0.0
  0
LINE
  5
1C0
330
1F
100
AcDbEntity
  8
0
  6
SLD-Solid
 62
     7
370
    25
100
AcDbLine
 10
8.4217468313
 20
21.8536136891
 30
0.0
 11
8.4161327343
 21
21.8536136891
 31
0.0
  0
LINE
  5
1C1
330
1F
100
AcDbEntity
  8
0
  6
SLD-Solid
 62
     7
370
    25
100
AcDbLine
 10
9.4861327343
 20
21.8536136891
 30
0.0
 11
8.4217468313
 21
21.8536136891
 31
0.0
  0
LINE
  5
1C2
330
1F
100
AcDbEntity
  8
0
  6
SLD-Solid
 62
     7
370
    25
100
AcDbLine
 10
8.4312882983
 20
21.9256136891
 30
0.0
 11
8.212534472
 21
21.9256136891
 31
0.0
  0
ARC
  5
1C3
330
1F
100
AcDbEntity
  8
0
  6
SLD-Solid
 62
     7
370
    25
100
AcDbCircle
 10
8.2130619361
 20
22.0250917601
 30
0.0
 40
0.0994794693299242
100
AcDbArc
 50
179.6993905456
 51
269.6962025756
  0
LINE
  5
1C4
330
1F
100
AcDbEntity
  8
0
  6
SLD-Solid
 62
     7
370
    25
100
AcDbLine
 10
8.1135838359
 20
22.0256136891
 30
0.0
 11
8.1135838359
 21
22.2456136891
 31
0.0
  0
LINE
  5
1C5
330
1F
100
AcDbEntity
  8
0
  6
SLD-Solid
 62
     7
370
    25
100
AcDbLine
 10
8.212534472
 20
21.9256136891
 30
0.0
 11
8.1980855406
 21
21.9256136891
 31
0.0
  0
ARC
  5
1C6
330
1F
100
AcDbEntity
  8
0
  6
SLD-Solid
 62
     7
370
    25
100
AcDbCircle
 10
8.1986130046
 20
22.0250917601
 30
0.0
 40
0.099479469329926
100
AcDbArc
 50
179.6993905456
 51
269.6962025756
  0
LINE
  5
1C7
330
1F
100
AcDbEntity
  8
0
  6
SLD-Solid
 62
     7
370
    25
100
AcDbLine
 10
8.0991349045
 20
22.0256136891
 30
0.0
 11
8.0991349045
 21
22.2456136891
 31
0.0
  0
LINE
  5
1C8
330
1F
100
AcDbEntity
  8
0
  6
SLD-Solid
 62
     7
370
    25
100
AcDbLine
 10
9.8031305641
 20
22.0256136891
 30
0.0
 11
9.8031305641
 21
22.2456136891
 31
0.0
  0
ARC
  5
1C9
330
1F
100
AcDbEntity
  8
0
  6
SLD-Solid
 62
     7
370
    25
100
AcDbCircle
 10
9.703652464
 20
22.0250917601
 30
0.0
 40
0.099479469329926
100
AcDbArc
 50
270.3037974244
 51
0.3006094544
  0
LINE
  5
1CA
330
1F
100
AcDbEntity
  8
0
  6
SLD-Solid
 62
     7
370
    25
100
AcDbLine
 10
9.704179928
 20
21.9256136891
 30
0.0
 11
9.4861327343
 21
21.9256136891
 31
0.0
  0
LINE
  5
1CB
330
1F
100
AcDbEntity
  8
0
  6
SLD-Solid
 62
     7
370
    25
100
AcDbLine
 10
8.4685682039
 20
19.7396136891
 30
0.0
 11
8.4685682039
 21
19.4996136891
 31
0.0
  0
LINE
  5
1CC
330
1F
100
AcDbEntity
  8
0
  6
SLD-Solid
 62
     7
370
    25
100
AcDbLine
 10
9.0358084503
 20
19.7396136891
 30
0.0
 11
9.0358084503
 21
19.4996136891
 31
0.0
  0
LINE
  5
1CD
330
1F
100
AcDbEntity
  8
0
  6
SLD-Solid
 62
     7
370
    25
100
AcDbLine
 10
8.4685682039
 20
19.7396136891
 30
0.0
 11
9.0358084503
 21
19.7396136891
 31
0.0
  0
LINE
  5
1CE
330
1F
100
AcDbEntity
  8
0
  6
SLD-Solid
 62
     7
370
    25
100
AcDbLine
 10
8.4685682039
 20
19.4996136891
 30
0.0
 11
8.59953486
 21
19.4996136891
 31
0.0
  0
LINE
  5
1CF
330
1F
100
AcDbEntity
  8
0
  6
SLD-Solid
 62
     7
370
    25
100
AcDbLine
 10
8.9048417942
 20
19.4996136891
 30
0.0
 11
9.0358084503
 21
19.4996136891
 31
0.0
  0
LINE
  5
1D0
330
1F
100
AcDbEntity
  8
0
  6
SLD-Solid
 62
     7
370
    25
100
AcDbLine
 10
9.5183729807
 20
19.7396136891
 30
0.0
 11
9.5183729807
 21
19.4996136891
 31
0.0
  0
LINE
  5
1D1
330
1F
100
AcDbEntity
  8
0
  6
SLD-Solid
 62
     7
370
    25
100
AcDbLine
 10
9.0358084503
 20
19.7396136891
 30
0.0
 11
9.5183729807
 21
19.7396136891
 31
0.0
  0
LINE
  5
1D2
330
1F
100
AcDbEntity
  8
0
  6
SLD-Solid
 62
     7
370
    25
100
AcDbLine
 10
9.0358084503
 20
19.4996136891
 30
0.0
 11
9.1472248445
 21
19.4996136891
 31
0.0
  0
LINE
  5
1D3
330
1F
100
AcDbEntity
  8
0
  6
SLD-Solid
 62
     7
370
    25
100
AcDbLine
 10
9.4069565865
 20
19.4996136891
 30
0.0
 11
9.5183729807
 21
19.4996136891
 31
0.0
  0
LINE
  5
1D4
330
1F
100
AcDbEntity
  8
0
  6
SLD-Solid
 62
     7
370
    25
100
AcDbLine
 10
8.3838924879
 20
19.7396136891
 30
0.0
 11
8.3838924879
 21
19.4996136891
 31
0.0
  0
LINE
  5
1D5
330
1F
100
AcDbEntity
  8
0
  6
SLD-Solid
 62
     7
370
    25
100
AcDbLine
 10
8.3838924879
 20
19.7396136891
 30
0.0
 11
8.4685682039
 21
19.7396136891
 31
0.0
  0
LINE
  5
1D6
330
1F
100
AcDbEntity
  8
0
  6
SLD-Solid
 62
     7
370
    25
100
AcDbLine
 10
8.3838924879
 20
19.4996136891
 30
0.0
 11
8.3961327343
 21
19.4996136891
 31
0.0
  0
LINE
  5
1D7
330
1F
100
AcDbEntity
  8
0
  6
SLD-Solid
 62
     7
370
    25
100
AcDbLine
 10
8.449017942
 20
19.4996136891
 30
0.0
 11
8.4685682039
 21
19.4996136891
 31
0.0
  0
LINE
  5
1D8
330
1F
100
AcDbEntity
  8
0
  6
SLD-Solid
 62
     7
370
    18
100
AcDbLine
 10
12.186790828
 20
23.3556136891
 30
0.0
 11
9.3886327343
 21
23.3556136891
 31
0.0
  0
LINE
  5
1D9
330
1F
100
AcDbEntity
  8
0
  6
SLD-Solid
 62
     7
370
    18
100
AcDbLine
 10
9.3886327343
 20
23.3556136891
 30
0.0
 11
9.3886327343
 21
22.4686136891
 31
0.0
  0
LINE
  5
1DA
330
1F
100
AcDbEntity
  8
0
  6
SLD-Solid
 62
     7
370
    18
100
AcDbLine
 10
9.3886327343
 20
22.4686136891
 30
0.0
 11
12.186790828
 21
22.4686136891
 31
0.0
  0
LINE
  5
1DB
330
1F
100
AcDbEntity
  8
0
  6
SLD-Solid
 62
     7
370
    18
100
AcDbLine
 10
12.186790828
 20
22.4686136891
 30
0.0
 11
12.186790828
 21
22.647297889
 31
0.0
  0
LINE
  5
1DC
330
1F
100
AcDbEntity
  8
0
  6
SLD-Solid
 62
     7
370
    18
100
AcDbLine
 10
12.186790828
 20
22.647297889
 30
0.0
 11
12.0502747966
 21
22.7797246046
 31
0.0
  0
LINE
  5
1DD
330
1F
100
AcDbEntity
  8
0
  6
SLD-Solid
 62
     7
370
    18
100
AcDbLine
 10
12.0502747966
 20
22.7797246046
 30
0.0
 11
12.3233068594
 21
23.0500027736
 31
0.0
  0
LINE
  5
1DE
330
1F
100
AcDbEntity
  8
0
  6
SLD-Solid
 62
     7
370
    18
100
AcDbLine
 10
12.3233068594
 20
23.0500027736
 30
0.0
 11
12.186790828
 21
23.1879097818
 31
0.0
  0
LINE
  5
1DF
330
1F
100
AcDbEntity
  8
0
  6
SLD-Solid
 62
     7
370
    18
100
AcDbLine
 10
12.186790828
 20
23.1879097818
 30
0.0
 11
12.186790828
 21
23.3556136891
 31
0.0
  0
LINE
  5
1E0
330
1F
100
AcDbEntity
  8
0
  6
SLD-Solid
 62
     7
370
    18
100
AcDbLine
 10
5.7154746406
 20
22.647297889
 30
0.0
 11
5.7154746406
 21
22.4686136891
 31
0.0
  0
LINE
  5
1E1
330
1F
100
AcDbEntity
  8
0
  6
SLD-Solid
 62
     7
370
    18
100
AcDbLine
 10
5.7154746406
 20
22.4686136891
 30
0.0
 11
8.5136327343
 21
22.4686136891
 31
0.0
  0
LINE
  5
1E2
330
1F
100
AcDbEntity
  8
0
  6
SLD-Solid
 62
     7
370
    18
100
AcDbLine
 10
8.5136327343
 20
22.4686136891
 30
0.0
 11
8.5136327343
 21
23.3556136891
 31
0.0
  0
LINE
  5
1E3
330
1F
100
AcDbEntity
  8
0
  6
SLD-Solid
 62
     7
370
    18
100
AcDbLine
 10
8.5136327343
 20
23.3556136891
 30
0.0
 11
5.7154746406
 21
23.3556136891
 31
0.0
  0
LINE
  5
1E4
330
1F
100
AcDbEntity
  8
0
  6
SLD-Solid
 62
     7
370
    18
100
AcDbLine
 10
5.7154746406
 20
23.3556136891
 30
0.0
 11
5.7154746406
 21
23.1879097818
 31
0.0
  0
LINE
  5
1E5
330
1F
100
AcDbEntity
  8
0
  6
SLD-Solid
 62
     7
370
    18
100
AcDbLine
 10
5.7154746406
 20
23.1879097818
 30
0.0
 11
5.851990672
 21
23.0500027736
 31
0.0
  0
LINE
  5
1E6
330
1F
100
AcDbEntity
  8
0
  6
SLD-Solid
 62
     7
370
    18
100
AcDbLine
 10
5.851990672
 20
23.0500027736
 30
0.0
 11
5.5789586092
 21
22.7797246046
 31
0.0
  0
LINE
  5
1E7
330
1F
100
AcDbEntity
  8
0
  6
SLD-Solid
 62
     7
370
    18
100
AcDbLine
 10
5.5789586092
 20
22.7797246046
 30
0.0
 11
5.7154746406
 21
22.647297889
 31
0.0
  0
INSERT
  5
1FB
330
1F
100
AcDbEntity
  8
0
  6
SLD-Solid
 62
     7
370
     0
100
AcDbBlockReference
  2
SW_HATCH_0
 10
5.9214235051
 20
23.3556136891
 30
0.0
  0
INSERT
  5
209
330
1F
100
AcDbEntity
  8
0
  6
SLD-Solid
 62
     7
370
     0
100
AcDbBlockReference
  2
SW_HATCH_1
 10
9.456957411
 20
23.3556136891
 30
0.0
  0
DIMENSION
  5
20A
330
1F
100
AcDbEntity
  8
DIMS
100
AcDbDimension
  2
_D
 10
5.4301091122
 20
23.3556136891
 30
0.0
 11
5.4301091122
 21
24.6430399845
 31
0.0
 70
   160
  1
<>
 71
     2
 42
-1.0
  3
SLDDIMSTYLE0
100
AcDbAlignedDimension
 13
11.6392371461
 23
26.1448531343
 33
0.0
 14
8.0011327343
 24
23.3556136891
 34
0.0
 50
90.0
100
AcDbRotatedDimension
  0
DIMENSION
  5
220
330
1F
100
AcDbEntity
  8
DIMS
100
AcDbDimension
  2
_D_1
 10
12.7800165399
 20
27.4865313611
 30
0.0
 11
11.0789569548
 21
27.4865313611
 31
0.0
 70
   160
  1
<>
 71
     2
 42
-1.0
  3
SLDDIMSTYLE0
100
AcDbAlignedDimension
 13
8.9511327343
 23
26.0236136891
 33
0.0
 14
12.7800165399
 24
25.3127699762
 34
0.0
100
AcDbRotatedDimension
  0
DIMENSION
  5
22F
330
1F
100
AcDbEntity
  8
DIMS
100
AcDbDimension
  2
_D_2
 10
11.0789569548
 20
22.4686136891
 30
0.0
 11
11.0789569548
 21
21.6203586138
 31
0.0
 70
   160
  1
counter top thickness \P1/16" to 3" (1.5mm to 76mm)
 71
     1
 42
-1.0
  3
SLDDIMSTYLE1
100
AcDbAlignedDimension
 13
9.9011327343
 23
23.3556136891
 33
0.0
 14
9.9511327343
 24
22.4686136891
 34
0.0
 50
90.0
100
AcDbRotatedDimension
  0
DIMENSION
  5
23D
330
1F
100
AcDbEntity
  8
DIMS
100
AcDbDimension
  2
_D_3
 10
7.2411327343
 20
10.4334719569
 30
0.0
 11
8.9424620988
 21
10.4334719569
 31
0.0
 70
   160
  1
%%c<>
 71
     2
 42
-1.0
  3
SLDDIMSTYLE0
100
AcDbAlignedDimension
 13
10.6611327343
 23
11.4996136891
 33
0.0
 14
7.2411327343
 24
11.4996136891
 34
0.0
100
AcDbRotatedDimension
  0
DIMENSION
  5
24D
330
1F
100
AcDbEntity
  8
DIMS
100
AcDbDimension
  2
_D_4
 10
5.4301091122
 20
11.2996136891
 30
0.0
 11
5.4301091122
 21
17.6723063086
 31
0.0
 70
   160
  1
<>
 71
     2
 42
-1.0
  3
SLDDIMSTYLE0
100
AcDbAlignedDimension
 13
8.0011327343
 23
23.3556136891
 33
0.0
 14
7.4411327343
 24
11.2996136891
 34
0.0
 50
90.0
100
AcDbRotatedDimension
  0
INSERT
  5
261
330
1F
100
AcDbEntity
  8
NOTES
100
AcDbBlockReference
  2
SW_NOTE_0_2
 10
6.9056565482
 20
8.8882431455
 30
0.0
  0
MTEXT
  5
262
330
1F
100
AcDbEntity
  8
NOTES
100
AcDbMText
 10
13.8224861283
 20
24.8540983283
 30
0.0
 40
0.5
 41
0.0
 71
     1
 72
     1
  1
vanity
  7
SLDTEXTSTYLE1
 73
     1
 44
1.0
  0
LEADER
  5
264
330
1F
100
AcDbEntity
  8
NOTES
100
AcDbLeader
  3
SLDDIMSTYLE2
 76
     3
 10
11.9833283037
 20
23.3556136891
 30
0.0
 10
13.2992125984
 20
24.6072834676
 30
0.0
 10
13.7992125984
 20
24.6072834676
 30
0.0
  0
MTEXT
  5
265
330
1F
100
AcDbEntity
  8
NOTES
100
AcDbMText
 10
13.7047100192
 20
19.079479347
 30
0.0
 40
0.5
 41
0.0
 71
     1
 72
     1
  1
mounting securing nut
  7
SLDTEXTSTYLE1
 73
     1
 44
1.0
  0
LEADER
  5
266
330
1F
100
AcDbEntity
  8
NOTES
100
AcDbLeader
  3
SLDDIMSTYLE2
 76
     3
 10
9.8005160746
 20
22.0027781492
 30
0.0
 10
13.1811023622
 20
18.8346456723
 30
0.0
 10
13.6811023622
 20
18.8346456723
 30
0.0
  0
MTEXT
  5
267
330
1F
100
AcDbEntity
  8
NOTES
100
AcDbMText
 10
13.6727384611
 20
17.713637758
 30
0.0
 40
0.5
 41
0.0
 71
     1
 72
     1
  1
threaded shank
  7
SLDTEXTSTYLE1
 73
     1
 44
1.0
  0
LEADER
  5
268
330
1F
100
AcDbEntity
  8
NOTES
100
AcDbLeader
  3
SLDDIMSTYLE2
 76
     3
 10
9.3591327343
 20
21.2015326639
 30
0.0
 10
13.1515748031
 20
17.4714566959
 30
0.0
 10
13.6515748031
 20
17.4714566959
 30
0.0
  0
SPLINE
  5
269
330
1F
100
AcDbEntity
  8
0
  6
SLD-Solid
 62
     7
370
    25
100
AcDbSpline
210
0.0
220
0.0
230
1.0
 70
     8
 71
     3
 72
    18
 73
    14
 74
     0
 42
0.00000001
 43
0.00000001
 40
0.0
 40
0.0
 40
0.0
 40
0.0
 40
0.0998664828002156
 40
0.1814298314640962
 40
0.2568869983408346
 40
0.3575654053594448
 40
0.4519566615409688
 40
0.5413449688146846
 40
0.6480226292015148
 40
0.7165411968548683
 40
0.7971776267963543
 40
0.8916323957949129
 40
1.0
 40
1.0
 40
1.0
 40
1.0
 10
40.93514131409459
 20
23.4632330416852
 30
0.0
 10
40.95407985071252
 20
23.45549796109906
 30
0.0
 10
40.9884859438323
 20
23.44144545491527
 30
0.0
 10
41.03800292319025
 20
23.41539964041373
 30
0.0
 10
41.08890698071018
 20
23.38232695886193
 30
0.0
 10
41.14276805462987
 20
23.34121319444843
 30
0.0
 10
41.198807757224
 20
23.29069744400713
 30
0.0
 10
41.25471657319059
 20
23.23329286742855
 30
0.0
 10
41.30423648667383
 20
23.1758218888401
 30
0.0
 10
41.34921108414751
 20
23.11575471173675
 30
0.0
 10
41.38885770181478
 20
23.05520517829285
 30
0.0
 10
41.43081491245465
 20
22.98179122371642
 30
0.0
 10
41.4570609914468
 20
22.92776291866691
 30
0.0
 10
41.47108422101083
 20
22.89889569911417
 30
0.0
  0
SPLINE
  5
26A
330
1F
100
AcDbEntity
  8
0
  6
SLD-Solid
 62
     7
370
    25
100
AcDbSpline
210
0.0
220
0.0
230
1.0
 70
     8
 71
     3
 72
    16
 73
    12
 74
     0
 42
0.00000001
 43
0.00000001
 40
0.0
 40
0.0
 40
0.0
 40
0.0
 40
0.1797483456194741
 40
0.3291085016967154
 40
0.4069124336758828
 40
0.4693168659815709
 40
0.5314955256946683
 40
0.627112579064876
 40
0.7276770531543256
 40
0.8530035637540144
 40
1.0
 40
1.0
 40
1.0
 40
1.0
 10
41.80671520581377
 20
23.05826187081233
 30
0.0
 10
41.77681610790579
 20
23.11688966674489
 30
0.0
 10
41.72207264264235
 20
23.22423366488101
 30
0.0
 10
41.63709767331386
 20
23.34657331635305
 30
0.0
 10
41.57256876828238
 20
23.42827093321145
 30
0.0
 10
41.52519568648385
 20
23.48261780373533
 30
0.0
 10
41.4718483316915
 20
23.53867876385111
 30
0.0
 10
41.40690205036942
 20
23.59982986720514
 30
0.0
 10
41.32329574493394
 20
23.66803287776066
 30
0.0
 10
41.22270538581916
 20
23.73584580605014
 30
0.0
 10
41.14724699803082
 20
23.77130735819141
 30
0.0
 10
41.10651552748001
 20
23.79044904951378
 30
0.0
  0
LINE
  5
26B
330
1F
100
AcDbEntity
  8
0
  6
SLD-Solid
 62
     7
370
    25
100
AcDbLine
 10
41.4710958805
 20
22.8988713694
 30
0.0
 11
41.6884678345
 21
22.4493302555
 31
0.0
  0
LINE
  5
26C
330
1F
100
AcDbEntity
  8
0
  6
SLD-Solid
 62
     7
370
    25
100
AcDbLine
 10
42.0231405524
 20
22.6106786277
 30
0.0
 11
41.8067035464
 21
23.0582862006
 31
0.0
  0
LINE
  5
26D
330
1F
100
AcDbEntity
  8
0
  6
SLD-Solid
 62
     7
370
    25
100
AcDbLine
 10
39.4778584998
 20
24.0565014951
 30
0.0
 11
40.9359644607
 21
23.4628911052
 31
0.0
  0
LINE
  5
26E
330
1F
100
AcDbEntity
  8
0
  6
SLD-Solid
 62
     7
370
    25
100
AcDbLine
 10
41.1055224892
 20
23.7908601508
 30
0.0
 11
39.6052141018
 21
24.4016515958
 31
0.0
  0
LINE
  5
26F
330
1F
100
AcDbEntity
  8
0
  6
SLD-Solid
 62
     7
370
    25
100
AcDbLine
 10
39.6907946518
 20
24.3668108469
 30
0.0
 11
39.5991668913
 21
24.7173237076
 31
0.0
  0
LINE
  5
270
330
1F
100
AcDbEntity
  8
0
  6
SLD-Solid
 62
     7
370
    25
100
AcDbLine
 10
38.9069560443
 20
24.7173237076
 30
0.0
 11
38.7739521752
 21
24.2085306692
 31
0.0
  0
SPLINE
  5
271
330
1F
100
AcDbEntity
  8
0
  6
SLD-Solid
 62
     7
370
    25
100
AcDbSpline
210
0.0
220
0.0
230
1.0
 70
     8
 71
     3
 72
    19
 73
    15
 74
     0
 42
0.00000001
 43
0.00000001
 40
0.0
 40
0.0
 40
0.0
 40
0.0
 40
0.0379723095901461
 40
0.1246763633698203
 40
0.214171895996235
 40
0.3057181579090086
 40
0.3979569698902659
 40
0.4900578793769403
 40
0.5819529311682141
 40
0.6737512632910025
 40
0.7656157833853295
 40
0.8576704368825933
 40
0.9501015826055415
 40
1.0
 40
1.0
 40
1.0
 40
1.0
 10
39.59012433526981
 20
24.73897576153553
 30
0.0
 10
39.58792210033145
 20
24.74482036414782
 30
0.0
 10
39.58069139336722
 20
24.76401023716075
 30
0.0
 10
39.55638526374524
 20
24.79328373598619
 30
0.0
 10
39.51865112863673
 20
24.8258348814425
 30
0.0
 10
39.4704968788706
 20
24.85338134701985
 30
0.0
 10
39.41452302273998
 20
24.87502611818028
 30
0.0
 10
39.35273012156901
 20
24.88987201684197
 30
0.0
 10
39.28750864372009
 20
24.89747093700517
 30
0.0
 10
39.22112213619901
 20
24.89760760312348
 30
0.0
 10
39.15580298523302
 20
24.8903085514141
 30
0.0
 10
39.09391599422577
 20
24.87566193914361
 30
0.0
 10
39.0458068886719
 20
24.85768432540002
 30
0.0
 10
39.02026770564668
 20
24.84384530209968
 30
0.0
 10
39.01131408570579
 20
24.83899356683227
 30
0.0
  0
SPLINE
  5
272
330
1F
100
AcDbEntity
  8
0
  6
SLD-Solid
 62
     7
370
    25
100
AcDbSpline
210
0.0
220
0.0
230
1.0
 70
     8
 71
     3
 72
    10
 73
     6
 74
     0
 42
0.00000001
 43
0.00000001
 40
0.0
 40
0.0
 40
0.0
 40
0.0
 40
0.2266658767102205
 40
0.6566434854805842
 40
1.0
 40
1.0
 40
1.0
 40
1.0
 10
39.01131408570579
 20
24.83899356683227
 30
0.0
 10
39.00300158476144
 20
24.83386141237053
 30
0.0
 10
38.97892054674909
 20
24.81899373205315
 30
0.0
 10
38.94774472687531
 20
24.79258395026986
 30
0.0
 10
38.93222448195434
 20
24.76852217237633
 30
0.0
 10
38.92533357019956
 20
24.75783886235308
 30
0.0
  0
LINE
  5
273
330
1F
100
AcDbEntity
  8
0
  6
SLD-Solid
 62
     7
370
    25
100
AcDbLine
 10
40.1899348195
 20
22.7880626146
 30
0.0
 11
39.8088954029
 21
23.4863142952
 31
0.0
  0
LINE
  5
274
330
1F
100
AcDbEntity
  8
0
  6
SLD-Solid
 62
     7
370
    25
100
AcDbLine
 10
38.6972275327
 20
23.4863142952
 30
0.0
 11
38.3161881161
 21
22.7880626146
 31
0.0
  0
SPLINE
  5
275
330
1F
100
AcDbEntity
  8
0
  6
SLD-Solid
 62
     7
370
    25
100
AcDbSpline
210
0.0
220
0.0
230
1.0
 70
     8
 71
     3
 72
     9
 73
     5
 74
     0
 42
0.00000001
 43
0.00000001
 40
0.0
 40
0.0
 40
0.0
 40
0.0
 40
0.9648148750128054
 40
0.9999999999999999
 40
0.9999999999999999
 40
0.9999999999999999
 40
0.9999999999999999
 10
39.59810693949289
 20
23.95535277367827
 30
0.0
 10
39.61482435435792
 20
23.96517072857715
 30
0.0
 10
39.63215142434615
 20
23.97534672726161
 30
0.0
 10
39.64486360326425
 20
23.98788856895494
 30
0.0
 10
39.64531088286834
 20
23.98832985522249
 30
0.0
  0
SPLINE
  5
276
330
1F
100
AcDbEntity
  8
0
  6
SLD-Solid
 62
     7
370
    25
100
AcDbSpline
210
0.0
220
0.0
230
1.0
 70
     8
 71
     3
 72
    13
 73
     9
 74
     0
 42
0.00000001
 43
0.00000001
 40
0.0
 40
0.0
 40
0.0
 40
0.0
 40
0.1010739493046637
 40
0.2980505837633534
 40
0.4933688378205363
 40
0.6900085412567983
 40
0.8906582849562299
 40
1.0
 40
1.0
 40
1.0
 40
1.0
 10
38.77431401924176
 20
24.20326823670774
 30
0.0
 10
38.77212790233705
 20
24.19524160462487
 30
0.0
 10
38.76568140030461
 20
24.17157237635776
 30
0.0
 10
38.76877228001748
 20
24.13115092496221
 30
0.0
 10
38.78233769614641
 20
24.08445979726248
 30
0.0
 10
38.80864905064089
 20
24.04049323186225
 30
0.0
 10
38.83859884198007
 20
24.00544408359341
 30
0.0
 10
38.86333866457191
 20
23.98716643025516
 30
0.0
 10
38.87206501672057
 20
23.98071944629282
 30
0.0
  0
LINE
  5
277
330
1F
100
AcDbEntity
  8
0
  6
SLD-Solid
 62
     7
370
    25
100
AcDbLine
 10
39.5030614678
 20
23.4001438451
 30
0.0
 11
39.5030614678
 21
23.9122498763
 31
0.0
  0
LINE
  5
278
330
1F
100
AcDbEntity
  8
0
  6
SLD-Solid
 62
     7
370
    25
100
AcDbLine
 10
39.0030614678
 20
23.9122498763
 30
0.0
 11
39.0030614678
 21
23.4001438451
 31
0.0
  0
SPLINE
  5
279
330
1F
100
AcDbEntity
  8
0
  6
SLD-Solid
 62
     7
370
    25
100
AcDbSpline
210
0.0
220
0.0
230
1.0
 70
     8
 71
     3
 72
    11
 73
     7
 74
     0
 42
0.00000001
 43
0.00000001
 40
0.0
 40
0.0
 40
0.0
 40
0.0
 40
0.1880144604056225
 40
0.5448938264761252
 40
0.9018564715662146
 40
1.0
 40
1.0
 40
1.0
 40
1.0
 10
38.84551021522994
 20
23.62824480485699
 30
0.0
 10
38.83486229867948
 20
23.62181602903827
 30
0.0
 10
38.80400305529646
 20
23.60318448203987
 30
0.0
 10
38.76068074734799
 20
23.5679537175558
 30
0.0
 10
38.72665710780463
 20
23.53367624896871
 30
0.0
 10
38.71427056602342
 20
23.51227143880917
 30
0.0
 10
38.7115994114968
 20
23.50765549704277
 30
0.0
  0
SPLINE
  5
27A
330
1F
100
AcDbEntity
  8
0
  6
SLD-Solid
 62
     7
370
    25
100
AcDbSpline
210
0.0
220
0.0
230
1.0
 70
     8
 71
     3
 72
    29
 73
    25
 74
     0
 42
0.00000001
 43
0.00000001
 40
0.0
 40
0.0
 40
0.0
 40
0.0
 40
0.0312207836469075
 40
0.0780458919497531
 40
0.1249890071418164
 40
0.1722705227626465
 40
0.219952110253057
 40
0.2679609734923024
 40
0.3161718109149959
 40
0.3644735200412909
 40
0.412786565083502
 40
0.4610744414085989
 40
0.509328611385114
 40
0.5575510632797789
 40
0.6057489501573439
 40
0.6539317679194672
 40
0.7021100214318666
 40
0.7502938413874024
 40
0.7984915777641025
 40
0.8467145412101337
 40
0.8949738174529316
 40
0.9432793812487911
 40
0.989092644370603
 40
1.0
 40
1.0
 40
1.0
 40
1.0
 10
38.26980204955024
 20
22.60648111587675
 30
0.0
 10
38.26985484363362
 20
22.59184832451718
 30
0.0
 10
38.26998681858254
 20
22.55526918972391
 30
0.0
 10
38.28441116134624
 20
22.49731193432036
 30
0.0
 10
38.31094689516426
 20
22.43371234801756
 30
0.0
 10
38.34978346824696
 20
22.37241556335595
 30
0.0
 10
38.39993799501687
 20
22.31407310195121
 30
0.0
 10
38.4610399797382
 20
22.25941382784328
 30
0.0
 10
38.53227932301447
 20
22.20917364830269
 30
0.0
 10
38.61270962492814
 20
22.16402972797603
 30
0.0
 10
38.7012380032784
 20
22.12456192309648
 30
0.0
 10
38.7966933562362
 20
22.09124885196017
 30
0.0
 10
38.89784871311872
 20
22.06447682846872
 30
0.0
 10
39.00342810744186
 20
22.04455002977704
 30
0.0
 10
39.11211051412516
 20
22.03169357724756
 30
0.0
 10
39.22254176893561
 20
22.02605236787135
 30
0.0
 10
39.33334829629114
 20
22.02768950894622
 30
0.0
 10
39.44315061954725
 20
22.03658572154742
 30
0.0
 10
39.55058501253585
 20
22.05263813526041
 30
0.0
 10
39.65431058424741
 20
22.07566836994878
 30
0.0
 10
39.75306414957226
 20
22.10540675020996
 30
0.0
 10
39.8439044207844
 20
22.14093885693211
 30
0.0
 10
39.9058283417281
 20
22.17125233583649
 30
0.0
 10
39.93709022920296
 20
22.18900979907538
 30
0.0
 10
39.94310187949596
 20
22.19242455319631
 30
0.0
  0
SPLINE
  5
27B
330
1F
100
AcDbEntity
  8
0
  6
SLD-Solid
 62
     7
370
    25
100
AcDbSpline
210
0.0
220
0.0
230
1.0
 70
     8
 71
     3
 72
    15
 73
    11
 74
     0
 42
0.00000001
 43
0.00000001
 40
0.0
 40
0.0
 40
0.0
 40
0.0
 40
0.0755694516720327
 40
0.2190551996420012
 40
0.3626196996957131
 40
0.505917556869893
 40
0.648564417555299
 40
0.7901318696454978
 40
0.9303892396612587
 40
1.0
 40
1.0
 40
1.0
 40
1.0
 10
39.94310187949596
 20
22.19242455319631
 30
0.0
 10
39.95680490213559
 20
22.20062649677101
 30
0.0
 10
39.99652622197593
 20
22.22440169094612
 30
0.0
 10
40.05532109317554
 20
22.26775735821188
 30
0.0
 10
40.11540719825052
 20
22.3235498429696
 30
0.0
 10
40.16430331719555
 20
22.38335187564354
 30
0.0
 10
40.20161709040856
 20
22.44624024863171
 30
0.0
 10
40.2258938048188
 20
22.51128492595422
 30
0.0
 10
40.23767504328232
 20
22.56651694144549
 30
0.0
 10
40.23652349295198
 20
22.59968903807292
 30
0.0
 10
40.23614153741673
 20
22.6106918276073
 30
0.0
  0
LINE
  5
27C
330
1F
100
AcDbEntity
  8
0
  6
SLD-Solid
 62
     7
370
    25
100
AcDbLine
 10
39.6610614678
 20
20.2662602091
 30
0.0
 11
39.6610614678
 21
21.1018548734
 31
0.0
  0
LINE
  5
27D
330
1F
100
AcDbEntity
  8
0
  6
SLD-Solid
 62
     7
370
    25
100
AcDbLine
 10
39.6610614678
 20
21.7462628153
 30
0.0
 11
39.6610614678
 21
22.032808464
 31
0.0
  0
LINE
  5
27E
330
1F
100
AcDbEntity
  8
0
  6
SLD-Solid
 62
     7
370
    25
100
AcDbLine
 10
38.8450614678
 20
22.032808464
 30
0.0
 11
38.8450614678
 21
21.7462628153
 31
0.0
  0
LINE
  5
27F
330
1F
100
AcDbEntity
  8
0
  6
SLD-Solid
 62
     7
370
    25
100
AcDbLine
 10
38.8450614678
 20
20.9960366889
 30
0.0
 11
38.8450614678
 21
20.2662602091
 31
0.0
  0
LINE
  5
280
330
1F
100
AcDbEntity
  8
0
  6
SLD-Solid
 62
     7
370
    25
100
AcDbLine
 10
40.401289371
 20
18.4821917046
 30
0.0
 11
40.1580614678
 21
18.6101082857
 31
0.0
  0
LINE
  5
281
330
1F
100
AcDbEntity
  8
0
  6
SLD-Solid
 62
     7
370
    25
100
AcDbLine
 10
38.3480614678
 20
18.6101082857
 30
0.0
 11
38.1048335646
 21
18.4821917046
 31
0.0
  0
LINE
  5
282
330
1F
100
AcDbEntity
  8
0
  6
SLD-Solid
 62
     7
370
    25
100
AcDbLine
 10
38.9645150232
 20
20.0997400207
 30
0.0
 11
38.9928038903
 21
20.0834038969
 31
0.0
  0
LINE
  5
283
330
1F
100
AcDbEntity
  8
0
  6
SLD-Solid
 62
     7
370
    25
100
AcDbLine
 10
39.5133190453
 20
20.0834038969
 30
0.0
 11
39.5416079124
 21
20.0997400207
 31
0.0
  0
LINE
  5
284
330
1F
100
AcDbEntity
  8
0
  6
SLD-Solid
 62
     7
370
    25
100
AcDbLine
 10
39.5974600114
 20
20.0980528019
 30
0.0
 11
39.5974600114
 21
20.1399757766
 31
0.0
  0
LINE
  5
285
330
1F
100
AcDbEntity
  8
0
  6
SLD-Solid
 62
     7
370
    25
100
AcDbLine
 10
38.9086629243
 20
20.1399757766
 30
0.0
 11
38.9086629243
 21
20.0980528019
 31
0.0
  0
LINE
  5
286
330
1F
100
AcDbEntity
  8
0
  6
SLD-Solid
 62
     7
370
    25
100
AcDbLine
 10
39.6615614678
 20
19.5262235985
 30
0.0
 11
39.6615614678
 21
20.0653911694
 31
0.0
  0
LINE
  5
287
330
1F
100
AcDbEntity
  8
0
  6
SLD-Solid
 62
     7
370
    25
100
AcDbLine
 10
38.8445614678
 20
20.0653911694
 30
0.0
 11
38.8445614678
 21
19.5262235985
 31
0.0
  0
LINE
  5
288
330
1F
100
AcDbEntity
  8
0
  6
SLD-Solid
 62
     7
370
    25
100
AcDbLine
 10
38.3480614678
 20
19.1239196133
 30
0.0
 11
38.3480614678
 21
18.5703049428
 31
0.0
  0
LINE
  5
289
330
1F
100
AcDbEntity
  8
0
  6
SLD-Solid
 62
     7
370
    25
100
AcDbLine
 10
40.1580614678
 20
18.5703049428
 30
0.0
 11
40.1580614678
 21
19.1239196133
 31
0.0
  0
LINE
  5
28A
330
1F
100
AcDbEntity
  8
0
  6
SLD-Solid
 62
     7
370
    25
100
AcDbLine
 10
37.5517273838
 20
17.6900706506
 30
0.0
 11
37.7313403662
 21
16.1114245915
 31
0.0
  0
LINE
  5
28B
330
1F
100
AcDbEntity
  8
0
  6
SLD-Solid
 62
     7
370
    25
100
AcDbLine
 10
40.7747825694
 20
16.1114245915
 30
0.0
 11
40.9543955519
 21
17.6900706506
 31
0.0
  0
LINE
  5
28C
330
1F
100
AcDbEntity
  8
0
  6
SLD-Solid
 62
     7
370
    25
100
AcDbLine
 10
38.6980614678
 20
19.3514565366
 30
0.0
 11
38.6980614678
 21
19.1239196133
 31
0.0
  0
LINE
  5
28D
330
1F
100
AcDbEntity
  8
0
  6
SLD-Solid
 62
     7
370
    25
100
AcDbLine
 10
39.8080614678
 20
19.1239196133
 30
0.0
 11
39.8080614678
 21
19.2961032794
 31
0.0
  0
SPLINE
  5
28E
330
1F
100
AcDbEntity
  8
0
  6
SLD-Solid
 62
     7
370
    25
100
AcDbSpline
210
0.0
220
0.0
230
1.0
 70
     8
 71
     3
 72
    13
 73
     9
 74
     0
 42
0.00000001
 43
0.00000001
 40
0.0
 40
0.0
 40
0.0
 40
0.0
 40
0.05825595592508
 40
0.2548661439289409
 40
0.4513198845910999
 40
0.6490336237165751
 40
0.8493324947636045
 40
1.0
 40
1.0
 40
1.0
 40
1.0
 10
40.96172663982841
 20
15.99343975638915
 30
0.0
 10
40.96218524496967
 20
16.00266821315027
 30
0.0
 10
40.96419161362481
 20
16.04304213117758
 30
0.0
 10
40.95511188617826
 20
16.11450246105673
 30
0.0
 10
40.93457467499166
 20
16.20645659660244
 30
0.0
 10
40.9008219422838
 20
16.29619162545179
 30
0.0
 10
40.86073944329208
 20
16.37627474551165
 30
0.0
 10
40.82714513465971
 20
16.42428235808188
 30
0.0
 10
40.8127233238715
 20
16.44489170332716
 30
0.0
  0
SPLINE
  5
28F
330
1F
100
AcDbEntity
  8
0
  6
SLD-Solid
 62
     7
370
    25
100
AcDbSpline
210
0.0
220
0.0
230
1.0
 70
     8
 71
     3
 72
    13
 73
     9
 74
     0
 42
0.00000001
 43
0.00000001
 40
0.0
 40
0.0
 40
0.0
 40
0.0
 40
0.1285587313500078
 40
0.3406610684283287
 40
0.5484593781501258
 40
0.7520937537231224
 40
0.952386673432396
 40
1.0
 40
1.0
 40
1.0
 40
1.0
 10
37.69346938108081
 20
16.44427849015382
 30
0.0
 10
37.68097919263302
 20
16.426921906421
 30
0.0
 10
37.64788209454555
 20
16.38092960160748
 30
0.0
 10
37.6075883292555
 20
16.30151978927012
 30
0.0
 10
37.57184882394768
 20
16.20814303621255
 30
0.0
 10
37.55083931046919
 20
16.11350848840605
 30
0.0
 10
37.5418299168935
 20
16.04244370040979
 30
0.0
 10
37.54382572320894
 20
16.00342690748979
 30
0.0
 10
37.54420904141609
 20
15.99593327096058
 30
0.0
  0
LINE
  5
290
330
1F
100
AcDbEntity
  8
0
  6
SLD-Solid
 62
     7
370
    25
100
AcDbLine
 10
37.5430614678
 20
15.9995254748
 30
0.0
 11
37.5430614678
 21
12.8471703923
 31
0.0
  0
LINE
  5
291
330
1F
100
AcDbEntity
  8
0
  6
SLD-Solid
 62
     7
370
    25
100
AcDbLine
 10
40.9630614678
 20
12.8471703923
 30
0.0
 11
40.9630614678
 21
15.9995254748
 31
0.0
  0
SPLINE
  5
292
330
1F
100
AcDbEntity
  8
0
  6
SLD-Solid
 62
     7
370
    25
100
AcDbSpline
210
0.0
220
0.0
230
1.0
 70
     8
 71
     3
 72
    45
 73
    41
 74
     0
 42
0.00000001
 43
0.00000001
 40
0.0
 40
0.0
 40
0.0
 40
0.0
 40
0.0075619511024608
 40
0.0329173482866006
 40
0.0582525695860246
 40
0.0837502837949613
 40
0.1095813838131995
 40
0.1358622637954781
 40
0.1626372993593366
 40
0.1898749659181841
 40
0.2174837097722737
 40
0.2453436011834062
 40
0.2733393933026542
 40
0.301376447201203
 40
0.3293885660943839
 40
0.3573516474977331
 40
0.3852583073824205
 40
0.4131115305996531
 40
0.4409202792557439
 40
0.4686967762139062
 40
0.4964549541670749
 40
0.5242096327953503
 40
0.5519742553426092
 40
0.5797611123280894
 40
0.6075858541708222
 40
0.635463897351351
 40
0.6634097515556527
 40
0.6914357010666438
 40
0.7195493879501489
 40
0.7477496870658907
 40
0.7760202325245019
 40
0.8043094299538374
 40
0.8325209084866102
 40
0.8605299954367992
 40
0.8881901317961428
 40
0.915369856719363
 40
0.9419980446759295
 40
0.9680926478247018
 40
0.9937590621450525
 40
1.0
 40
1.0
 40
1.0
 40
1.0
 10
37.54440285165357
 20
12.85343704418513
 30
0.0
 10
37.54394082004444
 20
12.84414835036909
 30
0.0
 10
37.5419295857491
 20
12.8037144510583
 30
0.0
 10
37.55099351529626
 20
12.7321865788144
 30
0.0
 10
37.57160542715934
 20
12.64026397901264
 30
0.0
 10
37.60508721461333
 20
12.55041107681481
 30
0.0
 10
37.65007859280886
 20
12.46302330624638
 30
0.0
 10
37.70679219049162
 20
12.37848233122184
 30
0.0
 10
37.77499847608833
 20
12.29727700471856
 30
0.0
 10
37.85443463129497
 20
12.22000516871303
 30
0.0
 10
37.9445858207449
 20
12.14733343921919
 30
0.0
 10
38.04471774049745
 20
12.07992119007116
 30
0.0
 10
38.15391613163364
 20
12.01835512913441
 30
0.0
 10
38.27116409001624
 20
11.96311342932076
 30
0.0
 10
38.39542559019522
 20
11.91455376837768
 30
0.0
 10
38.52568781167759
 20
11.87293612499164
 30
0.0
 10
38.66097385774039
 20
11.83845104632302
 30
0.0
 10
38.80031161610612
 20
11.81124620329744
 30
0.0
 10
38.94272735192385
 20
11.79143426472547
 30
0.0
 10
39.08724235870115
 20
11.77909606243611
 30
0.0
 10
39.23287299562483
 20
11.77428136191402
 30
0.0
 10
39.37863015382674
 20
11.77700881645856
 30
0.0
 10
39.52352131701497
 20
11.78726512415464
 30
0.0
 10
39.6665621394435
 20
11.80500515753218
 30
0.0
 10
39.80678539916722
 20
11.8301549049267
 30
0.0
 10
39.94324729806451
 20
11.86261621067511
 30
0.0
 10
40.07502369199761
 20
11.90226999730088
 30
0.0
 10
40.20120861481143
 20
11.94897949776498
 30
0.0
 10
40.32090807307542
 20
12.00259120736771
 30
0.0
 10
40.43322800444589
 20
12.06293020969943
 30
0.0
 10
40.5372440151199
 20
12.12977611009106
 30
0.0
 10
40.63197821271433
 20
12.20281724891112
 30
0.0
 10
40.71642499132755
 20
12.28160123038883
 30
0.0
 10
40.7895940995977
 20
12.3654893811737
 30
0.0
 10
40.85064929400981
 20
12.45364296040637
 30
0.0
 10
40.89884165086663
 20
12.54504193885508
 30
0.0
 10
40.93419256188132
 20
12.63858778121839
 30
0.0
 10
40.95531129546529
 20
12.73317791985313
 30
0.0
 10
40.96429860319328
 20
12.80442402242567
 30
0.0
 10
40.96228692419565
 20
12.84361183787563
 30
0.0
 10
40.96189344862489
 20
12.85127680234998
 30
0.0
  0
LINE
  5
293
330
1F
100
AcDbEntity
  8
0
  6
SLD-Solid
 62
     7
370
    25
100
AcDbLine
 10
38.2530614678
 20
21.8038065579
 30
0.0
 11
38.2530614678
 21
21.7670622214
 31
0.0
  0
LINE
  5
294
330
1F
100
AcDbEntity
  8
0
  6
SLD-Solid
 62
     7
370
    25
100
AcDbLine
 10
40.2530614678
 20
21.7670622214
 30
0.0
 11
40.2530614678
 21
21.8038065579
 31
0.0
  0
LINE
  5
295
330
1F
100
AcDbEntity
  8
0
  6
SLD-Solid
 62
     7
370
    25
100
AcDbLine
 10
38.7230842615
 20
21.0185610734
 30
0.0
 11
38.8032698647
 21
20.9840671348
 31
0.0
  0
LINE
  5
296
330
1F
100
AcDbEntity
  8
0
  6
SLD-Solid
 62
     7
370
    25
100
AcDbLine
 10
39.888813013
 20
21.079889335
 30
0.0
 11
39.9485647414
 21
21.1261794984
 31
0.0
  0
SPLINE
  5
297
330
1F
100
AcDbEntity
  8
0
  6
SLD-Solid
 62
     7
370
    25
100
AcDbSpline
210
0.0
220
0.0
230
1.0
 70
     8
 71
     3
 72
    18
 73
    14
 74
     0
 42
0.00000001
 43
0.00000001
 40
0.0
 40
0.0
 40
0.0
 40
0.0
 40
0.0059018451714537
 40
0.0963152413413898
 40
0.1956827310753479
 40
0.300178157533324
 40
0.4046735839913
 40
0.5040410737252582
 40
0.5944544698951943
 40
0.7092370346105693
 40
0.8001781575333223
 40
0.8911192804560677
 40
0.9999999999999999
 40
0.9999999999999999
 40
0.9999999999999999
 40
0.9999999999999999
 10
42.02262189147288
 20
22.61041709544496
 30
0.0
 10
42.02284666940017
 20
22.61039670979979
 30
0.0
 10
42.02651493579582
 20
22.61006402599026
 30
0.0
 10
42.01879462386079
 20
22.60194481876178
 30
0.0
 10
41.99963341815498
 20
22.58675248606565
 30
0.0
 10
41.96231150146468
 20
22.56376913586374
 30
0.0
 10
41.91424626214136
 20
22.53748786978764
 30
0.0
 10
41.86265700343198
 20
22.51170558313069
 30
0.0
 10
41.80913349488115
 20
22.48699721880023
 30
0.0
 10
41.76116798685276
 20
22.46698332027236
 30
0.0
 10
41.72343785265922
 20
22.45357193807761
 30
0.0
 10
41.69637998954027
 20
22.4462767801388
 30
0.0
 10
41.69159421258347
 20
22.44842257029985
 30
0.0
 10
41.68898649546806
 20
22.44959178770792
 30
0.0
  0
SPLINE
  5
298
330
1F
100
AcDbEntity
  8
0
  6
SLD-Solid
 62
     7
370
    25
100
AcDbSpline
210
0.0
220
0.0
230
1.0
 70
     8
 71
     3
 72
    12
 73
     8
 74
     0
 42
0.00000001
 43
0.00000001
 40
0.0
 40
0.0
 40
0.0
 40
0.0
 40
0.2256375885432227
 40
0.4497842012840214
 40
0.6738811304168896
 40
0.8979319938808688
 40
1.0
 40
1.0
 40
1.0
 40
1.0
 10
39.52670760415734
 20
24.38617351517968
 30
0.0
 10
39.53361695335271
 20
24.38986819337464
 30
0.0
 10
39.54738999590865
 20
24.39723313594315
 30
0.0
 10
39.56640409337343
 20
24.40356438695413
 30
0.0
 10
39.5836132124267
 20
24.4059145535064
 30
0.0
 10
39.59647959507146
 20
24.40516158000268
 30
0.0
 10
39.60296857187298
 20
24.40209196925742
 30
0.0
 10
39.60499947834807
 20
24.40113124886509
 30
0.0
  0
SPLINE
  5
299
330
1F
100
AcDbEntity
  8
0
  6
SLD-Solid
 62
     7
370
    25
100
AcDbSpline
210
0.0
220
0.0
230
1.0
 70
     8
 71
     3
 72
    20
 73
    16
 74
     0
 42
0.00000001
 43
0.00000001
 40
0.0
 40
0.0
 40
0.0
 40
0.0
 40
0.0319031852100946
 40
0.1677346140939205
 40
0.2392853554595558
 40
0.3034545005635668
 40
0.3648615772908945
 40
0.4863344570289986
 40
0.5466631146686267
 40
0.6069739839648854
 40
0.728551573706794
 40
0.7979363330912559
 40
0.8653104279705411
 40
0.9316379911374263
 40
1.0
 40
1.0
 40
1.0
 40
1.0
 10
39.47808019980263
 20
24.05705029148851
 30
0.0
 10
39.4743945027914
 20
24.05843504950298
 30
0.0
 10
39.45501653279329
 20
24.06571557179696
 30
0.0
 10
39.43076802319876
 20
24.08595730730002
 30
0.0
 10
39.40984172345879
 20
24.11455741832197
 30
0.0
 10
39.39878877005438
 20
24.13846853661412
 30
0.0
 10
39.39043848962418
 20
24.17093391124011
 30
0.0
 10
39.391060143499
 20
24.2056402586352
 30
0.0
 10
39.40012364460677
 20
24.23956226724383
 30
0.0
 10
39.41403154525772
 20
24.27261026162001
 30
0.0
 10
39.43503440248121
 20
24.30481795347781
 30
0.0
 10
39.4607265919547
 20
24.33411226684119
 30
0.0
 10
39.48243104342582
 20
24.3546560891772
 30
0.0
 10
39.50472705460695
 20
24.37254091079062
 30
0.0
 10
39.5193073440039
 20
24.38158378375297
 30
0.0
 10
39.52670760415734
 20
24.38617351517968
 30
0.0
  0
LINE
  5
29A
330
1F
100
AcDbEntity
  8
0
  6
SLD-Solid
 62
     7
370
    25
100
AcDbLine
 10
39.5924912994
 20
24.7365099655
 30
0.0
 11
39.5991668913
 21
24.7173237076
 31
0.0
  0
LWPOLYLINE
  5
29B
330
1F
100
AcDbEntity
  8
0
  6
SLD-Solid
 62
     7
370
    25
100
AcDbPolyline
 90
        3
 70
   128
 43
0.0
 10
38.9069560443
 20
24.7173237076
 10
38.9085273268
 20
24.7228199144
 10
38.9223033821
 20
24.7532858283
  0
ARC
  5
29C
330
1F
100
AcDbEntity
  8
0
  6
SLD-Solid
 62
     7
370
    25
100
AcDbCircle
 10
39.1868615862
 20
23.005823971
 30
0.0
 40
0.7075864714849834
100
AcDbArc
 50
105.0556086008
 51
119.2624347106
  0
LWPOLYLINE
  5
29D
330
1F
100
AcDbEntity
  8
0
  6
SLD-Solid
 62
     7
370
    25
100
AcDbPolyline
 90
        9
 70
   128
 43
0.0
 10
39.5030614678
 20
23.6891219522
 10
39.5176303138
 20
23.6849831921
 10
39.5956009394
 20
23.6574001192
 10
39.6651371064
 20
23.6231152923
 10
39.7245266036
 20
23.5829729175
 10
39.7723070644
 20
23.5379614335
 10
39.8073019754
 20
23.4891891722
 10
39.8286496456
 20
23.4378570687
 10
39.8358223315
 20
23.3861307643
  0
LWPOLYLINE
  5
29E
330
1F
100
AcDbEntity
  8
0
  6
SLD-Solid
 62
     7
370
    25
100
AcDbPolyline
 90
        3
 70
   128
 43
0.0
 10
38.6972275327
 20
23.4863142952
 10
38.6988209603
 20
23.4891891722
 10
38.7096583432
 20
23.5067693477
  0
ARC
  5
29F
330
1F
100
AcDbEntity
  8
0
  6
SLD-Solid
 62
     7
370
    25
100
AcDbCircle
 10
38.6230309149
 20
22.6151055666
 30
0.0
 40
0.3522309521462354
100
AcDbArc
 50
150.5914946713
 51
179.8177754264
  0
ARC
  5
2A0
330
1F
100
AcDbEntity
  8
0
  6
SLD-Solid
 62
     7
370
    25
100
AcDbCircle
 10
39.8797528003
 20
22.6141436314
 30
0.0
 40
0.3556131293200848
100
AcDbArc
 50
0.9693373561
 51
29.2793388504
  0
ARC
  5
2A1
330
1F
100
AcDbEntity
  8
0
  6
SLD-Solid
 62
     7
370
    25
100
AcDbCircle
 10
39.2559889764
 20
24.5534605821
 30
0.0
 40
0.6869037444745717
100
AcDbArc
 50
236.619180845
 51
298.3203000733
  0
LWPOLYLINE
  5
2A2
330
1F
100
AcDbEntity
  8
0
  6
SLD-Solid
 62
     7
370
    25
100
AcDbPolyline
 90
       11
 70
   128
 43
0.0
 10
39.4298381631
 20
23.2980928312
 10
39.3823959214
 20
23.276635842
 10
39.3274372313
 20
23.262356689
 10
39.2681560922
 20
23.2560852246
 10
39.2079977084
 20
23.2581859237
 10
39.1504582665
 20
23.2685367012
 10
39.0988817497
 20
23.2865360075
 10
39.0562655977
 20
23.3111377884
 10
39.0250865063
 20
23.3409122778
 10
39.0071564911
 20
23.3741290905
 10
39.0030614678
 20
23.4001438451
  0
ARC
  5
2A3
330
1F
100
AcDbEntity
  8
0
  6
SLD-Solid
 62
     7
370
    25
100
AcDbCircle
 10
39.382202674
 20
23.4095670674
 30
0.0
 40
0.1212255961710613
100
AcDbArc
 50
293.1381260423
 51
355.5417330001
  0
LWPOLYLINE
  5
2A4
330
1F
100
AcDbEntity
  8
0
  6
SLD-Solid
 62
     7
370
    25
100
AcDbPolyline
 90
       19
 70
   128
 43
0.0
 10
38.8450614678
 20
20.2662602091
 10
38.848974012
 20
20.233719775
 10
38.8662119236
 20
20.1914097199
 10
38.8966235324
 20
20.1516486084
 10
38.9391732077
 20
20.1157904575
 10
38.9924119711
 20
20.0850563736
 10
39.0545268406
 20
20.0604929689
 10
39.1234025686
 20
20.0429367208
 10
39.196693675
 20
20.0329854863
 10
39.2719043189
 20
20.0309781426
 10
39.3464732922
 20
20.0369830476
 10
39.4178612378
 20
20.0507957113
 10
39.4836371249
 20
20.07194576
 10
39.5415610345
 20
20.0997129543
 10
39.5896604375
 20
20.1331517156
 10
39.6262973662
 20
20.171123327
 10
39.650224194
 20
20.2123347107
 10
39.6606261215
 20
20.2553824627
 10
39.6610614678
 20
20.2662602091
  0
LWPOLYLINE
  5
2A5
330
1F
100
AcDbEntity
  8
0
  6
SLD-Solid
 62
     7
370
    25
100
AcDbPolyline
 90
       55
 70
   128
 43
0.0
 10
38.1048335646
 20
18.4821917046
 10
38.0474444059
 20
18.4505685871
 10
37.9428068457
 20
18.3843954343
 10
37.849026468
 20
18.3130034381
 10
37.7668803664
 20
18.2369841749
 10
37.6970492295
 20
18.1569675644
 10
37.6401117001
 20
18.0736166493
 10
37.5965395804
 20
17.9876221017
 10
37.5666939228
 20
17.8996964994
 10
37.5508220377
 20
17.8105684217
 10
37.5490554447
 20
17.7209764118
 10
37.5614087822
 20
17.6316628574
 10
37.5877796867
 20
17.5433678387
 10
37.6279496404
 20
17.4568229961
 10
37.6815857826
 20
17.3727454673
 10
37.7482436672
 20
17.2918319453
 10
37.827370946
 20
17.214752905
 10
37.9183119454
 20
17.1421470476
 10
38.0203130998
 20
17.0746160081
 10
38.1325291954
 20
17.0127193699
 10
38.2540303743
 20
16.9569700281
 10
38.3838098395
 20
16.9078299393
 10
38.5207921975
 20
16.8657062937
 10
38.6638423692
 20
16.8309481412
 10
38.8117749959
 20
16.8038434987
 10
38.9633642613
 20
16.7846169638
 10
39.1173540491
 20
16.7734278537
 10
39.2724683512
 20
16.7703688849
 10
39.4274218418
 20
16.7754654049
 10
39.5809305274
 20
16.7886751823
 10
39.7317223867
 20
16.8098887569
 10
39.8785479109
 20
16.8389303461
 10
40.0201904574
 20
16.8755593023
 10
40.1554763316
 20
16.9194721065
 10
40.283284512
 20
16.9703048832
 10
40.4025559397
 20
17.0276364161
 10
40.5123022943
 20
17.090991638
 10
40.6116141828
 20
17.1598455677
 10
40.6996686756
 20
17.2336276597
 10
40.7757361255
 20
17.3117265325
 10
40.8391862137
 20
17.3934950341
 10
40.8894931727
 20
17.478255605
 10
40.9262401432
 20
17.5653058925
 10
40.9491226283
 20
17.6539245704
 10
40.9579510164
 20
17.7433773165
 10
40.9526521528
 20
17.832922897
 10
40.9332699455
 20
17.9218193093
 10
40.8999650016
 20
18.0093299295
 10
40.8530132964
 20
18.0947296171
 10
40.7928038864
 20
18.1773107235
 10
40.7198356859
 20
18.2563889555
 10
40.6347133322
 20
18.331309046
 10
40.538142176
 20
18.4014501836
 10
40.4309224364
 20
18.4662311567
 10
40.401289371
 20
18.4821917046
  0
ARC
  5
2A6
330
1F
100
AcDbEntity
  8
0
  6
SLD-Solid
 62
     7
370
    25
100
AcDbCircle
 10
39.2530614678
 20
19.3655605228
 30
0.0
 40
1.318539971574685
100
AcDbArc
 50
264.8395729579
 51
275.1604270421
  0
ARC
  5
2A7
330
1F
100
AcDbEntity
  8
0
  6
SLD-Solid
 62
     7
370
    25
100
AcDbCircle
 10
39.2530614678
 20
20.5724766629
 30
0.0
 40
0.5540091850118773
100
AcDbArc
 50
241.9805522541
 51
298.0194477459
  0
LWPOLYLINE
  5
2A8
330
1F
100
AcDbEntity
  8
0
  6
SLD-Solid
 62
     7
370
    25
100
AcDbPolyline
 90
       18
 70
   128
 43
0.0
 10
38.9086629243
 20
20.0980528019
 10
38.9087734503
 20
20.0930162264
 10
38.9175772852
 20
20.0531105919
 10
38.940115882
 20
20.0150448968
 10
38.9754665078
 20
19.9803775551
 10
39.022181904
 20
19.9505278518
 10
39.0783495365
 20
19.9267178373
 10
39.1416698961
 20
19.9099222964
 10
39.2095506397
 20
19.9008288404
 10
39.2792127218
 20
19.8998097567
 10
39.3478041684
 20
19.9069067664
 10
39.4125168377
 20
19.9218293174
 10
39.4707013855
 20
19.9439664785
 10
39.5199757294
 20
19.9724119518
 10
39.5583225721
 20
20.0060011762
 10
39.5841719894
 20
20.043359005
 10
39.596465703
 20
20.0829560043
 10
39.5974600114
 20
20.0980528019
  0
LWPOLYLINE
  5
2A9
330
1F
100
AcDbEntity
  8
0
  6
SLD-Solid
 62
     7
370
    25
100
AcDbPolyline
 90
       40
 70
   128
 43
0.0
 10
38.6456932388
 20
19.5112314149
 10
38.6131298308
 20
19.4933442839
 10
38.5379711816
 20
19.4441300715
 10
38.4740899334
 20
19.3898659489
 10
38.4224935316
 20
19.3314076937
 10
38.3839956823
 20
19.2696772275
 10
38.3592035196
 20
19.2056480767
 10
38.3485080307
 20
19.1403300192
 10
38.3520778899
 20
19.0747531598
 10
38.3698567983
 20
19.0099516848
 10
38.4015643719
 20
18.946947552
 10
38.4467005634
 20
18.8867343744
 10
38.5045535481
 20
18.8302617497
 10
38.5742109498
 20
18.7784202849
 10
38.6545742297
 20
18.7320275509
 10
38.7443760109
 20
18.6918151888
 10
38.8422000656
 20
18.6584173717
 10
38.94650365
 20
18.632360803
 10
39.0556418344
 20
18.6140564103
 10
39.1678934443
 20
18.6037928649
 10
39.2814882048
 20
18.6017320291
 10
39.3946346587
 20
18.6079064034
 10
39.5055484188
 20
18.6222186143
 10
39.6124803088
 20
18.6444429496
 10
39.7137439491
 20
18.6742289184
 10
39.8077423514
 20
18.711106778
 10
39.8929931048
 20
18.7544949427
 10
39.968151754
 20
18.8037091551
 10
40.0320330023
 20
18.8579732777
 10
40.0836294041
 20
18.9164315329
 10
40.1221272534
 20
18.978161999
 10
40.1469194161
 20
19.0421911498
 10
40.157614905
 20
19.1075092073
 10
40.1540450458
 20
19.1730860668
 10
40.1362661374
 20
19.2378875418
 10
40.1045585637
 20
19.3008916746
 10
40.0594223722
 20
19.3611048522
 10
40.0015693875
 20
19.4175774769
 10
39.9319119858
 20
19.4694189417
 10
39.8604296968
 20
19.5112314149
  0
LWPOLYLINE
  5
2AA
330
1F
100
AcDbEntity
  8
0
  6
SLD-Solid
 62
     7
370
    25
100
AcDbPolyline
 90
       22
 70
   128
 43
0.0
 10
38.6980614678
 20
19.1239196133
 10
38.6981740057
 20
19.1174678086
 10
38.7071524195
 20
19.0661668581
 10
38.7302695908
 20
19.0163616737
 10
38.7669267971
 20
18.9693421834
 10
38.8161746361
 20
18.9263261673
 10
38.8767376145
 20
18.8884277177
 10
38.947047183
 20
18.8566283845
 10
39.0252823608
 20
18.8317517538
 10
39.1094168978
 20
18.8144421171
 10
39.1972717537
 20
18.805147785
 10
39.2865715339
 20
18.8041094758
 10
39.375003421
 20
18.8113540812
 10
39.4602770755
 20
18.8266939697
 10
39.5401839547
 20
18.8497318462
 10
39.6126545123
 20
18.8798710419
 10
39.6758117989
 20
18.9163309674
 10
39.7280200739
 20
18.9581673298
 10
39.7679271706
 20
19.0042965892
 10
39.794499516
 20
19.0535240221
 10
39.8070489004
 20
19.1045746639
 10
39.8080614678
 20
19.1239196133
  0
LWPOLYLINE
  5
2AB
330
1F
100
AcDbEntity
  8
0
  6
SLD-Solid
 62
     7
370
    25
100
AcDbPolyline
 90
       27
 70
   128
 43
0.0
 10
38.3480614678
 20
18.5703049428
 10
38.3520778899
 20
18.5211384894
 10
38.3698567983
 20
18.4563370143
 10
38.4015643719
 20
18.3933328816
 10
38.4467005634
 20
18.3331197039
 10
38.5045535481
 20
18.2766470792
 10
38.5742109498
 20
18.2248056144
 10
38.6545742297
 20
18.1784128804
 10
38.7443760109
 20
18.1382005184
 10
38.8422000656
 20
18.1048027012
 10
38.94650365
 20
18.0787461325
 10
39.0556418344
 20
18.0604417398
 10
39.1678934443
 20
18.0501781945
 10
39.2814882048
 20
18.0481173587
 10
39.3946346587
 20
18.054291733
 10
39.5055484188
 20
18.0686039438
 10
39.6124803088
 20
18.0908282792
 10
39.7137439491
 20
18.1206142479
 10
39.8077423514
 20
18.1574921076
 10
39.8929931048
 20
18.2008802722
 10
39.968151754
 20
18.2500944846
 10
40.0320330023
 20
18.3043586072
 10
40.0836294041
 20
18.3628168624
 10
40.1221272534
 20
18.4245473286
 10
40.1469194161
 20
18.4885764794
 10
40.157614905
 20
18.5538945369
 10
40.1580614678
 20
18.5703049428
  0
LWPOLYLINE
  5
2AC
330
1F
100
AcDbEntity
  8
0
  6
SLD-Solid
 62
     7
370
    25
100
AcDbPolyline
 90
       34
 70
   128
 43
0.0
 10
37.7313403662
 20
16.1114245915
 10
37.731946993
 20
16.1063197389
 10
37.7491760784
 20
16.0231334434
 10
37.7800245827
 20
15.9412692626
 10
37.8242131372
 20
15.861468571
 10
37.8813415634
 20
15.7844540563
 10
37.9508924975
 20
15.7109231736
 10
38.0322360754
 20
15.6415418302
 10
38.1246356371
 20
15.5769383541
 10
38.2272543979
 20
15.5176978045
 10
38.3391630264
 20
15.4643566729
 10
38.4593480607
 20
15.4173980249
 10
38.5867210865
 20
15.3772471253
 10
38.7201285939
 20
15.3442675868
 10
38.858362424
 20
15.3187580773
 10
39.0001707098
 20
15.3009496148
 10
39.1442692134
 20
15.2910034755
 10
39.2893529566
 20
15.2890097333
 10
39.4341080384
 20
15.2949864436
 10
39.5772235344
 20
15.3088794806
 10
39.7174033685
 20
15.3305630267
 10
39.8533780505
 20
15.3598407124
 10
39.9839161726
 20
15.3964473944
 10
40.1078355612
 20
15.4400515569
 10
40.2240139834
 20
15.4902583139
 10
40.3313993091
 20
15.5466129852
 10
40.4290190404
 20
15.6086052143
 10
40.5159891179
 20
15.6756735898
 10
40.5915219269
 20
15.7472107301
 10
40.6549334308
 20
15.822568784
 10
40.7056493651
 20
15.901065297
 10
40.7432104384
 20
15.9819893928
 10
40.7672764919
 20
16.06460821
 10
40.7747825694
 20
16.1114245915
  0
ARC
  5
2AD
330
1F
100
AcDbEntity
  8
0
  6
SLD-Solid
 62
     7
370
    25
100
AcDbCircle
 10
38.9802926157
 20
19.4181030872
 30
0.0
 40
0.2882198693899528
100
AcDbArc
 50
194.1327889458
 51
238.3959270719
  0
ARC
  5
2AE
330
1F
100
AcDbEntity
  8
0
  6
SLD-Solid
 62
     7
370
    25
100
AcDbCircle
 10
39.2527809467
 20
19.9830658207
 30
0.0
 40
0.9241713354253719
100
AcDbArc
 50
255.7048149281
 51
276.1314718502
  0
ARC
  5
2AF
330
1F
100
AcDbEntity
  8
0
  6
SLD-Solid
 62
     7
370
    25
100
AcDbCircle
 10
39.4406014811
 20
19.50306248
 30
0.0
 40
0.4072521025014259
100
AcDbArc
 50
289.5457934066
 51
325.2703507827
  0
LINE
  5
2B0
330
1F
100
AcDbEntity
  8
0
  6
SLD-Solid
 62
     7
370
    25
100
AcDbLine
 10
40.9630614678
 20
15.9995254748
 30
0.0
 11
40.9630399107
 21
15.9945686953
 31
0.0
  0
LWPOLYLINE
  5
2B1
330
1F
100
AcDbEntity
  8
0
  6
SLD-Solid
 62
     7
370
    25
100
AcDbPolyline
 90
       19
 70
   128
 43
0.0
 10
38.5813100257
 20
22.1402844049
 10
38.6671785388
 20
22.0963684751
 10
38.7615905444
 20
22.0587478459
 10
38.8631693026
 20
22.0279711111
 10
38.9704335667
 20
22.0044870646
 10
39.0818191819
 20
21.9886381567
 10
39.1957018953
 20
21.9806555002
 10
39.3104210404
 20
21.9806555002
 10
39.4243037537
 20
21.9886381567
 10
39.535689369
 20
22.0044870646
 10
39.642953633
 20
22.0279711111
 10
39.7445323913
 20
22.0587478459
 10
39.8389443968
 20
22.0963684751
 10
39.9248129099
 20
22.1402844049
 10
40.0008857744
 20
22.1898552424
 10
40.0660536765
 20
22.2443581331
 10
40.1193663215
 20
22.302998302
 10
40.160046291
 20
22.3649206436
 10
40.1788158818
 20
22.4049673188
  0
ARC
  5
2B2
330
1F
100
AcDbEntity
  8
0
  6
SLD-Solid
 62
     7
370
    25
100
AcDbCircle
 10
38.8423996713
 20
22.6455504224
 30
0.0
 40
0.5687368033407375
100
AcDbArc
 50
205.4536653585
 51
242.6729281069
  0
ARC
  5
2B3
330
1F
100
AcDbEntity
  8
0
  6
SLD-Solid
 62
     7
370
    25
100
AcDbCircle
 10
38.9776645065
 20
21.8038735081
 30
0.0
 40
0.1445238649495632
100
AcDbArc
 50
156.5656777657
 51
200.1666078861
  0
LWPOLYLINE
  5
2B4
330
1F
100
AcDbEntity
  8
0
  6
SLD-Solid
 62
     7
370
    25
100
AcDbPolyline
 90
       19
 70
   128
 43
0.0
 10
39.6610614678
 20
21.8613503005
 10
39.664122129
 20
21.8535643813
 10
39.6729608553
 20
21.8091133499
 10
39.6675004115
 20
21.764481602
 10
39.6479267465
 20
21.7211890183
 10
39.6149064181
 20
21.6807098759
 10
39.5695638938
 20
21.6444226433
 10
39.5134432591
 20
21.6135630388
 10
39.4484556347
 20
21.5891819491
 10
39.3768140964
 20
21.5721096431
 10
39.3009583107
 20
21.5629274976
 10
39.2234714554
 20
21.5619481997
 10
39.1469922526
 20
21.569205098
 10
39.0741251096
 20
21.5844510677
 10
39.0073514298
 20
21.6071669255
 10
38.9489451105
 20
21.6365791101
 10
38.9008951091
 20
21.6716860249
 10
38.8648377106
 20
21.711292146
 10
38.8420008066
 20
21.7540487345
  0
LWPOLYLINE
  5
2B5
330
1F
100
AcDbEntity
  8
0
  6
SLD-Solid
 62
     7
370
    25
100
AcDbPolyline
 90
        9
 70
   128
 43
0.0
 10
38.2743456078
 20
21.6853355498
 10
38.2569430954
 20
21.7529915036
 10
38.2535239015
 20
21.8213607894
 10
38.264136024
 20
21.8894836523
 10
38.2886304919
 20
21.9564037966
 10
38.3266634567
 20
22.0211818102
 10
38.3777010189
 20
22.0829083517
 10
38.441026723
 20
22.1407169158
 10
38.5072546782
 20
22.1883738777
  0
LWPOLYLINE
  5
2B6
330
1F
100
AcDbEntity
  8
0
  6
SLD-Solid
 62
     7
370
    25
100
AcDbPolyline
 90
       33
 70
   128
 43
0.0
 10
39.9988682574
 20
22.1883738777
 10
40.0659999908
 20
22.1399897772
 10
40.1291703771
 20
22.0821246089
 10
40.1800421148
 20
22.0203524653
 10
40.2179010761
 20
21.9555404918
 10
40.2422158044
 20
21.8885985065
 10
40.2526449739
 20
21.8204662281
 10
40.2490421822
 20
21.7521000845
 10
40.2314580045
 20
21.6844597864
 10
40.200139284
 20
21.6184948553
 10
40.155525667
 20
21.5551312944
 10
40.0982434309
 20
21.495258589
 10
40.0290966927
 20
21.4397172208
 10
39.9490561211
 20
21.3892868688
 10
39.8592453101
 20
21.3446754646
 10
39.7609250068
 20
21.3065092545
 10
39.6554754126
 20
21.2753240085
 10
39.5443768088
 20
21.251557499
 10
39.4291887761
 20
21.2355433557
 10
39.3115283021
 20
21.2275063822
 10
39.1930470819
 20
21.2275593998
 10
39.0754083321
 20
21.2357016644
 10
38.960263443
 20
21.2518188765
 10
38.8492287962
 20
21.2756847855
 10
38.743863075
 20
21.3069643667
 10
38.6456453831
 20
21.345218523
 10
38.5559544815
 20
21.3899102502
 10
38.4760494339
 20
21.4404121742
 10
38.407051932
 20
21.4960153589
 10
38.3499305495
 20
21.5559392572
 10
38.3054871455
 20
21.6193426692
 10
38.2743456078
 20
21.6853355498
 10
38.2743456078
 20
21.6853355498
  0
LWPOLYLINE
  5
2B7
330
1F
100
AcDbEntity
  8
0
  6
SLD-Solid
 62
     7
370
    25
100
AcDbPolyline
 90
        3
 70
   128
 43
0.0
 10
38.2743456078
 20
21.6485912132
 10
38.2569430954
 20
21.7162471671
 10
38.2530614678
 20
21.7670622214
  0
LWPOLYLINE
  5
2B8
330
1F
100
AcDbEntity
  8
0
  6
SLD-Solid
 62
     7
370
    25
100
AcDbPolyline
 90
       26
 70
   128
 43
0.0
 10
40.2530614678
 20
21.7670622214
 10
40.2490421822
 20
21.7153557479
 10
40.2314580045
 20
21.6477154498
 10
40.200139284
 20
21.5817505188
 10
40.155525667
 20
21.5183869579
 10
40.0982434309
 20
21.4585142525
 10
40.0290966927
 20
21.4029728843
 10
39.9490561211
 20
21.3525425323
 10
39.8592453101
 20
21.3079311281
 10
39.7609250068
 20
21.269764918
 10
39.6554754126
 20
21.2385796719
 10
39.5443768088
 20
21.2148131624
 10
39.4291887761
 20
21.1987990192
 10
39.3115283021
 20
21.1907620456
 10
39.1930470819
 20
21.1908150633
 10
39.0754083321
 20
21.1989573279
 10
38.960263443
 20
21.2150745399
 10
38.8492287962
 20
21.238940449
 10
38.743863075
 20
21.2702200301
 10
38.6456453831
 20
21.3084741865
 10
38.5559544815
 20
21.3531659137
 10
38.4760494339
 20
21.4036678377
 10
38.407051932
 20
21.4592710223
 10
38.3499305495
 20
21.5191949207
 10
38.3054871455
 20
21.5825983326
 10
38.2743456078
 20
21.6485912132
  0
LWPOLYLINE
  5
2B9
330
1F
100
AcDbEntity
  8
0
  6
SLD-Solid
 62
     7
370
    25
100
AcDbPolyline
 90
        3
 70
   128
 43
0.0
 10
38.8342689526
 20
21.7854343896
 10
38.8386225242
 20
21.8063871773
 10
38.8450614678
 20
21.824605964
  0
LWPOLYLINE
  5
2BA
330
1F
100
AcDbEntity
  8
0
  6
SLD-Solid
 62
     7
370
    25
100
AcDbPolyline
 90
        3
 70
   128
 43
0.0
 10
39.6610614678
 20
21.824605964
 10
39.664122129
 20
21.8168200448
 10
39.6718539831
 20
21.7854343896
  0
LWPOLYLINE
  5
2BB
330
1F
100
AcDbEntity
  8
0
  6
SLD-Solid
 62
     7
370
    25
100
AcDbPolyline
 90
       22
 70
   128
 43
0.0
 10
40.1065959702
 20
21.4662743527
 10
40.0811698444
 20
21.4257277017
 10
40.0320890959
 20
21.3673567401
 10
39.9707226163
 20
21.3129972068
 10
39.8980381918
 20
21.2635063841
 10
39.8151820989
 20
21.219664772
 10
39.723461028
 20
21.1821637787
 10
39.624321475
 20
21.1515948174
 10
39.5193269299
 20
21.1284399789
 10
39.4101332193
 20
21.1130644287
 10
39.2984623935
 20
21.1057106486
 10
39.1860755679
 20
21.1064946119
 10
39.07474515
 20
21.1154039552
 10
38.9662268869
 20
21.1322981727
 10
38.8622321765
 20
21.1569108326
 10
38.7644010775
 20
21.1888537785
 10
38.6742764448
 20
21.2276232511
 10
38.5932795977
 20
21.2726078326
 10
38.5226879047
 20
21.3230980893
 10
38.4636146392
 20
21.3782977597
 10
38.4169914217
 20
21.437336312
 10
38.3995269655
 20
21.4662743527
  0
LWPOLYLINE
  5
2BC
330
1F
100
AcDbEntity
  8
0
  6
SLD-Solid
 62
     7
370
    25
100
AcDbPolyline
 90
        3
 70
   128
 43
0.0
 10
39.6610614678
 20
21.7904120643
 10
39.6610621228
 20
21.7904082497
 10
39.6617007755
 20
21.7477950224
  0
LWPOLYLINE
  5
2BD
330
1F
100
AcDbEntity
  8
0
  6
SLD-Solid
 62
     7
370
    25
100
AcDbPolyline
 90
        3
 70
   128
 43
0.0
 10
38.8444221602
 20
21.7477950224
 10
38.8445768054
 20
21.7873929192
 10
38.8450614678
 20
21.7904120643
  0
LINE
  5
2BE
330
1F
100
AcDbEntity
  8
0
  6
SLD-Solid
 62
     7
370
    25
100
AcDbLine
 10
38.7830345716
 20
21.0296380151
 30
0.0
 11
38.7830345716
 21
21.1820309418
 31
0.0
  0
LINE
  5
2BF
330
1F
100
AcDbEntity
  8
0
  6
SLD-Solid
 62
     7
370
    25
100
AcDbLine
 10
38.7028489684
 20
21.0641319537
 30
0.0
 11
38.7830345716
 21
21.0296380151
 31
0.0
  0
LINE
  5
2C0
330
1F
100
AcDbEntity
  8
0
  6
SLD-Solid
 62
     7
370
    25
100
AcDbLine
 10
38.7028489684
 20
21.0641319537
 30
0.0
 11
38.7028489684
 21
21.2142120348
 31
0.0
  0
LINE
  5
2C1
330
1F
100
AcDbEntity
  8
0
  6
SLD-Solid
 62
     7
370
    25
100
AcDbLine
 10
38.974881653
 20
21.0966094715
 30
0.0
 11
38.974881653
 21
21.1306360957
 31
0.0
  0
LINE
  5
2C2
330
1F
100
AcDbEntity
  8
0
  6
SLD-Solid
 62
     7
370
    25
100
AcDbLine
 10
38.974881653
 20
21.0966094715
 30
0.0
 11
38.8427862999
 21
20.9942740973
 31
0.0
  0
LWPOLYLINE
  5
2C3
330
1F
100
AcDbEntity
  8
0
  6
SLD-Solid
 62
     7
370
    25
100
AcDbPolyline
 90
        9
 70
   128
 43
0.0
 10
38.7830345716
 20
21.0296380151
 10
38.7841826843
 20
21.0145975466
 10
38.7875829011
 20
21.0019139799
 10
38.7931045535
 20
20.9920747374
 10
38.8005354476
 20
20.9854579356
 10
38.8095900183
 20
20.9823178544
 10
38.8199203034
 20
20.9827751655
 10
38.831129316
 20
20.9868122947
 10
38.8427862999
 20
20.9942740973
  0
LINE
  5
2C4
330
1F
100
AcDbEntity
  8
0
  6
SLD-Solid
 62
     7
370
    25
100
AcDbLine
 10
39.6503009764
 20
21.1587253757
 30
0.0
 11
39.6503009764
 21
21.1535449448
 31
0.0
  0
LWPOLYLINE
  5
2C5
330
1F
100
AcDbEntity
  8
0
  6
SLD-Solid
 62
     7
370
    25
100
AcDbPolyline
 90
       12
 70
   128
 43
0.0
 10
39.7002205477
 20
21.132070733
 10
39.6549404643
 20
21.0977620652
 10
39.5930862322
 20
21.0631867666
 10
39.5224255373
 20
21.034787125
 10
39.4447884546
 20
21.0132986762
 10
39.3621857436
 20
20.9992779598
 10
39.2767567712
 20
20.9930881049
 10
39.1907141028
 20
20.9948894256
 10
39.1062861985
 20
21.0046352685
 10
39.0256596965
 20
21.0220732215
 10
38.950922781
 20
21.0467516508
 10
38.9247544476
 20
21.0577755065
  0
ARC
  5
2C6
330
1F
100
AcDbEntity
  8
0
  6
SLD-Solid
 62
     7
370
    25
100
AcDbCircle
 10
38.7482266487
 20
21.0570033785
 30
0.0
 40
0.0459341969705609
100
AcDbArc
 50
171.072124644
 51
236.8141450727
  0
LINE
  5
2C7
330
1F
100
AcDbEntity
  8
0
  6
SLD-Solid
 62
     7
370
    25
100
AcDbLine
 10
39.9675075828
 20
21.1707382267
 30
0.0
 11
39.9675075828
 21
21.3105219951
 31
0.0
  0
LINE
  5
2C8
330
1F
100
AcDbEntity
  8
0
  6
SLD-Solid
 62
     7
370
    25
100
AcDbLine
 10
39.9077558544
 20
21.1244480633
 30
0.0
 11
39.9675075828
 21
21.1707382267
 31
0.0
  0
LINE
  5
2C9
330
1F
100
AcDbEntity
  8
0
  6
SLD-Solid
 62
     7
370
    25
100
AcDbLine
 10
39.9077558544
 20
21.1244480633
 30
0.0
 11
39.9077558544
 21
21.269430402
 31
0.0
  0
ARC
  5
2CA
330
1F
100
AcDbEntity
  8
0
  6
SLD-Solid
 62
     7
370
    25
100
AcDbCircle
 10
39.855553792
 20
21.121457166
 30
0.0
 40
0.0522876733988146
100
AcDbArc
 50
237.6435904336
 51
3.2791548395
  0
LINE
  5
2CB
330
1F
100
AcDbEntity
  8
0
  6
SLD-Solid
 62
     7
370
    25
100
AcDbLine
 10
39.8275702512
 20
21.0772879207
 30
0.0
 11
39.6503009764
 21
21.1535449448
 31
0.0
  0
ARC
  5
2CC
330
1F
100
AcDbEntity
  8
0
  6
SLD-Solid
 62
     7
370
    25
100
AcDbCircle
 10
39.9136778841
 20
21.1673164884
 30
0.0
 40
0.0539383421678596
100
AcDbArc
 50
310.3001237468
 51
3.6371695972
  0
LWPOLYLINE
  5
2CD
330
1F
100
AcDbEntity
  8
0
  6
SLD-Solid
 62
     7
370
    25
100
AcDbPolyline
 90
       15
 70
   128
 43
0.0
 10
38.9863065828
 20
19.3902029201
 10
39.0498176745
 20
19.3650610062
 10
39.1202499899
 20
19.3470842052
 10
39.1952050409
 20
19.3368846956
 10
39.2721303231
 20
19.3348098093
 10
39.3484062383
 20
19.3409302042
 10
39.4214353016
 20
19.3550374576
 10
39.4887305961
 20
19.3766511639
 10
39.548000461
 20
19.4050352942
 10
39.5972265322
 20
19.439223261
 10
39.634732475
 20
19.4780508341
 10
39.6592410694
 20
19.5201957871
 10
39.6699177046
 20
19.5642229241
 10
39.6663988006
 20
19.6086329538
 10
39.6615614678
 20
19.624709766
  0
LWPOLYLINE
  5
2CE
330
1F
100
AcDbEntity
  8
0
  6
SLD-Solid
 62
     7
370
    25
100
AcDbPolyline
 90
        7
 70
   128
 43
0.0
 10
38.8445614678
 20
19.624709766
 10
38.8362052311
 20
19.5867104404
 10
38.8397241351
 20
19.5423004107
 10
38.8573187462
 20
19.4990198186
 10
38.888389901
 20
19.4583425327
 10
38.9318795087
 20
19.4216537693
 10
38.9863065828
 20
19.3902029201
  0
LINE
  5
2CF
330
1F
100
AcDbEntity
  8
0
  6
SLD-Solid
 62
     7
370
    25
100
AcDbLine
 10
38.8843552354
 20
19.2934871635
 30
0.0
 11
39.4917234643
 21
19.2501437817
 31
0.0
  0
LINE
  5
2D0
330
1F
100
AcDbEntity
  8
0
  6
SLD-Solid
 62
     7
370
    25
100
AcDbLine
 10
38.6456932388
 20
19.6188100641
 30
0.0
 11
38.8843552354
 21
19.2934871635
 31
0.0
  0
LINE
  5
2D1
330
1F
100
AcDbEntity
  8
0
  6
SLD-Solid
 62
     7
370
    25
100
AcDbLine
 10
38.8445614678
 20
19.7709007058
 30
0.0
 11
38.6456932388
 21
19.6188100641
 31
0.0
  0
LINE
  5
2D2
330
1F
100
AcDbEntity
  8
0
  6
SLD-Solid
 62
     7
370
    25
100
AcDbLine
 10
39.8604296968
 20
19.5321233005
 30
0.0
 11
39.6615614678
 21
19.8032028608
 31
0.0
  0
LINE
  5
2D3
330
1F
100
AcDbEntity
  8
0
  6
SLD-Solid
 62
     7
370
    25
100
AcDbLine
 10
39.4917234643
 20
19.2501437817
 30
0.0
 11
39.8604296968
 21
19.5321233005
 31
0.0
  0
LINE
  5
2D4
330
1F
100
AcDbEntity
  8
0
  6
SLD-Solid
 62
     7
370
    25
100
AcDbLine
 10
38.8843552354
 20
19.2934871635
 30
0.0
 11
38.8843552354
 21
19.0975173686
 31
0.0
  0
LINE
  5
2D5
330
1F
100
AcDbEntity
  8
0
  6
SLD-Solid
 62
     7
370
    25
100
AcDbLine
 10
39.4917234643
 20
19.2501437817
 30
0.0
 11
39.4917234643
 21
19.0541739868
 31
0.0
  0
LINE
  5
2D6
330
1F
100
AcDbEntity
  8
0
  6
SLD-Solid
 62
     7
370
    25
100
AcDbLine
 10
38.8843552354
 20
19.0975173686
 30
0.0
 11
39.4917234643
 21
19.0541739868
 31
0.0
  0
LINE
  5
2D7
330
1F
100
AcDbEntity
  8
0
  6
SLD-Solid
 62
     7
370
    25
100
AcDbLine
 10
39.8604296968
 20
19.5321233005
 30
0.0
 11
39.8604296968
 21
19.3361535056
 31
0.0
  0
LINE
  5
2D8
330
1F
100
AcDbEntity
  8
0
  6
SLD-Solid
 62
     7
370
    25
100
AcDbLine
 10
39.4917234643
 20
19.0541739868
 30
0.0
 11
39.8604296968
 21
19.3361535056
 31
0.0
  0
LINE
  5
2D9
330
1F
100
AcDbEntity
  8
0
  6
SLD-Solid
 62
     7
370
    25
100
AcDbLine
 10
38.6456932388
 20
19.6188100641
 30
0.0
 11
38.6456932388
 21
19.4228402692
 31
0.0
  0
LINE
  5
2DA
330
1F
100
AcDbEntity
  8
0
  6
SLD-Solid
 62
     7
370
    25
100
AcDbLine
 10
38.6456932388
 20
19.4228402692
 30
0.0
 11
38.8843552354
 21
19.0975173686
 31
0.0
  0
LWPOLYLINE
  5
2DB
330
1F
100
AcDbEntity
  8
0
  6
SLD-Solid
 62
     8
370
    25
100
AcDbPolyline
 90
       19
 70
   128
 43
0.0
 10
39.5991668913
 20
24.7173237076
 10
39.6002810487
 20
24.7127002772
 10
39.6020751808
 20
24.6718283037
 10
39.5895806505
 20
24.6315844909
 10
39.5633089853
 20
24.5936164253
 10
39.5243357503
 20
24.5594785238
 10
39.4742565143
 20
24.5305683963
 10
39.4151215271
 20
24.5080696266
 10
39.349351782
 20
24.4929033171
 10
39.2796399002
 20
24.4856903783
 10
39.2088398942
 20
24.4867261087
 10
39.1398503246
 20
24.4959681054
 10
39.0754956326
 20
24.513038
 10
39.0184105067
 20
24.537236949
 10
38.9709320187
 20
24.5675742446
 10
38.9350039435
 20
24.6028078743
 10
38.9120971808
 20
24.6414953692
 10
38.903149536
 20
24.6820528587
 10
38.9069560443
 20
24.7173237076
  0
LWPOLYLINE
  5
2DC
330
1F
100
AcDbEntity
  8
0
  6
SLD-Solid
 62
     8
370
    25
100
AcDbPolyline
 90
       24
 70
   128
 43
0.0
 10
39.8358223315
 20
23.3861307643
 10
39.8358244247
 20
23.3852290897
 10
39.8286496456
 20
23.3326011106
 10
39.8073019754
 20
23.2812690071
 10
39.7723070644
 20
23.2324967459
 10
39.7245266036
 20
23.1874852618
 10
39.6651371064
 20
23.147342887
 10
39.5956009394
 20
23.1130580601
 10
39.5176303138
 20
23.0854749872
 10
39.4331451252
 20
23.0652728551
 10
39.3442256792
 20
23.0529491074
 10
39.2530614678
 20
23.0488071956
 10
39.1618972564
 20
23.0529491074
 10
39.0729778105
 20
23.0652728551
 10
38.9884926218
 20
23.0854749872
 10
38.9105219962
 20
23.1130580601
 10
38.8409858292
 20
23.147342887
 10
38.781596332
 20
23.1874852618
 10
38.7338158712
 20
23.2324967459
 10
38.6988209603
 20
23.2812690071
 10
38.67747329
 20
23.3326011106
 10
38.670298511
 20
23.3852290897
 10
38.67747329
 20
23.4378570687
 10
38.6972275327
 20
23.4863142952
  0
LWPOLYLINE
  5
2DD
330
1F
100
AcDbEntity
  8
0
  6
SLD-Solid
 62
     8
370
    25
100
AcDbPolyline
 90
       29
 70
   128
 43
0.0
 10
38.2708017442
 20
22.6162258067
 10
38.2717690137
 20
22.5924800452
 10
38.2838196598
 20
22.5256565854
 10
38.3094763363
 20
22.4601249428
 10
38.3483788796
 20
22.396805038
 10
38.3999811834
 20
22.3365857437
 10
38.4635588644
 20
22.2803124068
 10
38.5382194313
 20
22.2287749816
 10
38.6229148135
 20
22.1826969406
 10
38.7164560734
 20
22.1427251184
 10
38.8175300968
 20
22.1094206318
 10
38.9247180259
 20
22.0832510029
 10
39.0365151772
 20
22.0645835958
 10
39.1513521638
 20
22.05368046
 10
39.2676169261
 20
22.0506946516
 10
39.3836773616
 20
22.0556680849
 10
39.4979042363
 20
22.0685309437
 10
39.6086940552
 20
22.0891026617
 10
39.7144915722
 20
22.1170944571
 10
39.8138116219
 20
22.1521133864
 10
39.9052599687
 20
22.1936678607
 10
39.9875528781
 20
22.2411745461
 10
40.0595351382
 20
22.293966553
 10
40.1201962758
 20
22.3513027973
 10
40.1686847414
 20
22.4123784038
 10
40.2043198634
 20
22.4763360049
 10
40.2266014026
 20
22.542277776
 10
40.2352165752
 20
22.6092780393
 10
40.2353150385
 20
22.620159653
  0
LWPOLYLINE
  5
2DE
330
1F
100
AcDbEntity
  8
0
  6
SLD-Solid
 62
     8
370
    25
100
AcDbPolyline
 90
       27
 70
   128
 43
0.0
 10
40.4622140636
 20
15.3014965392
 10
40.3472502292
 20
15.2409134179
 10
40.2232196021
 20
15.186616395
 10
40.0911499392
 20
15.1390553927
 10
39.9521356112
 20
15.0986245165
 10
39.8073285348
 20
15.0656587894
 10
39.6579286268
 20
15.0404313757
 10
39.5051738621
 20
15.0231513178
 10
39.3503300146
 20
15.0139618037
 10
39.1946801694
 20
15.0129389805
 10
39.03951409
 20
15.0200913238
 10
38.8861175314
 20
15.0353595669
 10
38.7357615858
 20
15.0586171923
 10
38.58969215
 20
15.0896714801
 10
38.4491196012
 20
15.1282651047
 10
38.315208768
 20
15.174078267
 10
38.1890692776
 20
15.2267313449
 10
38.0717463615
 20
15.2857880383
 10
37.9642121945
 20
15.350758985
 10
37.8673578385
 20
15.421105815
 10
37.7819858591
 20
15.4962456126
 10
37.7088036755
 20
15.5755557456
 10
37.6484176984
 20
15.6583790252
 10
37.6013283049
 20
15.7440291518
 10
37.5679256925
 20
15.8317964014
 10
37.5484866459
 20
15.920953507
 10
37.543068896
 20
15.9966157872
  0
LWPOLYLINE
  5
2DF
330
1F
100
AcDbEntity
  8
0
  6
SLD-Solid
 62
     8
370
    25
100
AcDbPolyline
 90
       10
 70
   128
 43
0.0
 10
40.9630399107
 20
15.9945686953
 10
40.9602928024
 20
15.943373538
 10
40.9443743722
 20
15.8539840876
 10
40.9144411907
 20
15.7658006389
 10
40.8707412935
 20
15.6795539079
 10
40.8136367919
 20
15.595958562
 10
40.7436008716
 20
15.5157072987
 10
40.6612138724
 20
15.4394651051
 10
40.5671584789
 20
15.3678637482
 10
40.4622140636
 20
15.3014965392
  0
INSERT
  5
2E5
330
1F
100
AcDbEntity
  8
NOTES
100
AcDbBlockReference
  2
SW_NOTE_0_3
 10
37.9297568244
 20
10.6026262297
 30
0.0
  0
ARC
  5
2E6
330
1F
100
AcDbEntity
  8
0
  6
SLD-Solid
 62
     7
370
    25
100
AcDbCircle
 10
23.9337409019
 20
11.4996136891
 30
0.0
 40
0.2000000000000011
100
AcDbArc
 50
180.0
 51
270.0
  0
ARC
  5
2E7
330
1F
100
AcDbEntity
  8
0
  6
SLD-Solid
 62
     7
370
    25
100
AcDbCircle
 10
26.9537409019
 20
11.4996136891
 30
0.0
 40
0.2000000000000028
100
AcDbArc
 50
270.0
 51
0.0
  0
ARC
  5
2E8
330
1F
100
AcDbEntity
  8
0
  6
SLD-Solid
 62
     7
370
    25
100
AcDbCircle
 10
26.9537409019
 20
15.3602352731
 30
0.0
 40
0.2000000000000028
100
AcDbArc
 50
0.0
 51
69.6928815087
  0
ARC
  5
2E9
330
1F
100
AcDbEntity
  8
0
  6
SLD-Solid
 62
     7
370
    25
100
AcDbCircle
 10
23.9337409019
 20
15.3602352731
 30
0.0
 40
0.2000000000000005
100
AcDbArc
 50
110.3071184913
 51
180.0
  0
LINE
  5
2EA
330
1F
100
AcDbEntity
  8
0
  6
SLD-Solid
 62
     7
370
    25
100
AcDbLine
 10
23.7337409019
 20
15.3602352731
 30
0.0
 11
23.7337409019
 21
11.4996136891
 31
0.0
  0
LINE
  5
2EB
330
1F
100
AcDbEntity
  8
0
  6
SLD-Solid
 62
     7
370
    25
100
AcDbLine
 10
27.1537409019
 20
11.4996136891
 30
0.0
 11
27.1537409019
 21
15.3602352731
 31
0.0
  0
LINE
  5
2EC
330
1F
100
AcDbEntity
  8
0
  6
SLD-Solid
 62
     7
370
    25
100
AcDbLine
 10
27.1487409019
 20
17.5096136891
 30
0.0
 11
26.2087409019
 21
18.4086136891
 31
0.0
  0
LINE
  5
2ED
330
1F
100
AcDbEntity
  8
0
  6
SLD-Solid
 62
     7
370
    25
100
AcDbLine
 10
24.6787409019
 20
18.4086136891
 30
0.0
 11
23.7387409019
 21
17.5096136891
 31
0.0
  0
LINE
  5
2EE
330
1F
100
AcDbEntity
  8
0
  6
SLD-Solid
 62
     7
370
    25
100
AcDbLine
 10
23.7387409019
 20
17.5096136891
 30
0.0
 11
23.9187409019
 21
15.5679391541
 31
0.0
  0
LINE
  5
2EF
330
1F
100
AcDbEntity
  8
0
  6
SLD-Solid
 62
     7
370
    25
100
AcDbLine
 10
26.9687409019
 20
15.5679391541
 30
0.0
 11
27.1487409019
 21
17.5096136891
 31
0.0
  0
LINE
  5
2F0
330
1F
100
AcDbEntity
  8
0
  6
SLD-Solid
 62
     7
370
    25
100
AcDbLine
 10
27.0231513366
 20
15.5478044378
 30
0.0
 11
26.9687409019
 21
15.5679391541
 31
0.0
  0
LINE
  5
2F1
330
1F
100
AcDbEntity
  8
0
  6
SLD-Solid
 62
     7
370
    25
100
AcDbLine
 10
23.9187409019
 20
15.5679391541
 30
0.0
 11
23.8643304673
 21
15.5478044378
 31
0.0
  0
LINE
  5
2F2
330
1F
100
AcDbEntity
  8
0
  6
SLD-Solid
 62
     7
370
    25
100
AcDbLine
 10
24.5387409019
 20
19.1866136891
 30
0.0
 11
24.5387409019
 21
18.5086136891
 31
0.0
  0
LINE
  5
2F3
330
1F
100
AcDbEntity
  8
0
  6
SLD-Solid
 62
     7
370
    25
100
AcDbLine
 10
26.3487409019
 20
18.5086136891
 30
0.0
 11
26.3487409019
 21
19.1866136891
 31
0.0
  0
LINE
  5
2F4
330
1F
100
AcDbEntity
  8
0
  6
SLD-Solid
 62
     7
370
    25
100
AcDbLine
 10
24.6787409019
 20
18.5086136891
 30
0.0
 11
24.6787409019
 21
18.4086136891
 31
0.0
  0
LINE
  5
2F5
330
1F
100
AcDbEntity
  8
0
  6
SLD-Solid
 62
     7
370
    25
100
AcDbLine
 10
26.2087409019
 20
18.4086136891
 30
0.0
 11
26.2087409019
 21
18.5086136891
 31
0.0
  0
LINE
  5
2F6
330
1F
100
AcDbEntity
  8
0
  6
SLD-Solid
 62
     7
370
    25
100
AcDbLine
 10
24.8887409019
 20
19.4996136891
 30
0.0
 11
24.8887409019
 21
19.1866136891
 31
0.0
  0
LINE
  5
2F7
330
1F
100
AcDbEntity
  8
0
  6
SLD-Solid
 62
     7
370
    25
100
AcDbLine
 10
25.9987409019
 20
19.1866136891
 30
0.0
 11
25.9987409019
 21
19.4996136891
 31
0.0
  0
LINE
  5
2F8
330
1F
100
AcDbEntity
  8
0
  6
SLD-Solid
 62
     7
370
    25
100
AcDbLine
 10
25.8522409019
 20
20.3396136891
 30
0.0
 11
25.8122409019
 21
20.3796136891
 31
0.0
  0
LINE
  5
2F9
330
1F
100
AcDbEntity
  8
0
  6
SLD-Solid
 62
     7
370
    25
100
AcDbLine
 10
25.0752409019
 20
20.3796136891
 30
0.0
 11
25.0352409019
 21
20.3396136891
 31
0.0
  0
LINE
  5
2FA
330
1F
100
AcDbEntity
  8
0
  6
SLD-Solid
 62
     7
370
    25
100
AcDbLine
 10
25.8522409019
 20
19.7396136891
 30
0.0
 11
25.8522409019
 21
20.3396136891
 31
0.0
  0
LINE
  5
2FB
330
1F
100
AcDbEntity
  8
0
  6
SLD-Solid
 62
     7
370
    25
100
AcDbLine
 10
25.0352409019
 20
20.3396136891
 30
0.0
 11
25.0352409019
 21
19.7396136891
 31
0.0
  0
LINE
  5
2FC
330
1F
100
AcDbEntity
  8
0
  6
SLD-Solid
 62
     7
370
    25
100
AcDbLine
 10
25.8517409019
 20
20.5856136891
 30
0.0
 11
25.8517409019
 21
21.8536136891
 31
0.0
  0
LINE
  5
2FD
330
1F
100
AcDbEntity
  8
0
  6
SLD-Solid
 62
     7
370
    25
100
AcDbLine
 10
25.8517409019
 20
22.4686136891
 30
0.0
 11
25.8517409019
 21
23.3556136891
 31
0.0
  0
LINE
  5
2FE
330
1F
100
AcDbEntity
  8
0
  6
SLD-Solid
 62
     7
370
    25
100
AcDbLine
 10
25.8517409019
 20
23.4861136891
 30
0.0
 11
25.8517409019
 21
24.2836136891
 31
0.0
  0
LINE
  5
2FF
330
1F
100
AcDbEntity
  8
0
  6
SLD-Solid
 62
     7
370
    25
100
AcDbLine
 10
25.0357409019
 20
24.2836136891
 30
0.0
 11
25.0357409019
 21
23.4861136891
 31
0.0
  0
LINE
  5
300
330
1F
100
AcDbEntity
  8
0
  6
SLD-Solid
 62
     7
370
    25
100
AcDbLine
 10
25.0357409019
 20
23.3556136891
 30
0.0
 11
25.0357409019
 21
22.4686136891
 31
0.0
  0
LINE
  5
301
330
1F
100
AcDbEntity
  8
0
  6
SLD-Solid
 62
     7
370
    25
100
AcDbLine
 10
25.0357409019
 20
21.8536136891
 30
0.0
 11
25.0357409019
 21
20.5856136891
 31
0.0
  0
LINE
  5
302
330
1F
100
AcDbEntity
  8
0
  6
SLD-Solid
 62
     7
370
    25
100
AcDbLine
 10
25.0357409019
 20
20.5856136891
 30
0.0
 11
25.0757409019
 21
20.5456136891
 31
0.0
  0
LINE
  5
303
330
1F
100
AcDbEntity
  8
0
  6
SLD-Solid
 62
     7
370
    25
100
AcDbLine
 10
25.8117409019
 20
20.5456136891
 30
0.0
 11
25.8517409019
 21
20.5856136891
 31
0.0
  0
LINE
  5
304
330
1F
100
AcDbEntity
  8
0
  6
SLD-Solid
 62
     7
370
    25
100
AcDbLine
 10
25.7881394455
 20
20.3796136891
 30
0.0
 11
25.7881394455
 21
20.5456136891
 31
0.0
  0
LINE
  5
305
330
1F
100
AcDbEntity
  8
0
  6
SLD-Solid
 62
     7
370
    25
100
AcDbLine
 10
25.0993423584
 20
20.5456136891
 30
0.0
 11
25.0993423584
 21
20.3796136891
 31
0.0
  0
LINE
  5
306
330
1F
100
AcDbEntity
  8
0
  6
SLD-Solid
 62
     7
370
    25
100
AcDbLine
 10
26.2517409019
 20
23.4236136891
 30
0.0
 11
26.2517409019
 21
23.4861136891
 31
0.0
  0
LINE
  5
307
330
1F
100
AcDbEntity
  8
0
  6
SLD-Solid
 62
     7
370
    25
100
AcDbLine
 10
24.6357409019
 20
23.4861136891
 30
0.0
 11
24.6357409019
 21
23.4236136891
 31
0.0
  0
ARC
  5
308
330
1F
100
AcDbEntity
  8
0
  6
SLD-Solid
 62
     7
370
    25
100
AcDbCircle
 10
23.8886680211
 20
27.4100147215
 30
0.0
 40
0.0299999999999994
100
AcDbArc
 50
334.0
 51
87.0254920085
  0
ARC
  5
309
330
1F
100
AcDbEntity
  8
0
  6
SLD-Solid
 62
     7
370
    25
100
AcDbCircle
 10
23.0516833347
 20
25.6939418035
 30
0.0
 40
0.0300000000000015
100
AcDbArc
 50
220.9745079915
 51
334.0
  0
LINE
  5
30A
330
1F
100
AcDbEntity
  8
0
  6
SLD-Solid
 62
     7
370
    25
100
AcDbLine
 10
23.8902247704
 20
27.4399743031
 30
0.0
 11
22.8702290937
 21
27.4929749596
 31
0.0
  0
LINE
  5
30B
330
1F
100
AcDbEntity
  8
0
  6
SLD-Solid
 62
     7
370
    25
100
AcDbLine
 10
22.3592961623
 20
26.4454072076
 30
0.0
 11
23.0290332927
 21
25.6742701081
 31
0.0
  0
ARC
  5
30C
330
1F
100
AcDbEntity
  8
0
  6
SLD-Solid
 62
     7
370
    25
100
AcDbCircle
 10
22.3819462043
 20
26.4650789029
 30
0.0
 40
0.0299999999999988
100
AcDbArc
 50
154.0
 51
220.9745079915
  0
ARC
  5
30D
330
1F
100
AcDbEntity
  8
0
  6
SLD-Solid
 62
     7
370
    25
100
AcDbCircle
 10
22.8686723445
 20
27.4630153779
 30
0.0
 40
0.0300000000000025
100
AcDbArc
 50
87.0254920085
 51
154.0
  0
ARC
  5
30E
330
1F
100
AcDbEntity
  8
0
  6
SLD-Solid
 62
     7
370
    25
100
AcDbCircle
 10
21.5605005928
 20
26.9769540205
 30
0.0
 40
0.0299999999999984
100
AcDbArc
 50
232.0819228728
 51
314.9229086802
  0
ARC
  5
30F
330
1F
100
AcDbEntity
  8
0
  6
SLD-Solid
 62
     7
370
    25
100
AcDbCircle
 10
21.9595768302
 20
27.7951815632
 30
0.0
 40
0.0300000000000006
100
AcDbArc
 50
353.0770913198
 51
75.9180771272
  0
LINE
  5
310
330
1F
100
AcDbEntity
  8
0
  6
SLD-Solid
 62
     7
370
    25
100
AcDbLine
 10
21.5087506116
 20
27.9391995487
 30
0.0
 11
21.335110961
 21
27.9827565781
 31
0.0
  0
LINE
  5
311
330
1F
100
AcDbEntity
  8
0
  6
SLD-Solid
 62
     7
370
    25
100
AcDbLine
 10
21.9668761002
 20
27.8242800281
 30
0.0
 11
21.8644737017
 21
27.8499673885
 31
0.0
  0
LINE
  5
312
330
1F
100
AcDbEntity
  8
0
  6
SLD-Solid
 62
     7
370
    25
100
AcDbLine
 10
21.0282298856
 20
27.3535571303
 30
0.0
 11
21.5420645689
 21
26.9532873135
 31
0.0
  0
LINE
  5
313
330
1F
100
AcDbEntity
  8
0
  6
SLD-Solid
 62
     7
370
    25
100
AcDbLine
 10
21.5816852348
 20
26.955712294
 30
0.0
 11
21.7427536079
 21
27.1163478151
 31
0.0
  0
LINE
  5
314
330
1F
100
AcDbEntity
  8
0
  6
SLD-Solid
 62
     7
370
    25
100
AcDbLine
 10
21.9619391812
 20
27.5657448383
 30
0.0
 11
21.9893581071
 21
27.7915655502
 31
0.0
  0
ARC
  5
315
330
1F
100
AcDbEntity
  8
0
  6
SLD-Solid
 62
     7
370
    25
100
AcDbCircle
 10
21.0466659095
 20
27.3772238374
 30
0.0
 40
0.0300000000000009
100
AcDbArc
 50
154.0
 51
232.0819228728
  0
ARC
  5
316
330
1F
100
AcDbEntity
  8
0
  6
SLD-Solid
 62
     7
370
    25
100
AcDbCircle
 10
21.3278116911
 20
27.9536581133
 30
0.0
 40
0.0300000000000031
100
AcDbArc
 50
75.9180771272
 51
154.0
  0
LINE
  5
317
330
1F
100
AcDbEntity
  8
0
  6
SLD-Solid
 62
     7
370
    25
100
AcDbLine
 10
22.7079382397
 20
27.2018967864
 30
0.0
 11
21.9619391812
 21
27.5657448383
 31
0.0
  0
LINE
  5
318
330
1F
100
AcDbEntity
  8
0
  6
SLD-Solid
 62
     7
370
    25
100
AcDbLine
 10
21.7427536079
 20
27.1163478151
 30
0.0
 11
22.4887526663
 21
26.7524997633
 31
0.0
  0
LINE
  5
319
330
1F
100
AcDbEntity
  8
0
  6
SLD-Solid
 62
     7
370
    25
100
AcDbLine
 10
23.3949990221
 20
26.3294081153
 30
0.0
 11
24.1679619019
 21
25.952408929
 31
0.0
  0
LINE
  5
31A
330
1F
100
AcDbEntity
  8
0
  6
SLD-Solid
 62
     7
370
    25
100
AcDbLine
 10
24.3722428563
 20
26.3712469546
 30
0.0
 11
23.5992799765
 21
26.7482461408
 31
0.0
  0
LINE
  5
31B
330
1F
100
AcDbEntity
  8
0
  6
SLD-Solid
 62
     7
370
    25
100
AcDbLine
 10
21.8644737017
 20
27.8499673885
 30
0.0
 11
22.4878249291
 21
29.8130365595
 31
0.0
  0
LINE
  5
31C
330
1F
100
AcDbEntity
  8
0
  6
SLD-Solid
 62
     7
370
    25
100
AcDbLine
 10
22.1551061147
 20
29.9747142083
 30
0.0
 11
21.5087506116
 21
27.9391995487
 31
0.0
  0
SPLINE
  5
31D
330
1F
100
AcDbEntity
  8
0
  6
SLD-Solid
 62
     7
370
    25
100
AcDbSpline
210
0.0
220
0.0
230
1.0
 70
     8
 71
     3
 72
    16
 73
    12
 74
     0
 42
0.00000001
 43
0.00000001
 40
0.0
 40
0.0
 40
0.0
 40
0.0
 40
0.0961462137360605
 40
0.1767630493659824
 40
0.2610304354964486
 40
0.3894316700990438
 40
0.5112056464532654
 40
0.6272912771028747
 40
0.7441738911517378
 40
0.8692885792040114
 40
1.0
 40
1.0
 40
1.0
 40
1.0
 10
22.48770698081137
 20
29.81266511445927
 30
0.0
 10
22.49563779602835
 20
29.83789689603867
 30
0.0
 10
22.51021845424915
 20
29.88428506338924
 30
0.0
 10
22.53721424104477
 20
29.95096361310842
 30
0.0
 10
22.57634524618119
 20
30.02166843242432
 30
0.0
 10
22.62999853623236
 20
30.09683757692476
 30
0.0
 10
22.70035787830212
 20
30.16927579192318
 30
0.0
 10
22.77532107092119
 20
30.2321375937554
 30
0.0
 10
22.86079920230686
 20
30.28219010399874
 30
0.0
 10
22.95773414762532
 20
30.31708465632734
 30
0.0
 10
23.02659989961739
 20
30.33172053443635
 30
0.0
 10
23.06178606700114
 20
30.33919856875755
 30
0.0
  0
SPLINE
  5
31E
330
1F
100
AcDbEntity
  8
0
  6
SLD-Solid
 62
     7
370
    25
100
AcDbSpline
210
0.0
220
0.0
230
1.0
 70
     8
 71
     3
 72
    17
 73
    13
 74
     0
 42
0.00000001
 43
0.00000001
 40
0.0
 40
0.0
 40
0.0
 40
0.0
 40
0.1438179226729414
 40
0.2696628832092788
 40
0.3392397337694947
 40
0.3944142107761676
 40
0.4420422686372026
 40
0.536659389765929
 40
0.659842931617609
 40
0.7587889886994457
 40
0.8767663761320343
 40
1.0
 40
1.0
 40
1.0
 40
1.0
 10
22.98905499516834
 20
30.70662771594795
 30
0.0
 10
22.93477491144197
 20
30.69356610195019
 30
0.0
 10
22.8329981397681
 20
30.66907518715642
 30
0.0
 10
22.71287156705012
 20
30.6142441794554
 30
0.0
 10
22.62805174723521
 20
30.56704078841113
 30
0.0
 10
22.57186709513558
 20
30.53087673869432
 30
0.0
 10
22.50990567786774
 20
30.48601148809948
 30
0.0
 10
22.43177445777953
 20
30.41890050665261
 30
0.0
 10
22.34798136119818
 20
30.32878821538334
 30
0.0
 10
22.2701334254698
 20
30.22227594843626
 30
0.0
 10
22.2051271523826
 20
30.10705494676171
 30
0.0
 10
22.17205142464217
 20
30.01956212765629
 30
0.0
 10
22.15515318368068
 20
29.97486243877123
 30
0.0
  0
LINE
  5
31F
330
1F
100
AcDbEntity
  8
0
  6
SLD-Solid
 62
     7
370
    25
100
AcDbLine
 10
23.061786067
 20
30.3391985688
 30
0.0
 11
23.5539941051
 21
30.4416799719
 31
0.0
  0
LINE
  5
320
330
1F
100
AcDbEntity
  8
0
  6
SLD-Solid
 62
     7
370
    25
100
AcDbLine
 10
23.4776492607
 20
30.8083567045
 30
0.0
 11
22.9890549952
 21
30.7066277159
 31
0.0
  0
SPLINE
  5
321
330
1F
100
AcDbEntity
  8
0
  6
SLD-Solid
 62
     7
370
    25
100
AcDbSpline
210
0.0
220
0.0
230
1.0
 70
     8
 71
     3
 72
    26
 73
    22
 74
     0
 42
0.00000001
 43
0.00000001
 40
0.0
 40
0.0
 40
0.0
 40
0.0
 40
0.0921624581094084
 40
0.1701424098565248
 40
0.2359555381243404
 40
0.2913872947255047
 40
0.3379954710972763
 40
0.3771759131729206
 40
0.4101568772403982
 40
0.4559833499523247
 40
0.490411476690193
 40
0.5184748385474655
 40
0.5481139626811375
 40
0.6140228025539137
 40
0.6763145959097416
 40
0.739573597021904
 40
0.814307385697289
 40
0.867444702203093
 40
0.9245815397015992
 40
0.9831129753268136
 40
1.0
 40
1.0
 40
1.0
 40
1.0
 10
24.2289205670079
 20
26.07739271430831
 30
0.0
 10
24.29105506291809
 20
26.04634992297192
 30
0.0
 10
24.40576242952098
 20
25.98904138937817
 30
0.0
 10
24.56073972845875
 20
25.90173648610206
 30
0.0
 10
24.68828263852964
 20
25.8224583204249
 30
0.0
 10
24.79225049776649
 20
25.75031750602542
 30
0.0
 10
24.87627419159585
 20
25.68492483488272
 30
0.0
 10
24.94356213220635
 20
25.62582276062787
 30
0.0
 10
25.00655974403362
 20
25.56301727848887
 30
0.0
 10
25.06171101455234
 20
25.49763564623217
 30
0.0
 10
25.10662381557776
 20
25.4292449152971
 30
0.0
 10
25.13751406881797
 20
25.36691097920951
 30
0.0
 10
25.16772216260203
 20
25.27836983463973
 30
0.0
 10
25.17784023864486
 20
25.15863408109056
 30
0.0
 10
25.17620090872368
 20
25.01461650790882
 30
0.0
 10
25.17764285407035
 20
24.86362305540394
 30
0.0
 10
25.17623443796753
 20
24.71962053540679
 30
0.0
 10
25.17448659730491
 20
24.58021658210244
 30
0.0
 10
25.172507228022
 20
24.45303035184949
 30
0.0
 10
25.17082919960666
 20
24.35315801728565
 30
0.0
 10
25.16977974870314
 20
24.29633662522158
 30
0.0
 10
25.1695447650767
 20
24.28361368913997
 30
0.0
  0
SPLINE
  5
322
330
1F
100
AcDbEntity
  8
0
  6
SLD-Solid
 62
     7
370
    25
100
AcDbSpline
210
0.0
220
0.0
230
1.0
 70
     8
 71
     3
 72
    15
 73
    11
 74
     0
 42
0.00000001
 43
0.00000001
 40
0.0
 40
0.0
 40
0.0
 40
0.0
 40
0.091046958509281
 40
0.2514325223731866
 40
0.345095224124843
 40
0.4493031975131254
 40
0.56538458037445
 40
0.6947865871162682
 40
0.8390873254604916
 40
1.0
 40
1.0
 40
1.0
 40
1.0
 10
25.1195779002893
 20
25.71327907168356
 30
0.0
 10
25.09896284992366
 20
25.73443828577822
 30
0.0
 10
25.04203295136196
 20
25.79287093040865
 30
0.0
 10
24.95449687887672
 20
25.86308354281517
 30
0.0
 10
24.8608646593175
 20
25.9318218814211
 30
0.0
 10
24.77636526325709
 20
25.98868407142649
 30
0.0
 10
24.68013864608001
 20
26.04871969607703
 30
0.0
 10
24.57069682644901
 20
26.11200740315709
 30
0.0
 10
24.44668578416945
 20
26.17904124461674
 30
0.0
 10
24.35802654920214
 20
26.22305730296951
 30
0.0
 10
24.31128419117002
 20
26.24626316933466
 30
0.0
  0
LINE
  5
323
330
1F
100
AcDbEntity
  8
0
  6
SLD-Solid
 62
     7
370
    25
100
AcDbLine
 10
27.3177539255
 20
26.5958237269
 30
0.0
 11
31.8942886689
 21
30.3624860382
 31
0.0
  0
LINE
  5
324
330
1F
100
AcDbEntity
  8
0
  6
SLD-Solid
 62
     7
370
    25
100
AcDbLine
 10
30.192559914
 20
32.4301045627
 30
0.0
 11
25.6160251706
 21
28.6634422515
 31
0.0
  0
LINE
  5
325
330
1F
100
AcDbEntity
  8
0
  6
SLD-Solid
 62
     7
370
    25
100
AcDbLine
 10
25.6160251706
 20
28.6634422515
 30
0.0
 11
25.7622200626
 21
27.7349770714
 31
0.0
  0
LINE
  5
326
330
1F
100
AcDbEntity
  8
0
  6
SLD-Solid
 62
     7
370
    25
100
AcDbLine
 10
26.4347397084
 20
26.9178585536
 30
0.0
 11
27.3177539255
 21
26.5958237269
 31
0.0
  0
LINE
  5
327
330
1F
100
AcDbEntity
  8
0
  6
SLD-Solid
 62
     7
370
    25
100
AcDbLine
 10
25.7952620501
 20
26.3915440975
 30
0.0
 11
26.4347397084
 21
26.9178585536
 31
0.0
  0
LINE
  5
328
330
1F
100
AcDbEntity
  8
0
  6
SLD-Solid
 62
     7
370
    25
100
AcDbLine
 10
25.7622200626
 20
27.7349770714
 30
0.0
 11
25.1227424043
 21
27.2086626152
 31
0.0
  0
LINE
  5
329
330
1F
100
AcDbEntity
  8
0
  6
SLD-Solid
 62
     7
370
    25
100
AcDbLine
 10
26.3937409019
 20
23.3556136891
 30
0.0
 11
26.3937409019
 21
23.4236136891
 31
0.0
  0
LINE
  5
32A
330
1F
100
AcDbEntity
  8
0
  6
SLD-Solid
 62
     7
370
    25
100
AcDbLine
 10
24.4937409019
 20
23.4236136891
 30
0.0
 11
24.4937409019
 21
23.3556136891
 31
0.0
  0
LINE
  5
32B
330
1F
100
AcDbEntity
  8
0
  6
SLD-Solid
 62
     7
370
    25
100
AcDbLine
 10
24.4437409019
 20
22.4686136891
 30
0.0
 11
24.4437409019
 21
22.4236136891
 31
0.0
  0
LINE
  5
32C
330
1F
100
AcDbEntity
  8
0
  6
SLD-Solid
 62
     7
370
    25
100
AcDbLine
 10
26.4437409019
 20
22.4236136891
 30
0.0
 11
26.4437409019
 21
22.4686136891
 31
0.0
  0
LINE
  5
32D
330
1F
100
AcDbEntity
  8
0
  6
SLD-Solid
 62
     7
370
    25
100
AcDbLine
 10
26.3387409019
 20
22.2456136891
 30
0.0
 11
26.3387409019
 21
22.4236136891
 31
0.0
  0
LINE
  5
32E
330
1F
100
AcDbEntity
  8
0
  6
SLD-Solid
 62
     7
370
    25
100
AcDbLine
 10
24.5487409019
 20
22.4236136891
 30
0.0
 11
24.5487409019
 21
22.2456136891
 31
0.0
  0
LINE
  5
32F
330
1F
100
AcDbEntity
  8
0
  6
SLD-Solid
 62
     7
370
    25
100
AcDbLine
 10
26.1117409019
 20
22.1336136891
 30
0.0
 11
26.1117409019
 21
22.2456136891
 31
0.0
  0
LINE
  5
330
330
1F
100
AcDbEntity
  8
0
  6
SLD-Solid
 62
     7
370
    25
100
AcDbLine
 10
25.9787409019
 20
21.8536136891
 30
0.0
 11
25.9787409019
 21
22.1336136891
 31
0.0
  0
LINE
  5
331
330
1F
100
AcDbEntity
  8
0
  6
SLD-Solid
 62
     7
370
    25
100
AcDbLine
 10
24.9087409019
 20
21.9256136891
 30
0.0
 11
24.9087409019
 21
21.8536136891
 31
0.0
  0
LINE
  5
332
330
1F
100
AcDbEntity
  8
0
  6
SLD-Solid
 62
     7
370
    25
100
AcDbLine
 10
26.9537409017
 20
11.2996136891
 30
0.0
 11
23.9337409019
 21
11.2996136891
 31
0.0
  0
LINE
  5
333
330
1F
100
AcDbEntity
  8
0
  6
SLD-Solid
 62
     7
370
    25
100
AcDbLine
 10
23.7387409019
 20
17.5096136891
 30
0.0
 11
27.1487409019
 21
17.5096136891
 31
0.0
  0
LINE
  5
334
330
1F
100
AcDbEntity
  8
0
  6
SLD-Solid
 62
     7
370
    25
100
AcDbLine
 10
24.6787409019
 20
18.4086136891
 30
0.0
 11
26.2087409019
 21
18.4086136891
 31
0.0
  0
LINE
  5
335
330
1F
100
AcDbEntity
  8
0
  6
SLD-Solid
 62
     7
370
    25
100
AcDbLine
 10
23.9187409019
 20
15.5679391541
 30
0.0
 11
26.9687409019
 21
15.5679391541
 31
0.0
  0
LINE
  5
336
330
1F
100
AcDbEntity
  8
0
  6
SLD-Solid
 62
     7
370
    25
100
AcDbLine
 10
24.5387409019
 20
18.5086136891
 30
0.0
 11
26.3487409019
 21
18.5086136891
 31
0.0
  0
LINE
  5
337
330
1F
100
AcDbEntity
  8
0
  6
SLD-Solid
 62
     7
370
    25
100
AcDbLine
 10
24.5387409019
 20
19.1866136891
 30
0.0
 11
26.3487409019
 21
19.1866136891
 31
0.0
  0
LINE
  5
338
330
1F
100
AcDbEntity
  8
0
  6
SLD-Solid
 62
     7
370
    25
100
AcDbLine
 10
24.8887409019
 20
19.4996136891
 30
0.0
 11
24.9416261096
 21
19.4996136891
 31
0.0
  0
LINE
  5
339
330
1F
100
AcDbEntity
  8
0
  6
SLD-Solid
 62
     7
370
    25
100
AcDbLine
 10
25.0921430276
 20
19.4996136891
 30
0.0
 11
25.3974499618
 21
19.4996136891
 31
0.0
  0
LINE
  5
33A
330
1F
100
AcDbEntity
  8
0
  6
SLD-Solid
 62
     7
370
    25
100
AcDbLine
 10
25.6398330121
 20
19.4996136891
 30
0.0
 11
25.8995647541
 21
19.4996136891
 31
0.0
  0
LINE
  5
33B
330
1F
100
AcDbEntity
  8
0
  6
SLD-Solid
 62
     7
370
    25
100
AcDbLine
 10
25.0752409019
 20
20.3796136891
 30
0.0
 11
25.8122409019
 21
20.3796136891
 31
0.0
  0
LINE
  5
33C
330
1F
100
AcDbEntity
  8
0
  6
SLD-Solid
 62
     7
370
    25
100
AcDbLine
 10
25.8517409019
 20
24.2836136891
 30
0.0
 11
25.0357409019
 21
24.2836136891
 31
0.0
  0
LINE
  5
33D
330
1F
100
AcDbEntity
  8
0
  6
SLD-Solid
 62
     7
370
    25
100
AcDbLine
 10
25.8117409019
 20
20.5456136891
 30
0.0
 11
25.0757409019
 21
20.5456136891
 31
0.0
  0
LINE
  5
33E
330
1F
100
AcDbEntity
  8
0
  6
SLD-Solid
 62
     7
370
    25
100
AcDbLine
 10
26.2517409019
 20
23.4861136891
 30
0.0
 11
24.6357409019
 21
23.4861136891
 31
0.0
  0
LINE
  5
33F
330
1F
100
AcDbEntity
  8
0
  6
SLD-Solid
 62
     7
370
    25
100
AcDbLine
 10
23.9156318425
 20
27.3968635871
 30
0.0
 11
23.0786471569
 21
25.6807906707
 31
0.0
  0
LINE
  5
340
330
1F
100
AcDbEntity
  8
0
  6
SLD-Solid
 62
     7
370
    25
100
AcDbLine
 10
22.3549823829
 20
26.4782300373
 30
0.0
 11
22.841708522
 21
27.4761665102
 31
0.0
  0
ARC
  5
341
330
1F
100
AcDbEntity
  8
0
  6
SLD-Solid
 62
     7
370
    25
100
AcDbCircle
 10
21.7827514035
 20
28.2786095177
 30
0.0
 40
0.43620587002761
100
AcDbArc
 50
231.0865606324
 51
280.4774189148
  0
LINE
  5
342
330
1F
100
AcDbEntity
  8
0
  6
SLD-Solid
 62
     7
370
    25
100
AcDbLine
 10
21.9619391812
 20
27.5657448383
 30
0.0
 11
21.7427536079
 21
27.1163478151
 31
0.0
  0
LINE
  5
343
330
1F
100
AcDbEntity
  8
0
  6
SLD-Solid
 62
     7
370
    25
100
AcDbLine
 10
21.0197020881
 20
27.3903749718
 30
0.0
 11
21.3008478697
 21
27.9668092477
 31
0.0
  0
LINE
  5
344
330
1F
100
AcDbEntity
  8
0
  6
SLD-Solid
 62
     7
370
    25
100
AcDbLine
 10
24.3722428563
 20
26.3712469546
 30
0.0
 11
24.1679619019
 21
25.952408929
 31
0.0
  0
SPLINE
  5
345
330
1F
100
AcDbEntity
  8
0
  6
SLD-Solid
 62
     7
370
    25
100
AcDbSpline
210
0.0
220
0.0
230
1.0
 70
    24
 71
     3
 72
    17
 73
    13
 74
     0
 42
0.00000001
 43
0.00000001
 40
0.0
 40
0.0
 40
0.0
 40
0.0
 40
0.1044954264579791
 40
0.2038629161919342
 40
0.2942763123618702
 40
0.4090588770772488
 40
0.5000000000000016
 40
0.5909411229227398
 40
0.7057236876381251
 40
0.7961370838080616
 40
0.8955045735420234
 40
1.0
 40
1.0
 40
1.0
 40
1.0
 10
23.47764926072535
 20
30.80835670453876
 30
0.0
 10
23.47805272427672
 20
30.80641890902647
 30
0.0
 10
23.47883985208649
 20
30.80263841204677
 30
0.0
 10
23.48466247459736
 20
30.77467293230765
 30
0.0
 10
23.49328835164477
 20
30.73324369842708
 30
0.0
 10
23.50405478692922
 20
30.68153357515403
 30
0.0
 10
23.51582168289974
 20
30.62501833820689
 30
0.0
 10
23.52758857887027
 20
30.56850310125975
 30
0.0
 10
23.53835501415471
 20
30.5167929779867
 30
0.0
 10
23.54698089120213
 20
30.47536374410613
 30
0.0
 10
23.552803513713
 20
30.447398264367
 30
0.0
 10
23.55359064152278
 20
30.4436177673873
 30
0.0
 10
23.55399410507414
 20
30.44167997187503
 30
0.0
  0
SPLINE
  5
346
330
1F
100
AcDbEntity
  8
0
  6
SLD-Solid
 62
     7
370
    25
100
AcDbSpline
210
0.0
220
0.0
230
1.0
 70
     8
 71
     3
 72
    12
 73
     8
 74
     0
 42
0.00000001
 43
0.00000001
 40
0.0
 40
0.0
 40
0.0
 40
0.0
 40
0.4990148375124209
 40
0.7494097948933468
 40
0.8949146550614404
 40
0.9524727624481173
 40
1.0
 40
1.0
 40
1.0
 40
1.0
 10
25.28327064617926
 20
25.43909750972978
 30
0.0
 10
25.25941218799538
 20
25.48679337816561
 30
0.0
 10
25.22358206650402
 20
25.55842201181494
 30
0.0
 10
25.17417547184004
 20
25.63914027272283
 30
0.0
 10
25.15001530740316
 20
25.67749409012405
 30
0.0
 10
25.13715982703266
 20
25.69597320217525
 30
0.0
 10
25.13235014733545
 20
25.70156896437557
 30
0.0
 10
25.13017486028994
 20
25.70409977511359
 30
0.0
  0
SPLINE
  5
347
330
1F
100
AcDbEntity
  8
0
  6
SLD-Solid
 62
     7
370
    25
100
AcDbSpline
210
0.0
220
0.0
230
1.0
 70
     8
 71
     3
 72
    13
 73
     9
 74
     0
 42
0.00000001
 43
0.00000001
 40
0.0
 40
0.0
 40
0.0
 40
0.0
 40
0.0556034263173504
 40
0.4190091110951658
 40
0.601694018246361
 40
0.7837677096945374
 40
0.8912790919948583
 40
1.0
 40
1.0
 40
1.0
 40
1.0
 10
25.34097500610315
 20
24.81043139624051
 30
0.0
 10
25.34103803883605
 20
24.82221981596564
 30
0.0
 10
25.34151303275519
 20
24.91105346520969
 30
0.0
 10
25.34035169729595
 20
25.03861368697176
 30
0.0
 10
25.34000728641731
 20
25.19300497285409
 30
0.0
 10
25.32973666833059
 20
25.29298217522585
 30
0.0
 10
25.30884687618666
 20
25.37506580680036
 30
0.0
 10
25.2918277890681
 20
25.41767416347357
 30
0.0
 10
25.283270646181
 20
25.43909750972577
 30
0.0
  0
SPLINE
  5
348
330
1F
100
AcDbEntity
  8
0
  6
SLD-Solid
 62
     7
370
    25
100
AcDbSpline
210
0.0
220
0.0
230
1.0
 70
     8
 71
     3
 72
    26
 73
    22
 74
     0
 42
0.00000001
 43
0.00000001
 40
0.0
 40
0.0
 40
0.0
 40
0.0
 40
0.1107614191135726
 40
0.2294068603251315
 40
0.3542821859274586
 40
0.4821390605310615
 40
0.5329362903834386
 40
0.5833519016342166
 40
0.6327166328741481
 40
0.6850523545383762
 40
0.7347840134938369
 40
0.7660602783722132
 40
0.7976892608171677
 40
0.8315366443061488
 40
0.8625472008731786
 40
0.8857080982385009
 40
0.9082069651881216
 40
0.9301248755803867
 40
0.9535464663047193
 40
0.9770180093780814
 40
1.0
 40
1.0
 40
1.0
 40
1.0
 10
25.35745617309349
 20
24.50503917859535
 30
0.0
 10
25.37035344390008
 20
24.58312116607735
 30
0.0
 10
25.3970660160771
 20
24.74484303403051
 30
0.0
 10
25.39765680054278
 20
24.99836642198829
 30
0.0
 10
25.38817311159323
 20
25.26289190317269
 30
0.0
 10
25.37803297034327
 20
25.47952254485827
 30
0.0
 10
25.38648395353984
 20
25.64281704874462
 30
0.0
 10
25.39573570514284
 20
25.74985300271999
 30
0.0
 10
25.40806379844746
 20
25.85768615947434
 30
0.0
 10
25.42227526706322
 20
25.96478438069738
 30
0.0
 10
25.43489690050299
 20
26.05907366381764
 30
0.0
 10
25.44544178287319
 20
26.13873855054536
 30
0.0
 10
25.45622228419158
 20
26.20693086680875
 30
0.0
 10
25.46997802477299
 20
26.27441198482406
 30
0.0
 10
25.48615040645105
 20
26.3351372505746
 30
0.0
 10
25.50356821660286
 20
26.38701965577691
 30
0.0
 10
25.52155991726145
 20
26.43177932526398
 30
0.0
 10
25.54235844752224
 20
26.47551745620439
 30
0.0
 10
25.56642510007561
 20
26.51834714623685
 30
0.0
 10
25.59390613648202
 20
26.56001396823979
 30
0.0
 10
25.61441431485727
 20
26.58606181720575
 30
0.0
 10
25.62456034090954
 20
26.59894848853164
 30
0.0
  0
SPLINE
  5
349
330
1F
100
AcDbEntity
  8
0
  6
SLD-Solid
 62
     7
370
    25
100
AcDbSpline
210
0.0
220
0.0
230
1.0
 70
     8
 71
     3
 72
    20
 73
    16
 74
     0
 42
0.00000001
 43
0.00000001
 40
0.0
 40
0.0
 40
0.0
 40
0.0
 40
0.1444714671563257
 40
0.2705129763292961
 40
0.3825254293144603
 40
0.4838751301762831
 40
0.5716271971043804
 40
0.6904037491691981
 40
0.7248440359486146
 40
0.7569776342017497
 40
0.7870402688637377
 40
0.8394099710184276
 40
0.8921541003107637
 40
0.9424489344757179
 40
1.0
 40
1.0
 40
1.0
 40
1.0
 10
25.61002262674788
 20
26.61661196575698
 30
0.0
 10
25.57782005369564
 20
26.56432569140016
 30
0.0
 10
25.51752293030313
 20
26.46642320604555
 30
0.0
 10
25.4362716245204
 20
26.32556253400435
 30
0.0
 10
25.36823905380667
 20
26.19832507351888
 30
0.0
 10
25.31316012841741
 20
26.08270490634174
 30
0.0
 10
25.26412076758656
 20
25.96136768271186
 30
0.0
 10
25.23556994089488
 20
25.86236805986847
 30
0.0
 10
25.22484738500046
 20
25.7842470715143
 30
0.0
 10
25.22253365097112
 20
25.74319501238089
 30
0.0
 10
25.22421346819773
 20
25.69442607081614
 30
0.0
 10
25.23476220850712
 20
25.63779233149882
 30
0.0
 10
25.24826338828202
 20
25.57316968543658
 30
0.0
 10
25.26464411935778
 20
25.50688271459569
 30
0.0
 10
25.27678941172636
 20
25.46268385995564
 30
0.0
 10
25.28327064577354
 20
25.43909750955364
 30
0.0
  0
SPLINE
  5
34A
330
1F
100
AcDbEntity
  8
0
  6
SLD-Solid
 62
     7
370
    25
100
AcDbSpline
210
0.0
220
0.0
230
1.0
 70
     8
 71
     3
 72
     9
 73
     5
 74
     0
 42
0.00000001
 43
0.00000001
 40
0.0
 40
0.0
 40
0.0
 40
0.0
 40
0.5417119478275495
 40
1.0
 40
1.0
 40
1.0
 40
1.0
 10
25.34097500610318
 20
24.81043139624052
 30
0.0
 10
25.34708803470096
 20
24.75544558604827
 30
0.0
 10
25.3583726826071
 20
24.65394180638686
 30
0.0
 10
25.35774419942625
 20
24.55183397688759
 30
0.0
 10
25.35745617309347
 20
24.50503917859481
 30
0.0
  0
SPLINE
  5
34B
330
1F
100
AcDbEntity
  8
0
  6
SLD-Solid
 62
     7
370
    25
100
AcDbSpline
210
0.0
220
0.0
230
1.0
 70
     8
 71
     3
 72
    14
 73
    10
 74
     0
 42
0.00000001
 43
0.00000001
 40
0.0
 40
0.0
 40
0.0
 40
0.0
 40
0.17120856126181
 40
0.3275003450867232
 40
0.4628186102573302
 40
0.588789355060064
 40
0.7350451175146863
 40
0.8694461812248643
 40
1.0
 40
1.0
 40
1.0
 40
1.0
 10
25.44787929516733
 20
26.81361783702151
 30
0.0
 10
25.41279493120999
 20
26.75615679628021
 30
0.0
 10
25.34568297595206
 20
26.64624108568066
 30
0.0
 10
25.2636969030508
 20
26.4835712656827
 30
0.0
 10
25.20103236343143
 20
26.33167724371664
 30
0.0
 10
25.15323479904594
 20
26.17848867591821
 30
0.0
 10
25.12347108334122
 20
26.02102790081746
 30
0.0
 10
25.11416053764353
 20
25.85895098502947
 30
0.0
 10
25.12488867829207
 20
25.75521474864458
 30
0.0
 10
25.13017486028987
 20
25.70409977511259
 30
0.0
  0
SPLINE
  5
34C
330
1F
100
AcDbEntity
  8
0
  6
SLD-Solid
 62
     7
370
    25
100
AcDbSpline
210
0.0
220
0.0
230
1.0
 70
     8
 71
     3
 72
     9
 73
     5
 74
     0
 42
0.00000001
 43
0.00000001
 40
0.0
 40
0.0
 40
0.0
 40
0.0
 40
0.5009790732551991
 40
1.0
 40
1.0
 40
1.0
 40
1.0
 10
25.68489370951432
 20
26.52564280440362
 30
0.0
 10
25.6479119125067
 20
26.47147768341248
 30
0.0
 10
25.57409286699782
 20
26.36335915335254
 30
0.0
 10
25.53431000232326
 20
26.23863844278264
 30
0.0
 10
25.51445752032479
 20
26.17640019820978
 30
0.0
  0
SPLINE
  5
34D
330
1F
100
AcDbEntity
  8
0
  6
SLD-Solid
 62
     7
370
    25
100
AcDbSpline
210
0.0
220
0.0
230
1.0
 70
     8
 71
     3
 72
    10
 73
     6
 74
     0
 42
0.00000001
 43
0.00000001
 40
0.0
 40
0.0
 40
0.0
 40
0.0
 40
0.3328398327514967
 40
0.6597722282672475
 40
0.9999999999999999
 40
0.9999999999999999
 40
0.9999999999999999
 40
0.9999999999999999
 10
25.51445752032484
 20
26.17640019820977
 30
0.0
 10
25.50379849102705
 20
26.13427702547778
 30
0.0
 10
25.48266961515654
 20
26.05077830687393
 30
0.0
 10
25.46683901347303
 20
25.92000557333443
 30
0.0
 10
25.46421181983128
 20
25.83294304709537
 30
0.0
 10
25.46287204524262
 20
25.78854427936633
 30
0.0
  0
SPLINE
  5
34E
330
1F
100
AcDbEntity
  8
0
  6
SLD-Solid
 62
     7
370
    25
100
AcDbSpline
210
0.0
220
0.0
230
1.0
 70
     8
 71
     3
 72
    19
 73
    15
 74
     0
 42
0.00000001
 43
0.00000001
 40
0.0
 40
0.0
 40
0.0
 40
0.0
 40
0.1666540518704745
 40
0.3417085236492395
 40
0.4992645075940025
 40
0.5848897432710286
 40
0.6670383237514572
 40
0.7480765687764646
 40
0.7913395877857486
 40
0.8331483441129951
 40
0.8735759637040561
 40
0.9159596079956908
 40
0.9578769410520137
 40
1.0
 40
1.0
 40
1.0
 40
1.0
 10
25.46287204524265
 20
25.78854427936633
 30
0.0
 10
25.46343016088588
 20
25.70424483799113
 30
0.0
 10
25.46457452473623
 20
25.53139672938849
 30
0.0
 10
25.48600384502017
 20
25.2797191034256
 30
0.0
 10
25.50217779287323
 20
25.06886062252863
 30
0.0
 10
25.50875629280658
 20
24.90445359981449
 30
0.0
 10
25.50875004931948
 20
24.77860235018781
 30
0.0
 10
25.50317050454541
 20
24.67428777733595
 30
0.0
 10
25.49425434031591
 20
24.59074900541788
 30
0.0
 10
25.48496854328727
 20
24.5279554812881
 30
0.0
 10
25.47307622934021
 20
24.46605061111458
 30
0.0
 10
25.45815733031106
 20
24.40475085962568
 30
0.0
 10
25.44003113040046
 20
24.34339896537736
 30
0.0
 10
25.42517319360031
 20
24.30357461043818
 30
0.0
 10
25.41772603952652
 20
24.28361368913997
 30
0.0
  0
LINE
  5
34F
330
1F
100
AcDbEntity
  8
0
  6
SLD-Solid
 62
     7
370
    25
100
AcDbLine
 10
25.340571164
 20
24.2836136891
 30
0.0
 11
25.3574561731
 21
24.5050391786
 31
0.0
  0
LINE
  5
350
330
1F
100
AcDbEntity
  8
0
  6
SLD-Solid
 62
     7
370
    25
100
AcDbLine
 10
27.3177539255
 20
26.5958237269
 30
0.0
 11
25.6160251706
 21
28.6634422515
 31
0.0
  0
LINE
  5
351
330
1F
100
AcDbEntity
  8
0
  6
SLD-Solid
 62
     7
370
    25
100
AcDbLine
 10
31.8942886689
 20
30.3624860382
 30
0.0
 11
30.192559914
 21
32.4301045627
 31
0.0
  0
LINE
  5
352
330
1F
100
AcDbEntity
  8
0
  6
SLD-Solid
 62
     7
370
    25
100
AcDbLine
 10
26.4347397084
 20
26.9178585536
 30
0.0
 11
25.7622200626
 21
27.7349770714
 31
0.0
  0
LINE
  5
353
330
1F
100
AcDbEntity
  8
0
  6
SLD-Solid
 62
     7
370
    25
100
AcDbLine
 10
25.7952620501
 20
26.3915440975
 30
0.0
 11
25.1227424043
 21
27.2086626152
 31
0.0
  0
LINE
  5
354
330
1F
100
AcDbEntity
  8
0
  6
SLD-Solid
 62
     7
370
    25
100
AcDbLine
 10
22.0715667768
 20
22.7797246046
 30
0.0
 11
22.2080828082
 21
22.647297889
 31
0.0
  0
LINE
  5
355
330
1F
100
AcDbEntity
  8
0
  6
SLD-Solid
 62
     7
370
    25
100
AcDbLine
 10
22.3445988396
 20
23.0500027736
 30
0.0
 11
22.0715667768
 21
22.7797246046
 31
0.0
  0
LINE
  5
356
330
1F
100
AcDbEntity
  8
0
  6
SLD-Solid
 62
     7
370
    25
100
AcDbLine
 10
22.2080828082
 20
23.3556136891
 30
0.0
 11
22.2080828082
 21
23.1879097818
 31
0.0
  0
LINE
  5
357
330
1F
100
AcDbEntity
  8
0
  6
SLD-Solid
 62
     7
370
    25
100
AcDbLine
 10
22.2080828082
 20
22.647297889
 30
0.0
 11
22.2080828082
 21
22.4686136891
 31
0.0
  0
LINE
  5
358
330
1F
100
AcDbEntity
  8
0
  6
SLD-Solid
 62
     7
370
    25
100
AcDbLine
 10
22.2080828082
 20
22.4686136891
 30
0.0
 11
24.445695938
 21
22.4686136891
 31
0.0
  0
LINE
  5
359
330
1F
100
AcDbEntity
  8
0
  6
SLD-Solid
 62
     7
370
    25
100
AcDbLine
 10
22.2080828082
 20
23.1879097818
 30
0.0
 11
22.3445988396
 21
23.0500027736
 31
0.0
  0
LINE
  5
35A
330
1F
100
AcDbEntity
  8
0
  6
SLD-Solid
 62
     7
370
    25
100
AcDbLine
 10
24.4957990524
 20
23.3556136891
 30
0.0
 11
22.2080828082
 21
23.3556136891
 31
0.0
  0
LINE
  5
35B
330
1F
100
AcDbEntity
  8
0
  6
SLD-Solid
 62
     7
370
    25
100
AcDbLine
 10
25.0062409019
 20
22.4686136891
 30
0.0
 11
25.0062409019
 21
23.3556136891
 31
0.0
  0
LINE
  5
35C
330
1F
100
AcDbEntity
  8
0
  6
SLD-Solid
 62
     7
370
    25
100
AcDbLine
 10
28.6793989956
 20
23.1879097818
 30
0.0
 11
28.6793989956
 21
23.3556136891
 31
0.0
  0
LINE
  5
35D
330
1F
100
AcDbEntity
  8
0
  6
SLD-Solid
 62
     7
370
    25
100
AcDbLine
 10
28.815915027
 20
23.0500027736
 30
0.0
 11
28.6793989956
 21
23.1879097818
 31
0.0
  0
LINE
  5
35E
330
1F
100
AcDbEntity
  8
0
  6
SLD-Solid
 62
     7
370
    25
100
AcDbLine
 10
28.6793989956
 20
22.4686136891
 30
0.0
 11
28.6793989956
 21
22.647297889
 31
0.0
  0
LINE
  5
35F
330
1F
100
AcDbEntity
  8
0
  6
SLD-Solid
 62
     7
370
    25
100
AcDbLine
 10
26.4417858658
 20
22.4686136891
 30
0.0
 11
28.6793989956
 21
22.4686136891
 31
0.0
  0
LINE
  5
360
330
1F
100
AcDbEntity
  8
0
  6
SLD-Solid
 62
     7
370
    25
100
AcDbLine
 10
25.8812409019
 20
23.3556136891
 30
0.0
 11
25.8812409019
 21
22.4686136891
 31
0.0
  0
LINE
  5
361
330
1F
100
AcDbEntity
  8
0
  6
SLD-Solid
 62
     7
370
    25
100
AcDbLine
 10
28.6793989956
 20
23.3556136891
 30
0.0
 11
26.3916827514
 21
23.3556136891
 31
0.0
  0
LINE
  5
362
330
1F
100
AcDbEntity
  8
0
  6
SLD-Solid
 62
     7
370
    25
100
AcDbLine
 10
28.6793989956
 20
22.647297889
 30
0.0
 11
28.5428829642
 21
22.7797246046
 31
0.0
  0
LINE
  5
363
330
1F
100
AcDbEntity
  8
0
  6
SLD-Solid
 62
     7
370
    25
100
AcDbLine
 10
28.5428829642
 20
22.7797246046
 30
0.0
 11
28.815915027
 21
23.0500027736
 31
0.0
  0
LINE
  5
364
330
1F
100
AcDbEntity
  8
0
  6
SLD-Solid
 62
     7
370
    25
100
AcDbLine
 10
25.4437409019
 20
23.3556136891
 30
0.0
 11
26.3916827514
 21
23.3556136891
 31
0.0
  0
LINE
  5
365
330
1F
100
AcDbEntity
  8
0
  6
SLD-Solid
 62
     7
370
    25
100
AcDbLine
 10
24.4957990524
 20
23.3556136891
 30
0.0
 11
25.4437409019
 21
23.3556136891
 31
0.0
  0
LINE
  5
366
330
1F
100
AcDbEntity
  8
0
  6
SLD-Solid
 62
     7
370
    25
100
AcDbLine
 10
25.4437409019
 20
23.4236136891
 30
0.0
 11
26.3937409019
 21
23.4236136891
 31
0.0
  0
LINE
  5
367
330
1F
100
AcDbEntity
  8
0
  6
SLD-Solid
 62
     7
370
    25
100
AcDbLine
 10
24.4937409019
 20
23.4236136891
 30
0.0
 11
25.4437409019
 21
23.4236136891
 31
0.0
  0
LINE
  5
368
330
1F
100
AcDbEntity
  8
0
  6
SLD-Solid
 62
     7
370
    25
100
AcDbLine
 10
24.8967967633
 20
22.4686136891
 30
0.0
 11
24.445695938
 21
22.4686136891
 31
0.0
  0
LINE
  5
369
330
1F
100
AcDbEntity
  8
0
  6
SLD-Solid
 62
     7
370
    25
100
AcDbLine
 10
26.4417858658
 20
22.4686136891
 30
0.0
 11
24.8967967633
 21
22.4686136891
 31
0.0
  0
LINE
  5
36A
330
1F
100
AcDbEntity
  8
0
  6
SLD-Solid
 62
     7
370
    25
100
AcDbLine
 10
24.8967967633
 20
22.4236136891
 30
0.0
 11
24.4437409019
 21
22.4236136891
 31
0.0
  0
LINE
  5
36B
330
1F
100
AcDbEntity
  8
0
  6
SLD-Solid
 62
     7
370
    25
100
AcDbLine
 10
26.4437409019
 20
22.4236136891
 30
0.0
 11
24.8967967633
 21
22.4236136891
 31
0.0
  0
LINE
  5
36C
330
1F
100
AcDbEntity
  8
0
  6
SLD-Solid
 62
     7
370
    25
100
AcDbLine
 10
24.558132709
 20
22.2456136891
 30
0.0
 11
24.5487409019
 21
22.2456136891
 31
0.0
  0
LINE
  5
36D
330
1F
100
AcDbEntity
  8
0
  6
SLD-Solid
 62
     7
370
    25
100
AcDbLine
 10
26.3387409019
 20
22.2456136891
 30
0.0
 11
24.558132709
 21
22.2456136891
 31
0.0
  0
LINE
  5
36E
330
1F
100
AcDbEntity
  8
0
  6
SLD-Solid
 62
     7
370
    25
100
AcDbLine
 10
25.6021224575
 20
21.9256136891
 30
0.0
 11
25.5031718214
 21
21.9256136891
 31
0.0
  0
ARC
  5
36F
330
1F
100
AcDbEntity
  8
0
  6
SLD-Solid
 62
     7
370
    25
100
AcDbCircle
 10
25.333760879
 20
22.0011356182
 30
0.0
 40
0.1854821532614189
100
AcDbArc
 50
335.9731016859
 51
7.5834431971
  0
LINE
  5
370
330
1F
100
AcDbEntity
  8
0
  6
SLD-Solid
 62
     7
370
    25
100
AcDbLine
 10
25.5176207529
 20
22.0256136891
 30
0.0
 11
25.6165713889
 21
22.0256136891
 31
0.0
  0
ARC
  5
371
330
1F
100
AcDbEntity
  8
0
  6
SLD-Solid
 62
     7
370
    25
100
AcDbCircle
 10
25.4327115151
 20
22.0011356182
 30
0.0
 40
0.1854821532614052
100
AcDbArc
 50
335.9731016859
 51
7.5834431971
  0
LINE
  5
372
330
1F
100
AcDbEntity
  8
0
  6
SLD-Solid
 62
     7
370
    25
100
AcDbLine
 10
25.6165713889
 20
22.0256136891
 30
0.0
 11
25.6165713889
 21
22.2456136891
 31
0.0
  0
LINE
  5
373
330
1F
100
AcDbEntity
  8
0
  6
SLD-Solid
 62
     7
370
    25
100
AcDbLine
 10
25.5176207529
 20
22.0256136891
 30
0.0
 11
25.5176207529
 21
22.2456136891
 31
0.0
  0
LINE
  5
374
330
1F
100
AcDbEntity
  8
0
  6
SLD-Solid
 62
     7
370
    25
100
AcDbLine
 10
25.4712290349
 20
22.1336136891
 30
0.0
 11
25.4712290349
 21
21.9256136891
 31
0.0
  0
LINE
  5
375
330
1F
100
AcDbEntity
  8
0
  6
SLD-Solid
 62
     7
370
    25
100
AcDbLine
 10
25.4905136895
 20
22.2456136891
 30
0.0
 11
25.4905136895
 21
22.1336136891
 31
0.0
  0
LINE
  5
376
330
1F
100
AcDbEntity
  8
0
  6
SLD-Solid
 62
     7
370
    25
100
AcDbLine
 10
25.5031718214
 20
21.9256136891
 30
0.0
 11
25.4712290349
 21
21.9256136891
 31
0.0
  0
LINE
  5
377
330
1F
100
AcDbEntity
  8
0
  6
SLD-Solid
 62
     7
370
    25
100
AcDbLine
 10
24.7918293406
 20
22.1336136891
 30
0.0
 11
24.7918293406
 21
22.2456136891
 31
0.0
  0
LINE
  5
378
330
1F
100
AcDbEntity
  8
0
  6
SLD-Solid
 62
     7
370
    25
100
AcDbLine
 10
25.4905136895
 20
22.1336136891
 30
0.0
 11
24.7918293406
 21
22.1336136891
 31
0.0
  0
LINE
  5
379
330
1F
100
AcDbEntity
  8
0
  6
SLD-Solid
 62
     7
370
    25
100
AcDbLine
 10
26.1117409019
 20
22.1336136891
 30
0.0
 11
25.6165713889
 21
22.1336136891
 31
0.0
  0
LINE
  5
37A
330
1F
100
AcDbEntity
  8
0
  6
SLD-Solid
 62
     7
370
    25
100
AcDbLine
 10
24.9238964659
 20
21.9256136891
 30
0.0
 11
24.9238964659
 21
22.1336136891
 31
0.0
  0
LINE
  5
37B
330
1F
100
AcDbEntity
  8
0
  6
SLD-Solid
 62
     7
370
    25
100
AcDbLine
 10
24.9143549989
 20
21.8536136891
 30
0.0
 11
24.9087409019
 21
21.8536136891
 31
0.0
  0
LINE
  5
37C
330
1F
100
AcDbEntity
  8
0
  6
SLD-Solid
 62
     7
370
    25
100
AcDbLine
 10
25.9787409019
 20
21.8536136891
 30
0.0
 11
24.9143549989
 21
21.8536136891
 31
0.0
  0
LINE
  5
37D
330
1F
100
AcDbEntity
  8
0
  6
SLD-Solid
 62
     7
370
    25
100
AcDbLine
 10
24.9238964659
 20
21.9256136891
 30
0.0
 11
24.7051426396
 21
21.9256136891
 31
0.0
  0
ARC
  5
37E
330
1F
100
AcDbEntity
  8
0
  6
SLD-Solid
 62
     7
370
    25
100
AcDbCircle
 10
24.7056701037
 20
22.0250917601
 30
0.0
 40
0.0994794693299344
100
AcDbArc
 50
179.6993905456
 51
269.6962025756
  0
LINE
  5
37F
330
1F
100
AcDbEntity
  8
0
  6
SLD-Solid
 62
     7
370
    25
100
AcDbLine
 10
24.6061920036
 20
22.0256136891
 30
0.0
 11
24.6061920036
 21
22.2456136891
 31
0.0
  0
LINE
  5
380
330
1F
100
AcDbEntity
  8
0
  6
SLD-Solid
 62
     7
370
    25
100
AcDbLine
 10
24.7051426396
 20
21.9256136891
 30
0.0
 11
24.6906937082
 21
21.9256136891
 31
0.0
  0
ARC
  5
381
330
1F
100
AcDbEntity
  8
0
  6
SLD-Solid
 62
     7
370
    25
100
AcDbCircle
 10
24.6912211722
 20
22.0250917601
 30
0.0
 40
0.099479469329938
100
AcDbArc
 50
179.6993905456
 51
269.6962025756
  0
LINE
  5
382
330
1F
100
AcDbEntity
  8
0
  6
SLD-Solid
 62
     7
370
    25
100
AcDbLine
 10
24.5917430721
 20
22.0256136891
 30
0.0
 11
24.5917430721
 21
22.2456136891
 31
0.0
  0
LINE
  5
383
330
1F
100
AcDbEntity
  8
0
  6
SLD-Solid
 62
     7
370
    25
100
AcDbLine
 10
26.2957387317
 20
22.0256136891
 30
0.0
 11
26.2957387317
 21
22.2456136891
 31
0.0
  0
ARC
  5
384
330
1F
100
AcDbEntity
  8
0
  6
SLD-Solid
 62
     7
370
    25
100
AcDbCircle
 10
26.1962606316
 20
22.0250917601
 30
0.0
 40
0.0994794693299348
100
AcDbArc
 50
270.3037974244
 51
0.3006094544
  0
LINE
  5
385
330
1F
100
AcDbEntity
  8
0
  6
SLD-Solid
 62
     7
370
    25
100
AcDbLine
 10
26.1967880956
 20
21.9256136891
 30
0.0
 11
25.9787409019
 21
21.9256136891
 31
0.0
  0
LINE
  5
386
330
1F
100
AcDbEntity
  8
0
  6
SLD-Solid
 62
     7
370
    25
100
AcDbLine
 10
24.9611763715
 20
19.7396136891
 30
0.0
 11
24.9611763715
 21
19.4996136891
 31
0.0
  0
LINE
  5
387
330
1F
100
AcDbEntity
  8
0
  6
SLD-Solid
 62
     7
370
    25
100
AcDbLine
 10
25.5284166179
 20
19.7396136891
 30
0.0
 11
25.5284166179
 21
19.4996136891
 31
0.0
  0
LINE
  5
388
330
1F
100
AcDbEntity
  8
0
  6
SLD-Solid
 62
     7
370
    25
100
AcDbLine
 10
24.9611763715
 20
19.7396136891
 30
0.0
 11
25.5284166179
 21
19.7396136891
 31
0.0
  0
LINE
  5
389
330
1F
100
AcDbEntity
  8
0
  6
SLD-Solid
 62
     7
370
    25
100
AcDbLine
 10
24.9611763715
 20
19.4996136891
 30
0.0
 11
25.0921430276
 21
19.4996136891
 31
0.0
  0
LINE
  5
38A
330
1F
100
AcDbEntity
  8
0
  6
SLD-Solid
 62
     7
370
    25
100
AcDbLine
 10
25.3974499618
 20
19.4996136891
 30
0.0
 11
25.5284166179
 21
19.4996136891
 31
0.0
  0
LINE
  5
38B
330
1F
100
AcDbEntity
  8
0
  6
SLD-Solid
 62
     7
370
    25
100
AcDbLine
 10
26.0109811483
 20
19.7396136891
 30
0.0
 11
26.0109811483
 21
19.4996136891
 31
0.0
  0
LINE
  5
38C
330
1F
100
AcDbEntity
  8
0
  6
SLD-Solid
 62
     7
370
    25
100
AcDbLine
 10
25.5284166179
 20
19.7396136891
 30
0.0
 11
26.0109811483
 21
19.7396136891
 31
0.0
  0
LINE
  5
38D
330
1F
100
AcDbEntity
  8
0
  6
SLD-Solid
 62
     7
370
    25
100
AcDbLine
 10
25.5284166179
 20
19.4996136891
 30
0.0
 11
25.6398330121
 21
19.4996136891
 31
0.0
  0
LINE
  5
38E
330
1F
100
AcDbEntity
  8
0
  6
SLD-Solid
 62
     7
370
    25
100
AcDbLine
 10
25.8995647541
 20
19.4996136891
 30
0.0
 11
26.0109811483
 21
19.4996136891
 31
0.0
  0
LINE
  5
38F
330
1F
100
AcDbEntity
  8
0
  6
SLD-Solid
 62
     7
370
    25
100
AcDbLine
 10
24.8765006555
 20
19.7396136891
 30
0.0
 11
24.8765006555
 21
19.4996136891
 31
0.0
  0
LINE
  5
390
330
1F
100
AcDbEntity
  8
0
  6
SLD-Solid
 62
     7
370
    25
100
AcDbLine
 10
24.8765006555
 20
19.7396136891
 30
0.0
 11
24.9611763715
 21
19.7396136891
 31
0.0
  0
LINE
  5
391
330
1F
100
AcDbEntity
  8
0
  6
SLD-Solid
 62
     7
370
    25
100
AcDbLine
 10
24.8765006555
 20
19.4996136891
 30
0.0
 11
24.8887409019
 21
19.4996136891
 31
0.0
  0
LINE
  5
392
330
1F
100
AcDbEntity
  8
0
  6
SLD-Solid
 62
     7
370
    25
100
AcDbLine
 10
24.9416261096
 20
19.4996136891
 30
0.0
 11
24.9611763715
 21
19.4996136891
 31
0.0
  0
INSERT
  5
3A6
330
1F
100
AcDbEntity
  8
0
  6
SLD-Solid
 62
     7
370
     0
100
AcDbBlockReference
  2
SW_HATCH_2
 10
22.4140316727
 20
23.3556136891
 30
0.0
  0
INSERT
  5
3BB
330
1F
100
AcDbEntity
  8
0
  6
SLD-Solid
 62
     7
370
     0
100
AcDbBlockReference
  2
SW_HATCH_3
 10
25.9495655786
 20
23.3556136891
 30
0.0
  0
INSERT
  5
3C1
330
1F
100
AcDbEntity
  8
NOTES
100
AcDbBlockReference
  2
SW_NOTE_0_4
 10
23.6466724577
 20
10.4226403771
 30
0.0
  0
MTEXT
  5
3C2
330
1F
100
AcDbEntity
  8
NOTES
100
AcDbMText
 10
28.1168959017
 20
26.0558777309
 30
0.0
 40
0.5
 41
0.0
 71
     1
 72
     1
  1
top loading
  7
SLDTEXTSTYLE1
 73
     1
 44
1.0
  0
LEADER
  5
3C3
330
1F
100
AcDbEntity
  8
NOTES
100
AcDbLeader
  3
SLDDIMSTYLE2
 76
     3
 10
25.7932294855
 20
24.2836136891
 30
0.0
 10
27.5954724409
 20
25.812992129
 30
0.0
 10
28.0954724409
 20
25.812992129
 30
0.0
  0
INSERT
  5
3C9
102
{ACAD_REACTORS
330
3CA
102
}
330
1F
100
AcDbEntity
  8
NOTES
100
AcDbBlockReference
  2
SW_NOTE_0_5
 10
28.8828740157
 20
21.2165354361
 30
0.0
  0
LEADER
  5
3CA
330
1F
100
AcDbEntity
  8
NOTES
100
AcDbLeader
  3
SLDDIMSTYLE2
 73
     2
 76
     3
 10
25.8812409019
 20
22.9924973507
 30
0.0
 10
28.3828740157
 20
21.2165354361
 30
0.0
 10
28.8828740157
 20
21.2165354361
 30
0.0
340
3C9
  0
ENDSEC
  0
SECTION
  2
OBJECTS
  0
DICTIONARY
  5
C
330
0
100
AcDbDictionary
281
     1
  3
ACAD_GROUP
350
D
  3
ACAD_LAYOUT
350
1A
  3
ACAD_MLINESTYLE
350
17
  3
ACAD_PLOTSETTINGS
350
19
  3
ACAD_PLOTSTYLENAME
350
E
  3
ACAD_SCALELIST
350
47
  3
DWGPROPS
350
3CB
  0
DICTIONARY
  5
D
102
{ACAD_REACTORS
330
C
102
}
330
C
100
AcDbDictionary
281
     1
  0
DICTIONARY
  5
1A
102
{ACAD_REACTORS
330
C
102
}
330
C
100
AcDbDictionary
281
     1
  3
Layout1
350
1E
  3
Layout2
350
26
  3
Model
350
22
  0
DICTIONARY
  5
17
102
{ACAD_REACTORS
330
C
102
}
330
C
100
AcDbDictionary
281
     1
  3
Standard
350
18
  0
DICTIONARY
  5
19
102
{ACAD_REACTORS
330
C
102
}
330
C
100
AcDbDictionary
281
     1
  0
ACDBDICTIONARYWDFLT
  5
E
102
{ACAD_REACTORS
330
C
102
}
330
C
100
AcDbDictionary
281
     1
  3
Normal
350
F
100
AcDbDictionaryWithDefault
340
F
  0
DICTIONARY
  5
47
102
{ACAD_REACTORS
330
C
102
}
330
C
100
AcDbDictionary
281
     1
  3
A0
350
48
  3
A1
350
49
  3
A2
350
4A
  3
A3
350
4B
  3
A4
350
4C
  3
A5
350
4D
  3
A6
350
4E
  3
A7
350
4F
  3
A8
350
50
  3
A9
350
51
  3
B0
350
52
  3
B1
350
53
  3
B2
350
54
  3
B3
350
55
  3
B4
350
56
  3
B5
350
57
  3
B6
350
58
  3
B7
350
59
  3
B8
350
5A
  3
B9
350
5B
  3
C0
350
5C
  3
C1
350
5D
  3
C2
350
5E
  3
C3
350
5F
  3
C4
350
60
  3
C5
350
61
  3
C6
350
62
  3
C7
350
63
  3
C8
350
64
  3
C9
350
65
  3
D0
350
66
  3
D1
350
67
  3
D2
350
68
  0
XRECORD
  5
3CB
102
{ACAD_REACTORS
330
C
102
}
330
C
100
AcDbXrecord
280
     1
  1
DWGPROPS COOKIE
  2

  3

  4

  6

  7

  8
carl
  9

300
=
301
=
302
=
303
=
304
=
305
=
306
=
307
=
308
=
309
=
 40
0.0
 41
2459460.619027928
 42
2459460.619031852
  1

 90
        0
  0
LAYOUT
  5
1E
102
{ACAD_REACTORS
330
1A
102
}
330
1A
100
AcDbPlotSettings
  1

  2
none_device
  4

  6

 40
0.0
 41
0.0
 42
0.0
 43
0.0
 44
0.0
 45
0.0
 46
0.0
 47
0.0
 48
0.0
 49
0.0
140
0.0
141
0.0
142
1.0
143
1.0
 70
   688
 72
     0
 73
     0
 74
     5
  7

 75
    16
147
1.0
148
0.0
149
0.0
100
AcDbLayout
  1
Layout1
 70
     1
 71
     1
 10
0.0
 20
0.0
 11
12.0
 21
9.0
 12
0.0
 22
0.0
 32
0.0
 14
1.0000000000E+20
 24
1.0000000000E+20
 34
1.0000000000E+20
 15
-1.0000000000E+20
 25
-1.0000000000E+20
 35
-1.0000000000E+20
146
0.0
 13
0.0
 23
0.0
 33
0.0
 16
1.0
 26
0.0
 36
0.0
 17
0.0
 27
1.0
 37
0.0
 76
     0
330
1B
  0
LAYOUT
  5
26
102
{ACAD_REACTORS
330
1A
102
}
330
1A
100
AcDbPlotSettings
  1

  2
none_device
  4

  6

 40
0.0
 41
0.0
 42
0.0
 43
0.0
 44
0.0
 45
0.0
 46
0.0
 47
0.0
 48
0.0
 49
0.0
140
0.0
141
0.0
142
1.0
143
1.0
 70
   688
 72
     0
 73
     0
 74
     5
  7

 75
    16
147
1.0
148
0.0
149
0.0
100
AcDbLayout
  1
Layout2
 70
     1
 71
     2
 10
0.0
 20
0.0
 11
0.0
 21
0.0
 12
0.0
 22
0.0
 32
0.0
 14
0.0
 24
0.0
 34
0.0
 15
0.0
 25
0.0
 35
0.0
146
0.0
 13
0.0
 23
0.0
 33
0.0
 16
1.0
 26
0.0
 36
0.0
 17
0.0
 27
1.0
 37
0.0
 76
     0
330
23
  0
LAYOUT
  5
22
102
{ACAD_REACTORS
330
1A
102
}
330
1A
100
AcDbPlotSettings
  1

  2
none_device
  4
Letter_(8.50_x_11.00_Inches)
  6

 40
6.35
 41
6.35
 42
6.35000508
 43
6.35000508
 44
215.9
 45
279.4
 46
0.0
 47
0.0
 48
0.0
 49
0.0
140
0.0
141
0.0
142
1.0
143
1.0
 70
  1712
 72
     0
 73
     0
 74
     0
  7

 75
     0
147
1.0
148
0.0
149
0.0
100
AcDbLayout
  1
Model
 70
     1
 71
     0
 10
0.0
 20
0.0
 11
48.0
 21
36.0
 12
0.0
 22
0.0
 32
0.0
 14
0.0
 24
0.0
 34
0.0
 15
48.0
 25
36.0
 35
0.0
146
0.0
 13
0.0
 23
0.0
 33
0.0
 16
1.0
 26
0.0
 36
0.0
 17
0.0
 27
1.0
 37
0.0
 76
     0
330
1F
331
29
  0
MLINESTYLE
  5
18
102
{ACAD_REACTORS
330
17
102
}
330
17
100
AcDbMlineStyle
  2
Standard
 70
     0
  3

 62
   256
 51
90.0
 52
90.0
 71
     2
 49
0.5
 62
   256
  6
BYLAYER
 49
-0.5
 62
   256
  6
BYLAYER
  0
ACDBPLACEHOLDER
  5
F
102
{ACAD_REACTORS
330
E
102
}
330
E
  0
SCALE
  5
48
102
{ACAD_REACTORS
330
47
102
}
330
47
100
AcDbScale
 70
     0
300
1:1
140
1.0
141
1.0
290
     1
  0
SCALE
  5
49
102
{ACAD_REACTORS
330
47
102
}
330
47
100
AcDbScale
 70
     0
300
1:2
140
1.0
141
2.0
290
     0
  0
SCALE
  5
4A
102
{ACAD_REACTORS
330
47
102
}
330
47
100
AcDbScale
 70
     0
300
1:4
140
1.0
141
4.0
290
     0
  0
SCALE
  5
4B
102
{ACAD_REACTORS
330
47
102
}
330
47
100
AcDbScale
 70
     0
300
1:5
140
1.0
141
5.0
290
     0
  0
SCALE
  5
4C
102
{ACAD_REACTORS
330
47
102
}
330
47
100
AcDbScale
 70
     0
300
1:8
140
1.0
141
8.0
290
     0
  0
SCALE
  5
4D
102
{ACAD_REACTORS
330
47
102
}
330
47
100
AcDbScale
 70
     0
300
1:10
140
1.0
141
10.0
290
     0
  0
SCALE
  5
4E
102
{ACAD_REACTORS
330
47
102
}
330
47
100
AcDbScale
 70
     0
300
1:16
140
1.0
141
16.0
290
     0
  0
SCALE
  5
4F
102
{ACAD_REACTORS
330
47
102
}
330
47
100
AcDbScale
 70
     0
300
1:20
140
1.0
141
20.0
290
     0
  0
SCALE
  5
50
102
{ACAD_REACTORS
330
47
102
}
330
47
100
AcDbScale
 70
     0
300
1:30
140
1.0
141
30.0
290
     0
  0
SCALE
  5
51
102
{ACAD_REACTORS
330
47
102
}
330
47
100
AcDbScale
 70
     0
300
1:40
140
1.0
141
40.0
290
     0
  0
SCALE
  5
52
102
{ACAD_REACTORS
330
47
102
}
330
47
100
AcDbScale
 70
     0
300
1:50
140
1.0
141
50.0
290
     0
  0
SCALE
  5
53
102
{ACAD_REACTORS
330
47
102
}
330
47
100
AcDbScale
 70
     0
300
1:100
140
1.0
141
100.0
290
     0
  0
SCALE
  5
54
102
{ACAD_REACTORS
330
47
102
}
330
47
100
AcDbScale
 70
     0
300
2:1
140
2.0
141
1.0
290
     0
  0
SCALE
  5
55
102
{ACAD_REACTORS
330
47
102
}
330
47
100
AcDbScale
 70
     0
300
4:1
140
4.0
141
1.0
290
     0
  0
SCALE
  5
56
102
{ACAD_REACTORS
330
47
102
}
330
47
100
AcDbScale
 70
     0
300
8:1
140
8.0
141
1.0
290
     0
  0
SCALE
  5
57
102
{ACAD_REACTORS
330
47
102
}
330
47
100
AcDbScale
 70
     0
300
10:1
140
10.0
141
1.0
290
     0
  0
SCALE
  5
58
102
{ACAD_REACTORS
330
47
102
}
330
47
100
AcDbScale
 70
     0
300
100:1
140
100.0
141
1.0
290
     0
  0
SCALE
  5
59
102
{ACAD_REACTORS
330
47
102
}
330
47
100
AcDbScale
 70
     0
300
1/128" = 1'-0"
140
0.0078125
141
12.0
290
     0
  0
SCALE
  5
5A
102
{ACAD_REACTORS
330
47
102
}
330
47
100
AcDbScale
 70
     0
300
1/64" = 1'-0"
140
0.015625
141
12.0
290
     0
  0
SCALE
  5
5B
102
{ACAD_REACTORS
330
47
102
}
330
47
100
AcDbScale
 70
     0
300
1/32" = 1'-0"
140
0.03125
141
12.0
290
     0
  0
SCALE
  5
5C
102
{ACAD_REACTORS
330
47
102
}
330
47
100
AcDbScale
 70
     0
300
1/16" = 1'-0"
140
0.0625
141
12.0
290
     0
  0
SCALE
  5
5D
102
{ACAD_REACTORS
330
47
102
}
330
47
100
AcDbScale
 70
     0
300
3/32" = 1'-0"
140
0.09375
141
12.0
290
     0
  0
SCALE
  5
5E
102
{ACAD_REACTORS
330
47
102
}
330
47
100
AcDbScale
 70
     0
300
1/8" = 1'-0"
140
0.125
141
12.0
290
     0
  0
SCALE
  5
5F
102
{ACAD_REACTORS
330
47
102
}
330
47
100
AcDbScale
 70
     0
300
3/16" = 1'-0"
140
0.1875
141
12.0
290
     0
  0
SCALE
  5
60
102
{ACAD_REACTORS
330
47
102
}
330
47
100
AcDbScale
 70
     0
300
1/4" = 1'-0"
140
0.25
141
12.0
290
     0
  0
SCALE
  5
61
102
{ACAD_REACTORS
330
47
102
}
330
47
100
AcDbScale
 70
     0
300
3/8" = 1'-0"
140
0.375
141
12.0
290
     0
  0
SCALE
  5
62
102
{ACAD_REACTORS
330
47
102
}
330
47
100
AcDbScale
 70
     0
300
1/2" = 1'-0"
140
0.5
141
12.0
290
     0
  0
SCALE
  5
63
102
{ACAD_REACTORS
330
47
102
}
330
47
100
AcDbScale
 70
     0
300
3/4" = 1'-0"
140
0.75
141
12.0
290
     0
  0
SCALE
  5
64
102
{ACAD_REACTORS
330
47
102
}
330
47
100
AcDbScale
 70
     0
300
1" = 1'-0"
140
1.0
141
12.0
290
     0
  0
SCALE
  5
65
102
{ACAD_REACTORS
330
47
102
}
330
47
100
AcDbScale
 70
     0
300
1-1/2" = 1'-0"
140
1.5
141
12.0
290
     0
  0
SCALE
  5
66
102
{ACAD_REACTORS
330
47
102
}
330
47
100
AcDbScale
 70
     0
300
3" = 1'-0"
140
3.0
141
12.0
290
     0
  0
SCALE
  5
67
102
{ACAD_REACTORS
330
47
102
}
330
47
100
AcDbScale
 70
     0
300
6" = 1'-0"
140
6.0
141
12.0
290
     0
  0
SCALE
  5
68
102
{ACAD_REACTORS
330
47
102
}
330
47
100
AcDbScale
 70
     0
300
1'-0" = 1'-0"
140
12.0
141
12.0
290
     0
  0
ENDSEC
  0
EOF
