  0
SECTION
  2
HEADER
  9
$ACADVER
  1
AC1015
  9
$ACADMAINTVER
 70
     6
  9
$DWGCODEPAGE
  3
ANSI_1252
  9
$INSBASE
 10
0.0
 20
0.0
 30
0.0
  9
$EXTMIN
 10
0.0
 20
0.0
 30
0.0
  9
$EXTMAX
 10
55.0
 20
36.0
 30
0.0
  9
$LIMMIN
 10
0.0
 20
0.0
  9
$LIMMAX
 10
55.0
 20
36.0
  9
$ORTHOMODE
 70
     0
  9
$REGENMODE
 70
     1
  9
$FILLMODE
 70
     1
  9
$QTEXTMODE
 70
     0
  9
$MIRRTEXT
 70
     1
  9
$LTSCALE
 40
1.0
  9
$ATTMODE
 70
     1
  9
$TEXTSIZE
 40
0.5
  9
$TRACEWID
 40
0.05
  9
$TEXTSTYLE
  7
STANDARD
  9
$CLAYER
  8
0
  9
$CELTYPE
  6
ByLayer
  9
$CECOLOR
 62
   256
  9
$CELTSCALE
 40
1.0
  9
$DISPSILH
 70
     0
  9
$DIMSCALE
 40
1.0
  9
$DIMASZ
 40
0.3
  9
$DIMEXO
 40
0.1666666667
  9
$DIMDLI
 40
0.38
  9
$DIMRND
 40
0.0
  9
$DIMDLE
 40
0.0
  9
$DIMEXE
 40
0.375
  9
$DIMTP
 40
0.0
  9
$DIMTM
 40
0.0
  9
$DIMTXT
 40
0.5
  9
$DIMCEN
 40
0.09
  9
$DIMTSZ
 40
0.0
  9
$DIMTOL
 70
     0
  9
$DIMLIM
 70
     0
  9
$DIMTIH
 70
     1
  9
$DIMTOH
 70
     1
  9
$DIMSE1
 70
     0
  9
$DIMSE2
 70
     0
  9
$DIMTAD
 70
     0
  9
$DIMZIN
 70
     1
  9
$DIMBLK
  1

  9
$DIMASO
 70
     1
  9
$DIMSHO
 70
     1
  9
$DIMPOST
  1

  9
$DIMAPOST
  1

  9
$DIMALT
 70
     0
  9
$DIMALTD
 70
     2
  9
$DIMALTF
 40
25.4
  9
$DIMLFAC
 40
1.0
  9
$DIMTOFL
 70
     0
  9
$DIMTVP
 40
0.0
  9
$DIMTIX
 70
     0
  9
$DIMSOXD
 70
     0
  9
$DIMSAH
 70
     0
  9
$DIMBLK1
  1

  9
$DIMBLK2
  1

  9
$DIMSTYLE
  2
Standard
  9
$DIMCLRD
 70
     0
  9
$DIMCLRE
 70
     0
  9
$DIMCLRT
 70
     0
  9
$DIMTFAC
 40
1.0
  9
$DIMGAP
 40
0.125
  9
$DIMJUST
 70
     0
  9
$DIMSD1
 70
     0
  9
$DIMSD2
 70
     0
  9
$DIMTOLJ
 70
     1
  9
$DIMTZIN
 70
     1
  9
$DIMALTZ
 70
     0
  9
$DIMALTTZ
 70
     0
  9
$DIMUPT
 70
     0
  9
$DIMDEC
 70
     2
  9
$DIMTDEC
 70
     2
  9
$DIMALTU
 70
     2
  9
$DIMALTTD
 70
     2
  9
$DIMTXSTY
  7
STANDARD
  9
$DIMAUNIT
 70
     0
  9
$DIMADEC
 70
     2
  9
$DIMALTRND
 40
0.0
  9
$DIMAZIN
 70
     0
  9
$DIMDSEP
 70
    46
  9
$DIMATFIT
 70
     3
  9
$DIMFRAC
 70
     0
  9
$DIMLDRBLK
  1

  9
$DIMLUNIT
 70
     2
  9
$DIMLWD
 70
    -2
  9
$DIMLWE
 70
    -2
  9
$DIMTMOVE
 70
     0
  9
$LUNITS
 70
     2
  9
$LUPREC
 70
     4
  9
$SKETCHINC
 40
0.1
  9
$FILLETRAD
 40
0.5
  9
$AUNITS
 70
     0
  9
$AUPREC
 70
     2
  9
$MENU
  1
.
  9
$ELEVATION
 40
0.0
  9
$PELEVATION
 40
0.0
  9
$THICKNESS
 40
0.0
  9
$LIMCHECK
 70
     0
  9
$CHAMFERA
 40
0.0
  9
$CHAMFERB
 40
0.0
  9
$CHAMFERC
 40
0.0
  9
$CHAMFERD
 40
0.0
  9
$SKPOLY
 70
     0
  9
$TDCREATE
 40
2459459.606738843
  9
$TDUCREATE
 40
2459459.773405509
  9
$TDUPDATE
 40
2459459.606742801
  9
$TDUUPDATE
 40
2459459.773409468
  9
$TDINDWG
 40
0.0000000116
  9
$TDUSRTIMER
 40
0.0000000116
  9
$USRTIMER
 70
     1
  9
$ANGBASE
 50
0.0
  9
$ANGDIR
 70
     0
  9
$PDMODE
 70
     0
  9
$PDSIZE
 40
-1.0
  9
$PLINEWID
 40
0.0
  9
$SPLFRAME
 70
     0
  9
$SPLINETYPE
 70
     6
  9
$SPLINESEGS
 70
     8
  9
$HANDSEED
  5
30C
  9
$SURFTAB1
 70
     6
  9
$SURFTAB2
 70
     6
  9
$SURFTYPE
 70
     6
  9
$SURFU
 70
     6
  9
$SURFV
 70
     6
  9
$UCSBASE
  2

  9
$UCSNAME
  2

  9
$UCSORG
 10
0.0
 20
0.0
 30
0.0
  9
$UCSXDIR
 10
1.0
 20
0.0
 30
0.0
  9
$UCSYDIR
 10
0.0
 20
1.0
 30
0.0
  9
$UCSORTHOREF
  2

  9
$UCSORTHOVIEW
 70
     0
  9
$UCSORGTOP
 10
0.0
 20
0.0
 30
0.0
  9
$UCSORGBOTTOM
 10
0.0
 20
0.0
 30
0.0
  9
$UCSORGLEFT
 10
0.0
 20
0.0
 30
0.0
  9
$UCSORGRIGHT
 10
0.0
 20
0.0
 30
0.0
  9
$UCSORGFRONT
 10
0.0
 20
0.0
 30
0.0
  9
$UCSORGBACK
 10
0.0
 20
0.0
 30
0.0
  9
$PUCSBASE
  2

  9
$PUCSNAME
  2

  9
$PUCSORG
 10
0.0
 20
0.0
 30
0.0
  9
$PUCSXDIR
 10
1.0
 20
0.0
 30
0.0
  9
$PUCSYDIR
 10
0.0
 20
1.0
 30
0.0
  9
$PUCSORTHOREF
  2

  9
$PUCSORTHOVIEW
 70
     0
  9
$PUCSORGTOP
 10
0.0
 20
0.0
 30
0.0
  9
$PUCSORGBOTTOM
 10
0.0
 20
0.0
 30
0.0
  9
$PUCSORGLEFT
 10
0.0
 20
0.0
 30
0.0
  9
$PUCSORGRIGHT
 10
0.0
 20
0.0
 30
0.0
  9
$PUCSORGFRONT
 10
0.0
 20
0.0
 30
0.0
  9
$PUCSORGBACK
 10
0.0
 20
0.0
 30
0.0
  9
$USERI1
 70
     0
  9
$USERI2
 70
     0
  9
$USERI3
 70
     0
  9
$USERI4
 70
     0
  9
$USERI5
 70
     0
  9
$USERR1
 40
0.0
  9
$USERR2
 40
0.0
  9
$USERR3
 40
0.0
  9
$USERR4
 40
0.0
  9
$USERR5
 40
0.0
  9
$WORLDVIEW
 70
     1
  9
$SHADEDGE
 70
     3
  9
$SHADEDIF
 70
    70
  9
$TILEMODE
 70
     1
  9
$MAXACTVP
 70
    64
  9
$PINSBASE
 10
0.0
 20
0.0
 30
0.0
  9
$PLIMCHECK
 70
     0
  9
$PEXTMIN
 10
1.0000000000E+20
 20
1.0000000000E+20
 30
1.0000000000E+20
  9
$PEXTMAX
 10
-1.0000000000E+20
 20
-1.0000000000E+20
 30
-1.0000000000E+20
  9
$PLIMMIN
 10
0.0
 20
0.0
  9
$PLIMMAX
 10
12.0
 20
9.0
  9
$UNITMODE
 70
     0
  9
$VISRETAIN
 70
     1
  9
$PLINEGEN
 70
     0
  9
$PSLTSCALE
 70
     1
  9
$TREEDEPTH
 70
  3020
  9
$CMLSTYLE
  2
Standard
  9
$CMLJUST
 70
     0
  9
$CMLSCALE
 40
1.0
  9
$PROXYGRAPHICS
 70
     1
  9
$MEASUREMENT
 70
     0
  9
$CELWEIGHT
370
    -1
  9
$ENDCAPS
280
     0
  9
$JOINSTYLE
280
     0
  9
$LWDISPLAY
290
     1
  9
$INSUNITS
 70
     1
  9
$HYPERLINKBASE
  1

  9
$STYLESHEET
  1

  9
$XEDIT
290
     1
  9
$CEPSNTYPE
380
     0
  9
$PSTYLEMODE
290
     1
  9
$FINGERPRINTGUID
  2
{002d81ca-0522-411a-a945-97d7515b47e8}
  9
$VERSIONGUID
  2
{FAEB1C32-E019-11D5-929B-00C0DF256EC4}
  9
$EXTNAMES
290
     1
  9
$PSVPSCALE
 40
0.0
  9
$OLESTARTUP
290
     0
  0
ENDSEC
  0
SECTION
  2
CLASSES
  0
CLASS
  1
ACDBDICTIONARYWDFLT
  2
AcDbDictionaryWithDefault
  3
ObjectDBX Classes
 90
        0
280
     0
281
     0
  0
CLASS
  1
VISUALSTYLE
  2
AcDbVisualStyle
  3
ObjectDBX Classes
 90
     4095
280
     0
281
     0
  0
CLASS
  1
MATERIAL
  2
AcDbMaterial
  3
ObjectDBX Classes
 90
     1153
280
     0
281
     0
  0
CLASS
  1
SCALE
  2
AcDbScale
  3
ObjectDBX Classes
 90
     1153
280
     0
281
     0
  0
CLASS
  1
TABLESTYLE
  2
AcDbTableStyle
  3
ObjectDBX Classes
 90
     4095
280
     0
281
     0
  0
CLASS
  1
MLEADERSTYLE
  2
AcDbMLeaderStyle
  3
ACDB_MLEADERSTYLE_CLASS
 90
     4095
280
     0
281
     0
  0
CLASS
  1
SUN
  2
AcDbSun
  3
SCENEOE
 90
     1153
280
     0
281
     0
  0
CLASS
  1
ACDBPLACEHOLDER
  2
AcDbPlaceHolder
  3
ObjectDBX Classes
 90
        0
280
     0
281
     0
  0
CLASS
  1
LAYOUT
  2
AcDbLayout
  3
ObjectDBX Classes
 90
        0
280
     0
281
     0
  0
ENDSEC
  0
SECTION
  2
TABLES
  0
TABLE
  2
VPORT
  5
8
330
0
100
AcDbSymbolTable
 70
     1
  0
VPORT
  5
29
330
8
100
AcDbSymbolTableRecord
100
AcDbViewportTableRecord
  2
*Active
 70
     0
 10
0.0
 20
0.0
 11
1.0
 21
1.0
 12
27.5
 22
18.0
 13
0.0
 23
0.0
 14
0.5
 24
0.5
 15
0.5
 25
0.5
 16
0.0
 26
0.0
 36
1.0
 17
0.0
 27
0.0
 37
0.0
 40
36.0
 41
1.5277777778
 42
50.0
 43
0.0
 44
0.0
 50
0.0
 51
0.0
 71
     0
 72
  2000
 73
     1
 74
     3
 75
     0
 76
     0
 77
     0
 78
     0
281
     0
 65
     1
110
0.0
120
0.0
130
0.0
111
1.0
121
0.0
131
0.0
112
0.0
122
1.0
132
0.0
 79
     0
146
0.0
  0
ENDTAB
  0
TABLE
  2
LTYPE
  5
5
330
0
100
AcDbSymbolTable
 70
     8
  0
LTYPE
  5
14
330
5
100
AcDbSymbolTableRecord
100
AcDbLinetypeTableRecord
  2
ByBlock
 70
     0
  3

 72
    65
 73
     0
 40
0.0
  0
LTYPE
  5
15
330
5
100
AcDbSymbolTableRecord
100
AcDbLinetypeTableRecord
  2
ByLayer
 70
     0
  3

 72
    65
 73
     0
 40
0.0
  0
LTYPE
  5
16
330
5
100
AcDbSymbolTableRecord
100
AcDbLinetypeTableRecord
  2
Continuous
 70
     0
  3
Solid line
 72
    65
 73
     0
 40
0.0
  0
LTYPE
  5
6E
330
5
100
AcDbSymbolTableRecord
100
AcDbLinetypeTableRecord
  2
SLD-Solid
 70
     0
  3
SolidWorks Line Style
 72
    65
 73
     0
 40
0.0
  0
LTYPE
  5
6F
330
5
100
AcDbSymbolTableRecord
100
AcDbLinetypeTableRecord
  2
SLD-Dashed
 70
     0
  3
SolidWorks Line Style
 72
    65
 73
     2
 40
0.075
 49
0.05
 74
     0
 49
-0.025
 74
     0
  0
LTYPE
  5
70
330
5
100
AcDbSymbolTableRecord
100
AcDbLinetypeTableRecord
  2
SLD-Phantom
 70
     0
  3
SolidWorks Line Style
 72
    65
 73
     6
 40
0.5
 49
0.25
 74
     0
 49
-0.05
 74
     0
 49
0.05
 74
     0
 49
-0.05
 74
     0
 49
0.05
 74
     0
 49
-0.05
 74
     0
  0
LTYPE
  5
71
330
5
100
AcDbSymbolTableRecord
100
AcDbLinetypeTableRecord
  2
SLD-Chain
 70
     0
  3
SolidWorks Line Style
 72
    65
 73
     4
 40
0.4
 49
0.25
 74
     0
 49
-0.05
 74
     0
 49
0.05
 74
     0
 49
-0.05
 74
     0
  0
LTYPE
  5
72
330
5
100
AcDbSymbolTableRecord
100
AcDbLinetypeTableRecord
  2
SLD-Center
 70
     0
  3
SolidWorks Line Style
 72
    65
 73
     4
 40
0.75
 49
0.6
 74
     0
 49
-0.05
 74
     0
 49
0.05
 74
     0
 49
-0.05
 74
     0
  0
LTYPE
  5
73
330
5
100
AcDbSymbolTableRecord
100
AcDbLinetypeTableRecord
  2
SLD-Stitch
 70
     0
  3
SolidWorks Line Style
 72
    65
 73
     2
 40
0.025
 49
0.0
 74
     0
 49
-0.025
 74
     0
  0
LTYPE
  5
74
330
5
100
AcDbSymbolTableRecord
100
AcDbLinetypeTableRecord
  2
SLD-Thin-Thick-Chain
 70
     0
  3
SolidWorks Line Style
 72
    65
 73
     4
 40
0.4
 49
0.25
 74
     0
 49
-0.05
 74
     0
 49
0.05
 74
     0
 49
-0.05
 74
     0
  0
ENDTAB
  0
TABLE
  2
LAYER
  5
2
330
0
100
AcDbSymbolTable
 70
     6
  0
LAYER
  5
10
330
2
100
AcDbSymbolTableRecord
100
AcDbLayerTableRecord
  2
0
 70
     0
 62
     7
  6
Continuous
370
    -3
390
F
  0
LAYER
  5
75
330
2
100
AcDbSymbolTableRecord
100
AcDbLayerTableRecord
  2
FORMAT
 70
     0
 62
     7
  6
SLD-Solid
370
    -3
390
F
  0
LAYER
  5
76
330
2
100
AcDbSymbolTableRecord
100
AcDbLayerTableRecord
  2
NOTES
 70
     0
 62
     1
  6
SLD-Solid
370
    -3
390
F
  0
LAYER
  5
77
330
2
100
AcDbSymbolTableRecord
100
AcDbLayerTableRecord
  2
OBJECT
 70
     0
 62
     7
  6
SLD-Solid
370
    25
390
F
  0
LAYER
  5
78
330
2
100
AcDbSymbolTableRecord
100
AcDbLayerTableRecord
  2
DIMS
 70
     0
 62
     5
  6
SLD-Solid
370
    -3
390
F
  0
LAYER
  5
79
330
2
100
AcDbSymbolTableRecord
100
AcDbLayerTableRecord
  2
TITLE
 70
     0
 62
     8
  6
SLD-Solid
370
    -3
390
F
  0
ENDTAB
  0
TABLE
  2
STYLE
  5
3
330
0
100
AcDbSymbolTable
 70
     5
  0
STYLE
  5
11
330
3
100
AcDbSymbolTableRecord
100
AcDbTextStyleTableRecord
  2
STANDARD
 70
     0
 40
0.0
 41
1.0
 50
0.0
 71
     0
 42
0.5
  3
GOTHIC.TTF
  4

1001
ACAD
1000
CENTURY GOTHIC
1071
       34
  0
STYLE
  5
E5
330
3
100
AcDbSymbolTableRecord
100
AcDbTextStyleTableRecord
  2
SLDTEXTSTYLE0
 70
     0
 40
0.0
 41
0.948
 50
0.0
 71
     0
 42
0.5
  3
ARIAL.TTF
  4

1001
ACAD
1000
Arial
1071
      290
  0
STYLE
  5
E9
330
3
100
AcDbSymbolTableRecord
100
AcDbTextStyleTableRecord
  2
SLDTEXTSTYLE1
 70
     0
 40
0.0
 41
0.913
 50
0.0
 71
     0
 42
0.5
  3
GOTHIC.TTF
  4

1001
ACAD
1000
Century Gothic
1071
      290
  0
STYLE
  5
F8
330
3
100
AcDbSymbolTableRecord
100
AcDbTextStyleTableRecord
  2
SLDTEXTSTYLE2
 70
     0
 40
0.0
 41
0.87
 50
0.0
 71
     0
 42
0.5
  3
ARIALNB.TTF
  4

1001
ACAD
1000
Arial Narrow
1071
 33554722
  0
STYLE
  5
FA
330
3
100
AcDbSymbolTableRecord
100
AcDbTextStyleTableRecord
  2
SLDTEXTSTYLE3
 70
     0
 40
0.0
 41
0.87
 50
0.0
 71
     0
 42
0.5
  3
ARIALN.TTF
  4

1001
ACAD
1000
Arial Narrow
1071
      290
  0
ENDTAB
  0
TABLE
  2
VIEW
  5
6
330
0
100
AcDbSymbolTable
 70
     0
  0
ENDTAB
  0
TABLE
  2
UCS
  5
7
330
0
100
AcDbSymbolTable
 70
     0
  0
ENDTAB
  0
TABLE
  2
APPID
  5
9
330
0
100
AcDbSymbolTable
 70
     1
  0
APPID
  5
12
330
9
100
AcDbSymbolTableRecord
100
AcDbRegAppTableRecord
  2
ACAD
 70
     0
  0
ENDTAB
  0
TABLE
  2
DIMSTYLE
  5
A
330
0
100
AcDbSymbolTable
 70
     5
100
AcDbDimStyleTable
  0
DIMSTYLE
105
27
330
A
100
AcDbSymbolTableRecord
100
AcDbDimStyleTableRecord
  2
Standard
 70
     0
178
     0
340
11
  0
DIMSTYLE
105
18C
102
{ACAD_REACTORS
330
18B
330
1DD
330
27A
330
299
330
2A9
330
2F9
102
}
330
A
100
AcDbSymbolTableRecord
100
AcDbDimStyleTableRecord
  2
SLDDIMSTYLE0
 70
     0
 41
0.3
 44
0.0
 45
0.000000001
 78
    12
 79
     3
140
0.5
147
0.125
173
     1
178
     0
271
     6
272
     2
276
     2
277
     5
284
    12
340
E9
341
18D
343
18D
344
18D
  0
DIMSTYLE
105
1A8
330
A
100
AcDbSymbolTableRecord
100
AcDbDimStyleTableRecord
  2
SLDDIMSTYLE1
 70
     0
 41
0.3
 44
0.0
 45
0.000000001
146
0.3
147
0.0
173
     1
178
     0
271
     0
272
     0
276
     2
277
     5
340
11
341
18D
343
18D
344
18D
  0
DIMSTYLE
105
26D
102
{ACAD_REACTORS
330
26C
102
}
330
A
100
AcDbSymbolTableRecord
100
AcDbDimStyleTableRecord
  2
SLDDIMSTYLE2
 70
     0
 41
0.3
 44
0.0
 45
0.000000001
 78
    12
 79
     3
140
0.5
141
0.0
147
0.125
173
     1
178
     0
271
     2
272
     2
276
     2
277
     5
284
    12
340
E9
341
18D
343
18D
344
18D
  0
DIMSTYLE
105
28A
102
{ACAD_REACTORS
330
289
102
}
330
A
100
AcDbSymbolTableRecord
100
AcDbDimStyleTableRecord
  2
SLDDIMSTYLE3
 70
     0
 41
0.3
 44
0.0
 45
0.000000001
 78
    12
 79
     3
140
0.5
147
0.125
172
     1
173
     1
178
     0
271
     6
272
     2
276
     2
277
     5
284
    12
289
     0
340
E9
341
18D
343
18D
344
18D
  0
ENDTAB
  0
TABLE
  2
BLOCK_RECORD
  5
1
330
0
100
AcDbSymbolTable
 70
    15
  0
BLOCK_RECORD
  5
1F
330
1
100
AcDbSymbolTableRecord
100
AcDbBlockTableRecord
  2
*Model_Space
340
22
  0
BLOCK_RECORD
  5
1B
330
1
100
AcDbSymbolTableRecord
100
AcDbBlockTableRecord
  2
*Paper_Space
340
1E
  0
BLOCK_RECORD
  5
23
330
1
100
AcDbSymbolTableRecord
100
AcDbBlockTableRecord
  2
*Paper_Space0
340
26
  0
BLOCK_RECORD
  5
EF
330
1
100
AcDbSymbolTableRecord
100
AcDbBlockTableRecord
  2
SW_NOTE_0
340
0
102
{BLKREFS
331
F4
102
}
  0
BLOCK_RECORD
  5
F5
330
1
100
AcDbSymbolTableRecord
100
AcDbBlockTableRecord
  2
SW_NOTE_0_1
340
0
102
{BLKREFS
331
FE
102
}
  0
BLOCK_RECORD
  5
18D
330
1
100
AcDbSymbolTableRecord
100
AcDbBlockTableRecord
  2
_Open90
340
0
102
{BLKREFS
331
196
331
197
331
1E1
331
1E2
331
271
331
27E
331
27F
331
28E
331
28F
331
29D
331
29E
331
2AD
331
2AE
331
2FD
331
2FE
102
}
  0
BLOCK_RECORD
  5
193
330
1
100
AcDbSymbolTableRecord
100
AcDbBlockTableRecord
  2
_D
340
0
  0
BLOCK_RECORD
  5
1A2
330
1
100
AcDbSymbolTableRecord
100
AcDbBlockTableRecord
  2
SW_NOTE_0_2
340
0
102
{BLKREFS
331
1A7
102
}
  0
BLOCK_RECORD
  5
1DE
330
1
100
AcDbSymbolTableRecord
100
AcDbBlockTableRecord
  2
_D_1
340
0
  0
BLOCK_RECORD
  5
24F
330
1
100
AcDbSymbolTableRecord
100
AcDbBlockTableRecord
  2
SW_NOTE_0_3
340
0
102
{BLKREFS
331
254
102
}
  0
BLOCK_RECORD
  5
26E
330
1
100
AcDbSymbolTableRecord
100
AcDbBlockTableRecord
  2
_D_2
340
0
  0
BLOCK_RECORD
  5
27B
330
1
100
AcDbSymbolTableRecord
100
AcDbBlockTableRecord
  2
_D_3
340
0
  0
BLOCK_RECORD
  5
28B
330
1
100
AcDbSymbolTableRecord
100
AcDbBlockTableRecord
  2
_D_4
340
0
  0
BLOCK_RECORD
  5
29A
330
1
100
AcDbSymbolTableRecord
100
AcDbBlockTableRecord
  2
_D_5
340
0
  0
BLOCK_RECORD
  5
2AA
330
1
100
AcDbSymbolTableRecord
100
AcDbBlockTableRecord
  2
_D_6
340
0
  0
BLOCK_RECORD
  5
2B9
330
1
100
AcDbSymbolTableRecord
100
AcDbBlockTableRecord
  2
SW_NOTE_0_4
340
0
102
{BLKREFS
331
2BF
102
}
  0
BLOCK_RECORD
  5
2FA
330
1
100
AcDbSymbolTableRecord
100
AcDbBlockTableRecord
  2
_D_7
340
0
  0
ENDTAB
  0
ENDSEC
  0
SECTION
  2
BLOCKS
  0
BLOCK
  5
20
330
1F
100
AcDbEntity
  8
0
100
AcDbBlockBegin
  2
*Model_Space
 70
     0
 10
0.0
 20
0.0
 30
0.0
  3
*Model_Space
  1

  0
ENDBLK
  5
21
330
1F
100
AcDbEntity
  8
0
100
AcDbBlockEnd
  0
BLOCK
  5
1C
330
1B
100
AcDbEntity
 67
     1
  8
0
100
AcDbBlockBegin
  2
*Paper_Space
 70
     0
 10
0.0
 20
0.0
 30
0.0
  3
*Paper_Space
  1

  0
ENDBLK
  5
1D
330
1B
100
AcDbEntity
 67
     1
  8
0
100
AcDbBlockEnd
  0
BLOCK
  5
24
330
23
100
AcDbEntity
  8
0
100
AcDbBlockBegin
  2
*Paper_Space0
 70
     0
 10
0.0
 20
0.0
 30
0.0
  3
*Paper_Space0
  1

  0
ENDBLK
  5
25
330
23
100
AcDbEntity
  8
0
100
AcDbBlockEnd
  0
BLOCK
  5
F0
330
EF
100
AcDbEntity
  8
0
100
AcDbBlockBegin
  2
SW_NOTE_0
 70
     0
 10
0.0
 20
0.0
 30
0.0
  3
SW_NOTE_0
  1

  0
MTEXT
  5
F2
330
EF
100
AcDbEntity
  8
NOTES
 62
     0
100
AcDbMText
 10
0.0
 20
0.3759780908
 30
0.0
 40
0.2916666667
 41
0.0
 71
     1
 72
     1
  1
FROST PRODUCTS LTD.
  7
SLDTEXTSTYLE0
 73
     1
 44
1.0
  0
MTEXT
  5
F3
330
EF
100
AcDbEntity
  8
NOTES
 62
     0
100
AcDbMText
 10
0.0
 20
-0.0495142709
 30
0.0
 40
0.2291666667
 41
0.0
 71
     1
 72
     1
  1
5280 JOHN LUCAS DRIVE, BURLINGTON, ON, L7L 5Z9
  7
SLDTEXTSTYLE0
 73
     1
 44
1.0
  0
ENDBLK
  5
F1
330
EF
100
AcDbEntity
  8
0
100
AcDbBlockEnd
  0
BLOCK
  5
F6
330
F5
100
AcDbEntity
  8
0
100
AcDbBlockBegin
  2
SW_NOTE_0_1
 70
     0
 10
0.0
 20
0.0
 30
0.0
  3
SW_NOTE_0_1
  1

  0
MTEXT
  5
F9
330
F5
100
AcDbEntity
  8
NOTES
 62
     0
100
AcDbMText
 10
0.0
 20
0.2381282771
 30
0.0
 40
0.184729064
 41
0.0
 71
     1
 72
     1
  1
PROPRIETARY AND CONFIDENTIAL
  7
SLDTEXTSTYLE2
 73
     1
 44
1.0
  0
MTEXT
  5
FB
330
F5
100
AcDbEntity
  8
NOTES
 62
     0
100
AcDbMText
 10
0.0
 20
-0.0504364796
 30
0.0
 40
0.25
 41
0.0
 71
     1
 72
     1
  1
THE INFORMATION CONTAINED IN THIS DRAWING IS THE SOLE PROPERTY OF 
  7
SLDTEXTSTYLE3
 73
     1
 44
1.0
  0
MTEXT
  5
FC
330
F5
100
AcDbEntity
  8
NOTES
 62
     0
100
AcDbMText
 10
0.0
 20
-0.4231398941
 30
0.0
 40
0.25
 41
0.0
 71
     1
 72
     1
  1
FROST PRODUCTS LTD.  ANY REPRODUCTION IN PART OR AS A WHOLE WITHOUT 
  7
SLDTEXTSTYLE3
 73
     1
 44
1.0
  0
MTEXT
  5
FD
330
F5
100
AcDbEntity
  8
NOTES
 62
     0
100
AcDbMText
 10
0.0
 20
-0.7958433086
 30
0.0
 40
0.25
 41
0.0
 71
     1
 72
     1
  1
THE WRITTEN PERMISSION OF FROST PRODUCTS LTD. IS PROHIBITED.
  7
SLDTEXTSTYLE3
 73
     1
 44
1.0
  0
ENDBLK
  5
F7
330
F5
100
AcDbEntity
  8
0
100
AcDbBlockEnd
  0
BLOCK
  5
18E
330
18D
100
AcDbEntity
  8
0
100
AcDbBlockBegin
  2
_Open90
 70
     0
 10
0.0
 20
0.0
 30
0.0
  3
_Open90
  1

  0
LINE
  5
190
330
18D
100
AcDbEntity
  8
0
  6
ByBlock
 62
     0
370
    -2
100
AcDbLine
 10
-0.5
 20
0.5
 30
0.0
 11
0.0
 21
0.0
 31
0.0
  0
LINE
  5
191
330
18D
100
AcDbEntity
  8
0
  6
ByBlock
 62
     0
370
    -2
100
AcDbLine
 10
0.0
 20
0.0
 30
0.0
 11
-0.5
 21
-0.5
 31
0.0
  0
LINE
  5
192
330
18D
100
AcDbEntity
  8
0
  6
ByBlock
 62
     0
370
    -2
100
AcDbLine
 10
0.0
 20
0.0
 30
0.0
 11
-1.0
 21
0.0
 31
0.0
  0
ENDBLK
  5
18F
330
18D
100
AcDbEntity
  8
0
100
AcDbBlockEnd
  0
BLOCK
  5
194
330
193
100
AcDbEntity
  8
0
100
AcDbBlockBegin
  2
_D
 70
     0
 10
0.0
 20
0.0
 30
0.0
  3
_D
  1

  0
INSERT
  5
196
330
193
100
AcDbEntity
  8
DIMS
100
AcDbBlockReference
  2
_Open90
 10
5.94849611
 20
15.5151575412
 30
-1.8725
 41
0.3
 42
0.3
 50
180.0
  0
INSERT
  5
197
330
193
100
AcDbEntity
  8
DIMS
100
AcDbBlockReference
  2
_Open90
 10
13.19849611
 20
15.5151575412
 30
-1.8725
 41
0.3
 42
0.3
 50
0.0
  0
LINE
  5
198
330
193
100
AcDbEntity
  8
DIMS
100
AcDbLine
 10
9.3971071893
 20
15.5664422396
 30
0.0
 11
9.9130794388
 21
15.5664422396
 31
0.0
  0
LINE
  5
199
330
193
100
AcDbEntity
  8
DIMS
100
AcDbLine
 10
5.94849611
 20
14.4156824756
 30
0.0
 11
5.94849611
 21
15.8901575412
 31
0.0
  0
LINE
  5
19A
330
193
100
AcDbEntity
  8
DIMS
100
AcDbLine
 10
13.19849611
 20
14.4156824756
 30
0.0
 11
13.19849611
 21
15.8901575412
 31
0.0
  0
LINE
  5
19B
330
193
100
AcDbEntity
  8
DIMS
100
AcDbLine
 10
5.94849611
 20
15.5151575412
 30
0.0
 11
8.9543988419
 21
15.5151575412
 31
0.0
  0
LINE
  5
19C
330
193
100
AcDbEntity
  8
DIMS
100
AcDbLine
 10
13.19849611
 20
15.5151575412
 30
0.0
 11
10.1925933781
 21
15.5151575412
 31
0.0
  0
MTEXT
  5
19D
330
193
100
AcDbEntity
  8
DIMS
100
AcDbMText
 10
8.9543988419
 20
15.7958433
 30
0.0
 40
0.5
 41
0.0
 71
     1
 72
     1
  1
7
  7
SLDTEXTSTYLE1
 73
     1
 44
1.0
  0
MTEXT
  5
19E
330
193
100
AcDbEntity
  8
DIMS
100
AcDbMText
 10
9.4703710913
 20
16.1611557991
 30
0.0
 40
0.5
 41
0.0
 71
     1
 72
     1
  1
1
  7
SLDTEXTSTYLE1
 73
     1
 44
1.0
  0
MTEXT
  5
19F
330
193
100
AcDbEntity
  8
DIMS
100
AcDbMText
 10
9.4703710913
 20
15.4999752205
 30
0.0
 40
0.5
 41
0.0
 71
     1
 72
     1
  1
4
  7
SLDTEXTSTYLE1
 73
     1
 44
1.0
  0
MTEXT
  5
1A0
330
193
100
AcDbEntity
  8
DIMS
100
AcDbMText
 10
9.9863433407
 20
15.7958433
 30
0.0
 40
0.5
 41
0.0
 71
     1
 72
     1
  1
"
  7
SLDTEXTSTYLE1
 73
     1
 44
1.0
  0
ENDBLK
  5
195
330
193
100
AcDbEntity
  8
0
100
AcDbBlockEnd
  0
BLOCK
  5
1A3
330
1A2
100
AcDbEntity
  8
0
100
AcDbBlockBegin
  2
SW_NOTE_0_2
 70
     0
 10
0.0
 20
0.0
 30
0.0
  3
SW_NOTE_0_2
  1

  0
MTEXT
  5
1A5
330
1A2
100
AcDbEntity
  8
NOTES
 62
     0
100
AcDbMText
 10
0.0199378889
 20
0.2430843884
 30
0.0
 40
0.5
 41
0.0
 71
     1
 72
     1
  1
soap level 
  7
SLDTEXTSTYLE1
 73
     1
 44
1.0
  0
MTEXT
  5
1A6
330
1A2
100
AcDbEntity
  8
NOTES
 62
     0
100
AcDbMText
 10
0.0199378889
 20
-0.4034434095
 30
0.0
 40
0.5
 41
0.0
 71
     1
 72
     1
  1
indicator
  7
SLDTEXTSTYLE1
 73
     1
 44
1.0
  0
ENDBLK
  5
1A4
330
1A2
100
AcDbEntity
  8
0
100
AcDbBlockEnd
  0
BLOCK
  5
1DF
330
1DE
100
AcDbEntity
  8
0
100
AcDbBlockBegin
  2
_D_1
 70
     0
 10
0.0
 20
0.0
 30
0.0
  3
_D_1
  1

  0
INSERT
  5
1E1
330
1DE
100
AcDbEntity
  8
DIMS
100
AcDbBlockReference
  2
_Open90
 10
24.1815640269
 20
14.6490158089
 30
0.0
 41
0.3
 42
0.3
 50
90.0
  0
INSERT
  5
1E2
330
1DE
100
AcDbEntity
  8
DIMS
100
AcDbBlockReference
  2
_Open90
 10
24.1815640269
 20
8.1490158089
 30
0.0
 41
0.3
 42
0.3
 50
270.0
  0
LINE
  5
1E3
330
1DE
100
AcDbEntity
  8
DIMS
100
AcDbLine
 10
24.0051751063
 20
11.5989907973
 30
0.0
 11
24.5211473557
 21
11.5989907973
 31
0.0
  0
LINE
  5
1E4
330
1DE
100
AcDbEntity
  8
DIMS
100
AcDbLine
 10
23.2458684889
 20
14.6490158089
 30
0.0
 11
24.5565640269
 21
14.6490158089
 31
0.0
  0
LINE
  5
1E5
330
1DE
100
AcDbEntity
  8
DIMS
100
AcDbLine
 10
23.2458684889
 20
8.1490158089
 30
0.0
 11
24.5565640269
 21
8.1490158089
 31
0.0
  0
LINE
  5
1E6
330
1DE
100
AcDbEntity
  8
DIMS
100
AcDbLine
 10
24.1815640269
 20
14.6490158089
 30
0.0
 11
24.1815640269
 21
12.2015602522
 31
0.0
  0
LINE
  5
1E7
330
1DE
100
AcDbEntity
  8
DIMS
100
AcDbLine
 10
24.1815640269
 20
8.1490158089
 30
0.0
 11
24.1815640269
 21
10.8938519456
 31
0.0
  0
MTEXT
  5
1E8
330
1DE
100
AcDbEntity
  8
DIMS
100
AcDbMText
 10
23.5624667588
 20
11.8283918577
 30
0.0
 40
0.5
 41
0.0
 71
     1
 72
     1
  1
6
  7
SLDTEXTSTYLE1
 73
     1
 44
1.0
  0
MTEXT
  5
1E9
330
1DE
100
AcDbEntity
  8
DIMS
100
AcDbMText
 10
24.0784390082
 20
12.1937043567
 30
0.0
 40
0.5
 41
0.0
 71
     1
 72
     1
  1
1
  7
SLDTEXTSTYLE1
 73
     1
 44
1.0
  0
MTEXT
  5
1EA
330
1DE
100
AcDbEntity
  8
DIMS
100
AcDbMText
 10
24.0784390082
 20
11.5325237782
 30
0.0
 40
0.5
 41
0.0
 71
     1
 72
     1
  1
2
  7
SLDTEXTSTYLE1
 73
     1
 44
1.0
  0
MTEXT
  5
1EB
330
1DE
100
AcDbEntity
  8
DIMS
100
AcDbMText
 10
24.5944112577
 20
11.8283918577
 30
0.0
 40
0.5
 41
0.0
 71
     1
 72
     1
  1
"
  7
SLDTEXTSTYLE1
 73
     1
 44
1.0
  0
ENDBLK
  5
1E0
330
1DE
100
AcDbEntity
  8
0
100
AcDbBlockEnd
  0
BLOCK
  5
250
330
24F
100
AcDbEntity
  8
0
100
AcDbBlockBegin
  2
SW_NOTE_0_3
 70
     0
 10
0.0
 20
0.0
 30
0.0
  3
SW_NOTE_0_3
  1

  0
MTEXT
  5
252
330
24F
100
AcDbEntity
  8
NOTES
 62
     0
100
AcDbMText
 10
0.0
 20
0.638671875
 30
0.0
 40
0.5
 41
0.0
 71
     1
 72
     1
  1
3D view
  7
SLDTEXTSTYLE1
 73
     1
 44
1.0
  0
MTEXT
  5
253
330
24F
100
AcDbEntity
  8
NOTES
 62
     0
100
AcDbMText
 10
0.0
 20
-0.3613281862
 30
0.0
 40
0.5
 41
0.0
 71
     1
 72
     1
  1
code 711
  7
SLDTEXTSTYLE1
 73
     1
 44
1.0
  0
ENDBLK
  5
251
330
24F
100
AcDbEntity
  8
0
100
AcDbBlockEnd
  0
BLOCK
  5
26F
330
26E
100
AcDbEntity
  8
0
100
AcDbBlockBegin
  2
_D_2
 70
     0
 10
0.0
 20
0.0
 30
0.0
  3
_D_2
  1

  0
INSERT
  5
271
330
26E
100
AcDbEntity
  8
DIMS
100
AcDbBlockReference
  2
_Open90
 10
33.1462586612
 20
13.3549891842
 30
1.8725
 41
0.3
 42
0.3
 50
300.0
  0
LINE
  5
272
330
26E
100
AcDbEntity
  8
DIMS
100
AcDbLine
 10
23.7257696363
 20
16.944955121
 30
0.0
 11
24.6111863313
 21
16.944955121
 31
0.0
  0
LINE
  5
273
330
26E
100
AcDbEntity
  8
DIMS
100
AcDbLine
 10
33.1462586612
 20
13.3549891842
 30
0.0
 11
31.1032000956
 21
16.8936704226
 31
0.0
  0
LINE
  5
274
330
26E
100
AcDbEntity
  8
DIMS
100
AcDbLine
 10
31.1032000956
 20
16.8936704226
 30
0.0
 11
30.8032000956
 21
16.8936704226
 31
0.0
  0
MTEXT
  5
275
330
26E
100
AcDbEntity
  8
DIMS
100
AcDbMText
 10
22.898443252
 20
17.1667172922
 30
0.0
 40
0.5
 41
0.0
 71
     1
 72
     1
  1
%%c
  7
SLDTEXTSTYLE1
 73
     1
 44
1.0
  0
MTEXT
  5
276
330
26E
100
AcDbEntity
  8
DIMS
100
AcDbMText
 10
23.9837557611
 20
17.5396686805
 30
0.0
 40
0.5
 41
0.0
 71
     1
 72
     1
  1
3
  7
SLDTEXTSTYLE1
 73
     1
 44
1.0
  0
MTEXT
  5
277
330
26E
100
AcDbEntity
  8
DIMS
100
AcDbMText
 10
23.7990335383
 20
16.878488102
 30
0.0
 40
0.5
 41
0.0
 71
     1
 72
     1
  1
16
  7
SLDTEXTSTYLE1
 73
     1
 44
1.0
  0
MTEXT
  5
278
330
26E
100
AcDbEntity
  8
DIMS
100
AcDbMText
 10
24.6844502333
 20
17.1743561815
 30
0.0
 40
0.5
 41
0.0
 71
     1
 72
     1
  1
"
  7
SLDTEXTSTYLE1
 73
     1
 44
1.0
  0
MTEXT
  5
279
330
26E
100
AcDbEntity
  8
DIMS
100
AcDbMText
 10
24.8907001973
 20
17.1743561815
 30
0.0
 40
0.5
 41
0.0
 71
     1
 72
     1
  1
 mounting hole (3)
  7
SLDTEXTSTYLE1
 73
     1
 44
1.0
  0
ENDBLK
  5
270
330
26E
100
AcDbEntity
  8
0
100
AcDbBlockEnd
  0
BLOCK
  5
27C
330
27B
100
AcDbEntity
  8
0
100
AcDbBlockBegin
  2
_D_3
 70
     0
 10
0.0
 20
0.0
 30
0.0
  3
_D_3
  1

  0
INSERT
  5
27E
330
27B
100
AcDbEntity
  8
DIMS
100
AcDbBlockReference
  2
_Open90
 10
34.5680086612
 20
15.2789370687
 30
1.8725
 41
0.3
 42
0.3
 50
0.0
  0
INSERT
  5
27F
330
27B
100
AcDbEntity
  8
DIMS
100
AcDbBlockReference
  2
_Open90
 10
33.1930086612
 20
15.2789370687
 30
1.8725
 41
0.3
 42
0.3
 50
180.0
  0
LINE
  5
280
330
27B
100
AcDbEntity
  8
DIMS
100
AcDbLine
 10
36.190654077
 20
15.3302217671
 30
0.0
 11
36.7066263264
 21
15.3302217671
 31
0.0
  0
LINE
  5
281
330
27B
100
AcDbEntity
  8
DIMS
100
AcDbLine
 10
34.5680086612
 20
13.4406824756
 30
0.0
 11
34.5680086612
 21
15.6539370687
 31
0.0
  0
LINE
  5
282
330
27B
100
AcDbEntity
  8
DIMS
100
AcDbLine
 10
33.1930086612
 20
13.4406824756
 30
0.0
 11
33.1930086612
 21
15.6539370687
 31
0.0
  0
LINE
  5
283
330
27B
100
AcDbEntity
  8
DIMS
100
AcDbLine
 10
34.5680086612
 20
15.2789370687
 30
0.0
 11
35.7479457295
 21
15.2789370687
 31
0.0
  0
LINE
  5
284
330
27B
100
AcDbEntity
  8
DIMS
100
AcDbLine
 10
33.1930086612
 20
15.2789370687
 30
0.0
 11
34.5680086612
 21
15.2789370687
 31
0.0
  0
MTEXT
  5
285
330
27B
100
AcDbEntity
  8
DIMS
100
AcDbMText
 10
35.7479457295
 20
15.5596228276
 30
0.0
 40
0.5
 41
0.0
 71
     1
 72
     1
  1
1
  7
SLDTEXTSTYLE1
 73
     1
 44
1.0
  0
MTEXT
  5
286
330
27B
100
AcDbEntity
  8
DIMS
100
AcDbMText
 10
36.263917979
 20
15.9249353266
 30
0.0
 40
0.5
 41
0.0
 71
     1
 72
     1
  1
3
  7
SLDTEXTSTYLE1
 73
     1
 44
1.0
  0
MTEXT
  5
287
330
27B
100
AcDbEntity
  8
DIMS
100
AcDbMText
 10
36.263917979
 20
15.2637547481
 30
0.0
 40
0.5
 41
0.0
 71
     1
 72
     1
  1
8
  7
SLDTEXTSTYLE1
 73
     1
 44
1.0
  0
MTEXT
  5
288
330
27B
100
AcDbEntity
  8
DIMS
100
AcDbMText
 10
36.7798902284
 20
15.5596228276
 30
0.0
 40
0.5
 41
0.0
 71
     1
 72
     1
  1
"
  7
SLDTEXTSTYLE1
 73
     1
 44
1.0
  0
ENDBLK
  5
27D
330
27B
100
AcDbEntity
  8
0
100
AcDbBlockEnd
  0
BLOCK
  5
28C
330
28B
100
AcDbEntity
  8
0
100
AcDbBlockBegin
  2
_D_4
 70
     0
 10
0.0
 20
0.0
 30
0.0
  3
_D_4
  1

  0
INSERT
  5
28E
330
28B
100
AcDbEntity
  8
DIMS
100
AcDbBlockReference
  2
_Open90
 10
28.916925984
 20
11.8016134352
 30
1.8725
 41
0.3
 42
0.3
 50
90.0
  0
INSERT
  5
28F
330
28B
100
AcDbEntity
  8
DIMS
100
AcDbBlockReference
  2
_Open90
 10
28.916925984
 20
13.2740158089
 30
1.8725
 41
0.3
 42
0.3
 50
270.0
  0
LINE
  5
290
330
28B
100
AcDbEntity
  8
DIMS
100
AcDbLine
 10
28.7405370634
 20
12.5890993205
 30
0.0
 11
29.2565093128
 21
12.5890993205
 31
0.0
  0
LINE
  5
291
330
28B
100
AcDbEntity
  8
DIMS
100
AcDbLine
 10
33.7138419945
 20
11.8016134352
 30
0.0
 11
28.541925984
 21
11.8016134352
 31
0.0
  0
LINE
  5
292
330
28B
100
AcDbEntity
  8
DIMS
100
AcDbLine
 10
33.0263419945
 20
13.2740158089
 30
0.0
 11
28.541925984
 21
13.2740158089
 31
0.0
  0
LINE
  5
293
330
28B
100
AcDbEntity
  8
DIMS
100
AcDbLine
 10
28.916925984
 20
11.8016134352
 30
0.0
 11
28.916925984
 21
11.5016134352
 31
0.0
  0
LINE
  5
294
330
28B
100
AcDbEntity
  8
DIMS
100
AcDbLine
 10
28.916925984
 20
13.2740158089
 30
0.0
 11
28.916925984
 21
13.5740158089
 31
0.0
  0
MTEXT
  5
295
330
28B
100
AcDbEntity
  8
DIMS
100
AcDbMText
 10
28.2978287159
 20
12.8185003809
 30
0.0
 40
0.5
 41
0.0
 71
     1
 72
     1
  1
1
  7
SLDTEXTSTYLE1
 73
     1
 44
1.0
  0
MTEXT
  5
296
330
28B
100
AcDbEntity
  8
DIMS
100
AcDbMText
 10
28.8138009654
 20
13.1838128799
 30
0.0
 40
0.5
 41
0.0
 71
     1
 72
     1
  1
1
  7
SLDTEXTSTYLE1
 73
     1
 44
1.0
  0
MTEXT
  5
297
330
28B
100
AcDbEntity
  8
DIMS
100
AcDbMText
 10
28.8138009654
 20
12.5226323014
 30
0.0
 40
0.5
 41
0.0
 71
     1
 72
     1
  1
2
  7
SLDTEXTSTYLE1
 73
     1
 44
1.0
  0
MTEXT
  5
298
330
28B
100
AcDbEntity
  8
DIMS
100
AcDbMText
 10
29.3297732148
 20
12.8185003809
 30
0.0
 40
0.5
 41
0.0
 71
     1
 72
     1
  1
"
  7
SLDTEXTSTYLE1
 73
     1
 44
1.0
  0
ENDBLK
  5
28D
330
28B
100
AcDbEntity
  8
0
100
AcDbBlockEnd
  0
BLOCK
  5
29B
330
29A
100
AcDbEntity
  8
0
100
AcDbBlockBegin
  2
_D_5
 70
     0
 10
0.0
 20
0.0
 30
0.0
  3
_D_5
  1

  0
INSERT
  5
29D
330
29A
100
AcDbEntity
  8
DIMS
100
AcDbBlockReference
  2
_Open90
 10
28.916925984
 20
13.2740158089
 30
1.8725
 41
0.3
 42
0.3
 50
270.0
  0
INSERT
  5
29E
330
29A
100
AcDbEntity
  8
DIMS
100
AcDbBlockReference
  2
_Open90
 10
28.916925984
 20
14.6490158089
 30
1.8725
 41
0.3
 42
0.3
 50
90.0
  0
LINE
  5
29F
330
29A
100
AcDbEntity
  8
DIMS
100
AcDbLine
 10
27.8214397952
 20
15.3302217671
 30
0.0
 11
28.3374120447
 21
15.3302217671
 31
0.0
  0
LINE
  5
2A0
330
29A
100
AcDbEntity
  8
DIMS
100
AcDbLine
 10
33.0263419945
 20
13.2740158089
 30
0.0
 11
28.541925984
 21
13.2740158089
 31
0.0
  0
LINE
  5
2A1
330
29A
100
AcDbEntity
  8
DIMS
100
AcDbLine
 10
30.4888419945
 20
14.6490158089
 30
0.0
 11
28.541925984
 21
14.6490158089
 31
0.0
  0
LINE
  5
2A2
330
29A
100
AcDbEntity
  8
DIMS
100
AcDbLine
 10
28.616925984
 20
15.2789370687
 30
0.0
 11
28.916925984
 21
15.2789370687
 31
0.0
  0
LINE
  5
2A3
330
29A
100
AcDbEntity
  8
DIMS
100
AcDbLine
 10
28.916925984
 20
15.2789370687
 30
0.0
 11
28.916925984
 21
14.6490158089
 31
0.0
  0
LINE
  5
2A4
330
29A
100
AcDbEntity
  8
DIMS
100
AcDbLine
 10
28.916925984
 20
13.2740158089
 30
0.0
 11
28.916925984
 21
14.6490158089
 31
0.0
  0
MTEXT
  5
2A5
330
29A
100
AcDbEntity
  8
DIMS
100
AcDbMText
 10
27.3787314478
 20
15.5596228276
 30
0.0
 40
0.5
 41
0.0
 71
     1
 72
     1
  1
1
  7
SLDTEXTSTYLE1
 73
     1
 44
1.0
  0
MTEXT
  5
2A6
330
29A
100
AcDbEntity
  8
DIMS
100
AcDbMText
 10
27.8947036972
 20
15.9249353266
 30
0.0
 40
0.5
 41
0.0
 71
     1
 72
     1
  1
3
  7
SLDTEXTSTYLE1
 73
     1
 44
1.0
  0
MTEXT
  5
2A7
330
29A
100
AcDbEntity
  8
DIMS
100
AcDbMText
 10
27.8947036972
 20
15.2637547481
 30
0.0
 40
0.5
 41
0.0
 71
     1
 72
     1
  1
8
  7
SLDTEXTSTYLE1
 73
     1
 44
1.0
  0
MTEXT
  5
2A8
330
29A
100
AcDbEntity
  8
DIMS
100
AcDbMText
 10
28.4106759467
 20
15.5596228276
 30
0.0
 40
0.5
 41
0.0
 71
     1
 72
     1
  1
"
  7
SLDTEXTSTYLE1
 73
     1
 44
1.0
  0
ENDBLK
  5
29C
330
29A
100
AcDbEntity
  8
0
100
AcDbBlockEnd
  0
BLOCK
  5
2AB
330
2AA
100
AcDbEntity
  8
0
100
AcDbBlockBegin
  2
_D_6
 70
     0
 10
0.0
 20
0.0
 30
0.0
  3
_D_6
  1

  0
INSERT
  5
2AD
330
2AA
100
AcDbEntity
  8
DIMS
100
AcDbBlockReference
  2
_Open90
 10
28.916925984
 20
11.8016134352
 30
1.8725
 41
0.3
 42
0.3
 50
90.0
  0
INSERT
  5
2AE
330
2AA
100
AcDbEntity
  8
DIMS
100
AcDbBlockReference
  2
_Open90
 10
28.916925984
 20
8.1490158089
 30
1.8725
 41
0.3
 42
0.3
 50
270.0
  0
LINE
  5
2AF
330
2AA
100
AcDbEntity
  8
DIMS
100
AcDbLine
 10
28.7405370634
 20
10.0639502488
 30
0.0
 11
29.2565093128
 21
10.0639502488
 31
0.0
  0
LINE
  5
2B0
330
2AA
100
AcDbEntity
  8
DIMS
100
AcDbLine
 10
33.7138419945
 20
11.8016134352
 30
0.0
 11
28.541925984
 21
11.8016134352
 31
0.0
  0
LINE
  5
2B1
330
2AA
100
AcDbEntity
  8
DIMS
100
AcDbLine
 10
30.4888419945
 20
8.1490158089
 30
0.0
 11
28.541925984
 21
8.1490158089
 31
0.0
  0
LINE
  5
2B2
330
2AA
100
AcDbEntity
  8
DIMS
100
AcDbLine
 10
28.916925984
 20
11.8016134352
 30
0.0
 11
28.916925984
 21
10.6665197037
 31
0.0
  0
LINE
  5
2B3
330
2AA
100
AcDbEntity
  8
DIMS
100
AcDbLine
 10
28.916925984
 20
8.1490158089
 30
0.0
 11
28.916925984
 21
9.3588113972
 31
0.0
  0
MTEXT
  5
2B4
330
2AA
100
AcDbEntity
  8
DIMS
100
AcDbMText
 10
28.2978287159
 20
10.2933513093
 30
0.0
 40
0.5
 41
0.0
 71
     1
 72
     1
  1
3
  7
SLDTEXTSTYLE1
 73
     1
 44
1.0
  0
MTEXT
  5
2B5
330
2AA
100
AcDbEntity
  8
DIMS
100
AcDbMText
 10
28.8138009654
 20
10.6586638083
 30
0.0
 40
0.5
 41
0.0
 71
     1
 72
     1
  1
5
  7
SLDTEXTSTYLE1
 73
     1
 44
1.0
  0
MTEXT
  5
2B6
330
2AA
100
AcDbEntity
  8
DIMS
100
AcDbMText
 10
28.8138009654
 20
9.9974832298
 30
0.0
 40
0.5
 41
0.0
 71
     1
 72
     1
  1
8
  7
SLDTEXTSTYLE1
 73
     1
 44
1.0
  0
MTEXT
  5
2B7
330
2AA
100
AcDbEntity
  8
DIMS
100
AcDbMText
 10
29.3297732148
 20
10.2933513093
 30
0.0
 40
0.5
 41
0.0
 71
     1
 72
     1
  1
"
  7
SLDTEXTSTYLE1
 73
     1
 44
1.0
  0
ENDBLK
  5
2AC
330
2AA
100
AcDbEntity
  8
0
100
AcDbBlockEnd
  0
BLOCK
  5
2BA
330
2B9
100
AcDbEntity
  8
0
100
AcDbBlockBegin
  2
SW_NOTE_0_4
 70
     0
 10
0.0
 20
0.0
 30
0.0
  3
SW_NOTE_0_4
  1

  0
MTEXT
  5
2BC
330
2B9
100
AcDbEntity
  8
NOTES
 62
     0
100
AcDbMText
 10
0.0199795943
 20
0.242198024
 30
0.0
 40
0.5
 41
0.0
 71
     1
 72
     1
  1
concealed mounting bracket
  7
SLDTEXTSTYLE1
 73
     1
 44
1.0
  0
MTEXT
  5
2BD
330
2B9
100
AcDbEntity
  8
NOTES
 62
     0
100
AcDbMText
 10
0.0199795943
 20
-0.4043297739
 30
0.0
 40
0.5
 41
0.0
 71
     1
 72
     1
  1
*access to locking screw 
  7
SLDTEXTSTYLE1
 73
     1
 44
1.0
  0
MTEXT
  5
2BE
330
2B9
100
AcDbEntity
  8
NOTES
 62
     0
100
AcDbMText
 10
0.0199795943
 20
-1.0508575718
 30
0.0
 40
0.5
 41
0.0
 71
     1
 72
     1
  1
through top cap
  7
SLDTEXTSTYLE1
 73
     1
 44
1.0
  0
ENDBLK
  5
2BB
330
2B9
100
AcDbEntity
  8
0
100
AcDbBlockEnd
  0
BLOCK
  5
2FB
330
2FA
100
AcDbEntity
  8
0
100
AcDbBlockBegin
  2
_D_7
 70
     0
 10
0.0
 20
0.0
 30
0.0
  3
_D_7
  1

  0
INSERT
  5
2FD
330
2FA
100
AcDbEntity
  8
DIMS
100
AcDbBlockReference
  2
_Open90
 10
13.8284173698
 20
28.2985710115
 30
-3.25
 41
0.3
 42
0.3
 50
90.0
  0
INSERT
  5
2FE
330
2FA
100
AcDbEntity
  8
DIMS
100
AcDbBlockReference
  2
_Open90
 10
13.8284173698
 20
24.5535710115
 30
-3.25
 41
0.3
 42
0.3
 50
270.0
  0
LINE
  5
2FF
330
2FA
100
AcDbEntity
  8
DIMS
100
AcDbLine
 10
13.6520284492
 20
26.4773557099
 30
0.0
 11
14.1680006986
 21
26.4773557099
 31
0.0
  0
LINE
  5
300
330
2FA
100
AcDbEntity
  8
DIMS
100
AcDbLine
 10
12.9651627767
 20
28.2985710115
 30
0.0
 11
14.2034173698
 21
28.2985710115
 31
0.0
  0
LINE
  5
301
330
2FA
100
AcDbEntity
  8
DIMS
100
AcDbLine
 10
10.364143298
 20
24.5535710115
 30
0.0
 11
14.2034173698
 21
24.5535710115
 31
0.0
  0
LINE
  5
302
330
2FA
100
AcDbEntity
  8
DIMS
100
AcDbLine
 10
13.8284173698
 20
28.2985710115
 30
0.0
 11
13.8284173698
 21
27.0799251648
 31
0.0
  0
LINE
  5
303
330
2FA
100
AcDbEntity
  8
DIMS
100
AcDbLine
 10
13.8284173698
 20
24.5535710115
 30
0.0
 11
13.8284173698
 21
25.7722168582
 31
0.0
  0
MTEXT
  5
304
330
2FA
100
AcDbEntity
  8
DIMS
100
AcDbMText
 10
13.2093201017
 20
26.7067567703
 30
0.0
 40
0.5
 41
0.0
 71
     1
 72
     1
  1
3
  7
SLDTEXTSTYLE1
 73
     1
 44
1.0
  0
MTEXT
  5
305
330
2FA
100
AcDbEntity
  8
DIMS
100
AcDbMText
 10
13.7252923511
 20
27.0720692694
 30
0.0
 40
0.5
 41
0.0
 71
     1
 72
     1
  1
3
  7
SLDTEXTSTYLE1
 73
     1
 44
1.0
  0
MTEXT
  5
306
330
2FA
100
AcDbEntity
  8
DIMS
100
AcDbMText
 10
13.7252923511
 20
26.4108886908
 30
0.0
 40
0.5
 41
0.0
 71
     1
 72
     1
  1
4
  7
SLDTEXTSTYLE1
 73
     1
 44
1.0
  0
MTEXT
  5
307
330
2FA
100
AcDbEntity
  8
DIMS
100
AcDbMText
 10
14.2412646006
 20
26.7067567703
 30
0.0
 40
0.5
 41
0.0
 71
     1
 72
     1
  1
"
  7
SLDTEXTSTYLE1
 73
     1
 44
1.0
  0
ENDBLK
  5
2FC
330
2FA
100
AcDbEntity
  8
0
100
AcDbBlockEnd
  0
ENDSEC
  0
SECTION
  2
ENTITIES
  0
LINE
  5
7A
330
1F
100
AcDbEntity
  8
TITLE
370
    35
100
AcDbLine
 10
37.5182230965
 20
1.4876117645
 30
0.0
 11
54.4999864512
 21
1.4876117645
 31
0.0
  0
LINE
  5
7B
330
1F
100
AcDbEntity
  8
TITLE
370
    35
100
AcDbLine
 10
54.4999317442
 20
5.4753603936
 30
0.0
 11
44.3105350723
 21
5.4753603936
 31
0.0
  0
LINE
  5
7C
330
1F
100
AcDbEntity
  8
TITLE
  6
SLD-Solid
370
    35
100
AcDbLine
 10
0.5
 20
0.5
 30
0.0
 11
0.5
 21
35.5
 31
0.0
  0
LINE
  5
7D
330
1F
100
AcDbEntity
  8
TITLE
  6
SLD-Solid
370
    35
100
AcDbLine
 10
0.5
 20
35.5
 30
0.0
 11
54.5
 21
35.5
 31
0.0
  0
LINE
  5
7E
330
1F
100
AcDbEntity
  8
TITLE
370
    35
100
AcDbLine
 10
37.5182230965
 20
2.5427877231
 30
0.0
 11
30.5059791203
 21
2.5427877231
 31
0.0
  0
LINE
  5
7F
330
1F
100
AcDbEntity
  8
TITLE
370
    35
100
AcDbLine
 10
37.5182230965
 20
1.4876117645
 30
0.0
 11
30.5059791203
 21
1.4876117645
 31
0.0
  0
LINE
  5
80
330
1F
100
AcDbEntity
  8
TITLE
  6
SLD-Solid
370
    35
100
AcDbLine
 10
54.5
 20
35.5
 30
0.0
 11
54.5
 21
0.5
 31
0.0
  0
LINE
  5
81
330
1F
100
AcDbEntity
  8
TITLE
  6
SLD-Solid
370
    35
100
AcDbLine
 10
54.5
 20
0.5
 30
0.0
 11
0.5
 21
0.5
 31
0.0
  0
LINE
  5
82
330
1F
100
AcDbEntity
  8
TITLE
370
    35
100
AcDbLine
 10
37.5182230965
 20
1.4876117645
 30
0.0
 11
37.5182230965
 21
3.5979636817
 31
0.0
  0
LINE
  5
83
330
1F
100
AcDbEntity
  8
TITLE
370
    35
100
AcDbLine
 10
30.5059791203
 20
3.5979636817
 30
0.0
 11
30.5059791203
 21
0.5
 31
0.0
  0
LINE
  5
84
330
1F
100
AcDbEntity
  8
TITLE
370
    35
100
AcDbLine
 10
30.5059791203
 20
0.5
 30
0.0
 11
54.5
 21
0.5
 31
0.0
  0
LINE
  5
85
330
1F
100
AcDbEntity
  8
TITLE
370
    35
100
AcDbLine
 10
54.4999317442
 20
5.4753603936
 30
0.0
 11
54.5
 21
0.5
 31
0.0
  0
LINE
  5
86
330
1F
100
AcDbEntity
  8
TITLE
  6
SLD-Solid
370
    18
100
AcDbLine
 10
0.4999606299
 20
18.0
 30
0.0
 11
0.5000393701
 21
18.0
 31
0.0
  0
LINE
  5
87
330
1F
100
AcDbEntity
  8
TITLE
370
    35
100
AcDbLine
 10
37.5182230965
 20
3.5979636817
 30
0.0
 11
30.5059791203
 21
3.5979636817
 31
0.0
  0
LINE
  5
88
330
1F
100
AcDbEntity
  8
TITLE
370
    35
100
AcDbLine
 10
37.5182230965
 20
3.5979636817
 30
0.0
 11
54.4997615643
 21
3.5979648343
 31
0.0
  0
LINE
  5
89
330
1F
100
AcDbEntity
  8
TITLE
370
    35
100
AcDbLine
 10
44.3105350723
 20
5.4753603936
 30
0.0
 11
44.3105350723
 21
0.4636772425
 31
0.0
  0
LINE
  5
8A
330
1F
100
AcDbEntity
  8
TITLE
  6
SLD-Solid
370
    18
100
AcDbLine
 10
27.5
 20
35.5000393701
 30
0.0
 11
27.5
 21
35.4999606299
 31
0.0
  0
LINE
  5
8B
330
1F
100
AcDbEntity
  8
TITLE
  6
SLD-Solid
370
    18
100
AcDbLine
 10
54.5000393701
 20
18.0
 30
0.0
 11
54.4999606299
 21
18.0
 31
0.0
  0
LINE
  5
8C
330
1F
100
AcDbEntity
  8
TITLE
  6
SLD-Solid
370
    18
100
AcDbLine
 10
27.5
 20
0.4999606299
 30
0.0
 11
27.5
 21
0.5000393701
 31
0.0
  0
LINE
  5
8D
330
1F
100
AcDbEntity
  8
TITLE
  6
SLD-Solid
370
    18
100
AcDbLine
 10
0.5
 20
2.2519685039
 30
0.0
 11
0.1653543307
 21
2.2519685039
 31
0.0
  0
LINE
  5
8E
330
1F
100
AcDbEntity
  8
TITLE
  6
SLD-Solid
370
    18
100
AcDbLine
 10
54.5
 20
2.2519685039
 30
0.0
 11
54.8346456693
 21
2.2519685039
 31
0.0
  0
LINE
  5
8F
330
1F
100
AcDbEntity
  8
TITLE
  6
SLD-Solid
370
    18
100
AcDbLine
 10
0.5
 20
4.2204724409
 30
0.0
 11
0.1653543307
 21
4.2204724409
 31
0.0
  0
LINE
  5
90
330
1F
100
AcDbEntity
  8
TITLE
  6
SLD-Solid
370
    18
100
AcDbLine
 10
54.5
 20
4.2204724409
 30
0.0
 11
54.8346456693
 21
4.2204724409
 31
0.0
  0
LINE
  5
91
330
1F
100
AcDbEntity
  8
TITLE
  6
SLD-Solid
370
    18
100
AcDbLine
 10
0.5
 20
6.188976378
 30
0.0
 11
0.1653543307
 21
6.188976378
 31
0.0
  0
LINE
  5
92
330
1F
100
AcDbEntity
  8
TITLE
  6
SLD-Solid
370
    18
100
AcDbLine
 10
54.5
 20
6.188976378
 30
0.0
 11
54.8346456693
 21
6.188976378
 31
0.0
  0
LINE
  5
93
330
1F
100
AcDbEntity
  8
TITLE
  6
SLD-Solid
370
    18
100
AcDbLine
 10
0.5
 20
8.157480315
 30
0.0
 11
0.1653543307
 21
8.157480315
 31
0.0
  0
LINE
  5
94
330
1F
100
AcDbEntity
  8
TITLE
  6
SLD-Solid
370
    18
100
AcDbLine
 10
54.5
 20
8.157480315
 30
0.0
 11
54.8346456693
 21
8.157480315
 31
0.0
  0
LINE
  5
95
330
1F
100
AcDbEntity
  8
TITLE
  6
SLD-Solid
370
    18
100
AcDbLine
 10
0.5
 20
10.125984252
 30
0.0
 11
0.1653543307
 21
10.125984252
 31
0.0
  0
LINE
  5
96
330
1F
100
AcDbEntity
  8
TITLE
  6
SLD-Solid
370
    18
100
AcDbLine
 10
54.5
 20
10.125984252
 30
0.0
 11
54.8346456693
 21
10.125984252
 31
0.0
  0
LINE
  5
97
330
1F
100
AcDbEntity
  8
TITLE
  6
SLD-Solid
370
    18
100
AcDbLine
 10
0.5
 20
12.094488189
 30
0.0
 11
0.1653543307
 21
12.094488189
 31
0.0
  0
LINE
  5
98
330
1F
100
AcDbEntity
  8
TITLE
  6
SLD-Solid
370
    18
100
AcDbLine
 10
54.5
 20
12.094488189
 30
0.0
 11
54.8346456693
 21
12.094488189
 31
0.0
  0
LINE
  5
99
330
1F
100
AcDbEntity
  8
TITLE
  6
SLD-Solid
370
    18
100
AcDbLine
 10
0.5
 20
14.062992126
 30
0.0
 11
0.1653543307
 21
14.062992126
 31
0.0
  0
LINE
  5
9A
330
1F
100
AcDbEntity
  8
TITLE
  6
SLD-Solid
370
    18
100
AcDbLine
 10
54.5
 20
14.062992126
 30
0.0
 11
54.8346456693
 21
14.062992126
 31
0.0
  0
LINE
  5
9B
330
1F
100
AcDbEntity
  8
TITLE
  6
SLD-Solid
370
    18
100
AcDbLine
 10
0.5
 20
16.031496063
 30
0.0
 11
0.1653543307
 21
16.031496063
 31
0.0
  0
LINE
  5
9C
330
1F
100
AcDbEntity
  8
TITLE
  6
SLD-Solid
370
    18
100
AcDbLine
 10
54.5
 20
16.031496063
 30
0.0
 11
54.8346456693
 21
16.031496063
 31
0.0
  0
LINE
  5
9D
330
1F
100
AcDbEntity
  8
TITLE
  6
SLD-Solid
370
    18
100
AcDbLine
 10
0.5
 20
18.0
 30
0.0
 11
0.1653543307
 21
18.0
 31
0.0
  0
LINE
  5
9E
330
1F
100
AcDbEntity
  8
TITLE
  6
SLD-Solid
370
    18
100
AcDbLine
 10
54.5
 20
18.0
 30
0.0
 11
54.8346456693
 21
18.0
 31
0.0
  0
LINE
  5
9F
330
1F
100
AcDbEntity
  8
TITLE
  6
SLD-Solid
370
    18
100
AcDbLine
 10
0.5
 20
19.968503937
 30
0.0
 11
0.1653543307
 21
19.968503937
 31
0.0
  0
LINE
  5
A0
330
1F
100
AcDbEntity
  8
TITLE
  6
SLD-Solid
370
    18
100
AcDbLine
 10
54.5
 20
19.968503937
 30
0.0
 11
54.8346456693
 21
19.968503937
 31
0.0
  0
LINE
  5
A1
330
1F
100
AcDbEntity
  8
TITLE
  6
SLD-Solid
370
    18
100
AcDbLine
 10
0.5
 20
21.937007874
 30
0.0
 11
0.1653543307
 21
21.937007874
 31
0.0
  0
LINE
  5
A2
330
1F
100
AcDbEntity
  8
TITLE
  6
SLD-Solid
370
    18
100
AcDbLine
 10
54.5
 20
21.937007874
 30
0.0
 11
54.8346456693
 21
21.937007874
 31
0.0
  0
LINE
  5
A3
330
1F
100
AcDbEntity
  8
TITLE
  6
SLD-Solid
370
    18
100
AcDbLine
 10
0.5
 20
23.905511811
 30
0.0
 11
0.1653543307
 21
23.905511811
 31
0.0
  0
LINE
  5
A4
330
1F
100
AcDbEntity
  8
TITLE
  6
SLD-Solid
370
    18
100
AcDbLine
 10
54.5
 20
23.905511811
 30
0.0
 11
54.8346456693
 21
23.905511811
 31
0.0
  0
LINE
  5
A5
330
1F
100
AcDbEntity
  8
TITLE
  6
SLD-Solid
370
    18
100
AcDbLine
 10
0.5
 20
25.874015748
 30
0.0
 11
0.1653543307
 21
25.874015748
 31
0.0
  0
LINE
  5
A6
330
1F
100
AcDbEntity
  8
TITLE
  6
SLD-Solid
370
    18
100
AcDbLine
 10
54.5
 20
25.874015748
 30
0.0
 11
54.8346456693
 21
25.874015748
 31
0.0
  0
LINE
  5
A7
330
1F
100
AcDbEntity
  8
TITLE
  6
SLD-Solid
370
    18
100
AcDbLine
 10
0.5
 20
27.842519685
 30
0.0
 11
0.1653543307
 21
27.842519685
 31
0.0
  0
LINE
  5
A8
330
1F
100
AcDbEntity
  8
TITLE
  6
SLD-Solid
370
    18
100
AcDbLine
 10
54.5
 20
27.842519685
 30
0.0
 11
54.8346456693
 21
27.842519685
 31
0.0
  0
LINE
  5
A9
330
1F
100
AcDbEntity
  8
TITLE
  6
SLD-Solid
370
    18
100
AcDbLine
 10
0.5
 20
29.811023622
 30
0.0
 11
0.1653543307
 21
29.811023622
 31
0.0
  0
LINE
  5
AA
330
1F
100
AcDbEntity
  8
TITLE
  6
SLD-Solid
370
    18
100
AcDbLine
 10
54.5
 20
29.811023622
 30
0.0
 11
54.8346456693
 21
29.811023622
 31
0.0
  0
LINE
  5
AB
330
1F
100
AcDbEntity
  8
TITLE
  6
SLD-Solid
370
    18
100
AcDbLine
 10
0.5
 20
31.7795275591
 30
0.0
 11
0.1653543307
 21
31.7795275591
 31
0.0
  0
LINE
  5
AC
330
1F
100
AcDbEntity
  8
TITLE
  6
SLD-Solid
370
    18
100
AcDbLine
 10
54.5
 20
31.7795275591
 30
0.0
 11
54.8346456693
 21
31.7795275591
 31
0.0
  0
LINE
  5
AD
330
1F
100
AcDbEntity
  8
TITLE
  6
SLD-Solid
370
    18
100
AcDbLine
 10
0.5
 20
33.7480314961
 30
0.0
 11
0.1653543307
 21
33.7480314961
 31
0.0
  0
LINE
  5
AE
330
1F
100
AcDbEntity
  8
TITLE
  6
SLD-Solid
370
    18
100
AcDbLine
 10
54.5
 20
33.7480314961
 30
0.0
 11
54.8346456693
 21
33.7480314961
 31
0.0
  0
LINE
  5
AF
330
1F
100
AcDbEntity
  8
TITLE
  6
SLD-Solid
370
    18
100
AcDbLine
 10
1.9094488189
 20
35.5
 30
0.0
 11
1.9094488189
 21
35.8346456693
 31
0.0
  0
LINE
  5
B0
330
1F
100
AcDbEntity
  8
TITLE
  6
SLD-Solid
370
    18
100
AcDbLine
 10
1.9094488189
 20
0.5
 30
0.0
 11
1.9094488189
 21
0.1653543307
 31
0.0
  0
LINE
  5
B1
330
1F
100
AcDbEntity
  8
TITLE
  6
SLD-Solid
370
    18
100
AcDbLine
 10
3.8779527559
 20
35.5
 30
0.0
 11
3.8779527559
 21
35.8346456693
 31
0.0
  0
LINE
  5
B2
330
1F
100
AcDbEntity
  8
TITLE
  6
SLD-Solid
370
    18
100
AcDbLine
 10
3.8779527559
 20
0.5
 30
0.0
 11
3.8779527559
 21
0.1653543307
 31
0.0
  0
LINE
  5
B3
330
1F
100
AcDbEntity
  8
TITLE
  6
SLD-Solid
370
    18
100
AcDbLine
 10
5.8464566929
 20
35.5
 30
0.0
 11
5.8464566929
 21
35.8346456693
 31
0.0
  0
LINE
  5
B4
330
1F
100
AcDbEntity
  8
TITLE
  6
SLD-Solid
370
    18
100
AcDbLine
 10
5.8464566929
 20
0.5
 30
0.0
 11
5.8464566929
 21
0.1653543307
 31
0.0
  0
LINE
  5
B5
330
1F
100
AcDbEntity
  8
TITLE
  6
SLD-Solid
370
    18
100
AcDbLine
 10
7.8149606299
 20
35.5
 30
0.0
 11
7.8149606299
 21
35.8346456693
 31
0.0
  0
LINE
  5
B6
330
1F
100
AcDbEntity
  8
TITLE
  6
SLD-Solid
370
    18
100
AcDbLine
 10
7.8149606299
 20
0.5
 30
0.0
 11
7.8149606299
 21
0.1653543307
 31
0.0
  0
LINE
  5
B7
330
1F
100
AcDbEntity
  8
TITLE
  6
SLD-Solid
370
    18
100
AcDbLine
 10
9.7834645669
 20
35.5
 30
0.0
 11
9.7834645669
 21
35.8346456693
 31
0.0
  0
LINE
  5
B8
330
1F
100
AcDbEntity
  8
TITLE
  6
SLD-Solid
370
    18
100
AcDbLine
 10
9.7834645669
 20
0.5
 30
0.0
 11
9.7834645669
 21
0.1653543307
 31
0.0
  0
LINE
  5
B9
330
1F
100
AcDbEntity
  8
TITLE
  6
SLD-Solid
370
    18
100
AcDbLine
 10
11.7519685039
 20
35.5
 30
0.0
 11
11.7519685039
 21
35.8346456693
 31
0.0
  0
LINE
  5
BA
330
1F
100
AcDbEntity
  8
TITLE
  6
SLD-Solid
370
    18
100
AcDbLine
 10
11.7519685039
 20
0.5
 30
0.0
 11
11.7519685039
 21
0.1653543307
 31
0.0
  0
LINE
  5
BB
330
1F
100
AcDbEntity
  8
TITLE
  6
SLD-Solid
370
    18
100
AcDbLine
 10
13.7204724409
 20
35.5
 30
0.0
 11
13.7204724409
 21
35.8346456693
 31
0.0
  0
LINE
  5
BC
330
1F
100
AcDbEntity
  8
TITLE
  6
SLD-Solid
370
    18
100
AcDbLine
 10
13.7204724409
 20
0.5
 30
0.0
 11
13.7204724409
 21
0.1653543307
 31
0.0
  0
LINE
  5
BD
330
1F
100
AcDbEntity
  8
TITLE
  6
SLD-Solid
370
    18
100
AcDbLine
 10
15.688976378
 20
35.5
 30
0.0
 11
15.688976378
 21
35.8346456693
 31
0.0
  0
LINE
  5
BE
330
1F
100
AcDbEntity
  8
TITLE
  6
SLD-Solid
370
    18
100
AcDbLine
 10
15.688976378
 20
0.5
 30
0.0
 11
15.688976378
 21
0.1653543307
 31
0.0
  0
LINE
  5
BF
330
1F
100
AcDbEntity
  8
TITLE
  6
SLD-Solid
370
    18
100
AcDbLine
 10
17.657480315
 20
35.5
 30
0.0
 11
17.657480315
 21
35.8346456693
 31
0.0
  0
LINE
  5
C0
330
1F
100
AcDbEntity
  8
TITLE
  6
SLD-Solid
370
    18
100
AcDbLine
 10
17.657480315
 20
0.5
 30
0.0
 11
17.657480315
 21
0.1653543307
 31
0.0
  0
LINE
  5
C1
330
1F
100
AcDbEntity
  8
TITLE
  6
SLD-Solid
370
    18
100
AcDbLine
 10
19.625984252
 20
35.5
 30
0.0
 11
19.625984252
 21
35.8346456693
 31
0.0
  0
LINE
  5
C2
330
1F
100
AcDbEntity
  8
TITLE
  6
SLD-Solid
370
    18
100
AcDbLine
 10
19.625984252
 20
0.5
 30
0.0
 11
19.625984252
 21
0.1653543307
 31
0.0
  0
LINE
  5
C3
330
1F
100
AcDbEntity
  8
TITLE
  6
SLD-Solid
370
    18
100
AcDbLine
 10
21.594488189
 20
35.5
 30
0.0
 11
21.594488189
 21
35.8346456693
 31
0.0
  0
LINE
  5
C4
330
1F
100
AcDbEntity
  8
TITLE
  6
SLD-Solid
370
    18
100
AcDbLine
 10
21.594488189
 20
0.5
 30
0.0
 11
21.594488189
 21
0.1653543307
 31
0.0
  0
LINE
  5
C5
330
1F
100
AcDbEntity
  8
TITLE
  6
SLD-Solid
370
    18
100
AcDbLine
 10
23.562992126
 20
35.5
 30
0.0
 11
23.562992126
 21
35.8346456693
 31
0.0
  0
LINE
  5
C6
330
1F
100
AcDbEntity
  8
TITLE
  6
SLD-Solid
370
    18
100
AcDbLine
 10
23.562992126
 20
0.5
 30
0.0
 11
23.562992126
 21
0.1653543307
 31
0.0
  0
LINE
  5
C7
330
1F
100
AcDbEntity
  8
TITLE
  6
SLD-Solid
370
    18
100
AcDbLine
 10
25.531496063
 20
35.5
 30
0.0
 11
25.531496063
 21
35.8346456693
 31
0.0
  0
LINE
  5
C8
330
1F
100
AcDbEntity
  8
TITLE
  6
SLD-Solid
370
    18
100
AcDbLine
 10
25.531496063
 20
0.5
 30
0.0
 11
25.531496063
 21
0.1653543307
 31
0.0
  0
LINE
  5
C9
330
1F
100
AcDbEntity
  8
TITLE
  6
SLD-Solid
370
    18
100
AcDbLine
 10
27.5
 20
35.5
 30
0.0
 11
27.5
 21
35.8346456693
 31
0.0
  0
LINE
  5
CA
330
1F
100
AcDbEntity
  8
TITLE
  6
SLD-Solid
370
    18
100
AcDbLine
 10
27.5
 20
0.5
 30
0.0
 11
27.5
 21
0.1653543307
 31
0.0
  0
LINE
  5
CB
330
1F
100
AcDbEntity
  8
TITLE
  6
SLD-Solid
370
    18
100
AcDbLine
 10
29.468503937
 20
35.5
 30
0.0
 11
29.468503937
 21
35.8346456693
 31
0.0
  0
LINE
  5
CC
330
1F
100
AcDbEntity
  8
TITLE
  6
SLD-Solid
370
    18
100
AcDbLine
 10
29.468503937
 20
0.5
 30
0.0
 11
29.468503937
 21
0.1653543307
 31
0.0
  0
LINE
  5
CD
330
1F
100
AcDbEntity
  8
TITLE
  6
SLD-Solid
370
    18
100
AcDbLine
 10
31.437007874
 20
35.5
 30
0.0
 11
31.437007874
 21
35.8346456693
 31
0.0
  0
LINE
  5
CE
330
1F
100
AcDbEntity
  8
TITLE
  6
SLD-Solid
370
    18
100
AcDbLine
 10
31.437007874
 20
0.5
 30
0.0
 11
31.437007874
 21
0.1653543307
 31
0.0
  0
LINE
  5
CF
330
1F
100
AcDbEntity
  8
TITLE
  6
SLD-Solid
370
    18
100
AcDbLine
 10
33.405511811
 20
35.5
 30
0.0
 11
33.405511811
 21
35.8346456693
 31
0.0
  0
LINE
  5
D0
330
1F
100
AcDbEntity
  8
TITLE
  6
SLD-Solid
370
    18
100
AcDbLine
 10
33.405511811
 20
0.5
 30
0.0
 11
33.405511811
 21
0.1653543307
 31
0.0
  0
LINE
  5
D1
330
1F
100
AcDbEntity
  8
TITLE
  6
SLD-Solid
370
    18
100
AcDbLine
 10
35.374015748
 20
35.5
 30
0.0
 11
35.374015748
 21
35.8346456693
 31
0.0
  0
LINE
  5
D2
330
1F
100
AcDbEntity
  8
TITLE
  6
SLD-Solid
370
    18
100
AcDbLine
 10
35.374015748
 20
0.5
 30
0.0
 11
35.374015748
 21
0.1653543307
 31
0.0
  0
LINE
  5
D3
330
1F
100
AcDbEntity
  8
TITLE
  6
SLD-Solid
370
    18
100
AcDbLine
 10
37.342519685
 20
35.5
 30
0.0
 11
37.342519685
 21
35.8346456693
 31
0.0
  0
LINE
  5
D4
330
1F
100
AcDbEntity
  8
TITLE
  6
SLD-Solid
370
    18
100
AcDbLine
 10
37.342519685
 20
0.5
 30
0.0
 11
37.342519685
 21
0.1653543307
 31
0.0
  0
LINE
  5
D5
330
1F
100
AcDbEntity
  8
TITLE
  6
SLD-Solid
370
    18
100
AcDbLine
 10
39.311023622
 20
35.5
 30
0.0
 11
39.311023622
 21
35.8346456693
 31
0.0
  0
LINE
  5
D6
330
1F
100
AcDbEntity
  8
TITLE
  6
SLD-Solid
370
    18
100
AcDbLine
 10
39.311023622
 20
0.5
 30
0.0
 11
39.311023622
 21
0.1653543307
 31
0.0
  0
LINE
  5
D7
330
1F
100
AcDbEntity
  8
TITLE
  6
SLD-Solid
370
    18
100
AcDbLine
 10
41.2795275591
 20
35.5
 30
0.0
 11
41.2795275591
 21
35.8346456693
 31
0.0
  0
LINE
  5
D8
330
1F
100
AcDbEntity
  8
TITLE
  6
SLD-Solid
370
    18
100
AcDbLine
 10
41.2795275591
 20
0.5
 30
0.0
 11
41.2795275591
 21
0.1653543307
 31
0.0
  0
LINE
  5
D9
330
1F
100
AcDbEntity
  8
TITLE
  6
SLD-Solid
370
    18
100
AcDbLine
 10
43.2480314961
 20
35.5
 30
0.0
 11
43.2480314961
 21
35.8346456693
 31
0.0
  0
LINE
  5
DA
330
1F
100
AcDbEntity
  8
TITLE
  6
SLD-Solid
370
    18
100
AcDbLine
 10
43.2480314961
 20
0.5
 30
0.0
 11
43.2480314961
 21
0.1653543307
 31
0.0
  0
LINE
  5
DB
330
1F
100
AcDbEntity
  8
TITLE
  6
SLD-Solid
370
    18
100
AcDbLine
 10
45.2165354331
 20
35.5
 30
0.0
 11
45.2165354331
 21
35.8346456693
 31
0.0
  0
LINE
  5
DC
330
1F
100
AcDbEntity
  8
TITLE
  6
SLD-Solid
370
    18
100
AcDbLine
 10
45.2165354331
 20
0.5
 30
0.0
 11
45.2165354331
 21
0.1653543307
 31
0.0
  0
LINE
  5
DD
330
1F
100
AcDbEntity
  8
TITLE
  6
SLD-Solid
370
    18
100
AcDbLine
 10
47.1850393701
 20
35.5
 30
0.0
 11
47.1850393701
 21
35.8346456693
 31
0.0
  0
LINE
  5
DE
330
1F
100
AcDbEntity
  8
TITLE
  6
SLD-Solid
370
    18
100
AcDbLine
 10
47.1850393701
 20
0.5
 30
0.0
 11
47.1850393701
 21
0.1653543307
 31
0.0
  0
LINE
  5
DF
330
1F
100
AcDbEntity
  8
TITLE
  6
SLD-Solid
370
    18
100
AcDbLine
 10
49.1535433071
 20
35.5
 30
0.0
 11
49.1535433071
 21
35.8346456693
 31
0.0
  0
LINE
  5
E0
330
1F
100
AcDbEntity
  8
TITLE
  6
SLD-Solid
370
    18
100
AcDbLine
 10
49.1535433071
 20
0.5
 30
0.0
 11
49.1535433071
 21
0.1653543307
 31
0.0
  0
LINE
  5
E1
330
1F
100
AcDbEntity
  8
TITLE
  6
SLD-Solid
370
    18
100
AcDbLine
 10
51.1220472441
 20
35.5
 30
0.0
 11
51.1220472441
 21
35.8346456693
 31
0.0
  0
LINE
  5
E2
330
1F
100
AcDbEntity
  8
TITLE
  6
SLD-Solid
370
    18
100
AcDbLine
 10
51.1220472441
 20
0.5
 30
0.0
 11
51.1220472441
 21
0.1653543307
 31
0.0
  0
LINE
  5
E3
330
1F
100
AcDbEntity
  8
TITLE
  6
SLD-Solid
370
    18
100
AcDbLine
 10
53.0905511811
 20
35.5
 30
0.0
 11
53.0905511811
 21
35.8346456693
 31
0.0
  0
LINE
  5
E4
330
1F
100
AcDbEntity
  8
TITLE
  6
SLD-Solid
370
    18
100
AcDbLine
 10
53.0905511811
 20
0.5
 30
0.0
 11
53.0905511811
 21
0.1653543307
 31
0.0
  0
MTEXT
  5
E6
330
1F
100
AcDbEntity
  8
NOTES
100
AcDbMText
 10
31.408297803
 20
1.0702903347
 30
0.0
 40
0.25
 41
0.0
 71
     1
 72
     1
  1
UNLESS OTHERWISE SPECIFIED DIMENSIONS ARE IN INCHES.
  7
SLDTEXTSTYLE0
 73
     1
 44
1.0
  0
MTEXT
  5
E7
330
1F
100
AcDbEntity
  8
NOTES
100
AcDbMText
 10
31.4368251132
 20
3.2193045501
 30
0.0
 40
0.25
 41
0.0
 71
     1
 72
     1
  1
DATE:
  7
SLDTEXTSTYLE0
 73
     1
 44
1.0
  0
MTEXT
  5
E8
330
1F
100
AcDbEntity
  8
NOTES
100
AcDbMText
 10
33.7130669976
 20
2.1722148141
 30
0.0
 40
0.25
 41
0.0
 71
     2
 72
     1
  1
DO NOT SCALE DRAWING
  7
SLDTEXTSTYLE0
 73
     1
 44
1.0
  0
MTEXT
  5
EA
330
1F
100
AcDbEntity
  8
NOTES
100
AcDbMText
 10
37.8307373075
 20
3.2682755553
 30
0.0
 40
0.25
 41
0.0
 71
     1
 72
     1
  1
TITLE:
  7
SLDTEXTSTYLE1
 73
     1
 44
1.0
  0
MTEXT
  5
EB
330
1F
100
AcDbEntity
  8
NOTES
100
AcDbMText
 10
45.1561831052
 20
3.2682755553
 30
0.0
 40
0.25
 41
0.0
 71
     1
 72
     1
  1
DWG NO.
  7
SLDTEXTSTYLE1
 73
     1
 44
1.0
  0
MTEXT
  5
EC
330
1F
100
AcDbEntity
  8
NOTES
100
AcDbMText
 10
45.1831753203
 20
1.0645815577
 30
0.0
 40
0.25
 41
0.0
 71
     1
 72
     1
  1
SCALE:     1:1
  7
SLDTEXTSTYLE1
 73
     1
 44
1.0
  0
MTEXT
  5
ED
330
1F
100
AcDbEntity
  8
NOTES
100
AcDbMText
 10
49.1870788343
 20
2.6510344295
 30
0.0
 40
0.25
 41
0.0
 71
     2
 72
     1
  1
711 CAD
  7
SLDTEXTSTYLE1
 73
     1
 44
1.0
  0
MTEXT
  5
EE
330
1F
100
AcDbEntity
  8
NOTES
100
AcDbMText
 10
40.9739926003
 20
2.6388861441
 30
0.0
 40
0.25
 41
0.0
 71
     2
 72
     1
  1
711 Soap Dispenser
  7
SLDTEXTSTYLE1
 73
     1
 44
1.0
  0
INSERT
  5
F4
330
1F
100
AcDbEntity
  8
NOTES
100
AcDbBlockReference
  2
SW_NOTE_0
 10
45.266131557
 20
4.6105227838
 30
0.0
  0
INSERT
  5
FE
330
1F
100
AcDbEntity
  8
NOTES
100
AcDbBlockReference
  2
SW_NOTE_0_1
 10
31.6159726246
 20
5.1481526848
 30
0.0
  0
MTEXT
  5
FF
330
1F
100
AcDbEntity
  8
NOTES
100
AcDbMText
 10
34.5262257997
 20
3.2135957731
 30
0.0
 40
0.25
 41
0.0
 71
     2
 72
     1
  1
September 1, 2021
  7
SLDTEXTSTYLE1
 73
     1
 44
1.0
  0
MTEXT
  5
100
330
1F
100
AcDbEntity
  8
TITLE
100
AcDbMText
 10
0.3276279776
 20
1.4558621965
 30
0.0
 40
0.125
 41
0.0
 71
     2
 72
     1
  1
A
  7
SLDTEXTSTYLE1
 73
     1
 44
1.0
  0
MTEXT
  5
101
330
1F
100
AcDbEntity
  8
TITLE
100
AcDbMText
 10
54.6622736469
 20
1.4558621965
 30
0.0
 40
0.125
 41
0.0
 71
     2
 72
     1
  1
A
  7
SLDTEXTSTYLE1
 73
     1
 44
1.0
  0
MTEXT
  5
102
330
1F
100
AcDbEntity
  8
TITLE
100
AcDbMText
 10
0.3317512413
 20
3.316098417
 30
0.0
 40
0.125
 41
0.0
 71
     2
 72
     1
  1
B
  7
SLDTEXTSTYLE1
 73
     1
 44
1.0
  0
MTEXT
  5
103
330
1F
100
AcDbEntity
  8
TITLE
100
AcDbMText
 10
54.6663969106
 20
3.316098417
 30
0.0
 40
0.125
 41
0.0
 71
     2
 72
     1
  1
B
  7
SLDTEXTSTYLE1
 73
     1
 44
1.0
  0
MTEXT
  5
104
330
1F
100
AcDbEntity
  8
TITLE
100
AcDbMText
 10
0.3313750817
 20
5.284602354
 30
0.0
 40
0.125
 41
0.0
 71
     2
 72
     1
  1
C
  7
SLDTEXTSTYLE1
 73
     1
 44
1.0
  0
MTEXT
  5
105
330
1F
100
AcDbEntity
  8
TITLE
100
AcDbMText
 10
54.666020751
 20
5.284602354
 30
0.0
 40
0.125
 41
0.0
 71
     2
 72
     1
  1
C
  7
SLDTEXTSTYLE1
 73
     1
 44
1.0
  0
MTEXT
  5
106
330
1F
100
AcDbEntity
  8
TITLE
100
AcDbMText
 10
0.3311870028
 20
7.253106291
 30
0.0
 40
0.125
 41
0.0
 71
     2
 72
     1
  1
D
  7
SLDTEXTSTYLE1
 73
     1
 44
1.0
  0
MTEXT
  5
107
330
1F
100
AcDbEntity
  8
TITLE
100
AcDbMText
 10
54.6658326721
 20
7.253106291
 30
0.0
 40
0.125
 41
0.0
 71
     2
 72
     1
  1
D
  7
SLDTEXTSTYLE1
 73
     1
 44
1.0
  0
MTEXT
  5
108
330
1F
100
AcDbEntity
  8
TITLE
100
AcDbMText
 10
0.332923116
 20
9.221610228
 30
0.0
 40
0.125
 41
0.0
 71
     2
 72
     1
  1
E
  7
SLDTEXTSTYLE1
 73
     1
 44
1.0
  0
MTEXT
  5
109
330
1F
100
AcDbEntity
  8
TITLE
100
AcDbMText
 10
54.6675687853
 20
9.221610228
 30
0.0
 40
0.125
 41
0.0
 71
     2
 72
     1
  1
E
  7
SLDTEXTSTYLE1
 73
     1
 44
1.0
  0
MTEXT
  5
10A
330
1F
100
AcDbEntity
  8
TITLE
100
AcDbMText
 10
0.3313461474
 20
11.190114165
 30
0.0
 40
0.125
 41
0.0
 71
     2
 72
     1
  1
F
  7
SLDTEXTSTYLE1
 73
     1
 44
1.0
  0
MTEXT
  5
10B
330
1F
100
AcDbEntity
  8
TITLE
100
AcDbMText
 10
54.6659918167
 20
11.190114165
 30
0.0
 40
0.125
 41
0.0
 71
     2
 72
     1
  1
F
  7
SLDTEXTSTYLE1
 73
     1
 44
1.0
  0
MTEXT
  5
10C
330
1F
100
AcDbEntity
  8
TITLE
100
AcDbMText
 10
0.3322576054
 20
13.158618102
 30
0.0
 40
0.125
 41
0.0
 71
     2
 72
     1
  1
G
  7
SLDTEXTSTYLE1
 73
     1
 44
1.0
  0
MTEXT
  5
10D
330
1F
100
AcDbEntity
  8
TITLE
100
AcDbMText
 10
54.6669032747
 20
13.158618102
 30
0.0
 40
0.125
 41
0.0
 71
     2
 72
     1
  1
G
  7
SLDTEXTSTYLE1
 73
     1
 44
1.0
  0
MTEXT
  5
10E
330
1F
100
AcDbEntity
  8
TITLE
100
AcDbMText
 10
0.3323733457
 20
15.127122039
 30
0.0
 40
0.125
 41
0.0
 71
     2
 72
     1
  1
H
  7
SLDTEXTSTYLE1
 73
     1
 44
1.0
  0
MTEXT
  5
10F
330
1F
100
AcDbEntity
  8
TITLE
100
AcDbMText
 10
54.667019015
 20
15.127122039
 30
0.0
 40
0.125
 41
0.0
 71
     2
 72
     1
  1
H
  7
SLDTEXTSTYLE1
 73
     1
 44
1.0
  0
MTEXT
  5
110
330
1F
100
AcDbEntity
  8
TITLE
100
AcDbMText
 10
0.3315776306
 20
17.095625976
 30
0.0
 40
0.125
 41
0.0
 71
     2
 72
     1
  1
J
  7
SLDTEXTSTYLE1
 73
     1
 44
1.0
  0
MTEXT
  5
111
330
1F
100
AcDbEntity
  8
TITLE
100
AcDbMText
 10
54.6662232999
 20
17.095625976
 30
0.0
 40
0.125
 41
0.0
 71
     2
 72
     1
  1
J
  7
SLDTEXTSTYLE1
 73
     1
 44
1.0
  0
MTEXT
  5
112
330
1F
100
AcDbEntity
  8
TITLE
100
AcDbMText
 10
0.3323154765
 20
19.064129913
 30
0.0
 40
0.125
 41
0.0
 71
     2
 72
     1
  1
K
  7
SLDTEXTSTYLE1
 73
     1
 44
1.0
  0
MTEXT
  5
113
330
1F
100
AcDbEntity
  8
TITLE
100
AcDbMText
 10
54.6669611458
 20
19.064129913
 30
0.0
 40
0.125
 41
0.0
 71
     2
 72
     1
  1
K
  7
SLDTEXTSTYLE1
 73
     1
 44
1.0
  0
MTEXT
  5
114
330
1F
100
AcDbEntity
  8
TITLE
100
AcDbMText
 10
0.3312448739
 20
21.03263385
 30
0.0
 40
0.125
 41
0.0
 71
     2
 72
     1
  1
L
  7
SLDTEXTSTYLE1
 73
     1
 44
1.0
  0
MTEXT
  5
115
330
1F
100
AcDbEntity
  8
TITLE
100
AcDbMText
 10
54.6658905432
 20
21.03263385
 30
0.0
 40
0.125
 41
0.0
 71
     2
 72
     1
  1
L
  7
SLDTEXTSTYLE1
 73
     1
 44
1.0
  0
MTEXT
  5
116
330
1F
100
AcDbEntity
  8
TITLE
100
AcDbMText
 10
0.3283224192
 20
23.001137787
 30
0.0
 40
0.125
 41
0.0
 71
     2
 72
     1
  1
M
  7
SLDTEXTSTYLE1
 73
     1
 44
1.0
  0
MTEXT
  5
117
330
1F
100
AcDbEntity
  8
TITLE
100
AcDbMText
 10
54.6629680885
 20
23.001137787
 30
0.0
 40
0.125
 41
0.0
 71
     2
 72
     1
  1
M
  7
SLDTEXTSTYLE1
 73
     1
 44
1.0
  0
MTEXT
  5
118
330
1F
100
AcDbEntity
  8
TITLE
100
AcDbMText
 10
0.3315342276
 20
24.969641724
 30
0.0
 40
0.125
 41
0.0
 71
     2
 72
     1
  1
N
  7
SLDTEXTSTYLE1
 73
     1
 44
1.0
  0
MTEXT
  5
119
330
1F
100
AcDbEntity
  8
TITLE
100
AcDbMText
 10
54.6661798969
 20
24.969641724
 30
0.0
 40
0.125
 41
0.0
 71
     2
 72
     1
  1
N
  7
SLDTEXTSTYLE1
 73
     1
 44
1.0
  0
MTEXT
  5
11A
330
1F
100
AcDbEntity
  8
TITLE
100
AcDbMText
 10
0.3321997349
 20
26.9381456611
 30
0.0
 40
0.125
 41
0.0
 71
     2
 72
     1
  1
P
  7
SLDTEXTSTYLE1
 73
     1
 44
1.0
  0
MTEXT
  5
11B
330
1F
100
AcDbEntity
  8
TITLE
100
AcDbMText
 10
54.6668454042
 20
26.9381456611
 30
0.0
 40
0.125
 41
0.0
 71
     2
 72
     1
  1
P
  7
SLDTEXTSTYLE1
 73
     1
 44
1.0
  0
MTEXT
  5
11C
330
1F
100
AcDbEntity
  8
TITLE
100
AcDbMText
 10
0.3309265867
 20
28.9066495981
 30
0.0
 40
0.125
 41
0.0
 71
     2
 72
     1
  1
R
  7
SLDTEXTSTYLE1
 73
     1
 44
1.0
  0
MTEXT
  5
11D
330
1F
100
AcDbEntity
  8
TITLE
100
AcDbMText
 10
54.665572256
 20
28.9066495981
 30
0.0
 40
0.125
 41
0.0
 71
     2
 72
     1
  1
R
  7
SLDTEXTSTYLE1
 73
     1
 44
1.0
  0
MTEXT
  5
11E
330
1F
100
AcDbEntity
  8
TITLE
100
AcDbMText
 10
0.3323010071
 20
30.8751535351
 30
0.0
 40
0.125
 41
0.0
 71
     2
 72
     1
  1
T
  7
SLDTEXTSTYLE1
 73
     1
 44
1.0
  0
MTEXT
  5
11F
330
1F
100
AcDbEntity
  8
TITLE
100
AcDbMText
 10
54.6669466764
 20
30.8751535351
 30
0.0
 40
0.125
 41
0.0
 71
     2
 72
     1
  1
T
  7
SLDTEXTSTYLE1
 73
     1
 44
1.0
  0
MTEXT
  5
120
330
1F
100
AcDbEntity
  8
TITLE
100
AcDbMText
 10
0.3328507755
 20
32.8436574721
 30
0.0
 40
0.125
 41
0.0
 71
     2
 72
     1
  1
U
  7
SLDTEXTSTYLE1
 73
     1
 44
1.0
  0
MTEXT
  5
121
330
1F
100
AcDbEntity
  8
TITLE
100
AcDbMText
 10
54.6674964448
 20
32.8436574721
 30
0.0
 40
0.125
 41
0.0
 71
     2
 72
     1
  1
U
  7
SLDTEXTSTYLE1
 73
     1
 44
1.0
  0
MTEXT
  5
122
330
1F
100
AcDbEntity
  8
TITLE
100
AcDbMText
 10
0.3307529773
 20
34.7038936925
 30
0.0
 40
0.125
 41
0.0
 71
     2
 72
     1
  1
V
  7
SLDTEXTSTYLE1
 73
     1
 44
1.0
  0
MTEXT
  5
123
330
1F
100
AcDbEntity
  8
TITLE
100
AcDbMText
 10
54.6653986466
 20
34.7038936925
 30
0.0
 40
0.125
 41
0.0
 71
     2
 72
     1
  1
V
  7
SLDTEXTSTYLE1
 73
     1
 44
1.0
  0
MTEXT
  5
124
330
1F
100
AcDbEntity
  8
TITLE
100
AcDbMText
 10
1.2022070481
 20
0.4125551099
 30
0.0
 40
0.125
 41
0.0
 71
     2
 72
     1
  1
28
  7
SLDTEXTSTYLE1
 73
     1
 44
1.0
  0
MTEXT
  5
125
330
1F
100
AcDbEntity
  8
TITLE
100
AcDbMText
 10
1.2022070481
 20
35.7472007792
 30
0.0
 40
0.125
 41
0.0
 71
     2
 72
     1
  1
28
  7
SLDTEXTSTYLE1
 73
     1
 44
1.0
  0
MTEXT
  5
126
330
1F
100
AcDbEntity
  8
TITLE
100
AcDbMText
 10
2.891183426
 20
0.4125551099
 30
0.0
 40
0.125
 41
0.0
 71
     2
 72
     1
  1
27
  7
SLDTEXTSTYLE1
 73
     1
 44
1.0
  0
MTEXT
  5
127
330
1F
100
AcDbEntity
  8
TITLE
100
AcDbMText
 10
2.891183426
 20
35.7472007792
 30
0.0
 40
0.125
 41
0.0
 71
     2
 72
     1
  1
27
  7
SLDTEXTSTYLE1
 73
     1
 44
1.0
  0
MTEXT
  5
128
330
1F
100
AcDbEntity
  8
TITLE
100
AcDbMText
 10
4.859687363
 20
0.4125551099
 30
0.0
 40
0.125
 41
0.0
 71
     2
 72
     1
  1
26
  7
SLDTEXTSTYLE1
 73
     1
 44
1.0
  0
MTEXT
  5
129
330
1F
100
AcDbEntity
  8
TITLE
100
AcDbMText
 10
4.859687363
 20
35.7472007792
 30
0.0
 40
0.125
 41
0.0
 71
     2
 72
     1
  1
26
  7
SLDTEXTSTYLE1
 73
     1
 44
1.0
  0
MTEXT
  5
12A
330
1F
100
AcDbEntity
  8
TITLE
100
AcDbMText
 10
6.8281913
 20
0.4125551099
 30
0.0
 40
0.125
 41
0.0
 71
     2
 72
     1
  1
25
  7
SLDTEXTSTYLE1
 73
     1
 44
1.0
  0
MTEXT
  5
12B
330
1F
100
AcDbEntity
  8
TITLE
100
AcDbMText
 10
6.8281913
 20
35.7472007792
 30
0.0
 40
0.125
 41
0.0
 71
     2
 72
     1
  1
25
  7
SLDTEXTSTYLE1
 73
     1
 44
1.0
  0
MTEXT
  5
12C
330
1F
100
AcDbEntity
  8
TITLE
100
AcDbMText
 10
8.7966952371
 20
0.4125551099
 30
0.0
 40
0.125
 41
0.0
 71
     2
 72
     1
  1
24
  7
SLDTEXTSTYLE1
 73
     1
 44
1.0
  0
MTEXT
  5
12D
330
1F
100
AcDbEntity
  8
TITLE
100
AcDbMText
 10
8.7966952371
 20
35.7472007792
 30
0.0
 40
0.125
 41
0.0
 71
     2
 72
     1
  1
24
  7
SLDTEXTSTYLE1
 73
     1
 44
1.0
  0
MTEXT
  5
12E
330
1F
100
AcDbEntity
  8
TITLE
100
AcDbMText
 10
10.7651991741
 20
0.4125551099
 30
0.0
 40
0.125
 41
0.0
 71
     2
 72
     1
  1
23
  7
SLDTEXTSTYLE1
 73
     1
 44
1.0
  0
MTEXT
  5
12F
330
1F
100
AcDbEntity
  8
TITLE
100
AcDbMText
 10
10.7651991741
 20
35.7472007792
 30
0.0
 40
0.125
 41
0.0
 71
     2
 72
     1
  1
23
  7
SLDTEXTSTYLE1
 73
     1
 44
1.0
  0
MTEXT
  5
130
330
1F
100
AcDbEntity
  8
TITLE
100
AcDbMText
 10
12.7337031111
 20
0.4125551099
 30
0.0
 40
0.125
 41
0.0
 71
     2
 72
     1
  1
22
  7
SLDTEXTSTYLE1
 73
     1
 44
1.0
  0
MTEXT
  5
131
330
1F
100
AcDbEntity
  8
TITLE
100
AcDbMText
 10
12.7337031111
 20
35.7472007792
 30
0.0
 40
0.125
 41
0.0
 71
     2
 72
     1
  1
22
  7
SLDTEXTSTYLE1
 73
     1
 44
1.0
  0
MTEXT
  5
132
330
1F
100
AcDbEntity
  8
TITLE
100
AcDbMText
 10
14.7022070481
 20
0.4125551099
 30
0.0
 40
0.125
 41
0.0
 71
     2
 72
     1
  1
21
  7
SLDTEXTSTYLE1
 73
     1
 44
1.0
  0
MTEXT
  5
133
330
1F
100
AcDbEntity
  8
TITLE
100
AcDbMText
 10
14.7022070481
 20
35.7472007792
 30
0.0
 40
0.125
 41
0.0
 71
     2
 72
     1
  1
21
  7
SLDTEXTSTYLE1
 73
     1
 44
1.0
  0
MTEXT
  5
134
330
1F
100
AcDbEntity
  8
TITLE
100
AcDbMText
 10
16.6707109851
 20
0.4125551099
 30
0.0
 40
0.125
 41
0.0
 71
     2
 72
     1
  1
20
  7
SLDTEXTSTYLE1
 73
     1
 44
1.0
  0
MTEXT
  5
135
330
1F
100
AcDbEntity
  8
TITLE
100
AcDbMText
 10
16.6707109851
 20
35.7472007792
 30
0.0
 40
0.125
 41
0.0
 71
     2
 72
     1
  1
20
  7
SLDTEXTSTYLE1
 73
     1
 44
1.0
  0
MTEXT
  5
136
330
1F
100
AcDbEntity
  8
TITLE
100
AcDbMText
 10
18.6392149221
 20
0.4125551099
 30
0.0
 40
0.125
 41
0.0
 71
     2
 72
     1
  1
19
  7
SLDTEXTSTYLE1
 73
     1
 44
1.0
  0
MTEXT
  5
137
330
1F
100
AcDbEntity
  8
TITLE
100
AcDbMText
 10
18.6392149221
 20
35.7472007792
 30
0.0
 40
0.125
 41
0.0
 71
     2
 72
     1
  1
19
  7
SLDTEXTSTYLE1
 73
     1
 44
1.0
  0
MTEXT
  5
138
330
1F
100
AcDbEntity
  8
TITLE
100
AcDbMText
 10
20.6077188591
 20
0.4125551099
 30
0.0
 40
0.125
 41
0.0
 71
     2
 72
     1
  1
18
  7
SLDTEXTSTYLE1
 73
     1
 44
1.0
  0
MTEXT
  5
139
330
1F
100
AcDbEntity
  8
TITLE
100
AcDbMText
 10
20.6077188591
 20
35.7472007792
 30
0.0
 40
0.125
 41
0.0
 71
     2
 72
     1
  1
18
  7
SLDTEXTSTYLE1
 73
     1
 44
1.0
  0
MTEXT
  5
13A
330
1F
100
AcDbEntity
  8
TITLE
100
AcDbMText
 10
22.5762227961
 20
0.4125551099
 30
0.0
 40
0.125
 41
0.0
 71
     2
 72
     1
  1
17
  7
SLDTEXTSTYLE1
 73
     1
 44
1.0
  0
MTEXT
  5
13B
330
1F
100
AcDbEntity
  8
TITLE
100
AcDbMText
 10
22.5762227961
 20
35.7472007792
 30
0.0
 40
0.125
 41
0.0
 71
     2
 72
     1
  1
17
  7
SLDTEXTSTYLE1
 73
     1
 44
1.0
  0
MTEXT
  5
13C
330
1F
100
AcDbEntity
  8
TITLE
100
AcDbMText
 10
24.5447267331
 20
0.4125551099
 30
0.0
 40
0.125
 41
0.0
 71
     2
 72
     1
  1
16
  7
SLDTEXTSTYLE1
 73
     1
 44
1.0
  0
MTEXT
  5
13D
330
1F
100
AcDbEntity
  8
TITLE
100
AcDbMText
 10
24.5447267331
 20
35.7472007792
 30
0.0
 40
0.125
 41
0.0
 71
     2
 72
     1
  1
16
  7
SLDTEXTSTYLE1
 73
     1
 44
1.0
  0
MTEXT
  5
13E
330
1F
100
AcDbEntity
  8
TITLE
100
AcDbMText
 10
26.5132306701
 20
0.4125551099
 30
0.0
 40
0.125
 41
0.0
 71
     2
 72
     1
  1
15
  7
SLDTEXTSTYLE1
 73
     1
 44
1.0
  0
MTEXT
  5
13F
330
1F
100
AcDbEntity
  8
TITLE
100
AcDbMText
 10
26.5132306701
 20
35.7472007792
 30
0.0
 40
0.125
 41
0.0
 71
     2
 72
     1
  1
15
  7
SLDTEXTSTYLE1
 73
     1
 44
1.0
  0
MTEXT
  5
140
330
1F
100
AcDbEntity
  8
TITLE
100
AcDbMText
 10
28.4817346071
 20
0.4125551099
 30
0.0
 40
0.125
 41
0.0
 71
     2
 72
     1
  1
14
  7
SLDTEXTSTYLE1
 73
     1
 44
1.0
  0
MTEXT
  5
141
330
1F
100
AcDbEntity
  8
TITLE
100
AcDbMText
 10
28.4817346071
 20
35.7472007792
 30
0.0
 40
0.125
 41
0.0
 71
     2
 72
     1
  1
14
  7
SLDTEXTSTYLE1
 73
     1
 44
1.0
  0
MTEXT
  5
142
330
1F
100
AcDbEntity
  8
TITLE
100
AcDbMText
 10
30.4502385441
 20
0.4125551099
 30
0.0
 40
0.125
 41
0.0
 71
     2
 72
     1
  1
13
  7
SLDTEXTSTYLE1
 73
     1
 44
1.0
  0
MTEXT
  5
143
330
1F
100
AcDbEntity
  8
TITLE
100
AcDbMText
 10
30.4502385441
 20
35.7472007792
 30
0.0
 40
0.125
 41
0.0
 71
     2
 72
     1
  1
13
  7
SLDTEXTSTYLE1
 73
     1
 44
1.0
  0
MTEXT
  5
144
330
1F
100
AcDbEntity
  8
TITLE
100
AcDbMText
 10
32.4187424811
 20
0.4125551099
 30
0.0
 40
0.125
 41
0.0
 71
     2
 72
     1
  1
12
  7
SLDTEXTSTYLE1
 73
     1
 44
1.0
  0
MTEXT
  5
145
330
1F
100
AcDbEntity
  8
TITLE
100
AcDbMText
 10
32.4187424811
 20
35.7472007792
 30
0.0
 40
0.125
 41
0.0
 71
     2
 72
     1
  1
12
  7
SLDTEXTSTYLE1
 73
     1
 44
1.0
  0
MTEXT
  5
146
330
1F
100
AcDbEntity
  8
TITLE
100
AcDbMText
 10
34.3872464182
 20
0.4125551099
 30
0.0
 40
0.125
 41
0.0
 71
     2
 72
     1
  1
11
  7
SLDTEXTSTYLE1
 73
     1
 44
1.0
  0
MTEXT
  5
147
330
1F
100
AcDbEntity
  8
TITLE
100
AcDbMText
 10
34.3872464182
 20
35.7472007792
 30
0.0
 40
0.125
 41
0.0
 71
     2
 72
     1
  1
11
  7
SLDTEXTSTYLE1
 73
     1
 44
1.0
  0
MTEXT
  5
148
330
1F
100
AcDbEntity
  8
TITLE
100
AcDbMText
 10
36.3557503552
 20
0.4125551099
 30
0.0
 40
0.125
 41
0.0
 71
     2
 72
     1
  1
10
  7
SLDTEXTSTYLE1
 73
     1
 44
1.0
  0
MTEXT
  5
149
330
1F
100
AcDbEntity
  8
TITLE
100
AcDbMText
 10
36.3557503552
 20
35.7472007792
 30
0.0
 40
0.125
 41
0.0
 71
     2
 72
     1
  1
10
  7
SLDTEXTSTYLE1
 73
     1
 44
1.0
  0
MTEXT
  5
14A
330
1F
100
AcDbEntity
  8
TITLE
100
AcDbMText
 10
38.3255129729
 20
0.4125551099
 30
0.0
 40
0.125
 41
0.0
 71
     2
 72
     1
  1
9
  7
SLDTEXTSTYLE1
 73
     1
 44
1.0
  0
MTEXT
  5
14B
330
1F
100
AcDbEntity
  8
TITLE
100
AcDbMText
 10
38.3255129729
 20
35.7472007792
 30
0.0
 40
0.125
 41
0.0
 71
     2
 72
     1
  1
9
  7
SLDTEXTSTYLE1
 73
     1
 44
1.0
  0
MTEXT
  5
14C
330
1F
100
AcDbEntity
  8
TITLE
100
AcDbMText
 10
40.2940169099
 20
0.4125551099
 30
0.0
 40
0.125
 41
0.0
 71
     2
 72
     1
  1
8
  7
SLDTEXTSTYLE1
 73
     1
 44
1.0
  0
MTEXT
  5
14D
330
1F
100
AcDbEntity
  8
TITLE
100
AcDbMText
 10
40.2940169099
 20
35.7472007792
 30
0.0
 40
0.125
 41
0.0
 71
     2
 72
     1
  1
8
  7
SLDTEXTSTYLE1
 73
     1
 44
1.0
  0
MTEXT
  5
14E
330
1F
100
AcDbEntity
  8
TITLE
100
AcDbMText
 10
42.2625208469
 20
0.4125551099
 30
0.0
 40
0.125
 41
0.0
 71
     2
 72
     1
  1
7
  7
SLDTEXTSTYLE1
 73
     1
 44
1.0
  0
MTEXT
  5
14F
330
1F
100
AcDbEntity
  8
TITLE
100
AcDbMText
 10
42.2625208469
 20
35.7472007792
 30
0.0
 40
0.125
 41
0.0
 71
     2
 72
     1
  1
7
  7
SLDTEXTSTYLE1
 73
     1
 44
1.0
  0
MTEXT
  5
150
330
1F
100
AcDbEntity
  8
TITLE
100
AcDbMText
 10
44.2310247839
 20
0.4125551099
 30
0.0
 40
0.125
 41
0.0
 71
     2
 72
     1
  1
6
  7
SLDTEXTSTYLE1
 73
     1
 44
1.0
  0
MTEXT
  5
151
330
1F
100
AcDbEntity
  8
TITLE
100
AcDbMText
 10
44.2310247839
 20
35.7472007792
 30
0.0
 40
0.125
 41
0.0
 71
     2
 72
     1
  1
6
  7
SLDTEXTSTYLE1
 73
     1
 44
1.0
  0
MTEXT
  5
152
330
1F
100
AcDbEntity
  8
TITLE
100
AcDbMText
 10
46.1995287209
 20
0.4125551099
 30
0.0
 40
0.125
 41
0.0
 71
     2
 72
     1
  1
5
  7
SLDTEXTSTYLE1
 73
     1
 44
1.0
  0
MTEXT
  5
153
330
1F
100
AcDbEntity
  8
TITLE
100
AcDbMText
 10
46.1995287209
 20
35.7472007792
 30
0.0
 40
0.125
 41
0.0
 71
     2
 72
     1
  1
5
  7
SLDTEXTSTYLE1
 73
     1
 44
1.0
  0
MTEXT
  5
154
330
1F
100
AcDbEntity
  8
TITLE
100
AcDbMText
 10
48.1680326579
 20
0.4125551099
 30
0.0
 40
0.125
 41
0.0
 71
     2
 72
     1
  1
4
  7
SLDTEXTSTYLE1
 73
     1
 44
1.0
  0
MTEXT
  5
155
330
1F
100
AcDbEntity
  8
TITLE
100
AcDbMText
 10
48.1680326579
 20
35.7472007792
 30
0.0
 40
0.125
 41
0.0
 71
     2
 72
     1
  1
4
  7
SLDTEXTSTYLE1
 73
     1
 44
1.0
  0
MTEXT
  5
156
330
1F
100
AcDbEntity
  8
TITLE
100
AcDbMText
 10
50.1365365949
 20
0.4125551099
 30
0.0
 40
0.125
 41
0.0
 71
     2
 72
     1
  1
3
  7
SLDTEXTSTYLE1
 73
     1
 44
1.0
  0
MTEXT
  5
157
330
1F
100
AcDbEntity
  8
TITLE
100
AcDbMText
 10
50.1365365949
 20
35.7472007792
 30
0.0
 40
0.125
 41
0.0
 71
     2
 72
     1
  1
3
  7
SLDTEXTSTYLE1
 73
     1
 44
1.0
  0
MTEXT
  5
158
330
1F
100
AcDbEntity
  8
TITLE
100
AcDbMText
 10
52.1050405319
 20
0.4125551099
 30
0.0
 40
0.125
 41
0.0
 71
     2
 72
     1
  1
2
  7
SLDTEXTSTYLE1
 73
     1
 44
1.0
  0
MTEXT
  5
159
330
1F
100
AcDbEntity
  8
TITLE
100
AcDbMText
 10
52.1050405319
 20
35.7472007792
 30
0.0
 40
0.125
 41
0.0
 71
     2
 72
     1
  1
2
  7
SLDTEXTSTYLE1
 73
     1
 44
1.0
  0
MTEXT
  5
15A
330
1F
100
AcDbEntity
  8
TITLE
100
AcDbMText
 10
53.7940169099
 20
0.4125551099
 30
0.0
 40
0.125
 41
0.0
 71
     2
 72
     1
  1
1
  7
SLDTEXTSTYLE1
 73
     1
 44
1.0
  0
MTEXT
  5
15B
330
1F
100
AcDbEntity
  8
TITLE
100
AcDbMText
 10
53.7940169099
 20
35.7472007792
 30
0.0
 40
0.125
 41
0.0
 71
     2
 72
     1
  1
1
  7
SLDTEXTSTYLE1
 73
     1
 44
1.0
  0
LINE
  5
15C
330
1F
100
AcDbEntity
  8
0
  6
SLD-Solid
 62
     7
370
    25
100
AcDbLine
 10
9.47349611
 20
8.8328282214
 30
0.0
 11
9.47349611
 21
8.7328282214
 31
0.0
  0
LINE
  5
15D
330
1F
100
AcDbEntity
  8
0
  6
SLD-Solid
 62
     7
370
    25
100
AcDbLine
 10
9.67349611
 20
8.7328282214
 30
0.0
 11
9.67349611
 21
8.8328282214
 31
0.0
  0
ARC
  5
15E
330
1F
100
AcDbEntity
  8
0
  6
SLD-Solid
 62
     7
370
    25
100
AcDbCircle
 10
9.64849611
 20
8.7328282214
 30
0.0
 40
0.0250000000000004
100
AcDbArc
 50
270.0
 51
0.0
  0
ARC
  5
15F
330
1F
100
AcDbEntity
  8
0
  6
SLD-Solid
 62
     7
370
    25
100
AcDbCircle
 10
9.49849611
 20
8.7328282214
 30
0.0
 40
0.0250000000000021
100
AcDbArc
 50
180.0
 51
270.0
  0
ELLIPSE
  5
160
330
1F
100
AcDbEntity
  8
0
  6
SLD-Solid
 62
     7
370
    25
100
AcDbEllipse
 10
10.6465141846
 20
13.711120504
 30
0.0
 11
1.000000000000002
 21
0.0
 31
0.0
210
0.0
220
0.0
230
1.0
 40
0.298273145
 41
0.0
 42
6.283185307179586
  0
LINE
  5
161
330
1F
100
AcDbEntity
  8
0
  6
SLD-Solid
 62
     7
370
    25
100
AcDbLine
 10
10.2948607523
 20
9.8351052598
 30
0.0
 11
10.079027419
 21
8.9101052598
 31
0.0
  0
ARC
  5
162
330
1F
100
AcDbEntity
  8
0
  6
SLD-Solid
 62
     7
370
    25
100
AcDbCircle
 10
9.981643298
 20
8.9328282214
 30
0.0
 40
0.1000000000000007
100
AcDbArc
 50
270.0
 51
346.8659776936
  0
ARC
  5
163
330
1F
100
AcDbEntity
  8
0
  6
SLD-Solid
 62
     7
370
    25
100
AcDbCircle
 10
8.9495155887
 20
9.8578282214
 30
0.0
 40
0.1000000000000007
100
AcDbArc
 50
90.0
 51
193.1340223064
  0
LINE
  5
164
330
1F
100
AcDbEntity
  8
0
  6
SLD-Solid
 62
     7
370
    25
100
AcDbLine
 10
8.8521314677
 20
9.8351052598
 30
0.0
 11
9.067964801
 21
8.9101052598
 31
0.0
  0
ARC
  5
165
330
1F
100
AcDbEntity
  8
0
  6
SLD-Solid
 62
     7
370
    25
100
AcDbCircle
 10
9.165348922
 20
8.9328282214
 30
0.0
 40
0.1000000000000014
100
AcDbArc
 50
193.1340223064
 51
270.0
  0
ARC
  5
166
330
1F
100
AcDbEntity
  8
0
  6
SLD-Solid
 62
     7
370
    25
100
AcDbCircle
 10
10.1974766313
 20
9.8578282214
 30
0.0
 40
0.1000000000000025
100
AcDbArc
 50
346.8659776936
 51
90.0
  0
LINE
  5
167
330
1F
100
AcDbEntity
  8
0
  6
SLD-Solid
 62
     7
370
    25
100
AcDbLine
 10
9.981643298
 20
8.8328282214
 30
0.0
 11
9.165348922
 21
8.8328282214
 31
0.0
  0
LINE
  5
168
330
1F
100
AcDbEntity
  8
0
  6
SLD-Solid
 62
     7
370
    25
100
AcDbLine
 10
8.9495155887
 20
9.9578282214
 30
0.0
 11
10.1974766313
 21
9.9578282214
 31
0.0
  0
LINE
  5
169
330
1F
100
AcDbEntity
  8
0
  6
SLD-Solid
 62
     7
370
    25
100
AcDbLine
 10
9.64849611
 20
8.7078282214
 30
0.0
 11
9.49849611
 21
8.7078282214
 31
0.0
  0
CIRCLE
  5
16A
330
1F
100
AcDbEntity
  8
0
  6
SLD-Solid
 62
     7
370
    25
100
AcDbCircle
 10
9.57349611
 20
10.6966066171
 30
0.0
 40
0.4374999999999982
  0
LINE
  5
16B
330
1F
100
AcDbEntity
  8
0
  6
SLD-Solid
 62
     7
370
    25
100
AcDbLine
 10
11.8250800871
 20
8.3841066171
 30
0.0
 11
7.3219121329
 21
8.3841066171
 31
0.0
  0
LINE
  5
16C
330
1F
100
AcDbEntity
  8
0
  6
SLD-Solid
 62
     7
370
    25
100
AcDbLine
 10
7.3219121329
 20
14.4139250007
 30
0.0
 11
11.8250800871
 21
14.4139250007
 31
0.0
  0
LINE
  5
16D
330
1F
100
AcDbEntity
  8
0
  6
SLD-Solid
 62
     7
370
    25
100
AcDbLine
 10
6.34849611
 20
8.3841066171
 30
0.0
 11
7.3219121329
 21
8.3841066171
 31
0.0
  0
LINE
  5
16E
330
1F
100
AcDbEntity
  8
0
  6
SLD-Solid
 62
     7
370
    25
100
AcDbLine
 10
11.8250800871
 20
14.4139250007
 30
0.0
 11
12.79849611
 21
14.4139250007
 31
0.0
  0
LINE
  5
16F
330
1F
100
AcDbEntity
  8
0
  6
SLD-Solid
 62
     7
370
    25
100
AcDbLine
 10
7.3219121329
 20
14.4139250007
 30
0.0
 11
6.34849611
 21
14.4139250007
 31
0.0
  0
LINE
  5
170
330
1F
100
AcDbEntity
  8
0
  6
SLD-Solid
 62
     7
370
    25
100
AcDbLine
 10
12.79849611
 20
8.3841066171
 30
0.0
 11
11.8250800871
 21
8.3841066171
 31
0.0
  0
LINE
  5
171
330
1F
100
AcDbEntity
  8
0
  6
SLD-Solid
 62
     7
370
    25
100
AcDbLine
 10
6.1835869182
 20
14.2423991144
 30
0.0
 11
6.1835869182
 21
8.5556325034
 31
0.0
  0
LINE
  5
172
330
1F
100
AcDbEntity
  8
0
  6
SLD-Solid
 62
     7
370
    25
100
AcDbLine
 10
12.9634053018
 20
14.2423991144
 30
0.0
 11
12.9634053018
 21
8.5556325034
 31
0.0
  0
ARC
  5
173
330
1F
100
AcDbEntity
  8
0
  6
SLD-Solid
 62
     7
370
    25
100
AcDbCircle
 10
12.79849611
 20
14.2490158089
 30
0.0
 40
0.1649091918317058
100
AcDbArc
 50
0.0
 51
90.0
  0
LINE
  5
174
330
1F
100
AcDbEntity
  8
0
  6
SLD-Solid
 62
     7
370
    25
100
AcDbLine
 10
12.9634053018
 20
14.2490158089
 30
0.0
 11
12.9634053018
 21
14.2423991144
 31
0.0
  0
ARC
  5
175
330
1F
100
AcDbEntity
  8
0
  6
SLD-Solid
 62
     7
370
    25
100
AcDbCircle
 10
6.34849611
 20
14.2490158089
 30
0.0
 40
0.1649091918317058
100
AcDbArc
 50
90.0
 51
180.0
  0
LINE
  5
176
330
1F
100
AcDbEntity
  8
0
  6
SLD-Solid
 62
     7
370
    25
100
AcDbLine
 10
6.1835869182
 20
14.2490158089
 30
0.0
 11
6.1835869182
 21
14.2423991144
 31
0.0
  0
ARC
  5
177
330
1F
100
AcDbEntity
  8
0
  6
SLD-Solid
 62
     7
370
    25
100
AcDbCircle
 10
12.79849611
 20
8.5490158089
 30
0.0
 40
0.1649091918317058
100
AcDbArc
 50
270.0
 51
0.0
  0
LINE
  5
178
330
1F
100
AcDbEntity
  8
0
  6
SLD-Solid
 62
     7
370
    25
100
AcDbLine
 10
12.9634053018
 20
8.5556325034
 30
0.0
 11
12.9634053018
 21
8.5490158089
 31
0.0
  0
ARC
  5
179
330
1F
100
AcDbEntity
  8
0
  6
SLD-Solid
 62
     7
370
    25
100
AcDbCircle
 10
6.34849611
 20
8.5490158089
 30
0.0
 40
0.1649091918317058
100
AcDbArc
 50
180.0
 51
270.0
  0
LINE
  5
17A
330
1F
100
AcDbEntity
  8
0
  6
SLD-Solid
 62
     7
370
    25
100
AcDbLine
 10
6.1835869182
 20
8.5556325034
 30
0.0
 11
6.1835869182
 21
8.5490158089
 31
0.0
  0
ARC
  5
17B
330
1F
100
AcDbEntity
  8
0
  6
SLD-Solid
 62
     7
370
    25
100
AcDbCircle
 10
6.34849611
 20
14.2490158089
 30
0.0
 40
0.4000000000000021
100
AcDbArc
 50
90.0
 51
180.0
  0
ARC
  5
17C
330
1F
100
AcDbEntity
  8
0
  6
SLD-Solid
 62
     7
370
    25
100
AcDbCircle
 10
12.79849611
 20
14.2490158089
 30
0.0
 40
0.4000000000000004
100
AcDbArc
 50
0.0
 51
90.0
  0
LINE
  5
17D
330
1F
100
AcDbEntity
  8
0
  6
SLD-Solid
 62
     7
370
    25
100
AcDbLine
 10
6.34849611
 20
14.6490158089
 30
0.0
 11
12.79849611
 21
14.6490158089
 31
0.0
  0
LINE
  5
17E
330
1F
100
AcDbEntity
  8
0
  6
SLD-Solid
 62
     7
370
    25
100
AcDbLine
 10
5.94849611
 20
14.2490158089
 30
0.0
 11
5.94849611
 21
8.5490158089
 31
0.0
  0
ARC
  5
17F
330
1F
100
AcDbEntity
  8
0
  6
SLD-Solid
 62
     7
370
    25
100
AcDbCircle
 10
6.34849611
 20
8.5490158089
 30
0.0
 40
0.4000000000000004
100
AcDbArc
 50
180.0
 51
270.0
  0
LINE
  5
180
330
1F
100
AcDbEntity
  8
0
  6
SLD-Solid
 62
     7
370
    25
100
AcDbLine
 10
13.19849611
 20
14.2490158089
 30
0.0
 11
13.19849611
 21
8.5490158089
 31
0.0
  0
LINE
  5
181
330
1F
100
AcDbEntity
  8
0
  6
SLD-Solid
 62
     7
370
    25
100
AcDbLine
 10
12.79849611
 20
8.1490158089
 30
0.0
 11
6.34849611
 21
8.1490158089
 31
0.0
  0
ARC
  5
182
330
1F
100
AcDbEntity
  8
0
  6
SLD-Solid
 62
     7
370
    25
100
AcDbCircle
 10
12.79849611
 20
8.5490158089
 30
0.0
 40
0.4000000000000004
100
AcDbArc
 50
270.0
 51
0.0
  0
CIRCLE
  5
183
330
1F
100
AcDbEntity
  8
0
  6
SLD-Solid
 62
     8
370
    25
100
AcDbCircle
 10
9.57349611
 20
9.3953282214
 30
0.0
 40
0.2778169399223547
  0
LWPOLYLINE
  5
184
330
1F
100
AcDbEntity
  8
0
  6
SLD-Solid
 62
     8
370
    25
100
AcDbPolyline
 90
        9
 70
   128
 43
0.0
 10
7.1893296114
 20
8.5716066171
 10
7.1918771474
 20
8.5350271817
 10
7.1994218549
 20
8.4998534735
 10
7.2116737952
 20
8.4674371984
 10
7.2281621329
 20
8.4390240956
 10
7.2482532305
 20
8.4157060648
 10
7.2711749985
 20
8.3983792047
 10
7.2960465661
 20
8.387709377
 10
7.3219121329
 20
8.3841066171
  0
LINE
  5
185
330
1F
100
AcDbEntity
  8
0
  6
SLD-Solid
 62
     8
370
    25
100
AcDbLine
 10
7.1893296114
 20
14.2264250007
 30
0.0
 11
7.1893296114
 21
8.5716066171
 31
0.0
  0
LINE
  5
186
330
1F
100
AcDbEntity
  8
0
  6
SLD-Solid
 62
     8
370
    25
100
AcDbLine
 10
11.9576626086
 20
14.2264250007
 30
0.0
 11
11.9576626086
 21
8.5716066171
 31
0.0
  0
LWPOLYLINE
  5
187
330
1F
100
AcDbEntity
  8
0
  6
SLD-Solid
 62
     8
370
    25
100
AcDbPolyline
 90
        9
 70
   128
 43
0.0
 10
11.9576626086
 20
14.2264250007
 10
11.9551150726
 20
14.2630044361
 10
11.9475703651
 20
14.2981781443
 10
11.9353184248
 20
14.3305944194
 10
11.9188300871
 20
14.3590075222
 10
11.8987389894
 20
14.382325553
 10
11.8758172215
 20
14.3996524131
 10
11.8509456539
 20
14.4103222408
 10
11.8250800871
 20
14.4139250007
  0
LWPOLYLINE
  5
188
330
1F
100
AcDbEntity
  8
0
  6
SLD-Solid
 62
     8
370
    25
100
AcDbPolyline
 90
        9
 70
   128
 43
0.0
 10
7.1893296114
 20
14.2264250007
 10
7.1918771474
 20
14.2630044361
 10
7.1994218549
 20
14.2981781443
 10
7.2116737952
 20
14.3305944194
 10
7.2281621329
 20
14.3590075222
 10
7.2482532305
 20
14.382325553
 10
7.2711749985
 20
14.3996524131
 10
7.2960465661
 20
14.4103222408
 10
7.3219121329
 20
14.4139250007
  0
LWPOLYLINE
  5
189
330
1F
100
AcDbEntity
  8
0
  6
SLD-Solid
 62
     8
370
    25
100
AcDbPolyline
 90
        9
 70
   128
 43
0.0
 10
11.9576626086
 20
8.5716066171
 10
11.9551150726
 20
8.5350271817
 10
11.9475703651
 20
8.4998534735
 10
11.9353184248
 20
8.4674371984
 10
11.9188300871
 20
8.4390240956
 10
11.8987389894
 20
8.4157060648
 10
11.8758172215
 20
8.3983792047
 10
11.8509456539
 20
8.387709377
 10
11.8250800871
 20
8.3841066171
  0
ELLIPSE
  5
18A
330
1F
100
AcDbEntity
  8
0
  6
SLD-Solid
 62
     8
370
    25
100
AcDbEllipse
 10
12.79849611
 20
8.5716066171
 30
0.0
 11
0.0
 21
0.1875
 31
0.0
210
0.0
220
0.0
230
1.0
 40
0.6219115084
 41
3.141592653589793
 42
3.926990816987244
  0
DIMENSION
  5
18B
330
1F
100
AcDbEntity
  8
DIMS
100
AcDbDimension
  2
_D
 10
13.19849611
 20
15.5151575412
 30
0.0
 11
9.57349611
 21
15.5151575412
 31
0.0
 70
   160
  1
<>
 71
     2
 42
-1.0
  3
SLDDIMSTYLE0
100
AcDbAlignedDimension
 13
5.94849611
 23
14.2490158089
 33
0.0
 14
13.19849611
 24
14.2490158089
 34
0.0
 50
0.0
100
AcDbRotatedDimension
  0
MTEXT
  5
1A1
330
1F
100
AcDbEntity
  8
NOTES
100
AcDbMText
 10
7.998133852
 20
7.7131898345
 30
0.0
 40
0.5
 41
0.0
 71
     1
 72
     1
  1
Front view
  7
SLDTEXTSTYLE1
 73
     1
 44
1.0
  0
INSERT
  5
1A7
102
{ACAD_REACTORS
330
1A9
102
}
330
1F
100
AcDbEntity
  8
NOTES
100
AcDbBlockReference
  2
SW_NOTE_0_2
 10
14.4094488189
 20
13.5442913416
 30
0.0
  0
LEADER
  5
1A9
330
1F
100
AcDbEntity
  8
NOTES
100
AcDbLeader
  3
SLDDIMSTYLE1
 73
     2
 76
     3
 10
9.9511414409
 20
10.9174917774
 30
0.0
 10
13.9094488189
 20
13.5442913416
 30
0.0
 10
14.4094488189
 20
13.5442913416
 30
0.0
340
1A7
  0
ARC
  5
1AA
330
1F
100
AcDbEntity
  8
0
  6
SLD-Solid
 62
     7
370
    25
100
AcDbCircle
 10
20.2114508297
 20
13.9854676613
 30
0.0
 40
0.0250000000000012
100
AcDbArc
 50
107.2750262232
 51
163.4861978944
  0
ARC
  5
1AB
330
1F
100
AcDbEntity
  8
0
  6
SLD-Solid
 62
     7
370
    25
100
AcDbCircle
 10
20.2114508293
 20
13.4367733301
 30
0.0
 40
0.0249999999999992
100
AcDbArc
 50
201.123043372
 51
253.0547969733
  0
ARC
  5
1AC
330
1F
100
AcDbEntity
  8
0
  6
SLD-Solid
 62
     7
370
    25
100
AcDbCircle
 10
20.9055923974
 20
13.711120504
 30
0.0
 40
0.7713905752349238
100
AcDbArc
 50
158.587160696
 51
201.5495850463
  0
LINE
  5
1AD
330
1F
100
AcDbEntity
  8
0
  6
SLD-Solid
 62
     7
370
    25
100
AcDbLine
 10
20.2042018222
 20
9.8216066171
 30
0.0
 11
19.9542018222
 21
9.8216066171
 31
0.0
  0
LINE
  5
1AE
330
1F
100
AcDbEntity
  8
0
  6
SLD-Solid
 62
     7
370
    25
100
AcDbLine
 10
19.9542018222
 20
8.9466066171
 30
0.0
 11
20.2042018222
 21
8.9466066171
 31
0.0
  0
ARC
  5
1AF
330
1F
100
AcDbEntity
  8
0
  6
SLD-Solid
 62
     7
370
    25
100
AcDbCircle
 10
20.1942018222
 20
10.5491066171
 30
0.0
 40
0.2899999999999991
100
AcDbArc
 50
180.0
 51
270.0
  0
ARC
  5
1B0
330
1F
100
AcDbEntity
  8
0
  6
SLD-Solid
 62
     7
370
    25
100
AcDbCircle
 10
20.1942018222
 20
10.8441066171
 30
0.0
 40
0.2899999999999991
100
AcDbArc
 50
90.0
 51
180.0
  0
LINE
  5
1B1
330
1F
100
AcDbEntity
  8
0
  6
SLD-Solid
 62
     7
370
    25
100
AcDbLine
 10
20.2042018222
 20
11.1341066171
 30
0.0
 11
20.1942018222
 21
11.1341066171
 31
0.0
  0
LINE
  5
1B2
330
1F
100
AcDbEntity
  8
0
  6
SLD-Solid
 62
     7
370
    25
100
AcDbLine
 10
20.1942018222
 20
10.2591066171
 30
0.0
 11
20.2042018222
 21
10.2591066171
 31
0.0
  0
LINE
  5
1B3
330
1F
100
AcDbEntity
  8
0
  6
SLD-Solid
 62
     7
370
    25
100
AcDbLine
 10
19.5224026419
 20
8.8328282214
 30
0.0
 11
19.5224026419
 21
8.7328282214
 31
0.0
  0
LINE
  5
1B4
330
1F
100
AcDbEntity
  8
0
  6
SLD-Solid
 62
     7
370
    25
100
AcDbLine
 10
19.7224026419
 20
8.7328282214
 30
0.0
 11
19.7224026419
 21
8.8328282214
 31
0.0
  0
ARC
  5
1B5
330
1F
100
AcDbEntity
  8
0
  6
SLD-Solid
 62
     7
370
    25
100
AcDbCircle
 10
19.6974026419
 20
8.7328282214
 30
0.0
 40
0.0250000000000021
100
AcDbArc
 50
270.0
 51
0.0
  0
ARC
  5
1B6
330
1F
100
AcDbEntity
  8
0
  6
SLD-Solid
 62
     7
370
    25
100
AcDbCircle
 10
19.5474026419
 20
8.7328282214
 30
0.0
 40
0.0250000000000021
100
AcDbArc
 50
180.0
 51
270.0
  0
LINE
  5
1B7
330
1F
100
AcDbEntity
  8
0
  6
SLD-Solid
 62
     7
370
    25
100
AcDbLine
 10
23.0792018222
 20
8.5490158089
 30
0.0
 11
23.0792018222
 21
8.1490158089
 31
0.0
  0
LINE
  5
1B8
330
1F
100
AcDbEntity
  8
0
  6
SLD-Solid
 62
     7
370
    25
100
AcDbLine
 10
23.0792018222
 20
8.1490158089
 30
0.0
 11
22.6897706717
 21
8.1490158089
 31
0.0
  0
LINE
  5
1B9
330
1F
100
AcDbEntity
  8
0
  6
SLD-Solid
 62
     7
370
    25
100
AcDbLine
 10
22.6897706717
 20
8.5490158089
 30
0.0
 11
22.6897706717
 21
8.1490158089
 31
0.0
  0
LINE
  5
1BA
330
1F
100
AcDbEntity
  8
0
  6
SLD-Solid
 62
     7
370
    25
100
AcDbLine
 10
22.6897706717
 20
14.2490158089
 30
0.0
 11
22.6897706717
 21
8.5490158089
 31
0.0
  0
LINE
  5
1BB
330
1F
100
AcDbEntity
  8
0
  6
SLD-Solid
 62
     7
370
    25
100
AcDbLine
 10
23.0792018222
 20
8.5490158089
 30
0.0
 11
23.0792018222
 21
14.2490158089
 31
0.0
  0
ARC
  5
1BC
330
1F
100
AcDbEntity
  8
0
  6
SLD-Solid
 62
     7
370
    25
100
AcDbCircle
 10
22.6897706717
 20
8.2290158089
 30
0.0
 40
0.0800000000000011
100
AcDbArc
 50
208.0
 51
270.0
  0
LINE
  5
1BD
330
1F
100
AcDbEntity
  8
0
  6
SLD-Solid
 62
     7
370
    25
100
AcDbLine
 10
22.6897706717
 20
14.6490158089
 30
0.0
 11
22.6897706717
 21
14.2490158089
 31
0.0
  0
LINE
  5
1BE
330
1F
100
AcDbEntity
  8
0
  6
SLD-Solid
 62
     7
370
    25
100
AcDbLine
 10
22.6897706717
 20
14.6490158089
 30
0.0
 11
23.0792018222
 21
14.6490158089
 31
0.0
  0
LINE
  5
1BF
330
1F
100
AcDbEntity
  8
0
  6
SLD-Solid
 62
     7
370
    25
100
AcDbLine
 10
23.0792018222
 20
14.6490158089
 30
0.0
 11
23.0792018222
 21
14.2490158089
 31
0.0
  0
ARC
  5
1C0
330
1F
100
AcDbEntity
  8
0
  6
SLD-Solid
 62
     7
370
    25
100
AcDbCircle
 10
22.6897706717
 20
14.5690158089
 30
0.0
 40
0.0800000000000019
100
AcDbArc
 50
90.0
 51
152.0
  0
LINE
  5
1C1
330
1F
100
AcDbEntity
  8
0
  6
SLD-Solid
 62
     7
370
    25
100
AcDbLine
 10
22.6191348643
 20
8.1914580839
 30
0.0
 11
22.5392687801
 21
8.3416643421
 31
0.0
  0
LINE
  5
1C2
330
1F
100
AcDbEntity
  8
0
  6
SLD-Solid
 62
     7
370
    25
100
AcDbLine
 10
22.6191348643
 20
14.6065735339
 30
0.0
 11
22.5392687801
 21
14.4563672757
 31
0.0
  0
ARC
  5
1C3
330
1F
100
AcDbEntity
  8
0
  6
SLD-Solid
 62
     7
370
    25
100
AcDbCircle
 10
22.4686329727
 20
14.4939250007
 30
0.0
 40
0.0800000000000003
100
AcDbArc
 50
270.0
 51
332.0
  0
ARC
  5
1C4
330
1F
100
AcDbEntity
  8
0
  6
SLD-Solid
 62
     7
370
    25
100
AcDbCircle
 10
22.4686329727
 20
8.3041066171
 30
0.0
 40
0.0800000000000001
100
AcDbArc
 50
28.0
 51
90.0
  0
LINE
  5
1C5
330
1F
100
AcDbEntity
  8
0
  6
SLD-Solid
 62
     7
370
    25
100
AcDbLine
 10
21.3651178451
 20
14.4139250007
 30
0.0
 11
22.4686329727
 21
14.4139250007
 31
0.0
  0
LINE
  5
1C6
330
1F
100
AcDbEntity
  8
0
  6
SLD-Solid
 62
     7
370
    25
100
AcDbLine
 10
21.3651178451
 20
8.3841066171
 30
0.0
 11
22.4686329727
 21
8.3841066171
 31
0.0
  0
ELLIPSE
  5
1C7
330
1F
100
AcDbEntity
  8
0
  6
SLD-Solid
 62
     7
370
    25
100
AcDbEllipse
 10
21.3651178451
 20
14.2264250007
 30
0.0
 11
0.0
 21
0.1875
 31
0.0
210
0.0
220
0.0
230
1.0
 40
0.792302054
 41
0.0
 42
0.7853981633974519
  0
LINE
  5
1C8
330
1F
100
AcDbEntity
  8
0
  6
SLD-Solid
 62
     7
370
    25
100
AcDbLine
 10
21.2099445155
 20
8.5716066171
 30
0.0
 11
21.2099445155
 21
14.2264250007
 31
0.0
  0
ELLIPSE
  5
1C9
330
1F
100
AcDbEntity
  8
0
  6
SLD-Solid
 62
     7
370
    25
100
AcDbEllipse
 10
21.3425270369
 20
14.2264250007
 30
0.0
 11
0.0312897229188458
 21
0.1862268666691431
 31
0.0
210
0.0
220
0.0
230
1.0
 40
0.6971277756
 41
0.9019978417193045
 42
1.68739600511672
  0
ELLIPSE
  5
1CA
330
1F
100
AcDbEntity
  8
0
  6
SLD-Solid
 62
     7
370
    25
100
AcDbEllipse
 10
21.3425270369
 20
8.5716066171
 30
0.0
 11
-0.0312897229188458
 21
0.1862268666691431
 31
0.0
210
0.0
220
0.0
230
1.0
 40
0.6971277756
 41
1.454196648473067
 42
2.239594811870551
  0
ELLIPSE
  5
1CB
330
1F
100
AcDbEntity
  8
0
  6
SLD-Solid
 62
     7
370
    25
100
AcDbEllipse
 10
21.3651178451
 20
8.5716066171
 30
0.0
 11
0.0
 21
0.1875
 31
0.0
210
0.0
220
0.0
230
1.0
 40
0.792302054
 41
2.356194490192361
 42
3.141592653589793
  0
LINE
  5
1CC
330
1F
100
AcDbEntity
  8
0
  6
SLD-Solid
 62
     7
370
    25
100
AcDbLine
 10
20.3917018222
 20
14.4139250007
 30
0.0
 11
21.3651178451
 21
14.4139250007
 31
0.0
  0
LINE
  5
1CD
330
1F
100
AcDbEntity
  8
0
  6
SLD-Solid
 62
     7
370
    25
100
AcDbLine
 10
21.3651178451
 20
8.3841066171
 30
0.0
 11
20.3917018222
 21
8.3841066171
 31
0.0
  0
ARC
  5
1CE
330
1F
100
AcDbEntity
  8
0
  6
SLD-Solid
 62
     7
370
    25
100
AcDbCircle
 10
20.3917018222
 20
8.5716066171
 30
0.0
 40
0.1875
100
AcDbArc
 50
180.0
 51
270.0
  0
ARC
  5
1CF
330
1F
100
AcDbEntity
  8
0
  6
SLD-Solid
 62
     7
370
    25
100
AcDbCircle
 10
20.3917018222
 20
14.2264250007
 30
0.0
 40
0.1875
100
AcDbArc
 50
90.0
 51
180.0
  0
LINE
  5
1D0
330
1F
100
AcDbEntity
  8
0
  6
SLD-Solid
 62
     7
370
    25
100
AcDbLine
 10
20.2042018222
 20
8.5716066171
 30
0.0
 11
20.2042018222
 21
14.2264250007
 31
0.0
  0
LINE
  5
1D1
330
1F
100
AcDbEntity
  8
0
  6
SLD-Solid
 62
     7
370
    25
100
AcDbLine
 10
19.4342018222
 20
9.9578282214
 30
0.0
 11
19.9542018222
 21
9.9578282214
 31
0.0
  0
LINE
  5
1D2
330
1F
100
AcDbEntity
  8
0
  6
SLD-Solid
 62
     7
370
    25
100
AcDbLine
 10
19.9542018222
 20
9.9578282214
 30
0.0
 11
19.9542018222
 21
9.8351052598
 31
0.0
  0
ARC
  5
1D3
330
1F
100
AcDbEntity
  8
0
  6
SLD-Solid
 62
     7
370
    25
100
AcDbCircle
 10
19.4342018222
 20
9.8578282214
 30
0.0
 40
0.0999999999999996
100
AcDbArc
 50
90.0
 51
180.0
  0
LINE
  5
1D4
330
1F
100
AcDbEntity
  8
0
  6
SLD-Solid
 62
     7
370
    25
100
AcDbLine
 10
19.9542018222
 20
8.9101052598
 30
0.0
 11
19.9542018222
 21
9.8351052598
 31
0.0
  0
LINE
  5
1D5
330
1F
100
AcDbEntity
  8
0
  6
SLD-Solid
 62
     7
370
    25
100
AcDbLine
 10
19.3342018222
 20
8.9328282214
 30
0.0
 11
19.3342018222
 21
9.8578282214
 31
0.0
  0
LINE
  5
1D6
330
1F
100
AcDbEntity
  8
0
  6
SLD-Solid
 62
     7
370
    25
100
AcDbLine
 10
19.9542018222
 20
8.8328282214
 30
0.0
 11
19.4342018222
 21
8.8328282214
 31
0.0
  0
LINE
  5
1D7
330
1F
100
AcDbEntity
  8
0
  6
SLD-Solid
 62
     7
370
    25
100
AcDbLine
 10
19.9542018222
 20
8.9101052598
 30
0.0
 11
19.9542018222
 21
8.8328282214
 31
0.0
  0
ARC
  5
1D8
330
1F
100
AcDbEntity
  8
0
  6
SLD-Solid
 62
     7
370
    25
100
AcDbCircle
 10
19.4342018222
 20
8.9328282214
 30
0.0
 40
0.0999999999999996
100
AcDbArc
 50
180.0
 51
270.0
  0
LINE
  5
1D9
330
1F
100
AcDbEntity
  8
0
  6
SLD-Solid
 62
     7
370
    25
100
AcDbLine
 10
19.9042018222
 20
10.6966066171
 30
0.0
 11
19.9042018222
 21
10.8441066171
 31
0.0
  0
LINE
  5
1DA
330
1F
100
AcDbEntity
  8
0
  6
SLD-Solid
 62
     7
370
    25
100
AcDbLine
 10
19.9042018222
 20
10.5491066171
 30
0.0
 11
19.9042018222
 21
10.6966066171
 31
0.0
  0
LINE
  5
1DB
330
1F
100
AcDbEntity
  8
0
  6
SLD-Solid
 62
     7
370
    25
100
AcDbLine
 10
19.6224026419
 20
8.7078282214
 30
0.0
 11
19.5474026419
 21
8.7078282214
 31
0.0
  0
LINE
  5
1DC
330
1F
100
AcDbEntity
  8
0
  6
SLD-Solid
 62
     7
370
    25
100
AcDbLine
 10
19.6974026419
 20
8.7078282214
 30
0.0
 11
19.6224026419
 21
8.7078282214
 31
0.0
  0
DIMENSION
  5
1DD
330
1F
100
AcDbEntity
  8
DIMS
100
AcDbDimension
  2
_D_1
 10
24.1815640269
 20
8.1490158089
 30
0.0
 11
24.1815640269
 21
11.5477060989
 31
0.0
 70
   160
  1
<>
 71
     2
 42
-1.0
  3
SLDDIMSTYLE0
100
AcDbAlignedDimension
 13
23.0792018222
 23
14.6490158089
 33
0.0
 14
23.0792018222
 24
8.1490158089
 34
0.0
 50
90.0
100
AcDbRotatedDimension
  0
MTEXT
  5
1EC
330
1F
100
AcDbEntity
  8
NOTES
100
AcDbMText
 10
20.0852170757
 20
7.6150302613
 30
0.0
 40
0.5
 41
0.0
 71
     1
 72
     1
  1
Side view
  7
SLDTEXTSTYLE1
 73
     1
 44
1.0
  0
SPLINE
  5
1ED
330
1F
100
AcDbEntity
  8
0
  6
SLD-Solid
 62
     7
370
    25
100
AcDbSpline
210
0.0
220
0.0
230
1.0
 70
     8
 71
     3
 72
    30
 73
    26
 74
     0
 42
0.00000001
 43
0.00000001
 40
0.0
 40
0.0
 40
0.0
 40
0.0
 40
0.0042464220541298
 40
0.0494179051127173
 40
0.0933297288520483
 40
0.1363877410944745
 40
0.179047119783706
 40
0.2218105288116589
 40
0.2652478058255311
 40
0.3099650188928605
 40
0.3564605997502152
 40
0.4048468994763302
 40
0.4546733082326329
 40
0.5052680106819877
 40
0.5567606065491166
 40
0.6096191894555246
 40
0.6587143804388799
 40
0.7067703537167822
 40
0.7532511091088115
 40
0.7983214375581921
 40
0.8423935271290183
 40
0.8858347592598766
 40
0.9289135500873831
 40
0.9766191497278134
 40
1.0
 40
1.0
 40
1.0
 40
1.0
 10
31.4473796293574
 20
26.03139583422139
 30
0.0
 10
31.44574184607533
 20
26.03061815495646
 30
0.0
 10
31.42668207815853
 20
26.02156788165996
 30
0.0
 10
31.39518775703784
 20
25.99624400131469
 30
0.0
 10
31.35502189336375
 20
25.95671087296101
 30
0.0
 10
31.32299000828306
 20
25.91136007686244
 30
0.0
 10
31.29846896457715
 20
25.86238303992485
 30
0.0
 10
31.28151918000517
 20
25.81021320669206
 30
0.0
 10
31.27204631848884
 20
25.7553806141928
 30
0.0
 10
31.27015170282523
 20
25.69811912622565
 30
0.0
 10
31.27610435013676
 20
25.63875206851499
 30
0.0
 10
31.29022572920002
 20
25.57803249335051
 30
0.0
 10
31.31259530346634
 20
25.51734952674255
 30
0.0
 10
31.34296868719882
 20
25.45830773751548
 30
0.0
 10
31.38104086461214
 20
25.40235020649779
 30
0.0
 10
31.42520003777695
 20
25.35251826077384
 30
0.0
 10
31.47391267503172
 20
25.31030372413288
 30
0.0
 10
31.52519629489343
 20
25.27674888486476
 30
0.0
 10
31.5789682726016
 20
25.25157709421243
 30
0.0
 10
31.63423824063587
 20
25.23503485491962
 30
0.0
 10
31.6901795788098
 20
25.22723428562588
 30
0.0
 10
31.74600442938394
 20
25.228078242094
 30
0.0
 10
31.80236773868511
 20
25.23843735529954
 30
0.0
 10
31.8491290840875
 20
25.25385419308184
 30
0.0
 10
31.87507750574486
 20
25.26967525079119
 30
0.0
 10
31.88361213030856
 20
25.27487891171257
 30
0.0
  0
LINE
  5
1EE
330
1F
100
AcDbEntity
  8
0
  6
SLD-Solid
 62
     7
370
    25
100
AcDbLine
 10
33.397255745
 20
22.8915097855
 30
0.0
 11
34.7608324905
 21
22.8915097855
 31
0.0
  0
LINE
  5
1EF
330
1F
100
AcDbEntity
  8
0
  6
SLD-Solid
 62
     7
370
    25
100
AcDbLine
 10
31.4538307022
 20
26.0356228393
 30
0.0
 11
31.4467596343
 21
26.0315407987
 31
0.0
  0
LINE
  5
1F0
330
1F
100
AcDbEntity
  8
0
  6
SLD-Solid
 62
     7
370
    25
100
AcDbLine
 10
31.8842240799
 20
25.2737480441
 30
0.0
 11
31.8912951477
 21
25.2778300847
 31
0.0
  0
ARC
  5
1F1
330
1F
100
AcDbEntity
  8
0
  6
SLD-Solid
 62
     7
370
    25
100
AcDbCircle
 10
33.397255745
 20
23.0790097855
 30
0.0
 40
0.1875
100
AcDbArc
 50
240.0026882664
 51
270.0
  0
SPLINE
  5
1F2
330
1F
100
AcDbEntity
  8
0
  6
SLD-Solid
 62
     7
370
    25
100
AcDbSpline
210
0.0
220
0.0
230
1.0
 70
     8
 71
     3
 72
    10
 73
     6
 74
     0
 42
0.00000001
 43
0.00000001
 40
0.0
 40
0.0
 40
0.0
 40
0.0
 40
0.3253533662198655
 40
0.671063886952464
 40
1.0
 40
1.0
 40
1.0
 40
1.0
 10
34.76116622240652
 20
22.8916504925921
 30
0.0
 10
34.77201669312133
 20
22.89220137158389
 30
0.0
 10
34.79439654164646
 20
22.89333759771786
 30
0.0
 10
34.82670462944289
 20
22.90248611105267
 30
0.0
 10
34.84661440965518
 20
22.91274308056016
 30
0.0
 10
34.85632178146547
 20
22.91774405071625
 30
0.0
  0
LINE
  5
1F3
330
1F
100
AcDbEntity
  8
0
  6
SLD-Solid
 62
     7
370
    25
100
AcDbLine
 10
30.1192927666
 20
24.7548370472
 30
0.0
 11
30.671400026
 21
24.4361123106
 31
0.0
  0
LINE
  5
1F4
330
1F
100
AcDbEntity
  8
0
  6
SLD-Solid
 62
     7
370
    25
100
AcDbLine
 10
31.7507782167
 20
23.8130005444
 30
0.0
 11
33.3035133638
 21
22.9166256238
 31
0.0
  0
SPLINE
  5
1F5
330
1F
100
AcDbEntity
  8
0
  6
SLD-Solid
 62
     7
370
    25
100
AcDbSpline
210
0.0
220
0.0
230
1.0
 70
     8
 71
     3
 72
    20
 73
    16
 74
     0
 42
0.00000001
 43
0.00000001
 40
0.0
 40
0.0
 40
0.0
 40
0.0
 40
0.053370989346415
 40
0.1349631524065967
 40
0.2148587153152104
 40
0.2948455599656366
 40
0.3755476485180204
 40
0.4569304587927203
 40
0.5387108653476504
 40
0.6205422726544911
 40
0.7019536307723305
 40
0.782588780448772
 40
0.8621794775094108
 40
0.940762390532694
 40
1.0
 40
1.0
 40
1.0
 40
1.0
 10
31.01088996416382
 20
24.46224546655246
 30
0.0
 10
31.0157836947134
 20
24.46187421577373
 30
0.0
 10
31.02815883165743
 20
24.46093540658088
 30
0.0
 10
31.05387720106969
 20
24.45135259920998
 30
0.0
 10
31.08475212046354
 20
24.43331309488324
 30
0.0
 10
31.11633243048317
 20
24.40766857669061
 30
0.0
 10
31.14689024860096
 20
24.37548072781638
 30
0.0
 10
31.17500676948347
 20
24.33787462625668
 30
0.0
 10
31.1992667719312
 20
24.296482442406
 30
0.0
 10
31.21850090149191
 20
24.2532155400939
 30
0.0
 10
31.23185517650524
 20
24.21020871006338
 30
0.0
 10
31.238937569918
 20
24.16954053745663
 30
0.0
 10
31.23971949273603
 20
24.13363917402656
 30
0.0
 10
31.23566159856493
 20
24.10555720365998
 30
0.0
 10
31.230340324313
 20
24.09358419401602
 30
0.0
 10
31.22805314994804
 20
24.08843799041282
 30
0.0
  0
LINE
  5
1F6
330
1F
100
AcDbEntity
  8
0
  6
SLD-Solid
 62
     7
370
    25
100
AcDbLine
 10
34.8563217815
 20
22.9177440507
 30
0.0
 11
35.6366248113
 21
23.3682034016
 31
0.0
  0
LINE
  5
1F7
330
1F
100
AcDbEntity
  8
0
  6
SLD-Solid
 62
     7
370
    25
100
AcDbLine
 10
30.5884679189
 20
24.8944177236
 30
0.0
 11
30.7410851325
 21
24.0510134305
 31
0.0
  0
ARC
  5
1F8
330
1F
100
AcDbEntity
  8
0
  6
SLD-Solid
 62
     7
370
    25
100
AcDbCircle
 10
31.4166943478
 20
23.7356049582
 30
0.0
 40
0.0999999999999975
100
AcDbArc
 50
240.0026882663
 51
299.9973117337
  0
LINE
  5
1F9
330
1F
100
AcDbEntity
  8
0
  6
SLD-Solid
 62
     7
370
    25
100
AcDbLine
 10
30.7894911224
 20
23.982214747
 30
0.0
 11
31.3666984111
 21
23.6490000719
 31
0.0
  0
ARC
  5
1FA
330
1F
100
AcDbEntity
  8
0
  6
SLD-Solid
 62
     7
370
    25
100
AcDbCircle
 10
30.6868698454
 20
24.9122239263
 30
0.0
 40
0.1000000000000002
100
AcDbArc
 50
119.9973117336
 51
190.2568986903
  0
LINE
  5
1FB
330
1F
100
AcDbEntity
  8
0
  6
SLD-Solid
 62
     7
370
    25
100
AcDbLine
 10
31.4666902844
 20
23.6490000719
 30
0.0
 11
31.8343858106
 21
23.861266181
 31
0.0
  0
SPLINE
  5
1FC
330
1F
100
AcDbEntity
  8
0
  6
SLD-Solid
 62
     7
370
    25
100
AcDbSpline
210
0.0
220
0.0
230
1.0
 70
     8
 71
     3
 72
    10
 73
     6
 74
     0
 42
0.00000001
 43
0.00000001
 40
0.0
 40
0.0
 40
0.0
 40
0.0
 40
0.2620542169847036
 40
0.7282952305110211
 40
1.0
 40
1.0
 40
1.0
 40
1.0
 10
30.13058725271585
 20
30.4905816750572
 30
0.0
 10
30.12382034855608
 20
30.48634626191034
 30
0.0
 10
30.10501391955984
 20
30.47457529623161
 30
0.0
 10
30.08206878632285
 20
30.45382688211429
 30
0.0
 10
30.06818244941986
 20
30.43587823567105
 30
0.0
 10
30.06306962940771
 20
30.42926971109276
 30
0.0
  0
LINE
  5
1FD
330
1F
100
AcDbEntity
  8
0
  6
SLD-Solid
 62
     7
370
    25
100
AcDbLine
 10
31.004569435
 20
25.2110949216
 30
0.0
 11
30.6368739088
 21
24.9988288126
 31
0.0
  0
SPLINE
  5
1FE
330
1F
100
AcDbEntity
  8
0
  6
SLD-Solid
 62
     7
370
    25
100
AcDbSpline
210
0.0
220
0.0
230
1.0
 70
     8
 71
     3
 72
    11
 73
     7
 74
     0
 42
0.00000001
 43
0.00000001
 40
0.0
 40
0.0
 40
0.0
 40
0.0
 40
0.2729870689541789
 40
0.5936655457798673
 40
0.9350614256557342
 40
0.9999999999999999
 40
0.9999999999999999
 40
0.9999999999999999
 40
0.9999999999999999
 10
30.06306962940771
 20
30.42926971109276
 30
0.0
 10
30.05685838843424
 20
30.41958979828615
 30
0.0
 10
30.04335078979003
 20
30.39853887180288
 30
0.0
 10
30.03034753505738
 20
30.36108511118514
 30
0.0
 10
30.02577824189742
 20
30.33066840414553
 30
0.0
 10
30.02556864466605
 20
30.31360036041057
 30
0.0
 10
30.02553514776405
 20
30.31087262119111
 30
0.0
  0
LINE
  5
1FF
330
1F
100
AcDbEntity
  8
0
  6
SLD-Solid
 62
     7
370
    25
100
AcDbLine
 10
30.9108902826
 20
30.9410410259
 30
0.0
 11
30.1305872527
 21
30.4905816751
 31
0.0
  0
SPLINE
  5
200
330
1F
100
AcDbEntity
  8
0
  6
SLD-Solid
 62
     7
370
    25
100
AcDbSpline
210
0.0
220
0.0
230
1.0
 70
     8
 71
     3
 72
    13
 73
     9
 74
     0
 42
0.00000001
 43
0.00000001
 40
0.0
 40
0.0
 40
0.0
 40
0.0
 40
0.1125690421872879
 40
0.3214040293057777
 40
0.5058916328668958
 40
0.6825574025855944
 40
0.853385299597611
 40
1.0
 40
1.0
 40
1.0
 40
1.0
 10
35.67054813353922
 20
23.27071515640877
 30
0.0
 10
35.67943903227249
 20
23.26586662032858
 30
0.0
 10
35.7048240814965
 20
23.25202321363231
 30
0.0
 10
35.74597513816406
 20
23.2369994615926
 30
0.0
 10
35.79296356042145
 20
23.22845797045285
 30
0.0
 10
35.83656225148267
 20
23.22930657193345
 30
0.0
 10
35.87624126058182
 20
23.23740972256673
 30
0.0
 10
35.89890882076701
 20
23.24955464815706
 30
0.0
 10
35.90937810741118
 20
23.25516392883123
 30
0.0
  0
LINE
  5
201
330
1F
100
AcDbEntity
  8
0
  6
SLD-Solid
 62
     7
370
    25
100
AcDbLine
 10
35.9105286294
 20
23.2548725803
 30
0.0
 11
36.1858980367
 21
23.4138399554
 31
0.0
  0
ARC
  5
202
330
1F
100
AcDbEntity
  8
0
  6
SLD-Solid
 62
     7
370
    25
100
AcDbCircle
 10
30.839487059
 20
24.0688196333
 30
0.0
 40
0.1000000000000019
100
AcDbArc
 50
190.2568986903
 51
240.0026882664
  0
SPLINE
  5
203
330
1F
100
AcDbEntity
  8
0
  6
SLD-Solid
 62
     7
370
    25
100
AcDbSpline
210
0.0
220
0.0
230
1.0
 70
     8
 71
     3
 72
    14
 73
    10
 74
     0
 42
0.00000001
 43
0.00000001
 40
0.0
 40
0.0
 40
0.0
 40
0.0
 40
0.0485263742236752
 40
0.2221699268459215
 40
0.3944096601026115
 40
0.5698495581606688
 40
0.7522414610967887
 40
0.9427189874646511
 40
1.0
 40
1.0
 40
1.0
 40
1.0
 10
30.95385614815705
 20
31.23604944395148
 30
0.0
 10
30.95020489377389
 20
31.23439891676537
 30
0.0
 10
30.9334882333561
 20
31.22684225278501
 30
0.0
 10
30.90880427869846
 20
31.20464656410977
 30
0.0
 10
30.88157071307857
 20
31.17106801082533
 30
0.0
 10
30.86155911690502
 20
31.13096131581398
 30
0.0
 10
30.84842630302721
 20
31.08549481631088
 30
0.0
 10
30.84379895224546
 20
31.04723017603746
 30
0.0
 10
30.84350088617168
 20
31.02439551492274
 30
0.0
 10
30.84343197421174
 20
31.01911621147131
 30
0.0
  0
LINE
  5
204
330
1F
100
AcDbEntity
  8
0
  6
SLD-Solid
 62
     7
370
    25
100
AcDbLine
 10
35.5691500267
 20
23.3292510375
 30
0.0
 11
35.6705481335
 21
23.2707151564
 31
0.0
  0
LINE
  5
205
330
1F
100
AcDbEntity
  8
0
  6
SLD-Solid
 62
     7
370
    25
100
AcDbLine
 10
31.225091805
 20
31.3938778337
 30
0.0
 11
30.9497223977
 21
31.2349104585
 31
0.0
  0
LINE
  5
206
330
1F
100
AcDbEntity
  8
0
  6
SLD-Solid
 62
     7
370
    25
100
AcDbLine
 10
30.8434319742
 20
31.0191162115
 30
0.0
 11
30.8434319742
 21
30.9020981734
 31
0.0
  0
ARC
  5
207
330
1F
100
AcDbEntity
  8
0
  6
SLD-Solid
 62
     7
370
    25
100
AcDbCircle
 10
30.2130351478
 20
24.9172212089
 30
0.0
 40
0.1875
100
AcDbArc
 50
180.0
 51
240.0026882664
  0
SPLINE
  5
208
330
1F
100
AcDbEntity
  8
0
  6
SLD-Solid
 62
     7
370
    25
100
AcDbSpline
210
0.0
220
0.0
230
1.0
 70
     8
 71
     3
 72
    25
 73
    21
 74
     0
 42
0.00000001
 43
0.00000001
 40
0.0
 40
0.0
 40
0.0
 40
0.0
 40
0.0126259001721909
 40
0.0311445415512629
 40
0.0499834013735911
 40
0.0831391075436101
 40
0.1167441815681962
 40
0.1470824450381581
 40
0.1775176198680766
 40
0.2388392478052612
 40
0.2990169071014332
 40
0.3593508231682133
 40
0.4194132343874555
 40
0.479549952472623
 40
0.5398693681437895
 40
0.60023613776187
 40
0.7203584344229987
 40
0.8407466359605862
 40
0.9608818231750467
 40
1.0
 40
1.0
 40
1.0
 40
1.0
 10
31.73506401614254
 20
28.04216177830966
 30
0.0
 10
31.73679763949144
 20
28.03747726313645
 30
0.0
 10
31.7410740002806
 20
28.02592188288874
 30
0.0
 10
31.75008948776128
 20
28.00774357830571
 30
0.0
 10
31.76436631088442
 20
27.98301800512625
 30
0.0
 10
31.78379648562253
 20
27.95450500833244
 30
0.0
 10
31.80740859328662
 20
27.92408325962955
 30
0.0
 10
31.83132153498536
 20
27.89596172358734
 30
0.0
 10
31.86307796174527
 20
27.8610995609385
 30
0.0
 10
31.90373107257114
 20
27.82013953366235
 30
0.0
 10
31.95341894449446
 20
27.77412172670184
 30
0.0
 10
32.0034519986372
 20
27.73085055101536
 30
0.0
 10
32.05394989528016
 20
27.68966380602019
 30
0.0
 10
32.10478924581663
 20
27.65030909874782
 30
0.0
 10
32.15597095788153
 20
27.61254603291984
 30
0.0
 10
32.22438494974675
 20
27.56432106763836
 30
0.0
 10
32.31022993370384
 20
27.50756655404475
 30
0.0
 10
32.41337922965869
 20
27.4453246836665
 30
0.0
 10
32.49346013463322
 20
27.39998263327345
 30
0.0
 10
32.53895293692209
 20
27.37747175181721
 30
0.0
 10
32.55012755477041
 20
27.37194229473728
 30
0.0
  0
ELLIPSE
  5
209
330
1F
100
AcDbEntity
  8
0
  6
SLD-Solid
 62
     7
370
    25
100
AcDbEllipse
 10
32.4313012818
 20
27.6801897485
 30
0.0
 11
0.6982763835041438
 21
-0.4414766190748161
 31
0.0
210
0.0
220
0.0
230
1.0
 40
0.2523363384
 41
0.1582033314707027
 42
3.481742293978351
  0
ELLIPSE
  5
20A
330
1F
100
AcDbEntity
  8
0
  6
SLD-Solid
 62
     7
370
    25
100
AcDbEllipse
 10
32.4313012818
 20
27.6801897485
 30
0.0
 11
0.6982763835041438
 21
-0.4414766190748161
 31
0.0
210
0.0
220
0.0
230
1.0
 40
0.2523363384
 41
5.056619615507016
 42
6.441388638650317
  0
LINE
  5
20B
330
1F
100
AcDbEntity
  8
0
  6
SLD-Solid
 62
     7
370
    25
100
AcDbLine
 10
31.257137691
 20
29.3094772676
 30
0.0
 11
32.3531532018
 21
29.9421935543
 31
0.0
  0
LINE
  5
20C
330
1F
100
AcDbEntity
  8
0
  6
SLD-Solid
 62
     7
370
    25
100
AcDbLine
 10
31.257137691
 20
29.3094772676
 30
0.0
 11
32.759739601
 21
28.4420436488
 31
0.0
  0
LINE
  5
20D
330
1F
100
AcDbEntity
  8
0
  6
SLD-Solid
 62
     7
370
    25
100
AcDbLine
 10
33.8557551118
 20
29.0747599354
 30
0.0
 11
32.3531532018
 21
29.9421935543
 31
0.0
  0
LWPOLYLINE
  5
20E
330
1F
100
AcDbEntity
  8
0
  6
SLD-Solid
 62
     7
370
    25
100
AcDbPolyline
 90
       16
 70
   128
 43
0.0
 10
31.9819221417
 20
25.4781371875
 10
31.9779160211
 20
25.5377546531
 10
31.9660014157
 20
25.6004534261
 10
31.9464869075
 20
25.6646096411
 10
31.9198779121
 20
25.728561686
 10
31.8868635884
 20
25.7906532363
 10
31.84829899
 20
25.8492761534
 10
31.8051829199
 20
25.9029121347
 10
31.7586320616
 20
25.9501720364
 10
31.7098520579
 20
25.9898318519
 10
31.6601062852
 20
26.0208644127
 10
31.610683133
 20
26.0424659919
 10
31.5628626348
 20
26.0540771198
 10
31.5178833165
 20
26.0553970745
 10
31.4769101189
 20
26.0463916697
 10
31.4538307022
 20
26.0356228393
  0
ARC
  5
20F
330
1F
100
AcDbEntity
  8
0
  6
SLD-Solid
 62
     7
370
    25
100
AcDbCircle
 10
31.7602873073
 20
25.4577585046
 30
0.0
 40
0.2225697430375878
100
AcDbArc
 50
306.0587702918
 51
5.2534101016
  0
LINE
  5
210
330
1F
100
AcDbEntity
  8
0
  6
SLD-Solid
 62
     7
370
    25
100
AcDbLine
 10
31.9819221417
 20
24.4064273719
 30
0.0
 11
31.9802324358
 21
24.4446892776
 31
0.0
  0
LWPOLYLINE
  5
211
330
1F
100
AcDbEntity
  8
0
  6
SLD-Solid
 62
     7
370
    25
100
AcDbPolyline
 90
       11
 70
   128
 43
0.0
 10
31.8806305419
 20
24.7292668444
 10
31.84829899
 20
24.7775663378
 10
31.8051829199
 20
24.8312023191
 10
31.7586320616
 20
24.8784622208
 10
31.7098520579
 20
24.9181220363
 10
31.6601062852
 20
24.9491545971
 10
31.610683133
 20
24.9707561763
 10
31.5628626348
 20
24.9823673042
 10
31.5178833165
 20
24.9836872589
 10
31.4769101189
 20
24.9746818541
 10
31.4644953079
 20
24.9694966016
  0
ARC
  5
212
330
1F
100
AcDbEntity
  8
0
  6
SLD-Solid
 62
     7
370
    25
100
AcDbCircle
 10
31.7277813363
 20
24.3922859929
 30
0.0
 40
0.254533941847409
100
AcDbArc
 50
324.179050546
 51
3.1848748281
  0
ARC
  5
213
330
1F
100
AcDbEntity
  8
0
  6
SLD-Solid
 62
     7
370
    25
100
AcDbCircle
 10
35.6572659227
 20
28.2248145969
 30
0.0
 40
0.6120626822136919
100
AcDbArc
 50
2.4763980378
 51
57.5236021078
  0
LINE
  5
214
330
1F
100
AcDbEntity
  8
0
  6
SLD-Solid
 62
     7
370
    25
100
AcDbLine
 10
36.2687570026
 20
23.596977878
 30
0.0
 11
36.2687570026
 21
28.2512605057
 31
0.0
  0
LINE
  5
215
330
1F
100
AcDbEntity
  8
0
  6
SLD-Solid
 62
     7
370
    25
100
AcDbLine
 10
35.9859142902
 20
28.7411584528
 30
0.0
 11
31.4250755515
 21
31.3740746135
 31
0.0
  0
LINE
  5
216
330
1F
100
AcDbEntity
  8
0
  6
SLD-Solid
 62
     7
370
    25
100
AcDbLine
 10
33.7850444337
 20
29.0951701382
 30
0.0
 11
32.7243842619
 21
28.4828640544
 31
0.0
  0
LINE
  5
217
330
1F
100
AcDbEntity
  8
0
  6
SLD-Solid
 62
     7
370
    25
100
AcDbLine
 10
32.7243842619
 20
28.4828640544
 30
0.0
 11
31.3101706996
 21
29.2992721662
 31
0.0
  0
LINE
  5
218
330
1F
100
AcDbEntity
  8
0
  6
SLD-Solid
 62
     7
370
    25
100
AcDbLine
 10
32.3708308713
 20
29.9115782501
 30
0.0
 11
31.3101706996
 21
29.2992721662
 31
0.0
  0
LINE
  5
219
330
1F
100
AcDbEntity
  8
0
  6
SLD-Solid
 62
     7
370
    25
100
AcDbLine
 10
32.3708308713
 20
29.9115782501
 30
0.0
 11
33.7850444337
 21
29.0951701382
 31
0.0
  0
LINE
  5
21A
330
1F
100
AcDbEntity
  8
0
  6
SLD-Solid
 62
     7
370
    25
100
AcDbLine
 10
32.4126732486
 20
29.3030170537
 30
0.0
 11
32.3643438331
 21
29.2751170759
 31
0.0
  0
LINE
  5
21B
330
1F
100
AcDbEntity
  8
0
  6
SLD-Solid
 62
     7
370
    25
100
AcDbLine
 10
32.3643438331
 20
29.2751170759
 30
0.0
 11
32.6825418846
 21
29.0914252508
 31
0.0
  0
LINE
  5
21C
330
1F
100
AcDbEntity
  8
0
  6
SLD-Solid
 62
     7
370
    25
100
AcDbLine
 10
32.6825418846
 20
29.0914252508
 30
0.0
 11
32.7308713002
 21
29.1193252285
 31
0.0
  0
LINE
  5
21D
330
1F
100
AcDbEntity
  8
0
  6
SLD-Solid
 62
     7
370
    25
100
AcDbLine
 10
32.7308713002
 20
29.1193252285
 30
0.0
 11
32.4126732486
 21
29.3030170537
 31
0.0
  0
LINE
  5
21E
330
1F
100
AcDbEntity
  8
0
  6
SLD-Solid
 62
     7
370
    25
100
AcDbLine
 10
30.0255351478
 20
30.3108726212
 30
0.0
 11
30.0255351478
 21
29.534611203
 31
0.0
  0
LINE
  5
21F
330
1F
100
AcDbEntity
  8
0
  6
SLD-Solid
 62
     7
370
    25
100
AcDbLine
 10
30.0255351478
 20
29.534611203
 30
0.0
 11
30.0255351478
 21
24.9172212089
 31
0.0
  0
ARC
  5
220
330
1F
100
AcDbEntity
  8
0
  6
SLD-Solid
 62
     7
370
    25
100
AcDbCircle
 10
31.860424949
 20
24.5721225298
 30
0.0
 40
0.1462521513220484
100
AcDbArc
 50
353.9706287946
 51
58.4238814877
  0
LINE
  5
221
330
1F
100
AcDbEntity
  8
0
  6
SLD-Solid
 62
     7
370
    25
100
AcDbLine
 10
31.9370070876
 20
24.6967213574
 30
0.0
 11
31.0545653717
 21
25.2061441166
 31
0.0
  0
LINE
  5
222
330
1F
100
AcDbEntity
  8
0
  6
SLD-Solid
 62
     7
370
    25
100
AcDbLine
 10
31.8532508463
 20
23.8895642486
 30
0.0
 11
32.0058680599
 21
24.5567604575
 31
0.0
  0
ARC
  5
223
330
1F
100
AcDbEntity
  8
0
  6
SLD-Solid
 62
     7
370
    25
100
AcDbCircle
 10
31.8124779
 20
23.8963084542
 30
0.0
 40
0.0413269579729908
100
AcDbArc
 50
302.0130130782
 51
350.607812642
  0
ARC
  5
224
330
1F
100
AcDbEntity
  8
0
  6
SLD-Solid
 62
     7
370
    25
100
AcDbCircle
 10
31.0254072462
 20
25.1666079773
 30
0.0
 40
0.0491253762911515
100
AcDbArc
 50
53.5910163898
 51
115.0985251811
  0
ARC
  5
225
330
1F
100
AcDbEntity
  8
0
  6
SLD-Solid
 62
     7
370
    25
100
AcDbCircle
 10
36.0741884659
 20
23.5746951871
 30
0.0
 40
0.1958403272672042
100
AcDbArc
 50
304.7789244315
 51
6.5332559619
  0
ARC
  5
226
330
1F
100
AcDbEntity
  8
0
  6
SLD-Solid
 62
     7
370
    25
100
AcDbCircle
 10
31.3085224655
 20
31.2167320408
 30
0.0
 40
0.1958093640227677
100
AcDbArc
 50
53.4704316722
 51
115.2191098987
  0
SPLINE
  5
227
330
1F
100
AcDbEntity
  8
0
  6
SLD-Solid
 62
     8
370
    25
100
AcDbSpline
210
0.0
220
0.0
230
1.0
 70
     8
 71
     3
 72
    43
 73
    39
 74
     0
 42
0.00000001
 43
0.00000001
 40
0.0
 40
0.0
 40
0.0
 40
0.0
 40
0.0102616616308661
 40
0.0167629285830273
 40
0.0234037852294049
 40
0.0286421658778026
 40
0.0442892846629369
 40
0.0603253521489786
 40
0.0759002110120307
 40
0.0915635865838049
 40
0.1225874057678373
 40
0.1538167379786893
 40
0.184728259469011
 40
0.215706691786287
 40
0.2468352653339806
 40
0.2779982397059658
 40
0.3398208836177239
 40
0.4017965709229778
 40
0.4636021980545851
 40
0.5255153698487531
 40
0.5873359979057274
 40
0.6492733130944817
 40
0.7111694609347156
 40
0.7422071753468901
 40
0.7732778553681372
 40
0.8042615109699228
 40
0.8353091474331805
 40
0.8664183780326936
 40
0.8977179124286723
 40
0.9133374128017256
 40
0.9290514196672555
 40
0.9426703010782564
 40
0.9565347532567071
 40
0.9640685509232976
 40
0.9717690550051554
 40
0.9825868165239986
 40
0.993107596905934
 40
0.9999999999999999
 40
0.9999999999999999
 40
0.9999999999999999
 40
0.9999999999999999
 10
33.11655227269175
 20
27.2745596113458
 30
0.0
 10
33.11605795818693
 20
27.28092115004899
 30
0.0
 10
33.11525047115023
 20
27.29131303615824
 30
0.0
 10
33.11046640824092
 20
27.30682933569895
 30
0.0
 10
33.10569195117557
 20
27.31892306648721
 30
0.0
 10
33.09728215167934
 20
27.33682699244979
 30
0.0
 10
33.08383320481005
 20
27.36012326845526
 30
0.0
 10
33.06446602789273
 20
27.38823508549533
 30
0.0
 10
33.04380210217616
 20
27.41494542999807
 30
0.0
 10
33.01549577953522
 20
27.44854424397939
 30
0.0
 10
32.97866276516455
 20
27.48811920498828
 30
0.0
 10
32.93343045980822
 20
27.53241004177418
 30
0.0
 10
32.88745838683769
 20
27.57426540419926
 30
0.0
 10
32.84103079581578
 20
27.6140594555668
 30
0.0
 10
32.79411729193143
 20
27.65220504819931
 30
0.0
 10
32.73134171944851
 20
27.70087663783046
 30
0.0
 10
32.65247620611328
 20
27.7581306718201
 30
0.0
 10
32.5576109693636
 20
27.8217954168658
 30
0.0
 10
32.46250086571771
 20
27.88093178262717
 30
0.0
 10
32.3674424835337
 20
27.9355743080649
 30
0.0
 10
32.27244629681586
 20
27.98570555874301
 30
0.0
 10
32.17777319097137
 20
28.03094238749864
 30
0.0
 10
32.09925731264941
 20
28.06406103463915
 30
0.0
 10
32.03688703930663
 20
28.08719054175507
 30
0.0
 10
31.99039219531357
 20
28.10260768970434
 30
0.0
 10
31.94433924631993
 20
28.11574652809741
 30
0.0
 10
31.89889211051035
 20
28.12612185890594
 30
0.0
 10
31.854232108666
 20
28.13297710837389
 30
0.0
 10
31.81816737905983
 20
28.13467327553275
 30
0.0
 10
31.79063059960135
 20
28.13232672159695
 30
0.0
 10
31.77185150169911
 20
28.12830386485431
 30
0.0
 10
31.75521212337997
 20
28.12156385106109
 30
0.0
 10
31.74339176556078
 20
28.11307556879803
 30
0.0
 10
31.7355394229932
 20
28.10320604799345
 30
0.0
 10
31.73025809733582
 20
28.0922109170332
 30
0.0
 10
31.72776991059597
 20
28.07650630632588
 30
0.0
 10
31.73002858856221
 20
28.05830982025522
 30
0.0
 10
31.73363610587448
 20
28.04674092368218
 30
0.0
 10
31.73506401614254
 20
28.04216177830966
 30
0.0
  0
SPLINE
  5
228
330
1F
100
AcDbEntity
  8
0
  6
SLD-Solid
 62
     8
370
    25
100
AcDbSpline
210
0.0
220
0.0
230
1.0
 70
     8
 71
     3
 72
    25
 73
    21
 74
     0
 42
0.00000001
 43
0.00000001
 40
0.0
 40
0.0
 40
0.0
 40
0.0
 40
0.1116500013760778
 40
0.1942410074726768
 40
0.2768903326771845
 40
0.3597474811530512
 40
0.4426927998685393
 40
0.5253893044473593
 40
0.6082526892854112
 40
0.691263613549036
 40
0.7329798822448091
 40
0.7747876701868674
 40
0.8164580572240152
 40
0.8583724797554917
 40
0.8943969058536073
 40
0.9310577879607708
 40
0.9504528251695902
 40
0.9702684419582372
 40
0.9849188261075901
 40
1.0
 40
1.0
 40
1.0
 40
1.0
 10
32.55012755477041
 20
27.37194229473728
 30
0.0
 10
32.57336259842718
 20
27.36004879859279
 30
0.0
 10
32.61378533226451
 20
27.33935731050497
 30
0.0
 10
32.67121395686884
 20
27.31332608878081
 30
0.0
 10
32.72254339708589
 20
27.29140155340982
 30
0.0
 10
32.77374803362717
 20
27.27139816659747
 30
0.0
 10
32.82469412112138
 20
27.25349957100394
 30
0.0
 10
32.87526581628851
 20
27.23808876829187
 30
0.0
 10
32.92530572361272
 20
27.22567992358906
 30
0.0
 10
32.96641731342957
 20
27.21850231293877
 30
0.0
 10
32.99869614133693
 20
27.21537896371918
 30
0.0
 10
33.02248576683114
 20
27.21465049988598
 30
0.0
 10
33.04563923124117
 20
27.21594634182972
 30
0.0
 10
33.06677576590526
 20
27.21970169994946
 30
0.0
 10
33.08563488170699
 20
27.22639776830179
 30
0.0
 10
33.09910257742796
 20
27.23502372293593
 30
0.0
 10
33.10816837501671
 20
27.24511797496681
 30
0.0
 10
33.11308331555527
 20
27.25415244427126
 30
0.0
 10
33.11602565342457
 20
27.26405752746614
 30
0.0
 10
33.11637504545296
 20
27.27102526415504
 30
0.0
 10
33.11655227269175
 20
27.2745596113458
 30
0.0
  0
LINE
  5
229
330
1F
100
AcDbEntity
  8
0
  6
SLD-Solid
 62
     8
370
    25
100
AcDbLine
 10
34.7419256591
 20
27.5881583336
 30
0.0
 11
33.397255745
 21
27.5881583336
 31
0.0
  0
LINE
  5
22A
330
1F
100
AcDbEntity
  8
0
  6
SLD-Solid
 62
     8
370
    25
100
AcDbLine
 10
34.7419256591
 20
22.9707683395
 30
0.0
 11
34.7419256591
 21
27.5881583336
 31
0.0
  0
LINE
  5
22B
330
1F
100
AcDbEntity
  8
0
  6
SLD-Solid
 62
     8
370
    25
100
AcDbLine
 10
35.5541769163
 20
28.2999605327
 30
0.0
 11
30.9933381776
 21
30.9328766933
 31
0.0
  0
ARC
  5
22C
330
1F
100
AcDbEntity
  8
0
  6
SLD-Solid
 62
     8
370
    25
100
AcDbCircle
 10
33.3918538066
 20
27.8586486874
 30
0.0
 40
0.2705442892690918
100
AcDbArc
 50
241.9597608846
 51
271.1440967458
  0
ELLIPSE
  5
22D
330
1F
100
AcDbEntity
  8
0
  6
SLD-Solid
 62
     8
370
    25
100
AcDbEllipse
 10
34.8904822942
 20
27.6290831786
 30
0.0
 11
0.02006190778705986
 21
0.02006190778705986
 31
0.0
210
0.0
220
0.0
230
1.0
 40
0.5176866628
 41
1.093099710524204
 42
1.878497873921411
  0
ELLIPSE
  5
22E
330
1F
100
AcDbEntity
  8
0
  6
SLD-Solid
 62
     8
370
    25
100
AcDbEllipse
 10
34.7419256591
 20
27.6963997796
 30
0.0
 11
0.1868516252271917
 21
0.02737637099337675
 31
0.0
210
0.0
220
0.0
230
1.0
 40
0.5690848685
 41
4.629202520099641
 42
5.414600683497102
  0
LINE
  5
22F
330
1F
100
AcDbEntity
  8
0
  6
SLD-Solid
 62
     8
370
    25
100
AcDbLine
 10
33.2646732235
 20
27.6198615191
 30
0.0
 11
30.0804526263
 21
29.4580729425
 31
0.0
  0
ARC
  5
230
330
1F
100
AcDbEntity
  8
0
  6
SLD-Solid
 62
     8
370
    25
100
AcDbCircle
 10
35.4176140775
 20
28.0864681496
 30
0.0
 40
0.2534332388197793
100
AcDbArc
 50
2.6054784857
 51
57.39452166
  0
LINE
  5
231
330
1F
100
AcDbEntity
  8
0
  6
SLD-Solid
 62
     8
370
    25
100
AcDbLine
 10
34.8904822942
 20
27.6475294955
 30
0.0
 11
35.6707853241
 21
28.0979888463
 31
0.0
  0
LINE
  5
232
330
1F
100
AcDbEntity
  8
0
  6
SLD-Solid
 62
     8
370
    25
100
AcDbLine
 10
33.2646732235
 20
23.0024715251
 30
0.0
 11
33.2646732235
 21
27.6198615191
 31
0.0
  0
LINE
  5
233
330
1F
100
AcDbEntity
  8
0
  6
SLD-Solid
 62
     8
370
    25
100
AcDbLine
 10
35.6707853241
 20
23.4437062186
 30
0.0
 11
35.6707853241
 21
28.0979888463
 31
0.0
  0
ARC
  5
234
330
1F
100
AcDbEntity
  8
0
  6
SLD-Solid
 62
     8
370
    25
100
AcDbCircle
 10
35.3818965154
 20
28.0658472218
 30
0.0
 40
0.6120626822136344
100
AcDbArc
 50
2.4763980378
 51
57.5236021078
  0
ARC
  5
235
330
1F
100
AcDbEntity
  8
0
  6
SLD-Solid
 62
     8
370
    25
100
AcDbCircle
 10
35.9367908448
 20
28.2019917728
 30
0.0
 40
0.1234381800254948
100
AcDbArc
 50
259.0905786039
 51
297.2905377327
  0
LINE
  5
236
330
1F
100
AcDbEntity
  8
0
  6
SLD-Solid
 62
     8
370
    25
100
AcDbLine
 10
35.9134293164
 20
28.0807844163
 30
0.0
 11
35.750743603
 21
28.1094975606
 31
0.0
  0
LINE
  5
237
330
1F
100
AcDbEntity
  8
0
  6
SLD-Solid
 62
     8
370
    25
100
AcDbLine
 10
36.2687570026
 20
28.2512605057
 30
0.0
 11
35.9933875953
 21
28.0922931306
 31
0.0
  0
ARC
  5
238
330
1F
100
AcDbEntity
  8
0
  6
SLD-Solid
 62
     8
370
    25
100
AcDbCircle
 10
35.7273820747
 20
27.9882902041
 30
0.0
 40
0.1234381800254753
100
AcDbArc
 50
79.0905786039
 51
117.2905377327
  0
LINE
  5
239
330
1F
100
AcDbEntity
  8
0
  6
SLD-Solid
 62
     8
370
    25
100
AcDbLine
 10
35.9933875953
 20
28.0922931306
 30
0.0
 11
35.9933875953
 21
23.4380105028
 31
0.0
  0
LINE
  5
23A
330
1F
100
AcDbEntity
  8
0
  6
SLD-Solid
 62
     8
370
    25
100
AcDbLine
 10
31.1497061442
 20
31.2151072383
 30
0.0
 11
35.7105448828
 21
28.5821910777
 31
0.0
  0
ARC
  5
23B
330
1F
100
AcDbEntity
  8
0
  6
SLD-Solid
 62
     8
370
    25
100
AcDbCircle
 10
30.119370847
 20
29.5439686486
 30
0.0
 40
0.0943011147175822
100
AcDbArc
 50
185.6947992512
 51
245.6253417064
  0
ARC
  5
23C
330
1F
100
AcDbEntity
  8
0
  6
SLD-Solid
 62
     8
370
    25
100
AcDbCircle
 10
31.7588826811
 20
25.4511110141
 30
0.0
 40
0.2171837468610678
100
AcDbArc
 50
305.2531948921
 51
6.0642642758
  0
LWPOLYLINE
  5
23D
330
1F
100
AcDbEntity
  8
0
  6
SLD-Solid
 62
     8
370
    25
100
AcDbPolyline
 90
       16
 70
   128
 43
0.0
 10
31.4469128186
 20
26.0316291064
 10
31.4698390511
 20
26.0423096291
 10
31.5108122487
 20
26.0513150339
 10
31.555791567
 20
26.0499950793
 10
31.6036120651
 20
26.0383839513
 10
31.6530352174
 20
26.0167823721
 10
31.7027809901
 20
25.9857498113
 10
31.7515609938
 20
25.9460899958
 10
31.7981118521
 20
25.8988300942
 10
31.8412279222
 20
25.8451941129
 10
31.8797925205
 20
25.7865711957
 10
31.9128068442
 20
25.7244796454
 10
31.9394158397
 20
25.6605276006
 10
31.9589303479
 20
25.5963713855
 10
31.9708449533
 20
25.5336726126
 10
31.9748510739
 20
25.474055147
  0
ELLIPSE
  5
23E
330
1F
100
AcDbEntity
  8
0
  6
SLD-Solid
 62
     8
370
    25
100
AcDbEllipse
 10
34.7738738864
 20
23.0790097855
 30
0.0
 11
0.01316791640805093
 21
0.1874955680771038
 31
0.0
210
0.0
220
0.0
230
1.0
 40
0.0979021219
 41
2.978473195725458
 42
3.148468264869841
  0
ELLIPSE
  5
23F
330
1F
100
AcDbEntity
  8
0
  6
SLD-Solid
 62
     8
370
    25
100
AcDbEllipse
 10
34.7419256591
 20
23.0790097855
 30
0.0
 11
-0.01853469221493497
 21
0.1874956530597203
 31
0.0
210
0.0
220
0.0
230
1.0
 40
0.068884193
 41
2.179390049405729
 42
2.964788212802821
  0
ARC
  5
240
330
1F
100
AcDbEntity
  8
0
  6
SLD-Solid
 62
     8
370
    25
100
AcDbCircle
 10
31.4927294228
 20
24.3598564208
 30
0.0
 40
0.1462521513220556
100
AcDbArc
 50
353.9706287946
 51
58.4238814877
  0
LINE
  5
241
330
1F
100
AcDbEntity
  8
0
  6
SLD-Solid
 62
     8
370
    25
100
AcDbLine
 10
30.6868698454
 20
24.9938780075
 30
0.0
 11
31.5693115614
 21
24.4844552483
 31
0.0
  0
LINE
  5
242
330
1F
100
AcDbEntity
  8
0
  6
SLD-Solid
 62
     8
370
    25
100
AcDbLine
 10
31.5693115614
 20
24.4844552483
 30
0.0
 11
31.9370070876
 21
24.6967213574
 31
0.0
  0
LINE
  5
243
330
1F
100
AcDbEntity
  8
0
  6
SLD-Solid
 62
     8
370
    25
100
AcDbLine
 10
31.6381725337
 20
24.3444943485
 30
0.0
 11
31.4855553201
 21
23.6772981395
 31
0.0
  0
LWPOLYLINE
  5
244
330
1F
100
AcDbEntity
  8
0
  6
SLD-Solid
 62
     8
370
    25
100
AcDbPolyline
 90
       32
 70
   128
 43
0.0
 10
30.8609337831
 20
24.3524480173
 10
30.8649550493
 20
24.3957909315
 10
30.8768542165
 20
24.4327165267
 10
30.8961441316
 20
24.4617130647
 10
30.9220350631
 20
24.4815934237
 10
30.9534670332
 20
24.4915436996
 10
30.9891532135
 20
24.4911565269
 10
31.0276326074
 20
24.4804477565
 10
31.0673298642
 20
24.4598558067
 10
31.1066197733
 20
24.4302237143
 10
31.1438938014
 20
24.3927646207
 10
31.1776259454
 20
24.3490121056
 10
31.2064352072
 20
24.3007574021
 10
31.2291421324
 20
24.2499760635
 10
31.2448170967
 20
24.1987470836
 10
31.2528183653
 20
24.149167783
 10
31.2528183653
 20
24.103267944
 10
31.2448170967
 20
24.0629267115
 10
31.2291421324
 20
24.0297956602
 10
31.2064352072
 20
24.0052311793
 10
31.1776259454
 20
23.9902389415
 10
31.1438938014
 20
23.9854327307
 10
31.1066197733
 20
23.991009314
 10
31.0673298642
 20
24.0067403851
 10
31.0276326074
 20
24.0319819123
 10
30.9891532135
 20
24.0657005045
 10
30.9534670332
 20
24.1065157185
 10
30.9220350631
 20
24.1527565747
 10
30.8961441316
 20
24.2025299669
 10
30.8768542165
 20
24.2537981668
 10
30.8649550493
 20
24.304462248
 10
30.8609337831
 20
24.3524480173
  0
ARC
  5
245
330
1F
100
AcDbEntity
  8
0
  6
SLD-Solid
 62
     8
370
    25
100
AcDbCircle
 10
33.3538642653
 20
22.9911157697
 30
0.0
 40
0.0899110399505093
100
AcDbArc
 50
172.7441704373
 51
235.9436491694
  0
ARC
  5
246
330
1F
100
AcDbEntity
  8
0
  6
SLD-Solid
 62
     8
370
    25
100
AcDbCircle
 10
35.5899795064
 20
23.4347868184
 30
0.0
 40
0.0812965920157774
100
AcDbArc
 50
305.01333287
 51
6.2988475233
  0
ARC
  5
247
330
1F
100
AcDbEntity
  8
0
  6
SLD-Solid
 62
     8
370
    25
100
AcDbCircle
 10
31.4447823738
 20
23.6840423451
 30
0.0
 40
0.0413269579729593
100
AcDbArc
 50
302.0130130782
 51
350.607812642
  0
ARC
  5
248
330
1F
100
AcDbEntity
  8
0
  6
SLD-Solid
 62
     8
370
    25
100
AcDbCircle
 10
30.65771172
 20
24.9543418682
 30
0.0
 40
0.0491253762911296
100
AcDbArc
 50
53.5910163898
 51
115.0985251811
  0
ARC
  5
249
330
1F
100
AcDbEntity
  8
0
  6
SLD-Solid
 62
     8
370
    25
100
AcDbCircle
 10
30.9450329681
 20
30.8654484038
 30
0.0
 40
0.0829455694823059
100
AcDbArc
 50
54.3824225248
 51
114.3071190461
  0
ARC
  5
24A
330
1F
100
AcDbEntity
  8
0
  6
SLD-Solid
 62
     8
370
    25
100
AcDbCircle
 10
35.7990406196
 20
23.4156811174
 30
0.0
 40
0.195625531169006
100
AcDbArc
 50
304.5578112879
 51
6.5542266943
  0
ARC
  5
24B
330
1F
100
AcDbEntity
  8
0
  6
SLD-Solid
 62
     8
370
    25
100
AcDbCircle
 10
35.6848557437
 20
23.2952195695
 30
0.0
 40
0.0283756294462235
100
AcDbArc
 50
211.2528926026
 51
239.7030349699
  0
LINE
  5
24C
330
1F
100
AcDbEntity
  8
0
  6
SLD-Solid
 62
     8
370
    25
100
AcDbLine
 10
35.5726478315
 20
23.3312702772
 30
0.0
 11
35.6605978244
 21
23.280497827
 31
0.0
  0
ARC
  5
24D
330
1F
100
AcDbEntity
  8
0
  6
SLD-Solid
 62
     8
370
    25
100
AcDbCircle
 10
30.8717976063
 20
31.0192559469
 30
0.0
 40
0.0283660191660654
100
AcDbArc
 50
180.2998618607
 51
208.7467888047
  0
ARC
  5
24E
330
1F
100
AcDbEntity
  8
0
  6
SLD-Solid
 62
     8
370
    25
100
AcDbCircle
 10
31.0327974188
 20
31.0566748817
 30
0.0
 40
0.1968970840335027
100
AcDbArc
 50
53.5760351566
 51
114.1165692346
  0
INSERT
  5
254
330
1F
100
AcDbEntity
  8
NOTES
100
AcDbBlockReference
  2
SW_NOTE_0_3
 10
30.5208054486
 20
21.9155917014
 30
0.0
  0
ARC
  5
255
330
1F
100
AcDbEntity
  8
0
  6
SLD-Solid
 62
     7
370
    25
100
AcDbCircle
 10
30.6555086612
 20
14.2490158089
 30
0.0
 40
0.4000000000000021
100
AcDbArc
 50
90.0
 51
180.0
  0
LINE
  5
256
330
1F
100
AcDbEntity
  8
0
  6
SLD-Solid
 62
     7
370
    25
100
AcDbLine
 10
30.6555086612
 20
14.6490158089
 30
0.0
 11
37.1055086612
 21
14.6490158089
 31
0.0
  0
ARC
  5
257
330
1F
100
AcDbEntity
  8
0
  6
SLD-Solid
 62
     7
370
    25
100
AcDbCircle
 10
37.1055086612
 20
14.2490158089
 30
0.0
 40
0.4000000000000057
100
AcDbArc
 50
0.0
 51
90.0
  0
LINE
  5
258
330
1F
100
AcDbEntity
  8
0
  6
SLD-Solid
 62
     7
370
    25
100
AcDbLine
 10
37.5055086612
 20
8.5490158089
 30
0.0
 11
37.5055086612
 21
14.2490158089
 31
0.0
  0
LINE
  5
259
330
1F
100
AcDbEntity
  8
0
  6
SLD-Solid
 62
     7
370
    25
100
AcDbLine
 10
37.1055086612
 20
8.1490158089
 30
0.0
 11
30.6555086612
 21
8.1490158089
 31
0.0
  0
ARC
  5
25A
330
1F
100
AcDbEntity
  8
0
  6
SLD-Solid
 62
     7
370
    25
100
AcDbCircle
 10
30.6555086612
 20
8.5490158089
 30
0.0
 40
0.4000000000000004
100
AcDbArc
 50
180.0
 51
270.0
  0
LINE
  5
25B
330
1F
100
AcDbEntity
  8
0
  6
SLD-Solid
 62
     7
370
    25
100
AcDbLine
 10
30.2555086612
 20
8.5490158089
 30
0.0
 11
30.2555086612
 21
14.2490158089
 31
0.0
  0
LINE
  5
25C
330
1F
100
AcDbEntity
  8
0
  6
SLD-Solid
 62
     7
370
    25
100
AcDbLine
 10
30.3555086612
 20
14.2490158089
 30
0.0
 11
30.3555086612
 21
8.5490158089
 31
0.0
  0
ARC
  5
25D
330
1F
100
AcDbEntity
  8
0
  6
SLD-Solid
 62
     7
370
    25
100
AcDbCircle
 10
30.6555086612
 20
8.5490158089
 30
0.0
 40
0.3000000000000007
100
AcDbArc
 50
180.0
 51
270.0
  0
LINE
  5
25E
330
1F
100
AcDbEntity
  8
0
  6
SLD-Solid
 62
     7
370
    25
100
AcDbLine
 10
30.6555086612
 20
8.2490158089
 30
0.0
 11
37.1055086612
 21
8.2490158089
 31
0.0
  0
ARC
  5
25F
330
1F
100
AcDbEntity
  8
0
  6
SLD-Solid
 62
     7
370
    25
100
AcDbCircle
 10
37.1055086612
 20
8.5490158089
 30
0.0
 40
0.2999999999999989
100
AcDbArc
 50
270.0
 51
0.0
  0
LINE
  5
260
330
1F
100
AcDbEntity
  8
0
  6
SLD-Solid
 62
     7
370
    25
100
AcDbLine
 10
37.4055086612
 20
8.5490158089
 30
0.0
 11
37.4055086612
 21
14.2490158089
 31
0.0
  0
ARC
  5
261
330
1F
100
AcDbEntity
  8
0
  6
SLD-Solid
 62
     7
370
    25
100
AcDbCircle
 10
37.1055086612
 20
14.2490158089
 30
0.0
 40
0.3000000000000043
100
AcDbArc
 50
0.0
 51
90.0
  0
LINE
  5
262
330
1F
100
AcDbEntity
  8
0
  6
SLD-Solid
 62
     7
370
    25
100
AcDbLine
 10
37.1055086612
 20
14.5490158089
 30
0.0
 11
30.6555086612
 21
14.5490158089
 31
0.0
  0
ARC
  5
263
330
1F
100
AcDbEntity
  8
0
  6
SLD-Solid
 62
     7
370
    25
100
AcDbCircle
 10
30.6555086612
 20
14.2490158089
 30
0.0
 40
0.3000000000000043
100
AcDbArc
 50
90.0
 51
180.0
  0
ARC
  5
264
330
1F
100
AcDbEntity
  8
0
  6
SLD-Solid
 62
     7
370
    25
100
AcDbCircle
 10
37.1055086612
 20
8.5490158089
 30
0.0
 40
0.4000000000000057
100
AcDbArc
 50
270.0
 51
0.0
  0
LINE
  5
265
330
1F
100
AcDbEntity
  8
0
  6
SLD-Solid
 62
     7
370
    25
100
AcDbLine
 10
32.5680086612
 20
14.2490158089
 30
0.0
 11
33.1305086612
 21
10.9990158089
 31
0.0
  0
LINE
  5
266
330
1F
100
AcDbEntity
  8
0
  6
SLD-Solid
 62
     7
370
    25
100
AcDbLine
 10
34.6305086612
 20
10.9990158089
 30
0.0
 11
35.1930086612
 21
14.2490158089
 31
0.0
  0
LINE
  5
267
330
1F
100
AcDbEntity
  8
0
  6
SLD-Solid
 62
     7
370
    25
100
AcDbLine
 10
33.1305086612
 20
10.9990158089
 30
0.0
 11
34.6305086612
 21
10.9990158089
 31
0.0
  0
CIRCLE
  5
268
330
1F
100
AcDbEntity
  8
0
  6
SLD-Solid
 62
     7
370
    25
100
AcDbCircle
 10
34.5680086612
 20
13.2740158089
 30
0.0
 40
0.0935000000000059
  0
CIRCLE
  5
269
330
1F
100
AcDbEntity
  8
0
  6
SLD-Solid
 62
     7
370
    25
100
AcDbCircle
 10
33.8805086612
 20
11.8016134352
 30
0.0
 40
0.0934999999999917
  0
CIRCLE
  5
26A
330
1F
100
AcDbEntity
  8
0
  6
SLD-Solid
 62
     7
370
    25
100
AcDbCircle
 10
33.1930086612
 20
13.2740158089
 30
0.0
 40
0.0934999999999988
  0
LINE
  5
26B
330
1F
100
AcDbEntity
  8
0
  6
SLD-Solid
 62
     7
370
    25
100
AcDbLine
 10
35.1930086612
 20
14.2490158089
 30
0.0
 11
32.5680086612
 21
14.2490158089
 31
0.0
  0
DIMENSION
  5
26C
330
1F
100
AcDbEntity
  8
DIMS
100
AcDbDimension
  2
_D_2
 10
33.2397586612
 20
13.1930424337
 30
0.0
 11
26.8508216738
 21
16.8936704226
 31
0.0
 70
   163
  1
<> mounting hole (3)
 71
     1
 42
-1.0
  3
SLDDIMSTYLE2
100
AcDbDiametricDimension
 15
33.1462586612
 25
13.3549891842
 35
0.0
 40
0.0
  0
DIMENSION
  5
27A
330
1F
100
AcDbEntity
  8
DIMS
100
AcDbDimension
  2
_D_3
 10
33.1930086612
 20
15.2789370687
 30
0.0
 11
36.3670429977
 21
15.2789370687
 31
0.0
 70
   160
  1
<>
 71
     2
 42
-1.0
  3
SLDDIMSTYLE0
100
AcDbAlignedDimension
 13
34.5680086612
 23
13.2740158089
 33
0.0
 14
33.1930086612
 24
13.2740158089
 34
0.0
100
AcDbRotatedDimension
  0
DIMENSION
  5
289
330
1F
100
AcDbEntity
  8
DIMS
100
AcDbDimension
  2
_D_4
 10
28.916925984
 20
13.2740158089
 30
0.0
 11
28.916925984
 21
12.5378146221
 31
0.0
 70
   160
  1
<>
 71
     2
 42
-1.0
  3
SLDDIMSTYLE3
100
AcDbAlignedDimension
 13
33.8805086612
 23
11.8016134352
 33
0.0
 14
33.1930086612
 24
13.2740158089
 34
0.0
 50
90.0
100
AcDbRotatedDimension
  0
DIMENSION
  5
299
330
1F
100
AcDbEntity
  8
DIMS
100
AcDbDimension
  2
_D_5
 10
28.916925984
 20
14.6490158089
 30
0.0
 11
28.916925984
 21
15.2789370687
 31
0.0
 70
   160
  1
<>
 71
     2
 42
-1.0
  3
SLDDIMSTYLE0
100
AcDbAlignedDimension
 13
33.1930086612
 23
13.2740158089
 33
0.0
 14
30.6555086612
 24
14.6490158089
 34
0.0
 50
90.0
100
AcDbRotatedDimension
  0
DIMENSION
  5
2A9
330
1F
100
AcDbEntity
  8
DIMS
100
AcDbDimension
  2
_D_6
 10
28.916925984
 20
8.1490158089
 30
0.0
 11
28.916925984
 21
10.0126655504
 31
0.0
 70
   160
  1
<>
 71
     2
 42
-1.0
  3
SLDDIMSTYLE0
100
AcDbAlignedDimension
 13
33.8805086612
 23
11.8016134352
 33
0.0
 14
30.6555086612
 24
8.1490158089
 34
0.0
 50
90.0
100
AcDbRotatedDimension
  0
MTEXT
  5
2B8
330
1F
100
AcDbEntity
  8
NOTES
100
AcDbMText
 10
32.4194809397
 20
7.7593010683
 30
0.0
 40
0.5
 41
0.0
 71
     1
 72
     1
  1
Back view
  7
SLDTEXTSTYLE1
 73
     1
 44
1.0
  0
INSERT
  5
2BF
102
{ACAD_REACTORS
330
2C0
102
}
330
1F
100
AcDbEntity
  8
NOTES
100
AcDbBlockReference
  2
SW_NOTE_0_4
 10
39.2519685039
 20
9.5383858298
 30
0.0
  0
LEADER
  5
2C0
330
1F
100
AcDbEntity
  8
NOTES
100
AcDbLeader
  3
SLDDIMSTYLE1
 73
     2
 76
     3
 10
34.8093420492
 20
12.0322753841
 30
0.0
 10
38.7519685039
 20
9.5383858298
 30
0.0
 10
39.2519685039
 20
9.5383858298
 30
0.0
340
2BF
  0
ARC
  5
2C1
330
1F
100
AcDbEntity
  8
0
  6
SLD-Solid
 62
     7
370
    25
100
AcDbCircle
 10
9.6681571062
 20
25.4360843621
 30
0.0
 40
0.0250000000000029
100
AcDbArc
 50
213.53162911
 51
263.0252252865
  0
ARC
  5
2C2
330
1F
100
AcDbEntity
  8
0
  6
SLD-Solid
 62
     7
370
    25
100
AcDbCircle
 10
11.6248712122
 20
25.4360843401
 30
0.0
 40
0.0249999796373912
100
AcDbArc
 50
276.9747801883
 51
329.9664935067
  0
ELLIPSE
  5
2C3
330
1F
100
AcDbEntity
  8
0
  6
SLD-Solid
 62
     7
370
    25
100
AcDbEllipse
 10
10.6465141846
 20
26.1249615867
 30
0.0
 11
2.586188492547413
 21
0.0
 31
0.0
210
0.0
220
4.029896875527311E-15
230
1.0
 40
0.298273145
 41
4.322791321066097
 42
5.1020461017516
  0
ARC
  5
2C4
330
1F
100
AcDbEntity
  8
0
  6
SLD-Solid
 62
     7
370
    25
100
AcDbCircle
 10
9.72099611
 20
25.4135710115
 30
0.0
 40
0.2899999999999998
100
AcDbArc
 50
270.0
 51
352.834138142
  0
ARC
  5
2C5
330
1F
100
AcDbEntity
  8
0
  6
SLD-Solid
 62
     7
370
    25
100
AcDbCircle
 10
9.42599611
 20
25.4135710115
 30
0.0
 40
0.2900000000000009
100
AcDbArc
 50
180.0
 51
270.0
  0
LINE
  5
2C6
330
1F
100
AcDbEntity
  8
0
  6
SLD-Solid
 62
     7
370
    25
100
AcDbLine
 10
9.13599611
 20
25.4235710115
 30
0.0
 11
9.13599611
 21
25.4135710115
 31
0.0
  0
LINE
  5
2C7
330
1F
100
AcDbEntity
  8
0
  6
SLD-Solid
 62
     7
370
    25
100
AcDbLine
 10
10.2974766313
 20
24.6535710115
 30
0.0
 11
10.2974766313
 21
25.1735710115
 31
0.0
  0
LINE
  5
2C8
330
1F
100
AcDbEntity
  8
0
  6
SLD-Solid
 62
     7
370
    25
100
AcDbLine
 10
8.8495155887
 20
25.1735710115
 30
0.0
 11
8.8495155887
 21
24.6535710115
 31
0.0
  0
ARC
  5
2C9
330
1F
100
AcDbEntity
  8
0
  6
SLD-Solid
 62
     7
370
    25
100
AcDbCircle
 10
10.1974766313
 20
24.6535710115
 30
0.0
 40
0.1000000000000014
100
AcDbArc
 50
270.0
 51
0.0
  0
ARC
  5
2CA
330
1F
100
AcDbEntity
  8
0
  6
SLD-Solid
 62
     7
370
    25
100
AcDbCircle
 10
8.9495155887
 20
24.6535710115
 30
0.0
 40
0.1000000000000014
100
AcDbArc
 50
180.0
 51
270.0
  0
LINE
  5
2CB
330
1F
100
AcDbEntity
  8
0
  6
SLD-Solid
 62
     7
370
    25
100
AcDbLine
 10
9.13599611
 20
25.4135710115
 30
0.0
 11
9.13599611
 21
25.1735710115
 31
0.0
  0
LINE
  5
2CC
330
1F
100
AcDbEntity
  8
0
  6
SLD-Solid
 62
     7
370
    25
100
AcDbLine
 10
10.01099611
 20
25.1735710115
 30
0.0
 11
10.01099611
 21
25.3772242039
 31
0.0
  0
LINE
  5
2CD
330
1F
100
AcDbEntity
  8
0
  6
SLD-Solid
 62
     7
370
    25
100
AcDbLine
 10
6.34849611
 20
27.909139861
 30
0.0
 11
12.79849611
 21
27.909139861
 31
0.0
  0
LINE
  5
2CE
330
1F
100
AcDbEntity
  8
0
  6
SLD-Solid
 62
     7
370
    25
100
AcDbLine
 10
12.79849611
 20
28.2985710115
 30
0.0
 11
6.34849611
 21
28.2985710115
 31
0.0
  0
LINE
  5
2CF
330
1F
100
AcDbEntity
  8
0
  6
SLD-Solid
 62
     7
370
    25
100
AcDbLine
 10
13.19849611
 20
28.2985710115
 30
0.0
 11
13.19849611
 21
27.909139861
 31
0.0
  0
LINE
  5
2D0
330
1F
100
AcDbEntity
  8
0
  6
SLD-Solid
 62
     7
370
    25
100
AcDbLine
 10
12.79849611
 20
27.909139861
 30
0.0
 11
13.19849611
 21
27.909139861
 31
0.0
  0
LINE
  5
2D1
330
1F
100
AcDbEntity
  8
0
  6
SLD-Solid
 62
     7
370
    25
100
AcDbLine
 10
12.79849611
 20
28.2985710115
 30
0.0
 11
13.19849611
 21
28.2985710115
 31
0.0
  0
ARC
  5
2D2
330
1F
100
AcDbEntity
  8
0
  6
SLD-Solid
 62
     7
370
    25
100
AcDbCircle
 10
13.11849611
 20
27.909139861
 30
0.0
 40
0.0800000000000018
100
AcDbArc
 50
298.0
 51
0.0
  0
LINE
  5
2D3
330
1F
100
AcDbEntity
  8
0
  6
SLD-Solid
 62
     7
370
    25
100
AcDbLine
 10
6.34849611
 20
27.909139861
 30
0.0
 11
5.94849611
 21
27.909139861
 31
0.0
  0
LINE
  5
2D4
330
1F
100
AcDbEntity
  8
0
  6
SLD-Solid
 62
     7
370
    25
100
AcDbLine
 10
5.94849611
 20
28.2985710115
 30
0.0
 11
5.94849611
 21
27.909139861
 31
0.0
  0
LINE
  5
2D5
330
1F
100
AcDbEntity
  8
0
  6
SLD-Solid
 62
     7
370
    25
100
AcDbLine
 10
6.34849611
 20
28.2985710115
 30
0.0
 11
5.94849611
 21
28.2985710115
 31
0.0
  0
ARC
  5
2D6
330
1F
100
AcDbEntity
  8
0
  6
SLD-Solid
 62
     7
370
    25
100
AcDbCircle
 10
6.02849611
 20
27.909139861
 30
0.0
 40
0.080000000000001
100
AcDbArc
 50
180.0
 51
242.0
  0
LINE
  5
2D7
330
1F
100
AcDbEntity
  8
0
  6
SLD-Solid
 62
     7
370
    25
100
AcDbLine
 10
13.156053835
 20
27.8385040536
 30
0.0
 11
13.0058475768
 21
27.7586379694
 31
0.0
  0
LINE
  5
2D8
330
1F
100
AcDbEntity
  8
0
  6
SLD-Solid
 62
     7
370
    25
100
AcDbLine
 10
5.990938385
 20
27.8385040536
 30
0.0
 11
6.1411446432
 21
27.7586379694
 31
0.0
  0
ARC
  5
2D9
330
1F
100
AcDbEntity
  8
0
  6
SLD-Solid
 62
     7
370
    25
100
AcDbCircle
 10
13.0434053018
 20
27.688002162
 30
0.0
 40
0.0800000000000018
100
AcDbArc
 50
118.0
 51
180.0
  0
ARC
  5
2DA
330
1F
100
AcDbEntity
  8
0
  6
SLD-Solid
 62
     7
370
    25
100
AcDbCircle
 10
6.1035869182
 20
27.688002162
 30
0.0
 40
0.0800000000000007
100
AcDbArc
 50
0.0
 51
62.0
  0
LINE
  5
2DB
330
1F
100
AcDbEntity
  8
0
  6
SLD-Solid
 62
     7
370
    25
100
AcDbLine
 10
12.9634053018
 20
26.5844870344
 30
0.0
 11
12.9634053018
 21
27.688002162
 31
0.0
  0
LINE
  5
2DC
330
1F
100
AcDbEntity
  8
0
  6
SLD-Solid
 62
     7
370
    25
100
AcDbLine
 10
8.52349611
 20
25.8860710115
 30
0.0
 11
8.52349611
 21
27.4360710115
 31
0.0
  0
LINE
  5
2DD
330
1F
100
AcDbEntity
  8
0
  6
SLD-Solid
 62
     7
370
    25
100
AcDbLine
 10
8.52349611
 20
25.8860710115
 30
0.0
 11
10.64849611
 21
25.8860710115
 31
0.0
  0
LINE
  5
2DE
330
1F
100
AcDbEntity
  8
0
  6
SLD-Solid
 62
     7
370
    25
100
AcDbLine
 10
10.64849611
 20
27.4360710115
 30
0.0
 11
10.64849611
 21
25.8860710115
 31
0.0
  0
LINE
  5
2DF
330
1F
100
AcDbEntity
  8
0
  6
SLD-Solid
 62
     7
370
    25
100
AcDbLine
 10
10.64849611
 20
27.4360710115
 30
0.0
 11
8.52349611
 21
27.4360710115
 31
0.0
  0
LINE
  5
2E0
330
1F
100
AcDbEntity
  8
0
  6
SLD-Solid
 62
     7
370
    25
100
AcDbLine
 10
6.1835869182
 20
26.5844870344
 30
0.0
 11
6.1835869182
 21
27.688002162
 31
0.0
  0
LINE
  5
2E1
330
1F
100
AcDbEntity
  8
0
  6
SLD-Solid
 62
     7
370
    25
100
AcDbLine
 10
12.9084878233
 20
26.4293137048
 30
0.0
 11
11.9576626086
 21
25.47848849
 31
0.0
  0
LINE
  5
2E2
330
1F
100
AcDbEntity
  8
0
  6
SLD-Solid
 62
     7
370
    25
100
AcDbLine
 10
12.9634053018
 20
26.5844870344
 30
0.0
 11
12.9634053018
 21
26.5618962262
 31
0.0
  0
LINE
  5
2E3
330
1F
100
AcDbEntity
  8
0
  6
SLD-Solid
 62
     7
370
    25
100
AcDbLine
 10
6.2385043967
 20
26.4293137048
 30
0.0
 11
7.1893296114
 21
25.47848849
 31
0.0
  0
LINE
  5
2E4
330
1F
100
AcDbEntity
  8
0
  6
SLD-Solid
 62
     7
370
    25
100
AcDbLine
 10
6.1835869182
 20
26.5844870344
 30
0.0
 11
6.1835869182
 21
26.5618962262
 31
0.0
  0
LINE
  5
2E5
330
1F
100
AcDbEntity
  8
0
  6
SLD-Solid
 62
     7
370
    25
100
AcDbLine
 10
10.57349611
 20
25.9110710115
 30
0.0
 11
8.57349611
 21
25.9110710115
 31
0.0
  0
LINE
  5
2E6
330
1F
100
AcDbEntity
  8
0
  6
SLD-Solid
 62
     7
370
    25
100
AcDbLine
 10
8.57349611
 20
27.4110710115
 30
0.0
 11
10.57349611
 21
27.4110710115
 31
0.0
  0
LINE
  5
2E7
330
1F
100
AcDbEntity
  8
0
  6
SLD-Solid
 62
     7
370
    25
100
AcDbLine
 10
9.34849611
 20
26.695245069
 30
0.0
 11
9.34849611
 21
26.626896954
 31
0.0
  0
LINE
  5
2E8
330
1F
100
AcDbEntity
  8
0
  6
SLD-Solid
 62
     7
370
    25
100
AcDbLine
 10
9.34849611
 20
26.626896954
 30
0.0
 11
9.79849611
 21
26.626896954
 31
0.0
  0
LINE
  5
2E9
330
1F
100
AcDbEntity
  8
0
  6
SLD-Solid
 62
     7
370
    25
100
AcDbLine
 10
9.79849611
 20
26.626896954
 30
0.0
 11
9.79849611
 21
26.695245069
 31
0.0
  0
LINE
  5
2EA
330
1F
100
AcDbEntity
  8
0
  6
SLD-Solid
 62
     7
370
    25
100
AcDbLine
 10
9.79849611
 20
26.695245069
 30
0.0
 11
9.34849611
 21
26.695245069
 31
0.0
  0
LINE
  5
2EB
330
1F
100
AcDbEntity
  8
0
  6
SLD-Solid
 62
     7
370
    25
100
AcDbLine
 10
10.57349611
 20
27.4110710115
 30
0.0
 11
10.57349611
 21
25.9110710115
 31
0.0
  0
LINE
  5
2EC
330
1F
100
AcDbEntity
  8
0
  6
SLD-Solid
 62
     7
370
    25
100
AcDbLine
 10
8.57349611
 20
27.4110710115
 30
0.0
 11
8.57349611
 21
25.9110710115
 31
0.0
  0
LINE
  5
2ED
330
1F
100
AcDbEntity
  8
0
  6
SLD-Solid
 62
     7
370
    25
100
AcDbLine
 10
11.8250800871
 20
25.4235710115
 30
0.0
 11
7.3219121329
 21
25.4235710115
 31
0.0
  0
ARC
  5
2EE
330
1F
100
AcDbEntity
  8
0
  6
SLD-Solid
 62
     7
370
    25
100
AcDbCircle
 10
11.8250800871
 20
25.6110710115
 30
0.0
 40
0.1875
100
AcDbArc
 50
270.0
 51
315.0
  0
ARC
  5
2EF
330
1F
100
AcDbEntity
  8
0
  6
SLD-Solid
 62
     7
370
    25
100
AcDbCircle
 10
7.3219121329
 20
25.6110710115
 30
0.0
 40
0.1875
100
AcDbArc
 50
225.0
 51
270.0
  0
ARC
  5
2F0
330
1F
100
AcDbEntity
  8
0
  6
SLD-Solid
 62
     7
370
    25
100
AcDbCircle
 10
12.7759053018
 20
26.5618962262
 30
0.0
 40
0.1875000000000015
100
AcDbArc
 50
315.0
 51
0.0
  0
ARC
  5
2F1
330
1F
100
AcDbEntity
  8
0
  6
SLD-Solid
 62
     7
370
    25
100
AcDbCircle
 10
6.3710869182
 20
26.5618962262
 30
0.0
 40
0.1875
100
AcDbArc
 50
180.0
 51
225.0
  0
LINE
  5
2F2
330
1F
100
AcDbEntity
  8
0
  6
SLD-Solid
 62
     7
370
    25
100
AcDbLine
 10
9.72099611
 20
25.1235710115
 30
0.0
 11
9.42599611
 21
25.1235710115
 31
0.0
  0
LINE
  5
2F3
330
1F
100
AcDbEntity
  8
0
  6
SLD-Solid
 62
     7
370
    25
100
AcDbLine
 10
10.1974766313
 20
25.1735710115
 30
0.0
 11
9.883784316
 21
25.1735710115
 31
0.0
  0
LINE
  5
2F4
330
1F
100
AcDbEntity
  8
0
  6
SLD-Solid
 62
     7
370
    25
100
AcDbLine
 10
9.263207904
 20
25.1735710115
 30
0.0
 11
8.9495155887
 21
25.1735710115
 31
0.0
  0
LINE
  5
2F5
330
1F
100
AcDbEntity
  8
0
  6
SLD-Solid
 62
     7
370
    25
100
AcDbLine
 10
10.1974766313
 20
25.1735710115
 30
0.0
 11
10.2974766313
 21
25.1735710115
 31
0.0
  0
LINE
  5
2F6
330
1F
100
AcDbEntity
  8
0
  6
SLD-Solid
 62
     7
370
    25
100
AcDbLine
 10
8.9495155887
 20
25.1735710115
 30
0.0
 11
8.8495155887
 21
25.1735710115
 31
0.0
  0
LINE
  5
2F7
330
1F
100
AcDbEntity
  8
0
  6
SLD-Solid
 62
     7
370
    25
100
AcDbLine
 10
10.1974766313
 20
24.5535710115
 30
0.0
 11
8.9495155887
 21
24.5535710115
 31
0.0
  0
LINE
  5
2F8
330
1F
100
AcDbEntity
  8
0
  6
SLD-Solid
 62
     8
370
    25
100
AcDbLine
 10
9.13599611
 20
25.4135710115
 30
0.0
 11
9.6572874676
 21
25.4135710115
 31
0.0
  0
DIMENSION
  5
2F9
330
1F
100
AcDbEntity
  8
DIMS
100
AcDbDimension
  2
_D_7
 10
13.8284173698
 20
24.5535710115
 30
0.0
 11
13.8284173698
 21
26.4260710115
 31
0.0
 70
   160
  1
<>
 71
     2
 42
-1.0
  3
SLDDIMSTYLE0
100
AcDbAlignedDimension
 13
12.79849611
 23
28.2985710115
 33
0.0
 14
10.1974766313
 24
24.5535710115
 34
0.0
 50
90.0
100
AcDbRotatedDimension
  0
MTEXT
  5
308
330
1F
100
AcDbEntity
  8
NOTES
100
AcDbMText
 10
8.1279579893
 20
24.198256925
 30
0.0
 40
0.5
 41
0.0
 71
     1
 72
     1
  1
Top view
  7
SLDTEXTSTYLE1
 73
     1
 44
1.0
  0
MTEXT
  5
309
330
1F
100
AcDbEntity
  8
NOTES
100
AcDbMText
 10
11.9098713458
 20
29.8808248079
 30
0.0
 40
0.5
 41
0.0
 71
     1
 72
     1
  1
easy refill top cap ( keyed lock)
  7
SLDTEXTSTYLE1
 73
     1
 44
1.0
  0
LEADER
  5
30A
330
1F
100
AcDbEntity
  8
NOTES
100
AcDbLeader
  3
SLDDIMSTYLE1
 76
     3
 10
9.8419897789
 20
27.4110710115
 30
0.0
 10
11.3897637795
 20
29.6368110266
 30
0.0
 10
11.8897637795
 20
29.6368110266
 30
0.0
  0
ENDSEC
  0
SECTION
  2
OBJECTS
  0
DICTIONARY
  5
C
330
0
100
AcDbDictionary
281
     1
  3
ACAD_GROUP
350
D
  3
ACAD_LAYOUT
350
1A
  3
ACAD_MLINESTYLE
350
17
  3
ACAD_PLOTSETTINGS
350
19
  3
ACAD_PLOTSTYLENAME
350
E
  3
ACAD_SCALELIST
350
47
  3
DWGPROPS
350
30B
  0
DICTIONARY
  5
D
102
{ACAD_REACTORS
330
C
102
}
330
C
100
AcDbDictionary
281
     1
  0
DICTIONARY
  5
1A
102
{ACAD_REACTORS
330
C
102
}
330
C
100
AcDbDictionary
281
     1
  3
Layout1
350
1E
  3
Layout2
350
26
  3
Model
350
22
  0
DICTIONARY
  5
17
102
{ACAD_REACTORS
330
C
102
}
330
C
100
AcDbDictionary
281
     1
  3
Standard
350
18
  0
DICTIONARY
  5
19
102
{ACAD_REACTORS
330
C
102
}
330
C
100
AcDbDictionary
281
     1
  0
ACDBDICTIONARYWDFLT
  5
E
102
{ACAD_REACTORS
330
C
102
}
330
C
100
AcDbDictionary
281
     1
  3
Normal
350
F
100
AcDbDictionaryWithDefault
340
F
  0
DICTIONARY
  5
47
102
{ACAD_REACTORS
330
C
102
}
330
C
100
AcDbDictionary
281
     1
  3
A0
350
48
  3
A1
350
49
  3
A2
350
4A
  3
A3
350
4B
  3
A4
350
4C
  3
A5
350
4D
  3
A6
350
4E
  3
A7
350
4F
  3
A8
350
50
  3
A9
350
51
  3
B0
350
52
  3
B1
350
53
  3
B2
350
54
  3
B3
350
55
  3
B4
350
56
  3
B5
350
57
  3
B6
350
58
  3
B7
350
59
  3
B8
350
5A
  3
B9
350
5B
  3
C0
350
5C
  3
C1
350
5D
  3
C2
350
5E
  3
C3
350
5F
  3
C4
350
60
  3
C5
350
61
  3
C6
350
62
  3
C7
350
63
  3
C8
350
64
  3
C9
350
65
  3
D0
350
66
  3
D1
350
67
  3
D2
350
68
  0
XRECORD
  5
30B
102
{ACAD_REACTORS
330
C
102
}
330
C
100
AcDbXrecord
280
     1
  1
DWGPROPS COOKIE
  2

  3

  4

  6

  7

  8
carl
  9

300
=
301
=
302
=
303
=
304
=
305
=
306
=
307
=
308
=
309
=
 40
0.0
 41
2459459.773405509
 42
2459459.773409468
  1

 90
        0
  0
LAYOUT
  5
1E
102
{ACAD_REACTORS
330
1A
102
}
330
1A
100
AcDbPlotSettings
  1

  2
none_device
  4

  6

 40
0.0
 41
0.0
 42
0.0
 43
0.0
 44
0.0
 45
0.0
 46
0.0
 47
0.0
 48
0.0
 49
0.0
140
0.0
141
0.0
142
1.0
143
1.0
 70
   688
 72
     0
 73
     0
 74
     5
  7

 75
    16
147
1.0
148
0.0
149
0.0
100
AcDbLayout
  1
Layout1
 70
     1
 71
     1
 10
0.0
 20
0.0
 11
12.0
 21
9.0
 12
0.0
 22
0.0
 32
0.0
 14
1.0000000000E+20
 24
1.0000000000E+20
 34
1.0000000000E+20
 15
-1.0000000000E+20
 25
-1.0000000000E+20
 35
-1.0000000000E+20
146
0.0
 13
0.0
 23
0.0
 33
0.0
 16
1.0
 26
0.0
 36
0.0
 17
0.0
 27
1.0
 37
0.0
 76
     0
330
1B
  0
LAYOUT
  5
26
102
{ACAD_REACTORS
330
1A
102
}
330
1A
100
AcDbPlotSettings
  1

  2
none_device
  4

  6

 40
0.0
 41
0.0
 42
0.0
 43
0.0
 44
0.0
 45
0.0
 46
0.0
 47
0.0
 48
0.0
 49
0.0
140
0.0
141
0.0
142
1.0
143
1.0
 70
   688
 72
     0
 73
     0
 74
     5
  7

 75
    16
147
1.0
148
0.0
149
0.0
100
AcDbLayout
  1
Layout2
 70
     1
 71
     2
 10
0.0
 20
0.0
 11
0.0
 21
0.0
 12
0.0
 22
0.0
 32
0.0
 14
0.0
 24
0.0
 34
0.0
 15
0.0
 25
0.0
 35
0.0
146
0.0
 13
0.0
 23
0.0
 33
0.0
 16
1.0
 26
0.0
 36
0.0
 17
0.0
 27
1.0
 37
0.0
 76
     0
330
23
  0
LAYOUT
  5
22
102
{ACAD_REACTORS
330
1A
102
}
330
1A
100
AcDbPlotSettings
  1

  2
none_device
  4
Letter_(8.50_x_11.00_Inches)
  6

 40
6.35
 41
6.35
 42
6.35000508
 43
6.35000508
 44
215.9
 45
279.4
 46
0.0
 47
0.0
 48
0.0
 49
0.0
140
0.0
141
0.0
142
1.0
143
1.0
 70
  1712
 72
     0
 73
     0
 74
     0
  7

 75
     0
147
1.0
148
0.0
149
0.0
100
AcDbLayout
  1
Model
 70
     1
 71
     0
 10
0.0
 20
0.0
 11
55.0
 21
36.0
 12
0.0
 22
0.0
 32
0.0
 14
0.0
 24
0.0
 34
0.0
 15
55.0
 25
36.0
 35
0.0
146
0.0
 13
0.0
 23
0.0
 33
0.0
 16
1.0
 26
0.0
 36
0.0
 17
0.0
 27
1.0
 37
0.0
 76
     0
330
1F
331
29
  0
MLINESTYLE
  5
18
102
{ACAD_REACTORS
330
17
102
}
330
17
100
AcDbMlineStyle
  2
Standard
 70
     0
  3

 62
   256
 51
90.0
 52
90.0
 71
     2
 49
0.5
 62
   256
  6
BYLAYER
 49
-0.5
 62
   256
  6
BYLAYER
  0
ACDBPLACEHOLDER
  5
F
102
{ACAD_REACTORS
330
E
102
}
330
E
  0
SCALE
  5
48
102
{ACAD_REACTORS
330
47
102
}
330
47
100
AcDbScale
 70
     0
300
1:1
140
1.0
141
1.0
290
     1
  0
SCALE
  5
49
102
{ACAD_REACTORS
330
47
102
}
330
47
100
AcDbScale
 70
     0
300
1:2
140
1.0
141
2.0
290
     0
  0
SCALE
  5
4A
102
{ACAD_REACTORS
330
47
102
}
330
47
100
AcDbScale
 70
     0
300
1:4
140
1.0
141
4.0
290
     0
  0
SCALE
  5
4B
102
{ACAD_REACTORS
330
47
102
}
330
47
100
AcDbScale
 70
     0
300
1:5
140
1.0
141
5.0
290
     0
  0
SCALE
  5
4C
102
{ACAD_REACTORS
330
47
102
}
330
47
100
AcDbScale
 70
     0
300
1:8
140
1.0
141
8.0
290
     0
  0
SCALE
  5
4D
102
{ACAD_REACTORS
330
47
102
}
330
47
100
AcDbScale
 70
     0
300
1:10
140
1.0
141
10.0
290
     0
  0
SCALE
  5
4E
102
{ACAD_REACTORS
330
47
102
}
330
47
100
AcDbScale
 70
     0
300
1:16
140
1.0
141
16.0
290
     0
  0
SCALE
  5
4F
102
{ACAD_REACTORS
330
47
102
}
330
47
100
AcDbScale
 70
     0
300
1:20
140
1.0
141
20.0
290
     0
  0
SCALE
  5
50
102
{ACAD_REACTORS
330
47
102
}
330
47
100
AcDbScale
 70
     0
300
1:30
140
1.0
141
30.0
290
     0
  0
SCALE
  5
51
102
{ACAD_REACTORS
330
47
102
}
330
47
100
AcDbScale
 70
     0
300
1:40
140
1.0
141
40.0
290
     0
  0
SCALE
  5
52
102
{ACAD_REACTORS
330
47
102
}
330
47
100
AcDbScale
 70
     0
300
1:50
140
1.0
141
50.0
290
     0
  0
SCALE
  5
53
102
{ACAD_REACTORS
330
47
102
}
330
47
100
AcDbScale
 70
     0
300
1:100
140
1.0
141
100.0
290
     0
  0
SCALE
  5
54
102
{ACAD_REACTORS
330
47
102
}
330
47
100
AcDbScale
 70
     0
300
2:1
140
2.0
141
1.0
290
     0
  0
SCALE
  5
55
102
{ACAD_REACTORS
330
47
102
}
330
47
100
AcDbScale
 70
     0
300
4:1
140
4.0
141
1.0
290
     0
  0
SCALE
  5
56
102
{ACAD_REACTORS
330
47
102
}
330
47
100
AcDbScale
 70
     0
300
8:1
140
8.0
141
1.0
290
     0
  0
SCALE
  5
57
102
{ACAD_REACTORS
330
47
102
}
330
47
100
AcDbScale
 70
     0
300
10:1
140
10.0
141
1.0
290
     0
  0
SCALE
  5
58
102
{ACAD_REACTORS
330
47
102
}
330
47
100
AcDbScale
 70
     0
300
100:1
140
100.0
141
1.0
290
     0
  0
SCALE
  5
59
102
{ACAD_REACTORS
330
47
102
}
330
47
100
AcDbScale
 70
     0
300
1/128" = 1'-0"
140
0.0078125
141
12.0
290
     0
  0
SCALE
  5
5A
102
{ACAD_REACTORS
330
47
102
}
330
47
100
AcDbScale
 70
     0
300
1/64" = 1'-0"
140
0.015625
141
12.0
290
     0
  0
SCALE
  5
5B
102
{ACAD_REACTORS
330
47
102
}
330
47
100
AcDbScale
 70
     0
300
1/32" = 1'-0"
140
0.03125
141
12.0
290
     0
  0
SCALE
  5
5C
102
{ACAD_REACTORS
330
47
102
}
330
47
100
AcDbScale
 70
     0
300
1/16" = 1'-0"
140
0.0625
141
12.0
290
     0
  0
SCALE
  5
5D
102
{ACAD_REACTORS
330
47
102
}
330
47
100
AcDbScale
 70
     0
300
3/32" = 1'-0"
140
0.09375
141
12.0
290
     0
  0
SCALE
  5
5E
102
{ACAD_REACTORS
330
47
102
}
330
47
100
AcDbScale
 70
     0
300
1/8" = 1'-0"
140
0.125
141
12.0
290
     0
  0
SCALE
  5
5F
102
{ACAD_REACTORS
330
47
102
}
330
47
100
AcDbScale
 70
     0
300
3/16" = 1'-0"
140
0.1875
141
12.0
290
     0
  0
SCALE
  5
60
102
{ACAD_REACTORS
330
47
102
}
330
47
100
AcDbScale
 70
     0
300
1/4" = 1'-0"
140
0.25
141
12.0
290
     0
  0
SCALE
  5
61
102
{ACAD_REACTORS
330
47
102
}
330
47
100
AcDbScale
 70
     0
300
3/8" = 1'-0"
140
0.375
141
12.0
290
     0
  0
SCALE
  5
62
102
{ACAD_REACTORS
330
47
102
}
330
47
100
AcDbScale
 70
     0
300
1/2" = 1'-0"
140
0.5
141
12.0
290
     0
  0
SCALE
  5
63
102
{ACAD_REACTORS
330
47
102
}
330
47
100
AcDbScale
 70
     0
300
3/4" = 1'-0"
140
0.75
141
12.0
290
     0
  0
SCALE
  5
64
102
{ACAD_REACTORS
330
47
102
}
330
47
100
AcDbScale
 70
     0
300
1" = 1'-0"
140
1.0
141
12.0
290
     0
  0
SCALE
  5
65
102
{ACAD_REACTORS
330
47
102
}
330
47
100
AcDbScale
 70
     0
300
1-1/2" = 1'-0"
140
1.5
141
12.0
290
     0
  0
SCALE
  5
66
102
{ACAD_REACTORS
330
47
102
}
330
47
100
AcDbScale
 70
     0
300
3" = 1'-0"
140
3.0
141
12.0
290
     0
  0
SCALE
  5
67
102
{ACAD_REACTORS
330
47
102
}
330
47
100
AcDbScale
 70
     0
300
6" = 1'-0"
140
6.0
141
12.0
290
     0
  0
SCALE
  5
68
102
{ACAD_REACTORS
330
47
102
}
330
47
100
AcDbScale
 70
     0
300
1'-0" = 1'-0"
140
12.0
141
12.0
290
     0
  0
ENDSEC
  0
EOF
