  0
SECTION
  2
HEADER
  9
$ACADVER
  1
AC1015
  9
$ACADMAINTVER
 70
     6
  9
$DWGCODEPAGE
  3
ANSI_1252
  9
$INSBASE
 10
0.0
 20
0.0
 30
0.0
  9
$EXTMIN
 10
0.0
 20
0.0
 30
0.0
  9
$EXTMAX
 10
48.0
 20
36.0
 30
0.0
  9
$LIMMIN
 10
0.0
 20
0.0
  9
$LIMMAX
 10
48.0
 20
36.0
  9
$ORTHOMODE
 70
     0
  9
$REGENMODE
 70
     1
  9
$FILLMODE
 70
     1
  9
$QTEXTMODE
 70
     0
  9
$MIRRTEXT
 70
     1
  9
$LTSCALE
 40
1.0
  9
$ATTMODE
 70
     1
  9
$TEXTSIZE
 40
0.5
  9
$TRACEWID
 40
0.05
  9
$TEXTSTYLE
  7
STANDARD
  9
$CLAYER
  8
0
  9
$CELTYPE
  6
ByLayer
  9
$CECOLOR
 62
   256
  9
$CELTSCALE
 40
1.0
  9
$DISPSILH
 70
     0
  9
$DIMSCALE
 40
1.0
  9
$DIMASZ
 40
0.3
  9
$DIMEXO
 40
0.1666666667
  9
$DIMDLI
 40
0.38
  9
$DIMRND
 40
0.0
  9
$DIMDLE
 40
0.0
  9
$DIMEXE
 40
0.375
  9
$DIMTP
 40
0.0
  9
$DIMTM
 40
0.0
  9
$DIMTXT
 40
0.5
  9
$DIMCEN
 40
0.09
  9
$DIMTSZ
 40
0.0
  9
$DIMTOL
 70
     0
  9
$DIMLIM
 70
     0
  9
$DIMTIH
 70
     1
  9
$DIMTOH
 70
     1
  9
$DIMSE1
 70
     0
  9
$DIMSE2
 70
     0
  9
$DIMTAD
 70
     0
  9
$DIMZIN
 70
     1
  9
$DIMBLK
  1

  9
$DIMASO
 70
     1
  9
$DIMSHO
 70
     1
  9
$DIMPOST
  1

  9
$DIMAPOST
  1

  9
$DIMALT
 70
     0
  9
$DIMALTD
 70
     2
  9
$DIMALTF
 40
25.4
  9
$DIMLFAC
 40
1.0
  9
$DIMTOFL
 70
     0
  9
$DIMTVP
 40
0.0
  9
$DIMTIX
 70
     0
  9
$DIMSOXD
 70
     0
  9
$DIMSAH
 70
     0
  9
$DIMBLK1
  1

  9
$DIMBLK2
  1

  9
$DIMSTYLE
  2
Standard
  9
$DIMCLRD
 70
     0
  9
$DIMCLRE
 70
     0
  9
$DIMCLRT
 70
     0
  9
$DIMTFAC
 40
1.0
  9
$DIMGAP
 40
0.125
  9
$DIMJUST
 70
     0
  9
$DIMSD1
 70
     0
  9
$DIMSD2
 70
     0
  9
$DIMTOLJ
 70
     1
  9
$DIMTZIN
 70
     1
  9
$DIMALTZ
 70
     0
  9
$DIMALTTZ
 70
     0
  9
$DIMUPT
 70
     0
  9
$DIMDEC
 70
     4
  9
$DIMTDEC
 70
     4
  9
$DIMALTU
 70
     2
  9
$DIMALTTD
 70
     2
  9
$DIMTXSTY
  7
STANDARD
  9
$DIMAUNIT
 70
     0
  9
$DIMADEC
 70
     2
  9
$DIMALTRND
 40
0.0
  9
$DIMAZIN
 70
     0
  9
$DIMDSEP
 70
    46
  9
$DIMATFIT
 70
     3
  9
$DIMFRAC
 70
     0
  9
$DIMLDRBLK
  1

  9
$DIMLUNIT
 70
     2
  9
$DIMLWD
 70
    -2
  9
$DIMLWE
 70
    -2
  9
$DIMTMOVE
 70
     0
  9
$LUNITS
 70
     2
  9
$LUPREC
 70
     4
  9
$SKETCHINC
 40
0.1
  9
$FILLETRAD
 40
0.5
  9
$AUNITS
 70
     0
  9
$AUPREC
 70
     2
  9
$MENU
  1
.
  9
$ELEVATION
 40
0.0
  9
$PELEVATION
 40
0.0
  9
$THICKNESS
 40
0.0
  9
$LIMCHECK
 70
     0
  9
$CHAMFERA
 40
0.0
  9
$CHAMFERB
 40
0.0
  9
$CHAMFERC
 40
0.0
  9
$CHAMFERD
 40
0.0
  9
$SKPOLY
 70
     0
  9
$TDCREATE
 40
2459506.334168449
  9
$TDUCREATE
 40
2459506.500835116
  9
$TDUPDATE
 40
2459506.33417287
  9
$TDUUPDATE
 40
2459506.500839537
  9
$TDINDWG
 40
0.0000000116
  9
$TDUSRTIMER
 40
0.0000000116
  9
$USRTIMER
 70
     1
  9
$ANGBASE
 50
0.0
  9
$ANGDIR
 70
     0
  9
$PDMODE
 70
     0
  9
$PDSIZE
 40
-1.0
  9
$PLINEWID
 40
0.0
  9
$SPLFRAME
 70
     0
  9
$SPLINETYPE
 70
     6
  9
$SPLINESEGS
 70
     8
  9
$HANDSEED
  5
3A0
  9
$SURFTAB1
 70
     6
  9
$SURFTAB2
 70
     6
  9
$SURFTYPE
 70
     6
  9
$SURFU
 70
     6
  9
$SURFV
 70
     6
  9
$UCSBASE
  2

  9
$UCSNAME
  2

  9
$UCSORG
 10
0.0
 20
0.0
 30
0.0
  9
$UCSXDIR
 10
1.0
 20
0.0
 30
0.0
  9
$UCSYDIR
 10
0.0
 20
1.0
 30
0.0
  9
$UCSORTHOREF
  2

  9
$UCSORTHOVIEW
 70
     0
  9
$UCSORGTOP
 10
0.0
 20
0.0
 30
0.0
  9
$UCSORGBOTTOM
 10
0.0
 20
0.0
 30
0.0
  9
$UCSORGLEFT
 10
0.0
 20
0.0
 30
0.0
  9
$UCSORGRIGHT
 10
0.0
 20
0.0
 30
0.0
  9
$UCSORGFRONT
 10
0.0
 20
0.0
 30
0.0
  9
$UCSORGBACK
 10
0.0
 20
0.0
 30
0.0
  9
$PUCSBASE
  2

  9
$PUCSNAME
  2

  9
$PUCSORG
 10
0.0
 20
0.0
 30
0.0
  9
$PUCSXDIR
 10
1.0
 20
0.0
 30
0.0
  9
$PUCSYDIR
 10
0.0
 20
1.0
 30
0.0
  9
$PUCSORTHOREF
  2

  9
$PUCSORTHOVIEW
 70
     0
  9
$PUCSORGTOP
 10
0.0
 20
0.0
 30
0.0
  9
$PUCSORGBOTTOM
 10
0.0
 20
0.0
 30
0.0
  9
$PUCSORGLEFT
 10
0.0
 20
0.0
 30
0.0
  9
$PUCSORGRIGHT
 10
0.0
 20
0.0
 30
0.0
  9
$PUCSORGFRONT
 10
0.0
 20
0.0
 30
0.0
  9
$PUCSORGBACK
 10
0.0
 20
0.0
 30
0.0
  9
$USERI1
 70
     0
  9
$USERI2
 70
     0
  9
$USERI3
 70
     0
  9
$USERI4
 70
     0
  9
$USERI5
 70
     0
  9
$USERR1
 40
0.0
  9
$USERR2
 40
0.0
  9
$USERR3
 40
0.0
  9
$USERR4
 40
0.0
  9
$USERR5
 40
0.0
  9
$WORLDVIEW
 70
     1
  9
$SHADEDGE
 70
     3
  9
$SHADEDIF
 70
    70
  9
$TILEMODE
 70
     1
  9
$MAXACTVP
 70
    64
  9
$PINSBASE
 10
0.0
 20
0.0
 30
0.0
  9
$PLIMCHECK
 70
     0
  9
$PEXTMIN
 10
1.0000000000E+20
 20
1.0000000000E+20
 30
1.0000000000E+20
  9
$PEXTMAX
 10
-1.0000000000E+20
 20
-1.0000000000E+20
 30
-1.0000000000E+20
  9
$PLIMMIN
 10
0.0
 20
0.0
  9
$PLIMMAX
 10
12.0
 20
9.0
  9
$UNITMODE
 70
     0
  9
$VISRETAIN
 70
     1
  9
$PLINEGEN
 70
     0
  9
$PSLTSCALE
 70
     1
  9
$TREEDEPTH
 70
  3020
  9
$CMLSTYLE
  2
Standard
  9
$CMLJUST
 70
     0
  9
$CMLSCALE
 40
1.0
  9
$PROXYGRAPHICS
 70
     1
  9
$MEASUREMENT
 70
     0
  9
$CELWEIGHT
370
    -1
  9
$ENDCAPS
280
     0
  9
$JOINSTYLE
280
     0
  9
$LWDISPLAY
290
     1
  9
$INSUNITS
 70
     1
  9
$HYPERLINKBASE
  1

  9
$STYLESHEET
  1

  9
$XEDIT
290
     1
  9
$CEPSNTYPE
380
     0
  9
$PSTYLEMODE
290
     1
  9
$FINGERPRINTGUID
  2
{4bae75e9-4c15-4863-a1d9-6d64a6285742}
  9
$VERSIONGUID
  2
{FAEB1C32-E019-11D5-929B-00C0DF256EC4}
  9
$EXTNAMES
290
     1
  9
$PSVPSCALE
 40
0.0
  9
$OLESTARTUP
290
     0
  0
ENDSEC
  0
SECTION
  2
CLASSES
  0
CLASS
  1
ACDBDICTIONARYWDFLT
  2
AcDbDictionaryWithDefault
  3
ObjectDBX Classes
 90
        0
280
     0
281
     0
  0
CLASS
  1
VISUALSTYLE
  2
AcDbVisualStyle
  3
ObjectDBX Classes
 90
     4095
280
     0
281
     0
  0
CLASS
  1
MATERIAL
  2
AcDbMaterial
  3
ObjectDBX Classes
 90
     1153
280
     0
281
     0
  0
CLASS
  1
SCALE
  2
AcDbScale
  3
ObjectDBX Classes
 90
     1153
280
     0
281
     0
  0
CLASS
  1
TABLESTYLE
  2
AcDbTableStyle
  3
ObjectDBX Classes
 90
     4095
280
     0
281
     0
  0
CLASS
  1
MLEADERSTYLE
  2
AcDbMLeaderStyle
  3
ACDB_MLEADERSTYLE_CLASS
 90
     4095
280
     0
281
     0
  0
CLASS
  1
SUN
  2
AcDbSun
  3
SCENEOE
 90
     1153
280
     0
281
     0
  0
CLASS
  1
ACDBPLACEHOLDER
  2
AcDbPlaceHolder
  3
ObjectDBX Classes
 90
        0
280
     0
281
     0
  0
CLASS
  1
LAYOUT
  2
AcDbLayout
  3
ObjectDBX Classes
 90
        0
280
     0
281
     0
  0
ENDSEC
  0
SECTION
  2
TABLES
  0
TABLE
  2
VPORT
  5
8
330
0
100
AcDbSymbolTable
 70
     1
  0
VPORT
  5
29
330
8
100
AcDbSymbolTableRecord
100
AcDbViewportTableRecord
  2
*Active
 70
     0
 10
0.0
 20
0.0
 11
1.0
 21
1.0
 12
24.0
 22
18.0
 13
0.0
 23
0.0
 14
0.5
 24
0.5
 15
0.5
 25
0.5
 16
0.0
 26
0.0
 36
1.0
 17
0.0
 27
0.0
 37
0.0
 40
36.0
 41
1.3333333333
 42
50.0
 43
0.0
 44
0.0
 50
0.0
 51
0.0
 71
     0
 72
  2000
 73
     1
 74
     3
 75
     0
 76
     0
 77
     0
 78
     0
281
     0
 65
     1
110
0.0
120
0.0
130
0.0
111
1.0
121
0.0
131
0.0
112
0.0
122
1.0
132
0.0
 79
     0
146
0.0
  0
ENDTAB
  0
TABLE
  2
LTYPE
  5
5
330
0
100
AcDbSymbolTable
 70
     8
  0
LTYPE
  5
14
330
5
100
AcDbSymbolTableRecord
100
AcDbLinetypeTableRecord
  2
ByBlock
 70
     0
  3

 72
    65
 73
     0
 40
0.0
  0
LTYPE
  5
15
330
5
100
AcDbSymbolTableRecord
100
AcDbLinetypeTableRecord
  2
ByLayer
 70
     0
  3

 72
    65
 73
     0
 40
0.0
  0
LTYPE
  5
16
330
5
100
AcDbSymbolTableRecord
100
AcDbLinetypeTableRecord
  2
Continuous
 70
     0
  3
Solid line
 72
    65
 73
     0
 40
0.0
  0
LTYPE
  5
6E
330
5
100
AcDbSymbolTableRecord
100
AcDbLinetypeTableRecord
  2
SLD-Solid
 70
     0
  3
SolidWorks Line Style
 72
    65
 73
     0
 40
0.0
  0
LTYPE
  5
6F
330
5
100
AcDbSymbolTableRecord
100
AcDbLinetypeTableRecord
  2
SLD-Dashed
 70
     0
  3
SolidWorks Line Style
 72
    65
 73
     2
 40
0.075
 49
0.05
 74
     0
 49
-0.025
 74
     0
  0
LTYPE
  5
70
330
5
100
AcDbSymbolTableRecord
100
AcDbLinetypeTableRecord
  2
SLD-Phantom
 70
     0
  3
SolidWorks Line Style
 72
    65
 73
     6
 40
0.5
 49
0.25
 74
     0
 49
-0.05
 74
     0
 49
0.05
 74
     0
 49
-0.05
 74
     0
 49
0.05
 74
     0
 49
-0.05
 74
     0
  0
LTYPE
  5
71
330
5
100
AcDbSymbolTableRecord
100
AcDbLinetypeTableRecord
  2
SLD-Chain
 70
     0
  3
SolidWorks Line Style
 72
    65
 73
     4
 40
0.4
 49
0.25
 74
     0
 49
-0.05
 74
     0
 49
0.05
 74
     0
 49
-0.05
 74
     0
  0
LTYPE
  5
72
330
5
100
AcDbSymbolTableRecord
100
AcDbLinetypeTableRecord
  2
SLD-Center
 70
     0
  3
SolidWorks Line Style
 72
    65
 73
     4
 40
0.75
 49
0.6
 74
     0
 49
-0.05
 74
     0
 49
0.05
 74
     0
 49
-0.05
 74
     0
  0
LTYPE
  5
73
330
5
100
AcDbSymbolTableRecord
100
AcDbLinetypeTableRecord
  2
SLD-Stitch
 70
     0
  3
SolidWorks Line Style
 72
    65
 73
     2
 40
0.025
 49
0.0
 74
     0
 49
-0.025
 74
     0
  0
LTYPE
  5
74
330
5
100
AcDbSymbolTableRecord
100
AcDbLinetypeTableRecord
  2
SLD-Thin-Thick-Chain
 70
     0
  3
SolidWorks Line Style
 72
    65
 73
     4
 40
0.4
 49
0.25
 74
     0
 49
-0.05
 74
     0
 49
0.05
 74
     0
 49
-0.05
 74
     0
  0
ENDTAB
  0
TABLE
  2
LAYER
  5
2
330
0
100
AcDbSymbolTable
 70
     6
  0
LAYER
  5
10
330
2
100
AcDbSymbolTableRecord
100
AcDbLayerTableRecord
  2
0
 70
     0
 62
     7
  6
Continuous
370
    -3
390
F
  0
LAYER
  5
75
330
2
100
AcDbSymbolTableRecord
100
AcDbLayerTableRecord
  2
FORMAT
 70
     0
 62
     7
  6
SLD-Solid
370
    -3
390
F
  0
LAYER
  5
76
330
2
100
AcDbSymbolTableRecord
100
AcDbLayerTableRecord
  2
NOTES
 70
     0
 62
     1
  6
SLD-Solid
370
    -3
390
F
  0
LAYER
  5
77
330
2
100
AcDbSymbolTableRecord
100
AcDbLayerTableRecord
  2
OBJECT
 70
     0
 62
     7
  6
SLD-Solid
370
    25
390
F
  0
LAYER
  5
78
330
2
100
AcDbSymbolTableRecord
100
AcDbLayerTableRecord
  2
DIMS
 70
     0
 62
     5
  6
SLD-Solid
370
    -3
390
F
  0
LAYER
  5
79
330
2
100
AcDbSymbolTableRecord
100
AcDbLayerTableRecord
  2
TITLE
 70
     0
 62
     8
  6
SLD-Solid
370
    -3
390
F
  0
ENDTAB
  0
TABLE
  2
STYLE
  5
3
330
0
100
AcDbSymbolTable
 70
     5
  0
STYLE
  5
11
330
3
100
AcDbSymbolTableRecord
100
AcDbTextStyleTableRecord
  2
STANDARD
 70
     0
 40
0.0
 41
1.0
 50
0.0
 71
     0
 42
0.5
  3
GOTHIC.TTF
  4

1001
ACAD
1000
CENTURY GOTHIC
1071
       34
  0
STYLE
  5
DF
330
3
100
AcDbSymbolTableRecord
100
AcDbTextStyleTableRecord
  2
SLDTEXTSTYLE0
 70
     0
 40
0.0
 41
0.913
 50
0.0
 71
     0
 42
0.5
  3
GOTHIC.TTF
  4

1001
ACAD
1000
Century Gothic
1071
      290
  0
STYLE
  5
EB
330
3
100
AcDbSymbolTableRecord
100
AcDbTextStyleTableRecord
  2
SLDTEXTSTYLE1
 70
     0
 40
0.0
 41
0.948
 50
0.0
 71
     0
 42
0.5
  3
ARIAL.TTF
  4

1001
ACAD
1000
Arial
1071
      290
  0
STYLE
  5
FD
330
3
100
AcDbSymbolTableRecord
100
AcDbTextStyleTableRecord
  2
SLDTEXTSTYLE2
 70
     0
 40
0.0
 41
0.87
 50
0.0
 71
     0
 42
0.5
  3
ARIALNB.TTF
  4

1001
ACAD
1000
Arial Narrow
1071
 33554722
  0
STYLE
  5
FF
330
3
100
AcDbSymbolTableRecord
100
AcDbTextStyleTableRecord
  2
SLDTEXTSTYLE3
 70
     0
 40
0.0
 41
0.87
 50
0.0
 71
     0
 42
0.5
  3
ARIALN.TTF
  4

1001
ACAD
1000
Arial Narrow
1071
      290
  0
ENDTAB
  0
TABLE
  2
VIEW
  5
6
330
0
100
AcDbSymbolTable
 70
     0
  0
ENDTAB
  0
TABLE
  2
UCS
  5
7
330
0
100
AcDbSymbolTable
 70
     0
  0
ENDTAB
  0
TABLE
  2
APPID
  5
9
330
0
100
AcDbSymbolTable
 70
     1
  0
APPID
  5
12
330
9
100
AcDbSymbolTableRecord
100
AcDbRegAppTableRecord
  2
ACAD
 70
     0
  0
ENDTAB
  0
TABLE
  2
DIMSTYLE
  5
A
330
0
100
AcDbSymbolTable
 70
     5
100
AcDbDimStyleTable
  0
DIMSTYLE
105
27
330
A
100
AcDbSymbolTableRecord
100
AcDbDimStyleTableRecord
  2
Standard
 70
     0
178
     0
340
11
  0
DIMSTYLE
105
17F
102
{ACAD_REACTORS
330
17E
330
27D
102
}
330
A
100
AcDbSymbolTableRecord
100
AcDbDimStyleTableRecord
  2
SLDDIMSTYLE0
 70
     0
 41
0.3
 44
0.0
 45
0.000000001
 78
    12
 79
     3
140
0.5
147
0.125
173
     1
178
     0
276
     2
277
     5
284
    12
340
DF
341
180
343
180
344
180
  0
DIMSTYLE
105
191
102
{ACAD_REACTORS
330
190
330
1C9
330
25E
330
2BE
330
2CD
102
}
330
A
100
AcDbSymbolTableRecord
100
AcDbDimStyleTableRecord
  2
SLDDIMSTYLE1
 70
     0
 41
0.3
 44
0.0
 45
0.000000001
 78
    12
 79
     3
140
0.5
147
0.125
173
     1
178
     0
271
     6
276
     2
277
     5
284
    12
340
DF
341
180
343
180
344
180
  0
DIMSTYLE
105
1A1
330
A
100
AcDbSymbolTableRecord
100
AcDbDimStyleTableRecord
  2
SLDDIMSTYLE2
 70
     0
 41
0.3
 44
0.0
 45
0.000000001
146
0.3
147
0.0
173
     1
178
     0
271
     0
272
     0
276
     2
277
     5
340
11
341
180
343
180
344
180
  0
DIMSTYLE
105
26E
102
{ACAD_REACTORS
330
26D
102
}
330
A
100
AcDbSymbolTableRecord
100
AcDbDimStyleTableRecord
  2
SLDDIMSTYLE3
 70
     0
 41
0.3
 44
0.0
 45
0.000000001
 78
    12
 79
     3
140
0.5
147
0.125
172
     1
173
     1
178
     0
271
     6
276
     2
277
     5
284
    12
289
     0
340
DF
341
180
343
180
344
180
  0
ENDTAB
  0
TABLE
  2
BLOCK_RECORD
  5
1
330
0
100
AcDbSymbolTable
 70
    14
  0
BLOCK_RECORD
  5
1F
330
1
100
AcDbSymbolTableRecord
100
AcDbBlockTableRecord
  2
*Model_Space
340
22
  0
BLOCK_RECORD
  5
1B
330
1
100
AcDbSymbolTableRecord
100
AcDbBlockTableRecord
  2
*Paper_Space
340
1E
  0
BLOCK_RECORD
  5
23
330
1
100
AcDbSymbolTableRecord
100
AcDbBlockTableRecord
  2
*Paper_Space0
340
26
  0
BLOCK_RECORD
  5
E4
330
1
100
AcDbSymbolTableRecord
100
AcDbBlockTableRecord
  2
SW_NOTE_0
340
0
102
{BLKREFS
331
E9
102
}
  0
BLOCK_RECORD
  5
F4
330
1
100
AcDbSymbolTableRecord
100
AcDbBlockTableRecord
  2
SW_NOTE_0_1
340
0
102
{BLKREFS
331
F9
102
}
  0
BLOCK_RECORD
  5
FA
330
1
100
AcDbSymbolTableRecord
100
AcDbBlockTableRecord
  2
SW_NOTE_0_2
340
0
102
{BLKREFS
331
103
102
}
  0
BLOCK_RECORD
  5
180
330
1
100
AcDbSymbolTableRecord
100
AcDbBlockTableRecord
  2
_Open90
340
0
102
{BLKREFS
331
189
331
18A
331
195
331
196
331
1CD
331
1CE
331
262
331
263
331
272
331
273
331
281
331
282
331
2C2
331
2C3
331
2D1
331
2D2
102
}
  0
BLOCK_RECORD
  5
186
330
1
100
AcDbSymbolTableRecord
100
AcDbBlockTableRecord
  2
_D
340
0
  0
BLOCK_RECORD
  5
192
330
1
100
AcDbSymbolTableRecord
100
AcDbBlockTableRecord
  2
_D_1
340
0
  0
BLOCK_RECORD
  5
1CA
330
1
100
AcDbSymbolTableRecord
100
AcDbBlockTableRecord
  2
_D_2
340
0
  0
BLOCK_RECORD
  5
25F
330
1
100
AcDbSymbolTableRecord
100
AcDbBlockTableRecord
  2
_D_3
340
0
  0
BLOCK_RECORD
  5
26F
330
1
100
AcDbSymbolTableRecord
100
AcDbBlockTableRecord
  2
_D_4
340
0
  0
BLOCK_RECORD
  5
27E
330
1
100
AcDbSymbolTableRecord
100
AcDbBlockTableRecord
  2
_D_5
340
0
  0
BLOCK_RECORD
  5
2BF
330
1
100
AcDbSymbolTableRecord
100
AcDbBlockTableRecord
  2
_D_6
340
0
  0
BLOCK_RECORD
  5
2CE
330
1
100
AcDbSymbolTableRecord
100
AcDbBlockTableRecord
  2
_D_7
340
0
  0
BLOCK_RECORD
  5
395
330
1
100
AcDbSymbolTableRecord
100
AcDbBlockTableRecord
  2
SW_NOTE_0_3
340
0
102
{BLKREFS
331
39A
102
}
  0
ENDTAB
  0
ENDSEC
  0
SECTION
  2
BLOCKS
  0
BLOCK
  5
20
330
1F
100
AcDbEntity
  8
0
100
AcDbBlockBegin
  2
*Model_Space
 70
     0
 10
0.0
 20
0.0
 30
0.0
  3
*Model_Space
  1

  0
ENDBLK
  5
21
330
1F
100
AcDbEntity
  8
0
100
AcDbBlockEnd
  0
BLOCK
  5
1C
330
1B
100
AcDbEntity
 67
     1
  8
0
100
AcDbBlockBegin
  2
*Paper_Space
 70
     0
 10
0.0
 20
0.0
 30
0.0
  3
*Paper_Space
  1

  0
ENDBLK
  5
1D
330
1B
100
AcDbEntity
 67
     1
  8
0
100
AcDbBlockEnd
  0
BLOCK
  5
24
330
23
100
AcDbEntity
  8
0
100
AcDbBlockBegin
  2
*Paper_Space0
 70
     0
 10
0.0
 20
0.0
 30
0.0
  3
*Paper_Space0
  1

  0
ENDBLK
  5
25
330
23
100
AcDbEntity
  8
0
100
AcDbBlockEnd
  0
BLOCK
  5
E5
330
E4
100
AcDbEntity
  8
0
100
AcDbBlockBegin
  2
SW_NOTE_0
 70
     0
 10
0.0
 20
0.0
 30
0.0
  3
SW_NOTE_0
  1

  0
MTEXT
  5
E7
330
E4
100
AcDbEntity
  8
NOTES
 62
     0
100
AcDbMText
 10
0.0
 20
0.638671875
 30
0.0
 40
0.5
 41
0.0
 71
     1
 72
     1
  1
3D view
  7
SLDTEXTSTYLE0
 73
     1
 44
1.0
  0
MTEXT
  5
E8
330
E4
100
AcDbEntity
  8
NOTES
 62
     0
100
AcDbMText
 10
0.0
 20
-0.3613281862
 30
0.0
 40
0.5
 41
0.0
 71
     1
 72
     1
  1
code 710-A
  7
SLDTEXTSTYLE0
 73
     1
 44
1.0
  0
ENDBLK
  5
E6
330
E4
100
AcDbEntity
  8
0
100
AcDbBlockEnd
  0
BLOCK
  5
F5
330
F4
100
AcDbEntity
  8
0
100
AcDbBlockBegin
  2
SW_NOTE_0_1
 70
     0
 10
0.0
 20
0.0
 30
0.0
  3
SW_NOTE_0_1
  1

  0
MTEXT
  5
F7
330
F4
100
AcDbEntity
  8
NOTES
 62
     0
100
AcDbMText
 10
0.0
 20
0.3759780908
 30
0.0
 40
0.2916666667
 41
0.0
 71
     1
 72
     1
  1
FROST PRODUCTS LTD.
  7
SLDTEXTSTYLE1
 73
     1
 44
1.0
  0
MTEXT
  5
F8
330
F4
100
AcDbEntity
  8
NOTES
 62
     0
100
AcDbMText
 10
0.0
 20
-0.0495142709
 30
0.0
 40
0.2291666667
 41
0.0
 71
     1
 72
     1
  1
5280 JOHN LUCAS DRIVE, BURLINGTON, ON, L7L 5Z9
  7
SLDTEXTSTYLE1
 73
     1
 44
1.0
  0
ENDBLK
  5
F6
330
F4
100
AcDbEntity
  8
0
100
AcDbBlockEnd
  0
BLOCK
  5
FB
330
FA
100
AcDbEntity
  8
0
100
AcDbBlockBegin
  2
SW_NOTE_0_2
 70
     0
 10
0.0
 20
0.0
 30
0.0
  3
SW_NOTE_0_2
  1

  0
MTEXT
  5
FE
330
FA
100
AcDbEntity
  8
NOTES
 62
     0
100
AcDbMText
 10
0.0
 20
0.2381282771
 30
0.0
 40
0.184729064
 41
0.0
 71
     1
 72
     1
  1
PROPRIETARY AND CONFIDENTIAL
  7
SLDTEXTSTYLE2
 73
     1
 44
1.0
  0
MTEXT
  5
100
330
FA
100
AcDbEntity
  8
NOTES
 62
     0
100
AcDbMText
 10
0.0
 20
-0.0504364796
 30
0.0
 40
0.25
 41
0.0
 71
     1
 72
     1
  1
THE INFORMATION CONTAINED IN THIS DRAWING IS THE SOLE PROPERTY OF 
  7
SLDTEXTSTYLE3
 73
     1
 44
1.0
  0
MTEXT
  5
101
330
FA
100
AcDbEntity
  8
NOTES
 62
     0
100
AcDbMText
 10
0.0
 20
-0.4231398941
 30
0.0
 40
0.25
 41
0.0
 71
     1
 72
     1
  1
FROST PRODUCTS LTD.  ANY REPRODUCTION IN PART OR AS A WHOLE WITHOUT 
  7
SLDTEXTSTYLE3
 73
     1
 44
1.0
  0
MTEXT
  5
102
330
FA
100
AcDbEntity
  8
NOTES
 62
     0
100
AcDbMText
 10
0.0
 20
-0.7958433086
 30
0.0
 40
0.25
 41
0.0
 71
     1
 72
     1
  1
THE WRITTEN PERMISSION OF FROST PRODUCTS LTD. IS PROHIBITED.
  7
SLDTEXTSTYLE3
 73
     1
 44
1.0
  0
ENDBLK
  5
FC
330
FA
100
AcDbEntity
  8
0
100
AcDbBlockEnd
  0
BLOCK
  5
181
330
180
100
AcDbEntity
  8
0
100
AcDbBlockBegin
  2
_Open90
 70
     0
 10
0.0
 20
0.0
 30
0.0
  3
_Open90
  1

  0
LINE
  5
183
330
180
100
AcDbEntity
  8
0
  6
ByBlock
 62
     0
370
    -2
100
AcDbLine
 10
-0.5
 20
0.5
 30
0.0
 11
0.0
 21
0.0
 31
0.0
  0
LINE
  5
184
330
180
100
AcDbEntity
  8
0
  6
ByBlock
 62
     0
370
    -2
100
AcDbLine
 10
0.0
 20
0.0
 30
0.0
 11
-0.5
 21
-0.5
 31
0.0
  0
LINE
  5
185
330
180
100
AcDbEntity
  8
0
  6
ByBlock
 62
     0
370
    -2
100
AcDbLine
 10
0.0
 20
0.0
 30
0.0
 11
-1.0
 21
0.0
 31
0.0
  0
ENDBLK
  5
182
330
180
100
AcDbEntity
  8
0
100
AcDbBlockEnd
  0
BLOCK
  5
187
330
186
100
AcDbEntity
  8
0
100
AcDbBlockBegin
  2
_D
 70
     0
 10
0.0
 20
0.0
 30
0.0
  3
_D
  1

  0
INSERT
  5
189
330
186
100
AcDbEntity
  8
DIMS
100
AcDbBlockReference
  2
_Open90
 10
5.8076965674
 20
5.5732763425
 30
0.0
 41
0.3
 42
0.3
 50
270.0
  0
INSERT
  5
18A
330
186
100
AcDbEntity
  8
DIMS
100
AcDbBlockReference
  2
_Open90
 10
5.8076965674
 20
10.1225954858
 30
0.0
 41
0.3
 42
0.3
 50
90.0
  0
LINE
  5
18B
330
186
100
AcDbEntity
  8
DIMS
100
AcDbLine
 10
6.9678015542
 20
10.1225954858
 30
0.0
 11
5.4326965674
 21
10.1225954858
 31
0.0
  0
LINE
  5
18C
330
186
100
AcDbEntity
  8
DIMS
100
AcDbLine
 10
5.8076965674
 20
10.1225954858
 30
0.0
 11
5.8076965674
 21
7.8486536291
 31
0.0
  0
MTEXT
  5
18D
330
186
100
AcDbEntity
  8
DIMS
100
AcDbMText
 10
-7.5332766766
 20
7.6935755353
 30
0.0
 40
0.5
 41
0.0
 71
     1
 72
     1
  1
                                                                 15" to 48" [381 to 1219] for unrestricted access
  7
SLDTEXTSTYLE0
 73
     1
 44
1.0
  0
MTEXT
  5
18E
330
186
100
AcDbEntity
  8
DIMS
100
AcDbMText
 10
5.715335456
 20
6.8998255114
 30
0.0
 40
0.5
 41
0.0
 71
     1
 72
     1
  1
 
  7
SLDTEXTSTYLE0
 73
     1
 44
1.0
  0
MTEXT
  5
18F
330
186
100
AcDbEntity
  8
DIMS
100
AcDbMText
 10
5.715335456
 20
6.1060754875
 30
0.0
 40
0.5
 41
0.0
 71
     1
 72
     1
  1
 
  7
SLDTEXTSTYLE0
 73
     1
 44
1.0
  0
ENDBLK
  5
188
330
186
100
AcDbEntity
  8
0
100
AcDbBlockEnd
  0
BLOCK
  5
193
330
192
100
AcDbEntity
  8
0
100
AcDbBlockBegin
  2
_D_1
 70
     0
 10
0.0
 20
0.0
 30
0.0
  3
_D_1
  1

  0
INSERT
  5
195
330
192
100
AcDbEntity
  8
DIMS
100
AcDbBlockReference
  2
_Open90
 10
14.8628146776
 20
16.9729891866
 30
-1.916
 41
0.3
 42
0.3
 50
0.0
  0
INSERT
  5
196
330
192
100
AcDbEntity
  8
DIMS
100
AcDbBlockReference
  2
_Open90
 10
6.6344682209
 20
16.9729891866
 30
-1.916
 41
0.3
 42
0.3
 50
180.0
  0
LINE
  5
197
330
192
100
AcDbEntity
  8
DIMS
100
AcDbLine
 10
10.5651887658
 20
17.024273885
 30
0.0
 11
11.0811610152
 21
17.024273885
 31
0.0
  0
LINE
  5
198
330
192
100
AcDbEntity
  8
DIMS
100
AcDbLine
 10
14.8628146776
 20
14.5924117588
 30
0.0
 11
14.8628146776
 21
17.3479891866
 31
0.0
  0
LINE
  5
199
330
192
100
AcDbEntity
  8
DIMS
100
AcDbLine
 10
6.6344682209
 20
14.5924117588
 30
0.0
 11
6.6344682209
 21
17.3479891866
 31
0.0
  0
LINE
  5
19A
330
192
100
AcDbEntity
  8
DIMS
100
AcDbLine
 10
14.8628146776
 20
16.9729891866
 30
0.0
 11
11.3606749546
 21
16.9729891866
 31
0.0
  0
LINE
  5
19B
330
192
100
AcDbEntity
  8
DIMS
100
AcDbLine
 10
6.6344682209
 20
16.9729891866
 30
0.0
 11
10.1224804183
 21
16.9729891866
 31
0.0
  0
MTEXT
  5
19C
330
192
100
AcDbEntity
  8
DIMS
100
AcDbMText
 10
10.1224804183
 20
17.2536749454
 30
0.0
 40
0.5
 41
0.0
 71
     1
 72
     1
  1
8
  7
SLDTEXTSTYLE0
 73
     1
 44
1.0
  0
MTEXT
  5
19D
330
192
100
AcDbEntity
  8
DIMS
100
AcDbMText
 10
10.6384526678
 20
17.6189874445
 30
0.0
 40
0.5
 41
0.0
 71
     1
 72
     1
  1
1
  7
SLDTEXTSTYLE0
 73
     1
 44
1.0
  0
MTEXT
  5
19E
330
192
100
AcDbEntity
  8
DIMS
100
AcDbMText
 10
10.6384526678
 20
16.9578068659
 30
0.0
 40
0.5
 41
0.0
 71
     1
 72
     1
  1
4
  7
SLDTEXTSTYLE0
 73
     1
 44
1.0
  0
MTEXT
  5
19F
330
192
100
AcDbEntity
  8
DIMS
100
AcDbMText
 10
11.1544249172
 20
17.2536749454
 30
0.0
 40
0.5
 41
0.0
 71
     1
 72
     1
  1
"
  7
SLDTEXTSTYLE0
 73
     1
 44
1.0
  0
ENDBLK
  5
194
330
192
100
AcDbEntity
  8
0
100
AcDbBlockEnd
  0
BLOCK
  5
1CB
330
1CA
100
AcDbEntity
  8
0
100
AcDbBlockBegin
  2
_D_2
 70
     0
 10
0.0
 20
0.0
 30
0.0
  3
_D_2
  1

  0
INSERT
  5
1CD
330
1CA
100
AcDbEntity
  8
DIMS
100
AcDbBlockReference
  2
_Open90
 10
22.2198962788
 20
10.1225954858
 30
0.0
 41
0.3
 42
0.3
 50
270.0
  0
INSERT
  5
1CE
330
1CA
100
AcDbEntity
  8
DIMS
100
AcDbBlockReference
  2
_Open90
 10
22.2198962788
 20
14.9257450921
 30
0.0
 41
0.3
 42
0.3
 50
90.0
  0
LINE
  5
1CF
330
1CA
100
AcDbEntity
  8
DIMS
100
AcDbLine
 10
21.8587851721
 20
12.6260561806
 30
0.0
 11
22.744201867
 21
12.6260561806
 31
0.0
  0
LINE
  5
1D0
330
1CA
100
AcDbEntity
  8
DIMS
100
AcDbLine
 10
21.2842007408
 20
10.1225954858
 30
0.0
 11
22.5948962788
 21
10.1225954858
 31
0.0
  0
LINE
  5
1D1
330
1CA
100
AcDbEntity
  8
DIMS
100
AcDbLine
 10
21.2842007408
 20
14.9257450921
 30
0.0
 11
22.5948962788
 21
14.9257450921
 31
0.0
  0
LINE
  5
1D2
330
1CA
100
AcDbEntity
  8
DIMS
100
AcDbLine
 10
22.2198962788
 20
10.1225954858
 30
0.0
 11
22.2198962788
 21
11.920917329
 31
0.0
  0
LINE
  5
1D3
330
1CA
100
AcDbEntity
  8
DIMS
100
AcDbLine
 10
22.2198962788
 20
14.9257450921
 30
0.0
 11
22.2198962788
 21
13.2286256355
 31
0.0
  0
MTEXT
  5
1D4
330
1CA
100
AcDbEntity
  8
DIMS
100
AcDbMText
 10
21.4160768246
 20
12.8554572411
 30
0.0
 40
0.5
 41
0.0
 71
     1
 72
     1
  1
4
  7
SLDTEXTSTYLE0
 73
     1
 44
1.0
  0
MTEXT
  5
1D5
330
1CA
100
AcDbEntity
  8
DIMS
100
AcDbMText
 10
21.9320490741
 20
13.2207697401
 30
0.0
 40
0.5
 41
0.0
 71
     1
 72
     1
  1
13
  7
SLDTEXTSTYLE0
 73
     1
 44
1.0
  0
MTEXT
  5
1D6
330
1CA
100
AcDbEntity
  8
DIMS
100
AcDbMText
 10
21.9320490741
 20
12.5595891616
 30
0.0
 40
0.5
 41
0.0
 71
     1
 72
     1
  1
16
  7
SLDTEXTSTYLE0
 73
     1
 44
1.0
  0
MTEXT
  5
1D7
330
1CA
100
AcDbEntity
  8
DIMS
100
AcDbMText
 10
22.817465769
 20
12.8554572411
 30
0.0
 40
0.5
 41
0.0
 71
     1
 72
     1
  1
"
  7
SLDTEXTSTYLE0
 73
     1
 44
1.0
  0
ENDBLK
  5
1CC
330
1CA
100
AcDbEntity
  8
0
100
AcDbBlockEnd
  0
BLOCK
  5
260
330
25F
100
AcDbEntity
  8
0
100
AcDbBlockBegin
  2
_D_3
 70
     0
 10
0.0
 20
0.0
 30
0.0
  3
_D_3
  1

  0
INSERT
  5
262
330
25F
100
AcDbEntity
  8
DIMS
100
AcDbBlockReference
  2
_Open90
 10
29.919980342
 20
15.7918868244
 30
1.916
 41
0.3
 42
0.3
 50
180.0
  0
INSERT
  5
263
330
25F
100
AcDbEntity
  8
DIMS
100
AcDbBlockReference
  2
_Open90
 10
31.402980342
 20
15.7918868244
 30
1.916
 41
0.3
 42
0.3
 50
0.0
  0
LINE
  5
264
330
25F
100
AcDbEntity
  8
DIMS
100
AcDbLine
 10
28.7025176262
 20
15.8431715228
 30
0.0
 11
29.2184898757
 21
15.8431715228
 31
0.0
  0
LINE
  5
265
330
25F
100
AcDbEntity
  8
DIMS
100
AcDbLine
 10
29.919980342
 20
13.7922621525
 30
0.0
 11
29.919980342
 21
16.1668868244
 31
0.0
  0
LINE
  5
266
330
25F
100
AcDbEntity
  8
DIMS
100
AcDbLine
 10
31.402980342
 20
13.7922621525
 30
0.0
 11
31.402980342
 21
16.1668868244
 31
0.0
  0
LINE
  5
267
330
25F
100
AcDbEntity
  8
DIMS
100
AcDbLine
 10
29.919980342
 20
15.7918868244
 30
0.0
 11
29.4980038151
 21
15.7918868244
 31
0.0
  0
LINE
  5
268
330
25F
100
AcDbEntity
  8
DIMS
100
AcDbLine
 10
31.402980342
 20
15.7918868244
 30
0.0
 11
29.919980342
 21
15.7918868244
 31
0.0
  0
MTEXT
  5
269
330
25F
100
AcDbEntity
  8
DIMS
100
AcDbMText
 10
28.2598092788
 20
16.0725725832
 30
0.0
 40
0.5
 41
0.0
 71
     1
 72
     1
  1
1
  7
SLDTEXTSTYLE0
 73
     1
 44
1.0
  0
MTEXT
  5
26A
330
25F
100
AcDbEntity
  8
DIMS
100
AcDbMText
 10
28.7757815282
 20
16.4378850823
 30
0.0
 40
0.5
 41
0.0
 71
     1
 72
     1
  1
1
  7
SLDTEXTSTYLE0
 73
     1
 44
1.0
  0
MTEXT
  5
26B
330
25F
100
AcDbEntity
  8
DIMS
100
AcDbMText
 10
28.7757815282
 20
15.7767045037
 30
0.0
 40
0.5
 41
0.0
 71
     1
 72
     1
  1
2
  7
SLDTEXTSTYLE0
 73
     1
 44
1.0
  0
MTEXT
  5
26C
330
25F
100
AcDbEntity
  8
DIMS
100
AcDbMText
 10
29.2917537777
 20
16.0725725832
 30
0.0
 40
0.5
 41
0.0
 71
     1
 72
     1
  1
"
  7
SLDTEXTSTYLE0
 73
     1
 44
1.0
  0
ENDBLK
  5
261
330
25F
100
AcDbEntity
  8
0
100
AcDbBlockEnd
  0
BLOCK
  5
270
330
26F
100
AcDbEntity
  8
0
100
AcDbBlockBegin
  2
_D_4
 70
     0
 10
0.0
 20
0.0
 30
0.0
  3
_D_4
  1

  0
INSERT
  5
272
330
26F
100
AcDbEntity
  8
DIMS
100
AcDbBlockReference
  2
_Open90
 10
25.6811653813
 20
12.1495954858
 30
1.916
 41
0.3
 42
0.3
 50
90.0
  0
INSERT
  5
273
330
26F
100
AcDbEntity
  8
DIMS
100
AcDbBlockReference
  2
_Open90
 10
25.6811653813
 20
13.6255954858
 30
1.916
 41
0.3
 42
0.3
 50
270.0
  0
LINE
  5
274
330
26F
100
AcDbEntity
  8
DIMS
100
AcDbLine
 10
25.5047764606
 20
12.9521012838
 30
0.0
 11
26.0207487101
 21
12.9521012838
 31
0.0
  0
LINE
  5
275
330
26F
100
AcDbEntity
  8
DIMS
100
AcDbLine
 10
30.4948136753
 20
12.1495954858
 30
0.0
 11
25.3061653813
 21
12.1495954858
 31
0.0
  0
LINE
  5
276
330
26F
100
AcDbEntity
  8
DIMS
100
AcDbLine
 10
29.7533136753
 20
13.6255954858
 30
0.0
 11
25.3061653813
 21
13.6255954858
 31
0.0
  0
LINE
  5
277
330
26F
100
AcDbEntity
  8
DIMS
100
AcDbLine
 10
25.6811653813
 20
12.1495954858
 30
0.0
 11
25.6811653813
 21
11.8495954858
 31
0.0
  0
LINE
  5
278
330
26F
100
AcDbEntity
  8
DIMS
100
AcDbLine
 10
25.6811653813
 20
13.6255954858
 30
0.0
 11
25.6811653813
 21
13.9255954858
 31
0.0
  0
MTEXT
  5
279
330
26F
100
AcDbEntity
  8
DIMS
100
AcDbMText
 10
25.0620681132
 20
13.1815023442
 30
0.0
 40
0.5
 41
0.0
 71
     1
 72
     1
  1
1
  7
SLDTEXTSTYLE0
 73
     1
 44
1.0
  0
MTEXT
  5
27A
330
26F
100
AcDbEntity
  8
DIMS
100
AcDbMText
 10
25.5780403626
 20
13.5468148433
 30
0.0
 40
0.5
 41
0.0
 71
     1
 72
     1
  1
1
  7
SLDTEXTSTYLE0
 73
     1
 44
1.0
  0
MTEXT
  5
27B
330
26F
100
AcDbEntity
  8
DIMS
100
AcDbMText
 10
25.5780403626
 20
12.8856342647
 30
0.0
 40
0.5
 41
0.0
 71
     1
 72
     1
  1
2
  7
SLDTEXTSTYLE0
 73
     1
 44
1.0
  0
MTEXT
  5
27C
330
26F
100
AcDbEntity
  8
DIMS
100
AcDbMText
 10
26.0940126121
 20
13.1815023442
 30
0.0
 40
0.5
 41
0.0
 71
     1
 72
     1
  1
"
  7
SLDTEXTSTYLE0
 73
     1
 44
1.0
  0
ENDBLK
  5
271
330
26F
100
AcDbEntity
  8
0
100
AcDbBlockEnd
  0
BLOCK
  5
27F
330
27E
100
AcDbEntity
  8
0
100
AcDbBlockBegin
  2
_D_5
 70
     0
 10
0.0
 20
0.0
 30
0.0
  3
_D_5
  1

  0
INSERT
  5
281
330
27E
100
AcDbEntity
  8
DIMS
100
AcDbBlockReference
  2
_Open90
 10
25.6811653813
 20
12.1495954858
 30
1.916
 41
0.3
 42
0.3
 50
90.0
  0
INSERT
  5
282
330
27E
100
AcDbEntity
  8
DIMS
100
AcDbBlockReference
  2
_Open90
 10
25.6811653813
 20
10.1225954858
 30
1.916
 41
0.3
 42
0.3
 50
270.0
  0
LINE
  5
283
330
27E
100
AcDbEntity
  8
DIMS
100
AcDbLine
 10
30.4948136753
 20
12.1495954858
 30
0.0
 11
25.3061653813
 21
12.1495954858
 31
0.0
  0
LINE
  5
284
330
27E
100
AcDbEntity
  8
DIMS
100
AcDbLine
 10
26.8806404469
 20
10.1225954858
 30
0.0
 11
25.3061653813
 21
10.1225954858
 31
0.0
  0
LINE
  5
285
330
27E
100
AcDbEntity
  8
DIMS
100
AcDbLine
 10
25.6811653813
 20
12.1495954858
 30
0.0
 11
25.6811653813
 21
11.514152007
 31
0.0
  0
LINE
  5
286
330
27E
100
AcDbEntity
  8
DIMS
100
AcDbLine
 10
25.6811653813
 20
10.1225954858
 30
0.0
 11
25.6811653813
 21
10.7204019831
 31
0.0
  0
MTEXT
  5
287
330
27E
100
AcDbEntity
  8
DIMS
100
AcDbMText
 10
25.3933181582
 20
11.3590739131
 30
0.0
 40
0.5
 41
0.0
 71
     1
 72
     1
  1
2"
  7
SLDTEXTSTYLE0
 73
     1
 44
1.0
  0
ENDBLK
  5
280
330
27E
100
AcDbEntity
  8
0
100
AcDbBlockEnd
  0
BLOCK
  5
2C0
330
2BF
100
AcDbEntity
  8
0
100
AcDbBlockBegin
  2
_D_6
 70
     0
 10
0.0
 20
0.0
 30
0.0
  3
_D_6
  1

  0
INSERT
  5
2C2
330
2BF
100
AcDbEntity
  8
DIMS
100
AcDbBlockReference
  2
_Open90
 10
15.7289564099
 20
27.8694582945
 30
-4.094488189
 41
0.3
 42
0.3
 50
90.0
  0
INSERT
  5
2C3
330
2BF
100
AcDbEntity
  8
DIMS
100
AcDbBlockReference
  2
_Open90
 10
15.7289564099
 20
24.9694582945
 30
-4.094488189
 41
0.3
 42
0.3
 50
270.0
  0
LINE
  5
2C4
330
2BF
100
AcDbEntity
  8
DIMS
100
AcDbLine
 10
15.5525674892
 20
26.5215515062
 30
0.0
 11
16.0685397386
 21
26.5215515062
 31
0.0
  0
LINE
  5
2C5
330
2BF
100
AcDbEntity
  8
DIMS
100
AcDbLine
 10
14.5294813443
 20
27.8694582945
 30
0.0
 11
16.1039564099
 21
27.8694582945
 31
0.0
  0
LINE
  5
2C6
330
2BF
100
AcDbEntity
  8
DIMS
100
AcDbLine
 10
14.5294813443
 20
24.9694582945
 30
0.0
 11
16.1039564099
 21
24.9694582945
 31
0.0
  0
LINE
  5
2C7
330
2BF
100
AcDbEntity
  8
DIMS
100
AcDbLine
 10
15.7289564099
 20
27.8694582945
 30
0.0
 11
15.7289564099
 21
27.1241209611
 31
0.0
  0
LINE
  5
2C8
330
2BF
100
AcDbEntity
  8
DIMS
100
AcDbLine
 10
15.7289564099
 20
24.9694582945
 30
0.0
 11
15.7289564099
 21
25.8164126545
 31
0.0
  0
MTEXT
  5
2C9
330
2BF
100
AcDbEntity
  8
DIMS
100
AcDbMText
 10
15.1098591417
 20
26.7509525666
 30
0.0
 40
0.5
 41
0.0
 71
     1
 72
     1
  1
2
  7
SLDTEXTSTYLE0
 73
     1
 44
1.0
  0
MTEXT
  5
2CA
330
2BF
100
AcDbEntity
  8
DIMS
100
AcDbMText
 10
15.6258313912
 20
27.1162650657
 30
0.0
 40
0.5
 41
0.0
 71
     1
 72
     1
  1
7
  7
SLDTEXTSTYLE0
 73
     1
 44
1.0
  0
MTEXT
  5
2CB
330
2BF
100
AcDbEntity
  8
DIMS
100
AcDbMText
 10
15.6258313912
 20
26.4550844871
 30
0.0
 40
0.5
 41
0.0
 71
     1
 72
     1
  1
8
  7
SLDTEXTSTYLE0
 73
     1
 44
1.0
  0
MTEXT
  5
2CC
330
2BF
100
AcDbEntity
  8
DIMS
100
AcDbMText
 10
16.1418036406
 20
26.7509525666
 30
0.0
 40
0.5
 41
0.0
 71
     1
 72
     1
  1
"
  7
SLDTEXTSTYLE0
 73
     1
 44
1.0
  0
ENDBLK
  5
2C1
330
2BF
100
AcDbEntity
  8
0
100
AcDbBlockEnd
  0
BLOCK
  5
2CF
330
2CE
100
AcDbEntity
  8
0
100
AcDbBlockBegin
  2
_D_7
 70
     0
 10
0.0
 20
0.0
 30
0.0
  3
_D_7
  1

  0
INSERT
  5
2D1
330
2CE
100
AcDbEntity
  8
DIMS
100
AcDbBlockReference
  2
_Open90
 10
17.1462792445
 20
24.0374582945
 30
-4.094488189
 41
0.3
 42
0.3
 50
270.0
  0
INSERT
  5
2D2
330
2CE
100
AcDbEntity
  8
DIMS
100
AcDbBlockReference
  2
_Open90
 10
17.1462792445
 20
27.8694582945
 30
-4.094488189
 41
0.3
 42
0.3
 50
90.0
  0
LINE
  5
2D3
330
2CE
100
AcDbEntity
  8
DIMS
100
AcDbLine
 10
16.7851681378
 20
25.7960129811
 30
0.0
 11
17.6705848327
 21
25.7960129811
 31
0.0
  0
LINE
  5
2D4
330
2CE
100
AcDbEntity
  8
DIMS
100
AcDbLine
 10
11.4971791779
 20
24.0374582945
 30
0.0
 11
17.5212792445
 21
24.0374582945
 31
0.0
  0
LINE
  5
2D5
330
2CE
100
AcDbEntity
  8
DIMS
100
AcDbLine
 10
14.5294813443
 20
27.8694582945
 30
0.0
 11
17.5212792445
 21
27.8694582945
 31
0.0
  0
LINE
  5
2D6
330
2CE
100
AcDbEntity
  8
DIMS
100
AcDbLine
 10
17.1462792445
 20
24.0374582945
 30
0.0
 11
17.1462792445
 21
25.0908741294
 31
0.0
  0
LINE
  5
2D7
330
2CE
100
AcDbEntity
  8
DIMS
100
AcDbLine
 10
17.1462792445
 20
27.8694582945
 30
0.0
 11
17.1462792445
 21
26.398582436
 31
0.0
  0
MTEXT
  5
2D8
330
2CE
100
AcDbEntity
  8
DIMS
100
AcDbMText
 10
16.3424597903
 20
26.0254140415
 30
0.0
 40
0.5
 41
0.0
 71
     1
 72
     1
  1
3
  7
SLDTEXTSTYLE0
 73
     1
 44
1.0
  0
MTEXT
  5
2D9
330
2CE
100
AcDbEntity
  8
DIMS
100
AcDbMText
 10
16.8584320398
 20
26.3907265406
 30
0.0
 40
0.5
 41
0.0
 71
     1
 72
     1
  1
13
  7
SLDTEXTSTYLE0
 73
     1
 44
1.0
  0
MTEXT
  5
2DA
330
2CE
100
AcDbEntity
  8
DIMS
100
AcDbMText
 10
16.8584320398
 20
25.729545962
 30
0.0
 40
0.5
 41
0.0
 71
     1
 72
     1
  1
16
  7
SLDTEXTSTYLE0
 73
     1
 44
1.0
  0
MTEXT
  5
2DB
330
2CE
100
AcDbEntity
  8
DIMS
100
AcDbMText
 10
17.7438487347
 20
26.0254140415
 30
0.0
 40
0.5
 41
0.0
 71
     1
 72
     1
  1
"
  7
SLDTEXTSTYLE0
 73
     1
 44
1.0
  0
ENDBLK
  5
2D0
330
2CE
100
AcDbEntity
  8
0
100
AcDbBlockEnd
  0
BLOCK
  5
396
330
395
100
AcDbEntity
  8
0
100
AcDbBlockBegin
  2
SW_NOTE_0_3
 70
     0
 10
0.0
 20
0.0
 30
0.0
  3
SW_NOTE_0_3
  1

  0
MTEXT
  5
398
330
395
100
AcDbEntity
  8
NOTES
 62
     0
100
AcDbMText
 10
0.0
 20
0.638671875
 30
0.0
 40
0.5
 41
0.0
 71
     1
 72
     1
  1
3D view
  7
SLDTEXTSTYLE0
 73
     1
 44
1.0
  0
MTEXT
  5
399
330
395
100
AcDbEntity
  8
NOTES
 62
     0
100
AcDbMText
 10
0.0
 20
-0.3613281862
 30
0.0
 40
0.5
 41
0.0
 71
     1
 72
     1
  1
assembly
  7
SLDTEXTSTYLE0
 73
     1
 44
1.0
  0
ENDBLK
  5
397
330
395
100
AcDbEntity
  8
0
100
AcDbBlockEnd
  0
ENDSEC
  0
SECTION
  2
ENTITIES
  0
LINE
  5
7A
330
1F
100
AcDbEntity
  8
TITLE
370
    35
100
AcDbLine
 10
30.5182229757
 20
1.4876117645
 30
0.0
 11
47.4999864512
 21
1.4876117645
 31
0.0
  0
LINE
  5
7B
330
1F
100
AcDbEntity
  8
TITLE
370
    35
100
AcDbLine
 10
47.4999317442
 20
5.4753603936
 30
0.0
 11
37.3105350723
 21
5.4753603936
 31
0.0
  0
LINE
  5
7C
330
1F
100
AcDbEntity
  8
TITLE
  6
SLD-Solid
370
    18
100
AcDbLine
 10
0.5
 20
0.5
 30
0.0
 11
0.5
 21
35.5
 31
0.0
  0
LINE
  5
7D
330
1F
100
AcDbEntity
  8
TITLE
  6
SLD-Solid
370
    18
100
AcDbLine
 10
0.5
 20
35.5
 30
0.0
 11
47.5
 21
35.5
 31
0.0
  0
LINE
  5
7E
330
1F
100
AcDbEntity
  8
TITLE
370
    35
100
AcDbLine
 10
30.5182229757
 20
2.5427877231
 30
0.0
 11
23.5059791203
 21
2.5427877231
 31
0.0
  0
LINE
  5
7F
330
1F
100
AcDbEntity
  8
TITLE
370
    35
100
AcDbLine
 10
30.5182229757
 20
1.4876117645
 30
0.0
 11
23.5059791203
 21
1.4876117645
 31
0.0
  0
LINE
  5
80
330
1F
100
AcDbEntity
  8
TITLE
  6
SLD-Solid
370
    18
100
AcDbLine
 10
47.5
 20
35.5
 30
0.0
 11
47.5
 21
0.5
 31
0.0
  0
LINE
  5
81
330
1F
100
AcDbEntity
  8
TITLE
  6
SLD-Solid
370
    18
100
AcDbLine
 10
47.5
 20
0.5
 30
0.0
 11
0.5
 21
0.5
 31
0.0
  0
LINE
  5
82
330
1F
100
AcDbEntity
  8
TITLE
370
    35
100
AcDbLine
 10
30.5182229757
 20
1.4876117645
 30
0.0
 11
30.5182229757
 21
3.5979636817
 31
0.0
  0
LINE
  5
83
330
1F
100
AcDbEntity
  8
TITLE
370
    35
100
AcDbLine
 10
23.5059791203
 20
3.5979636817
 30
0.0
 11
23.5059791203
 21
0.5
 31
0.0
  0
LINE
  5
84
330
1F
100
AcDbEntity
  8
TITLE
370
    35
100
AcDbLine
 10
23.5059791203
 20
0.5
 30
0.0
 11
47.5
 21
0.5
 31
0.0
  0
LINE
  5
85
330
1F
100
AcDbEntity
  8
TITLE
370
    35
100
AcDbLine
 10
47.4999317442
 20
5.4753603936
 30
0.0
 11
47.5
 21
0.5
 31
0.0
  0
LINE
  5
86
330
1F
100
AcDbEntity
  8
TITLE
  6
SLD-Solid
370
    18
100
AcDbLine
 10
0.4999606299
 20
18.0
 30
0.0
 11
0.5000393701
 21
18.0
 31
0.0
  0
LINE
  5
87
330
1F
100
AcDbEntity
  8
TITLE
370
    35
100
AcDbLine
 10
30.5182229757
 20
3.5979636817
 30
0.0
 11
23.5059791203
 21
3.5979636817
 31
0.0
  0
LINE
  5
88
330
1F
100
AcDbEntity
  8
TITLE
370
    35
100
AcDbLine
 10
30.5182229757
 20
3.5979636817
 30
0.0
 11
47.4997615643
 21
3.5979648343
 31
0.0
  0
LINE
  5
89
330
1F
100
AcDbEntity
  8
TITLE
370
    35
100
AcDbLine
 10
37.3105350723
 20
5.4753603936
 30
0.0
 11
37.3105350723
 21
0.4636772425
 31
0.0
  0
LINE
  5
8A
330
1F
100
AcDbEntity
  8
TITLE
  6
SLD-Solid
370
    18
100
AcDbLine
 10
24.0
 20
35.5000393701
 30
0.0
 11
24.0
 21
35.4999606299
 31
0.0
  0
LINE
  5
8B
330
1F
100
AcDbEntity
  8
TITLE
  6
SLD-Solid
370
    18
100
AcDbLine
 10
47.5000393701
 20
18.0
 30
0.0
 11
47.4999606299
 21
18.0
 31
0.0
  0
LINE
  5
8C
330
1F
100
AcDbEntity
  8
TITLE
  6
SLD-Solid
370
    18
100
AcDbLine
 10
24.0
 20
0.4999606299
 30
0.0
 11
24.0
 21
0.5000393701
 31
0.0
  0
LINE
  5
8D
330
1F
100
AcDbEntity
  8
TITLE
  6
SLD-Solid
370
    18
100
AcDbLine
 10
0.5
 20
2.2519685039
 30
0.0
 11
0.1653543307
 21
2.2519685039
 31
0.0
  0
LINE
  5
8E
330
1F
100
AcDbEntity
  8
TITLE
  6
SLD-Solid
370
    18
100
AcDbLine
 10
47.5
 20
2.2519685039
 30
0.0
 11
47.8346456693
 21
2.2519685039
 31
0.0
  0
LINE
  5
8F
330
1F
100
AcDbEntity
  8
TITLE
  6
SLD-Solid
370
    18
100
AcDbLine
 10
0.5
 20
4.2204724409
 30
0.0
 11
0.1653543307
 21
4.2204724409
 31
0.0
  0
LINE
  5
90
330
1F
100
AcDbEntity
  8
TITLE
  6
SLD-Solid
370
    18
100
AcDbLine
 10
47.5
 20
4.2204724409
 30
0.0
 11
47.8346456693
 21
4.2204724409
 31
0.0
  0
LINE
  5
91
330
1F
100
AcDbEntity
  8
TITLE
  6
SLD-Solid
370
    18
100
AcDbLine
 10
0.5
 20
6.188976378
 30
0.0
 11
0.1653543307
 21
6.188976378
 31
0.0
  0
LINE
  5
92
330
1F
100
AcDbEntity
  8
TITLE
  6
SLD-Solid
370
    18
100
AcDbLine
 10
47.5
 20
6.188976378
 30
0.0
 11
47.8346456693
 21
6.188976378
 31
0.0
  0
LINE
  5
93
330
1F
100
AcDbEntity
  8
TITLE
  6
SLD-Solid
370
    18
100
AcDbLine
 10
0.5
 20
8.157480315
 30
0.0
 11
0.1653543307
 21
8.157480315
 31
0.0
  0
LINE
  5
94
330
1F
100
AcDbEntity
  8
TITLE
  6
SLD-Solid
370
    18
100
AcDbLine
 10
47.5
 20
8.157480315
 30
0.0
 11
47.8346456693
 21
8.157480315
 31
0.0
  0
LINE
  5
95
330
1F
100
AcDbEntity
  8
TITLE
  6
SLD-Solid
370
    18
100
AcDbLine
 10
0.5
 20
10.125984252
 30
0.0
 11
0.1653543307
 21
10.125984252
 31
0.0
  0
LINE
  5
96
330
1F
100
AcDbEntity
  8
TITLE
  6
SLD-Solid
370
    18
100
AcDbLine
 10
47.5
 20
10.125984252
 30
0.0
 11
47.8346456693
 21
10.125984252
 31
0.0
  0
LINE
  5
97
330
1F
100
AcDbEntity
  8
TITLE
  6
SLD-Solid
370
    18
100
AcDbLine
 10
0.5
 20
12.094488189
 30
0.0
 11
0.1653543307
 21
12.094488189
 31
0.0
  0
LINE
  5
98
330
1F
100
AcDbEntity
  8
TITLE
  6
SLD-Solid
370
    18
100
AcDbLine
 10
47.5
 20
12.094488189
 30
0.0
 11
47.8346456693
 21
12.094488189
 31
0.0
  0
LINE
  5
99
330
1F
100
AcDbEntity
  8
TITLE
  6
SLD-Solid
370
    18
100
AcDbLine
 10
0.5
 20
14.062992126
 30
0.0
 11
0.1653543307
 21
14.062992126
 31
0.0
  0
LINE
  5
9A
330
1F
100
AcDbEntity
  8
TITLE
  6
SLD-Solid
370
    18
100
AcDbLine
 10
47.5
 20
14.062992126
 30
0.0
 11
47.8346456693
 21
14.062992126
 31
0.0
  0
LINE
  5
9B
330
1F
100
AcDbEntity
  8
TITLE
  6
SLD-Solid
370
    18
100
AcDbLine
 10
0.5
 20
16.031496063
 30
0.0
 11
0.1653543307
 21
16.031496063
 31
0.0
  0
LINE
  5
9C
330
1F
100
AcDbEntity
  8
TITLE
  6
SLD-Solid
370
    18
100
AcDbLine
 10
47.5
 20
16.031496063
 30
0.0
 11
47.8346456693
 21
16.031496063
 31
0.0
  0
LINE
  5
9D
330
1F
100
AcDbEntity
  8
TITLE
  6
SLD-Solid
370
    18
100
AcDbLine
 10
0.5
 20
18.0
 30
0.0
 11
0.1653543307
 21
18.0
 31
0.0
  0
LINE
  5
9E
330
1F
100
AcDbEntity
  8
TITLE
  6
SLD-Solid
370
    18
100
AcDbLine
 10
47.5
 20
18.0
 30
0.0
 11
47.8346456693
 21
18.0
 31
0.0
  0
LINE
  5
9F
330
1F
100
AcDbEntity
  8
TITLE
  6
SLD-Solid
370
    18
100
AcDbLine
 10
0.5
 20
19.968503937
 30
0.0
 11
0.1653543307
 21
19.968503937
 31
0.0
  0
LINE
  5
A0
330
1F
100
AcDbEntity
  8
TITLE
  6
SLD-Solid
370
    18
100
AcDbLine
 10
47.5
 20
19.968503937
 30
0.0
 11
47.8346456693
 21
19.968503937
 31
0.0
  0
LINE
  5
A1
330
1F
100
AcDbEntity
  8
TITLE
  6
SLD-Solid
370
    18
100
AcDbLine
 10
0.5
 20
21.937007874
 30
0.0
 11
0.1653543307
 21
21.937007874
 31
0.0
  0
LINE
  5
A2
330
1F
100
AcDbEntity
  8
TITLE
  6
SLD-Solid
370
    18
100
AcDbLine
 10
47.5
 20
21.937007874
 30
0.0
 11
47.8346456693
 21
21.937007874
 31
0.0
  0
LINE
  5
A3
330
1F
100
AcDbEntity
  8
TITLE
  6
SLD-Solid
370
    18
100
AcDbLine
 10
0.5
 20
23.905511811
 30
0.0
 11
0.1653543307
 21
23.905511811
 31
0.0
  0
LINE
  5
A4
330
1F
100
AcDbEntity
  8
TITLE
  6
SLD-Solid
370
    18
100
AcDbLine
 10
47.5
 20
23.905511811
 30
0.0
 11
47.8346456693
 21
23.905511811
 31
0.0
  0
LINE
  5
A5
330
1F
100
AcDbEntity
  8
TITLE
  6
SLD-Solid
370
    18
100
AcDbLine
 10
0.5
 20
25.874015748
 30
0.0
 11
0.1653543307
 21
25.874015748
 31
0.0
  0
LINE
  5
A6
330
1F
100
AcDbEntity
  8
TITLE
  6
SLD-Solid
370
    18
100
AcDbLine
 10
47.5
 20
25.874015748
 30
0.0
 11
47.8346456693
 21
25.874015748
 31
0.0
  0
LINE
  5
A7
330
1F
100
AcDbEntity
  8
TITLE
  6
SLD-Solid
370
    18
100
AcDbLine
 10
0.5
 20
27.842519685
 30
0.0
 11
0.1653543307
 21
27.842519685
 31
0.0
  0
LINE
  5
A8
330
1F
100
AcDbEntity
  8
TITLE
  6
SLD-Solid
370
    18
100
AcDbLine
 10
47.5
 20
27.842519685
 30
0.0
 11
47.8346456693
 21
27.842519685
 31
0.0
  0
LINE
  5
A9
330
1F
100
AcDbEntity
  8
TITLE
  6
SLD-Solid
370
    18
100
AcDbLine
 10
0.5
 20
29.811023622
 30
0.0
 11
0.1653543307
 21
29.811023622
 31
0.0
  0
LINE
  5
AA
330
1F
100
AcDbEntity
  8
TITLE
  6
SLD-Solid
370
    18
100
AcDbLine
 10
47.5
 20
29.811023622
 30
0.0
 11
47.8346456693
 21
29.811023622
 31
0.0
  0
LINE
  5
AB
330
1F
100
AcDbEntity
  8
TITLE
  6
SLD-Solid
370
    18
100
AcDbLine
 10
0.5
 20
31.7795275591
 30
0.0
 11
0.1653543307
 21
31.7795275591
 31
0.0
  0
LINE
  5
AC
330
1F
100
AcDbEntity
  8
TITLE
  6
SLD-Solid
370
    18
100
AcDbLine
 10
47.5
 20
31.7795275591
 30
0.0
 11
47.8346456693
 21
31.7795275591
 31
0.0
  0
LINE
  5
AD
330
1F
100
AcDbEntity
  8
TITLE
  6
SLD-Solid
370
    18
100
AcDbLine
 10
47.5
 20
33.7480314961
 30
0.0
 11
47.8346456693
 21
33.7480314961
 31
0.0
  0
LINE
  5
AE
330
1F
100
AcDbEntity
  8
TITLE
  6
SLD-Solid
370
    18
100
AcDbLine
 10
2.3464566929
 20
35.5
 30
0.0
 11
2.3464566929
 21
35.8346456693
 31
0.0
  0
LINE
  5
AF
330
1F
100
AcDbEntity
  8
TITLE
  6
SLD-Solid
370
    18
100
AcDbLine
 10
2.3464566929
 20
0.5
 30
0.0
 11
2.3464566929
 21
0.1653543307
 31
0.0
  0
LINE
  5
B0
330
1F
100
AcDbEntity
  8
TITLE
  6
SLD-Solid
370
    18
100
AcDbLine
 10
4.3149606299
 20
0.5
 30
0.0
 11
4.3149606299
 21
0.1653543307
 31
0.0
  0
LINE
  5
B1
330
1F
100
AcDbEntity
  8
TITLE
  6
SLD-Solid
370
    18
100
AcDbLine
 10
6.2834645669
 20
35.5
 30
0.0
 11
6.2834645669
 21
35.8346456693
 31
0.0
  0
LINE
  5
B2
330
1F
100
AcDbEntity
  8
TITLE
  6
SLD-Solid
370
    18
100
AcDbLine
 10
6.2834645669
 20
0.5
 30
0.0
 11
6.2834645669
 21
0.1653543307
 31
0.0
  0
LINE
  5
B3
330
1F
100
AcDbEntity
  8
TITLE
  6
SLD-Solid
370
    18
100
AcDbLine
 10
8.2519685039
 20
35.5
 30
0.0
 11
8.2519685039
 21
35.8346456693
 31
0.0
  0
LINE
  5
B4
330
1F
100
AcDbEntity
  8
TITLE
  6
SLD-Solid
370
    18
100
AcDbLine
 10
8.2519685039
 20
0.5
 30
0.0
 11
8.2519685039
 21
0.1653543307
 31
0.0
  0
LINE
  5
B5
330
1F
100
AcDbEntity
  8
TITLE
  6
SLD-Solid
370
    18
100
AcDbLine
 10
10.2204724409
 20
35.5
 30
0.0
 11
10.2204724409
 21
35.8346456693
 31
0.0
  0
LINE
  5
B6
330
1F
100
AcDbEntity
  8
TITLE
  6
SLD-Solid
370
    18
100
AcDbLine
 10
10.2204724409
 20
0.5
 30
0.0
 11
10.2204724409
 21
0.1653543307
 31
0.0
  0
LINE
  5
B7
330
1F
100
AcDbEntity
  8
TITLE
  6
SLD-Solid
370
    18
100
AcDbLine
 10
12.188976378
 20
35.5
 30
0.0
 11
12.188976378
 21
35.8346456693
 31
0.0
  0
LINE
  5
B8
330
1F
100
AcDbEntity
  8
TITLE
  6
SLD-Solid
370
    18
100
AcDbLine
 10
12.188976378
 20
0.5
 30
0.0
 11
12.188976378
 21
0.1653543307
 31
0.0
  0
LINE
  5
B9
330
1F
100
AcDbEntity
  8
TITLE
  6
SLD-Solid
370
    18
100
AcDbLine
 10
14.157480315
 20
35.5
 30
0.0
 11
14.157480315
 21
35.8346456693
 31
0.0
  0
LINE
  5
BA
330
1F
100
AcDbEntity
  8
TITLE
  6
SLD-Solid
370
    18
100
AcDbLine
 10
14.157480315
 20
0.5
 30
0.0
 11
14.157480315
 21
0.1653543307
 31
0.0
  0
LINE
  5
BB
330
1F
100
AcDbEntity
  8
TITLE
  6
SLD-Solid
370
    18
100
AcDbLine
 10
16.125984252
 20
35.5
 30
0.0
 11
16.125984252
 21
35.8346456693
 31
0.0
  0
LINE
  5
BC
330
1F
100
AcDbEntity
  8
TITLE
  6
SLD-Solid
370
    18
100
AcDbLine
 10
16.125984252
 20
0.5
 30
0.0
 11
16.125984252
 21
0.1653543307
 31
0.0
  0
LINE
  5
BD
330
1F
100
AcDbEntity
  8
TITLE
  6
SLD-Solid
370
    18
100
AcDbLine
 10
18.094488189
 20
35.5
 30
0.0
 11
18.094488189
 21
35.8346456693
 31
0.0
  0
LINE
  5
BE
330
1F
100
AcDbEntity
  8
TITLE
  6
SLD-Solid
370
    18
100
AcDbLine
 10
18.094488189
 20
0.5
 30
0.0
 11
18.094488189
 21
0.1653543307
 31
0.0
  0
LINE
  5
BF
330
1F
100
AcDbEntity
  8
TITLE
  6
SLD-Solid
370
    18
100
AcDbLine
 10
20.062992126
 20
35.5
 30
0.0
 11
20.062992126
 21
35.8346456693
 31
0.0
  0
LINE
  5
C0
330
1F
100
AcDbEntity
  8
TITLE
  6
SLD-Solid
370
    18
100
AcDbLine
 10
20.062992126
 20
0.5
 30
0.0
 11
20.062992126
 21
0.1653543307
 31
0.0
  0
LINE
  5
C1
330
1F
100
AcDbEntity
  8
TITLE
  6
SLD-Solid
370
    18
100
AcDbLine
 10
22.031496063
 20
35.5
 30
0.0
 11
22.031496063
 21
35.8346456693
 31
0.0
  0
LINE
  5
C2
330
1F
100
AcDbEntity
  8
TITLE
  6
SLD-Solid
370
    18
100
AcDbLine
 10
22.031496063
 20
0.5
 30
0.0
 11
22.031496063
 21
0.1653543307
 31
0.0
  0
LINE
  5
C3
330
1F
100
AcDbEntity
  8
TITLE
  6
SLD-Solid
370
    18
100
AcDbLine
 10
24.0
 20
35.5
 30
0.0
 11
24.0
 21
35.8346456693
 31
0.0
  0
LINE
  5
C4
330
1F
100
AcDbEntity
  8
TITLE
  6
SLD-Solid
370
    18
100
AcDbLine
 10
24.0
 20
0.5
 30
0.0
 11
24.0
 21
0.1653543307
 31
0.0
  0
LINE
  5
C5
330
1F
100
AcDbEntity
  8
TITLE
  6
SLD-Solid
370
    18
100
AcDbLine
 10
25.968503937
 20
35.5
 30
0.0
 11
25.968503937
 21
35.8346456693
 31
0.0
  0
LINE
  5
C6
330
1F
100
AcDbEntity
  8
TITLE
  6
SLD-Solid
370
    18
100
AcDbLine
 10
25.968503937
 20
0.5
 30
0.0
 11
25.968503937
 21
0.1653543307
 31
0.0
  0
LINE
  5
C7
330
1F
100
AcDbEntity
  8
TITLE
  6
SLD-Solid
370
    18
100
AcDbLine
 10
27.937007874
 20
35.5
 30
0.0
 11
27.937007874
 21
35.8346456693
 31
0.0
  0
LINE
  5
C8
330
1F
100
AcDbEntity
  8
TITLE
  6
SLD-Solid
370
    18
100
AcDbLine
 10
27.937007874
 20
0.5
 30
0.0
 11
27.937007874
 21
0.1653543307
 31
0.0
  0
LINE
  5
C9
330
1F
100
AcDbEntity
  8
TITLE
  6
SLD-Solid
370
    18
100
AcDbLine
 10
29.905511811
 20
35.5
 30
0.0
 11
29.905511811
 21
35.8346456693
 31
0.0
  0
LINE
  5
CA
330
1F
100
AcDbEntity
  8
TITLE
  6
SLD-Solid
370
    18
100
AcDbLine
 10
29.905511811
 20
0.5
 30
0.0
 11
29.905511811
 21
0.1653543307
 31
0.0
  0
LINE
  5
CB
330
1F
100
AcDbEntity
  8
TITLE
  6
SLD-Solid
370
    18
100
AcDbLine
 10
31.874015748
 20
35.5
 30
0.0
 11
31.874015748
 21
35.8346456693
 31
0.0
  0
LINE
  5
CC
330
1F
100
AcDbEntity
  8
TITLE
  6
SLD-Solid
370
    18
100
AcDbLine
 10
31.874015748
 20
0.5
 30
0.0
 11
31.874015748
 21
0.1653543307
 31
0.0
  0
LINE
  5
CD
330
1F
100
AcDbEntity
  8
TITLE
  6
SLD-Solid
370
    18
100
AcDbLine
 10
33.842519685
 20
35.5
 30
0.0
 11
33.842519685
 21
35.8346456693
 31
0.0
  0
LINE
  5
CE
330
1F
100
AcDbEntity
  8
TITLE
  6
SLD-Solid
370
    18
100
AcDbLine
 10
33.842519685
 20
0.5
 30
0.0
 11
33.842519685
 21
0.1653543307
 31
0.0
  0
LINE
  5
CF
330
1F
100
AcDbEntity
  8
TITLE
  6
SLD-Solid
370
    18
100
AcDbLine
 10
35.811023622
 20
35.5
 30
0.0
 11
35.811023622
 21
35.8346456693
 31
0.0
  0
LINE
  5
D0
330
1F
100
AcDbEntity
  8
TITLE
  6
SLD-Solid
370
    18
100
AcDbLine
 10
35.811023622
 20
0.5
 30
0.0
 11
35.811023622
 21
0.1653543307
 31
0.0
  0
LINE
  5
D1
330
1F
100
AcDbEntity
  8
TITLE
  6
SLD-Solid
370
    18
100
AcDbLine
 10
37.7795275591
 20
35.5
 30
0.0
 11
37.7795275591
 21
35.8346456693
 31
0.0
  0
LINE
  5
D2
330
1F
100
AcDbEntity
  8
TITLE
  6
SLD-Solid
370
    18
100
AcDbLine
 10
37.7795275591
 20
0.5
 30
0.0
 11
37.7795275591
 21
0.1653543307
 31
0.0
  0
LINE
  5
D3
330
1F
100
AcDbEntity
  8
TITLE
  6
SLD-Solid
370
    18
100
AcDbLine
 10
39.7480314961
 20
35.5
 30
0.0
 11
39.7480314961
 21
35.8346456693
 31
0.0
  0
LINE
  5
D4
330
1F
100
AcDbEntity
  8
TITLE
  6
SLD-Solid
370
    18
100
AcDbLine
 10
39.7480314961
 20
0.5
 30
0.0
 11
39.7480314961
 21
0.1653543307
 31
0.0
  0
LINE
  5
D5
330
1F
100
AcDbEntity
  8
TITLE
  6
SLD-Solid
370
    18
100
AcDbLine
 10
41.7165354331
 20
35.5
 30
0.0
 11
41.7165354331
 21
35.8346456693
 31
0.0
  0
LINE
  5
D6
330
1F
100
AcDbEntity
  8
TITLE
  6
SLD-Solid
370
    18
100
AcDbLine
 10
41.7165354331
 20
0.5
 30
0.0
 11
41.7165354331
 21
0.1653543307
 31
0.0
  0
LINE
  5
D7
330
1F
100
AcDbEntity
  8
TITLE
  6
SLD-Solid
370
    18
100
AcDbLine
 10
43.6850393701
 20
35.5
 30
0.0
 11
43.6850393701
 21
35.8346456693
 31
0.0
  0
LINE
  5
D8
330
1F
100
AcDbEntity
  8
TITLE
  6
SLD-Solid
370
    18
100
AcDbLine
 10
43.6850393701
 20
0.5
 30
0.0
 11
43.6850393701
 21
0.1653543307
 31
0.0
  0
LINE
  5
D9
330
1F
100
AcDbEntity
  8
TITLE
  6
SLD-Solid
370
    18
100
AcDbLine
 10
45.6535433071
 20
35.5
 30
0.0
 11
45.6535433071
 21
35.8346456693
 31
0.0
  0
LINE
  5
DA
330
1F
100
AcDbEntity
  8
TITLE
  6
SLD-Solid
370
    18
100
AcDbLine
 10
45.6535433071
 20
0.5
 30
0.0
 11
45.6535433071
 21
0.1653543307
 31
0.0
  0
LINE
  5
DB
330
1F
100
AcDbEntity
  8
TITLE
370
    35
100
AcDbLine
 10
0.5
 20
35.5
 30
0.0
 11
47.5
 21
35.5
 31
0.0
  0
LINE
  5
DC
330
1F
100
AcDbEntity
  8
TITLE
370
    35
100
AcDbLine
 10
0.5
 20
35.5
 30
0.0
 11
0.5
 21
0.5
 31
0.0
  0
LINE
  5
DD
330
1F
100
AcDbEntity
  8
TITLE
370
    35
100
AcDbLine
 10
0.5
 20
0.5
 30
0.0
 11
47.5
 21
0.5
 31
0.0
  0
LINE
  5
DE
330
1F
100
AcDbEntity
  8
TITLE
370
    35
100
AcDbLine
 10
47.5
 20
35.5
 30
0.0
 11
47.5
 21
0.5
 31
0.0
  0
MTEXT
  5
E0
330
1F
100
AcDbEntity
  8
NOTES
100
AcDbMText
 10
9.3852012294
 20
23.4308313554
 30
0.0
 40
0.5
 41
0.0
 71
     1
 72
     1
  1
Top view
  7
SLDTEXTSTYLE0
 73
     1
 44
1.0
  0
MTEXT
  5
E1
330
1F
100
AcDbEntity
  8
NOTES
100
AcDbMText
 10
9.1149110778
 20
8.7912975777
 30
0.0
 40
0.5
 41
0.0
 71
     1
 72
     1
  1
Front view
  7
SLDTEXTSTYLE0
 73
     1
 44
1.0
  0
MTEXT
  5
E2
330
1F
100
AcDbEntity
  8
NOTES
100
AcDbMText
 10
18.3055723362
 20
8.8191158876
 30
0.0
 40
0.5
 41
0.0
 71
     1
 72
     1
  1
Side view
  7
SLDTEXTSTYLE0
 73
     1
 44
1.0
  0
MTEXT
  5
E3
330
1F
100
AcDbEntity
  8
NOTES
100
AcDbMText
 10
28.7993465232
 20
8.7912975777
 30
0.0
 40
0.5
 41
0.0
 71
     1
 72
     1
  1
Back view
  7
SLDTEXTSTYLE0
 73
     1
 44
1.0
  0
INSERT
  5
E9
330
1F
100
AcDbEntity
  8
NOTES
100
AcDbBlockReference
  2
SW_NOTE_0
 10
37.950887062
 20
9.152625764
 30
0.0
  0
MTEXT
  5
EA
330
1F
100
AcDbEntity
  8
NOTES
100
AcDbMText
 10
6.5350673376
 20
6.278816209
 30
0.0
 40
0.5
 41
0.0
 71
     1
 72
     1
  1
Floor
  7
SLDTEXTSTYLE0
 73
     1
 44
1.0
  0
MTEXT
  5
EC
330
1F
100
AcDbEntity
  8
NOTES
100
AcDbMText
 10
24.408297803
 20
1.0702903347
 30
0.0
 40
0.25
 41
0.0
 71
     1
 72
     1
  1
UNLESS OTHERWISE SPECIFIED DIMENSIONS ARE IN INCHES.
  7
SLDTEXTSTYLE1
 73
     1
 44
1.0
  0
MTEXT
  5
ED
330
1F
100
AcDbEntity
  8
NOTES
100
AcDbMText
 10
24.4368251132
 20
3.2193045501
 30
0.0
 40
0.25
 41
0.0
 71
     1
 72
     1
  1
DATE:
  7
SLDTEXTSTYLE1
 73
     1
 44
1.0
  0
MTEXT
  5
EE
330
1F
100
AcDbEntity
  8
NOTES
100
AcDbMText
 10
26.7130669976
 20
2.1722148141
 30
0.0
 40
0.25
 41
0.0
 71
     2
 72
     1
  1
DO NOT SCALE DRAWING
  7
SLDTEXTSTYLE1
 73
     1
 44
1.0
  0
MTEXT
  5
EF
330
1F
100
AcDbEntity
  8
NOTES
100
AcDbMText
 10
30.8307373075
 20
3.2682755553
 30
0.0
 40
0.25
 41
0.0
 71
     1
 72
     1
  1
TITLE:
  7
SLDTEXTSTYLE0
 73
     1
 44
1.0
  0
MTEXT
  5
F0
330
1F
100
AcDbEntity
  8
NOTES
100
AcDbMText
 10
38.1561831052
 20
3.2682755553
 30
0.0
 40
0.25
 41
0.0
 71
     1
 72
     1
  1
DWG NO.
  7
SLDTEXTSTYLE0
 73
     1
 44
1.0
  0
MTEXT
  5
F1
330
1F
100
AcDbEntity
  8
NOTES
100
AcDbMText
 10
38.1831753203
 20
1.0645815577
 30
0.0
 40
0.25
 41
0.0
 71
     1
 72
     1
  1
SCALE:     1:1
  7
SLDTEXTSTYLE0
 73
     1
 44
1.0
  0
MTEXT
  5
F2
330
1F
100
AcDbEntity
  8
NOTES
100
AcDbMText
 10
42.1722929088
 20
2.6510344295
 30
0.0
 40
0.25
 41
0.0
 71
     2
 72
     1
  1
710-A CAD
  7
SLDTEXTSTYLE0
 73
     1
 44
1.0
  0
MTEXT
  5
F3
330
1F
100
AcDbEntity
  8
NOTES
100
AcDbMText
 10
33.9429741066
 20
2.6388861441
 30
0.0
 40
0.25
 41
0.0
 71
     2
 72
     1
  1
710-A
  7
SLDTEXTSTYLE0
 73
     1
 44
1.0
  0
INSERT
  5
F9
330
1F
100
AcDbEntity
  8
NOTES
100
AcDbBlockReference
  2
SW_NOTE_0_1
 10
38.266131557
 20
4.6105227838
 30
0.0
  0
INSERT
  5
103
330
1F
100
AcDbEntity
  8
NOTES
100
AcDbBlockReference
  2
SW_NOTE_0_2
 10
24.6159726246
 20
5.1481526848
 30
0.0
  0
MTEXT
  5
104
330
1F
100
AcDbEntity
  8
NOTES
100
AcDbMText
 10
27.5289747044
 20
3.2135957731
 30
0.0
 40
0.25
 41
0.0
 71
     2
 72
     1
  1
October 18, 2021
  7
SLDTEXTSTYLE0
 73
     1
 44
1.0
  0
MTEXT
  5
105
330
1F
100
AcDbEntity
  8
TITLE
100
AcDbMText
 10
0.3276279776
 20
1.4558621965
 30
0.0
 40
0.125
 41
0.0
 71
     2
 72
     1
  1
A
  7
SLDTEXTSTYLE0
 73
     1
 44
1.0
  0
MTEXT
  5
106
330
1F
100
AcDbEntity
  8
TITLE
100
AcDbMText
 10
47.6622736469
 20
1.4558621965
 30
0.0
 40
0.125
 41
0.0
 71
     2
 72
     1
  1
A
  7
SLDTEXTSTYLE0
 73
     1
 44
1.0
  0
MTEXT
  5
107
330
1F
100
AcDbEntity
  8
TITLE
100
AcDbMText
 10
0.3317512413
 20
3.316098417
 30
0.0
 40
0.125
 41
0.0
 71
     2
 72
     1
  1
B
  7
SLDTEXTSTYLE0
 73
     1
 44
1.0
  0
MTEXT
  5
108
330
1F
100
AcDbEntity
  8
TITLE
100
AcDbMText
 10
47.6663969106
 20
3.316098417
 30
0.0
 40
0.125
 41
0.0
 71
     2
 72
     1
  1
B
  7
SLDTEXTSTYLE0
 73
     1
 44
1.0
  0
MTEXT
  5
109
330
1F
100
AcDbEntity
  8
TITLE
100
AcDbMText
 10
0.3313750817
 20
5.284602354
 30
0.0
 40
0.125
 41
0.0
 71
     2
 72
     1
  1
C
  7
SLDTEXTSTYLE0
 73
     1
 44
1.0
  0
MTEXT
  5
10A
330
1F
100
AcDbEntity
  8
TITLE
100
AcDbMText
 10
47.666020751
 20
5.284602354
 30
0.0
 40
0.125
 41
0.0
 71
     2
 72
     1
  1
C
  7
SLDTEXTSTYLE0
 73
     1
 44
1.0
  0
MTEXT
  5
10B
330
1F
100
AcDbEntity
  8
TITLE
100
AcDbMText
 10
0.3311870028
 20
7.253106291
 30
0.0
 40
0.125
 41
0.0
 71
     2
 72
     1
  1
D
  7
SLDTEXTSTYLE0
 73
     1
 44
1.0
  0
MTEXT
  5
10C
330
1F
100
AcDbEntity
  8
TITLE
100
AcDbMText
 10
47.6658326721
 20
7.253106291
 30
0.0
 40
0.125
 41
0.0
 71
     2
 72
     1
  1
D
  7
SLDTEXTSTYLE0
 73
     1
 44
1.0
  0
MTEXT
  5
10D
330
1F
100
AcDbEntity
  8
TITLE
100
AcDbMText
 10
0.332923116
 20
9.221610228
 30
0.0
 40
0.125
 41
0.0
 71
     2
 72
     1
  1
E
  7
SLDTEXTSTYLE0
 73
     1
 44
1.0
  0
MTEXT
  5
10E
330
1F
100
AcDbEntity
  8
TITLE
100
AcDbMText
 10
47.6675687853
 20
9.221610228
 30
0.0
 40
0.125
 41
0.0
 71
     2
 72
     1
  1
E
  7
SLDTEXTSTYLE0
 73
     1
 44
1.0
  0
MTEXT
  5
10F
330
1F
100
AcDbEntity
  8
TITLE
100
AcDbMText
 10
0.3313461474
 20
11.190114165
 30
0.0
 40
0.125
 41
0.0
 71
     2
 72
     1
  1
F
  7
SLDTEXTSTYLE0
 73
     1
 44
1.0
  0
MTEXT
  5
110
330
1F
100
AcDbEntity
  8
TITLE
100
AcDbMText
 10
47.6659918167
 20
11.190114165
 30
0.0
 40
0.125
 41
0.0
 71
     2
 72
     1
  1
F
  7
SLDTEXTSTYLE0
 73
     1
 44
1.0
  0
MTEXT
  5
111
330
1F
100
AcDbEntity
  8
TITLE
100
AcDbMText
 10
0.3322576054
 20
13.158618102
 30
0.0
 40
0.125
 41
0.0
 71
     2
 72
     1
  1
G
  7
SLDTEXTSTYLE0
 73
     1
 44
1.0
  0
MTEXT
  5
112
330
1F
100
AcDbEntity
  8
TITLE
100
AcDbMText
 10
47.6669032747
 20
13.158618102
 30
0.0
 40
0.125
 41
0.0
 71
     2
 72
     1
  1
G
  7
SLDTEXTSTYLE0
 73
     1
 44
1.0
  0
MTEXT
  5
113
330
1F
100
AcDbEntity
  8
TITLE
100
AcDbMText
 10
0.3323733457
 20
15.127122039
 30
0.0
 40
0.125
 41
0.0
 71
     2
 72
     1
  1
H
  7
SLDTEXTSTYLE0
 73
     1
 44
1.0
  0
MTEXT
  5
114
330
1F
100
AcDbEntity
  8
TITLE
100
AcDbMText
 10
47.667019015
 20
15.127122039
 30
0.0
 40
0.125
 41
0.0
 71
     2
 72
     1
  1
H
  7
SLDTEXTSTYLE0
 73
     1
 44
1.0
  0
MTEXT
  5
115
330
1F
100
AcDbEntity
  8
TITLE
100
AcDbMText
 10
0.3315776306
 20
17.095625976
 30
0.0
 40
0.125
 41
0.0
 71
     2
 72
     1
  1
J
  7
SLDTEXTSTYLE0
 73
     1
 44
1.0
  0
MTEXT
  5
116
330
1F
100
AcDbEntity
  8
TITLE
100
AcDbMText
 10
47.6662232999
 20
17.095625976
 30
0.0
 40
0.125
 41
0.0
 71
     2
 72
     1
  1
J
  7
SLDTEXTSTYLE0
 73
     1
 44
1.0
  0
MTEXT
  5
117
330
1F
100
AcDbEntity
  8
TITLE
100
AcDbMText
 10
0.3323154765
 20
19.064129913
 30
0.0
 40
0.125
 41
0.0
 71
     2
 72
     1
  1
K
  7
SLDTEXTSTYLE0
 73
     1
 44
1.0
  0
MTEXT
  5
118
330
1F
100
AcDbEntity
  8
TITLE
100
AcDbMText
 10
47.6669611458
 20
19.064129913
 30
0.0
 40
0.125
 41
0.0
 71
     2
 72
     1
  1
K
  7
SLDTEXTSTYLE0
 73
     1
 44
1.0
  0
MTEXT
  5
119
330
1F
100
AcDbEntity
  8
TITLE
100
AcDbMText
 10
0.3312448739
 20
21.03263385
 30
0.0
 40
0.125
 41
0.0
 71
     2
 72
     1
  1
L
  7
SLDTEXTSTYLE0
 73
     1
 44
1.0
  0
MTEXT
  5
11A
330
1F
100
AcDbEntity
  8
TITLE
100
AcDbMText
 10
47.6658905432
 20
21.03263385
 30
0.0
 40
0.125
 41
0.0
 71
     2
 72
     1
  1
L
  7
SLDTEXTSTYLE0
 73
     1
 44
1.0
  0
MTEXT
  5
11B
330
1F
100
AcDbEntity
  8
TITLE
100
AcDbMText
 10
0.3283224192
 20
23.001137787
 30
0.0
 40
0.125
 41
0.0
 71
     2
 72
     1
  1
M
  7
SLDTEXTSTYLE0
 73
     1
 44
1.0
  0
MTEXT
  5
11C
330
1F
100
AcDbEntity
  8
TITLE
100
AcDbMText
 10
47.6629680885
 20
23.001137787
 30
0.0
 40
0.125
 41
0.0
 71
     2
 72
     1
  1
M
  7
SLDTEXTSTYLE0
 73
     1
 44
1.0
  0
MTEXT
  5
11D
330
1F
100
AcDbEntity
  8
TITLE
100
AcDbMText
 10
0.3315342276
 20
24.969641724
 30
0.0
 40
0.125
 41
0.0
 71
     2
 72
     1
  1
N
  7
SLDTEXTSTYLE0
 73
     1
 44
1.0
  0
MTEXT
  5
11E
330
1F
100
AcDbEntity
  8
TITLE
100
AcDbMText
 10
47.6661798969
 20
24.969641724
 30
0.0
 40
0.125
 41
0.0
 71
     2
 72
     1
  1
N
  7
SLDTEXTSTYLE0
 73
     1
 44
1.0
  0
MTEXT
  5
11F
330
1F
100
AcDbEntity
  8
TITLE
100
AcDbMText
 10
0.3321997349
 20
26.9381456611
 30
0.0
 40
0.125
 41
0.0
 71
     2
 72
     1
  1
P
  7
SLDTEXTSTYLE0
 73
     1
 44
1.0
  0
MTEXT
  5
120
330
1F
100
AcDbEntity
  8
TITLE
100
AcDbMText
 10
47.6668454042
 20
26.9381456611
 30
0.0
 40
0.125
 41
0.0
 71
     2
 72
     1
  1
P
  7
SLDTEXTSTYLE0
 73
     1
 44
1.0
  0
MTEXT
  5
121
330
1F
100
AcDbEntity
  8
TITLE
100
AcDbMText
 10
0.3309265867
 20
28.9066495981
 30
0.0
 40
0.125
 41
0.0
 71
     2
 72
     1
  1
R
  7
SLDTEXTSTYLE0
 73
     1
 44
1.0
  0
MTEXT
  5
122
330
1F
100
AcDbEntity
  8
TITLE
100
AcDbMText
 10
47.665572256
 20
28.9066495981
 30
0.0
 40
0.125
 41
0.0
 71
     2
 72
     1
  1
R
  7
SLDTEXTSTYLE0
 73
     1
 44
1.0
  0
MTEXT
  5
123
330
1F
100
AcDbEntity
  8
TITLE
100
AcDbMText
 10
0.3323010071
 20
30.8751535351
 30
0.0
 40
0.125
 41
0.0
 71
     2
 72
     1
  1
T
  7
SLDTEXTSTYLE0
 73
     1
 44
1.0
  0
MTEXT
  5
124
330
1F
100
AcDbEntity
  8
TITLE
100
AcDbMText
 10
47.6669466764
 20
30.8751535351
 30
0.0
 40
0.125
 41
0.0
 71
     2
 72
     1
  1
T
  7
SLDTEXTSTYLE0
 73
     1
 44
1.0
  0
MTEXT
  5
125
330
1F
100
AcDbEntity
  8
TITLE
100
AcDbMText
 10
0.3328507755
 20
32.8436574721
 30
0.0
 40
0.125
 41
0.0
 71
     2
 72
     1
  1
U
  7
SLDTEXTSTYLE0
 73
     1
 44
1.0
  0
MTEXT
  5
126
330
1F
100
AcDbEntity
  8
TITLE
100
AcDbMText
 10
47.6674964448
 20
32.8436574721
 30
0.0
 40
0.125
 41
0.0
 71
     2
 72
     1
  1
U
  7
SLDTEXTSTYLE0
 73
     1
 44
1.0
  0
MTEXT
  5
127
330
1F
100
AcDbEntity
  8
TITLE
100
AcDbMText
 10
0.3307529773
 20
34.7038936925
 30
0.0
 40
0.125
 41
0.0
 71
     2
 72
     1
  1
V
  7
SLDTEXTSTYLE0
 73
     1
 44
1.0
  0
MTEXT
  5
128
330
1F
100
AcDbEntity
  8
TITLE
100
AcDbMText
 10
47.6653986466
 20
34.7038936925
 30
0.0
 40
0.125
 41
0.0
 71
     2
 72
     1
  1
V
  7
SLDTEXTSTYLE0
 73
     1
 44
1.0
  0
MTEXT
  5
129
330
1F
100
AcDbEntity
  8
TITLE
100
AcDbMText
 10
1.4207109851
 20
0.4125551099
 30
0.0
 40
0.125
 41
0.0
 71
     2
 72
     1
  1
24
  7
SLDTEXTSTYLE0
 73
     1
 44
1.0
  0
MTEXT
  5
12A
330
1F
100
AcDbEntity
  8
TITLE
100
AcDbMText
 10
1.4207109851
 20
35.7472007792
 30
0.0
 40
0.125
 41
0.0
 71
     2
 72
     1
  1
24
  7
SLDTEXTSTYLE0
 73
     1
 44
1.0
  0
MTEXT
  5
12B
330
1F
100
AcDbEntity
  8
TITLE
100
AcDbMText
 10
3.3281913
 20
0.4125551099
 30
0.0
 40
0.125
 41
0.0
 71
     2
 72
     1
  1
23
  7
SLDTEXTSTYLE0
 73
     1
 44
1.0
  0
MTEXT
  5
12C
330
1F
100
AcDbEntity
  8
TITLE
100
AcDbMText
 10
3.3281913
 20
35.7472007792
 30
0.0
 40
0.125
 41
0.0
 71
     2
 72
     1
  1
23
  7
SLDTEXTSTYLE0
 73
     1
 44
1.0
  0
MTEXT
  5
12D
330
1F
100
AcDbEntity
  8
TITLE
100
AcDbMText
 10
5.2966952371
 20
0.4125551099
 30
0.0
 40
0.125
 41
0.0
 71
     2
 72
     1
  1
22
  7
SLDTEXTSTYLE0
 73
     1
 44
1.0
  0
MTEXT
  5
12E
330
1F
100
AcDbEntity
  8
TITLE
100
AcDbMText
 10
5.2966952371
 20
35.7472007792
 30
0.0
 40
0.125
 41
0.0
 71
     2
 72
     1
  1
22
  7
SLDTEXTSTYLE0
 73
     1
 44
1.0
  0
MTEXT
  5
12F
330
1F
100
AcDbEntity
  8
TITLE
100
AcDbMText
 10
7.2651991741
 20
0.4125551099
 30
0.0
 40
0.125
 41
0.0
 71
     2
 72
     1
  1
21
  7
SLDTEXTSTYLE0
 73
     1
 44
1.0
  0
MTEXT
  5
130
330
1F
100
AcDbEntity
  8
TITLE
100
AcDbMText
 10
7.2651991741
 20
35.7472007792
 30
0.0
 40
0.125
 41
0.0
 71
     2
 72
     1
  1
21
  7
SLDTEXTSTYLE0
 73
     1
 44
1.0
  0
MTEXT
  5
131
330
1F
100
AcDbEntity
  8
TITLE
100
AcDbMText
 10
9.2337031111
 20
0.4125551099
 30
0.0
 40
0.125
 41
0.0
 71
     2
 72
     1
  1
20
  7
SLDTEXTSTYLE0
 73
     1
 44
1.0
  0
MTEXT
  5
132
330
1F
100
AcDbEntity
  8
TITLE
100
AcDbMText
 10
9.2337031111
 20
35.7472007792
 30
0.0
 40
0.125
 41
0.0
 71
     2
 72
     1
  1
20
  7
SLDTEXTSTYLE0
 73
     1
 44
1.0
  0
MTEXT
  5
133
330
1F
100
AcDbEntity
  8
TITLE
100
AcDbMText
 10
11.2022070481
 20
0.4125551099
 30
0.0
 40
0.125
 41
0.0
 71
     2
 72
     1
  1
19
  7
SLDTEXTSTYLE0
 73
     1
 44
1.0
  0
MTEXT
  5
134
330
1F
100
AcDbEntity
  8
TITLE
100
AcDbMText
 10
11.2022070481
 20
35.7472007792
 30
0.0
 40
0.125
 41
0.0
 71
     2
 72
     1
  1
19
  7
SLDTEXTSTYLE0
 73
     1
 44
1.0
  0
MTEXT
  5
135
330
1F
100
AcDbEntity
  8
TITLE
100
AcDbMText
 10
13.1707109851
 20
0.4125551099
 30
0.0
 40
0.125
 41
0.0
 71
     2
 72
     1
  1
18
  7
SLDTEXTSTYLE0
 73
     1
 44
1.0
  0
MTEXT
  5
136
330
1F
100
AcDbEntity
  8
TITLE
100
AcDbMText
 10
13.1707109851
 20
35.7472007792
 30
0.0
 40
0.125
 41
0.0
 71
     2
 72
     1
  1
18
  7
SLDTEXTSTYLE0
 73
     1
 44
1.0
  0
MTEXT
  5
137
330
1F
100
AcDbEntity
  8
TITLE
100
AcDbMText
 10
15.1392149221
 20
0.4125551099
 30
0.0
 40
0.125
 41
0.0
 71
     2
 72
     1
  1
17
  7
SLDTEXTSTYLE0
 73
     1
 44
1.0
  0
MTEXT
  5
138
330
1F
100
AcDbEntity
  8
TITLE
100
AcDbMText
 10
15.1392149221
 20
35.7472007792
 30
0.0
 40
0.125
 41
0.0
 71
     2
 72
     1
  1
17
  7
SLDTEXTSTYLE0
 73
     1
 44
1.0
  0
MTEXT
  5
139
330
1F
100
AcDbEntity
  8
TITLE
100
AcDbMText
 10
17.1077188591
 20
0.4125551099
 30
0.0
 40
0.125
 41
0.0
 71
     2
 72
     1
  1
16
  7
SLDTEXTSTYLE0
 73
     1
 44
1.0
  0
MTEXT
  5
13A
330
1F
100
AcDbEntity
  8
TITLE
100
AcDbMText
 10
17.1077188591
 20
35.7472007792
 30
0.0
 40
0.125
 41
0.0
 71
     2
 72
     1
  1
16
  7
SLDTEXTSTYLE0
 73
     1
 44
1.0
  0
MTEXT
  5
13B
330
1F
100
AcDbEntity
  8
TITLE
100
AcDbMText
 10
19.0762227961
 20
0.4125551099
 30
0.0
 40
0.125
 41
0.0
 71
     2
 72
     1
  1
15
  7
SLDTEXTSTYLE0
 73
     1
 44
1.0
  0
MTEXT
  5
13C
330
1F
100
AcDbEntity
  8
TITLE
100
AcDbMText
 10
19.0762227961
 20
35.7472007792
 30
0.0
 40
0.125
 41
0.0
 71
     2
 72
     1
  1
15
  7
SLDTEXTSTYLE0
 73
     1
 44
1.0
  0
MTEXT
  5
13D
330
1F
100
AcDbEntity
  8
TITLE
100
AcDbMText
 10
21.0447267331
 20
0.4125551099
 30
0.0
 40
0.125
 41
0.0
 71
     2
 72
     1
  1
14
  7
SLDTEXTSTYLE0
 73
     1
 44
1.0
  0
MTEXT
  5
13E
330
1F
100
AcDbEntity
  8
TITLE
100
AcDbMText
 10
21.0447267331
 20
35.7472007792
 30
0.0
 40
0.125
 41
0.0
 71
     2
 72
     1
  1
14
  7
SLDTEXTSTYLE0
 73
     1
 44
1.0
  0
MTEXT
  5
13F
330
1F
100
AcDbEntity
  8
TITLE
100
AcDbMText
 10
23.0132306701
 20
0.4125551099
 30
0.0
 40
0.125
 41
0.0
 71
     2
 72
     1
  1
13
  7
SLDTEXTSTYLE0
 73
     1
 44
1.0
  0
MTEXT
  5
140
330
1F
100
AcDbEntity
  8
TITLE
100
AcDbMText
 10
23.0132306701
 20
35.7472007792
 30
0.0
 40
0.125
 41
0.0
 71
     2
 72
     1
  1
13
  7
SLDTEXTSTYLE0
 73
     1
 44
1.0
  0
MTEXT
  5
141
330
1F
100
AcDbEntity
  8
TITLE
100
AcDbMText
 10
24.9817346071
 20
0.4125551099
 30
0.0
 40
0.125
 41
0.0
 71
     2
 72
     1
  1
12
  7
SLDTEXTSTYLE0
 73
     1
 44
1.0
  0
MTEXT
  5
142
330
1F
100
AcDbEntity
  8
TITLE
100
AcDbMText
 10
24.9817346071
 20
35.7472007792
 30
0.0
 40
0.125
 41
0.0
 71
     2
 72
     1
  1
12
  7
SLDTEXTSTYLE0
 73
     1
 44
1.0
  0
MTEXT
  5
143
330
1F
100
AcDbEntity
  8
TITLE
100
AcDbMText
 10
26.9502385441
 20
0.4125551099
 30
0.0
 40
0.125
 41
0.0
 71
     2
 72
     1
  1
11
  7
SLDTEXTSTYLE0
 73
     1
 44
1.0
  0
MTEXT
  5
144
330
1F
100
AcDbEntity
  8
TITLE
100
AcDbMText
 10
26.9502385441
 20
35.7472007792
 30
0.0
 40
0.125
 41
0.0
 71
     2
 72
     1
  1
11
  7
SLDTEXTSTYLE0
 73
     1
 44
1.0
  0
MTEXT
  5
145
330
1F
100
AcDbEntity
  8
TITLE
100
AcDbMText
 10
28.9187424811
 20
0.4125551099
 30
0.0
 40
0.125
 41
0.0
 71
     2
 72
     1
  1
10
  7
SLDTEXTSTYLE0
 73
     1
 44
1.0
  0
MTEXT
  5
146
330
1F
100
AcDbEntity
  8
TITLE
100
AcDbMText
 10
28.9187424811
 20
35.7472007792
 30
0.0
 40
0.125
 41
0.0
 71
     2
 72
     1
  1
10
  7
SLDTEXTSTYLE0
 73
     1
 44
1.0
  0
MTEXT
  5
147
330
1F
100
AcDbEntity
  8
TITLE
100
AcDbMText
 10
30.8885050988
 20
0.4125551099
 30
0.0
 40
0.125
 41
0.0
 71
     2
 72
     1
  1
9
  7
SLDTEXTSTYLE0
 73
     1
 44
1.0
  0
MTEXT
  5
148
330
1F
100
AcDbEntity
  8
TITLE
100
AcDbMText
 10
30.8885050988
 20
35.7472007792
 30
0.0
 40
0.125
 41
0.0
 71
     2
 72
     1
  1
9
  7
SLDTEXTSTYLE0
 73
     1
 44
1.0
  0
MTEXT
  5
149
330
1F
100
AcDbEntity
  8
TITLE
100
AcDbMText
 10
32.8570090359
 20
0.4125551099
 30
0.0
 40
0.125
 41
0.0
 71
     2
 72
     1
  1
8
  7
SLDTEXTSTYLE0
 73
     1
 44
1.0
  0
MTEXT
  5
14A
330
1F
100
AcDbEntity
  8
TITLE
100
AcDbMText
 10
32.8570090359
 20
35.7472007792
 30
0.0
 40
0.125
 41
0.0
 71
     2
 72
     1
  1
8
  7
SLDTEXTSTYLE0
 73
     1
 44
1.0
  0
MTEXT
  5
14B
330
1F
100
AcDbEntity
  8
TITLE
100
AcDbMText
 10
34.8255129729
 20
0.4125551099
 30
0.0
 40
0.125
 41
0.0
 71
     2
 72
     1
  1
7
  7
SLDTEXTSTYLE0
 73
     1
 44
1.0
  0
MTEXT
  5
14C
330
1F
100
AcDbEntity
  8
TITLE
100
AcDbMText
 10
34.8255129729
 20
35.7472007792
 30
0.0
 40
0.125
 41
0.0
 71
     2
 72
     1
  1
7
  7
SLDTEXTSTYLE0
 73
     1
 44
1.0
  0
MTEXT
  5
14D
330
1F
100
AcDbEntity
  8
TITLE
100
AcDbMText
 10
36.7940169099
 20
0.4125551099
 30
0.0
 40
0.125
 41
0.0
 71
     2
 72
     1
  1
6
  7
SLDTEXTSTYLE0
 73
     1
 44
1.0
  0
MTEXT
  5
14E
330
1F
100
AcDbEntity
  8
TITLE
100
AcDbMText
 10
36.7940169099
 20
35.7472007792
 30
0.0
 40
0.125
 41
0.0
 71
     2
 72
     1
  1
6
  7
SLDTEXTSTYLE0
 73
     1
 44
1.0
  0
MTEXT
  5
14F
330
1F
100
AcDbEntity
  8
TITLE
100
AcDbMText
 10
38.7625208469
 20
0.4125551099
 30
0.0
 40
0.125
 41
0.0
 71
     2
 72
     1
  1
5
  7
SLDTEXTSTYLE0
 73
     1
 44
1.0
  0
MTEXT
  5
150
330
1F
100
AcDbEntity
  8
TITLE
100
AcDbMText
 10
38.7625208469
 20
35.7472007792
 30
0.0
 40
0.125
 41
0.0
 71
     2
 72
     1
  1
5
  7
SLDTEXTSTYLE0
 73
     1
 44
1.0
  0
MTEXT
  5
151
330
1F
100
AcDbEntity
  8
TITLE
100
AcDbMText
 10
40.7310247839
 20
0.4125551099
 30
0.0
 40
0.125
 41
0.0
 71
     2
 72
     1
  1
4
  7
SLDTEXTSTYLE0
 73
     1
 44
1.0
  0
MTEXT
  5
152
330
1F
100
AcDbEntity
  8
TITLE
100
AcDbMText
 10
40.7310247839
 20
35.7472007792
 30
0.0
 40
0.125
 41
0.0
 71
     2
 72
     1
  1
4
  7
SLDTEXTSTYLE0
 73
     1
 44
1.0
  0
MTEXT
  5
153
330
1F
100
AcDbEntity
  8
TITLE
100
AcDbMText
 10
42.6995287209
 20
0.4125551099
 30
0.0
 40
0.125
 41
0.0
 71
     2
 72
     1
  1
3
  7
SLDTEXTSTYLE0
 73
     1
 44
1.0
  0
MTEXT
  5
154
330
1F
100
AcDbEntity
  8
TITLE
100
AcDbMText
 10
42.6995287209
 20
35.7472007792
 30
0.0
 40
0.125
 41
0.0
 71
     2
 72
     1
  1
3
  7
SLDTEXTSTYLE0
 73
     1
 44
1.0
  0
MTEXT
  5
155
330
1F
100
AcDbEntity
  8
TITLE
100
AcDbMText
 10
44.6680326579
 20
0.4125551099
 30
0.0
 40
0.125
 41
0.0
 71
     2
 72
     1
  1
2
  7
SLDTEXTSTYLE0
 73
     1
 44
1.0
  0
MTEXT
  5
156
330
1F
100
AcDbEntity
  8
TITLE
100
AcDbMText
 10
44.6680326579
 20
35.7472007792
 30
0.0
 40
0.125
 41
0.0
 71
     2
 72
     1
  1
2
  7
SLDTEXTSTYLE0
 73
     1
 44
1.0
  0
MTEXT
  5
157
330
1F
100
AcDbEntity
  8
TITLE
100
AcDbMText
 10
46.5755129729
 20
0.4125551099
 30
0.0
 40
0.125
 41
0.0
 71
     2
 72
     1
  1
1
  7
SLDTEXTSTYLE0
 73
     1
 44
1.0
  0
MTEXT
  5
158
330
1F
100
AcDbEntity
  8
TITLE
100
AcDbMText
 10
46.5755129729
 20
35.7472007792
 30
0.0
 40
0.125
 41
0.0
 71
     2
 72
     1
  1
1
  7
SLDTEXTSTYLE0
 73
     1
 44
1.0
  0
LINE
  5
159
330
1F
100
AcDbEntity
  8
0
  6
SLD-Solid
 62
     7
370
    25
100
AcDbLine
 10
10.8686414492
 20
10.5670954858
 30
0.0
 11
10.8686414492
 21
10.7070954858
 31
0.0
  0
LINE
  5
15A
330
1F
100
AcDbEntity
  8
0
  6
SLD-Solid
 62
     7
370
    25
100
AcDbLine
 10
10.6286414492
 20
10.7070954858
 30
0.0
 11
10.6286414492
 21
10.5670954858
 31
0.0
  0
ARC
  5
15B
330
1F
100
AcDbEntity
  8
0
  6
SLD-Solid
 62
     7
370
    25
100
AcDbCircle
 10
11.1677682755
 20
10.8320954858
 30
0.0
 40
0.1250000000000018
100
AcDbArc
 50
270.0
 51
350.0740990675
  0
ARC
  5
15C
330
1F
100
AcDbEntity
  8
0
  6
SLD-Solid
 62
     7
370
    25
100
AcDbCircle
 10
10.1667703872
 20
11.7620954858
 30
0.0
 40
0.125000000000002
100
AcDbArc
 50
90.0
 51
189.9259009325
  0
LINE
  5
15D
330
1F
100
AcDbEntity
  8
0
  6
SLD-Solid
 62
     7
370
    25
100
AcDbLine
 10
11.4536414492
 20
11.7405486848
 30
0.0
 11
11.2908972135
 21
10.8105486848
 31
0.0
  0
LINE
  5
15E
330
1F
100
AcDbEntity
  8
0
  6
SLD-Solid
 62
     7
370
    25
100
AcDbLine
 10
10.1667703872
 20
11.8870954858
 30
0.0
 11
11.3305125113
 21
11.8870954858
 31
0.0
  0
ARC
  5
15F
330
1F
100
AcDbEntity
  8
0
  6
SLD-Solid
 62
     7
370
    25
100
AcDbCircle
 10
11.3305125113
 20
11.7620954858
 30
0.0
 40
0.125000000000002
100
AcDbArc
 50
350.0740990675
 51
90.0
  0
LINE
  5
160
330
1F
100
AcDbEntity
  8
0
  6
SLD-Solid
 62
     7
370
    25
100
AcDbLine
 10
10.206385685
 20
10.8105486848
 30
0.0
 11
10.0436414492
 21
11.7405486848
 31
0.0
  0
CIRCLE
  5
161
330
1F
100
AcDbEntity
  8
0
  6
SLD-Solid
 62
     7
370
    25
100
AcDbCircle
 10
10.7486414492
 20
11.2970954858
 30
0.0
 40
0.2500000000000018
  0
ARC
  5
162
330
1F
100
AcDbEntity
  8
0
  6
SLD-Solid
 62
     7
370
    25
100
AcDbCircle
 10
10.329514623
 20
10.8320954858
 30
0.0
 40
0.1250000000000018
100
AcDbArc
 50
189.9259009325
 51
270.0
  0
LINE
  5
163
330
1F
100
AcDbEntity
  8
0
  6
SLD-Solid
 62
     7
370
    25
100
AcDbLine
 10
10.6659915854
 20
10.7070954858
 30
0.0
 11
10.329514623
 21
10.7070954858
 31
0.0
  0
LINE
  5
164
330
1F
100
AcDbEntity
  8
0
  6
SLD-Solid
 62
     7
370
    25
100
AcDbLine
 10
11.1677682755
 20
10.7070954858
 30
0.0
 11
10.8312913131
 21
10.7070954858
 31
0.0
  0
SPLINE
  5
165
330
1F
100
AcDbEntity
  8
0
  6
SLD-Solid
 62
     7
370
    25
100
AcDbSpline
210
0.0
220
0.0
230
1.0
 70
     8
 71
     3
 72
    20
 73
    16
 74
     0
 42
0.00000001
 43
0.00000001
 40
0.0
 40
0.0
 40
0.0
 40
0.0
 40
0.1250000000000004
 40
0.1250000000000004
 40
0.2500000000000009
 40
0.2500000000000009
 40
0.3750000000000013
 40
0.3750000000000013
 40
0.5000000000000017
 40
0.5000000000000017
 40
0.6250000000000021
 40
0.6250000000000021
 40
0.7500000000000026
 40
0.7500000000000026
 40
1.0
 40
1.0
 40
1.0
 40
1.0
 10
10.66599158536163
 20
10.70709548581092
 30
0.0
 10
10.67156047971752
 20
10.70709548581092
 30
0.0
 10
10.67753081127847
 20
10.70742505878262
 30
0.0
 10
10.6902493338132
 20
10.70834585278637
 30
0.0
 10
10.69706866886805
 20
10.70894559243484
 30
0.0
 10
10.71118818981559
 20
10.71006994515631
 30
0.0
 10
10.71843493994571
 20
10.71058889712392
 30
0.0
 10
10.7333107173268
 20
10.71132027339469
 30
0.0
 10
10.74101217700391
 20
10.71152938425061
 30
0.0
 10
10.75618236245508
 20
10.71153091294965
 30
0.0
 10
10.7637100496008
 20
10.71132982746289
 30
0.0
 10
10.77865121255557
 20
10.7106018032645
 30
0.0
 10
10.78603211055159
 20
10.71007439760962
 30
0.0
 10
10.8070877834663
 20
10.70839929681567
 30
0.0
 10
10.82015986384876
 20
10.70709548581092
 30
0.0
 10
10.8312913131291
 20
10.70709548581092
 30
0.0
  0
LINE
  5
166
330
1F
100
AcDbEntity
  8
0
  6
SLD-Solid
 62
     7
370
    25
100
AcDbLine
 10
10.8686414492
 20
10.5670954858
 30
0.0
 11
10.6286414492
 21
10.5670954858
 31
0.0
  0
CIRCLE
  5
167
330
1F
100
AcDbEntity
  8
0
  6
SLD-Solid
 62
     7
370
    25
100
AcDbCircle
 10
10.7486414492
 20
12.3990954858
 30
0.0
 40
0.4415000000000013
  0
LINE
  5
168
330
1F
100
AcDbEntity
  8
0
  6
SLD-Solid
 62
     7
370
    25
100
AcDbLine
 10
14.3628146776
 20
10.2895954858
 30
0.0
 11
7.1344682209
 21
10.2895954858
 31
0.0
  0
LINE
  5
169
330
1F
100
AcDbEntity
  8
0
  6
SLD-Solid
 62
     7
370
    25
100
AcDbLine
 10
7.1344682209
 20
14.7587450921
 30
0.0
 11
14.3628146776
 21
14.7587450921
 31
0.0
  0
ARC
  5
16A
330
1F
100
AcDbEntity
  8
0
  6
SLD-Solid
 62
     7
370
    25
100
AcDbCircle
 10
14.3628146776
 20
10.6225954858
 30
0.0
 40
0.333000000000002
100
AcDbArc
 50
270.0
 51
0.0
  0
LINE
  5
16B
330
1F
100
AcDbEntity
  8
0
  6
SLD-Solid
 62
     7
370
    25
100
AcDbLine
 10
6.8014682209
 20
10.6225954858
 30
0.0
 11
6.8014682209
 21
14.4257450921
 31
0.0
  0
ARC
  5
16C
330
1F
100
AcDbEntity
  8
0
  6
SLD-Solid
 62
     7
370
    25
100
AcDbCircle
 10
14.3628146776
 20
14.4257450921
 30
0.0
 40
0.3330000000000002
100
AcDbArc
 50
0.0
 51
90.0
  0
ARC
  5
16D
330
1F
100
AcDbEntity
  8
0
  6
SLD-Solid
 62
     7
370
    25
100
AcDbCircle
 10
7.1344682209
 20
14.4257450921
 30
0.0
 40
0.3330000000000002
100
AcDbArc
 50
90.0
 51
180.0
  0
ARC
  5
16E
330
1F
100
AcDbEntity
  8
0
  6
SLD-Solid
 62
     7
370
    25
100
AcDbCircle
 10
7.1344682209
 20
10.6225954858
 30
0.0
 40
0.333000000000002
100
AcDbArc
 50
180.0
 51
270.0
  0
LINE
  5
16F
330
1F
100
AcDbEntity
  8
0
  6
SLD-Solid
 62
     7
370
    25
100
AcDbLine
 10
14.6958146776
 20
14.4257450921
 30
0.0
 11
14.6958146776
 21
10.6225954858
 31
0.0
  0
LINE
  5
170
330
1F
100
AcDbEntity
  8
0
  6
SLD-Solid
 62
     7
370
    25
100
AcDbLine
 10
7.1344682209
 20
14.9257450921
 30
0.0
 11
14.3628146776
 21
14.9257450921
 31
0.0
  0
ARC
  5
171
330
1F
100
AcDbEntity
  8
0
  6
SLD-Solid
 62
     7
370
    25
100
AcDbCircle
 10
7.1344682209
 20
14.4257450921
 30
0.0
 40
0.5000000000000018
100
AcDbArc
 50
90.0
 51
180.0
  0
LINE
  5
172
330
1F
100
AcDbEntity
  8
0
  6
SLD-Solid
 62
     7
370
    25
100
AcDbLine
 10
14.3628146776
 20
10.1225954858
 30
0.0
 11
7.1344682209
 21
10.1225954858
 31
0.0
  0
ARC
  5
173
330
1F
100
AcDbEntity
  8
0
  6
SLD-Solid
 62
     7
370
    25
100
AcDbCircle
 10
14.3628146776
 20
10.6225954858
 30
0.0
 40
0.5000000000000018
100
AcDbArc
 50
270.0
 51
0.0
  0
ARC
  5
174
330
1F
100
AcDbEntity
  8
0
  6
SLD-Solid
 62
     7
370
    25
100
AcDbCircle
 10
7.1344682209
 20
10.6225954858
 30
0.0
 40
0.5000000000000018
100
AcDbArc
 50
180.0
 51
270.0
  0
LINE
  5
175
330
1F
100
AcDbEntity
  8
0
  6
SLD-Solid
 62
     7
370
    25
100
AcDbLine
 10
14.8628146776
 20
14.4257450921
 30
0.0
 11
14.8628146776
 21
10.6225954858
 31
0.0
  0
LINE
  5
176
330
1F
100
AcDbEntity
  8
0
  6
SLD-Solid
 62
     7
370
    25
100
AcDbLine
 10
6.6344682209
 20
10.6225954858
 30
0.0
 11
6.6344682209
 21
14.4257450921
 31
0.0
  0
ARC
  5
177
330
1F
100
AcDbEntity
  8
0
  6
SLD-Solid
 62
     7
370
    25
100
AcDbCircle
 10
14.3628146776
 20
14.4257450921
 30
0.0
 40
0.5000000000000018
100
AcDbArc
 50
0.0
 51
90.0
  0
LINE
  5
178
330
1F
100
AcDbEntity
  8
DIMS
100
AcDbLine
 10
5.2673757075
 20
5.5732763425
 30
0.0
 11
22.9663088554
 21
5.5732763425
 31
0.0
  0
LINE
  5
179
330
1F
100
AcDbEntity
  8
DIMS
100
AcDbLine
 10
5.8087425164
 20
5.5732763425
 30
0.0
 11
5.8087425164
 21
5.9104634762
 31
0.0
  0
LINE
  5
17A
330
1F
100
AcDbEntity
  8
DIMS
100
AcDbLine
 10
5.8087425164
 20
5.9104634762
 30
0.0
 11
5.5955174334
 21
6.0456957891
 31
0.0
  0
LINE
  5
17B
330
1F
100
AcDbEntity
  8
DIMS
100
AcDbLine
 10
5.5955174334
 20
6.0456957891
 30
0.0
 11
6.0219675995
 21
6.4464398359
 31
0.0
  0
LINE
  5
17C
330
1F
100
AcDbEntity
  8
DIMS
100
AcDbLine
 10
6.0219675995
 20
6.4464398359
 30
0.0
 11
5.8087425164
 21
6.5816721488
 31
0.0
  0
LINE
  5
17D
330
1F
100
AcDbEntity
  8
DIMS
100
AcDbLine
 10
5.8087425164
 20
6.5816721488
 30
0.0
 11
5.8087425164
 21
6.941631648
 31
0.0
  0
DIMENSION
  5
17E
330
1F
100
AcDbEntity
  8
DIMS
100
AcDbDimension
  2
_D
 10
5.8076965674
 20
10.1225954858
 30
0.0
 11
5.8076965674
 21
6.6580285567
 31
0.0
 70
   160
  1
                                                                 15" to 48" [381 to 1219] for unrestricted access\P \P 
 71
     2
 42
-1.0
  3
SLDDIMSTYLE0
100
AcDbAlignedDimension
 13
5.2673757075
 23
5.5732763425
 33
0.0
 14
7.1344682209
 24
10.1225954858
 34
0.0
 50
90.0
100
AcDbRotatedDimension
  0
DIMENSION
  5
190
330
1F
100
AcDbEntity
  8
DIMS
100
AcDbDimension
  2
_D_1
 10
6.6344682209
 20
16.9729891866
 30
0.0
 11
10.7415776865
 21
16.9729891866
 31
0.0
 70
   160
  1
<>
 71
     2
 42
-1.0
  3
SLDDIMSTYLE1
100
AcDbAlignedDimension
 13
14.8628146776
 23
14.4257450921
 33
0.0
 14
6.6344682209
 24
14.4257450921
 34
0.0
 50
0.0
100
AcDbRotatedDimension
  0
MTEXT
  5
1A0
330
1F
100
AcDbEntity
  8
NOTES
100
AcDbMText
 10
7.1780400757
 20
16.03373929
 30
0.0
 40
0.5
 41
0.0
 71
     1
 72
     1
  1
soap level window
  7
SLDTEXTSTYLE0
 73
     1
 44
1.0
  0
LEADER
  5
1A2
330
1F
100
AcDbEntity
  8
NOTES
100
AcDbLeader
  3
SLDDIMSTYLE2
 76
     3
 10
11.0441801675
 20
12.7270880406
 30
0.0
 10
13.7129713539
 20
15.7915359421
 30
0.0
 10
13.2129713539
 20
15.7915359421
 30
0.0
  0
LINE
  5
1A3
330
1F
100
AcDbEntity
  8
0
  6
SLD-Solid
 62
     7
370
    25
100
AcDbLine
 10
18.2175340741
 20
12.8405954858
 30
0.0
 11
18.1825340741
 21
12.8405954858
 31
0.0
  0
LINE
  5
1A4
330
1F
100
AcDbEntity
  8
0
  6
SLD-Solid
 62
     7
370
    25
100
AcDbLine
 10
18.1825340741
 20
11.9575954858
 30
0.0
 11
18.2175340741
 21
11.9575954858
 31
0.0
  0
ARC
  5
1A5
330
1F
100
AcDbEntity
  8
0
  6
SLD-Solid
 62
     7
370
    25
100
AcDbCircle
 10
18.1825340741
 20
12.2075954858
 30
0.0
 40
0.25
100
AcDbArc
 50
180.0
 51
270.0
  0
ARC
  5
1A6
330
1F
100
AcDbEntity
  8
0
  6
SLD-Solid
 62
     7
370
    25
100
AcDbCircle
 10
18.1825340741
 20
12.5905954858
 30
0.0
 40
0.25
100
AcDbArc
 50
90.0
 51
180.0
  0
LINE
  5
1A7
330
1F
100
AcDbEntity
  8
0
  6
SLD-Solid
 62
     7
370
    25
100
AcDbLine
 10
18.2175340741
 20
11.7185954858
 30
0.0
 11
17.9175340741
 21
11.7185954858
 31
0.0
  0
LINE
  5
1A8
330
1F
100
AcDbEntity
  8
0
  6
SLD-Solid
 62
     7
370
    25
100
AcDbLine
 10
17.9175340741
 20
10.8755954858
 30
0.0
 11
18.2175340741
 21
10.8755954858
 31
0.0
  0
LINE
  5
1A9
330
1F
100
AcDbEntity
  8
0
  6
SLD-Solid
 62
     7
370
    25
100
AcDbLine
 10
17.6175340741
 20
10.5670954858
 30
0.0
 11
17.6175340741
 21
10.7070954858
 31
0.0
  0
LINE
  5
1AA
330
1F
100
AcDbEntity
  8
0
  6
SLD-Solid
 62
     7
370
    25
100
AcDbLine
 10
17.3775340741
 20
10.7114209988
 30
0.0
 11
17.3775340741
 21
10.5670954858
 31
0.0
  0
LINE
  5
1AB
330
1F
100
AcDbEntity
  8
0
  6
SLD-Solid
 62
     7
370
    25
100
AcDbLine
 10
20.6800340741
 20
10.1225954858
 30
0.0
 11
21.1175340741
 21
10.1225954858
 31
0.0
  0
LINE
  5
1AC
330
1F
100
AcDbEntity
  8
0
  6
SLD-Solid
 62
     7
370
    25
100
AcDbLine
 10
21.1175340741
 20
10.1225954858
 30
0.0
 11
21.1175340741
 21
10.6225954858
 31
0.0
  0
LINE
  5
1AD
330
1F
100
AcDbEntity
  8
0
  6
SLD-Solid
 62
     7
370
    25
100
AcDbLine
 10
21.1175340741
 20
10.6225954858
 30
0.0
 11
21.1175340741
 21
14.4257450921
 31
0.0
  0
LINE
  5
1AE
330
1F
100
AcDbEntity
  8
0
  6
SLD-Solid
 62
     7
370
    25
100
AcDbLine
 10
20.6175340741
 20
10.1850954858
 30
0.0
 11
20.6175340741
 21
10.6225954858
 31
0.0
  0
ARC
  5
1AF
330
1F
100
AcDbEntity
  8
0
  6
SLD-Solid
 62
     7
370
    25
100
AcDbCircle
 10
20.6800340741
 20
10.1850954858
 30
0.0
 40
0.0625000000000036
100
AcDbArc
 50
180.0
 51
270.0
  0
LINE
  5
1B0
330
1F
100
AcDbEntity
  8
0
  6
SLD-Solid
 62
     7
370
    25
100
AcDbLine
 10
20.6800340741
 20
14.9257450921
 30
0.0
 11
21.1175340741
 21
14.9257450921
 31
0.0
  0
LINE
  5
1B1
330
1F
100
AcDbEntity
  8
0
  6
SLD-Solid
 62
     7
370
    25
100
AcDbLine
 10
21.1175340741
 20
14.4257450921
 30
0.0
 11
21.1175340741
 21
14.9257450921
 31
0.0
  0
LINE
  5
1B2
330
1F
100
AcDbEntity
  8
0
  6
SLD-Solid
 62
     7
370
    25
100
AcDbLine
 10
20.6175340741
 20
10.6225954858
 30
0.0
 11
20.6175340741
 21
14.4257450921
 31
0.0
  0
LINE
  5
1B3
330
1F
100
AcDbEntity
  8
0
  6
SLD-Solid
 62
     7
370
    25
100
AcDbLine
 10
20.6175340741
 20
14.4257450921
 30
0.0
 11
20.6175340741
 21
14.8632450921
 31
0.0
  0
ARC
  5
1B4
330
1F
100
AcDbEntity
  8
0
  6
SLD-Solid
 62
     7
370
    25
100
AcDbCircle
 10
20.6800340741
 20
14.8632450921
 30
0.0
 40
0.0625000000000036
100
AcDbArc
 50
90.0
 51
180.0
  0
ARC
  5
1B5
330
1F
100
AcDbEntity
  8
0
  6
SLD-Solid
 62
     7
370
    25
100
AcDbCircle
 10
20.5550340741
 20
10.2270954858
 30
0.0
 40
0.0625
100
AcDbArc
 50
0.0
 51
90.0
  0
ARC
  5
1B6
330
1F
100
AcDbEntity
  8
0
  6
SLD-Solid
 62
     7
370
    25
100
AcDbCircle
 10
20.5550340741
 20
14.8212450921
 30
0.0
 40
0.0625000000000018
100
AcDbArc
 50
270.0
 51
0.0
  0
LINE
  5
1B7
330
1F
100
AcDbEntity
  8
0
  6
SLD-Solid
 62
     7
370
    25
100
AcDbLine
 10
18.4675340741
 20
10.2895954858
 30
0.0
 11
20.5550340741
 21
10.2895954858
 31
0.0
  0
LINE
  5
1B8
330
1F
100
AcDbEntity
  8
0
  6
SLD-Solid
 62
     7
370
    25
100
AcDbLine
 10
18.4675340741
 20
14.7587450921
 30
0.0
 11
20.5550340741
 21
14.7587450921
 31
0.0
  0
LINE
  5
1B9
330
1F
100
AcDbEntity
  8
0
  6
SLD-Solid
 62
     7
370
    25
100
AcDbLine
 10
18.2175340741
 20
10.5395954858
 30
0.0
 11
18.2175340741
 21
10.6225954858
 31
0.0
  0
ARC
  5
1BA
330
1F
100
AcDbEntity
  8
0
  6
SLD-Solid
 62
     7
370
    25
100
AcDbCircle
 10
18.4675340741
 20
10.5395954858
 30
0.0
 40
0.2500000000000018
100
AcDbArc
 50
180.0
 51
270.0
  0
LINE
  5
1BB
330
1F
100
AcDbEntity
  8
0
  6
SLD-Solid
 62
     7
370
    25
100
AcDbLine
 10
18.2175340741
 20
10.6225954858
 30
0.0
 11
18.2175340741
 21
14.4257450921
 31
0.0
  0
LINE
  5
1BC
330
1F
100
AcDbEntity
  8
0
  6
SLD-Solid
 62
     7
370
    25
100
AcDbLine
 10
18.2175340741
 20
14.4257450921
 30
0.0
 11
18.2175340741
 21
14.5087450921
 31
0.0
  0
ARC
  5
1BD
330
1F
100
AcDbEntity
  8
0
  6
SLD-Solid
 62
     7
370
    25
100
AcDbCircle
 10
18.4675340741
 20
14.5087450921
 30
0.0
 40
0.25
100
AcDbArc
 50
90.0
 51
180.0
  0
LINE
  5
1BE
330
1F
100
AcDbEntity
  8
0
  6
SLD-Solid
 62
     7
370
    25
100
AcDbLine
 10
17.4105340741
 20
11.8870954858
 30
0.0
 11
17.9175340741
 21
11.8870954858
 31
0.0
  0
LINE
  5
1BF
330
1F
100
AcDbEntity
  8
0
  6
SLD-Solid
 62
     7
370
    25
100
AcDbLine
 10
17.9175340741
 20
11.7405486848
 30
0.0
 11
17.9175340741
 21
11.8870954858
 31
0.0
  0
ARC
  5
1C0
330
1F
100
AcDbEntity
  8
0
  6
SLD-Solid
 62
     7
370
    25
100
AcDbCircle
 10
17.4105340741
 20
11.7620954858
 30
0.0
 40
0.125
100
AcDbArc
 50
90.0
 51
180.0
  0
LINE
  5
1C1
330
1F
100
AcDbEntity
  8
0
  6
SLD-Solid
 62
     7
370
    25
100
AcDbLine
 10
17.9175340741
 20
10.8105486848
 30
0.0
 11
17.9175340741
 21
11.7405486848
 31
0.0
  0
LINE
  5
1C2
330
1F
100
AcDbEntity
  8
0
  6
SLD-Solid
 62
     7
370
    25
100
AcDbLine
 10
17.2855340741
 20
10.8320954858
 30
0.0
 11
17.2855340741
 21
11.7620954858
 31
0.0
  0
LINE
  5
1C3
330
1F
100
AcDbEntity
  8
0
  6
SLD-Solid
 62
     7
370
    25
100
AcDbLine
 10
17.4105340741
 20
10.7070954858
 30
0.0
 11
17.9175340741
 21
10.7070954858
 31
0.0
  0
LINE
  5
1C4
330
1F
100
AcDbEntity
  8
0
  6
SLD-Solid
 62
     7
370
    25
100
AcDbLine
 10
17.9175340741
 20
10.7070954858
 30
0.0
 11
17.9175340741
 21
10.8105486848
 31
0.0
  0
ARC
  5
1C5
330
1F
100
AcDbEntity
  8
0
  6
SLD-Solid
 62
     7
370
    25
100
AcDbCircle
 10
17.4105340741
 20
10.8320954858
 30
0.0
 40
0.1250000000000018
100
AcDbArc
 50
180.0
 51
270.0
  0
LINE
  5
1C6
330
1F
100
AcDbEntity
  8
0
  6
SLD-Solid
 62
     7
370
    25
100
AcDbLine
 10
17.9325340741
 20
12.3990954858
 30
0.0
 11
17.9325340741
 21
12.5905954858
 31
0.0
  0
LINE
  5
1C7
330
1F
100
AcDbEntity
  8
0
  6
SLD-Solid
 62
     7
370
    25
100
AcDbLine
 10
17.9325340741
 20
12.2075954858
 30
0.0
 11
17.9325340741
 21
12.3990954858
 31
0.0
  0
LINE
  5
1C8
330
1F
100
AcDbEntity
  8
0
  6
SLD-Solid
 62
     7
370
    25
100
AcDbLine
 10
17.6175340741
 20
10.5670954858
 30
0.0
 11
17.3775340741
 21
10.5670954858
 31
0.0
  0
DIMENSION
  5
1C9
330
1F
100
AcDbEntity
  8
DIMS
100
AcDbDimension
  2
_D_2
 10
22.2198962788
 20
14.9257450921
 30
0.0
 11
22.2198962788
 21
12.5747714822
 31
0.0
 70
   160
  1
<>
 71
     2
 42
-1.0
  3
SLDDIMSTYLE1
100
AcDbAlignedDimension
 13
21.1175340741
 23
10.1225954858
 33
0.0
 14
21.1175340741
 24
14.9257450921
 34
0.0
 50
90.0
100
AcDbRotatedDimension
  0
SPLINE
  5
1D8
330
1F
100
AcDbEntity
  8
0
  6
SLD-Solid
 62
     7
370
    25
100
AcDbSpline
210
0.0
220
0.0
230
1.0
 70
     8
 71
     3
 72
    15
 73
    11
 74
     0
 42
0.00000001
 43
0.00000001
 40
0.0
 40
0.0
 40
0.0
 40
0.0
 40
0.1410573673211376
 40
0.2755976414725602
 40
0.4081268754472038
 40
0.539350093784464
 40
0.6697857726771818
 40
0.7997920045823048
 40
0.9423842009532826
 40
1.0
 40
1.0
 40
1.0
 40
1.0
 10
42.90959028921817
 20
9.199167887604
 30
0.0
 10
42.92226681869597
 20
9.19247414059136
 30
0.0
 10
42.9470342001698
 20
9.179395909199885
 30
0.0
 10
42.98655860704778
 20
9.166453411372371
 30
0.0
 10
43.02638595869475
 20
9.158796968425609
 30
0.0
 10
43.06654724359027
 20
9.156823791563196
 30
0.0
 10
43.10642210043275
 20
9.160350460145303
 30
0.0
 10
43.14637187700052
 20
9.170053376097021
 30
0.0
 10
43.17822326427603
 20
9.181810273983332
 30
0.0
 10
43.19558108403236
 20
9.19258482867799
 30
0.0
 10
43.20057631238416
 20
9.195685526913394
 30
0.0
  0
LINE
  5
1D9
330
1F
100
AcDbEntity
  8
0
  6
SLD-Solid
 62
     7
370
    25
100
AcDbLine
 10
43.2010665998
 20
9.1950587194
 30
0.0
 11
44.6771520055
 21
10.0471846861
 31
0.0
  0
LINE
  5
1DA
330
1F
100
AcDbEntity
  8
0
  6
SLD-Solid
 62
     7
370
    25
100
AcDbLine
 10
37.7983774929
 20
12.1498082288
 30
0.0
 11
39.2471130805
 21
11.313470976
 31
0.0
  0
LINE
  5
1DB
330
1F
100
AcDbEntity
  8
0
  6
SLD-Solid
 62
     7
370
    25
100
AcDbLine
 10
40.4434686427
 20
10.6228296106
 30
0.0
 11
42.9095902892
 21
9.1991678876
 31
0.0
  0
SPLINE
  5
1DC
330
1F
100
AcDbEntity
  8
0
  6
SLD-Solid
 62
     7
370
    25
100
AcDbSpline
210
0.0
220
0.0
230
1.0
 70
     8
 71
     3
 72
    35
 73
    31
 74
     0
 42
0.00000001
 43
0.00000001
 40
0.0
 40
0.0
 40
0.0
 40
0.0
 40
0.0106805162045165
 40
0.0458743901474271
 40
0.0805123278468935
 40
0.1148331320151677
 40
0.1491036300244019
 40
0.1836157008405521
 40
0.2186884134728528
 40
0.2546503269219376
 40
0.2917831284444708
 40
0.330213974116025
 40
0.3697991420612621
 40
0.4101361164858792
 40
0.4506775982910037
 40
0.4912875637076034
 40
0.5320692813932535
 40
0.5732435826495115
 40
0.615043922377684
 40
0.6577303932022013
 40
0.70136241616839
 40
0.7396441446665798
 40
0.7767894833010727
 40
0.8128275906384534
 40
0.8479573675655159
 40
0.8824097157493146
 40
0.916392519207603
 40
0.9538037696600894
 40
0.9902643238184702
 40
1.0
 40
1.0
 40
1.0
 40
1.0
 10
40.05731736775934
 20
12.67493899447281
 30
0.0
 10
40.05333374212614
 20
12.67287206289286
 30
0.0
 10
40.03622348331476
 20
12.66399428733488
 30
0.0
 10
40.0094579851224
 20
12.64291339263202
 30
0.0
 10
39.97799494712152
 20
12.61255805748272
 30
0.0
 10
39.9514726303264
 20
12.57823373024311
 30
0.0
 10
39.92967917017082
 20
12.54097105337443
 30
0.0
 10
39.91271529420517
 20
12.50102631486606
 30
0.0
 10
39.90058558240077
 20
12.45869920561634
 30
0.0
 10
39.89336267921282
 20
12.41414265008409
 30
0.0
 10
39.89118340680982
 20
12.36750883475472
 30
0.0
 10
39.89423612241917
 20
12.31908321628746
 30
0.0
 10
39.90266270346408
 20
12.26943290525087
 30
0.0
 10
39.91642456387065
 20
12.21945894496867
 30
0.0
 10
39.93527019428202
 20
12.17013787123328
 30
0.0
 10
39.95884922349401
 20
12.12230437617393
 30
0.0
 10
39.98689091500158
 20
12.0765417016949
 30
0.0
 10
40.01923608739789
 20
12.0333488965128
 30
0.0
 10
40.05584584462144
 20
11.99323573588389
 30
0.0
 10
40.0967398970988
 20
11.95685196582349
 30
0.0
 10
40.13979016135028
 20
11.92655319006444
 30
0.0
 10
40.18366111305334
 20
11.90280987275287
 30
0.0
 10
40.22687802114815
 20
11.88556222379228
 30
0.0
 10
40.27055992954477
 20
11.87400115422565
 30
0.0
 10
40.31429382344994
 20
11.86810052710959
 30
0.0
 10
40.35764633888391
 20
11.86786364232755
 30
0.0
 10
40.40177803549452
 20
11.87329745819837
 30
0.0
 10
40.44538534623877
 20
11.88551039887163
 30
0.0
 10
40.47825924538337
 20
11.89863401890967
 30
0.0
 10
40.49460046824762
 20
11.90910840300412
 30
0.0
 10
40.49804431751943
 20
11.91131583878392
 30
0.0
  0
LINE
  5
1DD
330
1F
100
AcDbEntity
  8
0
  6
SLD-Solid
 62
     7
370
    25
100
AcDbLine
 10
40.0814649771
 20
12.6896674722
 30
0.0
 11
40.0567162398
 21
12.6753803303
 31
0.0
  0
LINE
  5
1DE
330
1F
100
AcDbEntity
  8
0
  6
SLD-Solid
 62
     7
370
    25
100
AcDbLine
 10
40.4981803602
 20
11.9106591848
 30
0.0
 11
40.5229290976
 21
11.9249463268
 31
0.0
  0
LINE
  5
1DF
330
1F
100
AcDbEntity
  8
0
  6
SLD-Solid
 62
     7
370
    25
100
AcDbLine
 10
40.0914641645
 20
11.7725185203
 30
0.0
 11
40.085791558
 21
11.7692437943
 31
0.0
  0
SPLINE
  5
1E0
330
1F
100
AcDbEntity
  8
0
  6
SLD-Solid
 62
     7
370
    25
100
AcDbSpline
210
0.0
220
0.0
230
1.0
 70
     8
 71
     3
 72
    15
 73
    11
 74
     0
 42
0.00000001
 43
0.00000001
 40
0.0
 40
0.0
 40
0.0
 40
0.0
 40
0.0777882935705758
 40
0.2237685632577981
 40
0.3697212604205142
 40
0.5142122233101774
 40
0.6558403977991384
 40
0.7936009387147505
 40
0.9274917894568215
 40
1.0
 40
1.0
 40
1.0
 40
1.0
 10
44.56780642377804
 20
9.975239805190752
 30
0.0
 10
44.57533962608284
 20
9.971056437750374
 30
0.0
 10
44.59700990292144
 20
9.959022414650697
 30
0.0
 10
44.63326341920896
 20
9.943406711538756
 30
0.0
 10
44.67618529106618
 20
9.9306391537368
 30
0.0
 10
44.71847049175512
 20
9.924341428000313
 30
0.0
 10
44.75932003461151
 20
9.924515764602065
 30
0.0
 10
44.79768453783974
 20
9.931462819338346
 30
0.0
 10
44.82838287348712
 20
9.941754032951318
 30
0.0
 10
44.84475078028402
 20
9.951819982845809
 30
0.0
 10
44.85050084341314
 20
9.955356161788298
 30
0.0
  0
ARC
  5
1E1
330
1F
100
AcDbEntity
  8
0
  6
SLD-Solid
 62
     7
370
    25
100
AcDbCircle
 10
40.027929286
 20
10.5272775037
 30
0.0
 40
0.1250000000000044
100
AcDbArc
 50
240.0026882664
 51
299.9973117337
  0
LINE
  5
1E2
330
1F
100
AcDbEntity
  8
0
  6
SLD-Solid
 62
     7
370
    25
100
AcDbLine
 10
39.1963131509
 20
11.6780197877
 30
0.0
 11
39.3113907036
 21
10.8522039755
 31
0.0
  0
LINE
  5
1E3
330
1F
100
AcDbEntity
  8
0
  6
SLD-Solid
 62
     7
370
    25
100
AcDbLine
 10
44.8490335673
 20
9.9535800331
 30
0.0
 11
45.1583927841
 21
10.1321693076
 31
0.0
  0
ARC
  5
1E4
330
1F
100
AcDbEntity
  8
0
  6
SLD-Solid
 62
     7
370
    25
100
AcDbCircle
 10
39.3201168912
 20
11.6952718567
 30
0.0
 40
0.1250000000000004
100
AcDbArc
 50
119.9973117336
 51
187.9330889159
  0
LINE
  5
1E5
330
1F
100
AcDbEntity
  8
0
  6
SLD-Solid
 62
     7
370
    25
100
AcDbLine
 10
39.3726995231
 20
10.7611999368
 30
0.0
 11
39.9654343652
 21
10.4190213959
 31
0.0
  0
LINE
  5
1E6
330
1F
100
AcDbEntity
  8
0
  6
SLD-Solid
 62
     7
370
    25
100
AcDbLine
 10
40.0904242068
 20
10.4190213959
 30
0.0
 11
40.4489273448
 21
10.6259808523
 31
0.0
  0
LINE
  5
1E7
330
1F
100
AcDbEntity
  8
0
  6
SLD-Solid
 62
     7
370
    25
100
AcDbLine
 10
39.6161251085
 20
12.0104874209
 30
0.0
 11
39.2576219704
 21
11.8035279645
 31
0.0
  0
LINE
  5
1E8
330
1F
100
AcDbEntity
  8
0
  6
SLD-Solid
 62
     7
370
    25
100
AcDbLine
 10
39.6730801549
 20
10.5877938891
 30
0.0
 11
39.6730801549
 21
10.5174972119
 31
0.0
  0
LINE
  5
1E9
330
1F
100
AcDbEntity
  8
0
  6
SLD-Solid
 62
     7
370
    25
100
AcDbLine
 10
44.5601663684
 20
9.9796503153
 30
0.0
 11
44.5678064238
 21
9.9752398052
 31
0.0
  0
ARC
  5
1EA
330
1F
100
AcDbEntity
  8
0
  6
SLD-Solid
 62
     7
370
    25
100
AcDbCircle
 10
39.4351944439
 20
10.8694560446
 30
0.0
 40
0.1250000000000077
100
AcDbArc
 50
187.9330889159
 51
240.0026882663
  0
SPLINE
  5
1EB
330
1F
100
AcDbEntity
  8
0
  6
SLD-Solid
 62
     7
370
    25
100
AcDbSpline
210
0.0
220
0.0
230
1.0
 70
     8
 71
     3
 72
    15
 73
    11
 74
     0
 42
0.00000001
 43
0.00000001
 40
0.0
 40
0.0
 40
0.0
 40
0.0
 40
0.081032596294579
 40
0.2159695553958519
 40
0.3479108339254881
 40
0.4776423655019685
 40
0.6060007291087924
 40
0.7339394234461053
 40
0.8625850269780669
 40
1.0
 40
1.0
 40
1.0
 40
1.0
 10
37.75737115291791
 20
15.82728766266303
 30
0.0
 10
37.75015255670741
 20
15.82323378183994
 30
0.0
 10
37.73091342226704
 20
15.81242930464153
 30
0.0
 10
37.70373564622611
 20
15.78921796165137
 30
0.0
 10
37.67634190008337
 20
15.75937010034102
 30
0.0
 10
37.65402062674118
 20
15.72631832001223
 30
0.0
 10
37.63658888335194
 20
15.69098136664197
 30
0.0
 10
37.62418458078912
 20
15.65377537974579
 30
0.0
 10
37.61618446795026
 20
15.61441078341059
 30
0.0
 10
37.61519072173515
 20
15.58736812730942
 30
0.0
 10
37.6146774716659
 20
15.57340113563138
 30
0.0
  0
LINE
  5
1EC
330
1F
100
AcDbEntity
  8
0
  6
SLD-Solid
 62
     7
370
    25
100
AcDbLine
 10
39.2329662712
 20
16.6800404369
 30
0.0
 11
37.7568808655
 21
15.8279144702
 31
0.0
  0
LINE
  5
1ED
330
1F
100
AcDbEntity
  8
0
  6
SLD-Solid
 62
     7
370
    25
100
AcDbLine
 10
37.6146774717
 20
15.5734011356
 30
0.0
 11
37.6146774717
 21
12.4679742684
 31
0.0
  0
SPLINE
  5
1EE
330
1F
100
AcDbEntity
  8
0
  6
SLD-Solid
 62
     7
370
    25
100
AcDbSpline
210
0.0
220
0.0
230
1.0
 70
     8
 71
     3
 72
    15
 73
    11
 74
     0
 42
0.00000001
 43
0.00000001
 40
0.0
 40
0.0
 40
0.0
 40
0.0
 40
0.0594740392580477
 40
0.1914425274417312
 40
0.3235785571043706
 40
0.4576381634749799
 40
0.5948192442624367
 40
0.7354866401013215
 40
0.8791445932841282
 40
1.0
 40
1.0
 40
1.0
 40
1.0
 10
39.2363941286394
 20
16.87391997519587
 30
0.0
 10
39.23161283404824
 20
16.8713016629355
 30
0.0
 10
39.21622220088467
 20
16.86287350969404
 30
0.0
 10
39.19382950661493
 20
16.84292341073265
 30
0.0
 10
39.16969632554095
 20
16.81495127050457
 30
0.0
 10
39.14990777781927
 20
16.78229742731171
 30
0.0
 10
39.13432077102004
 20
16.74555591281998
 30
0.0
 10
39.12329506346045
 20
16.70480328900694
 30
0.0
 10
39.11701876141883
 20
16.66316549235098
 30
0.0
 10
39.11630705003208
 20
16.63440262155071
 30
0.0
 10
39.11598187111051
 20
16.62126094715583
 30
0.0
  0
LINE
  5
1EF
330
1F
100
AcDbEntity
  8
0
  6
SLD-Solid
 62
     7
370
    25
100
AcDbLine
 10
39.5472206215
 20
17.0542853783
 30
0.0
 11
39.2378614047
 21
16.8756961039
 31
0.0
  0
LINE
  5
1F0
330
1F
100
AcDbEntity
  8
0
  6
SLD-Solid
 62
     7
370
    25
100
AcDbLine
 10
39.1159818711
 20
16.6212609472
 30
0.0
 11
39.1159818711
 21
16.6125067802
 31
0.0
  0
SPLINE
  5
1F1
330
1F
100
AcDbEntity
  8
0
  6
SLD-Solid
 62
     7
370
    25
100
AcDbSpline
210
0.0
220
0.0
230
1.0
 70
     8
 71
     3
 72
    16
 73
    12
 74
     0
 42
0.00000001
 43
0.00000001
 40
0.0
 40
0.0
 40
0.0
 40
0.0
 40
0.1027366361242853
 40
0.2139289041382196
 40
0.3286550964027646
 40
0.4465878716683316
 40
0.567166413940893
 40
0.691078250999255
 40
0.8192378545701909
 40
0.9335144639510534
 40
1.0
 40
1.0
 40
1.0
 40
1.0
 10
37.6146774716659
 20
12.46797426838085
 30
0.0
 10
37.61512939354502
 20
12.45492440567308
 30
0.0
 10
37.61607043226308
 20
12.42775062489198
 30
0.0
 10
37.62377994945968
 20
12.38643796580254
 30
0.0
 10
37.63657066687863
 20
12.34424580269733
 30
0.0
 10
37.65486808815042
 20
12.30255788958362
 30
0.0
 10
37.67852751618153
 20
12.26220636354149
 30
0.0
 10
37.7075969423645
 20
12.22398978530578
 30
0.0
 10
37.74061028934827
 20
12.19059781216513
 30
0.0
 10
37.77155429578706
 20
12.16613141671998
 30
0.0
 10
37.79116466637949
 20
12.15419757589074
 30
0.0
 10
37.79837749292488
 20
12.14980822875852
 30
0.0
  0
LWPOLYLINE
  5
1F2
330
1F
100
AcDbEntity
  8
0
  6
SLD-Solid
 62
     7
370
    25
100
AcDbPolyline
 90
       20
 70
   128
 43
0.0
 10
40.6143846812
 20
12.1270848088
 10
40.611821625
 20
12.1746645005
 10
40.6041745416
 20
12.2244221767
 10
40.5915689959
 20
12.2755408178
 10
40.5742119707
 20
12.327181057
 10
40.5523884677
 20
12.3784949631
 10
40.5264568285
 20
12.4286399632
 10
40.4968428496
 20
12.4767926778
 10
40.4640327919
 20
12.5221624405
 10
40.4285653955
 20
12.5640042812
 10
40.3910230342
 20
12.601631158
 10
40.3520221526
 20
12.6344252386
 10
40.3122031438
 20
12.6618480451
 10
40.2722198351
 20
12.6834492959
 10
40.2327287513
 20
12.6988742988
 10
40.1943783347
 20
12.7078697759
 10
40.1577982983
 20
12.7102880216
 10
40.1235892852
 20
12.7060893285
 10
40.0923130064
 20
12.6953426389
 10
40.0814649771
 20
12.6896674722
  0
ARC
  5
1F3
330
1F
100
AcDbEntity
  8
0
  6
SLD-Solid
 62
     7
370
    25
100
AcDbCircle
 10
40.391533834
 20
12.1061531658
 30
0.0
 40
0.2238317086116513
100
AcDbArc
 50
305.9463199687
 51
5.3658604247
  0
ARC
  5
1F4
330
1F
100
AcDbEntity
  8
0
  6
SLD-Solid
 62
     7
370
    25
100
AcDbCircle
 10
40.1031312678
 20
11.2304759095
 30
0.0
 40
0.4971358724029371
100
AcDbArc
 50
0.5699299608
 51
13.5238854394
  0
LWPOLYLINE
  5
1F5
330
1F
100
AcDbEntity
  8
0
  6
SLD-Solid
 62
     7
370
    25
100
AcDbPolyline
 90
       14
 70
   128
 43
0.0
 10
40.5203653356
 20
11.5160202497
 10
40.5129470374
 20
11.5291818608
 10
40.4836356469
 20
11.5757866129
 10
40.4512197915
 20
11.6195115739
 10
40.4162541155
 20
11.6596085974
 10
40.3793368912
 20
11.6953916124
 10
40.3410997827
 20
11.7262483614
 10
40.3021970374
 20
11.751650877
 10
40.2632942921
 20
11.7711645151
 10
40.2250571835
 20
11.7844553919
 10
40.1881399592
 20
11.7912960968
 10
40.1531742832
 20
11.7915695835
 10
40.1207584278
 20
11.7852711725
 10
40.0914641645
 20
11.7725185203
  0
ARC
  5
1F6
330
1F
100
AcDbEntity
  8
0
  6
SLD-Solid
 62
     7
370
    25
100
AcDbCircle
 10
40.3642915166
 20
11.2209918516
 30
0.0
 40
0.2363918060498523
100
AcDbArc
 50
317.7204528725
 51
3.4994388403
  0
LINE
  5
1F7
330
1F
100
AcDbEntity
  8
0
  6
SLD-Solid
 62
     7
370
    25
100
AcDbLine
 10
40.9739484795
 20
15.5198998809
 30
0.0
 11
39.8425776296
 21
14.8667733915
 31
0.0
  0
LINE
  5
1F8
330
1F
100
AcDbEntity
  8
0
  6
SLD-Solid
 62
     7
370
    25
100
AcDbLine
 10
39.8425776296
 20
14.8667733915
 30
0.0
 11
41.3982125482
 21
13.9687244685
 31
0.0
  0
LINE
  5
1F9
330
1F
100
AcDbEntity
  8
0
  6
SLD-Solid
 62
     7
370
    25
100
AcDbLine
 10
41.3982125482
 20
13.9687244685
 30
0.0
 11
42.5295833981
 21
14.6218509579
 31
0.0
  0
LINE
  5
1FA
330
1F
100
AcDbEntity
  8
0
  6
SLD-Solid
 62
     7
370
    25
100
AcDbLine
 10
42.5295833981
 20
14.6218509579
 30
0.0
 11
40.9739484795
 21
15.5198998809
 31
0.0
  0
ARC
  5
1FB
330
1F
100
AcDbEntity
  8
0
  6
SLD-Solid
 62
     7
370
    25
100
AcDbCircle
 10
44.4965076773
 20
13.4328290141
 30
0.0
 40
0.7661998323124094
100
AcDbArc
 50
2.520089748
 51
57.4799103976
  0
LINE
  5
1FC
330
1F
100
AcDbEntity
  8
0
  6
SLD-Solid
 62
     7
370
    25
100
AcDbLine
 10
45.2619664915
 20
10.3610917108
 30
0.0
 11
45.2619664915
 21
13.466518578
 31
0.0
  0
LINE
  5
1FD
330
1F
100
AcDbEntity
  8
0
  6
SLD-Solid
 62
     7
370
    25
100
AcDbLine
 10
44.9084131009
 20
14.0788910119
 30
0.0
 11
39.7972003046
 21
17.0295313531
 31
0.0
  0
LINE
  5
1FE
330
1F
100
AcDbEntity
  8
0
  6
SLD-Solid
 62
     7
370
    25
100
AcDbLine
 10
39.9132883077
 20
14.8667733915
 30
0.0
 11
41.3982125482
 21
14.009544874
 31
0.0
  0
LINE
  5
1FF
330
1F
100
AcDbEntity
  8
0
  6
SLD-Solid
 62
     7
370
    25
100
AcDbLine
 10
40.9739484795
 20
15.4790794753
 30
0.0
 11
39.9132883077
 21
14.8667733915
 31
0.0
  0
LINE
  5
200
330
1F
100
AcDbEntity
  8
0
  6
SLD-Solid
 62
     7
370
    25
100
AcDbLine
 10
42.45887272
 20
14.6218509579
 30
0.0
 11
40.9739484795
 21
15.4790794753
 31
0.0
  0
LINE
  5
201
330
1F
100
AcDbEntity
  8
0
  6
SLD-Solid
 62
     7
370
    25
100
AcDbLine
 10
41.3982125482
 20
14.009544874
 30
0.0
 11
42.45887272
 21
14.6218509579
 31
0.0
  0
LINE
  5
202
330
1F
100
AcDbEntity
  8
0
  6
SLD-Solid
 62
     7
370
    25
100
AcDbLine
 10
41.065872361
 20
14.8381991075
 30
0.0
 11
41.0234459542
 21
14.8137068642
 31
0.0
  0
LINE
  5
203
330
1F
100
AcDbEntity
  8
0
  6
SLD-Solid
 62
     7
370
    25
100
AcDbLine
 10
41.0234459542
 20
14.8137068642
 30
0.0
 11
41.3062886666
 21
14.6504252418
 31
0.0
  0
LINE
  5
204
330
1F
100
AcDbEntity
  8
0
  6
SLD-Solid
 62
     7
370
    25
100
AcDbLine
 10
41.3062886666
 20
14.6504252418
 30
0.0
 11
41.3487150735
 21
14.6749174852
 31
0.0
  0
LINE
  5
205
330
1F
100
AcDbEntity
  8
0
  6
SLD-Solid
 62
     7
370
    25
100
AcDbLine
 10
41.3487150735
 20
14.6749174852
 30
0.0
 11
41.065872361
 21
14.8381991075
 31
0.0
  0
LINE
  5
206
330
1F
100
AcDbEntity
  8
0
  6
SLD-Solid
 62
     7
370
    25
100
AcDbLine
 10
39.9132883077
 20
14.8259529859
 30
0.0
 11
39.9132883077
 21
14.8667733915
 31
0.0
  0
LINE
  5
207
330
1F
100
AcDbEntity
  8
0
  6
SLD-Solid
 62
     7
370
    25
100
AcDbLine
 10
41.3982125482
 20
13.9687244685
 30
0.0
 11
41.3982125482
 21
14.009544874
 31
0.0
  0
LINE
  5
208
330
1F
100
AcDbEntity
  8
0
  6
SLD-Solid
 62
     7
370
    25
100
AcDbLine
 10
42.45887272
 20
14.5810305523
 30
0.0
 11
42.45887272
 21
14.6218509579
 31
0.0
  0
LINE
  5
209
330
1F
100
AcDbEntity
  8
0
  6
SLD-Solid
 62
     7
370
    25
100
AcDbLine
 10
40.9739484795
 20
15.4790794753
 30
0.0
 11
40.9739484795
 21
15.5198998809
 31
0.0
  0
LINE
  5
20A
330
1F
100
AcDbEntity
  8
0
  6
SLD-Solid
 62
     7
370
    25
100
AcDbLine
 10
41.065872361
 20
14.7892146208
 30
0.0
 11
41.065872361
 21
14.8381991075
 31
0.0
  0
ARC
  5
20B
330
1F
100
AcDbEntity
  8
0
  6
SLD-Solid
 62
     7
370
    25
100
AcDbCircle
 10
40.403448172
 20
11.3717428446
 30
0.0
 40
0.1855426888741009
100
AcDbArc
 50
356.1644945832
 51
58.0949311165
  0
LWPOLYLINE
  5
20C
330
1F
100
AcDbEntity
  8
0
  6
SLD-Solid
 62
     7
370
    25
100
AcDbPolyline
 90
       38
 70
   128
 43
0.0
 10
39.8199502126
 20
10.9249817307
 10
39.8174074408
 20
10.9609486584
 10
39.8098522762
 20
10.9988167049
 10
39.7975020672
 20
11.0374964756
 10
39.7807121068
 20
11.0758752237
 10
39.7599654116
 20
11.1128488627
 10
39.7358588262
 20
11.1473537281
 10
39.7090858533
 20
11.178397178
 10
39.6804167024
 20
11.2050861487
 10
39.6506761329
 20
11.2266528471
 10
39.6207197269
 20
11.2424768387
 10
39.5914092755
 20
11.2521028959
 10
39.5635879871
 20
11.2552540946
 10
39.5380562295
 20
11.2518397807
 10
39.5155485048
 20
11.2419581776
 10
39.4967123195
 20
11.2258935611
 10
39.4820895561
 20
11.204108081
 10
39.472100885
 20
11.1772284659
 10
39.4670336621
 20
11.1460279933
 10
39.4670336621
 20
11.1114042441
 10
39.472100885
 20
11.0743532805
 10
39.4820895561
 20
11.0359409912
 10
39.4967123195
 20
10.9972724279
 10
39.5155485048
 20
10.9594600147
 10
39.5380562295
 20
10.9235915459
 10
39.5635879871
 20
10.8906988921
 10
39.5914092755
 20
10.8617283149
 10
39.6207197269
 20
10.8375132453
 10
39.6506761329
 20
10.8187503066
 10
39.6804167024
 20
10.8059792744
 10
39.7090858533
 20
10.7995675481
 10
39.7358588262
 20
10.7996995814
 10
39.7599654116
 20
10.8063715759
 10
39.7807121068
 20
10.8193915904
 10
39.7975020672
 20
10.8383850629
 10
39.8098522762
 20
10.8628055857
 10
39.8174074408
 20
10.8919506249
 10
39.8199502126
 20
10.9249817307
  0
LINE
  5
20D
330
1F
100
AcDbEntity
  8
0
  6
SLD-Solid
 62
     7
370
    25
100
AcDbLine
 10
40.5015099767
 20
11.5292546595
 30
0.0
 11
39.6786200293
 21
12.0042989146
 31
0.0
  0
LINE
  5
20E
330
1F
100
AcDbEntity
  8
0
  6
SLD-Solid
 62
     7
370
    25
100
AcDbLine
 10
40.473497731
 20
10.6663813858
 30
0.0
 11
40.5885752837
 21
11.3593314838
 31
0.0
  0
ARC
  5
20F
330
1F
100
AcDbEntity
  8
0
  6
SLD-Solid
 62
     7
370
    25
100
AcDbCircle
 10
45.0071741879
 20
10.338478344
 30
0.0
 40
0.2557938278015489
100
AcDbArc
 50
306.2403453107
 51
5.0718350827
  0
ARC
  5
210
330
1F
100
AcDbEntity
  8
0
  6
SLD-Solid
 62
     7
370
    25
100
AcDbCircle
 10
40.4196817655
 20
10.6714388825
 30
0.0
 40
0.0540530889377815
100
AcDbArc
 50
302.7553416485
 51
354.6312468691
  0
ARC
  5
211
330
1F
100
AcDbEntity
  8
0
  6
SLD-Solid
 62
     7
370
    25
100
AcDbCircle
 10
39.642132818
 20
11.9544792985
 30
0.0
 40
0.06175200988328
100
AcDbArc
 50
53.7814583169
 51
114.908083254
  0
LWPOLYLINE
  5
212
330
1F
100
AcDbEntity
  8
0
  6
SLD-Solid
 62
     7
370
    25
100
AcDbPolyline
 90
       11
 70
   128
 43
0.0
 10
39.8788136555
 20
10.4690264673
 10
39.8605301602
 20
10.4602015976
 10
39.8337287053
 20
10.4523181431
 10
39.8043731525
 20
10.4485301292
 10
39.7743080191
 20
10.4490755708
 10
39.745422408
 20
10.4539201957
 10
39.7195313085
 20
10.4627595984
 10
39.6982615534
 20
10.4750383666
 10
39.6829495998
 20
10.4899849802
 10
39.674557554
 20
10.5066602885
 10
39.6730801549
 20
10.5174972119
  0
ARC
  5
213
330
1F
100
AcDbEntity
  8
0
  6
SLD-Solid
 62
     7
370
    25
100
AcDbCircle
 10
39.6517721125
 20
16.8355107254
 30
0.0
 40
0.2424734274894381
100
AcDbArc
 50
53.1466013049
 51
115.542940266
  0
ARC
  5
214
330
1F
100
AcDbEntity
  8
0
  6
SLD-Solid
 62
     7
370
    25
100
AcDbCircle
 10
37.825529165
 20
15.6723394645
 30
0.0
 40
0.1700529582344733
100
AcDbArc
 50
54.8765949208
 51
113.7929248342
  0
LINE
  5
215
330
1F
100
AcDbEntity
  8
0
  6
SLD-Solid
 62
     7
370
    25
100
AcDbLine
 10
43.0345801308
 20
12.8607879482
 30
0.0
 11
44.5106655365
 21
13.7129139149
 31
0.0
  0
ARC
  5
216
330
1F
100
AcDbEntity
  8
0
  6
SLD-Solid
 62
     7
370
    25
100
AcDbCircle
 10
44.2385536415
 20
13.2839166775
 30
0.0
 40
0.5080192054650063
100
AcDbArc
 50
2.3868561234
 51
57.6131440222
  0
ARC
  5
217
330
1F
100
AcDbEntity
  8
0
  6
SLD-Solid
 62
     7
370
    25
100
AcDbCircle
 10
44.458908704
 20
13.7938267724
 30
0.0
 40
0.0960503004732753
100
AcDbArc
 50
302.60547834
 51
357.3945215143
  0
ARC
  5
218
330
1F
100
AcDbEntity
  8
0
  6
SLD-Solid
 62
     7
370
    25
100
AcDbCircle
 10
44.6508107167
 20
13.81938888
 30
0.0
 40
0.0960503004732392
100
AcDbArc
 50
122.60547834
 51
177.3945215143
  0
LINE
  5
219
330
1F
100
AcDbEntity
  8
0
  6
SLD-Solid
 62
     7
370
    25
100
AcDbLine
 10
44.5990538842
 20
13.9003017375
 30
0.0
 11
44.9084131009
 21
14.0788910119
 31
0.0
  0
LINE
  5
21A
330
1F
100
AcDbEntity
  8
0
  6
SLD-Solid
 62
     7
370
    25
100
AcDbLine
 10
44.8642189271
 20
10.1825024363
 30
0.0
 11
44.8642189271
 21
13.2879293036
 31
0.0
  0
ARC
  5
21B
330
1F
100
AcDbEntity
  8
0
  6
SLD-Solid
 62
     7
370
    25
100
AcDbCircle
 10
44.5837369211
 20
10.1812852739
 30
0.0
 40
0.1634299410427774
100
AcDbArc
 50
304.8612461224
 51
6.450934271
  0
LINE
  5
21C
330
1F
100
AcDbEntity
  8
0
  6
SLD-Solid
 62
     7
370
    25
100
AcDbLine
 10
44.7461320947
 20
10.1996470067
 30
0.0
 11
44.7461320947
 21
13.3050738739
 31
0.0
  0
LWPOLYLINE
  5
21D
330
1F
100
AcDbEntity
  8
0
  6
SLD-Solid
 62
     7
370
    25
100
AcDbPolyline
 90
       13
 70
   128
 43
0.0
 10
44.5794568419
 20
9.9907864686
 10
44.5952391909
 20
9.9836007363
 10
44.6349277674
 20
9.9698053423
 10
44.6732463573
 20
9.9627049665
 10
44.7095393187
 20
9.9624210983
 10
44.7431856692
 20
9.9689585949
 10
44.7736097103
 20
9.9822055978
 10
44.8002908783
 20
10.0019354471
 10
44.822772651
 20
10.0278105597
 10
44.8406703589
 20
10.0593882051
 10
44.8536777674
 20
10.0961280813
 10
44.8615723161
 20
10.1374015585
 10
44.8642189271
 20
10.1825024363
  0
LINE
  5
21E
330
1F
100
AcDbEntity
  8
0
  6
SLD-Solid
 62
     7
370
    25
100
AcDbLine
 10
44.5106655365
 20
13.7129139149
 30
0.0
 11
39.3994527402
 21
16.6635542561
 31
0.0
  0
ARC
  5
21F
330
1F
100
AcDbEntity
  8
0
  6
SLD-Solid
 62
     7
370
    25
100
AcDbCircle
 10
39.3020819374
 20
16.5291294363
 30
0.0
 40
0.1659852565715635
100
AcDbArc
 50
54.0822552047
 51
114.6072863662
  0
LWPOLYLINE
  5
220
330
1F
100
AcDbEntity
  8
0
  6
SLD-Solid
 62
     7
370
    25
100
AcDbPolyline
 90
       13
 70
   128
 43
0.0
 10
39.4436469141
 20
16.7743955244
 10
39.4032674335
 20
16.7946498937
 10
39.363578857
 20
16.8084452877
 10
39.3252602671
 20
16.8155456635
 10
39.2889673057
 20
16.8158295317
 10
39.2553209552
 20
16.8092920351
 10
39.2248969141
 20
16.7960450322
 10
39.1982157461
 20
16.7763151829
 10
39.1757339734
 20
16.7504400703
 10
39.1578362655
 20
16.7188624248
 10
39.144828857
 20
16.6821225487
 10
39.1369343083
 20
16.6408490715
 10
39.1352711076
 20
16.6236422194
  0
ARC
  5
221
330
1F
100
AcDbEntity
  8
0
  6
SLD-Solid
 62
     7
370
    25
100
AcDbCircle
 10
39.28362968
 20
11.7475198422
 30
0.0
 40
0.0617520098832867
100
AcDbArc
 50
53.7814583169
 51
114.908083254
  0
LINE
  5
222
330
1F
100
AcDbEntity
  8
0
  6
SLD-Solid
 62
     7
370
    25
100
AcDbLine
 10
39.3201168912
 20
11.7973394582
 30
0.0
 11
40.1430068387
 21
11.3222952032
 31
0.0
  0
ARC
  5
223
330
1F
100
AcDbEntity
  8
0
  6
SLD-Solid
 62
     7
370
    25
100
AcDbCircle
 10
40.0449450339
 20
11.1647833882
 30
0.0
 40
0.1855426888740859
100
AcDbArc
 50
356.1644945832
 51
58.0949311165
  0
LINE
  5
224
330
1F
100
AcDbEntity
  8
0
  6
SLD-Solid
 62
     7
370
    25
100
AcDbLine
 10
40.2300721457
 20
11.1523720274
 30
0.0
 11
40.114994593
 21
10.4594219295
 31
0.0
  0
ARC
  5
225
330
1F
100
AcDbEntity
  8
0
  6
SLD-Solid
 62
     7
370
    25
100
AcDbCircle
 10
40.0611786274
 20
10.4644794261
 30
0.0
 40
0.0540530889378032
100
AcDbArc
 50
302.7553416485
 51
354.6312468691
  0
LINE
  5
226
330
1F
100
AcDbEntity
  8
0
  6
SLD-Solid
 62
     7
370
    25
100
AcDbLine
 10
40.1430068387
 20
11.3222952032
 30
0.0
 11
40.5015099767
 21
11.5292546595
 31
0.0
  0
LINE
  5
227
330
1F
100
AcDbEntity
  8
0
  6
SLD-Solid
 62
     7
370
    25
100
AcDbLine
 10
37.9233673345
 20
15.8114282893
 30
0.0
 11
43.0345801308
 21
12.8607879482
 31
0.0
  0
ARC
  5
228
330
1F
100
AcDbEntity
  8
0
  6
SLD-Solid
 62
     7
370
    25
100
AcDbCircle
 10
42.7624682357
 20
12.4317907108
 30
0.0
 40
0.5080192054650275
100
AcDbArc
 50
2.3868561234
 51
57.6131440222
  0
LINE
  5
229
330
1F
100
AcDbEntity
  8
0
  6
SLD-Solid
 62
     7
370
    25
100
AcDbLine
 10
43.2700466889
 20
12.4529479072
 30
0.0
 11
43.2700466889
 21
9.34752104
 31
0.0
  0
ARC
  5
22A
330
1F
100
AcDbEntity
  8
0
  6
SLD-Solid
 62
     7
370
    25
100
AcDbCircle
 10
43.1076699317
 20
9.3291555326
 30
0.0
 40
0.1634120655310858
100
AcDbArc
 50
304.839182694
 51
6.4529748069
  0
ARC
  5
22B
330
1F
100
AcDbEntity
  8
0
  6
SLD-Solid
 62
     7
370
    25
100
AcDbCircle
 10
39.3411567939
 20
16.6422956058
 30
0.0
 40
0.2550482949048525
100
AcDbArc
 50
54.8917114371
 51
114.2600479594
  0
LINE
  5
22C
330
1F
100
AcDbEntity
  8
0
  6
SLD-Solid
 62
     7
370
    25
100
AcDbLine
 10
39.4878410879
 20
16.8509420786
 30
0.0
 11
44.5990538842
 21
13.9003017375
 31
0.0
  0
ARC
  5
22D
330
1F
100
AcDbEntity
  8
0
  6
SLD-Solid
 62
     7
370
    25
100
AcDbCircle
 10
44.1871468252
 20
13.2542387955
 30
0.0
 40
0.7662015076031626
100
AcDbArc
 50
2.520154907
 51
57.4798452386
  0
LINE
  5
22E
330
1F
100
AcDbEntity
  8
0
  6
SLD-Solid
 62
     7
370
    25
100
AcDbLine
 10
44.9526072748
 20
13.2879293036
 30
0.0
 11
44.9526072748
 21
10.1825024363
 31
0.0
  0
ARC
  5
22F
330
1F
100
AcDbEntity
  8
0
  6
SLD-Solid
 62
     7
370
    25
100
AcDbCircle
 10
44.7112006524
 20
10.1536893325
 30
0.0
 40
0.243120036727509
100
AcDbArc
 50
304.9664969084
 51
6.8063433209
  0
LINE
  5
230
330
1F
100
AcDbEntity
  8
0
  6
SLD-Solid
 62
     7
370
    25
100
AcDbLine
 10
34.2756535703
 20
10.1225954858
 30
0.0
 11
27.0473071136
 21
10.1225954858
 31
0.0
  0
ARC
  5
231
330
1F
100
AcDbEntity
  8
0
  6
SLD-Solid
 62
     7
370
    25
100
AcDbCircle
 10
27.0473071136
 20
10.6225954858
 30
0.0
 40
0.5
100
AcDbArc
 50
180.0
 51
270.0
  0
LINE
  5
232
330
1F
100
AcDbEntity
  8
0
  6
SLD-Solid
 62
     7
370
    25
100
AcDbLine
 10
26.5473071136
 20
10.6225954858
 30
0.0
 11
26.5473071136
 21
14.4257450921
 31
0.0
  0
ARC
  5
233
330
1F
100
AcDbEntity
  8
0
  6
SLD-Solid
 62
     7
370
    25
100
AcDbCircle
 10
27.0473071136
 20
14.4257450921
 30
0.0
 40
0.5000000000000018
100
AcDbArc
 50
90.0
 51
180.0
  0
LINE
  5
234
330
1F
100
AcDbEntity
  8
0
  6
SLD-Solid
 62
     7
370
    25
100
AcDbLine
 10
27.0473071136
 20
14.9257450921
 30
0.0
 11
34.2756535703
 21
14.9257450921
 31
0.0
  0
ARC
  5
235
330
1F
100
AcDbEntity
  8
0
  6
SLD-Solid
 62
     7
370
    25
100
AcDbCircle
 10
34.2756535703
 20
14.4257450921
 30
0.0
 40
0.5000000000000018
100
AcDbArc
 50
0.0
 51
90.0
  0
LINE
  5
236
330
1F
100
AcDbEntity
  8
0
  6
SLD-Solid
 62
     7
370
    25
100
AcDbLine
 10
34.7756535703
 20
14.4257450921
 30
0.0
 11
34.7756535703
 21
10.6225954858
 31
0.0
  0
ARC
  5
237
330
1F
100
AcDbEntity
  8
0
  6
SLD-Solid
 62
     7
370
    25
100
AcDbCircle
 10
34.2756535703
 20
10.6225954858
 30
0.0
 40
0.5
100
AcDbArc
 50
270.0
 51
0.0
  0
ARC
  5
238
330
1F
100
AcDbEntity
  8
0
  6
SLD-Solid
 62
     7
370
    25
100
AcDbCircle
 10
34.2756535703
 20
14.4257450921
 30
0.0
 40
0.4200000000000017
100
AcDbArc
 50
0.0
 51
90.0
  0
LINE
  5
239
330
1F
100
AcDbEntity
  8
0
  6
SLD-Solid
 62
     7
370
    25
100
AcDbLine
 10
34.2756535703
 20
14.8457450921
 30
0.0
 11
27.0473071136
 21
14.8457450921
 31
0.0
  0
ARC
  5
23A
330
1F
100
AcDbEntity
  8
0
  6
SLD-Solid
 62
     7
370
    25
100
AcDbCircle
 10
27.0473071136
 20
14.4257450921
 30
0.0
 40
0.4199999999999999
100
AcDbArc
 50
90.0
 51
180.0
  0
LINE
  5
23B
330
1F
100
AcDbEntity
  8
0
  6
SLD-Solid
 62
     7
370
    25
100
AcDbLine
 10
26.6273071136
 20
14.4257450921
 30
0.0
 11
26.6273071136
 21
10.6225954858
 31
0.0
  0
ARC
  5
23C
330
1F
100
AcDbEntity
  8
0
  6
SLD-Solid
 62
     7
370
    25
100
AcDbCircle
 10
27.0473071136
 20
10.6225954858
 30
0.0
 40
0.4200000000000017
100
AcDbArc
 50
180.0
 51
270.0
  0
LINE
  5
23D
330
1F
100
AcDbEntity
  8
0
  6
SLD-Solid
 62
     7
370
    25
100
AcDbLine
 10
27.0473071136
 20
10.2025954858
 30
0.0
 11
34.2756535703
 21
10.2025954858
 31
0.0
  0
ARC
  5
23E
330
1F
100
AcDbEntity
  8
0
  6
SLD-Solid
 62
     7
370
    25
100
AcDbCircle
 10
34.2756535703
 20
10.6225954858
 30
0.0
 40
0.4200000000000017
100
AcDbArc
 50
270.0
 51
0.0
  0
LINE
  5
23F
330
1F
100
AcDbEntity
  8
0
  6
SLD-Solid
 62
     7
370
    25
100
AcDbLine
 10
34.6956535703
 20
10.6225954858
 30
0.0
 11
34.6956535703
 21
14.4257450921
 31
0.0
  0
LWPOLYLINE
  5
240
330
1F
100
AcDbEntity
  8
0
  6
SLD-Solid
 62
     7
370
    25
100
AcDbPolyline
 90
        3
 70
   128
 43
0.0
 10
30.644994025
 20
13.8837177377
 10
30.661480342
 20
13.886050596
 10
30.6779666589
 20
13.8837177377
  0
LINE
  5
241
330
1F
100
AcDbEntity
  8
0
  6
SLD-Solid
 62
     7
370
    25
100
AcDbLine
 10
30.4987017425
 20
13.9244795558
 30
0.0
 11
30.4987017425
 21
13.9384795558
 31
0.0
  0
LINE
  5
242
330
1F
100
AcDbEntity
  8
0
  6
SLD-Solid
 62
     7
370
    25
100
AcDbLine
 10
30.4987017425
 20
13.9244795558
 30
0.0
 11
30.8242589414
 21
13.9244795558
 31
0.0
  0
LINE
  5
243
330
1F
100
AcDbEntity
  8
0
  6
SLD-Solid
 62
     7
370
    25
100
AcDbLine
 10
30.8242589414
 20
13.9384795558
 30
0.0
 11
30.8242589414
 21
13.9244795558
 31
0.0
  0
LINE
  5
244
330
1F
100
AcDbEntity
  8
0
  6
SLD-Solid
 62
     7
370
    25
100
AcDbLine
 10
30.8242589414
 20
13.9384795558
 30
0.0
 11
30.6810292619
 21
14.1909775355
 31
0.0
  0
LINE
  5
245
330
1F
100
AcDbEntity
  8
0
  6
SLD-Solid
 62
     7
370
    25
100
AcDbLine
 10
30.6810292619
 20
14.1909775355
 30
0.0
 11
30.641931422
 21
14.1909775355
 31
0.0
  0
LINE
  5
246
330
1F
100
AcDbEntity
  8
0
  6
SLD-Solid
 62
     7
370
    25
100
AcDbLine
 10
30.641931422
 20
14.1909775355
 30
0.0
 11
30.4987017425
 21
13.9384795558
 31
0.0
  0
CIRCLE
  5
247
330
1F
100
AcDbEntity
  8
0
  6
SLD-Solid
 62
     7
370
    25
100
AcDbCircle
 10
29.919980342
 20
13.6255954858
 30
0.0
 40
0.0914999999999964
  0
CIRCLE
  5
248
330
1F
100
AcDbEntity
  8
0
  6
SLD-Solid
 62
     7
370
    25
100
AcDbCircle
 10
30.661480342
 20
12.1495954858
 30
0.0
 40
0.0914999999999999
  0
CIRCLE
  5
249
330
1F
100
AcDbEntity
  8
0
  6
SLD-Solid
 62
     7
370
    25
100
AcDbCircle
 10
31.402980342
 20
13.6255954858
 30
0.0
 40
0.0914999999999999
  0
LINE
  5
24A
330
1F
100
AcDbEntity
  8
0
  6
SLD-Solid
 62
     7
370
    25
100
AcDbLine
 10
29.94066289
 20
11.5287450921
 30
0.0
 11
29.3072814228
 21
14.6457798717
 31
0.0
  0
LINE
  5
24B
330
1F
100
AcDbEntity
  8
0
  6
SLD-Solid
 62
     7
370
    25
100
AcDbLine
 10
29.3072814228
 20
14.6457798717
 30
0.0
 11
29.30566289
 21
14.6537450921
 31
0.0
  0
LINE
  5
24C
330
1F
100
AcDbEntity
  8
0
  6
SLD-Solid
 62
     7
370
    25
100
AcDbLine
 10
29.94066289
 20
11.5287450921
 30
0.0
 11
31.3822977939
 21
11.5287450921
 31
0.0
  0
LINE
  5
24D
330
1F
100
AcDbEntity
  8
0
  6
SLD-Solid
 62
     7
370
    25
100
AcDbLine
 10
29.30566289
 20
14.6537450921
 30
0.0
 11
32.0172977939
 21
14.6537450921
 31
0.0
  0
LINE
  5
24E
330
1F
100
AcDbEntity
  8
0
  6
SLD-Solid
 62
     7
370
    25
100
AcDbLine
 10
32.0156792611
 20
14.6457798717
 30
0.0
 11
31.3822977939
 21
11.5287450921
 31
0.0
  0
LINE
  5
24F
330
1F
100
AcDbEntity
  8
0
  6
SLD-Solid
 62
     7
370
    25
100
AcDbLine
 10
32.0172977939
 20
14.6537450921
 30
0.0
 11
32.0156792611
 21
14.6457798717
 31
0.0
  0
LINE
  5
250
330
1F
100
AcDbEntity
  8
0
  6
SLD-Solid
 62
     7
370
    25
100
AcDbLine
 10
31.341480342
 20
11.5287450921
 30
0.0
 11
31.3806792611
 21
11.5207798717
 31
0.0
  0
LINE
  5
251
330
1F
100
AcDbEntity
  8
0
  6
SLD-Solid
 62
     7
370
    25
100
AcDbLine
 10
31.3822977939
 20
11.5287450921
 30
0.0
 11
31.3806792611
 21
11.5207798717
 31
0.0
  0
LINE
  5
252
330
1F
100
AcDbEntity
  8
0
  6
SLD-Solid
 62
     7
370
    25
100
AcDbLine
 10
30.6623908057
 20
13.9554292593
 30
0.0
 11
30.6623908057
 21
14.1909775355
 31
0.0
  0
LINE
  5
253
330
1F
100
AcDbEntity
  8
0
  6
SLD-Solid
 62
     7
370
    25
100
AcDbLine
 10
30.8203357702
 20
13.9315634417
 30
0.0
 11
30.6937218311
 21
13.9315634417
 31
0.0
  0
LINE
  5
254
330
1F
100
AcDbEntity
  8
0
  6
SLD-Solid
 62
     7
370
    25
100
AcDbLine
 10
30.8203357702
 20
13.9315634417
 30
0.0
 11
30.8242589414
 21
13.9384795558
 31
0.0
  0
LINE
  5
255
330
1F
100
AcDbEntity
  8
0
  6
SLD-Solid
 62
     7
370
    25
100
AcDbLine
 10
30.6605698782
 20
13.9554292593
 30
0.0
 11
30.6605698782
 21
14.1909775355
 31
0.0
  0
LINE
  5
256
330
1F
100
AcDbEntity
  8
0
  6
SLD-Solid
 62
     7
370
    25
100
AcDbLine
 10
30.4987017425
 20
13.9384795558
 30
0.0
 11
30.5026249137
 21
13.9315634417
 31
0.0
  0
LINE
  5
257
330
1F
100
AcDbEntity
  8
0
  6
SLD-Solid
 62
     7
370
    25
100
AcDbLine
 10
30.6292388528
 20
13.9315634417
 30
0.0
 11
30.5026249137
 21
13.9315634417
 31
0.0
  0
LINE
  5
258
330
1F
100
AcDbEntity
  8
0
  6
SLD-Solid
 62
     7
370
    25
100
AcDbLine
 10
29.9422814228
 20
11.5207798717
 30
0.0
 11
29.94066289
 21
11.5287450921
 31
0.0
  0
LINE
  5
259
330
1F
100
AcDbEntity
  8
0
  6
SLD-Solid
 62
     7
370
    25
100
AcDbLine
 10
29.981480342
 20
11.5287450921
 30
0.0
 11
29.9422814228
 21
11.5207798717
 31
0.0
  0
LINE
  5
25A
330
1F
100
AcDbEntity
  8
0
  6
SLD-Solid
 62
     7
370
    25
100
AcDbLine
 10
31.2409132706
 20
11.5231128308
 30
0.0
 11
31.3691981635
 21
11.5231128308
 31
0.0
  0
LINE
  5
25B
330
1F
100
AcDbEntity
  8
0
  6
SLD-Solid
 62
     7
370
    25
100
AcDbLine
 10
31.2409132706
 20
11.5231128308
 30
0.0
 11
31.1843331519
 21
11.5287450921
 31
0.0
  0
LINE
  5
25C
330
1F
100
AcDbEntity
  8
0
  6
SLD-Solid
 62
     7
370
    25
100
AcDbLine
 10
29.9537625204
 20
11.5231128308
 30
0.0
 11
30.0820474133
 21
11.5231128308
 31
0.0
  0
LINE
  5
25D
330
1F
100
AcDbEntity
  8
0
  6
SLD-Solid
 62
     7
370
    25
100
AcDbLine
 10
30.138627532
 20
11.5287450921
 30
0.0
 11
30.0820474133
 21
11.5231128308
 31
0.0
  0
DIMENSION
  5
25E
330
1F
100
AcDbEntity
  8
DIMS
100
AcDbDimension
  2
_D_3
 10
31.402980342
 20
15.7918868244
 30
0.0
 11
28.8789065469
 21
15.7918868244
 31
0.0
 70
   160
  1
<>
 71
     2
 42
-1.0
  3
SLDDIMSTYLE1
100
AcDbAlignedDimension
 13
29.919980342
 23
13.6255954858
 33
0.0
 14
31.402980342
 24
13.6255954858
 34
0.0
100
AcDbRotatedDimension
  0
DIMENSION
  5
26D
330
1F
100
AcDbEntity
  8
DIMS
100
AcDbDimension
  2
_D_4
 10
25.6811653813
 20
13.6255954858
 30
0.0
 11
25.6811653813
 21
12.9008165854
 31
0.0
 70
   160
  1
<>
 71
     2
 42
-1.0
  3
SLDDIMSTYLE3
100
AcDbAlignedDimension
 13
30.661480342
 23
12.1495954858
 33
0.0
 14
29.919980342
 24
13.6255954858
 34
0.0
 50
90.0
100
AcDbRotatedDimension
  0
DIMENSION
  5
27D
330
1F
100
AcDbEntity
  8
DIMS
100
AcDbDimension
  2
_D_5
 10
25.6811653813
 20
10.1225954858
 30
0.0
 11
25.6811653813
 21
11.117276995
 31
0.0
 70
   160
  1
<>
 71
     2
 42
-1.0
  3
SLDDIMSTYLE0
100
AcDbAlignedDimension
 13
30.661480342
 23
12.1495954858
 33
0.0
 14
27.0473071136
 24
10.1225954858
 34
0.0
 50
90.0
100
AcDbRotatedDimension
  0
MTEXT
  5
288
330
1F
100
AcDbEntity
  8
NOTES
100
AcDbMText
 10
32.7992136155
 20
16.0404129894
 30
0.0
 40
0.5
 41
0.0
 71
     1
 72
     1
  1
mounting hole
  7
SLDTEXTSTYLE0
 73
     1
 44
1.0
  0
LEADER
  5
289
330
1F
100
AcDbEntity
  8
NOTES
100
AcDbLeader
  3
SLDDIMSTYLE2
 76
     3
 10
31.4688821495
 20
13.6890714794
 30
0.0
 10
32.2794364715
 20
15.7965963636
 30
0.0
 10
32.7794364715
 20
15.7965963636
 30
0.0
  0
LINE
  5
28A
330
1F
100
AcDbEntity
  8
0
  6
SLD-Solid
 62
     7
370
    25
100
AcDbLine
 10
9.9205851099
 20
27.0194582945
 30
0.0
 11
9.9205851099
 21
26.9694582945
 31
0.0
  0
LINE
  5
28B
330
1F
100
AcDbEntity
  8
0
  6
SLD-Solid
 62
     7
370
    25
100
AcDbLine
 10
9.9205851099
 20
25.4694582945
 30
0.0
 11
9.9205851099
 21
25.4194582945
 31
0.0
  0
LINE
  5
28C
330
1F
100
AcDbEntity
  8
0
  6
SLD-Solid
 62
     7
370
    25
100
AcDbLine
 10
10.053958805
 20
25.4194582945
 30
0.0
 11
10.053958805
 21
25.4694582945
 31
0.0
  0
LINE
  5
28D
330
1F
100
AcDbEntity
  8
0
  6
SLD-Solid
 62
     7
370
    25
100
AcDbLine
 10
10.053958805
 20
26.9694582945
 30
0.0
 11
10.053958805
 21
27.0194582945
 31
0.0
  0
LINE
  5
28E
330
1F
100
AcDbEntity
  8
0
  6
SLD-Solid
 62
     7
370
    25
100
AcDbLine
 10
10.7986414492
 20
26.9694582945
 30
0.0
 11
10.7986414492
 21
27.0194582945
 31
0.0
  0
LINE
  5
28F
330
1F
100
AcDbEntity
  8
0
  6
SLD-Solid
 62
     7
370
    25
100
AcDbLine
 10
10.6986414492
 20
27.0194582945
 30
0.0
 11
10.6986414492
 21
26.9694582945
 31
0.0
  0
LINE
  5
290
330
1F
100
AcDbEntity
  8
0
  6
SLD-Solid
 62
     7
370
    25
100
AcDbLine
 10
10.3071414492
 20
24.9694582945
 30
0.0
 11
10.3071414492
 21
24.9344582945
 31
0.0
  0
LINE
  5
291
330
1F
100
AcDbEntity
  8
0
  6
SLD-Solid
 62
     7
370
    25
100
AcDbLine
 10
11.1901414492
 20
24.9344582945
 30
0.0
 11
11.1901414492
 21
24.9694582945
 31
0.0
  0
ARC
  5
292
330
1F
100
AcDbEntity
  8
0
  6
SLD-Solid
 62
     7
370
    25
100
AcDbCircle
 10
10.9401414492
 20
24.9344582945
 30
0.0
 40
0.2500000000000018
100
AcDbArc
 50
270.0
 51
0.0
  0
ARC
  5
293
330
1F
100
AcDbEntity
  8
0
  6
SLD-Solid
 62
     7
370
    25
100
AcDbCircle
 10
10.5571414492
 20
24.9344582945
 30
0.0
 40
0.2500000000000018
100
AcDbArc
 50
180.0
 51
270.0
  0
LINE
  5
294
330
1F
100
AcDbEntity
  8
0
  6
SLD-Solid
 62
     7
370
    25
100
AcDbLine
 10
10.0417703872
 20
24.6694582945
 30
0.0
 11
10.0417703872
 21
24.1624582945
 31
0.0
  0
LINE
  5
295
330
1F
100
AcDbEntity
  8
0
  6
SLD-Solid
 62
     7
370
    25
100
AcDbLine
 10
11.4555125113
 20
24.1624582945
 30
0.0
 11
11.4555125113
 21
24.6694582945
 31
0.0
  0
ARC
  5
296
330
1F
100
AcDbEntity
  8
0
  6
SLD-Solid
 62
     7
370
    25
100
AcDbCircle
 10
11.3305125113
 20
24.1624582945
 30
0.0
 40
0.125
100
AcDbArc
 50
270.0
 51
0.0
  0
ARC
  5
297
330
1F
100
AcDbEntity
  8
0
  6
SLD-Solid
 62
     7
370
    25
100
AcDbCircle
 10
10.1667703872
 20
24.1624582945
 30
0.0
 40
0.125
100
AcDbArc
 50
180.0
 51
270.0
  0
LINE
  5
298
330
1F
100
AcDbEntity
  8
0
  6
SLD-Solid
 62
     7
370
    25
100
AcDbLine
 10
10.3271414492
 20
24.8364787048
 30
0.0
 11
10.3271414492
 21
24.6694582945
 31
0.0
  0
LINE
  5
299
330
1F
100
AcDbEntity
  8
0
  6
SLD-Solid
 62
     7
370
    25
100
AcDbLine
 10
11.1701414492
 20
24.6694582945
 30
0.0
 11
11.1701414492
 21
24.8364787048
 31
0.0
  0
LINE
  5
29A
330
1F
100
AcDbEntity
  8
0
  6
SLD-Solid
 62
     7
370
    25
100
AcDbLine
 10
14.8628146776
 20
27.8694582945
 30
0.0
 11
14.3628146776
 21
27.8694582945
 31
0.0
  0
LINE
  5
29B
330
1F
100
AcDbEntity
  8
0
  6
SLD-Solid
 62
     7
370
    25
100
AcDbLine
 10
14.8628146776
 20
27.4319582945
 30
0.0
 11
14.8628146776
 21
27.8694582945
 31
0.0
  0
LINE
  5
29C
330
1F
100
AcDbEntity
  8
0
  6
SLD-Solid
 62
     7
370
    25
100
AcDbLine
 10
14.3628146776
 20
27.8694582945
 30
0.0
 11
7.1344682209
 21
27.8694582945
 31
0.0
  0
LINE
  5
29D
330
1F
100
AcDbEntity
  8
0
  6
SLD-Solid
 62
     7
370
    25
100
AcDbLine
 10
7.1344682209
 20
27.8694582945
 30
0.0
 11
6.6344682209
 21
27.8694582945
 31
0.0
  0
LINE
  5
29E
330
1F
100
AcDbEntity
  8
0
  6
SLD-Solid
 62
     7
370
    25
100
AcDbLine
 10
6.6344682209
 20
27.4319582945
 30
0.0
 11
6.6344682209
 21
27.8694582945
 31
0.0
  0
LINE
  5
29F
330
1F
100
AcDbEntity
  8
0
  6
SLD-Solid
 62
     7
370
    25
100
AcDbLine
 10
14.3628146776
 20
27.3694582945
 30
0.0
 11
7.1344682209
 21
27.3694582945
 31
0.0
  0
LINE
  5
2A0
330
1F
100
AcDbEntity
  8
0
  6
SLD-Solid
 62
     7
370
    25
100
AcDbLine
 10
7.1344682209
 20
27.3694582945
 30
0.0
 11
6.6969682209
 21
27.3694582945
 31
0.0
  0
ARC
  5
2A1
330
1F
100
AcDbEntity
  8
0
  6
SLD-Solid
 62
     7
370
    25
100
AcDbCircle
 10
6.6969682209
 20
27.4319582945
 30
0.0
 40
0.0625
100
AcDbArc
 50
180.0
 51
270.0
  0
LINE
  5
2A2
330
1F
100
AcDbEntity
  8
0
  6
SLD-Solid
 62
     7
370
    25
100
AcDbLine
 10
14.8003146776
 20
27.3694582945
 30
0.0
 11
14.3628146776
 21
27.3694582945
 31
0.0
  0
ARC
  5
2A3
330
1F
100
AcDbEntity
  8
0
  6
SLD-Solid
 62
     7
370
    25
100
AcDbCircle
 10
14.8003146776
 20
27.4319582945
 30
0.0
 40
0.0625
100
AcDbArc
 50
270.0
 51
0.0
  0
ARC
  5
2A4
330
1F
100
AcDbEntity
  8
0
  6
SLD-Solid
 62
     7
370
    25
100
AcDbCircle
 10
14.7583146776
 20
27.3069582945
 30
0.0
 40
0.0625000000000036
100
AcDbArc
 50
90.0
 51
180.0
  0
ARC
  5
2A5
330
1F
100
AcDbEntity
  8
0
  6
SLD-Solid
 62
     7
370
    25
100
AcDbCircle
 10
6.7389682209
 20
27.3069582945
 30
0.0
 40
0.0625000000000036
100
AcDbArc
 50
0.0
 51
90.0
  0
LINE
  5
2A6
330
1F
100
AcDbEntity
  8
0
  6
SLD-Solid
 62
     7
370
    25
100
AcDbLine
 10
6.8014682209
 20
25.2194582945
 30
0.0
 11
6.8014682209
 21
27.3069582945
 31
0.0
  0
LINE
  5
2A7
330
1F
100
AcDbEntity
  8
0
  6
SLD-Solid
 62
     7
370
    25
100
AcDbLine
 10
9.6486414492
 20
27.0194582945
 30
0.0
 11
9.6486414492
 21
25.4194582945
 31
0.0
  0
LINE
  5
2A8
330
1F
100
AcDbEntity
  8
0
  6
SLD-Solid
 62
     7
370
    25
100
AcDbLine
 10
9.6486414492
 20
25.4194582945
 30
0.0
 11
11.8486414492
 21
25.4194582945
 31
0.0
  0
LINE
  5
2A9
330
1F
100
AcDbEntity
  8
0
  6
SLD-Solid
 62
     7
370
    25
100
AcDbLine
 10
11.8486414492
 20
25.4194582945
 30
0.0
 11
11.8486414492
 21
27.0194582945
 31
0.0
  0
LINE
  5
2AA
330
1F
100
AcDbEntity
  8
0
  6
SLD-Solid
 62
     7
370
    25
100
AcDbLine
 10
11.8486414492
 20
27.0194582945
 30
0.0
 11
9.6486414492
 21
27.0194582945
 31
0.0
  0
LINE
  5
2AB
330
1F
100
AcDbEntity
  8
0
  6
SLD-Solid
 62
     7
370
    25
100
AcDbLine
 10
14.6958146776
 20
25.2194582945
 30
0.0
 11
14.6958146776
 21
27.3069582945
 31
0.0
  0
LINE
  5
2AC
330
1F
100
AcDbEntity
  8
0
  6
SLD-Solid
 62
     7
370
    25
100
AcDbLine
 10
9.6986414492
 20
25.4694582945
 30
0.0
 11
11.7986414492
 21
25.4694582945
 31
0.0
  0
LINE
  5
2AD
330
1F
100
AcDbEntity
  8
0
  6
SLD-Solid
 62
     7
370
    25
100
AcDbLine
 10
11.7986414492
 20
26.9694582945
 30
0.0
 11
9.6986414492
 21
26.9694582945
 31
0.0
  0
LINE
  5
2AE
330
1F
100
AcDbEntity
  8
0
  6
SLD-Solid
 62
     7
370
    25
100
AcDbLine
 10
10.5486414492
 20
26.2494582945
 30
0.0
 11
10.5486414492
 21
26.1894582945
 31
0.0
  0
LINE
  5
2AF
330
1F
100
AcDbEntity
  8
0
  6
SLD-Solid
 62
     7
370
    25
100
AcDbLine
 10
10.5486414492
 20
26.1894582945
 30
0.0
 11
10.9486414492
 21
26.1894582945
 31
0.0
  0
LINE
  5
2B0
330
1F
100
AcDbEntity
  8
0
  6
SLD-Solid
 62
     7
370
    25
100
AcDbLine
 10
10.9486414492
 20
26.1894582945
 30
0.0
 11
10.9486414492
 21
26.2494582945
 31
0.0
  0
LINE
  5
2B1
330
1F
100
AcDbEntity
  8
0
  6
SLD-Solid
 62
     7
370
    25
100
AcDbLine
 10
10.9486414492
 20
26.2494582945
 30
0.0
 11
10.5486414492
 21
26.2494582945
 31
0.0
  0
LINE
  5
2B2
330
1F
100
AcDbEntity
  8
0
  6
SLD-Solid
 62
     7
370
    25
100
AcDbLine
 10
11.7986414492
 20
25.4694582945
 30
0.0
 11
11.7986414492
 21
26.9694582945
 31
0.0
  0
LINE
  5
2B3
330
1F
100
AcDbEntity
  8
0
  6
SLD-Solid
 62
     7
370
    25
100
AcDbLine
 10
9.6986414492
 20
26.9694582945
 30
0.0
 11
9.6986414492
 21
25.4694582945
 31
0.0
  0
LINE
  5
2B4
330
1F
100
AcDbEntity
  8
0
  6
SLD-Solid
 62
     7
370
    25
100
AcDbLine
 10
14.4458146776
 20
24.9694582945
 30
0.0
 11
14.3628146776
 21
24.9694582945
 31
0.0
  0
ARC
  5
2B5
330
1F
100
AcDbEntity
  8
0
  6
SLD-Solid
 62
     7
370
    25
100
AcDbCircle
 10
14.4458146776
 20
25.2194582945
 30
0.0
 40
0.25
100
AcDbArc
 50
270.0
 51
0.0
  0
LINE
  5
2B6
330
1F
100
AcDbEntity
  8
0
  6
SLD-Solid
 62
     7
370
    25
100
AcDbLine
 10
7.1344682209
 20
24.9694582945
 30
0.0
 11
7.0514682209
 21
24.9694582945
 31
0.0
  0
ARC
  5
2B7
330
1F
100
AcDbEntity
  8
0
  6
SLD-Solid
 62
     7
370
    25
100
AcDbCircle
 10
7.0514682209
 20
25.2194582945
 30
0.0
 40
0.25
100
AcDbArc
 50
180.0
 51
270.0
  0
LINE
  5
2B8
330
1F
100
AcDbEntity
  8
0
  6
SLD-Solid
 62
     7
370
    25
100
AcDbLine
 10
14.3628146776
 20
24.9694582945
 30
0.0
 11
7.1344682209
 21
24.9694582945
 31
0.0
  0
LINE
  5
2B9
330
1F
100
AcDbEntity
  8
0
  6
SLD-Solid
 62
     7
370
    25
100
AcDbLine
 10
10.9401414492
 20
24.6844582945
 30
0.0
 11
10.5571414688
 21
24.6844582945
 31
0.0
  0
LINE
  5
2BA
330
1F
100
AcDbEntity
  8
0
  6
SLD-Solid
 62
     7
370
    25
100
AcDbLine
 10
10.1667703872
 20
24.6694582945
 30
0.0
 11
10.0417703872
 21
24.6694582945
 31
0.0
  0
LINE
  5
2BB
330
1F
100
AcDbEntity
  8
0
  6
SLD-Solid
 62
     7
370
    25
100
AcDbLine
 10
11.4555125113
 20
24.6694582945
 30
0.0
 11
11.3305125113
 21
24.6694582945
 31
0.0
  0
LINE
  5
2BC
330
1F
100
AcDbEntity
  8
0
  6
SLD-Solid
 62
     7
370
    25
100
AcDbLine
 10
11.3305125113
 20
24.6694582945
 30
0.0
 11
10.1667703872
 21
24.6694582945
 31
0.0
  0
LINE
  5
2BD
330
1F
100
AcDbEntity
  8
0
  6
SLD-Solid
 62
     7
370
    25
100
AcDbLine
 10
11.3305125113
 20
24.0374582945
 30
0.0
 11
10.1667703872
 21
24.0374582945
 31
0.0
  0
DIMENSION
  5
2BE
330
1F
100
AcDbEntity
  8
DIMS
100
AcDbDimension
  2
_D_6
 10
15.7289564099
 20
24.9694582945
 30
0.0
 11
15.7289564099
 21
26.4702668078
 31
0.0
 70
   160
  1
<>
 71
     2
 42
-1.0
  3
SLDDIMSTYLE1
100
AcDbAlignedDimension
 13
14.3628146776
 23
27.8694582945
 33
0.0
 14
14.3628146776
 24
24.9694582945
 34
0.0
 50
90.0
100
AcDbRotatedDimension
  0
DIMENSION
  5
2CD
330
1F
100
AcDbEntity
  8
DIMS
100
AcDbDimension
  2
_D_7
 10
17.1462792445
 20
27.8694582945
 30
0.0
 11
17.1462792445
 21
25.7447282827
 31
0.0
 70
   160
  1
<>
 71
     2
 42
-1.0
  3
SLDDIMSTYLE1
100
AcDbAlignedDimension
 13
11.3305125113
 23
24.0374582945
 33
0.0
 14
14.3628146776
 24
27.8694582945
 34
0.0
 50
90.0
100
AcDbRotatedDimension
  0
MTEXT
  5
2DC
330
1F
100
AcDbEntity
  8
NOTES
100
AcDbMText
 10
7.5831970158
 20
24.5848149735
 30
0.0
 40
0.5
 41
0.0
 71
     1
 72
     1
  1
lock
  7
SLDTEXTSTYLE0
 73
     1
 44
1.0
  0
LEADER
  5
2DD
330
1F
100
AcDbEntity
  8
NOTES
100
AcDbLeader
  3
SLDDIMSTYLE2
 76
     3
 10
10.7228448774
 20
26.1894582945
 30
0.0
 10
9.4388377069
 20
24.3385877406
 30
0.0
 10
8.9388377069
 20
24.3385877406
 30
0.0
  0
SPLINE
  5
2DE
330
1F
100
AcDbEntity
  8
0
  6
SLD-Solid
 62
     7
370
    25
100
AcDbSpline
210
0.0
220
0.0
230
1.0
 70
     8
 71
     3
 72
    14
 73
    10
 74
     0
 42
0.00000001
 43
0.00000001
 40
0.0
 40
0.0
 40
0.0
 40
0.0
 40
0.1580135488893627
 40
0.3072467904384057
 40
0.4543462383405079
 40
0.6002053685932001
 40
0.7454235238988585
 40
0.8903846788989396
 40
1.0
 40
1.0
 40
1.0
 40
1.0
 10
42.6320056162093
 20
20.5951134787606
 30
0.0
 10
42.6462405421993
 20
20.58767910682437
 30
0.0
 10
42.67391940488734
 20
20.57322346721381
 30
0.0
 10
42.7183090136708
 20
20.55989754146553
 30
0.0
 10
42.76285110866549
 20
20.55318749927465
 30
0.0
 10
42.8076350351835
 20
20.55346594223511
 30
0.0
 10
42.8515092879543
 20
20.56091834406383
 30
0.0
 10
42.89066167707497
 20
20.57324156426852
 30
0.0
 10
42.91323067730558
 20
20.58614327375862
 30
0.0
 10
42.9229484181004
 20
20.5916984807839
 30
0.0
  0
LINE
  5
2DF
330
1F
100
AcDbEntity
  8
0
  6
SLD-Solid
 62
     7
370
    25
100
AcDbLine
 10
42.9234819268
 20
20.5910043106
 30
0.0
 11
44.3995673325
 21
21.4431302773
 31
0.0
  0
LINE
  5
2E0
330
1F
100
AcDbEntity
  8
0
  6
SLD-Solid
 62
     7
370
    25
100
AcDbLine
 10
37.5207928199
 20
23.5457538199
 30
0.0
 11
38.9695284074
 21
22.7094165672
 31
0.0
  0
LINE
  5
2E1
330
1F
100
AcDbEntity
  8
0
  6
SLD-Solid
 62
     7
370
    25
100
AcDbLine
 10
40.1658839697
 20
22.0187752018
 30
0.0
 11
42.6320056162
 21
20.5951134788
 31
0.0
  0
SPLINE
  5
2E2
330
1F
100
AcDbEntity
  8
0
  6
SLD-Solid
 62
     7
370
    25
100
AcDbSpline
210
0.0
220
0.0
230
1.0
 70
     8
 71
     3
 72
    32
 73
    28
 74
     0
 42
0.00000001
 43
0.00000001
 40
0.0
 40
0.0
 40
0.0
 40
0.0
 40
0.0091262669219969
 40
0.0484565863208095
 40
0.0870070102673744
 40
0.1251272461849879
 40
0.1632102876374777
 40
0.2016843706683359
 40
0.2410105826963473
 40
0.281634157026124
 40
0.3238531059802038
 40
0.3676198123752754
 40
0.4124677397189385
 40
0.457663725290578
 40
0.5030086362800237
 40
0.5486786101527097
 40
0.5949762072660923
 40
0.6422705832223697
 40
0.6908467904490782
 40
0.7337972873112139
 40
0.7753400760806338
 40
0.8155012973927095
 40
0.8545703761150704
 40
0.8928688161918916
 40
0.9306714638996226
 40
0.9721909908490356
 40
1.0
 40
1.0
 40
1.0
 40
1.0
 10
39.77952878433987
 20
24.07072298897501
 30
0.0
 10
39.77610534648714
 20
24.06900321717165
 30
0.0
 10
39.7579283510911
 20
24.05987196213013
 30
0.0
 10
39.72920424509466
 20
24.03673461155412
 30
0.0
 10
39.69477064300164
 20
24.00239194216036
 30
0.0
 10
39.66659744385861
 20
23.9632861926931
 30
0.0
 10
39.64431913072076
 20
23.92082495290324
 30
0.0
 10
39.62802320854895
 20
23.87528875788366
 30
0.0
 10
39.61770198354787
 20
23.82700736317664
 30
0.0
 10
39.61348435523427
 20
23.77613866949781
 30
0.0
 10
39.61560066369505
 20
23.72295233453503
 30
0.0
 10
39.62428660921437
 20
23.66805989265507
 30
0.0
 10
39.63956798071754
 20
23.61257568059192
 30
0.0
 10
39.66116057726592
 20
23.5578069889314
 30
0.0
 10
39.68861623507228
 20
23.50490964778079
 30
0.0
 10
39.72159063241761
 20
23.45471555024575
 30
0.0
 10
39.759925708413
 20
23.40793285180437
 30
0.0
 10
39.80363071445169
 20
23.36534973983258
 30
0.0
 10
39.85047159239228
 20
23.32977737106167
 30
0.0
 10
39.89885534305153
 20
23.30198182190985
 30
0.0
 10
39.94691818847306
 20
23.28206888791267
 30
0.0
 10
39.99561609121331
 20
23.26919854570201
 30
0.0
 10
40.04435874937673
 20
23.26338260874154
 30
0.0
 10
40.09261672551516
 20
23.26450013064695
 30
0.0
 10
40.14118104705368
 20
23.27308429239912
 30
0.0
 10
40.1843096108655
 20
23.28686880169919
 30
0.0
 10
40.20960327456799
 20
23.30132979359171
 30
0.0
 10
40.21974904952486
 20
23.30713037555248
 30
0.0
  0
LINE
  5
2E3
330
1F
100
AcDbEntity
  8
0
  6
SLD-Solid
 62
     7
370
    25
100
AcDbLine
 10
40.9024710211
 20
26.7329534878
 30
0.0
 11
39.8264528321
 21
26.1117814093
 31
0.0
  0
LINE
  5
2E4
330
1F
100
AcDbEntity
  8
0
  6
SLD-Solid
 62
     7
370
    25
100
AcDbLine
 10
39.959837367
 20
26.0347801563
 30
0.0
 11
40.9691524492
 21
26.6174453509
 31
0.0
  0
LINE
  5
2E5
330
1F
100
AcDbEntity
  8
0
  6
SLD-Solid
 62
     7
370
    25
100
AcDbLine
 10
39.8038803041
 20
24.0856130634
 30
0.0
 11
39.7791315668
 21
24.0713259214
 31
0.0
  0
LINE
  5
2E6
330
1F
100
AcDbEntity
  8
0
  6
SLD-Solid
 62
     7
370
    25
100
AcDbLine
 10
40.2205956872
 20
23.306604776
 30
0.0
 11
40.2453444246
 21
23.3208919179
 31
0.0
  0
SPLINE
  5
2E7
330
1F
100
AcDbEntity
  8
0
  6
SLD-Solid
 62
     7
370
    25
100
AcDbSpline
210
0.0
220
0.0
230
1.0
 70
     8
 71
     3
 72
    15
 73
    11
 74
     0
 42
0.00000001
 43
0.00000001
 40
0.0
 40
0.0
 40
0.0
 40
0.0
 40
0.106645585124247
 40
0.2320174660301109
 40
0.3613503770164787
 40
0.4949494154989358
 40
0.6322980523999732
 40
0.7729040286745682
 40
0.8992813274905821
 40
1.0
 40
1.0
 40
1.0
 40
1.0
 10
41.29790878419939
 20
26.21112131466995
 30
0.0
 10
41.29140271021375
 20
26.20814700026625
 30
0.0
 10
41.27724813646189
 20
26.20167610050684
 30
0.0
 10
41.25950400218695
 20
26.18427170469765
 30
0.0
 10
41.24525203658438
 20
26.16165200352879
 30
0.0
 10
41.23684967509047
 20
26.13500074655264
 30
0.0
 10
41.23526746812735
 20
26.10629339245384
 30
0.0
 10
41.24128492010574
 20
26.07909143011067
 30
0.0
 10
41.25256109420295
 20
26.05647583930877
 30
0.0
 10
41.26362963060049
 20
26.04603173826242
 30
0.0
 10
41.26853860492565
 20
26.04139970544033
 30
0.0
  0
LINE
  5
2E8
330
1F
100
AcDbEntity
  8
0
  6
SLD-Solid
 62
     7
370
    25
100
AcDbLine
 10
41.3727019442
 20
26.0593738229
 30
0.0
 11
41.4838044499
 21
26.038733826
 31
0.0
  0
LINE
  5
2E9
330
1F
100
AcDbEntity
  8
0
  6
SLD-Solid
 62
     7
370
    25
100
AcDbLine
 10
41.4645580816
 20
26.1440202764
 30
0.0
 11
41.390966873
 21
26.157691636
 31
0.0
  0
LINE
  5
2EA
330
1F
100
AcDbEntity
  8
0
  6
SLD-Solid
 62
     7
370
    25
100
AcDbLine
 10
39.8138794914
 20
23.1684641115
 30
0.0
 11
39.808206885
 21
23.1651893855
 31
0.0
  0
SPLINE
  5
2EB
330
1F
100
AcDbEntity
  8
0
  6
SLD-Solid
 62
     7
370
    25
100
AcDbSpline
210
0.0
220
0.0
230
1.0
 70
     8
 71
     3
 72
    14
 73
    10
 74
     0
 42
0.00000001
 43
0.00000001
 40
0.0
 40
0.0
 40
0.0
 40
0.0
 40
0.0873378271973896
 40
0.251386365849252
 40
0.4153293276370861
 40
0.5770981333133385
 40
0.7347635320734062
 40
0.8873593267276026
 40
1.0
 40
1.0
 40
1.0
 40
1.0
 10
44.29022175076917
 20
21.37118539634735
 30
0.0
 10
44.29863006625544
 20
21.36653747640057
 30
0.0
 10
44.32283190342995
 20
21.35315926741971
 30
0.0
 10
44.36336513842963
 20
21.33638701935105
 30
0.0
 10
44.41122660728815
 20
21.32377885330208
 30
0.0
 10
44.45810623716031
 20
21.31925288980507
 30
0.0
 10
44.50260036145016
 20
21.32319035964287
 30
0.0
 10
44.54097922726837
 20
21.33331584848343
 30
0.0
 10
44.56240322284623
 20
21.34531527633427
 30
0.0
 10
44.57150156933282
 20
21.35041119561931
 30
0.0
  0
ARC
  5
2EC
330
1F
100
AcDbEntity
  8
0
  6
SLD-Solid
 62
     7
370
    25
100
AcDbCircle
 10
39.750344613
 20
21.9232230949
 30
0.0
 40
0.1250000000000014
100
AcDbArc
 50
240.0026882663
 51
299.9973117337
  0
LINE
  5
2ED
330
1F
100
AcDbEntity
  8
0
  6
SLD-Solid
 62
     7
370
    25
100
AcDbLine
 10
38.9187284779
 20
23.0739653788
 30
0.0
 11
39.0338060306
 21
22.2481495666
 31
0.0
  0
LINE
  5
2EE
330
1F
100
AcDbEntity
  8
0
  6
SLD-Solid
 62
     7
370
    25
100
AcDbLine
 10
44.5714488943
 20
21.3495256243
 30
0.0
 11
44.8808081111
 21
21.5281148987
 31
0.0
  0
ARC
  5
2EF
330
1F
100
AcDbEntity
  8
0
  6
SLD-Solid
 62
     7
370
    25
100
AcDbCircle
 10
39.0425322182
 20
23.0912174479
 30
0.0
 40
0.1250000000000009
100
AcDbArc
 50
119.9973117336
 51
187.9330889159
  0
LINE
  5
2F0
330
1F
100
AcDbEntity
  8
0
  6
SLD-Solid
 62
     7
370
    25
100
AcDbLine
 10
39.0951148501
 20
22.1571455279
 30
0.0
 11
39.6878496922
 21
21.8149669871
 31
0.0
  0
LINE
  5
2F1
330
1F
100
AcDbEntity
  8
0
  6
SLD-Solid
 62
     7
370
    25
100
AcDbLine
 10
39.8128395338
 20
21.8149669871
 30
0.0
 11
40.1713426718
 21
22.0219264434
 31
0.0
  0
LINE
  5
2F2
330
1F
100
AcDbEntity
  8
0
  6
SLD-Solid
 62
     7
370
    25
100
AcDbLine
 10
39.3385404355
 20
23.406433012
 30
0.0
 11
38.9800372974
 21
23.1994735557
 31
0.0
  0
LINE
  5
2F3
330
1F
100
AcDbEntity
  8
0
  6
SLD-Solid
 62
     7
370
    25
100
AcDbLine
 10
39.3954954819
 20
21.9837394803
 30
0.0
 11
39.3954954819
 21
21.913442803
 31
0.0
  0
LINE
  5
2F4
330
1F
100
AcDbEntity
  8
0
  6
SLD-Solid
 62
     7
370
    25
100
AcDbLine
 10
44.2825816953
 20
21.3755959065
 30
0.0
 11
44.2902217508
 21
21.3711853963
 31
0.0
  0
ARC
  5
2F5
330
1F
100
AcDbEntity
  8
0
  6
SLD-Solid
 62
     7
370
    25
100
AcDbCircle
 10
39.1576097709
 20
22.2654016357
 30
0.0
 40
0.1250000000000004
100
AcDbArc
 50
187.9330889159
 51
240.0026882664
  0
SPLINE
  5
2F6
330
1F
100
AcDbEntity
  8
0
  6
SLD-Solid
 62
     7
370
    25
100
AcDbSpline
210
0.0
220
0.0
230
1.0
 70
     8
 71
     3
 72
    15
 73
    11
 74
     0
 42
0.00000001
 43
0.00000001
 40
0.0
 40
0.0
 40
0.0
 40
0.0
 40
0.0469268739900561
 40
0.198359515165766
 40
0.3454244526689949
 40
0.4892973176111017
 40
0.6312286412362264
 40
0.7726257943991631
 40
0.9151510524145208
 40
1.0
 40
1.0
 40
1.0
 40
1.0
 10
37.47982970118392
 20
27.22316589110573
 30
0.0
 10
37.47555860155109
 20
27.2209918852948
 30
0.0
 10
37.45750469809756
 20
27.21180238039159
 30
0.0
 10
37.43013913867448
 20
27.18898532152058
 30
0.0
 10
37.39909947750216
 20
27.15618180510307
 30
0.0
 10
37.37451558578108
 20
27.11930456264696
 30
0.0
 10
37.35598307118472
 20
27.07982245942763
 30
0.0
 10
37.34360661842033
 20
27.03821764972631
 30
0.0
 10
37.33784075294474
 20
27.00106579379558
 30
0.0
 10
37.33729606075821
 20
26.97796661748642
 30
0.0
 10
37.33709279865703
 20
26.96934672678799
 30
0.0
  0
LINE
  5
2F7
330
1F
100
AcDbEntity
  8
0
  6
SLD-Solid
 62
     7
370
    25
100
AcDbLine
 10
38.9553815982
 20
28.075986028
 30
0.0
 11
37.4792961925
 21
27.2238600613
 31
0.0
  0
LINE
  5
2F8
330
1F
100
AcDbEntity
  8
0
  6
SLD-Solid
 62
     7
370
    25
100
AcDbLine
 10
37.3370927987
 20
26.9693467268
 30
0.0
 11
37.3370927987
 21
23.8639198595
 31
0.0
  0
SPLINE
  5
2F9
330
1F
100
AcDbEntity
  8
0
  6
SLD-Solid
 62
     7
370
    25
100
AcDbSpline
210
0.0
220
0.0
230
1.0
 70
     8
 71
     3
 72
    15
 73
    11
 74
     0
 42
0.00000001
 43
0.00000001
 40
0.0
 40
0.0
 40
0.0
 40
0.0
 40
0.0357473817602844
 40
0.1822722531963185
 40
0.3285810767958981
 40
0.4769803637495947
 40
0.6291964329211006
 40
0.7856856810656146
 40
0.9456361542979299
 40
1.0
 40
1.0
 40
1.0
 40
1.0
 10
38.96022405670197
 20
28.27075612367807
 30
0.0
 10
38.95726692717508
 20
28.26929977468869
 30
0.0
 10
38.94218882535841
 20
28.26187399974621
 30
0.0
 10
38.91899981128881
 20
28.24168440999832
 30
0.0
 10
38.89175743258634
 20
28.21088262625029
 30
0.0
 10
38.87004005527223
 20
28.17415451916948
 30
0.0
 10
38.85356440866769
 20
28.13249535396896
 30
0.0
 10
38.84275819068232
 20
28.08599136409893
 30
0.0
 10
38.83874576910927
 20
28.04674550588549
 30
0.0
 10
38.83846772731825
 20
28.02318339868556
 30
0.0
 10
38.83839719810163
 20
28.01720653831243
 30
0.0
  0
LINE
  5
2FA
330
1F
100
AcDbEntity
  8
0
  6
SLD-Solid
 62
     7
370
    25
100
AcDbLine
 10
39.2696359485
 20
28.4502309695
 30
0.0
 11
38.9602767317
 21
28.271641695
 31
0.0
  0
LINE
  5
2FB
330
1F
100
AcDbEntity
  8
0
  6
SLD-Solid
 62
     7
370
    25
100
AcDbLine
 10
38.8383971981
 20
28.0172065383
 30
0.0
 11
38.8383971981
 21
28.0084523713
 31
0.0
  0
SPLINE
  5
2FC
330
1F
100
AcDbEntity
  8
0
  6
SLD-Solid
 62
     7
370
    25
100
AcDbSpline
210
0.0
220
0.0
230
1.0
 70
     8
 71
     3
 72
    15
 73
    11
 74
     0
 42
0.00000001
 43
0.00000001
 40
0.0
 40
0.0
 40
0.0
 40
0.0
 40
0.1138625732634999
 40
0.2372729064567061
 40
0.3653127914248157
 40
0.4974551854454938
 40
0.6335221750304191
 40
0.7747793960217387
 40
0.9029188808890771
 40
1.0
 40
1.0
 40
1.0
 40
1.0
 10
37.33709279865703
 20
23.86391985953746
 30
0.0
 10
37.33764800320607
 20
23.84945677454528
 30
0.0
 10
37.33880496807394
 20
23.81931782621429
 30
0.0
 10
37.34827127175637
 20
23.77351340587618
 30
0.0
 10
37.36399193863302
 20
23.72682734924175
 30
0.0
 10
37.38656090129312
 20
23.68092751033623
 30
0.0
 10
37.41584816658435
 20
23.63691488056354
 30
0.0
 10
37.45050409974168
 20
23.59801538320504
 30
0.0
 10
37.48602557322554
 20
23.56739280500445
 30
0.0
 10
37.5103205109728
 20
23.55227174004525
 30
0.0
 10
37.520792819916
 20
23.54575381991512
 30
0.0
  0
LWPOLYLINE
  5
2FD
330
1F
100
AcDbEntity
  8
0
  6
SLD-Solid
 62
     7
370
    25
100
AcDbPolyline
 90
       18
 70
   128
 43
0.0
 10
40.3368000082
 20
23.5230304
 10
40.3336223882
 20
23.5761696942
 10
40.3241542151
 20
23.6318960277
 10
40.3085882338
 20
23.6890749729
 10
40.2872413227
 20
23.7465425316
 10
40.2605480433
 20
23.8031288299
 10
40.229051794
 20
23.8576819339
 10
40.1933937473
 20
23.9090912998
 10
40.1542997985
 20
23.9563103811
 10
40.1125657875
 20
23.9983779335
 10
40.0690412984
 20
24.034437583
 10
40.0246123643
 20
24.0637552591
 10
39.9801834303
 20
24.0857341384
 10
39.9366589412
 20
24.0999267944
 10
39.8949249302
 20
24.1060443054
 10
39.8558309814
 20
24.1039621366
 10
39.8201729347
 20
24.093722675
 10
39.8038803041
 20
24.0856130634
  0
ARC
  5
2FE
330
1F
100
AcDbEntity
  8
0
  6
SLD-Solid
 62
     7
370
    25
100
AcDbCircle
 10
40.1179144333
 20
23.5003047082
 30
0.0
 40
0.2200621548410879
100
AcDbArc
 50
305.3847106268
 51
5.9274697666
  0
ARC
  5
2FF
330
1F
100
AcDbEntity
  8
0
  6
SLD-Solid
 62
     7
370
    25
100
AcDbCircle
 10
39.8210789407
 20
22.6258692286
 30
0.0
 40
0.5016090559238129
100
AcDbArc
 50
0.6279334831
 51
13.465881917
  0
LWPOLYLINE
  5
300
330
1F
100
AcDbEntity
  8
0
  6
SLD-Solid
 62
     7
370
    25
100
AcDbPolyline
 90
       13
 70
   128
 43
0.0
 10
40.2427806626
 20
22.9119658409
 10
40.2152640352
 20
22.9579104358
 10
40.1798762929
 20
23.0075753577
 10
40.1411793696
 20
23.0528891589
 10
40.0999980229
 20
23.0928860544
 10
40.0572099617
 20
23.1267135797
 10
40.0137271394
 20
23.1536507599
 10
39.9704763168
 20
23.1731234757
 10
39.92837931
 20
23.1847167001
 10
39.8883333437
 20
23.1881833436
 10
39.8511919281
 20
23.1834495206
 10
39.8177466681
 20
23.1706161244
 10
39.8138794914
 20
23.1684641115
  0
ARC
  5
301
330
1F
100
AcDbEntity
  8
0
  6
SLD-Solid
 62
     7
370
    25
100
AcDbCircle
 10
40.0907480394
 20
22.6155151015
 30
0.0
 40
0.2324509362459403
100
AcDbArc
 50
317.3097161267
 51
3.9101755862
  0
LINE
  5
302
330
1F
100
AcDbEntity
  8
0
  6
SLD-Solid
 62
     7
370
    25
100
AcDbLine
 10
39.613015232
 20
26.2904416521
 30
0.0
 11
39.5649929566
 21
26.2627189826
 31
0.0
  0
LINE
  5
303
330
1F
100
AcDbEntity
  8
0
  6
SLD-Solid
 62
     7
370
    25
100
AcDbLine
 10
39.5649929566
 20
26.2627189826
 30
0.0
 11
41.1206278752
 21
25.3646700596
 31
0.0
  0
LINE
  5
304
330
1F
100
AcDbEntity
  8
0
  6
SLD-Solid
 62
     7
370
    25
100
AcDbLine
 10
41.1206278752
 20
25.3646700596
 30
0.0
 11
42.2519987251
 21
26.0177965491
 31
0.0
  0
LINE
  5
305
330
1F
100
AcDbEntity
  8
0
  6
SLD-Solid
 62
     7
370
    25
100
AcDbLine
 10
42.2519987251
 20
26.0177965491
 30
0.0
 11
40.7509906884
 21
26.8843100444
 31
0.0
  0
ARC
  5
306
330
1F
100
AcDbEntity
  8
0
  6
SLD-Solid
 62
     7
370
    25
100
AcDbCircle
 10
44.2197493557
 20
24.8292516995
 30
0.0
 40
0.7653534290098191
100
AcDbArc
 50
2.487128189
 51
57.5128719567
  0
LINE
  5
307
330
1F
100
AcDbEntity
  8
0
  6
SLD-Solid
 62
     7
370
    25
100
AcDbLine
 10
44.9843818185
 20
21.757037302
 30
0.0
 11
44.9843818185
 21
24.8624641692
 31
0.0
  0
LINE
  5
308
330
1F
100
AcDbEntity
  8
0
  6
SLD-Solid
 62
     7
370
    25
100
AcDbLine
 10
44.6308284279
 20
25.4748366031
 30
0.0
 11
40.03196077
 21
28.1297063915
 31
0.0
  0
LINE
  5
309
330
1F
100
AcDbEntity
  8
0
  6
SLD-Solid
 62
     7
370
    25
100
AcDbLine
 10
39.8916832351
 20
28.2106868887
 30
0.0
 11
39.5196156316
 21
28.4254769443
 31
0.0
  0
LINE
  5
30A
330
1F
100
AcDbEntity
  8
0
  6
SLD-Solid
 62
     7
370
    25
100
AcDbLine
 10
39.6610297032
 20
26.2072781489
 30
0.0
 11
38.8713983205
 21
27.574959819
 31
0.0
  0
LINE
  5
30B
330
1F
100
AcDbEntity
  8
0
  6
SLD-Solid
 62
     7
370
    25
100
AcDbLine
 10
38.9213983205
 20
27.6038335879
 30
0.0
 11
38.8713983205
 21
27.574959819
 31
0.0
  0
LINE
  5
30C
330
1F
100
AcDbEntity
  8
0
  6
SLD-Solid
 62
     7
370
    25
100
AcDbLine
 10
39.7610297032
 20
26.1495493777
 30
0.0
 11
38.9213983205
 21
27.6038335879
 31
0.0
  0
LINE
  5
30D
330
1F
100
AcDbEntity
  8
0
  6
SLD-Solid
 62
     7
370
    25
100
AcDbLine
 10
38.9213983205
 20
27.6038335879
 30
0.0
 11
39.0677316309
 21
27.6883100099
 31
0.0
  0
LINE
  5
30E
330
1F
100
AcDbEntity
  8
0
  6
SLD-Solid
 62
     7
370
    25
100
AcDbLine
 10
39.9374729718
 20
28.1904009987
 30
0.0
 11
39.9820584922
 21
28.2161396718
 31
0.0
  0
LINE
  5
30F
330
1F
100
AcDbEntity
  8
0
  6
SLD-Solid
 62
     7
370
    25
100
AcDbLine
 10
39.9820584922
 20
28.2161396718
 30
0.0
 11
40.8543987811
 21
26.7052019744
 31
0.0
  0
LINE
  5
310
330
1F
100
AcDbEntity
  8
0
  6
SLD-Solid
 62
     7
370
    25
100
AcDbLine
 10
39.8998046265
 20
26.1541264989
 30
0.0
 11
39.079238322
 21
27.5753890252
 31
0.0
  0
ARC
  5
311
330
1F
100
AcDbEntity
  8
0
  6
SLD-Solid
 62
     7
370
    25
100
AcDbCircle
 10
39.4206411671
 20
27.6648293846
 30
0.0
 40
0.3529241853274333
100
AcDbArc
 50
180.5220402366
 51
194.6803709569
  0
LINE
  5
312
330
1F
100
AcDbEntity
  8
0
  6
SLD-Solid
 62
     7
370
    25
100
AcDbLine
 10
39.0677316309
 20
27.7350297522
 30
0.0
 11
39.0677316309
 21
27.6616138236
 31
0.0
  0
LINE
  5
313
330
1F
100
AcDbEntity
  8
0
  6
SLD-Solid
 62
     7
370
    25
100
AcDbLine
 10
39.0677316309
 20
27.7350297522
 30
0.0
 11
39.10308697
 21
27.7146195494
 31
0.0
  0
LINE
  5
314
330
1F
100
AcDbEntity
  8
0
  6
SLD-Solid
 62
     7
370
    25
100
AcDbLine
 10
39.10308697
 20
27.7146195494
 30
0.0
 11
39.10308697
 21
27.6412036208
 31
0.0
  0
ARC
  5
315
330
1F
100
AcDbEntity
  8
0
  6
SLD-Solid
 62
     7
370
    25
100
AcDbCircle
 10
39.4635782575
 20
27.6535182273
 30
0.0
 40
0.3607015634997739
100
AcDbArc
 50
181.956498643
 51
211.1437277994
  0
LINE
  5
316
330
1F
100
AcDbEntity
  8
0
  6
SLD-Solid
 62
     7
370
    25
100
AcDbLine
 10
39.1548636653
 20
27.4669681845
 30
0.0
 11
39.9095762974
 21
26.1597675644
 31
0.0
  0
LINE
  5
317
330
1F
100
AcDbEntity
  8
0
  6
SLD-Solid
 62
     7
370
    25
100
AcDbLine
 10
39.9892496671
 20
27.9486489705
 30
0.0
 11
40.7439622992
 21
26.6414483504
 31
0.0
  0
LINE
  5
318
330
1F
100
AcDbEntity
  8
0
  6
SLD-Solid
 62
     7
370
    25
100
AcDbLine
 10
39.9933194364
 20
26.9455010799
 30
0.0
 11
39.9019854497
 21
27.1036961848
 31
0.0
  0
LINE
  5
319
330
1F
100
AcDbEntity
  8
0
  6
SLD-Solid
 62
     7
370
    25
100
AcDbLine
 10
40.0357458432
 20
26.9699933232
 30
0.0
 11
39.9933194364
 21
26.9455010799
 31
0.0
  0
LINE
  5
31A
330
1F
100
AcDbEntity
  8
0
  6
SLD-Solid
 62
     7
370
    25
100
AcDbLine
 10
39.9444118566
 20
27.1281884281
 30
0.0
 11
40.0357458432
 21
26.9699933232
 31
0.0
  0
LINE
  5
31B
330
1F
100
AcDbEntity
  8
0
  6
SLD-Solid
 62
     7
370
    25
100
AcDbLine
 10
39.9019854497
 20
27.1036961848
 30
0.0
 11
39.9444118566
 21
27.1281884281
 31
0.0
  0
LINE
  5
31C
330
1F
100
AcDbEntity
  8
0
  6
SLD-Solid
 62
     7
370
    25
100
AcDbLine
 10
40.6963638065
 20
25.6095924932
 30
0.0
 11
40.6963638065
 21
26.1444282233
 31
0.0
  0
ELLIPSE
  5
31D
330
1F
100
AcDbEntity
  8
0
  6
SLD-Solid
 62
     7
370
    25
100
AcDbEllipse
 10
41.4741812658
 20
26.0913770512
 30
0.0
 11
-0.02027229075193304
 21
0.05179499726208547
 31
0.0
210
0.0
220
0.0
230
1.0
 40
0.55924489
 41
2.806621469153749
 42
5.672551345432661
  0
ELLIPSE
  5
31E
330
1F
100
AcDbEntity
  8
0
  6
SLD-Solid
 62
     7
370
    25
100
AcDbEllipse
 10
41.4741812658
 20
26.0913770512
 30
0.0
 11
-0.02027229075193304
 21
0.05179499726208547
 31
0.0
210
0.0
220
0.0
230
1.0
 40
0.55924489
 41
5.672551345432661
 42
5.9482141227438
  0
LWPOLYLINE
  5
31F
330
1F
100
AcDbEntity
  8
0
  6
SLD-Solid
 62
     7
370
    25
100
AcDbPolyline
 90
       10
 70
   128
 43
0.0
 10
40.9691524492
 20
26.6174453509
 10
40.9759034879
 20
26.6233893786
 10
40.9821635585
 20
26.6384354547
 10
40.9821635585
 20
26.6584467079
 10
40.9759034879
 20
26.6807205076
 10
40.964228804
 20
26.7022486538
 10
40.9487162374
 20
26.720123651
 10
40.9314608463
 20
26.7319313818
 10
40.9147930668
 20
26.7360771466
 10
40.9024710211
 20
26.7329534878
  0
LINE
  5
320
330
1F
100
AcDbEntity
  8
0
  6
SLD-Solid
 62
     7
370
    25
100
AcDbLine
 10
39.9731445002
 20
26.0270981118
 30
0.0
 11
39.9664914743
 21
26.0386214907
 31
0.0
  0
LINE
  5
321
330
1F
100
AcDbEntity
  8
0
  6
SLD-Solid
 62
     7
370
    25
100
AcDbLine
 10
39.9762631452
 20
26.0442625562
 30
0.0
 11
39.9926862539
 21
26.0158168975
 31
0.0
  0
LINE
  5
322
330
1F
100
AcDbEntity
  8
0
  6
SLD-Solid
 62
     7
370
    25
100
AcDbLine
 10
40.9472834699
 20
26.2892857534
 30
0.0
 11
40.2331282217
 21
25.8770127041
 31
0.0
  0
LINE
  5
323
330
1F
100
AcDbEntity
  8
0
  6
SLD-Solid
 62
     7
370
    25
100
AcDbLine
 10
40.810649147
 20
26.5259433422
 30
0.0
 11
40.9472834699
 21
26.2892857534
 31
0.0
  0
LINE
  5
324
330
1F
100
AcDbEntity
  8
0
  6
SLD-Solid
 62
     7
370
    25
100
AcDbLine
 10
39.9021176327
 20
28.2167105382
 30
0.0
 11
39.0677316309
 21
27.7350297522
 31
0.0
  0
LINE
  5
325
330
1F
100
AcDbEntity
  8
0
  6
SLD-Solid
 62
     7
370
    25
100
AcDbLine
 10
39.9021176327
 20
28.2167105382
 30
0.0
 11
39.9374729718
 21
28.1963003354
 31
0.0
  0
LINE
  5
326
330
1F
100
AcDbEntity
  8
0
  6
SLD-Solid
 62
     7
370
    25
100
AcDbLine
 10
39.9374729718
 20
28.1963003354
 30
0.0
 11
39.10308697
 21
27.7146195494
 31
0.0
  0
LINE
  5
327
330
1F
100
AcDbEntity
  8
0
  6
SLD-Solid
 62
     7
370
    25
100
AcDbLine
 10
39.9374729718
 20
28.1963003354
 30
0.0
 11
39.9374729718
 21
28.1228844068
 31
0.0
  0
ARC
  5
328
330
1F
100
AcDbEntity
  8
0
  6
SLD-Solid
 62
     7
370
    25
100
AcDbCircle
 10
40.1258634989
 20
22.7676884357
 30
0.0
 40
0.1855426888741061
100
AcDbArc
 50
356.1644945832
 51
58.0949311165
  0
ARC
  5
329
330
1F
100
AcDbEntity
  8
0
  6
SLD-Solid
 62
     7
370
    25
100
AcDbCircle
 10
40.2979642593
 20
28.1351990133
 30
0.0
 40
0.3607015634998876
100
AcDbArc
 50
181.956498643
 51
211.1437277994
  0
LINE
  5
32A
330
1F
100
AcDbEntity
  8
0
  6
SLD-Solid
 62
     7
370
    25
100
AcDbLine
 10
41.0320584922
 20
26.3974863292
 30
0.0
 11
40.9820584922
 21
26.3686125603
 31
0.0
  0
LINE
  5
32B
330
1F
100
AcDbEntity
  8
0
  6
SLD-Solid
 62
     7
370
    25
100
AcDbLine
 10
41.0320584922
 20
26.3974863292
 30
0.0
 11
40.9216220103
 21
26.3337327052
 31
0.0
  0
LINE
  5
32C
330
1F
100
AcDbEntity
  8
0
  6
SLD-Solid
 62
     7
370
    25
100
AcDbLine
 10
40.9820584922
 20
26.3686125603
 30
0.0
 11
40.9216260735
 21
26.3337256675
 31
0.0
  0
LWPOLYLINE
  5
32D
330
1F
100
AcDbEntity
  8
0
  6
SLD-Solid
 62
     7
370
    25
100
AcDbPolyline
 90
       34
 70
   128
 43
0.0
 10
39.5423655396
 20
22.3209273219
 10
39.5391709544
 20
22.3614043578
 10
39.5297026595
 20
22.4041068378
 10
39.5143028637
 20
22.4474913828
 10
39.4935281558
 20
22.4899899625
 10
39.4681293878
 20
22.5300665674
 10
39.4390245375
 20
22.5662727246
 10
39.4072655298
 20
22.5972998492
 10
39.3740002181
 20
22.6220265401
 10
39.3404308975
 20
22.6395591103
 10
39.3077708506
 20
22.6492638871
 10
39.2772004966
 20
22.6507901144
 10
39.2498247279
 20
22.6440826305
 10
39.2266329759
 20
22.6293838613
 10
39.208463451
 20
22.6072250587
 10
39.1959728472
 20
22.5784070994
 10
39.1896126075
 20
22.5439715396
 10
39.1896126075
 20
22.5051629702
 10
39.1959728472
 20
22.463384034
 10
39.208463451
 20
22.4201447306
 10
39.2266329759
 20
22.3770078411
 10
39.2498247279
 20
22.335532445
 10
39.2772004966
 20
22.2972175713
 10
39.3077708506
 20
22.2634480192
 10
39.3404308975
 20
22.2354443085
 10
39.3740002181
 20
22.2142185661
 10
39.4072655298
 20
22.2005379457
 10
39.4390245375
 20
22.1948969005
 10
39.4681293878
 20
22.1974993128
 10
39.4935281558
 20
22.2082511243
 10
39.5143028637
 20
22.2267637368
 10
39.5297026595
 20
22.2523680561
 10
39.5391709544
 20
22.2841386755
 10
39.5423655396
 20
22.3209273219
  0
LINE
  5
32E
330
1F
100
AcDbEntity
  8
0
  6
SLD-Solid
 62
     7
370
    25
100
AcDbLine
 10
40.2239253037
 20
22.9252002507
 30
0.0
 11
39.4010353563
 21
23.4002445057
 31
0.0
  0
LINE
  5
32F
330
1F
100
AcDbEntity
  8
0
  6
SLD-Solid
 62
     7
370
    25
100
AcDbLine
 10
40.195913058
 20
22.062326977
 30
0.0
 11
40.3109906107
 21
22.7552770749
 31
0.0
  0
LINE
  5
330
330
1F
100
AcDbEntity
  8
0
  6
SLD-Solid
 62
     7
370
    25
100
AcDbLine
 10
40.9472834699
 20
26.2892857534
 30
0.0
 11
40.9222834699
 21
26.274848869
 31
0.0
  0
LINE
  5
331
330
1F
100
AcDbEntity
  8
0
  6
SLD-Solid
 62
     7
370
    25
100
AcDbLine
 10
40.9222834699
 20
26.274848869
 30
0.0
 11
40.2331322852
 21
25.8770103582
 31
0.0
  0
LWPOLYLINE
  5
332
330
1F
100
AcDbEntity
  8
0
  6
SLD-Solid
 62
     7
370
    25
100
AcDbPolyline
 90
       15
 70
   128
 43
0.0
 10
41.2683494526
 20
26.0408699573
 10
41.2791996235
 20
26.0330795554
 10
41.3021449692
 20
26.0251810521
 10
41.3265295567
 20
26.0266233611
 10
41.3499664529
 20
26.0372652992
 10
41.3701614911
 20
26.0560651591
 10
41.3851378402
 20
26.0811826798
 10
41.3934295107
 20
26.1101591832
 10
41.3942248563
 20
26.1401582473
 10
41.3874460229
 20
26.1682433547
 10
41.3737565701
 20
26.1916653394
 10
41.3544965167
 20
26.2081314944
 10
41.3315511711
 20
26.2160299976
 10
41.3071665835
 20
26.2145876886
 10
41.2983298431
 20
26.2117145457
  0
LINE
  5
333
330
1F
100
AcDbEntity
  8
0
  6
SLD-Solid
 62
     7
370
    25
100
AcDbLine
 10
39.9444118566
 20
27.1281884281
 30
0.0
 11
39.9194118566
 21
27.1137515437
 31
0.0
  0
LINE
  5
334
330
1F
100
AcDbEntity
  8
0
  6
SLD-Solid
 62
     7
370
    25
100
AcDbLine
 10
41.286353924
 20
26.1208231346
 30
0.0
 11
41.271898394
 21
26.087216588
 31
0.0
  0
LINE
  5
335
330
1F
100
AcDbEntity
  8
0
  6
SLD-Solid
 62
     7
370
    25
100
AcDbLine
 10
41.271898394
 20
26.087216588
 30
0.0
 11
41.2842953634
 21
26.0800599699
 31
0.0
  0
LINE
  5
336
330
1F
100
AcDbEntity
  8
0
  6
SLD-Solid
 62
     7
370
    25
100
AcDbLine
 10
41.2842953634
 20
26.0800599699
 30
0.0
 11
41.2987508933
 21
26.1136665165
 31
0.0
  0
LINE
  5
337
330
1F
100
AcDbEntity
  8
0
  6
SLD-Solid
 62
     7
370
    25
100
AcDbLine
 10
41.2987508933
 20
26.1136665165
 30
0.0
 11
41.3238112307
 21
26.0991994917
 31
0.0
  0
LINE
  5
338
330
1F
100
AcDbEntity
  8
0
  6
SLD-Solid
 62
     7
370
    25
100
AcDbLine
 10
41.3238112307
 20
26.0991994917
 30
0.0
 11
41.3313288636
 21
26.1166766568
 31
0.0
  0
LINE
  5
339
330
1F
100
AcDbEntity
  8
0
  6
SLD-Solid
 62
     7
370
    25
100
AcDbLine
 10
41.3313288636
 20
26.1166766568
 30
0.0
 11
41.3062685263
 21
26.1311436816
 31
0.0
  0
LINE
  5
33A
330
1F
100
AcDbEntity
  8
0
  6
SLD-Solid
 62
     7
370
    25
100
AcDbLine
 10
41.3062685263
 20
26.1311436816
 30
0.0
 11
41.3200891266
 21
26.1632741292
 31
0.0
  0
LINE
  5
33B
330
1F
100
AcDbEntity
  8
0
  6
SLD-Solid
 62
     7
370
    25
100
AcDbLine
 10
41.3200891266
 20
26.1632741292
 30
0.0
 11
41.3076921573
 21
26.1704307473
 31
0.0
  0
LINE
  5
33C
330
1F
100
AcDbEntity
  8
0
  6
SLD-Solid
 62
     7
370
    25
100
AcDbLine
 10
41.3076921573
 20
26.1704307473
 30
0.0
 11
41.293871557
 21
26.1383002996
 31
0.0
  0
LINE
  5
33D
330
1F
100
AcDbEntity
  8
0
  6
SLD-Solid
 62
     7
370
    25
100
AcDbLine
 10
41.293871557
 20
26.1383002996
 30
0.0
 11
41.2700282168
 21
26.1520647669
 31
0.0
  0
LINE
  5
33E
330
1F
100
AcDbEntity
  8
0
  6
SLD-Solid
 62
     7
370
    25
100
AcDbLine
 10
41.2700282168
 20
26.1520647669
 30
0.0
 11
41.2625105838
 21
26.1345876019
 31
0.0
  0
LINE
  5
33F
330
1F
100
AcDbEntity
  8
0
  6
SLD-Solid
 62
     7
370
    25
100
AcDbLine
 10
41.2625105838
 20
26.1345876019
 30
0.0
 11
41.286353924
 21
26.1208231346
 31
0.0
  0
LINE
  5
340
330
1F
100
AcDbEntity
  8
0
  6
SLD-Solid
 62
     7
370
    25
100
AcDbLine
 10
41.3193988692
 20
26.109830652
 30
0.0
 11
41.3265967752
 21
26.1056753894
 31
0.0
  0
LINE
  5
341
330
1F
100
AcDbEntity
  8
0
  6
SLD-Solid
 62
     7
370
    25
100
AcDbLine
 10
41.3070018999
 20
26.1169872701
 30
0.0
 11
41.305068663
 21
26.1124928369
 31
0.0
  0
LINE
  5
342
330
1F
100
AcDbEntity
  8
0
  6
SLD-Solid
 62
     7
370
    25
100
AcDbLine
 10
41.2831585597
 20
26.1307517374
 30
0.0
 11
41.3070018999
 21
26.1169872701
 31
0.0
  0
LINE
  5
343
330
1F
100
AcDbEntity
  8
0
  6
SLD-Solid
 62
     7
370
    25
100
AcDbLine
 10
41.2878906482
 20
26.1417530048
 30
0.0
 11
41.2831585597
 21
26.1307517374
 31
0.0
  0
LINE
  5
344
330
1F
100
AcDbEntity
  8
0
  6
SLD-Solid
 62
     7
370
    25
100
AcDbLine
 10
41.2987508933
 20
26.1136665165
 30
0.0
 11
41.3193988692
 21
26.109830652
 31
0.0
  0
LINE
  5
345
330
1F
100
AcDbEntity
  8
0
  6
SLD-Solid
 62
     7
370
    25
100
AcDbLine
 10
41.293871557
 20
26.1383002996
 30
0.0
 11
41.3082017631
 21
26.1356381148
 31
0.0
  0
LINE
  5
346
330
1F
100
AcDbEntity
  8
0
  6
SLD-Solid
 62
     7
370
    25
100
AcDbLine
 10
41.271898394
 20
26.087216588
 30
0.0
 11
41.2862286002
 21
26.0845544031
 31
0.0
  0
LINE
  5
347
330
1F
100
AcDbEntity
  8
0
  6
SLD-Solid
 62
     7
370
    25
100
AcDbLine
 10
41.286353924
 20
26.1208231346
 30
0.0
 11
41.3070018999
 21
26.1169872701
 31
0.0
  0
LINE
  5
348
330
1F
100
AcDbEntity
  8
0
  6
SLD-Solid
 62
     7
370
    25
100
AcDbLine
 10
41.2625105838
 20
26.1345876019
 30
0.0
 11
41.2831585597
 21
26.1307517374
 31
0.0
  0
LINE
  5
349
330
1F
100
AcDbEntity
  8
0
  6
SLD-Solid
 62
     7
370
    25
100
AcDbLine
 10
39.9019874813
 20
27.103692666
 30
0.0
 11
39.9194118566
 21
27.1137515437
 31
0.0
  0
ARC
  5
34A
330
1F
100
AcDbEntity
  8
0
  6
SLD-Solid
 62
     7
370
    25
100
AcDbCircle
 10
44.7364932852
 20
21.7313003917
 30
0.0
 40
0.2492210134101378
100
AcDbArc
 50
305.3847106268
 51
5.9274697666
  0
LINE
  5
34B
330
1F
100
AcDbEntity
  8
0
  6
SLD-Solid
 62
     7
370
    25
100
AcDbLine
 10
40.9210856289
 20
26.5896969662
 30
0.0
 11
41.0320584922
 21
26.3974863292
 31
0.0
  0
ARC
  5
34C
330
1F
100
AcDbEntity
  8
0
  6
SLD-Solid
 62
     7
370
    25
100
AcDbCircle
 10
40.1420970925
 20
22.0673844737
 30
0.0
 40
0.0540530889377896
100
AcDbArc
 50
302.7553416485
 51
354.6312468691
  0
ARC
  5
34D
330
1F
100
AcDbEntity
  8
0
  6
SLD-Solid
 62
     7
370
    25
100
AcDbCircle
 10
39.364548145
 20
23.3504248897
 30
0.0
 40
0.0617520098832928
100
AcDbArc
 50
53.7814583169
 51
114.908083254
  0
LWPOLYLINE
  5
34E
330
1F
100
AcDbEntity
  8
0
  6
SLD-Solid
 62
     7
370
    25
100
AcDbPolyline
 90
       11
 70
   128
 43
0.0
 10
39.6012289825
 20
21.8649720584
 10
39.5943599233
 20
21.8612296909
 10
39.5670334951
 20
21.8508827295
 10
39.5358847281
 20
21.8451755626
 10
39.503223784
 20
21.8445314646
 10
39.4714729756
 20
21.8489982053
 10
39.4429871151
 20
21.8582445071
 10
39.4198788685
 20
21.8715846139
 10
39.4038620687
 20
21.8880291511
 10
39.3961246084
 20
21.9063585026
 10
39.3954954819
 20
21.913442803
  0
ARC
  5
34F
330
1F
100
AcDbEntity
  8
0
  6
SLD-Solid
 62
     7
370
    25
100
AcDbCircle
 10
39.3734184584
 20
28.2236907251
 30
0.0
 40
0.2491812427115473
100
AcDbArc
 50
54.0761010947
 51
114.6134404762
  0
LINE
  5
350
330
1F
100
AcDbEntity
  8
0
  6
SLD-Solid
 62
     7
370
    25
100
AcDbLine
 10
45.5554791274
 20
27.7918869038
 30
0.0
 11
45.7754934154
 21
27.7906022081
 31
0.0
  0
LINE
  5
351
330
1F
100
AcDbEntity
  8
0
  6
SLD-Solid
 62
     7
370
    25
100
AcDbLine
 10
45.595487313
 20
27.7641916987
 30
0.0
 11
45.7918307173
 21
27.7630452207
 31
0.0
  0
LINE
  5
352
330
1F
100
AcDbEntity
  8
0
  6
SLD-Solid
 62
     7
370
    25
100
AcDbLine
 10
45.595487313
 20
27.7641916987
 30
0.0
 11
45.5554791274
 21
27.7918869038
 31
0.0
  0
LINE
  5
353
330
1F
100
AcDbEntity
  8
0
  6
SLD-Solid
 62
     7
370
    25
100
AcDbLine
 10
45.7918307173
 20
27.7630452207
 30
0.0
 11
45.7914955082
 21
27.7613337765
 31
0.0
  0
LINE
  5
354
330
1F
100
AcDbEntity
  8
0
  6
SLD-Solid
 62
     7
370
    25
100
AcDbLine
 10
45.3428179113
 20
25.4705647591
 30
0.0
 11
45.1464745069
 21
25.471711237
 31
0.0
  0
LINE
  5
355
330
1F
100
AcDbEntity
  8
0
  6
SLD-Solid
 62
     7
370
    25
100
AcDbLine
 10
45.1464745069
 20
25.471711237
 30
0.0
 11
45.595487313
 21
27.7641916987
 31
0.0
  0
LINE
  5
356
330
1F
100
AcDbEntity
  8
0
  6
SLD-Solid
 62
     7
370
    25
100
AcDbLine
 10
45.8597797795
 20
27.8007534473
 30
0.0
 11
45.7914955082
 21
27.7613337765
 31
0.0
  0
LINE
  5
357
330
1F
100
AcDbEntity
  8
0
  6
SLD-Solid
 62
     7
370
    25
100
AcDbLine
 10
45.8037776867
 20
27.8069303703
 30
0.0
 11
45.7754934154
 21
27.7906022081
 31
0.0
  0
LINE
  5
358
330
1F
100
AcDbEntity
  8
0
  6
SLD-Solid
 62
     7
370
    25
100
AcDbLine
 10
45.1064663213
 20
25.4994064422
 30
0.0
 11
45.1464745069
 21
25.471711237
 31
0.0
  0
LINE
  5
359
330
1F
100
AcDbEntity
  8
0
  6
SLD-Solid
 62
     7
370
    25
100
AcDbLine
 10
45.1064663213
 20
25.4994064422
 30
0.0
 11
45.5554791274
 21
27.7918869038
 31
0.0
  0
LINE
  5
35A
330
1F
100
AcDbEntity
  8
0
  6
SLD-Solid
 62
     7
370
    25
100
AcDbLine
 10
45.4119114489
 20
25.5141162215
 30
0.0
 11
45.8597797795
 21
27.8007534473
 31
0.0
  0
LINE
  5
35B
330
1F
100
AcDbEntity
  8
0
  6
SLD-Solid
 62
     7
370
    25
100
AcDbLine
 10
45.4107669734
 20
25.5082729856
 30
0.0
 11
45.4119114489
 21
25.5141162215
 31
0.0
  0
LINE
  5
35C
330
1F
100
AcDbEntity
  8
0
  6
SLD-Solid
 62
     7
370
    25
100
AcDbLine
 10
45.4107669734
 20
25.5082729856
 30
0.0
 11
45.3424827022
 21
25.4688533149
 31
0.0
  0
LINE
  5
35D
330
1F
100
AcDbEntity
  8
0
  6
SLD-Solid
 62
     7
370
    25
100
AcDbLine
 10
45.3428179113
 20
25.4705647591
 30
0.0
 11
45.3424827022
 21
25.4688533149
 31
0.0
  0
LINE
  5
35E
330
1F
100
AcDbEntity
  8
0
  6
SLD-Solid
 62
     7
370
    25
100
AcDbLine
 10
45.8597797795
 20
27.8007534473
 30
0.0
 11
45.860924255
 21
27.8065966831
 31
0.0
  0
LINE
  5
35F
330
1F
100
AcDbEntity
  8
0
  6
SLD-Solid
 62
     7
370
    25
100
AcDbLine
 10
45.860924255
 20
27.8065966831
 30
0.0
 11
43.9435088263
 21
28.9134970491
 31
0.0
  0
LINE
  5
360
330
1F
100
AcDbEntity
  8
0
  6
SLD-Solid
 62
     7
370
    25
100
AcDbLine
 10
45.8037776867
 20
27.8069303703
 30
0.0
 11
43.9440868521
 21
28.8805070374
 31
0.0
  0
LINE
  5
361
330
1F
100
AcDbEntity
  8
0
  6
SLD-Solid
 62
     7
370
    25
100
AcDbLine
 10
43.9440868521
 20
28.8805070374
 30
0.0
 11
44.3930996582
 21
26.0696074247
 31
0.0
  0
LINE
  5
362
330
1F
100
AcDbEntity
  8
0
  6
SLD-Solid
 62
     7
370
    25
100
AcDbLine
 10
45.1343365063
 20
25.6417005006
 30
0.0
 11
44.3930996582
 21
26.0696074247
 31
0.0
  0
LWPOLYLINE
  5
363
330
1F
100
AcDbEntity
  8
0
  6
SLD-Solid
 62
     7
370
    25
100
AcDbPolyline
 90
       21
 70
   128
 43
0.0
 10
44.4143128616
 20
27.7695252259
 10
44.411146205
 20
27.7944410343
 10
44.4019562095
 20
27.8205740536
 10
44.387642456
 20
27.8453662019
 10
44.3696060743
 20
27.866390651
 10
44.3496125912
 20
27.8815893813
 10
44.329619108
 20
27.8894746353
 10
44.3115827263
 20
27.8892745492
 10
44.2972689728
 20
27.8810087089
 10
44.2880789773
 20
27.8654862326
 10
44.2849123207
 20
27.8442265682
 10
44.2880789773
 20
27.8193107599
 10
44.2972689728
 20
27.7931777405
 10
44.3115827263
 20
27.7683855922
 10
44.329619108
 20
27.7473611431
 10
44.3496125912
 20
27.7321624128
 10
44.3696060743
 20
27.7242771588
 10
44.387642456
 20
27.7244772449
 10
44.4019562095
 20
27.7327430852
 10
44.411146205
 20
27.7482655615
 10
44.4143128616
 20
27.7695252259
  0
LWPOLYLINE
  5
364
330
1F
100
AcDbEntity
  8
0
  6
SLD-Solid
 62
     7
370
    25
100
AcDbPolyline
 90
       21
 70
   128
 43
0.0
 10
44.9386325399
 20
26.2616276801
 10
44.9354658832
 20
26.2865434885
 10
44.9262758878
 20
26.3126765078
 10
44.9119621342
 20
26.3374686561
 10
44.8939257525
 20
26.3584931052
 10
44.8739322694
 20
26.3736918355
 10
44.8539387863
 20
26.3815770895
 10
44.8359024046
 20
26.3813770034
 10
44.821588651
 20
26.3731111631
 10
44.8123986556
 20
26.3575886868
 10
44.8092319989
 20
26.3363290224
 10
44.8123986556
 20
26.3114132141
 10
44.821588651
 20
26.2852801947
 10
44.8359024046
 20
26.2604880464
 10
44.8539387863
 20
26.2394635973
 10
44.8739322694
 20
26.224264867
 10
44.8939257525
 20
26.216379613
 10
44.9119621342
 20
26.2165796991
 10
44.9262758878
 20
26.2248455394
 10
44.9354658832
 20
26.2403680157
 10
44.9386325399
 20
26.2616276801
  0
LWPOLYLINE
  5
365
330
1F
100
AcDbEntity
  8
0
  6
SLD-Solid
 62
     7
370
    25
100
AcDbPolyline
 90
       16
 70
   128
 43
0.0
 10
45.4447602741
 20
27.2266005591
 10
45.4362818125
 20
27.239999587
 10
45.4182454308
 20
27.2610240361
 10
45.3982519477
 20
27.2762227664
 10
45.3782584645
 20
27.2841080203
 10
45.3602220828
 20
27.2839079343
 10
45.3459083293
 20
27.275642094
 10
45.3367183338
 20
27.2601196176
 10
45.3335516772
 20
27.2388599533
 10
45.3367183338
 20
27.2139441449
 10
45.3459083293
 20
27.1878111256
 10
45.3602220828
 20
27.1630189773
 10
45.3782584645
 20
27.1419945282
 10
45.3982519477
 20
27.1267957978
 10
45.4182454308
 20
27.1189105439
 10
45.4235173007
 20
27.1181424017
  0
LINE
  5
366
330
1F
100
AcDbEntity
  8
0
  6
SLD-Solid
 62
     7
370
    25
100
AcDbLine
 10
44.8833987484
 20
27.9499250627
 30
0.0
 11
44.9851546081
 21
27.6840363414
 31
0.0
  0
ELLIPSE
  5
367
330
1F
100
AcDbEntity
  8
0
  6
SLD-Solid
 62
     7
370
    25
100
AcDbEllipse
 10
44.8739322694
 20
27.9074594778
 30
0.0
 11
-0.003440176135988792
 21
0.05765479663651617
 31
0.0
210
0.0
220
0.0
230
1.0
 40
0.3007503414
 41
5.522224305233655
 42
6.652435309727963
  0
LINE
  5
368
330
1F
100
AcDbEntity
  8
0
  6
SLD-Solid
 62
     7
370
    25
100
AcDbLine
 10
44.7627099307
 20
27.8124509202
 30
0.0
 11
44.8644657904
 21
27.9608548267
 31
0.0
  0
LWPOLYLINE
  5
369
330
1F
100
AcDbEntity
  8
0
  6
SLD-Solid
 62
     7
370
    25
100
AcDbPolyline
 90
        3
 70
   128
 43
0.0
 10
45.3618359484
 20
27.2551881155
 10
45.3650026051
 20
27.2764477799
 10
45.3688879078
 20
27.285036436
  0
ARC
  5
36A
330
1F
100
AcDbEntity
  8
0
  6
SLD-Solid
 62
     7
370
    25
100
AcDbCircle
 10
45.4977646487
 20
27.259031746
 30
0.0
 40
0.1359830321959047
100
AcDbArc
 50
181.6197104781
 51
239.2435821074
  0
LINE
  5
36B
330
1F
100
AcDbEntity
  8
0
  6
SLD-Solid
 62
     7
370
    25
100
AcDbLine
 10
44.9851546081
 20
27.6840363414
 30
0.0
 11
44.8142489771
 21
27.7028594355
 31
0.0
  0
LINE
  5
36C
330
1F
100
AcDbEntity
  8
0
  6
SLD-Solid
 62
     7
370
    25
100
AcDbLine
 10
43.9180279803
 20
28.7371673302
 30
0.0
 11
43.8780197947
 21
28.7556645929
 31
0.0
  0
LINE
  5
36D
330
1F
100
AcDbEntity
  8
0
  6
SLD-Solid
 62
     7
370
    25
100
AcDbLine
 10
43.9180279803
 20
28.7371673302
 30
0.0
 11
44.3670407864
 21
25.9262677176
 31
0.0
  0
LINE
  5
36E
330
1F
100
AcDbEntity
  8
0
  6
SLD-Solid
 62
     7
370
    25
100
AcDbLine
 10
44.3270326008
 20
25.9447649802
 30
0.0
 11
44.3670407864
 21
25.9262677176
 31
0.0
  0
LINE
  5
36F
330
1F
100
AcDbEntity
  8
0
  6
SLD-Solid
 62
     7
370
    25
100
AcDbLine
 10
43.8780197947
 20
28.7556645929
 30
0.0
 11
44.3270326008
 21
25.9447649802
 31
0.0
  0
LINE
  5
370
330
1F
100
AcDbEntity
  8
0
  6
SLD-Solid
 62
     7
370
    25
100
AcDbLine
 10
44.3670407864
 20
25.9262677176
 30
0.0
 11
44.3648153869
 21
26.0532792625
 31
0.0
  0
LINE
  5
371
330
1F
100
AcDbEntity
  8
0
  6
SLD-Solid
 62
     7
370
    25
100
AcDbLine
 10
43.9158025809
 20
28.8641788751
 30
0.0
 11
43.9180279803
 21
28.7371673302
 31
0.0
  0
ELLIPSE
  5
372
330
1F
100
AcDbEntity
  8
0
  6
SLD-Solid
 62
     7
370
    25
100
AcDbEllipse
 10
44.8207826902
 20
27.7175610318
 30
0.0
 11
0.02589688576278348
 21
0.001545228733689896
 31
0.0
210
0.0
220
0.0
230
1.0
 40
0.5745367108
 41
3.29300913903456
 42
4.423220143528876
  0
LINE
  5
373
330
1F
100
AcDbEntity
  8
0
  6
SLD-Solid
 62
     7
370
    25
100
AcDbLine
 10
44.7953160191
 20
27.7137891995
 30
0.0
 11
44.7627099307
 21
27.8124509202
 31
0.0
  0
LINE
  5
374
330
1F
100
AcDbEntity
  8
0
  6
SLD-Solid
 62
     7
370
    25
100
AcDbLine
 10
43.9440868521
 20
28.8805070374
 30
0.0
 11
43.9158025809
 21
28.8641788751
 31
0.0
  0
LINE
  5
375
330
1F
100
AcDbEntity
  8
0
  6
SLD-Solid
 62
     7
370
    25
100
AcDbLine
 10
44.3930996582
 20
26.0696074247
 30
0.0
 11
44.3648153869
 21
26.0532792625
 31
0.0
  0
LINE
  5
376
330
1F
100
AcDbEntity
  8
0
  6
SLD-Solid
 62
     7
370
    25
100
AcDbLine
 10
43.8760338215
 20
28.8690112276
 30
0.0
 11
43.8780197947
 21
28.7556645929
 31
0.0
  0
LINE
  5
377
330
1F
100
AcDbEntity
  8
0
  6
SLD-Solid
 62
     7
370
    25
100
AcDbLine
 10
43.9436445625
 20
28.9057500971
 30
0.0
 11
43.8793137067
 21
28.8686126845
 31
0.0
  0
ARC
  5
378
330
1F
100
AcDbEntity
  8
0
  6
SLD-Solid
 62
     7
370
    25
100
AcDbCircle
 10
44.4286629214
 20
27.8525106813
 30
0.0
 40
0.114845580348179
100
AcDbArc
 50
160.7347507698
 51
259.2598726975
  0
LWPOLYLINE
  5
379
330
1F
100
AcDbEntity
  8
0
  6
SLD-Solid
 62
     7
370
    25
100
AcDbPolyline
 90
        3
 70
   128
 43
0.0
 10
44.8375162702
 20
26.3526571846
 10
44.8406829268
 20
26.373916849
 10
44.8445682294
 20
26.3825055048
  0
ARC
  5
37A
330
1F
100
AcDbEntity
  8
0
  6
SLD-Solid
 62
     7
370
    25
100
AcDbCircle
 10
44.9603144415
 20
26.351177623
 30
0.0
 40
0.122807084402994
100
AcDbArc
 50
179.3096922287
 51
256.468754612
  0
LINE
  5
37B
330
1F
100
AcDbEntity
  8
0
  6
SLD-Solid
 62
     7
370
    25
100
AcDbLine
 10
45.3415429244
 20
25.4705722039
 30
0.0
 11
45.3424827022
 21
25.4688533149
 31
0.0
  0
LINE
  5
37C
330
1F
100
AcDbEntity
  8
0
  6
SLD-Solid
 62
     7
370
    25
100
AcDbLine
 10
37.6457826615
 20
27.2073738805
 30
0.0
 11
42.7569954578
 21
24.2567335394
 31
0.0
  0
ARC
  5
37D
330
1F
100
AcDbEntity
  8
0
  6
SLD-Solid
 62
     7
370
    25
100
AcDbCircle
 10
37.5482585812
 20
27.0714416944
 30
0.0
 40
0.1672976552523599
100
AcDbArc
 50
54.342581465
 51
114.3307687127
  0
ARC
  5
37E
330
1F
100
AcDbEntity
  8
0
  6
SLD-Solid
 62
     7
370
    25
100
AcDbCircle
 10
42.4833956919
 20
23.8268772793
 30
0.0
 40
0.5095421829428661
100
AcDbArc
 50
2.4763980378
 51
57.5236021078
  0
LINE
  5
37F
330
1F
100
AcDbEntity
  8
0
  6
SLD-Solid
 62
     7
370
    25
100
AcDbLine
 10
42.9924620159
 20
23.8488934984
 30
0.0
 11
42.9924620159
 21
20.7434666311
 31
0.0
  0
LINE
  5
380
330
1F
100
AcDbEntity
  8
0
  6
SLD-Solid
 62
     7
370
    25
100
AcDbLine
 10
39.4939284873
 20
27.9810679604
 30
0.0
 11
39.166062241
 21
28.1703411156
 31
0.0
  0
LINE
  5
381
330
1F
100
AcDbEntity
  8
0
  6
SLD-Solid
 62
     7
370
    25
100
AcDbLine
 10
44.2772750373
 20
25.2197007744
 30
0.0
 11
40.4296508767
 21
27.440886923
 31
0.0
  0
ARC
  5
382
330
1F
100
AcDbEntity
  8
0
  6
SLD-Solid
 62
     7
370
    25
100
AcDbCircle
 10
39.0248376231
 20
27.9285121555
 30
0.0
 40
0.1630112955489023
100
AcDbArc
 50
53.4704316722
 51
115.2191098988
  0
LINE
  5
383
330
1F
100
AcDbEntity
  8
0
  6
SLD-Solid
 62
     7
370
    25
100
AcDbLine
 10
39.3758296443
 20
27.9128909494
 30
0.0
 11
39.1218680672
 21
28.0594998472
 31
0.0
  0
LINE
  5
384
330
1F
100
AcDbEntity
  8
0
  6
SLD-Solid
 62
     7
370
    25
100
AcDbLine
 10
44.2330808635
 20
25.1088595061
 30
0.0
 11
40.547730527
 21
27.2363669701
 31
0.0
  0
ARC
  5
385
330
1F
100
AcDbEntity
  8
0
  6
SLD-Solid
 62
     7
370
    25
100
AcDbCircle
 10
43.9175808492
 20
24.6548139838
 30
0.0
 40
0.6696842503836045
100
AcDbArc
 50
2.487128189
 51
57.5128719567
  0
ARC
  5
386
330
1F
100
AcDbEntity
  8
0
  6
SLD-Solid
 62
     7
370
    25
100
AcDbCircle
 10
43.9594826698
 20
24.6790041537
 30
0.0
 40
0.5095405730188216
100
AcDbArc
 50
2.476303705
 51
57.5236964406
  0
LINE
  5
387
330
1F
100
AcDbEntity
  8
0
  6
SLD-Solid
 62
     7
370
    25
100
AcDbLine
 10
44.4685474217
 20
21.5955925978
 30
0.0
 11
44.4685474217
 21
24.7010194651
 31
0.0
  0
LINE
  5
388
330
1F
100
AcDbEntity
  8
0
  6
SLD-Solid
 62
     7
370
    25
100
AcDbLine
 10
44.5866342541
 20
21.5784480275
 30
0.0
 11
44.5866342541
 21
24.6838748947
 31
0.0
  0
LINE
  5
389
330
1F
100
AcDbEntity
  8
0
  6
SLD-Solid
 62
     7
370
    25
100
AcDbLine
 10
44.3214692112
 20
25.2962473286
 30
0.0
 11
44.6308284279
 21
25.4748366031
 31
0.0
  0
ARC
  5
38A
330
1F
100
AcDbEntity
  8
0
  6
SLD-Solid
 62
     7
370
    25
100
AcDbCircle
 10
44.3732260437
 20
25.2153344711
 30
0.0
 40
0.0960503004732468
100
AcDbArc
 50
122.60547834
 51
177.3945215143
  0
LINE
  5
38B
330
1F
100
AcDbEntity
  8
0
  6
SLD-Solid
 62
     7
370
    25
100
AcDbLine
 10
42.7569954578
 20
24.2567335394
 30
0.0
 11
44.2330808635
 21
25.1088595061
 31
0.0
  0
ARC
  5
38C
330
1F
100
AcDbEntity
  8
0
  6
SLD-Solid
 62
     7
370
    25
100
AcDbCircle
 10
42.8304986696
 20
20.7249131372
 30
0.0
 40
0.1630225680651378
100
AcDbArc
 50
304.7610331061
 51
6.5349554654
  0
ARC
  5
38D
330
1F
100
AcDbEntity
  8
0
  6
SLD-Solid
 62
     7
370
    25
100
AcDbCircle
 10
44.3020548353
 20
21.5790846995
 30
0.0
 40
0.16730897172803
100
AcDbArc
 50
305.6497565293
 51
5.662423864
  0
LWPOLYLINE
  5
38E
330
1F
100
AcDbEntity
  8
0
  6
SLD-Solid
 62
     7
370
    25
100
AcDbPolyline
 90
       12
 70
   128
 43
0.0
 10
44.3018721689
 20
21.3867320598
 10
44.3213014442
 20
21.3780209466
 10
44.3644316005
 20
21.3639568764
 10
44.4057875004
 20
21.3578947902
 10
44.4445272572
 20
21.3599580944
 10
44.4798622411
 20
21.3701047863
 10
44.5110731337
 20
21.3881283083
 10
44.5375245714
 20
21.4136617536
 10
44.558678079
 20
21.4461853349
 10
44.5741030322
 20
21.4850369658
 10
44.5834854233
 20
21.5294257391
 10
44.5866342541
 20
21.5784480275
  0
LINE
  5
38F
330
1F
100
AcDbEntity
  8
0
  6
SLD-Solid
 62
     7
370
    25
100
AcDbLine
 10
39.0425322182
 20
23.1932850494
 30
0.0
 11
39.8654221657
 21
22.7182407943
 31
0.0
  0
ARC
  5
390
330
1F
100
AcDbEntity
  8
0
  6
SLD-Solid
 62
     7
370
    25
100
AcDbCircle
 10
39.006045007
 20
23.1434654334
 30
0.0
 40
0.0617520098833158
100
AcDbArc
 50
53.7814583169
 51
114.908083254
  0
ARC
  5
391
330
1F
100
AcDbEntity
  8
0
  6
SLD-Solid
 62
     7
370
    25
100
AcDbCircle
 10
39.7673603609
 20
22.5607289794
 30
0.0
 40
0.1855426888741107
100
AcDbArc
 50
356.1644945832
 51
58.0949311165
  0
LINE
  5
392
330
1F
100
AcDbEntity
  8
0
  6
SLD-Solid
 62
     7
370
    25
100
AcDbLine
 10
39.9524874727
 20
22.5483176186
 30
0.0
 11
39.83740992
 21
21.8553675206
 31
0.0
  0
ARC
  5
393
330
1F
100
AcDbEntity
  8
0
  6
SLD-Solid
 62
     7
370
    25
100
AcDbCircle
 10
39.7835939544
 20
21.8604250173
 30
0.0
 40
0.054053088937804
100
AcDbArc
 50
302.7553416485
 51
354.6312468691
  0
LINE
  5
394
330
1F
100
AcDbEntity
  8
0
  6
SLD-Solid
 62
     7
370
    25
100
AcDbLine
 10
39.8654221657
 20
22.7182407943
 30
0.0
 11
40.2239253037
 21
22.9252002507
 31
0.0
  0
INSERT
  5
39A
330
1F
100
AcDbEntity
  8
NOTES
100
AcDbBlockReference
  2
SW_NOTE_0_3
 10
39.1124323409
 20
20.185313787
 30
0.0
  0
MTEXT
  5
39B
330
1F
100
AcDbEntity
  8
NOTES
100
AcDbMText
 10
34.1828150573
 20
29.7229531058
 30
0.0
 40
0.5
 41
0.0
 71
     1
 72
     1
  1
bracket retaining screw
  7
SLDTEXTSTYLE0
 73
     1
 44
1.0
  0
LEADER
  5
39C
330
1F
100
AcDbEntity
  8
NOTES
100
AcDbLeader
  3
SLDDIMSTYLE2
 76
     3
 10
41.3641272539
 20
26.2013845478
 30
0.0
 10
42.3273852791
 20
29.4799759154
 30
0.0
 10
41.8273852791
 20
29.4799759154
 30
0.0
  0
MTEXT
  5
39D
330
1F
100
AcDbEntity
  8
NOTES
100
AcDbMText
 10
39.2185030764
 20
30.9423983825
 30
0.0
 40
0.5
 41
0.0
 71
     1
 72
     1
  1
mounting bracket
  7
SLDTEXTSTYLE0
 73
     1
 44
1.0
  0
LEADER
  5
39E
330
1F
100
AcDbEntity
  8
NOTES
100
AcDbLeader
  3
SLDDIMSTYLE2
 76
     3
 10
44.8151891559
 20
28.3776303814
 30
0.0
 10
45.5437545208
 20
30.6995374805
 30
0.0
 10
45.0437545208
 20
30.6995374805
 30
0.0
  0
ENDSEC
  0
SECTION
  2
OBJECTS
  0
DICTIONARY
  5
C
330
0
100
AcDbDictionary
281
     1
  3
ACAD_GROUP
350
D
  3
ACAD_LAYOUT
350
1A
  3
ACAD_MLINESTYLE
350
17
  3
ACAD_PLOTSETTINGS
350
19
  3
ACAD_PLOTSTYLENAME
350
E
  3
ACAD_SCALELIST
350
47
  3
DWGPROPS
350
39F
  0
DICTIONARY
  5
D
102
{ACAD_REACTORS
330
C
102
}
330
C
100
AcDbDictionary
281
     1
  0
DICTIONARY
  5
1A
102
{ACAD_REACTORS
330
C
102
}
330
C
100
AcDbDictionary
281
     1
  3
Layout1
350
1E
  3
Layout2
350
26
  3
Model
350
22
  0
DICTIONARY
  5
17
102
{ACAD_REACTORS
330
C
102
}
330
C
100
AcDbDictionary
281
     1
  3
Standard
350
18
  0
DICTIONARY
  5
19
102
{ACAD_REACTORS
330
C
102
}
330
C
100
AcDbDictionary
281
     1
  0
ACDBDICTIONARYWDFLT
  5
E
102
{ACAD_REACTORS
330
C
102
}
330
C
100
AcDbDictionary
281
     1
  3
Normal
350
F
100
AcDbDictionaryWithDefault
340
F
  0
DICTIONARY
  5
47
102
{ACAD_REACTORS
330
C
102
}
330
C
100
AcDbDictionary
281
     1
  3
A0
350
48
  3
A1
350
49
  3
A2
350
4A
  3
A3
350
4B
  3
A4
350
4C
  3
A5
350
4D
  3
A6
350
4E
  3
A7
350
4F
  3
A8
350
50
  3
A9
350
51
  3
B0
350
52
  3
B1
350
53
  3
B2
350
54
  3
B3
350
55
  3
B4
350
56
  3
B5
350
57
  3
B6
350
58
  3
B7
350
59
  3
B8
350
5A
  3
B9
350
5B
  3
C0
350
5C
  3
C1
350
5D
  3
C2
350
5E
  3
C3
350
5F
  3
C4
350
60
  3
C5
350
61
  3
C6
350
62
  3
C7
350
63
  3
C8
350
64
  3
C9
350
65
  3
D0
350
66
  3
D1
350
67
  3
D2
350
68
  0
XRECORD
  5
39F
102
{ACAD_REACTORS
330
C
102
}
330
C
100
AcDbXrecord
280
     1
  1
DWGPROPS COOKIE
  2

  3

  4

  6

  7

  8
carl
  9

300
=
301
=
302
=
303
=
304
=
305
=
306
=
307
=
308
=
309
=
 40
0.0
 41
2459506.500835116
 42
2459506.500839537
  1

 90
        0
  0
LAYOUT
  5
1E
102
{ACAD_REACTORS
330
1A
102
}
330
1A
100
AcDbPlotSettings
  1

  2
none_device
  4

  6

 40
0.0
 41
0.0
 42
0.0
 43
0.0
 44
0.0
 45
0.0
 46
0.0
 47
0.0
 48
0.0
 49
0.0
140
0.0
141
0.0
142
1.0
143
1.0
 70
   688
 72
     0
 73
     0
 74
     5
  7

 75
    16
147
1.0
148
0.0
149
0.0
100
AcDbLayout
  1
Layout1
 70
     1
 71
     1
 10
0.0
 20
0.0
 11
12.0
 21
9.0
 12
0.0
 22
0.0
 32
0.0
 14
1.0000000000E+20
 24
1.0000000000E+20
 34
1.0000000000E+20
 15
-1.0000000000E+20
 25
-1.0000000000E+20
 35
-1.0000000000E+20
146
0.0
 13
0.0
 23
0.0
 33
0.0
 16
1.0
 26
0.0
 36
0.0
 17
0.0
 27
1.0
 37
0.0
 76
     0
330
1B
  0
LAYOUT
  5
26
102
{ACAD_REACTORS
330
1A
102
}
330
1A
100
AcDbPlotSettings
  1

  2
none_device
  4

  6

 40
0.0
 41
0.0
 42
0.0
 43
0.0
 44
0.0
 45
0.0
 46
0.0
 47
0.0
 48
0.0
 49
0.0
140
0.0
141
0.0
142
1.0
143
1.0
 70
   688
 72
     0
 73
     0
 74
     5
  7

 75
    16
147
1.0
148
0.0
149
0.0
100
AcDbLayout
  1
Layout2
 70
     1
 71
     2
 10
0.0
 20
0.0
 11
0.0
 21
0.0
 12
0.0
 22
0.0
 32
0.0
 14
0.0
 24
0.0
 34
0.0
 15
0.0
 25
0.0
 35
0.0
146
0.0
 13
0.0
 23
0.0
 33
0.0
 16
1.0
 26
0.0
 36
0.0
 17
0.0
 27
1.0
 37
0.0
 76
     0
330
23
  0
LAYOUT
  5
22
102
{ACAD_REACTORS
330
1A
102
}
330
1A
100
AcDbPlotSettings
  1

  2
none_device
  4
Letter_(8.50_x_11.00_Inches)
  6

 40
6.35
 41
6.35
 42
6.35000508
 43
6.35000508
 44
215.9
 45
279.4
 46
0.0
 47
0.0
 48
0.0
 49
0.0
140
0.0
141
0.0
142
1.0
143
1.0
 70
  1712
 72
     0
 73
     0
 74
     0
  7

 75
     0
147
1.0
148
0.0
149
0.0
100
AcDbLayout
  1
Model
 70
     1
 71
     0
 10
0.0
 20
0.0
 11
48.0
 21
36.0
 12
0.0
 22
0.0
 32
0.0
 14
0.0
 24
0.0
 34
0.0
 15
48.0
 25
36.0
 35
0.0
146
0.0
 13
0.0
 23
0.0
 33
0.0
 16
1.0
 26
0.0
 36
0.0
 17
0.0
 27
1.0
 37
0.0
 76
     0
330
1F
331
29
  0
MLINESTYLE
  5
18
102
{ACAD_REACTORS
330
17
102
}
330
17
100
AcDbMlineStyle
  2
Standard
 70
     0
  3

 62
   256
 51
90.0
 52
90.0
 71
     2
 49
0.5
 62
   256
  6
BYLAYER
 49
-0.5
 62
   256
  6
BYLAYER
  0
ACDBPLACEHOLDER
  5
F
102
{ACAD_REACTORS
330
E
102
}
330
E
  0
SCALE
  5
48
102
{ACAD_REACTORS
330
47
102
}
330
47
100
AcDbScale
 70
     0
300
1:1
140
1.0
141
1.0
290
     1
  0
SCALE
  5
49
102
{ACAD_REACTORS
330
47
102
}
330
47
100
AcDbScale
 70
     0
300
1:2
140
1.0
141
2.0
290
     0
  0
SCALE
  5
4A
102
{ACAD_REACTORS
330
47
102
}
330
47
100
AcDbScale
 70
     0
300
1:4
140
1.0
141
4.0
290
     0
  0
SCALE
  5
4B
102
{ACAD_REACTORS
330
47
102
}
330
47
100
AcDbScale
 70
     0
300
1:5
140
1.0
141
5.0
290
     0
  0
SCALE
  5
4C
102
{ACAD_REACTORS
330
47
102
}
330
47
100
AcDbScale
 70
     0
300
1:8
140
1.0
141
8.0
290
     0
  0
SCALE
  5
4D
102
{ACAD_REACTORS
330
47
102
}
330
47
100
AcDbScale
 70
     0
300
1:10
140
1.0
141
10.0
290
     0
  0
SCALE
  5
4E
102
{ACAD_REACTORS
330
47
102
}
330
47
100
AcDbScale
 70
     0
300
1:16
140
1.0
141
16.0
290
     0
  0
SCALE
  5
4F
102
{ACAD_REACTORS
330
47
102
}
330
47
100
AcDbScale
 70
     0
300
1:20
140
1.0
141
20.0
290
     0
  0
SCALE
  5
50
102
{ACAD_REACTORS
330
47
102
}
330
47
100
AcDbScale
 70
     0
300
1:30
140
1.0
141
30.0
290
     0
  0
SCALE
  5
51
102
{ACAD_REACTORS
330
47
102
}
330
47
100
AcDbScale
 70
     0
300
1:40
140
1.0
141
40.0
290
     0
  0
SCALE
  5
52
102
{ACAD_REACTORS
330
47
102
}
330
47
100
AcDbScale
 70
     0
300
1:50
140
1.0
141
50.0
290
     0
  0
SCALE
  5
53
102
{ACAD_REACTORS
330
47
102
}
330
47
100
AcDbScale
 70
     0
300
1:100
140
1.0
141
100.0
290
     0
  0
SCALE
  5
54
102
{ACAD_REACTORS
330
47
102
}
330
47
100
AcDbScale
 70
     0
300
2:1
140
2.0
141
1.0
290
     0
  0
SCALE
  5
55
102
{ACAD_REACTORS
330
47
102
}
330
47
100
AcDbScale
 70
     0
300
4:1
140
4.0
141
1.0
290
     0
  0
SCALE
  5
56
102
{ACAD_REACTORS
330
47
102
}
330
47
100
AcDbScale
 70
     0
300
8:1
140
8.0
141
1.0
290
     0
  0
SCALE
  5
57
102
{ACAD_REACTORS
330
47
102
}
330
47
100
AcDbScale
 70
     0
300
10:1
140
10.0
141
1.0
290
     0
  0
SCALE
  5
58
102
{ACAD_REACTORS
330
47
102
}
330
47
100
AcDbScale
 70
     0
300
100:1
140
100.0
141
1.0
290
     0
  0
SCALE
  5
59
102
{ACAD_REACTORS
330
47
102
}
330
47
100
AcDbScale
 70
     0
300
1/128" = 1'-0"
140
0.0078125
141
12.0
290
     0
  0
SCALE
  5
5A
102
{ACAD_REACTORS
330
47
102
}
330
47
100
AcDbScale
 70
     0
300
1/64" = 1'-0"
140
0.015625
141
12.0
290
     0
  0
SCALE
  5
5B
102
{ACAD_REACTORS
330
47
102
}
330
47
100
AcDbScale
 70
     0
300
1/32" = 1'-0"
140
0.03125
141
12.0
290
     0
  0
SCALE
  5
5C
102
{ACAD_REACTORS
330
47
102
}
330
47
100
AcDbScale
 70
     0
300
1/16" = 1'-0"
140
0.0625
141
12.0
290
     0
  0
SCALE
  5
5D
102
{ACAD_REACTORS
330
47
102
}
330
47
100
AcDbScale
 70
     0
300
3/32" = 1'-0"
140
0.09375
141
12.0
290
     0
  0
SCALE
  5
5E
102
{ACAD_REACTORS
330
47
102
}
330
47
100
AcDbScale
 70
     0
300
1/8" = 1'-0"
140
0.125
141
12.0
290
     0
  0
SCALE
  5
5F
102
{ACAD_REACTORS
330
47
102
}
330
47
100
AcDbScale
 70
     0
300
3/16" = 1'-0"
140
0.1875
141
12.0
290
     0
  0
SCALE
  5
60
102
{ACAD_REACTORS
330
47
102
}
330
47
100
AcDbScale
 70
     0
300
1/4" = 1'-0"
140
0.25
141
12.0
290
     0
  0
SCALE
  5
61
102
{ACAD_REACTORS
330
47
102
}
330
47
100
AcDbScale
 70
     0
300
3/8" = 1'-0"
140
0.375
141
12.0
290
     0
  0
SCALE
  5
62
102
{ACAD_REACTORS
330
47
102
}
330
47
100
AcDbScale
 70
     0
300
1/2" = 1'-0"
140
0.5
141
12.0
290
     0
  0
SCALE
  5
63
102
{ACAD_REACTORS
330
47
102
}
330
47
100
AcDbScale
 70
     0
300
3/4" = 1'-0"
140
0.75
141
12.0
290
     0
  0
SCALE
  5
64
102
{ACAD_REACTORS
330
47
102
}
330
47
100
AcDbScale
 70
     0
300
1" = 1'-0"
140
1.0
141
12.0
290
     0
  0
SCALE
  5
65
102
{ACAD_REACTORS
330
47
102
}
330
47
100
AcDbScale
 70
     0
300
1-1/2" = 1'-0"
140
1.5
141
12.0
290
     0
  0
SCALE
  5
66
102
{ACAD_REACTORS
330
47
102
}
330
47
100
AcDbScale
 70
     0
300
3" = 1'-0"
140
3.0
141
12.0
290
     0
  0
SCALE
  5
67
102
{ACAD_REACTORS
330
47
102
}
330
47
100
AcDbScale
 70
     0
300
6" = 1'-0"
140
6.0
141
12.0
290
     0
  0
SCALE
  5
68
102
{ACAD_REACTORS
330
47
102
}
330
47
100
AcDbScale
 70
     0
300
1'-0" = 1'-0"
140
12.0
141
12.0
290
     0
  0
ENDSEC
  0
EOF
