  0
SECTION
  2
HEADER
  9
$ACADVER
  1
AC1015
  9
$ACADMAINTVER
 70
     6
  9
$DWGCODEPAGE
  3
ANSI_1252
  9
$INSBASE
 10
0.0
 20
0.0
 30
0.0
  9
$EXTMIN
 10
0.0
 20
0.0
 30
0.0
  9
$EXTMAX
 10
48.0
 20
36.0
 30
0.0
  9
$LIMMIN
 10
0.0
 20
0.0
  9
$LIMMAX
 10
48.0
 20
36.0
  9
$ORTHOMODE
 70
     0
  9
$REGENMODE
 70
     1
  9
$FILLMODE
 70
     1
  9
$QTEXTMODE
 70
     0
  9
$MIRRTEXT
 70
     1
  9
$LTSCALE
 40
1.0
  9
$ATTMODE
 70
     1
  9
$TEXTSIZE
 40
0.5
  9
$TRACEWID
 40
0.05
  9
$TEXTSTYLE
  7
STANDARD
  9
$CLAYER
  8
0
  9
$CELTYPE
  6
ByLayer
  9
$CECOLOR
 62
   256
  9
$CELTSCALE
 40
1.0
  9
$DISPSILH
 70
     0
  9
$DIMSCALE
 40
1.0
  9
$DIMASZ
 40
0.3
  9
$DIMEXO
 40
0.1666666667
  9
$DIMDLI
 40
0.38
  9
$DIMRND
 40
0.0
  9
$DIMDLE
 40
0.0
  9
$DIMEXE
 40
0.375
  9
$DIMTP
 40
0.0
  9
$DIMTM
 40
0.0
  9
$DIMTXT
 40
0.5
  9
$DIMCEN
 40
0.09
  9
$DIMTSZ
 40
0.0
  9
$DIMTOL
 70
     0
  9
$DIMLIM
 70
     0
  9
$DIMTIH
 70
     1
  9
$DIMTOH
 70
     1
  9
$DIMSE1
 70
     0
  9
$DIMSE2
 70
     0
  9
$DIMTAD
 70
     0
  9
$DIMZIN
 70
     1
  9
$DIMBLK
  1

  9
$DIMASO
 70
     1
  9
$DIMSHO
 70
     1
  9
$DIMPOST
  1

  9
$DIMAPOST
  1

  9
$DIMALT
 70
     0
  9
$DIMALTD
 70
     2
  9
$DIMALTF
 40
25.4
  9
$DIMLFAC
 40
1.0
  9
$DIMTOFL
 70
     0
  9
$DIMTVP
 40
0.0
  9
$DIMTIX
 70
     0
  9
$DIMSOXD
 70
     0
  9
$DIMSAH
 70
     0
  9
$DIMBLK1
  1

  9
$DIMBLK2
  1

  9
$DIMSTYLE
  2
Standard
  9
$DIMCLRD
 70
     0
  9
$DIMCLRE
 70
     0
  9
$DIMCLRT
 70
     0
  9
$DIMTFAC
 40
1.0
  9
$DIMGAP
 40
0.125
  9
$DIMJUST
 70
     0
  9
$DIMSD1
 70
     0
  9
$DIMSD2
 70
     0
  9
$DIMTOLJ
 70
     1
  9
$DIMTZIN
 70
     1
  9
$DIMALTZ
 70
     0
  9
$DIMALTTZ
 70
     0
  9
$DIMUPT
 70
     0
  9
$DIMDEC
 70
     4
  9
$DIMTDEC
 70
     4
  9
$DIMALTU
 70
     2
  9
$DIMALTTD
 70
     2
  9
$DIMTXSTY
  7
STANDARD
  9
$DIMAUNIT
 70
     0
  9
$DIMADEC
 70
     2
  9
$DIMALTRND
 40
0.0
  9
$DIMAZIN
 70
     0
  9
$DIMDSEP
 70
    46
  9
$DIMATFIT
 70
     3
  9
$DIMFRAC
 70
     0
  9
$DIMLDRBLK
  1

  9
$DIMLUNIT
 70
     2
  9
$DIMLWD
 70
    -2
  9
$DIMLWE
 70
    -2
  9
$DIMTMOVE
 70
     0
  9
$LUNITS
 70
     2
  9
$LUPREC
 70
     4
  9
$SKETCHINC
 40
0.1
  9
$FILLETRAD
 40
0.5
  9
$AUNITS
 70
     0
  9
$AUPREC
 70
     2
  9
$MENU
  1
.
  9
$ELEVATION
 40
0.0
  9
$PELEVATION
 40
0.0
  9
$THICKNESS
 40
0.0
  9
$LIMCHECK
 70
     0
  9
$CHAMFERA
 40
0.0
  9
$CHAMFERB
 40
0.0
  9
$CHAMFERC
 40
0.0
  9
$CHAMFERD
 40
0.0
  9
$SKPOLY
 70
     0
  9
$TDCREATE
 40
2459502.351324352
  9
$TDUCREATE
 40
2459502.517991018
  9
$TDUPDATE
 40
2459502.351328276
  9
$TDUUPDATE
 40
2459502.517994942
  9
$TDINDWG
 40
0.0000000116
  9
$TDUSRTIMER
 40
0.0000000116
  9
$USRTIMER
 70
     1
  9
$ANGBASE
 50
0.0
  9
$ANGDIR
 70
     0
  9
$PDMODE
 70
     0
  9
$PDSIZE
 40
-1.0
  9
$PLINEWID
 40
0.0
  9
$SPLFRAME
 70
     0
  9
$SPLINETYPE
 70
     6
  9
$SPLINESEGS
 70
     8
  9
$HANDSEED
  5
39B
  9
$SURFTAB1
 70
     6
  9
$SURFTAB2
 70
     6
  9
$SURFTYPE
 70
     6
  9
$SURFU
 70
     6
  9
$SURFV
 70
     6
  9
$UCSBASE
  2

  9
$UCSNAME
  2

  9
$UCSORG
 10
0.0
 20
0.0
 30
0.0
  9
$UCSXDIR
 10
1.0
 20
0.0
 30
0.0
  9
$UCSYDIR
 10
0.0
 20
1.0
 30
0.0
  9
$UCSORTHOREF
  2

  9
$UCSORTHOVIEW
 70
     0
  9
$UCSORGTOP
 10
0.0
 20
0.0
 30
0.0
  9
$UCSORGBOTTOM
 10
0.0
 20
0.0
 30
0.0
  9
$UCSORGLEFT
 10
0.0
 20
0.0
 30
0.0
  9
$UCSORGRIGHT
 10
0.0
 20
0.0
 30
0.0
  9
$UCSORGFRONT
 10
0.0
 20
0.0
 30
0.0
  9
$UCSORGBACK
 10
0.0
 20
0.0
 30
0.0
  9
$PUCSBASE
  2

  9
$PUCSNAME
  2

  9
$PUCSORG
 10
0.0
 20
0.0
 30
0.0
  9
$PUCSXDIR
 10
1.0
 20
0.0
 30
0.0
  9
$PUCSYDIR
 10
0.0
 20
1.0
 30
0.0
  9
$PUCSORTHOREF
  2

  9
$PUCSORTHOVIEW
 70
     0
  9
$PUCSORGTOP
 10
0.0
 20
0.0
 30
0.0
  9
$PUCSORGBOTTOM
 10
0.0
 20
0.0
 30
0.0
  9
$PUCSORGLEFT
 10
0.0
 20
0.0
 30
0.0
  9
$PUCSORGRIGHT
 10
0.0
 20
0.0
 30
0.0
  9
$PUCSORGFRONT
 10
0.0
 20
0.0
 30
0.0
  9
$PUCSORGBACK
 10
0.0
 20
0.0
 30
0.0
  9
$USERI1
 70
     0
  9
$USERI2
 70
     0
  9
$USERI3
 70
     0
  9
$USERI4
 70
     0
  9
$USERI5
 70
     0
  9
$USERR1
 40
0.0
  9
$USERR2
 40
0.0
  9
$USERR3
 40
0.0
  9
$USERR4
 40
0.0
  9
$USERR5
 40
0.0
  9
$WORLDVIEW
 70
     1
  9
$SHADEDGE
 70
     3
  9
$SHADEDIF
 70
    70
  9
$TILEMODE
 70
     1
  9
$MAXACTVP
 70
    64
  9
$PINSBASE
 10
0.0
 20
0.0
 30
0.0
  9
$PLIMCHECK
 70
     0
  9
$PEXTMIN
 10
1.0000000000E+20
 20
1.0000000000E+20
 30
1.0000000000E+20
  9
$PEXTMAX
 10
-1.0000000000E+20
 20
-1.0000000000E+20
 30
-1.0000000000E+20
  9
$PLIMMIN
 10
0.0
 20
0.0
  9
$PLIMMAX
 10
12.0
 20
9.0
  9
$UNITMODE
 70
     0
  9
$VISRETAIN
 70
     1
  9
$PLINEGEN
 70
     0
  9
$PSLTSCALE
 70
     1
  9
$TREEDEPTH
 70
  3020
  9
$CMLSTYLE
  2
Standard
  9
$CMLJUST
 70
     0
  9
$CMLSCALE
 40
1.0
  9
$PROXYGRAPHICS
 70
     1
  9
$MEASUREMENT
 70
     0
  9
$CELWEIGHT
370
    -1
  9
$ENDCAPS
280
     0
  9
$JOINSTYLE
280
     0
  9
$LWDISPLAY
290
     1
  9
$INSUNITS
 70
     1
  9
$HYPERLINKBASE
  1

  9
$STYLESHEET
  1

  9
$XEDIT
290
     1
  9
$CEPSNTYPE
380
     0
  9
$PSTYLEMODE
290
     1
  9
$FINGERPRINTGUID
  2
{a26342bc-2f7c-45a6-b84a-f712cbbf8a7d}
  9
$VERSIONGUID
  2
{FAEB1C32-E019-11D5-929B-00C0DF256EC4}
  9
$EXTNAMES
290
     1
  9
$PSVPSCALE
 40
0.0
  9
$OLESTARTUP
290
     0
  0
ENDSEC
  0
SECTION
  2
CLASSES
  0
CLASS
  1
ACDBDICTIONARYWDFLT
  2
AcDbDictionaryWithDefault
  3
ObjectDBX Classes
 90
        0
280
     0
281
     0
  0
CLASS
  1
VISUALSTYLE
  2
AcDbVisualStyle
  3
ObjectDBX Classes
 90
     4095
280
     0
281
     0
  0
CLASS
  1
MATERIAL
  2
AcDbMaterial
  3
ObjectDBX Classes
 90
     1153
280
     0
281
     0
  0
CLASS
  1
SCALE
  2
AcDbScale
  3
ObjectDBX Classes
 90
     1153
280
     0
281
     0
  0
CLASS
  1
TABLESTYLE
  2
AcDbTableStyle
  3
ObjectDBX Classes
 90
     4095
280
     0
281
     0
  0
CLASS
  1
MLEADERSTYLE
  2
AcDbMLeaderStyle
  3
ACDB_MLEADERSTYLE_CLASS
 90
     4095
280
     0
281
     0
  0
CLASS
  1
SUN
  2
AcDbSun
  3
SCENEOE
 90
     1153
280
     0
281
     0
  0
CLASS
  1
ACDBPLACEHOLDER
  2
AcDbPlaceHolder
  3
ObjectDBX Classes
 90
        0
280
     0
281
     0
  0
CLASS
  1
LAYOUT
  2
AcDbLayout
  3
ObjectDBX Classes
 90
        0
280
     0
281
     0
  0
ENDSEC
  0
SECTION
  2
TABLES
  0
TABLE
  2
VPORT
  5
8
330
0
100
AcDbSymbolTable
 70
     1
  0
VPORT
  5
29
330
8
100
AcDbSymbolTableRecord
100
AcDbViewportTableRecord
  2
*Active
 70
     0
 10
0.0
 20
0.0
 11
1.0
 21
1.0
 12
24.0
 22
18.0
 13
0.0
 23
0.0
 14
0.5
 24
0.5
 15
0.5
 25
0.5
 16
0.0
 26
0.0
 36
1.0
 17
0.0
 27
0.0
 37
0.0
 40
36.0
 41
1.3333333333
 42
50.0
 43
0.0
 44
0.0
 50
0.0
 51
0.0
 71
     0
 72
  2000
 73
     1
 74
     3
 75
     0
 76
     0
 77
     0
 78
     0
281
     0
 65
     1
110
0.0
120
0.0
130
0.0
111
1.0
121
0.0
131
0.0
112
0.0
122
1.0
132
0.0
 79
     0
146
0.0
  0
ENDTAB
  0
TABLE
  2
LTYPE
  5
5
330
0
100
AcDbSymbolTable
 70
     8
  0
LTYPE
  5
14
330
5
100
AcDbSymbolTableRecord
100
AcDbLinetypeTableRecord
  2
ByBlock
 70
     0
  3

 72
    65
 73
     0
 40
0.0
  0
LTYPE
  5
15
330
5
100
AcDbSymbolTableRecord
100
AcDbLinetypeTableRecord
  2
ByLayer
 70
     0
  3

 72
    65
 73
     0
 40
0.0
  0
LTYPE
  5
16
330
5
100
AcDbSymbolTableRecord
100
AcDbLinetypeTableRecord
  2
Continuous
 70
     0
  3
Solid line
 72
    65
 73
     0
 40
0.0
  0
LTYPE
  5
6E
330
5
100
AcDbSymbolTableRecord
100
AcDbLinetypeTableRecord
  2
SLD-Solid
 70
     0
  3
SolidWorks Line Style
 72
    65
 73
     0
 40
0.0
  0
LTYPE
  5
6F
330
5
100
AcDbSymbolTableRecord
100
AcDbLinetypeTableRecord
  2
SLD-Dashed
 70
     0
  3
SolidWorks Line Style
 72
    65
 73
     2
 40
0.075
 49
0.05
 74
     0
 49
-0.025
 74
     0
  0
LTYPE
  5
70
330
5
100
AcDbSymbolTableRecord
100
AcDbLinetypeTableRecord
  2
SLD-Phantom
 70
     0
  3
SolidWorks Line Style
 72
    65
 73
     6
 40
0.5
 49
0.25
 74
     0
 49
-0.05
 74
     0
 49
0.05
 74
     0
 49
-0.05
 74
     0
 49
0.05
 74
     0
 49
-0.05
 74
     0
  0
LTYPE
  5
71
330
5
100
AcDbSymbolTableRecord
100
AcDbLinetypeTableRecord
  2
SLD-Chain
 70
     0
  3
SolidWorks Line Style
 72
    65
 73
     4
 40
0.4
 49
0.25
 74
     0
 49
-0.05
 74
     0
 49
0.05
 74
     0
 49
-0.05
 74
     0
  0
LTYPE
  5
72
330
5
100
AcDbSymbolTableRecord
100
AcDbLinetypeTableRecord
  2
SLD-Center
 70
     0
  3
SolidWorks Line Style
 72
    65
 73
     4
 40
0.75
 49
0.6
 74
     0
 49
-0.05
 74
     0
 49
0.05
 74
     0
 49
-0.05
 74
     0
  0
LTYPE
  5
73
330
5
100
AcDbSymbolTableRecord
100
AcDbLinetypeTableRecord
  2
SLD-Stitch
 70
     0
  3
SolidWorks Line Style
 72
    65
 73
     2
 40
0.025
 49
0.0
 74
     0
 49
-0.025
 74
     0
  0
LTYPE
  5
74
330
5
100
AcDbSymbolTableRecord
100
AcDbLinetypeTableRecord
  2
SLD-Thin-Thick-Chain
 70
     0
  3
SolidWorks Line Style
 72
    65
 73
     4
 40
0.4
 49
0.25
 74
     0
 49
-0.05
 74
     0
 49
0.05
 74
     0
 49
-0.05
 74
     0
  0
ENDTAB
  0
TABLE
  2
LAYER
  5
2
330
0
100
AcDbSymbolTable
 70
     6
  0
LAYER
  5
10
330
2
100
AcDbSymbolTableRecord
100
AcDbLayerTableRecord
  2
0
 70
     0
 62
     7
  6
Continuous
370
    -3
390
F
  0
LAYER
  5
75
330
2
100
AcDbSymbolTableRecord
100
AcDbLayerTableRecord
  2
FORMAT
 70
     0
 62
     7
  6
SLD-Solid
370
    -3
390
F
  0
LAYER
  5
76
330
2
100
AcDbSymbolTableRecord
100
AcDbLayerTableRecord
  2
NOTES
 70
     0
 62
     1
  6
SLD-Solid
370
    -3
390
F
  0
LAYER
  5
77
330
2
100
AcDbSymbolTableRecord
100
AcDbLayerTableRecord
  2
OBJECT
 70
     0
 62
     7
  6
SLD-Solid
370
    25
390
F
  0
LAYER
  5
78
330
2
100
AcDbSymbolTableRecord
100
AcDbLayerTableRecord
  2
DIMS
 70
     0
 62
     5
  6
SLD-Solid
370
    -3
390
F
  0
LAYER
  5
79
330
2
100
AcDbSymbolTableRecord
100
AcDbLayerTableRecord
  2
TITLE
 70
     0
 62
     8
  6
SLD-Solid
370
    -3
390
F
  0
ENDTAB
  0
TABLE
  2
STYLE
  5
3
330
0
100
AcDbSymbolTable
 70
     5
  0
STYLE
  5
11
330
3
100
AcDbSymbolTableRecord
100
AcDbTextStyleTableRecord
  2
STANDARD
 70
     0
 40
0.0
 41
1.0
 50
0.0
 71
     0
 42
0.5
  3
GOTHIC.TTF
  4

1001
ACAD
1000
CENTURY GOTHIC
1071
       34
  0
STYLE
  5
DF
330
3
100
AcDbSymbolTableRecord
100
AcDbTextStyleTableRecord
  2
SLDTEXTSTYLE0
 70
     0
 40
0.0
 41
0.913
 50
0.0
 71
     0
 42
0.5
  3
GOTHIC.TTF
  4

1001
ACAD
1000
Century Gothic
1071
      290
  0
STYLE
  5
EB
330
3
100
AcDbSymbolTableRecord
100
AcDbTextStyleTableRecord
  2
SLDTEXTSTYLE1
 70
     0
 40
0.0
 41
0.948
 50
0.0
 71
     0
 42
0.5
  3
ARIAL.TTF
  4

1001
ACAD
1000
Arial
1071
      290
  0
STYLE
  5
FD
330
3
100
AcDbSymbolTableRecord
100
AcDbTextStyleTableRecord
  2
SLDTEXTSTYLE2
 70
     0
 40
0.0
 41
0.87
 50
0.0
 71
     0
 42
0.5
  3
ARIALNB.TTF
  4

1001
ACAD
1000
Arial Narrow
1071
 33554722
  0
STYLE
  5
FF
330
3
100
AcDbSymbolTableRecord
100
AcDbTextStyleTableRecord
  2
SLDTEXTSTYLE3
 70
     0
 40
0.0
 41
0.87
 50
0.0
 71
     0
 42
0.5
  3
ARIALN.TTF
  4

1001
ACAD
1000
Arial Narrow
1071
      290
  0
ENDTAB
  0
TABLE
  2
VIEW
  5
6
330
0
100
AcDbSymbolTable
 70
     0
  0
ENDTAB
  0
TABLE
  2
UCS
  5
7
330
0
100
AcDbSymbolTable
 70
     0
  0
ENDTAB
  0
TABLE
  2
APPID
  5
9
330
0
100
AcDbSymbolTable
 70
     1
  0
APPID
  5
12
330
9
100
AcDbSymbolTableRecord
100
AcDbRegAppTableRecord
  2
ACAD
 70
     0
  0
ENDTAB
  0
TABLE
  2
DIMSTYLE
  5
A
330
0
100
AcDbSymbolTable
 70
     5
100
AcDbDimStyleTable
  0
DIMSTYLE
105
27
330
A
100
AcDbSymbolTableRecord
100
AcDbDimStyleTableRecord
  2
Standard
 70
     0
178
     0
340
11
  0
DIMSTYLE
105
17F
102
{ACAD_REACTORS
330
17E
102
}
330
A
100
AcDbSymbolTableRecord
100
AcDbDimStyleTableRecord
  2
SLDDIMSTYLE0
 70
     0
 41
0.3
 44
0.0
 45
0.000000001
 78
    12
 79
     3
140
0.5
147
0.125
173
     1
178
     0
276
     2
277
     5
284
    12
340
DF
341
180
343
180
344
180
  0
DIMSTYLE
105
191
102
{ACAD_REACTORS
330
190
330
1C9
330
279
330
2BA
330
2C9
102
}
330
A
100
AcDbSymbolTableRecord
100
AcDbDimStyleTableRecord
  2
SLDDIMSTYLE1
 70
     0
 41
0.3
 44
0.0
 45
0.000000001
 78
    12
 79
     3
140
0.5
147
0.125
173
     1
178
     0
271
     6
276
     2
277
     5
284
    12
340
DF
341
180
343
180
344
180
  0
DIMSTYLE
105
1A1
330
A
100
AcDbSymbolTableRecord
100
AcDbDimStyleTableRecord
  2
SLDDIMSTYLE2
 70
     0
 41
0.3
 44
0.0
 45
0.000000001
146
0.3
147
0.0
173
     1
178
     0
271
     0
272
     0
276
     2
277
     5
340
11
341
180
343
180
344
180
  0
DIMSTYLE
105
25B
102
{ACAD_REACTORS
330
25A
330
26A
102
}
330
A
100
AcDbSymbolTableRecord
100
AcDbDimStyleTableRecord
  2
SLDDIMSTYLE3
 70
     0
 41
0.3
 44
0.0
 45
0.000000001
 78
    12
 79
     3
140
0.5
147
0.125
172
     1
173
     1
178
     0
271
     6
276
     2
277
     5
284
    12
289
     0
340
DF
341
180
343
180
344
180
  0
ENDTAB
  0
TABLE
  2
BLOCK_RECORD
  5
1
330
0
100
AcDbSymbolTable
 70
    14
  0
BLOCK_RECORD
  5
1F
330
1
100
AcDbSymbolTableRecord
100
AcDbBlockTableRecord
  2
*Model_Space
340
22
  0
BLOCK_RECORD
  5
1B
330
1
100
AcDbSymbolTableRecord
100
AcDbBlockTableRecord
  2
*Paper_Space
340
1E
  0
BLOCK_RECORD
  5
23
330
1
100
AcDbSymbolTableRecord
100
AcDbBlockTableRecord
  2
*Paper_Space0
340
26
  0
BLOCK_RECORD
  5
E4
330
1
100
AcDbSymbolTableRecord
100
AcDbBlockTableRecord
  2
SW_NOTE_0
340
0
102
{BLKREFS
331
E9
102
}
  0
BLOCK_RECORD
  5
F4
330
1
100
AcDbSymbolTableRecord
100
AcDbBlockTableRecord
  2
SW_NOTE_0_1
340
0
102
{BLKREFS
331
F9
102
}
  0
BLOCK_RECORD
  5
FA
330
1
100
AcDbSymbolTableRecord
100
AcDbBlockTableRecord
  2
SW_NOTE_0_2
340
0
102
{BLKREFS
331
103
102
}
  0
BLOCK_RECORD
  5
180
330
1
100
AcDbSymbolTableRecord
100
AcDbBlockTableRecord
  2
_Open90
340
0
102
{BLKREFS
331
189
331
18A
331
195
331
196
331
1CD
331
1CE
331
25F
331
260
331
26E
331
26F
331
27D
331
27E
331
2BE
331
2BF
331
2CD
331
2CE
102
}
  0
BLOCK_RECORD
  5
186
330
1
100
AcDbSymbolTableRecord
100
AcDbBlockTableRecord
  2
_D
340
0
  0
BLOCK_RECORD
  5
192
330
1
100
AcDbSymbolTableRecord
100
AcDbBlockTableRecord
  2
_D_1
340
0
  0
BLOCK_RECORD
  5
1CA
330
1
100
AcDbSymbolTableRecord
100
AcDbBlockTableRecord
  2
_D_2
340
0
  0
BLOCK_RECORD
  5
25C
330
1
100
AcDbSymbolTableRecord
100
AcDbBlockTableRecord
  2
_D_3
340
0
  0
BLOCK_RECORD
  5
26B
330
1
100
AcDbSymbolTableRecord
100
AcDbBlockTableRecord
  2
_D_4
340
0
  0
BLOCK_RECORD
  5
27A
330
1
100
AcDbSymbolTableRecord
100
AcDbBlockTableRecord
  2
_D_5
340
0
  0
BLOCK_RECORD
  5
2BB
330
1
100
AcDbSymbolTableRecord
100
AcDbBlockTableRecord
  2
_D_6
340
0
  0
BLOCK_RECORD
  5
2CA
330
1
100
AcDbSymbolTableRecord
100
AcDbBlockTableRecord
  2
_D_7
340
0
  0
BLOCK_RECORD
  5
390
330
1
100
AcDbSymbolTableRecord
100
AcDbBlockTableRecord
  2
SW_NOTE_0_3
340
0
102
{BLKREFS
331
395
102
}
  0
ENDTAB
  0
ENDSEC
  0
SECTION
  2
BLOCKS
  0
BLOCK
  5
20
330
1F
100
AcDbEntity
  8
0
100
AcDbBlockBegin
  2
*Model_Space
 70
     0
 10
0.0
 20
0.0
 30
0.0
  3
*Model_Space
  1

  0
ENDBLK
  5
21
330
1F
100
AcDbEntity
  8
0
100
AcDbBlockEnd
  0
BLOCK
  5
1C
330
1B
100
AcDbEntity
 67
     1
  8
0
100
AcDbBlockBegin
  2
*Paper_Space
 70
     0
 10
0.0
 20
0.0
 30
0.0
  3
*Paper_Space
  1

  0
ENDBLK
  5
1D
330
1B
100
AcDbEntity
 67
     1
  8
0
100
AcDbBlockEnd
  0
BLOCK
  5
24
330
23
100
AcDbEntity
  8
0
100
AcDbBlockBegin
  2
*Paper_Space0
 70
     0
 10
0.0
 20
0.0
 30
0.0
  3
*Paper_Space0
  1

  0
ENDBLK
  5
25
330
23
100
AcDbEntity
  8
0
100
AcDbBlockEnd
  0
BLOCK
  5
E5
330
E4
100
AcDbEntity
  8
0
100
AcDbBlockBegin
  2
SW_NOTE_0
 70
     0
 10
0.0
 20
0.0
 30
0.0
  3
SW_NOTE_0
  1

  0
MTEXT
  5
E7
330
E4
100
AcDbEntity
  8
NOTES
 62
     0
100
AcDbMText
 10
0.0
 20
0.638671875
 30
0.0
 40
0.5
 41
0.0
 71
     1
 72
     1
  1
3D view
  7
SLDTEXTSTYLE0
 73
     1
 44
1.0
  0
MTEXT
  5
E8
330
E4
100
AcDbEntity
  8
NOTES
 62
     0
100
AcDbMText
 10
0.0
 20
-0.3613281862
 30
0.0
 40
0.5
 41
0.0
 71
     1
 72
     1
  1
code 708-A
  7
SLDTEXTSTYLE0
 73
     1
 44
1.0
  0
ENDBLK
  5
E6
330
E4
100
AcDbEntity
  8
0
100
AcDbBlockEnd
  0
BLOCK
  5
F5
330
F4
100
AcDbEntity
  8
0
100
AcDbBlockBegin
  2
SW_NOTE_0_1
 70
     0
 10
0.0
 20
0.0
 30
0.0
  3
SW_NOTE_0_1
  1

  0
MTEXT
  5
F7
330
F4
100
AcDbEntity
  8
NOTES
 62
     0
100
AcDbMText
 10
0.0
 20
0.3759780908
 30
0.0
 40
0.2916666667
 41
0.0
 71
     1
 72
     1
  1
FROST PRODUCTS LTD.
  7
SLDTEXTSTYLE1
 73
     1
 44
1.0
  0
MTEXT
  5
F8
330
F4
100
AcDbEntity
  8
NOTES
 62
     0
100
AcDbMText
 10
0.0
 20
-0.0495142709
 30
0.0
 40
0.2291666667
 41
0.0
 71
     1
 72
     1
  1
5280 JOHN LUCAS DRIVE, BURLINGTON, ON, L7L 5Z9
  7
SLDTEXTSTYLE1
 73
     1
 44
1.0
  0
ENDBLK
  5
F6
330
F4
100
AcDbEntity
  8
0
100
AcDbBlockEnd
  0
BLOCK
  5
FB
330
FA
100
AcDbEntity
  8
0
100
AcDbBlockBegin
  2
SW_NOTE_0_2
 70
     0
 10
0.0
 20
0.0
 30
0.0
  3
SW_NOTE_0_2
  1

  0
MTEXT
  5
FE
330
FA
100
AcDbEntity
  8
NOTES
 62
     0
100
AcDbMText
 10
0.0
 20
0.2381282771
 30
0.0
 40
0.184729064
 41
0.0
 71
     1
 72
     1
  1
PROPRIETARY AND CONFIDENTIAL
  7
SLDTEXTSTYLE2
 73
     1
 44
1.0
  0
MTEXT
  5
100
330
FA
100
AcDbEntity
  8
NOTES
 62
     0
100
AcDbMText
 10
0.0
 20
-0.0504364796
 30
0.0
 40
0.25
 41
0.0
 71
     1
 72
     1
  1
THE INFORMATION CONTAINED IN THIS DRAWING IS THE SOLE PROPERTY OF 
  7
SLDTEXTSTYLE3
 73
     1
 44
1.0
  0
MTEXT
  5
101
330
FA
100
AcDbEntity
  8
NOTES
 62
     0
100
AcDbMText
 10
0.0
 20
-0.4231398941
 30
0.0
 40
0.25
 41
0.0
 71
     1
 72
     1
  1
FROST PRODUCTS LTD.  ANY REPRODUCTION IN PART OR AS A WHOLE WITHOUT 
  7
SLDTEXTSTYLE3
 73
     1
 44
1.0
  0
MTEXT
  5
102
330
FA
100
AcDbEntity
  8
NOTES
 62
     0
100
AcDbMText
 10
0.0
 20
-0.7958433086
 30
0.0
 40
0.25
 41
0.0
 71
     1
 72
     1
  1
THE WRITTEN PERMISSION OF FROST PRODUCTS LTD. IS PROHIBITED.
  7
SLDTEXTSTYLE3
 73
     1
 44
1.0
  0
ENDBLK
  5
FC
330
FA
100
AcDbEntity
  8
0
100
AcDbBlockEnd
  0
BLOCK
  5
181
330
180
100
AcDbEntity
  8
0
100
AcDbBlockBegin
  2
_Open90
 70
     0
 10
0.0
 20
0.0
 30
0.0
  3
_Open90
  1

  0
LINE
  5
183
330
180
100
AcDbEntity
  8
0
  6
ByBlock
 62
     0
370
    -2
100
AcDbLine
 10
-0.5
 20
0.5
 30
0.0
 11
0.0
 21
0.0
 31
0.0
  0
LINE
  5
184
330
180
100
AcDbEntity
  8
0
  6
ByBlock
 62
     0
370
    -2
100
AcDbLine
 10
0.0
 20
0.0
 30
0.0
 11
-0.5
 21
-0.5
 31
0.0
  0
LINE
  5
185
330
180
100
AcDbEntity
  8
0
  6
ByBlock
 62
     0
370
    -2
100
AcDbLine
 10
0.0
 20
0.0
 30
0.0
 11
-1.0
 21
0.0
 31
0.0
  0
ENDBLK
  5
182
330
180
100
AcDbEntity
  8
0
100
AcDbBlockEnd
  0
BLOCK
  5
187
330
186
100
AcDbEntity
  8
0
100
AcDbBlockBegin
  2
_D
 70
     0
 10
0.0
 20
0.0
 30
0.0
  3
_D
  1

  0
INSERT
  5
189
330
186
100
AcDbEntity
  8
DIMS
100
AcDbBlockReference
  2
_Open90
 10
5.8076965674
 20
5.5732763425
 30
0.0
 41
0.3
 42
0.3
 50
270.0
  0
INSERT
  5
18A
330
186
100
AcDbEntity
  8
DIMS
100
AcDbBlockReference
  2
_Open90
 10
5.8076965674
 20
10.1225954858
 30
0.0
 41
0.3
 42
0.3
 50
90.0
  0
LINE
  5
18B
330
186
100
AcDbEntity
  8
DIMS
100
AcDbLine
 10
8.6607149401
 20
10.1225954858
 30
0.0
 11
5.4326965674
 21
10.1225954858
 31
0.0
  0
LINE
  5
18C
330
186
100
AcDbEntity
  8
DIMS
100
AcDbLine
 10
5.8076965674
 20
10.1225954858
 30
0.0
 11
5.8076965674
 21
7.8486536291
 31
0.0
  0
MTEXT
  5
18D
330
186
100
AcDbEntity
  8
DIMS
100
AcDbMText
 10
-7.5332766766
 20
7.6935755353
 30
0.0
 40
0.5
 41
0.0
 71
     1
 72
     1
  1
                                                                 15" to 48" [381 to 1219] for unrestricted access
  7
SLDTEXTSTYLE0
 73
     1
 44
1.0
  0
MTEXT
  5
18E
330
186
100
AcDbEntity
  8
DIMS
100
AcDbMText
 10
5.715335456
 20
6.8998255114
 30
0.0
 40
0.5
 41
0.0
 71
     1
 72
     1
  1
 
  7
SLDTEXTSTYLE0
 73
     1
 44
1.0
  0
MTEXT
  5
18F
330
186
100
AcDbEntity
  8
DIMS
100
AcDbMText
 10
5.715335456
 20
6.1060754875
 30
0.0
 40
0.5
 41
0.0
 71
     1
 72
     1
  1
 
  7
SLDTEXTSTYLE0
 73
     1
 44
1.0
  0
ENDBLK
  5
188
330
186
100
AcDbEntity
  8
0
100
AcDbBlockEnd
  0
BLOCK
  5
193
330
192
100
AcDbEntity
  8
0
100
AcDbBlockBegin
  2
_D_1
 70
     0
 10
0.0
 20
0.0
 30
0.0
  3
_D_1
  1

  0
INSERT
  5
195
330
192
100
AcDbEntity
  8
DIMS
100
AcDbBlockReference
  2
_Open90
 10
13.1699012918
 20
19.3100584162
 30
-1.916
 41
0.3
 42
0.3
 50
0.0
  0
INSERT
  5
196
330
192
100
AcDbEntity
  8
DIMS
100
AcDbBlockReference
  2
_Open90
 10
8.3273816067
 20
19.3100584162
 30
-1.916
 41
0.3
 42
0.3
 50
180.0
  0
LINE
  5
197
330
192
100
AcDbEntity
  8
DIMS
100
AcDbLine
 10
10.3833731998
 20
19.3613431146
 30
0.0
 11
11.2687898947
 21
19.3613431146
 31
0.0
  0
LINE
  5
198
330
192
100
AcDbEntity
  8
DIMS
100
AcDbLine
 10
13.1699012918
 20
17.9782385304
 30
0.0
 11
13.1699012918
 21
19.6850584162
 31
0.0
  0
LINE
  5
199
330
192
100
AcDbEntity
  8
DIMS
100
AcDbLine
 10
8.3273816067
 20
17.9782385304
 30
0.0
 11
8.3273816067
 21
19.6850584162
 31
0.0
  0
LINE
  5
19A
330
192
100
AcDbEntity
  8
DIMS
100
AcDbLine
 10
13.1699012918
 20
19.3100584162
 30
0.0
 11
11.5483037608
 21
19.3100584162
 31
0.0
  0
LINE
  5
19B
330
192
100
AcDbEntity
  8
DIMS
100
AcDbLine
 10
8.3273816067
 20
19.3100584162
 30
0.0
 11
9.9406648523
 21
19.3100584162
 31
0.0
  0
MTEXT
  5
19C
330
192
100
AcDbEntity
  8
DIMS
100
AcDbMText
 10
9.9406648523
 20
19.590744175
 30
0.0
 40
0.5
 41
0.0
 71
     1
 72
     1
  1
4
  7
SLDTEXTSTYLE0
 73
     1
 44
1.0
  0
MTEXT
  5
19D
330
192
100
AcDbEntity
  8
DIMS
100
AcDbMText
 10
10.4566371018
 20
19.9560566741
 30
0.0
 40
0.5
 41
0.0
 71
     1
 72
     1
  1
13
  7
SLDTEXTSTYLE0
 73
     1
 44
1.0
  0
MTEXT
  5
19E
330
192
100
AcDbEntity
  8
DIMS
100
AcDbMText
 10
10.4566371018
 20
19.2948760955
 30
0.0
 40
0.5
 41
0.0
 71
     1
 72
     1
  1
16
  7
SLDTEXTSTYLE0
 73
     1
 44
1.0
  0
MTEXT
  5
19F
330
192
100
AcDbEntity
  8
DIMS
100
AcDbMText
 10
11.3420537967
 20
19.590744175
 30
0.0
 40
0.5
 41
0.0
 71
     1
 72
     1
  1
"
  7
SLDTEXTSTYLE0
 73
     1
 44
1.0
  0
ENDBLK
  5
194
330
192
100
AcDbEntity
  8
0
100
AcDbBlockEnd
  0
BLOCK
  5
1CB
330
1CA
100
AcDbEntity
  8
0
100
AcDbBlockBegin
  2
_D_2
 70
     0
 10
0.0
 20
0.0
 30
0.0
  3
_D_2
  1

  0
INSERT
  5
1CD
330
1CA
100
AcDbEntity
  8
DIMS
100
AcDbBlockReference
  2
_Open90
 10
22.2198962788
 20
10.1225954858
 30
0.0
 41
0.3
 42
0.3
 50
270.0
  0
INSERT
  5
1CE
330
1CA
100
AcDbEntity
  8
DIMS
100
AcDbBlockReference
  2
_Open90
 10
22.2198962788
 20
18.3115718638
 30
0.0
 41
0.3
 42
0.3
 50
90.0
  0
LINE
  5
1CF
330
1CA
100
AcDbEntity
  8
DIMS
100
AcDbLine
 10
21.8587851721
 20
14.3546392601
 30
0.0
 11
22.744201867
 21
14.3546392601
 31
0.0
  0
LINE
  5
1D0
330
1CA
100
AcDbEntity
  8
DIMS
100
AcDbLine
 10
21.2842007408
 20
10.1225954858
 30
0.0
 11
22.5948962788
 21
10.1225954858
 31
0.0
  0
LINE
  5
1D1
330
1CA
100
AcDbEntity
  8
DIMS
100
AcDbLine
 10
21.2842007408
 20
18.3115718638
 30
0.0
 11
22.5948962788
 21
18.3115718638
 31
0.0
  0
LINE
  5
1D2
330
1CA
100
AcDbEntity
  8
DIMS
100
AcDbLine
 10
22.2198962788
 20
10.1225954858
 30
0.0
 11
22.2198962788
 21
13.6495004084
 31
0.0
  0
LINE
  5
1D3
330
1CA
100
AcDbEntity
  8
DIMS
100
AcDbLine
 10
22.2198962788
 20
18.3115718638
 30
0.0
 11
22.2198962788
 21
14.957208715
 31
0.0
  0
MTEXT
  5
1D4
330
1CA
100
AcDbEntity
  8
DIMS
100
AcDbMText
 10
21.4160768246
 20
14.5840403205
 30
0.0
 40
0.5
 41
0.0
 71
     1
 72
     1
  1
8
  7
SLDTEXTSTYLE0
 73
     1
 44
1.0
  0
MTEXT
  5
1D5
330
1CA
100
AcDbEntity
  8
DIMS
100
AcDbMText
 10
22.1167712968
 20
14.9493528196
 30
0.0
 40
0.5
 41
0.0
 71
     1
 72
     1
  1
3
  7
SLDTEXTSTYLE0
 73
     1
 44
1.0
  0
MTEXT
  5
1D6
330
1CA
100
AcDbEntity
  8
DIMS
100
AcDbMText
 10
21.9320490741
 20
14.288172241
 30
0.0
 40
0.5
 41
0.0
 71
     1
 72
     1
  1
16
  7
SLDTEXTSTYLE0
 73
     1
 44
1.0
  0
MTEXT
  5
1D7
330
1CA
100
AcDbEntity
  8
DIMS
100
AcDbMText
 10
22.817465769
 20
14.5840403205
 30
0.0
 40
0.5
 41
0.0
 71
     1
 72
     1
  1
"
  7
SLDTEXTSTYLE0
 73
     1
 44
1.0
  0
ENDBLK
  5
1CC
330
1CA
100
AcDbEntity
  8
0
100
AcDbBlockEnd
  0
BLOCK
  5
25D
330
25C
100
AcDbEntity
  8
0
100
AcDbBlockBegin
  2
_D_3
 70
     0
 10
0.0
 20
0.0
 30
0.0
  3
_D_3
  1

  0
INSERT
  5
25F
330
25C
100
AcDbEntity
  8
DIMS
100
AcDbBlockReference
  2
_Open90
 10
29.919980342
 20
19.177713596
 30
1.916
 41
0.3
 42
0.3
 50
0.0
  0
INSERT
  5
260
330
25C
100
AcDbEntity
  8
DIMS
100
AcDbBlockReference
  2
_Open90
 10
31.402980342
 20
19.177713596
 30
1.916
 41
0.3
 42
0.3
 50
180.0
  0
LINE
  5
261
330
25C
100
AcDbEntity
  8
DIMS
100
AcDbLine
 10
30.4857336628
 20
19.2289982944
 30
0.0
 11
31.0017059123
 21
19.2289982944
 31
0.0
  0
LINE
  5
262
330
25C
100
AcDbEntity
  8
DIMS
100
AcDbLine
 10
29.919980342
 20
17.1977385304
 30
0.0
 11
29.919980342
 21
19.552713596
 31
0.0
  0
LINE
  5
263
330
25C
100
AcDbEntity
  8
DIMS
100
AcDbLine
 10
31.402980342
 20
17.1977385304
 30
0.0
 11
31.402980342
 21
19.552713596
 31
0.0
  0
LINE
  5
264
330
25C
100
AcDbEntity
  8
DIMS
100
AcDbLine
 10
29.919980342
 20
19.177713596
 30
0.0
 11
29.619980342
 21
19.177713596
 31
0.0
  0
LINE
  5
265
330
25C
100
AcDbEntity
  8
DIMS
100
AcDbLine
 10
31.402980342
 20
19.177713596
 30
0.0
 11
31.702980342
 21
19.177713596
 31
0.0
  0
MTEXT
  5
266
330
25C
100
AcDbEntity
  8
DIMS
100
AcDbMText
 10
30.0430253154
 20
19.4583993549
 30
0.0
 40
0.5
 41
0.0
 71
     1
 72
     1
  1
1
  7
SLDTEXTSTYLE0
 73
     1
 44
1.0
  0
MTEXT
  5
267
330
25C
100
AcDbEntity
  8
DIMS
100
AcDbMText
 10
30.5589975648
 20
19.8237118539
 30
0.0
 40
0.5
 41
0.0
 71
     1
 72
     1
  1
1
  7
SLDTEXTSTYLE0
 73
     1
 44
1.0
  0
MTEXT
  5
268
330
25C
100
AcDbEntity
  8
DIMS
100
AcDbMText
 10
30.5589975648
 20
19.1625312754
 30
0.0
 40
0.5
 41
0.0
 71
     1
 72
     1
  1
2
  7
SLDTEXTSTYLE0
 73
     1
 44
1.0
  0
MTEXT
  5
269
330
25C
100
AcDbEntity
  8
DIMS
100
AcDbMText
 10
31.0749698142
 20
19.4583993549
 30
0.0
 40
0.5
 41
0.0
 71
     1
 72
     1
  1
"
  7
SLDTEXTSTYLE0
 73
     1
 44
1.0
  0
ENDBLK
  5
25E
330
25C
100
AcDbEntity
  8
0
100
AcDbBlockEnd
  0
BLOCK
  5
26C
330
26B
100
AcDbEntity
  8
0
100
AcDbBlockBegin
  2
_D_4
 70
     0
 10
0.0
 20
0.0
 30
0.0
  3
_D_4
  1

  0
INSERT
  5
26E
330
26B
100
AcDbEntity
  8
DIMS
100
AcDbBlockReference
  2
_Open90
 10
27.1378582947
 20
15.5480718638
 30
1.916
 41
0.3
 42
0.3
 50
90.0
  0
INSERT
  5
26F
330
26B
100
AcDbEntity
  8
DIMS
100
AcDbBlockReference
  2
_Open90
 10
27.1378582947
 20
17.0310718638
 30
1.916
 41
0.3
 42
0.3
 50
270.0
  0
LINE
  5
270
330
26B
100
AcDbEntity
  8
DIMS
100
AcDbLine
 10
26.961469374
 20
16.3717085012
 30
0.0
 11
27.4774416235
 21
16.3717085012
 31
0.0
  0
LINE
  5
271
330
26B
100
AcDbEntity
  8
DIMS
100
AcDbLine
 10
30.4948136753
 20
15.5480718638
 30
0.0
 11
26.7628582947
 21
15.5480718638
 31
0.0
  0
LINE
  5
272
330
26B
100
AcDbEntity
  8
DIMS
100
AcDbLine
 10
29.7533136753
 20
17.0310718638
 30
0.0
 11
26.7628582947
 21
17.0310718638
 31
0.0
  0
LINE
  5
273
330
26B
100
AcDbEntity
  8
DIMS
100
AcDbLine
 10
27.1378582947
 20
15.5480718638
 30
0.0
 11
27.1378582947
 21
15.2480718638
 31
0.0
  0
LINE
  5
274
330
26B
100
AcDbEntity
  8
DIMS
100
AcDbLine
 10
27.1378582947
 20
17.0310718638
 30
0.0
 11
27.1378582947
 21
17.3310718638
 31
0.0
  0
MTEXT
  5
275
330
26B
100
AcDbEntity
  8
DIMS
100
AcDbMText
 10
26.5187610266
 20
16.6011095617
 30
0.0
 40
0.5
 41
0.0
 71
     1
 72
     1
  1
1
  7
SLDTEXTSTYLE0
 73
     1
 44
1.0
  0
MTEXT
  5
276
330
26B
100
AcDbEntity
  8
DIMS
100
AcDbMText
 10
27.034733276
 20
16.9664220607
 30
0.0
 40
0.5
 41
0.0
 71
     1
 72
     1
  1
1
  7
SLDTEXTSTYLE0
 73
     1
 44
1.0
  0
MTEXT
  5
277
330
26B
100
AcDbEntity
  8
DIMS
100
AcDbMText
 10
27.034733276
 20
16.3052414822
 30
0.0
 40
0.5
 41
0.0
 71
     1
 72
     1
  1
2
  7
SLDTEXTSTYLE0
 73
     1
 44
1.0
  0
MTEXT
  5
278
330
26B
100
AcDbEntity
  8
DIMS
100
AcDbMText
 10
27.5507055255
 20
16.6011095617
 30
0.0
 40
0.5
 41
0.0
 71
     1
 72
     1
  1
"
  7
SLDTEXTSTYLE0
 73
     1
 44
1.0
  0
ENDBLK
  5
26D
330
26B
100
AcDbEntity
  8
0
100
AcDbBlockEnd
  0
BLOCK
  5
27B
330
27A
100
AcDbEntity
  8
0
100
AcDbBlockBegin
  2
_D_5
 70
     0
 10
0.0
 20
0.0
 30
0.0
  3
_D_5
  1

  0
INSERT
  5
27D
330
27A
100
AcDbEntity
  8
DIMS
100
AcDbBlockReference
  2
_Open90
 10
27.1378582947
 20
15.5480718638
 30
1.916
 41
0.3
 42
0.3
 50
90.0
  0
INSERT
  5
27E
330
27A
100
AcDbEntity
  8
DIMS
100
AcDbBlockReference
  2
_Open90
 10
27.1378582947
 20
10.1225954858
 30
1.916
 41
0.3
 42
0.3
 50
270.0
  0
LINE
  5
27F
330
27A
100
AcDbEntity
  8
DIMS
100
AcDbLine
 10
26.776747188
 20
12.6958457471
 30
0.0
 11
27.6621638829
 21
12.6958457471
 31
0.0
  0
LINE
  5
280
330
27A
100
AcDbEntity
  8
DIMS
100
AcDbLine
 10
30.4948136753
 20
15.5480718638
 30
0.0
 11
26.7628582947
 21
15.5480718638
 31
0.0
  0
LINE
  5
281
330
27A
100
AcDbEntity
  8
DIMS
100
AcDbLine
 10
28.5735538328
 20
10.1225954858
 30
0.0
 11
26.7628582947
 21
10.1225954858
 31
0.0
  0
LINE
  5
282
330
27A
100
AcDbEntity
  8
DIMS
100
AcDbLine
 10
27.1378582947
 20
15.5480718638
 30
0.0
 11
27.1378582947
 21
13.298415202
 31
0.0
  0
LINE
  5
283
330
27A
100
AcDbEntity
  8
DIMS
100
AcDbLine
 10
27.1378582947
 20
10.1225954858
 30
0.0
 11
27.1378582947
 21
11.9907068954
 31
0.0
  0
MTEXT
  5
284
330
27A
100
AcDbEntity
  8
DIMS
100
AcDbMText
 10
26.3340388405
 20
12.9252468075
 30
0.0
 40
0.5
 41
0.0
 71
     1
 72
     1
  1
5
  7
SLDTEXTSTYLE0
 73
     1
 44
1.0
  0
MTEXT
  5
285
330
27A
100
AcDbEntity
  8
DIMS
100
AcDbMText
 10
27.0347333127
 20
13.2905593066
 30
0.0
 40
0.5
 41
0.0
 71
     1
 72
     1
  1
7
  7
SLDTEXTSTYLE0
 73
     1
 44
1.0
  0
MTEXT
  5
286
330
27A
100
AcDbEntity
  8
DIMS
100
AcDbMText
 10
26.8500110899
 20
12.629378728
 30
0.0
 40
0.5
 41
0.0
 71
     1
 72
     1
  1
16
  7
SLDTEXTSTYLE0
 73
     1
 44
1.0
  0
MTEXT
  5
287
330
27A
100
AcDbEntity
  8
DIMS
100
AcDbMText
 10
27.7354277849
 20
12.9252468075
 30
0.0
 40
0.5
 41
0.0
 71
     1
 72
     1
  1
"
  7
SLDTEXTSTYLE0
 73
     1
 44
1.0
  0
ENDBLK
  5
27C
330
27A
100
AcDbEntity
  8
0
100
AcDbBlockEnd
  0
BLOCK
  5
2BC
330
2BB
100
AcDbEntity
  8
0
100
AcDbBlockBegin
  2
_D_6
 70
     0
 10
0.0
 20
0.0
 30
0.0
  3
_D_6
  1

  0
INSERT
  5
2BE
330
2BB
100
AcDbEntity
  8
DIMS
100
AcDbBlockReference
  2
_Open90
 10
13.7998225516
 20
27.8694582945
 30
-4.094488189
 41
0.3
 42
0.3
 50
90.0
  0
INSERT
  5
2BF
330
2BB
100
AcDbEntity
  8
DIMS
100
AcDbBlockReference
  2
_Open90
 10
13.7998225516
 20
24.9694582945
 30
-4.094488189
 41
0.3
 42
0.3
 50
270.0
  0
LINE
  5
2C0
330
2BB
100
AcDbEntity
  8
DIMS
100
AcDbLine
 10
13.6234336309
 20
26.2943061349
 30
0.0
 11
14.1394058804
 21
26.2943061349
 31
0.0
  0
LINE
  5
2C1
330
2BB
100
AcDbEntity
  8
DIMS
100
AcDbLine
 10
12.8365679584
 20
27.8694582945
 30
0.0
 11
14.1748225516
 21
27.8694582945
 31
0.0
  0
LINE
  5
2C2
330
2BB
100
AcDbEntity
  8
DIMS
100
AcDbLine
 10
12.8365679584
 20
24.9694582945
 30
0.0
 11
14.1748225516
 21
24.9694582945
 31
0.0
  0
LINE
  5
2C3
330
2BB
100
AcDbEntity
  8
DIMS
100
AcDbLine
 10
13.7998225516
 20
27.8694582945
 30
0.0
 11
13.7998225516
 21
26.8968755898
 31
0.0
  0
LINE
  5
2C4
330
2BB
100
AcDbEntity
  8
DIMS
100
AcDbLine
 10
13.7998225516
 20
24.9694582945
 30
0.0
 11
13.7998225516
 21
25.5891672832
 31
0.0
  0
MTEXT
  5
2C5
330
2BB
100
AcDbEntity
  8
DIMS
100
AcDbMText
 10
13.1807252835
 20
26.5237071953
 30
0.0
 40
0.5
 41
0.0
 71
     1
 72
     1
  1
2
  7
SLDTEXTSTYLE0
 73
     1
 44
1.0
  0
MTEXT
  5
2C6
330
2BB
100
AcDbEntity
  8
DIMS
100
AcDbMText
 10
13.6966975329
 20
26.8890196943
 30
0.0
 40
0.5
 41
0.0
 71
     1
 72
     1
  1
7
  7
SLDTEXTSTYLE0
 73
     1
 44
1.0
  0
MTEXT
  5
2C7
330
2BB
100
AcDbEntity
  8
DIMS
100
AcDbMText
 10
13.6966975329
 20
26.2278391158
 30
0.0
 40
0.5
 41
0.0
 71
     1
 72
     1
  1
8
  7
SLDTEXTSTYLE0
 73
     1
 44
1.0
  0
MTEXT
  5
2C8
330
2BB
100
AcDbEntity
  8
DIMS
100
AcDbMText
 10
14.2126697824
 20
26.5237071953
 30
0.0
 40
0.5
 41
0.0
 71
     1
 72
     1
  1
"
  7
SLDTEXTSTYLE0
 73
     1
 44
1.0
  0
ENDBLK
  5
2BD
330
2BB
100
AcDbEntity
  8
0
100
AcDbBlockEnd
  0
BLOCK
  5
2CB
330
2CA
100
AcDbEntity
  8
0
100
AcDbBlockBegin
  2
_D_7
 70
     0
 10
0.0
 20
0.0
 30
0.0
  3
_D_7
  1

  0
INSERT
  5
2CD
330
2CA
100
AcDbEntity
  8
DIMS
100
AcDbBlockReference
  2
_Open90
 10
14.9809249138
 20
24.0374582945
 30
-4.094488189
 41
0.3
 42
0.3
 50
270.0
  0
INSERT
  5
2CE
330
2CA
100
AcDbEntity
  8
DIMS
100
AcDbBlockReference
  2
_Open90
 10
14.9809249138
 20
27.8694582945
 30
-4.094488189
 41
0.3
 42
0.3
 50
90.0
  0
LINE
  5
2CF
330
2CA
100
AcDbEntity
  8
DIMS
100
AcDbLine
 10
14.6198138071
 20
25.5759854897
 30
0.0
 11
15.505230502
 21
25.5759854897
 31
0.0
  0
LINE
  5
2D0
330
2CA
100
AcDbEntity
  8
DIMS
100
AcDbLine
 10
11.4971791779
 20
24.0374582945
 30
0.0
 11
15.3559249138
 21
24.0374582945
 31
0.0
  0
LINE
  5
2D1
330
2CA
100
AcDbEntity
  8
DIMS
100
AcDbLine
 10
12.8365679584
 20
27.8694582945
 30
0.0
 11
15.3559249138
 21
27.8694582945
 31
0.0
  0
LINE
  5
2D2
330
2CA
100
AcDbEntity
  8
DIMS
100
AcDbLine
 10
14.9809249138
 20
24.0374582945
 30
0.0
 11
14.9809249138
 21
24.870846638
 31
0.0
  0
LINE
  5
2D3
330
2CA
100
AcDbEntity
  8
DIMS
100
AcDbLine
 10
14.9809249138
 20
27.8694582945
 30
0.0
 11
14.9809249138
 21
26.1785549446
 31
0.0
  0
MTEXT
  5
2D4
330
2CA
100
AcDbEntity
  8
DIMS
100
AcDbMText
 10
14.1771054596
 20
25.8053865502
 30
0.0
 40
0.5
 41
0.0
 71
     1
 72
     1
  1
3
  7
SLDTEXTSTYLE0
 73
     1
 44
1.0
  0
MTEXT
  5
2D5
330
2CA
100
AcDbEntity
  8
DIMS
100
AcDbMText
 10
14.693077709
 20
26.1706990492
 30
0.0
 40
0.5
 41
0.0
 71
     1
 72
     1
  1
13
  7
SLDTEXTSTYLE0
 73
     1
 44
1.0
  0
MTEXT
  5
2D6
330
2CA
100
AcDbEntity
  8
DIMS
100
AcDbMText
 10
14.693077709
 20
25.5095184706
 30
0.0
 40
0.5
 41
0.0
 71
     1
 72
     1
  1
16
  7
SLDTEXTSTYLE0
 73
     1
 44
1.0
  0
MTEXT
  5
2D7
330
2CA
100
AcDbEntity
  8
DIMS
100
AcDbMText
 10
15.578494404
 20
25.8053865502
 30
0.0
 40
0.5
 41
0.0
 71
     1
 72
     1
  1
"
  7
SLDTEXTSTYLE0
 73
     1
 44
1.0
  0
ENDBLK
  5
2CC
330
2CA
100
AcDbEntity
  8
0
100
AcDbBlockEnd
  0
BLOCK
  5
391
330
390
100
AcDbEntity
  8
0
100
AcDbBlockBegin
  2
SW_NOTE_0_3
 70
     0
 10
0.0
 20
0.0
 30
0.0
  3
SW_NOTE_0_3
  1

  0
MTEXT
  5
393
330
390
100
AcDbEntity
  8
NOTES
 62
     0
100
AcDbMText
 10
0.0
 20
0.638671875
 30
0.0
 40
0.5
 41
0.0
 71
     1
 72
     1
  1
3D view
  7
SLDTEXTSTYLE0
 73
     1
 44
1.0
  0
MTEXT
  5
394
330
390
100
AcDbEntity
  8
NOTES
 62
     0
100
AcDbMText
 10
0.0
 20
-0.3613281862
 30
0.0
 40
0.5
 41
0.0
 71
     1
 72
     1
  1
assembly
  7
SLDTEXTSTYLE0
 73
     1
 44
1.0
  0
ENDBLK
  5
392
330
390
100
AcDbEntity
  8
0
100
AcDbBlockEnd
  0
ENDSEC
  0
SECTION
  2
ENTITIES
  0
LINE
  5
7A
330
1F
100
AcDbEntity
  8
TITLE
370
    35
100
AcDbLine
 10
30.5182229757
 20
1.4876117645
 30
0.0
 11
47.4999864512
 21
1.4876117645
 31
0.0
  0
LINE
  5
7B
330
1F
100
AcDbEntity
  8
TITLE
370
    35
100
AcDbLine
 10
47.4999317442
 20
5.4753603936
 30
0.0
 11
37.3105350723
 21
5.4753603936
 31
0.0
  0
LINE
  5
7C
330
1F
100
AcDbEntity
  8
TITLE
  6
SLD-Solid
370
    18
100
AcDbLine
 10
0.5
 20
0.5
 30
0.0
 11
0.5
 21
35.5
 31
0.0
  0
LINE
  5
7D
330
1F
100
AcDbEntity
  8
TITLE
  6
SLD-Solid
370
    18
100
AcDbLine
 10
0.5
 20
35.5
 30
0.0
 11
47.5
 21
35.5
 31
0.0
  0
LINE
  5
7E
330
1F
100
AcDbEntity
  8
TITLE
370
    35
100
AcDbLine
 10
30.5182229757
 20
2.5427877231
 30
0.0
 11
23.5059791203
 21
2.5427877231
 31
0.0
  0
LINE
  5
7F
330
1F
100
AcDbEntity
  8
TITLE
370
    35
100
AcDbLine
 10
30.5182229757
 20
1.4876117645
 30
0.0
 11
23.5059791203
 21
1.4876117645
 31
0.0
  0
LINE
  5
80
330
1F
100
AcDbEntity
  8
TITLE
  6
SLD-Solid
370
    18
100
AcDbLine
 10
47.5
 20
35.5
 30
0.0
 11
47.5
 21
0.5
 31
0.0
  0
LINE
  5
81
330
1F
100
AcDbEntity
  8
TITLE
  6
SLD-Solid
370
    18
100
AcDbLine
 10
47.5
 20
0.5
 30
0.0
 11
0.5
 21
0.5
 31
0.0
  0
LINE
  5
82
330
1F
100
AcDbEntity
  8
TITLE
370
    35
100
AcDbLine
 10
30.5182229757
 20
1.4876117645
 30
0.0
 11
30.5182229757
 21
3.5979636817
 31
0.0
  0
LINE
  5
83
330
1F
100
AcDbEntity
  8
TITLE
370
    35
100
AcDbLine
 10
23.5059791203
 20
3.5979636817
 30
0.0
 11
23.5059791203
 21
0.5
 31
0.0
  0
LINE
  5
84
330
1F
100
AcDbEntity
  8
TITLE
370
    35
100
AcDbLine
 10
23.5059791203
 20
0.5
 30
0.0
 11
47.5
 21
0.5
 31
0.0
  0
LINE
  5
85
330
1F
100
AcDbEntity
  8
TITLE
370
    35
100
AcDbLine
 10
47.4999317442
 20
5.4753603936
 30
0.0
 11
47.5
 21
0.5
 31
0.0
  0
LINE
  5
86
330
1F
100
AcDbEntity
  8
TITLE
  6
SLD-Solid
370
    18
100
AcDbLine
 10
0.4999606299
 20
18.0
 30
0.0
 11
0.5000393701
 21
18.0
 31
0.0
  0
LINE
  5
87
330
1F
100
AcDbEntity
  8
TITLE
370
    35
100
AcDbLine
 10
30.5182229757
 20
3.5979636817
 30
0.0
 11
23.5059791203
 21
3.5979636817
 31
0.0
  0
LINE
  5
88
330
1F
100
AcDbEntity
  8
TITLE
370
    35
100
AcDbLine
 10
30.5182229757
 20
3.5979636817
 30
0.0
 11
47.4997615643
 21
3.5979648343
 31
0.0
  0
LINE
  5
89
330
1F
100
AcDbEntity
  8
TITLE
370
    35
100
AcDbLine
 10
37.3105350723
 20
5.4753603936
 30
0.0
 11
37.3105350723
 21
0.4636772425
 31
0.0
  0
LINE
  5
8A
330
1F
100
AcDbEntity
  8
TITLE
  6
SLD-Solid
370
    18
100
AcDbLine
 10
24.0
 20
35.5000393701
 30
0.0
 11
24.0
 21
35.4999606299
 31
0.0
  0
LINE
  5
8B
330
1F
100
AcDbEntity
  8
TITLE
  6
SLD-Solid
370
    18
100
AcDbLine
 10
47.5000393701
 20
18.0
 30
0.0
 11
47.4999606299
 21
18.0
 31
0.0
  0
LINE
  5
8C
330
1F
100
AcDbEntity
  8
TITLE
  6
SLD-Solid
370
    18
100
AcDbLine
 10
24.0
 20
0.4999606299
 30
0.0
 11
24.0
 21
0.5000393701
 31
0.0
  0
LINE
  5
8D
330
1F
100
AcDbEntity
  8
TITLE
  6
SLD-Solid
370
    18
100
AcDbLine
 10
0.5
 20
2.2519685039
 30
0.0
 11
0.1653543307
 21
2.2519685039
 31
0.0
  0
LINE
  5
8E
330
1F
100
AcDbEntity
  8
TITLE
  6
SLD-Solid
370
    18
100
AcDbLine
 10
47.5
 20
2.2519685039
 30
0.0
 11
47.8346456693
 21
2.2519685039
 31
0.0
  0
LINE
  5
8F
330
1F
100
AcDbEntity
  8
TITLE
  6
SLD-Solid
370
    18
100
AcDbLine
 10
0.5
 20
4.2204724409
 30
0.0
 11
0.1653543307
 21
4.2204724409
 31
0.0
  0
LINE
  5
90
330
1F
100
AcDbEntity
  8
TITLE
  6
SLD-Solid
370
    18
100
AcDbLine
 10
47.5
 20
4.2204724409
 30
0.0
 11
47.8346456693
 21
4.2204724409
 31
0.0
  0
LINE
  5
91
330
1F
100
AcDbEntity
  8
TITLE
  6
SLD-Solid
370
    18
100
AcDbLine
 10
0.5
 20
6.188976378
 30
0.0
 11
0.1653543307
 21
6.188976378
 31
0.0
  0
LINE
  5
92
330
1F
100
AcDbEntity
  8
TITLE
  6
SLD-Solid
370
    18
100
AcDbLine
 10
47.5
 20
6.188976378
 30
0.0
 11
47.8346456693
 21
6.188976378
 31
0.0
  0
LINE
  5
93
330
1F
100
AcDbEntity
  8
TITLE
  6
SLD-Solid
370
    18
100
AcDbLine
 10
0.5
 20
8.157480315
 30
0.0
 11
0.1653543307
 21
8.157480315
 31
0.0
  0
LINE
  5
94
330
1F
100
AcDbEntity
  8
TITLE
  6
SLD-Solid
370
    18
100
AcDbLine
 10
47.5
 20
8.157480315
 30
0.0
 11
47.8346456693
 21
8.157480315
 31
0.0
  0
LINE
  5
95
330
1F
100
AcDbEntity
  8
TITLE
  6
SLD-Solid
370
    18
100
AcDbLine
 10
0.5
 20
10.125984252
 30
0.0
 11
0.1653543307
 21
10.125984252
 31
0.0
  0
LINE
  5
96
330
1F
100
AcDbEntity
  8
TITLE
  6
SLD-Solid
370
    18
100
AcDbLine
 10
47.5
 20
10.125984252
 30
0.0
 11
47.8346456693
 21
10.125984252
 31
0.0
  0
LINE
  5
97
330
1F
100
AcDbEntity
  8
TITLE
  6
SLD-Solid
370
    18
100
AcDbLine
 10
0.5
 20
12.094488189
 30
0.0
 11
0.1653543307
 21
12.094488189
 31
0.0
  0
LINE
  5
98
330
1F
100
AcDbEntity
  8
TITLE
  6
SLD-Solid
370
    18
100
AcDbLine
 10
47.5
 20
12.094488189
 30
0.0
 11
47.8346456693
 21
12.094488189
 31
0.0
  0
LINE
  5
99
330
1F
100
AcDbEntity
  8
TITLE
  6
SLD-Solid
370
    18
100
AcDbLine
 10
0.5
 20
14.062992126
 30
0.0
 11
0.1653543307
 21
14.062992126
 31
0.0
  0
LINE
  5
9A
330
1F
100
AcDbEntity
  8
TITLE
  6
SLD-Solid
370
    18
100
AcDbLine
 10
47.5
 20
14.062992126
 30
0.0
 11
47.8346456693
 21
14.062992126
 31
0.0
  0
LINE
  5
9B
330
1F
100
AcDbEntity
  8
TITLE
  6
SLD-Solid
370
    18
100
AcDbLine
 10
0.5
 20
16.031496063
 30
0.0
 11
0.1653543307
 21
16.031496063
 31
0.0
  0
LINE
  5
9C
330
1F
100
AcDbEntity
  8
TITLE
  6
SLD-Solid
370
    18
100
AcDbLine
 10
47.5
 20
16.031496063
 30
0.0
 11
47.8346456693
 21
16.031496063
 31
0.0
  0
LINE
  5
9D
330
1F
100
AcDbEntity
  8
TITLE
  6
SLD-Solid
370
    18
100
AcDbLine
 10
0.5
 20
18.0
 30
0.0
 11
0.1653543307
 21
18.0
 31
0.0
  0
LINE
  5
9E
330
1F
100
AcDbEntity
  8
TITLE
  6
SLD-Solid
370
    18
100
AcDbLine
 10
47.5
 20
18.0
 30
0.0
 11
47.8346456693
 21
18.0
 31
0.0
  0
LINE
  5
9F
330
1F
100
AcDbEntity
  8
TITLE
  6
SLD-Solid
370
    18
100
AcDbLine
 10
0.5
 20
19.968503937
 30
0.0
 11
0.1653543307
 21
19.968503937
 31
0.0
  0
LINE
  5
A0
330
1F
100
AcDbEntity
  8
TITLE
  6
SLD-Solid
370
    18
100
AcDbLine
 10
47.5
 20
19.968503937
 30
0.0
 11
47.8346456693
 21
19.968503937
 31
0.0
  0
LINE
  5
A1
330
1F
100
AcDbEntity
  8
TITLE
  6
SLD-Solid
370
    18
100
AcDbLine
 10
0.5
 20
21.937007874
 30
0.0
 11
0.1653543307
 21
21.937007874
 31
0.0
  0
LINE
  5
A2
330
1F
100
AcDbEntity
  8
TITLE
  6
SLD-Solid
370
    18
100
AcDbLine
 10
47.5
 20
21.937007874
 30
0.0
 11
47.8346456693
 21
21.937007874
 31
0.0
  0
LINE
  5
A3
330
1F
100
AcDbEntity
  8
TITLE
  6
SLD-Solid
370
    18
100
AcDbLine
 10
0.5
 20
23.905511811
 30
0.0
 11
0.1653543307
 21
23.905511811
 31
0.0
  0
LINE
  5
A4
330
1F
100
AcDbEntity
  8
TITLE
  6
SLD-Solid
370
    18
100
AcDbLine
 10
47.5
 20
23.905511811
 30
0.0
 11
47.8346456693
 21
23.905511811
 31
0.0
  0
LINE
  5
A5
330
1F
100
AcDbEntity
  8
TITLE
  6
SLD-Solid
370
    18
100
AcDbLine
 10
0.5
 20
25.874015748
 30
0.0
 11
0.1653543307
 21
25.874015748
 31
0.0
  0
LINE
  5
A6
330
1F
100
AcDbEntity
  8
TITLE
  6
SLD-Solid
370
    18
100
AcDbLine
 10
47.5
 20
25.874015748
 30
0.0
 11
47.8346456693
 21
25.874015748
 31
0.0
  0
LINE
  5
A7
330
1F
100
AcDbEntity
  8
TITLE
  6
SLD-Solid
370
    18
100
AcDbLine
 10
0.5
 20
27.842519685
 30
0.0
 11
0.1653543307
 21
27.842519685
 31
0.0
  0
LINE
  5
A8
330
1F
100
AcDbEntity
  8
TITLE
  6
SLD-Solid
370
    18
100
AcDbLine
 10
47.5
 20
27.842519685
 30
0.0
 11
47.8346456693
 21
27.842519685
 31
0.0
  0
LINE
  5
A9
330
1F
100
AcDbEntity
  8
TITLE
  6
SLD-Solid
370
    18
100
AcDbLine
 10
0.5
 20
29.811023622
 30
0.0
 11
0.1653543307
 21
29.811023622
 31
0.0
  0
LINE
  5
AA
330
1F
100
AcDbEntity
  8
TITLE
  6
SLD-Solid
370
    18
100
AcDbLine
 10
47.5
 20
29.811023622
 30
0.0
 11
47.8346456693
 21
29.811023622
 31
0.0
  0
LINE
  5
AB
330
1F
100
AcDbEntity
  8
TITLE
  6
SLD-Solid
370
    18
100
AcDbLine
 10
0.5
 20
31.7795275591
 30
0.0
 11
0.1653543307
 21
31.7795275591
 31
0.0
  0
LINE
  5
AC
330
1F
100
AcDbEntity
  8
TITLE
  6
SLD-Solid
370
    18
100
AcDbLine
 10
47.5
 20
31.7795275591
 30
0.0
 11
47.8346456693
 21
31.7795275591
 31
0.0
  0
LINE
  5
AD
330
1F
100
AcDbEntity
  8
TITLE
  6
SLD-Solid
370
    18
100
AcDbLine
 10
47.5
 20
33.7480314961
 30
0.0
 11
47.8346456693
 21
33.7480314961
 31
0.0
  0
LINE
  5
AE
330
1F
100
AcDbEntity
  8
TITLE
  6
SLD-Solid
370
    18
100
AcDbLine
 10
2.3464566929
 20
35.5
 30
0.0
 11
2.3464566929
 21
35.8346456693
 31
0.0
  0
LINE
  5
AF
330
1F
100
AcDbEntity
  8
TITLE
  6
SLD-Solid
370
    18
100
AcDbLine
 10
2.3464566929
 20
0.5
 30
0.0
 11
2.3464566929
 21
0.1653543307
 31
0.0
  0
LINE
  5
B0
330
1F
100
AcDbEntity
  8
TITLE
  6
SLD-Solid
370
    18
100
AcDbLine
 10
4.3149606299
 20
0.5
 30
0.0
 11
4.3149606299
 21
0.1653543307
 31
0.0
  0
LINE
  5
B1
330
1F
100
AcDbEntity
  8
TITLE
  6
SLD-Solid
370
    18
100
AcDbLine
 10
6.2834645669
 20
35.5
 30
0.0
 11
6.2834645669
 21
35.8346456693
 31
0.0
  0
LINE
  5
B2
330
1F
100
AcDbEntity
  8
TITLE
  6
SLD-Solid
370
    18
100
AcDbLine
 10
6.2834645669
 20
0.5
 30
0.0
 11
6.2834645669
 21
0.1653543307
 31
0.0
  0
LINE
  5
B3
330
1F
100
AcDbEntity
  8
TITLE
  6
SLD-Solid
370
    18
100
AcDbLine
 10
8.2519685039
 20
35.5
 30
0.0
 11
8.2519685039
 21
35.8346456693
 31
0.0
  0
LINE
  5
B4
330
1F
100
AcDbEntity
  8
TITLE
  6
SLD-Solid
370
    18
100
AcDbLine
 10
8.2519685039
 20
0.5
 30
0.0
 11
8.2519685039
 21
0.1653543307
 31
0.0
  0
LINE
  5
B5
330
1F
100
AcDbEntity
  8
TITLE
  6
SLD-Solid
370
    18
100
AcDbLine
 10
10.2204724409
 20
35.5
 30
0.0
 11
10.2204724409
 21
35.8346456693
 31
0.0
  0
LINE
  5
B6
330
1F
100
AcDbEntity
  8
TITLE
  6
SLD-Solid
370
    18
100
AcDbLine
 10
10.2204724409
 20
0.5
 30
0.0
 11
10.2204724409
 21
0.1653543307
 31
0.0
  0
LINE
  5
B7
330
1F
100
AcDbEntity
  8
TITLE
  6
SLD-Solid
370
    18
100
AcDbLine
 10
12.188976378
 20
35.5
 30
0.0
 11
12.188976378
 21
35.8346456693
 31
0.0
  0
LINE
  5
B8
330
1F
100
AcDbEntity
  8
TITLE
  6
SLD-Solid
370
    18
100
AcDbLine
 10
12.188976378
 20
0.5
 30
0.0
 11
12.188976378
 21
0.1653543307
 31
0.0
  0
LINE
  5
B9
330
1F
100
AcDbEntity
  8
TITLE
  6
SLD-Solid
370
    18
100
AcDbLine
 10
14.157480315
 20
35.5
 30
0.0
 11
14.157480315
 21
35.8346456693
 31
0.0
  0
LINE
  5
BA
330
1F
100
AcDbEntity
  8
TITLE
  6
SLD-Solid
370
    18
100
AcDbLine
 10
14.157480315
 20
0.5
 30
0.0
 11
14.157480315
 21
0.1653543307
 31
0.0
  0
LINE
  5
BB
330
1F
100
AcDbEntity
  8
TITLE
  6
SLD-Solid
370
    18
100
AcDbLine
 10
16.125984252
 20
35.5
 30
0.0
 11
16.125984252
 21
35.8346456693
 31
0.0
  0
LINE
  5
BC
330
1F
100
AcDbEntity
  8
TITLE
  6
SLD-Solid
370
    18
100
AcDbLine
 10
16.125984252
 20
0.5
 30
0.0
 11
16.125984252
 21
0.1653543307
 31
0.0
  0
LINE
  5
BD
330
1F
100
AcDbEntity
  8
TITLE
  6
SLD-Solid
370
    18
100
AcDbLine
 10
18.094488189
 20
35.5
 30
0.0
 11
18.094488189
 21
35.8346456693
 31
0.0
  0
LINE
  5
BE
330
1F
100
AcDbEntity
  8
TITLE
  6
SLD-Solid
370
    18
100
AcDbLine
 10
18.094488189
 20
0.5
 30
0.0
 11
18.094488189
 21
0.1653543307
 31
0.0
  0
LINE
  5
BF
330
1F
100
AcDbEntity
  8
TITLE
  6
SLD-Solid
370
    18
100
AcDbLine
 10
20.062992126
 20
35.5
 30
0.0
 11
20.062992126
 21
35.8346456693
 31
0.0
  0
LINE
  5
C0
330
1F
100
AcDbEntity
  8
TITLE
  6
SLD-Solid
370
    18
100
AcDbLine
 10
20.062992126
 20
0.5
 30
0.0
 11
20.062992126
 21
0.1653543307
 31
0.0
  0
LINE
  5
C1
330
1F
100
AcDbEntity
  8
TITLE
  6
SLD-Solid
370
    18
100
AcDbLine
 10
22.031496063
 20
35.5
 30
0.0
 11
22.031496063
 21
35.8346456693
 31
0.0
  0
LINE
  5
C2
330
1F
100
AcDbEntity
  8
TITLE
  6
SLD-Solid
370
    18
100
AcDbLine
 10
22.031496063
 20
0.5
 30
0.0
 11
22.031496063
 21
0.1653543307
 31
0.0
  0
LINE
  5
C3
330
1F
100
AcDbEntity
  8
TITLE
  6
SLD-Solid
370
    18
100
AcDbLine
 10
24.0
 20
35.5
 30
0.0
 11
24.0
 21
35.8346456693
 31
0.0
  0
LINE
  5
C4
330
1F
100
AcDbEntity
  8
TITLE
  6
SLD-Solid
370
    18
100
AcDbLine
 10
24.0
 20
0.5
 30
0.0
 11
24.0
 21
0.1653543307
 31
0.0
  0
LINE
  5
C5
330
1F
100
AcDbEntity
  8
TITLE
  6
SLD-Solid
370
    18
100
AcDbLine
 10
25.968503937
 20
35.5
 30
0.0
 11
25.968503937
 21
35.8346456693
 31
0.0
  0
LINE
  5
C6
330
1F
100
AcDbEntity
  8
TITLE
  6
SLD-Solid
370
    18
100
AcDbLine
 10
25.968503937
 20
0.5
 30
0.0
 11
25.968503937
 21
0.1653543307
 31
0.0
  0
LINE
  5
C7
330
1F
100
AcDbEntity
  8
TITLE
  6
SLD-Solid
370
    18
100
AcDbLine
 10
27.937007874
 20
35.5
 30
0.0
 11
27.937007874
 21
35.8346456693
 31
0.0
  0
LINE
  5
C8
330
1F
100
AcDbEntity
  8
TITLE
  6
SLD-Solid
370
    18
100
AcDbLine
 10
27.937007874
 20
0.5
 30
0.0
 11
27.937007874
 21
0.1653543307
 31
0.0
  0
LINE
  5
C9
330
1F
100
AcDbEntity
  8
TITLE
  6
SLD-Solid
370
    18
100
AcDbLine
 10
29.905511811
 20
35.5
 30
0.0
 11
29.905511811
 21
35.8346456693
 31
0.0
  0
LINE
  5
CA
330
1F
100
AcDbEntity
  8
TITLE
  6
SLD-Solid
370
    18
100
AcDbLine
 10
29.905511811
 20
0.5
 30
0.0
 11
29.905511811
 21
0.1653543307
 31
0.0
  0
LINE
  5
CB
330
1F
100
AcDbEntity
  8
TITLE
  6
SLD-Solid
370
    18
100
AcDbLine
 10
31.874015748
 20
35.5
 30
0.0
 11
31.874015748
 21
35.8346456693
 31
0.0
  0
LINE
  5
CC
330
1F
100
AcDbEntity
  8
TITLE
  6
SLD-Solid
370
    18
100
AcDbLine
 10
31.874015748
 20
0.5
 30
0.0
 11
31.874015748
 21
0.1653543307
 31
0.0
  0
LINE
  5
CD
330
1F
100
AcDbEntity
  8
TITLE
  6
SLD-Solid
370
    18
100
AcDbLine
 10
33.842519685
 20
35.5
 30
0.0
 11
33.842519685
 21
35.8346456693
 31
0.0
  0
LINE
  5
CE
330
1F
100
AcDbEntity
  8
TITLE
  6
SLD-Solid
370
    18
100
AcDbLine
 10
33.842519685
 20
0.5
 30
0.0
 11
33.842519685
 21
0.1653543307
 31
0.0
  0
LINE
  5
CF
330
1F
100
AcDbEntity
  8
TITLE
  6
SLD-Solid
370
    18
100
AcDbLine
 10
35.811023622
 20
35.5
 30
0.0
 11
35.811023622
 21
35.8346456693
 31
0.0
  0
LINE
  5
D0
330
1F
100
AcDbEntity
  8
TITLE
  6
SLD-Solid
370
    18
100
AcDbLine
 10
35.811023622
 20
0.5
 30
0.0
 11
35.811023622
 21
0.1653543307
 31
0.0
  0
LINE
  5
D1
330
1F
100
AcDbEntity
  8
TITLE
  6
SLD-Solid
370
    18
100
AcDbLine
 10
37.7795275591
 20
35.5
 30
0.0
 11
37.7795275591
 21
35.8346456693
 31
0.0
  0
LINE
  5
D2
330
1F
100
AcDbEntity
  8
TITLE
  6
SLD-Solid
370
    18
100
AcDbLine
 10
37.7795275591
 20
0.5
 30
0.0
 11
37.7795275591
 21
0.1653543307
 31
0.0
  0
LINE
  5
D3
330
1F
100
AcDbEntity
  8
TITLE
  6
SLD-Solid
370
    18
100
AcDbLine
 10
39.7480314961
 20
35.5
 30
0.0
 11
39.7480314961
 21
35.8346456693
 31
0.0
  0
LINE
  5
D4
330
1F
100
AcDbEntity
  8
TITLE
  6
SLD-Solid
370
    18
100
AcDbLine
 10
39.7480314961
 20
0.5
 30
0.0
 11
39.7480314961
 21
0.1653543307
 31
0.0
  0
LINE
  5
D5
330
1F
100
AcDbEntity
  8
TITLE
  6
SLD-Solid
370
    18
100
AcDbLine
 10
41.7165354331
 20
35.5
 30
0.0
 11
41.7165354331
 21
35.8346456693
 31
0.0
  0
LINE
  5
D6
330
1F
100
AcDbEntity
  8
TITLE
  6
SLD-Solid
370
    18
100
AcDbLine
 10
41.7165354331
 20
0.5
 30
0.0
 11
41.7165354331
 21
0.1653543307
 31
0.0
  0
LINE
  5
D7
330
1F
100
AcDbEntity
  8
TITLE
  6
SLD-Solid
370
    18
100
AcDbLine
 10
43.6850393701
 20
35.5
 30
0.0
 11
43.6850393701
 21
35.8346456693
 31
0.0
  0
LINE
  5
D8
330
1F
100
AcDbEntity
  8
TITLE
  6
SLD-Solid
370
    18
100
AcDbLine
 10
43.6850393701
 20
0.5
 30
0.0
 11
43.6850393701
 21
0.1653543307
 31
0.0
  0
LINE
  5
D9
330
1F
100
AcDbEntity
  8
TITLE
  6
SLD-Solid
370
    18
100
AcDbLine
 10
45.6535433071
 20
35.5
 30
0.0
 11
45.6535433071
 21
35.8346456693
 31
0.0
  0
LINE
  5
DA
330
1F
100
AcDbEntity
  8
TITLE
  6
SLD-Solid
370
    18
100
AcDbLine
 10
45.6535433071
 20
0.5
 30
0.0
 11
45.6535433071
 21
0.1653543307
 31
0.0
  0
LINE
  5
DB
330
1F
100
AcDbEntity
  8
TITLE
370
    35
100
AcDbLine
 10
0.5
 20
35.5
 30
0.0
 11
47.5
 21
35.5
 31
0.0
  0
LINE
  5
DC
330
1F
100
AcDbEntity
  8
TITLE
370
    35
100
AcDbLine
 10
0.5
 20
35.5
 30
0.0
 11
0.5
 21
0.5
 31
0.0
  0
LINE
  5
DD
330
1F
100
AcDbEntity
  8
TITLE
370
    35
100
AcDbLine
 10
0.5
 20
0.5
 30
0.0
 11
47.5
 21
0.5
 31
0.0
  0
LINE
  5
DE
330
1F
100
AcDbEntity
  8
TITLE
370
    35
100
AcDbLine
 10
47.5
 20
35.5
 30
0.0
 11
47.5
 21
0.5
 31
0.0
  0
MTEXT
  5
E0
330
1F
100
AcDbEntity
  8
NOTES
100
AcDbMText
 10
9.3852012294
 20
23.4308313554
 30
0.0
 40
0.5
 41
0.0
 71
     1
 72
     1
  1
Top view
  7
SLDTEXTSTYLE0
 73
     1
 44
1.0
  0
MTEXT
  5
E1
330
1F
100
AcDbEntity
  8
NOTES
100
AcDbMText
 10
9.1149110778
 20
8.7912975777
 30
0.0
 40
0.5
 41
0.0
 71
     1
 72
     1
  1
Front view
  7
SLDTEXTSTYLE0
 73
     1
 44
1.0
  0
MTEXT
  5
E2
330
1F
100
AcDbEntity
  8
NOTES
100
AcDbMText
 10
18.3055723362
 20
8.8191158876
 30
0.0
 40
0.5
 41
0.0
 71
     1
 72
     1
  1
Side view
  7
SLDTEXTSTYLE0
 73
     1
 44
1.0
  0
MTEXT
  5
E3
330
1F
100
AcDbEntity
  8
NOTES
100
AcDbMText
 10
28.7993465232
 20
8.7912975777
 30
0.0
 40
0.5
 41
0.0
 71
     1
 72
     1
  1
Back view
  7
SLDTEXTSTYLE0
 73
     1
 44
1.0
  0
INSERT
  5
E9
330
1F
100
AcDbEntity
  8
NOTES
100
AcDbBlockReference
  2
SW_NOTE_0
 10
37.950887062
 20
9.152625764
 30
0.0
  0
MTEXT
  5
EA
330
1F
100
AcDbEntity
  8
NOTES
100
AcDbMText
 10
6.5350673376
 20
6.278816209
 30
0.0
 40
0.5
 41
0.0
 71
     1
 72
     1
  1
Floor
  7
SLDTEXTSTYLE0
 73
     1
 44
1.0
  0
MTEXT
  5
EC
330
1F
100
AcDbEntity
  8
NOTES
100
AcDbMText
 10
24.408297803
 20
1.0702903347
 30
0.0
 40
0.25
 41
0.0
 71
     1
 72
     1
  1
UNLESS OTHERWISE SPECIFIED DIMENSIONS ARE IN INCHES.
  7
SLDTEXTSTYLE1
 73
     1
 44
1.0
  0
MTEXT
  5
ED
330
1F
100
AcDbEntity
  8
NOTES
100
AcDbMText
 10
24.4368251132
 20
3.2193045501
 30
0.0
 40
0.25
 41
0.0
 71
     1
 72
     1
  1
DATE:
  7
SLDTEXTSTYLE1
 73
     1
 44
1.0
  0
MTEXT
  5
EE
330
1F
100
AcDbEntity
  8
NOTES
100
AcDbMText
 10
26.7130669976
 20
2.1722148141
 30
0.0
 40
0.25
 41
0.0
 71
     2
 72
     1
  1
DO NOT SCALE DRAWING
  7
SLDTEXTSTYLE1
 73
     1
 44
1.0
  0
MTEXT
  5
EF
330
1F
100
AcDbEntity
  8
NOTES
100
AcDbMText
 10
30.8307373075
 20
3.2682755553
 30
0.0
 40
0.25
 41
0.0
 71
     1
 72
     1
  1
TITLE:
  7
SLDTEXTSTYLE0
 73
     1
 44
1.0
  0
MTEXT
  5
F0
330
1F
100
AcDbEntity
  8
NOTES
100
AcDbMText
 10
38.1561831052
 20
3.2682755553
 30
0.0
 40
0.25
 41
0.0
 71
     1
 72
     1
  1
DWG NO.
  7
SLDTEXTSTYLE0
 73
     1
 44
1.0
  0
MTEXT
  5
F1
330
1F
100
AcDbEntity
  8
NOTES
100
AcDbMText
 10
38.1831753203
 20
1.0645815577
 30
0.0
 40
0.25
 41
0.0
 71
     1
 72
     1
  1
SCALE:     1:1
  7
SLDTEXTSTYLE0
 73
     1
 44
1.0
  0
MTEXT
  5
F2
330
1F
100
AcDbEntity
  8
NOTES
100
AcDbMText
 10
42.1660139613
 20
2.6510344295
 30
0.0
 40
0.25
 41
0.0
 71
     2
 72
     1
  1
708-A CAD
  7
SLDTEXTSTYLE0
 73
     1
 44
1.0
  0
MTEXT
  5
F3
330
1F
100
AcDbEntity
  8
NOTES
100
AcDbMText
 10
33.9366951591
 20
2.6388861441
 30
0.0
 40
0.25
 41
0.0
 71
     2
 72
     1
  1
708-A
  7
SLDTEXTSTYLE0
 73
     1
 44
1.0
  0
INSERT
  5
F9
330
1F
100
AcDbEntity
  8
NOTES
100
AcDbBlockReference
  2
SW_NOTE_0_1
 10
38.266131557
 20
4.6105227838
 30
0.0
  0
INSERT
  5
103
330
1F
100
AcDbEntity
  8
NOTES
100
AcDbBlockReference
  2
SW_NOTE_0_2
 10
24.6159726246
 20
5.1481526848
 30
0.0
  0
MTEXT
  5
104
330
1F
100
AcDbEntity
  8
NOTES
100
AcDbMText
 10
27.5286275485
 20
3.2135957731
 30
0.0
 40
0.25
 41
0.0
 71
     2
 72
     1
  1
October 14, 2021
  7
SLDTEXTSTYLE0
 73
     1
 44
1.0
  0
MTEXT
  5
105
330
1F
100
AcDbEntity
  8
TITLE
100
AcDbMText
 10
0.3276279776
 20
1.4558621965
 30
0.0
 40
0.125
 41
0.0
 71
     2
 72
     1
  1
A
  7
SLDTEXTSTYLE0
 73
     1
 44
1.0
  0
MTEXT
  5
106
330
1F
100
AcDbEntity
  8
TITLE
100
AcDbMText
 10
47.6622736469
 20
1.4558621965
 30
0.0
 40
0.125
 41
0.0
 71
     2
 72
     1
  1
A
  7
SLDTEXTSTYLE0
 73
     1
 44
1.0
  0
MTEXT
  5
107
330
1F
100
AcDbEntity
  8
TITLE
100
AcDbMText
 10
0.3317512413
 20
3.316098417
 30
0.0
 40
0.125
 41
0.0
 71
     2
 72
     1
  1
B
  7
SLDTEXTSTYLE0
 73
     1
 44
1.0
  0
MTEXT
  5
108
330
1F
100
AcDbEntity
  8
TITLE
100
AcDbMText
 10
47.6663969106
 20
3.316098417
 30
0.0
 40
0.125
 41
0.0
 71
     2
 72
     1
  1
B
  7
SLDTEXTSTYLE0
 73
     1
 44
1.0
  0
MTEXT
  5
109
330
1F
100
AcDbEntity
  8
TITLE
100
AcDbMText
 10
0.3313750817
 20
5.284602354
 30
0.0
 40
0.125
 41
0.0
 71
     2
 72
     1
  1
C
  7
SLDTEXTSTYLE0
 73
     1
 44
1.0
  0
MTEXT
  5
10A
330
1F
100
AcDbEntity
  8
TITLE
100
AcDbMText
 10
47.666020751
 20
5.284602354
 30
0.0
 40
0.125
 41
0.0
 71
     2
 72
     1
  1
C
  7
SLDTEXTSTYLE0
 73
     1
 44
1.0
  0
MTEXT
  5
10B
330
1F
100
AcDbEntity
  8
TITLE
100
AcDbMText
 10
0.3311870028
 20
7.253106291
 30
0.0
 40
0.125
 41
0.0
 71
     2
 72
     1
  1
D
  7
SLDTEXTSTYLE0
 73
     1
 44
1.0
  0
MTEXT
  5
10C
330
1F
100
AcDbEntity
  8
TITLE
100
AcDbMText
 10
47.6658326721
 20
7.253106291
 30
0.0
 40
0.125
 41
0.0
 71
     2
 72
     1
  1
D
  7
SLDTEXTSTYLE0
 73
     1
 44
1.0
  0
MTEXT
  5
10D
330
1F
100
AcDbEntity
  8
TITLE
100
AcDbMText
 10
0.332923116
 20
9.221610228
 30
0.0
 40
0.125
 41
0.0
 71
     2
 72
     1
  1
E
  7
SLDTEXTSTYLE0
 73
     1
 44
1.0
  0
MTEXT
  5
10E
330
1F
100
AcDbEntity
  8
TITLE
100
AcDbMText
 10
47.6675687853
 20
9.221610228
 30
0.0
 40
0.125
 41
0.0
 71
     2
 72
     1
  1
E
  7
SLDTEXTSTYLE0
 73
     1
 44
1.0
  0
MTEXT
  5
10F
330
1F
100
AcDbEntity
  8
TITLE
100
AcDbMText
 10
0.3313461474
 20
11.190114165
 30
0.0
 40
0.125
 41
0.0
 71
     2
 72
     1
  1
F
  7
SLDTEXTSTYLE0
 73
     1
 44
1.0
  0
MTEXT
  5
110
330
1F
100
AcDbEntity
  8
TITLE
100
AcDbMText
 10
47.6659918167
 20
11.190114165
 30
0.0
 40
0.125
 41
0.0
 71
     2
 72
     1
  1
F
  7
SLDTEXTSTYLE0
 73
     1
 44
1.0
  0
MTEXT
  5
111
330
1F
100
AcDbEntity
  8
TITLE
100
AcDbMText
 10
0.3322576054
 20
13.158618102
 30
0.0
 40
0.125
 41
0.0
 71
     2
 72
     1
  1
G
  7
SLDTEXTSTYLE0
 73
     1
 44
1.0
  0
MTEXT
  5
112
330
1F
100
AcDbEntity
  8
TITLE
100
AcDbMText
 10
47.6669032747
 20
13.158618102
 30
0.0
 40
0.125
 41
0.0
 71
     2
 72
     1
  1
G
  7
SLDTEXTSTYLE0
 73
     1
 44
1.0
  0
MTEXT
  5
113
330
1F
100
AcDbEntity
  8
TITLE
100
AcDbMText
 10
0.3323733457
 20
15.127122039
 30
0.0
 40
0.125
 41
0.0
 71
     2
 72
     1
  1
H
  7
SLDTEXTSTYLE0
 73
     1
 44
1.0
  0
MTEXT
  5
114
330
1F
100
AcDbEntity
  8
TITLE
100
AcDbMText
 10
47.667019015
 20
15.127122039
 30
0.0
 40
0.125
 41
0.0
 71
     2
 72
     1
  1
H
  7
SLDTEXTSTYLE0
 73
     1
 44
1.0
  0
MTEXT
  5
115
330
1F
100
AcDbEntity
  8
TITLE
100
AcDbMText
 10
0.3315776306
 20
17.095625976
 30
0.0
 40
0.125
 41
0.0
 71
     2
 72
     1
  1
J
  7
SLDTEXTSTYLE0
 73
     1
 44
1.0
  0
MTEXT
  5
116
330
1F
100
AcDbEntity
  8
TITLE
100
AcDbMText
 10
47.6662232999
 20
17.095625976
 30
0.0
 40
0.125
 41
0.0
 71
     2
 72
     1
  1
J
  7
SLDTEXTSTYLE0
 73
     1
 44
1.0
  0
MTEXT
  5
117
330
1F
100
AcDbEntity
  8
TITLE
100
AcDbMText
 10
0.3323154765
 20
19.064129913
 30
0.0
 40
0.125
 41
0.0
 71
     2
 72
     1
  1
K
  7
SLDTEXTSTYLE0
 73
     1
 44
1.0
  0
MTEXT
  5
118
330
1F
100
AcDbEntity
  8
TITLE
100
AcDbMText
 10
47.6669611458
 20
19.064129913
 30
0.0
 40
0.125
 41
0.0
 71
     2
 72
     1
  1
K
  7
SLDTEXTSTYLE0
 73
     1
 44
1.0
  0
MTEXT
  5
119
330
1F
100
AcDbEntity
  8
TITLE
100
AcDbMText
 10
0.3312448739
 20
21.03263385
 30
0.0
 40
0.125
 41
0.0
 71
     2
 72
     1
  1
L
  7
SLDTEXTSTYLE0
 73
     1
 44
1.0
  0
MTEXT
  5
11A
330
1F
100
AcDbEntity
  8
TITLE
100
AcDbMText
 10
47.6658905432
 20
21.03263385
 30
0.0
 40
0.125
 41
0.0
 71
     2
 72
     1
  1
L
  7
SLDTEXTSTYLE0
 73
     1
 44
1.0
  0
MTEXT
  5
11B
330
1F
100
AcDbEntity
  8
TITLE
100
AcDbMText
 10
0.3283224192
 20
23.001137787
 30
0.0
 40
0.125
 41
0.0
 71
     2
 72
     1
  1
M
  7
SLDTEXTSTYLE0
 73
     1
 44
1.0
  0
MTEXT
  5
11C
330
1F
100
AcDbEntity
  8
TITLE
100
AcDbMText
 10
47.6629680885
 20
23.001137787
 30
0.0
 40
0.125
 41
0.0
 71
     2
 72
     1
  1
M
  7
SLDTEXTSTYLE0
 73
     1
 44
1.0
  0
MTEXT
  5
11D
330
1F
100
AcDbEntity
  8
TITLE
100
AcDbMText
 10
0.3315342276
 20
24.969641724
 30
0.0
 40
0.125
 41
0.0
 71
     2
 72
     1
  1
N
  7
SLDTEXTSTYLE0
 73
     1
 44
1.0
  0
MTEXT
  5
11E
330
1F
100
AcDbEntity
  8
TITLE
100
AcDbMText
 10
47.6661798969
 20
24.969641724
 30
0.0
 40
0.125
 41
0.0
 71
     2
 72
     1
  1
N
  7
SLDTEXTSTYLE0
 73
     1
 44
1.0
  0
MTEXT
  5
11F
330
1F
100
AcDbEntity
  8
TITLE
100
AcDbMText
 10
0.3321997349
 20
26.9381456611
 30
0.0
 40
0.125
 41
0.0
 71
     2
 72
     1
  1
P
  7
SLDTEXTSTYLE0
 73
     1
 44
1.0
  0
MTEXT
  5
120
330
1F
100
AcDbEntity
  8
TITLE
100
AcDbMText
 10
47.6668454042
 20
26.9381456611
 30
0.0
 40
0.125
 41
0.0
 71
     2
 72
     1
  1
P
  7
SLDTEXTSTYLE0
 73
     1
 44
1.0
  0
MTEXT
  5
121
330
1F
100
AcDbEntity
  8
TITLE
100
AcDbMText
 10
0.3309265867
 20
28.9066495981
 30
0.0
 40
0.125
 41
0.0
 71
     2
 72
     1
  1
R
  7
SLDTEXTSTYLE0
 73
     1
 44
1.0
  0
MTEXT
  5
122
330
1F
100
AcDbEntity
  8
TITLE
100
AcDbMText
 10
47.665572256
 20
28.9066495981
 30
0.0
 40
0.125
 41
0.0
 71
     2
 72
     1
  1
R
  7
SLDTEXTSTYLE0
 73
     1
 44
1.0
  0
MTEXT
  5
123
330
1F
100
AcDbEntity
  8
TITLE
100
AcDbMText
 10
0.3323010071
 20
30.8751535351
 30
0.0
 40
0.125
 41
0.0
 71
     2
 72
     1
  1
T
  7
SLDTEXTSTYLE0
 73
     1
 44
1.0
  0
MTEXT
  5
124
330
1F
100
AcDbEntity
  8
TITLE
100
AcDbMText
 10
47.6669466764
 20
30.8751535351
 30
0.0
 40
0.125
 41
0.0
 71
     2
 72
     1
  1
T
  7
SLDTEXTSTYLE0
 73
     1
 44
1.0
  0
MTEXT
  5
125
330
1F
100
AcDbEntity
  8
TITLE
100
AcDbMText
 10
0.3328507755
 20
32.8436574721
 30
0.0
 40
0.125
 41
0.0
 71
     2
 72
     1
  1
U
  7
SLDTEXTSTYLE0
 73
     1
 44
1.0
  0
MTEXT
  5
126
330
1F
100
AcDbEntity
  8
TITLE
100
AcDbMText
 10
47.6674964448
 20
32.8436574721
 30
0.0
 40
0.125
 41
0.0
 71
     2
 72
     1
  1
U
  7
SLDTEXTSTYLE0
 73
     1
 44
1.0
  0
MTEXT
  5
127
330
1F
100
AcDbEntity
  8
TITLE
100
AcDbMText
 10
0.3307529773
 20
34.7038936925
 30
0.0
 40
0.125
 41
0.0
 71
     2
 72
     1
  1
V
  7
SLDTEXTSTYLE0
 73
     1
 44
1.0
  0
MTEXT
  5
128
330
1F
100
AcDbEntity
  8
TITLE
100
AcDbMText
 10
47.6653986466
 20
34.7038936925
 30
0.0
 40
0.125
 41
0.0
 71
     2
 72
     1
  1
V
  7
SLDTEXTSTYLE0
 73
     1
 44
1.0
  0
MTEXT
  5
129
330
1F
100
AcDbEntity
  8
TITLE
100
AcDbMText
 10
1.4207109851
 20
0.4125551099
 30
0.0
 40
0.125
 41
0.0
 71
     2
 72
     1
  1
24
  7
SLDTEXTSTYLE0
 73
     1
 44
1.0
  0
MTEXT
  5
12A
330
1F
100
AcDbEntity
  8
TITLE
100
AcDbMText
 10
1.4207109851
 20
35.7472007792
 30
0.0
 40
0.125
 41
0.0
 71
     2
 72
     1
  1
24
  7
SLDTEXTSTYLE0
 73
     1
 44
1.0
  0
MTEXT
  5
12B
330
1F
100
AcDbEntity
  8
TITLE
100
AcDbMText
 10
3.3281913
 20
0.4125551099
 30
0.0
 40
0.125
 41
0.0
 71
     2
 72
     1
  1
23
  7
SLDTEXTSTYLE0
 73
     1
 44
1.0
  0
MTEXT
  5
12C
330
1F
100
AcDbEntity
  8
TITLE
100
AcDbMText
 10
3.3281913
 20
35.7472007792
 30
0.0
 40
0.125
 41
0.0
 71
     2
 72
     1
  1
23
  7
SLDTEXTSTYLE0
 73
     1
 44
1.0
  0
MTEXT
  5
12D
330
1F
100
AcDbEntity
  8
TITLE
100
AcDbMText
 10
5.2966952371
 20
0.4125551099
 30
0.0
 40
0.125
 41
0.0
 71
     2
 72
     1
  1
22
  7
SLDTEXTSTYLE0
 73
     1
 44
1.0
  0
MTEXT
  5
12E
330
1F
100
AcDbEntity
  8
TITLE
100
AcDbMText
 10
5.2966952371
 20
35.7472007792
 30
0.0
 40
0.125
 41
0.0
 71
     2
 72
     1
  1
22
  7
SLDTEXTSTYLE0
 73
     1
 44
1.0
  0
MTEXT
  5
12F
330
1F
100
AcDbEntity
  8
TITLE
100
AcDbMText
 10
7.2651991741
 20
0.4125551099
 30
0.0
 40
0.125
 41
0.0
 71
     2
 72
     1
  1
21
  7
SLDTEXTSTYLE0
 73
     1
 44
1.0
  0
MTEXT
  5
130
330
1F
100
AcDbEntity
  8
TITLE
100
AcDbMText
 10
7.2651991741
 20
35.7472007792
 30
0.0
 40
0.125
 41
0.0
 71
     2
 72
     1
  1
21
  7
SLDTEXTSTYLE0
 73
     1
 44
1.0
  0
MTEXT
  5
131
330
1F
100
AcDbEntity
  8
TITLE
100
AcDbMText
 10
9.2337031111
 20
0.4125551099
 30
0.0
 40
0.125
 41
0.0
 71
     2
 72
     1
  1
20
  7
SLDTEXTSTYLE0
 73
     1
 44
1.0
  0
MTEXT
  5
132
330
1F
100
AcDbEntity
  8
TITLE
100
AcDbMText
 10
9.2337031111
 20
35.7472007792
 30
0.0
 40
0.125
 41
0.0
 71
     2
 72
     1
  1
20
  7
SLDTEXTSTYLE0
 73
     1
 44
1.0
  0
MTEXT
  5
133
330
1F
100
AcDbEntity
  8
TITLE
100
AcDbMText
 10
11.2022070481
 20
0.4125551099
 30
0.0
 40
0.125
 41
0.0
 71
     2
 72
     1
  1
19
  7
SLDTEXTSTYLE0
 73
     1
 44
1.0
  0
MTEXT
  5
134
330
1F
100
AcDbEntity
  8
TITLE
100
AcDbMText
 10
11.2022070481
 20
35.7472007792
 30
0.0
 40
0.125
 41
0.0
 71
     2
 72
     1
  1
19
  7
SLDTEXTSTYLE0
 73
     1
 44
1.0
  0
MTEXT
  5
135
330
1F
100
AcDbEntity
  8
TITLE
100
AcDbMText
 10
13.1707109851
 20
0.4125551099
 30
0.0
 40
0.125
 41
0.0
 71
     2
 72
     1
  1
18
  7
SLDTEXTSTYLE0
 73
     1
 44
1.0
  0
MTEXT
  5
136
330
1F
100
AcDbEntity
  8
TITLE
100
AcDbMText
 10
13.1707109851
 20
35.7472007792
 30
0.0
 40
0.125
 41
0.0
 71
     2
 72
     1
  1
18
  7
SLDTEXTSTYLE0
 73
     1
 44
1.0
  0
MTEXT
  5
137
330
1F
100
AcDbEntity
  8
TITLE
100
AcDbMText
 10
15.1392149221
 20
0.4125551099
 30
0.0
 40
0.125
 41
0.0
 71
     2
 72
     1
  1
17
  7
SLDTEXTSTYLE0
 73
     1
 44
1.0
  0
MTEXT
  5
138
330
1F
100
AcDbEntity
  8
TITLE
100
AcDbMText
 10
15.1392149221
 20
35.7472007792
 30
0.0
 40
0.125
 41
0.0
 71
     2
 72
     1
  1
17
  7
SLDTEXTSTYLE0
 73
     1
 44
1.0
  0
MTEXT
  5
139
330
1F
100
AcDbEntity
  8
TITLE
100
AcDbMText
 10
17.1077188591
 20
0.4125551099
 30
0.0
 40
0.125
 41
0.0
 71
     2
 72
     1
  1
16
  7
SLDTEXTSTYLE0
 73
     1
 44
1.0
  0
MTEXT
  5
13A
330
1F
100
AcDbEntity
  8
TITLE
100
AcDbMText
 10
17.1077188591
 20
35.7472007792
 30
0.0
 40
0.125
 41
0.0
 71
     2
 72
     1
  1
16
  7
SLDTEXTSTYLE0
 73
     1
 44
1.0
  0
MTEXT
  5
13B
330
1F
100
AcDbEntity
  8
TITLE
100
AcDbMText
 10
19.0762227961
 20
0.4125551099
 30
0.0
 40
0.125
 41
0.0
 71
     2
 72
     1
  1
15
  7
SLDTEXTSTYLE0
 73
     1
 44
1.0
  0
MTEXT
  5
13C
330
1F
100
AcDbEntity
  8
TITLE
100
AcDbMText
 10
19.0762227961
 20
35.7472007792
 30
0.0
 40
0.125
 41
0.0
 71
     2
 72
     1
  1
15
  7
SLDTEXTSTYLE0
 73
     1
 44
1.0
  0
MTEXT
  5
13D
330
1F
100
AcDbEntity
  8
TITLE
100
AcDbMText
 10
21.0447267331
 20
0.4125551099
 30
0.0
 40
0.125
 41
0.0
 71
     2
 72
     1
  1
14
  7
SLDTEXTSTYLE0
 73
     1
 44
1.0
  0
MTEXT
  5
13E
330
1F
100
AcDbEntity
  8
TITLE
100
AcDbMText
 10
21.0447267331
 20
35.7472007792
 30
0.0
 40
0.125
 41
0.0
 71
     2
 72
     1
  1
14
  7
SLDTEXTSTYLE0
 73
     1
 44
1.0
  0
MTEXT
  5
13F
330
1F
100
AcDbEntity
  8
TITLE
100
AcDbMText
 10
23.0132306701
 20
0.4125551099
 30
0.0
 40
0.125
 41
0.0
 71
     2
 72
     1
  1
13
  7
SLDTEXTSTYLE0
 73
     1
 44
1.0
  0
MTEXT
  5
140
330
1F
100
AcDbEntity
  8
TITLE
100
AcDbMText
 10
23.0132306701
 20
35.7472007792
 30
0.0
 40
0.125
 41
0.0
 71
     2
 72
     1
  1
13
  7
SLDTEXTSTYLE0
 73
     1
 44
1.0
  0
MTEXT
  5
141
330
1F
100
AcDbEntity
  8
TITLE
100
AcDbMText
 10
24.9817346071
 20
0.4125551099
 30
0.0
 40
0.125
 41
0.0
 71
     2
 72
     1
  1
12
  7
SLDTEXTSTYLE0
 73
     1
 44
1.0
  0
MTEXT
  5
142
330
1F
100
AcDbEntity
  8
TITLE
100
AcDbMText
 10
24.9817346071
 20
35.7472007792
 30
0.0
 40
0.125
 41
0.0
 71
     2
 72
     1
  1
12
  7
SLDTEXTSTYLE0
 73
     1
 44
1.0
  0
MTEXT
  5
143
330
1F
100
AcDbEntity
  8
TITLE
100
AcDbMText
 10
26.9502385441
 20
0.4125551099
 30
0.0
 40
0.125
 41
0.0
 71
     2
 72
     1
  1
11
  7
SLDTEXTSTYLE0
 73
     1
 44
1.0
  0
MTEXT
  5
144
330
1F
100
AcDbEntity
  8
TITLE
100
AcDbMText
 10
26.9502385441
 20
35.7472007792
 30
0.0
 40
0.125
 41
0.0
 71
     2
 72
     1
  1
11
  7
SLDTEXTSTYLE0
 73
     1
 44
1.0
  0
MTEXT
  5
145
330
1F
100
AcDbEntity
  8
TITLE
100
AcDbMText
 10
28.9187424811
 20
0.4125551099
 30
0.0
 40
0.125
 41
0.0
 71
     2
 72
     1
  1
10
  7
SLDTEXTSTYLE0
 73
     1
 44
1.0
  0
MTEXT
  5
146
330
1F
100
AcDbEntity
  8
TITLE
100
AcDbMText
 10
28.9187424811
 20
35.7472007792
 30
0.0
 40
0.125
 41
0.0
 71
     2
 72
     1
  1
10
  7
SLDTEXTSTYLE0
 73
     1
 44
1.0
  0
MTEXT
  5
147
330
1F
100
AcDbEntity
  8
TITLE
100
AcDbMText
 10
30.8885050988
 20
0.4125551099
 30
0.0
 40
0.125
 41
0.0
 71
     2
 72
     1
  1
9
  7
SLDTEXTSTYLE0
 73
     1
 44
1.0
  0
MTEXT
  5
148
330
1F
100
AcDbEntity
  8
TITLE
100
AcDbMText
 10
30.8885050988
 20
35.7472007792
 30
0.0
 40
0.125
 41
0.0
 71
     2
 72
     1
  1
9
  7
SLDTEXTSTYLE0
 73
     1
 44
1.0
  0
MTEXT
  5
149
330
1F
100
AcDbEntity
  8
TITLE
100
AcDbMText
 10
32.8570090359
 20
0.4125551099
 30
0.0
 40
0.125
 41
0.0
 71
     2
 72
     1
  1
8
  7
SLDTEXTSTYLE0
 73
     1
 44
1.0
  0
MTEXT
  5
14A
330
1F
100
AcDbEntity
  8
TITLE
100
AcDbMText
 10
32.8570090359
 20
35.7472007792
 30
0.0
 40
0.125
 41
0.0
 71
     2
 72
     1
  1
8
  7
SLDTEXTSTYLE0
 73
     1
 44
1.0
  0
MTEXT
  5
14B
330
1F
100
AcDbEntity
  8
TITLE
100
AcDbMText
 10
34.8255129729
 20
0.4125551099
 30
0.0
 40
0.125
 41
0.0
 71
     2
 72
     1
  1
7
  7
SLDTEXTSTYLE0
 73
     1
 44
1.0
  0
MTEXT
  5
14C
330
1F
100
AcDbEntity
  8
TITLE
100
AcDbMText
 10
34.8255129729
 20
35.7472007792
 30
0.0
 40
0.125
 41
0.0
 71
     2
 72
     1
  1
7
  7
SLDTEXTSTYLE0
 73
     1
 44
1.0
  0
MTEXT
  5
14D
330
1F
100
AcDbEntity
  8
TITLE
100
AcDbMText
 10
36.7940169099
 20
0.4125551099
 30
0.0
 40
0.125
 41
0.0
 71
     2
 72
     1
  1
6
  7
SLDTEXTSTYLE0
 73
     1
 44
1.0
  0
MTEXT
  5
14E
330
1F
100
AcDbEntity
  8
TITLE
100
AcDbMText
 10
36.7940169099
 20
35.7472007792
 30
0.0
 40
0.125
 41
0.0
 71
     2
 72
     1
  1
6
  7
SLDTEXTSTYLE0
 73
     1
 44
1.0
  0
MTEXT
  5
14F
330
1F
100
AcDbEntity
  8
TITLE
100
AcDbMText
 10
38.7625208469
 20
0.4125551099
 30
0.0
 40
0.125
 41
0.0
 71
     2
 72
     1
  1
5
  7
SLDTEXTSTYLE0
 73
     1
 44
1.0
  0
MTEXT
  5
150
330
1F
100
AcDbEntity
  8
TITLE
100
AcDbMText
 10
38.7625208469
 20
35.7472007792
 30
0.0
 40
0.125
 41
0.0
 71
     2
 72
     1
  1
5
  7
SLDTEXTSTYLE0
 73
     1
 44
1.0
  0
MTEXT
  5
151
330
1F
100
AcDbEntity
  8
TITLE
100
AcDbMText
 10
40.7310247839
 20
0.4125551099
 30
0.0
 40
0.125
 41
0.0
 71
     2
 72
     1
  1
4
  7
SLDTEXTSTYLE0
 73
     1
 44
1.0
  0
MTEXT
  5
152
330
1F
100
AcDbEntity
  8
TITLE
100
AcDbMText
 10
40.7310247839
 20
35.7472007792
 30
0.0
 40
0.125
 41
0.0
 71
     2
 72
     1
  1
4
  7
SLDTEXTSTYLE0
 73
     1
 44
1.0
  0
MTEXT
  5
153
330
1F
100
AcDbEntity
  8
TITLE
100
AcDbMText
 10
42.6995287209
 20
0.4125551099
 30
0.0
 40
0.125
 41
0.0
 71
     2
 72
     1
  1
3
  7
SLDTEXTSTYLE0
 73
     1
 44
1.0
  0
MTEXT
  5
154
330
1F
100
AcDbEntity
  8
TITLE
100
AcDbMText
 10
42.6995287209
 20
35.7472007792
 30
0.0
 40
0.125
 41
0.0
 71
     2
 72
     1
  1
3
  7
SLDTEXTSTYLE0
 73
     1
 44
1.0
  0
MTEXT
  5
155
330
1F
100
AcDbEntity
  8
TITLE
100
AcDbMText
 10
44.6680326579
 20
0.4125551099
 30
0.0
 40
0.125
 41
0.0
 71
     2
 72
     1
  1
2
  7
SLDTEXTSTYLE0
 73
     1
 44
1.0
  0
MTEXT
  5
156
330
1F
100
AcDbEntity
  8
TITLE
100
AcDbMText
 10
44.6680326579
 20
35.7472007792
 30
0.0
 40
0.125
 41
0.0
 71
     2
 72
     1
  1
2
  7
SLDTEXTSTYLE0
 73
     1
 44
1.0
  0
MTEXT
  5
157
330
1F
100
AcDbEntity
  8
TITLE
100
AcDbMText
 10
46.5755129729
 20
0.4125551099
 30
0.0
 40
0.125
 41
0.0
 71
     2
 72
     1
  1
1
  7
SLDTEXTSTYLE0
 73
     1
 44
1.0
  0
MTEXT
  5
158
330
1F
100
AcDbEntity
  8
TITLE
100
AcDbMText
 10
46.5755129729
 20
35.7472007792
 30
0.0
 40
0.125
 41
0.0
 71
     2
 72
     1
  1
1
  7
SLDTEXTSTYLE0
 73
     1
 44
1.0
  0
LINE
  5
159
330
1F
100
AcDbEntity
  8
0
  6
SLD-Solid
 62
     7
370
    25
100
AcDbLine
 10
10.8686414492
 20
10.5670954858
 30
0.0
 11
10.8686414492
 21
10.7070954858
 31
0.0
  0
LINE
  5
15A
330
1F
100
AcDbEntity
  8
0
  6
SLD-Solid
 62
     7
370
    25
100
AcDbLine
 10
10.6286414492
 20
10.7070954858
 30
0.0
 11
10.6286414492
 21
10.5670954858
 31
0.0
  0
ARC
  5
15B
330
1F
100
AcDbEntity
  8
0
  6
SLD-Solid
 62
     7
370
    25
100
AcDbCircle
 10
11.3305125113
 20
11.7620954858
 30
0.0
 40
0.125000000000002
100
AcDbArc
 50
350.0740990675
 51
90.0
  0
LINE
  5
15C
330
1F
100
AcDbEntity
  8
0
  6
SLD-Solid
 62
     7
370
    25
100
AcDbLine
 10
10.1667703872
 20
11.8870954858
 30
0.0
 11
11.3305125113
 21
11.8870954858
 31
0.0
  0
CIRCLE
  5
15D
330
1F
100
AcDbEntity
  8
0
  6
SLD-Solid
 62
     7
370
    25
100
AcDbCircle
 10
10.7486414492
 20
11.2970954858
 30
0.0
 40
0.2500000000000018
  0
ARC
  5
15E
330
1F
100
AcDbEntity
  8
0
  6
SLD-Solid
 62
     7
370
    25
100
AcDbCircle
 10
11.1677682755
 20
10.8320954858
 30
0.0
 40
0.1250000000000018
100
AcDbArc
 50
270.0
 51
350.0740990675
  0
ARC
  5
15F
330
1F
100
AcDbEntity
  8
0
  6
SLD-Solid
 62
     7
370
    25
100
AcDbCircle
 10
10.329514623
 20
10.8320954858
 30
0.0
 40
0.1250000000000018
100
AcDbArc
 50
189.9259009325
 51
270.0
  0
LINE
  5
160
330
1F
100
AcDbEntity
  8
0
  6
SLD-Solid
 62
     7
370
    25
100
AcDbLine
 10
10.6659915854
 20
10.7070954858
 30
0.0
 11
10.329514623
 21
10.7070954858
 31
0.0
  0
LINE
  5
161
330
1F
100
AcDbEntity
  8
0
  6
SLD-Solid
 62
     7
370
    25
100
AcDbLine
 10
11.1677682755
 20
10.7070954858
 30
0.0
 11
10.8312913131
 21
10.7070954858
 31
0.0
  0
SPLINE
  5
162
330
1F
100
AcDbEntity
  8
0
  6
SLD-Solid
 62
     7
370
    25
100
AcDbSpline
210
0.0
220
0.0
230
1.0
 70
     8
 71
     3
 72
    20
 73
    16
 74
     0
 42
0.00000001
 43
0.00000001
 40
0.0
 40
0.0
 40
0.0
 40
0.0
 40
0.1250000000000004
 40
0.1250000000000004
 40
0.2500000000000009
 40
0.2500000000000009
 40
0.3750000000000013
 40
0.3750000000000013
 40
0.5000000000000017
 40
0.5000000000000017
 40
0.6250000000000021
 40
0.6250000000000021
 40
0.7500000000000026
 40
0.7500000000000026
 40
1.0
 40
1.0
 40
1.0
 40
1.0
 10
10.66599158536163
 20
10.70709548581092
 30
0.0
 10
10.67156047971752
 20
10.70709548581092
 30
0.0
 10
10.67753081127847
 20
10.70742505878262
 30
0.0
 10
10.6902493338132
 20
10.70834585278637
 30
0.0
 10
10.69706866886805
 20
10.70894559243484
 30
0.0
 10
10.71118818981559
 20
10.71006994515631
 30
0.0
 10
10.71843493994571
 20
10.71058889712392
 30
0.0
 10
10.7333107173268
 20
10.71132027339469
 30
0.0
 10
10.74101217700391
 20
10.71152938425061
 30
0.0
 10
10.75618236245508
 20
10.71153091294965
 30
0.0
 10
10.7637100496008
 20
10.71132982746289
 30
0.0
 10
10.77865121255557
 20
10.7106018032645
 30
0.0
 10
10.78603211055159
 20
10.71007439760962
 30
0.0
 10
10.8070877834663
 20
10.70839929681567
 30
0.0
 10
10.82015986384876
 20
10.70709548581092
 30
0.0
 10
10.8312913131291
 20
10.70709548581092
 30
0.0
  0
LINE
  5
163
330
1F
100
AcDbEntity
  8
0
  6
SLD-Solid
 62
     7
370
    25
100
AcDbLine
 10
10.206385685
 20
10.8105486848
 30
0.0
 11
10.0436414492
 21
11.7405486848
 31
0.0
  0
LINE
  5
164
330
1F
100
AcDbEntity
  8
0
  6
SLD-Solid
 62
     7
370
    25
100
AcDbLine
 10
11.4536414492
 20
11.7405486848
 30
0.0
 11
11.2908972135
 21
10.8105486848
 31
0.0
  0
ARC
  5
165
330
1F
100
AcDbEntity
  8
0
  6
SLD-Solid
 62
     7
370
    25
100
AcDbCircle
 10
10.1667703872
 20
11.7620954858
 30
0.0
 40
0.125000000000002
100
AcDbArc
 50
90.0
 51
189.9259009325
  0
LINE
  5
166
330
1F
100
AcDbEntity
  8
0
  6
SLD-Solid
 62
     7
370
    25
100
AcDbLine
 10
10.8686414492
 20
10.5670954858
 30
0.0
 11
10.6286414492
 21
10.5670954858
 31
0.0
  0
CIRCLE
  5
167
330
1F
100
AcDbEntity
  8
0
  6
SLD-Solid
 62
     7
370
    25
100
AcDbCircle
 10
10.7486414492
 20
12.3990954858
 30
0.0
 40
0.4415000000000013
  0
LINE
  5
168
330
1F
100
AcDbEntity
  8
0
  6
SLD-Solid
 62
     7
370
    25
100
AcDbLine
 10
12.6699012918
 20
10.2895954858
 30
0.0
 11
8.8273816067
 21
10.2895954858
 31
0.0
  0
ARC
  5
169
330
1F
100
AcDbEntity
  8
0
  6
SLD-Solid
 62
     7
370
    25
100
AcDbCircle
 10
8.8273816067
 20
17.8115718638
 30
0.0
 40
0.333000000000002
100
AcDbArc
 50
90.0
 51
180.0
  0
LINE
  5
16A
330
1F
100
AcDbEntity
  8
0
  6
SLD-Solid
 62
     7
370
    25
100
AcDbLine
 10
8.4943816067
 20
10.6225954858
 30
0.0
 11
8.4943816067
 21
17.8115718638
 31
0.0
  0
ARC
  5
16B
330
1F
100
AcDbEntity
  8
0
  6
SLD-Solid
 62
     7
370
    25
100
AcDbCircle
 10
12.6699012918
 20
10.6225954858
 30
0.0
 40
0.333000000000002
100
AcDbArc
 50
270.0
 51
0.0
  0
LINE
  5
16C
330
1F
100
AcDbEntity
  8
0
  6
SLD-Solid
 62
     7
370
    25
100
AcDbLine
 10
8.8273816067
 20
18.1445718638
 30
0.0
 11
12.6699012918
 21
18.1445718638
 31
0.0
  0
ARC
  5
16D
330
1F
100
AcDbEntity
  8
0
  6
SLD-Solid
 62
     7
370
    25
100
AcDbCircle
 10
12.6699012918
 20
17.8115718638
 30
0.0
 40
0.333000000000002
100
AcDbArc
 50
0.0
 51
90.0
  0
LINE
  5
16E
330
1F
100
AcDbEntity
  8
0
  6
SLD-Solid
 62
     7
370
    25
100
AcDbLine
 10
13.0029012918
 20
17.8115718638
 30
0.0
 11
13.0029012918
 21
10.6225954858
 31
0.0
  0
ARC
  5
16F
330
1F
100
AcDbEntity
  8
0
  6
SLD-Solid
 62
     7
370
    25
100
AcDbCircle
 10
8.8273816067
 20
10.6225954858
 30
0.0
 40
0.333000000000002
100
AcDbArc
 50
180.0
 51
270.0
  0
LINE
  5
170
330
1F
100
AcDbEntity
  8
0
  6
SLD-Solid
 62
     7
370
    25
100
AcDbLine
 10
8.8273816067
 20
18.3115718638
 30
0.0
 11
12.6699012918
 21
18.3115718638
 31
0.0
  0
ARC
  5
171
330
1F
100
AcDbEntity
  8
0
  6
SLD-Solid
 62
     7
370
    25
100
AcDbCircle
 10
12.6699012918
 20
10.6225954858
 30
0.0
 40
0.5000000000000018
100
AcDbArc
 50
270.0
 51
0.0
  0
ARC
  5
172
330
1F
100
AcDbEntity
  8
0
  6
SLD-Solid
 62
     7
370
    25
100
AcDbCircle
 10
8.8273816067
 20
17.8115718638
 30
0.0
 40
0.5
100
AcDbArc
 50
90.0
 51
180.0
  0
LINE
  5
173
330
1F
100
AcDbEntity
  8
0
  6
SLD-Solid
 62
     7
370
    25
100
AcDbLine
 10
13.1699012918
 20
17.8115718638
 30
0.0
 11
13.1699012918
 21
10.6225954858
 31
0.0
  0
LINE
  5
174
330
1F
100
AcDbEntity
  8
0
  6
SLD-Solid
 62
     7
370
    25
100
AcDbLine
 10
12.6699012918
 20
10.1225954858
 30
0.0
 11
8.8273816067
 21
10.1225954858
 31
0.0
  0
LINE
  5
175
330
1F
100
AcDbEntity
  8
0
  6
SLD-Solid
 62
     7
370
    25
100
AcDbLine
 10
8.3273816067
 20
10.6225954858
 30
0.0
 11
8.3273816067
 21
17.8115718638
 31
0.0
  0
ARC
  5
176
330
1F
100
AcDbEntity
  8
0
  6
SLD-Solid
 62
     7
370
    25
100
AcDbCircle
 10
8.8273816067
 20
10.6225954858
 30
0.0
 40
0.5
100
AcDbArc
 50
180.0
 51
270.0
  0
ARC
  5
177
330
1F
100
AcDbEntity
  8
0
  6
SLD-Solid
 62
     7
370
    25
100
AcDbCircle
 10
12.6699012918
 20
17.8115718638
 30
0.0
 40
0.5
100
AcDbArc
 50
0.0
 51
90.0
  0
LINE
  5
178
330
1F
100
AcDbEntity
  8
DIMS
100
AcDbLine
 10
5.2673757075
 20
5.5732763425
 30
0.0
 11
22.9663088554
 21
5.5732763425
 31
0.0
  0
LINE
  5
179
330
1F
100
AcDbEntity
  8
DIMS
100
AcDbLine
 10
5.8087425164
 20
5.5732763425
 30
0.0
 11
5.8087425164
 21
5.9104634762
 31
0.0
  0
LINE
  5
17A
330
1F
100
AcDbEntity
  8
DIMS
100
AcDbLine
 10
5.8087425164
 20
5.9104634762
 30
0.0
 11
5.5955174334
 21
6.0456957891
 31
0.0
  0
LINE
  5
17B
330
1F
100
AcDbEntity
  8
DIMS
100
AcDbLine
 10
5.5955174334
 20
6.0456957891
 30
0.0
 11
6.0219675995
 21
6.4464398359
 31
0.0
  0
LINE
  5
17C
330
1F
100
AcDbEntity
  8
DIMS
100
AcDbLine
 10
6.0219675995
 20
6.4464398359
 30
0.0
 11
5.8087425164
 21
6.5816721488
 31
0.0
  0
LINE
  5
17D
330
1F
100
AcDbEntity
  8
DIMS
100
AcDbLine
 10
5.8087425164
 20
6.5816721488
 30
0.0
 11
5.8087425164
 21
6.941631648
 31
0.0
  0
DIMENSION
  5
17E
330
1F
100
AcDbEntity
  8
DIMS
100
AcDbDimension
  2
_D
 10
5.8076965674
 20
10.1225954858
 30
0.0
 11
5.8076965674
 21
6.6580285567
 31
0.0
 70
   160
  1
                                                                 15" to 48" [381 to 1219] for unrestricted access\P \P 
 71
     2
 42
-1.0
  3
SLDDIMSTYLE0
100
AcDbAlignedDimension
 13
5.2673757075
 23
5.5732763425
 33
0.0
 14
8.8273816067
 24
10.1225954858
 34
0.0
 50
90.0
100
AcDbRotatedDimension
  0
DIMENSION
  5
190
330
1F
100
AcDbEntity
  8
DIMS
100
AcDbDimension
  2
_D_1
 10
8.3273816067
 20
19.3100584162
 30
0.0
 11
10.7444843066
 21
19.3100584162
 31
0.0
 70
   160
  1
<>
 71
     2
 42
-1.0
  3
SLDDIMSTYLE1
100
AcDbAlignedDimension
 13
13.1699012918
 23
17.8115718638
 33
0.0
 14
8.3273816067
 24
17.8115718638
 34
0.0
100
AcDbRotatedDimension
  0
MTEXT
  5
1A0
330
1F
100
AcDbEntity
  8
NOTES
100
AcDbMText
 10
15.4392562213
 20
19.6764926813
 30
0.0
 40
0.5
 41
0.0
 71
     1
 72
     1
  1
soap level window
  7
SLDTEXTSTYLE0
 73
     1
 44
1.0
  0
LEADER
  5
1A2
330
1F
100
AcDbEntity
  8
NOTES
100
AcDbLeader
  3
SLDDIMSTYLE2
 76
     3
 10
11.0441801675
 20
12.7270880406
 30
0.0
 10
14.9178002033
 20
19.4299063772
 30
0.0
 10
15.4178002033
 20
19.4299063772
 30
0.0
  0
LINE
  5
1A3
330
1F
100
AcDbEntity
  8
0
  6
SLD-Solid
 62
     7
370
    25
100
AcDbLine
 10
18.2175340741
 20
12.8405954858
 30
0.0
 11
18.1825340741
 21
12.8405954858
 31
0.0
  0
LINE
  5
1A4
330
1F
100
AcDbEntity
  8
0
  6
SLD-Solid
 62
     7
370
    25
100
AcDbLine
 10
18.1825340741
 20
11.9575954858
 30
0.0
 11
18.2175340741
 21
11.9575954858
 31
0.0
  0
ARC
  5
1A5
330
1F
100
AcDbEntity
  8
0
  6
SLD-Solid
 62
     7
370
    25
100
AcDbCircle
 10
18.1825340741
 20
12.2075954858
 30
0.0
 40
0.25
100
AcDbArc
 50
180.0
 51
270.0
  0
ARC
  5
1A6
330
1F
100
AcDbEntity
  8
0
  6
SLD-Solid
 62
     7
370
    25
100
AcDbCircle
 10
18.1825340741
 20
12.5905954858
 30
0.0
 40
0.25
100
AcDbArc
 50
90.0
 51
180.0
  0
LINE
  5
1A7
330
1F
100
AcDbEntity
  8
0
  6
SLD-Solid
 62
     7
370
    25
100
AcDbLine
 10
18.2175340741
 20
11.7185954858
 30
0.0
 11
17.9175340741
 21
11.7185954858
 31
0.0
  0
LINE
  5
1A8
330
1F
100
AcDbEntity
  8
0
  6
SLD-Solid
 62
     7
370
    25
100
AcDbLine
 10
17.9175340741
 20
10.8755954858
 30
0.0
 11
18.2175340741
 21
10.8755954858
 31
0.0
  0
LINE
  5
1A9
330
1F
100
AcDbEntity
  8
0
  6
SLD-Solid
 62
     7
370
    25
100
AcDbLine
 10
17.6175340741
 20
10.5670954858
 30
0.0
 11
17.6175340741
 21
10.7070954858
 31
0.0
  0
LINE
  5
1AA
330
1F
100
AcDbEntity
  8
0
  6
SLD-Solid
 62
     7
370
    25
100
AcDbLine
 10
17.3775340741
 20
10.7114209988
 30
0.0
 11
17.3775340741
 21
10.5670954858
 31
0.0
  0
LINE
  5
1AB
330
1F
100
AcDbEntity
  8
0
  6
SLD-Solid
 62
     7
370
    25
100
AcDbLine
 10
21.1175340741
 20
10.6225954858
 30
0.0
 11
21.1175340741
 21
17.8115718638
 31
0.0
  0
LINE
  5
1AC
330
1F
100
AcDbEntity
  8
0
  6
SLD-Solid
 62
     7
370
    25
100
AcDbLine
 10
20.6800340741
 20
10.1225954858
 30
0.0
 11
21.1175340741
 21
10.1225954858
 31
0.0
  0
LINE
  5
1AD
330
1F
100
AcDbEntity
  8
0
  6
SLD-Solid
 62
     7
370
    25
100
AcDbLine
 10
21.1175340741
 20
10.1225954858
 30
0.0
 11
21.1175340741
 21
10.6225954858
 31
0.0
  0
LINE
  5
1AE
330
1F
100
AcDbEntity
  8
0
  6
SLD-Solid
 62
     7
370
    25
100
AcDbLine
 10
20.6800340741
 20
18.3115718638
 30
0.0
 11
21.1175340741
 21
18.3115718638
 31
0.0
  0
LINE
  5
1AF
330
1F
100
AcDbEntity
  8
0
  6
SLD-Solid
 62
     7
370
    25
100
AcDbLine
 10
21.1175340741
 20
17.8115718638
 30
0.0
 11
21.1175340741
 21
18.3115718638
 31
0.0
  0
LINE
  5
1B0
330
1F
100
AcDbEntity
  8
0
  6
SLD-Solid
 62
     7
370
    25
100
AcDbLine
 10
20.6175340741
 20
10.6225954858
 30
0.0
 11
20.6175340741
 21
17.8115718638
 31
0.0
  0
LINE
  5
1B1
330
1F
100
AcDbEntity
  8
0
  6
SLD-Solid
 62
     7
370
    25
100
AcDbLine
 10
20.6175340741
 20
10.1850954858
 30
0.0
 11
20.6175340741
 21
10.6225954858
 31
0.0
  0
ARC
  5
1B2
330
1F
100
AcDbEntity
  8
0
  6
SLD-Solid
 62
     7
370
    25
100
AcDbCircle
 10
20.6800340741
 20
10.1850954858
 30
0.0
 40
0.0625000000000036
100
AcDbArc
 50
180.0
 51
270.0
  0
LINE
  5
1B3
330
1F
100
AcDbEntity
  8
0
  6
SLD-Solid
 62
     7
370
    25
100
AcDbLine
 10
20.6175340741
 20
17.8115718638
 30
0.0
 11
20.6175340741
 21
18.2490718638
 31
0.0
  0
ARC
  5
1B4
330
1F
100
AcDbEntity
  8
0
  6
SLD-Solid
 62
     7
370
    25
100
AcDbCircle
 10
20.6800340741
 20
18.2490718638
 30
0.0
 40
0.0625000000000036
100
AcDbArc
 50
90.0
 51
180.0
  0
ARC
  5
1B5
330
1F
100
AcDbEntity
  8
0
  6
SLD-Solid
 62
     7
370
    25
100
AcDbCircle
 10
20.5550340741
 20
10.2270954858
 30
0.0
 40
0.0625
100
AcDbArc
 50
0.0
 51
90.0
  0
ARC
  5
1B6
330
1F
100
AcDbEntity
  8
0
  6
SLD-Solid
 62
     7
370
    25
100
AcDbCircle
 10
20.5550340741
 20
18.2070718638
 30
0.0
 40
0.0625
100
AcDbArc
 50
270.0
 51
0.0
  0
LINE
  5
1B7
330
1F
100
AcDbEntity
  8
0
  6
SLD-Solid
 62
     7
370
    25
100
AcDbLine
 10
18.4675340741
 20
10.2895954858
 30
0.0
 11
20.5550340741
 21
10.2895954858
 31
0.0
  0
LINE
  5
1B8
330
1F
100
AcDbEntity
  8
0
  6
SLD-Solid
 62
     7
370
    25
100
AcDbLine
 10
18.4675340741
 20
18.1445718638
 30
0.0
 11
20.5550340741
 21
18.1445718638
 31
0.0
  0
LINE
  5
1B9
330
1F
100
AcDbEntity
  8
0
  6
SLD-Solid
 62
     7
370
    25
100
AcDbLine
 10
18.2175340741
 20
10.5395954858
 30
0.0
 11
18.2175340741
 21
10.6225954858
 31
0.0
  0
ARC
  5
1BA
330
1F
100
AcDbEntity
  8
0
  6
SLD-Solid
 62
     7
370
    25
100
AcDbCircle
 10
18.4675340741
 20
10.5395954858
 30
0.0
 40
0.2500000000000018
100
AcDbArc
 50
180.0
 51
270.0
  0
LINE
  5
1BB
330
1F
100
AcDbEntity
  8
0
  6
SLD-Solid
 62
     7
370
    25
100
AcDbLine
 10
18.2175340741
 20
10.6225954858
 30
0.0
 11
18.2175340741
 21
17.8115718638
 31
0.0
  0
LINE
  5
1BC
330
1F
100
AcDbEntity
  8
0
  6
SLD-Solid
 62
     7
370
    25
100
AcDbLine
 10
18.2175340741
 20
17.8115718638
 30
0.0
 11
18.2175340741
 21
17.8945718638
 31
0.0
  0
ARC
  5
1BD
330
1F
100
AcDbEntity
  8
0
  6
SLD-Solid
 62
     7
370
    25
100
AcDbCircle
 10
18.4675340741
 20
17.8945718638
 30
0.0
 40
0.2500000000000036
100
AcDbArc
 50
90.0
 51
180.0
  0
LINE
  5
1BE
330
1F
100
AcDbEntity
  8
0
  6
SLD-Solid
 62
     7
370
    25
100
AcDbLine
 10
17.4105340741
 20
11.8870954858
 30
0.0
 11
17.9175340741
 21
11.8870954858
 31
0.0
  0
LINE
  5
1BF
330
1F
100
AcDbEntity
  8
0
  6
SLD-Solid
 62
     7
370
    25
100
AcDbLine
 10
17.9175340741
 20
11.7405486848
 30
0.0
 11
17.9175340741
 21
11.8870954858
 31
0.0
  0
ARC
  5
1C0
330
1F
100
AcDbEntity
  8
0
  6
SLD-Solid
 62
     7
370
    25
100
AcDbCircle
 10
17.4105340741
 20
11.7620954858
 30
0.0
 40
0.125
100
AcDbArc
 50
90.0
 51
180.0
  0
LINE
  5
1C1
330
1F
100
AcDbEntity
  8
0
  6
SLD-Solid
 62
     7
370
    25
100
AcDbLine
 10
17.9175340741
 20
10.8105486848
 30
0.0
 11
17.9175340741
 21
11.7405486848
 31
0.0
  0
LINE
  5
1C2
330
1F
100
AcDbEntity
  8
0
  6
SLD-Solid
 62
     7
370
    25
100
AcDbLine
 10
17.2855340741
 20
10.8320954858
 30
0.0
 11
17.2855340741
 21
11.7620954858
 31
0.0
  0
LINE
  5
1C3
330
1F
100
AcDbEntity
  8
0
  6
SLD-Solid
 62
     7
370
    25
100
AcDbLine
 10
17.4105340741
 20
10.7070954858
 30
0.0
 11
17.9175340741
 21
10.7070954858
 31
0.0
  0
LINE
  5
1C4
330
1F
100
AcDbEntity
  8
0
  6
SLD-Solid
 62
     7
370
    25
100
AcDbLine
 10
17.9175340741
 20
10.7070954858
 30
0.0
 11
17.9175340741
 21
10.8105486848
 31
0.0
  0
ARC
  5
1C5
330
1F
100
AcDbEntity
  8
0
  6
SLD-Solid
 62
     7
370
    25
100
AcDbCircle
 10
17.4105340741
 20
10.8320954858
 30
0.0
 40
0.1250000000000018
100
AcDbArc
 50
180.0
 51
270.0
  0
LINE
  5
1C6
330
1F
100
AcDbEntity
  8
0
  6
SLD-Solid
 62
     7
370
    25
100
AcDbLine
 10
17.9325340741
 20
12.3990954858
 30
0.0
 11
17.9325340741
 21
12.5905954858
 31
0.0
  0
LINE
  5
1C7
330
1F
100
AcDbEntity
  8
0
  6
SLD-Solid
 62
     7
370
    25
100
AcDbLine
 10
17.9325340741
 20
12.2075954858
 30
0.0
 11
17.9325340741
 21
12.3990954858
 31
0.0
  0
LINE
  5
1C8
330
1F
100
AcDbEntity
  8
0
  6
SLD-Solid
 62
     7
370
    25
100
AcDbLine
 10
17.6175340741
 20
10.5670954858
 30
0.0
 11
17.3775340741
 21
10.5670954858
 31
0.0
  0
DIMENSION
  5
1C9
330
1F
100
AcDbEntity
  8
DIMS
100
AcDbDimension
  2
_D_2
 10
22.2198962788
 20
18.3115718638
 30
0.0
 11
22.2198962788
 21
14.3033545617
 31
0.0
 70
   160
  1
<>
 71
     2
 42
-1.0
  3
SLDDIMSTYLE1
100
AcDbAlignedDimension
 13
21.1175340741
 23
10.1225954858
 33
0.0
 14
21.1175340741
 24
18.3115718638
 34
0.0
 50
90.0
100
AcDbRotatedDimension
  0
SPLINE
  5
1D8
330
1F
100
AcDbEntity
  8
0
  6
SLD-Solid
 62
     7
370
    25
100
AcDbSpline
210
0.0
220
0.0
230
1.0
 70
     8
 71
     3
 72
    15
 73
    11
 74
     0
 42
0.00000001
 43
0.00000001
 40
0.0
 40
0.0
 40
0.0
 40
0.0
 40
0.0803996442119157
 40
0.2152669151792907
 40
0.3471404364413953
 40
0.4768040939784596
 40
0.6050920396139475
 40
0.7329547327001729
 40
0.8615150614460109
 40
1.0
 40
1.0
 40
1.0
 40
1.0
 10
38.9544451183793
 20
17.90089959016327
 30
0.0
 10
38.9472806754201
 20
17.89688132290636
 30
0.0
 10
38.92809815850818
 20
17.8861225688691
 30
0.0
 10
38.9009659154546
 20
17.86297841518245
 30
0.0
 10
38.87356087165151
 20
17.83316924515084
 30
0.0
 10
38.85122241408766
 20
17.80015368074084
 30
0.0
 10
38.83376707105361
 20
17.76485208518005
 30
0.0
 10
38.82133380051598
 20
17.72768006421436
 30
0.0
 10
38.81327369414595
 20
17.68823223464961
 30
0.0
 10
38.81226901534819
 20
17.66108884608085
 30
0.0
 10
38.81174800674549
 20
17.64701276626075
 30
0.0
  0
LINE
  5
1D9
330
1F
100
AcDbEntity
  8
0
  6
SLD-Solid
 62
     7
370
    25
100
AcDbLine
 10
40.4300368063
 20
18.7536520675
 30
0.0
 11
38.9539514006
 21
17.9015261008
 31
0.0
  0
LINE
  5
1DA
330
1F
100
AcDbEntity
  8
0
  6
SLD-Solid
 62
     7
370
    25
100
AcDbLine
 10
38.8117480067
 20
17.6470127663
 30
0.0
 11
38.8117480067
 21
11.776920158
 31
0.0
  0
SPLINE
  5
1DB
330
1F
100
AcDbEntity
  8
0
  6
SLD-Solid
 62
     7
370
    25
100
AcDbSpline
210
0.0
220
0.0
230
1.0
 70
     8
 71
     3
 72
    15
 73
    11
 74
     0
 42
0.00000001
 43
0.00000001
 40
0.0
 40
0.0
 40
0.0
 40
0.0
 40
0.0589707284763475
 40
0.190840071300387
 40
0.3228679190203482
 40
0.4568085647359735
 40
0.5938615522033854
 40
0.734396636751243
 40
0.8779241753318181
 40
1.0
 40
1.0
 40
1.0
 40
1.0
 10
40.43349828414707
 20
18.94755394929755
 30
0.0
 10
40.42875505181607
 20
18.94496057368285
 30
0.0
 10
40.41340508379583
 20
18.93656793550443
 30
0.0
 10
40.39104412465211
 20
18.91667532279712
 30
0.0
 10
40.36690165491409
 20
18.88874819396432
 30
0.0
 10
40.3470986360413
 20
18.85614165878261
 30
0.0
 10
40.33149041695343
 20
18.81945160163626
 30
0.0
 10
40.32043679424852
 20
18.7787527031146
 30
0.0
 10
40.31410555802336
 20
18.73703088229947
 30
0.0
 10
40.31338403188101
 20
18.70814775465978
 30
0.0
 10
40.31305240619009
 20
18.6948725777852
 30
0.0
  0
LINE
  5
1DC
330
1F
100
AcDbEntity
  8
0
  6
SLD-Solid
 62
     7
370
    25
100
AcDbLine
 10
40.7442911566
 20
19.127897009
 30
0.0
 11
40.4349319398
 21
18.9493077345
 31
0.0
  0
SPLINE
  5
1DD
330
1F
100
AcDbEntity
  8
0
  6
SLD-Solid
 62
     7
370
    25
100
AcDbSpline
210
0.0
220
0.0
230
1.0
 70
     8
 71
     3
 72
    35
 73
    31
 74
     0
 42
0.00000001
 43
0.00000001
 40
0.0
 40
0.0
 40
0.0
 40
0.0
 40
0.0102944379786072
 40
0.0454730587567527
 40
0.0800946620150545
 40
0.1143967255753504
 40
0.1486452459100994
 40
0.1831311297698016
 40
0.2181724905469747
 40
0.2540973820972804
 40
0.2911882847111896
 40
0.3295754123969107
 40
0.3691199750165258
 40
0.4094230194877186
 40
0.4499374248598705
 40
0.4905200250356694
 40
0.5312703154693457
 40
0.5724086850664037
 40
0.6141660820851841
 40
0.656804114310874
 40
0.7003884251386086
 40
0.7386734353458995
 40
0.7758262037872875
 40
0.8118692823674647
 40
0.8469988440729332
 40
0.8814454854836397
 40
0.9154176306842834
 40
0.952833485769
 40
0.9892964176217799
 40
1.0
 40
1.0
 40
1.0
 40
1.0
 10
40.05732905965162
 20
12.67496304188748
 30
0.0
 10
40.05348712097972
 20
12.6729754599055
 30
0.0
 10
40.03651633507283
 20
12.66419582254811
 30
0.0
 10
40.00986436445518
 20
12.64325166943331
 30
0.0
 10
39.97836108861149
 20
12.61296914557707
 30
0.0
 10
39.95179426103869
 20
12.57870693784512
 30
0.0
 10
39.92994875359193
 20
12.54150556151962
 30
0.0
 10
39.91292687572853
 20
12.50161991268441
 30
0.0
 10
39.90073271882637
 20
12.45935159927493
 30
0.0
 10
39.89343809987547
 20
12.41485415060297
 30
0.0
 10
39.89117854863355
 20
12.36827883645326
 30
0.0
 10
39.89414188743882
 20
12.31990731698638
 30
0.0
 10
39.90247146484663
 20
12.27030078219992
 30
0.0
 10
39.91613233292102
 20
12.22035461995861
 30
0.0
 10
39.9348762880551
 20
12.1710444124666
 30
0.0
 10
39.95835381937375
 20
12.12320702037287
 30
0.0
 10
39.98629257901593
 20
12.07742784714579
 30
0.0
 10
40.01853117615567
 20
12.03420589953687
 30
0.0
 10
40.05502871837409
 20
11.99404844134131
 30
0.0
 10
40.09580447912096
 20
11.95759992319255
 30
0.0
 10
40.13875242361507
 20
11.92720342841254
 30
0.0
 10
40.1825466844015
 20
11.90333568954871
 30
0.0
 10
40.22571804523069
 20
11.8859494591564
 30
0.0
 10
40.26936589074495
 20
11.8742423529835
 30
0.0
 10
40.3130761691439
 20
11.86818980570331
 30
0.0
 10
40.35641839605028
 20
11.86779372984883
 30
0.0
 10
40.40056063903205
 20
11.87306288981701
 30
0.0
 10
40.44422092515781
 20
11.88508917280445
 30
0.0
 10
40.47750423940172
 20
11.89827971547342
 30
0.0
 10
40.49422125609488
 20
11.90892575082173
 30
0.0
 10
40.4980148789269
 20
11.91134167487738
 30
0.0
  0
LINE
  5
1DE
330
1F
100
AcDbEntity
  8
0
  6
SLD-Solid
 62
     7
370
    25
100
AcDbLine
 10
40.0814649771
 20
12.6896674722
 30
0.0
 11
40.0567162398
 21
12.6753803303
 31
0.0
  0
LINE
  5
1DF
330
1F
100
AcDbEntity
  8
0
  6
SLD-Solid
 62
     7
370
    25
100
AcDbLine
 10
40.4981803602
 20
11.9106591848
 30
0.0
 11
40.5229290976
 21
11.9249463268
 31
0.0
  0
LINE
  5
1E0
330
1F
100
AcDbEntity
  8
0
  6
SLD-Solid
 62
     7
370
    25
100
AcDbLine
 10
40.3130524062
 20
18.6948725778
 30
0.0
 11
40.3130524062
 21
18.6861184108
 31
0.0
  0
SPLINE
  5
1E1
330
1F
100
AcDbEntity
  8
0
  6
SLD-Solid
 62
     7
370
    25
100
AcDbSpline
210
0.0
220
0.0
230
1.0
 70
     8
 71
     3
 72
    15
 73
    11
 74
     0
 42
0.00000001
 43
0.00000001
 40
0.0
 40
0.0
 40
0.0
 40
0.0
 40
0.1409669262323988
 40
0.2754282891458205
 40
0.4078795409954912
 40
0.5390246731422155
 40
0.669381655439267
 40
0.799308376914081
 40
0.9418234985329604
 40
1.0
 40
1.0
 40
1.0
 40
1.0
 10
41.71251975413859
 20
9.890221998005117
 30
0.0
 10
41.72518783690722
 20
9.883532314185768
 30
0.0
 10
41.749939375846
 20
9.870461672592489
 30
0.0
 10
41.7894374325209
 20
9.85752188226108
 30
0.0
 10
41.829238984033
 20
9.849861458952576
 30
0.0
 10
41.86937511843845
 20
9.847876962001852
 30
0.0
 10
41.90922633971009
 20
9.85138597745093
 30
0.0
 10
41.94915800597308
 20
9.861061395635089
 30
0.0
 10
41.98105122115943
 20
9.87282015815868
 30
0.0
 10
41.99845681281862
 20
9.88361122519184
 30
0.0
 10
42.00350234692278
 20
9.886739340443649
 30
0.0
  0
LINE
  5
1E2
330
1F
100
AcDbEntity
  8
0
  6
SLD-Solid
 62
     7
370
    25
100
AcDbLine
 10
42.0039960647
 20
9.8861128298
 30
0.0
 11
43.4800814704
 21
10.7382387965
 31
0.0
  0
LINE
  5
1E3
330
1F
100
AcDbEntity
  8
0
  6
SLD-Solid
 62
     7
370
    25
100
AcDbLine
 10
38.995448028
 20
11.4587541184
 30
0.0
 11
39.2471130805
 21
11.313470976
 31
0.0
  0
LINE
  5
1E4
330
1F
100
AcDbEntity
  8
0
  6
SLD-Solid
 62
     7
370
    25
100
AcDbLine
 10
40.4434686427
 20
10.6228296106
 30
0.0
 11
41.7125197541
 21
9.890221998
 31
0.0
  0
LINE
  5
1E5
330
1F
100
AcDbEntity
  8
0
  6
SLD-Solid
 62
     7
370
    25
100
AcDbLine
 10
40.0914641645
 20
11.7725185203
 30
0.0
 11
40.085791558
 21
11.7692437943
 31
0.0
  0
ARC
  5
1E6
330
1F
100
AcDbEntity
  8
0
  6
SLD-Solid
 62
     7
370
    25
100
AcDbCircle
 10
40.027929286
 20
10.5272775037
 30
0.0
 40
0.1250000000000044
100
AcDbArc
 50
240.0026882664
 51
299.9973117337
  0
LINE
  5
1E7
330
1F
100
AcDbEntity
  8
0
  6
SLD-Solid
 62
     7
370
    25
100
AcDbLine
 10
39.1963131509
 20
11.6780197877
 30
0.0
 11
39.3113907036
 21
10.8522039755
 31
0.0
  0
ARC
  5
1E8
330
1F
100
AcDbEntity
  8
0
  6
SLD-Solid
 62
     7
370
    25
100
AcDbCircle
 10
39.3201168912
 20
11.6952718567
 30
0.0
 40
0.1250000000000004
100
AcDbArc
 50
119.9973117336
 51
187.9330889159
  0
LINE
  5
1E9
330
1F
100
AcDbEntity
  8
0
  6
SLD-Solid
 62
     7
370
    25
100
AcDbLine
 10
39.3726995231
 20
10.7611999368
 30
0.0
 11
39.9654343652
 21
10.4190213959
 31
0.0
  0
LINE
  5
1EA
330
1F
100
AcDbEntity
  8
0
  6
SLD-Solid
 62
     7
370
    25
100
AcDbLine
 10
40.0904242068
 20
10.4190213959
 30
0.0
 11
40.4489273448
 21
10.6259808523
 31
0.0
  0
LINE
  5
1EB
330
1F
100
AcDbEntity
  8
0
  6
SLD-Solid
 62
     7
370
    25
100
AcDbLine
 10
39.6161251085
 20
12.0104874209
 30
0.0
 11
39.2576219704
 21
11.8035279645
 31
0.0
  0
LINE
  5
1EC
330
1F
100
AcDbEntity
  8
0
  6
SLD-Solid
 62
     7
370
    25
100
AcDbLine
 10
39.6730801549
 20
10.5877938891
 30
0.0
 11
39.6730801549
 21
10.5174972119
 31
0.0
  0
ARC
  5
1ED
330
1F
100
AcDbEntity
  8
0
  6
SLD-Solid
 62
     7
370
    25
100
AcDbCircle
 10
39.4351944439
 20
10.8694560446
 30
0.0
 40
0.1250000000000077
100
AcDbArc
 50
187.9330889159
 51
240.0026882663
  0
SPLINE
  5
1EE
330
1F
100
AcDbEntity
  8
0
  6
SLD-Solid
 62
     7
370
    25
100
AcDbSpline
210
0.0
220
0.0
230
1.0
 70
     8
 71
     3
 72
    15
 73
    11
 74
     0
 42
0.00000001
 43
0.00000001
 40
0.0
 40
0.0
 40
0.0
 40
0.0
 40
0.0777504804792879
 40
0.2236590967139681
 40
0.3695404631798462
 40
0.5139631707258381
 40
0.6555286283034717
 40
0.7932322696690589
 40
0.9270690893009823
 40
1.0
 40
1.0
 40
1.0
 40
1.0
 10
43.37073588869846
 20
10.66629391559187
 30
0.0
 10
43.3782643236128
 20
10.662113091649
 30
0.0
 10
43.39992081939561
 20
10.65008642247839
 30
0.0
 10
43.43615107288583
 20
10.63447737360416
 30
0.0
 10
43.47904585948523
 20
10.62171007579973
 30
0.0
 10
43.52130591341322
 20
10.61540375085097
 30
0.0
 10
43.5621335267403
 20
10.61556146148327
 30
0.0
 10
43.60048255148039
 20
10.62248209913067
 30
0.0
 10
43.63120946638211
 20
10.63276491998415
 30
0.0
 10
43.64761141034524
 20
10.6428357540276
 30
0.0
 10
43.65339668790549
 20
10.64638792871711
 30
0.0
  0
LINE
  5
1EF
330
1F
100
AcDbEntity
  8
0
  6
SLD-Solid
 62
     7
370
    25
100
AcDbLine
 10
43.6519630323
 20
10.6446341435
 30
0.0
 11
43.961322249
 21
10.823223418
 31
0.0
  0
LINE
  5
1F0
330
1F
100
AcDbEntity
  8
0
  6
SLD-Solid
 62
     7
370
    25
100
AcDbLine
 10
43.3630958333
 20
10.6707044257
 30
0.0
 11
43.3707358887
 21
10.6662939156
 31
0.0
  0
SPLINE
  5
1F1
330
1F
100
AcDbEntity
  8
0
  6
SLD-Solid
 62
     7
370
    25
100
AcDbSpline
210
0.0
220
0.0
230
1.0
 70
     8
 71
     3
 72
    16
 73
    12
 74
     0
 42
0.00000001
 43
0.00000001
 40
0.0
 40
0.0
 40
0.0
 40
0.0
 40
0.102675541051273
 40
0.213801039083345
 40
0.3284550041045017
 40
0.4463112019311073
 40
0.5668075093569707
 40
0.6906287578602511
 40
0.8186864496820393
 40
0.9329035184033245
 40
1.0
 40
1.0
 40
1.0
 40
1.0
 10
38.81174800674549
 20
11.77692015797974
 30
0.0
 10
38.81219939092676
 20
11.76387805465709
 30
0.0
 10
38.81313930715213
 20
11.7367205133998
 30
0.0
 10
38.82083969436447
 20
11.69543246118573
 30
0.0
 10
38.83361522128011
 20
11.65326496083138
 30
0.0
 10
38.85189063977672
 20
11.61160038215159
 30
0.0
 10
38.87552119944991
 20
11.57126939859411
 30
0.0
 10
38.90455408515455
 20
11.53306890985981
 30
0.0
 10
38.93752821435357
 20
11.49968263980631
 30
0.0
 10
38.96850164785472
 20
11.47515957191555
 30
0.0
 10
38.98816970962948
 20
11.4631852929129
 30
0.0
 10
38.99544802800446
 20
11.45875411835741
 30
0.0
  0
LWPOLYLINE
  5
1F2
330
1F
100
AcDbEntity
  8
0
  6
SLD-Solid
 62
     7
370
    25
100
AcDbPolyline
 90
       20
 70
   128
 43
0.0
 10
40.6143846812
 20
12.1270848088
 10
40.611821625
 20
12.1746645005
 10
40.6041745416
 20
12.2244221767
 10
40.5915689959
 20
12.2755408178
 10
40.5742119707
 20
12.327181057
 10
40.5523884677
 20
12.3784949631
 10
40.5264568285
 20
12.4286399632
 10
40.4968428496
 20
12.4767926778
 10
40.4640327919
 20
12.5221624405
 10
40.4285653955
 20
12.5640042812
 10
40.3910230342
 20
12.601631158
 10
40.3520221526
 20
12.6344252386
 10
40.3122031438
 20
12.6618480451
 10
40.2722198351
 20
12.6834492959
 10
40.2327287513
 20
12.6988742988
 10
40.1943783347
 20
12.7078697759
 10
40.1577982983
 20
12.7102880216
 10
40.1235892852
 20
12.7060893285
 10
40.0923130064
 20
12.6953426389
 10
40.0814649771
 20
12.6896674722
  0
ARC
  5
1F3
330
1F
100
AcDbEntity
  8
0
  6
SLD-Solid
 62
     7
370
    25
100
AcDbCircle
 10
40.391533834
 20
12.1061531658
 30
0.0
 40
0.2238317086116513
100
AcDbArc
 50
305.9463199687
 51
5.3658604247
  0
ARC
  5
1F4
330
1F
100
AcDbEntity
  8
0
  6
SLD-Solid
 62
     7
370
    25
100
AcDbCircle
 10
40.1031312678
 20
11.2304759095
 30
0.0
 40
0.4971358724029371
100
AcDbArc
 50
0.5699299608
 51
13.5238854394
  0
LWPOLYLINE
  5
1F5
330
1F
100
AcDbEntity
  8
0
  6
SLD-Solid
 62
     7
370
    25
100
AcDbPolyline
 90
       14
 70
   128
 43
0.0
 10
40.5203653356
 20
11.5160202497
 10
40.5129470374
 20
11.5291818608
 10
40.4836356469
 20
11.5757866129
 10
40.4512197915
 20
11.6195115739
 10
40.4162541155
 20
11.6596085974
 10
40.3793368912
 20
11.6953916124
 10
40.3410997827
 20
11.7262483614
 10
40.3021970374
 20
11.751650877
 10
40.2632942921
 20
11.7711645151
 10
40.2250571835
 20
11.7844553919
 10
40.1881399592
 20
11.7912960968
 10
40.1531742832
 20
11.7915695835
 10
40.1207584278
 20
11.7852711725
 10
40.0914641645
 20
11.7725185203
  0
ARC
  5
1F6
330
1F
100
AcDbEntity
  8
0
  6
SLD-Solid
 62
     7
370
    25
100
AcDbCircle
 10
40.3642915166
 20
11.2209918516
 30
0.0
 40
0.2363918060498523
100
AcDbArc
 50
317.7204528725
 51
3.4994388403
  0
LINE
  5
1F7
330
1F
100
AcDbEntity
  8
0
  6
SLD-Solid
 62
     7
370
    25
100
AcDbLine
 10
40.9739484795
 20
18.2845656219
 30
0.0
 11
39.8425776296
 21
17.6314391325
 31
0.0
  0
LINE
  5
1F8
330
1F
100
AcDbEntity
  8
0
  6
SLD-Solid
 62
     7
370
    25
100
AcDbLine
 10
39.8425776296
 20
17.6314391325
 30
0.0
 11
41.3982125482
 21
16.7333902095
 31
0.0
  0
LINE
  5
1F9
330
1F
100
AcDbEntity
  8
0
  6
SLD-Solid
 62
     7
370
    25
100
AcDbLine
 10
41.3982125482
 20
16.7333902095
 30
0.0
 11
42.5295833981
 21
17.3865166989
 31
0.0
  0
LINE
  5
1FA
330
1F
100
AcDbEntity
  8
0
  6
SLD-Solid
 62
     7
370
    25
100
AcDbLine
 10
42.5295833981
 20
17.3865166989
 30
0.0
 11
40.9739484795
 21
18.2845656219
 31
0.0
  0
LINE
  5
1FB
330
1F
100
AcDbEntity
  8
0
  6
SLD-Solid
 62
     7
370
    25
100
AcDbLine
 10
41.3982125482
 20
16.7333902095
 30
0.0
 11
41.3982125482
 21
16.7742106151
 31
0.0
  0
LINE
  5
1FC
330
1F
100
AcDbEntity
  8
0
  6
SLD-Solid
 62
     7
370
    25
100
AcDbLine
 10
39.9132883077
 20
17.5906187269
 30
0.0
 11
39.9132883077
 21
17.6314391325
 31
0.0
  0
LINE
  5
1FD
330
1F
100
AcDbEntity
  8
0
  6
SLD-Solid
 62
     7
370
    25
100
AcDbLine
 10
39.9132883077
 20
17.6314391325
 30
0.0
 11
41.3982125482
 21
16.7742106151
 31
0.0
  0
LINE
  5
1FE
330
1F
100
AcDbEntity
  8
0
  6
SLD-Solid
 62
     7
370
    25
100
AcDbLine
 10
42.45887272
 20
17.3456962933
 30
0.0
 11
42.45887272
 21
17.3865166989
 31
0.0
  0
LINE
  5
1FF
330
1F
100
AcDbEntity
  8
0
  6
SLD-Solid
 62
     7
370
    25
100
AcDbLine
 10
41.3982125482
 20
16.7742106151
 30
0.0
 11
42.45887272
 21
17.3865166989
 31
0.0
  0
LINE
  5
200
330
1F
100
AcDbEntity
  8
0
  6
SLD-Solid
 62
     7
370
    25
100
AcDbLine
 10
40.9739484795
 20
18.2437452164
 30
0.0
 11
39.9132883077
 21
17.6314391325
 31
0.0
  0
LINE
  5
201
330
1F
100
AcDbEntity
  8
0
  6
SLD-Solid
 62
     7
370
    25
100
AcDbLine
 10
42.45887272
 20
17.3865166989
 30
0.0
 11
40.9739484795
 21
18.2437452164
 31
0.0
  0
LINE
  5
202
330
1F
100
AcDbEntity
  8
0
  6
SLD-Solid
 62
     7
370
    25
100
AcDbLine
 10
41.065872361
 20
17.6028648486
 30
0.0
 11
41.0234459542
 21
17.5783726052
 31
0.0
  0
LINE
  5
203
330
1F
100
AcDbEntity
  8
0
  6
SLD-Solid
 62
     7
370
    25
100
AcDbLine
 10
41.0234459542
 20
17.5783726052
 30
0.0
 11
41.3062886666
 21
17.4150909829
 31
0.0
  0
LINE
  5
204
330
1F
100
AcDbEntity
  8
0
  6
SLD-Solid
 62
     7
370
    25
100
AcDbLine
 10
41.3062886666
 20
17.4150909829
 30
0.0
 11
41.3487150735
 21
17.4395832262
 31
0.0
  0
LINE
  5
205
330
1F
100
AcDbEntity
  8
0
  6
SLD-Solid
 62
     7
370
    25
100
AcDbLine
 10
41.3487150735
 20
17.4395832262
 30
0.0
 11
41.065872361
 21
17.6028648486
 31
0.0
  0
ARC
  5
206
330
1F
100
AcDbEntity
  8
0
  6
SLD-Solid
 62
     7
370
    25
100
AcDbCircle
 10
43.2994371422
 20
16.8885488656
 30
0.0
 40
0.7661998323124024
100
AcDbArc
 50
2.520089748
 51
57.4799103976
  0
LINE
  5
207
330
1F
100
AcDbEntity
  8
0
  6
SLD-Solid
 62
     7
370
    25
100
AcDbLine
 10
44.0648959565
 20
11.0521458212
 30
0.0
 11
44.0648959565
 21
16.9222384295
 31
0.0
  0
LINE
  5
208
330
1F
100
AcDbEntity
  8
0
  6
SLD-Solid
 62
     7
370
    25
100
AcDbLine
 10
43.7113425659
 20
17.5346108634
 30
0.0
 11
40.9942708397
 21
19.1031429837
 31
0.0
  0
LINE
  5
209
330
1F
100
AcDbEntity
  8
0
  6
SLD-Solid
 62
     7
370
    25
100
AcDbLine
 10
40.9739484795
 20
18.2437452164
 30
0.0
 11
40.9739484795
 21
18.2845656219
 31
0.0
  0
LINE
  5
20A
330
1F
100
AcDbEntity
  8
0
  6
SLD-Solid
 62
     7
370
    25
100
AcDbLine
 10
41.065872361
 20
17.5538803619
 30
0.0
 11
41.065872361
 21
17.6028648486
 31
0.0
  0
ARC
  5
20B
330
1F
100
AcDbEntity
  8
0
  6
SLD-Solid
 62
     7
370
    25
100
AcDbCircle
 10
40.8488426476
 20
18.909122356
 30
0.0
 40
0.2424734274894802
100
AcDbArc
 50
53.1466013049
 51
115.542940266
  0
ARC
  5
20C
330
1F
100
AcDbEntity
  8
0
  6
SLD-Solid
 62
     7
370
    25
100
AcDbCircle
 10
40.403448172
 20
11.3717428446
 30
0.0
 40
0.1855426888741009
100
AcDbArc
 50
356.1644945832
 51
58.0949311165
  0
LWPOLYLINE
  5
20D
330
1F
100
AcDbEntity
  8
0
  6
SLD-Solid
 62
     7
370
    25
100
AcDbPolyline
 90
       38
 70
   128
 43
0.0
 10
39.8199502126
 20
10.9249817307
 10
39.8174074408
 20
10.9609486584
 10
39.8098522762
 20
10.9988167049
 10
39.7975020672
 20
11.0374964756
 10
39.7807121068
 20
11.0758752237
 10
39.7599654116
 20
11.1128488627
 10
39.7358588262
 20
11.1473537281
 10
39.7090858533
 20
11.178397178
 10
39.6804167024
 20
11.2050861487
 10
39.6506761329
 20
11.2266528471
 10
39.6207197269
 20
11.2424768387
 10
39.5914092755
 20
11.2521028959
 10
39.5635879871
 20
11.2552540946
 10
39.5380562295
 20
11.2518397807
 10
39.5155485048
 20
11.2419581776
 10
39.4967123195
 20
11.2258935611
 10
39.4820895561
 20
11.204108081
 10
39.472100885
 20
11.1772284659
 10
39.4670336621
 20
11.1460279933
 10
39.4670336621
 20
11.1114042441
 10
39.472100885
 20
11.0743532805
 10
39.4820895561
 20
11.0359409912
 10
39.4967123195
 20
10.9972724279
 10
39.5155485048
 20
10.9594600147
 10
39.5380562295
 20
10.9235915459
 10
39.5635879871
 20
10.8906988921
 10
39.5914092755
 20
10.8617283149
 10
39.6207197269
 20
10.8375132453
 10
39.6506761329
 20
10.8187503066
 10
39.6804167024
 20
10.8059792744
 10
39.7090858533
 20
10.7995675481
 10
39.7358588262
 20
10.7996995814
 10
39.7599654116
 20
10.8063715759
 10
39.7807121068
 20
10.8193915904
 10
39.7975020672
 20
10.8383850629
 10
39.8098522762
 20
10.8628055857
 10
39.8174074408
 20
10.8919506249
 10
39.8199502126
 20
10.9249817307
  0
LINE
  5
20E
330
1F
100
AcDbEntity
  8
0
  6
SLD-Solid
 62
     7
370
    25
100
AcDbLine
 10
40.5015099767
 20
11.5292546595
 30
0.0
 11
39.6786200293
 21
12.0042989146
 31
0.0
  0
LINE
  5
20F
330
1F
100
AcDbEntity
  8
0
  6
SLD-Solid
 62
     7
370
    25
100
AcDbLine
 10
40.473497731
 20
10.6663813858
 30
0.0
 11
40.5885752837
 21
11.3593314838
 31
0.0
  0
ARC
  5
210
330
1F
100
AcDbEntity
  8
0
  6
SLD-Solid
 62
     7
370
    25
100
AcDbCircle
 10
40.4196817655
 20
10.6714388825
 30
0.0
 40
0.0540530889377815
100
AcDbArc
 50
302.7553416485
 51
354.6312468691
  0
ARC
  5
211
330
1F
100
AcDbEntity
  8
0
  6
SLD-Solid
 62
     7
370
    25
100
AcDbCircle
 10
39.642132818
 20
11.9544792985
 30
0.0
 40
0.06175200988328
100
AcDbArc
 50
53.7814583169
 51
114.908083254
  0
LWPOLYLINE
  5
212
330
1F
100
AcDbEntity
  8
0
  6
SLD-Solid
 62
     7
370
    25
100
AcDbPolyline
 90
       11
 70
   128
 43
0.0
 10
39.8788136555
 20
10.4690264673
 10
39.8605301602
 20
10.4602015976
 10
39.8337287053
 20
10.4523181431
 10
39.8043731525
 20
10.4485301292
 10
39.7743080191
 20
10.4490755708
 10
39.745422408
 20
10.4539201957
 10
39.7195313085
 20
10.4627595984
 10
39.6982615534
 20
10.4750383666
 10
39.6829495998
 20
10.4899849802
 10
39.674557554
 20
10.5066602885
 10
39.6730801549
 20
10.5174972119
  0
ARC
  5
213
330
1F
100
AcDbEntity
  8
0
  6
SLD-Solid
 62
     7
370
    25
100
AcDbCircle
 10
43.8101036528
 20
11.0295324544
 30
0.0
 40
0.2557938278015376
100
AcDbArc
 50
306.2403453107
 51
5.0718350827
  0
LINE
  5
214
330
1F
100
AcDbEntity
  8
0
  6
SLD-Solid
 62
     7
370
    25
100
AcDbLine
 10
42.0729761539
 20
15.9086677586
 30
0.0
 11
42.0729761539
 21
10.0385751504
 31
0.0
  0
LINE
  5
215
330
1F
100
AcDbEntity
  8
0
  6
SLD-Solid
 62
     7
370
    25
100
AcDbLine
 10
39.1204378696
 20
17.88503992
 30
0.0
 11
41.8375095957
 21
16.3165077996
 31
0.0
  0
ARC
  5
216
330
1F
100
AcDbEntity
  8
0
  6
SLD-Solid
 62
     7
370
    25
100
AcDbCircle
 10
39.0225995319
 20
17.7459506526
 30
0.0
 40
0.170053416943743
100
AcDbArc
 50
54.8766343273
 51
113.7924339906
  0
ARC
  5
217
330
1F
100
AcDbEntity
  8
0
  6
SLD-Solid
 62
     7
370
    25
100
AcDbCircle
 10
41.5653977006
 20
15.8875105622
 30
0.0
 40
0.5080192054650721
100
AcDbArc
 50
2.3868561234
 51
57.6131440222
  0
LINE
  5
218
330
1F
100
AcDbEntity
  8
0
  6
SLD-Solid
 62
     7
370
    25
100
AcDbLine
 10
41.8375095957
 20
16.3165077996
 30
0.0
 11
43.3135950014
 21
17.1686337663
 31
0.0
  0
LINE
  5
219
330
1F
100
AcDbEntity
  8
0
  6
SLD-Solid
 62
     7
370
    25
100
AcDbLine
 10
43.3135950014
 20
17.1686337663
 30
0.0
 11
40.5965232753
 21
18.7371658867
 31
0.0
  0
ARC
  5
21A
330
1F
100
AcDbEntity
  8
0
  6
SLD-Solid
 62
     7
370
    25
100
AcDbCircle
 10
40.5382225196
 20
18.7158946715
 30
0.0
 40
0.2550613398166323
100
AcDbArc
 50
54.892450946
 51
114.2506877745
  0
LINE
  5
21B
330
1F
100
AcDbEntity
  8
0
  6
SLD-Solid
 62
     7
370
    25
100
AcDbLine
 10
40.684911623
 20
18.9245537093
 30
0.0
 11
43.4019833491
 21
17.3560215889
 31
0.0
  0
ARC
  5
21C
330
1F
100
AcDbEntity
  8
0
  6
SLD-Solid
 62
     7
370
    25
100
AcDbCircle
 10
42.9900762901
 20
16.7099586469
 30
0.0
 40
0.7662015076030809
100
AcDbArc
 50
2.520154907
 51
57.4798452386
  0
LINE
  5
21D
330
1F
100
AcDbEntity
  8
0
  6
SLD-Solid
 62
     7
370
    25
100
AcDbLine
 10
43.7555367397
 20
16.743649155
 30
0.0
 11
43.7555367397
 21
10.8735565467
 31
0.0
  0
ARC
  5
21E
330
1F
100
AcDbEntity
  8
0
  6
SLD-Solid
 62
     7
370
    25
100
AcDbCircle
 10
43.0414831064
 20
16.739636529
 30
0.0
 40
0.5080192054651151
100
AcDbArc
 50
2.3868561234
 51
57.6131440222
  0
LINE
  5
21F
330
1F
100
AcDbEntity
  8
0
  6
SLD-Solid
 62
     7
370
    25
100
AcDbLine
 10
43.5490615596
 20
10.8907011171
 30
0.0
 11
43.5490615596
 21
16.7607937254
 31
0.0
  0
ARC
  5
220
330
1F
100
AcDbEntity
  8
0
  6
SLD-Solid
 62
     7
370
    25
100
AcDbCircle
 10
40.4991524725
 20
18.602741067
 30
0.0
 40
0.165985256571552
100
AcDbArc
 50
54.0822552047
 51
114.6072863662
  0
ARC
  5
221
330
1F
100
AcDbEntity
  8
0
  6
SLD-Solid
 62
     7
370
    25
100
AcDbCircle
 10
41.9105998118
 20
10.0202095579
 30
0.0
 40
0.1634116625438582
100
AcDbArc
 50
304.8386851605
 51
6.4530208131
  0
ARC
  5
222
330
1F
100
AcDbEntity
  8
0
  6
SLD-Solid
 62
     7
370
    25
100
AcDbCircle
 10
43.386666386
 20
10.8723393843
 30
0.0
 40
0.163429941049724
100
AcDbArc
 50
304.8612461238
 51
6.4509342695
  0
ARC
  5
223
330
1F
100
AcDbEntity
  8
0
  6
SLD-Solid
 62
     7
370
    25
100
AcDbCircle
 10
43.5141418971
 20
10.8447407968
 30
0.0
 40
0.2431086535926678
100
AcDbArc
 50
304.9569847187
 51
6.807291566
  0
LINE
  5
224
330
1F
100
AcDbEntity
  8
0
  6
SLD-Solid
 62
     7
370
    25
100
AcDbLine
 10
39.3201168912
 20
11.7973394582
 30
0.0
 11
40.1430068387
 21
11.3222952032
 31
0.0
  0
ARC
  5
225
330
1F
100
AcDbEntity
  8
0
  6
SLD-Solid
 62
     7
370
    25
100
AcDbCircle
 10
39.28362968
 20
11.7475198422
 30
0.0
 40
0.0617520098832867
100
AcDbArc
 50
53.7814583169
 51
114.908083254
  0
ARC
  5
226
330
1F
100
AcDbEntity
  8
0
  6
SLD-Solid
 62
     7
370
    25
100
AcDbCircle
 10
40.0449450339
 20
11.1647833882
 30
0.0
 40
0.1855426888740859
100
AcDbArc
 50
356.1644945832
 51
58.0949311165
  0
LINE
  5
227
330
1F
100
AcDbEntity
  8
0
  6
SLD-Solid
 62
     7
370
    25
100
AcDbLine
 10
40.2300721457
 20
11.1523720274
 30
0.0
 11
40.114994593
 21
10.4594219295
 31
0.0
  0
ARC
  5
228
330
1F
100
AcDbEntity
  8
0
  6
SLD-Solid
 62
     7
370
    25
100
AcDbCircle
 10
40.0611786274
 20
10.4644794261
 30
0.0
 40
0.0540530889378032
100
AcDbArc
 50
302.7553416485
 51
354.6312468691
  0
LINE
  5
229
330
1F
100
AcDbEntity
  8
0
  6
SLD-Solid
 62
     7
370
    25
100
AcDbLine
 10
40.1430068387
 20
11.3222952032
 30
0.0
 11
40.5015099767
 21
11.5292546595
 31
0.0
  0
LINE
  5
22A
330
1F
100
AcDbEntity
  8
0
  6
SLD-Solid
 62
     7
370
    25
100
AcDbLine
 10
32.5827401845
 20
10.1225954858
 30
0.0
 11
28.7402204994
 21
10.1225954858
 31
0.0
  0
ARC
  5
22B
330
1F
100
AcDbEntity
  8
0
  6
SLD-Solid
 62
     7
370
    25
100
AcDbCircle
 10
28.7402204994
 20
10.6225954858
 30
0.0
 40
0.5
100
AcDbArc
 50
180.0
 51
270.0
  0
LINE
  5
22C
330
1F
100
AcDbEntity
  8
0
  6
SLD-Solid
 62
     7
370
    25
100
AcDbLine
 10
28.2402204994
 20
10.6225954858
 30
0.0
 11
28.2402204994
 21
17.8115718638
 31
0.0
  0
ARC
  5
22D
330
1F
100
AcDbEntity
  8
0
  6
SLD-Solid
 62
     7
370
    25
100
AcDbCircle
 10
28.7402204994
 20
17.8115718638
 30
0.0
 40
0.5
100
AcDbArc
 50
90.0
 51
180.0
  0
LINE
  5
22E
330
1F
100
AcDbEntity
  8
0
  6
SLD-Solid
 62
     7
370
    25
100
AcDbLine
 10
28.7402204994
 20
18.3115718638
 30
0.0
 11
32.5827401845
 21
18.3115718638
 31
0.0
  0
ARC
  5
22F
330
1F
100
AcDbEntity
  8
0
  6
SLD-Solid
 62
     7
370
    25
100
AcDbCircle
 10
32.5827401845
 20
17.8115718638
 30
0.0
 40
0.5
100
AcDbArc
 50
0.0
 51
90.0
  0
LINE
  5
230
330
1F
100
AcDbEntity
  8
0
  6
SLD-Solid
 62
     7
370
    25
100
AcDbLine
 10
33.0827401845
 20
17.8115718638
 30
0.0
 11
33.0827401845
 21
10.6225954858
 31
0.0
  0
ARC
  5
231
330
1F
100
AcDbEntity
  8
0
  6
SLD-Solid
 62
     7
370
    25
100
AcDbCircle
 10
32.5827401845
 20
17.8115718638
 30
0.0
 40
0.4200000000000017
100
AcDbArc
 50
0.0
 51
90.0
  0
LINE
  5
232
330
1F
100
AcDbEntity
  8
0
  6
SLD-Solid
 62
     7
370
    25
100
AcDbLine
 10
32.5827401845
 20
18.2315718638
 30
0.0
 11
28.7402204994
 21
18.2315718638
 31
0.0
  0
ARC
  5
233
330
1F
100
AcDbEntity
  8
0
  6
SLD-Solid
 62
     7
370
    25
100
AcDbCircle
 10
28.7402204994
 20
17.8115718638
 30
0.0
 40
0.4200000000000017
100
AcDbArc
 50
90.0
 51
180.0
  0
LINE
  5
234
330
1F
100
AcDbEntity
  8
0
  6
SLD-Solid
 62
     7
370
    25
100
AcDbLine
 10
28.3202204994
 20
17.8115718638
 30
0.0
 11
28.3202204994
 21
10.6225954858
 31
0.0
  0
ARC
  5
235
330
1F
100
AcDbEntity
  8
0
  6
SLD-Solid
 62
     7
370
    25
100
AcDbCircle
 10
28.7402204994
 20
10.6225954858
 30
0.0
 40
0.4200000000000017
100
AcDbArc
 50
180.0
 51
270.0
  0
LINE
  5
236
330
1F
100
AcDbEntity
  8
0
  6
SLD-Solid
 62
     7
370
    25
100
AcDbLine
 10
28.7402204994
 20
10.2025954858
 30
0.0
 11
32.5827401845
 21
10.2025954858
 31
0.0
  0
ARC
  5
237
330
1F
100
AcDbEntity
  8
0
  6
SLD-Solid
 62
     7
370
    25
100
AcDbCircle
 10
32.5827401845
 20
10.6225954858
 30
0.0
 40
0.4200000000000017
100
AcDbArc
 50
270.0
 51
0.0
  0
LINE
  5
238
330
1F
100
AcDbEntity
  8
0
  6
SLD-Solid
 62
     7
370
    25
100
AcDbLine
 10
33.0027401845
 20
10.6225954858
 30
0.0
 11
33.0027401845
 21
17.8115718638
 31
0.0
  0
ARC
  5
239
330
1F
100
AcDbEntity
  8
0
  6
SLD-Solid
 62
     7
370
    25
100
AcDbCircle
 10
32.5827401845
 20
10.6225954858
 30
0.0
 40
0.5
100
AcDbArc
 50
270.0
 51
0.0
  0
LINE
  5
23A
330
1F
100
AcDbEntity
  8
0
  6
SLD-Solid
 62
     7
370
    25
100
AcDbLine
 10
30.4987017425
 20
17.2600412814
 30
0.0
 11
30.4987017425
 21
17.2740412814
 31
0.0
  0
LINE
  5
23B
330
1F
100
AcDbEntity
  8
0
  6
SLD-Solid
 62
     7
370
    25
100
AcDbLine
 10
30.4987017425
 20
17.2600412814
 30
0.0
 11
30.8242589414
 21
17.2600412814
 31
0.0
  0
LINE
  5
23C
330
1F
100
AcDbEntity
  8
0
  6
SLD-Solid
 62
     7
370
    25
100
AcDbLine
 10
30.8242589414
 20
17.2740412814
 30
0.0
 11
30.8242589414
 21
17.2600412814
 31
0.0
  0
LINE
  5
23D
330
1F
100
AcDbEntity
  8
0
  6
SLD-Solid
 62
     7
370
    25
100
AcDbLine
 10
30.8242589414
 20
17.2740412814
 30
0.0
 11
30.6810292619
 21
17.5265392611
 31
0.0
  0
LINE
  5
23E
330
1F
100
AcDbEntity
  8
0
  6
SLD-Solid
 62
     7
370
    25
100
AcDbLine
 10
30.6810292619
 20
17.5265392611
 30
0.0
 11
30.641931422
 21
17.5265392611
 31
0.0
  0
LINE
  5
23F
330
1F
100
AcDbEntity
  8
0
  6
SLD-Solid
 62
     7
370
    25
100
AcDbLine
 10
30.641931422
 20
17.5265392611
 30
0.0
 11
30.4987017425
 21
17.2740412814
 31
0.0
  0
CIRCLE
  5
240
330
1F
100
AcDbEntity
  8
0
  6
SLD-Solid
 62
     7
370
    25
100
AcDbCircle
 10
29.919980342
 20
17.0310718638
 30
0.0
 40
0.0914999999999964
  0
CIRCLE
  5
241
330
1F
100
AcDbEntity
  8
0
  6
SLD-Solid
 62
     7
370
    25
100
AcDbCircle
 10
30.661480342
 20
15.5480718638
 30
0.0
 40
0.0914999999999999
  0
CIRCLE
  5
242
330
1F
100
AcDbEntity
  8
0
  6
SLD-Solid
 62
     7
370
    25
100
AcDbCircle
 10
31.402980342
 20
17.0310718638
 30
0.0
 40
0.0914999999999999
  0
LINE
  5
243
330
1F
100
AcDbEntity
  8
0
  6
SLD-Solid
 62
     7
370
    25
100
AcDbLine
 10
29.94066289
 20
14.9145718638
 30
0.0
 11
29.3072814228
 21
18.0316066434
 31
0.0
  0
LINE
  5
244
330
1F
100
AcDbEntity
  8
0
  6
SLD-Solid
 62
     7
370
    25
100
AcDbLine
 10
29.3072814228
 20
18.0316066434
 30
0.0
 11
29.30566289
 21
18.0395718638
 31
0.0
  0
LINE
  5
245
330
1F
100
AcDbEntity
  8
0
  6
SLD-Solid
 62
     7
370
    25
100
AcDbLine
 10
29.30566289
 20
18.0395718638
 30
0.0
 11
32.0172977939
 21
18.0395718638
 31
0.0
  0
LINE
  5
246
330
1F
100
AcDbEntity
  8
0
  6
SLD-Solid
 62
     7
370
    25
100
AcDbLine
 10
32.0172977939
 20
18.0395718638
 30
0.0
 11
32.0156792611
 21
18.0316066434
 31
0.0
  0
LINE
  5
247
330
1F
100
AcDbEntity
  8
0
  6
SLD-Solid
 62
     7
370
    25
100
AcDbLine
 10
32.0156792611
 20
18.0316066434
 30
0.0
 11
31.3822977939
 21
14.9145718638
 31
0.0
  0
LINE
  5
248
330
1F
100
AcDbEntity
  8
0
  6
SLD-Solid
 62
     7
370
    25
100
AcDbLine
 10
29.94066289
 20
14.9145718638
 30
0.0
 11
31.3822977939
 21
14.9145718638
 31
0.0
  0
LINE
  5
249
330
1F
100
AcDbEntity
  8
0
  6
SLD-Solid
 62
     7
370
    25
100
AcDbLine
 10
31.341480342
 20
14.9145718638
 30
0.0
 11
31.3806792611
 21
14.9066066434
 31
0.0
  0
LINE
  5
24A
330
1F
100
AcDbEntity
  8
0
  6
SLD-Solid
 62
     7
370
    25
100
AcDbLine
 10
31.3822977939
 20
14.9145718638
 30
0.0
 11
31.3806792611
 21
14.9066066434
 31
0.0
  0
LINE
  5
24B
330
1F
100
AcDbEntity
  8
0
  6
SLD-Solid
 62
     7
370
    25
100
AcDbLine
 10
30.6623908057
 20
17.2671251673
 30
0.0
 11
30.6623908057
 21
17.2600412814
 31
0.0
  0
LINE
  5
24C
330
1F
100
AcDbEntity
  8
0
  6
SLD-Solid
 62
     7
370
    25
100
AcDbLine
 10
30.8203357702
 20
17.2671251673
 30
0.0
 11
30.6623908057
 21
17.2671251673
 31
0.0
  0
LINE
  5
24D
330
1F
100
AcDbEntity
  8
0
  6
SLD-Solid
 62
     7
370
    25
100
AcDbLine
 10
30.8203357702
 20
17.2671251673
 30
0.0
 11
30.8242589414
 21
17.2740412814
 31
0.0
  0
LINE
  5
24E
330
1F
100
AcDbEntity
  8
0
  6
SLD-Solid
 62
     7
370
    25
100
AcDbLine
 10
30.6623908057
 20
17.2671251673
 30
0.0
 11
30.6623908057
 21
17.5265392611
 31
0.0
  0
LINE
  5
24F
330
1F
100
AcDbEntity
  8
0
  6
SLD-Solid
 62
     7
370
    25
100
AcDbLine
 10
30.6605698782
 20
17.2671251673
 30
0.0
 11
30.6605698782
 21
17.5265392611
 31
0.0
  0
LINE
  5
250
330
1F
100
AcDbEntity
  8
0
  6
SLD-Solid
 62
     7
370
    25
100
AcDbLine
 10
30.4987017425
 20
17.2740412814
 30
0.0
 11
30.5026249137
 21
17.2671251673
 31
0.0
  0
LINE
  5
251
330
1F
100
AcDbEntity
  8
0
  6
SLD-Solid
 62
     7
370
    25
100
AcDbLine
 10
30.6605698782
 20
17.2671251673
 30
0.0
 11
30.5026249137
 21
17.2671251673
 31
0.0
  0
LINE
  5
252
330
1F
100
AcDbEntity
  8
0
  6
SLD-Solid
 62
     7
370
    25
100
AcDbLine
 10
30.6605698782
 20
17.2671251673
 30
0.0
 11
30.6605698782
 21
17.2600412814
 31
0.0
  0
LINE
  5
253
330
1F
100
AcDbEntity
  8
0
  6
SLD-Solid
 62
     7
370
    25
100
AcDbLine
 10
29.9422814228
 20
14.9066066434
 30
0.0
 11
29.94066289
 21
14.9145718638
 31
0.0
  0
LINE
  5
254
330
1F
100
AcDbEntity
  8
0
  6
SLD-Solid
 62
     7
370
    25
100
AcDbLine
 10
29.981480342
 20
14.9145718638
 30
0.0
 11
29.9422814228
 21
14.9066066434
 31
0.0
  0
LINE
  5
255
330
1F
100
AcDbEntity
  8
0
  6
SLD-Solid
 62
     7
370
    25
100
AcDbLine
 10
31.2409132706
 20
14.9089396024
 30
0.0
 11
31.3691981635
 21
14.9089396024
 31
0.0
  0
LINE
  5
256
330
1F
100
AcDbEntity
  8
0
  6
SLD-Solid
 62
     7
370
    25
100
AcDbLine
 10
31.2409132706
 20
14.9089396024
 30
0.0
 11
31.1843331519
 21
14.9145718638
 31
0.0
  0
LINE
  5
257
330
1F
100
AcDbEntity
  8
0
  6
SLD-Solid
 62
     7
370
    25
100
AcDbLine
 10
29.9537625204
 20
14.9089396024
 30
0.0
 11
30.0820474133
 21
14.9089396024
 31
0.0
  0
LINE
  5
258
330
1F
100
AcDbEntity
  8
0
  6
SLD-Solid
 62
     7
370
    25
100
AcDbLine
 10
30.138627532
 20
14.9145718638
 30
0.0
 11
30.0820474133
 21
14.9089396024
 31
0.0
  0
LINE
  5
259
330
1F
100
AcDbEntity
  8
0
  6
SLD-Solid
 62
     7
370
    25
100
AcDbLine
 10
30.6623908057
 20
17.2671251673
 30
0.0
 11
30.6605698782
 21
17.2671251673
 31
0.0
  0
DIMENSION
  5
25A
330
1F
100
AcDbEntity
  8
DIMS
100
AcDbDimension
  2
_D_3
 10
31.402980342
 20
19.177713596
 30
0.0
 11
30.6621225835
 21
19.177713596
 31
0.0
 70
   160
  1
<>
 71
     2
 42
-1.0
  3
SLDDIMSTYLE3
100
AcDbAlignedDimension
 13
29.919980342
 23
17.0310718638
 33
0.0
 14
31.402980342
 24
17.0310718638
 34
0.0
100
AcDbRotatedDimension
  0
DIMENSION
  5
26A
330
1F
100
AcDbEntity
  8
DIMS
100
AcDbDimension
  2
_D_4
 10
27.1378582947
 20
17.0310718638
 30
0.0
 11
27.1378582947
 21
16.3204238028
 31
0.0
 70
   160
  1
<>
 71
     2
 42
-1.0
  3
SLDDIMSTYLE3
100
AcDbAlignedDimension
 13
30.661480342
 23
15.5480718638
 33
0.0
 14
29.919980342
 24
17.0310718638
 34
0.0
 50
90.0
100
AcDbRotatedDimension
  0
DIMENSION
  5
279
330
1F
100
AcDbEntity
  8
DIMS
100
AcDbDimension
  2
_D_5
 10
27.1378582947
 20
10.1225954858
 30
0.0
 11
27.1378582947
 21
12.6445610487
 31
0.0
 70
   160
  1
<>
 71
     2
 42
-1.0
  3
SLDDIMSTYLE1
100
AcDbAlignedDimension
 13
30.661480342
 23
15.5480718638
 33
0.0
 14
28.7402204994
 24
10.1225954858
 34
0.0
 50
90.0
100
AcDbRotatedDimension
  0
MTEXT
  5
288
330
1F
100
AcDbEntity
  8
NOTES
100
AcDbMText
 10
32.9927680453
 20
19.4458893674
 30
0.0
 40
0.5
 41
0.0
 71
     1
 72
     1
  1
mounting hole
  7
SLDTEXTSTYLE0
 73
     1
 44
1.0
  0
LEADER
  5
289
330
1F
100
AcDbEntity
  8
NOTES
100
AcDbLeader
  3
SLDDIMSTYLE2
 76
     3
 10
31.4688821495
 20
17.0945478573
 30
0.0
 10
32.4726462647
 20
19.1989215606
 30
0.0
 10
32.9726462647
 20
19.1989215606
 30
0.0
  0
LINE
  5
28A
330
1F
100
AcDbEntity
  8
0
  6
SLD-Solid
 62
     7
370
    25
100
AcDbLine
 10
10.7986414492
 20
26.9694582945
 30
0.0
 11
10.7986414492
 21
27.0194582945
 31
0.0
  0
LINE
  5
28B
330
1F
100
AcDbEntity
  8
0
  6
SLD-Solid
 62
     7
370
    25
100
AcDbLine
 10
10.6986414492
 20
27.0194582945
 30
0.0
 11
10.6986414492
 21
26.9694582945
 31
0.0
  0
ARC
  5
28C
330
1F
100
AcDbEntity
  8
0
  6
SLD-Solid
 62
     7
370
    25
100
AcDbCircle
 10
10.9401414492
 20
24.9344582945
 30
0.0
 40
0.2500000000000018
100
AcDbArc
 50
270.0
 51
0.0
  0
ARC
  5
28D
330
1F
100
AcDbEntity
  8
0
  6
SLD-Solid
 62
     7
370
    25
100
AcDbCircle
 10
10.5571414492
 20
24.9344582945
 30
0.0
 40
0.2500000000000018
100
AcDbArc
 50
180.0
 51
270.0
  0
LINE
  5
28E
330
1F
100
AcDbEntity
  8
0
  6
SLD-Solid
 62
     7
370
    25
100
AcDbLine
 10
10.3071414492
 20
24.9694582945
 30
0.0
 11
10.3071414492
 21
24.9344582945
 31
0.0
  0
LINE
  5
28F
330
1F
100
AcDbEntity
  8
0
  6
SLD-Solid
 62
     7
370
    25
100
AcDbLine
 10
11.1901414492
 20
24.9344582945
 30
0.0
 11
11.1901414492
 21
24.9694582945
 31
0.0
  0
LINE
  5
290
330
1F
100
AcDbEntity
  8
0
  6
SLD-Solid
 62
     7
370
    25
100
AcDbLine
 10
11.4555125113
 20
24.1624582945
 30
0.0
 11
11.4555125113
 21
24.6694582945
 31
0.0
  0
LINE
  5
291
330
1F
100
AcDbEntity
  8
0
  6
SLD-Solid
 62
     7
370
    25
100
AcDbLine
 10
10.0417703872
 20
24.6694582945
 30
0.0
 11
10.0417703872
 21
24.1624582945
 31
0.0
  0
ARC
  5
292
330
1F
100
AcDbEntity
  8
0
  6
SLD-Solid
 62
     7
370
    25
100
AcDbCircle
 10
11.3305125113
 20
24.1624582945
 30
0.0
 40
0.125
100
AcDbArc
 50
270.0
 51
0.0
  0
ARC
  5
293
330
1F
100
AcDbEntity
  8
0
  6
SLD-Solid
 62
     7
370
    25
100
AcDbCircle
 10
10.1667703872
 20
24.1624582945
 30
0.0
 40
0.125
100
AcDbArc
 50
180.0
 51
270.0
  0
LINE
  5
294
330
1F
100
AcDbEntity
  8
0
  6
SLD-Solid
 62
     7
370
    25
100
AcDbLine
 10
10.3271414492
 20
24.8364787048
 30
0.0
 11
10.3271414492
 21
24.6694582945
 31
0.0
  0
LINE
  5
295
330
1F
100
AcDbEntity
  8
0
  6
SLD-Solid
 62
     7
370
    25
100
AcDbLine
 10
11.1701414492
 20
24.6694582945
 30
0.0
 11
11.1701414492
 21
24.8364787048
 31
0.0
  0
LINE
  5
296
330
1F
100
AcDbEntity
  8
0
  6
SLD-Solid
 62
     7
370
    25
100
AcDbLine
 10
12.6699012918
 20
27.8694582945
 30
0.0
 11
8.8273816067
 21
27.8694582945
 31
0.0
  0
LINE
  5
297
330
1F
100
AcDbEntity
  8
0
  6
SLD-Solid
 62
     7
370
    25
100
AcDbLine
 10
8.3273816067
 20
27.4319582945
 30
0.0
 11
8.3273816067
 21
27.8694582945
 31
0.0
  0
LINE
  5
298
330
1F
100
AcDbEntity
  8
0
  6
SLD-Solid
 62
     7
370
    25
100
AcDbLine
 10
8.8273816067
 20
27.8694582945
 30
0.0
 11
8.3273816067
 21
27.8694582945
 31
0.0
  0
LINE
  5
299
330
1F
100
AcDbEntity
  8
0
  6
SLD-Solid
 62
     7
370
    25
100
AcDbLine
 10
13.1699012918
 20
27.4319582945
 30
0.0
 11
13.1699012918
 21
27.8694582945
 31
0.0
  0
LINE
  5
29A
330
1F
100
AcDbEntity
  8
0
  6
SLD-Solid
 62
     7
370
    25
100
AcDbLine
 10
13.1699012918
 20
27.8694582945
 30
0.0
 11
12.6699012918
 21
27.8694582945
 31
0.0
  0
LINE
  5
29B
330
1F
100
AcDbEntity
  8
0
  6
SLD-Solid
 62
     7
370
    25
100
AcDbLine
 10
13.1074012918
 20
27.3694582945
 30
0.0
 11
12.6699012918
 21
27.3694582945
 31
0.0
  0
ARC
  5
29C
330
1F
100
AcDbEntity
  8
0
  6
SLD-Solid
 62
     7
370
    25
100
AcDbCircle
 10
13.1074012918
 20
27.4319582945
 30
0.0
 40
0.0625
100
AcDbArc
 50
270.0
 51
0.0
  0
LINE
  5
29D
330
1F
100
AcDbEntity
  8
0
  6
SLD-Solid
 62
     7
370
    25
100
AcDbLine
 10
8.8273816067
 20
27.3694582945
 30
0.0
 11
8.3898816067
 21
27.3694582945
 31
0.0
  0
ARC
  5
29E
330
1F
100
AcDbEntity
  8
0
  6
SLD-Solid
 62
     7
370
    25
100
AcDbCircle
 10
8.3898816067
 20
27.4319582945
 30
0.0
 40
0.0625
100
AcDbArc
 50
180.0
 51
270.0
  0
LINE
  5
29F
330
1F
100
AcDbEntity
  8
0
  6
SLD-Solid
 62
     7
370
    25
100
AcDbLine
 10
12.6699012918
 20
27.3694582945
 30
0.0
 11
8.8273816067
 21
27.3694582945
 31
0.0
  0
ARC
  5
2A0
330
1F
100
AcDbEntity
  8
0
  6
SLD-Solid
 62
     7
370
    25
100
AcDbCircle
 10
8.4318816067
 20
27.3069582945
 30
0.0
 40
0.0625000000000036
100
AcDbArc
 50
0.0
 51
90.0
  0
ARC
  5
2A1
330
1F
100
AcDbEntity
  8
0
  6
SLD-Solid
 62
     7
370
    25
100
AcDbCircle
 10
13.0654012918
 20
27.3069582945
 30
0.0
 40
0.0625000000000036
100
AcDbArc
 50
90.0
 51
180.0
  0
LINE
  5
2A2
330
1F
100
AcDbEntity
  8
0
  6
SLD-Solid
 62
     7
370
    25
100
AcDbLine
 10
9.6486414492
 20
27.0194582945
 30
0.0
 11
9.6486414492
 21
25.4194582945
 31
0.0
  0
LINE
  5
2A3
330
1F
100
AcDbEntity
  8
0
  6
SLD-Solid
 62
     7
370
    25
100
AcDbLine
 10
9.6486414492
 20
25.4194582945
 30
0.0
 11
11.8486414492
 21
25.4194582945
 31
0.0
  0
LINE
  5
2A4
330
1F
100
AcDbEntity
  8
0
  6
SLD-Solid
 62
     7
370
    25
100
AcDbLine
 10
11.8486414492
 20
25.4194582945
 30
0.0
 11
11.8486414492
 21
27.0194582945
 31
0.0
  0
LINE
  5
2A5
330
1F
100
AcDbEntity
  8
0
  6
SLD-Solid
 62
     7
370
    25
100
AcDbLine
 10
11.8486414492
 20
27.0194582945
 30
0.0
 11
9.6486414492
 21
27.0194582945
 31
0.0
  0
LINE
  5
2A6
330
1F
100
AcDbEntity
  8
0
  6
SLD-Solid
 62
     7
370
    25
100
AcDbLine
 10
13.0029012918
 20
25.2194582945
 30
0.0
 11
13.0029012918
 21
27.3069582945
 31
0.0
  0
LINE
  5
2A7
330
1F
100
AcDbEntity
  8
0
  6
SLD-Solid
 62
     7
370
    25
100
AcDbLine
 10
8.4943816067
 20
25.2194582945
 30
0.0
 11
8.4943816067
 21
27.3069582945
 31
0.0
  0
LINE
  5
2A8
330
1F
100
AcDbEntity
  8
0
  6
SLD-Solid
 62
     7
370
    25
100
AcDbLine
 10
9.6986414492
 20
25.4694582945
 30
0.0
 11
11.7986414492
 21
25.4694582945
 31
0.0
  0
LINE
  5
2A9
330
1F
100
AcDbEntity
  8
0
  6
SLD-Solid
 62
     7
370
    25
100
AcDbLine
 10
9.6986414492
 20
26.9694582945
 30
0.0
 11
9.6986414492
 21
25.4694582945
 31
0.0
  0
LINE
  5
2AA
330
1F
100
AcDbEntity
  8
0
  6
SLD-Solid
 62
     7
370
    25
100
AcDbLine
 10
11.7986414492
 20
26.9694582945
 30
0.0
 11
9.6986414492
 21
26.9694582945
 31
0.0
  0
LINE
  5
2AB
330
1F
100
AcDbEntity
  8
0
  6
SLD-Solid
 62
     7
370
    25
100
AcDbLine
 10
10.5486414492
 20
26.2494582945
 30
0.0
 11
10.5486414492
 21
26.1894582945
 31
0.0
  0
LINE
  5
2AC
330
1F
100
AcDbEntity
  8
0
  6
SLD-Solid
 62
     7
370
    25
100
AcDbLine
 10
10.5486414492
 20
26.1894582945
 30
0.0
 11
10.9486414492
 21
26.1894582945
 31
0.0
  0
LINE
  5
2AD
330
1F
100
AcDbEntity
  8
0
  6
SLD-Solid
 62
     7
370
    25
100
AcDbLine
 10
10.9486414492
 20
26.1894582945
 30
0.0
 11
10.9486414492
 21
26.2494582945
 31
0.0
  0
LINE
  5
2AE
330
1F
100
AcDbEntity
  8
0
  6
SLD-Solid
 62
     7
370
    25
100
AcDbLine
 10
10.9486414492
 20
26.2494582945
 30
0.0
 11
10.5486414492
 21
26.2494582945
 31
0.0
  0
LINE
  5
2AF
330
1F
100
AcDbEntity
  8
0
  6
SLD-Solid
 62
     7
370
    25
100
AcDbLine
 10
11.7986414492
 20
25.4694582945
 30
0.0
 11
11.7986414492
 21
26.9694582945
 31
0.0
  0
LINE
  5
2B0
330
1F
100
AcDbEntity
  8
0
  6
SLD-Solid
 62
     7
370
    25
100
AcDbLine
 10
12.6699012918
 20
24.9694582945
 30
0.0
 11
8.8273816067
 21
24.9694582945
 31
0.0
  0
LINE
  5
2B1
330
1F
100
AcDbEntity
  8
0
  6
SLD-Solid
 62
     7
370
    25
100
AcDbLine
 10
12.7529012918
 20
24.9694582945
 30
0.0
 11
12.6699012918
 21
24.9694582945
 31
0.0
  0
ARC
  5
2B2
330
1F
100
AcDbEntity
  8
0
  6
SLD-Solid
 62
     7
370
    25
100
AcDbCircle
 10
12.7529012918
 20
25.2194582945
 30
0.0
 40
0.25
100
AcDbArc
 50
270.0
 51
0.0
  0
LINE
  5
2B3
330
1F
100
AcDbEntity
  8
0
  6
SLD-Solid
 62
     7
370
    25
100
AcDbLine
 10
8.8273816067
 20
24.9694582945
 30
0.0
 11
8.7443816067
 21
24.9694582945
 31
0.0
  0
ARC
  5
2B4
330
1F
100
AcDbEntity
  8
0
  6
SLD-Solid
 62
     7
370
    25
100
AcDbCircle
 10
8.7443816067
 20
25.2194582945
 30
0.0
 40
0.25
100
AcDbArc
 50
180.0
 51
270.0
  0
LINE
  5
2B5
330
1F
100
AcDbEntity
  8
0
  6
SLD-Solid
 62
     7
370
    25
100
AcDbLine
 10
10.9401414492
 20
24.6844582945
 30
0.0
 11
10.5571414688
 21
24.6844582945
 31
0.0
  0
LINE
  5
2B6
330
1F
100
AcDbEntity
  8
0
  6
SLD-Solid
 62
     7
370
    25
100
AcDbLine
 10
11.4555125113
 20
24.6694582945
 30
0.0
 11
11.3305125113
 21
24.6694582945
 31
0.0
  0
LINE
  5
2B7
330
1F
100
AcDbEntity
  8
0
  6
SLD-Solid
 62
     7
370
    25
100
AcDbLine
 10
10.1667703872
 20
24.6694582945
 30
0.0
 11
10.0417703872
 21
24.6694582945
 31
0.0
  0
LINE
  5
2B8
330
1F
100
AcDbEntity
  8
0
  6
SLD-Solid
 62
     7
370
    25
100
AcDbLine
 10
11.3305125113
 20
24.6694582945
 30
0.0
 11
10.1667703872
 21
24.6694582945
 31
0.0
  0
LINE
  5
2B9
330
1F
100
AcDbEntity
  8
0
  6
SLD-Solid
 62
     7
370
    25
100
AcDbLine
 10
11.3305125113
 20
24.0374582945
 30
0.0
 11
10.1667703872
 21
24.0374582945
 31
0.0
  0
DIMENSION
  5
2BA
330
1F
100
AcDbEntity
  8
DIMS
100
AcDbDimension
  2
_D_6
 10
13.7998225516
 20
24.9694582945
 30
0.0
 11
13.7998225516
 21
26.2430214365
 31
0.0
 70
   160
  1
<>
 71
     2
 42
-1.0
  3
SLDDIMSTYLE1
100
AcDbAlignedDimension
 13
12.6699012918
 23
27.8694582945
 33
0.0
 14
12.6699012918
 24
24.9694582945
 34
0.0
 50
90.0
100
AcDbRotatedDimension
  0
DIMENSION
  5
2C9
330
1F
100
AcDbEntity
  8
DIMS
100
AcDbDimension
  2
_D_7
 10
14.9809249138
 20
27.8694582945
 30
0.0
 11
14.9809249138
 21
25.5247007913
 31
0.0
 70
   160
  1
<>
 71
     2
 42
-1.0
  3
SLDDIMSTYLE1
100
AcDbAlignedDimension
 13
11.3305125113
 23
24.0374582945
 33
0.0
 14
12.6699012918
 24
27.8694582945
 34
0.0
 50
90.0
100
AcDbRotatedDimension
  0
MTEXT
  5
2D8
330
1F
100
AcDbEntity
  8
NOTES
100
AcDbMText
 10
7.5831970158
 20
24.5848149735
 30
0.0
 40
0.5
 41
0.0
 71
     1
 72
     1
  1
lock
  7
SLDTEXTSTYLE0
 73
     1
 44
1.0
  0
LEADER
  5
2D9
330
1F
100
AcDbEntity
  8
NOTES
100
AcDbLeader
  3
SLDDIMSTYLE2
 76
     3
 10
10.7228448774
 20
26.1894582945
 30
0.0
 10
9.4346646735
 20
24.3421834768
 30
0.0
 10
8.9346646735
 20
24.3421834768
 30
0.0
  0
LINE
  5
2DA
330
1F
100
AcDbEntity
  8
0
  6
SLD-Solid
 62
     7
370
    25
100
AcDbLine
 10
36.0109470533
 20
29.365133178
 30
0.0
 11
35.9180193713
 21
29.3114871691
 31
0.0
  0
LINE
  5
2DB
330
1F
100
AcDbEntity
  8
0
  6
SLD-Solid
 62
     7
370
    25
100
AcDbLine
 10
37.0008965469
 20
29.9366188563
 30
0.0
 11
36.8558970045
 21
29.8529124022
 31
0.0
  0
LINE
  5
2DC
330
1F
100
AcDbEntity
  8
0
  6
SLD-Solid
 62
     7
370
    25
100
AcDbLine
 10
36.9225838523
 20
29.737407394
 30
0.0
 11
37.067577975
 21
29.8211107194
 31
0.0
  0
LINE
  5
2DD
330
1F
100
AcDbEntity
  8
0
  6
SLD-Solid
 62
     7
370
    25
100
AcDbLine
 10
36.0514039062
 20
29.2344859161
 30
0.0
 11
36.0776284813
 21
29.2496250411
 31
0.0
  0
SPLINE
  5
2DE
330
1F
100
AcDbEntity
  8
0
  6
SLD-Solid
 62
     7
370
    25
100
AcDbSpline
210
0.0
220
0.0
230
1.0
 70
     8
 71
     3
 72
    15
 73
    11
 74
     0
 42
0.00000001
 43
0.00000001
 40
0.0
 40
0.0
 40
0.0
 40
0.0
 40
0.1099070296968966
 40
0.2363487275968511
 40
0.3668629260770791
 40
0.5017206308357427
 40
0.6403933783024938
 40
0.7823663440850394
 40
0.9094952127416162
 40
0.9999999999999999
 40
0.9999999999999999
 40
0.9999999999999999
 40
0.9999999999999999
 10
37.32603116990364
 20
29.35755570392271
 30
0.0
 10
37.3193418895103
 20
29.35444106864529
 30
0.0
 10
37.30495697788214
 20
29.34774322514268
 30
0.0
 10
37.28708251967808
 20
29.32989440813469
 30
0.0
 10
37.27294696300358
 20
29.30687430509479
 30
0.0
 10
37.26481673102623
 20
29.27983661300081
 30
0.0
 10
37.26367285103785
 20
29.25081188415227
 30
0.0
 10
37.27030173079537
 20
29.2235305163809
 30
0.0
 10
37.28176003216683
 20
29.201603221564
 30
0.0
 10
37.29260859307715
 20
29.19186163627461
 30
0.0
 10
37.29712005842529
 20
29.18781051605394
 30
0.0
  0
SPLINE
  5
2DF
330
1F
100
AcDbEntity
  8
0
  6
SLD-Solid
 62
     7
370
    25
100
AcDbSpline
210
0.0
220
0.0
230
1.0
 70
     8
 71
     3
 72
    15
 73
    11
 74
     0
 42
0.00000001
 43
0.00000001
 40
0.0
 40
0.0
 40
0.0
 40
0.0
 40
0.0553392035018857
 40
0.2078516715425411
 40
0.3559444501912595
 40
0.5008444136627792
 40
0.6438507919378164
 40
0.7864321461252765
 40
0.9303245110965485
 40
1.0
 40
1.0
 40
1.0
 40
1.0
 10
34.73770955702057
 20
29.74943423021439
 30
0.0
 10
34.73269083911278
 20
29.74683717776396
 30
0.0
 10
34.71384075020432
 20
29.7370827603032
 30
0.0
 10
34.68583364048446
 20
29.71338114456956
 30
0.0
 10
34.65497431803418
 20
29.67997931589964
 30
0.0
 10
34.63066627691592
 20
29.64256011992102
 30
0.0
 10
34.61251539081916
 20
29.60255100544079
 30
0.0
 10
34.60060183027201
 20
29.56044319343025
 30
0.0
 10
34.59556972799356
 20
29.52449936415953
 30
0.0
 10
34.59514439198628
 20
29.50281087186493
 30
0.0
 10
34.59500562815212
 20
29.49573510518569
 30
0.0
  0
LINE
  5
2E0
330
1F
100
AcDbEntity
  8
0
  6
SLD-Solid
 62
     7
370
    25
100
AcDbLine
 10
37.4009729088
 20
29.2058191712
 30
0.0
 11
37.5446467443
 21
29.1791282564
 31
0.0
  0
LINE
  5
2E1
330
1F
100
AcDbEntity
  8
0
  6
SLD-Solid
 62
     7
370
    25
100
AcDbLine
 10
37.525400376
 20
29.2844147067
 30
0.0
 11
37.4192378376
 21
29.3041369843
 31
0.0
  0
LINE
  5
2E2
330
1F
100
AcDbEntity
  8
0
  6
SLD-Solid
 62
     7
370
    25
100
AcDbLine
 10
35.3618367655
 20
30.1108383607
 30
0.0
 11
34.737209022
 21
29.7502484397
 31
0.0
  0
LINE
  5
2E3
330
1F
100
AcDbEntity
  8
0
  6
SLD-Solid
 62
     7
370
    25
100
AcDbLine
 10
34.5950056282
 20
29.4957351052
 30
0.0
 11
34.5950056282
 21
23.6256424969
 31
0.0
  0
LINE
  5
2E4
330
1F
100
AcDbEntity
  8
0
  6
SLD-Solid
 62
     7
370
    25
100
AcDbLine
 10
36.527548778
 20
30.9766193479
 30
0.0
 11
36.3890010003
 21
30.8966374183
 31
0.0
  0
SPLINE
  5
2E5
330
1F
100
AcDbEntity
  8
0
  6
SLD-Solid
 62
     7
370
    25
100
AcDbSpline
210
0.0
220
0.0
230
1.0
 70
     8
 71
     3
 72
    32
 73
    28
 74
     0
 42
0.00000001
 43
0.00000001
 40
0.0
 40
0.0
 40
0.0
 40
0.0
 40
0.0148827708061363
 40
0.054414199354086
 40
0.0931864527112799
 40
0.1315737954855239
 40
0.1699855263415607
 40
0.2088683397108643
 40
0.2486984366675085
 40
0.2899188740282063
 40
0.3327861271775022
 40
0.3771668208444353
 40
0.4225026296689148
 40
0.468100371931561
 40
0.5138686440520073
 40
0.560048970065009
 40
0.6069462086661355
 40
0.6549595727762937
 40
0.6991054394938393
 40
0.742154412163447
 40
0.7837335361070291
 40
0.8239584879584394
 40
0.863147415597107
 40
0.9016227544315639
 40
0.939652883575042
 40
0.9812221585054782
 40
1.0
 40
1.0
 40
1.0
 40
1.0
 10
35.84076947479793
 20
24.52344485660403
 30
0.0
 10
35.83522713568743
 20
24.52054984257674
 30
0.0
 10
35.81496330516992
 20
24.50996512871762
 30
0.0
 10
35.78458501235963
 20
24.48476935428609
 30
0.0
 10
35.75080608813656
 20
24.44933352005139
 30
0.0
 10
35.72335031920444
 20
24.40931631366754
 30
0.0
 10
35.70190618197719
 20
24.36595448187359
 30
0.0
 10
35.68653935065391
 20
24.31954438736627
 30
0.0
 10
35.67725905305635
 20
24.27038244171909
 30
0.0
 10
35.67421706806069
 20
24.21863081384519
 30
0.0
 10
35.67766254169462
 20
24.16461091989792
 30
0.0
 10
35.68781345365483
 20
24.1090448312459
 30
0.0
 10
35.70463421920812
 20
24.05314458339244
 30
0.0
 10
35.72778236390698
 20
23.9982420256336
 30
0.0
 10
35.7568040511573
 20
23.9454516697106
 30
0.0
 10
35.79138765070995
 20
23.89558392283873
 30
0.0
 10
35.83141856211824
 20
23.84936687395183
 30
0.0
 10
35.87529822732898
 20
23.80916619967839
 30
0.0
 10
35.92176384439355
 20
23.77592664665593
 30
0.0
 10
35.96919567467818
 20
23.7502075993242
 30
0.0
 10
36.01785482905326
 20
23.73156904501775
 30
0.0
 10
36.06703124651122
 20
23.72009526862739
 30
0.0
 10
36.11612813519173
 20
23.71579891761291
 30
0.0
 10
36.1646084983625
 20
23.71851432052398
 30
0.0
 10
36.21302191402217
 20
23.72895440216629
 30
0.0
 10
36.25233904940335
 20
23.74273362939714
 30
0.0
 10
36.27395246461952
 20
23.75599954678077
 30
0.0
 10
36.28067777825714
 20
23.76012742079807
 30
0.0
  0
LINE
  5
2E6
330
1F
100
AcDbEntity
  8
0
  6
SLD-Solid
 62
     7
370
    25
100
AcDbLine
 10
35.8647225985
 20
24.5383898112
 30
0.0
 11
35.8399738612
 21
24.5241026692
 31
0.0
  0
LINE
  5
2E7
330
1F
100
AcDbEntity
  8
0
  6
SLD-Solid
 62
     7
370
    25
100
AcDbLine
 10
36.2814379816
 20
23.7593815237
 30
0.0
 11
36.306186719
 21
23.7736686657
 31
0.0
  0
SPLINE
  5
2E8
330
1F
100
AcDbEntity
  8
0
  6
SLD-Solid
 62
     7
370
    25
100
AcDbSpline
210
0.0
220
0.0
230
1.0
 70
     8
 71
     3
 72
    14
 73
    10
 74
     0
 42
0.00000001
 43
0.00000001
 40
0.0
 40
0.0
 40
0.0
 40
0.0
 40
0.1593864444219865
 40
0.3097946028867441
 40
0.4580644791426451
 40
0.6051044447186517
 40
0.7515189962848698
 40
0.8976929793070497
 40
1.0
 40
1.0
 40
1.0
 40
1.0
 10
37.49577737554523
 20
21.73894433693005
 30
0.0
 10
37.51014337849251
 20
21.73144845406629
 30
0.0
 10
37.53806614315587
 20
21.71687893365643
 30
0.0
 10
37.58286487655034
 20
21.70353181356568
 30
0.0
 10
37.62780053804313
 20
21.69691816565369
 30
0.0
 10
37.6729663863218
 20
21.69740890580584
 30
0.0
 10
37.71716101102434
 20
21.70522073379137
 30
0.0
 10
37.75579029817469
 20
21.71762152232861
 30
0.0
 10
37.77772286210543
 20
21.73039156982339
 30
0.0
 10
37.78675315109479
 20
21.7356493782424
 30
0.0
  0
LINE
  5
2E9
330
1F
100
AcDbEntity
  8
0
  6
SLD-Solid
 62
     7
370
    25
100
AcDbLine
 10
37.7872536861
 20
21.7348351687
 30
0.0
 11
39.2633390918
 21
22.5869611355
 31
0.0
  0
LINE
  5
2EA
330
1F
100
AcDbEntity
  8
0
  6
SLD-Solid
 62
     7
370
    25
100
AcDbLine
 10
34.7787056494
 20
23.3074764573
 30
0.0
 11
35.0303707019
 21
23.1621933149
 31
0.0
  0
LINE
  5
2EB
330
1F
100
AcDbEntity
  8
0
  6
SLD-Solid
 62
     7
370
    25
100
AcDbLine
 10
36.2267262641
 20
22.4715519496
 30
0.0
 11
37.4957773755
 21
21.7389443369
 31
0.0
  0
LINE
  5
2EC
330
1F
100
AcDbEntity
  8
0
  6
SLD-Solid
 62
     7
370
    25
100
AcDbLine
 10
35.8747217859
 20
23.6212408592
 30
0.0
 11
35.8690491794
 21
23.6179661332
 31
0.0
  0
ARC
  5
2ED
330
1F
100
AcDbEntity
  8
0
  6
SLD-Solid
 62
     7
370
    25
100
AcDbCircle
 10
35.8111869074
 20
22.3759998427
 30
0.0
 40
0.1249999999999978
100
AcDbArc
 50
240.0026882664
 51
299.9973117337
  0
LINE
  5
2EE
330
1F
100
AcDbEntity
  8
0
  6
SLD-Solid
 62
     7
370
    25
100
AcDbLine
 10
34.9795707723
 20
23.5267421266
 30
0.0
 11
35.094648325
 21
22.7009263144
 31
0.0
  0
ARC
  5
2EF
330
1F
100
AcDbEntity
  8
0
  6
SLD-Solid
 62
     7
370
    25
100
AcDbCircle
 10
35.1033745126
 20
23.5439941957
 30
0.0
 40
0.1250000000000039
100
AcDbArc
 50
119.9973117336
 51
187.9330889159
  0
LINE
  5
2F0
330
1F
100
AcDbEntity
  8
0
  6
SLD-Solid
 62
     7
370
    25
100
AcDbLine
 10
35.1559571445
 20
22.6099222757
 30
0.0
 11
35.7486919866
 21
22.2677437349
 31
0.0
  0
LINE
  5
2F1
330
1F
100
AcDbEntity
  8
0
  6
SLD-Solid
 62
     7
370
    25
100
AcDbLine
 10
35.8736818282
 20
22.2677437349
 30
0.0
 11
36.2321849662
 21
22.4747031912
 31
0.0
  0
LINE
  5
2F2
330
1F
100
AcDbEntity
  8
0
  6
SLD-Solid
 62
     7
370
    25
100
AcDbLine
 10
35.3993827299
 20
23.8592097598
 30
0.0
 11
35.0408795918
 21
23.6522503035
 31
0.0
  0
LINE
  5
2F3
330
1F
100
AcDbEntity
  8
0
  6
SLD-Solid
 62
     7
370
    25
100
AcDbLine
 10
35.4563377763
 20
22.436516228
 30
0.0
 11
35.4563377763
 21
22.3662195508
 31
0.0
  0
ARC
  5
2F4
330
1F
100
AcDbEntity
  8
0
  6
SLD-Solid
 62
     7
370
    25
100
AcDbCircle
 10
35.2184520653
 20
22.7181783835
 30
0.0
 40
0.1250000000000004
100
AcDbArc
 50
187.9330889159
 51
240.0026882664
  0
SPLINE
  5
2F5
330
1F
100
AcDbEntity
  8
0
  6
SLD-Solid
 62
     7
370
    25
100
AcDbSpline
210
0.0
220
0.0
230
1.0
 70
     8
 71
     3
 72
    14
 73
    10
 74
     0
 42
0.00000001
 43
0.00000001
 40
0.0
 40
0.0
 40
0.0
 40
0.0
 40
0.0882996397153455
 40
0.2541676421549798
 40
0.4199215597782089
 40
0.5834281328970806
 40
0.7427085599058335
 40
0.8968115465123143
 40
1.0
 40
1.0
 40
1.0
 40
1.0
 10
39.1539935101051
 20
22.5150162545168
 30
0.0
 10
39.16247503230604
 20
22.51032967675245
 30
0.0
 10
39.1868888182133
 20
22.49683951502607
 30
0.0
 10
39.22778065132621
 20
22.47997677283507
 30
0.0
 10
39.27605316483744
 20
22.46739921154507
 30
0.0
 10
39.32331118243739
 20
22.46304461290083
 30
0.0
 10
39.3680873983773
 20
22.46734030869443
 30
0.0
 10
39.4057514046225
 20
22.4775168612887
 30
0.0
 10
39.42637784614715
 20
22.48931445529598
 30
0.0
 10
39.43465021852417
 20
22.49404595930575
 30
0.0
  0
LINE
  5
2F6
330
1F
100
AcDbEntity
  8
0
  6
SLD-Solid
 62
     7
370
    25
100
AcDbLine
 10
39.4352206537
 20
22.4933564824
 30
0.0
 11
39.7445798704
 21
22.6719457569
 31
0.0
  0
LINE
  5
2F7
330
1F
100
AcDbEntity
  8
0
  6
SLD-Solid
 62
     7
370
    25
100
AcDbLine
 10
39.1463534547
 20
22.5194267646
 30
0.0
 11
39.1539935101
 21
22.5150162545
 31
0.0
  0
SPLINE
  5
2F8
330
1F
100
AcDbEntity
  8
0
  6
SLD-Solid
 62
     7
370
    25
100
AcDbSpline
210
0.0
220
0.0
230
1.0
 70
     8
 71
     3
 72
    15
 73
    11
 74
     0
 42
0.00000001
 43
0.00000001
 40
0.0
 40
0.0
 40
0.0
 40
0.0
 40
0.1147849561606852
 40
0.2392139602273738
 40
0.3683729026099695
 40
0.5017191806244723
 40
0.6391211638696016
 40
0.7818998838100193
 40
0.9109857801884549
 40
1.0
 40
1.0
 40
1.0
 40
1.0
 10
34.59500562815212
 20
23.62564249690467
 30
0.0
 10
34.59556987986819
 20
23.61106221393545
 30
0.0
 10
34.59674579082448
 20
23.58067663600815
 30
0.0
 10
34.60636621006756
 20
23.53449859039143
 30
0.0
 10
34.6223449812124
 20
23.48743985335463
 30
0.0
 10
34.64529184117489
 20
23.44119271466488
 30
0.0
 10
34.67508415525536
 20
23.39688967417234
 30
0.0
 10
34.71030884306617
 20
23.35785515734966
 30
0.0
 10
34.74553076171082
 20
23.32800663367185
 30
0.0
 10
34.76909021828398
 20
23.31342693702125
 30
0.0
 10
34.7787056494111
 20
23.30747645728234
 30
0.0
  0
LWPOLYLINE
  5
2F9
330
1F
100
AcDbEntity
  8
0
  6
SLD-Solid
 62
     7
370
    25
100
AcDbPolyline
 90
       18
 70
   128
 43
0.0
 10
36.3976423027
 20
23.9758071477
 10
36.3944646826
 20
24.028946442
 10
36.3849965095
 20
24.0846727754
 10
36.3694305282
 20
24.1418517207
 10
36.3480836171
 20
24.1993192794
 10
36.3213903378
 20
24.2559055776
 10
36.2898940884
 20
24.3104586817
 10
36.2542360418
 20
24.3618680475
 10
36.2151420929
 20
24.4090871289
 10
36.1734080819
 20
24.4511546813
 10
36.1298835928
 20
24.4872143308
 10
36.0854546588
 20
24.5165320069
 10
36.0410257247
 20
24.5385108862
 10
35.9975012356
 20
24.5527035421
 10
35.9557672246
 20
24.5588210532
 10
35.9166732758
 20
24.5567388844
 10
35.8810152292
 20
24.5464994228
 10
35.8647225985
 20
24.5383898112
  0
ARC
  5
2FA
330
1F
100
AcDbEntity
  8
0
  6
SLD-Solid
 62
     7
370
    25
100
AcDbCircle
 10
36.1787567277
 20
23.953081456
 30
0.0
 40
0.2200621548411352
100
AcDbArc
 50
305.3847106268
 51
5.9274697666
  0
ARC
  5
2FB
330
1F
100
AcDbEntity
  8
0
  6
SLD-Solid
 62
     7
370
    25
100
AcDbCircle
 10
35.8819212351
 20
23.0786459764
 30
0.0
 40
0.5016090559243392
100
AcDbArc
 50
0.6279334831
 51
13.465881917
  0
LWPOLYLINE
  5
2FC
330
1F
100
AcDbEntity
  8
0
  6
SLD-Solid
 62
     7
370
    25
100
AcDbPolyline
 90
       13
 70
   128
 43
0.0
 10
36.303622957
 20
23.3647425886
 10
36.2761063296
 20
23.4106871835
 10
36.2407185873
 20
23.4603521055
 10
36.202021664
 20
23.5056659067
 10
36.1608403173
 20
23.5456628021
 10
36.1180522562
 20
23.5794903275
 10
36.0745694338
 20
23.6064275077
 10
36.0313186112
 20
23.6259002235
 10
35.9892216044
 20
23.6374934479
 10
35.9491756381
 20
23.6409600913
 10
35.9120342225
 20
23.6362262684
 10
35.8785889625
 20
23.6233928722
 10
35.8747217859
 20
23.6212408592
  0
ARC
  5
2FD
330
1F
100
AcDbEntity
  8
0
  6
SLD-Solid
 62
     7
370
    25
100
AcDbCircle
 10
36.1515903339
 20
23.0682918493
 30
0.0
 40
0.2324509362459193
100
AcDbArc
 50
317.3097161267
 51
3.9101755862
  0
LINE
  5
2FE
330
1F
100
AcDbEntity
  8
0
  6
SLD-Solid
 62
     7
370
    25
100
AcDbLine
 10
35.7009295257
 20
29.5235124734
 30
0.0
 11
35.625835251
 21
29.4801614714
 31
0.0
  0
LINE
  5
2FF
330
1F
100
AcDbEntity
  8
0
  6
SLD-Solid
 62
     7
370
    25
100
AcDbLine
 10
35.625835251
 20
29.4801614714
 30
0.0
 11
37.1814701696
 21
28.5821125484
 31
0.0
  0
LINE
  5
300
330
1F
100
AcDbEntity
  8
0
  6
SLD-Solid
 62
     7
370
    25
100
AcDbLine
 10
37.1814701696
 20
28.5821125484
 30
0.0
 11
38.3128410195
 21
29.2352390379
 31
0.0
  0
LINE
  5
301
330
1F
100
AcDbEntity
  8
0
  6
SLD-Solid
 62
     7
370
    25
100
AcDbLine
 10
38.3128410195
 20
29.2352390379
 30
0.0
 11
36.8659725816
 21
30.0704984081
 31
0.0
  0
LINE
  5
302
330
1F
100
AcDbEntity
  8
0
  6
SLD-Solid
 62
     7
370
    25
100
AcDbLine
 10
35.7760115964
 20
29.3934665126
 30
0.0
 11
35.0012484518
 21
30.7353956389
 31
0.0
  0
LINE
  5
303
330
1F
100
AcDbEntity
  8
0
  6
SLD-Solid
 62
     7
370
    25
100
AcDbLine
 10
35.0512484518
 20
30.7642694078
 30
0.0
 11
35.0012484518
 21
30.7353956389
 31
0.0
  0
LINE
  5
304
330
1F
100
AcDbEntity
  8
0
  6
SLD-Solid
 62
     7
370
    25
100
AcDbLine
 10
35.8760115964
 20
29.3357377414
 30
0.0
 11
35.0512484518
 21
30.7642694078
 31
0.0
  0
ARC
  5
305
330
1F
100
AcDbEntity
  8
0
  6
SLD-Solid
 62
     7
370
    25
100
AcDbCircle
 10
39.0835211151
 20
28.7377482987
 30
0.0
 40
0.7653534290098045
100
AcDbArc
 50
2.487128189
 51
57.5128719567
  0
LINE
  5
306
330
1F
100
AcDbEntity
  8
0
  6
SLD-Solid
 62
     7
370
    25
100
AcDbLine
 10
35.0512484518
 20
30.7642694078
 30
0.0
 11
36.1119086236
 21
31.3765754917
 31
0.0
  0
LINE
  5
307
330
1F
100
AcDbEntity
  8
0
  6
SLD-Solid
 62
     7
370
    25
100
AcDbLine
 10
36.1119086236
 20
31.3765754917
 30
0.0
 11
36.9576739487
 21
29.9116669815
 31
0.0
  0
LINE
  5
308
330
1F
100
AcDbEntity
  8
0
  6
SLD-Solid
 62
     7
370
    25
100
AcDbLine
 10
36.0030797941
 20
29.360591506
 30
0.0
 11
35.2746194847
 21
30.6223217695
 31
0.0
  0
ARC
  5
309
330
1F
100
AcDbEntity
  8
0
  6
SLD-Solid
 62
     7
370
    25
100
AcDbCircle
 10
35.6337692656
 20
30.7582219336
 30
0.0
 40
0.3840018485257681
100
AcDbArc
 50
180.9941891253
 51
200.7263476689
  0
LINE
  5
30A
330
1F
100
AcDbEntity
  8
0
  6
SLD-Solid
 62
     7
370
    25
100
AcDbLine
 10
35.2498252247
 20
30.824975045
 30
0.0
 11
35.2498252247
 21
30.7515591164
 31
0.0
  0
LINE
  5
30B
330
1F
100
AcDbEntity
  8
0
  6
SLD-Solid
 62
     7
370
    25
100
AcDbLine
 10
35.2498252247
 20
30.824975045
 30
0.0
 11
35.2851805637
 21
30.8045648422
 31
0.0
  0
LINE
  5
30C
330
1F
100
AcDbEntity
  8
0
  6
SLD-Solid
 62
     7
370
    25
100
AcDbLine
 10
35.2851805637
 20
30.8045648422
 30
0.0
 11
35.2851805637
 21
30.7311489136
 31
0.0
  0
ARC
  5
30D
330
1F
100
AcDbEntity
  8
0
  6
SLD-Solid
 62
     7
370
    25
100
AcDbCircle
 10
35.6456718513
 20
30.7434635201
 30
0.0
 40
0.3607015634998445
100
AcDbArc
 50
181.956498643
 51
211.1437277994
  0
LINE
  5
30E
330
1F
100
AcDbEntity
  8
0
  6
SLD-Solid
 62
     7
370
    25
100
AcDbLine
 10
35.336957259
 20
30.5569134773
 30
0.0
 11
36.0232284551
 21
29.3682569015
 31
0.0
  0
ARC
  5
30F
330
1F
100
AcDbEntity
  8
0
  6
SLD-Solid
 62
     7
370
    25
100
AcDbCircle
 10
36.0228273134
 20
29.3441290749
 30
0.0
 40
0.0241311609608576
100
AcDbArc
 50
89.04750606
 51
119.4932019058
  0
LINE
  5
310
330
1F
100
AcDbEntity
  8
0
  6
SLD-Solid
 62
     7
370
    25
100
AcDbLine
 10
39.8481535779
 20
22.9008681601
 30
0.0
 11
39.8481535779
 21
28.7709607684
 31
0.0
  0
LINE
  5
311
330
1F
100
AcDbEntity
  8
0
  6
SLD-Solid
 62
     7
370
    25
100
AcDbLine
 10
39.4946001873
 20
29.3833332023
 30
0.0
 11
36.7775284611
 21
30.9518653227
 31
0.0
  0
LINE
  5
312
330
1F
100
AcDbEntity
  8
0
  6
SLD-Solid
 62
     7
370
    25
100
AcDbLine
 10
36.1713432608
 20
31.0385942633
 30
0.0
 11
36.8576144569
 21
29.8499376874
 31
0.0
  0
LINE
  5
313
330
1F
100
AcDbEntity
  8
0
  6
SLD-Solid
 62
     7
370
    25
100
AcDbLine
 10
36.0232284551
 20
29.3682569015
 30
0.0
 11
36.8576144569
 21
29.8499376874
 31
0.0
  0
LINE
  5
314
330
1F
100
AcDbEntity
  8
0
  6
SLD-Solid
 62
     7
370
    25
100
AcDbLine
 10
36.1113891929
 20
30.1463389114
 30
0.0
 11
36.0200552062
 21
30.3045340163
 31
0.0
  0
LINE
  5
315
330
1F
100
AcDbEntity
  8
0
  6
SLD-Solid
 62
     7
370
    25
100
AcDbLine
 10
36.1538155998
 20
30.1708311547
 30
0.0
 11
36.1113891929
 21
30.1463389114
 31
0.0
  0
LINE
  5
316
330
1F
100
AcDbEntity
  8
0
  6
SLD-Solid
 62
     7
370
    25
100
AcDbLine
 10
36.0624816131
 20
30.3290262596
 30
0.0
 11
36.1538155998
 21
30.1708311547
 31
0.0
  0
LINE
  5
317
330
1F
100
AcDbEntity
  8
0
  6
SLD-Solid
 62
     7
370
    25
100
AcDbLine
 10
36.0200552062
 20
30.3045340163
 30
0.0
 11
36.0624816131
 21
30.3290262596
 31
0.0
  0
LINE
  5
318
330
1F
100
AcDbEntity
  8
0
  6
SLD-Solid
 62
     7
370
    25
100
AcDbLine
 10
36.7572061009
 20
28.827034982
 30
0.0
 11
36.7572061009
 21
29.164376631
 31
0.0
  0
ELLIPSE
  5
319
330
1F
100
AcDbEntity
  8
0
  6
SLD-Solid
 62
     7
370
    25
100
AcDbEllipse
 10
37.5350235602
 20
29.2317714815
 30
0.0
 11
-0.02027229075191883
 21
0.05179499726209259
 31
0.0
210
0.0
220
0.0
230
1.0
 40
0.55924489
 41
2.806621469154559
 42
5.672551345433183
  0
ELLIPSE
  5
31A
330
1F
100
AcDbEntity
  8
0
  6
SLD-Solid
 62
     7
370
    25
100
AcDbEllipse
 10
37.5350235602
 20
29.2317714815
 30
0.0
 11
-0.02027229075191883
 21
0.05179499726209259
 31
0.0
210
0.0
220
0.0
230
1.0
 40
0.55924489
 41
5.672551345433183
 42
5.948214122743903
  0
LWPOLYLINE
  5
31B
330
1F
100
AcDbEntity
  8
0
  6
SLD-Solid
 62
     7
370
    25
100
AcDbPolyline
 90
       10
 70
   128
 43
0.0
 10
37.067577975
 20
29.8211107194
 10
37.0743290137
 20
29.8270547471
 10
37.0805890843
 20
29.8421008232
 10
37.0805890843
 20
29.8621120764
 10
37.0743290137
 20
29.8843858761
 10
37.0626543298
 20
29.9059140223
 10
37.0471417632
 20
29.9237890195
 10
37.0298863721
 20
29.9355967503
 10
37.0132185927
 20
29.9397425151
 10
37.0008965469
 20
29.9366188563
  0
LINE
  5
31C
330
1F
100
AcDbEntity
  8
0
  6
SLD-Solid
 62
     7
370
    25
100
AcDbLine
 10
36.9208646827
 20
29.7403850831
 30
0.0
 11
36.0864786809
 21
29.2587042972
 31
0.0
  0
ARC
  5
31D
330
1F
100
AcDbEntity
  8
0
  6
SLD-Solid
 62
     7
370
    25
100
AcDbCircle
 10
36.0652631082
 20
29.2705315427
 30
0.0
 40
0.0242895915980287
100
AcDbArc
 50
300.6026447785
 51
330.8612321824
  0
LINE
  5
31E
330
1F
100
AcDbEntity
  8
0
  6
SLD-Solid
 62
     7
370
    25
100
AcDbLine
 10
36.0864786809
 20
29.2587042972
 30
0.0
 11
36.1249858152
 21
29.1920079842
 31
0.0
  0
LINE
  5
31F
330
1F
100
AcDbEntity
  8
0
  6
SLD-Solid
 62
     7
370
    25
100
AcDbLine
 10
36.0881263934
 20
29.2132864755
 30
0.0
 11
36.0697666419
 21
29.2450864978
 31
0.0
  0
LINE
  5
320
330
1F
100
AcDbEntity
  8
0
  6
SLD-Solid
 62
     7
370
    25
100
AcDbLine
 10
37.1293770637
 20
29.3792310462
 30
0.0
 11
36.4650239415
 21
28.9957081523
 31
0.0
  0
LINE
  5
321
330
1F
100
AcDbEntity
  8
0
  6
SLD-Solid
 62
     7
370
    25
100
AcDbLine
 10
36.9208646827
 20
29.7403850831
 30
0.0
 11
37.1293770637
 21
29.3792310462
 31
0.0
  0
LINE
  5
322
330
1F
100
AcDbEntity
  8
0
  6
SLD-Solid
 62
     7
370
    25
100
AcDbLine
 10
36.0842112265
 20
31.306655831
 30
0.0
 11
35.2498252247
 21
30.824975045
 31
0.0
  0
LINE
  5
323
330
1F
100
AcDbEntity
  8
0
  6
SLD-Solid
 62
     7
370
    25
100
AcDbLine
 10
36.0842112265
 20
31.306655831
 30
0.0
 11
36.1195665655
 21
31.2862456282
 31
0.0
  0
LINE
  5
324
330
1F
100
AcDbEntity
  8
0
  6
SLD-Solid
 62
     7
370
    25
100
AcDbLine
 10
36.1195665655
 20
31.2862456282
 30
0.0
 11
35.2851805637
 21
30.8045648422
 31
0.0
  0
LINE
  5
325
330
1F
100
AcDbEntity
  8
0
  6
SLD-Solid
 62
     7
370
    25
100
AcDbLine
 10
36.1195665655
 20
31.2862456282
 30
0.0
 11
36.1195665655
 21
31.2128296996
 31
0.0
  0
ARC
  5
326
330
1F
100
AcDbEntity
  8
0
  6
SLD-Solid
 62
     7
370
    25
100
AcDbCircle
 10
36.4800578531
 20
31.2251443061
 30
0.0
 40
0.3607015634997162
100
AcDbArc
 50
181.956498643
 51
211.1437277994
  0
LINE
  5
327
330
1F
100
AcDbEntity
  8
0
  6
SLD-Solid
 62
     7
370
    25
100
AcDbLine
 10
37.1619086236
 20
29.5579221491
 30
0.0
 11
37.1119086236
 21
29.5290483801
 31
0.0
  0
LINE
  5
328
330
1F
100
AcDbEntity
  8
0
  6
SLD-Solid
 62
     7
370
    25
100
AcDbLine
 10
37.1619086236
 20
29.5579221491
 30
0.0
 11
37.0601316793
 21
29.4991675698
 31
0.0
  0
LINE
  5
329
330
1F
100
AcDbEntity
  8
0
  6
SLD-Solid
 62
     7
370
    25
100
AcDbLine
 10
37.1119086236
 20
29.5290483801
 30
0.0
 11
37.0601357426
 21
29.4991605321
 31
0.0
  0
LINE
  5
32A
330
1F
100
AcDbEntity
  8
0
  6
SLD-Solid
 62
     7
370
    25
100
AcDbLine
 10
37.1293770637
 20
29.3792310462
 30
0.0
 11
37.1043770637
 21
29.3647941618
 31
0.0
  0
LINE
  5
32B
330
1F
100
AcDbEntity
  8
0
  6
SLD-Solid
 62
     7
370
    25
100
AcDbLine
 10
37.1043770637
 20
29.3647941618
 30
0.0
 11
36.465028005
 21
28.9957058065
 31
0.0
  0
LINE
  5
32C
330
1F
100
AcDbEntity
  8
0
  6
SLD-Solid
 62
     7
370
    25
100
AcDbLine
 10
36.0624816131
 20
30.3290262596
 30
0.0
 11
36.0374816131
 21
30.3145893752
 31
0.0
  0
LWPOLYLINE
  5
32D
330
1F
100
AcDbEntity
  8
0
  6
SLD-Solid
 62
     7
370
    25
100
AcDbPolyline
 90
       15
 70
   128
 43
0.0
 10
37.2967888106
 20
29.1871683644
 10
37.3074705881
 20
29.1795249036
 10
37.3304159337
 20
29.1716264004
 10
37.3548005213
 20
29.1730687094
 10
37.3782374175
 20
29.1837106474
 10
37.3984324557
 20
29.2025105074
 10
37.4134088048
 20
29.227628028
 10
37.4217004753
 20
29.2566045314
 10
37.4224958209
 20
29.2866035956
 10
37.4157169875
 20
29.314688703
 10
37.4020275347
 20
29.3381106877
 10
37.3827674813
 20
29.3545768426
 10
37.3598221357
 20
29.3624753459
 10
37.3354375481
 20
29.3610330369
 10
37.3264868354
 20
29.3581142922
  0
LINE
  5
32E
330
1F
100
AcDbEntity
  8
0
  6
SLD-Solid
 62
     7
370
    25
100
AcDbLine
 10
37.314283294
 20
29.2650755143
 30
0.0
 11
37.299827764
 21
29.2314689677
 31
0.0
  0
LINE
  5
32F
330
1F
100
AcDbEntity
  8
0
  6
SLD-Solid
 62
     7
370
    25
100
AcDbLine
 10
37.299827764
 20
29.2314689677
 30
0.0
 11
37.3122247334
 21
29.2243123496
 31
0.0
  0
LINE
  5
330
330
1F
100
AcDbEntity
  8
0
  6
SLD-Solid
 62
     7
370
    25
100
AcDbLine
 10
37.3122247334
 20
29.2243123496
 30
0.0
 11
37.3266802633
 21
29.2579188962
 31
0.0
  0
LINE
  5
331
330
1F
100
AcDbEntity
  8
0
  6
SLD-Solid
 62
     7
370
    25
100
AcDbLine
 10
37.3266802633
 20
29.2579188962
 30
0.0
 11
37.3517406007
 21
29.2434518714
 31
0.0
  0
LINE
  5
332
330
1F
100
AcDbEntity
  8
0
  6
SLD-Solid
 62
     7
370
    25
100
AcDbLine
 10
37.3517406007
 20
29.2434518714
 30
0.0
 11
37.3592582337
 21
29.2609290365
 31
0.0
  0
LINE
  5
333
330
1F
100
AcDbEntity
  8
0
  6
SLD-Solid
 62
     7
370
    25
100
AcDbLine
 10
37.3592582337
 20
29.2609290365
 30
0.0
 11
37.3341978963
 21
29.2753960613
 31
0.0
  0
LINE
  5
334
330
1F
100
AcDbEntity
  8
0
  6
SLD-Solid
 62
     7
370
    25
100
AcDbLine
 10
37.3341978963
 20
29.2753960613
 30
0.0
 11
37.3480184966
 21
29.3075265089
 31
0.0
  0
LINE
  5
335
330
1F
100
AcDbEntity
  8
0
  6
SLD-Solid
 62
     7
370
    25
100
AcDbLine
 10
37.3480184966
 20
29.3075265089
 30
0.0
 11
37.3356215273
 21
29.314683127
 31
0.0
  0
LINE
  5
336
330
1F
100
AcDbEntity
  8
0
  6
SLD-Solid
 62
     7
370
    25
100
AcDbLine
 10
37.3356215273
 20
29.314683127
 30
0.0
 11
37.321800927
 21
29.2825526793
 31
0.0
  0
LINE
  5
337
330
1F
100
AcDbEntity
  8
0
  6
SLD-Solid
 62
     7
370
    25
100
AcDbLine
 10
37.321800927
 20
29.2825526793
 30
0.0
 11
37.2979575868
 21
29.2963171466
 31
0.0
  0
LINE
  5
338
330
1F
100
AcDbEntity
  8
0
  6
SLD-Solid
 62
     7
370
    25
100
AcDbLine
 10
37.2979575868
 20
29.2963171466
 30
0.0
 11
37.2904399538
 21
29.2788399816
 31
0.0
  0
LINE
  5
339
330
1F
100
AcDbEntity
  8
0
  6
SLD-Solid
 62
     7
370
    25
100
AcDbLine
 10
37.2904399538
 20
29.2788399816
 30
0.0
 11
37.314283294
 21
29.2650755143
 31
0.0
  0
LINE
  5
33A
330
1F
100
AcDbEntity
  8
0
  6
SLD-Solid
 62
     7
370
    25
100
AcDbLine
 10
36.0200572378
 20
30.3045304975
 30
0.0
 11
36.0374816131
 21
30.3145893752
 31
0.0
  0
LINE
  5
33B
330
1F
100
AcDbEntity
  8
0
  6
SLD-Solid
 62
     7
370
    25
100
AcDbLine
 10
37.3473282393
 20
29.2540830317
 30
0.0
 11
37.3545261452
 21
29.249927769
 31
0.0
  0
LINE
  5
33C
330
1F
100
AcDbEntity
  8
0
  6
SLD-Solid
 62
     7
370
    25
100
AcDbLine
 10
37.3349312699
 20
29.2612396498
 30
0.0
 11
37.3329980331
 21
29.2567452166
 31
0.0
  0
LINE
  5
33D
330
1F
100
AcDbEntity
  8
0
  6
SLD-Solid
 62
     7
370
    25
100
AcDbLine
 10
37.3110879297
 20
29.2750041171
 30
0.0
 11
37.3349312699
 21
29.2612396498
 31
0.0
  0
LINE
  5
33E
330
1F
100
AcDbEntity
  8
0
  6
SLD-Solid
 62
     7
370
    25
100
AcDbLine
 10
37.3158200182
 20
29.2860053845
 30
0.0
 11
37.3110879297
 21
29.2750041171
 31
0.0
  0
LINE
  5
33F
330
1F
100
AcDbEntity
  8
0
  6
SLD-Solid
 62
     7
370
    25
100
AcDbLine
 10
37.3266802633
 20
29.2579188962
 30
0.0
 11
37.3473282393
 21
29.2540830317
 31
0.0
  0
LINE
  5
340
330
1F
100
AcDbEntity
  8
0
  6
SLD-Solid
 62
     7
370
    25
100
AcDbLine
 10
37.321800927
 20
29.2825526793
 30
0.0
 11
37.3361311332
 21
29.2798904945
 31
0.0
  0
LINE
  5
341
330
1F
100
AcDbEntity
  8
0
  6
SLD-Solid
 62
     7
370
    25
100
AcDbLine
 10
37.299827764
 20
29.2314689677
 30
0.0
 11
37.3141579702
 21
29.2288067828
 31
0.0
  0
LINE
  5
342
330
1F
100
AcDbEntity
  8
0
  6
SLD-Solid
 62
     7
370
    25
100
AcDbLine
 10
37.314283294
 20
29.2650755143
 30
0.0
 11
37.3349312699
 21
29.2612396498
 31
0.0
  0
LINE
  5
343
330
1F
100
AcDbEntity
  8
0
  6
SLD-Solid
 62
     7
370
    25
100
AcDbLine
 10
37.2904399538
 20
29.2788399816
 30
0.0
 11
37.3110879297
 21
29.2750041171
 31
0.0
  0
LINE
  5
344
330
1F
100
AcDbEntity
  8
0
  6
SLD-Solid
 62
     7
370
    25
100
AcDbLine
 10
37.0243607965
 20
29.7961619733
 30
0.0
 11
37.1619086236
 21
29.5579221491
 31
0.0
  0
ARC
  5
345
330
1F
100
AcDbEntity
  8
0
  6
SLD-Solid
 62
     7
370
    25
100
AcDbCircle
 10
36.6313312879
 20
30.7500791035
 30
0.0
 40
0.2491812427114942
100
AcDbArc
 50
54.0761010947
 51
114.6134404762
  0
ARC
  5
346
330
1F
100
AcDbEntity
  8
0
  6
SLD-Solid
 62
     7
370
    25
100
AcDbCircle
 10
36.1867057934
 20
23.2204651835
 30
0.0
 40
0.1855426888740721
100
AcDbArc
 50
356.1644945832
 51
58.0949311165
  0
LWPOLYLINE
  5
347
330
1F
100
AcDbEntity
  8
0
  6
SLD-Solid
 62
     7
370
    25
100
AcDbPolyline
 90
       34
 70
   128
 43
0.0
 10
35.603207834
 20
22.7737040696
 10
35.6000132488
 20
22.8141811056
 10
35.5905449539
 20
22.8568835855
 10
35.5751451581
 20
22.9002681306
 10
35.5543704502
 20
22.9427667103
 10
35.5289716823
 20
22.9828433151
 10
35.4998668319
 20
23.0190494723
 10
35.4681078242
 20
23.0500765969
 10
35.4348425125
 20
23.0748032879
 10
35.4012731919
 20
23.0923358581
 10
35.368613145
 20
23.1020406349
 10
35.338042791
 20
23.1035668622
 10
35.3106670223
 20
23.0968593783
 10
35.2874752703
 20
23.0821606091
 10
35.2693057454
 20
23.0600018064
 10
35.2568151417
 20
23.0311838472
 10
35.250454902
 20
22.9967482874
 10
35.250454902
 20
22.957939718
 10
35.2568151417
 20
22.9161607818
 10
35.2693057454
 20
22.8729214784
 10
35.2874752703
 20
22.8297845889
 10
35.3106670223
 20
22.7883091928
 10
35.338042791
 20
22.749994319
 10
35.368613145
 20
22.716224767
 10
35.4012731919
 20
22.6882210562
 10
35.4348425125
 20
22.6669953138
 10
35.4681078242
 20
22.6533146934
 10
35.4998668319
 20
22.6476736483
 10
35.5289716823
 20
22.6502760605
 10
35.5543704502
 20
22.6610278721
 10
35.5751451581
 20
22.6795404846
 10
35.5905449539
 20
22.7051448039
 10
35.6000132488
 20
22.7369154232
 10
35.603207834
 20
22.7737040696
  0
LINE
  5
348
330
1F
100
AcDbEntity
  8
0
  6
SLD-Solid
 62
     7
370
    25
100
AcDbLine
 10
36.2847675981
 20
23.3779769984
 30
0.0
 11
35.4618776507
 21
23.8530212535
 31
0.0
  0
LINE
  5
349
330
1F
100
AcDbEntity
  8
0
  6
SLD-Solid
 62
     7
370
    25
100
AcDbLine
 10
36.2567553524
 20
22.5151037248
 30
0.0
 11
36.3718329051
 21
23.2080538227
 31
0.0
  0
ARC
  5
34A
330
1F
100
AcDbEntity
  8
0
  6
SLD-Solid
 62
     7
370
    25
100
AcDbCircle
 10
36.2029393869
 20
22.5201612214
 30
0.0
 40
0.054053088937787
100
AcDbArc
 50
302.7553416485
 51
354.6312468691
  0
ARC
  5
34B
330
1F
100
AcDbEntity
  8
0
  6
SLD-Solid
 62
     7
370
    25
100
AcDbCircle
 10
35.4253904394
 20
23.8032016375
 30
0.0
 40
0.0617520098833014
100
AcDbArc
 50
53.7814583169
 51
114.908083254
  0
LWPOLYLINE
  5
34C
330
1F
100
AcDbEntity
  8
0
  6
SLD-Solid
 62
     7
370
    25
100
AcDbPolyline
 90
       11
 70
   128
 43
0.0
 10
35.6620712769
 20
22.3177488062
 10
35.6552022178
 20
22.3140064386
 10
35.6278757895
 20
22.3036594773
 10
35.5967270225
 20
22.2979523104
 10
35.5640660784
 20
22.2973082124
 10
35.53231527
 20
22.3017749531
 10
35.5038294096
 20
22.3110212548
 10
35.4807211629
 20
22.3243613617
 10
35.4647043631
 20
22.3408058989
 10
35.4569669028
 20
22.3591352504
 10
35.4563377763
 20
22.3662195508
  0
ARC
  5
34D
330
1F
100
AcDbEntity
  8
0
  6
SLD-Solid
 62
     7
370
    25
100
AcDbCircle
 10
39.6002650445
 20
22.8751312498
 30
0.0
 40
0.2492210134100849
100
AcDbArc
 50
305.3847106268
 51
5.9274697666
  0
LINE
  5
34E
330
1F
100
AcDbEntity
  8
0
  6
SLD-Solid
 62
     7
370
    25
100
AcDbLine
 10
41.6163214218
 20
31.0093293926
 30
0.0
 11
41.8363357098
 21
31.0080446969
 31
0.0
  0
LINE
  5
34F
330
1F
100
AcDbEntity
  8
0
  6
SLD-Solid
 62
     7
370
    25
100
AcDbLine
 10
41.6563296074
 20
30.9816341875
 30
0.0
 11
41.8526730118
 21
30.9804877095
 31
0.0
  0
LINE
  5
350
330
1F
100
AcDbEntity
  8
0
  6
SLD-Solid
 62
     7
370
    25
100
AcDbLine
 10
41.6563296074
 20
30.9816341875
 30
0.0
 11
41.6163214218
 21
31.0093293926
 31
0.0
  0
LINE
  5
351
330
1F
100
AcDbEntity
  8
0
  6
SLD-Solid
 62
     7
370
    25
100
AcDbLine
 10
41.8526730118
 20
30.9804877095
 30
0.0
 11
41.8523378026
 21
30.9787762653
 31
0.0
  0
LINE
  5
352
330
1F
100
AcDbEntity
  8
0
  6
SLD-Solid
 62
     7
370
    25
100
AcDbLine
 10
41.4036602057
 20
28.6880072479
 30
0.0
 11
41.2073168013
 21
28.6891537258
 31
0.0
  0
LINE
  5
353
330
1F
100
AcDbEntity
  8
0
  6
SLD-Solid
 62
     7
370
    25
100
AcDbLine
 10
41.2073168013
 20
28.6891537258
 30
0.0
 11
41.6563296074
 21
30.9816341875
 31
0.0
  0
LINE
  5
354
330
1F
100
AcDbEntity
  8
0
  6
SLD-Solid
 62
     7
370
    25
100
AcDbLine
 10
41.9206220739
 20
31.0181959361
 30
0.0
 11
41.8523378026
 21
30.9787762653
 31
0.0
  0
LINE
  5
355
330
1F
100
AcDbEntity
  8
0
  6
SLD-Solid
 62
     7
370
    25
100
AcDbLine
 10
41.8646199811
 20
31.0243728591
 30
0.0
 11
41.8363357098
 21
31.0080446969
 31
0.0
  0
LINE
  5
356
330
1F
100
AcDbEntity
  8
0
  6
SLD-Solid
 62
     7
370
    25
100
AcDbLine
 10
41.1673086158
 20
28.716848931
 30
0.0
 11
41.2073168013
 21
28.6891537258
 31
0.0
  0
LINE
  5
357
330
1F
100
AcDbEntity
  8
0
  6
SLD-Solid
 62
     7
370
    25
100
AcDbLine
 10
41.1673086158
 20
28.716848931
 30
0.0
 11
41.6163214218
 21
31.0093293926
 31
0.0
  0
LINE
  5
358
330
1F
100
AcDbEntity
  8
0
  6
SLD-Solid
 62
     7
370
    25
100
AcDbLine
 10
41.4727537433
 20
28.7315587103
 30
0.0
 11
41.9206220739
 21
31.0181959361
 31
0.0
  0
LINE
  5
359
330
1F
100
AcDbEntity
  8
0
  6
SLD-Solid
 62
     7
370
    25
100
AcDbLine
 10
41.4716092678
 20
28.7257154744
 30
0.0
 11
41.4727537433
 21
28.7315587103
 31
0.0
  0
LINE
  5
35A
330
1F
100
AcDbEntity
  8
0
  6
SLD-Solid
 62
     7
370
    25
100
AcDbLine
 10
41.4716092678
 20
28.7257154744
 30
0.0
 11
41.4033249966
 21
28.6862958037
 31
0.0
  0
LINE
  5
35B
330
1F
100
AcDbEntity
  8
0
  6
SLD-Solid
 62
     7
370
    25
100
AcDbLine
 10
41.4036602057
 20
28.6880072479
 30
0.0
 11
41.4033249966
 21
28.6862958037
 31
0.0
  0
LINE
  5
35C
330
1F
100
AcDbEntity
  8
0
  6
SLD-Solid
 62
     7
370
    25
100
AcDbLine
 10
41.9206220739
 20
31.0181959361
 30
0.0
 11
41.9217665494
 21
31.0240391719
 31
0.0
  0
LINE
  5
35D
330
1F
100
AcDbEntity
  8
0
  6
SLD-Solid
 62
     7
370
    25
100
AcDbLine
 10
41.9217665494
 20
31.0240391719
 30
0.0
 11
40.0043511207
 21
32.1309395379
 31
0.0
  0
LINE
  5
35E
330
1F
100
AcDbEntity
  8
0
  6
SLD-Solid
 62
     7
370
    25
100
AcDbLine
 10
41.8646199811
 20
31.0243728591
 30
0.0
 11
40.0049291466
 21
32.0979495262
 31
0.0
  0
LINE
  5
35F
330
1F
100
AcDbEntity
  8
0
  6
SLD-Solid
 62
     7
370
    25
100
AcDbLine
 10
40.0049291466
 20
32.0979495262
 30
0.0
 11
40.4539419526
 21
29.2870499135
 31
0.0
  0
LINE
  5
360
330
1F
100
AcDbEntity
  8
0
  6
SLD-Solid
 62
     7
370
    25
100
AcDbLine
 10
41.1951788007
 20
28.8591429894
 30
0.0
 11
40.4539419526
 21
29.2870499135
 31
0.0
  0
LWPOLYLINE
  5
361
330
1F
100
AcDbEntity
  8
0
  6
SLD-Solid
 62
     7
370
    25
100
AcDbPolyline
 90
       21
 70
   128
 43
0.0
 10
40.475155156
 20
31.0030124202
 10
40.4719884994
 20
31.0279282285
 10
40.4627985039
 20
31.0540612479
 10
40.4484847504
 20
31.0788533962
 10
40.4304483687
 20
31.0998778453
 10
40.4104548856
 20
31.1150765756
 10
40.3904614024
 20
31.1229618295
 10
40.3724250208
 20
31.1227617435
 10
40.3581112672
 20
31.1144959032
 10
40.3489212717
 20
31.0989734268
 10
40.3457546151
 20
31.0777137624
 10
40.3489212717
 20
31.0527979541
 10
40.3581112672
 20
31.0266649348
 10
40.3724250208
 20
31.0018727865
 10
40.3904614024
 20
30.9808483374
 10
40.4104548856
 20
30.965649607
 10
40.4304483687
 20
30.9577643531
 10
40.4484847504
 20
30.9579644392
 10
40.4627985039
 20
30.9662302794
 10
40.4719884994
 20
30.9817527558
 10
40.475155156
 20
31.0030124202
  0
LWPOLYLINE
  5
362
330
1F
100
AcDbEntity
  8
0
  6
SLD-Solid
 62
     7
370
    25
100
AcDbPolyline
 90
       21
 70
   128
 43
0.0
 10
40.9994748343
 20
29.4893990887
 10
40.9963081777
 20
29.514314897
 10
40.9871181822
 20
29.5404479164
 10
40.9728044286
 20
29.5652400647
 10
40.9547680469
 20
29.5862645138
 10
40.9347745638
 20
29.6014632441
 10
40.9147810807
 20
29.6093484981
 10
40.896744699
 20
29.609148412
 10
40.8824309455
 20
29.6008825717
 10
40.87324095
 20
29.5853600954
 10
40.8700742933
 20
29.564100431
 10
40.87324095
 20
29.5391846226
 10
40.8824309455
 20
29.5130516033
 10
40.896744699
 20
29.488259455
 10
40.9147810807
 20
29.4672350059
 10
40.9347745638
 20
29.4520362756
 10
40.9547680469
 20
29.4441510216
 10
40.9728044286
 20
29.4443511077
 10
40.9871181822
 20
29.452616948
 10
40.9963081777
 20
29.4681394243
 10
40.9994748343
 20
29.4893990887
  0
LWPOLYLINE
  5
363
330
1F
100
AcDbEntity
  8
0
  6
SLD-Solid
 62
     7
370
    25
100
AcDbPolyline
 90
       16
 70
   128
 43
0.0
 10
41.5079138685
 20
30.4558436245
 10
41.4971241069
 20
30.4734867813
 10
41.4790877252
 20
30.4945112304
 10
41.4590942421
 20
30.5097099607
 10
41.4391007589
 20
30.5175952146
 10
41.4210643773
 20
30.5173951286
 10
41.4067506237
 20
30.5091292883
 10
41.3975606282
 20
30.4936068119
 10
41.3943939716
 20
30.4723471475
 10
41.3975606282
 20
30.4474313392
 10
41.4067506237
 20
30.4212983199
 10
41.4210643773
 20
30.3965061716
 10
41.4391007589
 20
30.3754817225
 10
41.4590942421
 20
30.3602829921
 10
41.4790877252
 20
30.3523977382
 10
41.4874710598
 20
30.3514707892
  0
LINE
  5
364
330
1F
100
AcDbEntity
  8
0
  6
SLD-Solid
 62
     7
370
    25
100
AcDbLine
 10
40.9442410428
 20
31.1263240899
 30
0.0
 11
41.0459969025
 21
30.8604353686
 31
0.0
  0
ELLIPSE
  5
365
330
1F
100
AcDbEntity
  8
0
  6
SLD-Solid
 62
     7
370
    25
100
AcDbEllipse
 10
40.9347745638
 20
31.0838585051
 30
0.0
 11
-0.003440176135988792
 21
0.05765479663651617
 31
0.0
210
0.0
220
0.0
230
1.0
 40
0.3007503414
 41
5.522224305233728
 42
6.652435309727925
  0
LINE
  5
366
330
1F
100
AcDbEntity
  8
0
  6
SLD-Solid
 62
     7
370
    25
100
AcDbLine
 10
40.8235522252
 20
30.9888499475
 30
0.0
 11
40.9253080848
 21
31.1372538539
 31
0.0
  0
LWPOLYLINE
  5
367
330
1F
100
AcDbEntity
  8
0
  6
SLD-Solid
 62
     7
370
    25
100
AcDbPolyline
 90
        3
 70
   128
 43
0.0
 10
41.4226782428
 20
30.4886753098
 10
41.4258448995
 20
30.5099349742
 10
41.4297302026
 20
30.5185236308
  0
ARC
  5
368
330
1F
100
AcDbEntity
  8
0
  6
SLD-Solid
 62
     7
370
    25
100
AcDbCircle
 10
41.5576188277
 20
30.4920900026
 30
0.0
 40
0.1349837826697691
100
AcDbArc
 50
181.4495694001
 51
240.8740018517
  0
LINE
  5
369
330
1F
100
AcDbEntity
  8
0
  6
SLD-Solid
 62
     7
370
    25
100
AcDbLine
 10
41.0459969025
 20
30.8604353686
 30
0.0
 11
40.8750912715
 21
30.8792584628
 31
0.0
  0
LINE
  5
36A
330
1F
100
AcDbEntity
  8
0
  6
SLD-Solid
 62
     7
370
    25
100
AcDbLine
 10
39.9788702747
 20
31.954609819
 30
0.0
 11
39.9388620892
 21
31.9731070817
 31
0.0
  0
LINE
  5
36B
330
1F
100
AcDbEntity
  8
0
  6
SLD-Solid
 62
     7
370
    25
100
AcDbLine
 10
39.9788702747
 20
31.954609819
 30
0.0
 11
40.4278830808
 21
29.1437102063
 31
0.0
  0
LINE
  5
36C
330
1F
100
AcDbEntity
  8
0
  6
SLD-Solid
 62
     7
370
    25
100
AcDbLine
 10
40.3878748952
 20
29.162207469
 30
0.0
 11
40.4278830808
 21
29.1437102063
 31
0.0
  0
LINE
  5
36D
330
1F
100
AcDbEntity
  8
0
  6
SLD-Solid
 62
     7
370
    25
100
AcDbLine
 10
39.9388620892
 20
31.9731070817
 30
0.0
 11
40.3878748952
 21
29.162207469
 31
0.0
  0
LINE
  5
36E
330
1F
100
AcDbEntity
  8
0
  6
SLD-Solid
 62
     7
370
    25
100
AcDbLine
 10
40.4278830808
 20
29.1437102063
 30
0.0
 11
40.4256576814
 21
29.2707217513
 31
0.0
  0
LINE
  5
36F
330
1F
100
AcDbEntity
  8
0
  6
SLD-Solid
 62
     7
370
    25
100
AcDbLine
 10
39.9766448753
 20
32.0816213639
 30
0.0
 11
39.9788702747
 21
31.954609819
 31
0.0
  0
ELLIPSE
  5
370
330
1F
100
AcDbEntity
  8
0
  6
SLD-Solid
 62
     7
370
    25
100
AcDbEllipse
 10
40.8816249847
 20
30.8939600591
 30
0.0
 11
0.02589688576277638
 21
0.001545228733693449
 31
0.0
210
0.0
220
0.0
230
1.0
 40
0.5745367108
 41
3.29300913903402
 42
4.423220143528694
  0
LINE
  5
371
330
1F
100
AcDbEntity
  8
0
  6
SLD-Solid
 62
     7
370
    25
100
AcDbLine
 10
40.8561583135
 20
30.8901882268
 30
0.0
 11
40.8235522252
 21
30.9888499475
 31
0.0
  0
LINE
  5
372
330
1F
100
AcDbEntity
  8
0
  6
SLD-Solid
 62
     7
370
    25
100
AcDbLine
 10
40.0049291466
 20
32.0979495262
 30
0.0
 11
39.9766448753
 21
32.0816213639
 31
0.0
  0
LINE
  5
373
330
1F
100
AcDbEntity
  8
0
  6
SLD-Solid
 62
     7
370
    25
100
AcDbLine
 10
40.4539419526
 20
29.2870499135
 30
0.0
 11
40.4256576814
 21
29.2707217513
 31
0.0
  0
LINE
  5
374
330
1F
100
AcDbEntity
  8
0
  6
SLD-Solid
 62
     7
370
    25
100
AcDbLine
 10
39.9368761159
 20
32.0864537163
 30
0.0
 11
39.9388620892
 21
31.9731070817
 31
0.0
  0
LINE
  5
375
330
1F
100
AcDbEntity
  8
0
  6
SLD-Solid
 62
     7
370
    25
100
AcDbLine
 10
40.0044868569
 20
32.1231925859
 30
0.0
 11
39.9401560011
 21
32.0860551733
 31
0.0
  0
ARC
  5
376
330
1F
100
AcDbEntity
  8
0
  6
SLD-Solid
 62
     7
370
    25
100
AcDbCircle
 10
40.4895052158
 20
31.0859978756
 30
0.0
 40
0.1148455803481395
100
AcDbArc
 50
160.7347507698
 51
259.2598726975
  0
LWPOLYLINE
  5
377
330
1F
100
AcDbEntity
  8
0
  6
SLD-Solid
 62
     7
370
    25
100
AcDbPolyline
 90
        3
 70
   128
 43
0.0
 10
40.8983585646
 20
29.5804285932
 10
40.9015252212
 20
29.6016882576
 10
40.9054105242
 20
29.610276914
  0
ARC
  5
378
330
1F
100
AcDbEntity
  8
0
  6
SLD-Solid
 62
     7
370
    25
100
AcDbCircle
 10
41.0211567354
 20
29.5789490314
 30
0.0
 40
0.1228070839344141
100
AcDbArc
 50
179.3096921413
 51
256.4687551421
  0
LINE
  5
379
330
1F
100
AcDbEntity
  8
0
  6
SLD-Solid
 62
     7
370
    25
100
AcDbLine
 10
41.4023852188
 20
28.6880146927
 30
0.0
 11
41.4033249966
 21
28.6862958037
 31
0.0
  0
LINE
  5
37A
330
1F
100
AcDbEntity
  8
0
  6
SLD-Solid
 62
     7
370
    25
100
AcDbLine
 10
34.903695491
 20
29.7337622589
 30
0.0
 11
37.6207672171
 21
28.1652301386
 31
0.0
  0
ARC
  5
37B
330
1F
100
AcDbEntity
  8
0
  6
SLD-Solid
 62
     7
370
    25
100
AcDbCircle
 10
34.8061764147
 20
29.5978439358
 30
0.0
 40
0.1672834743793053
100
AcDbArc
 50
54.3412061653
 51
114.3467989763
  0
ARC
  5
37C
330
1F
100
AcDbEntity
  8
0
  6
SLD-Solid
 62
     7
370
    25
100
AcDbCircle
 10
37.3471674512
 20
27.7353738785
 30
0.0
 40
0.5095421829428516
100
AcDbArc
 50
2.4763980378
 51
57.5236021078
  0
LINE
  5
37D
330
1F
100
AcDbEntity
  8
0
  6
SLD-Solid
 62
     7
370
    25
100
AcDbLine
 10
37.8562337753
 20
27.7573900976
 30
0.0
 11
37.8562337753
 21
21.8872974893
 31
0.0
  0
LINE
  5
37E
330
1F
100
AcDbEntity
  8
0
  6
SLD-Solid
 62
     7
370
    25
100
AcDbLine
 10
39.1410467967
 20
29.1281973736
 30
0.0
 11
36.5446327699
 21
30.6270752867
 31
0.0
  0
LINE
  5
37F
330
1F
100
AcDbEntity
  8
0
  6
SLD-Solid
 62
     7
370
    25
100
AcDbLine
 10
39.0968526229
 20
29.0173561053
 30
0.0
 11
36.6627124202
 21
30.4225553338
 31
0.0
  0
ARC
  5
380
330
1F
100
AcDbEntity
  8
0
  6
SLD-Solid
 62
     7
370
    25
100
AcDbCircle
 10
38.7813526085
 20
28.563310583
 30
0.0
 40
0.6696842503835684
100
AcDbArc
 50
2.487128189
 51
57.5128719567
  0
ARC
  5
381
330
1F
100
AcDbEntity
  8
0
  6
SLD-Solid
 62
     7
370
    25
100
AcDbCircle
 10
38.8232544291
 20
28.5875007529
 30
0.0
 40
0.5095405730187799
100
AcDbArc
 50
2.476303705
 51
57.5236964406
  0
LINE
  5
382
330
1F
100
AcDbEntity
  8
0
  6
SLD-Solid
 62
     7
370
    25
100
AcDbLine
 10
39.332319181
 20
22.739423456
 30
0.0
 11
39.332319181
 21
28.6095160643
 31
0.0
  0
LINE
  5
383
330
1F
100
AcDbEntity
  8
0
  6
SLD-Solid
 62
     7
370
    25
100
AcDbLine
 10
39.4504060134
 20
22.7222788857
 30
0.0
 11
39.4504060134
 21
28.5923714939
 31
0.0
  0
LINE
  5
384
330
1F
100
AcDbEntity
  8
0
  6
SLD-Solid
 62
     7
370
    25
100
AcDbLine
 10
39.1852409705
 20
29.2047439278
 30
0.0
 11
39.4946001873
 21
29.3833332023
 31
0.0
  0
ARC
  5
385
330
1F
100
AcDbEntity
  8
0
  6
SLD-Solid
 62
     7
370
    25
100
AcDbCircle
 10
39.236997803
 20
29.1238310703
 30
0.0
 40
0.0960503004732574
100
AcDbArc
 50
122.60547834
 51
177.3945215143
  0
LINE
  5
386
330
1F
100
AcDbEntity
  8
0
  6
SLD-Solid
 62
     7
370
    25
100
AcDbLine
 10
37.6207672171
 20
28.1652301386
 30
0.0
 11
39.0968526229
 21
29.0173561053
 31
0.0
  0
ARC
  5
387
330
1F
100
AcDbEntity
  8
0
  6
SLD-Solid
 62
     7
370
    25
100
AcDbCircle
 10
37.6942568882
 20
21.8687468499
 30
0.0
 40
0.1630356959617466
100
AcDbArc
 50
304.7772268478
 51
6.533417236
  0
ARC
  5
388
330
1F
100
AcDbEntity
  8
0
  6
SLD-Solid
 62
     7
370
    25
100
AcDbCircle
 10
39.1658265946
 20
22.7229155576
 30
0.0
 40
0.1673089717280235
100
AcDbArc
 50
305.6497565293
 51
5.662423864
  0
LWPOLYLINE
  5
389
330
1F
100
AcDbEntity
  8
0
  6
SLD-Solid
 62
     7
370
    25
100
AcDbPolyline
 90
       12
 70
   128
 43
0.0
 10
39.1656439282
 20
22.530562918
 10
39.1850732036
 20
22.5218518048
 10
39.2282033598
 20
22.5077877346
 10
39.2695592597
 20
22.5017256483
 10
39.3082990165
 20
22.5037889526
 10
39.3436340004
 20
22.5139356444
 10
39.3748448931
 20
22.5319591665
 10
39.4012963307
 20
22.5574926118
 10
39.4224498383
 20
22.5900161931
 10
39.4378747915
 20
22.6288678239
 10
39.4472571827
 20
22.6732565973
 10
39.4504060134
 20
22.7222788857
  0
LINE
  5
38A
330
1F
100
AcDbEntity
  8
0
  6
SLD-Solid
 62
     7
370
    25
100
AcDbLine
 10
35.1033745126
 20
23.6460617972
 30
0.0
 11
35.9262644601
 21
23.1710175421
 31
0.0
  0
ARC
  5
38B
330
1F
100
AcDbEntity
  8
0
  6
SLD-Solid
 62
     7
370
    25
100
AcDbCircle
 10
35.0668873014
 20
23.5962421811
 30
0.0
 40
0.0617520098833056
100
AcDbArc
 50
53.7814583169
 51
114.908083254
  0
ARC
  5
38C
330
1F
100
AcDbEntity
  8
0
  6
SLD-Solid
 62
     7
370
    25
100
AcDbCircle
 10
35.8282026553
 20
23.0135057272
 30
0.0
 40
0.1855426888740874
100
AcDbArc
 50
356.1644945832
 51
58.0949311165
  0
LINE
  5
38D
330
1F
100
AcDbEntity
  8
0
  6
SLD-Solid
 62
     7
370
    25
100
AcDbLine
 10
36.0133297671
 20
23.0010943664
 30
0.0
 11
35.8982522144
 21
22.3081442684
 31
0.0
  0
ARC
  5
38E
330
1F
100
AcDbEntity
  8
0
  6
SLD-Solid
 62
     7
370
    25
100
AcDbCircle
 10
35.8444362488
 20
22.3132017651
 30
0.0
 40
0.0540530889377519
100
AcDbArc
 50
302.7553416485
 51
354.6312468691
  0
LINE
  5
38F
330
1F
100
AcDbEntity
  8
0
  6
SLD-Solid
 62
     7
370
    25
100
AcDbLine
 10
35.9262644601
 20
23.1710175421
 30
0.0
 11
36.2847675981
 21
23.3779769984
 31
0.0
  0
INSERT
  5
395
330
1F
100
AcDbEntity
  8
NOTES
100
AcDbBlockReference
  2
SW_NOTE_0_3
 10
40.4134271981
 20
22.3805840879
 30
0.0
  0
MTEXT
  5
396
330
1F
100
AcDbEntity
  8
NOTES
100
AcDbMText
 10
30.2110860219
 20
32.869398454
 30
0.0
 40
0.5
 41
0.0
 71
     1
 72
     1
  1
bracket retaining screw
  7
SLDTEXTSTYLE0
 73
     1
 44
1.0
  0
LEADER
  5
397
330
1F
100
AcDbEntity
  8
NOTES
100
AcDbLeader
  3
SLDDIMSTYLE2
 76
     3
 10
37.3923982185
 20
29.347829896
 30
0.0
 10
38.3570162304
 20
32.6268388988
 30
0.0
 10
37.8570162304
 20
32.6268388988
 30
0.0
  0
MTEXT
  5
398
330
1F
100
AcDbEntity
  8
NOTES
100
AcDbMText
 10
35.2793453708
 20
34.1598408713
 30
0.0
 40
0.5
 41
0.0
 71
     1
 72
     1
  1
mounting bracket
  7
SLDTEXTSTYLE0
 73
     1
 44
1.0
  0
LEADER
  5
399
330
1F
100
AcDbEntity
  8
NOTES
100
AcDbLeader
  3
SLDDIMSTYLE2
 76
     3
 10
40.8760314503
 20
31.5950728702
 30
0.0
 10
41.6045331248
 20
33.9152208758
 30
0.0
 10
41.1045331248
 20
33.9152208758
 30
0.0
  0
ENDSEC
  0
SECTION
  2
OBJECTS
  0
DICTIONARY
  5
C
330
0
100
AcDbDictionary
281
     1
  3
ACAD_GROUP
350
D
  3
ACAD_LAYOUT
350
1A
  3
ACAD_MLINESTYLE
350
17
  3
ACAD_PLOTSETTINGS
350
19
  3
ACAD_PLOTSTYLENAME
350
E
  3
ACAD_SCALELIST
350
47
  3
DWGPROPS
350
39A
  0
DICTIONARY
  5
D
102
{ACAD_REACTORS
330
C
102
}
330
C
100
AcDbDictionary
281
     1
  0
DICTIONARY
  5
1A
102
{ACAD_REACTORS
330
C
102
}
330
C
100
AcDbDictionary
281
     1
  3
Layout1
350
1E
  3
Layout2
350
26
  3
Model
350
22
  0
DICTIONARY
  5
17
102
{ACAD_REACTORS
330
C
102
}
330
C
100
AcDbDictionary
281
     1
  3
Standard
350
18
  0
DICTIONARY
  5
19
102
{ACAD_REACTORS
330
C
102
}
330
C
100
AcDbDictionary
281
     1
  0
ACDBDICTIONARYWDFLT
  5
E
102
{ACAD_REACTORS
330
C
102
}
330
C
100
AcDbDictionary
281
     1
  3
Normal
350
F
100
AcDbDictionaryWithDefault
340
F
  0
DICTIONARY
  5
47
102
{ACAD_REACTORS
330
C
102
}
330
C
100
AcDbDictionary
281
     1
  3
A0
350
48
  3
A1
350
49
  3
A2
350
4A
  3
A3
350
4B
  3
A4
350
4C
  3
A5
350
4D
  3
A6
350
4E
  3
A7
350
4F
  3
A8
350
50
  3
A9
350
51
  3
B0
350
52
  3
B1
350
53
  3
B2
350
54
  3
B3
350
55
  3
B4
350
56
  3
B5
350
57
  3
B6
350
58
  3
B7
350
59
  3
B8
350
5A
  3
B9
350
5B
  3
C0
350
5C
  3
C1
350
5D
  3
C2
350
5E
  3
C3
350
5F
  3
C4
350
60
  3
C5
350
61
  3
C6
350
62
  3
C7
350
63
  3
C8
350
64
  3
C9
350
65
  3
D0
350
66
  3
D1
350
67
  3
D2
350
68
  0
XRECORD
  5
39A
102
{ACAD_REACTORS
330
C
102
}
330
C
100
AcDbXrecord
280
     1
  1
DWGPROPS COOKIE
  2

  3

  4

  6

  7

  8
carl
  9

300
=
301
=
302
=
303
=
304
=
305
=
306
=
307
=
308
=
309
=
 40
0.0
 41
2459502.517991018
 42
2459502.517994942
  1

 90
        0
  0
LAYOUT
  5
1E
102
{ACAD_REACTORS
330
1A
102
}
330
1A
100
AcDbPlotSettings
  1

  2
none_device
  4

  6

 40
0.0
 41
0.0
 42
0.0
 43
0.0
 44
0.0
 45
0.0
 46
0.0
 47
0.0
 48
0.0
 49
0.0
140
0.0
141
0.0
142
1.0
143
1.0
 70
   688
 72
     0
 73
     0
 74
     5
  7

 75
    16
147
1.0
148
0.0
149
0.0
100
AcDbLayout
  1
Layout1
 70
     1
 71
     1
 10
0.0
 20
0.0
 11
12.0
 21
9.0
 12
0.0
 22
0.0
 32
0.0
 14
1.0000000000E+20
 24
1.0000000000E+20
 34
1.0000000000E+20
 15
-1.0000000000E+20
 25
-1.0000000000E+20
 35
-1.0000000000E+20
146
0.0
 13
0.0
 23
0.0
 33
0.0
 16
1.0
 26
0.0
 36
0.0
 17
0.0
 27
1.0
 37
0.0
 76
     0
330
1B
  0
LAYOUT
  5
26
102
{ACAD_REACTORS
330
1A
102
}
330
1A
100
AcDbPlotSettings
  1

  2
none_device
  4

  6

 40
0.0
 41
0.0
 42
0.0
 43
0.0
 44
0.0
 45
0.0
 46
0.0
 47
0.0
 48
0.0
 49
0.0
140
0.0
141
0.0
142
1.0
143
1.0
 70
   688
 72
     0
 73
     0
 74
     5
  7

 75
    16
147
1.0
148
0.0
149
0.0
100
AcDbLayout
  1
Layout2
 70
     1
 71
     2
 10
0.0
 20
0.0
 11
0.0
 21
0.0
 12
0.0
 22
0.0
 32
0.0
 14
0.0
 24
0.0
 34
0.0
 15
0.0
 25
0.0
 35
0.0
146
0.0
 13
0.0
 23
0.0
 33
0.0
 16
1.0
 26
0.0
 36
0.0
 17
0.0
 27
1.0
 37
0.0
 76
     0
330
23
  0
LAYOUT
  5
22
102
{ACAD_REACTORS
330
1A
102
}
330
1A
100
AcDbPlotSettings
  1

  2
none_device
  4
Letter_(8.50_x_11.00_Inches)
  6

 40
6.35
 41
6.35
 42
6.35000508
 43
6.35000508
 44
215.9
 45
279.4
 46
0.0
 47
0.0
 48
0.0
 49
0.0
140
0.0
141
0.0
142
1.0
143
1.0
 70
  1712
 72
     0
 73
     0
 74
     0
  7

 75
     0
147
1.0
148
0.0
149
0.0
100
AcDbLayout
  1
Model
 70
     1
 71
     0
 10
0.0
 20
0.0
 11
48.0
 21
36.0
 12
0.0
 22
0.0
 32
0.0
 14
0.0
 24
0.0
 34
0.0
 15
48.0
 25
36.0
 35
0.0
146
0.0
 13
0.0
 23
0.0
 33
0.0
 16
1.0
 26
0.0
 36
0.0
 17
0.0
 27
1.0
 37
0.0
 76
     0
330
1F
331
29
  0
MLINESTYLE
  5
18
102
{ACAD_REACTORS
330
17
102
}
330
17
100
AcDbMlineStyle
  2
Standard
 70
     0
  3

 62
   256
 51
90.0
 52
90.0
 71
     2
 49
0.5
 62
   256
  6
BYLAYER
 49
-0.5
 62
   256
  6
BYLAYER
  0
ACDBPLACEHOLDER
  5
F
102
{ACAD_REACTORS
330
E
102
}
330
E
  0
SCALE
  5
48
102
{ACAD_REACTORS
330
47
102
}
330
47
100
AcDbScale
 70
     0
300
1:1
140
1.0
141
1.0
290
     1
  0
SCALE
  5
49
102
{ACAD_REACTORS
330
47
102
}
330
47
100
AcDbScale
 70
     0
300
1:2
140
1.0
141
2.0
290
     0
  0
SCALE
  5
4A
102
{ACAD_REACTORS
330
47
102
}
330
47
100
AcDbScale
 70
     0
300
1:4
140
1.0
141
4.0
290
     0
  0
SCALE
  5
4B
102
{ACAD_REACTORS
330
47
102
}
330
47
100
AcDbScale
 70
     0
300
1:5
140
1.0
141
5.0
290
     0
  0
SCALE
  5
4C
102
{ACAD_REACTORS
330
47
102
}
330
47
100
AcDbScale
 70
     0
300
1:8
140
1.0
141
8.0
290
     0
  0
SCALE
  5
4D
102
{ACAD_REACTORS
330
47
102
}
330
47
100
AcDbScale
 70
     0
300
1:10
140
1.0
141
10.0
290
     0
  0
SCALE
  5
4E
102
{ACAD_REACTORS
330
47
102
}
330
47
100
AcDbScale
 70
     0
300
1:16
140
1.0
141
16.0
290
     0
  0
SCALE
  5
4F
102
{ACAD_REACTORS
330
47
102
}
330
47
100
AcDbScale
 70
     0
300
1:20
140
1.0
141
20.0
290
     0
  0
SCALE
  5
50
102
{ACAD_REACTORS
330
47
102
}
330
47
100
AcDbScale
 70
     0
300
1:30
140
1.0
141
30.0
290
     0
  0
SCALE
  5
51
102
{ACAD_REACTORS
330
47
102
}
330
47
100
AcDbScale
 70
     0
300
1:40
140
1.0
141
40.0
290
     0
  0
SCALE
  5
52
102
{ACAD_REACTORS
330
47
102
}
330
47
100
AcDbScale
 70
     0
300
1:50
140
1.0
141
50.0
290
     0
  0
SCALE
  5
53
102
{ACAD_REACTORS
330
47
102
}
330
47
100
AcDbScale
 70
     0
300
1:100
140
1.0
141
100.0
290
     0
  0
SCALE
  5
54
102
{ACAD_REACTORS
330
47
102
}
330
47
100
AcDbScale
 70
     0
300
2:1
140
2.0
141
1.0
290
     0
  0
SCALE
  5
55
102
{ACAD_REACTORS
330
47
102
}
330
47
100
AcDbScale
 70
     0
300
4:1
140
4.0
141
1.0
290
     0
  0
SCALE
  5
56
102
{ACAD_REACTORS
330
47
102
}
330
47
100
AcDbScale
 70
     0
300
8:1
140
8.0
141
1.0
290
     0
  0
SCALE
  5
57
102
{ACAD_REACTORS
330
47
102
}
330
47
100
AcDbScale
 70
     0
300
10:1
140
10.0
141
1.0
290
     0
  0
SCALE
  5
58
102
{ACAD_REACTORS
330
47
102
}
330
47
100
AcDbScale
 70
     0
300
100:1
140
100.0
141
1.0
290
     0
  0
SCALE
  5
59
102
{ACAD_REACTORS
330
47
102
}
330
47
100
AcDbScale
 70
     0
300
1/128" = 1'-0"
140
0.0078125
141
12.0
290
     0
  0
SCALE
  5
5A
102
{ACAD_REACTORS
330
47
102
}
330
47
100
AcDbScale
 70
     0
300
1/64" = 1'-0"
140
0.015625
141
12.0
290
     0
  0
SCALE
  5
5B
102
{ACAD_REACTORS
330
47
102
}
330
47
100
AcDbScale
 70
     0
300
1/32" = 1'-0"
140
0.03125
141
12.0
290
     0
  0
SCALE
  5
5C
102
{ACAD_REACTORS
330
47
102
}
330
47
100
AcDbScale
 70
     0
300
1/16" = 1'-0"
140
0.0625
141
12.0
290
     0
  0
SCALE
  5
5D
102
{ACAD_REACTORS
330
47
102
}
330
47
100
AcDbScale
 70
     0
300
3/32" = 1'-0"
140
0.09375
141
12.0
290
     0
  0
SCALE
  5
5E
102
{ACAD_REACTORS
330
47
102
}
330
47
100
AcDbScale
 70
     0
300
1/8" = 1'-0"
140
0.125
141
12.0
290
     0
  0
SCALE
  5
5F
102
{ACAD_REACTORS
330
47
102
}
330
47
100
AcDbScale
 70
     0
300
3/16" = 1'-0"
140
0.1875
141
12.0
290
     0
  0
SCALE
  5
60
102
{ACAD_REACTORS
330
47
102
}
330
47
100
AcDbScale
 70
     0
300
1/4" = 1'-0"
140
0.25
141
12.0
290
     0
  0
SCALE
  5
61
102
{ACAD_REACTORS
330
47
102
}
330
47
100
AcDbScale
 70
     0
300
3/8" = 1'-0"
140
0.375
141
12.0
290
     0
  0
SCALE
  5
62
102
{ACAD_REACTORS
330
47
102
}
330
47
100
AcDbScale
 70
     0
300
1/2" = 1'-0"
140
0.5
141
12.0
290
     0
  0
SCALE
  5
63
102
{ACAD_REACTORS
330
47
102
}
330
47
100
AcDbScale
 70
     0
300
3/4" = 1'-0"
140
0.75
141
12.0
290
     0
  0
SCALE
  5
64
102
{ACAD_REACTORS
330
47
102
}
330
47
100
AcDbScale
 70
     0
300
1" = 1'-0"
140
1.0
141
12.0
290
     0
  0
SCALE
  5
65
102
{ACAD_REACTORS
330
47
102
}
330
47
100
AcDbScale
 70
     0
300
1-1/2" = 1'-0"
140
1.5
141
12.0
290
     0
  0
SCALE
  5
66
102
{ACAD_REACTORS
330
47
102
}
330
47
100
AcDbScale
 70
     0
300
3" = 1'-0"
140
3.0
141
12.0
290
     0
  0
SCALE
  5
67
102
{ACAD_REACTORS
330
47
102
}
330
47
100
AcDbScale
 70
     0
300
6" = 1'-0"
140
6.0
141
12.0
290
     0
  0
SCALE
  5
68
102
{ACAD_REACTORS
330
47
102
}
330
47
100
AcDbScale
 70
     0
300
1'-0" = 1'-0"
140
12.0
141
12.0
290
     0
  0
ENDSEC
  0
EOF
