  0
SECTION
  2
HEADER
  9
$ACADVER
  1
AC1015
  9
$ACADMAINTVER
 70
     6
  9
$DWGCODEPAGE
  3
ANSI_1252
  9
$INSBASE
 10
0.0
 20
0.0
 30
0.0
  9
$EXTMIN
 10
0.0
 20
0.0
 30
0.0
  9
$EXTMAX
 10
48.0
 20
36.0
 30
0.0
  9
$LIMMIN
 10
0.0
 20
0.0
  9
$LIMMAX
 10
48.0
 20
36.0
  9
$ORTHOMODE
 70
     0
  9
$REGENMODE
 70
     1
  9
$FILLMODE
 70
     1
  9
$QTEXTMODE
 70
     0
  9
$MIRRTEXT
 70
     1
  9
$LTSCALE
 40
1.0
  9
$ATTMODE
 70
     1
  9
$TEXTSIZE
 40
0.5
  9
$TRACEWID
 40
0.05
  9
$TEXTSTYLE
  7
STANDARD
  9
$CLAYER
  8
0
  9
$CELTYPE
  6
ByLayer
  9
$CECOLOR
 62
   256
  9
$CELTSCALE
 40
1.0
  9
$DISPSILH
 70
     0
  9
$DIMSCALE
 40
1.0
  9
$DIMASZ
 40
0.3
  9
$DIMEXO
 40
0.1666666667
  9
$DIMDLI
 40
0.38
  9
$DIMRND
 40
0.0
  9
$DIMDLE
 40
0.0
  9
$DIMEXE
 40
0.375
  9
$DIMTP
 40
0.0
  9
$DIMTM
 40
0.0
  9
$DIMTXT
 40
0.5
  9
$DIMCEN
 40
0.09
  9
$DIMTSZ
 40
0.0
  9
$DIMTOL
 70
     0
  9
$DIMLIM
 70
     0
  9
$DIMTIH
 70
     1
  9
$DIMTOH
 70
     1
  9
$DIMSE1
 70
     0
  9
$DIMSE2
 70
     0
  9
$DIMTAD
 70
     0
  9
$DIMZIN
 70
     1
  9
$DIMBLK
  1

  9
$DIMASO
 70
     1
  9
$DIMSHO
 70
     1
  9
$DIMPOST
  1

  9
$DIMAPOST
  1

  9
$DIMALT
 70
     0
  9
$DIMALTD
 70
     2
  9
$DIMALTF
 40
25.4
  9
$DIMLFAC
 40
1.0
  9
$DIMTOFL
 70
     0
  9
$DIMTVP
 40
0.0
  9
$DIMTIX
 70
     0
  9
$DIMSOXD
 70
     0
  9
$DIMSAH
 70
     0
  9
$DIMBLK1
  1

  9
$DIMBLK2
  1

  9
$DIMSTYLE
  2
Standard
  9
$DIMCLRD
 70
     0
  9
$DIMCLRE
 70
     0
  9
$DIMCLRT
 70
     0
  9
$DIMTFAC
 40
1.0
  9
$DIMGAP
 40
0.125
  9
$DIMJUST
 70
     0
  9
$DIMSD1
 70
     0
  9
$DIMSD2
 70
     0
  9
$DIMTOLJ
 70
     1
  9
$DIMTZIN
 70
     1
  9
$DIMALTZ
 70
     0
  9
$DIMALTTZ
 70
     0
  9
$DIMUPT
 70
     0
  9
$DIMDEC
 70
     2
  9
$DIMTDEC
 70
     2
  9
$DIMALTU
 70
     2
  9
$DIMALTTD
 70
     2
  9
$DIMTXSTY
  7
STANDARD
  9
$DIMAUNIT
 70
     0
  9
$DIMADEC
 70
     2
  9
$DIMALTRND
 40
0.0
  9
$DIMAZIN
 70
     0
  9
$DIMDSEP
 70
    46
  9
$DIMATFIT
 70
     3
  9
$DIMFRAC
 70
     0
  9
$DIMLDRBLK
  1

  9
$DIMLUNIT
 70
     2
  9
$DIMLWD
 70
    -2
  9
$DIMLWE
 70
    -2
  9
$DIMTMOVE
 70
     0
  9
$LUNITS
 70
     2
  9
$LUPREC
 70
     4
  9
$SKETCHINC
 40
0.1
  9
$FILLETRAD
 40
0.5
  9
$AUNITS
 70
     0
  9
$AUPREC
 70
     2
  9
$MENU
  1
.
  9
$ELEVATION
 40
0.0
  9
$PELEVATION
 40
0.0
  9
$THICKNESS
 40
0.0
  9
$LIMCHECK
 70
     0
  9
$CHAMFERA
 40
0.0
  9
$CHAMFERB
 40
0.0
  9
$CHAMFERC
 40
0.0
  9
$CHAMFERD
 40
0.0
  9
$SKPOLY
 70
     0
  9
$TDCREATE
 40
2459460.322619757
  9
$TDUCREATE
 40
2459460.489286424
  9
$TDUPDATE
 40
2459460.322623889
  9
$TDUUPDATE
 40
2459460.489290555
  9
$TDINDWG
 40
0.0000000116
  9
$TDUSRTIMER
 40
0.0000000116
  9
$USRTIMER
 70
     1
  9
$ANGBASE
 50
0.0
  9
$ANGDIR
 70
     0
  9
$PDMODE
 70
     0
  9
$PDSIZE
 40
-1.0
  9
$PLINEWID
 40
0.0
  9
$SPLFRAME
 70
     0
  9
$SPLINETYPE
 70
     6
  9
$SPLINESEGS
 70
     8
  9
$HANDSEED
  5
2BE
  9
$SURFTAB1
 70
     6
  9
$SURFTAB2
 70
     6
  9
$SURFTYPE
 70
     6
  9
$SURFU
 70
     6
  9
$SURFV
 70
     6
  9
$UCSBASE
  2

  9
$UCSNAME
  2

  9
$UCSORG
 10
0.0
 20
0.0
 30
0.0
  9
$UCSXDIR
 10
1.0
 20
0.0
 30
0.0
  9
$UCSYDIR
 10
0.0
 20
1.0
 30
0.0
  9
$UCSORTHOREF
  2

  9
$UCSORTHOVIEW
 70
     0
  9
$UCSORGTOP
 10
0.0
 20
0.0
 30
0.0
  9
$UCSORGBOTTOM
 10
0.0
 20
0.0
 30
0.0
  9
$UCSORGLEFT
 10
0.0
 20
0.0
 30
0.0
  9
$UCSORGRIGHT
 10
0.0
 20
0.0
 30
0.0
  9
$UCSORGFRONT
 10
0.0
 20
0.0
 30
0.0
  9
$UCSORGBACK
 10
0.0
 20
0.0
 30
0.0
  9
$PUCSBASE
  2

  9
$PUCSNAME
  2

  9
$PUCSORG
 10
0.0
 20
0.0
 30
0.0
  9
$PUCSXDIR
 10
1.0
 20
0.0
 30
0.0
  9
$PUCSYDIR
 10
0.0
 20
1.0
 30
0.0
  9
$PUCSORTHOREF
  2

  9
$PUCSORTHOVIEW
 70
     0
  9
$PUCSORGTOP
 10
0.0
 20
0.0
 30
0.0
  9
$PUCSORGBOTTOM
 10
0.0
 20
0.0
 30
0.0
  9
$PUCSORGLEFT
 10
0.0
 20
0.0
 30
0.0
  9
$PUCSORGRIGHT
 10
0.0
 20
0.0
 30
0.0
  9
$PUCSORGFRONT
 10
0.0
 20
0.0
 30
0.0
  9
$PUCSORGBACK
 10
0.0
 20
0.0
 30
0.0
  9
$USERI1
 70
     0
  9
$USERI2
 70
     0
  9
$USERI3
 70
     0
  9
$USERI4
 70
     0
  9
$USERI5
 70
     0
  9
$USERR1
 40
0.0
  9
$USERR2
 40
0.0
  9
$USERR3
 40
0.0
  9
$USERR4
 40
0.0
  9
$USERR5
 40
0.0
  9
$WORLDVIEW
 70
     1
  9
$SHADEDGE
 70
     3
  9
$SHADEDIF
 70
    70
  9
$TILEMODE
 70
     1
  9
$MAXACTVP
 70
    64
  9
$PINSBASE
 10
0.0
 20
0.0
 30
0.0
  9
$PLIMCHECK
 70
     0
  9
$PEXTMIN
 10
1.0000000000E+20
 20
1.0000000000E+20
 30
1.0000000000E+20
  9
$PEXTMAX
 10
-1.0000000000E+20
 20
-1.0000000000E+20
 30
-1.0000000000E+20
  9
$PLIMMIN
 10
0.0
 20
0.0
  9
$PLIMMAX
 10
12.0
 20
9.0
  9
$UNITMODE
 70
     0
  9
$VISRETAIN
 70
     1
  9
$PLINEGEN
 70
     0
  9
$PSLTSCALE
 70
     1
  9
$TREEDEPTH
 70
  3020
  9
$CMLSTYLE
  2
Standard
  9
$CMLJUST
 70
     0
  9
$CMLSCALE
 40
1.0
  9
$PROXYGRAPHICS
 70
     1
  9
$MEASUREMENT
 70
     0
  9
$CELWEIGHT
370
    -1
  9
$ENDCAPS
280
     0
  9
$JOINSTYLE
280
     0
  9
$LWDISPLAY
290
     1
  9
$INSUNITS
 70
     1
  9
$HYPERLINKBASE
  1

  9
$STYLESHEET
  1

  9
$XEDIT
290
     1
  9
$CEPSNTYPE
380
     0
  9
$PSTYLEMODE
290
     1
  9
$FINGERPRINTGUID
  2
{9803e282-a9bd-4a94-b4a7-06b9d8a14352}
  9
$VERSIONGUID
  2
{FAEB1C32-E019-11D5-929B-00C0DF256EC4}
  9
$EXTNAMES
290
     1
  9
$PSVPSCALE
 40
0.0
  9
$OLESTARTUP
290
     0
  0
ENDSEC
  0
SECTION
  2
CLASSES
  0
CLASS
  1
ACDBDICTIONARYWDFLT
  2
AcDbDictionaryWithDefault
  3
ObjectDBX Classes
 90
        0
280
     0
281
     0
  0
CLASS
  1
VISUALSTYLE
  2
AcDbVisualStyle
  3
ObjectDBX Classes
 90
     4095
280
     0
281
     0
  0
CLASS
  1
MATERIAL
  2
AcDbMaterial
  3
ObjectDBX Classes
 90
     1153
280
     0
281
     0
  0
CLASS
  1
SCALE
  2
AcDbScale
  3
ObjectDBX Classes
 90
     1153
280
     0
281
     0
  0
CLASS
  1
TABLESTYLE
  2
AcDbTableStyle
  3
ObjectDBX Classes
 90
     4095
280
     0
281
     0
  0
CLASS
  1
MLEADERSTYLE
  2
AcDbMLeaderStyle
  3
ACDB_MLEADERSTYLE_CLASS
 90
     4095
280
     0
281
     0
  0
CLASS
  1
SUN
  2
AcDbSun
  3
SCENEOE
 90
     1153
280
     0
281
     0
  0
CLASS
  1
ACDBPLACEHOLDER
  2
AcDbPlaceHolder
  3
ObjectDBX Classes
 90
        0
280
     0
281
     0
  0
CLASS
  1
LAYOUT
  2
AcDbLayout
  3
ObjectDBX Classes
 90
        0
280
     0
281
     0
  0
ENDSEC
  0
SECTION
  2
TABLES
  0
TABLE
  2
VPORT
  5
8
330
0
100
AcDbSymbolTable
 70
     1
  0
VPORT
  5
29
330
8
100
AcDbSymbolTableRecord
100
AcDbViewportTableRecord
  2
*Active
 70
     0
 10
0.0
 20
0.0
 11
1.0
 21
1.0
 12
24.0
 22
18.0
 13
0.0
 23
0.0
 14
0.5
 24
0.5
 15
0.5
 25
0.5
 16
0.0
 26
0.0
 36
1.0
 17
0.0
 27
0.0
 37
0.0
 40
36.0
 41
1.3333333333
 42
50.0
 43
0.0
 44
0.0
 50
0.0
 51
0.0
 71
     0
 72
  2000
 73
     1
 74
     3
 75
     0
 76
     0
 77
     0
 78
     0
281
     0
 65
     1
110
0.0
120
0.0
130
0.0
111
1.0
121
0.0
131
0.0
112
0.0
122
1.0
132
0.0
 79
     0
146
0.0
  0
ENDTAB
  0
TABLE
  2
LTYPE
  5
5
330
0
100
AcDbSymbolTable
 70
     8
  0
LTYPE
  5
14
330
5
100
AcDbSymbolTableRecord
100
AcDbLinetypeTableRecord
  2
ByBlock
 70
     0
  3

 72
    65
 73
     0
 40
0.0
  0
LTYPE
  5
15
330
5
100
AcDbSymbolTableRecord
100
AcDbLinetypeTableRecord
  2
ByLayer
 70
     0
  3

 72
    65
 73
     0
 40
0.0
  0
LTYPE
  5
16
330
5
100
AcDbSymbolTableRecord
100
AcDbLinetypeTableRecord
  2
Continuous
 70
     0
  3
Solid line
 72
    65
 73
     0
 40
0.0
  0
LTYPE
  5
6E
330
5
100
AcDbSymbolTableRecord
100
AcDbLinetypeTableRecord
  2
SLD-Solid
 70
     0
  3
SolidWorks Line Style
 72
    65
 73
     0
 40
0.0
  0
LTYPE
  5
6F
330
5
100
AcDbSymbolTableRecord
100
AcDbLinetypeTableRecord
  2
SLD-Dashed
 70
     0
  3
SolidWorks Line Style
 72
    65
 73
     2
 40
0.075
 49
0.05
 74
     0
 49
-0.025
 74
     0
  0
LTYPE
  5
70
330
5
100
AcDbSymbolTableRecord
100
AcDbLinetypeTableRecord
  2
SLD-Phantom
 70
     0
  3
SolidWorks Line Style
 72
    65
 73
     6
 40
0.5
 49
0.25
 74
     0
 49
-0.05
 74
     0
 49
0.05
 74
     0
 49
-0.05
 74
     0
 49
0.05
 74
     0
 49
-0.05
 74
     0
  0
LTYPE
  5
71
330
5
100
AcDbSymbolTableRecord
100
AcDbLinetypeTableRecord
  2
SLD-Chain
 70
     0
  3
SolidWorks Line Style
 72
    65
 73
     4
 40
0.4
 49
0.25
 74
     0
 49
-0.05
 74
     0
 49
0.05
 74
     0
 49
-0.05
 74
     0
  0
LTYPE
  5
72
330
5
100
AcDbSymbolTableRecord
100
AcDbLinetypeTableRecord
  2
SLD-Center
 70
     0
  3
SolidWorks Line Style
 72
    65
 73
     4
 40
0.75
 49
0.6
 74
     0
 49
-0.05
 74
     0
 49
0.05
 74
     0
 49
-0.05
 74
     0
  0
LTYPE
  5
73
330
5
100
AcDbSymbolTableRecord
100
AcDbLinetypeTableRecord
  2
SLD-Stitch
 70
     0
  3
SolidWorks Line Style
 72
    65
 73
     2
 40
0.025
 49
0.0
 74
     0
 49
-0.025
 74
     0
  0
LTYPE
  5
74
330
5
100
AcDbSymbolTableRecord
100
AcDbLinetypeTableRecord
  2
SLD-Thin-Thick-Chain
 70
     0
  3
SolidWorks Line Style
 72
    65
 73
     4
 40
0.4
 49
0.25
 74
     0
 49
-0.05
 74
     0
 49
0.05
 74
     0
 49
-0.05
 74
     0
  0
ENDTAB
  0
TABLE
  2
LAYER
  5
2
330
0
100
AcDbSymbolTable
 70
     6
  0
LAYER
  5
10
330
2
100
AcDbSymbolTableRecord
100
AcDbLayerTableRecord
  2
0
 70
     0
 62
     7
  6
Continuous
370
    -3
390
F
  0
LAYER
  5
75
330
2
100
AcDbSymbolTableRecord
100
AcDbLayerTableRecord
  2
FORMAT
 70
     0
 62
     7
  6
SLD-Solid
370
    -3
390
F
  0
LAYER
  5
76
330
2
100
AcDbSymbolTableRecord
100
AcDbLayerTableRecord
  2
NOTES
 70
     0
 62
     1
  6
SLD-Solid
370
    -3
390
F
  0
LAYER
  5
77
330
2
100
AcDbSymbolTableRecord
100
AcDbLayerTableRecord
  2
OBJECT
 70
     0
 62
     7
  6
SLD-Solid
370
    25
390
F
  0
LAYER
  5
78
330
2
100
AcDbSymbolTableRecord
100
AcDbLayerTableRecord
  2
DIMS
 70
     0
 62
     5
  6
SLD-Solid
370
    -3
390
F
  0
LAYER
  5
79
330
2
100
AcDbSymbolTableRecord
100
AcDbLayerTableRecord
  2
TITLE
 70
     0
 62
     8
  6
SLD-Solid
370
    -3
390
F
  0
ENDTAB
  0
TABLE
  2
STYLE
  5
3
330
0
100
AcDbSymbolTable
 70
     5
  0
STYLE
  5
11
330
3
100
AcDbSymbolTableRecord
100
AcDbTextStyleTableRecord
  2
STANDARD
 70
     0
 40
0.0
 41
1.0
 50
0.0
 71
     0
 42
0.5
  3
GOTHIC.TTF
  4

1001
ACAD
1000
CENTURY GOTHIC
1071
       34
  0
STYLE
  5
DD
330
3
100
AcDbSymbolTableRecord
100
AcDbTextStyleTableRecord
  2
SLDTEXTSTYLE0
 70
     0
 40
0.0
 41
0.948
 50
0.0
 71
     0
 42
0.5
  3
ARIAL.TTF
  4

1001
ACAD
1000
Arial
1071
      290
  0
STYLE
  5
E1
330
3
100
AcDbSymbolTableRecord
100
AcDbTextStyleTableRecord
  2
SLDTEXTSTYLE1
 70
     0
 40
0.0
 41
0.913
 50
0.0
 71
     0
 42
0.5
  3
GOTHIC.TTF
  4

1001
ACAD
1000
Century Gothic
1071
      290
  0
STYLE
  5
F0
330
3
100
AcDbSymbolTableRecord
100
AcDbTextStyleTableRecord
  2
SLDTEXTSTYLE2
 70
     0
 40
0.0
 41
0.87
 50
0.0
 71
     0
 42
0.5
  3
ARIALNB.TTF
  4

1001
ACAD
1000
Arial Narrow
1071
 33554722
  0
STYLE
  5
F2
330
3
100
AcDbSymbolTableRecord
100
AcDbTextStyleTableRecord
  2
SLDTEXTSTYLE3
 70
     0
 40
0.0
 41
0.87
 50
0.0
 71
     0
 42
0.5
  3
ARIALN.TTF
  4

1001
ACAD
1000
Arial Narrow
1071
      290
  0
ENDTAB
  0
TABLE
  2
VIEW
  5
6
330
0
100
AcDbSymbolTable
 70
     0
  0
ENDTAB
  0
TABLE
  2
UCS
  5
7
330
0
100
AcDbSymbolTable
 70
     0
  0
ENDTAB
  0
TABLE
  2
APPID
  5
9
330
0
100
AcDbSymbolTable
 70
     1
  0
APPID
  5
12
330
9
100
AcDbSymbolTableRecord
100
AcDbRegAppTableRecord
  2
ACAD
 70
     0
  0
ENDTAB
  0
TABLE
  2
DIMSTYLE
  5
A
330
0
100
AcDbSymbolTable
 70
     4
100
AcDbDimStyleTable
  0
DIMSTYLE
105
27
330
A
100
AcDbSymbolTableRecord
100
AcDbDimStyleTableRecord
  2
Standard
 70
     0
178
     0
340
11
  0
DIMSTYLE
105
19C
102
{ACAD_REACTORS
330
19B
102
}
330
A
100
AcDbSymbolTableRecord
100
AcDbDimStyleTableRecord
  2
SLDDIMSTYLE0
 70
     0
 41
0.3
 44
0.0
 45
0.000000001
 78
    12
 79
     3
140
0.5
147
0.125
173
     1
178
     0
271
     2
272
     2
276
     2
277
     5
284
    12
340
E1
341
19D
343
19D
344
19D
  0
DIMSTYLE
105
1AE
102
{ACAD_REACTORS
330
1AD
330
201
330
2AD
102
}
330
A
100
AcDbSymbolTableRecord
100
AcDbDimStyleTableRecord
  2
SLDDIMSTYLE1
 70
     0
 41
0.3
 44
0.0
 45
0.000000001
 78
    12
 79
     3
140
0.5
147
0.125
173
     1
178
     0
271
     6
272
     2
276
     2
277
     5
284
    12
340
E1
341
19D
343
19D
344
19D
  0
DIMSTYLE
105
297
330
A
100
AcDbSymbolTableRecord
100
AcDbDimStyleTableRecord
  2
SLDDIMSTYLE2
 70
     0
 41
0.3
 44
0.0
 45
0.000000001
146
0.3
147
0.0
173
     1
178
     0
271
     0
272
     0
276
     2
277
     5
340
11
341
19D
343
19D
344
19D
  0
ENDTAB
  0
TABLE
  2
BLOCK_RECORD
  5
1
330
0
100
AcDbSymbolTable
 70
     9
  0
BLOCK_RECORD
  5
1F
330
1
100
AcDbSymbolTableRecord
100
AcDbBlockTableRecord
  2
*Model_Space
340
22
  0
BLOCK_RECORD
  5
1B
330
1
100
AcDbSymbolTableRecord
100
AcDbBlockTableRecord
  2
*Paper_Space
340
1E
  0
BLOCK_RECORD
  5
23
330
1
100
AcDbSymbolTableRecord
100
AcDbBlockTableRecord
  2
*Paper_Space0
340
26
  0
BLOCK_RECORD
  5
E7
330
1
100
AcDbSymbolTableRecord
100
AcDbBlockTableRecord
  2
SW_NOTE_0
340
0
102
{BLKREFS
331
EC
102
}
  0
BLOCK_RECORD
  5
ED
330
1
100
AcDbSymbolTableRecord
100
AcDbBlockTableRecord
  2
SW_NOTE_0_1
340
0
102
{BLKREFS
331
F6
102
}
  0
BLOCK_RECORD
  5
19D
330
1
100
AcDbSymbolTableRecord
100
AcDbBlockTableRecord
  2
_Open90
340
0
102
{BLKREFS
331
1A6
331
1A7
331
1B2
331
1B3
331
205
331
206
331
2B1
331
2B2
102
}
  0
BLOCK_RECORD
  5
1A3
330
1
100
AcDbSymbolTableRecord
100
AcDbBlockTableRecord
  2
_D
340
0
  0
BLOCK_RECORD
  5
1AF
330
1
100
AcDbSymbolTableRecord
100
AcDbBlockTableRecord
  2
_D_1
340
0
  0
BLOCK_RECORD
  5
202
330
1
100
AcDbSymbolTableRecord
100
AcDbBlockTableRecord
  2
_D_2
340
0
  0
BLOCK_RECORD
  5
264
330
1
100
AcDbSymbolTableRecord
100
AcDbBlockTableRecord
  2
SW_NOTE_0_2
340
0
102
{BLKREFS
331
269
102
}
  0
BLOCK_RECORD
  5
2AE
330
1
100
AcDbSymbolTableRecord
100
AcDbBlockTableRecord
  2
_D_3
340
0
  0
ENDTAB
  0
ENDSEC
  0
SECTION
  2
BLOCKS
  0
BLOCK
  5
20
330
1F
100
AcDbEntity
  8
0
100
AcDbBlockBegin
  2
*Model_Space
 70
     0
 10
0.0
 20
0.0
 30
0.0
  3
*Model_Space
  1

  0
ENDBLK
  5
21
330
1F
100
AcDbEntity
  8
0
100
AcDbBlockEnd
  0
BLOCK
  5
1C
330
1B
100
AcDbEntity
 67
     1
  8
0
100
AcDbBlockBegin
  2
*Paper_Space
 70
     0
 10
0.0
 20
0.0
 30
0.0
  3
*Paper_Space
  1

  0
ENDBLK
  5
1D
330
1B
100
AcDbEntity
 67
     1
  8
0
100
AcDbBlockEnd
  0
BLOCK
  5
24
330
23
100
AcDbEntity
  8
0
100
AcDbBlockBegin
  2
*Paper_Space0
 70
     0
 10
0.0
 20
0.0
 30
0.0
  3
*Paper_Space0
  1

  0
ENDBLK
  5
25
330
23
100
AcDbEntity
  8
0
100
AcDbBlockEnd
  0
BLOCK
  5
E8
330
E7
100
AcDbEntity
  8
0
100
AcDbBlockBegin
  2
SW_NOTE_0
 70
     0
 10
0.0
 20
0.0
 30
0.0
  3
SW_NOTE_0
  1

  0
MTEXT
  5
EA
330
E7
100
AcDbEntity
  8
NOTES
 62
     0
100
AcDbMText
 10
0.0
 20
0.3759780908
 30
0.0
 40
0.2916666667
 41
0.0
 71
     1
 72
     1
  1
FROST PRODUCTS LTD.
  7
SLDTEXTSTYLE0
 73
     1
 44
1.0
  0
MTEXT
  5
EB
330
E7
100
AcDbEntity
  8
NOTES
 62
     0
100
AcDbMText
 10
0.0
 20
-0.0495142709
 30
0.0
 40
0.2291666667
 41
0.0
 71
     1
 72
     1
  1
5280 JOHN LUCAS DRIVE, BURLINGTON, ON, L7L 5Z9
  7
SLDTEXTSTYLE0
 73
     1
 44
1.0
  0
ENDBLK
  5
E9
330
E7
100
AcDbEntity
  8
0
100
AcDbBlockEnd
  0
BLOCK
  5
EE
330
ED
100
AcDbEntity
  8
0
100
AcDbBlockBegin
  2
SW_NOTE_0_1
 70
     0
 10
0.0
 20
0.0
 30
0.0
  3
SW_NOTE_0_1
  1

  0
MTEXT
  5
F1
330
ED
100
AcDbEntity
  8
NOTES
 62
     0
100
AcDbMText
 10
0.0
 20
0.2381282771
 30
0.0
 40
0.184729064
 41
0.0
 71
     1
 72
     1
  1
PROPRIETARY AND CONFIDENTIAL
  7
SLDTEXTSTYLE2
 73
     1
 44
1.0
  0
MTEXT
  5
F3
330
ED
100
AcDbEntity
  8
NOTES
 62
     0
100
AcDbMText
 10
0.0
 20
-0.0504364796
 30
0.0
 40
0.25
 41
0.0
 71
     1
 72
     1
  1
THE INFORMATION CONTAINED IN THIS DRAWING IS THE SOLE PROPERTY OF 
  7
SLDTEXTSTYLE3
 73
     1
 44
1.0
  0
MTEXT
  5
F4
330
ED
100
AcDbEntity
  8
NOTES
 62
     0
100
AcDbMText
 10
0.0
 20
-0.4231398941
 30
0.0
 40
0.25
 41
0.0
 71
     1
 72
     1
  1
FROST PRODUCTS LTD.  ANY REPRODUCTION IN PART OR AS A WHOLE WITHOUT 
  7
SLDTEXTSTYLE3
 73
     1
 44
1.0
  0
MTEXT
  5
F5
330
ED
100
AcDbEntity
  8
NOTES
 62
     0
100
AcDbMText
 10
0.0
 20
-0.7958433086
 30
0.0
 40
0.25
 41
0.0
 71
     1
 72
     1
  1
THE WRITTEN PERMISSION OF FROST PRODUCTS LTD. IS PROHIBITED.
  7
SLDTEXTSTYLE3
 73
     1
 44
1.0
  0
ENDBLK
  5
EF
330
ED
100
AcDbEntity
  8
0
100
AcDbBlockEnd
  0
BLOCK
  5
19E
330
19D
100
AcDbEntity
  8
0
100
AcDbBlockBegin
  2
_Open90
 70
     0
 10
0.0
 20
0.0
 30
0.0
  3
_Open90
  1

  0
LINE
  5
1A0
330
19D
100
AcDbEntity
  8
0
  6
ByBlock
 62
     0
370
    -2
100
AcDbLine
 10
-0.5
 20
0.5
 30
0.0
 11
0.0
 21
0.0
 31
0.0
  0
LINE
  5
1A1
330
19D
100
AcDbEntity
  8
0
  6
ByBlock
 62
     0
370
    -2
100
AcDbLine
 10
0.0
 20
0.0
 30
0.0
 11
-0.5
 21
-0.5
 31
0.0
  0
LINE
  5
1A2
330
19D
100
AcDbEntity
  8
0
  6
ByBlock
 62
     0
370
    -2
100
AcDbLine
 10
0.0
 20
0.0
 30
0.0
 11
-1.0
 21
0.0
 31
0.0
  0
ENDBLK
  5
19F
330
19D
100
AcDbEntity
  8
0
100
AcDbBlockEnd
  0
BLOCK
  5
1A4
330
1A3
100
AcDbEntity
  8
0
100
AcDbBlockBegin
  2
_D
 70
     0
 10
0.0
 20
0.0
 30
0.0
  3
_D
  1

  0
INSERT
  5
1A6
330
1A3
100
AcDbEntity
  8
DIMS
100
AcDbBlockReference
  2
_Open90
 10
5.4819445959
 20
19.7382331751
 30
0.0
 41
0.3
 42
0.3
 50
90.0
  0
INSERT
  5
1A7
330
1A3
100
AcDbEntity
  8
DIMS
100
AcDbBlockReference
  2
_Open90
 10
5.4819445959
 20
7.7382331751
 30
0.0
 41
0.3
 42
0.3
 50
270.0
  0
LINE
  5
1A8
330
1A3
100
AcDbEntity
  8
DIMS
100
AcDbLine
 10
9.6330956846
 20
19.7382331751
 30
0.0
 11
5.1069445959
 21
19.7382331751
 31
0.0
  0
LINE
  5
1A9
330
1A3
100
AcDbEntity
  8
DIMS
100
AcDbLine
 10
5.4819445959
 20
19.7382331751
 30
0.0
 11
5.4819445959
 21
10.6029527358
 31
0.0
  0
LINE
  5
1AA
330
1A3
100
AcDbEntity
  8
DIMS
100
AcDbLine
 10
5.4819445959
 20
7.7382331751
 30
0.0
 11
5.4819445959
 21
8.2217025909
 31
0.0
  0
MTEXT
  5
1AB
330
1A3
100
AcDbEntity
  8
DIMS
100
AcDbMText
 10
-10.621537322
 20
10.4478746419
 30
0.0
 40
0.5
 41
0.0
 71
     1
 72
     1
  1
                                                                                     48"(1220mm) Max. height for barrier free installation
  7
SLDTEXTSTYLE1
 73
     1
 44
1.0
  0
MTEXT
  5
1AC
330
1A3
100
AcDbEntity
  8
DIMS
100
AcDbMText
 10
5.3895834845
 20
8.8603745942
 30
0.0
 40
0.5
 41
0.0
 71
     1
 72
     1
  1
 
  7
SLDTEXTSTYLE1
 73
     1
 44
1.0
  0
ENDBLK
  5
1A5
330
1A3
100
AcDbEntity
  8
0
100
AcDbBlockEnd
  0
BLOCK
  5
1B0
330
1AF
100
AcDbEntity
  8
0
100
AcDbBlockBegin
  2
_D_1
 70
     0
 10
0.0
 20
0.0
 30
0.0
  3
_D_1
  1

  0
INSERT
  5
1B2
330
1AF
100
AcDbEntity
  8
DIMS
100
AcDbBlockReference
  2
_Open90
 10
7.5655956846
 20
20.8409667976
 30
1.6689587376
 41
0.3
 42
0.3
 50
180.0
  0
INSERT
  5
1B3
330
1AF
100
AcDbEntity
  8
DIMS
100
AcDbBlockReference
  2
_Open90
 10
12.0339290179
 20
20.8409667976
 30
1.6689587376
 41
0.3
 42
0.3
 50
0.0
  0
LINE
  5
1B4
330
1AF
100
AcDbEntity
  8
DIMS
100
AcDbLine
 10
9.5168753665
 20
20.892251496
 30
0.0
 11
10.4022920615
 21
20.892251496
 31
0.0
  0
LINE
  5
1B5
330
1AF
100
AcDbEntity
  8
DIMS
100
AcDbLine
 10
7.5655956846
 20
18.9648998418
 30
0.0
 11
7.5655956846
 21
21.2159667976
 31
0.0
  0
LINE
  5
1B6
330
1AF
100
AcDbEntity
  8
DIMS
100
AcDbLine
 10
12.0339290179
 20
18.9648998418
 30
0.0
 11
12.0339290179
 21
21.2159667976
 31
0.0
  0
LINE
  5
1B7
330
1AF
100
AcDbEntity
  8
DIMS
100
AcDbLine
 10
7.5655956846
 20
20.8409667976
 30
0.0
 11
9.0741670191
 21
20.8409667976
 31
0.0
  0
LINE
  5
1B8
330
1AF
100
AcDbEntity
  8
DIMS
100
AcDbLine
 10
12.0339290179
 20
20.8409667976
 30
0.0
 11
10.6818059275
 21
20.8409667976
 31
0.0
  0
MTEXT
  5
1B9
330
1AF
100
AcDbEntity
  8
DIMS
100
AcDbMText
 10
9.0741670191
 20
21.1216525564
 30
0.0
 40
0.5
 41
0.0
 71
     1
 72
     1
  1
4
  7
SLDTEXTSTYLE1
 73
     1
 44
1.0
  0
MTEXT
  5
1BA
330
1AF
100
AcDbEntity
  8
DIMS
100
AcDbMText
 10
9.7748614913
 20
21.4869650554
 30
0.0
 40
0.5
 41
0.0
 71
     1
 72
     1
  1
7
  7
SLDTEXTSTYLE1
 73
     1
 44
1.0
  0
MTEXT
  5
1BB
330
1AF
100
AcDbEntity
  8
DIMS
100
AcDbMText
 10
9.5901392685
 20
20.8257844769
 30
0.0
 40
0.5
 41
0.0
 71
     1
 72
     1
  1
16
  7
SLDTEXTSTYLE1
 73
     1
 44
1.0
  0
MTEXT
  5
1BC
330
1AF
100
AcDbEntity
  8
DIMS
100
AcDbMText
 10
10.4755559635
 20
21.1216525564
 30
0.0
 40
0.5
 41
0.0
 71
     1
 72
     1
  1
"
  7
SLDTEXTSTYLE1
 73
     1
 44
1.0
  0
ENDBLK
  5
1B1
330
1AF
100
AcDbEntity
  8
0
100
AcDbBlockEnd
  0
BLOCK
  5
203
330
202
100
AcDbEntity
  8
0
100
AcDbBlockBegin
  2
_D_2
 70
     0
 10
0.0
 20
0.0
 30
0.0
  3
_D_2
  1

  0
INSERT
  5
205
330
202
100
AcDbEntity
  8
DIMS
100
AcDbBlockReference
  2
_Open90
 10
22.9145467241
 20
19.7382331751
 30
0.0
 41
0.3
 42
0.3
 50
90.0
  0
INSERT
  5
206
330
202
100
AcDbEntity
  8
DIMS
100
AcDbBlockReference
  2
_Open90
 10
22.9145467241
 20
12.2482331751
 30
0.0
 41
0.3
 42
0.3
 50
270.0
  0
LINE
  5
207
330
202
100
AcDbEntity
  8
DIMS
100
AcDbLine
 10
22.7381578034
 20
16.0787021908
 30
0.0
 11
23.2541300529
 21
16.0787021908
 31
0.0
  0
LINE
  5
208
330
202
100
AcDbEntity
  8
DIMS
100
AcDbLine
 10
22.2146921373
 20
19.7382331751
 30
0.0
 11
23.2895467241
 21
19.7382331751
 31
0.0
  0
LINE
  5
209
330
202
100
AcDbEntity
  8
DIMS
100
AcDbLine
 10
21.9646921373
 20
12.2482331751
 30
0.0
 11
23.2895467241
 21
12.2482331751
 31
0.0
  0
LINE
  5
20A
330
202
100
AcDbEntity
  8
DIMS
100
AcDbLine
 10
22.9145467241
 20
19.7382331751
 30
0.0
 11
22.9145467241
 21
16.6812716457
 31
0.0
  0
LINE
  5
20B
330
202
100
AcDbEntity
  8
DIMS
100
AcDbLine
 10
22.9145467241
 20
12.2482331751
 30
0.0
 11
22.9145467241
 21
15.3735633391
 31
0.0
  0
MTEXT
  5
20C
330
202
100
AcDbEntity
  8
DIMS
100
AcDbMText
 10
22.295449456
 20
16.3081032512
 30
0.0
 40
0.5
 41
0.0
 71
     1
 72
     1
  1
7
  7
SLDTEXTSTYLE1
 73
     1
 44
1.0
  0
MTEXT
  5
20D
330
202
100
AcDbEntity
  8
DIMS
100
AcDbMText
 10
22.8114217054
 20
16.6734157503
 30
0.0
 40
0.5
 41
0.0
 71
     1
 72
     1
  1
1
  7
SLDTEXTSTYLE1
 73
     1
 44
1.0
  0
MTEXT
  5
20E
330
202
100
AcDbEntity
  8
DIMS
100
AcDbMText
 10
22.8114217054
 20
16.0122351717
 30
0.0
 40
0.5
 41
0.0
 71
     1
 72
     1
  1
2
  7
SLDTEXTSTYLE1
 73
     1
 44
1.0
  0
MTEXT
  5
20F
330
202
100
AcDbEntity
  8
DIMS
100
AcDbMText
 10
23.3273939548
 20
16.3081032512
 30
0.0
 40
0.5
 41
0.0
 71
     1
 72
     1
  1
"
  7
SLDTEXTSTYLE1
 73
     1
 44
1.0
  0
ENDBLK
  5
204
330
202
100
AcDbEntity
  8
0
100
AcDbBlockEnd
  0
BLOCK
  5
265
330
264
100
AcDbEntity
  8
0
100
AcDbBlockBegin
  2
SW_NOTE_0_2
 70
     0
 10
0.0
 20
0.0
 30
0.0
  3
SW_NOTE_0_2
  1

  0
MTEXT
  5
267
330
264
100
AcDbEntity
  8
NOTES
 62
     0
100
AcDbMText
 10
0.0
 20
0.638671875
 30
0.0
 40
0.5
 41
0.0
 71
     1
 72
     1
  1
3D view
  7
SLDTEXTSTYLE1
 73
     1
 44
1.0
  0
MTEXT
  5
268
330
264
100
AcDbEntity
  8
NOTES
 62
     0
100
AcDbMText
 10
0.0
 20
-0.3613281862
 30
0.0
 40
0.5
 41
0.0
 71
     1
 72
     1
  1
code 700
  7
SLDTEXTSTYLE1
 73
     1
 44
1.0
  0
ENDBLK
  5
266
330
264
100
AcDbEntity
  8
0
100
AcDbBlockEnd
  0
BLOCK
  5
2AF
330
2AE
100
AcDbEntity
  8
0
100
AcDbBlockBegin
  2
_D_3
 70
     0
 10
0.0
 20
0.0
 30
0.0
  3
_D_3
  1

  0
INSERT
  5
2B1
330
2AE
100
AcDbEntity
  8
DIMS
100
AcDbBlockReference
  2
_Open90
 10
13.1726982168
 20
27.7134576776
 30
-3.7051857089
 41
0.3
 42
0.3
 50
90.0
  0
INSERT
  5
2B2
330
2AE
100
AcDbEntity
  8
DIMS
100
AcDbBlockReference
  2
_Open90
 10
13.1726982168
 20
23.4509956317
 30
-3.7051857089
 41
0.3
 42
0.3
 50
270.0
  0
LINE
  5
2B3
330
2AE
100
AcDbEntity
  8
DIMS
100
AcDbLine
 10
12.9963092961
 20
25.713688772
 30
0.0
 11
13.5122815456
 21
25.713688772
 31
0.0
  0
LINE
  5
2B4
330
2AE
100
AcDbEntity
  8
DIMS
100
AcDbLine
 10
12.177922668
 20
27.7134576776
 30
0.0
 11
13.5476982168
 21
27.7134576776
 31
0.0
  0
LINE
  5
2B5
330
2AE
100
AcDbEntity
  8
DIMS
100
AcDbLine
 10
9.9664290179
 20
23.4509956317
 30
0.0
 11
13.5476982168
 21
23.4509956317
 31
0.0
  0
LINE
  5
2B6
330
2AE
100
AcDbEntity
  8
DIMS
100
AcDbLine
 10
13.1726982168
 20
27.7134576776
 30
0.0
 11
13.1726982168
 21
26.3162582269
 31
0.0
  0
LINE
  5
2B7
330
2AE
100
AcDbEntity
  8
DIMS
100
AcDbLine
 10
13.1726982168
 20
23.4509956317
 30
0.0
 11
13.1726982168
 21
25.0085499204
 31
0.0
  0
MTEXT
  5
2B8
330
2AE
100
AcDbEntity
  8
DIMS
100
AcDbMText
 10
12.5536009487
 20
25.9430898325
 30
0.0
 40
0.5
 41
0.0
 71
     1
 72
     1
  1
4
  7
SLDTEXTSTYLE1
 73
     1
 44
1.0
  0
MTEXT
  5
2B9
330
2AE
100
AcDbEntity
  8
DIMS
100
AcDbMText
 10
13.0695731981
 20
26.3084023315
 30
0.0
 40
0.5
 41
0.0
 71
     1
 72
     1
  1
1
  7
SLDTEXTSTYLE1
 73
     1
 44
1.0
  0
MTEXT
  5
2BA
330
2AE
100
AcDbEntity
  8
DIMS
100
AcDbMText
 10
13.0695731981
 20
25.647221753
 30
0.0
 40
0.5
 41
0.0
 71
     1
 72
     1
  1
4
  7
SLDTEXTSTYLE1
 73
     1
 44
1.0
  0
MTEXT
  5
2BB
330
2AE
100
AcDbEntity
  8
DIMS
100
AcDbMText
 10
13.5855454475
 20
25.9430898325
 30
0.0
 40
0.5
 41
0.0
 71
     1
 72
     1
  1
"
  7
SLDTEXTSTYLE1
 73
     1
 44
1.0
  0
ENDBLK
  5
2B0
330
2AE
100
AcDbEntity
  8
0
100
AcDbBlockEnd
  0
ENDSEC
  0
SECTION
  2
ENTITIES
  0
LINE
  5
7A
330
1F
100
AcDbEntity
  8
TITLE
370
    35
100
AcDbLine
 10
30.5182229757
 20
1.4876117645
 30
0.0
 11
47.4999864512
 21
1.4876117645
 31
0.0
  0
LINE
  5
7B
330
1F
100
AcDbEntity
  8
TITLE
370
    35
100
AcDbLine
 10
47.4999317442
 20
5.4753603936
 30
0.0
 11
37.3105350723
 21
5.4753603936
 31
0.0
  0
LINE
  5
7C
330
1F
100
AcDbEntity
  8
TITLE
  6
SLD-Solid
370
    18
100
AcDbLine
 10
0.5
 20
0.5
 30
0.0
 11
0.5
 21
35.5
 31
0.0
  0
LINE
  5
7D
330
1F
100
AcDbEntity
  8
TITLE
  6
SLD-Solid
370
    18
100
AcDbLine
 10
0.5
 20
35.5
 30
0.0
 11
47.5
 21
35.5
 31
0.0
  0
LINE
  5
7E
330
1F
100
AcDbEntity
  8
TITLE
370
    35
100
AcDbLine
 10
30.5182229757
 20
2.5427877231
 30
0.0
 11
23.5059791203
 21
2.5427877231
 31
0.0
  0
LINE
  5
7F
330
1F
100
AcDbEntity
  8
TITLE
370
    35
100
AcDbLine
 10
30.5182229757
 20
1.4876117645
 30
0.0
 11
23.5059791203
 21
1.4876117645
 31
0.0
  0
LINE
  5
80
330
1F
100
AcDbEntity
  8
TITLE
  6
SLD-Solid
370
    18
100
AcDbLine
 10
47.5
 20
35.5
 30
0.0
 11
47.5
 21
0.5
 31
0.0
  0
LINE
  5
81
330
1F
100
AcDbEntity
  8
TITLE
  6
SLD-Solid
370
    18
100
AcDbLine
 10
47.5
 20
0.5
 30
0.0
 11
0.5
 21
0.5
 31
0.0
  0
LINE
  5
82
330
1F
100
AcDbEntity
  8
TITLE
370
    35
100
AcDbLine
 10
30.5182229757
 20
1.4876117645
 30
0.0
 11
30.5182229757
 21
3.5979636817
 31
0.0
  0
LINE
  5
83
330
1F
100
AcDbEntity
  8
TITLE
370
    35
100
AcDbLine
 10
23.5059791203
 20
3.5979636817
 30
0.0
 11
23.5059791203
 21
0.5
 31
0.0
  0
LINE
  5
84
330
1F
100
AcDbEntity
  8
TITLE
370
    35
100
AcDbLine
 10
23.5059791203
 20
0.5
 30
0.0
 11
47.5
 21
0.5
 31
0.0
  0
LINE
  5
85
330
1F
100
AcDbEntity
  8
TITLE
370
    35
100
AcDbLine
 10
47.4999317442
 20
5.4753603936
 30
0.0
 11
47.5
 21
0.5
 31
0.0
  0
LINE
  5
86
330
1F
100
AcDbEntity
  8
TITLE
  6
SLD-Solid
370
    18
100
AcDbLine
 10
0.4999606299
 20
18.0
 30
0.0
 11
0.5000393701
 21
18.0
 31
0.0
  0
LINE
  5
87
330
1F
100
AcDbEntity
  8
TITLE
370
    35
100
AcDbLine
 10
30.5182229757
 20
3.5979636817
 30
0.0
 11
23.5059791203
 21
3.5979636817
 31
0.0
  0
LINE
  5
88
330
1F
100
AcDbEntity
  8
TITLE
370
    35
100
AcDbLine
 10
30.5182229757
 20
3.5979636817
 30
0.0
 11
47.4997615643
 21
3.5979648343
 31
0.0
  0
LINE
  5
89
330
1F
100
AcDbEntity
  8
TITLE
370
    35
100
AcDbLine
 10
37.3105350723
 20
5.4753603936
 30
0.0
 11
37.3105350723
 21
0.4636772425
 31
0.0
  0
LINE
  5
8A
330
1F
100
AcDbEntity
  8
TITLE
  6
SLD-Solid
370
    18
100
AcDbLine
 10
24.0
 20
35.5000393701
 30
0.0
 11
24.0
 21
35.4999606299
 31
0.0
  0
LINE
  5
8B
330
1F
100
AcDbEntity
  8
TITLE
  6
SLD-Solid
370
    18
100
AcDbLine
 10
47.5000393701
 20
18.0
 30
0.0
 11
47.4999606299
 21
18.0
 31
0.0
  0
LINE
  5
8C
330
1F
100
AcDbEntity
  8
TITLE
  6
SLD-Solid
370
    18
100
AcDbLine
 10
24.0
 20
0.4999606299
 30
0.0
 11
24.0
 21
0.5000393701
 31
0.0
  0
LINE
  5
8D
330
1F
100
AcDbEntity
  8
TITLE
  6
SLD-Solid
370
    18
100
AcDbLine
 10
0.5
 20
2.2519685039
 30
0.0
 11
0.1653543307
 21
2.2519685039
 31
0.0
  0
LINE
  5
8E
330
1F
100
AcDbEntity
  8
TITLE
  6
SLD-Solid
370
    18
100
AcDbLine
 10
47.5
 20
2.2519685039
 30
0.0
 11
47.8346456693
 21
2.2519685039
 31
0.0
  0
LINE
  5
8F
330
1F
100
AcDbEntity
  8
TITLE
  6
SLD-Solid
370
    18
100
AcDbLine
 10
0.5
 20
4.2204724409
 30
0.0
 11
0.1653543307
 21
4.2204724409
 31
0.0
  0
LINE
  5
90
330
1F
100
AcDbEntity
  8
TITLE
  6
SLD-Solid
370
    18
100
AcDbLine
 10
47.5
 20
4.2204724409
 30
0.0
 11
47.8346456693
 21
4.2204724409
 31
0.0
  0
LINE
  5
91
330
1F
100
AcDbEntity
  8
TITLE
  6
SLD-Solid
370
    18
100
AcDbLine
 10
0.5
 20
6.188976378
 30
0.0
 11
0.1653543307
 21
6.188976378
 31
0.0
  0
LINE
  5
92
330
1F
100
AcDbEntity
  8
TITLE
  6
SLD-Solid
370
    18
100
AcDbLine
 10
47.5
 20
6.188976378
 30
0.0
 11
47.8346456693
 21
6.188976378
 31
0.0
  0
LINE
  5
93
330
1F
100
AcDbEntity
  8
TITLE
  6
SLD-Solid
370
    18
100
AcDbLine
 10
0.5
 20
8.157480315
 30
0.0
 11
0.1653543307
 21
8.157480315
 31
0.0
  0
LINE
  5
94
330
1F
100
AcDbEntity
  8
TITLE
  6
SLD-Solid
370
    18
100
AcDbLine
 10
47.5
 20
8.157480315
 30
0.0
 11
47.8346456693
 21
8.157480315
 31
0.0
  0
LINE
  5
95
330
1F
100
AcDbEntity
  8
TITLE
  6
SLD-Solid
370
    18
100
AcDbLine
 10
0.5
 20
10.125984252
 30
0.0
 11
0.1653543307
 21
10.125984252
 31
0.0
  0
LINE
  5
96
330
1F
100
AcDbEntity
  8
TITLE
  6
SLD-Solid
370
    18
100
AcDbLine
 10
47.5
 20
10.125984252
 30
0.0
 11
47.8346456693
 21
10.125984252
 31
0.0
  0
LINE
  5
97
330
1F
100
AcDbEntity
  8
TITLE
  6
SLD-Solid
370
    18
100
AcDbLine
 10
0.5
 20
12.094488189
 30
0.0
 11
0.1653543307
 21
12.094488189
 31
0.0
  0
LINE
  5
98
330
1F
100
AcDbEntity
  8
TITLE
  6
SLD-Solid
370
    18
100
AcDbLine
 10
47.5
 20
12.094488189
 30
0.0
 11
47.8346456693
 21
12.094488189
 31
0.0
  0
LINE
  5
99
330
1F
100
AcDbEntity
  8
TITLE
  6
SLD-Solid
370
    18
100
AcDbLine
 10
0.5
 20
14.062992126
 30
0.0
 11
0.1653543307
 21
14.062992126
 31
0.0
  0
LINE
  5
9A
330
1F
100
AcDbEntity
  8
TITLE
  6
SLD-Solid
370
    18
100
AcDbLine
 10
47.5
 20
14.062992126
 30
0.0
 11
47.8346456693
 21
14.062992126
 31
0.0
  0
LINE
  5
9B
330
1F
100
AcDbEntity
  8
TITLE
  6
SLD-Solid
370
    18
100
AcDbLine
 10
0.5
 20
16.031496063
 30
0.0
 11
0.1653543307
 21
16.031496063
 31
0.0
  0
LINE
  5
9C
330
1F
100
AcDbEntity
  8
TITLE
  6
SLD-Solid
370
    18
100
AcDbLine
 10
47.5
 20
16.031496063
 30
0.0
 11
47.8346456693
 21
16.031496063
 31
0.0
  0
LINE
  5
9D
330
1F
100
AcDbEntity
  8
TITLE
  6
SLD-Solid
370
    18
100
AcDbLine
 10
0.5
 20
18.0
 30
0.0
 11
0.1653543307
 21
18.0
 31
0.0
  0
LINE
  5
9E
330
1F
100
AcDbEntity
  8
TITLE
  6
SLD-Solid
370
    18
100
AcDbLine
 10
47.5
 20
18.0
 30
0.0
 11
47.8346456693
 21
18.0
 31
0.0
  0
LINE
  5
9F
330
1F
100
AcDbEntity
  8
TITLE
  6
SLD-Solid
370
    18
100
AcDbLine
 10
0.5
 20
19.968503937
 30
0.0
 11
0.1653543307
 21
19.968503937
 31
0.0
  0
LINE
  5
A0
330
1F
100
AcDbEntity
  8
TITLE
  6
SLD-Solid
370
    18
100
AcDbLine
 10
47.5
 20
19.968503937
 30
0.0
 11
47.8346456693
 21
19.968503937
 31
0.0
  0
LINE
  5
A1
330
1F
100
AcDbEntity
  8
TITLE
  6
SLD-Solid
370
    18
100
AcDbLine
 10
0.5
 20
21.937007874
 30
0.0
 11
0.1653543307
 21
21.937007874
 31
0.0
  0
LINE
  5
A2
330
1F
100
AcDbEntity
  8
TITLE
  6
SLD-Solid
370
    18
100
AcDbLine
 10
47.5
 20
21.937007874
 30
0.0
 11
47.8346456693
 21
21.937007874
 31
0.0
  0
LINE
  5
A3
330
1F
100
AcDbEntity
  8
TITLE
  6
SLD-Solid
370
    18
100
AcDbLine
 10
0.5
 20
23.905511811
 30
0.0
 11
0.1653543307
 21
23.905511811
 31
0.0
  0
LINE
  5
A4
330
1F
100
AcDbEntity
  8
TITLE
  6
SLD-Solid
370
    18
100
AcDbLine
 10
47.5
 20
23.905511811
 30
0.0
 11
47.8346456693
 21
23.905511811
 31
0.0
  0
LINE
  5
A5
330
1F
100
AcDbEntity
  8
TITLE
  6
SLD-Solid
370
    18
100
AcDbLine
 10
0.5
 20
25.874015748
 30
0.0
 11
0.1653543307
 21
25.874015748
 31
0.0
  0
LINE
  5
A6
330
1F
100
AcDbEntity
  8
TITLE
  6
SLD-Solid
370
    18
100
AcDbLine
 10
47.5
 20
25.874015748
 30
0.0
 11
47.8346456693
 21
25.874015748
 31
0.0
  0
LINE
  5
A7
330
1F
100
AcDbEntity
  8
TITLE
  6
SLD-Solid
370
    18
100
AcDbLine
 10
0.5
 20
27.842519685
 30
0.0
 11
0.1653543307
 21
27.842519685
 31
0.0
  0
LINE
  5
A8
330
1F
100
AcDbEntity
  8
TITLE
  6
SLD-Solid
370
    18
100
AcDbLine
 10
47.5
 20
27.842519685
 30
0.0
 11
47.8346456693
 21
27.842519685
 31
0.0
  0
LINE
  5
A9
330
1F
100
AcDbEntity
  8
TITLE
  6
SLD-Solid
370
    18
100
AcDbLine
 10
0.5
 20
29.811023622
 30
0.0
 11
0.1653543307
 21
29.811023622
 31
0.0
  0
LINE
  5
AA
330
1F
100
AcDbEntity
  8
TITLE
  6
SLD-Solid
370
    18
100
AcDbLine
 10
47.5
 20
29.811023622
 30
0.0
 11
47.8346456693
 21
29.811023622
 31
0.0
  0
LINE
  5
AB
330
1F
100
AcDbEntity
  8
TITLE
  6
SLD-Solid
370
    18
100
AcDbLine
 10
0.5
 20
31.7795275591
 30
0.0
 11
0.1653543307
 21
31.7795275591
 31
0.0
  0
LINE
  5
AC
330
1F
100
AcDbEntity
  8
TITLE
  6
SLD-Solid
370
    18
100
AcDbLine
 10
47.5
 20
31.7795275591
 30
0.0
 11
47.8346456693
 21
31.7795275591
 31
0.0
  0
LINE
  5
AD
330
1F
100
AcDbEntity
  8
TITLE
  6
SLD-Solid
370
    18
100
AcDbLine
 10
0.5
 20
33.7480314961
 30
0.0
 11
0.1653543307
 21
33.7480314961
 31
0.0
  0
LINE
  5
AE
330
1F
100
AcDbEntity
  8
TITLE
  6
SLD-Solid
370
    18
100
AcDbLine
 10
47.5
 20
33.7480314961
 30
0.0
 11
47.8346456693
 21
33.7480314961
 31
0.0
  0
LINE
  5
AF
330
1F
100
AcDbEntity
  8
TITLE
  6
SLD-Solid
370
    18
100
AcDbLine
 10
2.3464566929
 20
35.5
 30
0.0
 11
2.3464566929
 21
35.8346456693
 31
0.0
  0
LINE
  5
B0
330
1F
100
AcDbEntity
  8
TITLE
  6
SLD-Solid
370
    18
100
AcDbLine
 10
2.3464566929
 20
0.5
 30
0.0
 11
2.3464566929
 21
0.1653543307
 31
0.0
  0
LINE
  5
B1
330
1F
100
AcDbEntity
  8
TITLE
  6
SLD-Solid
370
    18
100
AcDbLine
 10
4.3149606299
 20
35.5
 30
0.0
 11
4.3149606299
 21
35.8346456693
 31
0.0
  0
LINE
  5
B2
330
1F
100
AcDbEntity
  8
TITLE
  6
SLD-Solid
370
    18
100
AcDbLine
 10
4.3149606299
 20
0.5
 30
0.0
 11
4.3149606299
 21
0.1653543307
 31
0.0
  0
LINE
  5
B3
330
1F
100
AcDbEntity
  8
TITLE
  6
SLD-Solid
370
    18
100
AcDbLine
 10
6.2834645669
 20
35.5
 30
0.0
 11
6.2834645669
 21
35.8346456693
 31
0.0
  0
LINE
  5
B4
330
1F
100
AcDbEntity
  8
TITLE
  6
SLD-Solid
370
    18
100
AcDbLine
 10
6.2834645669
 20
0.5
 30
0.0
 11
6.2834645669
 21
0.1653543307
 31
0.0
  0
LINE
  5
B5
330
1F
100
AcDbEntity
  8
TITLE
  6
SLD-Solid
370
    18
100
AcDbLine
 10
8.2519685039
 20
35.5
 30
0.0
 11
8.2519685039
 21
35.8346456693
 31
0.0
  0
LINE
  5
B6
330
1F
100
AcDbEntity
  8
TITLE
  6
SLD-Solid
370
    18
100
AcDbLine
 10
8.2519685039
 20
0.5
 30
0.0
 11
8.2519685039
 21
0.1653543307
 31
0.0
  0
LINE
  5
B7
330
1F
100
AcDbEntity
  8
TITLE
  6
SLD-Solid
370
    18
100
AcDbLine
 10
10.2204724409
 20
35.5
 30
0.0
 11
10.2204724409
 21
35.8346456693
 31
0.0
  0
LINE
  5
B8
330
1F
100
AcDbEntity
  8
TITLE
  6
SLD-Solid
370
    18
100
AcDbLine
 10
10.2204724409
 20
0.5
 30
0.0
 11
10.2204724409
 21
0.1653543307
 31
0.0
  0
LINE
  5
B9
330
1F
100
AcDbEntity
  8
TITLE
  6
SLD-Solid
370
    18
100
AcDbLine
 10
12.188976378
 20
35.5
 30
0.0
 11
12.188976378
 21
35.8346456693
 31
0.0
  0
LINE
  5
BA
330
1F
100
AcDbEntity
  8
TITLE
  6
SLD-Solid
370
    18
100
AcDbLine
 10
12.188976378
 20
0.5
 30
0.0
 11
12.188976378
 21
0.1653543307
 31
0.0
  0
LINE
  5
BB
330
1F
100
AcDbEntity
  8
TITLE
  6
SLD-Solid
370
    18
100
AcDbLine
 10
14.157480315
 20
35.5
 30
0.0
 11
14.157480315
 21
35.8346456693
 31
0.0
  0
LINE
  5
BC
330
1F
100
AcDbEntity
  8
TITLE
  6
SLD-Solid
370
    18
100
AcDbLine
 10
14.157480315
 20
0.5
 30
0.0
 11
14.157480315
 21
0.1653543307
 31
0.0
  0
LINE
  5
BD
330
1F
100
AcDbEntity
  8
TITLE
  6
SLD-Solid
370
    18
100
AcDbLine
 10
16.125984252
 20
35.5
 30
0.0
 11
16.125984252
 21
35.8346456693
 31
0.0
  0
LINE
  5
BE
330
1F
100
AcDbEntity
  8
TITLE
  6
SLD-Solid
370
    18
100
AcDbLine
 10
16.125984252
 20
0.5
 30
0.0
 11
16.125984252
 21
0.1653543307
 31
0.0
  0
LINE
  5
BF
330
1F
100
AcDbEntity
  8
TITLE
  6
SLD-Solid
370
    18
100
AcDbLine
 10
18.094488189
 20
35.5
 30
0.0
 11
18.094488189
 21
35.8346456693
 31
0.0
  0
LINE
  5
C0
330
1F
100
AcDbEntity
  8
TITLE
  6
SLD-Solid
370
    18
100
AcDbLine
 10
18.094488189
 20
0.5
 30
0.0
 11
18.094488189
 21
0.1653543307
 31
0.0
  0
LINE
  5
C1
330
1F
100
AcDbEntity
  8
TITLE
  6
SLD-Solid
370
    18
100
AcDbLine
 10
20.062992126
 20
35.5
 30
0.0
 11
20.062992126
 21
35.8346456693
 31
0.0
  0
LINE
  5
C2
330
1F
100
AcDbEntity
  8
TITLE
  6
SLD-Solid
370
    18
100
AcDbLine
 10
20.062992126
 20
0.5
 30
0.0
 11
20.062992126
 21
0.1653543307
 31
0.0
  0
LINE
  5
C3
330
1F
100
AcDbEntity
  8
TITLE
  6
SLD-Solid
370
    18
100
AcDbLine
 10
22.031496063
 20
35.5
 30
0.0
 11
22.031496063
 21
35.8346456693
 31
0.0
  0
LINE
  5
C4
330
1F
100
AcDbEntity
  8
TITLE
  6
SLD-Solid
370
    18
100
AcDbLine
 10
22.031496063
 20
0.5
 30
0.0
 11
22.031496063
 21
0.1653543307
 31
0.0
  0
LINE
  5
C5
330
1F
100
AcDbEntity
  8
TITLE
  6
SLD-Solid
370
    18
100
AcDbLine
 10
24.0
 20
35.5
 30
0.0
 11
24.0
 21
35.8346456693
 31
0.0
  0
LINE
  5
C6
330
1F
100
AcDbEntity
  8
TITLE
  6
SLD-Solid
370
    18
100
AcDbLine
 10
24.0
 20
0.5
 30
0.0
 11
24.0
 21
0.1653543307
 31
0.0
  0
LINE
  5
C7
330
1F
100
AcDbEntity
  8
TITLE
  6
SLD-Solid
370
    18
100
AcDbLine
 10
25.968503937
 20
35.5
 30
0.0
 11
25.968503937
 21
35.8346456693
 31
0.0
  0
LINE
  5
C8
330
1F
100
AcDbEntity
  8
TITLE
  6
SLD-Solid
370
    18
100
AcDbLine
 10
25.968503937
 20
0.5
 30
0.0
 11
25.968503937
 21
0.1653543307
 31
0.0
  0
LINE
  5
C9
330
1F
100
AcDbEntity
  8
TITLE
  6
SLD-Solid
370
    18
100
AcDbLine
 10
27.937007874
 20
35.5
 30
0.0
 11
27.937007874
 21
35.8346456693
 31
0.0
  0
LINE
  5
CA
330
1F
100
AcDbEntity
  8
TITLE
  6
SLD-Solid
370
    18
100
AcDbLine
 10
27.937007874
 20
0.5
 30
0.0
 11
27.937007874
 21
0.1653543307
 31
0.0
  0
LINE
  5
CB
330
1F
100
AcDbEntity
  8
TITLE
  6
SLD-Solid
370
    18
100
AcDbLine
 10
29.905511811
 20
35.5
 30
0.0
 11
29.905511811
 21
35.8346456693
 31
0.0
  0
LINE
  5
CC
330
1F
100
AcDbEntity
  8
TITLE
  6
SLD-Solid
370
    18
100
AcDbLine
 10
29.905511811
 20
0.5
 30
0.0
 11
29.905511811
 21
0.1653543307
 31
0.0
  0
LINE
  5
CD
330
1F
100
AcDbEntity
  8
TITLE
  6
SLD-Solid
370
    18
100
AcDbLine
 10
31.874015748
 20
35.5
 30
0.0
 11
31.874015748
 21
35.8346456693
 31
0.0
  0
LINE
  5
CE
330
1F
100
AcDbEntity
  8
TITLE
  6
SLD-Solid
370
    18
100
AcDbLine
 10
31.874015748
 20
0.5
 30
0.0
 11
31.874015748
 21
0.1653543307
 31
0.0
  0
LINE
  5
CF
330
1F
100
AcDbEntity
  8
TITLE
  6
SLD-Solid
370
    18
100
AcDbLine
 10
33.842519685
 20
35.5
 30
0.0
 11
33.842519685
 21
35.8346456693
 31
0.0
  0
LINE
  5
D0
330
1F
100
AcDbEntity
  8
TITLE
  6
SLD-Solid
370
    18
100
AcDbLine
 10
33.842519685
 20
0.5
 30
0.0
 11
33.842519685
 21
0.1653543307
 31
0.0
  0
LINE
  5
D1
330
1F
100
AcDbEntity
  8
TITLE
  6
SLD-Solid
370
    18
100
AcDbLine
 10
35.811023622
 20
35.5
 30
0.0
 11
35.811023622
 21
35.8346456693
 31
0.0
  0
LINE
  5
D2
330
1F
100
AcDbEntity
  8
TITLE
  6
SLD-Solid
370
    18
100
AcDbLine
 10
35.811023622
 20
0.5
 30
0.0
 11
35.811023622
 21
0.1653543307
 31
0.0
  0
LINE
  5
D3
330
1F
100
AcDbEntity
  8
TITLE
  6
SLD-Solid
370
    18
100
AcDbLine
 10
37.7795275591
 20
35.5
 30
0.0
 11
37.7795275591
 21
35.8346456693
 31
0.0
  0
LINE
  5
D4
330
1F
100
AcDbEntity
  8
TITLE
  6
SLD-Solid
370
    18
100
AcDbLine
 10
37.7795275591
 20
0.5
 30
0.0
 11
37.7795275591
 21
0.1653543307
 31
0.0
  0
LINE
  5
D5
330
1F
100
AcDbEntity
  8
TITLE
  6
SLD-Solid
370
    18
100
AcDbLine
 10
39.7480314961
 20
35.5
 30
0.0
 11
39.7480314961
 21
35.8346456693
 31
0.0
  0
LINE
  5
D6
330
1F
100
AcDbEntity
  8
TITLE
  6
SLD-Solid
370
    18
100
AcDbLine
 10
39.7480314961
 20
0.5
 30
0.0
 11
39.7480314961
 21
0.1653543307
 31
0.0
  0
LINE
  5
D7
330
1F
100
AcDbEntity
  8
TITLE
  6
SLD-Solid
370
    18
100
AcDbLine
 10
41.7165354331
 20
35.5
 30
0.0
 11
41.7165354331
 21
35.8346456693
 31
0.0
  0
LINE
  5
D8
330
1F
100
AcDbEntity
  8
TITLE
  6
SLD-Solid
370
    18
100
AcDbLine
 10
41.7165354331
 20
0.5
 30
0.0
 11
41.7165354331
 21
0.1653543307
 31
0.0
  0
LINE
  5
D9
330
1F
100
AcDbEntity
  8
TITLE
  6
SLD-Solid
370
    18
100
AcDbLine
 10
43.6850393701
 20
35.5
 30
0.0
 11
43.6850393701
 21
35.8346456693
 31
0.0
  0
LINE
  5
DA
330
1F
100
AcDbEntity
  8
TITLE
  6
SLD-Solid
370
    18
100
AcDbLine
 10
43.6850393701
 20
0.5
 30
0.0
 11
43.6850393701
 21
0.1653543307
 31
0.0
  0
LINE
  5
DB
330
1F
100
AcDbEntity
  8
TITLE
  6
SLD-Solid
370
    18
100
AcDbLine
 10
45.6535433071
 20
35.5
 30
0.0
 11
45.6535433071
 21
35.8346456693
 31
0.0
  0
LINE
  5
DC
330
1F
100
AcDbEntity
  8
TITLE
  6
SLD-Solid
370
    18
100
AcDbLine
 10
45.6535433071
 20
0.5
 30
0.0
 11
45.6535433071
 21
0.1653543307
 31
0.0
  0
MTEXT
  5
DE
330
1F
100
AcDbEntity
  8
NOTES
100
AcDbMText
 10
24.408297803
 20
1.0702903347
 30
0.0
 40
0.25
 41
0.0
 71
     1
 72
     1
  1
UNLESS OTHERWISE SPECIFIED DIMENSIONS ARE IN INCHES.
  7
SLDTEXTSTYLE0
 73
     1
 44
1.0
  0
MTEXT
  5
DF
330
1F
100
AcDbEntity
  8
NOTES
100
AcDbMText
 10
24.4368251132
 20
3.2193045501
 30
0.0
 40
0.25
 41
0.0
 71
     1
 72
     1
  1
DATE:
  7
SLDTEXTSTYLE0
 73
     1
 44
1.0
  0
MTEXT
  5
E0
330
1F
100
AcDbEntity
  8
NOTES
100
AcDbMText
 10
26.7130669976
 20
2.1722148141
 30
0.0
 40
0.25
 41
0.0
 71
     2
 72
     1
  1
DO NOT SCALE DRAWING
  7
SLDTEXTSTYLE0
 73
     1
 44
1.0
  0
MTEXT
  5
E2
330
1F
100
AcDbEntity
  8
NOTES
100
AcDbMText
 10
30.8307373075
 20
3.2682755553
 30
0.0
 40
0.25
 41
0.0
 71
     1
 72
     1
  1
TITLE:
  7
SLDTEXTSTYLE1
 73
     1
 44
1.0
  0
MTEXT
  5
E3
330
1F
100
AcDbEntity
  8
NOTES
100
AcDbMText
 10
38.1561831052
 20
3.2682755553
 30
0.0
 40
0.25
 41
0.0
 71
     1
 72
     1
  1
DWG NO.
  7
SLDTEXTSTYLE1
 73
     1
 44
1.0
  0
MTEXT
  5
E4
330
1F
100
AcDbEntity
  8
NOTES
100
AcDbMText
 10
38.1831753203
 20
1.0645815577
 30
0.0
 40
0.25
 41
0.0
 71
     1
 72
     1
  1
SCALE:     1:1
  7
SLDTEXTSTYLE1
 73
     1
 44
1.0
  0
MTEXT
  5
E5
330
1F
100
AcDbEntity
  8
NOTES
100
AcDbMText
 10
42.1742894287
 20
2.6510344295
 30
0.0
 40
0.25
 41
0.0
 71
     2
 72
     1
  1
700 CAD
  7
SLDTEXTSTYLE1
 73
     1
 44
1.0
  0
MTEXT
  5
E6
330
1F
100
AcDbEntity
  8
NOTES
100
AcDbMText
 10
33.9761336805
 20
2.6388861441
 30
0.0
 40
0.25
 41
0.0
 71
     2
 72
     1
  1
700 Liquid Soap Dispenser
  7
SLDTEXTSTYLE1
 73
     1
 44
1.0
  0
INSERT
  5
EC
330
1F
100
AcDbEntity
  8
NOTES
100
AcDbBlockReference
  2
SW_NOTE_0
 10
38.266131557
 20
4.6105227838
 30
0.0
  0
INSERT
  5
F6
330
1F
100
AcDbEntity
  8
NOTES
100
AcDbBlockReference
  2
SW_NOTE_0_1
 10
24.6159726246
 20
5.1481526848
 30
0.0
  0
MTEXT
  5
F7
330
1F
100
AcDbEntity
  8
NOTES
100
AcDbMText
 10
27.5199178859
 20
3.2135957731
 30
0.0
 40
0.25
 41
0.0
 71
     2
 72
     1
  1
September 2, 2021
  7
SLDTEXTSTYLE1
 73
     1
 44
1.0
  0
MTEXT
  5
F8
330
1F
100
AcDbEntity
  8
TITLE
100
AcDbMText
 10
0.3276279776
 20
1.4558621965
 30
0.0
 40
0.125
 41
0.0
 71
     2
 72
     1
  1
A
  7
SLDTEXTSTYLE1
 73
     1
 44
1.0
  0
MTEXT
  5
F9
330
1F
100
AcDbEntity
  8
TITLE
100
AcDbMText
 10
47.6622736469
 20
1.4558621965
 30
0.0
 40
0.125
 41
0.0
 71
     2
 72
     1
  1
A
  7
SLDTEXTSTYLE1
 73
     1
 44
1.0
  0
MTEXT
  5
FA
330
1F
100
AcDbEntity
  8
TITLE
100
AcDbMText
 10
0.3317512413
 20
3.316098417
 30
0.0
 40
0.125
 41
0.0
 71
     2
 72
     1
  1
B
  7
SLDTEXTSTYLE1
 73
     1
 44
1.0
  0
MTEXT
  5
FB
330
1F
100
AcDbEntity
  8
TITLE
100
AcDbMText
 10
47.6663969106
 20
3.316098417
 30
0.0
 40
0.125
 41
0.0
 71
     2
 72
     1
  1
B
  7
SLDTEXTSTYLE1
 73
     1
 44
1.0
  0
MTEXT
  5
FC
330
1F
100
AcDbEntity
  8
TITLE
100
AcDbMText
 10
0.3313750817
 20
5.284602354
 30
0.0
 40
0.125
 41
0.0
 71
     2
 72
     1
  1
C
  7
SLDTEXTSTYLE1
 73
     1
 44
1.0
  0
MTEXT
  5
FD
330
1F
100
AcDbEntity
  8
TITLE
100
AcDbMText
 10
47.666020751
 20
5.284602354
 30
0.0
 40
0.125
 41
0.0
 71
     2
 72
     1
  1
C
  7
SLDTEXTSTYLE1
 73
     1
 44
1.0
  0
MTEXT
  5
FE
330
1F
100
AcDbEntity
  8
TITLE
100
AcDbMText
 10
0.3311870028
 20
7.253106291
 30
0.0
 40
0.125
 41
0.0
 71
     2
 72
     1
  1
D
  7
SLDTEXTSTYLE1
 73
     1
 44
1.0
  0
MTEXT
  5
FF
330
1F
100
AcDbEntity
  8
TITLE
100
AcDbMText
 10
47.6658326721
 20
7.253106291
 30
0.0
 40
0.125
 41
0.0
 71
     2
 72
     1
  1
D
  7
SLDTEXTSTYLE1
 73
     1
 44
1.0
  0
MTEXT
  5
100
330
1F
100
AcDbEntity
  8
TITLE
100
AcDbMText
 10
0.332923116
 20
9.221610228
 30
0.0
 40
0.125
 41
0.0
 71
     2
 72
     1
  1
E
  7
SLDTEXTSTYLE1
 73
     1
 44
1.0
  0
MTEXT
  5
101
330
1F
100
AcDbEntity
  8
TITLE
100
AcDbMText
 10
47.6675687853
 20
9.221610228
 30
0.0
 40
0.125
 41
0.0
 71
     2
 72
     1
  1
E
  7
SLDTEXTSTYLE1
 73
     1
 44
1.0
  0
MTEXT
  5
102
330
1F
100
AcDbEntity
  8
TITLE
100
AcDbMText
 10
0.3313461474
 20
11.190114165
 30
0.0
 40
0.125
 41
0.0
 71
     2
 72
     1
  1
F
  7
SLDTEXTSTYLE1
 73
     1
 44
1.0
  0
MTEXT
  5
103
330
1F
100
AcDbEntity
  8
TITLE
100
AcDbMText
 10
47.6659918167
 20
11.190114165
 30
0.0
 40
0.125
 41
0.0
 71
     2
 72
     1
  1
F
  7
SLDTEXTSTYLE1
 73
     1
 44
1.0
  0
MTEXT
  5
104
330
1F
100
AcDbEntity
  8
TITLE
100
AcDbMText
 10
0.3322576054
 20
13.158618102
 30
0.0
 40
0.125
 41
0.0
 71
     2
 72
     1
  1
G
  7
SLDTEXTSTYLE1
 73
     1
 44
1.0
  0
MTEXT
  5
105
330
1F
100
AcDbEntity
  8
TITLE
100
AcDbMText
 10
47.6669032747
 20
13.158618102
 30
0.0
 40
0.125
 41
0.0
 71
     2
 72
     1
  1
G
  7
SLDTEXTSTYLE1
 73
     1
 44
1.0
  0
MTEXT
  5
106
330
1F
100
AcDbEntity
  8
TITLE
100
AcDbMText
 10
0.3323733457
 20
15.127122039
 30
0.0
 40
0.125
 41
0.0
 71
     2
 72
     1
  1
H
  7
SLDTEXTSTYLE1
 73
     1
 44
1.0
  0
MTEXT
  5
107
330
1F
100
AcDbEntity
  8
TITLE
100
AcDbMText
 10
47.667019015
 20
15.127122039
 30
0.0
 40
0.125
 41
0.0
 71
     2
 72
     1
  1
H
  7
SLDTEXTSTYLE1
 73
     1
 44
1.0
  0
MTEXT
  5
108
330
1F
100
AcDbEntity
  8
TITLE
100
AcDbMText
 10
0.3315776306
 20
17.095625976
 30
0.0
 40
0.125
 41
0.0
 71
     2
 72
     1
  1
J
  7
SLDTEXTSTYLE1
 73
     1
 44
1.0
  0
MTEXT
  5
109
330
1F
100
AcDbEntity
  8
TITLE
100
AcDbMText
 10
47.6662232999
 20
17.095625976
 30
0.0
 40
0.125
 41
0.0
 71
     2
 72
     1
  1
J
  7
SLDTEXTSTYLE1
 73
     1
 44
1.0
  0
MTEXT
  5
10A
330
1F
100
AcDbEntity
  8
TITLE
100
AcDbMText
 10
0.3323154765
 20
19.064129913
 30
0.0
 40
0.125
 41
0.0
 71
     2
 72
     1
  1
K
  7
SLDTEXTSTYLE1
 73
     1
 44
1.0
  0
MTEXT
  5
10B
330
1F
100
AcDbEntity
  8
TITLE
100
AcDbMText
 10
47.6669611458
 20
19.064129913
 30
0.0
 40
0.125
 41
0.0
 71
     2
 72
     1
  1
K
  7
SLDTEXTSTYLE1
 73
     1
 44
1.0
  0
MTEXT
  5
10C
330
1F
100
AcDbEntity
  8
TITLE
100
AcDbMText
 10
0.3312448739
 20
21.03263385
 30
0.0
 40
0.125
 41
0.0
 71
     2
 72
     1
  1
L
  7
SLDTEXTSTYLE1
 73
     1
 44
1.0
  0
MTEXT
  5
10D
330
1F
100
AcDbEntity
  8
TITLE
100
AcDbMText
 10
47.6658905432
 20
21.03263385
 30
0.0
 40
0.125
 41
0.0
 71
     2
 72
     1
  1
L
  7
SLDTEXTSTYLE1
 73
     1
 44
1.0
  0
MTEXT
  5
10E
330
1F
100
AcDbEntity
  8
TITLE
100
AcDbMText
 10
0.3283224192
 20
23.001137787
 30
0.0
 40
0.125
 41
0.0
 71
     2
 72
     1
  1
M
  7
SLDTEXTSTYLE1
 73
     1
 44
1.0
  0
MTEXT
  5
10F
330
1F
100
AcDbEntity
  8
TITLE
100
AcDbMText
 10
47.6629680885
 20
23.001137787
 30
0.0
 40
0.125
 41
0.0
 71
     2
 72
     1
  1
M
  7
SLDTEXTSTYLE1
 73
     1
 44
1.0
  0
MTEXT
  5
110
330
1F
100
AcDbEntity
  8
TITLE
100
AcDbMText
 10
0.3315342276
 20
24.969641724
 30
0.0
 40
0.125
 41
0.0
 71
     2
 72
     1
  1
N
  7
SLDTEXTSTYLE1
 73
     1
 44
1.0
  0
MTEXT
  5
111
330
1F
100
AcDbEntity
  8
TITLE
100
AcDbMText
 10
47.6661798969
 20
24.969641724
 30
0.0
 40
0.125
 41
0.0
 71
     2
 72
     1
  1
N
  7
SLDTEXTSTYLE1
 73
     1
 44
1.0
  0
MTEXT
  5
112
330
1F
100
AcDbEntity
  8
TITLE
100
AcDbMText
 10
0.3321997349
 20
26.9381456611
 30
0.0
 40
0.125
 41
0.0
 71
     2
 72
     1
  1
P
  7
SLDTEXTSTYLE1
 73
     1
 44
1.0
  0
MTEXT
  5
113
330
1F
100
AcDbEntity
  8
TITLE
100
AcDbMText
 10
47.6668454042
 20
26.9381456611
 30
0.0
 40
0.125
 41
0.0
 71
     2
 72
     1
  1
P
  7
SLDTEXTSTYLE1
 73
     1
 44
1.0
  0
MTEXT
  5
114
330
1F
100
AcDbEntity
  8
TITLE
100
AcDbMText
 10
0.3309265867
 20
28.9066495981
 30
0.0
 40
0.125
 41
0.0
 71
     2
 72
     1
  1
R
  7
SLDTEXTSTYLE1
 73
     1
 44
1.0
  0
MTEXT
  5
115
330
1F
100
AcDbEntity
  8
TITLE
100
AcDbMText
 10
47.665572256
 20
28.9066495981
 30
0.0
 40
0.125
 41
0.0
 71
     2
 72
     1
  1
R
  7
SLDTEXTSTYLE1
 73
     1
 44
1.0
  0
MTEXT
  5
116
330
1F
100
AcDbEntity
  8
TITLE
100
AcDbMText
 10
0.3323010071
 20
30.8751535351
 30
0.0
 40
0.125
 41
0.0
 71
     2
 72
     1
  1
T
  7
SLDTEXTSTYLE1
 73
     1
 44
1.0
  0
MTEXT
  5
117
330
1F
100
AcDbEntity
  8
TITLE
100
AcDbMText
 10
47.6669466764
 20
30.8751535351
 30
0.0
 40
0.125
 41
0.0
 71
     2
 72
     1
  1
T
  7
SLDTEXTSTYLE1
 73
     1
 44
1.0
  0
MTEXT
  5
118
330
1F
100
AcDbEntity
  8
TITLE
100
AcDbMText
 10
0.3328507755
 20
32.8436574721
 30
0.0
 40
0.125
 41
0.0
 71
     2
 72
     1
  1
U
  7
SLDTEXTSTYLE1
 73
     1
 44
1.0
  0
MTEXT
  5
119
330
1F
100
AcDbEntity
  8
TITLE
100
AcDbMText
 10
47.6674964448
 20
32.8436574721
 30
0.0
 40
0.125
 41
0.0
 71
     2
 72
     1
  1
U
  7
SLDTEXTSTYLE1
 73
     1
 44
1.0
  0
MTEXT
  5
11A
330
1F
100
AcDbEntity
  8
TITLE
100
AcDbMText
 10
0.3307529773
 20
34.7038936925
 30
0.0
 40
0.125
 41
0.0
 71
     2
 72
     1
  1
V
  7
SLDTEXTSTYLE1
 73
     1
 44
1.0
  0
MTEXT
  5
11B
330
1F
100
AcDbEntity
  8
TITLE
100
AcDbMText
 10
47.6653986466
 20
34.7038936925
 30
0.0
 40
0.125
 41
0.0
 71
     2
 72
     1
  1
V
  7
SLDTEXTSTYLE1
 73
     1
 44
1.0
  0
MTEXT
  5
11C
330
1F
100
AcDbEntity
  8
TITLE
100
AcDbMText
 10
1.4207109851
 20
0.4125551099
 30
0.0
 40
0.125
 41
0.0
 71
     2
 72
     1
  1
24
  7
SLDTEXTSTYLE1
 73
     1
 44
1.0
  0
MTEXT
  5
11D
330
1F
100
AcDbEntity
  8
TITLE
100
AcDbMText
 10
1.4207109851
 20
35.7472007792
 30
0.0
 40
0.125
 41
0.0
 71
     2
 72
     1
  1
24
  7
SLDTEXTSTYLE1
 73
     1
 44
1.0
  0
MTEXT
  5
11E
330
1F
100
AcDbEntity
  8
TITLE
100
AcDbMText
 10
3.3281913
 20
0.4125551099
 30
0.0
 40
0.125
 41
0.0
 71
     2
 72
     1
  1
23
  7
SLDTEXTSTYLE1
 73
     1
 44
1.0
  0
MTEXT
  5
11F
330
1F
100
AcDbEntity
  8
TITLE
100
AcDbMText
 10
3.3281913
 20
35.7472007792
 30
0.0
 40
0.125
 41
0.0
 71
     2
 72
     1
  1
23
  7
SLDTEXTSTYLE1
 73
     1
 44
1.0
  0
MTEXT
  5
120
330
1F
100
AcDbEntity
  8
TITLE
100
AcDbMText
 10
5.2966952371
 20
0.4125551099
 30
0.0
 40
0.125
 41
0.0
 71
     2
 72
     1
  1
22
  7
SLDTEXTSTYLE1
 73
     1
 44
1.0
  0
MTEXT
  5
121
330
1F
100
AcDbEntity
  8
TITLE
100
AcDbMText
 10
5.2966952371
 20
35.7472007792
 30
0.0
 40
0.125
 41
0.0
 71
     2
 72
     1
  1
22
  7
SLDTEXTSTYLE1
 73
     1
 44
1.0
  0
MTEXT
  5
122
330
1F
100
AcDbEntity
  8
TITLE
100
AcDbMText
 10
7.2651991741
 20
0.4125551099
 30
0.0
 40
0.125
 41
0.0
 71
     2
 72
     1
  1
21
  7
SLDTEXTSTYLE1
 73
     1
 44
1.0
  0
MTEXT
  5
123
330
1F
100
AcDbEntity
  8
TITLE
100
AcDbMText
 10
7.2651991741
 20
35.7472007792
 30
0.0
 40
0.125
 41
0.0
 71
     2
 72
     1
  1
21
  7
SLDTEXTSTYLE1
 73
     1
 44
1.0
  0
MTEXT
  5
124
330
1F
100
AcDbEntity
  8
TITLE
100
AcDbMText
 10
9.2337031111
 20
0.4125551099
 30
0.0
 40
0.125
 41
0.0
 71
     2
 72
     1
  1
20
  7
SLDTEXTSTYLE1
 73
     1
 44
1.0
  0
MTEXT
  5
125
330
1F
100
AcDbEntity
  8
TITLE
100
AcDbMText
 10
9.2337031111
 20
35.7472007792
 30
0.0
 40
0.125
 41
0.0
 71
     2
 72
     1
  1
20
  7
SLDTEXTSTYLE1
 73
     1
 44
1.0
  0
MTEXT
  5
126
330
1F
100
AcDbEntity
  8
TITLE
100
AcDbMText
 10
11.2022070481
 20
0.4125551099
 30
0.0
 40
0.125
 41
0.0
 71
     2
 72
     1
  1
19
  7
SLDTEXTSTYLE1
 73
     1
 44
1.0
  0
MTEXT
  5
127
330
1F
100
AcDbEntity
  8
TITLE
100
AcDbMText
 10
11.2022070481
 20
35.7472007792
 30
0.0
 40
0.125
 41
0.0
 71
     2
 72
     1
  1
19
  7
SLDTEXTSTYLE1
 73
     1
 44
1.0
  0
MTEXT
  5
128
330
1F
100
AcDbEntity
  8
TITLE
100
AcDbMText
 10
13.1707109851
 20
0.4125551099
 30
0.0
 40
0.125
 41
0.0
 71
     2
 72
     1
  1
18
  7
SLDTEXTSTYLE1
 73
     1
 44
1.0
  0
MTEXT
  5
129
330
1F
100
AcDbEntity
  8
TITLE
100
AcDbMText
 10
13.1707109851
 20
35.7472007792
 30
0.0
 40
0.125
 41
0.0
 71
     2
 72
     1
  1
18
  7
SLDTEXTSTYLE1
 73
     1
 44
1.0
  0
MTEXT
  5
12A
330
1F
100
AcDbEntity
  8
TITLE
100
AcDbMText
 10
15.1392149221
 20
0.4125551099
 30
0.0
 40
0.125
 41
0.0
 71
     2
 72
     1
  1
17
  7
SLDTEXTSTYLE1
 73
     1
 44
1.0
  0
MTEXT
  5
12B
330
1F
100
AcDbEntity
  8
TITLE
100
AcDbMText
 10
15.1392149221
 20
35.7472007792
 30
0.0
 40
0.125
 41
0.0
 71
     2
 72
     1
  1
17
  7
SLDTEXTSTYLE1
 73
     1
 44
1.0
  0
MTEXT
  5
12C
330
1F
100
AcDbEntity
  8
TITLE
100
AcDbMText
 10
17.1077188591
 20
0.4125551099
 30
0.0
 40
0.125
 41
0.0
 71
     2
 72
     1
  1
16
  7
SLDTEXTSTYLE1
 73
     1
 44
1.0
  0
MTEXT
  5
12D
330
1F
100
AcDbEntity
  8
TITLE
100
AcDbMText
 10
17.1077188591
 20
35.7472007792
 30
0.0
 40
0.125
 41
0.0
 71
     2
 72
     1
  1
16
  7
SLDTEXTSTYLE1
 73
     1
 44
1.0
  0
MTEXT
  5
12E
330
1F
100
AcDbEntity
  8
TITLE
100
AcDbMText
 10
19.0762227961
 20
0.4125551099
 30
0.0
 40
0.125
 41
0.0
 71
     2
 72
     1
  1
15
  7
SLDTEXTSTYLE1
 73
     1
 44
1.0
  0
MTEXT
  5
12F
330
1F
100
AcDbEntity
  8
TITLE
100
AcDbMText
 10
19.0762227961
 20
35.7472007792
 30
0.0
 40
0.125
 41
0.0
 71
     2
 72
     1
  1
15
  7
SLDTEXTSTYLE1
 73
     1
 44
1.0
  0
MTEXT
  5
130
330
1F
100
AcDbEntity
  8
TITLE
100
AcDbMText
 10
21.0447267331
 20
0.4125551099
 30
0.0
 40
0.125
 41
0.0
 71
     2
 72
     1
  1
14
  7
SLDTEXTSTYLE1
 73
     1
 44
1.0
  0
MTEXT
  5
131
330
1F
100
AcDbEntity
  8
TITLE
100
AcDbMText
 10
21.0447267331
 20
35.7472007792
 30
0.0
 40
0.125
 41
0.0
 71
     2
 72
     1
  1
14
  7
SLDTEXTSTYLE1
 73
     1
 44
1.0
  0
MTEXT
  5
132
330
1F
100
AcDbEntity
  8
TITLE
100
AcDbMText
 10
23.0132306701
 20
0.4125551099
 30
0.0
 40
0.125
 41
0.0
 71
     2
 72
     1
  1
13
  7
SLDTEXTSTYLE1
 73
     1
 44
1.0
  0
MTEXT
  5
133
330
1F
100
AcDbEntity
  8
TITLE
100
AcDbMText
 10
23.0132306701
 20
35.7472007792
 30
0.0
 40
0.125
 41
0.0
 71
     2
 72
     1
  1
13
  7
SLDTEXTSTYLE1
 73
     1
 44
1.0
  0
MTEXT
  5
134
330
1F
100
AcDbEntity
  8
TITLE
100
AcDbMText
 10
24.9817346071
 20
0.4125551099
 30
0.0
 40
0.125
 41
0.0
 71
     2
 72
     1
  1
12
  7
SLDTEXTSTYLE1
 73
     1
 44
1.0
  0
MTEXT
  5
135
330
1F
100
AcDbEntity
  8
TITLE
100
AcDbMText
 10
24.9817346071
 20
35.7472007792
 30
0.0
 40
0.125
 41
0.0
 71
     2
 72
     1
  1
12
  7
SLDTEXTSTYLE1
 73
     1
 44
1.0
  0
MTEXT
  5
136
330
1F
100
AcDbEntity
  8
TITLE
100
AcDbMText
 10
26.9502385441
 20
0.4125551099
 30
0.0
 40
0.125
 41
0.0
 71
     2
 72
     1
  1
11
  7
SLDTEXTSTYLE1
 73
     1
 44
1.0
  0
MTEXT
  5
137
330
1F
100
AcDbEntity
  8
TITLE
100
AcDbMText
 10
26.9502385441
 20
35.7472007792
 30
0.0
 40
0.125
 41
0.0
 71
     2
 72
     1
  1
11
  7
SLDTEXTSTYLE1
 73
     1
 44
1.0
  0
MTEXT
  5
138
330
1F
100
AcDbEntity
  8
TITLE
100
AcDbMText
 10
28.9187424811
 20
0.4125551099
 30
0.0
 40
0.125
 41
0.0
 71
     2
 72
     1
  1
10
  7
SLDTEXTSTYLE1
 73
     1
 44
1.0
  0
MTEXT
  5
139
330
1F
100
AcDbEntity
  8
TITLE
100
AcDbMText
 10
28.9187424811
 20
35.7472007792
 30
0.0
 40
0.125
 41
0.0
 71
     2
 72
     1
  1
10
  7
SLDTEXTSTYLE1
 73
     1
 44
1.0
  0
MTEXT
  5
13A
330
1F
100
AcDbEntity
  8
TITLE
100
AcDbMText
 10
30.8885050988
 20
0.4125551099
 30
0.0
 40
0.125
 41
0.0
 71
     2
 72
     1
  1
9
  7
SLDTEXTSTYLE1
 73
     1
 44
1.0
  0
MTEXT
  5
13B
330
1F
100
AcDbEntity
  8
TITLE
100
AcDbMText
 10
30.8885050988
 20
35.7472007792
 30
0.0
 40
0.125
 41
0.0
 71
     2
 72
     1
  1
9
  7
SLDTEXTSTYLE1
 73
     1
 44
1.0
  0
MTEXT
  5
13C
330
1F
100
AcDbEntity
  8
TITLE
100
AcDbMText
 10
32.8570090359
 20
0.4125551099
 30
0.0
 40
0.125
 41
0.0
 71
     2
 72
     1
  1
8
  7
SLDTEXTSTYLE1
 73
     1
 44
1.0
  0
MTEXT
  5
13D
330
1F
100
AcDbEntity
  8
TITLE
100
AcDbMText
 10
32.8570090359
 20
35.7472007792
 30
0.0
 40
0.125
 41
0.0
 71
     2
 72
     1
  1
8
  7
SLDTEXTSTYLE1
 73
     1
 44
1.0
  0
MTEXT
  5
13E
330
1F
100
AcDbEntity
  8
TITLE
100
AcDbMText
 10
34.8255129729
 20
0.4125551099
 30
0.0
 40
0.125
 41
0.0
 71
     2
 72
     1
  1
7
  7
SLDTEXTSTYLE1
 73
     1
 44
1.0
  0
MTEXT
  5
13F
330
1F
100
AcDbEntity
  8
TITLE
100
AcDbMText
 10
34.8255129729
 20
35.7472007792
 30
0.0
 40
0.125
 41
0.0
 71
     2
 72
     1
  1
7
  7
SLDTEXTSTYLE1
 73
     1
 44
1.0
  0
MTEXT
  5
140
330
1F
100
AcDbEntity
  8
TITLE
100
AcDbMText
 10
36.7940169099
 20
0.4125551099
 30
0.0
 40
0.125
 41
0.0
 71
     2
 72
     1
  1
6
  7
SLDTEXTSTYLE1
 73
     1
 44
1.0
  0
MTEXT
  5
141
330
1F
100
AcDbEntity
  8
TITLE
100
AcDbMText
 10
36.7940169099
 20
35.7472007792
 30
0.0
 40
0.125
 41
0.0
 71
     2
 72
     1
  1
6
  7
SLDTEXTSTYLE1
 73
     1
 44
1.0
  0
MTEXT
  5
142
330
1F
100
AcDbEntity
  8
TITLE
100
AcDbMText
 10
38.7625208469
 20
0.4125551099
 30
0.0
 40
0.125
 41
0.0
 71
     2
 72
     1
  1
5
  7
SLDTEXTSTYLE1
 73
     1
 44
1.0
  0
MTEXT
  5
143
330
1F
100
AcDbEntity
  8
TITLE
100
AcDbMText
 10
38.7625208469
 20
35.7472007792
 30
0.0
 40
0.125
 41
0.0
 71
     2
 72
     1
  1
5
  7
SLDTEXTSTYLE1
 73
     1
 44
1.0
  0
MTEXT
  5
144
330
1F
100
AcDbEntity
  8
TITLE
100
AcDbMText
 10
40.7310247839
 20
0.4125551099
 30
0.0
 40
0.125
 41
0.0
 71
     2
 72
     1
  1
4
  7
SLDTEXTSTYLE1
 73
     1
 44
1.0
  0
MTEXT
  5
145
330
1F
100
AcDbEntity
  8
TITLE
100
AcDbMText
 10
40.7310247839
 20
35.7472007792
 30
0.0
 40
0.125
 41
0.0
 71
     2
 72
     1
  1
4
  7
SLDTEXTSTYLE1
 73
     1
 44
1.0
  0
MTEXT
  5
146
330
1F
100
AcDbEntity
  8
TITLE
100
AcDbMText
 10
42.6995287209
 20
0.4125551099
 30
0.0
 40
0.125
 41
0.0
 71
     2
 72
     1
  1
3
  7
SLDTEXTSTYLE1
 73
     1
 44
1.0
  0
MTEXT
  5
147
330
1F
100
AcDbEntity
  8
TITLE
100
AcDbMText
 10
42.6995287209
 20
35.7472007792
 30
0.0
 40
0.125
 41
0.0
 71
     2
 72
     1
  1
3
  7
SLDTEXTSTYLE1
 73
     1
 44
1.0
  0
MTEXT
  5
148
330
1F
100
AcDbEntity
  8
TITLE
100
AcDbMText
 10
44.6680326579
 20
0.4125551099
 30
0.0
 40
0.125
 41
0.0
 71
     2
 72
     1
  1
2
  7
SLDTEXTSTYLE1
 73
     1
 44
1.0
  0
MTEXT
  5
149
330
1F
100
AcDbEntity
  8
TITLE
100
AcDbMText
 10
44.6680326579
 20
35.7472007792
 30
0.0
 40
0.125
 41
0.0
 71
     2
 72
     1
  1
2
  7
SLDTEXTSTYLE1
 73
     1
 44
1.0
  0
MTEXT
  5
14A
330
1F
100
AcDbEntity
  8
TITLE
100
AcDbMText
 10
46.5755129729
 20
0.4125551099
 30
0.0
 40
0.125
 41
0.0
 71
     2
 72
     1
  1
1
  7
SLDTEXTSTYLE1
 73
     1
 44
1.0
  0
MTEXT
  5
14B
330
1F
100
AcDbEntity
  8
TITLE
100
AcDbMText
 10
46.5755129729
 20
35.7472007792
 30
0.0
 40
0.125
 41
0.0
 71
     2
 72
     1
  1
1
  7
SLDTEXTSTYLE1
 73
     1
 44
1.0
  0
LINE
  5
14C
330
1F
100
AcDbEntity
  8
0
  6
SLD-Solid
 62
     7
370
    25
100
AcDbLine
 10
9.6947623512
 20
12.2482331751
 30
0.0
 11
9.6947623512
 21
12.1682331751
 31
0.0
  0
LINE
  5
14D
330
1F
100
AcDbEntity
  8
0
  6
SLD-Solid
 62
     7
370
    25
100
AcDbLine
 10
9.9047623512
 20
12.1682331751
 30
0.0
 11
9.9047623512
 21
12.2482331751
 31
0.0
  0
LINE
  5
14E
330
1F
100
AcDbEntity
  8
0
  6
SLD-Solid
 62
     7
370
    25
100
AcDbLine
 10
8.3181914728
 20
13.3182331751
 30
0.0
 11
11.2813332296
 21
13.3182331751
 31
0.0
  0
LINE
  5
14F
330
1F
100
AcDbEntity
  8
0
  6
SLD-Solid
 62
     7
370
    25
100
AcDbLine
 10
11.2813332296
 20
12.4582331751
 30
0.0
 11
8.3181914728
 21
12.4582331751
 31
0.0
  0
LINE
  5
150
330
1F
100
AcDbEntity
  8
0
  6
SLD-Solid
 62
     7
370
    25
100
AcDbLine
 10
11.3313332296
 20
13.2682331751
 30
0.0
 11
11.3313332296
 21
12.5082331751
 31
0.0
  0
ARC
  5
151
330
1F
100
AcDbEntity
  8
0
  6
SLD-Solid
 62
     7
370
    25
100
AcDbCircle
 10
11.2813332296
 20
12.5082331751
 30
0.0
 40
0.0500000000000007
100
AcDbArc
 50
270.0
 51
0.0
  0
LINE
  5
152
330
1F
100
AcDbEntity
  8
0
  6
SLD-Solid
 62
     7
370
    25
100
AcDbLine
 10
8.2681914728
 20
13.2682331751
 30
0.0
 11
8.2681914728
 21
12.5082331751
 31
0.0
  0
ARC
  5
153
330
1F
100
AcDbEntity
  8
0
  6
SLD-Solid
 62
     7
370
    25
100
AcDbCircle
 10
8.3181914728
 20
12.5082331751
 30
0.0
 40
0.0500000000000007
100
AcDbArc
 50
180.0
 51
270.0
  0
ARC
  5
154
330
1F
100
AcDbEntity
  8
0
  6
SLD-Solid
 62
     7
370
    25
100
AcDbCircle
 10
8.3181914728
 20
13.2682331751
 30
0.0
 40
0.0499999999999989
100
AcDbArc
 50
90.0
 51
180.0
  0
ARC
  5
155
330
1F
100
AcDbEntity
  8
0
  6
SLD-Solid
 62
     7
370
    25
100
AcDbCircle
 10
11.2813332296
 20
13.2682331751
 30
0.0
 40
0.0500000000000007
100
AcDbArc
 50
0.0
 51
90.0
  0
SPLINE
  5
156
330
1F
100
AcDbEntity
  8
0
  6
SLD-Solid
 62
     7
370
    25
100
AcDbSpline
210
0.0
220
0.0
230
1.0
 70
    24
 71
     3
 72
    13
 73
     9
 74
     0
 42
0.00000001
 43
0.00000001
 40
0.0000000951352746
 40
0.0000000951352746
 40
0.0000000951352746
 40
0.0000000951352746
 40
0.0000001903670129
 40
0.0000001903670129
 40
0.0000001903670129
 40
0.0225007147131333
 40
0.0225007147131333
 40
0.0450012390592536
 40
0.0450012390592536
 40
0.0450012390592536
 40
0.0450012390592536
 10
9.799758601696231
 20
18.80823317513033
 30
0.0
 10
9.799757351855813
 20
18.80823317513033
 30
0.0
 10
9.799756102015396
 20
18.80823317513033
 30
0.0
 10
9.799754852174978
 20
18.80823317513033
 30
0.0
 10
9.504453461601523
 20
18.80823317513033
 30
0.0
 10
9.209021265621452
 20
18.80823317512214
 30
0.0
 10
8.621719913031638
 20
18.80823317513853
 30
0.0
 10
8.329512761507416
 20
18.80823317513033
 30
0.0
 10
8.040683053171108
 20
18.80823317513033
 30
0.0
  0
SPLINE
  5
157
330
1F
100
AcDbEntity
  8
0
  6
SLD-Solid
 62
     7
370
    25
100
AcDbSpline
210
0.0
220
0.0
230
1.0
 70
    24
 71
     3
 72
    13
 73
     9
 74
     0
 42
0.00000001
 43
0.00000001
 40
0.0000000951352746
 40
0.0000000951352746
 40
0.0000000951352746
 40
0.0000000951352746
 40
0.0000001903670129
 40
0.0000001903670129
 40
0.0000001903670129
 40
0.0225007147131333
 40
0.0225007147131333
 40
0.0450012390592536
 40
0.0450012390592536
 40
0.0450012390592536
 40
0.0450012390592536
 10
9.799766100738738
 20
18.80823317513033
 30
0.0
 10
9.799767350579156
 20
18.80823317513033
 30
0.0
 10
9.799768600419574
 20
18.80823317513033
 30
0.0
 10
9.799769850259992
 20
18.80823317513033
 30
0.0
 10
10.09507124083345
 20
18.80823317513033
 30
0.0
 10
10.39050343681352
 20
18.80823317512214
 30
0.0
 10
10.97780478940333
 20
18.80823317513853
 30
0.0
 10
11.27001194092755
 20
18.80823317513033
 30
0.0
 10
11.55884164926386
 20
18.80823317513033
 30
0.0
  0
SPLINE
  5
158
330
1F
100
AcDbEntity
  8
0
  6
SLD-Solid
 62
     7
370
    25
100
AcDbSpline
210
0.0
220
0.0
230
1.0
 70
    24
 71
     3
 72
    10
 73
     6
 74
     0
 42
0.00000001
 43
0.00000001
 40
0.0000034534657517
 40
0.0000034534657517
 40
0.0000034534657517
 40
0.0000034534657517
 40
0.5
 40
0.5
 40
0.7764347614317461
 40
0.7764347614317461
 40
0.7764347614317461
 40
0.7764347614317461
 10
9.799754850874322
 20
13.80823317512972
 30
0.0
 10
9.437785544849222
 20
13.80823317512972
 30
0.0
 10
9.074072026083837
 20
13.80823317512972
 30
0.0
 10
8.51468819402324
 20
13.80823317512972
 30
0.0
 10
8.316605857939503
 20
13.80823317512972
 30
0.0
 10
8.120450472972655
 20
13.80823317512972
 30
0.0
  0
SPLINE
  5
159
330
1F
100
AcDbEntity
  8
0
  6
SLD-Solid
 62
     7
370
    25
100
AcDbSpline
210
0.0
220
0.0
230
1.0
 70
    24
 71
     3
 72
    10
 73
     6
 74
     0
 42
0.00000001
 43
0.00000001
 40
0.0000033266706476
 40
0.0000033266706476
 40
0.0000033266706476
 40
0.0000033266706476
 40
0.5
 40
0.5
 40
0.783383781443017
 40
0.783383781443017
 40
0.783383781443017
 40
0.783383781443017
 10
9.799754852151441
 20
18.79823317512972
 30
0.0
 10
9.424053078612712
 20
18.79823317512972
 30
0.0
 10
9.046672309651969
 20
18.79823317512972
 30
0.0
 10
8.460664247722885
 20
18.79823317512972
 30
0.0
 10
8.249767132009108
 20
18.79823317512972
 30
0.0
 10
8.040842772905808
 20
18.79823317512972
 30
0.0
  0
SPLINE
  5
15A
330
1F
100
AcDbEntity
  8
0
  6
SLD-Solid
 62
     7
370
    25
100
AcDbSpline
210
0.0
220
0.0
230
1.0
 70
    24
 71
     3
 72
    10
 73
     6
 74
     0
 42
0.00000001
 43
0.00000001
 40
0.0000033266706476
 40
0.0000033266706476
 40
0.0000033266706476
 40
0.0000033266706476
 40
0.5
 40
0.5
 40
0.783383781443017
 40
0.783383781443017
 40
0.783383781443017
 40
0.783383781443017
 10
9.79976985028353
 20
18.79823317512972
 30
0.0
 10
10.17547162382226
 20
18.79823317512972
 30
0.0
 10
10.552852392783
 20
18.79823317512972
 30
0.0
 10
11.13886045471208
 20
18.79823317512972
 30
0.0
 10
11.34975757042586
 20
18.79823317512972
 30
0.0
 10
11.55868192952916
 20
18.79823317512972
 30
0.0
  0
SPLINE
  5
15B
330
1F
100
AcDbEntity
  8
0
  6
SLD-Solid
 62
     7
370
    25
100
AcDbSpline
210
0.0
220
0.0
230
1.0
 70
    24
 71
     3
 72
    10
 73
     6
 74
     0
 42
0.00000001
 43
0.00000001
 40
0.0000034534657517
 40
0.0000034534657517
 40
0.0000034534657517
 40
0.0000034534657517
 40
0.5
 40
0.5
 40
0.7764347614317461
 40
0.7764347614317461
 40
0.7764347614317461
 40
0.7764347614317461
 10
9.799769851560649
 20
13.80823317512972
 30
0.0
 10
10.16173915758575
 20
13.80823317512972
 30
0.0
 10
10.52545267635113
 20
13.80823317512972
 30
0.0
 10
11.08483650841173
 20
13.80823317512972
 30
0.0
 10
11.28291884449547
 20
13.80823317512972
 30
0.0
 10
11.47907422946231
 20
13.80823317512972
 30
0.0
  0
SPLINE
  5
15C
330
1F
100
AcDbEntity
  8
0
  6
SLD-Solid
 62
     7
370
    25
100
AcDbSpline
210
0.0
220
0.0
230
1.0
 70
     8
 71
     3
 72
    14
 73
    10
 74
     0
 42
0.00000001
 43
0.00000001
 40
0.0
 40
0.0
 40
0.0
 40
0.0
 40
0.2500000000000001
 40
0.2500000000000001
 40
0.5000000000000001
 40
0.5000000000000001
 40
0.7500000000000002
 40
0.7500000000000002
 40
1.0
 40
1.0
 40
1.0
 40
1.0
 10
9.799763834398053
 20
19.40319207835719
 30
0.0
 10
9.94536065310187
 20
19.40319208995039
 30
0.0
 10
10.09097152340059
 20
19.40167522773942
 30
0.0
 10
10.38143668371852
 20
19.39556249657416
 30
0.0
 10
10.52633780153689
 20
19.39096828198211
 30
0.0
 10
10.81547371754512
 20
19.37849764608403
 30
0.0
 10
10.95965989827692
 20
19.37061983928199
 30
0.0
 10
11.24628810438059
 20
19.35129866677979
 30
0.0
 10
11.38886260597321
 20
19.33985227988869
 30
0.0
 10
11.53068960302109
 20
19.32639524576847
 30
0.0
  0
SPLINE
  5
15D
330
1F
100
AcDbEntity
  8
0
  6
SLD-Solid
 62
     7
370
    25
100
AcDbSpline
210
0.0
220
0.0
230
1.0
 70
     8
 71
     3
 72
    14
 73
    10
 74
     0
 42
0.00000001
 43
0.00000001
 40
0.0
 40
0.0
 40
0.0
 40
0.0
 40
0.2500000000000001
 40
0.2500000000000001
 40
0.5000000000000001
 40
0.5000000000000001
 40
0.7500000000000002
 40
0.7500000000000002
 40
1.0
 40
1.0
 40
1.0
 40
1.0
 10
9.799760868036918
 20
19.40319207835719
 30
0.0
 10
9.654164049333101
 20
19.40319208995039
 30
0.0
 10
9.508553179034385
 20
19.40167522773942
 30
0.0
 10
9.218088018716445
 20
19.39556249657416
 30
0.0
 10
9.073186900898085
 20
19.39096828198211
 30
0.0
 10
8.784050984889852
 20
19.37849764608403
 30
0.0
 10
8.639864804158051
 20
19.37061983928199
 30
0.0
 10
8.353236598054385
 20
19.35129866677979
 30
0.0
 10
8.210662096461757
 20
19.33985227988869
 30
0.0
 10
8.06883509941388
 20
19.32639524576847
 30
0.0
  0
SPLINE
  5
15E
330
1F
100
AcDbEntity
  8
0
  6
SLD-Solid
 62
     7
370
    25
100
AcDbSpline
210
0.0
220
0.0
230
1.0
 70
     8
 71
     3
 72
    14
 73
    10
 74
     0
 42
0.00000001
 43
0.00000001
 40
0.0
 40
0.0
 40
0.0
 40
0.0
 40
0.2500000000000001
 40
0.2500000000000001
 40
0.5000000000000001
 40
0.5000000000000001
 40
0.7500000000000002
 40
0.7500000000000002
 40
1.0
 40
1.0
 40
1.0
 40
1.0
 10
9.799769847824924
 20
12.29690031561777
 30
0.0
 10
9.938857676359266
 20
12.29690031553626
 30
0.0
 10
10.07781943981787
 20
12.29689805320685
 30
0.0
 10
10.35549284307933
 20
12.29688907534248
 30
0.0
 10
10.49413572566351
 20
12.29688235885661
 30
0.0
 10
10.77048080959567
 20
12.29686446504079
 30
0.0
 10
10.90835241448084
 20
12.29685324982183
 30
0.0
 10
11.18268543020552
 20
12.29682642540679
 30
0.0
 10
11.31917843911241
 20
12.29681082683691
 30
0.0
 10
11.4549990168069
 20
12.29679303094359
 30
0.0
  0
SPLINE
  5
15F
330
1F
100
AcDbEntity
  8
0
  6
SLD-Solid
 62
     7
370
    25
100
AcDbSpline
210
0.0
220
0.0
230
1.0
 70
    24
 71
     3
 72
    10
 73
     6
 74
     0
 42
0.00000001
 43
0.00000001
 40
0.0000034882772332
 40
0.0000034882772332
 40
0.0000034882772332
 40
0.0000034882772332
 40
0.5
 40
0.5
 40
0.6769956787871737
 40
0.6769956787871737
 40
0.6769956787871737
 40
0.6769956787871737
 10
9.79976984825551
 20
12.43823317512972
 30
0.0
 10
10.1579689189389
 20
12.43823317512972
 30
0.0
 10
10.51793010768955
 20
12.43823317512972
 30
0.0
 10
11.00054344145487
 20
12.43823317512972
 30
0.0
 10
11.12627397642392
 20
12.43823317512972
 30
0.0
 10
11.25133322963041
 20
12.43823317512972
 30
0.0
  0
SPLINE
  5
160
330
1F
100
AcDbEntity
  8
0
  6
SLD-Solid
 62
     7
370
    25
100
AcDbSpline
210
0.0
220
0.0
230
1.0
 70
     8
 71
     3
 72
    20
 73
    16
 74
     0
 42
0.00000001
 43
0.00000001
 40
0.0
 40
0.0
 40
0.0
 40
0.0
 40
0.1250000000000003
 40
0.1250000000000003
 40
0.2500000000000007
 40
0.2500000000000007
 40
0.375000000000001
 40
0.375000000000001
 40
0.5000000000000013
 40
0.5000000000000013
 40
0.6250000000000017
 40
0.6250000000000017
 40
0.750000000000002
 40
0.750000000000002
 40
1.0
 40
1.0
 40
1.0
 40
1.0
 10
11.25133322963041
 20
12.43823317512972
 30
0.0
 10
11.2578691551914
 20
12.43823317512972
 30
0.0
 10
11.26430119739268
 20
12.43886779280588
 30
0.0
 10
11.27696548584958
 20
12.44135885018569
 30
0.0
 10
11.28325949729404
 20
12.44324288870856
 30
0.0
 10
11.29531396988972
 20
12.44818798887555
 30
0.0
 10
11.30103928467956
 20
12.45121826061872
 30
0.0
 10
11.31188993890844
 20
12.45838849955694
 30
0.0
 10
11.31705267593603
 20
12.46257879474283
 30
0.0
 10
11.32633208403399
 20
12.47176662164158
 30
0.0
 10
11.33050033310208
 20
12.47678490437801
 30
0.0
 10
11.33787131351461
 20
12.48769130844356
 30
0.0
 10
11.34103765044308
 20
12.49355579008607
 30
0.0
 10
11.34863328828843
 20
12.51169064367826
 30
0.0
 10
11.35133322963041
 20
12.52492063839947
 30
0.0
 10
11.35133322963041
 20
12.53823317512973
 30
0.0
  0
LINE
  5
161
330
1F
100
AcDbEntity
  8
0
  6
SLD-Solid
 62
     7
370
    25
100
AcDbLine
 10
11.3513332296
 20
13.2382331751
 30
0.0
 11
11.3513332296
 21
12.5382331751
 31
0.0
  0
SPLINE
  5
162
330
1F
100
AcDbEntity
  8
0
  6
SLD-Solid
 62
     7
370
    25
100
AcDbSpline
210
0.0
220
0.0
230
1.0
 70
     8
 71
     3
 72
    20
 73
    16
 74
     0
 42
0.00000001
 43
0.00000001
 40
0.0
 40
0.0
 40
0.0
 40
0.0
 40
0.1249999999999999
 40
0.1249999999999999
 40
0.2499999999999999
 40
0.2499999999999999
 40
0.3749999999999998
 40
0.3749999999999998
 40
0.4999999999999998
 40
0.4999999999999998
 40
0.6249999999999998
 40
0.6249999999999998
 40
0.7499999999999997
 40
0.7499999999999997
 40
1.0
 40
1.0
 40
1.0
 40
1.0
 10
11.25133322963041
 20
13.33823317512973
 30
0.0
 10
11.25789505082772
 20
13.33823317512973
 30
0.0
 10
11.26434484510338
 20
13.33759359789746
 30
0.0
 10
11.27703028892517
 20
13.33509109629987
 30
0.0
 10
11.2833265784192
 20
13.33320095669248
 30
0.0
 10
11.29537932795139
 20
13.32824648039273
 30
0.0
 10
11.30109868518102
 20
13.32521346188582
 30
0.0
 10
11.31193011862454
 20
13.31804663198108
 30
0.0
 10
11.31708014719917
 20
13.31386263955376
 30
0.0
 10
11.32634007270533
 20
13.30468952584802
 30
0.0
 10
11.33049901828139
 20
13.29968144209129
 30
0.0
 10
11.3378540329491
 20
13.28880255517735
 30
0.0
 10
11.34102106042466
 20
13.28294313596082
 30
0.0
 10
11.34861850887923
 20
13.26482499345537
 30
0.0
 10
11.35133322963041
 20
13.2515909431824
 30
0.0
 10
11.35133322963041
 20
13.23823317512973
 30
0.0
  0
SPLINE
  5
163
330
1F
100
AcDbEntity
  8
0
  6
SLD-Solid
 62
     7
370
    25
100
AcDbSpline
210
0.0
220
0.0
230
1.0
 70
    24
 71
     3
 72
    10
 73
     6
 74
     0
 42
0.00000001
 43
0.00000001
 40
0.0000034654083768
 40
0.0000034654083768
 40
0.0000034654083768
 40
0.0000034654083768
 40
0.5
 40
0.5
 40
0.6722727821560718
 40
0.6722727821560718
 40
0.6722727821560718
 40
0.6722727821560718
 10
9.799769850604246
 20
13.33823317512973
 30
0.0
 10
10.16044571816772
 20
13.33823317512973
 30
0.0
 10
10.52287194117631
 20
13.33823317512972
 30
0.0
 10
11.00546440565772
 20
13.33823317512972
 30
0.0
 10
11.12871185978468
 20
13.33823317512972
 30
0.0
 10
11.25133322963041
 20
13.33823317512972
 30
0.0
  0
SPLINE
  5
164
330
1F
100
AcDbEntity
  8
0
  6
SLD-Solid
 62
     7
370
    25
100
AcDbSpline
210
0.0
220
0.0
230
1.0
 70
    24
 71
     3
 72
    10
 73
     6
 74
     0
 42
0.00000001
 43
0.00000001
 40
0.0000034537198501
 40
0.0000034537198501
 40
0.0000034537198501
 40
0.0000034537198501
 40
0.5
 40
0.5
 40
0.7764203772301096
 40
0.7764203772301096
 40
0.7764203772301096
 40
0.7764203772301096
 10
9.79976985154223
 20
13.79823317512973
 30
0.0
 10
10.16171163759941
 20
13.79823317512973
 30
0.0
 10
10.52539776709274
 20
13.79823317512973
 30
0.0
 10
11.08472829888443
 20
13.79823317512972
 30
0.0
 10
11.28278501533138
 20
13.79823317512973
 30
0.0
 10
11.47891488438279
 20
13.79823317512973
 30
0.0
  0
SPLINE
  5
165
330
1F
100
AcDbEntity
  8
0
  6
SLD-Solid
 62
     7
370
    25
100
AcDbSpline
210
0.0
220
0.0
230
1.0
 70
    24
 71
     3
 72
    10
 73
     6
 74
     0
 42
0.00000001
 43
0.00000001
 40
0.0000034654083768
 40
0.0000034654083768
 40
0.0000034654083768
 40
0.0000034654083768
 40
0.5
 40
0.5
 40
0.6722727821560718
 40
0.6722727821560718
 40
0.6722727821560718
 40
0.6722727821560718
 10
9.799754851830723
 20
13.33823317512973
 30
0.0
 10
9.439078984267248
 20
13.33823317512973
 30
0.0
 10
9.076652761258662
 20
13.33823317512972
 30
0.0
 10
8.594060296777256
 20
13.33823317512972
 30
0.0
 10
8.470812842650293
 20
13.33823317512972
 30
0.0
 10
8.348191472804562
 20
13.33823317512972
 30
0.0
  0
SPLINE
  5
166
330
1F
100
AcDbEntity
  8
0
  6
SLD-Solid
 62
     7
370
    25
100
AcDbSpline
210
0.0
220
0.0
230
1.0
 70
     8
 71
     3
 72
    20
 73
    16
 74
     0
 42
0.00000001
 43
0.00000001
 40
0.0
 40
0.0
 40
0.0
 40
0.0
 40
0.1249999999999999
 40
0.1249999999999999
 40
0.2499999999999999
 40
0.2499999999999999
 40
0.3749999999999998
 40
0.3749999999999998
 40
0.4999999999999998
 40
0.4999999999999998
 40
0.6249999999999998
 40
0.6249999999999998
 40
0.7499999999999997
 40
0.7499999999999997
 40
1.0
 40
1.0
 40
1.0
 40
1.0
 10
8.348191472804562
 20
13.33823317512973
 30
0.0
 10
8.341629651607253
 20
13.33823317512973
 30
0.0
 10
8.335179857331587
 20
13.33759359789746
 30
0.0
 10
8.3224944135098
 20
13.33509109629987
 30
0.0
 10
8.316198124015767
 20
13.33320095669248
 30
0.0
 10
8.304145374483577
 20
13.32824648039273
 30
0.0
 10
8.298426017253956
 20
13.32521346188582
 30
0.0
 10
8.287594583810426
 20
13.31804663198108
 30
0.0
 10
8.282444555235802
 20
13.31386263955376
 30
0.0
 10
8.273184629729638
 20
13.30468952584802
 30
0.0
 10
8.269025684153577
 20
13.29968144209129
 30
0.0
 10
8.261670669485872
 20
13.28880255517735
 30
0.0
 10
8.258503642010309
 20
13.28294313596082
 30
0.0
 10
8.250906193555737
 20
13.26482499345537
 30
0.0
 10
8.24819147280456
 20
13.2515909431824
 30
0.0
 10
8.24819147280456
 20
13.23823317512973
 30
0.0
  0
LINE
  5
167
330
1F
100
AcDbEntity
  8
0
  6
SLD-Solid
 62
     7
370
    25
100
AcDbLine
 10
8.2481914728
 20
13.2382331751
 30
0.0
 11
8.2481914728
 21
12.5382331751
 31
0.0
  0
SPLINE
  5
168
330
1F
100
AcDbEntity
  8
0
  6
SLD-Solid
 62
     7
370
    25
100
AcDbSpline
210
0.0
220
0.0
230
1.0
 70
     8
 71
     3
 72
    20
 73
    16
 74
     0
 42
0.00000001
 43
0.00000001
 40
0.0
 40
0.0
 40
0.0
 40
0.0
 40
0.1250000000000003
 40
0.1250000000000003
 40
0.2500000000000007
 40
0.2500000000000007
 40
0.375000000000001
 40
0.375000000000001
 40
0.5000000000000013
 40
0.5000000000000013
 40
0.6250000000000017
 40
0.6250000000000017
 40
0.750000000000002
 40
0.750000000000002
 40
1.0
 40
1.0
 40
1.0
 40
1.0
 10
8.34819147280456
 20
12.43823317512972
 30
0.0
 10
8.341655547243574
 20
12.43823317512972
 30
0.0
 10
8.335223505042288
 20
12.43886779280588
 30
0.0
 10
8.322559216585386
 20
12.44135885018569
 30
0.0
 10
8.316265205140928
 20
12.44324288870856
 30
0.0
 10
8.304210732545247
 20
12.44818798887555
 30
0.0
 10
8.298485417755408
 20
12.45121826061872
 30
0.0
 10
8.287634763526533
 20
12.45838849955694
 30
0.0
 10
8.28247202649894
 20
12.46257879474283
 30
0.0
 10
8.273192618400975
 20
12.47176662164158
 30
0.0
 10
8.269024369332886
 20
12.47678490437801
 30
0.0
 10
8.261653388920362
 20
12.48769130844356
 30
0.0
 10
8.258487051991887
 20
12.49355579008607
 30
0.0
 10
8.250891414146544
 20
12.51169064367826
 30
0.0
 10
8.24819147280456
 20
12.52492063839947
 30
0.0
 10
8.24819147280456
 20
12.53823317512973
 30
0.0
  0
SPLINE
  5
169
330
1F
100
AcDbEntity
  8
0
  6
SLD-Solid
 62
     7
370
    25
100
AcDbSpline
210
0.0
220
0.0
230
1.0
 70
    24
 71
     3
 72
    10
 73
     6
 74
     0
 42
0.00000001
 43
0.00000001
 40
0.0000034882772332
 40
0.0000034882772332
 40
0.0000034882772332
 40
0.0000034882772332
 40
0.5
 40
0.5
 40
0.6769956787871737
 40
0.6769956787871737
 40
0.6769956787871737
 40
0.6769956787871737
 10
9.79975485417946
 20
12.43823317512972
 30
0.0
 10
9.441555783496074
 20
12.43823317512972
 30
0.0
 10
9.08159459474542
 20
12.43823317512972
 30
0.0
 10
8.598981260980102
 20
12.43823317512972
 30
0.0
 10
8.473250726011047
 20
12.43823317512972
 30
0.0
 10
8.34819147280456
 20
12.43823317512972
 30
0.0
  0
SPLINE
  5
16A
330
1F
100
AcDbEntity
  8
0
  6
SLD-Solid
 62
     7
370
    25
100
AcDbSpline
210
0.0
220
0.0
230
1.0
 70
     8
 71
     3
 72
    14
 73
    10
 74
     0
 42
0.00000001
 43
0.00000001
 40
0.0
 40
0.0
 40
0.0
 40
0.0
 40
0.2500000000000001
 40
0.2500000000000001
 40
0.5000000000000001
 40
0.5000000000000001
 40
0.7500000000000002
 40
0.7500000000000002
 40
1.0
 40
1.0
 40
1.0
 40
1.0
 10
9.799754854610047
 20
12.29690031561777
 30
0.0
 10
9.660667026075703
 20
12.29690031553626
 30
0.0
 10
9.521705262617097
 20
12.29689805320685
 30
0.0
 10
9.244031859355635
 20
12.29688907534248
 30
0.0
 10
9.10538897677146
 20
12.29688235885661
 30
0.0
 10
8.829043892839302
 20
12.29686446504079
 30
0.0
 10
8.691172287954135
 20
12.29685324982183
 30
0.0
 10
8.416839272229453
 20
12.29682642540679
 30
0.0
 10
8.280346263322558
 20
12.29681082683691
 30
0.0
 10
8.144525685628068
 20
12.29679303094359
 30
0.0
  0
SPLINE
  5
16B
330
1F
100
AcDbEntity
  8
0
  6
SLD-Solid
 62
     7
370
    25
100
AcDbSpline
210
0.0
220
0.0
230
1.0
 70
    24
 71
     3
 72
    10
 73
     6
 74
     0
 42
0.00000001
 43
0.00000001
 40
0.0000034537198501
 40
0.0000034537198501
 40
0.0000034537198501
 40
0.0000034537198501
 40
0.5
 40
0.5
 40
0.7764203772301096
 40
0.7764203772301096
 40
0.7764203772301096
 40
0.7764203772301096
 10
9.79975485089274
 20
13.79823317512973
 30
0.0
 10
9.43781306483556
 20
13.79823317512973
 30
0.0
 10
9.074126935342228
 20
13.79823317512973
 30
0.0
 10
8.514796403550545
 20
13.79823317512972
 30
0.0
 10
8.31673968710359
 20
13.79823317512973
 30
0.0
 10
8.120609818052184
 20
13.79823317512973
 30
0.0
  0
SPLINE
  5
16C
330
1F
100
AcDbEntity
  8
0
  6
SLD-Solid
 62
     7
370
    25
100
AcDbSpline
210
0.0
220
0.0
230
1.0
 70
    24
 71
     3
 72
    14
 73
    10
 74
     0
 42
0.00000001
 43
0.00000001
 40
0.0
 40
0.0
 40
0.0
 40
0.0
 40
0.25
 40
0.25
 40
0.5
 40
0.5
 40
0.75
 40
0.75
 40
1.0
 40
1.0
 40
1.0
 40
1.0
 10
8.155294238408823
 20
12.24823317512972
 30
0.0
 10
8.29023188265051
 20
12.24823317512972
 30
0.0
 10
8.425837552836843
 20
12.24823317512972
 30
0.0
 10
8.698387097900047
 20
12.24823317512972
 30
0.0
 10
8.835362375515587
 20
12.24823317512972
 30
0.0
 10
9.10991087536951
 20
12.24823317512972
 30
0.0
 10
9.247652391917029
 20
12.24823317512972
 30
0.0
 10
9.523520507020566
 20
12.24823317512972
 30
0.0
 10
9.661578806782643
 20
12.24823317512972
 30
0.0
 10
9.799762351217485
 20
12.24823317512972
 30
0.0
  0
SPLINE
  5
16D
330
1F
100
AcDbEntity
  8
0
  6
SLD-Solid
 62
     7
370
    25
100
AcDbSpline
210
0.0
220
0.0
230
1.0
 70
    24
 71
     3
 72
    14
 73
    10
 74
     0
 42
0.00000001
 43
0.00000001
 40
0.0
 40
0.0
 40
0.0
 40
0.0
 40
0.25
 40
0.25
 40
0.5
 40
0.5
 40
0.75
 40
0.75
 40
1.0
 40
1.0
 40
1.0
 40
1.0
 10
11.44423046402615
 20
12.24823317512972
 30
0.0
 10
11.30929281978446
 20
12.24823317512972
 30
0.0
 10
11.17368714959813
 20
12.24823317512972
 30
0.0
 10
10.90113760453492
 20
12.24823317512972
 30
0.0
 10
10.76416232691938
 20
12.24823317512972
 30
0.0
 10
10.48961382706546
 20
12.24823317512972
 30
0.0
 10
10.35187231051794
 20
12.24823317512972
 30
0.0
 10
10.07600419541441
 20
12.24823317512972
 30
0.0
 10
9.937945895652325
 20
12.24823317512972
 30
0.0
 10
9.799762351217485
 20
12.24823317512972
 30
0.0
  0
LINE
  5
16E
330
1F
100
AcDbEntity
  8
0
  6
SLD-Solid
 62
     7
370
    25
100
AcDbLine
 10
7.5795320189
 20
19.0773344645
 30
0.0
 11
7.5654290179
 21
18.8082331751
 31
0.0
  0
SPLINE
  5
16F
330
1F
100
AcDbEntity
  8
0
  6
SLD-Solid
 62
     7
370
    25
100
AcDbSpline
210
0.0
220
0.0
230
1.0
 70
    24
 71
     3
 72
    22
 73
    18
 74
     0
 42
0.00000001
 43
0.00000001
 40
0.0
 40
0.0
 40
0.0
 40
0.0
 40
0.0025816160087245
 40
0.0025816160087245
 40
0.005163232017449
 40
0.005163232017449
 40
0.0077448480261734
 40
0.0077448480261734
 40
0.0103264640348979
 40
0.0103264640348979
 40
0.0129080800436224
 40
0.0129080800436224
 40
0.0154896960523469
 40
0.0154896960523469
 40
0.0180713120610713
 40
0.0180713120610713
 40
0.0206529280697958
 40
0.0206529280697958
 40
0.0206529280697958
 40
0.0206529280697958
 10
7.565429017884132
 20
18.80823317512936
 30
0.0
 10
7.565429017908694
 20
18.80823317512936
 30
0.0
 10
7.568358149053434
 20
18.80823317512936
 30
0.0
 10
7.579830141697803
 20
18.80823317512936
 30
0.0
 10
7.588384413062626
 20
18.80823317512936
 30
0.0
 10
7.611316400384434
 20
18.80823317512936
 30
0.0
 10
7.625378648000087
 20
18.80823317512936
 30
0.0
 10
7.658486351990842
 20
18.80823317512936
 30
0.0
 10
7.677573759277229
 20
18.80823317512936
 30
0.0
 10
7.720793833940724
 20
18.80823317512936
 30
0.0
 10
7.744375143888329
 20
18.80823317512936
 30
0.0
 10
7.795326826529837
 20
18.80823317512936
 30
0.0
 10
7.822782609834313
 20
18.80823317512936
 30
0.0
 10
7.881310446755646
 20
18.80823317512936
 30
0.0
 10
7.911684182716654
 20
18.80823317512936
 30
0.0
 10
7.974561421551486
 20
18.80823317512936
 30
0.0
 10
8.007066257307123
 20
18.80823317512936
 30
0.0
 10
8.040683053171097
 20
18.80823317512936
 30
0.0
  0
ARC
  5
170
330
1F
100
AcDbEntity
  8
0
  6
SLD-Solid
 62
     7
370
    25
100
AcDbCircle
 10
7.8289343384
 20
19.0641359638
 30
0.0
 40
0.2497513111092418
100
AcDbArc
 50
97.7921856218
 51
176.9707032999
  0
SPLINE
  5
171
330
1F
100
AcDbEntity
  8
0
  6
SLD-Solid
 62
     7
370
    25
100
AcDbSpline
210
0.0
220
0.0
230
1.0
 70
     8
 71
     3
 72
    24
 73
    20
 74
     0
 42
0.00000001
 43
0.00000001
 40
0.0
 40
0.0
 40
0.0
 40
0.0
 40
0.2499999999999997
 40
0.2499999999999997
 40
0.3124999999999998
 40
0.3124999999999998
 40
0.3750000000000001
 40
0.3750000000000001
 40
0.5000000000000001
 40
0.5000000000000001
 40
0.5624999999999998
 40
0.5624999999999998
 40
0.6249999999999994
 40
0.6249999999999994
 40
0.7499999999999997
 40
0.7499999999999997
 40
0.8749999999999998
 40
0.8749999999999998
 40
1.0
 40
1.0
 40
1.0
 40
1.0
 10
8.06883509941388
 20
19.32639524576847
 30
0.0
 10
8.03077945833362
 20
19.32278439543048
 30
0.0
 10
7.995128562257345
 20
19.31963326643006
 30
0.0
 10
7.953538868356292
 20
19.31624653588993
 30
0.0
 10
7.945379558102321
 20
19.31559846297179
 30
0.0
 10
7.929680765519419
 20
19.31438589796677
 30
0.0
 10
7.922100249410573
 20
19.31381800016762
 30
0.0
 10
7.900152128938995
 20
19.31222961835713
 30
0.0
 10
7.886572894814897
 20
19.3113234358627
 30
0.0
 10
7.867850976043911
 20
19.31021679065755
 30
0.0
 10
7.861906308037459
 20
19.30989150410822
 30
0.0
 10
7.850792157462671
 20
19.30934129270653
 30
0.0
 10
7.84559469054615
 20
19.30911465242844
 30
0.0
 10
7.831062605855228
 20
19.30858222753775
 30
0.0
 10
7.822783942888022
 20
19.3084231882136
 30
0.0
 10
7.809194631071422
 20
19.30854728481689
 30
0.0
 10
7.804042550075395
 20
19.3088304593239
 30
0.0
 10
7.797061365444082
 20
19.30985191138013
 30
0.0
 10
7.795204866486917
 20
19.31058987548078
 30
0.0
 10
7.795072944123701
 20
19.31158115644765
 30
0.0
  0
LINE
  5
172
330
1F
100
AcDbEntity
  8
0
  6
SLD-Solid
 62
     7
370
    25
100
AcDbLine
 10
12.0199926836
 20
19.0773344645
 30
0.0
 11
12.0340956846
 21
18.8082331751
 31
0.0
  0
SPLINE
  5
173
330
1F
100
AcDbEntity
  8
0
  6
SLD-Solid
 62
     7
370
    25
100
AcDbSpline
210
0.0
220
0.0
230
1.0
 70
    24
 71
     3
 72
    22
 73
    18
 74
     0
 42
0.00000001
 43
0.00000001
 40
0.0
 40
0.0
 40
0.0
 40
0.0
 40
0.0025816160087245
 40
0.0025816160087245
 40
0.005163232017449
 40
0.005163232017449
 40
0.0077448480261734
 40
0.0077448480261734
 40
0.0103264640348979
 40
0.0103264640348979
 40
0.0129080800436224
 40
0.0129080800436224
 40
0.0154896960523469
 40
0.0154896960523469
 40
0.0180713120610713
 40
0.0180713120610713
 40
0.0206529280697958
 40
0.0206529280697958
 40
0.0206529280697958
 40
0.0206529280697958
 10
12.03409568455084
 20
18.80823317512936
 30
0.0
 10
12.03409568452628
 20
18.80823317512936
 30
0.0
 10
12.03116655338154
 20
18.80823317512936
 30
0.0
 10
12.01969456073717
 20
18.80823317512936
 30
0.0
 10
12.01114028937234
 20
18.80823317512936
 30
0.0
 10
11.98820830205054
 20
18.80823317512936
 30
0.0
 10
11.97414605443488
 20
18.80823317512936
 30
0.0
 10
11.94103835044413
 20
18.80823317512936
 30
0.0
 10
11.92195094315774
 20
18.80823317512936
 30
0.0
 10
11.87873086849425
 20
18.80823317512936
 30
0.0
 10
11.85514955854664
 20
18.80823317512936
 30
0.0
 10
11.80419787590513
 20
18.80823317512936
 30
0.0
 10
11.77674209260066
 20
18.80823317512936
 30
0.0
 10
11.71821425567932
 20
18.80823317512936
 30
0.0
 10
11.68784051971832
 20
18.80823317512936
 30
0.0
 10
11.62496328088348
 20
18.80823317512936
 30
0.0
 10
11.59245844512785
 20
18.80823317512936
 30
0.0
 10
11.55884164926387
 20
18.80823317512936
 30
0.0
  0
SPLINE
  5
174
330
1F
100
AcDbEntity
  8
0
  6
SLD-Solid
 62
     7
370
    25
100
AcDbSpline
210
0.0
220
0.0
230
1.0
 70
     8
 71
     3
 72
    24
 73
    20
 74
     0
 42
0.00000001
 43
0.00000001
 40
0.0
 40
0.0
 40
0.0
 40
0.0
 40
0.2499999999999997
 40
0.2499999999999997
 40
0.3124999999999998
 40
0.3124999999999998
 40
0.3750000000000001
 40
0.3750000000000001
 40
0.5000000000000001
 40
0.5000000000000001
 40
0.5624999999999998
 40
0.5624999999999998
 40
0.6249999999999994
 40
0.6249999999999994
 40
0.7499999999999997
 40
0.7499999999999997
 40
0.8749999999999998
 40
0.8749999999999998
 40
1.0
 40
1.0
 40
1.0
 40
1.0
 10
11.53068960302109
 20
19.32639524576847
 30
0.0
 10
11.56874524410135
 20
19.32278439543048
 30
0.0
 10
11.60439614017763
 20
19.31963326643006
 30
0.0
 10
11.64598583407868
 20
19.31624653588993
 30
0.0
 10
11.65414514433265
 20
19.31559846297179
 30
0.0
 10
11.66984393691555
 20
19.31438589796677
 30
0.0
 10
11.6774244530244
 20
19.31381800016762
 30
0.0
 10
11.69937257349598
 20
19.31222961835713
 30
0.0
 10
11.71295180762007
 20
19.3113234358627
 30
0.0
 10
11.73167372639106
 20
19.31021679065755
 30
0.0
 10
11.73761839439751
 20
19.30989150410822
 30
0.0
 10
11.7487325449723
 20
19.30934129270653
 30
0.0
 10
11.75393001188882
 20
19.30911465242844
 30
0.0
 10
11.76846209657974
 20
19.30858222753775
 30
0.0
 10
11.77674075954695
 20
19.3084231882136
 30
0.0
 10
11.79033007136355
 20
19.30854728481689
 30
0.0
 10
11.79548215235958
 20
19.3088304593239
 30
0.0
 10
11.80246333699089
 20
19.30985191138013
 30
0.0
 10
11.80431983594805
 20
19.31058987548078
 30
0.0
 10
11.80445175831127
 20
19.31158115644765
 30
0.0
  0
ARC
  5
175
330
1F
100
AcDbEntity
  8
0
  6
SLD-Solid
 62
     7
370
    25
100
AcDbCircle
 10
11.7705903641
 20
19.0641359638
 30
0.0
 40
0.2497513111092482
100
AcDbArc
 50
3.0292967001
 51
82.2078143782
  0
LINE
  5
176
330
1F
100
AcDbEntity
  8
0
  6
SLD-Solid
 62
     7
370
    25
100
AcDbLine
 10
7.5655956846
 20
18.7982331751
 30
0.0
 11
7.6487623512
 21
13.8082331751
 31
0.0
  0
SPLINE
  5
177
330
1F
100
AcDbEntity
  8
0
  6
SLD-Solid
 62
     7
370
    25
100
AcDbSpline
210
0.0
220
0.0
230
1.0
 70
    24
 71
     3
 72
    22
 73
    18
 74
     0
 42
0.00000001
 43
0.00000001
 40
0.0
 40
0.0
 40
0.0
 40
0.0
 40
0.1250000000000002
 40
0.1250000000000002
 40
0.2500000000000002
 40
0.2500000000000002
 40
0.3750000000000002
 40
0.3750000000000002
 40
0.5000000000000001
 40
0.5000000000000001
 40
0.6250000000000001
 40
0.6250000000000001
 40
0.7500000000000001
 40
0.7500000000000001
 40
0.8750000000000001
 40
0.8750000000000001
 40
1.0
 40
1.0
 40
1.0
 40
1.0
 10
7.648762351217485
 20
13.80823317512972
 30
0.0
 10
7.648762351217484
 20
13.80823317512972
 30
0.0
 10
7.651665037804717
 20
13.80823317512972
 30
0.0
 10
7.663033436531487
 20
13.80823317512972
 30
0.0
 10
7.671504622794148
 20
13.80823317512972
 30
0.0
 10
7.69423713484389
 20
13.80823317512972
 30
0.0
 10
7.708178199731699
 20
13.80823317512972
 30
0.0
 10
7.740998357885381
 20
13.80823317512972
 30
0.0
 10
7.759897886915958
 20
13.80823317512972
 30
0.0
 10
7.802776696959023
 20
13.80823317512972
 30
0.0
 10
7.82617257006726
 20
13.80823317512972
 30
0.0
 10
7.876718831063974
 20
13.80823317512972
 30
0.0
 10
7.903911690194692
 20
13.80823317512972
 30
0.0
 10
7.962051648738356
 20
13.80823317512972
 30
0.0
 10
7.992231781965883
 20
13.80823317512972
 30
0.0
 10
8.054720641145085
 20
13.80823317512972
 30
0.0
 10
8.087029334635925
 20
13.80823317512972
 30
0.0
 10
8.120450472972655
 20
13.80823317512972
 30
0.0
  0
SPLINE
  5
178
330
1F
100
AcDbEntity
  8
0
  6
SLD-Solid
 62
     7
370
    25
100
AcDbSpline
210
0.0
220
0.0
230
1.0
 70
    24
 71
     3
 72
    24
 73
    20
 74
     0
 42
0.00000001
 43
0.00000001
 40
0.0
 40
0.0
 40
0.0
 40
0.0
 40
0.1250000000000001
 40
0.1250000000000001
 40
0.2500000000000002
 40
0.2500000000000002
 40
0.3750000000000003
 40
0.3750000000000003
 40
0.5000000000000004
 40
0.5000000000000004
 40
0.6250000000000006
 40
0.6250000000000006
 40
0.6875000000000001
 40
0.6875000000000001
 40
0.7499999999999998
 40
0.7499999999999998
 40
0.8749999999999999
 40
0.8749999999999999
 40
1.0
 40
1.0
 40
1.0
 40
1.0
 10
7.565595684550817
 20
18.79823317512972
 30
0.0
 10
7.565595684550816
 20
18.79823317512973
 30
0.0
 10
7.568524764094183
 20
18.79823317512972
 30
0.0
 10
7.579996554488472
 20
18.79823317512972
 30
0.0
 10
7.588550663688567
 20
18.79823317512972
 30
0.0
 10
7.611482261697892
 20
18.79823317512972
 30
0.0
 10
7.625544272775587
 20
18.79823317512972
 30
0.0
 10
7.658651415429217
 20
18.79823317512972
 30
0.0
 10
7.677738456763705
 20
18.79823317512972
 30
0.0
 10
7.720957865621484
 20
18.79823317512972
 30
0.0
 10
7.744538813726122
 20
18.79823317512972
 30
0.0
 10
7.782751982244956
 20
18.79823317512972
 30
0.0
 10
7.795966009262109
 20
18.79823317512972
 30
0.0
 10
7.823358889424429
 20
18.79823317512972
 30
0.0
 10
7.837576748127625
 20
18.79823317512972
 30
0.0
 10
7.881472059822205
 20
18.79823317512973
 30
0.0
 10
7.911845419215595
 20
18.79823317512972
 30
0.0
 10
7.974721902846441
 20
18.79823317512972
 30
0.0
 10
8.007224956452516
 20
18.79823317512972
 30
0.0
 10
8.040842772905808
 20
18.79823317512972
 30
0.0
  0
LINE
  5
179
330
1F
100
AcDbEntity
  8
0
  6
SLD-Solid
 62
     7
370
    25
100
AcDbLine
 10
12.0339290179
 20
18.7982331751
 30
0.0
 11
11.9507623512
 21
13.8082331751
 31
0.0
  0
SPLINE
  5
17A
330
1F
100
AcDbEntity
  8
0
  6
SLD-Solid
 62
     7
370
    25
100
AcDbSpline
210
0.0
220
0.0
230
1.0
 70
    24
 71
     3
 72
    22
 73
    18
 74
     0
 42
0.00000001
 43
0.00000001
 40
0.0
 40
0.0
 40
0.0
 40
0.0
 40
0.1250000000000002
 40
0.1250000000000002
 40
0.2500000000000002
 40
0.2500000000000002
 40
0.3750000000000002
 40
0.3750000000000002
 40
0.5000000000000001
 40
0.5000000000000001
 40
0.6250000000000001
 40
0.6250000000000001
 40
0.7500000000000001
 40
0.7500000000000001
 40
0.8750000000000001
 40
0.8750000000000001
 40
1.0
 40
1.0
 40
1.0
 40
1.0
 10
11.95076235121748
 20
13.80823317512972
 30
0.0
 10
11.95076235121749
 20
13.80823317512972
 30
0.0
 10
11.94785966463025
 20
13.80823317512972
 30
0.0
 10
11.93649126590348
 20
13.80823317512972
 30
0.0
 10
11.92802007964082
 20
13.80823317512972
 30
0.0
 10
11.90528756759108
 20
13.80823317512972
 30
0.0
 10
11.89134650270327
 20
13.80823317512972
 30
0.0
 10
11.85852634454959
 20
13.80823317512972
 30
0.0
 10
11.83962681551901
 20
13.80823317512972
 30
0.0
 10
11.79674800547595
 20
13.80823317512972
 30
0.0
 10
11.77335213236771
 20
13.80823317512972
 30
0.0
 10
11.722805871371
 20
13.80823317512972
 30
0.0
 10
11.69561301224028
 20
13.80823317512972
 30
0.0
 10
11.63747305369661
 20
13.80823317512972
 30
0.0
 10
11.60729292046909
 20
13.80823317512972
 30
0.0
 10
11.54480406128988
 20
13.80823317512972
 30
0.0
 10
11.51249536779904
 20
13.80823317512972
 30
0.0
 10
11.47907422946231
 20
13.80823317512972
 30
0.0
  0
SPLINE
  5
17B
330
1F
100
AcDbEntity
  8
0
  6
SLD-Solid
 62
     7
370
    25
100
AcDbSpline
210
0.0
220
0.0
230
1.0
 70
    24
 71
     3
 72
    24
 73
    20
 74
     0
 42
0.00000001
 43
0.00000001
 40
0.0
 40
0.0
 40
0.0
 40
0.0
 40
0.1250000000000001
 40
0.1250000000000001
 40
0.2500000000000002
 40
0.2500000000000002
 40
0.3750000000000003
 40
0.3750000000000003
 40
0.5000000000000004
 40
0.5000000000000004
 40
0.6250000000000006
 40
0.6250000000000006
 40
0.6875000000000001
 40
0.6875000000000001
 40
0.7499999999999998
 40
0.7499999999999998
 40
0.8749999999999999
 40
0.8749999999999999
 40
1.0
 40
1.0
 40
1.0
 40
1.0
 10
12.03392901788415
 20
18.79823317512972
 30
0.0
 10
12.03392901788415
 20
18.79823317512973
 30
0.0
 10
12.03099993834079
 20
18.79823317512972
 30
0.0
 10
12.0195281479465
 20
18.79823317512972
 30
0.0
 10
12.0109740387464
 20
18.79823317512972
 30
0.0
 10
11.98804244073708
 20
18.79823317512972
 30
0.0
 10
11.97398042965938
 20
18.79823317512972
 30
0.0
 10
11.94087328700575
 20
18.79823317512972
 30
0.0
 10
11.92178624567126
 20
18.79823317512972
 30
0.0
 10
11.87856683681349
 20
18.79823317512972
 30
0.0
 10
11.85498588870885
 20
18.79823317512972
 30
0.0
 10
11.81677272019002
 20
18.79823317512972
 30
0.0
 10
11.80355869317286
 20
18.79823317512972
 30
0.0
 10
11.77616581301054
 20
18.79823317512972
 30
0.0
 10
11.76194795430735
 20
18.79823317512972
 30
0.0
 10
11.71805264261276
 20
18.79823317512973
 30
0.0
 10
11.68767928321937
 20
18.79823317512972
 30
0.0
 10
11.62480279958853
 20
18.79823317512972
 30
0.0
 10
11.59229974598245
 20
18.79823317512972
 30
0.0
 10
11.55868192952916
 20
18.79823317512972
 30
0.0
  0
SPLINE
  5
17C
330
1F
100
AcDbEntity
  8
0
  6
SLD-Solid
 62
     7
370
    25
100
AcDbSpline
210
0.0
220
0.0
230
1.0
 70
     8
 71
     3
 72
    10
 73
     6
 74
     0
 42
0.00000001
 43
0.00000001
 40
0.0
 40
0.0
 40
0.0
 40
0.0
 40
0.5
 40
0.5
 40
0.8767825437552328
 40
0.8767825437552328
 40
0.8767825437552328
 40
0.8767825437552328
 10
9.799762351217485
 20
19.73823317512972
 30
0.0
 10
10.18772596534498
 20
19.73823317512973
 30
0.0
 10
10.57783547515006
 20
19.70937958882546
 30
0.0
 10
11.25439195636675
 20
19.60818630564021
 30
0.0
 10
11.54266706382023
 20
19.54831935391014
 30
0.0
 10
11.82584426418951
 20
19.47287760930372
 30
0.0
  0
SPLINE
  5
17D
330
1F
100
AcDbEntity
  8
0
  6
SLD-Solid
 62
     7
370
    25
100
AcDbSpline
210
0.0
220
0.0
230
1.0
 70
     8
 71
     3
 72
    25
 73
    21
 74
     0
 42
0.00000001
 43
0.00000001
 40
0.0
 40
0.0
 40
0.0
 40
0.0
 40
0.0276994801334198
 40
0.0554010069735277
 40
0.083106030083933
 40
0.1108159984795546
 40
0.1385323603996911
 40
0.1662565630816982
 40
0.193990052535451
 40
0.2217342733187636
 40
0.249490668313942
 40
0.2772606785056382
 40
0.4163449652634508
 40
0.5552690929815963
 40
0.6941862057419571
 40
0.8333163013327051
 40
0.8750192775301716
 40
0.9166976267636247
 40
0.9583562362109933
 40
1.0
 40
1.0
 40
1.0
 40
1.0
 10
9.799762351217485
 20
19.73823317512972
 30
0.0
 10
9.780842601847253
 20
19.73819365737478
 30
0.0
 10
9.743001705131904
 20
19.73811461894493
 30
0.0
 10
9.686240244360521
 20
19.73747534295405
 30
0.0
 10
9.629477561642641
 20
19.7364548803986
 30
0.0
 10
9.572713657659733
 20
19.73501583822925
 30
0.0
 10
9.515948532082895
 20
19.733168237891
 30
0.0
 10
9.459182188325055
 20
19.73090939420961
 30
0.0
 10
9.402414615823556
 20
19.72824002415069
 30
0.0
 10
9.345645856187165
 20
19.72515994640989
 30
0.0
 10
9.288875756183756
 20
19.72166916946149
 30
0.0
 10
9.156262352763678
 20
19.71255589691782
 30
0.0
 10
8.948203002325313
 20
19.69373029575272
 30
0.0
 10
8.665642268411633
 20
19.65780677540664
 30
0.0
 10
8.38453922021573
 20
19.61165083154472
 30
0.0
 10
8.170398348140637
 20
19.56845636273507
 30
0.0
 10
8.022156976963776
 20
19.53493149267301
 30
0.0
 10
7.939065304646556
 20
19.5151749963763
 30
0.0
 10
7.856214818152486
 20
19.49459329160026
 30
0.0
 10
7.801188073052194
 20
19.48011739822555
 30
0.0
 10
7.773679603773268
 20
19.47288074144243
 30
0.0
  0
SPLINE
  5
17E
330
1F
100
AcDbEntity
  8
0
  6
SLD-Solid
 62
     7
370
    25
100
AcDbSpline
210
0.0
220
0.0
230
1.0
 70
     8
 71
     3
 72
    22
 73
    18
 74
     0
 42
0.00000001
 43
0.00000001
 40
0.0
 40
0.0
 40
0.0
 40
0.0
 40
0.1249999999999999
 40
0.1249999999999999
 40
0.2499999999999999
 40
0.2499999999999999
 40
0.3749999999999998
 40
0.3749999999999998
 40
0.4999999999999998
 40
0.4999999999999998
 40
0.6249999999999998
 40
0.6249999999999998
 40
0.7499999999999997
 40
0.7499999999999997
 40
0.8749999999999998
 40
0.8749999999999998
 40
1.0
 40
1.0
 40
1.0
 40
1.0
 10
11.4549990168069
 20
12.29679303094359
 30
0.0
 10
11.48829813582092
 20
12.29676262545562
 30
0.0
 10
11.52048954590575
 20
12.29673958843882
 30
0.0
 10
11.58275189020332
 20
12.29670761979292
 30
0.0
 10
11.61282279867288
 20
12.2966986883351
 30
0.0
 10
11.67075285365273
 20
12.29669553802577
 30
0.0
 10
11.6978373071016
 20
12.2967013784728
 30
0.0
 10
11.74820754286175
 20
12.29672725334716
 30
0.0
 10
11.7715275743971
 20
12.29674728608345
 30
0.0
 10
11.81428049061917
 20
12.29680213928918
 30
0.0
 10
11.83313683535878
 20
12.2968362402452
 30
0.0
 10
11.86589912432024
 20
12.29691704160243
 30
0.0
 10
11.87982711999252
 20
12.29696377056377
 30
0.0
 10
11.9025699122963
 20
12.29707041874341
 30
0.0
 10
11.91115455598386
 20
12.29712929841707
 30
0.0
 10
11.92269456104634
 20
12.2972578225172
 30
0.0
 10
11.92558057531726
 20
12.29732662111601
 30
0.0
 10
11.92558179759054
 20
12.29739995751303
 30
0.0
  0
LINE
  5
17F
330
1F
100
AcDbEntity
  8
0
  6
SLD-Solid
 62
     7
370
    25
100
AcDbLine
 10
11.9505956846
 20
13.7982331751
 30
0.0
 11
11.9255817976
 21
12.2973999575
 31
0.0
  0
SPLINE
  5
180
330
1F
100
AcDbEntity
  8
0
  6
SLD-Solid
 62
     7
370
    25
100
AcDbSpline
210
0.0
220
0.0
230
1.0
 70
    24
 71
     3
 72
    22
 73
    18
 74
     0
 42
0.00000001
 43
0.00000001
 40
0.0
 40
0.0
 40
0.0
 40
0.0
 40
0.1250000000000002
 40
0.1250000000000002
 40
0.2500000000000002
 40
0.2500000000000002
 40
0.3750000000000001
 40
0.3750000000000001
 40
0.5000000000000001
 40
0.5000000000000001
 40
0.6250000000000001
 40
0.6250000000000001
 40
0.75
 40
0.75
 40
0.875
 40
0.875
 40
1.0
 40
1.0
 40
1.0
 40
1.0
 10
11.95059568455082
 20
13.79823317512972
 30
0.0
 10
11.95059568455082
 20
13.79823317512972
 30
0.0
 10
11.94769305214611
 20
13.79823317512973
 30
0.0
 10
11.93632486566332
 20
13.79823317512972
 30
0.0
 10
11.92785384968486
 20
13.79823317512973
 30
0.0
 10
11.90512174643525
 20
13.79823317512973
 30
0.0
 10
11.89118092989295
 20
13.79823317512972
 30
0.0
 10
11.8583613609173
 20
13.79823317512973
 30
0.0
 10
11.83946221771707
 20
13.79823317512973
 30
0.0
 10
11.79658410732588
 20
13.79823317512973
 30
0.0
 10
11.77318861435338
 20
13.79823317512973
 30
0.0
 10
11.72264318423943
 20
13.79823317512973
 30
0.0
 10
11.69545086639155
 20
13.79823317512973
 30
0.0
 10
11.63731170527438
 20
13.79823317512973
 30
0.0
 10
11.60713197019315
 20
13.79823317512973
 30
0.0
 10
11.54464390993911
 20
13.79823317512973
 30
0.0
 10
11.51233561714957
 20
13.79823317512973
 30
0.0
 10
11.47891488438279
 20
13.79823317512973
 30
0.0
  0
SPLINE
  5
181
330
1F
100
AcDbEntity
  8
0
  6
SLD-Solid
 62
     7
370
    25
100
AcDbSpline
210
0.0
220
0.0
230
1.0
 70
     8
 71
     3
 72
    22
 73
    18
 74
     0
 42
0.00000001
 43
0.00000001
 40
0.0
 40
0.0
 40
0.0
 40
0.0
 40
0.1249999999999999
 40
0.1249999999999999
 40
0.2499999999999999
 40
0.2499999999999999
 40
0.3749999999999998
 40
0.3749999999999998
 40
0.4999999999999998
 40
0.4999999999999998
 40
0.6249999999999998
 40
0.6249999999999998
 40
0.7499999999999997
 40
0.7499999999999997
 40
0.8749999999999998
 40
0.8749999999999998
 40
1.0
 40
1.0
 40
1.0
 40
1.0
 10
8.144525685628068
 20
12.29679303094359
 30
0.0
 10
8.111226566614047
 20
12.29676262545562
 30
0.0
 10
8.079035156529214
 20
12.29673958843882
 30
0.0
 10
8.016772812231652
 20
12.29670761979292
 30
0.0
 10
7.986701903762092
 20
12.2966986883351
 30
0.0
 10
7.928771848782242
 20
12.29669553802577
 30
0.0
 10
7.901687395333367
 20
12.2967013784728
 30
0.0
 10
7.85131715957322
 20
12.29672725334716
 30
0.0
 10
7.827997128037874
 20
12.29674728608345
 30
0.0
 10
7.785244211815803
 20
12.29680213928918
 30
0.0
 10
7.766387867076188
 20
12.2968362402452
 30
0.0
 10
7.733625578114728
 20
12.29691704160243
 30
0.0
 10
7.719697582442452
 20
12.29696377056377
 30
0.0
 10
7.696954790138673
 20
12.29707041874341
 30
0.0
 10
7.68837014645111
 20
12.29712929841707
 30
0.0
 10
7.676830141388632
 20
12.2972578225172
 30
0.0
 10
7.673944127117712
 20
12.29732662111601
 30
0.0
 10
7.673942904844429
 20
12.29739995751303
 30
0.0
  0
LINE
  5
182
330
1F
100
AcDbEntity
  8
0
  6
SLD-Solid
 62
     7
370
    25
100
AcDbLine
 10
7.6489290179
 20
13.7982331751
 30
0.0
 11
7.6739429048
 21
12.2973999575
 31
0.0
  0
SPLINE
  5
183
330
1F
100
AcDbEntity
  8
0
  6
SLD-Solid
 62
     7
370
    25
100
AcDbSpline
210
0.0
220
0.0
230
1.0
 70
    24
 71
     3
 72
    22
 73
    18
 74
     0
 42
0.00000001
 43
0.00000001
 40
0.0
 40
0.0
 40
0.0
 40
0.0
 40
0.1250000000000002
 40
0.1250000000000002
 40
0.2500000000000002
 40
0.2500000000000002
 40
0.3750000000000001
 40
0.3750000000000001
 40
0.5000000000000001
 40
0.5000000000000001
 40
0.6250000000000001
 40
0.6250000000000001
 40
0.75
 40
0.75
 40
0.875
 40
0.875
 40
1.0
 40
1.0
 40
1.0
 40
1.0
 10
7.648929017884151
 20
13.79823317512972
 30
0.0
 10
7.648929017884151
 20
13.79823317512972
 30
0.0
 10
7.651831650288859
 20
13.79823317512973
 30
0.0
 10
7.663199836771648
 20
13.79823317512972
 30
0.0
 10
7.671670852750112
 20
13.79823317512973
 30
0.0
 10
7.694402955999723
 20
13.79823317512973
 30
0.0
 10
7.708343772542022
 20
13.79823317512972
 30
0.0
 10
7.741163341517669
 20
13.79823317512973
 30
0.0
 10
7.760062484717899
 20
13.79823317512973
 30
0.0
 10
7.802940595109089
 20
13.79823317512973
 30
0.0
 10
7.826336088081593
 20
13.79823317512973
 30
0.0
 10
7.876881518195541
 20
13.79823317512973
 30
0.0
 10
7.904073836043422
 20
13.79823317512973
 30
0.0
 10
7.962212997160589
 20
13.79823317512973
 30
0.0
 10
7.99239273224182
 20
13.79823317512973
 30
0.0
 10
8.054880792495862
 20
13.79823317512973
 30
0.0
 10
8.087189085285402
 20
13.79823317512973
 30
0.0
 10
8.120609818052184
 20
13.79823317512973
 30
0.0
  0
ARC
  5
184
330
1F
100
AcDbEntity
  8
0
  6
SLD-Solid
 62
     7
370
    25
100
AcDbCircle
 10
11.8755887406
 20
12.2982331751
 30
0.0
 40
0.0499999999999989
100
AcDbArc
 50
270.0
 51
359.0451587461
  0
SPLINE
  5
185
330
1F
100
AcDbEntity
  8
0
  6
SLD-Solid
 62
     7
370
    25
100
AcDbSpline
210
0.0
220
0.0
230
1.0
 70
    24
 71
     3
 72
    22
 73
    18
 74
     0
 42
0.00000001
 43
0.00000001
 40
0.0
 40
0.0
 40
0.0
 40
0.0
 40
0.125
 40
0.125
 40
0.25
 40
0.25
 40
0.375
 40
0.375
 40
0.5
 40
0.5
 40
0.625
 40
0.625
 40
0.75
 40
0.75
 40
0.875
 40
0.875
 40
1.0
 40
1.0
 40
1.0
 40
1.0
 10
11.87558874058856
 20
12.24823317512972
 30
0.0
 10
11.87558874058856
 20
12.24823317512972
 30
0.0
 10
11.87293550654686
 20
12.24823317512972
 30
0.0
 10
11.8625440958099
 20
12.24823317512972
 30
0.0
 10
11.85480260966252
 20
12.24823317512972
 30
0.0
 10
11.83402153195973
 20
12.24823317512972
 30
0.0
 10
11.82127688519109
 20
12.24823317512972
 30
0.0
 10
11.79127397002742
 20
12.24823317512972
 30
0.0
 10
11.77400328851471
 20
12.24823317512972
 30
0.0
 10
11.73479537850314
 20
12.24823317512972
 30
0.0
 10
11.71340222361626
 20
12.24823317512972
 30
0.0
 10
11.66718412269395
 20
12.24823317512972
 30
0.0
 10
11.64233298911822
 20
12.24823317512972
 30
0.0
 10
11.58914943677328
 20
12.24823317512972
 30
0.0
 10
11.56153994566111
 20
12.24823317512972
 30
0.0
 10
11.5043701306806
 20
12.24823317512972
 30
0.0
 10
11.47480982577825
 20
12.24823317512972
 30
0.0
 10
11.44423046402615
 20
12.24823317512972
 30
0.0
  0
ARC
  5
186
330
1F
100
AcDbEntity
  8
0
  6
SLD-Solid
 62
     7
370
    25
100
AcDbCircle
 10
7.7239359618
 20
12.2982331751
 30
0.0
 40
0.0500000000000006
100
AcDbArc
 50
180.9548412539
 51
270.0
  0
SPLINE
  5
187
330
1F
100
AcDbEntity
  8
0
  6
SLD-Solid
 62
     7
370
    25
100
AcDbSpline
210
0.0
220
0.0
230
1.0
 70
    24
 71
     3
 72
    22
 73
    18
 74
     0
 42
0.00000001
 43
0.00000001
 40
0.0
 40
0.0
 40
0.0
 40
0.0
 40
0.125
 40
0.125
 40
0.25
 40
0.25
 40
0.375
 40
0.375
 40
0.5
 40
0.5
 40
0.625
 40
0.625
 40
0.75
 40
0.75
 40
0.875
 40
0.875
 40
1.0
 40
1.0
 40
1.0
 40
1.0
 10
7.72393596184641
 20
12.24823317512972
 30
0.0
 10
7.723935961846409
 20
12.24823317512972
 30
0.0
 10
7.726589195888113
 20
12.24823317512972
 30
0.0
 10
7.736980606625073
 20
12.24823317512972
 30
0.0
 10
7.744722092772448
 20
12.24823317512972
 30
0.0
 10
7.765503170475234
 20
12.24823317512972
 30
0.0
 10
7.778247817243875
 20
12.24823317512972
 30
0.0
 10
7.80825073240755
 20
12.24823317512972
 30
0.0
 10
7.825521413920261
 20
12.24823317512972
 30
0.0
 10
7.864729323931829
 20
12.24823317512972
 30
0.0
 10
7.88612247881871
 20
12.24823317512972
 30
0.0
 10
7.932340579741018
 20
12.24823317512972
 30
0.0
 10
7.957191713316752
 20
12.24823317512972
 30
0.0
 10
8.010375265661693
 20
12.24823317512972
 30
0.0
 10
8.03798475677386
 20
12.24823317512972
 30
0.0
 10
8.095154571754371
 20
12.24823317512972
 30
0.0
 10
8.124714876656723
 20
12.24823317512972
 30
0.0
 10
8.155294238408823
 20
12.24823317512972
 30
0.0
  0
LINE
  5
188
330
1F
100
AcDbEntity
  8
0
  6
SLD-Solid
 62
     7
370
    25
100
AcDbLine
 10
7.9250079081
 20
13.8082331751
 30
0.0
 11
7.9250079081
 21
13.7982331751
 31
0.0
  0
LINE
  5
189
330
1F
100
AcDbEntity
  8
0
  6
SLD-Solid
 62
     7
370
    25
100
AcDbLine
 10
8.5457862121
 20
13.8082331751
 30
0.0
 11
8.5457862121
 21
13.7982331751
 31
0.0
  0
LINE
  5
18A
330
1F
100
AcDbEntity
  8
0
  6
SLD-Solid
 62
     7
370
    25
100
AcDbLine
 10
7.9250079081
 20
18.8082331751
 30
0.0
 11
7.9250079081
 21
18.7982331751
 31
0.0
  0
LINE
  5
18B
330
1F
100
AcDbEntity
  8
0
  6
SLD-Solid
 62
     7
370
    25
100
AcDbLine
 10
8.5457862121
 20
18.8082331751
 30
0.0
 11
8.5457862121
 21
18.7982331751
 31
0.0
  0
LINE
  5
18C
330
1F
100
AcDbEntity
  8
0
  6
SLD-Solid
 62
     7
370
    25
100
AcDbLine
 10
11.0537384904
 20
18.8082331751
 30
0.0
 11
11.0537384904
 21
18.7982331751
 31
0.0
  0
LINE
  5
18D
330
1F
100
AcDbEntity
  8
0
  6
SLD-Solid
 62
     7
370
    25
100
AcDbLine
 10
11.6745167943
 20
18.8082331751
 30
0.0
 11
11.6745167943
 21
18.7982331751
 31
0.0
  0
LINE
  5
18E
330
1F
100
AcDbEntity
  8
0
  6
SLD-Solid
 62
     7
370
    25
100
AcDbLine
 10
11.0537384904
 20
13.8082331751
 30
0.0
 11
11.0537384904
 21
13.7982331751
 31
0.0
  0
LINE
  5
18F
330
1F
100
AcDbEntity
  8
0
  6
SLD-Solid
 62
     7
370
    25
100
AcDbLine
 10
11.6745167943
 20
13.8082331751
 30
0.0
 11
11.6745167943
 21
13.7982331751
 31
0.0
  0
LINE
  5
190
330
1F
100
AcDbEntity
  8
0
  6
SLD-Solid
 62
     7
370
    25
100
AcDbLine
 10
7.5882687011
 20
19.2440402931
 30
0.0
 11
7.5795320189
 21
19.0773344645
 31
0.0
  0
SPLINE
  5
191
330
1F
100
AcDbEntity
  8
0
  6
SLD-Solid
 62
     7
370
    25
100
AcDbSpline
210
0.0
220
0.0
230
1.0
 70
     8
 71
     3
 72
    20
 73
    16
 74
     0
 42
0.00000001
 43
0.00000001
 40
0.0
 40
0.0
 40
0.0
 40
0.0
 40
0.2500000000000026
 40
0.2500000000000026
 40
0.3750000000000022
 40
0.3750000000000022
 40
0.5000000000000018
 40
0.5000000000000018
 40
0.6250000000000014
 40
0.6250000000000014
 40
0.7500000000000009
 40
0.7500000000000009
 40
0.8750000000000004
 40
0.8750000000000004
 40
1.0
 40
1.0
 40
1.0
 40
1.0
 10
7.773680438276749
 20
19.47287760931205
 30
0.0
 10
7.748103700804352
 20
19.46606366492066
 30
0.0
 10
7.724259409619572
 20
19.45546359538966
 30
0.0
 10
7.691060801018964
 20
19.43395170452117
 30
0.0
 10
7.680582137925209
 20
19.42591025971021
 30
0.0
 10
7.66117090100995
 20
19.40845020990411
 30
0.0
 10
7.652169961773616
 20
19.39898821685713
 30
0.0
 10
7.635606409935651
 20
19.37857020448092
 30
0.0
 10
7.628082431638421
 20
19.36762603420848
 30
0.0
 10
7.615006174058824
 20
19.34499732666139
 30
0.0
 10
7.609376869572674
 20
19.33322427910639
 30
0.0
 10
7.599953680795865
 20
19.30875182691434
 30
0.0
 10
7.596162380529074
 20
19.29599429230067
 30
0.0
 10
7.590687163186736
 20
19.27028856000791
 30
0.0
 10
7.588961313259128
 20
19.25725611975568
 30
0.0
 10
7.588268701134914
 20
19.24404029314197
 30
0.0
  0
LINE
  5
192
330
1F
100
AcDbEntity
  8
0
  6
SLD-Solid
 62
     7
370
    25
100
AcDbLine
 10
12.0112560013
 20
19.2440402931
 30
0.0
 11
12.0199926836
 21
19.0773344645
 31
0.0
  0
SPLINE
  5
193
330
1F
100
AcDbEntity
  8
0
  6
SLD-Solid
 62
     7
370
    25
100
AcDbSpline
210
0.0
220
0.0
230
1.0
 70
     8
 71
     3
 72
    20
 73
    16
 74
     0
 42
0.00000001
 43
0.00000001
 40
0.0
 40
0.0
 40
0.0
 40
0.0
 40
0.2500000000000026
 40
0.2500000000000026
 40
0.3750000000000022
 40
0.3750000000000022
 40
0.5000000000000018
 40
0.5000000000000018
 40
0.6250000000000014
 40
0.6250000000000014
 40
0.7500000000000009
 40
0.7500000000000009
 40
0.8750000000000004
 40
0.8750000000000004
 40
1.0
 40
1.0
 40
1.0
 40
1.0
 10
11.82584426415822
 20
19.47287760931205
 30
0.0
 10
11.85142100163062
 20
19.46606366492066
 30
0.0
 10
11.8752652928154
 20
19.45546359538966
 30
0.0
 10
11.90846390141601
 20
19.43395170452117
 30
0.0
 10
11.91894256450976
 20
19.42591025971021
 30
0.0
 10
11.93835380142502
 20
19.40845020990411
 30
0.0
 10
11.94735474066135
 20
19.39898821685713
 30
0.0
 10
11.96391829249932
 20
19.37857020448092
 30
0.0
 10
11.97144227079655
 20
19.36762603420848
 30
0.0
 10
11.98451852837615
 20
19.34499732666139
 30
0.0
 10
11.9901478328623
 20
19.33322427910639
 30
0.0
 10
11.99957102163911
 20
19.30875182691434
 30
0.0
 10
12.0033623219059
 20
19.29599429230067
 30
0.0
 10
12.00883753924824
 20
19.27028856000791
 30
0.0
 10
12.01056338917584
 20
19.25725611975568
 30
0.0
 10
12.01125600130006
 20
19.24404029314197
 30
0.0
  0
LINE
  5
194
330
1F
100
AcDbEntity
  8
0
  6
SLD-Solid
 62
     7
370
    25
100
AcDbLine
 10
9.9047623512
 20
12.1682331751
 30
0.0
 11
9.6947623512
 21
12.1682331751
 31
0.0
  0
LINE
  5
195
330
1F
100
AcDbEntity
  8
DIMS
100
AcDbLine
 10
4.8583773703
 20
7.7382331751
 30
0.0
 11
34.5558044163
 21
7.7382331751
 31
0.0
  0
LINE
  5
196
330
1F
100
AcDbEntity
  8
DIMS
100
AcDbLine
 10
5.4808371835
 20
7.7382331751
 30
0.0
 11
5.4808371835
 21
8.2270326493
 31
0.0
  0
LINE
  5
197
330
1F
100
AcDbEntity
  8
DIMS
100
AcDbLine
 10
5.4808371835
 20
8.2270326493
 30
0.0
 11
5.8194248014
 21
8.4961876107
 31
0.0
  0
LINE
  5
198
330
1F
100
AcDbEntity
  8
DIMS
100
AcDbLine
 10
5.8194248014
 20
8.4961876107
 30
0.0
 11
5.0440978231
 21
8.8979114336
 31
0.0
  0
LINE
  5
199
330
1F
100
AcDbEntity
  8
DIMS
100
AcDbLine
 10
5.0440978231
 20
8.8979114336
 30
0.0
 11
5.4808371835
 21
9.1630491568
 31
0.0
  0
LINE
  5
19A
330
1F
100
AcDbEntity
  8
DIMS
100
AcDbLine
 10
5.4808371835
 20
9.1630491568
 30
0.0
 11
5.4808371835
 21
9.8098245117
 31
0.0
  0
DIMENSION
  5
19B
330
1F
100
AcDbEntity
  8
DIMS
100
AcDbDimension
  2
_D
 10
5.4819445959
 20
7.7382331751
 30
0.0
 11
5.4819445959
 21
9.4123276633
 31
0.0
 70
   160
  1
                                                                                     48"(1220mm) Max. height for barrier free installation^M\P 
 71
     2
 42
-1.0
  3
SLDDIMSTYLE0
100
AcDbAlignedDimension
 13
9.7997623512
 23
19.7382331751
 33
0.0
 14
4.8583773703
 24
7.7382331751
 34
0.0
 50
90.0
100
AcDbRotatedDimension
  0
DIMENSION
  5
1AD
330
1F
100
AcDbEntity
  8
DIMS
100
AcDbDimension
  2
_D_1
 10
12.0339290179
 20
20.8409667976
 30
0.0
 11
9.8779864733
 21
20.8409667976
 31
0.0
 70
   160
  1
<>
 71
     2
 42
-1.0
  3
SLDDIMSTYLE1
100
AcDbAlignedDimension
 13
7.5655956846
 23
18.7982331751
 33
0.0
 14
12.0339290179
 24
18.7982331751
 34
0.0
100
AcDbRotatedDimension
  0
MTEXT
  5
1BD
330
1F
100
AcDbEntity
  8
NOTES
100
AcDbMText
 10
5.9987273485
 20
8.3758029826
 30
0.0
 40
0.5
 41
0.0
 71
     1
 72
     1
  1
Floor
  7
SLDTEXTSTYLE1
 73
     1
 44
1.0
  0
MTEXT
  5
1BE
330
1F
100
AcDbEntity
  8
NOTES
100
AcDbMText
 10
8.3639254146
 20
11.6649829365
 30
0.0
 40
0.5
 41
0.0
 71
     1
 72
     1
  1
Front view
  7
SLDTEXTSTYLE1
 73
     1
 44
1.0
  0
LINE
  5
1BF
330
1F
100
AcDbEntity
  8
0
  6
SLD-Solid
 62
     7
370
    25
100
AcDbLine
 10
17.7855634247
 20
13.2682331751
 30
0.0
 11
17.7855634247
 21
12.5082331751
 31
0.0
  0
ARC
  5
1C0
330
1F
100
AcDbEntity
  8
0
  6
SLD-Solid
 62
     7
370
    25
100
AcDbCircle
 10
17.8355634247
 20
13.2682331751
 30
0.0
 40
0.0500000000000007
100
AcDbArc
 50
90.0
 51
180.0
  0
ARC
  5
1C1
330
1F
100
AcDbEntity
  8
0
  6
SLD-Solid
 62
     7
370
    25
100
AcDbCircle
 10
17.8355634247
 20
12.5082331751
 30
0.0
 40
0.0500000000000007
100
AcDbArc
 50
180.0
 51
270.0
  0
LINE
  5
1C2
330
1F
100
AcDbEntity
  8
0
  6
SLD-Solid
 62
     7
370
    25
100
AcDbLine
 10
19.1430254706
 20
12.2482331751
 30
0.0
 11
19.1430254706
 21
12.1682331751
 31
0.0
  0
LINE
  5
1C3
330
1F
100
AcDbEntity
  8
0
  6
SLD-Solid
 62
     7
370
    25
100
AcDbLine
 10
19.3530254706
 20
12.1682331751
 30
0.0
 11
19.3530254706
 21
12.2482331751
 31
0.0
  0
LINE
  5
1C4
330
1F
100
AcDbEntity
  8
0
  6
SLD-Solid
 62
     7
370
    25
100
AcDbLine
 10
18.8446492451
 20
19.0773344645
 30
0.0
 11
18.8446492451
 21
18.8082331751
 31
0.0
  0
SPLINE
  5
1C5
330
1F
100
AcDbEntity
  8
0
  6
SLD-Solid
 62
     7
370
    25
100
AcDbSpline
210
0.0
220
0.0
230
1.0
 70
    24
 71
     3
 72
    22
 73
    18
 74
     0
 42
0.00000001
 43
0.00000001
 40
0.0
 40
0.0
 40
0.0
 40
0.0
 40
0.0025816160087245
 40
0.0025816160087245
 40
0.005163232017449
 40
0.005163232017449
 40
0.0077448480261734
 40
0.0077448480261734
 40
0.0103264640348979
 40
0.0103264640348979
 40
0.0129080800436224
 40
0.0129080800436224
 40
0.0154896960523469
 40
0.0154896960523469
 40
0.0180713120610713
 40
0.0180713120610713
 40
0.0206529280697958
 40
0.0206529280697958
 40
0.0206529280697958
 40
0.0206529280697958
 10
18.84464924512228
 20
18.80823317512936
 30
0.0
 10
18.81028355857306
 20
18.80823317512936
 30
0.0
 10
18.77641384961829
 20
18.80823317512936
 30
0.0
 10
18.7096330235369
 20
18.80823317512936
 30
0.0
 10
18.67668821300571
 20
18.80823317512936
 30
0.0
 10
18.61192901114604
 20
18.80823317512936
 30
0.0
 10
18.58098823695193
 20
18.80823317512936
 30
0.0
 10
18.52186834983342
 20
18.80823317512936
 30
0.0
 10
18.49363745067654
 20
18.80823317512936
 30
0.0
 10
18.44028015235559
 20
18.80823317512936
 30
0.0
 10
18.41581644219828
 20
18.80823317512936
 30
0.0
 10
18.37114644563844
 20
18.80823317512936
 30
0.0
 10
18.35088806095286
 20
18.80823317512936
 30
0.0
 10
18.31505246565788
 20
18.80823317512936
 30
0.0
 10
18.29988258707596
 20
18.80823317512936
 30
0.0
 10
18.27481615377349
 20
18.80823317512936
 30
0.0
 10
18.26491912606264
 20
18.80823317512936
 30
0.0
 10
18.25778286897238
 20
18.80823317512936
 30
0.0
  0
LINE
  5
1C6
330
1F
100
AcDbEntity
  8
0
  6
SLD-Solid
 62
     7
370
    25
100
AcDbLine
 10
18.8449081962
 20
18.7982331751
 30
0.0
 11
18.9740043985
 21
13.8082331751
 31
0.0
  0
SPLINE
  5
1C7
330
1F
100
AcDbEntity
  8
0
  6
SLD-Solid
 62
     7
370
    25
100
AcDbSpline
210
0.0
220
0.0
230
1.0
 70
    24
 71
     3
 72
    22
 73
    18
 74
     0
 42
0.00000001
 43
0.00000001
 40
0.0
 40
0.0
 40
0.0
 40
0.0
 40
0.1250000000000002
 40
0.1250000000000002
 40
0.2500000000000002
 40
0.2500000000000002
 40
0.3750000000000002
 40
0.3750000000000002
 40
0.5000000000000001
 40
0.5000000000000001
 40
0.6250000000000001
 40
0.6250000000000001
 40
0.7500000000000001
 40
0.7500000000000001
 40
0.8750000000000001
 40
0.8750000000000001
 40
1.0
 40
1.0
 40
1.0
 40
1.0
 10
18.97400439848697
 20
13.80823317512972
 30
0.0
 10
18.93979398583424
 20
13.80823317512972
 30
0.0
 10
18.9060778058938
 20
13.80823317512972
 30
0.0
 10
18.83959264755352
 20
13.80823317512972
 30
0.0
 10
18.80680802028766
 20
13.80823317512972
 30
0.0
 10
18.74229138576716
 20
13.80823317512972
 30
0.0
 10
18.71146001046614
 20
13.80823317512972
 30
0.0
 10
18.6525338823723
 20
13.80823317512972
 30
0.0
 10
18.62441364582278
 20
13.80823317512972
 30
0.0
 10
18.571137478842
 20
13.80823317512972
 30
0.0
 10
18.54669769787501
 20
13.80823317512972
 30
0.0
 10
18.50203673749744
 20
13.80823317512972
 30
0.0
 10
18.48178922814664
 20
13.80823317512972
 30
0.0
 10
18.44581468285939
 20
13.80823317512972
 30
0.0
 10
18.43055226492597
 20
13.80823317512972
 30
0.0
 10
18.4052520250539
 20
13.80823317512972
 30
0.0
 10
18.39521412344067
 20
13.80823317512972
 30
0.0
 10
18.38790669949011
 20
13.80823317512972
 30
0.0
  0
SPLINE
  5
1C8
330
1F
100
AcDbEntity
  8
0
  6
SLD-Solid
 62
     7
370
    25
100
AcDbSpline
210
0.0
220
0.0
230
1.0
 70
    24
 71
     3
 72
    24
 73
    20
 74
     0
 42
0.00000001
 43
0.00000001
 40
0.0
 40
0.0
 40
0.0
 40
0.0
 40
0.1250000000000001
 40
0.1250000000000001
 40
0.2500000000000002
 40
0.2500000000000002
 40
0.3750000000000003
 40
0.3750000000000003
 40
0.5000000000000004
 40
0.5000000000000004
 40
0.6250000000000006
 40
0.6250000000000006
 40
0.6875000000000001
 40
0.6875000000000001
 40
0.7499999999999998
 40
0.7499999999999998
 40
0.8749999999999999
 40
0.8749999999999999
 40
1.0
 40
1.0
 40
1.0
 40
1.0
 10
18.84490819618415
 20
18.79823317512972
 30
0.0
 10
18.81054143604223
 20
18.79823317512973
 30
0.0
 10
18.77667340218272
 20
18.79823317512972
 30
0.0
 10
18.70989315195906
 20
18.79823317512972
 30
0.0
 10
18.67694865305418
 20
18.79823317512972
 30
0.0
 10
18.61218992327871
 20
18.79823317512972
 30
0.0
 10
18.58124936191605
 20
18.79823317512972
 30
0.0
 10
18.52212985154642
 20
18.79823317512972
 30
0.0
 10
18.49389916606871
 20
18.79823317512972
 30
0.0
 10
18.44054202460338
 20
18.79823317512972
 30
0.0
 10
18.41607836035262
 20
18.79823317512972
 30
0.0
 10
18.38257587482256
 20
18.79823317512972
 30
0.0
 10
18.37194355914862
 20
18.79823317512972
 30
0.0
 10
18.35176301480185
 20
18.79823317512972
 30
0.0
 10
18.34219104562141
 20
18.79823317512972
 30
0.0
 10
18.31531414392343
 20
18.79823317512973
 30
0.0
 10
18.30014408355326
 20
18.79823317512972
 30
0.0
 10
18.27507719162464
 20
18.79823317512972
 30
0.0
 10
18.26518018518519
 20
18.79823317512972
 30
0.0
 10
18.25804329546967
 20
18.79823317512972
 30
0.0
  0
SPLINE
  5
1C9
330
1F
100
AcDbEntity
  8
0
  6
SLD-Solid
 62
     7
370
    25
100
AcDbSpline
210
0.0
220
0.0
230
1.0
 70
     8
 71
     3
 72
    24
 73
    20
 74
     0
 42
0.00000001
 43
0.00000001
 40
0.0
 40
0.0
 40
0.0
 40
0.0
 40
0.2499999999999997
 40
0.2499999999999997
 40
0.3124999999999998
 40
0.3124999999999998
 40
0.3750000000000001
 40
0.3750000000000001
 40
0.5000000000000001
 40
0.5000000000000001
 40
0.5624999999999998
 40
0.5624999999999998
 40
0.6249999999999994
 40
0.6249999999999994
 40
0.7499999999999997
 40
0.7499999999999997
 40
0.8749999999999998
 40
0.8749999999999998
 40
1.0
 40
1.0
 40
1.0
 40
1.0
 10
18.50126178375036
 20
19.32639524576847
 30
0.0
 10
18.50932598941033
 20
19.32278439543048
 30
0.0
 10
18.52337313648949
 20
19.31963326643006
 30
0.0
 10
18.54832759812602
 20
19.31624653588993
 30
0.0
 10
18.55369894296503
 20
19.31559846297179
 30
0.0
 10
18.56500195527661
 20
19.31438589796677
 30
0.0
 10
18.57095660049357
 20
19.31381800016762
 30
0.0
 10
18.58971521837517
 20
19.31222961835713
 30
0.0
 10
18.60340814852459
 20
19.3113234358627
 30
0.0
 10
18.62580569878785
 20
19.31021679065755
 30
0.0
 10
18.6335608022741
 20
19.30989150410822
 30
0.0
 10
18.64941155183423
 20
19.30934129270653
 30
0.0
 10
18.65753930127213
 20
19.30911465242844
 30
0.0
 10
18.6825193427946
 20
19.30858222753775
 30
0.0
 10
18.6999659707025
 20
19.3084231882136
 30
0.0
 10
18.73653030256003
 20
19.30854728481689
 30
0.0
 10
18.75524682275284
 20
19.3088304593239
 30
0.0
 10
18.79311828742559
 20
19.30985191138013
 30
0.0
 10
18.81233849924709
 20
19.31058987548078
 30
0.0
 10
18.83185856449673
 20
19.31158115644765
 30
0.0
  0
ARC
  5
1CA
330
1F
100
AcDbEntity
  8
0
  6
SLD-Solid
 62
     7
370
    25
100
AcDbCircle
 10
-9.8820279289
 20
17.6262309578
 30
0.0
 40
28.76330444933994
100
AcDbArc
 50
2.891789288
 51
3.3590992011
  0
LINE
  5
1CB
330
1F
100
AcDbEntity
  8
0
  6
SLD-Solid
 62
     7
370
    25
100
AcDbLine
 10
22.0480254706
 20
18.8082331751
 30
0.0
 11
22.0480254706
 21
19.2440402931
 31
0.0
  0
LINE
  5
1CC
330
1F
100
AcDbEntity
  8
0
  6
SLD-Solid
 62
     7
370
    25
100
AcDbLine
 10
18.8446492451
 20
18.8082331751
 30
0.0
 11
22.0480254706
 21
18.8082331751
 31
0.0
  0
LINE
  5
1CD
330
1F
100
AcDbEntity
  8
0
  6
SLD-Solid
 62
     7
370
    25
100
AcDbLine
 10
21.8067534753
 20
18.7982331751
 30
0.0
 11
22.0480254706
 21
18.7982331751
 31
0.0
  0
LINE
  5
1CE
330
1F
100
AcDbEntity
  8
0
  6
SLD-Solid
 62
     7
370
    25
100
AcDbLine
 10
21.8067534753
 20
13.8082331751
 30
0.0
 11
22.0480254706
 21
13.8082331751
 31
0.0
  0
LINE
  5
1CF
330
1F
100
AcDbEntity
  8
0
  6
SLD-Solid
 62
     7
370
    25
100
AcDbLine
 10
21.8067534753
 20
13.8082331751
 30
0.0
 11
21.8067534753
 21
18.7982331751
 31
0.0
  0
LINE
  5
1D0
330
1F
100
AcDbEntity
  8
0
  6
SLD-Solid
 62
     7
370
    25
100
AcDbLine
 10
22.0480254706
 20
13.8082331751
 30
0.0
 11
22.0480254706
 21
18.7982331751
 31
0.0
  0
LINE
  5
1D1
330
1F
100
AcDbEntity
  8
0
  6
SLD-Solid
 62
     7
370
    25
100
AcDbLine
 10
18.9740043985
 20
13.8082331751
 30
0.0
 11
21.7980254706
 21
13.8082331751
 31
0.0
  0
LINE
  5
1D2
330
1F
100
AcDbEntity
  8
0
  6
SLD-Solid
 62
     7
370
    25
100
AcDbLine
 10
18.8449081962
 20
18.7982331751
 30
0.0
 11
21.7980254706
 21
18.7982331751
 31
0.0
  0
SPLINE
  5
1D3
330
1F
100
AcDbEntity
  8
0
  6
SLD-Solid
 62
     7
370
    25
100
AcDbSpline
210
0.0
220
0.0
230
1.0
 70
     8
 71
     3
 72
    14
 73
    10
 74
     0
 42
0.00000001
 43
0.00000001
 40
0.0
 40
0.0
 40
0.0
 40
0.0
 40
0.0311498393920213
 40
0.0311498393920213
 40
0.0311498393920213
 40
0.0622996626907697
 40
0.0622996626907697
 40
0.0622996626907697
 40
0.0817951183540026
 40
0.0817951183540026
 40
0.0817951183540026
 40
0.0817951183540026
 10
18.83185856449673
 20
19.31158115644765
 30
0.0
 10
19.24011371495985
 20
19.33231344170969
 30
0.0
 10
19.64837398792818
 20
19.35294582470507
 30
0.0
 10
20.05663930720111
 20
19.3734800510471
 30
0.0
 10
20.46490441564607
 20
19.39401426678527
 30
0.0
 10
20.87317459469562
 20
19.41445032671965
 30
0.0
 10
21.28144964602614
 20
19.43479241863398
 30
0.0
 10
21.53697303146467
 20
19.44752373830661
 30
0.0
 10
21.79249833053767
 20
19.46021830003525
 30
0.0
 10
22.04802547061578
 20
19.47287760931205
 30
0.0
  0
SPLINE
  5
1D4
330
1F
100
AcDbEntity
  8
0
  6
SLD-Solid
 62
     7
370
    25
100
AcDbSpline
210
0.0
220
0.0
230
1.0
 70
    24
 71
     3
 72
    20
 73
    16
 74
     0
 42
0.00000001
 43
0.00000001
 40
0.0
 40
0.0
 40
0.0
 40
0.0
 40
0.2500000000000026
 40
0.2500000000000026
 40
0.3750000000000022
 40
0.3750000000000022
 40
0.5000000000000018
 40
0.5000000000000018
 40
0.6250000000000014
 40
0.6250000000000014
 40
0.7500000000000009
 40
0.7500000000000009
 40
0.8750000000000004
 40
0.8750000000000004
 40
1.0
 40
1.0
 40
1.0
 40
1.0
 10
22.04802547061578
 20
19.47287760931205
 30
0.0
 10
22.04802547061578
 20
19.46606366492066
 30
0.0
 10
22.04802547061578
 20
19.45546359538966
 30
0.0
 10
22.04802547061578
 20
19.43395170452117
 30
0.0
 10
22.04802547061578
 20
19.42591025971021
 30
0.0
 10
22.04802547061578
 20
19.40845020990411
 30
0.0
 10
22.04802547061578
 20
19.39898821685713
 30
0.0
 10
22.04802547061578
 20
19.37857020448092
 30
0.0
 10
22.04802547061578
 20
19.36762603420848
 30
0.0
 10
22.04802547061578
 20
19.34499732666139
 30
0.0
 10
22.04802547061578
 20
19.33322427910639
 30
0.0
 10
22.04802547061578
 20
19.30875182691434
 30
0.0
 10
22.04802547061578
 20
19.29599429230067
 30
0.0
 10
22.04802547061578
 20
19.27028856000791
 30
0.0
 10
22.04802547061578
 20
19.25725611975568
 30
0.0
 10
22.04802547061578
 20
19.24404029314197
 30
0.0
  0
SPLINE
  5
1D5
330
1F
100
AcDbEntity
  8
0
  6
SLD-Solid
 62
     7
370
    25
100
AcDbSpline
210
0.0
220
0.0
230
1.0
 70
    24
 71
     3
 72
    22
 73
    18
 74
     0
 42
0.00000001
 43
0.00000001
 40
0.0
 40
0.0
 40
0.0
 40
0.0
 40
0.1250000000000002
 40
0.1250000000000002
 40
0.2500000000000002
 40
0.2500000000000002
 40
0.3750000000000001
 40
0.3750000000000001
 40
0.5000000000000001
 40
0.5000000000000001
 40
0.6250000000000001
 40
0.6250000000000001
 40
0.75
 40
0.75
 40
0.875
 40
0.875
 40
1.0
 40
1.0
 40
1.0
 40
1.0
 10
18.97426285961415
 20
13.79823317512972
 30
0.0
 10
18.94005276864485
 20
13.79823317512972
 30
0.0
 10
18.90633690116293
 20
13.79823317512973
 30
0.0
 10
18.83985235005364
 20
13.79823317512972
 30
0.0
 10
18.80706805213542
 20
13.79823317512973
 30
0.0
 10
18.74255191617646
 20
13.79823317512973
 30
0.0
 10
18.71172076580184
 20
13.79823317512972
 30
0.0
 10
18.65279503630489
 20
13.79823317512973
 30
0.0
 10
18.6246750289847
 20
13.79823317512973
 30
0.0
 10
18.57139902987476
 20
13.79823317512973
 30
0.0
 10
18.54695929878274
 20
13.79823317512973
 30
0.0
 10
18.50229835880774
 20
13.79823317512973
 30
0.0
 10
18.48205087524733
 20
13.79823317512973
 30
0.0
 10
18.44607604780518
 20
13.79823317512973
 30
0.0
 10
18.43081344145419
 20
13.79823317512973
 30
0.0
 10
18.40551272484814
 20
13.79823317512973
 30
0.0
 10
18.39547453511029
 20
13.79823317512973
 30
0.0
 10
18.38816676225309
 20
13.79823317512973
 30
0.0
  0
SPLINE
  5
1D6
330
1F
100
AcDbEntity
  8
0
  6
SLD-Solid
 62
     7
370
    25
100
AcDbSpline
210
0.0
220
0.0
230
1.0
 70
    24
 71
     3
 72
    22
 73
    18
 74
     0
 42
0.00000001
 43
0.00000001
 40
0.0
 40
0.0
 40
0.0
 40
0.0
 40
0.125
 40
0.125
 40
0.25
 40
0.25
 40
0.375
 40
0.375
 40
0.5
 40
0.5
 40
0.625
 40
0.625
 40
0.75
 40
0.75
 40
0.875
 40
0.875
 40
1.0
 40
1.0
 40
1.0
 40
1.0
 10
19.01304182915412
 20
12.24823317512972
 30
0.0
 10
18.98172721115397
 20
12.24823317512972
 30
0.0
 10
18.95086435232958
 20
12.24823317512972
 30
0.0
 10
18.89000443448048
 20
12.24823317512972
 30
0.0
 10
18.85999787476478
 20
12.24823317512972
 30
0.0
 10
18.80092727618471
 20
12.24823317512972
 30
0.0
 10
18.77269660784234
 20
12.24823317512972
 30
0.0
 10
18.71873669023728
 20
12.24823317512972
 30
0.0
 10
18.69299190752485
 20
12.24823317512972
 30
0.0
 10
18.64417892123254
 20
12.24823317512972
 30
0.0
 10
18.62178278619214
 20
12.24823317512972
 30
0.0
 10
18.58084650180953
 20
12.24823317512972
 30
0.0
 10
18.5622900358993
 20
12.24823317512972
 30
0.0
 10
18.52927410101318
 20
12.24823317512972
 30
0.0
 10
18.51525730642628
 20
12.24823317512972
 30
0.0
 10
18.49199898527652
 20
12.24823317512972
 30
0.0
 10
18.48275741228851
 20
12.24823317512972
 30
0.0
 10
18.47601029689757
 20
12.24823317512972
 30
0.0
  0
LINE
  5
1D7
330
1F
100
AcDbEntity
  8
0
  6
SLD-Solid
 62
     7
370
    25
100
AcDbLine
 10
21.8067534753
 20
13.7982331751
 30
0.0
 11
22.0480254706
 21
13.7982331751
 31
0.0
  0
LINE
  5
1D8
330
1F
100
AcDbEntity
  8
0
  6
SLD-Solid
 62
     7
370
    25
100
AcDbLine
 10
21.8067534753
 20
13.0482331751
 30
0.0
 11
22.0480254706
 21
13.0482331751
 31
0.0
  0
LINE
  5
1D9
330
1F
100
AcDbEntity
  8
0
  6
SLD-Solid
 62
     7
370
    25
100
AcDbLine
 10
21.8067534753
 20
13.0482331751
 30
0.0
 11
21.8067534753
 21
13.7982331751
 31
0.0
  0
LINE
  5
1DA
330
1F
100
AcDbEntity
  8
0
  6
SLD-Solid
 62
     7
370
    25
100
AcDbLine
 10
22.0480254706
 20
13.0482331751
 30
0.0
 11
22.0480254706
 21
13.7982331751
 31
0.0
  0
LINE
  5
1DB
330
1F
100
AcDbEntity
  8
0
  6
SLD-Solid
 62
     7
370
    25
100
AcDbLine
 10
21.7980254706
 20
12.2973999575
 30
0.0
 11
21.7980254706
 21
13.7982331751
 31
0.0
  0
LINE
  5
1DC
330
1F
100
AcDbEntity
  8
0
  6
SLD-Solid
 62
     7
370
    25
100
AcDbLine
 10
18.9742628596
 20
13.7982331751
 30
0.0
 11
21.7980254706
 21
13.7982331751
 31
0.0
  0
LINE
  5
1DD
330
1F
100
AcDbEntity
  8
0
  6
SLD-Solid
 62
     7
370
    25
100
AcDbLine
 10
21.7980254706
 20
12.2482331751
 30
0.0
 11
19.0130418292
 21
12.2482331751
 31
0.0
  0
LINE
  5
1DE
330
1F
100
AcDbEntity
  8
0
  6
SLD-Solid
 62
     7
370
    25
100
AcDbLine
 10
21.7980254706
 20
12.2973999575
 30
0.0
 11
21.7980254706
 21
12.2482331751
 31
0.0
  0
SPLINE
  5
1DF
330
1F
100
AcDbEntity
  8
0
  6
SLD-Solid
 62
     7
370
    25
100
AcDbSpline
210
0.0
220
0.0
230
1.0
 70
     8
 71
     3
 72
    14
 73
    10
 74
     0
 42
0.00000001
 43
0.00000001
 40
0.0
 40
0.0
 40
0.0
 40
0.0
 40
0.2500000000000001
 40
0.2500000000000001
 40
0.5000000000000001
 40
0.5000000000000001
 40
0.7500000000000002
 40
0.7500000000000002
 40
1.0
 40
1.0
 40
1.0
 40
1.0
 10
18.3191935807255
 20
19.40319207835719
 30
0.0
 10
18.31919370975181
 20
19.40319208995039
 30
0.0
 10
18.32304568322506
 20
19.40167522773942
 30
0.0
 10
18.33836023813555
 20
19.39556249657416
 30
0.0
 10
18.34981816886932
 20
19.39096828198211
 30
0.0
 10
18.38029701205255
 20
19.37849764608403
 30
0.0
 10
18.39934449779783
 20
19.37061983928199
 30
0.0
 10
18.44479395074847
 20
19.35129866677979
 30
0.0
 10
18.471207840743
 20
19.33985227988869
 30
0.0
 10
18.50126178375036
 20
19.32639524576847
 30
0.0
  0
LINE
  5
1E0
330
1F
100
AcDbEntity
  8
0
  6
SLD-Solid
 62
     7
370
    25
100
AcDbLine
 10
18.3191935807
 20
19.4031920784
 30
0.0
 11
22.0480254706
 21
19.7382331751
 31
0.0
  0
SPLINE
  5
1E1
330
1F
100
AcDbEntity
  8
0
  6
SLD-Solid
 62
     7
370
    25
100
AcDbSpline
210
0.0
220
0.0
230
1.0
 70
    24
 71
     3
 72
    10
 73
     6
 74
     0
 42
0.00000001
 43
0.00000001
 40
0.0
 40
0.0
 40
0.0
 40
0.0
 40
0.5
 40
0.5
 40
0.8767825437552328
 40
0.8767825437552328
 40
0.8767825437552328
 40
0.8767825437552328
 10
22.04802547061578
 20
19.73823317512972
 30
0.0
 10
22.04802547061578
 20
19.73823317512973
 30
0.0
 10
22.04802547061578
 20
19.70937958882546
 30
0.0
 10
22.04802547061578
 20
19.60818630564021
 30
0.0
 10
22.04802547061578
 20
19.54831935391014
 30
0.0
 10
22.04802547061578
 20
19.47287760930372
 30
0.0
  0
LINE
  5
1E2
330
1F
100
AcDbEntity
  8
0
  6
SLD-Solid
 62
     7
370
    25
100
AcDbLine
 10
19.1107586739
 20
13.8082331751
 30
0.0
 11
19.1107586739
 21
13.7982331751
 31
0.0
  0
LINE
  5
1E3
330
1F
100
AcDbEntity
  8
0
  6
SLD-Solid
 62
     7
370
    25
100
AcDbLine
 10
19.1107586739
 20
18.8082331751
 30
0.0
 11
19.1107586739
 21
18.7982331751
 31
0.0
  0
LINE
  5
1E4
330
1F
100
AcDbEntity
  8
0
  6
SLD-Solid
 62
     7
370
    25
100
AcDbLine
 10
21.8067534753
 20
13.0482331751
 30
0.0
 11
21.7980254706
 21
13.0482331751
 31
0.0
  0
LINE
  5
1E5
330
1F
100
AcDbEntity
  8
0
  6
SLD-Solid
 62
     7
370
    25
100
AcDbLine
 10
22.0480254706
 20
18.7982331751
 30
0.0
 11
22.0480254706
 21
18.8082331751
 31
0.0
  0
LINE
  5
1E6
330
1F
100
AcDbEntity
  8
0
  6
SLD-Solid
 62
     7
370
    25
100
AcDbLine
 10
22.0480254706
 20
13.7982331751
 30
0.0
 11
22.0480254706
 21
13.8082331751
 31
0.0
  0
LINE
  5
1E7
330
1F
100
AcDbEntity
  8
0
  6
SLD-Solid
 62
     7
370
    25
100
AcDbLine
 10
18.48998037
 20
13.8082331751
 30
0.0
 11
18.48998037
 21
13.7982331751
 31
0.0
  0
LINE
  5
1E8
330
1F
100
AcDbEntity
  8
0
  6
SLD-Solid
 62
     7
370
    25
100
AcDbLine
 10
18.48998037
 20
18.8082331751
 30
0.0
 11
18.48998037
 21
18.7982331751
 31
0.0
  0
ARC
  5
1E9
330
1F
100
AcDbEntity
  8
0
  6
SLD-Solid
 62
     7
370
    25
100
AcDbCircle
 10
18.3415663236
 20
19.15419517
 30
0.0
 40
0.2500000000001011
100
AcDbArc
 50
95.1343237501
 51
177.0
  0
LINE
  5
1EA
330
1F
100
AcDbEntity
  8
0
  6
SLD-Solid
 62
     7
370
    25
100
AcDbLine
 10
18.0730921373
 20
18.8082331751
 30
0.0
 11
18.09190894
 21
19.1672791591
 31
0.0
  0
SPLINE
  5
1EB
330
1F
100
AcDbEntity
  8
0
  6
SLD-Solid
 62
     7
370
    25
100
AcDbSpline
210
0.0
220
0.0
230
1.0
 70
    24
 71
     3
 72
    13
 73
     9
 74
     0
 42
0.00000001
 43
0.00000001
 40
0.0000000951352746
 40
0.0000000951352746
 40
0.0000000951352746
 40
0.0000000951352746
 40
0.0000001903670129
 40
0.0000001903670129
 40
0.0000001903670129
 40
0.0225007147131333
 40
0.0225007147131333
 40
0.0450012390592536
 40
0.0450012390592536
 40
0.0450012390592536
 40
0.0450012390592536
 10
18.07309213728248
 20
18.80823317513033
 30
0.0
 10
18.07309213728359
 20
18.80823317513033
 30
0.0
 10
18.0730921372847
 20
18.80823317513033
 30
0.0
 10
18.07309213728581
 20
18.80823317513033
 30
0.0
 10
18.07309239989038
 20
18.80823317513033
 30
0.0
 10
18.08858611930726
 20
18.80823317512214
 30
0.0
 10
18.15020923259883
 20
18.80823317513853
 30
0.0
 10
18.19646937988629
 20
18.80823317513033
 30
0.0
 10
18.25778286897243
 20
18.80823317513033
 30
0.0
  0
LINE
  5
1EC
330
1F
100
AcDbEntity
  8
0
  6
SLD-Solid
 62
     7
370
    25
100
AcDbLine
 10
18.2064254706
 20
13.8082331751
 30
0.0
 11
18.0733588039
 21
18.7982331751
 31
0.0
  0
SPLINE
  5
1ED
330
1F
100
AcDbEntity
  8
0
  6
SLD-Solid
 62
     7
370
    25
100
AcDbSpline
210
0.0
220
0.0
230
1.0
 70
    24
 71
     3
 72
    10
 73
     6
 74
     0
 42
0.00000001
 43
0.00000001
 40
0.0000034534657517
 40
0.0000034534657517
 40
0.0000034534657517
 40
0.0000034534657517
 40
0.5
 40
0.5
 40
0.7764347614317461
 40
0.7764347614317461
 40
0.7764347614317461
 40
0.7764347614317461
 10
18.20642547061938
 20
13.80823317512972
 30
0.0
 10
18.20642581762943
 20
13.80823317512972
 30
0.0
 10
18.23154641191923
 20
13.80823317512972
 30
0.0
 10
18.30956407544819
 20
13.80823317512972
 30
0.0
 10
18.34501795812843
 20
13.80823317512972
 30
0.0
 10
18.38790669949011
 20
13.80823317512972
 30
0.0
  0
SPLINE
  5
1EE
330
1F
100
AcDbEntity
  8
0
  6
SLD-Solid
 62
     7
370
    25
100
AcDbSpline
210
0.0
220
0.0
230
1.0
 70
    24
 71
     3
 72
    10
 73
     6
 74
     0
 42
0.00000001
 43
0.00000001
 40
0.0000033266706476
 40
0.0000033266706476
 40
0.0000033266706476
 40
0.0000033266706476
 40
0.5
 40
0.5
 40
0.783383781443017
 40
0.783383781443017
 40
0.783383781443017
 40
0.783383781443017
 10
18.07335880395245
 20
18.79823317512972
 30
0.0
 10
18.07335913810507
 20
18.79823317512972
 30
0.0
 10
18.09847094529475
 20
18.79823317512972
 30
0.0
 10
18.17715934104385
 20
18.79823317512972
 30
0.0
 10
18.2136897274181
 20
18.79823317512972
 30
0.0
 10
18.25804329546967
 20
18.79823317512972
 30
0.0
  0
LINE
  5
1EF
330
1F
100
AcDbEntity
  8
0
  6
SLD-Solid
 62
     7
370
    25
100
AcDbLine
 10
18.2467276802
 20
12.2969003156
 30
0.0
 11
18.2429588039
 21
12.4382331751
 31
0.0
  0
SPLINE
  5
1F0
330
1F
100
AcDbEntity
  8
0
  6
SLD-Solid
 62
     7
370
    25
100
AcDbSpline
210
0.0
220
0.0
230
1.0
 70
    24
 71
     3
 72
    10
 73
     6
 74
     0
 42
0.00000001
 43
0.00000001
 40
0.0000034882772332
 40
0.0000034882772332
 40
0.0000034882772332
 40
0.0000034882772332
 40
0.5
 40
0.5
 40
0.6769956787871737
 40
0.6769956787871737
 40
0.6769956787871737
 40
0.6769956787871737
 10
18.24295880395278
 20
12.43823317512972
 30
0.0
 10
18.24295915449439
 20
12.43823317512972
 30
0.0
 10
18.2680821612746
 20
12.43823317512972
 30
0.0
 10
18.33611447884724
 20
12.43823317512972
 30
0.0
 10
18.35704869047043
 20
12.43823317512972
 30
0.0
 10
18.38106562359204
 20
12.43823317512972
 30
0.0
  0
SPLINE
  5
1F1
330
1F
100
AcDbEntity
  8
0
  6
SLD-Solid
 62
     7
370
    25
100
AcDbSpline
210
0.0
220
0.0
230
1.0
 70
     8
 71
     3
 72
    20
 73
    16
 74
     0
 42
0.00000001
 43
0.00000001
 40
0.0
 40
0.0
 40
0.0
 40
0.0
 40
0.1250000000000003
 40
0.1250000000000003
 40
0.2500000000000007
 40
0.2500000000000007
 40
0.375000000000001
 40
0.375000000000001
 40
0.5000000000000013
 40
0.5000000000000013
 40
0.6250000000000017
 40
0.6250000000000017
 40
0.750000000000002
 40
0.750000000000002
 40
1.0
 40
1.0
 40
1.0
 40
1.0
 10
18.38106562359204
 20
12.43823317512972
 30
0.0
 10
18.38232081169737
 20
12.43823317512972
 30
0.0
 10
18.38354652128855
 20
12.43886779280588
 30
0.0
 10
18.38594007952522
 20
12.44135885018569
 30
0.0
 10
18.38711935153556
 20
12.44324288870856
 30
0.0
 10
18.38935364539065
 20
12.44818798887555
 30
0.0
 10
18.39040242079192
 20
12.45121826061872
 30
0.0
 10
18.39235978580203
 20
12.45838849955694
 30
0.0
 10
18.393274548585
 20
12.46257879474283
 30
0.0
 10
18.39487847439026
 20
12.47176662164158
 30
0.0
 10
18.39557725705011
 20
12.47678490437801
 30
0.0
 10
18.39675839065749
 20
12.48769130844356
 30
0.0
 10
18.39723405299871
 20
12.49355579008607
 30
0.0
 10
18.3982594555406
 20
12.51169064367826
 30
0.0
 10
18.39842995271217
 20
12.52492063839947
 30
0.0
 10
18.39804204668992
 20
12.53823317512973
 30
0.0
  0
LINE
  5
1F2
330
1F
100
AcDbEntity
  8
0
  6
SLD-Solid
 62
     7
370
    25
100
AcDbLine
 10
18.3776594885
 20
13.2382331751
 30
0.0
 11
18.3980420467
 21
12.5382331751
 31
0.0
  0
SPLINE
  5
1F3
330
1F
100
AcDbEntity
  8
0
  6
SLD-Solid
 62
     7
370
    25
100
AcDbSpline
210
0.0
220
0.0
230
1.0
 70
     8
 71
     3
 72
    20
 73
    16
 74
     0
 42
0.00000001
 43
0.00000001
 40
0.0
 40
0.0
 40
0.0
 40
0.0
 40
0.1249999999999999
 40
0.1249999999999999
 40
0.2499999999999999
 40
0.2499999999999999
 40
0.3749999999999998
 40
0.3749999999999998
 40
0.4999999999999998
 40
0.4999999999999998
 40
0.6249999999999998
 40
0.6249999999999998
 40
0.7499999999999997
 40
0.7499999999999997
 40
1.0
 40
1.0
 40
1.0
 40
1.0
 10
18.35514183902744
 20
13.33823317512973
 30
0.0
 10
18.35638415225465
 20
13.33823317512973
 30
0.0
 10
18.357632367079
 20
13.33759359789746
 30
0.0
 10
18.36013940325667
 20
13.33509109629987
 30
0.0
 10
18.36141084228456
 20
13.33320095669248
 30
0.0
 10
18.36389803915543
 20
13.32824648039273
 30
0.0
 10
18.36510547300965
 20
13.32521346188582
 30
0.0
 10
18.36744491664394
 20
13.31804663198108
 30
0.0
 10
18.36858602712606
 20
13.31386263955376
 30
0.0
 10
18.37069409790401
 20
13.30468952584802
 30
0.0
 10
18.37167118279604
 20
13.29968144209129
 30
0.0
 10
18.3734630054876
 20
13.28880255517735
 30
0.0
 10
18.37427162081781
 20
13.28294313596082
 30
0.0
 10
18.37633297090356
 20
13.26482499345537
 30
0.0
 10
18.37727080904801
 20
13.2515909431824
 30
0.0
 10
18.3776594885009
 20
13.23823317512973
 30
0.0
  0
SPLINE
  5
1F4
330
1F
100
AcDbEntity
  8
0
  6
SLD-Solid
 62
     7
370
    25
100
AcDbSpline
210
0.0
220
0.0
230
1.0
 70
    24
 71
     3
 72
    10
 73
     6
 74
     0
 42
0.00000001
 43
0.00000001
 40
0.0000034654083768
 40
0.0000034654083768
 40
0.0000034654083768
 40
0.0000034654083768
 40
0.5
 40
0.5
 40
0.6722727821560718
 40
0.6722727821560718
 40
0.6722727821560718
 40
0.6722727821560718
 10
18.21895880395273
 20
13.33823317512973
 30
0.0
 10
18.21895915217426
 20
13.33823317512973
 30
0.0
 10
18.24408057410676
 20
13.33823317512972
 30
0.0
 10
18.31163401874316
 20
13.33823317512972
 30
0.0
 10
18.33192661491251
 20
13.33823317512972
 30
0.0
 10
18.35514183902744
 20
13.33823317512972
 30
0.0
  0
LINE
  5
1F5
330
1F
100
AcDbEntity
  8
0
  6
SLD-Solid
 62
     7
370
    25
100
AcDbLine
 10
18.2189588039
 20
13.3382331751
 30
0.0
 11
18.2066921373
 21
13.7982331751
 31
0.0
  0
SPLINE
  5
1F6
330
1F
100
AcDbEntity
  8
0
  6
SLD-Solid
 62
     7
370
    25
100
AcDbSpline
210
0.0
220
0.0
230
1.0
 70
    24
 71
     3
 72
    10
 73
     6
 74
     0
 42
0.00000001
 43
0.00000001
 40
0.0000034537198501
 40
0.0000034537198501
 40
0.0000034537198501
 40
0.0000034537198501
 40
0.5
 40
0.5
 40
0.7764203772301096
 40
0.7764203772301096
 40
0.7764203772301096
 40
0.7764203772301096
 10
18.20669213728604
 20
13.79823317512973
 30
0.0
 10
18.20669248432187
 20
13.79823317512973
 30
0.0
 10
18.23181309622109
 20
13.79823317512973
 30
0.0
 10
18.30982936905475
 20
13.79823317512972
 30
0.0
 10
18.34528103190293
 20
13.79823317512973
 30
0.0
 10
18.38816676225309
 20
13.79823317512973
 30
0.0
  0
ARC
  5
1F7
330
1F
100
AcDbEntity
  8
0
  6
SLD-Solid
 62
     7
370
    25
100
AcDbCircle
 10
18.2967099119
 20
12.2982331751
 30
0.0
 40
0.0500000000000007
100
AcDbArc
 50
181.5275254423
 51
270.0
  0
SPLINE
  5
1F8
330
1F
100
AcDbEntity
  8
0
  6
SLD-Solid
 62
     7
370
    25
100
AcDbSpline
210
0.0
220
0.0
230
1.0
 70
    24
 71
     3
 72
    14
 73
    10
 74
     0
 42
0.00000001
 43
0.00000001
 40
0.0
 40
0.0
 40
0.0
 40
0.0
 40
0.25
 40
0.25
 40
0.5
 40
0.5
 40
0.75
 40
0.75
 40
1.0
 40
1.0
 40
1.0
 40
1.0
 10
18.47601029689757
 20
12.24823317512972
 30
0.0
 10
18.44623727993074
 20
12.24823317512972
 30
0.0
 10
18.42014529901257
 20
12.24823317512972
 30
0.0
 10
18.37533527189522
 20
12.24823317512972
 30
0.0
 10
18.35663163906416
 20
12.24823317512972
 30
0.0
 10
18.32671840947539
 20
12.24823317512972
 30
0.0
 10
18.31547944627885
 20
12.24823317512972
 30
0.0
 10
18.30047587593613
 20
12.24823317512972
 30
0.0
 10
18.29670991190085
 20
12.24823317512972
 30
0.0
 10
18.29670991190085
 20
12.24823317512972
 30
0.0
  0
LINE
  5
1F9
330
1F
100
AcDbEntity
  8
0
  6
SLD-Solid
 62
     7
370
    25
100
AcDbLine
 10
17.9724107035
 20
13.2682331751
 30
0.0
 11
17.9724107035
 21
12.5082331751
 31
0.0
  0
LINE
  5
1FA
330
1F
100
AcDbEntity
  8
0
  6
SLD-Solid
 62
     7
370
    25
100
AcDbLine
 10
17.9724107035
 20
12.4582331751
 30
0.0
 11
18.3920082713
 21
12.4582331751
 31
0.0
  0
LINE
  5
1FB
330
1F
100
AcDbEntity
  8
0
  6
SLD-Solid
 62
     7
370
    25
100
AcDbLine
 10
17.9724107035
 20
12.5082331751
 30
0.0
 11
17.9724107035
 21
12.4582331751
 31
0.0
  0
LINE
  5
1FC
330
1F
100
AcDbEntity
  8
0
  6
SLD-Solid
 62
     7
370
    25
100
AcDbLine
 10
17.9724107035
 20
13.3182331751
 30
0.0
 11
17.9724107035
 21
13.2682331751
 31
0.0
  0
LINE
  5
1FD
330
1F
100
AcDbEntity
  8
0
  6
SLD-Solid
 62
     7
370
    25
100
AcDbLine
 10
17.9724107035
 20
13.3182331751
 30
0.0
 11
18.3670704177
 21
13.3182331751
 31
0.0
  0
LINE
  5
1FE
330
1F
100
AcDbEntity
  8
0
  6
SLD-Solid
 62
     7
370
    25
100
AcDbLine
 10
17.8355634247
 20
13.3182331751
 30
0.0
 11
17.9724107035
 21
13.3182331751
 31
0.0
  0
LINE
  5
1FF
330
1F
100
AcDbEntity
  8
0
  6
SLD-Solid
 62
     7
370
    25
100
AcDbLine
 10
17.9724107035
 20
12.4582331751
 30
0.0
 11
17.8355634247
 21
12.4582331751
 31
0.0
  0
LINE
  5
200
330
1F
100
AcDbEntity
  8
0
  6
SLD-Solid
 62
     7
370
    25
100
AcDbLine
 10
19.3530254706
 20
12.1682331751
 30
0.0
 11
19.1430254706
 21
12.1682331751
 31
0.0
  0
DIMENSION
  5
201
330
1F
100
AcDbEntity
  8
DIMS
100
AcDbDimension
  2
_D_2
 10
22.9145467241
 20
12.2482331751
 30
0.0
 11
22.9145467241
 21
16.0274174924
 31
0.0
 70
   160
  1
<>
 71
     2
 42
-1.0
  3
SLDDIMSTYLE1
100
AcDbAlignedDimension
 13
22.0480254706
 23
19.7382331751
 33
0.0
 14
21.7980254706
 24
12.2482331751
 34
0.0
 50
90.0
100
AcDbRotatedDimension
  0
MTEXT
  5
210
330
1F
100
AcDbEntity
  8
NOTES
100
AcDbMText
 10
18.5986159467
 20
11.806439849
 30
0.0
 40
0.5
 41
0.0
 71
     1
 72
     1
  1
Side view
  7
SLDTEXTSTYLE1
 73
     1
 44
1.0
  0
SPLINE
  5
211
330
1F
100
AcDbEntity
  8
0
  6
SLD-Solid
 62
     7
370
    25
100
AcDbSpline
210
0.0
220
0.0
230
1.0
 70
     8
 71
     3
 72
    17
 73
    13
 74
     0
 42
0.00000001
 43
0.00000001
 40
0.0
 40
0.0
 40
0.0
 40
0.0
 40
0.0361232091779481
 40
0.0784576089453135
 40
0.2188973275117038
 40
0.3449902692182816
 40
0.4654737641604664
 40
0.5826231767811129
 40
0.6958870842579972
 40
0.8055298668572236
 40
0.9134533355976113
 40
1.0
 40
1.0
 40
1.0
 40
1.0
 10
37.48175279782176
 20
21.14379943465455
 30
0.0
 10
37.47761583395622
 20
21.14114397277321
 30
0.0
 10
37.46863057764681
 20
21.13537645669155
 30
0.0
 10
37.44394998327665
 20
21.11827513959889
 30
0.0
 10
37.41115162564156
 20
21.09240348288356
 30
0.0
 10
37.37391941527339
 20
21.05621727557327
 30
0.0
 10
37.34273177502897
 20
21.01868725084045
 30
0.0
 10
37.31698462568551
 20
20.97951758899389
 30
0.0
 10
37.29642923604791
 20
20.9388741526156
 30
0.0
 10
37.28132804680623
 20
20.89704203526185
 30
0.0
 10
37.27146606171069
 20
20.85689955770902
 30
0.0
 10
37.26952640911169
 20
20.83064512166777
 30
0.0
 10
37.26866318934714
 20
20.81896089114653
 30
0.0
  0
LINE
  5
212
330
1F
100
AcDbEntity
  8
0
  6
SLD-Solid
 62
     7
370
    25
100
AcDbLine
 10
37.2679994903
 20
20.8184230549
 30
0.0
 11
37.2539218688
 21
20.5992382582
 31
0.0
  0
LINE
  5
213
330
1F
100
AcDbEntity
  8
0
  6
SLD-Solid
 62
     7
370
    25
100
AcDbLine
 10
37.2539567095
 20
20.5709312687
 30
0.0
 11
37.4040331057
 21
16.5151405409
 31
0.0
  0
LWPOLYLINE
  5
214
330
1F
100
AcDbEntity
  8
0
  6
SLD-Solid
 62
     7
370
    25
100
AcDbPolyline
 90
        3
 70
   128
 43
0.0
 10
39.7592212808
 20
22.5879160629
 10
39.3705086936
 20
22.3414614728
 10
37.4819080095
 20
21.1439113802
  0
SPLINE
  5
215
330
1F
100
AcDbEntity
  8
0
  6
SLD-Solid
 62
     7
370
    25
100
AcDbSpline
210
0.0
220
0.0
230
1.0
 70
     8
 71
     3
 72
    21
 73
    17
 74
     0
 42
0.00000001
 43
0.00000001
 40
0.0
 40
0.0
 40
0.0
 40
0.0
 40
0.0390460215178279
 40
0.1131530623491545
 40
0.187264004234979
 40
0.2613788373079294
 40
0.3354961948842645
 40
0.4096149029711564
 40
0.4837338293974095
 40
0.557852030236049
 40
0.6319688615816883
 40
0.7060838036463646
 40
0.7801964457857953
 40
0.8543064726050588
 40
0.9284136512604647
 40
1.0
 40
1.0
 40
1.0
 40
1.0
 10
37.31260545269138
 20
14.98562177299297
 30
0.0
 10
37.33486551105896
 20
14.96705933595715
 30
0.0
 10
37.39937384441662
 20
14.91326649065264
 30
0.0
 10
37.50990488716715
 20
14.82580801361219
 30
0.0
 10
37.64570441518028
 20
14.72400392137877
 30
0.0
 10
37.78630055574948
 20
14.62442876166053
 30
0.0
 10
37.93150183815768
 20
14.5271208953122
 30
0.0
 10
38.08122173279585
 20
14.43216108186232
 30
0.0
 10
38.23534105739883
 20
14.33961641558659
 30
0.0
 10
38.39374594515567
 20
14.24955559979063
 30
0.0
 10
38.55631556392115
 20
14.16204277253185
 30
0.0
 10
38.72293429389109
 20
14.07714660027711
 30
0.0
 10
38.89345576396768
 20
13.99491008262129
 30
0.0
 10
39.06783455581795
 20
13.91546240098302
 30
0.0
 10
39.2436221246799
 20
13.83947212755586
 30
0.0
 10
39.3629978560315
 20
13.7914273311235
 30
0.0
 10
39.42165298566129
 20
13.76782057511982
 30
0.0
  0
ARC
  5
216
330
1F
100
AcDbEntity
  8
0
  6
SLD-Solid
 62
     7
370
    25
100
AcDbCircle
 10
39.440060159
 20
13.814309025
 30
0.0
 40
0.0500000000000019
100
AcDbArc
 50
248.3988344477
 51
299.9973117337
  0
LINE
  5
217
330
1F
100
AcDbEntity
  8
0
  6
SLD-Solid
 62
     7
370
    25
100
AcDbLine
 10
39.4650581273
 20
13.7710065819
 30
0.0
 11
39.7827334317
 21
13.9543966315
 31
0.0
  0
SPLINE
  5
218
330
1F
100
AcDbEntity
  8
0
  6
SLD-Solid
 62
     7
370
    25
100
AcDbSpline
210
0.0
220
0.0
230
1.0
 70
     8
 71
     3
 72
    21
 73
    17
 74
     0
 42
0.00000001
 43
0.00000001
 40
0.0
 40
0.0
 40
0.0
 40
0.0
 40
0.0210958288133868
 40
0.0974566186372539
 40
0.174496481509566
 40
0.2513787890546998
 40
0.3273828017212254
 40
0.4037361931389411
 40
0.4805931090333664
 40
0.5569021972628292
 40
0.6330621881039127
 40
0.7099836365761022
 40
0.7869102936372181
 40
0.8634862742634933
 40
0.9406817578489836
 40
1.0
 40
1.0
 40
1.0
 40
1.0
 10
39.89437559445335
 20
13.73531965494647
 30
0.0
 10
39.89899743315205
 20
13.73348615063704
 30
0.0
 10
39.92034898920828
 20
13.72501589180842
 30
0.0
 10
39.96170749224329
 20
13.71310367990871
 30
0.0
 10
40.01777610439785
 20
13.69976106466502
 30
0.0
 10
40.07591969056096
 20
13.69012336905642
 30
0.0
 10
40.13516761630396
 20
13.68405841322263
 30
0.0
 10
40.19513133242695
 20
13.68154531698062
 30
0.0
 10
40.25530073885091
 20
13.68257821364788
 30
0.0
 10
40.31492904896354
 20
13.68728252978333
 30
0.0
 10
40.37348181630177
 20
13.69552960418983
 30
0.0
 10
40.43054332384607
 20
13.70723044366102
 30
0.0
 10
40.48549263153813
 20
13.72238282965838
 30
0.0
 10
40.53753020769932
 20
13.74096665334368
 30
0.0
 10
40.58306040223714
 20
13.76064654246674
 30
0.0
 10
40.60930281612437
 20
13.77553867235918
 30
0.0
 10
40.62070572710047
 20
13.78200963315332
 30
0.0
  0
SPLINE
  5
219
330
1F
100
AcDbEntity
  8
0
  6
SLD-Solid
 62
     7
370
    25
100
AcDbSpline
210
0.0
220
0.0
230
1.0
 70
     8
 71
     3
 72
    10
 73
     6
 74
     0
 42
0.00000001
 43
0.00000001
 40
0.0
 40
0.0
 40
0.0
 40
0.0
 40
0.3762784535600521
 40
0.9855969296584167
 40
1.0
 40
1.0
 40
1.0
 40
1.0
 10
39.60057382914253
 20
13.84923813131128
 30
0.0
 10
39.63686155117104
 20
13.834463516829
 30
0.0
 10
39.73191102072531
 20
13.79576394598497
 30
0.0
 10
39.83010795004721
 20
13.75794086245138
 30
0.0
 10
39.8926488054285
 20
13.73554482740943
 30
0.0
 10
39.89409300812508
 20
13.73502765485074
 30
0.0
  0
LINE
  5
21A
330
1F
100
AcDbEntity
  8
0
  6
SLD-Solid
 62
     7
370
    25
100
AcDbLine
 10
40.6210975545
 20
13.7817453477
 30
0.0
 11
42.5903783729
 21
14.9185869658
 31
0.0
  0
ARC
  5
21B
330
1F
100
AcDbEntity
  8
0
  6
SLD-Solid
 62
     7
370
    25
100
AcDbCircle
 10
37.3448025291
 20
15.6444465254
 30
0.0
 40
0.050000000000001
100
AcDbArc
 50
119.9973117336
 51
180.0
  0
LINE
  5
21C
330
1F
100
AcDbEntity
  8
0
  6
SLD-Solid
 62
     7
370
    25
100
AcDbLine
 10
37.6138246334
 20
15.8574831435
 30
0.0
 11
37.3198045608
 21
15.6877489685
 31
0.0
  0
LINE
  5
21D
330
1F
100
AcDbEntity
  8
0
  6
SLD-Solid
 62
     7
370
    25
100
AcDbLine
 10
37.2948025291
 20
15.6444465254
 30
0.0
 11
37.2948025291
 21
15.0238755083
 31
0.0
  0
LINE
  5
21E
330
1F
100
AcDbEntity
  8
0
  6
SLD-Solid
 62
     7
370
    25
100
AcDbLine
 10
37.404338343
 20
16.5070154076
 30
0.0
 11
37.4322335642
 21
15.7526528507
 31
0.0
  0
ARC
  5
21F
330
1F
100
AcDbEntity
  8
0
  6
SLD-Solid
 62
     7
370
    25
100
AcDbCircle
 10
37.3448025291
 20
15.0238755083
 30
0.0
 40
0.0500000000000003
100
AcDbArc
 50
180.0
 51
229.9136387473
  0
SPLINE
  5
220
330
1F
100
AcDbEntity
  8
0
  6
SLD-Solid
 62
     7
370
    25
100
AcDbSpline
210
0.0
220
0.0
230
1.0
 70
     8
 71
     3
 72
    14
 73
    10
 74
     0
 42
0.00000001
 43
0.00000001
 40
0.0
 40
0.0
 40
0.0
 40
0.0
 40
0.2500000000000001
 40
0.2500000000000001
 40
0.5000000000000001
 40
0.5000000000000001
 40
0.7500000000000002
 40
0.7500000000000002
 40
1.0
 40
1.0
 40
1.0
 40
1.0
 10
38.63764491692483
 20
20.19066517898721
 30
0.0
 10
38.74059750598487
 20
20.1312320291999
 30
0.0
 10
38.84628369635146
 20
20.07212689265297
 30
0.0
 10
39.06250260653876
 20
19.95481800507066
 30
0.0
 10
39.17306515006985
 20
19.89659459115602
 30
0.0
 10
39.39906691366144
 20
19.78082694177775
 30
0.0
 10
39.51449054614532
 20
19.72331226817077
 30
0.0
 10
39.74930491074319
 20
19.60908559705254
 30
0.0
 10
39.86879774837627
 20
19.55232192221584
 30
0.0
 10
39.99033592664605
 20
19.49570749064879
 30
0.0
  0
SPLINE
  5
221
330
1F
100
AcDbEntity
  8
0
  6
SLD-Solid
 62
     7
370
    25
100
AcDbSpline
210
0.0
220
0.0
230
1.0
 70
     8
 71
     3
 72
    10
 73
     6
 74
     0
 42
0.00000001
 43
0.00000001
 40
0.0
 40
0.0
 40
0.0
 40
0.0
 40
0.5
 40
0.5
 40
0.8767825437552328
 40
0.8767825437552328
 40
0.8767825437552328
 40
0.8767825437552328
 10
41.27432618340387
 20
21.98636481486608
 30
0.0
 10
41.54865788580706
 20
21.82799649403321
 30
0.0
 10
41.8245069655956
 20
21.64519207909449
 30
0.0
 10
42.30290464131962
 20
21.28639053379924
 30
0.0
 10
42.50674592464725
 20
21.11983165634766
 30
0.0
 10
42.7069824433058
 20
20.94263631122429
 30
0.0
  0
SPLINE
  5
222
330
1F
100
AcDbEntity
  8
0
  6
SLD-Solid
 62
     7
370
    25
100
AcDbSpline
210
0.0
220
0.0
230
1.0
 70
     8
 71
     3
 72
    14
 73
    10
 74
     0
 42
0.00000001
 43
0.00000001
 40
0.0
 40
0.0
 40
0.0
 40
0.0
 40
0.0311498393920213
 40
0.0311498393920213
 40
0.0311498393920213
 40
0.0622996626907697
 40
0.0622996626907697
 40
0.0622996626907697
 40
0.0817951183540026
 40
0.0817951183540026
 40
0.0817951183540026
 40
0.0817951183540026
 10
40.41768222858818
 20
19.50681130675485
 30
0.0
 10
40.70831319828125
 20
19.68926519277113
 30
0.0
 10
40.9989439153488
 20
19.87164183240191
 30
0.0
 10
41.28956536608541
 20
20.05394779230227
 30
0.0
 10
41.58018666674528
 20
20.23625365805994
 30
0.0
 10
41.87079869860761
 20
20.41848886604353
 30
0.0
 10
42.16139241104676
 20
20.60066189865134
 30
0.0
 10
42.34326364943769
 20
20.71467687428076
 30
0.0
 10
42.52512771780231
 20
20.82866753702353
 30
0.0
 10
42.70698244328368
 20
20.94263631124387
 30
0.0
  0
SPLINE
  5
223
330
1F
100
AcDbEntity
  8
0
  6
SLD-Solid
 62
     7
370
    25
100
AcDbSpline
210
0.0
220
0.0
230
1.0
 70
     8
 71
     3
 72
    24
 73
    20
 74
     0
 42
0.00000001
 43
0.00000001
 40
0.0
 40
0.0
 40
0.0
 40
0.0
 40
0.2499999999999997
 40
0.2499999999999997
 40
0.3124999999999998
 40
0.3124999999999998
 40
0.3750000000000001
 40
0.3750000000000001
 40
0.5000000000000001
 40
0.5000000000000001
 40
0.5624999999999998
 40
0.5624999999999998
 40
0.6249999999999994
 40
0.6249999999999994
 40
0.7499999999999997
 40
0.7499999999999997
 40
0.8749999999999998
 40
0.8749999999999998
 40
1.0
 40
1.0
 40
1.0
 40
1.0
 10
39.99033592664605
 20
19.4957074906488
 30
0.0
 10
40.02294758302335
 20
19.48051645840105
 30
0.0
 10
40.05808940635026
 20
19.46912469500517
 30
0.0
 10
40.10514322997922
 20
19.4595687220189
 30
0.0
 10
40.11471084794936
 20
19.45790148524203
 30
0.0
 10
40.13380400729453
 20
19.45511700109272
 30
0.0
 10
40.14337481165246
 20
19.45398960227027
 30
0.0
 10
40.17215882238197
 20
19.45139065580358
 30
0.0
 10
40.19144315467742
 20
19.45069713199254
 30
0.0
 10
40.22051901007032
 20
19.45129391870144
 30
0.0
 10
40.23020621139352
 20
19.45176733606417
 30
0.0
 10
40.24927327513293
 20
19.45325156491657
 30
0.0
 10
40.25869562597792
 20
19.45426265709009
 30
0.0
 10
40.2866349183625
 20
19.4580928087922
 30
0.0
 10
40.30482544598829
 20
19.46170534716658
 30
0.0
 10
40.34028942753149
 20
19.47118517347314
 30
0.0
 10
40.35716707728955
 20
19.47695345611129
 30
0.0
 10
40.38888268976664
 20
19.49039705100373
 30
0.0
 10
40.40378617488334
 20
19.49808756682653
 30
0.0
 10
40.41768222858818
 20
19.50681130675484
 30
0.0
  0
ARC
  5
224
330
1F
100
AcDbEntity
  8
0
  6
SLD-Solid
 62
     7
370
    25
100
AcDbCircle
 10
40.171206363
 20
19.1770136023
 30
0.0
 40
0.4117242744343749
100
AcDbArc
 50
7.7838267049
 51
53.2272267602
  0
SPLINE
  5
225
330
1F
100
AcDbEntity
  8
0
  6
SLD-Solid
 62
     7
370
    25
100
AcDbSpline
210
0.0
220
0.0
230
1.0
 70
     8
 71
     3
 72
    22
 73
    18
 74
     0
 42
0.00000001
 43
0.00000001
 40
0.0
 40
0.0
 40
0.0
 40
0.0
 40
0.0025816160087245
 40
0.0025816160087245
 40
0.005163232017449
 40
0.005163232017449
 40
0.0077448480261734
 40
0.0077448480261734
 40
0.0103264640348979
 40
0.0103264640348979
 40
0.0129080800436224
 40
0.0129080800436224
 40
0.0154896960523469
 40
0.0154896960523469
 40
0.0180713120610713
 40
0.0180713120610713
 40
0.0206529280697958
 40
0.0206529280697958
 40
0.0206529280697958
 40
0.0206529280697958
 10
40.5891093830968
 20
19.00728676303097
 30
0.0
 10
40.56480917308035
 20
18.99325855040743
 30
0.0
 10
40.53878846370619
 20
18.98062848105313
 30
0.0
 10
40.48345536493824
 20
18.95805119091642
 30
0.0
 10
40.45411108271656
 20
18.94809487390284
 30
0.0
 10
40.39210404819602
 20
18.93102083528101
 30
0.0
 10
40.36028210630045
 20
18.92413095227387
 30
0.0
 10
40.29506735121458
 20
18.91351267361802
 30
0.0
 10
40.26160825585428
 20
18.90978026315129
 30
0.0
 10
40.1933177405078
 20
18.90564220733864
 30
0.0
 10
40.15934478098938
 20
18.9052820079941
 30
0.0
 10
40.09173004319765
 20
18.9078462177306
 30
0.0
 10
40.05799103145321
 20
18.91078422503884
 30
0.0
 10
39.99126600863702
 20
18.92004729010844
 30
0.0
 10
39.95906180995397
 20
18.92625356635608
 30
0.0
 10
39.89687624302324
 20
18.94168809053167
 30
0.0
 10
39.86689359783114
 20
18.95091668947082
 30
0.0
 10
39.83807683773314
 20
18.96172615280096
 30
0.0
  0
LINE
  5
226
330
1F
100
AcDbEntity
  8
0
  6
SLD-Solid
 62
     7
370
    25
100
AcDbLine
 10
40.5791370555
 20
19.2327758506
 30
0.0
 11
40.5891093831
 21
19.007286763
 31
0.0
  0
SPLINE
  5
227
330
1F
100
AcDbEntity
  8
0
  6
SLD-Solid
 62
     7
370
    25
100
AcDbSpline
210
0.0
220
0.0
230
1.0
 70
     8
 71
     3
 72
    24
 73
    20
 74
     0
 42
0.00000001
 43
0.00000001
 40
0.0
 40
0.0
 40
0.0
 40
0.0
 40
0.1250000000000001
 40
0.1250000000000001
 40
0.2500000000000002
 40
0.2500000000000002
 40
0.3750000000000003
 40
0.3750000000000003
 40
0.5000000000000004
 40
0.5000000000000004
 40
0.6250000000000006
 40
0.6250000000000006
 40
0.6875000000000001
 40
0.6875000000000001
 40
0.7499999999999998
 40
0.7499999999999998
 40
0.8749999999999999
 40
0.8749999999999999
 40
1.0
 40
1.0
 40
1.0
 40
1.0
 10
40.58917463801843
 20
18.99929509379548
 30
0.0
 10
40.56487366887467
 20
18.98526644291702
 30
0.0
 10
40.53885418045941
 20
18.97263703627951
 30
0.0
 10
40.48352163189676
 20
18.95005989865095
 30
0.0
 10
40.45417768469594
 20
18.94010364264819
 30
0.0
 10
40.39217125927483
 20
18.92302963781411
 30
0.0
 10
40.36034963513143
 20
18.91613974512989
 30
0.0
 10
40.29513554337254
 20
18.90552139112436
 30
0.0
 10
40.2616768578733
 20
18.90178891849929
 30
0.0
 10
40.19338692423622
 20
18.89765065493114
 30
0.0
 10
40.15941425304025
 20
18.89729032662008
 30
0.0
 10
40.10870362774504
 20
18.8992132465222
 30
0.0
 10
40.09184171712167
 20
18.9002671115637
 30
0.0
 10
40.05820222604703
 20
18.9032112162962
 30
0.0
 10
40.04138027742725
 20
18.9051076872427
 30
0.0
 10
39.99133676541779
 20
18.91205467122848
 30
0.0
 10
39.95913270446456
 20
18.91826071955299
 30
0.0
 10
39.89694734724601
 20
18.93369474823819
 30
0.0
 10
39.86696597726511
 20
18.94292262837973
 30
0.0
 10
39.83814804816787
 20
18.95373225007838
 30
0.0
  0
SPLINE
  5
228
330
1F
100
AcDbEntity
  8
0
  6
SLD-Solid
 62
     7
370
    25
100
AcDbSpline
210
0.0
220
0.0
230
1.0
 70
     8
 71
     3
 72
    10
 73
     6
 74
     0
 42
0.00000001
 43
0.00000001
 40
0.0000033266706476
 40
0.0000033266706476
 40
0.0000033266706476
 40
0.0000033266706476
 40
0.5
 40
0.5
 40
0.783383781443017
 40
0.783383781443017
 40
0.783383781443017
 40
0.783383781443017
 10
38.46381773309054
 20
19.59633833631667
 30
0.0
 10
38.72947924114518
 20
19.44297548494753
 30
0.0
 10
39.01408447111839
 20
19.29917786598089
 30
0.0
 10
39.4840958437733
 20
19.09208792060263
 30
0.0
 10
39.6590535083518
 20
19.02091071447024
 30
0.0
 10
39.83814804816787
 20
18.95373225007838
 30
0.0
  0
SPLINE
  5
229
330
1F
100
AcDbEntity
  8
0
  6
SLD-Solid
 62
     7
370
    25
100
AcDbSpline
210
0.0
220
0.0
230
1.0
 70
     8
 71
     3
 72
    10
 73
     6
 74
     0
 42
0.00000001
 43
0.00000001
 40
0.0000033266706476
 40
0.0000033266706476
 40
0.0000033266706476
 40
0.0000033266706476
 40
0.5
 40
0.5
 40
0.783383781443017
 40
0.783383781443017
 40
0.783383781443017
 40
0.783383781443017
 10
38.46380712780964
 20
19.59634445861502
 30
0.0
 10
38.19814609231818
 20
19.74970758278907
 30
0.0
 10
37.94905432064832
 20
19.91400668484788
 30
0.0
 10
37.59032514446315
 20
20.18533847482203
 30
0.0
 10
37.46702924773385
 20
20.28633938471838
 30
0.0
 10
37.35066012539594
 20
20.38972846185582
 30
0.0
  0
SPLINE
  5
22A
330
1F
100
AcDbEntity
  8
0
  6
SLD-Solid
 62
     7
370
    25
100
AcDbSpline
210
0.0
220
0.0
230
1.0
 70
     8
 71
     3
 72
    11
 73
     7
 74
     0
 42
0.00000001
 43
0.00000001
 40
0.0
 40
0.0
 40
0.0
 40
0.0
 40
0.0317503893727985
 40
0.3471259617925333
 40
0.6735628329864219
 40
1.0
 40
1.0
 40
1.0
 40
1.0
 10
37.25515476759881
 20
20.56412441265768
 30
0.0
 10
37.25504436101176
 20
20.56216661642788
 30
0.0
 10
37.2538372894301
 20
20.54076209469793
 30
0.0
 10
37.26783746933998
 20
20.49950469181337
 30
0.0
 10
37.29784489209106
 20
20.44212768680289
 30
0.0
 10
37.33305504230972
 20
20.40719487544697
 30
0.0
 10
37.35066012539598
 20
20.38972846185491
 30
0.0
  0
LINE
  5
22B
330
1F
100
AcDbEntity
  8
0
  6
SLD-Solid
 62
     7
370
    25
100
AcDbLine
 10
42.6773438884
 20
20.2047695428
 30
0.0
 11
42.6703895224
 21
20.2087842129
 31
0.0
  0
LINE
  5
22C
330
1F
100
AcDbEntity
  8
0
  6
SLD-Solid
 62
     7
370
    25
100
AcDbLine
 10
40.589174638
 20
18.9992950938
 30
0.0
 11
42.6773438884
 21
20.2047695428
 31
0.0
  0
SPLINE
  5
22D
330
1F
100
AcDbEntity
  8
0
  6
SLD-Solid
 62
     7
370
    25
100
AcDbSpline
210
0.0
220
0.0
230
1.0
 70
     8
 71
     3
 72
    13
 73
     9
 74
     0
 42
0.00000001
 43
0.00000001
 40
0.0000000951352746
 40
0.0000000951352746
 40
0.0000000951352746
 40
0.0000000951352746
 40
0.0000001903670129
 40
0.0000001903670129
 40
0.0000001903670129
 40
0.0225007147131333
 40
0.0225007147131333
 40
0.0450012390592536
 40
0.0450012390592536
 40
0.0450012390592536
 40
0.0450012390592536
 10
38.46362651995135
 20
19.60439642059915
 30
0.0
 10
38.46362740372277
 20
19.60439591040968
 30
0.0
 10
38.46362828749419
 20
19.60439540022021
 30
0.0
 10
38.46362917126561
 20
19.60439489003073
 30
0.0
 10
38.67243897272338
 20
19.48385177187863
 30
0.0
 10
38.8922967959472
 20
19.3695797503332
 30
0.0
 10
39.35115568624979
 20
19.1549957609607
 30
0.0
 10
39.59048820844942
 20
19.05459919628532
 30
0.0
 10
39.83807683773317
 20
18.96172615280178
 30
0.0
  0
SPLINE
  5
22E
330
1F
100
AcDbEntity
  8
0
  6
SLD-Solid
 62
     7
370
    25
100
AcDbSpline
210
0.0
220
0.0
230
1.0
 70
     8
 71
     3
 72
    20
 73
    16
 74
     0
 42
0.00000001
 43
0.00000001
 40
0.0
 40
0.0
 40
0.0
 40
0.0
 40
0.2500000000000026
 40
0.2500000000000026
 40
0.3750000000000022
 40
0.3750000000000022
 40
0.5000000000000018
 40
0.5000000000000018
 40
0.6250000000000014
 40
0.6250000000000014
 40
0.7500000000000009
 40
0.7500000000000009
 40
0.8750000000000004
 40
0.8750000000000004
 40
1.0
 40
1.0
 40
1.0
 40
1.0
 10
42.70698244328368
 20
20.94263631124387
 30
0.0
 10
42.72506792779103
 20
20.92663191958517
 30
0.0
 10
42.74192838778038
 20
20.90824319383232
 30
0.0
 10
42.76540334904783
 20
20.87712605031598
 30
0.0
 10
42.77281288277918
 20
20.86628244966591
 30
0.0
 10
42.78653870003318
 20
20.84410186078261
 30
0.0
 10
42.79290332520424
 20
20.83270153739468
 30
0.0
 10
42.80461552502941
 20
20.80926808795136
 30
0.0
 10
42.80993578110488
 20
20.79726040781417
 30
0.0
 10
42.81918209151195
 20
20.77344536320161
 30
0.0
 10
42.82316261088747
 20
20.76153428446948
 30
0.0
 10
42.82982581157196
 20
20.73770494460943
 30
0.0
 10
42.83250666570012
 20
20.72574027279225
 30
0.0
 10
42.83637822901136
 20
20.70251548734966
 30
0.0
 10
42.83759858919848
 20
20.6911694690649
 30
0.0
 10
42.83808833992824
 20
20.68009548019372
 30
0.0
  0
LINE
  5
22F
330
1F
100
AcDbEntity
  8
0
  6
SLD-Solid
 62
     7
370
    25
100
AcDbLine
 10
40.589174638
 20
18.9992950938
 30
0.0
 11
40.6216517241
 21
15.0114030065
 31
0.0
  0
SPLINE
  5
230
330
1F
100
AcDbEntity
  8
0
  6
SLD-Solid
 62
     7
370
    25
100
AcDbSpline
210
0.0
220
0.0
230
1.0
 70
     8
 71
     3
 72
    22
 73
    18
 74
     0
 42
0.00000001
 43
0.00000001
 40
0.0
 40
0.0
 40
0.0
 40
0.0
 40
0.1250000000000002
 40
0.1250000000000002
 40
0.2500000000000002
 40
0.2500000000000002
 40
0.3750000000000002
 40
0.3750000000000002
 40
0.5000000000000001
 40
0.5000000000000001
 40
0.6250000000000001
 40
0.6250000000000001
 40
0.7500000000000001
 40
0.7500000000000001
 40
0.8750000000000001
 40
0.8750000000000001
 40
1.0
 40
1.0
 40
1.0
 40
1.0
 10
40.62165172412351
 20
15.01140300651831
 30
0.0
 10
40.59746130934957
 20
14.99743817731906
 30
0.0
 10
40.57156786050849
 20
14.98485998435549
 30
0.0
 10
40.51651708236688
 20
14.96236109953256
 30
0.0
 10
40.48734481685749
 20
14.9524362543019
 30
0.0
 10
40.42565035366494
 20
14.93537980603663
 30
0.0
 10
40.39399145759715
 20
14.92848511282036
 30
0.0
 10
40.32911703644285
 20
14.91782855000728
 30
0.0
 10
40.29586904135136
 20
14.91406461979968
 30
0.0
 10
40.22787720505296
 20
14.90982037652695
 30
0.0
 10
40.19405228967388
 20
14.90939424910501
 30
0.0
 10
40.12673061782219
 20
14.911796652688
 30
0.0
 10
40.09318521156692
 20
14.91463177263789
 30
0.0
 10
40.02663620770007
 20
14.9236797842301
 30
0.0
 10
39.99450347161974
 20
14.92976925611809
 30
0.0
 10
39.93242720436634
 20
14.944949801353
 30
0.0
 10
39.90248363980809
 20
14.9540408289258
 30
0.0
 10
39.87368419722677
 20
14.96470055305315
 30
0.0
  0
LINE
  5
231
330
1F
100
AcDbEntity
  8
0
  6
SLD-Solid
 62
     7
370
    25
100
AcDbLine
 10
42.8542384348
 20
20.3149179309
 30
0.0
 11
42.8380883399
 21
20.6800954802
 31
0.0
  0
LINE
  5
232
330
1F
100
AcDbEntity
  8
0
  6
SLD-Solid
 62
     7
370
    25
100
AcDbLine
 10
40.5891093831
 20
19.007286763
 30
0.0
 11
42.8542384348
 21
20.3149179309
 31
0.0
  0
SPLINE
  5
233
330
1F
100
AcDbEntity
  8
0
  6
SLD-Solid
 62
     7
370
    25
100
AcDbSpline
210
0.0
220
0.0
230
1.0
 70
     8
 71
     3
 72
    10
 73
     6
 74
     0
 42
0.00000001
 43
0.00000001
 40
0.0000034534657517
 40
0.0000034534657517
 40
0.0000034534657517
 40
0.0000034534657517
 40
0.5
 40
0.5
 40
0.7764347614317461
 40
0.7764347614317461
 40
0.7764347614317461
 40
0.7764347614317461
 10
38.55791007634368
 20
15.57611803752549
 30
0.0
 10
38.81386127258857
 20
15.42836084034154
 30
0.0
 10
39.08880851068655
 20
15.29014583526772
 30
0.0
 10
39.53951943055638
 20
15.0936502128946
 30
0.0
 10
39.70465447449705
 20
15.0272646186087
 30
0.0
 10
39.87368419722677
 20
14.96470055305315
 30
0.0
  0
LINE
  5
234
330
1F
100
AcDbEntity
  8
0
  6
SLD-Solid
 62
     7
370
    25
100
AcDbLine
 10
40.6216517241
 20
15.0114030065
 30
0.0
 11
42.6185361744
 21
16.1641798621
 31
0.0
  0
LINE
  5
235
330
1F
100
AcDbEntity
  8
0
  6
SLD-Solid
 62
     7
370
    25
100
AcDbLine
 10
42.6773438884
 20
20.2047695428
 30
0.0
 11
42.6185361744
 21
16.1641798621
 31
0.0
  0
SPLINE
  5
236
330
1F
100
AcDbEntity
  8
0
  6
SLD-Solid
 62
     7
370
    25
100
AcDbSpline
210
0.0
220
0.0
230
1.0
 70
     8
 71
     3
 72
    14
 73
    10
 74
     0
 42
0.00000001
 43
0.00000001
 40
0.0
 40
0.0
 40
0.0
 40
0.0
 40
0.0311498393920213
 40
0.0311498393920213
 40
0.0311498393920213
 40
0.0622996626907697
 40
0.0622996626907697
 40
0.0622996626907697
 40
0.0817951183540026
 40
0.0817951183540026
 40
0.0817951183540026
 40
0.0817951183540026
 10
37.58262328073047
 20
21.14345600039128
 30
0.0
 10
37.86935228173102
 20
21.3281624449867
 30
0.0
 10
38.15608877967343
 20
21.51278716946658
 30
0.0
 10
38.44284168049918
 20
21.69732639569407
 30
0.0
 10
38.7295944332459
 20
21.88186552662562
 30
0.0
 10
39.01636362570793
 20
22.06631915857451
 30
0.0
 10
39.30315802803898
 20
22.25068548622214
 30
0.0
 10
39.4826514268387
 20
22.36607315942887
 30
0.0
 10
39.66215470195257
 20
22.48142667910609
 30
0.0
 10
39.84166992352407
 20
22.59674602018596
 30
0.0
  0
SPLINE
  5
237
330
1F
100
AcDbEntity
  8
0
  6
SLD-Solid
 62
     7
370
    25
100
AcDbSpline
210
0.0
220
0.0
230
1.0
 70
     8
 71
     3
 72
    25
 73
    21
 74
     0
 42
0.00000001
 43
0.00000001
 40
0.0
 40
0.0
 40
0.0
 40
0.0
 40
0.0276994801334198
 40
0.0554010069735277
 40
0.083106030083933
 40
0.1108159984795546
 40
0.1385323603996911
 40
0.1662565630816982
 40
0.193990052535451
 40
0.2217342733187636
 40
0.249490668313942
 40
0.2772606785056382
 40
0.4163449652634508
 40
0.5552690929815963
 40
0.6941862057419571
 40
0.8333163013327051
 40
0.8750192775301716
 40
0.9166976267636247
 40
0.9583562362109933
 40
1.0
 40
1.0
 40
1.0
 40
1.0
 10
41.27432618340387
 20
21.98636481486608
 30
0.0
 10
41.26094790032582
 20
21.99405566543613
 30
0.0
 10
41.23419034565222
 20
22.00943793485097
 30
0.0
 10
41.19405393183073
 20
22.0320861984207
 30
0.0
 10
41.15391665396258
 20
22.05442370640702
 30
0.0
 10
41.11377851252963
 20
22.0764199255809
 30
0.0
 10
41.07363950729935
 20
22.09808303899545
 30
0.0
 10
41.03349964068502
 20
22.11941085270313
 30
0.0
 10
40.9933589052177
 20
22.14040395644736
 30
0.0
 10
40.95321733031927
 20
22.16106218520084
 30
0.0
 10
40.91307480763822
 20
22.18138560843317
 30
0.0
 10
40.81930297080365
 20
22.22807757861571
 30
0.0
 10
40.67218279321941
 20
22.29763637767535
 30
0.0
 10
40.47238218217201
 20
22.38364579483101
 30
0.0
 10
40.27361231058047
 20
22.46070498735926
 30
0.0
 10
40.12219184780697
 20
22.5128481132459
 30
0.0
 10
40.01736936899542
 20
22.54598641759532
 30
0.0
 10
39.95861468403979
 20
22.56377278972153
 30
0.0
 10
39.90003054321523
 20
22.58078689241482
 30
0.0
 10
39.86112075860818
 20
22.59142887521941
 30
0.0
 10
39.841669333441
 20
22.59674891834594
 30
0.0
  0
SPLINE
  5
238
330
1F
100
AcDbEntity
  8
0
  6
SLD-Solid
 62
     7
370
    25
100
AcDbSpline
210
0.0
220
0.0
230
1.0
 70
     8
 71
     3
 72
    14
 73
    10
 74
     0
 42
0.00000001
 43
0.00000001
 40
0.0
 40
0.0
 40
0.0
 40
0.0
 40
0.2500000000000001
 40
0.2500000000000001
 40
0.5000000000000001
 40
0.5000000000000001
 40
0.7500000000000002
 40
0.7500000000000002
 40
1.0
 40
1.0
 40
1.0
 40
1.0
 10
38.63764281939076
 20
20.19066638986785
 30
0.0
 10
38.53469041280148
 20
20.25009966392593
 30
0.0
 10
38.43445173556267
 20
20.30987242306043
 30
0.0
 10
38.23989087663148
 20
20.42970164856358
 30
0.0
 10
38.14553229414082
 20
20.48977668264801
 30
0.0
 10
37.9626341239444
 20
20.61006194051816
 30
0.0
 10
37.8741477041306
 20
20.67026203447336
 30
0.0
 10
37.70360857229797
 20
20.79004095589535
 30
0.0
 10
37.62147061613018
 20
20.84967626069795
 30
0.0
 10
37.54243513166421
 20
20.90885053999625
 30
0.0
  0
SPLINE
  5
239
330
1F
100
AcDbEntity
  8
0
  6
SLD-Solid
 62
     7
370
    25
100
AcDbSpline
210
0.0
220
0.0
230
1.0
 70
     8
 71
     3
 72
    24
 73
    20
 74
     0
 42
0.00000001
 43
0.00000001
 40
0.0
 40
0.0
 40
0.0
 40
0.0
 40
0.2499999999999997
 40
0.2499999999999997
 40
0.3124999999999998
 40
0.3124999999999998
 40
0.3750000000000001
 40
0.3750000000000001
 40
0.5000000000000001
 40
0.5000000000000001
 40
0.5624999999999998
 40
0.5624999999999998
 40
0.6249999999999994
 40
0.6249999999999994
 40
0.7499999999999997
 40
0.7499999999999997
 40
0.8749999999999998
 40
0.8749999999999998
 40
1.0
 40
1.0
 40
1.0
 40
1.0
 10
37.54243513166421
 20
20.90885053999625
 30
0.0
 10
37.521227984301
 20
20.92472844182704
 30
0.0
 10
37.50595182688609
 20
20.94244235918159
 30
0.0
 10
37.49418894134524
 20
20.96684054966435
 30
0.0
 10
37.49221755209459
 20
20.97183463996571
 30
0.0
 10
37.48910926605614
 20
20.9818667774269
 30
0.0
 10
37.48795960172315
 20
20.98692817344752
 30
0.0
 10
37.48570428281317
 20
21.00224785057308
 30
0.0
 10
37.48578467804367
 20
21.0126405236533
 30
0.0
 10
37.488383741997
 20
21.02852203671572
 30
0.0
 10
37.48966391320166
 20
21.03384872926101
 30
0.0
 10
37.49301319446396
 20
21.04440664079868
 30
0.0
 10
37.49508521710561
 20
21.04966098712378
 30
0.0
 10
37.50247303823075
 20
21.06535525064925
 30
0.0
 10
37.50895576841
 20
21.07572655662511
 30
0.0
 10
37.52520156087884
 20
21.09630080733282
 30
0.0
 10
37.53479306781787
 20
21.1062752906889
 30
0.0
 10
37.55663579430793
 20
21.12541838134448
 30
0.0
 10
37.56891379342088
 20
21.13462455797549
 30
0.0
 10
37.58262328073047
 20
21.14345600039128
 30
0.0
  0
SPLINE
  5
23A
330
1F
100
AcDbEntity
  8
0
  6
SLD-Solid
 62
     7
370
    25
100
AcDbSpline
210
0.0
220
0.0
230
1.0
 70
     8
 71
     3
 72
    13
 73
     9
 74
     0
 42
0.00000001
 43
0.00000001
 40
0.0000000951352746
 40
0.0000000951352746
 40
0.0000000951352746
 40
0.0000000951352746
 40
0.0000001903670129
 40
0.0000001903670129
 40
0.0000001903670129
 40
0.0225007147131333
 40
0.0225007147131333
 40
0.0450012390592536
 40
0.0450012390592536
 40
0.0450012390592536
 40
0.0450012390592536
 10
38.46362121732754
 20
19.60439948173872
 30
0.0
 10
38.46362033355769
 20
19.6043999919291
 30
0.0
 10
38.46361944978783
 20
19.60440050211948
 30
0.0
 10
38.46361856601799
 20
19.60440101230986
 30
0.0
 10
38.25480913593915
 20
19.72494434485446
 30
0.0
 10
38.05686274084629
 20
19.85186556460076
 30
0.0
 10
37.68515209311629
 20
20.11675916356703
 30
0.0
 10
37.51124129860796
 20
20.25492288772863
 30
0.0
 10
37.35036303714624
 20
20.39785276106624
 30
0.0
  0
SPLINE
  5
23B
330
1F
100
AcDbEntity
  8
0
  6
SLD-Solid
 62
     7
370
    25
100
AcDbSpline
210
0.0
220
0.0
230
1.0
 70
     8
 71
     3
 72
    10
 73
     6
 74
     0
 42
0.00000001
 43
0.00000001
 40
0.0000034534657517
 40
0.0000034534657517
 40
0.0000034534657517
 40
0.0000034534657517
 40
0.5
 40
0.5
 40
0.7764347614317461
 40
0.7764347614317461
 40
0.7764347614317461
 40
0.7764347614317461
 10
38.55789946925665
 20
15.57612416086649
 30
0.0
 10
38.30194876375808
 20
15.72388164135227
 30
0.0
 10
38.06252741079961
 20
15.88260530337809
 30
0.0
 10
37.72215012879711
 20
16.14279517912171
 30
0.0
 10
37.60715444658162
 20
16.23812561082337
 30
0.0
 10
37.4987785635587
 20
16.33570439273246
 30
0.0
  0
LINE
  5
23C
330
1F
100
AcDbEntity
  8
0
  6
SLD-Solid
 62
     7
370
    25
100
AcDbLine
 10
42.6186390182
 20
16.1712461055
 30
0.0
 11
42.6247078057
 21
16.167742669
 31
0.0
  0
LINE
  5
23D
330
1F
100
AcDbEntity
  8
0
  6
SLD-Solid
 62
     7
370
    25
100
AcDbLine
 10
42.6835155197
 20
20.2083323497
 30
0.0
 11
42.6765611536
 21
20.2123470197
 31
0.0
  0
LINE
  5
23E
330
1F
100
AcDbEntity
  8
0
  6
SLD-Solid
 62
     7
370
    25
100
AcDbLine
 10
42.6247078057
 20
16.167742669
 30
0.0
 11
42.6835155197
 21
20.2083323497
 31
0.0
  0
LINE
  5
23F
330
1F
100
AcDbEntity
  8
0
  6
SLD-Solid
 62
     7
370
    25
100
AcDbLine
 10
42.6835155197
 20
20.2083323497
 30
0.0
 11
42.8541205837
 21
20.3068205568
 31
0.0
  0
LINE
  5
240
330
1F
100
AcDbEntity
  8
0
  6
SLD-Solid
 62
     7
370
    25
100
AcDbLine
 10
42.8541205837
 20
20.3068205568
 30
0.0
 11
42.8471662177
 21
20.3108352268
 31
0.0
  0
LINE
  5
241
330
1F
100
AcDbEntity
  8
0
  6
SLD-Solid
 62
     7
370
    25
100
AcDbLine
 10
42.6247078057
 20
16.167742669
 30
0.0
 11
42.7953128697
 21
16.2662308761
 31
0.0
  0
LINE
  5
242
330
1F
100
AcDbEntity
  8
0
  6
SLD-Solid
 62
     7
370
    25
100
AcDbLine
 10
42.7953128697
 20
16.2662308761
 30
0.0
 11
42.8541205837
 21
20.3068205568
 31
0.0
  0
SPLINE
  5
243
330
1F
100
AcDbEntity
  8
0
  6
SLD-Solid
 62
     7
370
    25
100
AcDbSpline
210
0.0
220
0.0
230
1.0
 70
     8
 71
     3
 72
    11
 73
     7
 74
     0
 42
0.00000001
 43
0.00000001
 40
0.0
 40
0.0
 40
0.0
 40
0.0
 40
0.1547932062831274
 40
0.4300436590485333
 40
0.7150218458502301
 40
1.0
 40
1.0
 40
1.0
 40
1.0
 10
37.25605121517823
 20
20.59920662384529
 30
0.0
 10
37.25506795010822
 20
20.58826434138046
 30
0.0
 10
37.25233626104591
 20
20.55786469205148
 30
0.0
 10
37.26690608913066
 20
20.50764188603936
 30
0.0
 10
37.29769299662844
 20
20.4502677267233
 30
0.0
 10
37.33280635764416
 20
20.41532441561764
 30
0.0
 10
37.35036303714622
 20
20.39785276106574
 30
0.0
  0
SPLINE
  5
244
330
1F
100
AcDbEntity
  8
0
  6
SLD-Solid
 62
     7
370
    25
100
AcDbSpline
210
0.0
220
0.0
230
1.0
 70
     8
 71
     3
 72
    11
 73
     7
 74
     0
 42
0.00000001
 43
0.00000001
 40
0.0
 40
0.0
 40
0.0
 40
0.0
 40
0.0669168564784382
 40
0.3744309253865712
 40
0.6872153299623774
 40
1.0
 40
1.0
 40
1.0
 40
1.0
 10
37.40555041579698
 20
16.51515514151091
 30
0.0
 10
37.40526456246207
 20
16.51092263808171
 30
0.0
 10
37.40366508014403
 20
16.48723981346773
 30
0.0
 10
37.41761977224439
 20
16.44405643911925
 30
0.0
 10
37.44739536986546
 20
16.38734500302705
 30
0.0
 10
37.48165082748216
 20
16.35291793436706
 30
0.0
 10
37.4987785635587
 20
16.33570439273246
 30
0.0
  0
SPLINE
  5
245
330
1F
100
AcDbEntity
  8
0
  6
SLD-Solid
 62
     7
370
    25
100
AcDbSpline
210
0.0
220
0.0
230
1.0
 70
     8
 71
     3
 72
    11
 73
     7
 74
     0
 42
0.00000001
 43
0.00000001
 40
0.0
 40
0.0
 40
0.0
 40
0.0
 40
0.3072950765972404
 40
0.6145917579075089
 40
0.9218725651617288
 40
0.9999999999999999
 40
0.9999999999999999
 40
0.9999999999999999
 40
0.9999999999999999
 10
39.84166992352407
 20
22.59674602018596
 30
0.0
 10
39.83218052454403
 20
22.59873340409553
 30
0.0
 10
39.81320167702977
 20
22.6027081822929
 30
0.0
 10
39.78741967233037
 20
22.60010390289551
 30
0.0
 10
39.76932286903338
 20
22.59490490998543
 30
0.0
 10
39.7612413260987
 20
22.58861710627854
 30
0.0
 10
39.75960308864016
 20
22.58734248388926
 30
0.0
  0
SPLINE
  5
246
330
1F
100
AcDbEntity
  8
0
  6
SLD-Solid
 62
     7
370
    25
100
AcDbSpline
210
0.0
220
0.0
230
1.0
 70
     8
 71
     3
 72
    22
 73
    18
 74
     0
 42
0.00000001
 43
0.00000001
 40
0.0
 40
0.0
 40
0.0
 40
0.0
 40
0.1250000000000002
 40
0.1250000000000002
 40
0.2500000000000002
 40
0.2500000000000002
 40
0.3750000000000001
 40
0.3750000000000001
 40
0.5000000000000001
 40
0.5000000000000001
 40
0.6250000000000001
 40
0.6250000000000001
 40
0.75
 40
0.75
 40
0.875
 40
0.875
 40
1.0
 40
1.0
 40
1.0
 40
1.0
 10
40.62171663260902
 20
15.00341113728918
 30
0.0
 10
40.59752644529961
 20
14.98944643940242
 30
0.0
 10
40.5716332557129
 20
14.97686835186815
 30
0.0
 10
40.51658305702761
 20
14.95436962828052
 30
0.0
 10
40.48741114481128
 20
14.9444448479802
 30
0.0
 10
40.4257173232203
 20
14.92738843635591
 30
0.0
 10
40.39405876180629
 20
14.92049373357986
 30
0.0
 10
40.32918503911434
 20
14.90983709297079
 30
0.0
 10
40.29593747893571
 20
14.90607309883801
 30
0.0
 10
40.22794625606852
 20
14.90182863849011
 30
0.0
 10
40.19412164475291
 20
14.90140237625438
 30
0.0
 10
40.12680057485085
 20
14.90380444899607
 30
0.0
 10
40.09325556957692
 20
14.90663935851985
 30
0.0
 10
40.0267069300621
 20
14.91568692942256
 30
0.0
 10
39.99457434228239
 20
14.9217761618728
 30
0.0
 10
39.93249830285254
 20
14.93695618637848
 30
0.0
 10
39.90255481789803
 20
14.94604693276974
 30
0.0
 10
39.87375541538372
 20
14.95670634891668
 30
0.0
  0
SPLINE
  5
247
330
1F
100
AcDbEntity
  8
0
  6
SLD-Solid
 62
     7
370
    25
100
AcDbSpline
210
0.0
220
0.0
230
1.0
 70
     8
 71
     3
 72
    10
 73
     6
 74
     0
 42
0.00000001
 43
0.00000001
 40
0.0000034537198501
 40
0.0000034537198501
 40
0.0000034537198501
 40
0.0000034537198501
 40
0.5
 40
0.5
 40
0.7764203772301096
 40
0.7764203772301096
 40
0.7764203772301096
 40
0.7764203772301096
 10
38.55809863813897
 20
15.56806148382906
 30
0.0
 10
38.81403037484616
 20
15.42031552041816
 30
0.0
 10
39.08895825825588
 20
15.28211170294451
 30
0.0
 10
39.53963050577404
 20
15.08563727026988
 30
0.0
 10
39.70474586423751
 20
15.01926122787918
 30
0.0
 10
39.87375541538372
 20
14.95670634891668
 30
0.0
  0
SPLINE
  5
248
330
1F
100
AcDbEntity
  8
0
  6
SLD-Solid
 62
     7
370
    25
100
AcDbSpline
210
0.0
220
0.0
230
1.0
 70
     8
 71
     3
 72
    10
 73
     6
 74
     0
 42
0.00000001
 43
0.00000001
 40
0.0000034537198501
 40
0.0000034537198501
 40
0.0000034537198501
 40
0.0000034537198501
 40
0.5
 40
0.5
 40
0.7764203772301096
 40
0.7764203772301096
 40
0.7764203772301096
 40
0.7764203772301096
 10
38.55808803107799
 20
15.56806760715503
 30
0.0
 10
38.30215678515358
 20
15.7158138538888
 30
0.0
 10
38.06275481178685
 20
15.87452634269092
 30
0.0
 10
37.72241423539586
 20
16.13469389336113
 30
0.0
 10
37.60743509934096
 20
16.23001296087869
 30
0.0
 10
37.49907512968822
 20
16.32758009798049
 30
0.0
  0
SPLINE
  5
249
330
1F
100
AcDbEntity
  8
0
  6
SLD-Solid
 62
     7
370
    25
100
AcDbSpline
210
0.0
220
0.0
230
1.0
 70
     8
 71
     3
 72
    11
 73
     7
 74
     0
 42
0.00000001
 43
0.00000001
 40
0.0
 40
0.0
 40
0.0
 40
0.0
 40
0.0320581243440618
 40
0.3510682694219785
 40
0.6755339970418026
 40
1.0
 40
1.0
 40
1.0
 40
1.0
 10
37.4055476870585
 20
16.50019618010809
 30
0.0
 10
37.40543750101146
 20
16.49824193469507
 30
0.0
 10
37.40423085447054
 20
16.47684100843344
 30
0.0
 10
37.41812421818783
 20
16.43593263298613
 30
0.0
 10
37.44764338869822
 20
16.37921827683272
 30
0.0
 10
37.4819312111755
 20
16.34479282913341
 30
0.0
 10
37.49907512968822
 20
16.32758009798049
 30
0.0
  0
LINE
  5
24A
330
1F
100
AcDbEntity
  8
0
  6
SLD-Solid
 62
     7
370
    25
100
AcDbLine
 10
42.6184183233
 20
16.156082488
 30
0.0
 11
42.6114639573
 21
16.1600971581
 31
0.0
  0
LINE
  5
24B
330
1F
100
AcDbEntity
  8
0
  6
SLD-Solid
 62
     7
370
    25
100
AcDbLine
 10
40.6217166326
 20
15.0034111373
 30
0.0
 11
42.6184183233
 21
16.156082488
 31
0.0
  0
LINE
  5
24C
330
1F
100
AcDbEntity
  8
0
  6
SLD-Solid
 62
     7
370
    25
100
AcDbLine
 10
40.6217166326
 20
15.0034111373
 30
0.0
 11
40.6314500158
 21
13.803960066
 31
0.0
  0
SPLINE
  5
24D
330
1F
100
AcDbEntity
  8
0
  6
SLD-Solid
 62
     7
370
    25
100
AcDbSpline
210
0.0
220
0.0
230
1.0
 70
     8
 71
     3
 72
    11
 73
     7
 74
     0
 42
0.00000001
 43
0.00000001
 40
0.0
 40
0.0
 40
0.0
 40
0.0
 40
0.2314801594615228
 40
0.5287999723481782
 40
0.820313451948903
 40
1.0
 40
1.0
 40
1.0
 40
1.0
 10
39.74170179054136
 20
13.9307095692585
 30
0.0
 10
39.7483698854582
 20
13.93119216884062
 30
0.0
 10
39.76360267437562
 20
13.93229463328628
 30
0.0
 10
39.78044345995819
 20
13.94575995615071
 30
0.0
 10
39.78973477888857
 20
13.96432670885981
 30
0.0
 10
39.79030644474365
 20
13.97855110216568
 30
0.0
 10
39.79052444274474
 20
13.98397540603083
 30
0.0
  0
LINE
  5
24E
330
1F
100
AcDbEntity
  8
0
  6
SLD-Solid
 62
     7
370
    25
100
AcDbLine
 10
39.7761117976
 20
14.5472337314
 30
0.0
 11
39.7905244427
 21
13.983975406
 31
0.0
  0
SPLINE
  5
24F
330
1F
100
AcDbEntity
  8
0
  6
SLD-Solid
 62
     7
370
    25
100
AcDbSpline
210
0.0
220
0.0
230
1.0
 70
     8
 71
     3
 72
    20
 73
    16
 74
     0
 42
0.00000001
 43
0.00000001
 40
0.0
 40
0.0
 40
0.0
 40
0.0
 40
0.1249999999999999
 40
0.1249999999999999
 40
0.2499999999999999
 40
0.2499999999999999
 40
0.3749999999999998
 40
0.3749999999999998
 40
0.4999999999999998
 40
0.4999999999999998
 40
0.6249999999999998
 40
0.6249999999999998
 40
0.7499999999999997
 40
0.7499999999999997
 40
1.0
 40
1.0
 40
1.0
 40
1.0
 10
39.68947873687364
 20
14.66051642236331
 30
0.0
 10
39.69499709324651
 20
14.65834497763446
 30
0.0
 10
39.70044040768277
 20
14.65569943089279
 30
0.0
 10
39.71118311331342
 20
14.6495011689235
 30
0.0
 10
39.71653430546945
 20
14.64590662845328
 30
0.0
 10
39.72681560016914
 20
14.63795639895963
 30
0.0
 10
39.73171358111639
 20
14.63363803014373
 30
0.0
 10
39.74102679761229
 20
14.62431955635178
 30
0.0
 10
39.7454753047007
 20
14.61926669915307
 30
0.0
 10
39.7535136919617
 20
14.60885706133292
 30
0.0
 10
39.75714541393408
 20
14.60346890811964
 30
0.0
 10
39.76361320465722
 20
14.59231493543805
 30
0.0
 10
39.76642440864475
 20
14.58656776711056
 30
0.0
 10
39.77325421059073
 20
14.56951370651122
 30
0.0
 10
39.77583695975451
 20
14.55798223366985
 30
0.0
 10
39.77611179763136
 20
14.54723373142825
 30
0.0
  0
SPLINE
  5
250
330
1F
100
AcDbEntity
  8
0
  6
SLD-Solid
 62
     7
370
    25
100
AcDbSpline
210
0.0
220
0.0
230
1.0
 70
     8
 71
     3
 72
    10
 73
     6
 74
     0
 42
0.00000001
 43
0.00000001
 40
0.0000034654083768
 40
0.0000034654083768
 40
0.0000034654083768
 40
0.0000034654083768
 40
0.5
 40
0.5
 40
0.6722727821560718
 40
0.6722727821560718
 40
0.6722727821560718
 40
0.6722727821560718
 10
38.56677248065829
 20
15.19746001383036
 30
0.0
 10
38.82180907865257
 20
15.05023080396705
 30
0.0
 10
39.09584664642328
 20
14.91254161608942
 30
0.0
 10
39.48485854940252
 20
14.74312100482721
 30
0.0
 10
39.5863566923389
 20
14.70109441423314
 30
0.0
 10
39.68947873687364
 20
14.66051642236331
 30
0.0
  0
ARC
  5
251
330
1F
100
AcDbEntity
  8
0
  6
SLD-Solid
 62
     7
370
    25
100
AcDbCircle
 10
42.1406750697
 20
21.5733424103
 30
0.0
 40
7.594060056480686
100
AcDbArc
 50
230.8369473538
 51
249.1684291789
  0
LINE
  5
252
330
1F
100
AcDbEntity
  8
0
  6
SLD-Solid
 62
     7
370
    25
100
AcDbLine
 10
42.6007308342
 20
14.9408016841
 30
0.0
 11
42.6184183233
 21
16.156082488
 31
0.0
  0
ARC
  5
253
330
1F
100
AcDbEntity
  8
0
  6
SLD-Solid
 62
     7
370
    25
100
AcDbCircle
 10
39.398654693
 20
14.4109767966
 30
0.0
 40
0.0768402403786392
100
AcDbArc
 50
2.6054784857
 51
57.39452166
  0
LINE
  5
254
330
1F
100
AcDbEntity
  8
0
  6
SLD-Solid
 62
     7
370
    25
100
AcDbLine
 10
39.4754154981
 20
14.4144698392
 30
0.0
 11
39.4754154981
 21
13.7938988222
 31
0.0
  0
SPLINE
  5
255
330
1F
100
AcDbEntity
  8
0
  6
SLD-Solid
 62
     7
370
    25
100
AcDbSpline
210
0.0
220
0.0
230
1.0
 70
     8
 71
     3
 72
    11
 73
     7
 74
     0
 42
0.00000001
 43
0.00000001
 40
0.0
 40
0.0
 40
0.0
 40
0.0
 40
0.3010657816317906
 40
0.6021567271148236
 40
0.902062830222719
 40
1.0
 40
1.0
 40
1.0
 40
1.0
 10
37.63664751387626
 20
15.84559066238524
 30
0.0
 10
37.63010188978273
 20
15.85026295045476
 30
0.0
 10
37.6170100944956
 20
15.85960791711564
 30
0.0
 10
37.60049317199264
 20
15.85958070408103
 30
0.0
 10
37.58987704093377
 20
15.85332623437353
 30
0.0
 10
37.58735630650565
 20
15.84411308300717
 30
0.0
 10
37.58673577673306
 20
15.84184507942121
 30
0.0
  0
SPLINE
  5
256
330
1F
100
AcDbEntity
  8
0
  6
SLD-Solid
 62
     7
370
    25
100
AcDbSpline
210
0.0
220
0.0
230
1.0
 70
     8
 71
     3
 72
    10
 73
     6
 74
     0
 42
0.00000001
 43
0.00000001
 40
0.0000034654083768
 40
0.0000034654083768
 40
0.0000034654083768
 40
0.0000034654083768
 40
0.5
 40
0.5
 40
0.6722727821560718
 40
0.6722727821560718
 40
0.6722727821560718
 40
0.6722727821560718
 10
38.56676187492382
 20
15.19746613639055
 30
0.0
 10
38.31172576938916
 20
15.34469563054475
 30
0.0
 10
38.07321525722147
 20
15.50289415106859
 30
0.0
 10
37.77973835183205
 20
15.72746594251352
 30
0.0
 10
37.70693827361413
 20
15.7860595732302
 30
0.0
 10
37.63664751387626
 20
15.84559066238523
 30
0.0
  0
ARC
  5
257
330
1F
100
AcDbEntity
  8
0
  6
SLD-Solid
 62
     7
370
    25
100
AcDbCircle
 10
42.5760340882
 20
14.9387912389
 30
0.0
 40
0.0247784412695331
100
AcDbArc
 50
305.3733393026
 51
4.6539162418
  0
LINE
  5
258
330
1F
100
AcDbEntity
  8
0
  6
SLD-Solid
 62
     7
370
    25
100
AcDbLine
 10
42.6245899546
 20
16.1596452949
 30
0.0
 11
42.7951950186
 21
16.258133502
 31
0.0
  0
LINE
  5
259
330
1F
100
AcDbEntity
  8
0
  6
SLD-Solid
 62
     7
370
    25
100
AcDbLine
 10
42.6176355886
 20
16.163659965
 30
0.0
 11
42.6245899546
 21
16.1596452949
 31
0.0
  0
LINE
  5
25A
330
1F
100
AcDbEntity
  8
0
  6
SLD-Solid
 62
     7
370
    25
100
AcDbLine
 10
42.7951950186
 20
16.258133502
 30
0.0
 11
42.7882406526
 21
16.2621481721
 31
0.0
  0
LINE
  5
25B
330
1F
100
AcDbEntity
  8
0
  6
SLD-Solid
 62
     7
370
    25
100
AcDbLine
 10
42.6157511198
 20
15.5523422367
 30
0.0
 11
42.6245899546
 21
16.1596452949
 31
0.0
  0
LINE
  5
25C
330
1F
100
AcDbEntity
  8
0
  6
SLD-Solid
 62
     7
370
    25
100
AcDbLine
 10
42.6096823323
 20
15.5558456731
 30
0.0
 11
42.6157511198
 21
15.5523422367
 31
0.0
  0
LINE
  5
25D
330
1F
100
AcDbEntity
  8
0
  6
SLD-Solid
 62
     7
370
    25
100
AcDbLine
 10
42.6157511198
 20
15.5523422367
 30
0.0
 11
42.7863561838
 21
15.6508304438
 31
0.0
  0
LINE
  5
25E
330
1F
100
AcDbEntity
  8
0
  6
SLD-Solid
 62
     7
370
    25
100
AcDbLine
 10
42.7863561838
 20
15.6508304438
 30
0.0
 11
42.7951950186
 21
16.258133502
 31
0.0
  0
ARC
  5
25F
330
1F
100
AcDbEntity
  8
0
  6
SLD-Solid
 62
     8
370
    25
100
AcDbCircle
 10
37.5318427659
 20
21.0490602236
 30
0.0
 40
0.1071877948394527
100
AcDbArc
 50
61.7218258864
 51
117.8628393121
  0
LINE
  5
260
330
1F
100
AcDbEntity
  8
0
  6
SLD-Solid
 62
     8
370
    25
100
AcDbLine
 10
39.440060159
 20
14.4757070826
 30
0.0
 11
39.7237094798
 21
14.63945435
 31
0.0
  0
ARC
  5
261
330
1F
100
AcDbEntity
  8
0
  6
SLD-Solid
 62
     8
370
    25
100
AcDbCircle
 10
39.4516312203
 20
13.7908706207
 30
0.0
 40
0.0239762773231655
100
AcDbArc
 50
304.0563508351
 51
7.2558295583
  0
ARC
  5
262
330
1F
100
AcDbEntity
  8
0
  6
SLD-Solid
 62
     8
370
    25
100
AcDbCircle
 10
40.6073453768
 20
13.8016957565
 30
0.0
 40
0.0242107562747697
100
AcDbArc
 50
303.998668132
 51
5.3664270311
  0
ARC
  5
263
330
1F
100
AcDbEntity
  8
0
  6
SLD-Solid
 62
     8
370
    25
100
AcDbCircle
 10
37.3301565264
 20
15.6648294995
 30
0.0
 40
0.0251488617951039
100
AcDbArc
 50
54.3824225248
 51
114.3071190461
  0
INSERT
  5
269
330
1F
100
AcDbEntity
  8
NOTES
100
AcDbBlockReference
  2
SW_NOTE_0_2
 10
39.1211848098
 20
12.3864478727
 30
0.0
  0
LINE
  5
26A
330
1F
100
AcDbEntity
  8
0
  6
SLD-Solid
 62
     7
370
    25
100
AcDbLine
 10
30.8838900183
 20
12.2482331751
 30
0.0
 11
30.8838900183
 21
12.1682331751
 31
0.0
  0
LINE
  5
26B
330
1F
100
AcDbEntity
  8
0
  6
SLD-Solid
 62
     7
370
    25
100
AcDbLine
 10
31.0938900183
 20
12.1682331751
 30
0.0
 11
31.0938900183
 21
12.2482331751
 31
0.0
  0
LINE
  5
26C
330
1F
100
AcDbEntity
  8
0
  6
SLD-Solid
 62
     7
370
    25
100
AcDbLine
 10
28.7547233516
 20
18.7982331751
 30
0.0
 11
29.1141355752
 21
18.7982331751
 31
0.0
  0
LINE
  5
26D
330
1F
100
AcDbEntity
  8
0
  6
SLD-Solid
 62
     7
370
    25
100
AcDbLine
 10
29.1141355752
 20
18.7982331751
 30
0.0
 11
29.1141355752
 21
18.8082331751
 31
0.0
  0
LINE
  5
26E
330
1F
100
AcDbEntity
  8
0
  6
SLD-Solid
 62
     7
370
    25
100
AcDbLine
 10
28.754556685
 20
18.8082331751
 30
0.0
 11
29.1141355752
 21
18.8082331751
 31
0.0
  0
LINE
  5
26F
330
1F
100
AcDbEntity
  8
0
  6
SLD-Solid
 62
     7
370
    25
100
AcDbLine
 10
28.754556685
 20
18.8082331751
 30
0.0
 11
28.7773963682
 21
19.2440402931
 31
0.0
  0
SPLINE
  5
270
330
1F
100
AcDbEntity
  8
0
  6
SLD-Solid
 62
     7
370
    25
100
AcDbSpline
210
0.0
220
0.0
230
1.0
 70
     8
 71
     3
 72
    20
 73
    16
 74
     0
 42
0.00000001
 43
0.00000001
 40
0.0
 40
0.0
 40
0.0
 40
0.0
 40
0.2500000000000026
 40
0.2500000000000026
 40
0.3750000000000022
 40
0.3750000000000022
 40
0.5000000000000018
 40
0.5000000000000018
 40
0.6250000000000014
 40
0.6250000000000014
 40
0.7500000000000009
 40
0.7500000000000009
 40
0.8750000000000004
 40
0.8750000000000004
 40
1.0
 40
1.0
 40
1.0
 40
1.0
 10
28.96280810535049
 20
19.47287760931205
 30
0.0
 10
28.93723136787809
 20
19.46606366492066
 30
0.0
 10
28.91338707669331
 20
19.45546359538966
 30
0.0
 10
28.8801884680927
 20
19.43395170452117
 30
0.0
 10
28.86970980499894
 20
19.42591025971021
 30
0.0
 10
28.85029856808369
 20
19.40845020990411
 30
0.0
 10
28.84129762884735
 20
19.39898821685713
 30
0.0
 10
28.82473407700939
 20
19.37857020448092
 30
0.0
 10
28.81721009871216
 20
19.36762603420848
 30
0.0
 10
28.80413384113256
 20
19.34499732666139
 30
0.0
 10
28.79850453664641
 20
19.33322427910639
 30
0.0
 10
28.7890813478696
 20
19.30875182691434
 30
0.0
 10
28.78529004760281
 20
19.29599429230067
 30
0.0
 10
28.77981483026047
 20
19.27028856000791
 30
0.0
 10
28.77808898033286
 20
19.25725611975568
 30
0.0
 10
28.77739636820865
 20
19.24404029314197
 30
0.0
  0
SPLINE
  5
271
330
1F
100
AcDbEntity
  8
0
  6
SLD-Solid
 62
     7
370
    25
100
AcDbSpline
210
0.0
220
0.0
230
1.0
 70
     8
 71
     3
 72
    10
 73
     6
 74
     0
 42
0.00000001
 43
0.00000001
 40
0.0
 40
0.0
 40
0.0
 40
0.0
 40
0.5
 40
0.5
 40
0.8767825437552328
 40
0.8767825437552328
 40
0.8767825437552328
 40
0.8767825437552328
 10
30.98889001829122
 20
19.73823317512972
 30
0.0
 10
30.60092640416373
 20
19.73823317512973
 30
0.0
 10
30.21081689435865
 20
19.70937958882546
 30
0.0
 10
29.53426041314196
 20
19.60818630564021
 30
0.0
 10
29.24598530568849
 20
19.54831935391014
 30
0.0
 10
28.96280810531919
 20
19.47287760930372
 30
0.0
  0
SPLINE
  5
272
330
1F
100
AcDbEntity
  8
0
  6
SLD-Solid
 62
     7
370
    25
100
AcDbSpline
210
0.0
220
0.0
230
1.0
 70
     8
 71
     3
 72
    25
 73
    21
 74
     0
 42
0.00000001
 43
0.00000001
 40
0.0
 40
0.0
 40
0.0
 40
0.0
 40
0.0276994801334198
 40
0.0554010069735277
 40
0.083106030083933
 40
0.1108159984795546
 40
0.1385323603996911
 40
0.1662565630816982
 40
0.193990052535451
 40
0.2217342733187636
 40
0.249490668313942
 40
0.2772606785056382
 40
0.4163449652634508
 40
0.5552690929815963
 40
0.6941862057419571
 40
0.8333163013327051
 40
0.8750192775301716
 40
0.9166976267636247
 40
0.9583562362109933
 40
1.0
 40
1.0
 40
1.0
 40
1.0
 10
30.98889001829122
 20
19.73823317512972
 30
0.0
 10
31.00780976766146
 20
19.73819365737478
 30
0.0
 10
31.0456506643768
 20
19.73811461894493
 30
0.0
 10
31.10241212514819
 20
19.73747534295405
 30
0.0
 10
31.15917480786607
 20
19.7364548803986
 30
0.0
 10
31.21593871184897
 20
19.73501583822925
 30
0.0
 10
31.27270383742581
 20
19.733168237891
 30
0.0
 10
31.32947018118365
 20
19.73090939420961
 30
0.0
 10
31.38623775368515
 20
19.72824002415069
 30
0.0
 10
31.44300651332154
 20
19.72515994640989
 30
0.0
 10
31.49977661332495
 20
19.72166916946149
 30
0.0
 10
31.63239001674503
 20
19.71255589691782
 30
0.0
 10
31.8404493671834
 20
19.69373029575272
 30
0.0
 10
32.12301010109707
 20
19.65780677540664
 30
0.0
 10
32.40411314929298
 20
19.61165083154472
 30
0.0
 10
32.61825402136807
 20
19.56845636273507
 30
0.0
 10
32.76649539254493
 20
19.53493149267301
 30
0.0
 10
32.84958706486215
 20
19.5151749963763
 30
0.0
 10
32.93243755135622
 20
19.49459329160026
 30
0.0
 10
32.98746429645652
 20
19.48011739822555
 30
0.0
 10
33.01497276573544
 20
19.47288074144243
 30
0.0
  0
SPLINE
  5
273
330
1F
100
AcDbEntity
  8
0
  6
SLD-Solid
 62
     7
370
    25
100
AcDbSpline
210
0.0
220
0.0
230
1.0
 70
     8
 71
     3
 72
    20
 73
    16
 74
     0
 42
0.00000001
 43
0.00000001
 40
0.0
 40
0.0
 40
0.0
 40
0.0
 40
0.2500000000000026
 40
0.2500000000000026
 40
0.3750000000000022
 40
0.3750000000000022
 40
0.5000000000000018
 40
0.5000000000000018
 40
0.6250000000000014
 40
0.6250000000000014
 40
0.7500000000000009
 40
0.7500000000000009
 40
0.8750000000000004
 40
0.8750000000000004
 40
1.0
 40
1.0
 40
1.0
 40
1.0
 10
33.01497193123195
 20
19.47287760931205
 30
0.0
 10
33.04054866870435
 20
19.46606366492066
 30
0.0
 10
33.06439295988913
 20
19.45546359538966
 30
0.0
 10
33.09759156848975
 20
19.43395170452117
 30
0.0
 10
33.1080702315835
 20
19.42591025971021
 30
0.0
 10
33.12748146849876
 20
19.40845020990411
 30
0.0
 10
33.13648240773509
 20
19.39898821685713
 30
0.0
 10
33.15304595957306
 20
19.37857020448092
 30
0.0
 10
33.16056993787029
 20
19.36762603420848
 30
0.0
 10
33.17364619544988
 20
19.34499732666139
 30
0.0
 10
33.17927549993603
 20
19.33322427910639
 30
0.0
 10
33.18869868871284
 20
19.30875182691434
 30
0.0
 10
33.19248998897964
 20
19.29599429230067
 30
0.0
 10
33.19796520632197
 20
19.27028856000791
 30
0.0
 10
33.19969105624958
 20
19.25725611975568
 30
0.0
 10
33.2003836683738
 20
19.24404029314197
 30
0.0
  0
LINE
  5
274
330
1F
100
AcDbEntity
  8
0
  6
SLD-Solid
 62
     7
370
    25
100
AcDbLine
 10
33.2232233516
 20
18.8082331751
 30
0.0
 11
33.2003836684
 21
19.2440402931
 31
0.0
  0
LINE
  5
275
330
1F
100
AcDbEntity
  8
0
  6
SLD-Solid
 62
     7
370
    25
100
AcDbLine
 10
33.2232233516
 20
18.8082331751
 30
0.0
 11
32.8636444614
 21
18.8082331751
 31
0.0
  0
LINE
  5
276
330
1F
100
AcDbEntity
  8
0
  6
SLD-Solid
 62
     7
370
    25
100
AcDbLine
 10
32.8636444614
 20
18.7982331751
 30
0.0
 11
32.8636444614
 21
18.8082331751
 31
0.0
  0
LINE
  5
277
330
1F
100
AcDbEntity
  8
0
  6
SLD-Solid
 62
     7
370
    25
100
AcDbLine
 10
33.223056685
 20
18.7982331751
 30
0.0
 11
32.8636444614
 21
18.7982331751
 31
0.0
  0
LINE
  5
278
330
1F
100
AcDbEntity
  8
0
  6
SLD-Solid
 62
     7
370
    25
100
AcDbLine
 10
33.1398900183
 20
13.8082331751
 30
0.0
 11
33.223056685
 21
18.7982331751
 31
0.0
  0
LINE
  5
279
330
1F
100
AcDbEntity
  8
0
  6
SLD-Solid
 62
     7
370
    25
100
AcDbLine
 10
33.1398900183
 20
13.8082331751
 30
0.0
 11
32.8636444614
 21
13.8082331751
 31
0.0
  0
LINE
  5
27A
330
1F
100
AcDbEntity
  8
0
  6
SLD-Solid
 62
     7
370
    25
100
AcDbLine
 10
32.8636444614
 20
13.7982331751
 30
0.0
 11
32.8636444614
 21
13.8082331751
 31
0.0
  0
LINE
  5
27B
330
1F
100
AcDbEntity
  8
0
  6
SLD-Solid
 62
     7
370
    25
100
AcDbLine
 10
33.1397233516
 20
13.7982331751
 30
0.0
 11
32.8636444614
 21
13.7982331751
 31
0.0
  0
LINE
  5
27C
330
1F
100
AcDbEntity
  8
0
  6
SLD-Solid
 62
     7
370
    25
100
AcDbLine
 10
33.1272233516
 20
13.0482331751
 30
0.0
 11
33.1397233516
 21
13.7982331751
 31
0.0
  0
LINE
  5
27D
330
1F
100
AcDbEntity
  8
0
  6
SLD-Solid
 62
     7
370
    25
100
AcDbLine
 10
28.850556685
 20
13.0482331751
 30
0.0
 11
33.1272233516
 21
13.0482331751
 31
0.0
  0
LINE
  5
27E
330
1F
100
AcDbEntity
  8
0
  6
SLD-Solid
 62
     7
370
    25
100
AcDbLine
 10
28.850556685
 20
13.0482331751
 30
0.0
 11
28.838056685
 21
13.7982331751
 31
0.0
  0
LINE
  5
27F
330
1F
100
AcDbEntity
  8
0
  6
SLD-Solid
 62
     7
370
    25
100
AcDbLine
 10
28.838056685
 20
13.7982331751
 30
0.0
 11
29.1141355752
 21
13.7982331751
 31
0.0
  0
LINE
  5
280
330
1F
100
AcDbEntity
  8
0
  6
SLD-Solid
 62
     7
370
    25
100
AcDbLine
 10
29.1141355752
 20
13.7982331751
 30
0.0
 11
29.1141355752
 21
13.8082331751
 31
0.0
  0
LINE
  5
281
330
1F
100
AcDbEntity
  8
0
  6
SLD-Solid
 62
     7
370
    25
100
AcDbLine
 10
28.8378900183
 20
13.8082331751
 30
0.0
 11
29.1141355752
 21
13.8082331751
 31
0.0
  0
LINE
  5
282
330
1F
100
AcDbEntity
  8
0
  6
SLD-Solid
 62
     7
370
    25
100
AcDbLine
 10
28.8378900183
 20
13.8082331751
 30
0.0
 11
28.7547233516
 21
18.7982331751
 31
0.0
  0
ARC
  5
283
330
1F
100
AcDbEntity
  8
0
  6
SLD-Solid
 62
     7
370
    25
100
AcDbCircle
 10
30.9888900183
 20
17.9481715651
 30
0.0
 40
0.2000556299999983
100
AcDbArc
 50
119.9908018569
 51
60.0091981431
  0
LINE
  5
284
330
1F
100
AcDbEntity
  8
0
  6
SLD-Solid
 62
     7
370
    25
100
AcDbLine
 10
31.0888900183
 20
18.1214408789
 30
0.0
 11
31.0888900183
 21
18.3232331751
 31
0.0
  0
ARC
  5
285
330
1F
100
AcDbEntity
  8
0
  6
SLD-Solid
 62
     7
370
    25
100
AcDbCircle
 10
30.9888900183
 20
18.3232331751
 30
0.0
 40
0.1000000000000014
100
AcDbArc
 50
0.0
 51
180.0
  0
LINE
  5
286
330
1F
100
AcDbEntity
  8
0
  6
SLD-Solid
 62
     7
370
    25
100
AcDbLine
 10
30.8888900183
 20
18.3232331751
 30
0.0
 11
30.8888900183
 21
18.1214408789
 31
0.0
  0
ARC
  5
287
330
1F
100
AcDbEntity
  8
0
  6
SLD-Solid
 62
     7
370
    25
100
AcDbCircle
 10
32.6138900183
 20
14.1982331751
 30
0.0
 40
0.1000000000000014
100
AcDbArc
 50
360.0
 51
180.0
  0
LINE
  5
288
330
1F
100
AcDbEntity
  8
0
  6
SLD-Solid
 62
     7
370
    25
100
AcDbLine
 10
32.5138900183
 20
14.1982331751
 30
0.0
 11
32.5138900183
 21
13.9964408789
 31
0.0
  0
ARC
  5
289
330
1F
100
AcDbEntity
  8
0
  6
SLD-Solid
 62
     7
370
    25
100
AcDbCircle
 10
32.6138900183
 20
13.8231715651
 30
0.0
 40
0.2000556300000014
100
AcDbArc
 50
119.9908018569
 51
60.0091981431
  0
LINE
  5
28A
330
1F
100
AcDbEntity
  8
0
  6
SLD-Solid
 62
     7
370
    25
100
AcDbLine
 10
32.7138900183
 20
13.9964408789
 30
0.0
 11
32.7138900183
 21
14.1982331751
 31
0.0
  0
ARC
  5
28B
330
1F
100
AcDbEntity
  8
0
  6
SLD-Solid
 62
     7
370
    25
100
AcDbCircle
 10
29.3638900183
 20
13.8231715651
 30
0.0
 40
0.2000556300000014
100
AcDbArc
 50
119.9908018569
 51
60.0091981431
  0
LINE
  5
28C
330
1F
100
AcDbEntity
  8
0
  6
SLD-Solid
 62
     7
370
    25
100
AcDbLine
 10
29.4638900183
 20
13.9964408789
 30
0.0
 11
29.4638900183
 21
14.1982331751
 31
0.0
  0
ARC
  5
28D
330
1F
100
AcDbEntity
  8
0
  6
SLD-Solid
 62
     7
370
    25
100
AcDbCircle
 10
29.3638900183
 20
14.1982331751
 30
0.0
 40
0.1000000000000014
100
AcDbArc
 50
0.0
 51
180.0
  0
LINE
  5
28E
330
1F
100
AcDbEntity
  8
0
  6
SLD-Solid
 62
     7
370
    25
100
AcDbLine
 10
29.2638900183
 20
14.1982331751
 30
0.0
 11
29.2638900183
 21
13.9964408789
 31
0.0
  0
LINE
  5
28F
330
1F
100
AcDbEntity
  8
0
  6
SLD-Solid
 62
     7
370
    25
100
AcDbLine
 10
33.1147094647
 20
12.2973999575
 30
0.0
 11
33.1272233516
 21
13.0482331751
 31
0.0
  0
ARC
  5
290
330
1F
100
AcDbEntity
  8
0
  6
SLD-Solid
 62
     7
370
    25
100
AcDbCircle
 10
33.0647164077
 20
12.2982331751
 30
0.0
 40
0.0500000000000042
100
AcDbArc
 50
270.0
 51
359.0451587461
  0
LINE
  5
291
330
1F
100
AcDbEntity
  8
0
  6
SLD-Solid
 62
     7
370
    25
100
AcDbLine
 10
28.9130636289
 20
12.2482331751
 30
0.0
 11
33.0647164077
 21
12.2482331751
 31
0.0
  0
ARC
  5
292
330
1F
100
AcDbEntity
  8
0
  6
SLD-Solid
 62
     7
370
    25
100
AcDbCircle
 10
28.9130636289
 20
12.2982331751
 30
0.0
 40
0.0500000000000042
100
AcDbArc
 50
180.9548412539
 51
270.0
  0
LINE
  5
293
330
1F
100
AcDbEntity
  8
0
  6
SLD-Solid
 62
     7
370
    25
100
AcDbLine
 10
28.8630705719
 20
12.2973999575
 30
0.0
 11
28.850556685
 21
13.0482331751
 31
0.0
  0
LINE
  5
294
330
1F
100
AcDbEntity
  8
0
  6
SLD-Solid
 62
     7
370
    25
100
AcDbLine
 10
30.9888900183
 20
12.1682331751
 30
0.0
 11
30.8838900183
 21
12.1682331751
 31
0.0
  0
LINE
  5
295
330
1F
100
AcDbEntity
  8
0
  6
SLD-Solid
 62
     7
370
    25
100
AcDbLine
 10
31.0938900183
 20
12.1682331751
 30
0.0
 11
30.9888900183
 21
12.1682331751
 31
0.0
  0
MTEXT
  5
296
330
1F
100
AcDbEntity
  8
NOTES
100
AcDbMText
 10
27.7506801554
 20
21.2151778691
 30
0.0
 40
0.5
 41
0.0
 71
     1
 72
     1
  1
mounting hole (3)
  7
SLDTEXTSTYLE1
 73
     1
 44
1.0
  0
LEADER
  5
298
330
1F
100
AcDbEntity
  8
NOTES
100
AcDbLeader
  3
SLDDIMSTYLE2
 76
     3
 10
31.0310420803
 20
18.4139150568
 30
0.0
 10
33.9935255971
 20
20.970472444
 30
0.0
 10
33.4935255971
 20
20.970472444
 30
0.0
  0
MTEXT
  5
299
330
1F
100
AcDbEntity
  8
NOTES
100
AcDbMText
 10
29.4755208613
 20
11.6649829365
 30
0.0
 40
0.5
 41
0.0
 71
     1
 72
     1
  1
Back view
  7
SLDTEXTSTYLE1
 73
     1
 44
1.0
  0
SPLINE
  5
29A
330
1F
100
AcDbEntity
  8
0
  6
SLD-Solid
 62
     7
370
    25
100
AcDbSpline
210
0.0
220
0.0
230
1.0
 70
    24
 71
     3
 72
    25
 73
    21
 74
     0
 42
0.00000001
 43
0.00000001
 40
0.0
 40
0.0
 40
0.0
 40
0.0
 40
0.0276994801334198
 40
0.0554010069735277
 40
0.083106030083933
 40
0.1108159984795546
 40
0.1385323603996911
 40
0.1662565630816982
 40
0.193990052535451
 40
0.2217342733187636
 40
0.249490668313942
 40
0.2772606785056382
 40
0.4163449652634508
 40
0.5552690929815963
 40
0.6941862057419571
 40
0.8333163013327051
 40
0.8750192775301716
 40
0.9166976267636247
 40
0.9583562362109933
 40
1.0
 40
1.0
 40
1.0
 40
1.0
 10
9.799762351217485
 20
27.71345767760401
 30
0.0
 10
9.780842601847253
 20
27.71345767760401
 30
0.0
 10
9.743001705131904
 20
27.71345767760401
 30
0.0
 10
9.686240244360521
 20
27.71345767760401
 30
0.0
 10
9.629477561642641
 20
27.71345767760401
 30
0.0
 10
9.572713657659733
 20
27.71345767760401
 30
0.0
 10
9.515948532082895
 20
27.71345767760401
 30
0.0
 10
9.459182188325055
 20
27.71345767760401
 30
0.0
 10
9.402414615823556
 20
27.71345767760401
 30
0.0
 10
9.345645856187165
 20
27.71345767760401
 30
0.0
 10
9.288875756183756
 20
27.71345767760401
 30
0.0
 10
9.156262352763678
 20
27.71345767760401
 30
0.0
 10
8.948203002325313
 20
27.71345767760401
 30
0.0
 10
8.665642268411633
 20
27.71345767760401
 30
0.0
 10
8.38453922021573
 20
27.71345767760401
 30
0.0
 10
8.170398348140637
 20
27.71345767760401
 30
0.0
 10
8.022156976963776
 20
27.71345767760401
 30
0.0
 10
7.939065304646556
 20
27.71345767760401
 30
0.0
 10
7.856214818152486
 20
27.71345767760401
 30
0.0
 10
7.801188073052194
 20
27.71345767760401
 30
0.0
 10
7.773679603773268
 20
27.71345767760401
 30
0.0
  0
SPLINE
  5
29B
330
1F
100
AcDbEntity
  8
0
  6
SLD-Solid
 62
     7
370
    25
100
AcDbSpline
210
0.0
220
0.0
230
1.0
 70
    24
 71
     3
 72
    10
 73
     6
 74
     0
 42
0.00000001
 43
0.00000001
 40
0.0
 40
0.0
 40
0.0
 40
0.0
 40
0.5
 40
0.5
 40
0.8767825437552328
 40
0.8767825437552328
 40
0.8767825437552328
 40
0.8767825437552328
 10
9.799762351217485
 20
27.71345767760401
 30
0.0
 10
10.18772596534498
 20
27.71345767760401
 30
0.0
 10
10.57783547515006
 20
27.71345767760401
 30
0.0
 10
11.25439195636675
 20
27.71345767760401
 30
0.0
 10
11.54266706382023
 20
27.71345767760401
 30
0.0
 10
11.82584426418951
 20
27.71345767760401
 30
0.0
  0
SPLINE
  5
29C
330
1F
100
AcDbEntity
  8
0
  6
SLD-Solid
 62
     7
370
    25
100
AcDbSpline
210
0.0
220
0.0
230
1.0
 70
    24
 71
     3
 72
    20
 73
    16
 74
     0
 42
0.00000001
 43
0.00000001
 40
0.0
 40
0.0
 40
0.0
 40
0.0
 40
0.2500000000000026
 40
0.2500000000000026
 40
0.3750000000000022
 40
0.3750000000000022
 40
0.5000000000000018
 40
0.5000000000000018
 40
0.6250000000000014
 40
0.6250000000000014
 40
0.7500000000000009
 40
0.7500000000000009
 40
0.8750000000000004
 40
0.8750000000000004
 40
1.0
 40
1.0
 40
1.0
 40
1.0
 10
11.82584426415822
 20
27.71345767760401
 30
0.0
 10
11.85142100163062
 20
27.71345767760401
 30
0.0
 10
11.8752652928154
 20
27.71345767760401
 30
0.0
 10
11.90846390141601
 20
27.71345767760401
 30
0.0
 10
11.91894256450976
 20
27.71345767760401
 30
0.0
 10
11.93835380142502
 20
27.71345767760401
 30
0.0
 10
11.94735474066135
 20
27.71345767760401
 30
0.0
 10
11.96391829249932
 20
27.71345767760401
 30
0.0
 10
11.97144227079655
 20
27.71345767760401
 30
0.0
 10
11.98451852837615
 20
27.71345767760401
 30
0.0
 10
11.9901478328623
 20
27.71345767760401
 30
0.0
 10
11.99957102163911
 20
27.71345767760401
 30
0.0
 10
12.0033623219059
 20
27.71345767760401
 30
0.0
 10
12.00883753924824
 20
27.71345767760401
 30
0.0
 10
12.01056338917584
 20
27.71345767760401
 30
0.0
 10
12.01125600130006
 20
27.71345767760401
 30
0.0
  0
SPLINE
  5
29D
330
1F
100
AcDbEntity
  8
0
  6
SLD-Solid
 62
     7
370
    25
100
AcDbSpline
210
0.0
220
0.0
230
1.0
 70
    24
 71
     3
 72
    20
 73
    16
 74
     0
 42
0.00000001
 43
0.00000001
 40
0.0
 40
0.0
 40
0.0
 40
0.0
 40
0.2500000000000026
 40
0.2500000000000026
 40
0.3750000000000022
 40
0.3750000000000022
 40
0.5000000000000018
 40
0.5000000000000018
 40
0.6250000000000014
 40
0.6250000000000014
 40
0.7500000000000009
 40
0.7500000000000009
 40
0.8750000000000004
 40
0.8750000000000004
 40
1.0
 40
1.0
 40
1.0
 40
1.0
 10
7.773680438276749
 20
27.71345767760401
 30
0.0
 10
7.748103700804352
 20
27.71345767760401
 30
0.0
 10
7.724259409619572
 20
27.71345767760401
 30
0.0
 10
7.691060801018964
 20
27.71345767760401
 30
0.0
 10
7.680582137925209
 20
27.71345767760401
 30
0.0
 10
7.66117090100995
 20
27.71345767760401
 30
0.0
 10
7.652169961773616
 20
27.71345767760401
 30
0.0
 10
7.635606409935651
 20
27.71345767760401
 30
0.0
 10
7.628082431638421
 20
27.71345767760401
 30
0.0
 10
7.615006174058824
 20
27.71345767760401
 30
0.0
 10
7.609376869572674
 20
27.71345767760401
 30
0.0
 10
7.599953680795865
 20
27.71345767760401
 30
0.0
 10
7.596162380529074
 20
27.71345767760401
 30
0.0
 10
7.590687163186736
 20
27.71345767760401
 30
0.0
 10
7.588961313259128
 20
27.71345767760401
 30
0.0
 10
7.588268701134914
 20
27.71345767760401
 30
0.0
  0
LINE
  5
29E
330
1F
100
AcDbEntity
  8
0
  6
SLD-Solid
 62
     7
370
    25
100
AcDbLine
 10
7.5654290179
 20
24.5100814521
 30
0.0
 11
7.5654290179
 21
27.7134576776
 31
0.0
  0
LINE
  5
29F
330
1F
100
AcDbEntity
  8
0
  6
SLD-Solid
 62
     7
370
    25
100
AcDbLine
 10
7.5654290179
 20
27.7134576776
 30
0.0
 11
7.5882687011
 21
27.7134576776
 31
0.0
  0
LINE
  5
2A0
330
1F
100
AcDbEntity
  8
0
  6
SLD-Solid
 62
     7
370
    25
100
AcDbLine
 10
12.0340956846
 20
24.5100814521
 30
0.0
 11
12.0340956846
 21
27.7134576776
 31
0.0
  0
LINE
  5
2A1
330
1F
100
AcDbEntity
  8
0
  6
SLD-Solid
 62
     7
370
    25
100
AcDbLine
 10
12.0199926836
 20
24.5100814521
 30
0.0
 11
12.0340956846
 21
24.5100814521
 31
0.0
  0
LINE
  5
2A2
330
1F
100
AcDbEntity
  8
0
  6
SLD-Solid
 62
     7
370
    25
100
AcDbLine
 10
12.0340956846
 20
27.7134576776
 30
0.0
 11
12.0112560013
 21
27.7134576776
 31
0.0
  0
SPLINE
  5
2A3
330
1F
100
AcDbEntity
  8
0
  6
SLD-Solid
 62
     7
370
    25
100
AcDbSpline
210
0.0
220
0.0
230
1.0
 70
     8
 71
     3
 72
    13
 73
     9
 74
     0
 42
0.00000001
 43
0.00000001
 40
0.0000000951352746
 40
0.0000000951352746
 40
0.0000000951352746
 40
0.0000000951352746
 40
0.0000001903670129
 40
0.0000001903670129
 40
0.0000001903670129
 40
0.0225007147131333
 40
0.0225007147131333
 40
0.0450012390592536
 40
0.0450012390592536
 40
0.0450012390592536
 40
0.0450012390592536
 10
9.799766100738738
 20
23.73852434427071
 30
0.0
 10
9.799767350579156
 20
23.73852434427182
 30
0.0
 10
9.799768600419574
 20
23.73852434427293
 30
0.0
 10
9.799769850259992
 20
23.73852434427404
 30
0.0
 10
10.09507124083345
 20
23.73852460687861
 30
0.0
 10
10.39050343681352
 20
23.75401832629549
 30
0.0
 10
10.97780478940333
 20
23.81564143958705
 30
0.0
 10
11.27001194092755
 20
23.86190158687452
 30
0.0
 10
11.55884164926386
 20
23.92321507596066
 30
0.0
  0
LINE
  5
2A4
330
1F
100
AcDbEntity
  8
0
  6
SLD-Solid
 62
     7
370
    25
100
AcDbLine
 10
11.5588416493
 20
23.923215076
 30
0.0
 11
11.5557601769
 21
23.9377309805
 31
0.0
  0
SPLINE
  5
2A5
330
1F
100
AcDbEntity
  8
0
  6
SLD-Solid
 62
     7
370
    25
100
AcDbSpline
210
0.0
220
0.0
230
1.0
 70
     8
 71
     3
 72
    13
 73
     9
 74
     0
 42
0.00000001
 43
0.00000001
 40
0.0000000951352746
 40
0.0000000951352746
 40
0.0000000951352746
 40
0.0000000951352746
 40
0.0000001903670129
 40
0.0000001903670129
 40
0.0000001903670129
 40
0.0225007147131333
 40
0.0225007147131333
 40
0.0450012390592536
 40
0.0450012390592536
 40
0.0450012390592536
 40
0.0450012390592536
 10
9.799758601696231
 20
23.73852434427071
 30
0.0
 10
9.799757351855813
 20
23.73852434427182
 30
0.0
 10
9.799756102015396
 20
23.73852434427293
 30
0.0
 10
9.799754852174978
 20
23.73852434427404
 30
0.0
 10
9.504453461601523
 20
23.73852460687861
 30
0.0
 10
9.209021265621452
 20
23.75401832629549
 30
0.0
 10
8.621719913031638
 20
23.81564143958705
 30
0.0
 10
8.329512761507416
 20
23.86190158687452
 30
0.0
 10
8.040683053171108
 20
23.92321507596066
 30
0.0
  0
SPLINE
  5
2A6
330
1F
100
AcDbEntity
  8
0
  6
SLD-Solid
 62
     7
370
    25
100
AcDbSpline
210
0.0
220
0.0
230
1.0
 70
     8
 71
     3
 72
    22
 73
    18
 74
     0
 42
0.00000001
 43
0.00000001
 40
0.0
 40
0.0
 40
0.0
 40
0.0
 40
0.0025816160087245
 40
0.0025816160087245
 40
0.005163232017449
 40
0.005163232017449
 40
0.0077448480261734
 40
0.0077448480261734
 40
0.0103264640348979
 40
0.0103264640348979
 40
0.0129080800436224
 40
0.0129080800436224
 40
0.0154896960523469
 40
0.0154896960523469
 40
0.0180713120610713
 40
0.0180713120610713
 40
0.0206529280697958
 40
0.0206529280697958
 40
0.0206529280697958
 40
0.0206529280697958
 10
7.565429017884132
 20
24.51008145211051
 30
0.0
 10
7.565429017908694
 20
24.47571576556129
 30
0.0
 10
7.568358149053434
 20
24.44184605660653
 30
0.0
 10
7.579830141697803
 20
24.37506523052513
 30
0.0
 10
7.588384413062626
 20
24.34212041999395
 30
0.0
 10
7.611316400384434
 20
24.27736121813427
 30
0.0
 10
7.625378648000087
 20
24.24642044394016
 30
0.0
 10
7.658486351990842
 20
24.18730055682165
 30
0.0
 10
7.677573759277229
 20
24.15906965766477
 30
0.0
 10
7.720793833940724
 20
24.10571235934382
 30
0.0
 10
7.744375143888329
 20
24.08124864918651
 30
0.0
 10
7.795326826529837
 20
24.03657865262667
 30
0.0
 10
7.822782609834313
 20
24.01632026794109
 30
0.0
 10
7.881310446755646
 20
23.98048467264611
 30
0.0
 10
7.911684182716654
 20
23.9653147940642
 30
0.0
 10
7.974561421551486
 20
23.94024836076172
 30
0.0
 10
8.007066257307123
 20
23.93035133305088
 30
0.0
 10
8.040683053171097
 20
23.92321507596061
 30
0.0
  0
SPLINE
  5
2A7
330
1F
100
AcDbEntity
  8
0
  6
SLD-Solid
 62
     7
370
    25
100
AcDbSpline
210
0.0
220
0.0
230
1.0
 70
     8
 71
     3
 72
    22
 73
    18
 74
     0
 42
0.00000001
 43
0.00000001
 40
0.0
 40
0.0
 40
0.0
 40
0.0
 40
0.0025816160087245
 40
0.0025816160087245
 40
0.005163232017449
 40
0.005163232017449
 40
0.0077448480261734
 40
0.0077448480261734
 40
0.0103264640348979
 40
0.0103264640348979
 40
0.0129080800436224
 40
0.0129080800436224
 40
0.0154896960523469
 40
0.0154896960523469
 40
0.0180713120610713
 40
0.0180713120610713
 40
0.0206529280697958
 40
0.0206529280697958
 40
0.0206529280697958
 40
0.0206529280697958
 10
12.03409568455084
 20
24.51008145211051
 30
0.0
 10
12.03409568452628
 20
24.47571576556129
 30
0.0
 10
12.03116655338154
 20
24.44184605660653
 30
0.0
 10
12.01969456073717
 20
24.37506523052513
 30
0.0
 10
12.01114028937234
 20
24.34212041999395
 30
0.0
 10
11.98820830205054
 20
24.27736121813427
 30
0.0
 10
11.97414605443488
 20
24.24642044394016
 30
0.0
 10
11.94103835044413
 20
24.18730055682165
 30
0.0
 10
11.92195094315774
 20
24.15906965766477
 30
0.0
 10
11.87873086849425
 20
24.10571235934382
 30
0.0
 10
11.85514955854664
 20
24.08124864918651
 30
0.0
 10
11.80419787590513
 20
24.03657865262667
 30
0.0
 10
11.77674209260066
 20
24.01632026794109
 30
0.0
 10
11.71821425567932
 20
23.98048467264611
 30
0.0
 10
11.68784051971832
 20
23.9653147940642
 30
0.0
 10
11.62496328088348
 20
23.94024836076172
 30
0.0
 10
11.59245844512785
 20
23.93035133305088
 30
0.0
 10
11.55884164926387
 20
23.92321507596061
 30
0.0
  0
LINE
  5
2A8
330
1F
100
AcDbEntity
  8
0
  6
SLD-Solid
 62
     7
370
    25
100
AcDbLine
 10
8.2681914728
 20
23.6378429105
 30
0.0
 11
8.2681914728
 21
23.878616307
 31
0.0
  0
LINE
  5
2A9
330
1F
100
AcDbEntity
  8
0
  6
SLD-Solid
 62
     7
370
    25
100
AcDbLine
 10
11.3313332296
 20
23.6378429105
 30
0.0
 11
11.3313332296
 21
23.878616307
 31
0.0
  0
ARC
  5
2AA
330
1F
100
AcDbEntity
  8
0
  6
SLD-Solid
 62
     7
370
    25
100
AcDbCircle
 10
11.2813332296
 20
23.6378429105
 30
0.0
 40
0.0500000000000025
100
AcDbArc
 50
280.5544555777
 51
0.0
  0
ARC
  5
2AB
330
1F
100
AcDbEntity
  8
0
  6
SLD-Solid
 62
     7
370
    25
100
AcDbCircle
 10
8.3181914728
 20
23.6378429105
 30
0.0
 40
0.0500000000000022
100
AcDbArc
 50
180.0
 51
259.4455444223
  0
ARC
  5
2AC
330
1F
100
AcDbEntity
  8
0
  6
SLD-Solid
 62
     7
370
    25
100
AcDbCircle
 10
9.7997623512
 20
31.5894993443
 30
0.0
 40
8.138503712603319
100
AcDbArc
 50
259.4455444223
 51
280.5544555777
  0
DIMENSION
  5
2AD
330
1F
100
AcDbEntity
  8
DIMS
100
AcDbDimension
  2
_D_3
 10
13.1726982168
 20
23.4509956317
 30
0.0
 11
13.1726982168
 21
25.6624040737
 31
0.0
 70
   160
  1
<>
 71
     2
 42
-1.0
  3
SLDDIMSTYLE1
100
AcDbAlignedDimension
 13
12.0112560013
 23
27.7134576776
 33
0.0
 14
9.7997623512
 24
23.4509956317
 34
0.0
 50
90.0
100
AcDbRotatedDimension
  0
MTEXT
  5
2BC
330
1F
100
AcDbEntity
  8
NOTES
100
AcDbMText
 10
8.470018099
 20
23.0876286196
 30
0.0
 40
0.5
 41
0.0
 71
     1
 72
     1
  1
Top view
  7
SLDTEXTSTYLE1
 73
     1
 44
1.0
  0
ENDSEC
  0
SECTION
  2
OBJECTS
  0
DICTIONARY
  5
C
330
0
100
AcDbDictionary
281
     1
  3
ACAD_GROUP
350
D
  3
ACAD_LAYOUT
350
1A
  3
ACAD_MLINESTYLE
350
17
  3
ACAD_PLOTSETTINGS
350
19
  3
ACAD_PLOTSTYLENAME
350
E
  3
ACAD_SCALELIST
350
47
  3
DWGPROPS
350
2BD
  0
DICTIONARY
  5
D
102
{ACAD_REACTORS
330
C
102
}
330
C
100
AcDbDictionary
281
     1
  0
DICTIONARY
  5
1A
102
{ACAD_REACTORS
330
C
102
}
330
C
100
AcDbDictionary
281
     1
  3
Layout1
350
1E
  3
Layout2
350
26
  3
Model
350
22
  0
DICTIONARY
  5
17
102
{ACAD_REACTORS
330
C
102
}
330
C
100
AcDbDictionary
281
     1
  3
Standard
350
18
  0
DICTIONARY
  5
19
102
{ACAD_REACTORS
330
C
102
}
330
C
100
AcDbDictionary
281
     1
  0
ACDBDICTIONARYWDFLT
  5
E
102
{ACAD_REACTORS
330
C
102
}
330
C
100
AcDbDictionary
281
     1
  3
Normal
350
F
100
AcDbDictionaryWithDefault
340
F
  0
DICTIONARY
  5
47
102
{ACAD_REACTORS
330
C
102
}
330
C
100
AcDbDictionary
281
     1
  3
A0
350
48
  3
A1
350
49
  3
A2
350
4A
  3
A3
350
4B
  3
A4
350
4C
  3
A5
350
4D
  3
A6
350
4E
  3
A7
350
4F
  3
A8
350
50
  3
A9
350
51
  3
B0
350
52
  3
B1
350
53
  3
B2
350
54
  3
B3
350
55
  3
B4
350
56
  3
B5
350
57
  3
B6
350
58
  3
B7
350
59
  3
B8
350
5A
  3
B9
350
5B
  3
C0
350
5C
  3
C1
350
5D
  3
C2
350
5E
  3
C3
350
5F
  3
C4
350
60
  3
C5
350
61
  3
C6
350
62
  3
C7
350
63
  3
C8
350
64
  3
C9
350
65
  3
D0
350
66
  3
D1
350
67
  3
D2
350
68
  0
XRECORD
  5
2BD
102
{ACAD_REACTORS
330
C
102
}
330
C
100
AcDbXrecord
280
     1
  1
DWGPROPS COOKIE
  2

  3

  4

  6

  7

  8
carl
  9

300
=
301
=
302
=
303
=
304
=
305
=
306
=
307
=
308
=
309
=
 40
0.0
 41
2459460.489286424
 42
2459460.489290555
  1

 90
        0
  0
LAYOUT
  5
1E
102
{ACAD_REACTORS
330
1A
102
}
330
1A
100
AcDbPlotSettings
  1

  2
none_device
  4

  6

 40
0.0
 41
0.0
 42
0.0
 43
0.0
 44
0.0
 45
0.0
 46
0.0
 47
0.0
 48
0.0
 49
0.0
140
0.0
141
0.0
142
1.0
143
1.0
 70
   688
 72
     0
 73
     0
 74
     5
  7

 75
    16
147
1.0
148
0.0
149
0.0
100
AcDbLayout
  1
Layout1
 70
     1
 71
     1
 10
0.0
 20
0.0
 11
12.0
 21
9.0
 12
0.0
 22
0.0
 32
0.0
 14
1.0000000000E+20
 24
1.0000000000E+20
 34
1.0000000000E+20
 15
-1.0000000000E+20
 25
-1.0000000000E+20
 35
-1.0000000000E+20
146
0.0
 13
0.0
 23
0.0
 33
0.0
 16
1.0
 26
0.0
 36
0.0
 17
0.0
 27
1.0
 37
0.0
 76
     0
330
1B
  0
LAYOUT
  5
26
102
{ACAD_REACTORS
330
1A
102
}
330
1A
100
AcDbPlotSettings
  1

  2
none_device
  4

  6

 40
0.0
 41
0.0
 42
0.0
 43
0.0
 44
0.0
 45
0.0
 46
0.0
 47
0.0
 48
0.0
 49
0.0
140
0.0
141
0.0
142
1.0
143
1.0
 70
   688
 72
     0
 73
     0
 74
     5
  7

 75
    16
147
1.0
148
0.0
149
0.0
100
AcDbLayout
  1
Layout2
 70
     1
 71
     2
 10
0.0
 20
0.0
 11
0.0
 21
0.0
 12
0.0
 22
0.0
 32
0.0
 14
0.0
 24
0.0
 34
0.0
 15
0.0
 25
0.0
 35
0.0
146
0.0
 13
0.0
 23
0.0
 33
0.0
 16
1.0
 26
0.0
 36
0.0
 17
0.0
 27
1.0
 37
0.0
 76
     0
330
23
  0
LAYOUT
  5
22
102
{ACAD_REACTORS
330
1A
102
}
330
1A
100
AcDbPlotSettings
  1

  2
none_device
  4
Letter_(8.50_x_11.00_Inches)
  6

 40
6.35
 41
6.35
 42
6.35000508
 43
6.35000508
 44
215.9
 45
279.4
 46
0.0
 47
0.0
 48
0.0
 49
0.0
140
0.0
141
0.0
142
1.0
143
1.0
 70
  1712
 72
     0
 73
     0
 74
     0
  7

 75
     0
147
1.0
148
0.0
149
0.0
100
AcDbLayout
  1
Model
 70
     1
 71
     0
 10
0.0
 20
0.0
 11
48.0
 21
36.0
 12
0.0
 22
0.0
 32
0.0
 14
0.0
 24
0.0
 34
0.0
 15
48.0
 25
36.0
 35
0.0
146
0.0
 13
0.0
 23
0.0
 33
0.0
 16
1.0
 26
0.0
 36
0.0
 17
0.0
 27
1.0
 37
0.0
 76
     0
330
1F
331
29
  0
MLINESTYLE
  5
18
102
{ACAD_REACTORS
330
17
102
}
330
17
100
AcDbMlineStyle
  2
Standard
 70
     0
  3

 62
   256
 51
90.0
 52
90.0
 71
     2
 49
0.5
 62
   256
  6
BYLAYER
 49
-0.5
 62
   256
  6
BYLAYER
  0
ACDBPLACEHOLDER
  5
F
102
{ACAD_REACTORS
330
E
102
}
330
E
  0
SCALE
  5
48
102
{ACAD_REACTORS
330
47
102
}
330
47
100
AcDbScale
 70
     0
300
1:1
140
1.0
141
1.0
290
     1
  0
SCALE
  5
49
102
{ACAD_REACTORS
330
47
102
}
330
47
100
AcDbScale
 70
     0
300
1:2
140
1.0
141
2.0
290
     0
  0
SCALE
  5
4A
102
{ACAD_REACTORS
330
47
102
}
330
47
100
AcDbScale
 70
     0
300
1:4
140
1.0
141
4.0
290
     0
  0
SCALE
  5
4B
102
{ACAD_REACTORS
330
47
102
}
330
47
100
AcDbScale
 70
     0
300
1:5
140
1.0
141
5.0
290
     0
  0
SCALE
  5
4C
102
{ACAD_REACTORS
330
47
102
}
330
47
100
AcDbScale
 70
     0
300
1:8
140
1.0
141
8.0
290
     0
  0
SCALE
  5
4D
102
{ACAD_REACTORS
330
47
102
}
330
47
100
AcDbScale
 70
     0
300
1:10
140
1.0
141
10.0
290
     0
  0
SCALE
  5
4E
102
{ACAD_REACTORS
330
47
102
}
330
47
100
AcDbScale
 70
     0
300
1:16
140
1.0
141
16.0
290
     0
  0
SCALE
  5
4F
102
{ACAD_REACTORS
330
47
102
}
330
47
100
AcDbScale
 70
     0
300
1:20
140
1.0
141
20.0
290
     0
  0
SCALE
  5
50
102
{ACAD_REACTORS
330
47
102
}
330
47
100
AcDbScale
 70
     0
300
1:30
140
1.0
141
30.0
290
     0
  0
SCALE
  5
51
102
{ACAD_REACTORS
330
47
102
}
330
47
100
AcDbScale
 70
     0
300
1:40
140
1.0
141
40.0
290
     0
  0
SCALE
  5
52
102
{ACAD_REACTORS
330
47
102
}
330
47
100
AcDbScale
 70
     0
300
1:50
140
1.0
141
50.0
290
     0
  0
SCALE
  5
53
102
{ACAD_REACTORS
330
47
102
}
330
47
100
AcDbScale
 70
     0
300
1:100
140
1.0
141
100.0
290
     0
  0
SCALE
  5
54
102
{ACAD_REACTORS
330
47
102
}
330
47
100
AcDbScale
 70
     0
300
2:1
140
2.0
141
1.0
290
     0
  0
SCALE
  5
55
102
{ACAD_REACTORS
330
47
102
}
330
47
100
AcDbScale
 70
     0
300
4:1
140
4.0
141
1.0
290
     0
  0
SCALE
  5
56
102
{ACAD_REACTORS
330
47
102
}
330
47
100
AcDbScale
 70
     0
300
8:1
140
8.0
141
1.0
290
     0
  0
SCALE
  5
57
102
{ACAD_REACTORS
330
47
102
}
330
47
100
AcDbScale
 70
     0
300
10:1
140
10.0
141
1.0
290
     0
  0
SCALE
  5
58
102
{ACAD_REACTORS
330
47
102
}
330
47
100
AcDbScale
 70
     0
300
100:1
140
100.0
141
1.0
290
     0
  0
SCALE
  5
59
102
{ACAD_REACTORS
330
47
102
}
330
47
100
AcDbScale
 70
     0
300
1/128" = 1'-0"
140
0.0078125
141
12.0
290
     0
  0
SCALE
  5
5A
102
{ACAD_REACTORS
330
47
102
}
330
47
100
AcDbScale
 70
     0
300
1/64" = 1'-0"
140
0.015625
141
12.0
290
     0
  0
SCALE
  5
5B
102
{ACAD_REACTORS
330
47
102
}
330
47
100
AcDbScale
 70
     0
300
1/32" = 1'-0"
140
0.03125
141
12.0
290
     0
  0
SCALE
  5
5C
102
{ACAD_REACTORS
330
47
102
}
330
47
100
AcDbScale
 70
     0
300
1/16" = 1'-0"
140
0.0625
141
12.0
290
     0
  0
SCALE
  5
5D
102
{ACAD_REACTORS
330
47
102
}
330
47
100
AcDbScale
 70
     0
300
3/32" = 1'-0"
140
0.09375
141
12.0
290
     0
  0
SCALE
  5
5E
102
{ACAD_REACTORS
330
47
102
}
330
47
100
AcDbScale
 70
     0
300
1/8" = 1'-0"
140
0.125
141
12.0
290
     0
  0
SCALE
  5
5F
102
{ACAD_REACTORS
330
47
102
}
330
47
100
AcDbScale
 70
     0
300
3/16" = 1'-0"
140
0.1875
141
12.0
290
     0
  0
SCALE
  5
60
102
{ACAD_REACTORS
330
47
102
}
330
47
100
AcDbScale
 70
     0
300
1/4" = 1'-0"
140
0.25
141
12.0
290
     0
  0
SCALE
  5
61
102
{ACAD_REACTORS
330
47
102
}
330
47
100
AcDbScale
 70
     0
300
3/8" = 1'-0"
140
0.375
141
12.0
290
     0
  0
SCALE
  5
62
102
{ACAD_REACTORS
330
47
102
}
330
47
100
AcDbScale
 70
     0
300
1/2" = 1'-0"
140
0.5
141
12.0
290
     0
  0
SCALE
  5
63
102
{ACAD_REACTORS
330
47
102
}
330
47
100
AcDbScale
 70
     0
300
3/4" = 1'-0"
140
0.75
141
12.0
290
     0
  0
SCALE
  5
64
102
{ACAD_REACTORS
330
47
102
}
330
47
100
AcDbScale
 70
     0
300
1" = 1'-0"
140
1.0
141
12.0
290
     0
  0
SCALE
  5
65
102
{ACAD_REACTORS
330
47
102
}
330
47
100
AcDbScale
 70
     0
300
1-1/2" = 1'-0"
140
1.5
141
12.0
290
     0
  0
SCALE
  5
66
102
{ACAD_REACTORS
330
47
102
}
330
47
100
AcDbScale
 70
     0
300
3" = 1'-0"
140
3.0
141
12.0
290
     0
  0
SCALE
  5
67
102
{ACAD_REACTORS
330
47
102
}
330
47
100
AcDbScale
 70
     0
300
6" = 1'-0"
140
6.0
141
12.0
290
     0
  0
SCALE
  5
68
102
{ACAD_REACTORS
330
47
102
}
330
47
100
AcDbScale
 70
     0
300
1'-0" = 1'-0"
140
12.0
141
12.0
290
     0
  0
ENDSEC
  0
EOF
