  0
SECTION
  2
HEADER
  9
$ACADVER
  1
AC1018
  9
$ACADMAINTVER
 70
    39
  9
$DWGCODEPAGE
  3
ANSI_1252
  9
$LASTSAVEDBY
  1
fottrem
  9
$INSBASE
 10
0.0
 20
0.0
 30
0.0
  9
$EXTMIN
 10
1.126653958929319
 20
0.3573773641115478
 30
-2.032377062237089
  9
$EXTMAX
 10
46.41568767877938
 20
32.40770253565866
 30
0.1661011993534642
  9
$LIMMIN
 10
0.0
 20
0.0
  9
$LIMMAX
 10
46.81102362204724
 20
33.11023622047244
  9
$ORTHOMODE
 70
     0
  9
$REGENMODE
 70
     1
  9
$FILLMODE
 70
     1
  9
$QTEXTMODE
 70
     0
  9
$MIRRTEXT
 70
     1
  9
$LTSCALE
 40
1.0
  9
$ATTMODE
 70
     1
  9
$TEXTSIZE
 40
0.5
  9
$TRACEWID
 40
0.05
  9
$TEXTSTYLE
  7
Standard
  9
$CLAYER
  8
0
  9
$CELTYPE
  6
ByLayer
  9
$CECOLOR
 62
   256
  9
$CELTSCALE
 40
1.0
  9
$DISPSILH
 70
     0
  9
$DIMSCALE
 40
1.0
  9
$DIMASZ
 40
0.7500000000000001
  9
$DIMEXO
 40
0.1666666666666667
  9
$DIMDLI
 40
0.38
  9
$DIMRND
 40
0.0
  9
$DIMDLE
 40
0.0
  9
$DIMEXE
 40
0.3750000000000001
  9
$DIMTP
 40
0.0
  9
$DIMTM
 40
0.0
  9
$DIMTXT
 40
0.5
  9
$DIMCEN
 40
0.09
  9
$DIMTSZ
 40
0.0
  9
$DIMTOL
 70
     0
  9
$DIMLIM
 70
     0
  9
$DIMTIH
 70
     1
  9
$DIMTOH
 70
     1
  9
$DIMSE1
 70
     0
  9
$DIMSE2
 70
     0
  9
$DIMTAD
 70
     0
  9
$DIMZIN
 70
     1
  9
$DIMBLK
  1

  9
$DIMASO
 70
     1
  9
$DIMSHO
 70
     1
  9
$DIMPOST
  1

  9
$DIMAPOST
  1

  9
$DIMALT
 70
     0
  9
$DIMALTD
 70
     2
  9
$DIMALTF
 40
25.4
  9
$DIMLFAC
 40
1.0
  9
$DIMTOFL
 70
     0
  9
$DIMTVP
 40
0.0
  9
$DIMTIX
 70
     0
  9
$DIMSOXD
 70
     0
  9
$DIMSAH
 70
     0
  9
$DIMBLK1
  1

  9
$DIMBLK2
  1

  9
$DIMSTYLE
  2
Standard
  9
$DIMCLRD
 70
     0
  9
$DIMCLRE
 70
     0
  9
$DIMCLRT
 70
     0
  9
$DIMTFAC
 40
1.0
  9
$DIMGAP
 40
0.125
  9
$DIMJUST
 70
     0
  9
$DIMSD1
 70
     0
  9
$DIMSD2
 70
     0
  9
$DIMTOLJ
 70
     1
  9
$DIMTZIN
 70
     1
  9
$DIMALTZ
 70
     0
  9
$DIMALTTZ
 70
     0
  9
$DIMUPT
 70
     0
  9
$DIMDEC
 70
     2
  9
$DIMTDEC
 70
     2
  9
$DIMALTU
 70
     2
  9
$DIMALTTD
 70
     2
  9
$DIMTXSTY
  7
Standard
  9
$DIMAUNIT
 70
     0
  9
$DIMADEC
 70
     2
  9
$DIMALTRND
 40
0.0
  9
$DIMAZIN
 70
     0
  9
$DIMDSEP
 70
    46
  9
$DIMATFIT
 70
     3
  9
$DIMFRAC
 70
     0
  9
$DIMLDRBLK
  1

  9
$DIMLUNIT
 70
     2
  9
$DIMLWD
 70
    -2
  9
$DIMLWE
 70
    -2
  9
$DIMTMOVE
 70
     0
  9
$LUNITS
 70
     2
  9
$LUPREC
 70
     2
  9
$SKETCHINC
 40
0.1
  9
$FILLETRAD
 40
0.5
  9
$AUNITS
 70
     0
  9
$AUPREC
 70
     2
  9
$MENU
  1
.
  9
$ELEVATION
 40
0.0
  9
$PELEVATION
 40
0.0
  9
$THICKNESS
 40
0.0
  9
$LIMCHECK
 70
     0
  9
$CHAMFERA
 40
0.0
  9
$CHAMFERB
 40
0.0
  9
$CHAMFERC
 40
0.0
  9
$CHAMFERD
 40
0.0
  9
$SKPOLY
 70
     0
  9
$TDCREATE
 40
2453353.550459155
  9
$TDUCREATE
 40
2453353.717125822
  9
$TDUPDATE
 40
2459488.443089803
  9
$TDUUPDATE
 40
2459488.60975647
  9
$TDINDWG
 40
0.0428240856
  9
$TDUSRTIMER
 40
0.0428240856
  9
$USRTIMER
 70
     1
  9
$ANGBASE
 50
0.0
  9
$ANGDIR
 70
     0
  9
$PDMODE
 70
     0
  9
$PDSIZE
 40
-1.0
  9
$PLINEWID
 40
0.0
  9
$SPLFRAME
 70
     0
  9
$SPLINETYPE
 70
     6
  9
$SPLINESEGS
 70
     8
  9
$HANDSEED
  5
468
  9
$SURFTAB1
 70
     6
  9
$SURFTAB2
 70
     6
  9
$SURFTYPE
 70
     6
  9
$SURFU
 70
     6
  9
$SURFV
 70
     6
  9
$UCSBASE
  2

  9
$UCSNAME
  2

  9
$UCSORG
 10
0.0
 20
0.0
 30
0.0
  9
$UCSXDIR
 10
1.0
 20
0.0
 30
0.0
  9
$UCSYDIR
 10
0.0
 20
1.0
 30
0.0
  9
$UCSORTHOREF
  2

  9
$UCSORTHOVIEW
 70
     0
  9
$UCSORGTOP
 10
0.0
 20
0.0
 30
0.0
  9
$UCSORGBOTTOM
 10
0.0
 20
0.0
 30
0.0
  9
$UCSORGLEFT
 10
0.0
 20
0.0
 30
0.0
  9
$UCSORGRIGHT
 10
0.0
 20
0.0
 30
0.0
  9
$UCSORGFRONT
 10
0.0
 20
0.0
 30
0.0
  9
$UCSORGBACK
 10
0.0
 20
0.0
 30
0.0
  9
$PUCSBASE
  2

  9
$PUCSNAME
  2

  9
$PUCSORG
 10
0.0
 20
0.0
 30
0.0
  9
$PUCSXDIR
 10
1.0
 20
0.0
 30
0.0
  9
$PUCSYDIR
 10
0.0
 20
1.0
 30
0.0
  9
$PUCSORTHOREF
  2

  9
$PUCSORTHOVIEW
 70
     0
  9
$PUCSORGTOP
 10
0.0
 20
0.0
 30
0.0
  9
$PUCSORGBOTTOM
 10
0.0
 20
0.0
 30
0.0
  9
$PUCSORGLEFT
 10
0.0
 20
0.0
 30
0.0
  9
$PUCSORGRIGHT
 10
0.0
 20
0.0
 30
0.0
  9
$PUCSORGFRONT
 10
0.0
 20
0.0
 30
0.0
  9
$PUCSORGBACK
 10
0.0
 20
0.0
 30
0.0
  9
$USERI1
 70
     0
  9
$USERI2
 70
     0
  9
$USERI3
 70
     0
  9
$USERI4
 70
     0
  9
$USERI5
 70
     0
  9
$USERR1
 40
0.0
  9
$USERR2
 40
0.0
  9
$USERR3
 40
0.0
  9
$USERR4
 40
0.0
  9
$USERR5
 40
0.0
  9
$WORLDVIEW
 70
     1
  9
$SHADEDGE
 70
     3
  9
$SHADEDIF
 70
    70
  9
$TILEMODE
 70
     1
  9
$MAXACTVP
 70
    64
  9
$PINSBASE
 10
0.0
 20
0.0
 30
0.0
  9
$PLIMCHECK
 70
     0
  9
$PEXTMIN
 10
1.000000000000000E+20
 20
1.000000000000000E+20
 30
1.000000000000000E+20
  9
$PEXTMAX
 10
-1.000000000000000E+20
 20
-1.000000000000000E+20
 30
-1.000000000000000E+20
  9
$PLIMMIN
 10
0.0
 20
0.0
  9
$PLIMMAX
 10
12.0
 20
9.0
  9
$UNITMODE
 70
     0
  9
$VISRETAIN
 70
     1
  9
$PLINEGEN
 70
     0
  9
$PSLTSCALE
 70
     1
  9
$TREEDEPTH
 70
  3020
  9
$CMLSTYLE
  2
Standard
  9
$CMLJUST
 70
     0
  9
$CMLSCALE
 40
1.0
  9
$PROXYGRAPHICS
 70
     1
  9
$MEASUREMENT
 70
     0
  9
$CELWEIGHT
370
    -1
  9
$ENDCAPS
280
     0
  9
$JOINSTYLE
280
     0
  9
$LWDISPLAY
290
     1
  9
$INSUNITS
 70
     1
  9
$HYPERLINKBASE
  1

  9
$STYLESHEET
  1

  9
$XEDIT
290
     0
  9
$CEPSNTYPE
380
     0
  9
$PSTYLEMODE
290
     1
  9
$FINGERPRINTGUID
  2
{a4e13ff7-59e4-4492-8078-27f2ad4b9b3f}
  9
$VERSIONGUID
  2
{FAEB1C32-E019-11D5-929B-00C0DF256EC4}
  9
$EXTNAMES
290
     1
  9
$PSVPSCALE
 40
0.0
  9
$OLESTARTUP
290
     0
  9
$SORTENTS
280
   127
  9
$INDEXCTL
280
     0
  9
$HIDETEXT
280
     1
  9
$XCLIPFRAME
290
     0
  9
$HALOGAP
280
     0
  9
$OBSCOLOR
 70
   257
  9
$OBSLTYPE
280
     0
  9
$INTERSECTIONDISPLAY
280
     0
  9
$INTERSECTIONCOLOR
 70
   257
  9
$DIMASSOC
280
     2
  9
$PROJECTNAME
  1

  0
ENDSEC
  0
SECTION
  2
CLASSES
  0
CLASS
  1
ACDBDICTIONARYWDFLT
  2
AcDbDictionaryWithDefault
  3
ObjectDBX Classes
 90
        0
 91
        3
280
     0
281
     0
  0
CLASS
  1
ACDBPLACEHOLDER
  2
AcDbPlaceHolder
  3
ObjectDBX Classes
 90
        0
 91
        1
280
     0
281
     0
  0
CLASS
  1
LAYOUT
  2
AcDbLayout
  3
ObjectDBX Classes
 90
        0
 91
        1
280
     0
281
     0
  0
CLASS
  1
DICTIONARYVAR
  2
AcDbDictionaryVar
  3
ObjectDBX Classes
 90
        0
 91
        3
280
     0
281
     0
  0
CLASS
  1
TABLESTYLE
  2
AcDbTableStyle
  3
ObjectDBX Classes
 90
     2047
 91
        3
280
     0
281
     0
  0
CLASS
  1
SCALE
  2
AcDbScale
  3
ObjectDBX Classes
 90
     1153
 91
       67
280
     1
281
     0
  0
ENDSEC
  0
SECTION
  2
TABLES
  0
TABLE
  2
VPORT
  5
8
330
0
100
AcDbSymbolTable
 70
     2
  0
VPORT
  5
97
330
8
100
AcDbSymbolTableRecord
100
AcDbViewportTableRecord
  2
*Active
 70
     0
 10
0.0
 20
0.0
 11
1.0
 21
1.0
 12
36.08401970499042
 22
5.279041252128112
 13
0.0
 23
0.0
 14
0.5
 24
0.5
 15
0.5
 25
0.5
 16
0.0
 26
0.0
 36
1.0
 17
0.0
 27
0.0
 37
0.0
 40
8.08355376476378
 41
1.413793103448276
 42
50.0
 43
0.0
 44
0.0
 50
0.0
 51
0.0
 71
    16
 72
  2000
 73
     1
 74
     1
 75
     0
 76
     0
 77
     0
 78
     0
281
     0
 65
     0
110
0.0
120
0.0
130
0.0
111
1.0
121
0.0
131
0.0
112
0.0
122
1.0
132
0.0
 79
     0
146
0.0
  0
ENDTAB
  0
TABLE
  2
LTYPE
  5
5
330
0
100
AcDbSymbolTable
 70
     8
  0
LTYPE
  5
14
330
5
100
AcDbSymbolTableRecord
100
AcDbLinetypeTableRecord
  2
ByBlock
 70
     0
  3

 72
    65
 73
     0
 40
0.0
  0
LTYPE
  5
15
330
5
100
AcDbSymbolTableRecord
100
AcDbLinetypeTableRecord
  2
ByLayer
 70
     0
  3

 72
    65
 73
     0
 40
0.0
  0
LTYPE
  5
16
330
5
100
AcDbSymbolTableRecord
100
AcDbLinetypeTableRecord
  2
Continuous
 70
     0
  3
Solid line
 72
    65
 73
     0
 40
0.0
  0
LTYPE
  5
43E
330
5
100
AcDbSymbolTableRecord
100
AcDbLinetypeTableRecord
  2
SLD-Solid
 70
     0
  3
SolidWorks Line Style
 72
    65
 73
     0
 40
0.0
  0
LTYPE
  5
43F
330
5
100
AcDbSymbolTableRecord
100
AcDbLinetypeTableRecord
  2
SLD-Dashed
 70
     0
  3
SolidWorks Line Style
 72
    65
 73
     2
 40
0.075
 49
0.05
 74
     4
 75
     0
340
0
 46
1.0
 50
0.0
 44
0.0
 45
0.0
 49
-0.025
 74
     4
 75
     0
340
0
 46
1.0
 50
0.0
 44
0.0
 45
0.0
  0
LTYPE
  5
440
330
5
100
AcDbSymbolTableRecord
100
AcDbLinetypeTableRecord
  2
SLD-Phantom
 70
     0
  3
SolidWorks Line Style
 72
    65
 73
     6
 40
0.4999999999999999
 49
0.25
 74
     4
 75
     0
340
0
 46
1.0
 50
0.0
 44
0.0
 45
0.0
 49
-0.05
 74
     4
 75
     0
340
0
 46
1.0
 50
0.0
 44
0.0
 45
0.0
 49
0.05
 74
     4
 75
     0
340
0
 46
1.0
 50
0.0
 44
0.0
 45
0.0
 49
-0.05
 74
     4
 75
     0
340
0
 46
1.0
 50
0.0
 44
0.0
 45
0.0
 49
0.05
 74
     4
 75
     0
340
0
 46
1.0
 50
0.0
 44
0.0
 45
0.0
 49
-0.05
 74
     4
 75
     0
340
0
 46
1.0
 50
0.0
 44
0.0
 45
0.0
  0
LTYPE
  5
441
330
5
100
AcDbSymbolTableRecord
100
AcDbLinetypeTableRecord
  2
SLD-Chain
 70
     0
  3
SolidWorks Line Style
 72
    65
 73
     4
 40
0.4
 49
0.25
 74
     4
 75
     0
340
0
 46
1.0
 50
0.0
 44
0.0
 45
0.0
 49
-0.05
 74
     4
 75
     0
340
0
 46
1.0
 50
0.0
 44
0.0
 45
0.0
 49
0.05
 74
     4
 75
     0
340
0
 46
1.0
 50
0.0
 44
0.0
 45
0.0
 49
-0.05
 74
     4
 75
     0
340
0
 46
1.0
 50
0.0
 44
0.0
 45
0.0
  0
LTYPE
  5
442
330
5
100
AcDbSymbolTableRecord
100
AcDbLinetypeTableRecord
  2
SLD-Center
 70
     0
  3
SolidWorks Line Style
 72
    65
 73
     4
 40
0.7500000000000002
 49
0.6000000000000001
 74
     4
 75
     0
340
0
 46
1.0
 50
0.0
 44
0.0
 45
0.0
 49
-0.05
 74
     4
 75
     0
340
0
 46
1.0
 50
0.0
 44
0.0
 45
0.0
 49
0.05
 74
     4
 75
     0
340
0
 46
1.0
 50
0.0
 44
0.0
 45
0.0
 49
-0.05
 74
     4
 75
     0
340
0
 46
1.0
 50
0.0
 44
0.0
 45
0.0
  0
LTYPE
  5
443
330
5
100
AcDbSymbolTableRecord
100
AcDbLinetypeTableRecord
  2
SLD-Stitch
 70
     0
  3
SolidWorks Line Style
 72
    65
 73
     2
 40
0.025
 49
0.0
 74
     4
 75
     0
340
0
 46
1.0
 50
0.0
 44
0.0
 45
0.0
 49
-0.025
 74
     4
 75
     0
340
0
 46
1.0
 50
0.0
 44
0.0
 45
0.0
  0
LTYPE
  5
444
330
5
100
AcDbSymbolTableRecord
100
AcDbLinetypeTableRecord
  2
SLD-Thin-Thick-Chain
 70
     0
  3
SolidWorks Line Style
 72
    65
 73
     4
 40
0.4
 49
0.25
 74
     4
 75
     0
340
0
 46
1.0
 50
0.0
 44
0.0
 45
0.0
 49
-0.05
 74
     4
 75
     0
340
0
 46
1.0
 50
0.0
 44
0.0
 45
0.0
 49
0.05
 74
     4
 75
     0
340
0
 46
1.0
 50
0.0
 44
0.0
 45
0.0
 49
-0.05
 74
     4
 75
     0
340
0
 46
1.0
 50
0.0
 44
0.0
 45
0.0
  0
ENDTAB
  0
TABLE
  2
LAYER
  5
2
330
0
100
AcDbSymbolTable
 70
     6
  0
LAYER
  5
10
330
2
100
AcDbSymbolTableRecord
100
AcDbLayerTableRecord
  2
0
 70
     0
 62
     7
  6
Continuous
370
    -3
390
F
  0
LAYER
  5
445
330
2
100
AcDbSymbolTableRecord
100
AcDbLayerTableRecord
  2
FORMAT
 70
     0
 62
     7
  6
SLD-Solid
370
    -3
390
F
  0
LAYER
  5
446
330
2
100
AcDbSymbolTableRecord
100
AcDbLayerTableRecord
  2
NOTES
 70
     0
 62
     1
  6
SLD-Solid
370
    -3
390
F
  0
LAYER
  5
77
330
2
100
AcDbSymbolTableRecord
100
AcDbLayerTableRecord
  2
OBJECT
 70
     0
 62
     7
  6
SLD-Solid
370
    -3
390
F
  0
LAYER
  5
78
330
2
100
AcDbSymbolTableRecord
100
AcDbLayerTableRecord
  2
DIMS
 70
     0
 62
     5
  6
SLD-Solid
370
    -3
390
F
  0
LAYER
  5
79
330
2
100
AcDbSymbolTableRecord
100
AcDbLayerTableRecord
  2
TITLE
 70
     0
 62
     8
  6
SLD-Solid
370
    -3
390
F
  0
ENDTAB
  0
TABLE
  2
STYLE
  5
3
330
0
100
AcDbSymbolTable
 70
     5
  0
STYLE
  5
11
330
3
100
AcDbSymbolTableRecord
100
AcDbTextStyleTableRecord
  2
Standard
 70
     0
 40
0.0
 41
1.0
 50
0.0
 71
     0
 42
0.5
  3
GOTHIC.TTF
  4

1001
ACAD
1000
CENTURY GOTHIC
1071
       34
  0
STYLE
  5
85
330
3
100
AcDbSymbolTableRecord
100
AcDbTextStyleTableRecord
  2
SLDTEXTSTYLE0
 70
     0
 40
0.0
 41
0.948
 50
0.0
 71
     0
 42
0.5
  3
ARIAL.TTF
  4

1001
ACAD
1000
Arial
1071
      290
  0
STYLE
  5
89
330
3
100
AcDbSymbolTableRecord
100
AcDbTextStyleTableRecord
  2
SLDTEXTSTYLE1
 70
     0
 40
0.0
 41
0.913
 50
0.0
 71
     0
 42
0.5
  3
GOTHIC.TTF
  4

1001
ACAD
1000
Century Gothic
1071
      290
  0
STYLE
  5
43D
330
3
100
AcDbSymbolTableRecord
100
AcDbTextStyleTableRecord
  2
SLDTEXTSTYLE2
 70
     0
 40
0.0
 41
0.87
 50
0.0
 71
     0
 42
0.5
  3
ARIALNB.TTF
  4

1001
ACAD
1000
Arial Narrow
1071
 33554722
  0
STYLE
  5
9A
330
3
100
AcDbSymbolTableRecord
100
AcDbTextStyleTableRecord
  2
SLDTEXTSTYLE3
 70
     0
 40
0.0
 41
0.87
 50
0.0
 71
     0
 42
0.5
  3
ARIALN.TTF
  4

1001
ACAD
1000
Arial Narrow
1071
      290
  0
ENDTAB
  0
TABLE
  2
VIEW
  5
6
330
0
100
AcDbSymbolTable
 70
     0
  0
ENDTAB
  0
TABLE
  2
UCS
  5
7
330
0
100
AcDbSymbolTable
 70
     0
  0
ENDTAB
  0
TABLE
  2
APPID
  5
9
330
0
100
AcDbSymbolTable
 70
     1
  0
APPID
  5
12
330
9
100
AcDbSymbolTableRecord
100
AcDbRegAppTableRecord
  2
ACAD
 70
     0
  0
ENDTAB
  0
TABLE
  2
DIMSTYLE
  5
A
330
0
100
AcDbSymbolTable
 70
     5
100
AcDbDimStyleTable
  0
DIMSTYLE
105
27
330
A
100
AcDbSymbolTableRecord
100
AcDbDimStyleTableRecord
  2
Standard
 70
     0
340
11
  0
DIMSTYLE
105
FB
102
{ACAD_REACTORS
330
FA
330
11D
330
3FF
330
40A
102
}
330
A
100
AcDbSymbolTableRecord
100
AcDbDimStyleTableRecord
  2
SLDDIMSTYLE0
 70
     0
 41
0.7500000000000001
 44
0.0
 45
0.000000001
 78
    12
 79
     3
140
0.5
147
0.125
173
     1
271
     2
272
     2
276
     2
277
     5
284
    12
340
89
341
447
343
447
344
447
  0
DIMSTYLE
105
10E
102
{ACAD_REACTORS
330
10D
330
1A6
330
415
102
}
330
A
100
AcDbSymbolTableRecord
100
AcDbDimStyleTableRecord
  2
SLDDIMSTYLE1
 70
     0
 41
0.7500000000000001
 44
0.0
 45
0.000000001
 78
    12
 79
     3
140
0.5
147
0.125
173
     1
271
     6
272
     2
276
     2
277
     5
284
    12
340
89
341
447
343
447
344
447
  0
DIMSTYLE
105
129
330
A
100
AcDbSymbolTableRecord
100
AcDbDimStyleTableRecord
  2
SLDDIMSTYLE2
 70
     0
 41
0.7500000000000001
 44
0.0
 45
0.000000001
146
0.7500000000000001
147
0.0
173
     1
271
     0
272
     0
276
     2
277
     5
340
11
341
447
343
447
344
447
  0
DIMSTYLE
105
425
102
{ACAD_REACTORS
330
424
102
}
330
A
100
AcDbSymbolTableRecord
100
AcDbDimStyleTableRecord
  2
SLDDIMSTYLE3
 70
     0
 41
0.7500000000000001
 44
0.0
 45
0.000000001
 78
    12
 79
     3
140
0.5
147
0.125
172
     1
173
     1
271
     6
272
     2
276
     2
277
     5
284
    12
289
     0
340
89
341
447
343
447
344
447
  0
ENDTAB
  0
TABLE
  2
BLOCK_RECORD
  5
1
330
0
100
AcDbSymbolTable
 70
    12
  0
BLOCK_RECORD
  5
1F
330
1
100
AcDbSymbolTableRecord
100
AcDbBlockTableRecord
  2
*Model_Space
340
22
  0
BLOCK_RECORD
  5
73
330
1
100
AcDbSymbolTableRecord
100
AcDbBlockTableRecord
  2
*Paper_Space
340
74
  0
BLOCK_RECORD
  5
447
330
1
100
AcDbSymbolTableRecord
100
AcDbBlockTableRecord
  2
_Open90
340
0
102
{BLKREFS
331
105
331
106
331
112
331
113
331
121
331
122
331
1AA
331
1AB
331
403
331
404
331
40E
331
40F
331
419
331
41A
331
429
331
42A
102
}
  0
BLOCK_RECORD
  5
23
330
1
100
AcDbSymbolTableRecord
100
AcDbBlockTableRecord
  2
*Paper_Space1
340
26
  0
BLOCK_RECORD
  5
8F
330
1
100
AcDbSymbolTableRecord
100
AcDbBlockTableRecord
  2
SW_NOTE_0
340
0
  0
BLOCK_RECORD
  5
95
330
1
100
AcDbSymbolTableRecord
100
AcDbBlockTableRecord
  2
SW_NOTE_0_1
340
0
102
{BLKREFS
331
9E
102
}
  0
BLOCK_RECORD
  5
102
330
1
100
AcDbSymbolTableRecord
100
AcDbBlockTableRecord
  2
_D
340
0
  0
BLOCK_RECORD
  5
10F
330
1
100
AcDbSymbolTableRecord
100
AcDbBlockTableRecord
  2
_D_1
340
0
  0
BLOCK_RECORD
  5
11E
330
1
100
AcDbSymbolTableRecord
100
AcDbBlockTableRecord
  2
_D_2
340
0
  0
BLOCK_RECORD
  5
1A7
330
1
100
AcDbSymbolTableRecord
100
AcDbBlockTableRecord
  2
_D_3
340
0
  0
BLOCK_RECORD
  5
400
330
1
100
AcDbSymbolTableRecord
100
AcDbBlockTableRecord
  2
_D_4
340
0
  0
BLOCK_RECORD
  5
40B
330
1
100
AcDbSymbolTableRecord
100
AcDbBlockTableRecord
  2
_D_5
340
0
  0
BLOCK_RECORD
  5
416
330
1
100
AcDbSymbolTableRecord
100
AcDbBlockTableRecord
  2
_D_6
340
0
  0
BLOCK_RECORD
  5
426
330
1
100
AcDbSymbolTableRecord
100
AcDbBlockTableRecord
  2
_D_7
340
0
  0
ENDTAB
  0
ENDSEC
  0
SECTION
  2
BLOCKS
  0
BLOCK
  5
20
330
1F
100
AcDbEntity
  8
0
100
AcDbBlockBegin
  2
*Model_Space
 70
     0
 71
     0
 10
0.0
 20
0.0
 30
0.0
  3
*Model_Space
  1

  0
ENDBLK
  5
21
330
1F
100
AcDbEntity
  8
0
100
AcDbBlockEnd
  0
BLOCK
  5
75
330
73
100
AcDbEntity
 67
     1
  8
0
100
AcDbBlockBegin
  2
*Paper_Space
 70
     0
 71
     0
 10
0.0
 20
0.0
 30
0.0
  3
*Paper_Space
  1

  0
ENDBLK
  5
76
330
73
100
AcDbEntity
 67
     1
  8
0
100
AcDbBlockEnd
  0
BLOCK
  5
448
330
447
100
AcDbEntity
  8
0
100
AcDbBlockBegin
  2
_Open90
 70
     0
 71
     0
 10
0.0
 20
0.0
 30
0.0
  3
_Open90
  1

  0
LINE
  5
FF
330
447
100
AcDbEntity
  8
0
  6
ByBlock
 62
     0
370
    -2
100
AcDbLine
 10
-0.5
 20
0.5
 30
0.0
 11
0.0
 21
0.0
 31
0.0
  0
LINE
  5
100
330
447
100
AcDbEntity
  8
0
  6
ByBlock
 62
     0
370
    -2
100
AcDbLine
 10
0.0
 20
0.0
 30
0.0
 11
-0.5
 21
-0.5
 31
0.0
  0
LINE
  5
101
330
447
100
AcDbEntity
  8
0
  6
ByBlock
 62
     0
370
    -2
100
AcDbLine
 10
0.0
 20
0.0
 30
0.0
 11
-1.0
 21
0.0
 31
0.0
  0
ENDBLK
  5
449
330
447
100
AcDbEntity
  8
0
100
AcDbBlockEnd
  0
BLOCK
  5
450
330
23
100
AcDbEntity
  8
0
100
AcDbBlockBegin
  2
*Paper_Space1
 70
     0
 71
     0
 10
0.0
 20
0.0
 30
0.0
  3
*Paper_Space1
  1

  0
ENDBLK
  5
451
330
23
100
AcDbEntity
  8
0
100
AcDbBlockEnd
  0
BLOCK
  5
452
330
8F
100
AcDbEntity
  8
0
100
AcDbBlockBegin
  2
SW_NOTE_0
 70
     0
 71
     0
 10
0.0
 20
0.0
 30
0.0
  3
SW_NOTE_0
  1

  0
MTEXT
  5
466
330
8F
100
AcDbEntity
  8
NOTES
 62
     0
100
AcDbMText
 10
0.0
 20
0.3759780907668229
 30
0.0
 40
0.2916666666666666
 41
0.0
 71
     1
 72
     1
  1
FROST PRODUCTS LTD.
  7
SLDTEXTSTYLE0
 73
     1
 44
1.0
  0
MTEXT
  5
467
330
8F
100
AcDbEntity
  8
NOTES
 62
     0
100
AcDbMText
 10
0.0
 20
-0.0495142708586375
 30
0.0
 40
0.2291666666666666
 41
0.0
 71
     1
 72
     1
  1
5280 JOHN LUCUS DRIVE, BURLINGTON, ON, L7L 5Z9
  7
SLDTEXTSTYLE0
 73
     1
 44
1.0
  0
ENDBLK
  5
453
330
8F
100
AcDbEntity
  8
0
100
AcDbBlockEnd
  0
BLOCK
  5
454
330
95
100
AcDbEntity
  8
0
100
AcDbBlockBegin
  2
SW_NOTE_0_1
 70
     0
 71
     0
 10
0.0
 20
0.0
 30
0.0
  3
SW_NOTE_0_1
  1

  0
MTEXT
  5
99
330
95
100
AcDbEntity
  8
NOTES
 62
     0
100
AcDbMText
 10
0.0
 20
0.2381282770514712
 30
0.0
 40
0.1847290640394089
 41
0.0
 71
     1
 72
     1
  1
PROPRIETARY AND CONFIDENTIAL
  7
SLDTEXTSTYLE2
 73
     1
 44
1.0
  0
MTEXT
  5
9B
330
95
100
AcDbEntity
  8
NOTES
 62
     0
100
AcDbMText
 10
0.0
 20
-0.0504364795553608
 30
0.0
 40
0.25
 41
0.0
 71
     1
 72
     1
  1
THE INFORMATION CONTAINED IN THIS DRAWING IS THE SOLE PROPERTY OF 
  7
SLDTEXTSTYLE3
 73
     1
 44
1.0
  0
MTEXT
  5
9C
330
95
100
AcDbEntity
  8
NOTES
 62
     0
100
AcDbMText
 10
0.0
 20
-0.4231398940537119
 30
0.0
 40
0.25
 41
0.0
 71
     1
 72
     1
  1
FROST PRODUCTS LTD.  ANY REPRODUCTION IN PART OR AS A WHOLE WITHOUT 
  7
SLDTEXTSTYLE3
 73
     1
 44
1.0
  0
MTEXT
  5
9D
330
95
100
AcDbEntity
  8
NOTES
 62
     0
100
AcDbMText
 10
0.0
 20
-0.7958433085520636
 30
0.0
 40
0.25
 41
0.0
 71
     1
 72
     1
  1
THE WRITTEN PERMISSION OF FROST PRODUCTS LTD. IS PROHIBITED.
  7
SLDTEXTSTYLE3
 73
     1
 44
1.0
  0
ENDBLK
  5
455
330
95
100
AcDbEntity
  8
0
100
AcDbBlockEnd
  0
BLOCK
  5
456
330
102
100
AcDbEntity
  8
0
100
AcDbBlockBegin
  2
_D
 70
     0
 71
     0
 10
0.0
 20
0.0
 30
0.0
  3
_D
  1

  0
INSERT
  5
105
330
102
100
AcDbEntity
  8
DIMS
100
AcDbBlockReference
  2
_Open90
 10
1.501653958929413
 20
22.81395432021666
 30
0.0
 41
0.7500000000000001
 42
0.7500000000000001
 50
90.00000000000018
  0
INSERT
  5
106
330
102
100
AcDbEntity
  8
DIMS
100
AcDbBlockReference
  2
_Open90
 10
1.501653958929321
 20
3.034978361433761
 30
0.0
 41
0.7500000000000001
 42
0.7500000000000001
 50
270.0000000000002
  0
LINE
  5
107
330
102
100
AcDbEntity
  8
DIMS
100
AcDbLine
 10
2.172917735696422
 20
22.81395432021666
 30
0.0
 11
1.126653958929413
 21
22.81395432021666
 31
0.0
  0
LINE
  5
108
330
102
100
AcDbEntity
  8
DIMS
100
AcDbLine
 10
1.501653958929413
 20
22.81395432021666
 30
0.0
 11
1.501653958929367
 21
12.92446634082521
 31
0.0
  0
LINE
  5
109
330
102
100
AcDbEntity
  8
DIMS
100
AcDbLine
 10
1.501653958929321
 20
3.034978361433761
 30
0.0
 11
1.501653958929367
 21
12.92446634082521
 31
0.0
  0
LINE
  5
10A
330
102
100
AcDbEntity
  8
DIMS
100
AcDbLine
 10
1.501653958929367
 20
12.92446634082521
 30
0.0
 11
2.074253510483114
 21
5.038355374459266
 31
0.0
  0
MTEXT
  5
10B
330
102
100
AcDbEntity
  8
DIMS
100
AcDbMText
 10
2.074253510483114
 20
5.677027304458633
 30
0.0
 40
0.5
 41
0.0
 71
     1
 72
     1
  1
48" (1220mm) Max height above 
  7
SLDTEXTSTYLE1
 73
     1
 44
1.0
  0
MTEXT
  5
10C
330
102
100
AcDbEntity
  8
DIMS
100
AcDbMText
 10
2.074253510483114
 20
4.883277280593308
 30
0.0
 40
0.5
 41
0.0
 71
     1
 72
     1
  1
floor for barrier free mounting
  7
SLDTEXTSTYLE1
 73
     1
 44
1.0
  0
ENDBLK
  5
457
330
102
100
AcDbEntity
  8
0
100
AcDbBlockEnd
  0
BLOCK
  5
458
330
10F
100
AcDbEntity
  8
0
100
AcDbBlockBegin
  2
_D_1
 70
     0
 71
     0
 10
0.0
 20
0.0
 30
0.0
  3
_D_1
  1

  0
INSERT
  5
112
330
10F
100
AcDbEntity
  8
DIMS
100
AcDbBlockReference
  2
_Open90
 10
14.65926707952855
 20
22.81395432021661
 30
0.1661011993534642
 41
0.7500000000000001
 42
0.7500000000000001
 50
90.00000000000018
  0
INSERT
  5
113
330
10F
100
AcDbEntity
  8
DIMS
100
AcDbBlockReference
  2
_Open90
 10
14.65926707952849
 20
7.314154320216646
 30
0.1661011993534642
 41
0.7500000000000001
 42
0.7500000000000001
 50
270.0000000000002
  0
LINE
  5
114
330
10F
100
AcDbEntity
  8
DIMS
100
AcDbLine
 10
14.66760041826108
 20
15.11533901860475
 30
0.0
 11
15.18357266770563
 21
15.11533901860475
 31
0.0
  0
LINE
  5
115
330
10F
100
AcDbEntity
  8
DIMS
100
AcDbLine
 10
13.35825106902976
 20
22.81395432021662
 30
0.0
 11
15.03426707952855
 21
22.81395432021661
 31
0.0
  0
LINE
  5
116
330
10F
100
AcDbEntity
  8
DIMS
100
AcDbLine
 10
13.35825106902975
 20
7.314154320216652
 30
0.0
 11
15.03426707952849
 21
7.314154320216645
 31
0.0
  0
LINE
  5
117
330
10F
100
AcDbEntity
  8
DIMS
100
AcDbLine
 10
14.65926707952855
 20
22.81395432021661
 30
0.0
 11
14.65926707952852
 21
15.71790847350433
 31
0.0
  0
LINE
  5
118
330
10F
100
AcDbEntity
  8
DIMS
100
AcDbLine
 10
14.65926707952849
 20
7.314154320216646
 30
0.0
 11
14.65926707952852
 21
14.41020016692895
 31
0.0
  0
MTEXT
  5
119
330
10F
100
AcDbEntity
  8
DIMS
100
AcDbMText
 10
13.85544762531945
 20
15.34474007903613
 30
0.0
 40
0.5
 41
0.0
 71
     1
 72
     1
  1
15
  7
SLDTEXTSTYLE1
 73
     1
 44
1.0
  0
MTEXT
  5
11A
330
10F
100
AcDbEntity
  8
DIMS
100
AcDbMText
 10
14.74086432024357
 20
15.71005257808163
 30
0.0
 40
0.5
 41
0.0
 71
     1
 72
     1
  1
1
  7
SLDTEXTSTYLE1
 73
     1
 44
1.0
  0
MTEXT
  5
11B
330
10F
100
AcDbEntity
  8
DIMS
100
AcDbMText
 10
14.74086432024357
 20
15.0488719995336
 30
0.0
 40
0.5
 41
0.0
 71
     1
 72
     1
  1
2
  7
SLDTEXTSTYLE1
 73
     1
 44
1.0
  0
MTEXT
  5
11C
330
10F
100
AcDbEntity
  8
DIMS
100
AcDbMText
 10
15.25683656968811
 20
15.34474007903613
 30
0.0
 40
0.5
 41
0.0
 71
     1
 72
     1
  1
"
  7
SLDTEXTSTYLE1
 73
     1
 44
1.0
  0
ENDBLK
  5
459
330
10F
100
AcDbEntity
  8
0
100
AcDbBlockEnd
  0
BLOCK
  5
45A
330
11E
100
AcDbEntity
  8
0
100
AcDbBlockBegin
  2
_D_2
 70
     0
 71
     0
 10
0.0
 20
0.0
 30
0.0
  3
_D_2
  1

  0
INSERT
  5
121
330
11E
100
AcDbEntity
  8
DIMS
100
AcDbBlockReference
  2
_Open90
 10
13.25048440236317
 20
24.16631652494105
 30
0.1661011993534642
 41
0.7500000000000001
 42
0.7500000000000001
 50
0.0000000000004071
  0
INSERT
  5
122
330
11E
100
AcDbEntity
  8
DIMS
100
AcDbBlockReference
  2
_Open90
 10
2.280684402363026
 20
24.16631652494105
 30
0.1661011993534642
 41
0.7500000000000001
 42
0.7500000000000001
 50
180.0000000000004
  0
LINE
  5
123
330
11E
100
AcDbEntity
  8
DIMS
100
AcDbLine
 10
13.25048440236317
 20
22.93776216224394
 30
0.0
 11
13.25048440236317
 21
24.54131652494105
 31
0.0
  0
LINE
  5
124
330
11E
100
AcDbEntity
  8
DIMS
100
AcDbLine
 10
2.280684402363026
 20
22.93776216224393
 30
0.0
 11
2.280684402363026
 21
24.54131652494105
 31
0.0
  0
LINE
  5
125
330
11E
100
AcDbEntity
  8
DIMS
100
AcDbLine
 10
13.25048440236317
 20
24.16631652494105
 30
0.0
 11
8.101115009802054
 21
24.16631652494105
 31
0.0
  0
LINE
  5
126
330
11E
100
AcDbEntity
  8
DIMS
100
AcDbLine
 10
2.280684402363026
 20
24.16631652494105
 30
0.0
 11
7.155976154793426
 21
24.16631652494105
 31
0.0
  0
MTEXT
  5
127
330
11E
100
AcDbEntity
  8
DIMS
100
AcDbMText
 10
7.155976154793425
 20
24.40811344300774
 30
0.0
 40
0.5
 41
0.0
 71
     1
 72
     1
  1
11"
  7
SLDTEXTSTYLE1
 73
     1
 44
1.0
  0
ENDBLK
  5
45B
330
11E
100
AcDbEntity
  8
0
100
AcDbBlockEnd
  0
BLOCK
  5
45C
330
1A7
100
AcDbEntity
  8
0
100
AcDbBlockBegin
  2
_D_3
 70
     0
 71
     0
 10
0.0
 20
0.0
 30
0.0
  3
_D_3
  1

  0
INSERT
  5
1AA
330
1A7
100
AcDbEntity
  8
DIMS
100
AcDbBlockReference
  2
_Open90
 10
15.1317080244104
 20
30.98688971007044
 30
-2.032377062237089
 41
0.7500000000000001
 42
0.7500000000000001
 50
90.00000000000043
  0
INSERT
  5
1AB
330
1A7
100
AcDbEntity
  8
DIMS
100
AcDbBlockReference
  2
_Open90
 10
15.1317080244104
 20
27.0233291271056
 30
-2.032377062237089
 41
0.7500000000000001
 42
0.7500000000000001
 50
270.0000000000004
  0
LINE
  5
1AC
330
1A7
100
AcDbEntity
  8
DIMS
100
AcDbLine
 10
14.77059691766339
 20
29.02967661882371
 30
0.0
 11
15.65601361258751
 21
29.02967661882371
 31
0.0
  0
LINE
  5
1AD
330
1A7
100
AcDbEntity
  8
DIMS
100
AcDbLine
 10
13.23835106902981
 20
30.98688971007044
 30
0.0
 11
15.5067080244104
 21
30.98688971007044
 31
0.0
  0
LINE
  5
1AE
330
1A7
100
AcDbEntity
  8
DIMS
100
AcDbLine
 10
13.35825106902975
 20
27.0233291271056
 30
0.0
 11
15.5067080244104
 21
27.0233291271056
 31
0.0
  0
LINE
  5
1AF
330
1A7
100
AcDbEntity
  8
DIMS
100
AcDbLine
 10
15.1317080244104
 20
30.98688971007044
 30
0.0
 11
15.1317080244104
 21
29.63224607372328
 31
0.0
  0
LINE
  5
1B0
330
1A7
100
AcDbEntity
  8
DIMS
100
AcDbLine
 10
15.1317080244104
 20
27.0233291271056
 30
0.0
 11
15.1317080244104
 21
28.32453776714789
 31
0.0
  0
MTEXT
  5
1B1
330
1A7
100
AcDbEntity
  8
DIMS
100
AcDbMText
 10
14.32788857020133
 20
29.25907767925509
 30
0.0
 40
0.5
 41
0.0
 71
     1
 72
     1
  1
3
  7
SLDTEXTSTYLE1
 73
     1
 44
1.0
  0
MTEXT
  5
1B2
330
1A7
100
AcDbEntity
  8
DIMS
100
AcDbMText
 10
14.84386081964588
 20
29.62439017830059
 30
0.0
 40
0.5
 41
0.0
 71
     1
 72
     1
  1
15
  7
SLDTEXTSTYLE1
 73
     1
 44
1.0
  0
MTEXT
  5
1B3
330
1A7
100
AcDbEntity
  8
DIMS
100
AcDbMText
 10
14.84386081964588
 20
28.96320959975256
 30
0.0
 40
0.5
 41
0.0
 71
     1
 72
     1
  1
16
  7
SLDTEXTSTYLE1
 73
     1
 44
1.0
  0
MTEXT
  5
1B4
330
1A7
100
AcDbEntity
  8
DIMS
100
AcDbMText
 10
15.72927751457
 20
29.25907767925509
 30
0.0
 40
0.5
 41
0.0
 71
     1
 72
     1
  1
"
  7
SLDTEXTSTYLE1
 73
     1
 44
1.0
  0
ENDBLK
  5
45D
330
1A7
100
AcDbEntity
  8
0
100
AcDbBlockEnd
  0
BLOCK
  5
45E
330
400
100
AcDbEntity
  8
0
100
AcDbBlockBegin
  2
_D_4
 70
     0
 71
     0
 10
0.0
 20
0.0
 30
0.0
  3
_D_4
  1

  0
INSERT
  5
403
330
400
100
AcDbEntity
  8
DIMS
100
AcDbBlockReference
  2
_Open90
 10
24.09671208409745
 20
23.69387558005914
 30
-0.1661011993534663
 41
0.7500000000000001
 42
0.7500000000000001
 50
180.0000000000004
  0
INSERT
  5
404
330
400
100
AcDbEntity
  8
DIMS
100
AcDbBlockReference
  2
_Open90
 10
30.09671208409745
 20
23.69387558005914
 30
-0.1661011993534663
 41
0.7500000000000001
 42
0.7500000000000001
 50
0.0000000000004071
  0
LINE
  5
405
330
400
100
AcDbEntity
  8
DIMS
100
AcDbLine
 10
24.09671208409745
 20
19.18472098688333
 30
0.0
 11
24.09671208409745
 21
24.06887558005914
 31
0.0
  0
LINE
  5
406
330
400
100
AcDbEntity
  8
DIMS
100
AcDbLine
 10
30.09671208409745
 20
19.18472098688332
 30
0.0
 11
30.09671208409745
 21
24.06887558005914
 31
0.0
  0
LINE
  5
407
330
400
100
AcDbEntity
  8
DIMS
100
AcDbLine
 10
24.09671208409745
 20
23.69387558005914
 30
0.0
 11
26.8088648609998
 21
23.69387558005914
 31
0.0
  0
LINE
  5
408
330
400
100
AcDbEntity
  8
DIMS
100
AcDbLine
 10
30.09671208409745
 20
23.69387558005914
 30
0.0
 11
27.3845593071951
 21
23.69387558005914
 31
0.0
  0
MTEXT
  5
409
330
400
100
AcDbEntity
  8
DIMS
100
AcDbMText
 10
26.8088648609998
 20
23.93567249812585
 30
0.0
 40
0.5
 41
0.0
 71
     1
 72
     1
  1
6"
  7
SLDTEXTSTYLE1
 73
     1
 44
1.0
  0
ENDBLK
  5
45F
330
400
100
AcDbEntity
  8
0
100
AcDbBlockEnd
  0
BLOCK
  5
460
330
40B
100
AcDbEntity
  8
0
100
AcDbBlockBegin
  2
_D_5
 70
     0
 71
     0
 10
0.0
 20
0.0
 30
0.0
  3
_D_5
  1

  0
INSERT
  5
40E
330
40B
100
AcDbEntity
  8
DIMS
100
AcDbBlockReference
  2
_Open90
 10
33.99429476126284
 20
19.01805432021666
 30
-0.1661011993534663
 41
0.7500000000000001
 42
0.7500000000000001
 50
90.0000000000004
  0
INSERT
  5
40F
330
40B
100
AcDbEntity
  8
DIMS
100
AcDbBlockReference
  2
_Open90
 10
33.99429476126284
 20
12.01805432021666
 30
-0.1661011993534663
 41
0.7500000000000001
 42
0.7500000000000001
 50
270.0000000000004
  0
LINE
  5
410
330
40B
100
AcDbEntity
  8
DIMS
100
AcDbLine
 10
30.26337875076412
 20
19.01805432021666
 30
0.0
 11
34.36929476126284
 21
19.01805432021666
 31
0.0
  0
LINE
  5
411
330
40B
100
AcDbEntity
  8
DIMS
100
AcDbLine
 10
30.26337875076411
 20
12.01805432021666
 30
0.0
 11
34.36929476126284
 21
12.01805432021666
 31
0.0
  0
LINE
  5
412
330
40B
100
AcDbEntity
  8
DIMS
100
AcDbLine
 10
33.99429476126284
 20
19.01805432021666
 30
0.0
 11
33.99429476126284
 21
16.1446845766486
 31
0.0
  0
LINE
  5
413
330
40B
100
AcDbEntity
  8
DIMS
100
AcDbLine
 10
33.99429476126284
 20
12.01805432021666
 30
0.0
 11
33.99429476126284
 21
15.35093455278327
 31
0.0
  0
MTEXT
  5
414
330
40B
100
AcDbEntity
  8
DIMS
100
AcDbMText
 10
33.70644753816519
 20
15.98960648278264
 30
0.0
 40
0.5
 41
0.0
 71
     1
 72
     1
  1
7"
  7
SLDTEXTSTYLE1
 73
     1
 44
1.0
  0
ENDBLK
  5
461
330
40B
100
AcDbEntity
  8
0
100
AcDbBlockEnd
  0
BLOCK
  5
462
330
416
100
AcDbEntity
  8
0
100
AcDbBlockBegin
  2
_D_6
 70
     0
 71
     0
 10
0.0
 20
0.0
 30
0.0
  3
_D_6
  1

  0
INSERT
  5
419
330
416
100
AcDbEntity
  8
DIMS
100
AcDbBlockReference
  2
_Open90
 10
33.99429476126284
 20
12.01805432021665
 30
-0.1661011993534663
 41
0.7500000000000001
 42
0.7500000000000001
 50
90.00000000000031
  0
INSERT
  5
41A
330
416
100
AcDbEntity
  8
DIMS
100
AcDbBlockReference
  2
_Open90
 10
33.99429476126283
 20
7.344054320216632
 30
-0.1661011993534663
 41
0.7500000000000001
 42
0.7500000000000001
 50
270.0000000000003
  0
LINE
  5
41B
330
416
100
AcDbEntity
  8
DIMS
100
AcDbLine
 10
33.63318365451582
 20
9.78339573960461
 30
0.0
 11
34.51860034943994
 21
9.78339573960461
 31
0.0
  0
LINE
  5
41C
330
416
100
AcDbEntity
  8
DIMS
100
AcDbLine
 10
30.26337875076411
 20
12.01805432021666
 30
0.0
 11
34.36929476126284
 21
12.01805432021665
 31
0.0
  0
LINE
  5
41D
330
416
100
AcDbEntity
  8
DIMS
100
AcDbLine
 10
32.6304787507642
 20
7.344054320216634
 30
0.0
 11
34.36929476126283
 21
7.344054320216631
 31
0.0
  0
LINE
  5
41E
330
416
100
AcDbEntity
  8
DIMS
100
AcDbLine
 10
33.99429476126284
 20
12.01805432021665
 30
0.0
 11
33.99429476126284
 21
10.38596519450418
 31
0.0
  0
LINE
  5
41F
330
416
100
AcDbEntity
  8
DIMS
100
AcDbLine
 10
33.99429476126283
 20
7.344054320216632
 30
0.0
 11
33.99429476126284
 21
9.078256887928795
 31
0.0
  0
MTEXT
  5
420
330
416
100
AcDbEntity
  8
DIMS
100
AcDbMText
 10
33.19047530705376
 20
10.01279680003598
 30
0.0
 40
0.5
 41
0.0
 71
     1
 72
     1
  1
4
  7
SLDTEXTSTYLE1
 73
     1
 44
1.0
  0
MTEXT
  5
421
330
416
100
AcDbEntity
  8
DIMS
100
AcDbMText
 10
33.7064475564983
 20
10.37810929908149
 30
0.0
 40
0.5
 41
0.0
 71
     1
 72
     1
  1
11
  7
SLDTEXTSTYLE1
 73
     1
 44
1.0
  0
MTEXT
  5
422
330
416
100
AcDbEntity
  8
DIMS
100
AcDbMText
 10
33.7064475564983
 20
9.716928720533453
 30
0.0
 40
0.5
 41
0.0
 71
     1
 72
     1
  1
16
  7
SLDTEXTSTYLE1
 73
     1
 44
1.0
  0
MTEXT
  5
423
330
416
100
AcDbEntity
  8
DIMS
100
AcDbMText
 10
34.59186425142242
 20
10.01279680003598
 30
0.0
 40
0.5
 41
0.0
 71
     1
 72
     1
  1
"
  7
SLDTEXTSTYLE1
 73
     1
 44
1.0
  0
ENDBLK
  5
463
330
416
100
AcDbEntity
  8
0
100
AcDbBlockEnd
  0
BLOCK
  5
464
330
426
100
AcDbEntity
  8
0
100
AcDbBlockBegin
  2
_D_7
 70
     0
 71
     0
 10
0.0
 20
0.0
 30
0.0
  3
_D_7
  1

  0
INSERT
  5
429
330
426
100
AcDbEntity
  8
DIMS
100
AcDbBlockReference
  2
_Open90
 10
33.99429476126284
 20
19.01805432021666
 30
-0.1661011993534663
 41
0.7500000000000001
 42
0.7500000000000001
 50
90.00000000000038
  0
INSERT
  5
42A
330
426
100
AcDbEntity
  8
DIMS
100
AcDbBlockReference
  2
_Open90
 10
33.99429476126284
 20
22.81395432021664
 30
-0.1661011993534663
 41
0.7500000000000001
 42
0.7500000000000001
 50
270.0000000000004
  0
LINE
  5
42B
330
426
100
AcDbEntity
  8
DIMS
100
AcDbLine
 10
33.63318365451582
 20
20.96728901860477
 30
0.0
 11
34.51860034943994
 21
20.96728901860477
 31
0.0
  0
LINE
  5
42C
330
426
100
AcDbEntity
  8
DIMS
100
AcDbLine
 10
30.26337875076412
 20
19.01805432021666
 30
0.0
 11
34.36929476126284
 21
19.01805432021666
 31
0.0
  0
LINE
  5
42D
330
426
100
AcDbEntity
  8
DIMS
100
AcDbLine
 10
32.65457875076417
 20
22.81395432021664
 30
0.0
 11
34.36929476126284
 21
22.81395432021664
 31
0.0
  0
LINE
  5
42E
330
426
100
AcDbEntity
  8
DIMS
100
AcDbLine
 10
33.99429476126284
 20
19.01805432021666
 30
0.0
 11
33.99429476126284
 21
17.57574662790897
 31
0.0
  0
LINE
  5
42F
330
426
100
AcDbEntity
  8
DIMS
100
AcDbLine
 10
33.99429476126284
 20
22.81395432021664
 30
0.0
 11
33.99429476126284
 21
24.25626201252433
 31
0.0
  0
MTEXT
  5
430
330
426
100
AcDbEntity
  8
DIMS
100
AcDbMText
 10
33.19047530705376
 20
21.19669007903614
 30
0.0
 40
0.5
 41
0.0
 71
     1
 72
     1
  1
3
  7
SLDTEXTSTYLE1
 73
     1
 44
1.0
  0
MTEXT
  5
431
330
426
100
AcDbEntity
  8
DIMS
100
AcDbMText
 10
33.7064475564983
 20
21.56200257808164
 30
0.0
 40
0.5
 41
0.0
 71
     1
 72
     1
  1
13
  7
SLDTEXTSTYLE1
 73
     1
 44
1.0
  0
MTEXT
  5
432
330
426
100
AcDbEntity
  8
DIMS
100
AcDbMText
 10
33.7064475564983
 20
20.90082199953361
 30
0.0
 40
0.5
 41
0.0
 71
     1
 72
     1
  1
16
  7
SLDTEXTSTYLE1
 73
     1
 44
1.0
  0
MTEXT
  5
433
330
426
100
AcDbEntity
  8
DIMS
100
AcDbMText
 10
34.59186425142242
 20
21.19669007903614
 30
0.0
 40
0.5
 41
0.0
 71
     1
 72
     1
  1
"
  7
SLDTEXTSTYLE1
 73
     1
 44
1.0
  0
ENDBLK
  5
465
330
426
100
AcDbEntity
  8
0
100
AcDbBlockEnd
  0
ENDSEC
  0
SECTION
  2
ENTITIES
  0
LINE
  5
7A
330
1F
100
AcDbEntity
  8
TITLE
370
    50
100
AcDbLine
 10
29.43391070279198
 20
1.381311886050946
 30
0.0
 11
46.41567412997442
 21
1.381311886050946
 31
0.0
  0
LINE
  5
7B
330
1F
100
AcDbEntity
  8
TITLE
370
    50
100
AcDbLine
 10
46.4156194230234
 20
5.369060515145104
 30
0.0
 11
36.22622275109721
 21
5.369060515145103
 31
0.0
  0
LINE
  5
7C
330
1F
100
AcDbEntity
  8
TITLE
370
    50
100
AcDbLine
 10
29.43391070279198
 20
2.436487844692758
 30
0.0
 11
22.42166679904371
 21
2.436487844692757
 31
0.0
  0
LINE
  5
7D
330
1F
100
AcDbEntity
  8
TITLE
370
    50
100
AcDbLine
 10
29.43391070279198
 20
1.381311886050946
 30
0.0
 11
22.42166679904371
 21
1.381311886050945
 31
0.0
  0
LINE
  5
7E
330
1F
100
AcDbEntity
  8
TITLE
370
    50
100
AcDbLine
 10
29.43391070279198
 20
1.381311886050946
 30
0.0
 11
29.43391070279198
 21
3.491663803334569
 31
0.0
  0
LINE
  5
7F
330
1F
100
AcDbEntity
  8
TITLE
370
    50
100
AcDbLine
 10
22.42166679904371
 20
3.491663803334568
 30
0.0
 11
22.42166679904371
 21
0.3937001215893171
 31
0.0
  0
LINE
  5
80
330
1F
100
AcDbEntity
  8
TITLE
370
    50
100
AcDbLine
 10
22.42166679904371
 20
0.3937001215893171
 30
0.0
 11
46.41568767877938
 21
0.3937001215893171
 31
0.0
  0
LINE
  5
81
330
1F
100
AcDbEntity
  8
TITLE
370
    50
100
AcDbLine
 10
46.4156194230234
 20
5.369060515145104
 30
0.0
 11
46.41568767877938
 21
0.3937001215893171
 31
0.0
  0
LINE
  5
82
330
1F
100
AcDbEntity
  8
TITLE
370
    50
100
AcDbLine
 10
29.43391070279198
 20
3.491663803334569
 30
0.0
 11
22.42166679904371
 21
3.491663803334568
 31
0.0
  0
LINE
  5
83
330
1F
100
AcDbEntity
  8
TITLE
370
    50
100
AcDbLine
 10
29.43391070279198
 20
3.491663803334569
 30
0.0
 11
46.41544924304012
 21
3.491664955913943
 31
0.0
  0
LINE
  5
84
330
1F
100
AcDbEntity
  8
TITLE
370
    50
100
AcDbLine
 10
36.22622275109721
 20
5.369060515145103
 30
0.0
 11
36.22622275109721
 21
0.3573773641115478
 31
0.0
  0
MTEXT
  5
86
330
1F
100
AcDbEntity
  8
NOTES
100
AcDbMText
 10
23.32398548181345
 20
0.9639904562836571
 30
0.0
 40
0.25
 41
0.0
 71
     1
 72
     1
  1
UNLESS OTHERWISE SPECIFIED DIMENSIONS ARE IN INCHES.
  7
SLDTEXTSTYLE0
 73
     1
 44
1.0
  0
MTEXT
  5
87
330
1F
100
AcDbEntity
  8
NOTES
100
AcDbMText
 10
23.34575760666969
 20
2.976762899169739
 30
0.0
 40
0.25
 41
0.0
 71
     1
 72
     1
  1
DATE:
  7
SLDTEXTSTYLE0
 73
     1
 44
1.0
  0
MTEXT
  5
88
330
1F
100
AcDbEntity
  8
NOTES
100
AcDbMText
 10
25.4543888667847
 20
2.086733085252027
 30
0.0
 40
0.25
 41
0.0
 71
     2
 72
     1
  1
DO NOT SCALE DRAWING
  7
SLDTEXTSTYLE0
 73
     1
 44
1.0
  0
MTEXT
  5
8A
330
1F
100
AcDbEntity
  8
NOTES
100
AcDbMText
 10
29.74642498628476
 20
3.161975676886921
 30
0.0
 40
0.25
 41
0.0
 71
     1
 72
     1
  1
TITLE:
  7
SLDTEXTSTYLE1
 73
     1
 44
1.0
  0
MTEXT
  5
8B
330
1F
100
AcDbEntity
  8
NOTES
100
AcDbMText
 10
37.07187078394034
 20
3.161975676886921
 30
0.0
 40
0.25
 41
0.0
 71
     1
 72
     1
  1
DWG NO.
  7
SLDTEXTSTYLE1
 73
     1
 44
1.0
  0
MTEXT
  5
8C
330
1F
100
AcDbEntity
  8
NOTES
100
AcDbMText
 10
37.09886299906432
 20
0.9582816792631479
 30
0.0
 40
0.25
 41
0.0
 71
     1
 72
     1
  1
SCALE:     1:1
  7
SLDTEXTSTYLE1
 73
     1
 44
1.0
  0
MTEXT
  5
8D
330
1F
100
AcDbEntity
  8
NOTES
100
AcDbMText
 10
41.13256988449633
 20
2.544734551050183
 30
0.0
 40
0.25
 41
0.0
 71
     2
 72
     1
  1
641-Napkin Disposal
  7
SLDTEXTSTYLE1
 73
     1
 44
1.0
  0
MTEXT
  5
8E
330
1F
100
AcDbEntity
  8
NOTES
100
AcDbMText
 10
33.37752144796615
 20
2.544734551050181
 30
0.0
 40
0.25
 41
0.0
 71
     2
 72
     1
  1
641 Napkin Disposal Assembly
  7
SLDTEXTSTYLE1
 73
     1
 44
1.0
  0
INSERT
  5
9E
330
1F
100
AcDbEntity
  8
NOTES
100
AcDbBlockReference
  2
SW_NOTE_0_1
 10
23.53166030337019
 20
5.041852806368022
 30
0.0
  0
MTEXT
  5
9F
330
1F
100
AcDbEntity
  8
NOTES
100
AcDbMText
 10
26.42065288163533
 20
2.980173448355186
 30
0.0
 40
0.25
 41
0.0
 71
     2
 72
     1
  1
April 19, 2021
  7
SLDTEXTSTYLE1
 73
     1
 44
1.0
  0
LINE
  5
A0
330
1F
100
AcDbEntity
  8
0
  6
SLD-Solid
 62
     7
370
    25
100
AcDbLine
 10
2.258684402363008
 20
7.621054320216645
 30
0.0
 11
2.243684402363009
 21
7.571991530939383
 31
0.0
  0
LINE
  5
A1
330
1F
100
AcDbEntity
  8
0
  6
SLD-Solid
 62
     7
370
    25
100
AcDbLine
 10
2.243684402363009
 20
7.416117109493908
 30
0.0
 11
2.258684402363008
 21
7.367054320216646
 31
0.0
  0
LINE
  5
A2
330
1F
100
AcDbEntity
  8
0
  6
SLD-Solid
 62
     7
370
    25
100
AcDbLine
 10
2.280684402363009
 20
7.621054320216645
 30
0.0
 11
2.258684402363008
 21
7.621054320216645
 31
0.0
  0
LINE
  5
A3
330
1F
100
AcDbEntity
  8
0
  6
SLD-Solid
 62
     7
370
    25
100
AcDbLine
 10
2.258684402363008
 20
7.367054320216646
 30
0.0
 11
2.280684402363009
 21
7.367054320216646
 31
0.0
  0
LINE
  5
A4
330
1F
100
AcDbEntity
  8
0
  6
SLD-Solid
 62
     7
370
    25
100
AcDbLine
 10
2.310584402363029
 20
7.431554320216645
 30
0.0
 11
2.339584402363081
 21
7.431554320216645
 31
0.0
  0
LINE
  5
A5
330
1F
100
AcDbEntity
  8
0
  6
SLD-Solid
 62
     7
370
    25
100
AcDbLine
 10
2.339584402363081
 20
7.556554320216645
 30
0.0
 11
2.310584402363029
 21
7.556554320216645
 31
0.0
  0
LINE
  5
A6
330
1F
100
AcDbEntity
  8
0
  6
SLD-Solid
 62
     7
370
    25
100
AcDbLine
 10
13.25048440236316
 20
7.367054320216656
 30
0.0
 11
13.27248440236316
 21
7.367054320216656
 31
0.0
  0
LINE
  5
A7
330
1F
100
AcDbEntity
  8
0
  6
SLD-Solid
 62
     7
370
    25
100
AcDbLine
 10
13.27248440236316
 20
7.621054320216657
 30
0.0
 11
13.25048440236316
 21
7.621054320216657
 31
0.0
  0
LINE
  5
A8
330
1F
100
AcDbEntity
  8
0
  6
SLD-Solid
 62
     7
370
    25
100
AcDbLine
 10
13.27248440236316
 20
7.367054320216656
 30
0.0
 11
13.28748440236316
 21
7.416117109493919
 31
0.0
  0
LINE
  5
A9
330
1F
100
AcDbEntity
  8
0
  6
SLD-Solid
 62
     7
370
    25
100
AcDbLine
 10
13.28748440236316
 20
7.571991530939394
 30
0.0
 11
13.27248440236316
 21
7.621054320216657
 31
0.0
  0
LINE
  5
AA
330
1F
100
AcDbEntity
  8
0
  6
SLD-Solid
 62
     7
370
    25
100
AcDbLine
 10
13.22058440236317
 20
7.556554320216656
 30
0.0
 11
13.19158440236308
 21
7.556554320216656
 31
0.0
  0
LINE
  5
AB
330
1F
100
AcDbEntity
  8
0
  6
SLD-Solid
 62
     7
370
    25
100
AcDbLine
 10
13.19158440236308
 20
7.431554320216657
 30
0.0
 11
13.22058440236317
 21
7.431554320216657
 31
0.0
  0
LINE
  5
AC
330
1F
100
AcDbEntity
  8
0
  6
SLD-Solid
 62
     7
370
    25
100
AcDbLine
 10
8.215584402363039
 20
22.81395432021664
 30
0.0
 11
8.215584402363039
 21
23.01395432021663
 31
0.0
  0
LINE
  5
AD
330
1F
100
AcDbEntity
  8
0
  6
SLD-Solid
 62
     7
370
    25
100
AcDbLine
 10
7.315584402363038
 20
23.01395432021663
 30
0.0
 11
7.315584402363038
 21
22.81395432021664
 31
0.0
  0
ARC
  5
AE
330
1F
100
AcDbEntity
  8
0
  6
SLD-Solid
 62
     7
370
    25
100
AcDbCircle
 10
7.365584402363038
 20
23.01395432021663
 30
0.0
 40
0.0500000000000007
100
AcDbArc
 50
90.0
 51
180.0
  0
ARC
  5
AF
330
1F
100
AcDbEntity
  8
0
  6
SLD-Solid
 62
     7
370
    25
100
AcDbCircle
 10
8.165584402363038
 20
23.01395432021663
 30
0.0
 40
0.0500000000000007
100
AcDbArc
 50
0.0
 51
90.0
  0
LINE
  5
B0
330
1F
100
AcDbEntity
  8
0
  6
SLD-Solid
 62
     7
370
    25
100
AcDbLine
 10
2.243684402363009
 20
7.416117109493908
 30
0.0
 11
2.243684402363009
 21
7.571991530939383
 31
0.0
  0
LINE
  5
B1
330
1F
100
AcDbEntity
  8
0
  6
SLD-Solid
 62
     7
370
    25
100
AcDbLine
 10
2.258684402363008
 20
7.621054320216645
 30
0.0
 11
2.258684402363008
 21
7.367054320216646
 31
0.0
  0
LINE
  5
B2
330
1F
100
AcDbEntity
  8
0
  6
SLD-Solid
 62
     7
370
    25
100
AcDbLine
 10
13.27248440236316
 20
7.367054320216656
 30
0.0
 11
13.27248440236316
 21
7.621054320216657
 31
0.0
  0
LINE
  5
B3
330
1F
100
AcDbEntity
  8
0
  6
SLD-Solid
 62
     7
370
    25
100
AcDbLine
 10
13.28748440236316
 20
7.571991530939394
 30
0.0
 11
13.28748440236316
 21
7.416117109493919
 31
0.0
  0
LINE
  5
B4
330
1F
100
AcDbEntity
  8
0
  6
SLD-Solid
 62
     7
370
    25
100
AcDbLine
 10
8.165584402363038
 20
23.06395432021663
 30
0.0
 11
7.365584402363038
 21
23.06395432021663
 31
0.0
  0
ARC
  5
B5
330
1F
100
AcDbEntity
  8
0
  6
SLD-Solid
 62
     7
370
    25
100
AcDbCircle
 10
13.27068440236315
 20
21.96805432021666
 30
0.0
 40
0.0500000000000007
100
AcDbArc
 50
0.0
 51
90.0
  0
LINE
  5
B6
330
1F
100
AcDbEntity
  8
0
  6
SLD-Solid
 62
     7
370
    25
100
AcDbLine
 10
13.32068440236315
 20
21.96805432021666
 30
0.0
 11
13.32068440236315
 21
21.69305432021666
 31
0.0
  0
ARC
  5
B7
330
1F
100
AcDbEntity
  8
0
  6
SLD-Solid
 62
     7
370
    25
100
AcDbCircle
 10
13.27068440236315
 20
21.69305432021666
 30
0.0
 40
0.0500000000000007
100
AcDbArc
 50
270.0000000000008
 51
0.0
  0
LINE
  5
B8
330
1F
100
AcDbEntity
  8
0
  6
SLD-Solid
 62
     7
370
    25
100
AcDbLine
 10
13.27068440236315
 20
21.64305432021666
 30
0.0
 11
13.25048440236309
 21
21.64305432021666
 31
0.0
  0
LINE
  5
B9
330
1F
100
AcDbEntity
  8
0
  6
SLD-Solid
 62
     7
370
    25
100
AcDbLine
 10
2.252684402363144
 20
21.64305432021666
 30
0.0
 11
2.280684402363066
 21
21.64305432021666
 31
0.0
  0
ARC
  5
BA
330
1F
100
AcDbEntity
  8
0
  6
SLD-Solid
 62
     7
370
    25
100
AcDbCircle
 10
2.252684402363144
 20
21.69305432021665
 30
0.0
 40
0.0499999999999998
100
AcDbArc
 50
180.0
 51
270.0000000000008
  0
LINE
  5
BB
330
1F
100
AcDbEntity
  8
0
  6
SLD-Solid
 62
     7
370
    25
100
AcDbLine
 10
2.202684402363144
 20
21.96805432021666
 30
0.0
 11
2.202684402363144
 21
21.69305432021665
 31
0.0
  0
ARC
  5
BC
330
1F
100
AcDbEntity
  8
0
  6
SLD-Solid
 62
     7
370
    25
100
AcDbCircle
 10
2.252684402363144
 20
21.96805432021666
 30
0.0
 40
0.0500000000000007
100
AcDbArc
 50
90.0
 51
180.0
  0
LINE
  5
BD
330
1F
100
AcDbEntity
  8
0
  6
SLD-Solid
 62
     7
370
    25
100
AcDbLine
 10
2.252684402363144
 20
22.01805432021666
 30
0.0
 11
2.280684402363066
 21
22.01805432021666
 31
0.0
  0
LINE
  5
BE
330
1F
100
AcDbEntity
  8
0
  6
SLD-Solid
 62
     7
370
    25
100
AcDbLine
 10
13.27068440236315
 20
22.01805432021666
 30
0.0
 11
13.25048440236309
 21
22.01805432021666
 31
0.0
  0
LINE
  5
BF
330
1F
100
AcDbEntity
  8
0
  6
SLD-Solid
 62
     7
370
    25
100
AcDbLine
 10
2.339584402363088
 20
22.81395432021666
 30
0.0
 11
2.339584402363088
 21
22.51005432021666
 31
0.0
  0
LINE
  5
C0
330
1F
100
AcDbEntity
  8
0
  6
SLD-Solid
 62
     7
370
    25
100
AcDbLine
 10
13.19158440236309
 20
22.81395432021662
 30
0.0
 11
2.339584402363088
 21
22.81395432021666
 31
0.0
  0
LINE
  5
C1
330
1F
100
AcDbEntity
  8
0
  6
SLD-Solid
 62
     7
370
    25
100
AcDbLine
 10
13.19158440236309
 20
22.51005432021666
 30
0.0
 11
13.19158440236309
 21
22.81395432021662
 31
0.0
  0
LINE
  5
C2
330
1F
100
AcDbEntity
  8
0
  6
SLD-Solid
 62
     7
370
    25
100
AcDbLine
 10
13.19158440236309
 20
22.51005432021666
 30
0.0
 11
13.19158440236309
 21
22.50505432021666
 31
0.0
  0
LINE
  5
C3
330
1F
100
AcDbEntity
  8
0
  6
SLD-Solid
 62
     7
370
    25
100
AcDbLine
 10
13.19158440236309
 20
7.618054320216637
 30
0.0
 11
13.19158440236309
 21
7.623054320216654
 31
0.0
  0
LINE
  5
C4
330
1F
100
AcDbEntity
  8
0
  6
SLD-Solid
 62
     7
370
    25
100
AcDbLine
 10
2.339584402363089
 20
7.618054320216657
 30
0.0
 11
2.339584402363089
 21
7.623054320216648
 31
0.0
  0
LINE
  5
C5
330
1F
100
AcDbEntity
  8
0
  6
SLD-Solid
 62
     7
370
    25
100
AcDbLine
 10
3.265584402363087
 20
21.0926773270484
 30
0.0
 11
3.265584402363088
 21
17.47543131338493
 31
0.0
  0
ARC
  5
C6
330
1F
100
AcDbEntity
  8
0
  6
SLD-Solid
 62
     7
370
    25
100
AcDbCircle
 10
3.465584402363088
 20
17.47543131338492
 30
0.0
 40
0.2000000000000169
100
AcDbArc
 50
179.9999999999979
 51
267.5305797208715
  0
ARC
  5
C7
330
1F
100
AcDbEntity
  8
0
  6
SLD-Solid
 62
     7
370
    25
100
AcDbCircle
 10
7.765584402363064
 20
117.1827530104401
 30
0.0
 40
100.0000000000002
100
AcDbArc
 50
267.5305797208716
 51
272.4694202791301
  0
ARC
  5
C8
330
1F
100
AcDbEntity
  8
0
  6
SLD-Solid
 62
     7
370
    25
100
AcDbCircle
 10
12.06558440236309
 20
17.47543131338493
 30
0.0
 40
0.2000000000000134
100
AcDbArc
 50
272.4694202791304
 51
0.0000000000005725
  0
LINE
  5
C9
330
1F
100
AcDbEntity
  8
0
  6
SLD-Solid
 62
     7
370
    25
100
AcDbLine
 10
12.26558440236309
 20
21.0926773270484
 30
0.0
 11
12.26558440236309
 21
17.47543131338493
 31
0.0
  0
ARC
  5
CA
330
1F
100
AcDbEntity
  8
0
  6
SLD-Solid
 62
     7
370
    25
100
AcDbCircle
 10
12.06558440236309
 20
21.0926773270484
 30
0.0
 40
0.1999999999999994
100
AcDbArc
 50
359.9999999999994
 51
87.53057972086874
  0
ARC
  5
CB
330
1F
100
AcDbEntity
  8
0
  6
SLD-Solid
 62
     7
370
    25
100
AcDbCircle
 10
7.765584402363088
 20
-78.61464437000654
 30
0.0
 40
100.0
100
AcDbArc
 50
87.53057972087073
 51
92.46942027912927
  0
ARC
  5
CC
330
1F
100
AcDbEntity
  8
0
  6
SLD-Solid
 62
     7
370
    25
100
AcDbCircle
 10
3.465584402363088
 20
21.09267732704839
 30
0.0
 40
0.2000000000000061
100
AcDbArc
 50
92.46942027912799
 51
179.999999999998
  0
LINE
  5
CD
330
1F
100
AcDbEntity
  8
0
  6
SLD-Solid
 62
     7
370
    25
100
AcDbLine
 10
2.339584402363093
 20
22.51005432021666
 30
0.0
 11
2.339584402363093
 21
22.50505432021665
 31
0.0
  0
LINE
  5
CE
330
1F
100
AcDbEntity
  8
0
  6
SLD-Solid
 62
     7
370
    25
100
AcDbLine
 10
13.19158440236309
 20
7.314154320216652
 30
0.0
 11
13.19158440236309
 21
7.618054320216637
 31
0.0
  0
LINE
  5
CF
330
1F
100
AcDbEntity
  8
0
  6
SLD-Solid
 62
     7
370
    25
100
AcDbLine
 10
2.339584402363091
 20
7.314154320216652
 30
0.0
 11
13.19158440236309
 21
7.314154320216652
 31
0.0
  0
LINE
  5
D0
330
1F
100
AcDbEntity
  8
0
  6
SLD-Solid
 62
     7
370
    25
100
AcDbLine
 10
2.339584402363091
 20
7.618054320216657
 30
0.0
 11
2.339584402363091
 21
7.314154320216652
 31
0.0
  0
LINE
  5
D1
330
1F
100
AcDbEntity
  8
0
  6
SLD-Solid
 62
     7
370
    25
100
AcDbLine
 10
2.339584402363093
 20
22.50505432021664
 30
0.0
 11
2.280684402363065
 21
22.50505432021665
 31
0.0
  0
LINE
  5
D2
330
1F
100
AcDbEntity
  8
0
  6
SLD-Solid
 62
     7
370
    25
100
AcDbLine
 10
2.280684402363065
 20
22.50505432021665
 30
0.0
 11
2.280684402363089
 21
7.623054320216658
 31
0.0
  0
LINE
  5
D3
330
1F
100
AcDbEntity
  8
0
  6
SLD-Solid
 62
     7
370
    25
100
AcDbLine
 10
2.280684402363089
 20
7.623054320216658
 30
0.0
 11
2.339584402363096
 21
7.623054320216648
 31
0.0
  0
LINE
  5
D4
330
1F
100
AcDbEntity
  8
0
  6
SLD-Solid
 62
     7
370
    25
100
AcDbLine
 10
13.19158440236309
 20
7.623054320216654
 30
0.0
 11
13.25048440236312
 21
7.623054320216645
 31
0.0
  0
LINE
  5
D5
330
1F
100
AcDbEntity
  8
0
  6
SLD-Solid
 62
     7
370
    25
100
AcDbLine
 10
13.25048440236309
 20
22.50505432021665
 30
0.0
 11
13.25048440236312
 21
7.623054320216645
 31
0.0
  0
LINE
  5
D6
330
1F
100
AcDbEntity
  8
0
  6
SLD-Solid
 62
     7
370
    25
100
AcDbLine
 10
13.25048440236309
 20
22.50505432021665
 30
0.0
 11
13.19158440236309
 21
22.50505432021665
 31
0.0
  0
LINE
  5
D7
330
1F
100
AcDbEntity
  8
0
  6
SLD-Solid
 62
     7
370
    25
100
AcDbLine
 10
13.22058440236316
 20
22.77109549557727
 30
0.0
 11
13.25048440236317
 21
22.77109549557727
 31
0.0
  0
LINE
  5
D8
330
1F
100
AcDbEntity
  8
0
  6
SLD-Solid
 62
     7
370
    25
100
AcDbLine
 10
13.25048440236317
 20
22.77109549557727
 30
0.0
 11
13.25048440236312
 21
22.53109549557727
 31
0.0
  0
LINE
  5
D9
330
1F
100
AcDbEntity
  8
0
  6
SLD-Solid
 62
     7
370
    25
100
AcDbLine
 10
13.22058440236316
 20
22.53109549557727
 30
0.0
 11
13.22058440236316
 21
22.77109549557727
 31
0.0
  0
LINE
  5
DA
330
1F
100
AcDbEntity
  8
0
  6
SLD-Solid
 62
     7
370
    25
100
AcDbLine
 10
2.280684402363066
 20
22.50505432021665
 30
0.0
 11
2.280684402363066
 21
22.53109549557727
 31
0.0
  0
LINE
  5
DB
330
1F
100
AcDbEntity
  8
0
  6
SLD-Solid
 62
     7
370
    25
100
AcDbLine
 10
2.310584402363029
 20
22.50505432021665
 30
0.0
 11
2.310584402363029
 21
22.53109549557727
 31
0.0
  0
LINE
  5
DC
330
1F
100
AcDbEntity
  8
0
  6
SLD-Solid
 62
     7
370
    25
100
AcDbLine
 10
2.310584402363026
 20
22.77109549557727
 30
0.0
 11
2.280684402363026
 21
22.77109549557727
 31
0.0
  0
LINE
  5
DD
330
1F
100
AcDbEntity
  8
0
  6
SLD-Solid
 62
     7
370
    25
100
AcDbLine
 10
2.280684402363026
 20
22.77109549557727
 30
0.0
 11
2.280684402363066
 21
22.53109549557727
 31
0.0
  0
LINE
  5
DE
330
1F
100
AcDbEntity
  8
0
  6
SLD-Solid
 62
     7
370
    25
100
AcDbLine
 10
2.310584402363029
 20
22.53109549557727
 30
0.0
 11
2.310584402363026
 21
22.77109549557727
 31
0.0
  0
LINE
  5
DF
330
1F
100
AcDbEntity
  8
0
  6
SLD-Solid
 62
     7
370
    25
100
AcDbLine
 10
2.28068440236308
 20
7.584054320216656
 30
0.0
 11
2.280684402363069
 21
7.623054320216649
 31
0.0
  0
LINE
  5
E0
330
1F
100
AcDbEntity
  8
0
  6
SLD-Solid
 62
     7
370
    25
100
AcDbLine
 10
2.31058440236304
 20
7.584054320216656
 30
0.0
 11
2.31058440236303
 21
7.623054320216649
 31
0.0
  0
LINE
  5
E1
330
1F
100
AcDbEntity
  8
0
  6
SLD-Solid
 62
     7
370
    25
100
AcDbLine
 10
13.25048440236312
 20
22.50505432021666
 30
0.0
 11
13.25048440236312
 21
22.53109549557727
 31
0.0
  0
LINE
  5
E2
330
1F
100
AcDbEntity
  8
0
  6
SLD-Solid
 62
     7
370
    25
100
AcDbLine
 10
13.22058440236316
 20
22.50505432021666
 30
0.0
 11
13.22058440236316
 21
22.53109549557727
 31
0.0
  0
LINE
  5
E3
330
1F
100
AcDbEntity
  8
0
  6
SLD-Solid
 62
     7
370
    25
100
AcDbLine
 10
2.280684402363028
 20
7.344054320216656
 30
0.0
 11
2.310584402363028
 21
7.344054320216656
 31
0.0
  0
LINE
  5
E4
330
1F
100
AcDbEntity
  8
0
  6
SLD-Solid
 62
     7
370
    25
100
AcDbLine
 10
2.28068440236308
 20
7.584054320216656
 30
0.0
 11
2.280684402363028
 21
7.344054320216656
 31
0.0
  0
LINE
  5
E5
330
1F
100
AcDbEntity
  8
0
  6
SLD-Solid
 62
     7
370
    25
100
AcDbLine
 10
2.310584402363028
 20
7.344054320216656
 30
0.0
 11
2.31058440236304
 21
7.584054320216656
 31
0.0
  0
LINE
  5
E6
330
1F
100
AcDbEntity
  8
0
  6
SLD-Solid
 62
     7
370
    25
100
AcDbLine
 10
13.25048440236317
 20
7.344054320216645
 30
0.0
 11
13.22058440236317
 21
7.344054320216645
 31
0.0
  0
LINE
  5
E7
330
1F
100
AcDbEntity
  8
0
  6
SLD-Solid
 62
     7
370
    25
100
AcDbLine
 10
13.25048440236313
 20
7.58405432021664
 30
0.0
 11
13.25048440236317
 21
7.344054320216645
 31
0.0
  0
LINE
  5
E8
330
1F
100
AcDbEntity
  8
0
  6
SLD-Solid
 62
     7
370
    25
100
AcDbLine
 10
13.22058440236317
 20
7.344054320216645
 30
0.0
 11
13.22058440236317
 21
7.58405432021664
 31
0.0
  0
LINE
  5
E9
330
1F
100
AcDbEntity
  8
0
  6
SLD-Solid
 62
     7
370
    25
100
AcDbLine
 10
13.25048440236313
 20
7.58405432021664
 30
0.0
 11
13.25048440236312
 21
7.623054320216648
 31
0.0
  0
LINE
  5
EA
330
1F
100
AcDbEntity
  8
0
  6
SLD-Solid
 62
     7
370
    25
100
AcDbLine
 10
13.22058440236317
 20
7.58405432021664
 30
0.0
 11
13.22058440236316
 21
7.623054320216648
 31
0.0
  0
LINE
  5
EB
330
1F
100
AcDbEntity
  8
0
  6
SLD-Solid
 62
     7
370
    25
100
AcDbLine
 10
2.31958440236309
 20
7.344054320216654
 30
0.0
 11
2.31958440236309
 21
7.314154320216654
 31
0.0
  0
LINE
  5
EC
330
1F
100
AcDbEntity
  8
0
  6
SLD-Solid
 62
     7
370
    25
100
AcDbLine
 10
2.33958440236309
 20
7.344054320216647
 30
0.0
 11
2.31958440236309
 21
7.344054320216654
 31
0.0
  0
LINE
  5
ED
330
1F
100
AcDbEntity
  8
0
  6
SLD-Solid
 62
     7
370
    25
100
AcDbLine
 10
2.31958440236309
 20
7.314154320216654
 30
0.0
 11
2.339584402363091
 21
7.314154320216652
 31
0.0
  0
LINE
  5
EE
330
1F
100
AcDbEntity
  8
0
  6
SLD-Solid
 62
     7
370
    25
100
AcDbLine
 10
13.21158440236309
 20
7.344054320216645
 30
0.0
 11
13.21158440236309
 21
7.314154320216652
 31
0.0
  0
LINE
  5
EF
330
1F
100
AcDbEntity
  8
0
  6
SLD-Solid
 62
     7
370
    25
100
AcDbLine
 10
13.19158440236309
 20
7.344054320216645
 30
0.0
 11
13.21158440236309
 21
7.344054320216645
 31
0.0
  0
LINE
  5
F0
330
1F
100
AcDbEntity
  8
0
  6
SLD-Solid
 62
     7
370
    25
100
AcDbLine
 10
13.21158440236309
 20
7.314154320216652
 30
0.0
 11
13.19158440236309
 21
7.314154320216652
 31
0.0
  0
LINE
  5
F1
330
1F
100
AcDbEntity
  8
0
  6
SLD-Solid
 62
     7
370
    25
100
AcDbLine
 10
13.21958440236308
 20
22.72131732386752
 30
0.0
 11
13.21958440236309
 21
22.66828431527853
 31
0.0
  0
ARC
  5
F2
330
1F
100
AcDbEntity
  8
0
  6
SLD-Solid
 62
     7
370
    25
100
AcDbCircle
 10
13.16068440236308
 20
22.75505432021662
 30
0.0
 40
0.0588999999999995
100
AcDbArc
 50
0.00000000000216
 51
58.35746946739437
  0
LINE
  5
F3
330
1F
100
AcDbEntity
  8
0
  6
SLD-Solid
 62
     7
370
    25
100
AcDbLine
 10
13.21958440236308
 20
22.75505432021662
 30
0.0
 11
13.21958440236308
 21
22.72131732386752
 31
0.0
  0
LINE
  5
F4
330
1F
100
AcDbEntity
  8
0
  6
SLD-Solid
 62
     7
370
    25
100
AcDbLine
 10
2.31158440236308
 20
22.75505432021662
 30
0.0
 11
2.31158440236308
 21
22.72131732386752
 31
0.0
  0
ARC
  5
F5
330
1F
100
AcDbEntity
  8
0
  6
SLD-Solid
 62
     7
370
    25
100
AcDbCircle
 10
2.37048440236308
 20
22.75505432021662
 30
0.0
 40
0.0589
100
AcDbArc
 50
121.6425305326115
 51
180.0
  0
LINE
  5
F6
330
1F
100
AcDbEntity
  8
0
  6
SLD-Solid
 62
     7
370
    25
100
AcDbLine
 10
2.31158440236308
 20
22.72131732386752
 30
0.0
 11
2.311584402363089
 21
22.66828431527853
 31
0.0
  0
LINE
  5
F7
330
1F
100
AcDbEntity
  8
0
  6
SLD-Solid
 62
     7
370
    25
100
AcDbLine
 10
13.21958440236309
 20
22.66828431527853
 30
0.0
 11
13.21958440236309
 21
22.50505432021665
 31
0.0
  0
LINE
  5
F8
330
1F
100
AcDbEntity
  8
0
  6
SLD-Solid
 62
     7
370
    25
100
AcDbLine
 10
2.311584402363089
 20
22.66828431527853
 30
0.0
 11
2.311584402363088
 21
22.50505432021664
 31
0.0
  0
LINE
  5
F9
330
1F
100
AcDbEntity
  8
NOTES
100
AcDbLine
 10
1.317840630835035
 20
3.034978361433762
 30
0.0
 11
13.58844528566177
 21
3.034978361433762
 31
0.0
  0
DIMENSION
  5
FA
330
1F
100
AcDbEntity
  8
DIMS
100
AcDbDimension
  2
_D
 10
1.501653958929321
 20
3.034978361433761
 30
0.0
 11
1.501653958929367
 21
12.92446634082521
 31
0.0
 70
    32
  1
48" (1220mm) Max height above \Pfloor for barrier free mounting
 71
     1
 42
-1.0
  3
SLDDIMSTYLE0
100
AcDbAlignedDimension
 13
2.339584402363088
 23
22.81395432021666
 33
0.0
 14
1.317840630835035
 24
3.034978361433762
 34
0.0
 50
90.0000000000002
100
AcDbRotatedDimension
  0
DIMENSION
  5
10D
330
1F
100
AcDbEntity
  8
DIMS
100
AcDbDimension
  2
_D_1
 10
14.65926707952849
 20
7.314154320216646
 30
0.0
 11
14.65926707952852
 21
15.06405432021664
 31
0.0
 70
    32
  1
<>
 71
     2
 42
-1.0
  3
SLDDIMSTYLE1
100
AcDbAlignedDimension
 13
13.19158440236309
 23
22.81395432021662
 33
0.0
 14
13.19158440236309
 24
7.314154320216652
 34
0.0
 50
90.0000000000002
100
AcDbRotatedDimension
  0
DIMENSION
  5
11D
330
1F
100
AcDbEntity
  8
DIMS
100
AcDbDimension
  2
_D_2
 10
2.280684402363026
 20
24.16631652494104
 30
0.0
 11
7.628545582297739
 21
24.16631652494104
 31
0.0
 70
    32
  1
<>
 71
     2
 42
-1.0
  3
SLDDIMSTYLE0
100
AcDbAlignedDimension
 13
13.25048440236317
 23
22.77109549557727
 33
0.0
 14
2.280684402363026
 24
22.77109549557727
 34
0.0
100
AcDbRotatedDimension
  0
MTEXT
  5
128
330
1F
100
AcDbEntity
  8
NOTES
100
AcDbMText
 10
11.86168581476764
 20
25.91657822609938
 30
0.0
 40
0.5
 41
0.0
 71
     1
 72
     1
  1
receptacle inlet
  7
SLDTEXTSTYLE1
 73
     1
 44
1.0
  0
LEADER
  5
12A
330
1F
100
AcDbEntity
  8
NOTES
100
AcDbLeader
  3
SLDDIMSTYLE2
 76
     3
 10
9.826518854840238
 20
21.36411612032257
 30
0.0
 10
11.33809055118111
 20
25.67027559357252
 30
0.0
 10
11.83809055118111
 20
25.67027559357252
 30
0.0
1001
ACAD
1000
DSTYLE
1002
{
1070
   176
1070
     0
1070
    77
1070
     0
1070
    40
1040
1.0
1070
   147
1040
0.0
1002
}
  0
MTEXT
  5
12B
330
1F
100
AcDbEntity
  8
NOTES
100
AcDbMText
 10
2.444183659031728
 20
7.014184257688181
 30
0.0
 40
0.5
 41
0.0
 71
     1
 72
     1
  1
Front view
  7
SLDTEXTSTYLE1
 73
     1
 44
1.0
  0
MTEXT
  5
12C
330
1F
100
AcDbEntity
  8
NOTES
100
AcDbMText
 10
2.106290441924837
 20
3.794946605144022
 30
0.0
 40
0.5
 41
0.0
 71
     1
 72
     1
  1
Floor
  7
SLDTEXTSTYLE1
 73
     1
 44
1.0
  0
LINE
  5
12D
330
1F
100
AcDbEntity
  8
0
  6
SLD-Solid
 62
     7
370
    25
100
AcDbLine
 10
2.280684402363007
 20
29.09532912710555
 30
0.0
 11
2.258684402363007
 21
29.09532912710555
 31
0.0
  0
LINE
  5
12E
330
1F
100
AcDbEntity
  8
0
  6
SLD-Solid
 62
     7
370
    25
100
AcDbLine
 10
2.25868440236301
 20
28.84132912710555
 30
0.0
 11
2.28068440236301
 21
28.84132912710555
 31
0.0
  0
LINE
  5
12F
330
1F
100
AcDbEntity
  8
0
  6
SLD-Solid
 62
     7
370
    25
100
AcDbLine
 10
2.258684402363007
 20
29.09532912710555
 30
0.0
 11
2.243684402363008
 21
29.04626633782829
 31
0.0
  0
LINE
  5
130
330
1F
100
AcDbEntity
  8
0
  6
SLD-Solid
 62
     7
370
    25
100
AcDbLine
 10
2.243684402363009
 20
28.89039191638281
 30
0.0
 11
2.25868440236301
 21
28.84132912710555
 31
0.0
  0
LINE
  5
131
330
1F
100
AcDbEntity
  8
0
  6
SLD-Solid
 62
     7
370
    25
100
AcDbLine
 10
2.31058440236302
 20
28.90582912710554
 30
0.0
 11
2.311584402363084
 21
28.90582912710554
 31
0.0
  0
LINE
  5
132
330
1F
100
AcDbEntity
  8
0
  6
SLD-Solid
 62
     7
370
    25
100
AcDbLine
 10
2.311584402363084
 20
29.03082912710554
 30
0.0
 11
2.310584402363019
 21
29.03082912710554
 31
0.0
  0
LINE
  5
133
330
1F
100
AcDbEntity
  8
0
  6
SLD-Solid
 62
     7
370
    25
100
AcDbLine
 10
13.25048440236316
 20
28.84132912710559
 30
0.0
 11
13.27248440236316
 21
28.84132912710559
 31
0.0
  0
LINE
  5
134
330
1F
100
AcDbEntity
  8
0
  6
SLD-Solid
 62
     7
370
    25
100
AcDbLine
 10
13.27248440236316
 20
29.09532912710559
 30
0.0
 11
13.25048440236316
 21
29.09532912710559
 31
0.0
  0
LINE
  5
135
330
1F
100
AcDbEntity
  8
0
  6
SLD-Solid
 62
     7
370
    25
100
AcDbLine
 10
13.27248440236316
 20
28.84132912710559
 30
0.0
 11
13.28748440236316
 21
28.89039191638285
 31
0.0
  0
LINE
  5
136
330
1F
100
AcDbEntity
  8
0
  6
SLD-Solid
 62
     7
370
    25
100
AcDbLine
 10
13.28748440236316
 20
29.04626633782833
 30
0.0
 11
13.27248440236316
 21
29.09532912710559
 31
0.0
  0
LINE
  5
137
330
1F
100
AcDbEntity
  8
0
  6
SLD-Solid
 62
     7
370
    25
100
AcDbLine
 10
13.22058440236317
 20
29.03082912710559
 30
0.0
 11
13.21958440236308
 21
29.03082912710559
 31
0.0
  0
LINE
  5
138
330
1F
100
AcDbEntity
  8
0
  6
SLD-Solid
 62
     7
370
    25
100
AcDbLine
 10
13.21958440236308
 20
28.90582912710559
 30
0.0
 11
13.22058440236317
 21
28.90582912710559
 31
0.0
  0
LINE
  5
139
330
1F
100
AcDbEntity
  8
0
  6
SLD-Solid
 62
     7
370
    25
100
AcDbLine
 10
12.75048440236316
 20
27.02232912710608
 30
0.0
 11
10.75048440236316
 21
27.02232912710608
 31
0.0
  0
LINE
  5
13A
330
1F
100
AcDbEntity
  8
0
  6
SLD-Solid
 62
     7
370
    25
100
AcDbLine
 10
2.258684402363007
 20
29.09532912710555
 30
0.0
 11
2.25868440236301
 21
28.84132912710555
 31
0.0
  0
LINE
  5
13B
330
1F
100
AcDbEntity
  8
0
  6
SLD-Solid
 62
     7
370
    25
100
AcDbLine
 10
2.243684402363009
 20
28.89039191638281
 30
0.0
 11
2.243684402363008
 21
29.04626633782829
 31
0.0
  0
LINE
  5
13C
330
1F
100
AcDbEntity
  8
0
  6
SLD-Solid
 62
     7
370
    25
100
AcDbLine
 10
13.27248440236316
 20
28.84132912710559
 30
0.0
 11
13.27248440236316
 21
29.09532912710559
 31
0.0
  0
LINE
  5
13D
330
1F
100
AcDbEntity
  8
0
  6
SLD-Solid
 62
     7
370
    25
100
AcDbLine
 10
13.28748440236316
 20
29.04626633782833
 30
0.0
 11
13.28748440236316
 21
28.89039191638285
 31
0.0
  0
CIRCLE
  5
13E
330
1F
100
AcDbEntity
  8
0
  6
SLD-Solid
 62
     7
370
    25
100
AcDbCircle
 10
7.765584402363038
 20
29.83842906176334
 30
0.0
 40
0.400000000000001
  0
CIRCLE
  5
13F
330
1F
100
AcDbEntity
  8
0
  6
SLD-Solid
 62
     7
370
    25
100
AcDbCircle
 10
7.765584402363038
 20
29.83842906176334
 30
0.0
 40
0.4500000000000007
  0
CIRCLE
  5
140
330
1F
100
AcDbEntity
  8
0
  6
SLD-Solid
 62
     7
370
    25
100
AcDbCircle
 10
7.765584402363038
 20
29.83842906176334
 30
0.0
 40
0.3249999999999997
  0
CIRCLE
  5
141
330
1F
100
AcDbEntity
  8
0
  6
SLD-Solid
 62
     7
370
    25
100
AcDbCircle
 10
7.765584402363038
 20
29.83842906176334
 30
0.0
 40
0.3149999999999997
  0
LINE
  5
142
330
1F
100
AcDbEntity
  8
0
  6
SLD-Solid
 62
     7
370
    25
100
AcDbLine
 10
7.708766494359951
 20
29.56058607493418
 30
0.0
 11
7.723175820829132
 21
29.90051654989899
 31
0.0
  0
LINE
  5
143
330
1F
100
AcDbEntity
  8
0
  6
SLD-Solid
 62
     7
370
    25
100
AcDbLine
 10
7.708766494359951
 20
29.56058607493418
 30
0.0
 11
7.798685745780624
 21
29.55677448419722
 31
0.0
  0
LINE
  5
144
330
1F
100
AcDbEntity
  8
0
  6
SLD-Solid
 62
     7
370
    25
100
AcDbLine
 10
7.813095072249805
 20
29.89670495916203
 30
0.0
 11
7.798685745780624
 21
29.55677448419722
 31
0.0
  0
LINE
  5
145
330
1F
100
AcDbEntity
  8
0
  6
SLD-Solid
 62
     7
370
    25
100
AcDbLine
 10
7.723175820829132
 20
29.90051654989899
 30
0.0
 11
7.813095072249805
 21
29.89670495916203
 31
0.0
  0
LINE
  5
146
330
1F
100
AcDbEntity
  8
0
  6
SLD-Solid
 62
     7
370
    25
100
AcDbLine
 10
3.901684402363147
 20
30.98688971007047
 30
0.0
 11
3.901684402363147
 21
30.95322912710571
 31
0.0
  0
LINE
  5
147
330
1F
100
AcDbEntity
  8
0
  6
SLD-Solid
 62
     7
370
    25
100
AcDbLine
 10
3.901684402363147
 20
30.98688971007047
 30
0.0
 11
11.62168440236315
 21
30.98688971007047
 31
0.0
  0
LINE
  5
148
330
1F
100
AcDbEntity
  8
0
  6
SLD-Solid
 62
     7
370
    25
100
AcDbLine
 10
11.62168440236315
 20
30.98688971007047
 30
0.0
 11
11.62168440236315
 21
30.95322912710571
 31
0.0
  0
LINE
  5
149
330
1F
100
AcDbEntity
  8
0
  6
SLD-Solid
 62
     7
370
    25
100
AcDbLine
 10
13.07168440236315
 20
30.95698971007047
 30
0.0
 11
13.07168440236315
 21
30.98688971007047
 31
0.0
  0
LINE
  5
14A
330
1F
100
AcDbEntity
  8
0
  6
SLD-Solid
 62
     7
370
    25
100
AcDbLine
 10
11.62168440236315
 20
30.98688971007047
 30
0.0
 11
13.07168440236315
 21
30.98688971007047
 31
0.0
  0
LINE
  5
14B
330
1F
100
AcDbEntity
  8
0
  6
SLD-Solid
 62
     7
370
    25
100
AcDbLine
 10
11.62168440236315
 20
30.95698971007047
 30
0.0
 11
13.07168440236315
 21
30.95698971007047
 31
0.0
  0
LINE
  5
14C
330
1F
100
AcDbEntity
  8
0
  6
SLD-Solid
 62
     7
370
    25
100
AcDbLine
 10
2.451684402363147
 20
30.95698971007047
 30
0.0
 11
2.451684402363147
 21
30.98688971007047
 31
0.0
  0
LINE
  5
14D
330
1F
100
AcDbEntity
  8
0
  6
SLD-Solid
 62
     7
370
    25
100
AcDbLine
 10
3.901684402363147
 20
30.98688971007047
 30
0.0
 11
2.451684402363147
 21
30.98688971007047
 31
0.0
  0
LINE
  5
14E
330
1F
100
AcDbEntity
  8
0
  6
SLD-Solid
 62
     7
370
    25
100
AcDbLine
 10
3.901684402363147
 20
30.95698971007047
 30
0.0
 11
2.451684402363147
 21
30.95698971007047
 31
0.0
  0
LINE
  5
14F
330
1F
100
AcDbEntity
  8
0
  6
SLD-Solid
 62
     7
370
    25
100
AcDbLine
 10
13.12168440236315
 20
30.98688971007047
 30
0.0
 11
13.12168440236315
 21
30.95698971007047
 31
0.0
  0
LINE
  5
150
330
1F
100
AcDbEntity
  8
0
  6
SLD-Solid
 62
     7
370
    25
100
AcDbLine
 10
13.07168440236315
 20
30.98688971007047
 30
0.0
 11
13.12168440236315
 21
30.98688971007047
 31
0.0
  0
LINE
  5
151
330
1F
100
AcDbEntity
  8
0
  6
SLD-Solid
 62
     7
370
    25
100
AcDbLine
 10
13.12168440236315
 20
30.95698971007047
 30
0.0
 11
13.07168440236315
 21
30.95698971007047
 31
0.0
  0
LINE
  5
152
330
1F
100
AcDbEntity
  8
0
  6
SLD-Solid
 62
     7
370
    25
100
AcDbLine
 10
2.401684402363148
 20
30.98688971007047
 30
0.0
 11
2.401684402363148
 21
30.95698971007047
 31
0.0
  0
LINE
  5
153
330
1F
100
AcDbEntity
  8
0
  6
SLD-Solid
 62
     7
370
    25
100
AcDbLine
 10
2.451684402363147
 20
30.98688971007047
 30
0.0
 11
2.401684402363148
 21
30.98688971007047
 31
0.0
  0
LINE
  5
154
330
1F
100
AcDbEntity
  8
0
  6
SLD-Solid
 62
     7
370
    25
100
AcDbLine
 10
2.401684402363148
 20
30.95698971007047
 30
0.0
 11
2.451684402363147
 21
30.95698971007047
 31
0.0
  0
LINE
  5
155
330
1F
100
AcDbEntity
  8
0
  6
SLD-Solid
 62
     7
370
    25
100
AcDbLine
 10
13.27068440236315
 20
30.95698971007047
 30
0.0
 11
13.27068440236315
 21
30.98688971007047
 31
0.0
  0
LINE
  5
156
330
1F
100
AcDbEntity
  8
0
  6
SLD-Solid
 62
     7
370
    25
100
AcDbLine
 10
13.27068440236315
 20
30.98688971007047
 30
0.0
 11
13.12168440236315
 21
30.98688971007047
 31
0.0
  0
LINE
  5
157
330
1F
100
AcDbEntity
  8
0
  6
SLD-Solid
 62
     7
370
    25
100
AcDbLine
 10
13.27068440236315
 20
30.95698971007047
 30
0.0
 11
13.21564702315306
 21
30.95698971007047
 31
0.0
  0
LINE
  5
158
330
1F
100
AcDbEntity
  8
0
  6
SLD-Solid
 62
     7
370
    25
100
AcDbLine
 10
13.16752178157329
 20
30.95698971007047
 30
0.0
 11
13.12168440236315
 21
30.95698971007047
 31
0.0
  0
LINE
  5
159
330
1F
100
AcDbEntity
  8
0
  6
SLD-Solid
 62
     7
370
    25
100
AcDbLine
 10
2.252684402363144
 20
30.95698971007047
 30
0.0
 11
2.252684402363144
 21
30.98688971007047
 31
0.0
  0
LINE
  5
15A
330
1F
100
AcDbEntity
  8
0
  6
SLD-Solid
 62
     7
370
    25
100
AcDbLine
 10
2.252684402363144
 20
30.98688971007047
 30
0.0
 11
2.401684402363148
 21
30.98688971007047
 31
0.0
  0
LINE
  5
15B
330
1F
100
AcDbEntity
  8
0
  6
SLD-Solid
 62
     7
370
    25
100
AcDbLine
 10
2.252684402363144
 20
30.95698971007047
 30
0.0
 11
2.315521781573148
 21
30.95698971007047
 31
0.0
  0
LINE
  5
15C
330
1F
100
AcDbEntity
  8
0
  6
SLD-Solid
 62
     7
370
    25
100
AcDbLine
 10
2.363647023152879
 20
30.95698971007047
 30
0.0
 11
2.401684402363148
 21
30.95698971007047
 31
0.0
  0
LINE
  5
15D
330
1F
100
AcDbEntity
  8
0
  6
SLD-Solid
 62
     7
370
    25
100
AcDbLine
 10
13.32068440236315
 20
30.98688971007047
 30
0.0
 11
13.32068440236315
 21
30.95698971007047
 31
0.0
  0
LINE
  5
15E
330
1F
100
AcDbEntity
  8
0
  6
SLD-Solid
 62
     7
370
    25
100
AcDbLine
 10
13.27068440236315
 20
30.98688971007047
 30
0.0
 11
13.32068440236315
 21
30.98688971007047
 31
0.0
  0
LINE
  5
15F
330
1F
100
AcDbEntity
  8
0
  6
SLD-Solid
 62
     7
370
    25
100
AcDbLine
 10
13.32068440236315
 20
30.95698971007047
 30
0.0
 11
13.27068440236315
 21
30.95698971007047
 31
0.0
  0
LINE
  5
160
330
1F
100
AcDbEntity
  8
0
  6
SLD-Solid
 62
     7
370
    25
100
AcDbLine
 10
2.202684402363144
 20
30.98688971007047
 30
0.0
 11
2.202684402363144
 21
30.95698971007047
 31
0.0
  0
LINE
  5
161
330
1F
100
AcDbEntity
  8
0
  6
SLD-Solid
 62
     7
370
    25
100
AcDbLine
 10
2.252684402363144
 20
30.98688971007047
 30
0.0
 11
2.202684402363144
 21
30.98688971007047
 31
0.0
  0
LINE
  5
162
330
1F
100
AcDbEntity
  8
0
  6
SLD-Solid
 62
     7
370
    25
100
AcDbLine
 10
2.202684402363144
 20
30.95698971007047
 30
0.0
 11
2.252684402363144
 21
30.95698971007047
 31
0.0
  0
ARC
  5
163
330
1F
100
AcDbEntity
  8
0
  6
SLD-Solid
 62
     7
370
    25
100
AcDbCircle
 10
13.12168440236315
 20
30.92798971007047
 30
0.0
 40
0.0290000000000035
100
AcDbArc
 50
60.49639662793101
 51
90.0
  0
ARC
  5
164
330
1F
100
AcDbEntity
  8
0
  6
SLD-Solid
 62
     7
370
    25
100
AcDbCircle
 10
2.401684402363148
 20
30.92798971007047
 30
0.0
 40
0.0290000000000035
100
AcDbArc
 50
90.0
 51
119.5036033720705
  0
LINE
  5
165
330
1F
100
AcDbEntity
  8
0
  6
SLD-Solid
 62
     7
370
    25
100
AcDbLine
 10
13.18058440236316
 20
27.68222912710567
 30
0.0
 11
13.18058440236316
 21
27.66727912710567
 31
0.0
  0
LINE
  5
166
330
1F
100
AcDbEntity
  8
0
  6
SLD-Solid
 62
     7
370
    25
100
AcDbLine
 10
13.15068440236316
 20
27.68222912710568
 30
0.0
 11
13.15068440236316
 21
27.66727912710567
 31
0.0
  0
LINE
  5
167
330
1F
100
AcDbEntity
  8
0
  6
SLD-Solid
 62
     7
370
    25
100
AcDbLine
 10
2.372684402363136
 20
27.68222912710567
 30
0.0
 11
2.372684402363136
 21
27.66727912710567
 31
0.0
  0
LINE
  5
168
330
1F
100
AcDbEntity
  8
0
  6
SLD-Solid
 62
     7
370
    25
100
AcDbLine
 10
2.342784402363137
 20
27.68222912710567
 30
0.0
 11
2.342784402363137
 21
27.66727912710567
 31
0.0
  0
LINE
  5
169
330
1F
100
AcDbEntity
  8
0
  6
SLD-Solid
 62
     7
370
    25
100
AcDbLine
 10
13.12168440236315
 20
30.95322912710566
 30
0.0
 11
13.12168440236315
 21
30.95698971007047
 31
0.0
  0
LINE
  5
16A
330
1F
100
AcDbEntity
  8
0
  6
SLD-Solid
 62
     7
370
    25
100
AcDbLine
 10
2.401684402363149
 20
30.95322912710566
 30
0.0
 11
2.401684402363149
 21
30.95698971007047
 31
0.0
  0
LINE
  5
16B
330
1F
100
AcDbEntity
  8
0
  6
SLD-Solid
 62
     7
370
    25
100
AcDbLine
 10
2.339584402363088
 20
27.32722912710563
 30
0.0
 11
2.339584402363088
 21
27.02332912710563
 31
0.0
  0
LINE
  5
16C
330
1F
100
AcDbEntity
  8
0
  6
SLD-Solid
 62
     7
370
    25
100
AcDbLine
 10
13.19158440236309
 20
27.32722912710571
 30
0.0
 11
2.339584402363088
 21
27.32722912710563
 31
0.0
  0
LINE
  5
16D
330
1F
100
AcDbEntity
  8
0
  6
SLD-Solid
 62
     7
370
    25
100
AcDbLine
 10
13.19158440236309
 20
27.02332912710564
 30
0.0
 11
13.19158440236309
 21
27.32722912710571
 31
0.0
  0
LINE
  5
16E
330
1F
100
AcDbEntity
  8
0
  6
SLD-Solid
 62
     7
370
    25
100
AcDbLine
 10
13.19158440236309
 20
27.02332912710564
 30
0.0
 11
2.339584402363093
 21
27.02332912710563
 31
0.0
  0
LINE
  5
16F
330
1F
100
AcDbEntity
  8
0
  6
SLD-Solid
 62
     7
370
    25
100
AcDbLine
 10
13.19158440236309
 20
27.32722912710571
 30
0.0
 11
13.19158440236308
 21
27.66727912710571
 31
0.0
  0
LINE
  5
170
330
1F
100
AcDbEntity
  8
0
  6
SLD-Solid
 62
     7
370
    25
100
AcDbLine
 10
2.339584402363088
 20
27.32722912710563
 30
0.0
 11
2.339584402363077
 21
27.6672791271057
 31
0.0
  0
LINE
  5
171
330
1F
100
AcDbEntity
  8
0
  6
SLD-Solid
 62
     7
370
    25
100
AcDbLine
 10
2.38543440236308
 20
27.66727912710571
 30
0.0
 11
2.339584402363077
 21
27.6672791271057
 31
0.0
  0
LINE
  5
172
330
1F
100
AcDbEntity
  8
0
  6
SLD-Solid
 62
     7
370
    25
100
AcDbLine
 10
2.38543440236309
 20
27.68222912710571
 30
0.0
 11
2.38543440236308
 21
27.66727912710571
 31
0.0
  0
LINE
  5
173
330
1F
100
AcDbEntity
  8
0
  6
SLD-Solid
 62
     7
370
    25
100
AcDbLine
 10
2.370484402363089
 20
27.68222912710571
 30
0.0
 11
2.38543440236309
 21
27.68222912710571
 31
0.0
  0
LINE
  5
174
330
1F
100
AcDbEntity
  8
0
  6
SLD-Solid
 62
     7
370
    25
100
AcDbLine
 10
2.370484402363089
 20
27.68222912710571
 30
0.0
 11
2.370484402363088
 21
30.95322912710571
 31
0.0
  0
LINE
  5
175
330
1F
100
AcDbEntity
  8
0
  6
SLD-Solid
 62
     7
370
    25
100
AcDbLine
 10
13.16068440236309
 20
30.9532291271057
 30
0.0
 11
2.370484402363088
 21
30.95322912710571
 31
0.0
  0
LINE
  5
176
330
1F
100
AcDbEntity
  8
0
  6
SLD-Solid
 62
     7
370
    25
100
AcDbLine
 10
13.16068440236309
 20
27.68222912710571
 30
0.0
 11
13.16068440236309
 21
30.9532291271057
 31
0.0
  0
LINE
  5
177
330
1F
100
AcDbEntity
  8
0
  6
SLD-Solid
 62
     7
370
    25
100
AcDbLine
 10
13.16068440236309
 20
27.68222912710571
 30
0.0
 11
13.14573440236309
 21
27.68222912710571
 31
0.0
  0
LINE
  5
178
330
1F
100
AcDbEntity
  8
0
  6
SLD-Solid
 62
     7
370
    25
100
AcDbLine
 10
13.14573440236309
 20
27.68222912710571
 30
0.0
 11
13.14573440236308
 21
27.66727912710571
 31
0.0
  0
LINE
  5
179
330
1F
100
AcDbEntity
  8
0
  6
SLD-Solid
 62
     7
370
    25
100
AcDbLine
 10
13.14573440236308
 20
27.66727912710571
 30
0.0
 11
13.19158440236308
 21
27.66727912710571
 31
0.0
  0
LINE
  5
17A
330
1F
100
AcDbEntity
  8
0
  6
SLD-Solid
 62
     7
370
    25
100
AcDbLine
 10
13.21958440236308
 20
27.68222912710571
 30
0.0
 11
13.21958440236309
 21
30.95322912710571
 31
0.0
  0
LINE
  5
17B
330
1F
100
AcDbEntity
  8
0
  6
SLD-Solid
 62
     7
370
    25
100
AcDbLine
 10
13.16068440236309
 20
27.68222912710571
 30
0.0
 11
13.21958440236308
 21
27.68222912710571
 31
0.0
  0
LINE
  5
17C
330
1F
100
AcDbEntity
  8
0
  6
SLD-Solid
 62
     7
370
    25
100
AcDbLine
 10
13.21958440236309
 20
30.95322912710571
 30
0.0
 11
13.16068440236309
 21
30.9532291271057
 31
0.0
  0
LINE
  5
17D
330
1F
100
AcDbEntity
  8
0
  6
SLD-Solid
 62
     7
370
    25
100
AcDbLine
 10
2.31158440236308
 20
27.68222912710571
 30
0.0
 11
2.370484402363089
 21
27.68222912710571
 31
0.0
  0
LINE
  5
17E
330
1F
100
AcDbEntity
  8
0
  6
SLD-Solid
 62
     7
370
    25
100
AcDbLine
 10
2.31158440236308
 20
27.68222912710571
 30
0.0
 11
2.31158440236309
 21
30.95322912710571
 31
0.0
  0
LINE
  5
17F
330
1F
100
AcDbEntity
  8
0
  6
SLD-Solid
 62
     7
370
    25
100
AcDbLine
 10
2.370484402363088
 20
30.95322912710571
 30
0.0
 11
2.31158440236309
 21
30.95322912710571
 31
0.0
  0
LINE
  5
180
330
1F
100
AcDbEntity
  8
0
  6
SLD-Solid
 62
     7
370
    25
100
AcDbLine
 10
2.280684402363013
 20
30.9032291271056
 30
0.0
 11
2.310584402363013
 21
30.9032291271056
 31
0.0
  0
LINE
  5
181
330
1F
100
AcDbEntity
  8
0
  6
SLD-Solid
 62
     7
370
    25
100
AcDbLine
 10
2.280684402363014
 20
30.9532291271056
 30
0.0
 11
2.280684402363013
 21
30.9032291271056
 31
0.0
  0
LINE
  5
182
330
1F
100
AcDbEntity
  8
0
  6
SLD-Solid
 62
     7
370
    25
100
AcDbLine
 10
2.310584402363014
 20
30.9532291271056
 30
0.0
 11
2.280684402363014
 21
30.9532291271056
 31
0.0
  0
LINE
  5
183
330
1F
100
AcDbEntity
  8
0
  6
SLD-Solid
 62
     7
370
    25
100
AcDbLine
 10
2.310584402363013
 20
30.9032291271056
 30
0.0
 11
2.310584402363014
 21
30.9532291271056
 31
0.0
  0
LINE
  5
184
330
1F
100
AcDbEntity
  8
0
  6
SLD-Solid
 62
     7
370
    25
100
AcDbLine
 10
2.310584402363026
 20
27.3272291271056
 30
0.0
 11
2.310584402363013
 21
30.9032291271056
 31
0.0
  0
LINE
  5
185
330
1F
100
AcDbEntity
  8
0
  6
SLD-Solid
 62
     7
370
    25
100
AcDbLine
 10
2.310584402363026
 20
27.3272291271056
 30
0.0
 11
2.280684402363026
 21
27.3272291271056
 31
0.0
  0
LINE
  5
186
330
1F
100
AcDbEntity
  8
0
  6
SLD-Solid
 62
     7
370
    25
100
AcDbLine
 10
2.280684402363026
 20
27.3272291271056
 30
0.0
 11
2.280684402363013
 21
30.9032291271056
 31
0.0
  0
LINE
  5
187
330
1F
100
AcDbEntity
  8
0
  6
SLD-Solid
 62
     7
370
    25
100
AcDbLine
 10
13.22058440236316
 20
27.3272291271056
 30
0.0
 11
13.25048440236317
 21
27.3272291271056
 31
0.0
  0
LINE
  5
188
330
1F
100
AcDbEntity
  8
0
  6
SLD-Solid
 62
     7
370
    25
100
AcDbLine
 10
13.25048440236317
 20
30.9032291271056
 30
0.0
 11
13.22058440236318
 21
30.9032291271056
 31
0.0
  0
LINE
  5
189
330
1F
100
AcDbEntity
  8
0
  6
SLD-Solid
 62
     7
370
    25
100
AcDbLine
 10
13.25048440236317
 20
27.3272291271056
 30
0.0
 11
13.25048440236317
 21
30.9032291271056
 31
0.0
  0
LINE
  5
18A
330
1F
100
AcDbEntity
  8
0
  6
SLD-Solid
 62
     7
370
    25
100
AcDbLine
 10
13.22058440236316
 20
27.3272291271056
 30
0.0
 11
13.22058440236318
 21
30.9032291271056
 31
0.0
  0
LINE
  5
18B
330
1F
100
AcDbEntity
  8
0
  6
SLD-Solid
 62
     7
370
    25
100
AcDbLine
 10
13.22058440236317
 20
30.9532291271056
 30
0.0
 11
13.25048440236317
 21
30.9532291271056
 31
0.0
  0
LINE
  5
18C
330
1F
100
AcDbEntity
  8
0
  6
SLD-Solid
 62
     7
370
    25
100
AcDbLine
 10
13.25048440236317
 20
30.9532291271056
 30
0.0
 11
13.25048440236317
 21
30.9032291271056
 31
0.0
  0
LINE
  5
18D
330
1F
100
AcDbEntity
  8
0
  6
SLD-Solid
 62
     7
370
    25
100
AcDbLine
 10
13.22058440236318
 20
30.9032291271056
 30
0.0
 11
13.22058440236317
 21
30.9532291271056
 31
0.0
  0
LINE
  5
18E
330
1F
100
AcDbEntity
  8
0
  6
SLD-Solid
 62
     7
370
    25
100
AcDbLine
 10
13.25048440236312
 20
27.0872291271056
 30
0.0
 11
13.22058440236316
 21
27.0872291271056
 31
0.0
  0
LINE
  5
18F
330
1F
100
AcDbEntity
  8
0
  6
SLD-Solid
 62
     7
370
    25
100
AcDbLine
 10
13.25048440236317
 20
27.3272291271056
 30
0.0
 11
13.25048440236312
 21
27.0872291271056
 31
0.0
  0
LINE
  5
190
330
1F
100
AcDbEntity
  8
0
  6
SLD-Solid
 62
     7
370
    25
100
AcDbLine
 10
13.22058440236316
 20
27.0872291271056
 30
0.0
 11
13.22058440236316
 21
27.3272291271056
 31
0.0
  0
LINE
  5
191
330
1F
100
AcDbEntity
  8
0
  6
SLD-Solid
 62
     7
370
    25
100
AcDbLine
 10
2.280684402363066
 20
27.08722912710559
 30
0.0
 11
2.310584402363029
 21
27.08722912710559
 31
0.0
  0
LINE
  5
192
330
1F
100
AcDbEntity
  8
0
  6
SLD-Solid
 62
     7
370
    25
100
AcDbLine
 10
2.280684402363026
 20
27.3272291271056
 30
0.0
 11
2.280684402363066
 21
27.08722912710559
 31
0.0
  0
LINE
  5
193
330
1F
100
AcDbEntity
  8
0
  6
SLD-Solid
 62
     7
370
    25
100
AcDbLine
 10
2.310584402363029
 20
27.08722912710559
 30
0.0
 11
2.310584402363026
 21
27.3272291271056
 31
0.0
  0
LINE
  5
194
330
1F
100
AcDbEntity
  8
0
  6
SLD-Solid
 62
     7
370
    25
100
AcDbLine
 10
13.25048440236309
 20
27.08222912710568
 30
0.0
 11
13.22058440236316
 21
27.0822291271056
 31
0.0
  0
LINE
  5
195
330
1F
100
AcDbEntity
  8
0
  6
SLD-Solid
 62
     7
370
    25
100
AcDbLine
 10
13.25048440236309
 20
27.08222912710568
 30
0.0
 11
13.25048440236312
 21
27.08722912710559
 31
0.0
  0
LINE
  5
196
330
1F
100
AcDbEntity
  8
0
  6
SLD-Solid
 62
     7
370
    25
100
AcDbLine
 10
13.22058440236316
 20
27.0822291271056
 30
0.0
 11
13.22058440236316
 21
27.08722912710559
 31
0.0
  0
LINE
  5
197
330
1F
100
AcDbEntity
  8
0
  6
SLD-Solid
 62
     7
370
    25
100
AcDbLine
 10
2.280684402363065
 20
27.0822291271056
 30
0.0
 11
2.31058440236303
 21
27.0822291271056
 31
0.0
  0
LINE
  5
198
330
1F
100
AcDbEntity
  8
0
  6
SLD-Solid
 62
     7
370
    25
100
AcDbLine
 10
2.280684402363065
 20
27.0822291271056
 30
0.0
 11
2.280684402363066
 21
27.08722912710559
 31
0.0
  0
LINE
  5
199
330
1F
100
AcDbEntity
  8
0
  6
SLD-Solid
 62
     7
370
    25
100
AcDbLine
 10
2.31058440236303
 20
27.0822291271056
 30
0.0
 11
2.310584402363029
 21
27.08722912710559
 31
0.0
  0
ARC
  5
19A
330
1F
100
AcDbEntity
  8
0
  6
SLD-Solid
 62
     7
370
    25
100
AcDbCircle
 10
13.19158440236309
 20
27.08222912710563
 30
0.0
 40
0.0589000000000013
100
AcDbArc
 50
270.0000000000043
 51
0.0000000000449274
  0
ARC
  5
19B
330
1F
100
AcDbEntity
  8
0
  6
SLD-Solid
 62
     7
370
    25
100
AcDbCircle
 10
13.19158440236309
 20
27.08222912710563
 30
0.0
 40
0.0290000000000692
100
AcDbArc
 50
269.9999999999938
 51
359.999999999944
  0
ARC
  5
19C
330
1F
100
AcDbEntity
  8
0
  6
SLD-Solid
 62
     7
370
    25
100
AcDbCircle
 10
2.339584402363085
 20
27.08222912710563
 30
0.0
 40
0.058900000000019
100
AcDbArc
 50
180.0000000000307
 51
270.0000000000086
  0
ARC
  5
19D
330
1F
100
AcDbEntity
  8
0
  6
SLD-Solid
 62
     7
370
    25
100
AcDbCircle
 10
2.339584402363086
 20
27.08222912710563
 30
0.0
 40
0.0290000000000559
100
AcDbArc
 50
180.0000000000715
 51
270.0000000000069
  0
ARC
  5
19E
330
1F
100
AcDbEntity
  8
0
  6
SLD-Solid
 62
     7
370
    25
100
AcDbCircle
 10
13.19158440236317
 20
30.90322912710561
 30
0.0
 40
0.0589000000000032
100
AcDbArc
 50
58.09184164814262
 51
121.9081583516592
  0
LINE
  5
19F
330
1F
100
AcDbEntity
  8
0
  6
SLD-Solid
 62
     7
370
    25
100
AcDbLine
 10
13.22058440236317
 20
30.9032291271056
 30
0.0
 11
13.21958440236309
 21
30.9107789615412
 31
0.0
  0
LINE
  5
1A0
330
1F
100
AcDbEntity
  8
0
  6
SLD-Solid
 62
     7
370
    25
100
AcDbLine
 10
2.310584402363014
 20
30.9032291271056
 30
0.0
 11
2.31158440236309
 21
30.91077896154115
 31
0.0
  0
ARC
  5
1A1
330
1F
100
AcDbEntity
  8
0
  6
SLD-Solid
 62
     7
370
    25
100
AcDbCircle
 10
2.339584402363014
 20
30.9032291271056
 30
0.0
 40
0.0589000000000022
100
AcDbArc
 50
58.09184164835803
 51
121.9081583518427
  0
ARC
  5
1A2
330
1F
100
AcDbEntity
  8
0
  6
SLD-Solid
 62
     7
370
    25
100
AcDbCircle
 10
13.13658440236309
 20
27.37821932224156
 30
0.0
 40
0.0749999999999993
100
AcDbArc
 50
317.1665719339347
 51
0.0000000000097857
  0
ARC
  5
1A3
330
1F
100
AcDbEntity
  8
0
  6
SLD-Solid
 62
     7
370
    25
100
AcDbCircle
 10
2.39458440236309
 20
27.37821932224157
 30
0.0
 40
0.0750000000000137
100
AcDbArc
 50
180.0000000000142
 51
222.8334280660802
  0
LINE
  5
1A4
330
1F
100
AcDbEntity
  8
0
  6
SLD-Solid
 62
     7
370
    25
100
AcDbLine
 10
13.21158440236309
 20
27.68222912710566
 30
0.0
 11
13.21158440236309
 21
27.37821932224157
 31
0.0
  0
LINE
  5
1A5
330
1F
100
AcDbEntity
  8
0
  6
SLD-Solid
 62
     7
370
    25
100
AcDbLine
 10
2.31958440236309
 20
27.68222912710566
 30
0.0
 11
2.31958440236309
 21
27.37821932224156
 31
0.0
  0
DIMENSION
  5
1A6
330
1F
100
AcDbEntity
  8
DIMS
100
AcDbDimension
  2
_D_3
 10
15.1317080244104
 20
27.0233291271056
 30
0.0
 11
15.1317080244104
 21
28.97839192043559
 31
0.0
 70
    32
  1
<>
 71
     2
 42
-1.0
  3
SLDDIMSTYLE1
100
AcDbAlignedDimension
 13
13.07168440236315
 23
30.98688971007044
 33
0.0
 14
13.19158440236309
 24
27.0233291271056
 34
0.0
 50
90.0000000000002
100
AcDbRotatedDimension
  0
MTEXT
  5
1B5
330
1F
100
AcDbEntity
  8
NOTES
100
AcDbMText
 10
11.02214061252595
 20
32.39512605707266
 30
0.0
 40
0.5
 41
0.0
 71
     1
 72
     1
  1
lock
  7
SLDTEXTSTYLE1
 73
     1
 44
1.0
  0
LEADER
  5
1B6
330
1F
100
AcDbEntity
  8
NOTES
100
AcDbLeader
  3
SLDDIMSTYLE2
 76
     3
 10
8.108215623711393
 20
30.04483605330511
 30
0.0
 10
10.50147637795276
 20
32.15157480617099
 30
0.0
 10
11.00147637795276
 20
32.15157480617099
 30
0.0
1001
ACAD
1000
DSTYLE
1002
{
1070
   176
1070
     0
1070
    77
1070
     0
1070
    40
1040
1.0
1070
   147
1040
0.0
1002
}
  0
MTEXT
  5
1B7
330
1F
100
AcDbEntity
  8
NOTES
100
AcDbMText
 10
2.425563984701795
 20
26.54925145899155
 30
0.0
 40
0.5
 41
0.0
 71
     1
 72
     1
  1
Top view
  7
SLDTEXTSTYLE1
 73
     1
 44
1.0
  0
ARC
  5
1B8
330
1F
100
AcDbEntity
  8
0
  6
SLD-Solid
 62
     7
370
    25
100
AcDbCircle
 10
18.79729590619189
 20
23.01395432021667
 30
0.0
 40
0.0500000000000007
100
AcDbArc
 50
89.99999999999592
 51
179.9999999999918
  0
ARC
  5
1B9
330
1F
100
AcDbEntity
  8
0
  6
SLD-Solid
 62
     7
370
    25
100
AcDbCircle
 10
19.59729590619189
 20
23.0139543202166
 30
0.0
 40
0.0500000000000007
100
AcDbArc
 50
359.9999999999927
 51
89.99999999999592
  0
LINE
  5
1BA
330
1F
100
AcDbEntity
  8
0
  6
SLD-Solid
 62
     7
370
    25
100
AcDbLine
 10
19.64729590619188
 20
22.81395432021659
 30
0.0
 11
19.64729590619189
 21
23.01395432021659
 31
0.0
  0
LINE
  5
1BB
330
1F
100
AcDbEntity
  8
0
  6
SLD-Solid
 62
     7
370
    25
100
AcDbLine
 10
18.74729590619189
 20
23.01395432021668
 30
0.0
 11
18.74729590619187
 21
22.81395432021668
 31
0.0
  0
LINE
  5
1BC
330
1F
100
AcDbEntity
  8
0
  6
SLD-Solid
 62
     7
370
    25
100
AcDbLine
 10
20.32099597153415
 20
10.21322049525668
 30
0.0
 11
20.32099597153415
 21
11.11042049525668
 31
0.0
  0
LINE
  5
1BD
330
1F
100
AcDbEntity
  8
0
  6
SLD-Solid
 62
     7
370
    25
100
AcDbLine
 10
20.32099597153416
 20
22.02981597562689
 30
0.0
 11
20.32099597153416
 21
22.27981597562689
 31
0.0
  0
LINE
  5
1BE
330
1F
100
AcDbEntity
  8
0
  6
SLD-Solid
 62
     7
370
    25
100
AcDbLine
 10
16.38119597153464
 20
8.314154320216765
 30
0.0
 11
16.38119597153464
 21
8.612420756143386
 31
0.0
  0
LINE
  5
1BF
330
1F
100
AcDbEntity
  8
0
  6
SLD-Solid
 62
     7
370
    25
100
AcDbLine
 10
16.38119597153464
 20
8.015887711204153
 30
0.0
 11
16.38119597153464
 21
8.314154320216772
 31
0.0
  0
CIRCLE
  5
1C0
330
1F
100
AcDbEntity
  8
0
  6
SLD-Solid
 62
     7
370
    25
100
AcDbCircle
 10
18.32719597153414
 20
7.494054320216656
 30
0.0
 40
0.0779372107227374
  0
CIRCLE
  5
1C1
330
1F
100
AcDbEntity
  8
0
  6
SLD-Solid
 62
     7
370
    25
100
AcDbCircle
 10
18.32719597153414
 20
7.494054320216656
 30
0.0
 40
0.03125
  0
CIRCLE
  5
1C2
330
1F
100
AcDbEntity
  8
0
  6
SLD-Solid
 62
     7
370
    25
100
AcDbCircle
 10
18.32719597153414
 20
7.494054320216656
 30
0.0
 40
0.1269999999999989
  0
LINE
  5
1C3
330
1F
100
AcDbEntity
  8
0
  6
SLD-Solid
 62
     7
370
    25
100
AcDbLine
 10
16.44109597153334
 20
22.50505432021666
 30
0.0
 11
16.44109597153334
 21
22.53405432021674
 31
0.0
  0
LINE
  5
1C4
330
1F
100
AcDbEntity
  8
0
  6
SLD-Solid
 62
     7
370
    25
100
AcDbLine
 10
16.44109597153334
 20
22.53405432021674
 30
0.0
 11
16.41314909025506
 21
22.53405432021674
 31
0.0
  0
LINE
  5
1C5
330
1F
100
AcDbEntity
  8
0
  6
SLD-Solid
 62
     7
370
    25
100
AcDbLine
 10
19.5972959061919
 20
23.0639543202166
 30
0.0
 11
18.79729590619189
 21
23.06395432021667
 31
0.0
  0
LINE
  5
1C6
330
1F
100
AcDbEntity
  8
0
  6
SLD-Solid
 62
     7
370
    25
100
AcDbLine
 10
20.34575655449903
 20
21.69305432021666
 30
0.0
 11
20.34575655449903
 21
21.64305432021666
 31
0.0
  0
LINE
  5
1C7
330
1F
100
AcDbEntity
  8
0
  6
SLD-Solid
 62
     7
370
    25
100
AcDbLine
 10
20.34575655449903
 20
21.64305432021666
 30
0.0
 11
20.31585655449902
 21
21.64305432021666
 31
0.0
  0
LINE
  5
1C8
330
1F
100
AcDbEntity
  8
0
  6
SLD-Solid
 62
     7
370
    25
100
AcDbLine
 10
20.31585655449902
 20
21.64305432021666
 30
0.0
 11
20.31585655449902
 21
21.69305432021666
 31
0.0
  0
LINE
  5
1C9
330
1F
100
AcDbEntity
  8
0
  6
SLD-Solid
 62
     7
370
    25
100
AcDbLine
 10
20.34575655449903
 20
21.96805432021666
 30
0.0
 11
20.34575655449903
 21
21.69305432021666
 31
0.0
  0
LINE
  5
1CA
330
1F
100
AcDbEntity
  8
0
  6
SLD-Solid
 62
     7
370
    25
100
AcDbLine
 10
20.31585655449902
 20
21.96805432021666
 30
0.0
 11
20.31585655449902
 21
21.69305432021666
 31
0.0
  0
LINE
  5
1CB
330
1F
100
AcDbEntity
  8
0
  6
SLD-Solid
 62
     7
370
    25
100
AcDbLine
 10
20.31585655449902
 20
22.01805432021666
 30
0.0
 11
20.34575655449903
 21
22.01805432021666
 31
0.0
  0
LINE
  5
1CC
330
1F
100
AcDbEntity
  8
0
  6
SLD-Solid
 62
     7
370
    25
100
AcDbLine
 10
20.34575655449903
 20
22.01805432021666
 30
0.0
 11
20.34575655449903
 21
21.96805432021666
 31
0.0
  0
LINE
  5
1CD
330
1F
100
AcDbEntity
  8
0
  6
SLD-Solid
 62
     7
370
    25
100
AcDbLine
 10
20.31585655449902
 20
21.96805432021666
 30
0.0
 11
20.31585655449902
 21
22.01805432021666
 31
0.0
  0
LINE
  5
1CE
330
1F
100
AcDbEntity
  8
0
  6
SLD-Solid
 62
     7
370
    25
100
AcDbLine
 10
20.31209597153417
 20
21.51805432021666
 30
0.0
 11
20.34575655449903
 21
21.51805432021666
 31
0.0
  0
SPLINE
  5
1CF
330
1F
100
AcDbEntity
  8
0
  6
SLD-Solid
 62
     7
370
    25
100
AcDbSpline
210
0.0
220
0.0
230
1.0
 70
    12
 71
     3
 72
    10
 73
     6
 74
     0
 42
0.00000001
 43
0.00000001
 40
0.0
 40
0.0
 40
0.0
 40
0.0
 40
0.4269153222211789
 40
0.854514480226653
 40
1.0
 40
1.0
 40
1.0
 40
1.0
 10
20.33817906418045
 20
11.30800018991256
 30
0.0
 41
1.0
 10
20.34014629354409
 20
11.30771580554913
 30
0.0
 41
1.0
 10
20.34408390339238
 20
11.30714658129351
 30
0.0
 41
1.0
 10
20.34562469814028
 20
11.30303960018286
 30
0.0
 41
1.0
 10
20.34572985816378
 20
11.29965998934422
 30
0.0
 41
1.0
 10
20.34575655449903
 20
11.29880202810645
 30
0.0
 41
1.0
  0
LINE
  5
1D0
330
1F
100
AcDbEntity
  8
0
  6
SLD-Solid
 62
     7
370
    25
100
AcDbLine
 10
20.33817906418045
 20
11.30800018991256
 30
0.0
 11
20.31209597153417
 21
11.30800018991256
 31
0.0
  0
LINE
  5
1D1
330
1F
100
AcDbEntity
  8
0
  6
SLD-Solid
 62
     7
370
    25
100
AcDbLine
 10
20.34575655449903
 20
11.29880202810645
 30
0.0
 11
20.34575655449903
 21
21.51805432021666
 31
0.0
  0
LINE
  5
1D2
330
1F
100
AcDbEntity
  8
0
  6
SLD-Solid
 62
     7
370
    25
100
AcDbLine
 10
20.23906297586752
 20
7.718054320216658
 30
0.0
 11
20.28685655449902
 21
7.718054320216658
 31
0.0
  0
LINE
  5
1D3
330
1F
100
AcDbEntity
  8
0
  6
SLD-Solid
 62
     7
370
    25
100
AcDbLine
 10
20.34575655449903
 20
7.718054320216658
 30
0.0
 11
20.34575655449903
 21
7.747954320216658
 31
0.0
  0
SPLINE
  5
1D4
330
1F
100
AcDbEntity
  8
0
  6
SLD-Solid
 62
     7
370
    25
100
AcDbSpline
210
0.0
220
0.0
230
1.0
 70
    12
 71
     3
 72
    10
 73
     6
 74
     0
 42
0.00000001
 43
0.00000001
 40
0.0
 40
0.0
 40
0.0
 40
0.0
 40
0.4268363521119432
 40
0.8543491596670041
 40
0.9999999999999999
 40
0.9999999999999999
 40
0.9999999999999999
 40
0.9999999999999999
 10
20.34575655449903
 20
10.07361020926321
 30
0.0
 41
1.0
 10
20.34554381916234
 20
10.07127185942099
 30
0.0
 41
1.0
 10
20.34511801134342
 20
10.06659145389128
 30
0.0
 41
1.0
 10
20.34176837137216
 20
10.06458749863365
 30
0.0
 41
1.0
 10
20.33890635281647
 20
10.06444759850917
 30
0.0
 41
1.0
 10
20.33817906418045
 20
10.0644120474571
 30
0.0
 41
1.0
  0
LINE
  5
1D5
330
1F
100
AcDbEntity
  8
0
  6
SLD-Solid
 62
     7
370
    25
100
AcDbLine
 10
20.31209597153417
 20
10.0644120474571
 30
0.0
 11
20.33817906418045
 21
10.0644120474571
 31
0.0
  0
LINE
  5
1D6
330
1F
100
AcDbEntity
  8
0
  6
SLD-Solid
 62
     7
370
    25
100
AcDbLine
 10
20.34575655449903
 20
7.718054320216658
 30
0.0
 11
20.28685655449902
 21
7.718054320216658
 31
0.0
  0
LINE
  5
1D7
330
1F
100
AcDbEntity
  8
0
  6
SLD-Solid
 62
     7
370
    25
100
AcDbLine
 10
20.34575655449903
 20
7.747954320216658
 30
0.0
 11
20.34575655449903
 21
10.07361020926321
 31
0.0
  0
SPLINE
  5
1D8
330
1F
100
AcDbEntity
  8
0
  6
SLD-Solid
 62
     7
370
    25
100
AcDbSpline
210
0.0
220
0.0
230
1.0
 70
    12
 71
     3
 72
     9
 73
     5
 74
     0
 42
0.00000001
 43
0.00000001
 40
0.0
 40
0.0
 40
0.0
 40
0.0
 40
0.6083791492539111
 40
1.0
 40
1.0
 40
1.0
 40
1.0
 10
20.31585655449902
 20
11.29880202810645
 30
0.0
 41
1.0
 10
20.31573595044279
 20
11.30057040829609
 30
0.0
 41
1.0
 10
20.31553771212974
 20
11.30347711571992
 30
0.0
 41
1.0
 10
20.31306452369358
 20
11.3048656549705
 30
0.0
 41
1.0
 10
20.31209597153415
 20
11.3054094358931
 30
0.0
 41
1.0
  0
SPLINE
  5
1D9
330
1F
100
AcDbEntity
  8
0
  6
SLD-Solid
 62
     7
370
    25
100
AcDbSpline
210
0.0
220
0.0
230
1.0
 70
    12
 71
     3
 72
    10
 73
     6
 74
     0
 42
0.00000001
 43
0.00000001
 40
0.0
 40
0.0
 40
0.0
 40
0.0
 40
0.0281508445170416
 40
0.5740445736512234
 40
1.0
 40
1.0
 40
1.0
 40
1.0
 10
20.31209597153416
 20
10.06666798756385
 30
0.0
 41
1.0
 10
20.31218921893349
 20
10.06669563176108
 30
0.0
 41
1.0
 10
20.3140906952307
 20
10.0672593449175
 30
0.0
 41
1.0
 10
20.31537493483337
 20
10.06951670610862
 30
0.0
 41
1.0
 10
20.31570978969893
 20
10.07236278891266
 30
0.0
 41
1.0
 10
20.31585655449902
 20
10.07361020926321
 30
0.0
 41
1.0
  0
LINE
  5
1DA
330
1F
100
AcDbEntity
  8
0
  6
SLD-Solid
 62
     7
370
    25
100
AcDbLine
 10
20.34575655449903
 20
10.1144120474571
 30
0.0
 11
20.34575655449903
 21
10.07361020926321
 31
0.0
  0
LINE
  5
1DB
330
1F
100
AcDbEntity
  8
0
  6
SLD-Solid
 62
     7
370
    25
100
AcDbLine
 10
20.31585655449902
 20
10.07361020926321
 30
0.0
 11
20.31585655449902
 21
10.1144120474571
 31
0.0
  0
LINE
  5
1DC
330
1F
100
AcDbEntity
  8
0
  6
SLD-Solid
 62
     7
370
    25
100
AcDbLine
 10
20.34575655449903
 20
11.29880202810645
 30
0.0
 11
20.34575655449903
 21
11.25800018991256
 31
0.0
  0
LINE
  5
1DD
330
1F
100
AcDbEntity
  8
0
  6
SLD-Solid
 62
     7
370
    25
100
AcDbLine
 10
20.31585655449902
 20
11.25800018991256
 30
0.0
 11
20.31585655449902
 21
11.29880202810645
 31
0.0
  0
LINE
  5
1DE
330
1F
100
AcDbEntity
  8
0
  6
SLD-Solid
 62
     7
370
    25
100
AcDbLine
 10
20.34575655449903
 20
22.11805432021666
 30
0.0
 11
20.34575655449903
 21
22.01805432021666
 31
0.0
  0
LINE
  5
1DF
330
1F
100
AcDbEntity
  8
0
  6
SLD-Solid
 62
     7
370
    25
100
AcDbLine
 10
20.31585655449902
 20
22.02981597562689
 30
0.0
 11
20.31585655449902
 21
22.01805432021666
 31
0.0
  0
LINE
  5
1E0
330
1F
100
AcDbEntity
  8
0
  6
SLD-Solid
 62
     7
370
    25
100
AcDbLine
 10
20.34575655449903
 20
21.51805432021666
 30
0.0
 11
20.34575655449903
 21
21.64305432021666
 31
0.0
  0
LINE
  5
1E1
330
1F
100
AcDbEntity
  8
0
  6
SLD-Solid
 62
     7
370
    25
100
AcDbLine
 10
20.31585655449902
 20
21.51805432021666
 30
0.0
 11
20.31585655449902
 21
21.64305432021666
 31
0.0
  0
ARC
  5
1E2
330
1F
100
AcDbEntity
  8
0
  6
SLD-Solid
 62
     7
370
    25
100
AcDbCircle
 10
20.28595655449903
 20
7.747954320216658
 30
0.0
 40
0.0598000000000014
100
AcDbArc
 50
270.0000000000008
 51
330.000000000002
  0
LINE
  5
1E3
330
1F
100
AcDbEntity
  8
0
  6
SLD-Solid
 62
     7
370
    25
100
AcDbLine
 10
20.28595655449903
 20
7.718054320216658
 30
0.0
 11
20.28595655449903
 21
7.688154320216658
 31
0.0
  0
LINE
  5
1E4
330
1F
100
AcDbEntity
  8
0
  6
SLD-Solid
 62
     7
370
    25
100
AcDbLine
 10
20.32099597153416
 20
22.16805432021666
 30
0.0
 11
20.34575655449903
 21
22.16805432021666
 31
0.0
  0
LINE
  5
1E5
330
1F
100
AcDbEntity
  8
0
  6
SLD-Solid
 62
     7
370
    25
100
AcDbLine
 10
20.34575655449903
 20
22.16805432021666
 30
0.0
 11
20.34575655449903
 21
22.11805432021666
 31
0.0
  0
LINE
  5
1E6
330
1F
100
AcDbEntity
  8
0
  6
SLD-Solid
 62
     7
370
    25
100
AcDbLine
 10
20.28595655449903
 20
7.688154320216658
 30
0.0
 11
20.18946355834418
 21
7.688154320216658
 31
0.0
  0
LINE
  5
1E7
330
1F
100
AcDbEntity
  8
0
  6
SLD-Solid
 62
     7
370
    25
100
AcDbLine
 10
20.34575655449903
 20
10.1144120474571
 30
0.0
 11
20.34575655449903
 21
11.25800018991256
 31
0.0
  0
LINE
  5
1E8
330
1F
100
AcDbEntity
  8
0
  6
SLD-Solid
 62
     7
370
    25
100
AcDbLine
 10
20.31585655449902
 20
10.1144120474571
 30
0.0
 11
20.31585655449902
 21
10.21322049525667
 31
0.0
  0
LINE
  5
1E9
330
1F
100
AcDbEntity
  8
0
  6
SLD-Solid
 62
     7
370
    25
100
AcDbLine
 10
20.31585655449902
 20
11.11042049525667
 30
0.0
 11
20.31585655449902
 21
11.25800018991256
 31
0.0
  0
ARC
  5
1EA
330
1F
100
AcDbEntity
  8
0
  6
SLD-Solid
 62
     7
370
    25
100
AcDbCircle
 10
20.28585655449903
 20
22.16805432021666
 30
0.0
 40
0.059899999999999
100
AcDbArc
 50
0.0
 51
54.08144355367405
  0
LINE
  5
1EB
330
1F
100
AcDbEntity
  8
0
  6
SLD-Solid
 62
     7
370
    25
100
AcDbLine
 10
20.24714597153416
 20
11.12537049525668
 30
0.0
 11
20.31209597153415
 21
11.12537049525668
 31
0.0
  0
LINE
  5
1EC
330
1F
100
AcDbEntity
  8
0
  6
SLD-Solid
 62
     7
370
    25
100
AcDbLine
 10
20.24714597153416
 20
11.11042049525668
 30
0.0
 11
20.24714597153416
 21
11.12537049525668
 31
0.0
  0
LINE
  5
1ED
330
1F
100
AcDbEntity
  8
0
  6
SLD-Solid
 62
     7
370
    25
100
AcDbLine
 10
20.26209597153415
 20
11.11042049525668
 30
0.0
 11
20.24714597153416
 21
11.11042049525668
 31
0.0
  0
LINE
  5
1EE
330
1F
100
AcDbEntity
  8
0
  6
SLD-Solid
 62
     7
370
    25
100
AcDbLine
 10
20.24714597153416
 20
10.21322049525668
 30
0.0
 11
20.26209597153415
 21
10.21322049525668
 31
0.0
  0
LINE
  5
1EF
330
1F
100
AcDbEntity
  8
0
  6
SLD-Solid
 62
     7
370
    25
100
AcDbLine
 10
20.24714597153416
 20
10.19827049525667
 30
0.0
 11
20.24714597153416
 21
10.21322049525668
 31
0.0
  0
LINE
  5
1F0
330
1F
100
AcDbEntity
  8
0
  6
SLD-Solid
 62
     7
370
    25
100
AcDbLine
 10
20.31209597153416
 20
10.19827049525667
 30
0.0
 11
20.24714597153416
 21
10.19827049525667
 31
0.0
  0
LINE
  5
1F1
330
1F
100
AcDbEntity
  8
0
  6
SLD-Solid
 62
     7
370
    25
100
AcDbLine
 10
20.31209597153416
 20
10.19827049525667
 30
0.0
 11
20.31209597153416
 21
7.872583863704655
 31
0.0
  0
ARC
  5
1F2
330
1F
100
AcDbEntity
  8
0
  6
SLD-Solid
 62
     7
370
    25
100
AcDbCircle
 10
20.11209597153416
 20
7.872583863704661
 30
0.0
 40
0.2000000000000076
100
AcDbArc
 50
282.4956185880532
 51
359.999999999999
  0
LINE
  5
1F3
330
1F
100
AcDbEntity
  8
0
  6
SLD-Solid
 62
     7
370
    25
100
AcDbLine
 10
18.70499724248247
 20
7.355898042508344
 30
0.0
 11
20.15536896271153
 21
7.677321352621334
 31
0.0
  0
ARC
  5
1F4
330
1F
100
AcDbEntity
  8
0
  6
SLD-Solid
 62
     7
370
    25
100
AcDbCircle
 10
18.59681476453905
 20
7.844054320216642
 30
0.0
 40
0.5000000000000018
100
AcDbArc
 50
270.0000000000012
 51
282.4956185880536
  0
LINE
  5
1F5
330
1F
100
AcDbEntity
  8
0
  6
SLD-Solid
 62
     7
370
    25
100
AcDbLine
 10
18.59681476453906
 20
7.344054320216641
 30
0.0
 11
16.68609597153415
 21
7.344054320216645
 31
0.0
  0
ARC
  5
1F6
330
1F
100
AcDbEntity
  8
0
  6
SLD-Solid
 62
     7
370
    25
100
AcDbCircle
 10
16.68609597153415
 20
7.584054320216656
 30
0.0
 40
0.2400000000000109
100
AcDbArc
 50
180.0000000000095
 51
270.0000000000008
  0
LINE
  5
1F7
330
1F
100
AcDbEntity
  8
0
  6
SLD-Solid
 62
     7
370
    25
100
AcDbLine
 10
16.44609597153416
 20
7.58405432021664
 30
0.0
 11
16.44609597153416
 21
7.623054320216648
 31
0.0
  0
LINE
  5
1F8
330
1F
100
AcDbEntity
  8
0
  6
SLD-Solid
 62
     7
370
    25
100
AcDbLine
 10
16.44609597153416
 20
7.623054320216648
 30
0.0
 11
16.44109597153415
 21
7.623054320216645
 31
0.0
  0
LINE
  5
1F9
330
1F
100
AcDbEntity
  8
0
  6
SLD-Solid
 62
     7
370
    25
100
AcDbLine
 10
16.44109597153423
 20
22.50505432021665
 30
0.0
 11
16.44609597153415
 21
22.50505432021666
 31
0.0
  0
LINE
  5
1FA
330
1F
100
AcDbEntity
  8
0
  6
SLD-Solid
 62
     7
370
    25
100
AcDbLine
 10
16.44609597153415
 20
22.50505432021666
 30
0.0
 11
16.44609597153415
 21
22.53109549557727
 31
0.0
  0
ARC
  5
1FB
330
1F
100
AcDbEntity
  8
0
  6
SLD-Solid
 62
     7
370
    25
100
AcDbCircle
 10
16.68609597153415
 20
22.53109549557727
 30
0.0
 40
0.2400000000000055
100
AcDbArc
 50
89.99999999999916
 51
179.9999999999928
  0
LINE
  5
1FC
330
1F
100
AcDbEntity
  8
0
  6
SLD-Solid
 62
     7
370
    25
100
AcDbLine
 10
16.68609597153415
 20
22.77109549557727
 30
0.0
 11
20.26209597153416
 21
22.77109549557727
 31
0.0
  0
ARC
  5
1FD
330
1F
100
AcDbEntity
  8
0
  6
SLD-Solid
 62
     7
370
    25
100
AcDbCircle
 10
20.26209597153415
 20
22.72109549557727
 30
0.0
 40
0.0500000000000043
100
AcDbArc
 50
0.0000000000041964
 51
89.99999999999186
  0
LINE
  5
1FE
330
1F
100
AcDbEntity
  8
0
  6
SLD-Solid
 62
     7
370
    25
100
AcDbLine
 10
20.31209597153416
 20
22.72109549557727
 30
0.0
 11
20.31209597153416
 21
22.29476597562689
 31
0.0
  0
LINE
  5
1FF
330
1F
100
AcDbEntity
  8
0
  6
SLD-Solid
 62
     7
370
    25
100
AcDbLine
 10
20.24714597153416
 20
22.29476597562689
 30
0.0
 11
20.31209597153416
 21
22.29476597562689
 31
0.0
  0
LINE
  5
200
330
1F
100
AcDbEntity
  8
0
  6
SLD-Solid
 62
     7
370
    25
100
AcDbLine
 10
20.24714597153416
 20
22.27981597562689
 30
0.0
 11
20.24714597153416
 21
22.29476597562689
 31
0.0
  0
LINE
  5
201
330
1F
100
AcDbEntity
  8
0
  6
SLD-Solid
 62
     7
370
    25
100
AcDbLine
 10
20.26209597153415
 20
22.27981597562689
 30
0.0
 11
20.24714597153416
 21
22.27981597562689
 31
0.0
  0
LINE
  5
202
330
1F
100
AcDbEntity
  8
0
  6
SLD-Solid
 62
     7
370
    25
100
AcDbLine
 10
20.24714597153416
 20
22.02981597562689
 30
0.0
 11
20.26209597153416
 21
22.02981597562689
 31
0.0
  0
LINE
  5
203
330
1F
100
AcDbEntity
  8
0
  6
SLD-Solid
 62
     7
370
    25
100
AcDbLine
 10
20.24714597153416
 20
22.01486597562689
 30
0.0
 11
20.24714597153416
 21
22.02981597562689
 31
0.0
  0
LINE
  5
204
330
1F
100
AcDbEntity
  8
0
  6
SLD-Solid
 62
     7
370
    25
100
AcDbLine
 10
20.31209597153416
 20
22.01486597562689
 30
0.0
 11
20.24714597153416
 21
22.01486597562689
 31
0.0
  0
LINE
  5
205
330
1F
100
AcDbEntity
  8
0
  6
SLD-Solid
 62
     7
370
    25
100
AcDbLine
 10
20.31209597153416
 20
22.01486597562689
 30
0.0
 11
20.31209597153415
 21
11.12537049525668
 31
0.0
  0
LINE
  5
206
330
1F
100
AcDbEntity
  8
0
  6
SLD-Solid
 62
     7
370
    25
100
AcDbLine
 10
20.32099597153415
 20
10.21322049525668
 30
0.0
 11
20.26209597153415
 21
10.21322049525668
 31
0.0
  0
LINE
  5
207
330
1F
100
AcDbEntity
  8
0
  6
SLD-Solid
 62
     7
370
    25
100
AcDbLine
 10
20.26209597153415
 20
11.11042049525668
 30
0.0
 11
20.32099597153415
 21
11.11042049525668
 31
0.0
  0
LINE
  5
208
330
1F
100
AcDbEntity
  8
0
  6
SLD-Solid
 62
     7
370
    25
100
AcDbLine
 10
20.26209597153415
 20
22.27981597562689
 30
0.0
 11
20.32099597153416
 21
22.27981597562689
 31
0.0
  0
LINE
  5
209
330
1F
100
AcDbEntity
  8
0
  6
SLD-Solid
 62
     7
370
    25
100
AcDbLine
 10
20.32099597153416
 20
22.02981597562689
 30
0.0
 11
20.26209597153416
 21
22.02981597562689
 31
0.0
  0
LINE
  5
20A
330
1F
100
AcDbEntity
  8
0
  6
SLD-Solid
 62
     7
370
    25
100
AcDbLine
 10
16.3821959715342
 20
7.623054320216654
 30
0.0
 11
16.44109597153415
 21
7.623054320216645
 31
0.0
  0
LINE
  5
20B
330
1F
100
AcDbEntity
  8
0
  6
SLD-Solid
 62
     7
370
    25
100
AcDbLine
 10
16.3821959715342
 20
7.623054320216654
 30
0.0
 11
16.38219597153419
 21
22.50505432021665
 31
0.0
  0
LINE
  5
20C
330
1F
100
AcDbEntity
  8
0
  6
SLD-Solid
 62
     7
370
    25
100
AcDbLine
 10
16.44109597153423
 20
22.50505432021665
 30
0.0
 11
16.38219597153419
 21
22.50505432021665
 31
0.0
  0
LINE
  5
20D
330
1F
100
AcDbEntity
  8
0
  6
SLD-Solid
 62
     7
370
    25
100
AcDbLine
 10
20.31209597153426
 20
22.72109549557727
 30
0.0
 11
20.31209597153426
 21
22.75505432021663
 31
0.0
  0
ARC
  5
20E
330
1F
100
AcDbEntity
  8
0
  6
SLD-Solid
 62
     7
370
    25
100
AcDbCircle
 10
20.29209597153426
 20
22.30405432021663
 30
0.0
 40
0.0200000000000037
100
AcDbArc
 50
270.0000000000008
 51
332.3274873375847
  0
LINE
  5
20F
330
1F
100
AcDbEntity
  8
0
  6
SLD-Solid
 62
     7
370
    25
100
AcDbLine
 10
20.24714597153416
 20
22.28405432021663
 30
0.0
 11
20.29209597153426
 21
22.28405432021663
 31
0.0
  0
LINE
  5
210
330
1F
100
AcDbEntity
  8
0
  6
SLD-Solid
 62
     7
370
    25
100
AcDbLine
 10
17.04109597153427
 20
22.81395432021662
 30
0.0
 11
17.04109597153426
 21
22.77109549557727
 31
0.0
  0
LINE
  5
211
330
1F
100
AcDbEntity
  8
0
  6
SLD-Solid
 62
     7
370
    25
100
AcDbLine
 10
17.04109597153427
 20
22.81395432021662
 30
0.0
 11
20.31209597153426
 21
22.81395432021664
 31
0.0
  0
LINE
  5
212
330
1F
100
AcDbEntity
  8
0
  6
SLD-Solid
 62
     7
370
    25
100
AcDbLine
 10
20.31209597153426
 20
22.75505432021663
 30
0.0
 11
20.31209597153426
 21
22.81395432021664
 31
0.0
  0
LINE
  5
213
330
1F
100
AcDbEntity
  8
0
  6
SLD-Solid
 62
     7
370
    25
100
AcDbLine
 10
17.2120959715342
 20
7.314154320216652
 30
0.0
 11
16.73708616667012
 21
7.314154320216652
 31
0.0
  0
LINE
  5
214
330
1F
100
AcDbEntity
  8
0
  6
SLD-Solid
 62
     7
370
    25
100
AcDbLine
 10
16.68609597153419
 20
7.344054320216645
 30
0.0
 11
16.68609597153419
 21
7.314154320216652
 31
0.0
  0
LINE
  5
215
330
1F
100
AcDbEntity
  8
0
  6
SLD-Solid
 62
     7
370
    25
100
AcDbLine
 10
16.73708616667012
 20
7.314154320216652
 30
0.0
 11
16.68609597153419
 21
7.314154320216652
 31
0.0
  0
LINE
  5
216
330
1F
100
AcDbEntity
  8
0
  6
SLD-Solid
 62
     7
370
    25
100
AcDbLine
 10
17.28709597153419
 20
7.344054320216647
 30
0.0
 11
17.28709597153419
 21
7.314154320216654
 31
0.0
  0
LINE
  5
217
330
1F
100
AcDbEntity
  8
0
  6
SLD-Solid
 62
     7
370
    25
100
AcDbLine
 10
17.28709597153419
 20
7.314154320216654
 30
0.0
 11
17.2120959715342
 21
7.314154320216652
 31
0.0
  0
ARC
  5
218
330
1F
100
AcDbEntity
  8
0
  6
SLD-Solid
 62
     7
370
    25
100
AcDbCircle
 10
16.68609597153419
 20
7.618054320216639
 30
0.0
 40
0.3038999999999952
100
AcDbArc
 50
180.0000000000027
 51
270.0000000000008
  0
ARC
  5
219
330
1F
100
AcDbEntity
  8
0
  6
SLD-Solid
 62
     7
370
    25
100
AcDbCircle
 10
16.68609597153419
 20
7.618054320216639
 30
0.0
 40
0.2739999999999938
100
AcDbArc
 50
179.9999999999957
 51
270.0000000000008
  0
LINE
  5
21A
330
1F
100
AcDbEntity
  8
0
  6
SLD-Solid
 62
     7
370
    25
100
AcDbLine
 10
16.4120959715342
 20
7.618054320216654
 30
0.0
 11
16.4120959715342
 21
7.623054320216641
 31
0.0
  0
LINE
  5
21B
330
1F
100
AcDbEntity
  8
0
  6
SLD-Solid
 62
     7
370
    25
100
AcDbLine
 10
16.38219597153419
 20
7.618054320216637
 30
0.0
 11
16.3821959715342
 21
7.623054320216654
 31
0.0
  0
LINE
  5
21C
330
1F
100
AcDbEntity
  8
0
  6
SLD-Solid
 62
     7
370
    25
100
AcDbLine
 10
16.41209597153419
 20
22.51005432021666
 30
0.0
 11
16.41209597153419
 21
22.50505432021666
 31
0.0
  0
LINE
  5
21D
330
1F
100
AcDbEntity
  8
0
  6
SLD-Solid
 62
     7
370
    25
100
AcDbLine
 10
16.38219597153423
 20
22.51005432021666
 30
0.0
 11
16.38219597153423
 21
22.50505432021666
 31
0.0
  0
LINE
  5
21E
330
1F
100
AcDbEntity
  8
0
  6
SLD-Solid
 62
     7
370
    25
100
AcDbLine
 10
17.02614597153427
 20
22.78405432021662
 30
0.0
 11
17.02614597153427
 21
22.81395432021662
 31
0.0
  0
LINE
  5
21F
330
1F
100
AcDbEntity
  8
0
  6
SLD-Solid
 62
     7
370
    25
100
AcDbLine
 10
16.68609597153427
 20
22.81395432021662
 30
0.0
 11
17.02614597153427
 21
22.81395432021662
 31
0.0
  0
LINE
  5
220
330
1F
100
AcDbEntity
  8
0
  6
SLD-Solid
 62
     7
370
    25
100
AcDbLine
 10
16.68609597153426
 20
22.78405432021662
 30
0.0
 11
17.02614597153427
 21
22.78405432021662
 31
0.0
  0
ARC
  5
221
330
1F
100
AcDbEntity
  8
0
  6
SLD-Solid
 62
     7
370
    25
100
AcDbCircle
 10
16.68609597153419
 20
22.51005432021666
 30
0.0
 40
0.2740000000000009
100
AcDbArc
 50
89.9999999999844
 51
179.999999999998
  0
ARC
  5
222
330
1F
100
AcDbEntity
  8
0
  6
SLD-Solid
 62
     7
370
    25
100
AcDbCircle
 10
16.68609597153419
 20
22.51005432021666
 30
0.0
 40
0.3039000000000023
100
AcDbArc
 50
89.99999999998526
 51
180.0000000000031
  0
LINE
  5
223
330
1F
100
AcDbEntity
  8
0
  6
SLD-Solid
 62
     7
370
    25
100
AcDbLine
 10
17.04109597153426
 20
22.81395432021662
 30
0.0
 11
17.02614597153427
 21
22.81395432021662
 31
0.0
  0
LINE
  5
224
330
1F
100
AcDbEntity
  8
0
  6
SLD-Solid
 62
     7
370
    25
100
AcDbLine
 10
17.02614597153427
 20
22.78405432021662
 30
0.0
 11
17.04109597153426
 21
22.78405432021662
 31
0.0
  0
MTEXT
  5
225
330
1F
100
AcDbEntity
  8
NOTES
100
AcDbMText
 10
16.62293729281527
 20
6.970290312862502
 30
0.0
 40
0.5
 41
0.0
 71
     1
 72
     1
  1
Side view
  7
SLDTEXTSTYLE1
 73
     1
 44
1.0
  0
LINE
  5
226
330
1F
100
AcDbEntity
  8
0
  6
SLD-Solid
 62
     7
370
    25
100
AcDbLine
 10
44.82328247287395
 20
10.03747914521019
 30
0.0
 11
44.83883882206005
 21
10.02849865598014
 31
0.0
  0
LINE
  5
227
330
1F
100
AcDbEntity
  8
0
  6
SLD-Solid
 62
     7
370
    25
100
AcDbLine
 10
44.96582850110484
 20
10.24847506702483
 30
0.0
 11
44.95027215191873
 21
10.25745555625488
 31
0.0
  0
SPLINE
  5
228
330
1F
100
AcDbEntity
  8
0
  6
SLD-Solid
 62
     7
370
    25
100
AcDbSpline
210
0.0
220
0.0
230
1.0
 70
    12
 71
     3
 72
    12
 73
     8
 74
     0
 42
0.00000001
 43
0.00000001
 40
0.0
 40
0.0
 40
0.0
 40
0.0
 40
0.1526980754153374
 40
0.3656748855861506
 40
0.5818323802561737
 40
0.8051253610998317
 40
1.0
 40
1.0
 40
1.0
 40
1.0
 10
42.07215223892057
 20
25.42230884788219
 30
0.0
 41
1.0
 10
42.07154358702492
 20
25.43368883459699
 30
0.0
 41
1.0
 10
42.07008601323626
 20
25.46094114493939
 30
0.0
 41
1.0
 10
42.05360996672481
 20
25.50242144898088
 30
0.0
 41
1.0
 10
42.02575460035102
 20
25.54510373230536
 30
0.0
 41
1.0
 10
41.98924446787706
 20
25.58241430328824
 30
0.0
 41
1.0
 10
41.95892243404334
 20
25.60313482657973
 30
0.0
 41
1.0
 10
41.94479174789007
 20
25.61279101300738
 30
0.0
 41
1.0
  0
SPLINE
  5
229
330
1F
100
AcDbEntity
  8
0
  6
SLD-Solid
 62
     7
370
    25
100
AcDbSpline
210
0.0
220
0.0
230
1.0
 70
    12
 71
     3
 72
    22
 73
    18
 74
     0
 42
0.00000001
 43
0.00000001
 40
0.0
 40
0.0
 40
0.0
 40
0.0
 40
0.0382857396302004
 40
0.1098254544480691
 40
0.1812335848486319
 40
0.2524452516721097
 40
0.3235035890576076
 40
0.3945221881617734
 40
0.4656252286362931
 40
0.536926121266448
 40
0.6085735794834484
 40
0.6806888636139701
 40
0.7532700914849104
 40
0.8257630353016818
 40
0.8969040543996736
 40
0.9654239985616482
 40
1.0
 40
1.0
 40
1.0
 40
1.0
 10
41.94479174789007
 20
25.61279101300738
 30
0.0
 41
1.0
 10
41.93505101266643
 20
25.61857960960268
 30
0.0
 41
1.0
 10
41.9071089986704
 20
25.63518462384131
 30
0.0
 41
1.0
 10
41.85473022496296
 20
25.65774604253781
 30
0.0
 41
1.0
 10
41.78697881502037
 20
25.67791458495276
 30
0.0
 41
1.0
 10
41.71475004190144
 20
25.69078786045811
 30
0.0
 41
1.0
 10
41.64016141803176
 20
25.69622694174055
 30
0.0
 41
1.0
 10
41.56514283316186
 20
25.69411008062562
 30
0.0
 41
1.0
 10
41.49166494053409
 20
25.68448477504669
 30
0.0
 41
1.0
 10
41.42162537466348
 20
25.66751151076521
 30
0.0
 41
1.0
 10
41.35683862462296
 20
25.64344619581045
 30
0.0
 41
1.0
 10
41.29900319614882
 20
25.61259951643866
 30
0.0
 41
1.0
 10
41.24993746975913
 20
25.57538345263408
 30
0.0
 41
1.0
 10
41.21125604989488
 20
25.53249343562599
 30
0.0
 41
1.0
 10
41.1856696579817
 20
25.48525643206325
 30
0.0
 41
1.0
 10
41.17333270140557
 20
25.44331547403016
 30
0.0
 41
1.0
 10
41.17478450715259
 20
25.41809498556317
 30
0.0
 41
1.0
 10
41.17527140930286
 20
25.40963661563957
 30
0.0
 41
1.0
  0
LINE
  5
22A
330
1F
100
AcDbEntity
  8
0
  6
SLD-Solid
 62
     7
370
    25
100
AcDbLine
 10
42.07362089237262
 20
25.25092768338471
 30
0.0
 11
42.07362089237264
 21
25.41423584576187
 31
0.0
  0
LINE
  5
22B
330
1F
100
AcDbEntity
  8
0
  6
SLD-Solid
 62
     7
370
    25
100
AcDbLine
 10
41.17362089237263
 20
25.41423584576194
 30
0.0
 11
41.17362089237263
 21
25.25092768338478
 31
0.0
  0
LINE
  5
22C
330
1F
100
AcDbEntity
  8
0
  6
SLD-Solid
 62
     7
370
    25
100
AcDbLine
 10
41.30862089237264
 20
25.45506288635622
 30
0.0
 11
41.30862089237264
 21
25.44485612620764
 31
0.0
  0
LINE
  5
22D
330
1F
100
AcDbEntity
  8
0
  6
SLD-Solid
 62
     7
370
    25
100
AcDbLine
 10
41.93862089237263
 20
25.4448561262076
 30
0.0
 11
41.93862089237264
 21
25.45506288635617
 31
0.0
  0
LINE
  5
22E
330
1F
100
AcDbEntity
  8
0
  6
SLD-Solid
 62
     7
370
    25
100
AcDbLine
 10
46.33225422138507
 20
22.50176148944716
 30
0.0
 11
46.35339671414255
 21
22.51396679071891
 31
0.0
  0
LINE
  5
22F
330
1F
100
AcDbEntity
  8
0
  6
SLD-Solid
 62
     7
370
    25
100
AcDbLine
 10
46.27995619163012
 20
23.41410438558114
 30
0.0
 11
46.25881369887264
 21
23.42630968685289
 31
0.0
  0
LINE
  5
230
330
1F
100
AcDbEntity
  8
0
  6
SLD-Solid
 62
     7
370
    25
100
AcDbLine
 10
46.27220963390233
 20
22.83038722089501
 30
0.0
 11
46.27220963390233
 21
23.03264551745963
 31
0.0
  0
LINE
  5
231
330
1F
100
AcDbEntity
  8
0
  6
SLD-Solid
 62
     7
370
    25
100
AcDbLine
 10
35.77903183355208
 20
26.08852144173836
 30
0.0
 11
35.77903183355208
 21
13.93676107925464
 31
0.0
  0
LINE
  5
232
330
1F
100
AcDbEntity
  8
0
  6
SLD-Solid
 62
     7
370
    25
100
AcDbLine
 10
38.56754417638781
 20
27.91121131780923
 30
0.0
 11
36.25622482741637
 21
26.57691505894246
 31
0.0
  0
LINE
  5
233
330
1F
100
AcDbEntity
  8
0
  6
SLD-Solid
 62
     7
370
    25
100
AcDbLine
 10
38.52871930245635
 20
27.88879819516534
 30
0.0
 11
38.52313622336982
 21
27.89202123811759
 31
0.0
  0
LINE
  5
234
330
1F
100
AcDbEntity
  8
0
  6
SLD-Solid
 62
     7
370
    25
100
AcDbLine
 10
35.85923534351873
 20
13.76949611961599
 30
0.0
 11
43.53275813295513
 21
9.339665704865967
 31
0.0
  0
LINE
  5
235
330
1F
100
AcDbEntity
  8
0
  6
SLD-Solid
 62
     7
370
    25
100
AcDbLine
 10
43.5852116331173
 20
9.355405921946511
 30
0.0
 11
43.60635412587475
 21
9.343200620674775
 31
0.0
  0
LINE
  5
236
330
1F
100
AcDbEntity
  8
0
  6
SLD-Solid
 62
     7
370
    25
100
AcDbLine
 10
46.27220963390232
 20
13.18165475362804
 30
0.0
 11
46.27220963390232
 21
13.9123782636451
 31
0.0
  0
LWPOLYLINE
  5
237
330
1F
100
AcDbEntity
  8
0
  6
SLD-Solid
 62
     7
370
    25
100
AcDbPolyline
 90
       17
 70
   128
 43
0.0
 10
44.96805019350906
 20
10.16417808618725
 10
44.96385519985829
 20
10.18610992568154
 10
44.95190886866161
 20
10.19985940485171
 10
44.93402992054995
 20
10.20333329013346
 10
44.91294026330024
 20
10.19600271398347
 10
44.89185060605053
 20
10.17898369016875
 10
44.87397165793887
 20
10.15486721078725
 10
44.86202532674219
 20
10.12732479120839
 10
44.85783033309143
 20
10.10054951514037
 10
44.86202532674219
 20
10.07861767564609
 10
44.87397165793887
 20
10.06486819647591
 10
44.89185060605053
 20
10.06139431119417
 10
44.91294026330024
 20
10.06872488734416
 10
44.93402992054995
 20
10.08574391115888
 10
44.95190886866161
 20
10.10986039054037
 10
44.96385519985829
 20
10.13740281011924
 10
44.96805019350906
 20
10.16417808618725
  0
LWPOLYLINE
  5
238
330
1F
100
AcDbEntity
  8
0
  6
SLD-Solid
 62
     7
370
    25
100
AcDbPolyline
 90
       19
 70
   128
 43
0.0
 10
44.99213622279314
 20
10.19032877660322
 10
44.98672046567981
 20
10.15173460406998
 10
44.97112641457575
 20
10.11154255826724
 10
44.94723494218779
 20
10.07460039309023
 10
44.91792771268651
 20
10.0453638788676
 10
44.88673961047839
 20
10.02735937069959
 10
44.85743238097709
 20
10.02275847798949
 10
44.83354090858915
 20
10.0321161363001
 10
44.81794685748508
 20
10.05430367393483
 10
44.81253110037176
 20
10.08664494640174
 10
44.81794685748508
 20
10.12523911893499
 10
44.83354090858915
 20
10.16543116473772
 10
44.85743238097709
 20
10.20237332991473
 10
44.88673961047839
 20
10.23160984413737
 10
44.91792771268651
 20
10.24961435230538
 10
44.94723494218779
 20
10.25421524501547
 10
44.97112641457575
 20
10.24485758670486
 10
44.98672046567981
 20
10.22267004907014
 10
44.99213622279314
 20
10.19032877660322
  0
LWPOLYLINE
  5
239
330
1F
100
AcDbEntity
  8
0
  6
SLD-Solid
 62
     7
370
    25
100
AcDbPolyline
 90
       11
 70
   128
 43
0.0
 10
44.95027215191873
 20
10.25745555625488
 10
44.93167859300168
 20
10.26319573424552
 10
44.90237136350041
 20
10.25859484153543
 10
44.87118326129228
 20
10.24059033336741
 10
44.841876031791
 20
10.21135381914478
 10
44.81798455940304
 20
10.17441165396777
 10
44.80239050829898
 20
10.13421960816503
 10
44.79697475118565
 20
10.09562543563179
 10
44.80239050829898
 20
10.06328416316488
 10
44.81798455940304
 20
10.04109662553015
 10
44.82328247287395
 20
10.03747914521019
  0
LWPOLYLINE
  5
23A
330
1F
100
AcDbEntity
  8
0
  6
SLD-Solid
 62
     7
370
    25
100
AcDbPolyline
 90
       17
 70
   128
 43
0.0
 10
44.93503735021233
 20
10.14512017741104
 10
44.93335530962644
 20
10.13438426103212
 10
44.92856526330025
 20
10.12334074787765
 10
44.92139645236503
 20
10.11367091271569
 10
44.91294026330024
 20
10.10684690029238
 10
44.90448407423546
 20
10.10390760463935
 10
44.89731526330024
 20
10.10530050687498
 10
44.89252521697405
 20
10.11081355026059
 10
44.89084317638816
 20
10.11960742391658
 10
44.89252521697405
 20
10.1303433402955
 10
44.89731526330024
 20
10.14138685344997
 10
44.90448407423546
 20
10.15105668861193
 10
44.91294026330024
 20
10.15788070103524
 10
44.92139645236503
 20
10.16081999668828
 10
44.92856526330025
 20
10.15942709445265
 10
44.93335530962644
 20
10.15391405106704
 10
44.93503735021233
 20
10.14512017741104
  0
LWPOLYLINE
  5
23B
330
1F
100
AcDbEntity
  8
0
  6
SLD-Solid
 62
     7
370
    25
100
AcDbPolyline
 90
       34
 70
   128
 43
0.0
 10
41.91818851057701
 20
25.6112828700723
 10
41.96407862033259
 20
25.57627754693905
 10
41.99766370074575
 20
25.53689121015061
 10
42.01772989950527
 20
25.49454738453863
 10
42.023551971906
 20
25.45077648628647
 10
42.01491949308215
 20
25.40716050970095
 10
41.99214446331008
 20
25.36527584981617
 10
41.95605003150555
 20
25.32663632736978
 10
41.90794074447707
 20
25.2926384753773
 10
41.84955539720539
 20
25.26451106479027
 10
41.78300418826245
 20
25.24327069351256
 10
41.71069245173691
 20
25.22968504390341
 10
41.63523372219323
 20
25.22424513673673
 10
41.55935527472288
 20
25.22714758443108
 10
41.48579955411684
 20
25.23828748496453
 10
41.41722505576536
 20
25.25726221330708
 10
41.35611024070797
 20
25.28338597333825
 10
41.30466395759394
 20
25.31571458430572
 10
41.26474560913702
 20
25.35307960597775
 10
41.23779794845665
 20
25.3941305691175
 10
41.22479493422127
 20
25.43738378495987
 10
41.22620652924439
 20
25.48127596958915
 10
41.24198171480399
 20
25.52422074509287
 10
41.2715503345921
 20
25.5646659753928
 10
41.31384370164928
 20
25.60114986448688
 10
41.36733322349581
 20
25.63235378956541
 10
41.43008564944657
 20
25.65714995947502
 10
41.4998329433278
 20
25.67464217602938
 10
41.57405425621389
 20
25.68419822494669
 10
41.65006703647537
 20
25.68547272572104
 10
41.72512398418421
 20
25.67841961457377
 10
41.79651234569126
 20
25.66329380931843
 10
41.86165195961109
 20
25.64064199596686
 10
41.91818851057701
 20
25.6112828700723
  0
LWPOLYLINE
  5
23C
330
1F
100
AcDbEntity
  8
0
  6
SLD-Solid
 62
     7
370
    25
100
AcDbPolyline
 90
        3
 70
   128
 43
0.0
 10
42.07362089237264
 20
25.41423584576187
 10
42.07348076736838
 20
25.42071827188795
 10
42.07347460453752
 20
25.42085926699754
  0
LWPOLYLINE
  5
23D
330
1F
100
AcDbEntity
  8
0
  6
SLD-Solid
 62
     7
370
    25
100
AcDbPolyline
 90
       20
 70
   128
 43
0.0
 10
42.07362089237262
 20
25.25092768338471
 10
42.07082089186714
 20
25.22199318214509
 10
42.05521925159573
 20
25.17739913803023
 10
42.02638066967508
 20
25.1350601837312
 10
41.98518961338356
 20
25.09627483731593
 10
41.93290939523604
 20
25.06223262918086
 10
41.87114342771599
 20
25.03397761964981
 10
41.80178604728347
 20
25.01237637807939
 10
41.72696441586601
 20
24.99809140553826
 10
41.64897328168962
 20
24.99156081617572
 10
41.57020460030785
 20
24.99298490044347
 10
41.49307417432273
 20
25.00231998227103
 10
41.4199475617266
 20
25.01927975859261
 10
41.35306752522525
 20
25.04334408014267
 10
41.29448524764119
 20
25.07377490421698
 10
41.24599742299212
 20
25.10963893013446
 10
41.20909115263479
 20
25.14983622317982
 10
41.18489833648675
 20
25.19313394914244
 10
41.17416095812793
 20
25.23820418482737
 10
41.17362089237263
 20
25.25092768338478
  0
LWPOLYLINE
  5
23E
330
1F
100
AcDbEntity
  8
0
  6
SLD-Solid
 62
     7
370
    25
100
AcDbPolyline
 90
       31
 70
   128
 43
0.0
 10
41.8629570821637
 20
25.58199162312554
 10
41.90344073122476
 20
25.55049163198763
 10
41.93169491060344
 20
25.51482094674769
 10
41.94648477708227
 20
25.47653854751767
 10
41.94716394252649
 20
25.43731755884323
 10
41.93370272414717
 20
25.39887212613264
 10
41.90668944178159
 20
25.36288249927701
 10
41.86730470549324
 20
25.3309215976673
 10
41.81726981724685
 20
25.30438626606929
 10
41.75877154175282
 20
25.28443622580446
 10
41.69436653435611
 20
25.2719433893633
 10
41.62686960292947
 20
25.26745375364557
 10
41.55923068726244
 20
25.2711635372758
 10
41.49440593253722
 20
25.28291060490781
 10
41.43522849159898
 20
25.30218155331742
 10
41.38428470258159
 20
25.32813414958685
 10
41.34380105352051
 20
25.35963414072476
 10
41.31554687414184
 20
25.39530482596469
 10
41.30075700766301
 20
25.43358722519471
 10
41.3000778422188
 20
25.47280821386915
 10
41.31353906059812
 20
25.51125364657974
 10
41.34055234296368
 20
25.54724327343538
 10
41.37993707925204
 20
25.57920417504509
 10
41.42997196749842
 20
25.60573950664309
 10
41.48847024299246
 20
25.62568954690792
 10
41.55287525038916
 20
25.63818238334908
 10
41.62037218181581
 20
25.64267201906681
 10
41.68801109748284
 20
25.63896223543659
 10
41.75283585220805
 20
25.62721516780457
 10
41.8120132931463
 20
25.60794421939496
 10
41.8629570821637
 20
25.58199162312554
  0
ARC
  5
23F
330
1F
100
AcDbEntity
  8
0
  6
SLD-Solid
 62
     7
370
    25
100
AcDbCircle
 10
41.80229929569091
 20
25.43458527557442
 30
0.0
 40
0.1470074817132897
100
AcDbArc
 50
6.003042891996124
 51
54.61857496110498
  0
ARC
  5
240
330
1F
100
AcDbEntity
  8
0
  6
SLD-Solid
 62
     7
370
    25
100
AcDbCircle
 10
41.4437352904915
 20
25.43529101099661
 30
0.0
 40
0.145734233074221
100
AcDbArc
 50
125.1551199532618
 51
174.2232621931173
  0
ARC
  5
241
330
1F
100
AcDbEntity
  8
0
  6
SLD-Solid
 62
     7
370
    25
100
AcDbCircle
 10
41.80019794546384
 20
25.4532935545659
 30
0.0
 40
0.1386798558847521
100
AcDbArc
 50
308.9718840384163
 51
356.5119102851574
  0
ARC
  5
242
330
1F
100
AcDbEntity
  8
0
  6
SLD-Solid
 62
     7
370
    25
100
AcDbCircle
 10
41.44449052301421
 20
25.4519780533655
 30
0.0
 40
0.1360561589091768
100
AcDbArc
 50
183.0005473532036
 51
231.5156583252271
  0
LWPOLYLINE
  5
243
330
1F
100
AcDbEntity
  8
0
  6
SLD-Solid
 62
     7
370
    25
100
AcDbPolyline
 90
       30
 70
   128
 43
0.0
 10
41.85559289170858
 20
25.57808612353263
 10
41.89598091728021
 20
25.54642223137519
 10
41.92363369079359
 20
25.51048647778327
 10
41.93725819929308
 20
25.47195917865513
 10
41.93621737590381
 20
25.43264182767796
 10
41.92055988837064
 20
25.39437286048537
 10
41.89101786340861
 20
25.35894169145039
 10
41.84897265327132
 20
25.32800504265816
 10
41.7963902452549
 20
25.3030094774226
 10
41.73572933431706
 20
25.28512376059356
 10
41.66982635723347
 20
25.2751842084114
 10
41.60176286396668
 20
25.27365558328914
 10
41.53472142781469
 20
25.28060936203857
 10
41.47183683182078
 20
25.29572039369392
 10
41.4160494898024
 20
25.3182821032097
 10
41.36996795586918
 20
25.34723953012448
 10
41.33574695133185
 20
25.38123865733962
 10
41.31498661232869
 20
25.41868972345382
 10
41.30865766923802
 20
25.45784155823948
 10
41.31705605640465
 20
25.49686346541614
 10
41.33978907457878
 20
25.53393082397396
 10
41.37579375309657
 20
25.56731040542421
 10
41.4233865532068
 20
25.59544141763698
 10
41.48034208847196
 20
25.6170084857466
 10
41.54399718136456
 20
25.63100315761832
 10
41.6113753904885
 20
25.6367710579494
 10
41.67932618567064
 20
25.6340424861309
 10
41.74467226325015
 20
25.62294502714848
 10
41.80435811326637
 20
25.60399758585021
 10
41.85559289170858
 20
25.57808612353263
  0
LINE
  5
244
330
1F
100
AcDbEntity
  8
0
  6
SLD-Solid
 62
     7
370
    25
100
AcDbLine
 10
41.38697990423879
 20
25.36483955272127
 30
0.0
 11
41.63753598067707
 21
25.4977186058221
 31
0.0
  0
LINE
  5
245
330
1F
100
AcDbEntity
  8
0
  6
SLD-Solid
 62
     7
370
    25
100
AcDbLine
 10
41.38697990423879
 20
25.36483955272127
 30
0.0
 11
41.44786721502036
 21
25.32657824278855
 31
0.0
  0
LINE
  5
246
330
1F
100
AcDbEntity
  8
0
  6
SLD-Solid
 62
     7
370
    25
100
AcDbLine
 10
41.69842329145864
 20
25.45945729588937
 30
0.0
 11
41.44786721502036
 21
25.32657824278855
 31
0.0
  0
LINE
  5
247
330
1F
100
AcDbEntity
  8
0
  6
SLD-Solid
 62
     7
370
    25
100
AcDbLine
 10
41.63753598067707
 20
25.4977186058221
 30
0.0
 11
41.69842329145864
 21
25.45945729588937
 31
0.0
  0
LINE
  5
248
330
1F
100
AcDbEntity
  8
0
  6
SLD-Solid
 62
     7
370
    25
100
AcDbLine
 10
41.63753598067706
 20
25.42716652762095
 30
0.0
 11
41.63753598067707
 21
25.4977186058221
 31
0.0
  0
LINE
  5
249
330
1F
100
AcDbEntity
  8
0
  6
SLD-Solid
 62
     7
370
    25
100
AcDbLine
 10
46.30725625306917
 20
22.81043969642906
 30
0.0
 11
46.27220963390233
 21
22.83067167902422
 31
0.0
  0
ARC
  5
24A
330
1F
100
AcDbEntity
  8
0
  6
SLD-Solid
 62
     7
370
    25
100
AcDbCircle
 10
46.26585078706012
 20
22.74570941042618
 30
0.0
 40
0.0768402403786036
100
AcDbArc
 50
2.605478485652374
 51
57.39452165996986
  0
LINE
  5
24B
330
1F
100
AcDbEntity
  8
0
  6
SLD-Solid
 62
     7
370
    25
100
AcDbLine
 10
46.34261159212849
 20
22.74920245303921
 30
0.0
 11
46.34261159212849
 21
22.52465372977062
 31
0.0
  0
ARC
  5
24C
330
1F
100
AcDbEntity
  8
0
  6
SLD-Solid
 62
     7
370
    25
100
AcDbCircle
 10
46.32105787375716
 20
22.52115736992559
 30
0.0
 40
0.0218354598714236
100
AcDbArc
 50
230.7967147642995
 51
9.214036990462017
  0
LINE
  5
24D
330
1F
100
AcDbEntity
  8
0
  6
SLD-Solid
 62
     7
370
    25
100
AcDbLine
 10
46.30725625306917
 20
22.5042368919719
 30
0.0
 11
46.29031356237354
 21
22.51401769912015
 31
0.0
  0
LINE
  5
24E
330
1F
100
AcDbEntity
  8
0
  6
SLD-Solid
 62
     7
370
    25
100
AcDbLine
 10
46.30725625306917
 20
22.81043969642906
 30
0.0
 11
46.32839874582664
 21
22.82264499770081
 31
0.0
  0
LINE
  5
24F
330
1F
100
AcDbEntity
  8
0
  6
SLD-Solid
 62
     7
370
    25
100
AcDbLine
 10
46.36375408488597
 20
22.76140775431096
 30
0.0
 11
46.34261159212849
 21
22.74920245303921
 31
0.0
  0
ARC
  5
250
330
1F
100
AcDbEntity
  8
0
  6
SLD-Solid
 62
     7
370
    25
100
AcDbCircle
 10
46.28699327981764
 20
22.75791471169795
 30
0.0
 40
0.076840240378559
100
AcDbArc
 50
2.605478485635295
 51
57.39452165999254
  0
LINE
  5
251
330
1F
100
AcDbEntity
  8
0
  6
SLD-Solid
 62
     7
370
    25
100
AcDbLine
 10
46.34261159212849
 20
22.52465372977062
 30
0.0
 11
46.36375408488597
 21
22.53685903104237
 31
0.0
  0
LINE
  5
252
330
1F
100
AcDbEntity
  8
0
  6
SLD-Solid
 62
     7
370
    25
100
AcDbLine
 10
46.36375408488597
 20
22.76140775431096
 30
0.0
 11
46.36375408488597
 21
22.53685903104237
 31
0.0
  0
LINE
  5
253
330
1F
100
AcDbEntity
  8
0
  6
SLD-Solid
 62
     7
370
    25
100
AcDbLine
 10
46.32839874582664
 20
22.82264499770081
 30
0.0
 11
46.27220963390233
 21
22.85508228156772
 31
0.0
  0
ARC
  5
254
330
1F
100
AcDbEntity
  8
0
  6
SLD-Solid
 62
     7
370
    25
100
AcDbCircle
 10
46.33996980709512
 20
22.53383082961044
 30
0.0
 40
0.0239762773162254
100
AcDbArc
 50
304.0563508249167
 51
7.255829568470088
  0
ARC
  5
255
330
1F
100
AcDbEntity
  8
0
  6
SLD-Solid
 62
     7
370
    25
100
AcDbCircle
 10
36.26283541734576
 20
26.04733021390264
 30
0.0
 40
0.4670349810211364
100
AcDbArc
 50
122.6054783400241
 51
177.3945215143475
  0
LINE
  5
256
330
1F
100
AcDbEntity
  8
0
  6
SLD-Solid
 62
     7
370
    25
100
AcDbLine
 10
43.68469578437925
 20
22.01093047747814
 30
0.0
 11
36.01117299494279
 21
26.44076089222817
 31
0.0
  0
ARC
  5
257
330
1F
100
AcDbEntity
  8
0
  6
SLD-Solid
 62
     7
370
    25
100
AcDbCircle
 10
43.93635820678194
 20
21.61749979915271
 30
0.0
 40
0.4670349810209021
100
AcDbArc
 50
122.6054783400011
 51
177.3945215143575
  0
LINE
  5
258
330
1F
100
AcDbEntity
  8
0
  6
SLD-Solid
 62
     7
370
    25
100
AcDbLine
 10
43.4698060335766
 20
21.63873051215459
 30
0.0
 11
35.7962832441402
 21
26.06856092690462
 31
0.0
  0
LINE
  5
259
330
1F
100
AcDbEntity
  8
0
  6
SLD-Solid
 62
     7
370
    25
100
AcDbLine
 10
43.4698060335766
 20
21.63873051215459
 30
0.0
 11
43.49094852633407
 21
21.65093581342635
 31
0.0
  0
LINE
  5
25A
330
1F
100
AcDbEntity
  8
0
  6
SLD-Solid
 62
     7
370
    25
100
AcDbLine
 10
43.68469578437925
 20
21.98651590720275
 30
0.0
 11
43.68469578437925
 21
22.01093047747814
 31
0.0
  0
ARC
  5
25B
330
1F
100
AcDbEntity
  8
0
  6
SLD-Solid
 62
     7
370
    25
100
AcDbCircle
 10
43.91159773810852
 20
21.63179393990705
 30
0.0
 40
0.4210845172744914
100
AcDbArc
 50
122.6054783399977
 51
177.3945215143584
  0
LINE
  5
25C
330
1F
100
AcDbEntity
  8
0
  6
SLD-Solid
 62
     7
370
    25
100
AcDbLine
 10
46.24438697693547
 20
13.89631658566057
 30
0.0
 11
46.29031356237354
 21
13.92282943909201
 31
0.0
  0
LINE
  5
25D
330
1F
100
AcDbEntity
  8
0
  6
SLD-Solid
 62
     7
370
    25
100
AcDbLine
 10
46.24438697693547
 20
13.88410930052288
 30
0.0
 11
46.24438697693547
 21
13.89631658566057
 31
0.0
  0
LINE
  5
25E
330
1F
100
AcDbEntity
  8
0
  6
SLD-Solid
 62
     7
370
    25
100
AcDbLine
 10
46.25495822331421
 20
13.89021195115875
 30
0.0
 11
46.24438697693547
 21
13.88410930052288
 31
0.0
  0
LINE
  5
25F
330
1F
100
AcDbEntity
  8
0
  6
SLD-Solid
 62
     7
370
    25
100
AcDbLine
 10
46.25495822331421
 20
13.15761153473486
 30
0.0
 11
46.25495822331421
 21
13.89021195115875
 31
0.0
  0
LINE
  5
260
330
1F
100
AcDbEntity
  8
0
  6
SLD-Solid
 62
     7
370
    25
100
AcDbLine
 10
46.24438697693547
 20
13.15150888409898
 30
0.0
 11
46.25495822331421
 21
13.15761153473486
 31
0.0
  0
LINE
  5
261
330
1F
100
AcDbEntity
  8
0
  6
SLD-Solid
 62
     7
370
    25
100
AcDbLine
 10
46.24438697693547
 20
13.13930159896129
 30
0.0
 11
46.24438697693547
 21
13.15150888409898
 31
0.0
  0
LINE
  5
262
330
1F
100
AcDbEntity
  8
0
  6
SLD-Solid
 62
     7
370
    25
100
AcDbLine
 10
46.29031356237354
 20
13.16581445239273
 30
0.0
 11
46.24438697693547
 21
13.13930159896129
 31
0.0
  0
LINE
  5
263
330
1F
100
AcDbEntity
  8
0
  6
SLD-Solid
 62
     7
370
    25
100
AcDbLine
 10
46.29031356237354
 20
13.16581445239273
 30
0.0
 11
46.29031356237354
 21
11.26679640207341
 31
0.0
  0
ARC
  5
264
330
1F
100
AcDbEntity
  8
0
  6
SLD-Solid
 62
     7
370
    25
100
AcDbCircle
 10
45.97741302697213
 20
11.28281226602975
 30
0.0
 40
0.3133101545637454
100
AcDbArc
 50
310.1639417235313
 51
357.0698634835658
  0
LINE
  5
265
330
1F
100
AcDbEntity
  8
0
  6
SLD-Solid
 62
     7
370
    25
100
AcDbLine
 10
45.15392315302481
 20
10.18887712269504
 30
0.0
 11
46.17949083163999
 21
11.04337999207033
 31
0.0
  0
ARC
  5
266
330
1F
100
AcDbEntity
  8
0
  6
SLD-Solid
 62
     7
370
    25
100
AcDbCircle
 10
44.80095825817025
 20
10.60918618807451
 30
0.0
 40
0.5488569280239208
100
AcDbArc
 50
300.246192654329
 51
310.0226880343295
  0
LINE
  5
267
330
1F
100
AcDbEntity
  8
0
  6
SLD-Solid
 62
     7
370
    25
100
AcDbLine
 10
45.07742658926545
 20
10.13504571380418
 30
0.0
 11
43.72634437379111
 21
9.355082552793538
 31
0.0
  0
ARC
  5
268
330
1F
100
AcDbEntity
  8
0
  6
SLD-Solid
 62
     7
370
    25
100
AcDbCircle
 10
43.66009659448873
 20
9.436300846971278
 30
0.0
 40
0.1048102073828627
100
AcDbArc
 50
170.7859630095609
 51
309.2032852356929
  0
LINE
  5
269
330
1F
100
AcDbEntity
  8
0
  6
SLD-Solid
 62
     7
370
    25
100
AcDbLine
 10
43.55663874630631
 20
9.453083374227404
 30
0.0
 11
43.55663874630631
 21
9.48492846589096
 31
0.0
  0
LINE
  5
26A
330
1F
100
AcDbEntity
  8
0
  6
SLD-Solid
 62
     7
370
    25
100
AcDbLine
 10
43.55663874630631
 20
9.48492846589096
 30
0.0
 11
43.55310321240037
 21
9.482887445611398
 31
0.0
  0
LINE
  5
26B
330
1F
100
AcDbEntity
  8
0
  6
SLD-Solid
 62
     7
370
    25
100
AcDbLine
 10
43.55310321240041
 20
21.63464780809518
 30
0.0
 11
43.55310321240037
 21
9.482887445611398
 31
0.0
  0
LINE
  5
26C
330
1F
100
AcDbEntity
  8
0
  6
SLD-Solid
 62
     7
370
    25
100
AcDbLine
 10
43.55310321240041
 20
21.63464780809518
 30
0.0
 11
43.55663874630631
 21
21.6366888283747
 31
0.0
  0
LINE
  5
26D
330
1F
100
AcDbEntity
  8
0
  6
SLD-Solid
 62
     7
370
    25
100
AcDbLine
 10
43.55663874630631
 20
21.6366888283747
 30
0.0
 11
43.55663874630631
 21
21.65795251084611
 31
0.0
  0
ARC
  5
26E
330
1F
100
AcDbEntity
  8
0
  6
SLD-Solid
 62
     7
370
    25
100
AcDbCircle
 10
43.92509061063463
 20
21.64118590630347
 30
0.0
 40
0.3688331538174276
100
AcDbArc
 50
122.6054783400307
 51
177.3945215143308
  0
LINE
  5
26F
330
1F
100
AcDbEntity
  8
0
  6
SLD-Solid
 62
     7
370
    25
100
AcDbLine
 10
43.72634437379111
 20
21.9518912791174
 30
0.0
 11
46.25495822331421
 21
23.4116289830564
 31
0.0
  0
ARC
  5
270
330
1F
100
AcDbEntity
  8
0
  6
SLD-Solid
 62
     7
370
    25
100
AcDbCircle
 10
46.26875984400221
 20
23.39470850510271
 30
0.0
 40
0.0218354598714275
100
AcDbArc
 50
350.7859630095388
 51
129.2032852357099
  0
LINE
  5
271
330
1F
100
AcDbEntity
  8
0
  6
SLD-Solid
 62
     7
370
    25
100
AcDbLine
 10
46.29031356237354
 20
23.39121214525768
 30
0.0
 11
46.29031356237354
 21
23.04309669290653
 31
0.0
  0
LINE
  5
272
330
1F
100
AcDbEntity
  8
0
  6
SLD-Solid
 62
     7
370
    25
100
AcDbLine
 10
46.24438697693547
 20
23.01658383947509
 30
0.0
 11
46.29031356237354
 21
23.04309669290653
 31
0.0
  0
LINE
  5
273
330
1F
100
AcDbEntity
  8
0
  6
SLD-Solid
 62
     7
370
    25
100
AcDbLine
 10
46.24438697693547
 20
23.00437655433739
 30
0.0
 11
46.24438697693547
 21
23.01658383947509
 31
0.0
  0
LINE
  5
274
330
1F
100
AcDbEntity
  8
0
  6
SLD-Solid
 62
     7
370
    25
100
AcDbLine
 10
46.25495822331421
 20
23.01047920497327
 30
0.0
 11
46.24438697693547
 21
23.00437655433739
 31
0.0
  0
LINE
  5
275
330
1F
100
AcDbEntity
  8
0
  6
SLD-Solid
 62
     7
370
    25
100
AcDbLine
 10
46.25495822331421
 20
22.80634400200183
 30
0.0
 11
46.25495822331421
 21
23.01047920497327
 31
0.0
  0
LINE
  5
276
330
1F
100
AcDbEntity
  8
0
  6
SLD-Solid
 62
     7
370
    25
100
AcDbLine
 10
46.24438697693547
 20
22.80024135136596
 30
0.0
 11
46.25495822331421
 21
22.80634400200183
 31
0.0
  0
LINE
  5
277
330
1F
100
AcDbEntity
  8
0
  6
SLD-Solid
 62
     7
370
    25
100
AcDbLine
 10
46.24438697693547
 20
22.78803406622826
 30
0.0
 11
46.24438697693547
 21
22.80024135136596
 31
0.0
  0
LINE
  5
278
330
1F
100
AcDbEntity
  8
0
  6
SLD-Solid
 62
     7
370
    25
100
AcDbLine
 10
46.29031356237354
 20
22.8145469196597
 30
0.0
 11
46.24438697693547
 21
22.78803406622826
 31
0.0
  0
LINE
  5
279
330
1F
100
AcDbEntity
  8
0
  6
SLD-Solid
 62
     7
370
    25
100
AcDbLine
 10
46.29031356237354
 20
22.8145469196597
 30
0.0
 11
46.29031356237354
 21
13.92282943909201
 31
0.0
  0
LINE
  5
27A
330
1F
100
AcDbEntity
  8
0
  6
SLD-Solid
 62
     7
370
    25
100
AcDbLine
 10
43.70520188103363
 20
21.96409658038915
 30
0.0
 11
43.72634437379111
 21
21.9518912791174
 31
0.0
  0
LINE
  5
27B
330
1F
100
AcDbEntity
  8
0
  6
SLD-Solid
 62
     7
370
    25
100
AcDbLine
 10
43.55663874630631
 20
21.65795251084611
 30
0.0
 11
43.53549625354886
 21
21.67015781211784
 31
0.0
  0
ARC
  5
27C
330
1F
100
AcDbEntity
  8
0
  6
SLD-Solid
 62
     7
370
    25
100
AcDbCircle
 10
43.90394811787701
 20
21.65339120757532
 30
0.0
 40
0.368833153817253
100
AcDbArc
 50
122.6054783400204
 51
177.3945215143488
  0
ARC
  5
27D
330
1F
100
AcDbEntity
  8
0
  6
SLD-Solid
 62
     7
370
    25
100
AcDbCircle
 10
43.51145462298852
 20
9.563268928515473
 30
0.0
 40
0.0905305903761569
100
AcDbArc
 50
242.6096722366347
 51
297.3903277633281
  0
LINE
  5
27E
330
1F
100
AcDbEntity
  8
0
  6
SLD-Solid
 62
     7
370
    25
100
AcDbLine
 10
43.46980603357661
 20
9.482887445611436
 30
0.0
 11
43.4698060335766
 21
21.63464780809516
 31
0.0
  0
ARC
  5
27F
330
1F
100
AcDbEntity
  8
0
  6
SLD-Solid
 62
     7
370
    25
100
AcDbCircle
 10
43.51145462298848
 20
21.71502929099903
 30
0.0
 40
0.0905305903759861
100
AcDbArc
 50
242.6096722366
 51
297.3903277634348
  0
LINE
  5
280
330
1F
100
AcDbEntity
  8
0
  6
SLD-Solid
 62
     7
370
    25
100
AcDbLine
 10
43.55310321240041
 20
21.63464780809518
 30
0.0
 11
43.53196071964292
 21
21.64685310936688
 31
0.0
  0
LINE
  5
281
330
1F
100
AcDbEntity
  8
0
  6
SLD-Solid
 62
     7
370
    25
100
AcDbLine
 10
43.4698060335766
 20
21.63464780809516
 30
0.0
 11
43.49094852633407
 21
21.64685310936692
 31
0.0
  0
ARC
  5
282
330
1F
100
AcDbEntity
  8
0
  6
SLD-Solid
 62
     7
370
    25
100
AcDbCircle
 10
43.51145462298854
 20
21.68642973083043
 30
0.0
 40
0.0445736353292887
100
AcDbArc
 50
242.6096722364182
 51
297.390327763469
  0
LINE
  5
283
330
1F
100
AcDbEntity
  8
0
  6
SLD-Solid
 62
     7
370
    25
100
AcDbLine
 10
43.55663874630631
 20
21.6366888283747
 30
0.0
 11
43.53549625354886
 21
21.64889412964643
 31
0.0
  0
LINE
  5
284
330
1F
100
AcDbEntity
  8
0
  6
SLD-Solid
 62
     7
370
    25
100
AcDbLine
 10
43.53549625354886
 20
21.64889412964643
 30
0.0
 11
43.53549625354886
 21
21.67015781211784
 31
0.0
  0
LINE
  5
285
330
1F
100
AcDbEntity
  8
0
  6
SLD-Solid
 62
     7
370
    25
100
AcDbLine
 10
46.25495822331421
 20
23.4116289830564
 30
0.0
 11
46.23381573055673
 21
23.42383428432814
 31
0.0
  0
LINE
  5
286
330
1F
100
AcDbEntity
  8
0
  6
SLD-Solid
 62
     7
370
    25
100
AcDbLine
 10
43.70520188103363
 20
21.96409658038915
 30
0.0
 11
46.23381573055673
 21
23.42383428432814
 31
0.0
  0
LINE
  5
287
330
1F
100
AcDbEntity
  8
0
  6
SLD-Solid
 62
     7
370
    25
100
AcDbLine
 10
43.46980603357662
 20
21.63873051215461
 30
0.0
 11
43.46980603357662
 21
21.63464780809518
 31
0.0
  0
LINE
  5
288
330
1F
100
AcDbEntity
  8
0
  6
SLD-Solid
 62
     7
370
    25
100
AcDbLine
 10
43.46980603357661
 20
9.478804741551992
 30
0.0
 11
43.46980603357661
 21
9.482887445611436
 31
0.0
  0
LINE
  5
289
330
1F
100
AcDbEntity
  8
0
  6
SLD-Solid
 62
     7
370
    25
100
AcDbLine
 10
35.79628324414019
 20
13.90863515630203
 30
0.0
 11
43.4698060335766
 21
9.478804741552008
 31
0.0
  0
LINE
  5
28A
330
1F
100
AcDbEntity
  8
0
  6
SLD-Solid
 62
     7
370
    25
100
AcDbLine
 10
35.79628324414019
 20
13.90863515630203
 30
0.0
 11
35.79628324414018
 21
13.91271786036145
 31
0.0
  0
LINE
  5
28B
330
1F
100
AcDbEntity
  8
0
  6
SLD-Solid
 62
     7
370
    25
100
AcDbLine
 10
35.79628324414018
 20
13.91271786036144
 30
0.0
 11
35.79628324414019
 21
26.06447822284518
 31
0.0
  0
LINE
  5
28C
330
1F
100
AcDbEntity
  8
0
  6
SLD-Solid
 62
     7
370
    25
100
AcDbLine
 10
35.79628324414023
 20
26.06856092690463
 30
0.0
 11
35.79628324414022
 21
26.0644782228452
 31
0.0
  0
LINE
  5
28D
330
1F
100
AcDbEntity
  8
0
  6
SLD-Solid
 62
     7
370
    25
100
AcDbLine
 10
36.45106412351893
 20
24.53321781038091
 30
0.0
 11
36.45106412351894
 21
21.57958881359365
 31
0.0
  0
ARC
  5
28E
330
1F
100
AcDbEntity
  8
0
  6
SLD-Solid
 62
     7
370
    25
100
AcDbCircle
 10
36.75992391944158
 20
21.59422990999726
 30
0.0
 40
0.3092066222467966
100
AcDbArc
 50
182.7140001432472
 51
235.8600568188529
  0
ARC
  5
28F
330
1F
100
AcDbEntity
  8
0
  6
SLD-Solid
 62
     7
370
    25
100
AcDbCircle
 10
86.71951235915544
 20
101.1445062314375
 30
0.0
 40
94.24626699477324
100
AcDbArc
 50
237.8635448845335
 51
242.1418316481675
  0
ARC
  5
290
330
1F
100
AcDbEntity
  8
0
  6
SLD-Solid
 62
     7
370
    25
100
AcDbCircle
 10
42.72985340472992
 20
17.89109871029813
 30
0.0
 40
0.0864231155601584
100
AcDbArc
 50
234.5243099648073
 51
9.762033433341056
  0
LINE
  5
291
330
1F
100
AcDbEntity
  8
0
  6
SLD-Solid
 62
     7
370
    25
100
AcDbLine
 10
42.81502515419785
 20
20.85938130717872
 30
0.0
 11
42.81502515419785
 21
17.90575231039145
 31
0.0
  0
ARC
  5
292
330
1F
100
AcDbEntity
  8
0
  6
SLD-Solid
 62
     7
370
    25
100
AcDbCircle
 10
42.5061653582753
 20
20.84474021077513
 30
0.0
 40
0.3092066222467164
100
AcDbArc
 50
2.714000143243171
 51
55.86005681886112
  0
ARC
  5
293
330
1F
100
AcDbEntity
  8
0
  6
SLD-Solid
 62
     7
370
    25
100
AcDbCircle
 10
-7.453423081439529
 20
-58.70553611066657
 30
0.0
 40
94.24626699477486
100
AcDbArc
 50
57.86354488453262
 51
62.14183164816663
  0
ARC
  5
294
330
1F
100
AcDbEntity
  8
0
  6
SLD-Solid
 62
     7
370
    25
100
AcDbCircle
 10
36.53623587298687
 20
24.54787141047423
 30
0.0
 40
0.0864231155601578
100
AcDbArc
 50
54.52430996479742
 51
189.7620334333395
  0
LINE
  5
295
330
1F
100
AcDbEntity
  8
0
  6
SLD-Solid
 62
     7
370
    25
100
AcDbLine
 10
43.49094852633407
 20
21.65093581342635
 30
0.0
 11
43.49094852633407
 21
21.64685310936692
 31
0.0
  0
LINE
  5
296
330
1F
100
AcDbEntity
  8
0
  6
SLD-Solid
 62
     7
370
    25
100
AcDbLine
 10
43.68469578437925
 20
22.01093047747814
 30
0.0
 11
43.92514744532172
 21
22.1497402666908
 31
0.0
  0
LINE
  5
297
330
1F
100
AcDbEntity
  8
0
  6
SLD-Solid
 62
     7
370
    25
100
AcDbLine
 10
36.01117299494279
 20
26.44076089222817
 30
0.0
 11
36.25162465588532
 21
26.57957068144082
 31
0.0
  0
LINE
  5
298
330
1F
100
AcDbEntity
  8
0
  6
SLD-Solid
 62
     7
370
    25
100
AcDbLine
 10
36.28404550180272
 20
26.56085452547729
 30
0.0
 11
36.25162465588532
 21
26.57957068144082
 31
0.0
  0
LINE
  5
299
330
1F
100
AcDbEntity
  8
0
  6
SLD-Solid
 62
     7
370
    25
100
AcDbLine
 10
36.29461674818148
 20
26.56695717611316
 30
0.0
 11
36.28404550180272
 21
26.56085452547729
 31
0.0
  0
LINE
  5
29A
330
1F
100
AcDbEntity
  8
0
  6
SLD-Solid
 62
     7
370
    25
100
AcDbLine
 10
36.28404550180274
 20
26.57305982674903
 30
0.0
 11
36.29461674818148
 21
26.56695717611316
 31
0.0
  0
LINE
  5
29B
330
1F
100
AcDbEntity
  8
0
  6
SLD-Solid
 62
     7
370
    25
100
AcDbLine
 10
36.28404550180274
 20
26.57305982674903
 30
0.0
 11
38.59699178306393
 21
27.90829529363508
 31
0.0
  0
LINE
  5
29C
330
1F
100
AcDbEntity
  8
0
  6
SLD-Solid
 62
     7
370
    25
100
AcDbLine
 10
46.22681537342301
 20
23.50369188954038
 30
0.0
 11
38.59699178306393
 21
27.90829529363508
 31
0.0
  0
LINE
  5
29D
330
1F
100
AcDbEntity
  8
0
  6
SLD-Solid
 62
     7
370
    25
100
AcDbLine
 10
43.91386909216181
 20
22.16845642265433
 30
0.0
 11
46.22681537342301
 21
23.50369188954038
 31
0.0
  0
LINE
  5
29E
330
1F
100
AcDbEntity
  8
0
  6
SLD-Solid
 62
     7
370
    25
100
AcDbLine
 10
43.91386909216181
 20
22.16845642265433
 30
0.0
 11
43.90329784578307
 21
22.1745590732902
 31
0.0
  0
LINE
  5
29F
330
1F
100
AcDbEntity
  8
0
  6
SLD-Solid
 62
     7
370
    25
100
AcDbLine
 10
43.90329784578307
 20
22.1745590732902
 30
0.0
 11
43.89272659940432
 21
22.16845642265433
 31
0.0
  0
LINE
  5
2A0
330
1F
100
AcDbEntity
  8
0
  6
SLD-Solid
 62
     7
370
    25
100
AcDbLine
 10
43.89272659940432
 20
22.16845642265433
 30
0.0
 11
43.92514744532172
 21
22.1497402666908
 31
0.0
  0
LINE
  5
2A1
330
1F
100
AcDbEntity
  8
0
  6
SLD-Solid
 62
     7
370
    25
100
AcDbLine
 10
43.68469578437925
 20
21.98651590720275
 30
0.0
 11
43.92514744532172
 21
22.12532569641541
 31
0.0
  0
LINE
  5
2A2
330
1F
100
AcDbEntity
  8
0
  6
SLD-Solid
 62
     7
370
    25
100
AcDbLine
 10
43.92514744532172
 20
22.12532569641541
 30
0.0
 11
43.92514744532172
 21
22.1497402666908
 31
0.0
  0
LINE
  5
2A3
330
1F
100
AcDbEntity
  8
0
  6
SLD-Solid
 62
     7
370
    25
100
AcDbLine
 10
43.53196071964292
 20
21.64685310936688
 30
0.0
 11
43.53549625354886
 21
21.64889412964643
 31
0.0
  0
ARC
  5
2A4
330
1F
100
AcDbEntity
  8
0
  6
SLD-Solid
 62
     7
370
    25
100
AcDbCircle
 10
46.17803973446433
 20
23.42743961262898
 30
0.0
 40
0.0905178031660069
100
AcDbArc
 50
2.605478485650027
 51
57.39452165996228
  0
ARC
  5
2A5
330
1F
100
AcDbEntity
  8
0
  6
SLD-Solid
 62
     7
370
    25
100
AcDbCircle
 10
43.86353886032744
 20
22.09089150645073
 30
0.0
 40
0.0924632276214366
100
AcDbArc
 50
10.63944682902819
 51
57.02131444819339
  0
ARC
  5
2A6
330
1F
100
AcDbEntity
  8
0
  6
SLD-Solid
 62
     7
370
    25
100
AcDbCircle
 10
43.8900509229867
 20
22.10647893728374
 30
0.0
 40
0.0443714305651005
100
AcDbArc
 50
2.642001707065698
 51
37.72363835420406
  0
LINE
  5
2A7
330
1F
100
AcDbEntity
  8
0
  6
SLD-Solid
 62
     7
370
    25
100
AcDbLine
 10
46.26846396283489
 20
23.4207387080491
 30
0.0
 11
46.26846396283489
 21
23.43155441682713
 31
0.0
  0
LINE
  5
2A8
330
1F
100
AcDbEntity
  8
0
  6
SLD-Solid
 62
     7
370
    25
100
AcDbLine
 10
43.9343751888162
 20
22.10852425121283
 30
0.0
 11
43.93437518881622
 21
22.09639551491003
 31
0.0
  0
LINE
  5
2A9
330
1F
100
AcDbEntity
  8
0
  6
SLD-Solid
 62
     7
370
    25
100
AcDbLine
 10
43.90329784578306
 20
22.16235377201846
 30
0.0
 11
43.90329784578307
 21
22.1745590732902
 31
0.0
  0
ARC
  5
2AA
330
1F
100
AcDbEntity
  8
0
  6
SLD-Solid
 62
     7
370
    25
100
AcDbCircle
 10
46.24846173329925
 20
23.4033902178722
 30
0.0
 40
0.0251488617951049
100
AcDbArc
 50
65.69288095387506
 51
125.6175774751626
  0
ARC
  5
2AB
330
1F
100
AcDbEntity
  8
0
  6
SLD-Solid
 62
     7
370
    25
100
AcDbCircle
 10
46.24321674271437
 20
23.03730093093657
 30
0.0
 40
0.0292791282371395
100
AcDbArc
 50
293.6418834688834
 51
350.7422004593893
  0
ARC
  5
2AC
330
1F
100
AcDbEntity
  8
0
  6
SLD-Solid
 62
     7
370
    25
100
AcDbCircle
 10
46.24372972739084
 20
22.83261133198287
 30
0.0
 40
0.0285666194190719
100
AcDbArc
 50
293.1452552424661
 51
355.5346037999116
  0
LINE
  5
2AD
330
1F
100
AcDbEntity
  8
0
  6
SLD-Solid
 62
     7
370
    25
100
AcDbLine
 10
46.27156496633383
 20
22.82537025377229
 30
0.0
 11
46.29031356237354
 21
22.8145469196597
 31
0.0
  0
LINE
  5
2AE
330
1F
100
AcDbEntity
  8
0
  6
SLD-Solid
 62
     7
370
    25
100
AcDbLine
 10
42.67969710288861
 20
17.82071902367815
 30
0.0
 11
42.70083959564609
 21
17.83292432494989
 31
0.0
  0
ARC
  5
2AF
330
1F
100
AcDbEntity
  8
0
  6
SLD-Solid
 62
     7
370
    25
100
AcDbCircle
 10
42.75514822903492
 20
17.91877495073072
 30
0.0
 40
0.1015862077622832
100
AcDbArc
 50
237.6827799220203
 51
286.2686422400022
  0
LINE
  5
2B0
330
1F
100
AcDbEntity
  8
0
  6
SLD-Solid
 62
     7
370
    25
100
AcDbLine
 10
36.58639217482818
 20
21.33830908463772
 30
0.0
 11
36.60753466758567
 21
21.35051438590946
 31
0.0
  0
ARC
  5
2B1
330
1F
100
AcDbEntity
  8
0
  6
SLD-Solid
 62
     7
370
    25
100
AcDbCircle
 10
86.7406548519172
 20
101.1567115327168
 30
0.0
 40
94.24626699478182
100
AcDbArc
 50
237.8635448845337
 51
242.1418316481674
  0
ARC
  5
2B2
330
1F
100
AcDbEntity
  8
0
  6
SLD-Solid
 62
     7
370
    25
100
AcDbCircle
 10
36.16827064237416
 20
26.11910275884008
 30
0.0
 40
0.3688331538171702
100
AcDbArc
 50
122.6054783400208
 51
177.3945215143616
  0
ARC
  5
2B3
330
1F
100
AcDbEntity
  8
0
  6
SLD-Solid
 62
     7
370
    25
100
AcDbCircle
 10
35.80540844601848
 20
26.08852144173837
 30
0.0
 40
0.0257166421615571
100
AcDbArc
 50
110.7834207995715
 51
249.2165792005061
  0
ARC
  5
2B4
330
1F
100
AcDbEntity
  8
0
  6
SLD-Solid
 62
     7
370
    25
100
AcDbCircle
 10
35.80850875453282
 20
13.93970056485401
 30
0.0
 40
0.0296231235033335
100
AcDbArc
 50
185.6947992511992
 51
245.6253417063478
  0
LINE
  5
2B5
330
1F
100
AcDbEntity
  8
0
  6
SLD-Solid
 62
     7
370
    25
100
AcDbLine
 10
35.79981877804609
 20
26.11542996339021
 30
0.0
 11
35.79981877804608
 21
26.13586936338251
 31
0.0
  0
LINE
  5
2B6
330
1F
100
AcDbEntity
  8
0
  6
SLD-Solid
 62
     7
370
    25
100
AcDbLine
 10
35.96952440553083
 20
26.42980813165384
 30
0.0
 11
38.49813825505392
 21
27.88954583559284
 31
0.0
  0
LINE
  5
2B7
330
1F
100
AcDbEntity
  8
0
  6
SLD-Solid
 62
     7
370
    25
100
AcDbLine
 10
35.79628324414016
 20
26.11256466063154
 30
0.0
 11
35.79968891541923
 21
26.11453071281236
 31
0.0
  0
LINE
  5
2B8
330
1F
100
AcDbEntity
  8
0
  6
SLD-Solid
 62
     7
370
    25
100
AcDbLine
 10
36.45106412351893
 20
24.53321781038091
 30
0.0
 11
36.47220661627642
 21
24.54542311165266
 31
0.0
  0
ARC
  5
2B9
330
1F
100
AcDbEntity
  8
0
  6
SLD-Solid
 62
     7
370
    25
100
AcDbCircle
 10
36.57816279115129
 20
24.55411422327021
 30
0.0
 40
0.1063120238508546
100
AcDbArc
 50
134.5171296574226
 51
184.689218952324
  0
ARC
  5
2BA
330
1F
100
AcDbEntity
  8
0
  6
SLD-Solid
 62
     7
370
    25
100
AcDbCircle
 10
36.26651543486179
 20
26.54820377750178
 30
0.0
 40
0.0304158910955434
100
AcDbArc
 50
54.80607558619092
 51
109.5845228167625
  0
ARC
  5
2BB
330
1F
100
AcDbEntity
  8
0
  6
SLD-Solid
 62
     7
370
    25
100
AcDbCircle
 10
38.57973879183324
 20
27.88421218334999
 30
0.0
 40
0.0296253591946222
100
AcDbArc
 50
54.38242252480654
 51
114.3071190460823
  0
LINE
  5
2BC
330
1F
100
AcDbEntity
  8
0
  6
SLD-Solid
 62
     7
370
    25
100
AcDbLine
 10
36.47220661627641
 20
21.59179411486539
 30
0.0
 11
36.45106412351894
 21
21.57958881359365
 31
0.0
  0
LINE
  5
2BD
330
1F
100
AcDbEntity
  8
0
  6
SLD-Solid
 62
     7
370
    25
100
AcDbLine
 10
36.47220661627642
 20
24.54542311165266
 30
0.0
 11
36.47220661627641
 21
21.59179411486539
 31
0.0
  0
ARC
  5
2BE
330
1F
100
AcDbEntity
  8
0
  6
SLD-Solid
 62
     7
370
    25
100
AcDbCircle
 10
38.51278425779645
 20
27.8691017691369
 30
0.0
 40
0.0251488617950991
100
AcDbArc
 50
65.69288095390456
 51
125.6175774751758
  0
ARC
  5
2BF
330
1F
100
AcDbEntity
  8
0
  6
SLD-Solid
 62
     7
370
    25
100
AcDbCircle
 10
36.78106641219903
 20
21.606435211269
 30
0.0
 40
0.3092066222467807
100
AcDbArc
 50
182.7140001432473
 51
235.8600568188573
  0
LWPOLYLINE
  5
2C0
330
1F
100
AcDbEntity
  8
0
  6
SLD-Solid
 62
     7
370
    25
100
AcDbPolyline
 90
        8
 70
   128
 43
0.0
 10
43.63589206054198
 20
9.333021736568364
 10
43.60246103696198
 20
9.326127139044745
 10
43.56530943545228
 20
9.32761119762892
 10
43.5327457843792
 20
9.339672834705794
 10
43.50602148659158
 20
9.36184852832674
 10
43.48616354186623
 20
9.393286079022182
 10
43.4739350798825
 20
9.43277735934927
 10
43.4698060335766
 20
9.478804741551993
  0
ARC
  5
2C1
330
1F
100
AcDbEntity
  8
0
  6
SLD-Solid
 62
     7
370
    25
100
AcDbCircle
 10
43.6071740448614
 20
9.467605860738383
 30
0.0
 40
0.1159391987410458
100
AcDbArc
 50
176.3701643442324
 51
261.123191157651
  0
ARC
  5
2C2
330
1F
100
AcDbEntity
  8
0
  6
SLD-Solid
 62
     7
370
    25
100
AcDbCircle
 10
35.94084408461731
 20
13.89022974802787
 30
0.0
 40
0.1457278135881696
100
AcDbArc
 50
172.7441704460797
 51
235.943649160542
  0
LINE
  5
2C3
330
1F
100
AcDbEntity
  8
0
  6
SLD-Solid
 62
     7
370
    25
100
AcDbLine
 10
43.53549625354886
 20
9.465288675499137
 30
0.0
 11
43.55663874630631
 21
9.453083374227404
 31
0.0
  0
LINE
  5
2C4
330
1F
100
AcDbEntity
  8
0
  6
SLD-Solid
 62
     7
370
    25
100
AcDbLine
 10
43.53549625354886
 20
9.465288675499137
 30
0.0
 11
43.53549625354886
 21
9.47588991979333
 31
0.0
  0
ARC
  5
2C5
330
1F
100
AcDbEntity
  8
0
  6
SLD-Solid
 62
     7
370
    25
100
AcDbCircle
 10
43.65309671008144
 20
9.45230785851998
 30
0.0
 40
0.1183147031696211
100
AcDbArc
 50
173.7011524727152
 51
234.9866671339057
  0
ARC
  5
2C6
330
1F
100
AcDbEntity
  8
0
  6
SLD-Solid
 62
     7
370
    25
100
AcDbCircle
 10
46.2432167427144
 20
13.91703367712203
 30
0.0
 40
0.029279128237111
100
AcDbArc
 50
293.6418834688464
 51
350.7422004594421
  0
ARC
  5
2C7
330
1F
100
AcDbEntity
  8
0
  6
SLD-Solid
 62
     7
370
    25
100
AcDbCircle
 10
46.24372972739083
 20
13.1838788647159
 30
0.0
 40
0.0285666194190792
100
AcDbArc
 50
293.1452552424909
 51
355.5346037999092
  0
LINE
  5
2C8
330
1F
100
AcDbEntity
  8
0
  6
SLD-Solid
 62
     7
370
    25
100
AcDbLine
 10
46.27156496633382
 20
13.17663778650532
 30
0.0
 11
46.29031356237354
 21
13.16581445239273
 31
0.0
  0
LWPOLYLINE
  5
2C9
330
1F
100
AcDbEntity
  8
0
  6
SLD-Solid
 62
     8
370
    25
100
AcDbPolyline
 90
       19
 70
   128
 43
0.0
 10
41.17366733895909
 20
25.41050352240898
 10
41.176578590467
 20
25.38450031492293
 10
41.19296003685795
 20
25.33889763724115
 10
41.22318327749408
 20
25.29571639156972
 10
41.26627691255356
 20
25.25634445867415
 10
41.32085587714804
 20
25.22204728487305
 10
41.38516595844773
 20
25.19392720955219
 10
41.45714017752514
 20
25.17288803506966
 10
41.53446522375853
 20
25.15960597780442
 10
41.6146558065387
 20
25.15450793400549
 10
41.69513453455409
 20
25.15775775899525
 10
41.77331475526813
 20
25.16925100072456
 10
41.84668369206019
 20
25.18861825694757
 10
41.91288320693361
 20
25.21523704811385
 10
41.96978559301122
 20
25.24825182437329
 10
42.01556196078504
 20
25.28660146365226
 10
42.0487410201299
 20
25.32905337699016
 10
42.06825636877863
 20
25.37424312496276
 10
42.07362089237264
 20
25.41423584576187
  0
LINE
  5
2CA
330
1F
100
AcDbEntity
  8
0
  6
SLD-Solid
 62
     8
370
    25
100
AcDbLine
 10
46.25909626926408
 20
23.42614656243811
 30
0.0
 11
46.26846396283489
 21
23.43155441682713
 31
0.0
  0
LINE
  5
2CB
330
1F
100
AcDbEntity
  8
0
  6
SLD-Solid
 62
     8
370
    25
100
AcDbLine
 10
43.9138690921618
 20
22.15625112138258
 30
0.0
 11
43.91386909216181
 21
22.16845642265433
 31
0.0
  0
LINE
  5
2CC
330
1F
100
AcDbEntity
  8
0
  6
SLD-Solid
 62
     8
370
    25
100
AcDbLine
 10
43.9343751888162
 20
22.10852425121283
 30
0.0
 11
43.9448801208015
 21
22.10245988306143
 31
0.0
  0
LINE
  5
2CD
330
1F
100
AcDbEntity
  8
0
  6
SLD-Solid
 62
     8
370
    25
100
AcDbLine
 10
46.24438697693547
 20
23.01658185560915
 30
0.0
 11
46.25495822331421
 21
23.01047920497327
 31
0.0
  0
LINE
  5
2CE
330
1F
100
AcDbEntity
  8
0
  6
SLD-Solid
 62
     8
370
    25
100
AcDbLine
 10
35.79981877804608
 20
26.13586936338251
 30
0.0
 11
35.80300667364887
 21
26.13402903042362
 31
0.0
  0
LINE
  5
2CF
330
1F
100
AcDbEntity
  8
0
  6
SLD-Solid
 62
     8
370
    25
100
AcDbLine
 10
35.98275055398635
 20
26.42217283867224
 30
0.0
 11
35.96952440553083
 21
26.42980813165384
 31
0.0
  0
LINE
  5
2D0
330
1F
100
AcDbEntity
  8
0
  6
SLD-Solid
 62
     8
370
    25
100
AcDbLine
 10
35.79628324414016
 20
26.11256466063154
 30
0.0
 11
35.79918641030617
 21
26.11088869847777
 31
0.0
  0
LINE
  5
2D1
330
1F
100
AcDbEntity
  8
0
  6
SLD-Solid
 62
     8
370
    25
100
AcDbLine
 10
38.49813825505392
 20
27.88954583559284
 30
0.0
 11
38.51407632452119
 21
27.88034498393503
 31
0.0
  0
LINE
  5
2D2
330
1F
100
AcDbEntity
  8
0
  6
SLD-Solid
 62
     8
370
    25
100
AcDbLine
 10
36.28404550180273
 20
26.56085452547728
 30
0.0
 11
36.28404550180274
 21
26.57305982674903
 31
0.0
  0
LINE
  5
2D3
330
1F
100
AcDbEntity
  8
0
  6
SLD-Solid
 62
     8
370
    25
100
AcDbLine
 10
43.4698060335766
 20
9.478804741552002
 30
0.0
 11
43.47349252755384
 21
9.480932909225743
 31
0.0
  0
LINE
  5
2D4
330
1F
100
AcDbEntity
  8
0
  6
SLD-Solid
 62
     8
370
    25
100
AcDbLine
 10
43.53549625579027
 20
9.46525682619011
 30
0.0
 11
43.52136713044264
 21
9.473413396635816
 31
0.0
  0
LINE
  5
2D5
330
1F
100
AcDbEntity
  8
0
  6
SLD-Solid
 62
     8
370
    25
100
AcDbLine
 10
46.24438697693547
 20
13.89631460179463
 30
0.0
 11
46.25495822331421
 21
13.89021195115875
 31
0.0
  0
MTEXT
  5
2D6
330
1F
100
AcDbEntity
  8
NOTES
100
AcDbMText
 10
42.45343902028539
 20
8.882624066098119
 30
0.0
 40
0.5
 41
0.0
 71
     1
 72
     1
  1
3D view
  7
SLDTEXTSTYLE1
 73
     1
 44
1.0
  0
LINE
  5
2D7
330
1F
100
AcDbEntity
  8
0
  6
SLD-Solid
 62
     7
370
    25
100
AcDbLine
 10
32.5777120840976
 20
7.367054320216647
 30
0.0
 11
32.5997120840976
 21
7.367054320216647
 31
0.0
  0
LINE
  5
2D8
330
1F
100
AcDbEntity
  8
0
  6
SLD-Solid
 62
     7
370
    25
100
AcDbLine
 10
32.5997120840976
 20
7.621054320216648
 30
0.0
 11
32.5777120840976
 21
7.621054320216648
 31
0.0
  0
LINE
  5
2D9
330
1F
100
AcDbEntity
  8
0
  6
SLD-Solid
 62
     7
370
    25
100
AcDbLine
 10
32.5997120840976
 20
7.367054320216647
 30
0.0
 11
32.6147120840976
 21
7.41611710949391
 31
0.0
  0
LINE
  5
2DA
330
1F
100
AcDbEntity
  8
0
  6
SLD-Solid
 62
     7
370
    25
100
AcDbLine
 10
32.6147120840976
 20
7.571991530939385
 30
0.0
 11
32.5997120840976
 21
7.621054320216648
 31
0.0
  0
ARC
  5
2DB
330
1F
100
AcDbEntity
  8
0
  6
SLD-Solid
 62
     7
370
    25
100
AcDbCircle
 10
32.4077120840976
 20
7.425054320216648
 30
0.0
 40
0.0149999999999997
100
AcDbArc
 50
179.9999999999996
 51
270.0000000000008
  0
ARC
  5
2DC
330
1F
100
AcDbEntity
  8
0
  6
SLD-Solid
 62
     7
370
    25
100
AcDbCircle
 10
32.4077120840976
 20
7.563054320216647
 30
0.0
 40
0.0150000000000006
100
AcDbArc
 50
90.0
 51
179.9999999999996
  0
LINE
  5
2DD
330
1F
100
AcDbEntity
  8
0
  6
SLD-Solid
 62
     7
370
    25
100
AcDbLine
 10
32.48571208409746
 20
7.578054320216648
 30
0.0
 11
32.4077120840976
 21
7.578054320216648
 31
0.0
  0
LINE
  5
2DE
330
1F
100
AcDbEntity
  8
0
  6
SLD-Solid
 62
     7
370
    25
100
AcDbLine
 10
32.4077120840976
 20
7.410054320216648
 30
0.0
 11
32.48571208409746
 21
7.410054320216647
 31
0.0
  0
ARC
  5
2DF
330
1F
100
AcDbEntity
  8
0
  6
SLD-Solid
 62
     7
370
    25
100
AcDbCircle
 10
32.5027120840976
 20
7.425054320216648
 30
0.0
 40
0.0150000000000006
100
AcDbArc
 50
329.3165828899902
 51
0.0000000000003976
  0
ARC
  5
2E0
330
1F
100
AcDbEntity
  8
0
  6
SLD-Solid
 62
     7
370
    25
100
AcDbCircle
 10
32.5027120840976
 20
7.563054320216647
 30
0.0
 40
0.0150000000000006
100
AcDbArc
 50
0.0000000000003976
 51
30.68341711002226
  0
LINE
  5
2E1
330
1F
100
AcDbEntity
  8
0
  6
SLD-Solid
 62
     7
370
    25
100
AcDbLine
 10
32.54781208409758
 20
7.556554320216646
 30
0.0
 11
32.5177120840976
 21
7.556554320216647
 31
0.0
  0
LINE
  5
2E2
330
1F
100
AcDbEntity
  8
0
  6
SLD-Solid
 62
     7
370
    25
100
AcDbLine
 10
32.5177120840976
 20
7.431554320216648
 30
0.0
 11
32.54781208409759
 21
7.431554320216648
 31
0.0
  0
LINE
  5
2E3
330
1F
100
AcDbEntity
  8
0
  6
SLD-Solid
 62
     7
370
    25
100
AcDbLine
 10
21.60791208409745
 20
7.621054320216659
 30
0.0
 11
21.58591208409745
 21
7.621054320216659
 31
0.0
  0
LINE
  5
2E4
330
1F
100
AcDbEntity
  8
0
  6
SLD-Solid
 62
     7
370
    25
100
AcDbLine
 10
21.58591208409745
 20
7.367054320216658
 30
0.0
 11
21.60791208409745
 21
7.367054320216658
 31
0.0
  0
LINE
  5
2E5
330
1F
100
AcDbEntity
  8
0
  6
SLD-Solid
 62
     7
370
    25
100
AcDbLine
 10
21.58591208409745
 20
7.621054320216659
 30
0.0
 11
21.57091208409745
 21
7.571991530939396
 31
0.0
  0
LINE
  5
2E6
330
1F
100
AcDbEntity
  8
0
  6
SLD-Solid
 62
     7
370
    25
100
AcDbLine
 10
21.57091208409745
 20
7.41611710949392
 30
0.0
 11
21.58591208409745
 21
7.367054320216658
 31
0.0
  0
ARC
  5
2E7
330
1F
100
AcDbEntity
  8
0
  6
SLD-Solid
 62
     7
370
    25
100
AcDbCircle
 10
21.77791208409745
 20
7.563054320216658
 30
0.0
 40
0.0150000000000015
100
AcDbArc
 50
0.0000000000003711
 51
90.0
  0
ARC
  5
2E8
330
1F
100
AcDbEntity
  8
0
  6
SLD-Solid
 62
     7
370
    25
100
AcDbCircle
 10
21.77791208409745
 20
7.425054320216659
 30
0.0
 40
0.0150000000000006
100
AcDbArc
 50
270.0000000000008
 51
0.0000000000003711
  0
LINE
  5
2E9
330
1F
100
AcDbEntity
  8
0
  6
SLD-Solid
 62
     7
370
    25
100
AcDbLine
 10
21.70771208409745
 20
7.410054320216658
 30
0.0
 11
21.77791208409745
 21
7.410054320216658
 31
0.0
  0
LINE
  5
2EA
330
1F
100
AcDbEntity
  8
0
  6
SLD-Solid
 62
     7
370
    25
100
AcDbLine
 10
21.77791208409745
 20
7.578054320216659
 30
0.0
 11
21.70771208409745
 21
7.578054320216659
 31
0.0
  0
ARC
  5
2EB
330
1F
100
AcDbEntity
  8
0
  6
SLD-Solid
 62
     7
370
    25
100
AcDbCircle
 10
21.68291208409745
 20
7.563054320216658
 30
0.0
 40
0.0150000000000016
100
AcDbArc
 50
109.8768740701005
 51
179.9999999999996
  0
ARC
  5
2EC
330
1F
100
AcDbEntity
  8
0
  6
SLD-Solid
 62
     7
370
    25
100
AcDbCircle
 10
21.68291208409745
 20
7.425054320216659
 30
0.0
 40
0.0150000000000016
100
AcDbArc
 50
179.9999999999996
 51
250.1231259299003
  0
LINE
  5
2ED
330
1F
100
AcDbEntity
  8
0
  6
SLD-Solid
 62
     7
370
    25
100
AcDbLine
 10
21.63781208409743
 20
7.431554320216659
 30
0.0
 11
21.66791208409745
 21
7.431554320216659
 31
0.0
  0
LINE
  5
2EE
330
1F
100
AcDbEntity
  8
0
  6
SLD-Solid
 62
     7
370
    25
100
AcDbLine
 10
21.66791208409745
 20
7.556554320216658
 30
0.0
 11
21.63781208409743
 21
7.556554320216658
 31
0.0
  0
ARC
  5
2EF
330
1F
100
AcDbEntity
  8
0
  6
SLD-Solid
 62
     7
370
    25
100
AcDbCircle
 10
26.69281208409757
 20
23.01395432021663
 30
0.0
 40
0.0500000000000043
100
AcDbArc
 50
90.0
 51
179.9999999999996
  0
ARC
  5
2F0
330
1F
100
AcDbEntity
  8
0
  6
SLD-Solid
 62
     7
370
    25
100
AcDbCircle
 10
27.49281208409757
 20
23.01395432021663
 30
0.0
 40
0.0500000000000043
100
AcDbArc
 50
0.0000000000006361
 51
90.0
  0
LINE
  5
2F1
330
1F
100
AcDbEntity
  8
0
  6
SLD-Solid
 62
     7
370
    25
100
AcDbLine
 10
27.54281208409757
 20
22.81395432021664
 30
0.0
 11
27.54281208409757
 21
23.01395432021663
 31
0.0
  0
LINE
  5
2F2
330
1F
100
AcDbEntity
  8
0
  6
SLD-Solid
 62
     7
370
    25
100
AcDbLine
 10
26.64281208409757
 20
23.01395432021663
 30
0.0
 11
26.64281208409757
 21
22.81395432021664
 31
0.0
  0
LINE
  5
2F3
330
1F
100
AcDbEntity
  8
0
  6
SLD-Solid
 62
     7
370
    25
100
AcDbLine
 10
27.24281208409757
 20
22.22795432021666
 30
0.0
 11
27.24281208409757
 21
22.28395432021656
 31
0.0
  0
LINE
  5
2F4
330
1F
100
AcDbEntity
  8
0
  6
SLD-Solid
 62
     7
370
    25
100
AcDbLine
 10
26.74160147862633
 20
22.38395432021657
 30
0.0
 11
26.74160147862633
 21
22.28395432021657
 31
0.0
  0
LINE
  5
2F5
330
1F
100
AcDbEntity
  8
0
  6
SLD-Solid
 62
     7
370
    25
100
AcDbLine
 10
27.41281208409757
 20
22.28395432021664
 30
0.0
 11
27.41281208409757
 21
22.38395432021664
 31
0.0
  0
LINE
  5
2F6
330
1F
100
AcDbEntity
  8
0
  6
SLD-Solid
 62
     7
370
    25
100
AcDbLine
 10
32.5997120840976
 20
7.375142004841681
 30
0.0
 11
32.5997120840976
 21
7.621054320216648
 31
0.0
  0
LINE
  5
2F7
330
1F
100
AcDbEntity
  8
0
  6
SLD-Solid
 62
     7
370
    25
100
AcDbLine
 10
32.5997120840976
 20
7.367054320216647
 30
0.0
 11
32.5997120840976
 21
7.375142004841681
 31
0.0
  0
LINE
  5
2F8
330
1F
100
AcDbEntity
  8
0
  6
SLD-Solid
 62
     7
370
    25
100
AcDbLine
 10
32.6147120840976
 20
7.421080350288243
 30
0.0
 11
32.6147120840976
 21
7.41611710949391
 31
0.0
  0
LINE
  5
2F9
330
1F
100
AcDbEntity
  8
0
  6
SLD-Solid
 62
     7
370
    25
100
AcDbLine
 10
32.6147120840976
 20
7.571991530939385
 30
0.0
 11
32.6147120840976
 21
7.421080350288243
 31
0.0
  0
LINE
  5
2FA
330
1F
100
AcDbEntity
  8
0
  6
SLD-Solid
 62
     7
370
    25
100
AcDbLine
 10
32.3927120840976
 20
7.425054320216648
 30
0.0
 11
32.3927120840976
 21
7.563054320216647
 31
0.0
  0
LINE
  5
2FB
330
1F
100
AcDbEntity
  8
0
  6
SLD-Solid
 62
     7
370
    25
100
AcDbLine
 10
32.5177120840976
 20
7.563054320216647
 30
0.0
 11
32.5177120840976
 21
7.425054320216648
 31
0.0
  0
LINE
  5
2FC
330
1F
100
AcDbEntity
  8
0
  6
SLD-Solid
 62
     7
370
    25
100
AcDbLine
 10
21.58591208409745
 20
7.494054320216659
 30
0.0
 11
21.58591208409745
 21
7.367054320216658
 31
0.0
  0
LINE
  5
2FD
330
1F
100
AcDbEntity
  8
0
  6
SLD-Solid
 62
     7
370
    25
100
AcDbLine
 10
21.58591208409745
 20
7.621054320216659
 30
0.0
 11
21.58591208409745
 21
7.494054320216659
 31
0.0
  0
LINE
  5
2FE
330
1F
100
AcDbEntity
  8
0
  6
SLD-Solid
 62
     7
370
    25
100
AcDbLine
 10
21.57091208409745
 20
7.494054320216659
 30
0.0
 11
21.57091208409745
 21
7.571991530939396
 31
0.0
  0
LINE
  5
2FF
330
1F
100
AcDbEntity
  8
0
  6
SLD-Solid
 62
     7
370
    25
100
AcDbLine
 10
21.57091208409745
 20
7.41611710949392
 30
0.0
 11
21.57091208409745
 21
7.494054320216659
 31
0.0
  0
LINE
  5
300
330
1F
100
AcDbEntity
  8
0
  6
SLD-Solid
 62
     7
370
    25
100
AcDbLine
 10
21.79291208409745
 20
7.563054320216658
 30
0.0
 11
21.79291208409745
 21
7.425054320216659
 31
0.0
  0
LINE
  5
301
330
1F
100
AcDbEntity
  8
0
  6
SLD-Solid
 62
     7
370
    25
100
AcDbLine
 10
21.66791208409745
 20
7.425054320216659
 30
0.0
 11
21.66791208409745
 21
7.563054320216658
 31
0.0
  0
LINE
  5
302
330
1F
100
AcDbEntity
  8
0
  6
SLD-Solid
 62
     7
370
    25
100
AcDbLine
 10
27.40881229075917
 20
22.53405432021674
 30
0.0
 11
27.80877589287334
 21
22.53405432021674
 31
0.0
  0
LINE
  5
303
330
1F
100
AcDbEntity
  8
0
  6
SLD-Solid
 62
     7
370
    25
100
AcDbLine
 10
27.07587168082221
 20
23.06395432021661
 30
0.0
 11
26.69281208409757
 21
23.06395432021664
 31
0.0
  0
LINE
  5
304
330
1F
100
AcDbEntity
  8
0
  6
SLD-Solid
 62
     7
370
    25
100
AcDbLine
 10
27.49281208409757
 20
23.06395432021664
 30
0.0
 11
27.07587168082221
 21
23.06395432021661
 31
0.0
  0
LINE
  5
305
330
1F
100
AcDbEntity
  8
0
  6
SLD-Solid
 62
     7
370
    25
100
AcDbLine
 10
27.53486352659144
 20
22.84295432021663
 30
0.0
 11
27.53486352659144
 21
22.81395432021663
 31
0.0
  0
LINE
  5
306
330
1F
100
AcDbEntity
  8
0
  6
SLD-Solid
 62
     7
370
    25
100
AcDbLine
 10
27.54240834120093
 20
22.81395432021664
 30
0.0
 11
27.54240834120093
 21
22.84295432021663
 31
0.0
  0
LINE
  5
307
330
1F
100
AcDbEntity
  8
0
  6
SLD-Solid
 62
     7
370
    25
100
AcDbLine
 10
27.53486352659144
 20
22.84295432021663
 30
0.0
 11
27.54240834120093
 21
22.84295432021663
 31
0.0
  0
LINE
  5
308
330
1F
100
AcDbEntity
  8
0
  6
SLD-Solid
 62
     7
370
    25
100
AcDbLine
 10
26.91282444433266
 20
22.73395432021661
 30
0.0
 11
27.24552567458915
 21
22.73395432021661
 31
0.0
  0
LINE
  5
309
330
1F
100
AcDbEntity
  8
0
  6
SLD-Solid
 62
     7
370
    25
100
AcDbLine
 10
27.24552567458915
 20
22.73395432021661
 30
0.0
 11
27.24552567458915
 21
22.78405432021663
 31
0.0
  0
LINE
  5
30A
330
1F
100
AcDbEntity
  8
0
  6
SLD-Solid
 62
     7
370
    25
100
AcDbLine
 10
27.39725133007446
 20
22.56395432021662
 30
0.0
 11
27.39725133007446
 21
22.78405432021663
 31
0.0
  0
LINE
  5
30B
330
1F
100
AcDbEntity
  8
0
  6
SLD-Solid
 62
     7
370
    25
100
AcDbLine
 10
26.77281208409758
 20
22.64805432021666
 30
0.0
 11
26.77281208409758
 21
22.78405432021663
 31
0.0
  0
LINE
  5
30C
330
1F
100
AcDbEntity
  8
0
  6
SLD-Solid
 62
     7
370
    25
100
AcDbLine
 10
26.91282444433266
 20
22.78405432021663
 30
0.0
 11
26.91282444433266
 21
22.73395432021661
 31
0.0
  0
LINE
  5
30D
330
1F
100
AcDbEntity
  8
0
  6
SLD-Solid
 62
     7
370
    25
100
AcDbLine
 10
27.18377589287336
 20
22.56395432021661
 30
0.0
 11
27.39725133007446
 21
22.56395432021662
 31
0.0
  0
LINE
  5
30E
330
1F
100
AcDbEntity
  8
0
  6
SLD-Solid
 62
     7
370
    25
100
AcDbLine
 10
27.40125112341284
 20
22.38395432021663
 30
0.0
 11
27.40125112341284
 21
22.56395432021663
 31
0.0
  0
LINE
  5
30F
330
1F
100
AcDbEntity
  8
0
  6
SLD-Solid
 62
     7
370
    25
100
AcDbLine
 10
27.41281208409756
 20
22.56395432021665
 30
0.0
 11
27.41281208409756
 21
22.78405432021663
 31
0.0
  0
LINE
  5
310
330
1F
100
AcDbEntity
  8
0
  6
SLD-Solid
 62
     7
370
    25
100
AcDbLine
 10
27.40881229075919
 20
22.56395432021664
 30
0.0
 11
27.41281208409756
 21
22.56395432021665
 31
0.0
  0
LINE
  5
311
330
1F
100
AcDbEntity
  8
0
  6
SLD-Solid
 62
     7
370
    25
100
AcDbLine
 10
27.40881229075919
 20
22.38395432021665
 30
0.0
 11
27.40881229075919
 21
22.56395432021664
 31
0.0
  0
LINE
  5
312
330
1F
100
AcDbEntity
  8
0
  6
SLD-Solid
 62
     7
370
    25
100
AcDbLine
 10
27.39725133007446
 20
22.56395432021662
 30
0.0
 11
27.40125112341284
 21
22.56395432021663
 31
0.0
  0
LINE
  5
313
330
1F
100
AcDbEntity
  8
0
  6
SLD-Solid
 62
     7
370
    25
100
AcDbLine
 10
27.05571260092454
 20
22.28395432021656
 30
0.0
 11
27.05571260092454
 21
22.38395432021656
 31
0.0
  0
LINE
  5
314
330
1F
100
AcDbEntity
  8
0
  6
SLD-Solid
 62
     7
370
    25
100
AcDbLine
 10
27.33893688544178
 20
22.28395432021657
 30
0.0
 11
27.05571260092454
 21
22.28395432021656
 31
0.0
  0
LINE
  5
315
330
1F
100
AcDbEntity
  8
0
  6
SLD-Solid
 62
     7
370
    25
100
AcDbLine
 10
27.33893688544178
 20
22.38395432021657
 30
0.0
 11
27.05571260092454
 21
22.38395432021656
 31
0.0
  0
LINE
  5
316
330
1F
100
AcDbEntity
  8
0
  6
SLD-Solid
 62
     7
370
    25
100
AcDbLine
 10
26.97455249813274
 20
22.38395432021656
 30
0.0
 11
26.97455249813274
 21
22.28395432021656
 31
0.0
  0
LINE
  5
317
330
1F
100
AcDbEntity
  8
0
  6
SLD-Solid
 62
     7
370
    25
100
AcDbLine
 10
27.05571260092454
 20
22.28395432021656
 30
0.0
 11
26.97455249813274
 21
22.28395432021656
 31
0.0
  0
LINE
  5
318
330
1F
100
AcDbEntity
  8
0
  6
SLD-Solid
 62
     7
370
    25
100
AcDbLine
 10
27.05571260092454
 20
22.38395432021656
 30
0.0
 11
26.97455249813274
 21
22.38395432021656
 31
0.0
  0
LINE
  5
319
330
1F
100
AcDbEntity
  8
0
  6
SLD-Solid
 62
     7
370
    25
100
AcDbLine
 10
26.97455249813274
 20
22.28395432021656
 30
0.0
 11
26.74607031020163
 21
22.28395432021657
 31
0.0
  0
LINE
  5
31A
330
1F
100
AcDbEntity
  8
0
  6
SLD-Solid
 62
     7
370
    25
100
AcDbLine
 10
26.97455249813274
 20
22.38395432021656
 30
0.0
 11
26.74607031020163
 21
22.38395432021657
 31
0.0
  0
LINE
  5
31B
330
1F
100
AcDbEntity
  8
0
  6
SLD-Solid
 62
     7
370
    25
100
AcDbLine
 10
27.38273822312449
 20
22.28395432021657
 30
0.0
 11
27.33893688544178
 21
22.28395432021657
 31
0.0
  0
LINE
  5
31C
330
1F
100
AcDbEntity
  8
0
  6
SLD-Solid
 62
     7
370
    25
100
AcDbLine
 10
27.33893688544178
 20
22.38395432021657
 30
0.0
 11
27.38273822312449
 21
22.38395432021657
 31
0.0
  0
LINE
  5
31D
330
1F
100
AcDbEntity
  8
0
  6
SLD-Solid
 62
     7
370
    25
100
AcDbLine
 10
26.74607031020163
 20
22.28395432021657
 30
0.0
 11
26.74160147862633
 21
22.28395432021657
 31
0.0
  0
LINE
  5
31E
330
1F
100
AcDbEntity
  8
0
  6
SLD-Solid
 62
     7
370
    25
100
AcDbLine
 10
26.74160147862633
 20
22.38395432021657
 30
0.0
 11
26.74607031020163
 21
22.38395432021657
 31
0.0
  0
LINE
  5
31F
330
1F
100
AcDbEntity
  8
0
  6
SLD-Solid
 62
     7
370
    25
100
AcDbLine
 10
27.41252497803774
 20
22.28395432021663
 30
0.0
 11
27.38273822312449
 21
22.28395432021657
 31
0.0
  0
LINE
  5
320
330
1F
100
AcDbEntity
  8
0
  6
SLD-Solid
 62
     7
370
    25
100
AcDbLine
 10
27.41252497803774
 20
22.38395432021664
 30
0.0
 11
27.38273822312449
 21
22.38395432021657
 31
0.0
  0
LINE
  5
321
330
1F
100
AcDbEntity
  8
0
  6
SLD-Solid
 62
     7
370
    25
100
AcDbLine
 10
27.41281208409757
 20
22.28395432021664
 30
0.0
 11
27.41252497803774
 21
22.28395432021663
 31
0.0
  0
LINE
  5
322
330
1F
100
AcDbEntity
  8
0
  6
SLD-Solid
 62
     7
370
    25
100
AcDbLine
 10
27.41281208409757
 20
22.38395432021664
 30
0.0
 11
27.41252497803774
 21
22.38395432021664
 31
0.0
  0
ARC
  5
323
330
1F
100
AcDbEntity
  8
0
  6
SLD-Solid
 62
     7
370
    25
100
AcDbCircle
 10
30.09671208409746
 20
11.59484923945977
 30
0.0
 40
0.2000000000000017
100
AcDbArc
 50
120.0000000000014
 51
60.00000000000039
  0
LINE
  5
324
330
1F
100
AcDbEntity
  8
0
  6
SLD-Solid
 62
     7
370
    25
100
AcDbLine
 10
30.19671208409746
 20
12.01805432021666
 30
0.0
 11
30.19671208409746
 21
11.76805432021666
 31
0.0
  0
ARC
  5
325
330
1F
100
AcDbEntity
  8
0
  6
SLD-Solid
 62
     7
370
    25
100
AcDbCircle
 10
30.09671208409746
 20
12.01805432021666
 30
0.0
 40
0.100000000000005
100
AcDbArc
 50
0.0
 51
179.999999999998
  0
LINE
  5
326
330
1F
100
AcDbEntity
  8
0
  6
SLD-Solid
 62
     7
370
    25
100
AcDbLine
 10
29.99671208409746
 20
11.76805432021666
 30
0.0
 11
29.99671208409746
 21
12.01805432021666
 31
0.0
  0
ARC
  5
327
330
1F
100
AcDbEntity
  8
0
  6
SLD-Solid
 62
     7
370
    25
100
AcDbCircle
 10
30.09671208409746
 20
18.59484923945977
 30
0.0
 40
0.1999999999999999
100
AcDbArc
 50
120.0000000000005
 51
60.00000000000039
  0
LINE
  5
328
330
1F
100
AcDbEntity
  8
0
  6
SLD-Solid
 62
     7
370
    25
100
AcDbLine
 10
30.19671208409746
 20
19.01805432021666
 30
0.0
 11
30.19671208409746
 21
18.76805432021666
 31
0.0
  0
ARC
  5
329
330
1F
100
AcDbEntity
  8
0
  6
SLD-Solid
 62
     7
370
    25
100
AcDbCircle
 10
30.09671208409746
 20
19.01805432021666
 30
0.0
 40
0.1000000000000014
100
AcDbArc
 50
0.0
 51
180.0
  0
LINE
  5
32A
330
1F
100
AcDbEntity
  8
0
  6
SLD-Solid
 62
     7
370
    25
100
AcDbLine
 10
29.99671208409746
 20
18.76805432021666
 30
0.0
 11
29.99671208409746
 21
19.01805432021666
 31
0.0
  0
LINE
  5
32B
330
1F
100
AcDbEntity
  8
0
  6
SLD-Solid
 62
     7
370
    25
100
AcDbLine
 10
30.95671208409746
 20
22.16805432021666
 30
0.0
 11
32.40671208409746
 21
22.16805432021666
 31
0.0
  0
ARC
  5
32C
330
1F
100
AcDbEntity
  8
0
  6
SLD-Solid
 62
     7
370
    25
100
AcDbCircle
 10
32.40671208409746
 20
22.11805432021666
 30
0.0
 40
0.0500000000000007
100
AcDbArc
 50
0.0
 51
90.0
  0
LINE
  5
32D
330
1F
100
AcDbEntity
  8
0
  6
SLD-Solid
 62
     7
370
    25
100
AcDbLine
 10
32.45671208409746
 20
22.11805432021666
 30
0.0
 11
32.45671208409746
 21
22.01805432021666
 31
0.0
  0
LINE
  5
32E
330
1F
100
AcDbEntity
  8
0
  6
SLD-Solid
 62
     7
370
    25
100
AcDbLine
 10
32.60571208409747
 20
22.01805432021666
 30
0.0
 11
32.45671208409746
 21
22.01805432021666
 31
0.0
  0
ARC
  5
32F
330
1F
100
AcDbEntity
  8
0
  6
SLD-Solid
 62
     7
370
    25
100
AcDbCircle
 10
32.60571208409747
 20
21.96805432021666
 30
0.0
 40
0.0500000000000007
100
AcDbArc
 50
0.0
 51
90.0
  0
LINE
  5
330
330
1F
100
AcDbEntity
  8
0
  6
SLD-Solid
 62
     7
370
    25
100
AcDbLine
 10
32.65571208409746
 20
21.96805432021666
 30
0.0
 11
32.65571208409746
 21
21.69305432021666
 31
0.0
  0
ARC
  5
331
330
1F
100
AcDbEntity
  8
0
  6
SLD-Solid
 62
     7
370
    25
100
AcDbCircle
 10
32.60571208409747
 20
21.69305432021666
 30
0.0
 40
0.0500000000000007
100
AcDbArc
 50
270.0000000000008
 51
0.0
  0
LINE
  5
332
330
1F
100
AcDbEntity
  8
0
  6
SLD-Solid
 62
     7
370
    25
100
AcDbLine
 10
32.60571208409747
 20
21.64305432021666
 30
0.0
 11
32.45671208409746
 21
21.64305432021666
 31
0.0
  0
LINE
  5
333
330
1F
100
AcDbEntity
  8
0
  6
SLD-Solid
 62
     7
370
    25
100
AcDbLine
 10
32.45671208409746
 20
21.51805432021666
 30
0.0
 11
32.45671208409746
 21
21.64305432021666
 31
0.0
  0
ARC
  5
334
330
1F
100
AcDbEntity
  8
0
  6
SLD-Solid
 62
     7
370
    25
100
AcDbCircle
 10
32.48561208409745
 20
11.25800018991256
 30
0.0
 40
0.0499999999999972
100
AcDbArc
 50
125.3099958952125
 51
180.0
  0
LINE
  5
335
330
1F
100
AcDbEntity
  8
0
  6
SLD-Solid
 62
     7
370
    25
100
AcDbLine
 10
32.43561208409746
 20
10.1144120474571
 30
0.0
 11
32.43561208409746
 21
11.25800018991256
 31
0.0
  0
ARC
  5
336
330
1F
100
AcDbEntity
  8
0
  6
SLD-Solid
 62
     7
370
    25
100
AcDbCircle
 10
32.48561208409746
 20
10.1144120474571
 30
0.0
 40
0.0500000000000043
100
AcDbArc
 50
180.0
 51
234.6900041047817
  0
ARC
  5
337
330
1F
100
AcDbEntity
  8
0
  6
SLD-Solid
 62
     7
370
    25
100
AcDbCircle
 10
21.70781208409746
 20
10.1144120474571
 30
0.0
 40
0.0500000000000007
100
AcDbArc
 50
305.3099958952212
 51
0.0
  0
LINE
  5
338
330
1F
100
AcDbEntity
  8
0
  6
SLD-Solid
 62
     7
370
    25
100
AcDbLine
 10
21.75781208409746
 20
10.1144120474571
 30
0.0
 11
21.75781208409746
 21
11.25800018991257
 31
0.0
  0
ARC
  5
339
330
1F
100
AcDbEntity
  8
0
  6
SLD-Solid
 62
     7
370
    25
100
AcDbCircle
 10
21.70781208409746
 20
11.25800018991257
 30
0.0
 40
0.0500000000000007
100
AcDbArc
 50
0.0
 51
54.69000410477967
  0
LINE
  5
33A
330
1F
100
AcDbEntity
  8
0
  6
SLD-Solid
 62
     7
370
    25
100
AcDbLine
 10
21.73671208409746
 20
21.51805432021666
 30
0.0
 11
21.73671208409746
 21
21.64305432021666
 31
0.0
  0
LINE
  5
33B
330
1F
100
AcDbEntity
  8
0
  6
SLD-Solid
 62
     7
370
    25
100
AcDbLine
 10
21.58771208409746
 20
21.64305432021666
 30
0.0
 11
21.73671208409746
 21
21.64305432021666
 31
0.0
  0
ARC
  5
33C
330
1F
100
AcDbEntity
  8
0
  6
SLD-Solid
 62
     7
370
    25
100
AcDbCircle
 10
21.58771208409746
 20
21.69305432021666
 30
0.0
 40
0.0500000000000007
100
AcDbArc
 50
180.0
 51
270.0000000000008
  0
LINE
  5
33D
330
1F
100
AcDbEntity
  8
0
  6
SLD-Solid
 62
     7
370
    25
100
AcDbLine
 10
21.53771208409746
 20
21.96805432021666
 30
0.0
 11
21.53771208409746
 21
21.69305432021666
 31
0.0
  0
ARC
  5
33E
330
1F
100
AcDbEntity
  8
0
  6
SLD-Solid
 62
     7
370
    25
100
AcDbCircle
 10
21.58771208409746
 20
21.96805432021666
 30
0.0
 40
0.0500000000000007
100
AcDbArc
 50
90.0
 51
180.0
  0
LINE
  5
33F
330
1F
100
AcDbEntity
  8
0
  6
SLD-Solid
 62
     7
370
    25
100
AcDbLine
 10
21.58771208409746
 20
22.01805432021666
 30
0.0
 11
21.73671208409746
 21
22.01805432021666
 31
0.0
  0
LINE
  5
340
330
1F
100
AcDbEntity
  8
0
  6
SLD-Solid
 62
     7
370
    25
100
AcDbLine
 10
21.73671208409746
 20
22.11805432021666
 30
0.0
 11
21.73671208409746
 21
22.01805432021666
 31
0.0
  0
ARC
  5
341
330
1F
100
AcDbEntity
  8
0
  6
SLD-Solid
 62
     7
370
    25
100
AcDbCircle
 10
21.78671208409746
 20
22.11805432021666
 30
0.0
 40
0.0500000000000043
100
AcDbArc
 50
90.0
 51
180.0
  0
LINE
  5
342
330
1F
100
AcDbEntity
  8
0
  6
SLD-Solid
 62
     7
370
    25
100
AcDbLine
 10
23.23671208409746
 20
22.16805432021666
 30
0.0
 11
21.78671208409746
 21
22.16805432021666
 31
0.0
  0
ARC
  5
343
330
1F
100
AcDbEntity
  8
0
  6
SLD-Solid
 62
     7
370
    25
100
AcDbCircle
 10
24.09671208409746
 20
12.01805432021666
 30
0.0
 40
0.1000000000000014
100
AcDbArc
 50
0.0
 51
180.0
  0
LINE
  5
344
330
1F
100
AcDbEntity
  8
0
  6
SLD-Solid
 62
     7
370
    25
100
AcDbLine
 10
23.99671208409746
 20
12.01805432021666
 30
0.0
 11
23.99671208409746
 21
11.76805432021666
 31
0.0
  0
ARC
  5
345
330
1F
100
AcDbEntity
  8
0
  6
SLD-Solid
 62
     7
370
    25
100
AcDbCircle
 10
24.09671208409746
 20
11.59484923945977
 30
0.0
 40
0.1999999999999999
100
AcDbArc
 50
120.0000000000005
 51
60.00000000000039
  0
LINE
  5
346
330
1F
100
AcDbEntity
  8
0
  6
SLD-Solid
 62
     7
370
    25
100
AcDbLine
 10
24.19671208409746
 20
11.76805432021666
 30
0.0
 11
24.19671208409746
 21
12.01805432021666
 31
0.0
  0
ARC
  5
347
330
1F
100
AcDbEntity
  8
0
  6
SLD-Solid
 62
     7
370
    25
100
AcDbCircle
 10
24.09671208409746
 20
19.01805432021666
 30
0.0
 40
0.100000000000005
100
AcDbArc
 50
0.0
 51
180.0
  0
LINE
  5
348
330
1F
100
AcDbEntity
  8
0
  6
SLD-Solid
 62
     7
370
    25
100
AcDbLine
 10
23.99671208409746
 20
19.01805432021666
 30
0.0
 11
23.99671208409746
 21
18.76805432021666
 31
0.0
  0
ARC
  5
349
330
1F
100
AcDbEntity
  8
0
  6
SLD-Solid
 62
     7
370
    25
100
AcDbCircle
 10
24.09671208409746
 20
18.59484923945977
 30
0.0
 40
0.2000000000000017
100
AcDbArc
 50
120.0000000000014
 51
60.00000000000039
  0
LINE
  5
34A
330
1F
100
AcDbEntity
  8
0
  6
SLD-Solid
 62
     7
370
    25
100
AcDbLine
 10
24.19671208409746
 20
18.76805432021666
 30
0.0
 11
24.19671208409746
 21
19.01805432021666
 31
0.0
  0
CIRCLE
  5
34B
330
1F
100
AcDbEntity
  8
0
  6
SLD-Solid
 62
     7
370
    25
100
AcDbCircle
 10
27.04201283198823
 20
19.01805432021666
 30
0.0
 40
0.100000000000005
  0
LINE
  5
34C
330
1F
100
AcDbEntity
  8
0
  6
SLD-Solid
 62
     7
370
    25
100
AcDbLine
 10
32.48561208409745
 20
11.30800018991256
 30
0.0
 11
32.51561208409746
 21
11.30800018991257
 31
0.0
  0
SPLINE
  5
34D
330
1F
100
AcDbEntity
  8
0
  6
SLD-Solid
 62
     7
370
    25
100
AcDbSpline
210
0.0
220
0.0
230
1.0
 70
    12
 71
     3
 72
    10
 73
     6
 74
     0
 42
0.00000001
 43
0.00000001
 40
0.0
 40
0.0
 40
0.0
 40
0.0
 40
0.4269153222211476
 40
0.854514480226653
 40
1.0
 40
1.0
 40
1.0
 40
1.0
 10
32.48561208409745
 20
11.30800018991256
 30
0.0
 41
1.0
 10
32.4814772274988
 20
11.30771580554913
 30
0.0
 41
1.0
 10
32.47320089106086
 20
11.30714658129351
 30
0.0
 41
1.0
 10
32.46308017835489
 20
11.30303960018287
 30
0.0
 41
1.0
 10
32.45800140211561
 20
11.29965998934422
 30
0.0
 41
1.0
 10
32.45671208409746
 20
11.29880202810645
 30
0.0
 41
1.0
  0
LINE
  5
34E
330
1F
100
AcDbEntity
  8
0
  6
SLD-Solid
 62
     7
370
    25
100
AcDbLine
 10
32.51561208409746
 20
21.51805432021666
 30
0.0
 11
32.51561208409746
 21
11.30800018991257
 31
0.0
  0
LINE
  5
34F
330
1F
100
AcDbEntity
  8
0
  6
SLD-Solid
 62
     7
370
    25
100
AcDbLine
 10
32.51561208409746
 20
21.51805432021666
 30
0.0
 11
32.45671208409746
 21
21.51805432021666
 31
0.0
  0
LINE
  5
350
330
1F
100
AcDbEntity
  8
0
  6
SLD-Solid
 62
     7
370
    25
100
AcDbLine
 10
23.23671208409746
 20
22.16805432021666
 30
0.0
 11
23.23671208409746
 21
22.22795432021666
 31
0.0
  0
LINE
  5
351
330
1F
100
AcDbEntity
  8
0
  6
SLD-Solid
 62
     7
370
    25
100
AcDbLine
 10
30.95671208409746
 20
22.22795432021666
 30
0.0
 11
23.23671208409746
 21
22.22795432021666
 31
0.0
  0
LINE
  5
352
330
1F
100
AcDbEntity
  8
0
  6
SLD-Solid
 62
     7
370
    25
100
AcDbLine
 10
30.95671208409746
 20
22.16805432021666
 30
0.0
 11
30.95671208409746
 21
22.22795432021666
 31
0.0
  0
LINE
  5
353
330
1F
100
AcDbEntity
  8
0
  6
SLD-Solid
 62
     7
370
    25
100
AcDbLine
 10
21.67781208409746
 20
21.51805432021666
 30
0.0
 11
21.73671208409746
 21
21.51805432021666
 31
0.0
  0
SPLINE
  5
354
330
1F
100
AcDbEntity
  8
0
  6
SLD-Solid
 62
     7
370
    25
100
AcDbSpline
210
0.0
220
0.0
230
1.0
 70
    12
 71
     3
 72
    10
 73
     6
 74
     0
 42
0.00000001
 43
0.00000001
 40
0.0
 40
0.0
 40
0.0
 40
0.0
 40
0.4269153222211789
 40
0.854514480226653
 40
1.0
 40
1.0
 40
1.0
 40
1.0
 10
21.70781208409746
 20
11.30800018991257
 30
0.0
 41
1.0
 10
21.71194694069612
 20
11.30771580554913
 30
0.0
 41
1.0
 10
21.72022327713406
 20
11.30714658129351
 30
0.0
 41
1.0
 10
21.73034398984001
 20
11.30303960018287
 30
0.0
 41
1.0
 10
21.73542276607931
 20
11.29965998934422
 30
0.0
 41
1.0
 10
21.73671208409746
 20
11.29880202810645
 30
0.0
 41
1.0
  0
LINE
  5
355
330
1F
100
AcDbEntity
  8
0
  6
SLD-Solid
 62
     7
370
    25
100
AcDbLine
 10
21.70781208409746
 20
11.30800018991257
 30
0.0
 11
21.67781208409746
 21
11.30800018991257
 31
0.0
  0
LINE
  5
356
330
1F
100
AcDbEntity
  8
0
  6
SLD-Solid
 62
     7
370
    25
100
AcDbLine
 10
21.67781208409746
 20
21.51805432021666
 30
0.0
 11
21.67781208409746
 21
11.30800018991257
 31
0.0
  0
SPLINE
  5
357
330
1F
100
AcDbEntity
  8
0
  6
SLD-Solid
 62
     7
370
    25
100
AcDbSpline
210
0.0
220
0.0
230
1.0
 70
    12
 71
     3
 72
    10
 73
     6
 74
     0
 42
0.00000001
 43
0.00000001
 40
0.0
 40
0.0
 40
0.0
 40
0.0
 40
0.4268363521119172
 40
0.8543491596670062
 40
1.0
 40
1.0
 40
1.0
 40
1.0
 10
32.45671208409746
 20
10.07361020926322
 30
0.0
 41
1.0
 10
32.46065231620801
 20
10.07127185942099
 30
0.0
 41
1.0
 10
32.4685390249569
 20
10.06659145389128
 30
0.0
 41
1.0
 10
32.47885535841525
 20
10.06458749863365
 30
0.0
 41
1.0
 10
32.48424299264251
 20
10.06444759850917
 30
0.0
 41
1.0
 10
32.48561208409746
 20
10.0644120474571
 30
0.0
 41
1.0
  0
LINE
  5
358
330
1F
100
AcDbEntity
  8
0
  6
SLD-Solid
 62
     7
370
    25
100
AcDbLine
 10
32.51561208409746
 20
10.0644120474571
 30
0.0
 11
32.48561208409746
 21
10.0644120474571
 31
0.0
  0
LINE
  5
359
330
1F
100
AcDbEntity
  8
0
  6
SLD-Solid
 62
     7
370
    25
100
AcDbLine
 10
32.51561208409746
 20
10.0644120474571
 30
0.0
 11
32.51561208409746
 21
7.718054320216659
 31
0.0
  0
LINE
  5
35A
330
1F
100
AcDbEntity
  8
0
  6
SLD-Solid
 62
     7
370
    25
100
AcDbLine
 10
32.45671208409746
 20
7.718054320216659
 30
0.0
 11
32.45671208409746
 21
7.747954320216659
 31
0.0
  0
LINE
  5
35B
330
1F
100
AcDbEntity
  8
0
  6
SLD-Solid
 62
     7
370
    25
100
AcDbLine
 10
32.45671208409745
 20
7.718054320216659
 30
0.0
 11
32.51561208409746
 21
7.718054320216659
 31
0.0
  0
LINE
  5
35C
330
1F
100
AcDbEntity
  8
0
  6
SLD-Solid
 62
     7
370
    25
100
AcDbLine
 10
32.45671208409746
 20
7.688154320216658
 30
0.0
 11
32.45671208409746
 21
7.718054320216659
 31
0.0
  0
LINE
  5
35D
330
1F
100
AcDbEntity
  8
0
  6
SLD-Solid
 62
     7
370
    25
100
AcDbLine
 10
32.45671208409746
 20
7.688154320216658
 30
0.0
 11
32.43561208409746
 21
7.688154320216658
 31
0.0
  0
LINE
  5
35E
330
1F
100
AcDbEntity
  8
0
  6
SLD-Solid
 62
     7
370
    25
100
AcDbLine
 10
21.75781208409746
 20
7.688154320216659
 30
0.0
 11
32.43561208409746
 21
7.688154320216658
 31
0.0
  0
LINE
  5
35F
330
1F
100
AcDbEntity
  8
0
  6
SLD-Solid
 62
     7
370
    25
100
AcDbLine
 10
21.73671208409746
 20
7.688154320216659
 30
0.0
 11
21.75781208409746
 21
7.688154320216659
 31
0.0
  0
LINE
  5
360
330
1F
100
AcDbEntity
  8
0
  6
SLD-Solid
 62
     7
370
    25
100
AcDbLine
 10
21.73671208409746
 20
7.688154320216659
 30
0.0
 11
21.73671208409746
 21
7.718054320216661
 31
0.0
  0
LINE
  5
361
330
1F
100
AcDbEntity
  8
0
  6
SLD-Solid
 62
     7
370
    25
100
AcDbLine
 10
21.67781208409746
 20
10.0644120474571
 30
0.0
 11
21.67781208409746
 21
7.718054320216661
 31
0.0
  0
LINE
  5
362
330
1F
100
AcDbEntity
  8
0
  6
SLD-Solid
 62
     7
370
    25
100
AcDbLine
 10
21.67781208409746
 20
10.0644120474571
 30
0.0
 11
21.70781208409746
 21
10.0644120474571
 31
0.0
  0
SPLINE
  5
363
330
1F
100
AcDbEntity
  8
0
  6
SLD-Solid
 62
     7
370
    25
100
AcDbSpline
210
0.0
220
0.0
230
1.0
 70
    12
 71
     3
 72
    10
 73
     6
 74
     0
 42
0.00000001
 43
0.00000001
 40
0.0
 40
0.0
 40
0.0
 40
0.0
 40
0.4268363521119432
 40
0.8543491596670041
 40
0.9999999999999999
 40
0.9999999999999999
 40
0.9999999999999999
 40
0.9999999999999999
 10
21.73671208409746
 20
10.07361020926322
 30
0.0
 41
1.0
 10
21.7327718519869
 20
10.071271859421
 30
0.0
 41
1.0
 10
21.72488514323802
 20
10.06659145389128
 30
0.0
 41
1.0
 10
21.71456880977967
 20
10.06458749863365
 30
0.0
 41
1.0
 10
21.7091811755524
 20
10.06444759850918
 30
0.0
 41
1.0
 10
21.70781208409746
 20
10.0644120474571
 30
0.0
 41
1.0
  0
LINE
  5
364
330
1F
100
AcDbEntity
  8
0
  6
SLD-Solid
 62
     7
370
    25
100
AcDbLine
 10
21.73671208409746
 20
7.718054320216661
 30
0.0
 11
21.73671208409746
 21
7.74795432021666
 31
0.0
  0
LINE
  5
365
330
1F
100
AcDbEntity
  8
0
  6
SLD-Solid
 62
     7
370
    25
100
AcDbLine
 10
21.73671208409746
 20
7.718054320216661
 30
0.0
 11
21.67781208409746
 21
7.718054320216661
 31
0.0
  0
LINE
  5
366
330
1F
100
AcDbEntity
  8
0
  6
SLD-Solid
 62
     7
370
    25
100
AcDbLine
 10
32.48571208409748
 20
10.0644120474571
 30
0.0
 11
32.48571208409746
 21
10.21322049525667
 31
0.0
  0
LINE
  5
367
330
1F
100
AcDbEntity
  8
0
  6
SLD-Solid
 62
     7
370
    25
100
AcDbLine
 10
32.51561208409746
 20
10.0644120474571
 30
0.0
 11
32.51561208409746
 21
10.21322049525667
 31
0.0
  0
LINE
  5
368
330
1F
100
AcDbEntity
  8
0
  6
SLD-Solid
 62
     7
370
    25
100
AcDbLine
 10
21.67781208409746
 20
10.0644120474571
 30
0.0
 11
21.67781208409746
 21
10.21322049525668
 31
0.0
  0
LINE
  5
369
330
1F
100
AcDbEntity
  8
0
  6
SLD-Solid
 62
     7
370
    25
100
AcDbLine
 10
21.70771208409744
 20
10.0644120474571
 30
0.0
 11
21.70771208409746
 21
10.21322049525668
 31
0.0
  0
LINE
  5
36A
330
1F
100
AcDbEntity
  8
0
  6
SLD-Solid
 62
     7
370
    25
100
AcDbLine
 10
30.95671208409746
 20
22.25795432021666
 30
0.0
 11
30.95671208409746
 21
22.22795432021666
 31
0.0
  0
LINE
  5
36B
330
1F
100
AcDbEntity
  8
0
  6
SLD-Solid
 62
     7
370
    25
100
AcDbLine
 10
27.80877589287336
 20
22.25795432021666
 30
0.0
 11
27.80877589287336
 21
22.22795432021666
 31
0.0
  0
LINE
  5
36C
330
1F
100
AcDbEntity
  8
0
  6
SLD-Solid
 62
     7
370
    25
100
AcDbLine
 10
23.23671208409746
 20
22.25795432021666
 30
0.0
 11
23.23671208409746
 21
22.22795432021666
 31
0.0
  0
LINE
  5
36D
330
1F
100
AcDbEntity
  8
0
  6
SLD-Solid
 62
     7
370
    25
100
AcDbLine
 10
27.18377589287336
 20
22.22795432021666
 30
0.0
 11
27.18377589287336
 21
22.25795432021666
 31
0.0
  0
ARC
  5
36E
330
1F
100
AcDbEntity
  8
0
  6
SLD-Solid
 62
     7
370
    25
100
AcDbCircle
 10
30.80671208409746
 20
22.49805432021666
 30
0.0
 40
0.1499999999999986
100
AcDbArc
 50
359.9999999999994
 51
90.0
  0
ARC
  5
36F
330
1F
100
AcDbEntity
  8
0
  6
SLD-Solid
 62
     7
370
    25
100
AcDbCircle
 10
27.84877589287336
 20
22.60805432021666
 30
0.0
 40
0.0400000000000027
100
AcDbArc
 50
90.0
 51
180.0
  0
LINE
  5
370
330
1F
100
AcDbEntity
  8
0
  6
SLD-Solid
 62
     7
370
    25
100
AcDbLine
 10
27.84877589287336
 20
22.64805432021666
 30
0.0
 11
30.80671208409746
 21
22.64805432021666
 31
0.0
  0
LINE
  5
371
330
1F
100
AcDbEntity
  8
0
  6
SLD-Solid
 62
     7
370
    25
100
AcDbLine
 10
30.95671208409746
 20
22.25795432021666
 30
0.0
 11
30.95671208409746
 21
22.49805432021666
 31
0.0
  0
LINE
  5
372
330
1F
100
AcDbEntity
  8
0
  6
SLD-Solid
 62
     7
370
    25
100
AcDbLine
 10
27.80877589287336
 20
22.25795432021666
 30
0.0
 11
27.80877589287336
 21
22.60805432021666
 31
0.0
  0
LINE
  5
373
330
1F
100
AcDbEntity
  8
0
  6
SLD-Solid
 62
     7
370
    25
100
AcDbLine
 10
23.23671208409746
 20
22.25795432021666
 30
0.0
 11
23.23671208409746
 21
22.49805432021666
 31
0.0
  0
ARC
  5
374
330
1F
100
AcDbEntity
  8
0
  6
SLD-Solid
 62
     7
370
    25
100
AcDbCircle
 10
23.38671208409746
 20
22.49805432021666
 30
0.0
 40
0.1499999999999986
100
AcDbArc
 50
90.0
 51
180.0
  0
LINE
  5
375
330
1F
100
AcDbEntity
  8
0
  6
SLD-Solid
 62
     7
370
    25
100
AcDbLine
 10
23.38671208409746
 20
22.64805432021666
 30
0.0
 11
27.14377589287336
 21
22.64805432021666
 31
0.0
  0
ARC
  5
376
330
1F
100
AcDbEntity
  8
0
  6
SLD-Solid
 62
     7
370
    25
100
AcDbCircle
 10
27.14377589287336
 20
22.60805432021666
 30
0.0
 40
0.0400000000000027
100
AcDbArc
 50
0.0
 51
90.0
  0
LINE
  5
377
330
1F
100
AcDbEntity
  8
0
  6
SLD-Solid
 62
     7
370
    25
100
AcDbLine
 10
27.18377589287336
 20
22.60805432021666
 30
0.0
 11
27.18377589287336
 21
22.3839543202166
 31
0.0
  0
LINE
  5
378
330
1F
100
AcDbEntity
  8
0
  6
SLD-Solid
 62
     7
370
    25
100
AcDbLine
 10
27.18377589287336
 20
22.2839543202166
 30
0.0
 11
27.18377589287336
 21
22.25795432021666
 31
0.0
  0
LINE
  5
379
330
1F
100
AcDbEntity
  8
0
  6
SLD-Solid
 62
     7
370
    25
100
AcDbLine
 10
32.48571208409746
 20
7.718054320216659
 30
0.0
 11
32.48571208409746
 21
7.700687995749961
 31
0.0
  0
LINE
  5
37A
330
1F
100
AcDbEntity
  8
0
  6
SLD-Solid
 62
     7
370
    25
100
AcDbLine
 10
32.51561208409746
 20
7.700687995749961
 30
0.0
 11
32.51561208409746
 21
7.718054320216659
 31
0.0
  0
LINE
  5
37B
330
1F
100
AcDbEntity
  8
0
  6
SLD-Solid
 62
     7
370
    25
100
AcDbLine
 10
21.67781208409745
 20
7.700687995749962
 30
0.0
 11
21.67781208409745
 21
7.718054320216661
 31
0.0
  0
LINE
  5
37C
330
1F
100
AcDbEntity
  8
0
  6
SLD-Solid
 62
     7
370
    25
100
AcDbLine
 10
21.70771208409745
 20
7.718054320216661
 30
0.0
 11
21.70771208409745
 21
7.700687995749962
 31
0.0
  0
LINE
  5
37D
330
1F
100
AcDbEntity
  8
0
  6
SLD-Solid
 62
     7
370
    25
100
AcDbLine
 10
32.48571208409747
 20
7.380420644683357
 30
0.0
 11
32.48571208409746
 21
7.700687995749961
 31
0.0
  0
LINE
  5
37E
330
1F
100
AcDbEntity
  8
0
  6
SLD-Solid
 62
     7
370
    25
100
AcDbLine
 10
32.51561208409747
 20
7.380420644683357
 30
0.0
 11
32.51561208409746
 21
7.700687995749961
 31
0.0
  0
LINE
  5
37F
330
1F
100
AcDbEntity
  8
0
  6
SLD-Solid
 62
     7
370
    25
100
AcDbLine
 10
21.67781208409745
 20
7.380420644683359
 30
0.0
 11
21.67781208409745
 21
7.700687995749962
 31
0.0
  0
LINE
  5
380
330
1F
100
AcDbEntity
  8
0
  6
SLD-Solid
 62
     7
370
    25
100
AcDbLine
 10
21.70771208409745
 20
7.380420644683359
 30
0.0
 11
21.70771208409745
 21
7.700687995749962
 31
0.0
  0
LINE
  5
381
330
1F
100
AcDbEntity
  8
0
  6
SLD-Solid
 62
     7
370
    25
100
AcDbLine
 10
32.48571208409747
 20
7.363054320216659
 30
0.0
 11
32.51561208409747
 21
7.363054320216659
 31
0.0
  0
LINE
  5
382
330
1F
100
AcDbEntity
  8
0
  6
SLD-Solid
 62
     7
370
    25
100
AcDbLine
 10
32.48571208409747
 20
7.380420644683357
 30
0.0
 11
32.48571208409747
 21
7.363054320216659
 31
0.0
  0
LINE
  5
383
330
1F
100
AcDbEntity
  8
0
  6
SLD-Solid
 62
     7
370
    25
100
AcDbLine
 10
32.51561208409747
 20
7.363054320216659
 30
0.0
 11
32.51561208409747
 21
7.380420644683357
 31
0.0
  0
LINE
  5
384
330
1F
100
AcDbEntity
  8
0
  6
SLD-Solid
 62
     7
370
    25
100
AcDbLine
 10
21.70771208409745
 20
7.363054320216661
 30
0.0
 11
21.67781208409745
 21
7.363054320216661
 31
0.0
  0
LINE
  5
385
330
1F
100
AcDbEntity
  8
0
  6
SLD-Solid
 62
     7
370
    25
100
AcDbLine
 10
21.67781208409745
 20
7.363054320216661
 30
0.0
 11
21.67781208409745
 21
7.380420644683359
 31
0.0
  0
LINE
  5
386
330
1F
100
AcDbEntity
  8
0
  6
SLD-Solid
 62
     7
370
    25
100
AcDbLine
 10
21.70771208409745
 20
7.380420644683359
 30
0.0
 11
21.70771208409745
 21
7.363054320216661
 31
0.0
  0
ARC
  5
387
330
1F
100
AcDbEntity
  8
0
  6
SLD-Solid
 62
     7
370
    25
100
AcDbCircle
 10
32.42191208409746
 20
7.74795432021665
 30
0.0
 40
0.059799999999997
100
AcDbArc
 50
305.5870937653838
 51
330.0000000000094
  0
ARC
  5
388
330
1F
100
AcDbEntity
  8
0
  6
SLD-Solid
 62
     7
370
    25
100
AcDbCircle
 10
21.77151208409746
 20
7.747954320216652
 30
0.0
 40
0.0598000000000005
100
AcDbArc
 50
209.9999999999912
 51
234.4129062346037
  0
LINE
  5
389
330
1F
100
AcDbEntity
  8
0
  6
SLD-Solid
 62
     7
370
    25
100
AcDbLine
 10
32.48571208409747
 20
11.11042049525667
 30
0.0
 11
32.48571208409747
 21
11.30800018991256
 31
0.0
  0
LINE
  5
38A
330
1F
100
AcDbEntity
  8
0
  6
SLD-Solid
 62
     7
370
    25
100
AcDbLine
 10
32.51561208409747
 20
11.11042049525667
 30
0.0
 11
32.51561208409747
 21
11.30800018991256
 31
0.0
  0
LINE
  5
38B
330
1F
100
AcDbEntity
  8
0
  6
SLD-Solid
 62
     7
370
    25
100
AcDbLine
 10
21.67781208409745
 20
11.11042049525668
 30
0.0
 11
21.67781208409745
 21
11.30800018991257
 31
0.0
  0
LINE
  5
38C
330
1F
100
AcDbEntity
  8
0
  6
SLD-Solid
 62
     7
370
    25
100
AcDbLine
 10
21.70771208409745
 20
11.11042049525668
 30
0.0
 11
21.70771208409744
 21
11.30800018991257
 31
0.0
  0
LINE
  5
38D
330
1F
100
AcDbEntity
  8
0
  6
SLD-Solid
 62
     7
370
    25
100
AcDbLine
 10
32.5777120840976
 20
22.27981597562689
 30
0.0
 11
32.47056402868898
 21
22.27981597562689
 31
0.0
  0
LINE
  5
38E
330
1F
100
AcDbEntity
  8
0
  6
SLD-Solid
 62
     7
370
    25
100
AcDbLine
 10
32.5777120840976
 20
22.0298159756269
 30
0.0
 11
32.5777120840976
 21
22.27981597562689
 31
0.0
  0
LINE
  5
38F
330
1F
100
AcDbEntity
  8
0
  6
SLD-Solid
 62
     7
370
    25
100
AcDbLine
 10
32.47056402868898
 20
22.02981597562689
 30
0.0
 11
32.5777120840976
 21
22.0298159756269
 31
0.0
  0
LINE
  5
390
330
1F
100
AcDbEntity
  8
0
  6
SLD-Solid
 62
     7
370
    25
100
AcDbLine
 10
32.47056402868898
 20
10.21322049525667
 30
0.0
 11
32.57771208409761
 21
10.21322049525667
 31
0.0
  0
LINE
  5
391
330
1F
100
AcDbEntity
  8
0
  6
SLD-Solid
 62
     7
370
    25
100
AcDbLine
 10
32.57771208409761
 20
10.21322049525667
 30
0.0
 11
32.5777120840976
 21
11.11042049525667
 31
0.0
  0
LINE
  5
392
330
1F
100
AcDbEntity
  8
0
  6
SLD-Solid
 62
     7
370
    25
100
AcDbLine
 10
32.5777120840976
 20
11.11042049525667
 30
0.0
 11
32.47056402868898
 21
11.11042049525667
 31
0.0
  0
LINE
  5
393
330
1F
100
AcDbEntity
  8
0
  6
SLD-Solid
 62
     7
370
    25
100
AcDbLine
 10
21.60791208409743
 20
22.27981597562689
 30
0.0
 11
21.71506013950606
 21
22.27981597562689
 31
0.0
  0
LINE
  5
394
330
1F
100
AcDbEntity
  8
0
  6
SLD-Solid
 62
     7
370
    25
100
AcDbLine
 10
21.71506013950606
 20
22.02981597562689
 30
0.0
 11
21.60791208409743
 21
22.02981597562689
 31
0.0
  0
LINE
  5
395
330
1F
100
AcDbEntity
  8
0
  6
SLD-Solid
 62
     7
370
    25
100
AcDbLine
 10
21.60791208409743
 20
22.02981597562689
 30
0.0
 11
21.60791208409743
 21
22.27981597562689
 31
0.0
  0
LINE
  5
396
330
1F
100
AcDbEntity
  8
0
  6
SLD-Solid
 62
     7
370
    25
100
AcDbLine
 10
21.71506013950606
 20
10.21322049525668
 30
0.0
 11
21.60791208409744
 21
10.21322049525668
 31
0.0
  0
LINE
  5
397
330
1F
100
AcDbEntity
  8
0
  6
SLD-Solid
 62
     7
370
    25
100
AcDbLine
 10
21.60791208409744
 20
10.21322049525668
 30
0.0
 11
21.60791208409743
 21
11.11042049525668
 31
0.0
  0
LINE
  5
398
330
1F
100
AcDbEntity
  8
0
  6
SLD-Solid
 62
     7
370
    25
100
AcDbLine
 10
21.60791208409743
 20
11.11042049525668
 30
0.0
 11
21.71506013950605
 21
11.11042049525668
 31
0.0
  0
LINE
  5
399
330
1F
100
AcDbEntity
  8
0
  6
SLD-Solid
 62
     7
370
    25
100
AcDbLine
 10
32.51691208409752
 20
22.30405432021664
 30
0.0
 11
32.51691208409752
 21
22.75505432021663
 31
0.0
  0
LINE
  5
39A
330
1F
100
AcDbEntity
  8
0
  6
SLD-Solid
 62
     7
370
    25
100
AcDbLine
 10
32.54681208409752
 20
22.30405432021664
 30
0.0
 11
32.54681208409752
 21
22.75505432021664
 31
0.0
  0
LINE
  5
39B
330
1F
100
AcDbEntity
  8
0
  6
SLD-Solid
 62
     7
370
    25
100
AcDbLine
 10
32.51691208409752
 20
22.28405432021663
 30
0.0
 11
32.54681208409752
 21
22.28405432021663
 31
0.0
  0
LINE
  5
39C
330
1F
100
AcDbEntity
  8
0
  6
SLD-Solid
 62
     7
370
    25
100
AcDbLine
 10
32.51691208409752
 20
22.30405432021664
 30
0.0
 11
32.51691208409752
 21
22.28405432021663
 31
0.0
  0
LINE
  5
39D
330
1F
100
AcDbEntity
  8
0
  6
SLD-Solid
 62
     7
370
    25
100
AcDbLine
 10
32.54681208409752
 20
22.28405432021663
 30
0.0
 11
32.54681208409752
 21
22.30405432021664
 31
0.0
  0
ARC
  5
39E
330
1F
100
AcDbEntity
  8
0
  6
SLD-Solid
 62
     7
370
    25
100
AcDbCircle
 10
32.48791208409752
 20
22.75505432021664
 30
0.0
 40
0.0589000000000013
100
AcDbArc
 50
0.00000000000108
 51
89.9999999999931
  0
ARC
  5
39F
330
1F
100
AcDbEntity
  8
0
  6
SLD-Solid
 62
     7
370
    25
100
AcDbCircle
 10
32.48791208409752
 20
22.75505432021664
 30
0.0
 40
0.0290000000000035
100
AcDbArc
 50
359.9999999999868
 51
89.99999999998597
  0
LINE
  5
3A0
330
1F
100
AcDbEntity
  8
0
  6
SLD-Solid
 62
     7
370
    25
100
AcDbLine
 10
21.69771208409752
 20
22.78405432021663
 30
0.0
 11
32.48791208409752
 21
22.78405432021663
 31
0.0
  0
LINE
  5
3A1
330
1F
100
AcDbEntity
  8
0
  6
SLD-Solid
 62
     7
370
    25
100
AcDbLine
 10
21.69771208409752
 20
22.81395432021664
 30
0.0
 11
32.48791208409752
 21
22.81395432021664
 31
0.0
  0
LINE
  5
3A2
330
1F
100
AcDbEntity
  8
0
  6
SLD-Solid
 62
     7
370
    25
100
AcDbLine
 10
21.66871208409752
 20
22.30405432021664
 30
0.0
 11
21.66871208409752
 21
22.28405432021664
 31
0.0
  0
LINE
  5
3A3
330
1F
100
AcDbEntity
  8
0
  6
SLD-Solid
 62
     7
370
    25
100
AcDbLine
 10
21.66871208409752
 20
22.28405432021664
 30
0.0
 11
21.63881208409752
 21
22.28405432021664
 31
0.0
  0
LINE
  5
3A4
330
1F
100
AcDbEntity
  8
0
  6
SLD-Solid
 62
     7
370
    25
100
AcDbLine
 10
21.63881208409752
 20
22.28405432021664
 30
0.0
 11
21.63881208409752
 21
22.30405432021664
 31
0.0
  0
LINE
  5
3A5
330
1F
100
AcDbEntity
  8
0
  6
SLD-Solid
 62
     7
370
    25
100
AcDbLine
 10
21.63881208409752
 20
22.30405432021664
 30
0.0
 11
21.63881208409752
 21
22.75505432021664
 31
0.0
  0
LINE
  5
3A6
330
1F
100
AcDbEntity
  8
0
  6
SLD-Solid
 62
     7
370
    25
100
AcDbLine
 10
21.66871208409752
 20
22.30405432021664
 30
0.0
 11
21.66871208409752
 21
22.75505432021663
 31
0.0
  0
ARC
  5
3A7
330
1F
100
AcDbEntity
  8
0
  6
SLD-Solid
 62
     7
370
    25
100
AcDbCircle
 10
21.69771208409752
 20
22.75505432021664
 30
0.0
 40
0.0589000000000048
100
AcDbArc
 50
90.0
 51
179.9999999999978
  0
ARC
  5
3A8
330
1F
100
AcDbEntity
  8
0
  6
SLD-Solid
 62
     7
370
    25
100
AcDbCircle
 10
21.69771208409752
 20
22.75505432021664
 30
0.0
 40
0.0289999999999999
100
AcDbArc
 50
90.0
 51
180.0000000000148
  0
LINE
  5
3A9
330
1F
100
AcDbEntity
  8
0
  6
SLD-Solid
 62
     7
370
    25
100
AcDbLine
 10
32.54781208409759
 20
22.29476597562689
 30
0.0
 11
32.5777120840976
 21
22.29476597562689
 31
0.0
  0
LINE
  5
3AA
330
1F
100
AcDbEntity
  8
0
  6
SLD-Solid
 62
     7
370
    25
100
AcDbLine
 10
32.54781208409759
 20
22.72109549557727
 30
0.0
 11
32.54781208409759
 21
22.29476597562689
 31
0.0
  0
LINE
  5
3AB
330
1F
100
AcDbEntity
  8
0
  6
SLD-Solid
 62
     7
370
    25
100
AcDbLine
 10
32.5777120840976
 20
22.72109549557727
 30
0.0
 11
32.5777120840976
 21
22.29476597562689
 31
0.0
  0
LINE
  5
3AC
330
1F
100
AcDbEntity
  8
0
  6
SLD-Solid
 62
     7
370
    25
100
AcDbLine
 10
32.5777120840976
 20
22.77109549557728
 30
0.0
 11
32.54781208409759
 21
22.77109549557728
 31
0.0
  0
LINE
  5
3AD
330
1F
100
AcDbEntity
  8
0
  6
SLD-Solid
 62
     7
370
    25
100
AcDbLine
 10
32.5777120840976
 20
22.72109549557727
 30
0.0
 11
32.5777120840976
 21
22.77109549557728
 31
0.0
  0
LINE
  5
3AE
330
1F
100
AcDbEntity
  8
0
  6
SLD-Solid
 62
     7
370
    25
100
AcDbLine
 10
32.54781208409759
 20
22.77109549557728
 30
0.0
 11
32.54781208409759
 21
22.72109549557727
 31
0.0
  0
LINE
  5
3AF
330
1F
100
AcDbEntity
  8
0
  6
SLD-Solid
 62
     7
370
    25
100
AcDbLine
 10
32.54781208409759
 20
11.12537049525667
 30
0.0
 11
32.57771208409759
 21
11.12537049525667
 31
0.0
  0
LINE
  5
3B0
330
1F
100
AcDbEntity
  8
0
  6
SLD-Solid
 62
     7
370
    25
100
AcDbLine
 10
32.5777120840976
 20
21.64305432021666
 30
0.0
 11
32.57771208409759
 21
11.12537049525667
 31
0.0
  0
LINE
  5
3B1
330
1F
100
AcDbEntity
  8
0
  6
SLD-Solid
 62
     7
370
    25
100
AcDbLine
 10
32.54781208409759
 20
21.64305432021666
 30
0.0
 11
32.54781208409759
 21
11.12537049525667
 31
0.0
  0
LINE
  5
3B2
330
1F
100
AcDbEntity
  8
0
  6
SLD-Solid
 62
     7
370
    25
100
AcDbLine
 10
32.5478120840976
 20
10.19827049525668
 30
0.0
 11
32.57771208409761
 21
10.19827049525666
 31
0.0
  0
LINE
  5
3B3
330
1F
100
AcDbEntity
  8
0
  6
SLD-Solid
 62
     7
370
    25
100
AcDbLine
 10
32.57771208409761
 20
10.19827049525666
 30
0.0
 11
32.57771208409761
 21
7.872583863704651
 31
0.0
  0
LINE
  5
3B4
330
1F
100
AcDbEntity
  8
0
  6
SLD-Solid
 62
     7
370
    25
100
AcDbLine
 10
32.5478120840976
 20
10.19827049525668
 30
0.0
 11
32.5478120840976
 21
7.872583863704651
 31
0.0
  0
LINE
  5
3B5
330
1F
100
AcDbEntity
  8
0
  6
SLD-Solid
 62
     7
370
    25
100
AcDbLine
 10
32.57771208409759
 20
7.677321352621334
 30
0.0
 11
32.57771208409761
 21
7.872583863704651
 31
0.0
  0
LINE
  5
3B6
330
1F
100
AcDbEntity
  8
0
  6
SLD-Solid
 62
     7
370
    25
100
AcDbLine
 10
32.5478120840976
 20
7.872583863704651
 30
0.0
 11
32.54781208409759
 21
7.677321352621334
 31
0.0
  0
LINE
  5
3B7
330
1F
100
AcDbEntity
  8
0
  6
SLD-Solid
 62
     7
370
    25
100
AcDbLine
 10
21.60791208409743
 20
7.677321352621336
 30
0.0
 11
21.60791208409744
 21
7.872583863704657
 31
0.0
  0
LINE
  5
3B8
330
1F
100
AcDbEntity
  8
0
  6
SLD-Solid
 62
     7
370
    25
100
AcDbLine
 10
21.63781208409744
 20
7.872583863704657
 30
0.0
 11
21.63781208409743
 21
7.677321352621336
 31
0.0
  0
LINE
  5
3B9
330
1F
100
AcDbEntity
  8
0
  6
SLD-Solid
 62
     7
370
    25
100
AcDbLine
 10
21.60791208409744
 20
10.19827049525668
 30
0.0
 11
21.60791208409744
 21
7.872583863704657
 31
0.0
  0
LINE
  5
3BA
330
1F
100
AcDbEntity
  8
0
  6
SLD-Solid
 62
     7
370
    25
100
AcDbLine
 10
21.63781208409744
 20
10.19827049525668
 30
0.0
 11
21.60791208409744
 21
10.19827049525668
 31
0.0
  0
LINE
  5
3BB
330
1F
100
AcDbEntity
  8
0
  6
SLD-Solid
 62
     7
370
    25
100
AcDbLine
 10
21.63781208409744
 20
10.19827049525668
 30
0.0
 11
21.63781208409744
 21
7.872583863704657
 31
0.0
  0
LINE
  5
3BC
330
1F
100
AcDbEntity
  8
0
  6
SLD-Solid
 62
     7
370
    25
100
AcDbLine
 10
21.60791208409743
 20
22.77109549557727
 30
0.0
 11
21.63781208409743
 21
22.77109549557727
 31
0.0
  0
LINE
  5
3BD
330
1F
100
AcDbEntity
  8
0
  6
SLD-Solid
 62
     7
370
    25
100
AcDbLine
 10
21.60791208409743
 20
22.72109549557727
 30
0.0
 11
21.60791208409743
 21
22.77109549557727
 31
0.0
  0
LINE
  5
3BE
330
1F
100
AcDbEntity
  8
0
  6
SLD-Solid
 62
     7
370
    25
100
AcDbLine
 10
21.63781208409743
 20
22.77109549557727
 30
0.0
 11
21.63781208409743
 21
22.72109549557728
 31
0.0
  0
LINE
  5
3BF
330
1F
100
AcDbEntity
  8
0
  6
SLD-Solid
 62
     7
370
    25
100
AcDbLine
 10
21.63781208409743
 20
22.29476597562689
 30
0.0
 11
21.60791208409743
 21
22.29476597562689
 31
0.0
  0
LINE
  5
3C0
330
1F
100
AcDbEntity
  8
0
  6
SLD-Solid
 62
     7
370
    25
100
AcDbLine
 10
21.60791208409743
 20
22.72109549557727
 30
0.0
 11
21.60791208409743
 21
22.29476597562689
 31
0.0
  0
LINE
  5
3C1
330
1F
100
AcDbEntity
  8
0
  6
SLD-Solid
 62
     7
370
    25
100
AcDbLine
 10
21.63781208409743
 20
22.72109549557728
 30
0.0
 11
21.63781208409743
 21
22.29476597562689
 31
0.0
  0
LINE
  5
3C2
330
1F
100
AcDbEntity
  8
0
  6
SLD-Solid
 62
     7
370
    25
100
AcDbLine
 10
21.63781208409743
 20
11.12537049525668
 30
0.0
 11
21.60791208409743
 21
11.12537049525668
 31
0.0
  0
LINE
  5
3C3
330
1F
100
AcDbEntity
  8
0
  6
SLD-Solid
 62
     7
370
    25
100
AcDbLine
 10
21.60791208409743
 20
21.64305432021666
 30
0.0
 11
21.60791208409743
 21
11.12537049525668
 31
0.0
  0
LINE
  5
3C4
330
1F
100
AcDbEntity
  8
0
  6
SLD-Solid
 62
     7
370
    25
100
AcDbLine
 10
21.63781208409743
 20
21.64305432021666
 30
0.0
 11
21.63781208409743
 21
11.12537049525668
 31
0.0
  0
LWPOLYLINE
  5
3C5
330
1F
100
AcDbEntity
  8
0
  6
SLD-Solid
 62
     7
370
    25
100
AcDbPolyline
 90
        9
 70
   128
 43
0.0
 10
32.29405125841456
 20
22.16805432021666
 10
32.29521139667994
 20
22.18322681426883
 10
32.29912817220999
 20
22.2057379875107
 10
32.30548867053601
 20
22.22648440358924
 10
32.31404846127434
 20
22.24466878936928
 10
32.32447859646728
 20
22.2595923291032
 10
32.33637825186867
 20
22.27068151952825
 10
32.34929013039482
 20
22.27751020927528
 10
32.36271803579506
 20
22.27981597562689
  0
LINE
  5
3C6
330
1F
100
AcDbEntity
  8
0
  6
SLD-Solid
 62
     7
370
    25
100
AcDbLine
 10
32.47056402868898
 20
22.02981597562689
 30
0.0
 11
32.45671208409746
 21
22.02981597562689
 31
0.0
  0
LINE
  5
3C7
330
1F
100
AcDbEntity
  8
0
  6
SLD-Solid
 62
     7
370
    25
100
AcDbLine
 10
32.36271803579506
 20
22.27981597562689
 30
0.0
 11
32.47056402868898
 21
22.27981597562689
 31
0.0
  0
LINE
  5
3C8
330
1F
100
AcDbEntity
  8
0
  6
SLD-Solid
 62
     7
370
    25
100
AcDbLine
 10
32.43561208409746
 20
11.11042049525667
 30
0.0
 11
32.47056402868898
 21
11.11042049525667
 31
0.0
  0
LINE
  5
3C9
330
1F
100
AcDbEntity
  8
0
  6
SLD-Solid
 62
     7
370
    25
100
AcDbLine
 10
32.47056402868898
 20
10.21322049525667
 30
0.0
 11
32.43561208409746
 21
10.21322049525667
 31
0.0
  0
LINE
  5
3CA
330
1F
100
AcDbEntity
  8
0
  6
SLD-Solid
 62
     7
370
    25
100
AcDbLine
 10
21.75781208409746
 20
11.11042049525668
 30
0.0
 11
21.71506013950605
 21
11.11042049525668
 31
0.0
  0
LINE
  5
3CB
330
1F
100
AcDbEntity
  8
0
  6
SLD-Solid
 62
     7
370
    25
100
AcDbLine
 10
21.71506013950606
 20
10.21322049525668
 30
0.0
 11
21.75781208409746
 21
10.21322049525668
 31
0.0
  0
LINE
  5
3CC
330
1F
100
AcDbEntity
  8
0
  6
SLD-Solid
 62
     7
370
    25
100
AcDbLine
 10
21.71506013950606
 20
22.02981597562689
 30
0.0
 11
21.73671208409746
 21
22.02981597562689
 31
0.0
  0
LINE
  5
3CD
330
1F
100
AcDbEntity
  8
0
  6
SLD-Solid
 62
     7
370
    25
100
AcDbLine
 10
21.82290613239996
 20
22.27981597562689
 30
0.0
 11
21.71506013950606
 21
22.27981597562689
 31
0.0
  0
LWPOLYLINE
  5
3CE
330
1F
100
AcDbEntity
  8
0
  6
SLD-Solid
 62
     7
370
    25
100
AcDbPolyline
 90
        9
 70
   128
 43
0.0
 10
21.89157290978045
 20
22.16805432021666
 10
21.89041277151507
 20
22.18322681426883
 10
21.88649599598502
 20
22.20573798751071
 10
21.880135497659
 20
22.22648440358924
 10
21.87157570692068
 20
22.24466878936928
 10
21.86114557172773
 20
22.2595923291032
 10
21.84924591632635
 20
22.27068151952825
 10
21.83633403780019
 20
22.27751020927528
 10
21.82290613239996
 20
22.27981597562689
  0
LINE
  5
3CF
330
1F
100
AcDbEntity
  8
0
  6
SLD-Solid
 62
     7
370
    25
100
AcDbLine
 10
32.57771208409761
 20
11.11042049525667
 30
0.0
 11
32.57771208409761
 21
11.12537049525667
 31
0.0
  0
LINE
  5
3D0
330
1F
100
AcDbEntity
  8
0
  6
SLD-Solid
 62
     7
370
    25
100
AcDbLine
 10
32.5478120840976
 20
11.11042049525667
 30
0.0
 11
32.5478120840976
 21
11.12537049525667
 31
0.0
  0
LINE
  5
3D1
330
1F
100
AcDbEntity
  8
0
  6
SLD-Solid
 62
     7
370
    25
100
AcDbLine
 10
32.5777120840976
 20
22.01805432021666
 30
0.0
 11
32.57771208409761
 21
22.02981597562689
 31
0.0
  0
LINE
  5
3D2
330
1F
100
AcDbEntity
  8
0
  6
SLD-Solid
 62
     7
370
    25
100
AcDbLine
 10
32.5478120840976
 20
22.01805432021666
 30
0.0
 11
32.5478120840976
 21
22.02981597562689
 31
0.0
  0
LINE
  5
3D3
330
1F
100
AcDbEntity
  8
0
  6
SLD-Solid
 62
     7
370
    25
100
AcDbLine
 10
32.57771208409761
 20
22.27981597562689
 30
0.0
 11
32.57771208409761
 21
22.29476597562689
 31
0.0
  0
LINE
  5
3D4
330
1F
100
AcDbEntity
  8
0
  6
SLD-Solid
 62
     7
370
    25
100
AcDbLine
 10
32.5478120840976
 20
22.27981597562689
 30
0.0
 11
32.5478120840976
 21
22.29476597562689
 31
0.0
  0
LINE
  5
3D5
330
1F
100
AcDbEntity
  8
0
  6
SLD-Solid
 62
     7
370
    25
100
AcDbLine
 10
32.57771208409761
 20
10.19827049525668
 30
0.0
 11
32.57771208409761
 21
10.21322049525668
 31
0.0
  0
LINE
  5
3D6
330
1F
100
AcDbEntity
  8
0
  6
SLD-Solid
 62
     7
370
    25
100
AcDbLine
 10
32.5478120840976
 20
10.19827049525668
 30
0.0
 11
32.5478120840976
 21
10.21322049525668
 31
0.0
  0
LINE
  5
3D7
330
1F
100
AcDbEntity
  8
0
  6
SLD-Solid
 62
     7
370
    25
100
AcDbLine
 10
21.60791208409744
 20
10.19827049525668
 30
0.0
 11
21.60791208409744
 21
10.21322049525668
 31
0.0
  0
LINE
  5
3D8
330
1F
100
AcDbEntity
  8
0
  6
SLD-Solid
 62
     7
370
    25
100
AcDbLine
 10
21.63781208409744
 20
10.19827049525668
 30
0.0
 11
21.63781208409744
 21
10.21322049525668
 31
0.0
  0
LINE
  5
3D9
330
1F
100
AcDbEntity
  8
0
  6
SLD-Solid
 62
     7
370
    25
100
AcDbLine
 10
21.60791208409744
 20
22.27981597562689
 30
0.0
 11
21.60791208409744
 21
22.29476597562689
 31
0.0
  0
LINE
  5
3DA
330
1F
100
AcDbEntity
  8
0
  6
SLD-Solid
 62
     7
370
    25
100
AcDbLine
 10
21.63781208409744
 20
22.27981597562689
 30
0.0
 11
21.63781208409744
 21
22.29476597562689
 31
0.0
  0
LINE
  5
3DB
330
1F
100
AcDbEntity
  8
0
  6
SLD-Solid
 62
     7
370
    25
100
AcDbLine
 10
21.60791208409744
 20
22.01805432021666
 30
0.0
 11
21.60791208409744
 21
22.02981597562689
 31
0.0
  0
LINE
  5
3DC
330
1F
100
AcDbEntity
  8
0
  6
SLD-Solid
 62
     7
370
    25
100
AcDbLine
 10
21.63781208409743
 20
22.01805432021666
 30
0.0
 11
21.63781208409744
 21
22.02981597562689
 31
0.0
  0
LINE
  5
3DD
330
1F
100
AcDbEntity
  8
0
  6
SLD-Solid
 62
     7
370
    25
100
AcDbLine
 10
21.60791208409744
 20
11.11042049525668
 30
0.0
 11
21.60791208409744
 21
11.12537049525668
 31
0.0
  0
LINE
  5
3DE
330
1F
100
AcDbEntity
  8
0
  6
SLD-Solid
 62
     7
370
    25
100
AcDbLine
 10
21.63781208409744
 20
11.11042049525667
 30
0.0
 11
21.63781208409744
 21
11.12537049525668
 31
0.0
  0
LINE
  5
3DF
330
1F
100
AcDbEntity
  8
0
  6
SLD-Solid
 62
     7
370
    25
100
AcDbLine
 10
32.57771208409759
 20
7.355898042508358
 30
0.0
 11
32.57771208409759
 21
7.677321352621334
 31
0.0
  0
LINE
  5
3E0
330
1F
100
AcDbEntity
  8
0
  6
SLD-Solid
 62
     7
370
    25
100
AcDbLine
 10
32.54781208409759
 20
7.355898042508358
 30
0.0
 11
32.54781208409759
 21
7.677321352621334
 31
0.0
  0
LINE
  5
3E1
330
1F
100
AcDbEntity
  8
0
  6
SLD-Solid
 62
     7
370
    25
100
AcDbLine
 10
21.60791208409744
 20
7.355898042508347
 30
0.0
 11
21.60791208409743
 21
7.677321352621336
 31
0.0
  0
LINE
  5
3E2
330
1F
100
AcDbEntity
  8
0
  6
SLD-Solid
 62
     7
370
    25
100
AcDbLine
 10
21.63781208409744
 20
7.355898042508347
 30
0.0
 11
21.63781208409743
 21
7.677321352621336
 31
0.0
  0
LINE
  5
3E3
330
1F
100
AcDbEntity
  8
0
  6
SLD-Solid
 62
     7
370
    25
100
AcDbLine
 10
32.5478120840976
 20
7.344054320216658
 30
0.0
 11
32.5777120840976
 21
7.344054320216658
 31
0.0
  0
LINE
  5
3E4
330
1F
100
AcDbEntity
  8
0
  6
SLD-Solid
 62
     7
370
    25
100
AcDbLine
 10
32.5777120840976
 20
7.344054320216658
 30
0.0
 11
32.57771208409759
 21
7.355898042508358
 31
0.0
  0
LINE
  5
3E5
330
1F
100
AcDbEntity
  8
0
  6
SLD-Solid
 62
     7
370
    25
100
AcDbLine
 10
32.54781208409759
 20
7.355898042508358
 30
0.0
 11
32.5478120840976
 21
7.344054320216658
 31
0.0
  0
LINE
  5
3E6
330
1F
100
AcDbEntity
  8
0
  6
SLD-Solid
 62
     7
370
    25
100
AcDbLine
 10
21.63781208409744
 20
7.344054320216643
 30
0.0
 11
21.60791208409745
 21
7.344054320216643
 31
0.0
  0
LINE
  5
3E7
330
1F
100
AcDbEntity
  8
0
  6
SLD-Solid
 62
     7
370
    25
100
AcDbLine
 10
21.60791208409745
 20
7.344054320216643
 30
0.0
 11
21.60791208409744
 21
7.355898042508347
 31
0.0
  0
LINE
  5
3E8
330
1F
100
AcDbEntity
  8
0
  6
SLD-Solid
 62
     7
370
    25
100
AcDbLine
 10
21.63781208409744
 20
7.355898042508347
 30
0.0
 11
21.63781208409744
 21
7.344054320216643
 31
0.0
  0
LINE
  5
3E9
330
1F
100
AcDbEntity
  8
0
  6
SLD-Solid
 62
     7
370
    25
100
AcDbLine
 10
32.53881208409753
 20
7.314154320216659
 30
0.0
 11
32.53881208409753
 21
7.344054320216665
 31
0.0
  0
LINE
  5
3EA
330
1F
100
AcDbEntity
  8
0
  6
SLD-Solid
 62
     7
370
    25
100
AcDbLine
 10
32.46381208409752
 20
7.314154320216645
 30
0.0
 11
32.53881208409753
 21
7.314154320216659
 31
0.0
  0
LINE
  5
3EB
330
1F
100
AcDbEntity
  8
0
  6
SLD-Solid
 62
     7
370
    25
100
AcDbLine
 10
32.53881208409753
 20
7.344054320216665
 30
0.0
 11
32.46381208409752
 21
7.344054320216634
 31
0.0
  0
LINE
  5
3EC
330
1F
100
AcDbEntity
  8
0
  6
SLD-Solid
 62
     7
370
    25
100
AcDbLine
 10
32.46381208409752
 20
7.314154320216645
 30
0.0
 11
21.72181208409751
 21
7.314154320216656
 31
0.0
  0
LINE
  5
3ED
330
1F
100
AcDbEntity
  8
0
  6
SLD-Solid
 62
     7
370
    25
100
AcDbLine
 10
32.46381208409752
 20
7.344054320216634
 30
0.0
 11
21.72181208409751
 21
7.34405432021665
 31
0.0
  0
LINE
  5
3EE
330
1F
100
AcDbEntity
  8
0
  6
SLD-Solid
 62
     7
370
    25
100
AcDbLine
 10
21.64681208409753
 20
7.314154320216654
 30
0.0
 11
21.64681208409753
 21
7.344054320216645
 31
0.0
  0
LINE
  5
3EF
330
1F
100
AcDbEntity
  8
0
  6
SLD-Solid
 62
     7
370
    25
100
AcDbLine
 10
21.72181208409751
 20
7.314154320216656
 30
0.0
 11
21.64681208409753
 21
7.314154320216654
 31
0.0
  0
LINE
  5
3F0
330
1F
100
AcDbEntity
  8
0
  6
SLD-Solid
 62
     7
370
    25
100
AcDbLine
 10
21.64681208409753
 20
7.344054320216645
 30
0.0
 11
21.72181208409751
 21
7.34405432021665
 31
0.0
  0
LINE
  5
3F1
330
1F
100
AcDbEntity
  8
0
  6
SLD-Solid
 62
     7
370
    25
100
AcDbLine
 10
32.51881208409753
 20
22.80519811345167
 30
0.0
 11
32.51881208409753
 21
22.81395432021662
 31
0.0
  0
LINE
  5
3F2
330
1F
100
AcDbEntity
  8
0
  6
SLD-Solid
 62
     7
370
    25
100
AcDbLine
 10
32.48791208409749
 20
22.81395432021662
 30
0.0
 11
32.51881208409753
 21
22.81395432021662
 31
0.0
  0
LINE
  5
3F3
330
1F
100
AcDbEntity
  8
0
  6
SLD-Solid
 62
     7
370
    25
100
AcDbLine
 10
21.66681208409753
 20
22.80519811345171
 30
0.0
 11
21.66681208409753
 21
22.81395432021663
 31
0.0
  0
LINE
  5
3F4
330
1F
100
AcDbEntity
  8
0
  6
SLD-Solid
 62
     7
370
    25
100
AcDbLine
 10
21.6977120840975
 20
22.81395432021663
 30
0.0
 11
21.66681208409753
 21
22.81395432021663
 31
0.0
  0
LINE
  5
3F5
330
1F
100
AcDbEntity
  8
0
  6
SLD-Solid
 62
     7
370
    25
100
AcDbLine
 10
32.51881208409752
 20
7.618054320216658
 30
0.0
 11
32.51881208409753
 21
7.556554320216647
 31
0.0
  0
LINE
  5
3F6
330
1F
100
AcDbEntity
  8
0
  6
SLD-Solid
 62
     7
370
    25
100
AcDbLine
 10
32.51881208409753
 20
7.431554320216648
 30
0.0
 11
32.51881208409752
 21
7.34405432021665
 31
0.0
  0
LINE
  5
3F7
330
1F
100
AcDbEntity
  8
0
  6
SLD-Solid
 62
     7
370
    25
100
AcDbLine
 10
21.66681208409752
 20
7.344054320216647
 30
0.0
 11
21.66681208409753
 21
7.431554320216659
 31
0.0
  0
LINE
  5
3F8
330
1F
100
AcDbEntity
  8
0
  6
SLD-Solid
 62
     7
370
    25
100
AcDbLine
 10
21.66681208409753
 20
7.556554320216658
 30
0.0
 11
21.66681208409751
 21
7.618054320216657
 31
0.0
  0
LINE
  5
3F9
330
1F
100
AcDbEntity
  8
0
  6
SLD-Solid
 62
     7
370
    25
100
AcDbLine
 10
32.54681208409749
 20
22.50505432021664
 30
0.0
 11
32.54781208409758
 21
22.50505432021666
 31
0.0
  0
LINE
  5
3FA
330
1F
100
AcDbEntity
  8
0
  6
SLD-Solid
 62
     7
370
    25
100
AcDbLine
 10
32.54781208409758
 20
7.623054320216651
 30
0.0
 11
32.51881208409752
 21
7.623054320216658
 31
0.0
  0
LINE
  5
3FB
330
1F
100
AcDbEntity
  8
0
  6
SLD-Solid
 62
     7
370
    25
100
AcDbLine
 10
21.66681208409751
 20
7.623054320216643
 30
0.0
 11
21.63781208409745
 21
7.623054320216648
 31
0.0
  0
LINE
  5
3FC
330
1F
100
AcDbEntity
  8
0
  6
SLD-Solid
 62
     7
370
    25
100
AcDbLine
 10
21.63781208409745
 20
22.50505432021666
 30
0.0
 11
21.63881208409749
 21
22.50505432021666
 31
0.0
  0
LINE
  5
3FD
330
1F
100
AcDbEntity
  8
0
  6
SLD-Solid
 62
     7
370
    25
100
AcDbLine
 10
32.51881208409752
 20
7.618054320216658
 30
0.0
 11
32.51881208409752
 21
7.623054320216658
 31
0.0
  0
LINE
  5
3FE
330
1F
100
AcDbEntity
  8
0
  6
SLD-Solid
 62
     7
370
    25
100
AcDbLine
 10
21.66681208409752
 20
7.618054320216657
 30
0.0
 11
21.66681208409752
 21
7.623054320216643
 31
0.0
  0
DIMENSION
  5
3FF
330
1F
100
AcDbEntity
  8
DIMS
100
AcDbDimension
  2
_D_4
 10
30.09671208409745
 20
23.69387558005914
 30
0.0
 11
27.09671208409745
 21
23.69387558005914
 31
0.0
 70
    32
  1
<>
 71
     2
 42
-1.0
  3
SLDDIMSTYLE0
100
AcDbAlignedDimension
 13
24.09671208409745
 23
19.01805432021666
 33
0.0
 14
30.09671208409745
 24
19.01805432021666
 34
0.0
100
AcDbRotatedDimension
  0
DIMENSION
  5
40A
330
1F
100
AcDbEntity
  8
DIMS
100
AcDbDimension
  2
_D_5
 10
33.99429476126284
 20
12.01805432021666
 30
0.0
 11
33.99429476126284
 21
15.74780956471593
 31
0.0
 70
    32
  1
<>
 71
     2
 42
-1.0
  3
SLDDIMSTYLE0
100
AcDbAlignedDimension
 13
30.09671208409745
 23
19.01805432021666
 33
0.0
 14
30.09671208409744
 24
12.01805432021666
 34
0.0
 50
90.0000000000002
100
AcDbRotatedDimension
  0
DIMENSION
  5
415
330
1F
100
AcDbEntity
  8
DIMS
100
AcDbDimension
  2
_D_6
 10
33.99429476126282
 20
7.344054320216632
 30
0.0
 11
33.99429476126283
 21
9.732111041216486
 31
0.0
 70
    32
  1
<>
 71
     2
 42
-1.0
  3
SLDDIMSTYLE1
100
AcDbAlignedDimension
 13
30.09671208409744
 23
12.01805432021666
 33
0.0
 14
32.46381208409753
 24
7.344054320216634
 34
0.0
 50
90.0000000000002
100
AcDbRotatedDimension
  0
DIMENSION
  5
424
330
1F
100
AcDbEntity
  8
DIMS
100
AcDbDimension
  2
_D_7
 10
33.99429476126283
 20
22.81395432021664
 30
0.0
 11
33.99429476126283
 21
20.91600432021664
 31
0.0
 70
    32
  1
<>
 71
     2
 42
-1.0
  3
SLDDIMSTYLE3
100
AcDbAlignedDimension
 13
30.09671208409745
 23
19.01805432021666
 33
0.0
 14
32.48791208409751
 24
22.81395432021664
 34
0.0
 50
90.0000000000002
100
AcDbRotatedDimension
  0
MTEXT
  5
434
330
1F
100
AcDbEntity
  8
NOTES
100
AcDbMText
 10
25.62049201232887
 20
25.21308528525599
 30
0.0
 40
0.5
 41
0.0
 71
     1
 72
     1
  1
mounting hole (4)
  7
SLDTEXTSTYLE1
 73
     1
 44
1.0
  0
LEADER
  5
435
330
1F
100
AcDbEntity
  8
NOTES
100
AcDbLeader
  3
SLDDIMSTYLE2
 76
     3
 10
24.16338314168274
 20
19.09258599187682
 30
0.0
 10
25.09793307086616
 20
24.9665354360922
 30
0.0
 10
25.59793307086616
 20
24.9665354360922
 30
0.0
1001
ACAD
1000
DSTYLE
1002
{
1070
   176
1070
     0
1070
    77
1070
     0
1070
    40
1040
1.0
1070
   147
1040
0.0
1002
}
  0
MTEXT
  5
436
330
1F
100
AcDbEntity
  8
NOTES
100
AcDbMText
 10
21.57388628944922
 20
6.896323429991586
 30
0.0
 40
0.5
 41
0.0
 71
     1
 72
     1
  1
Back view - mounting holes
  7
SLDTEXTSTYLE1
 73
     1
 44
1.0
  0
MTEXT
  5
43A
330
1F
100
AcDbEntity
  8
NOTES
100
AcDbMText
 10
37.18181923579608
 20
4.88020099615648
 30
0.0
 40
0.2916666666666666
 41
0.0
 71
     1
 72
     1
  1
FROST PRODUCTS LTD.
  7
SLDTEXTSTYLE0
 73
     1
 44
1.0
  0
MTEXT
  5
43B
330
1F
100
AcDbEntity
  8
NOTES
100
AcDbMText
 10
37.18181923579608
 20
4.454708634531021
 30
0.0
 40
0.2291666666666666
 41
0.0
 71
     1
 72
     1
  1
5280 JOHN LUCAS DRIVE, BURLINGTON, ON, L7L 5Z9
  7
SLDTEXTSTYLE0
 73
     1
 44
1.0
  0
ENDSEC
  0
SECTION
  2
OBJECTS
  0
DICTIONARY
  5
C
330
0
100
AcDbDictionary
281
     1
  3
ACAD_COLOR
350
6C
  3
ACAD_GROUP
350
D
  3
ACAD_LAYOUT
350
1A
  3
ACAD_MATERIAL
350
6B
  3
ACAD_MLINESTYLE
350
17
  3
ACAD_PLOTSETTINGS
350
19
  3
ACAD_PLOTSTYLENAME
350
E
  3
ACAD_SCALELIST
350
47
  3
ACAD_TABLESTYLE
350
92
  3
AcDbVariableDictionary
350
59
  0
DICTIONARY
  5
6C
102
{ACAD_REACTORS
330
C
102
}
330
C
100
AcDbDictionary
281
     1
  0
DICTIONARY
  5
D
102
{ACAD_REACTORS
330
C
102
}
330
C
100
AcDbDictionary
281
     1
  0
DICTIONARY
  5
1A
102
{ACAD_REACTORS
330
C
102
}
330
C
100
AcDbDictionary
281
     1
  3
Layout1
350
74
  3
Layout2
350
26
  3
Model
350
22
  0
DICTIONARY
  5
6B
102
{ACAD_REACTORS
330
C
102
}
330
C
100
AcDbDictionary
281
     1
  0
DICTIONARY
  5
17
102
{ACAD_REACTORS
330
C
102
}
330
C
100
AcDbDictionary
281
     1
  3
Standard
350
18
  0
DICTIONARY
  5
19
102
{ACAD_REACTORS
330
C
102
}
330
C
100
AcDbDictionary
281
     1
  0
ACDBDICTIONARYWDFLT
  5
E
102
{ACAD_REACTORS
330
C
102
}
330
C
100
AcDbDictionary
281
     1
  3
Normal
350
F
100
AcDbDictionaryWithDefault
340
F
  0
DICTIONARY
  5
47
102
{ACAD_REACTORS
330
C
102
}
330
C
100
AcDbDictionary
281
     1
  3
A0
350
48
  3
A1
350
49
  3
A2
350
4A
  3
A3
350
4B
  3
A4
350
4C
  3
A5
350
4D
  3
A6
350
4E
  3
A7
350
4F
  3
A8
350
50
  3
A9
350
51
  3
B0
350
52
  3
B1
350
53
  3
B2
350
54
  3
B3
350
55
  3
B4
350
56
  3
B5
350
57
  3
B6
350
58
  3
B7
350
44D
  3
B8
350
44E
  3
B9
350
5B
  3
C0
350
5C
  3
C1
350
5D
  3
C2
350
44F
  3
C3
350
5F
  3
C4
350
60
  3
C5
350
61
  3
C6
350
62
  3
C7
350
63
  3
C8
350
64
  3
C9
350
65
  3
D0
350
66
  3
D1
350
67
  3
D2
350
68
  0
DICTIONARY
  5
92
102
{ACAD_REACTORS
330
C
102
}
330
C
100
AcDbDictionary
281
     1
  3
Standard
350
93
  0
DICTIONARY
  5
59
102
{ACAD_REACTORS
330
C
102
}
330
C
100
AcDbDictionary
281
     1
  3
CTABLESTYLE
350
98
  3
HIDETEXT
350
439
  0
LAYOUT
  5
74
102
{ACAD_REACTORS
330
1A
102
}
330
1A
100
AcDbPlotSettings
  1

  2
none_device
  4

  6

 40
0.0
 41
0.0
 42
0.0
 43
0.0
 44
0.0
 45
0.0
 46
0.0
 47
0.0
 48
0.0
 49
0.0
140
0.0
141
0.0
142
1.0
143
1.0
 70
   688
 72
     0
 73
     0
 74
     5
  7

 75
    16
 76
     0
 77
     2
 78
   300
147
1.0
148
0.0
149
0.0
100
AcDbLayout
  1
Layout1
 70
     1
 71
     1
 10
0.0
 20
0.0
 11
12.0
 21
9.0
 12
0.0
 22
0.0
 32
0.0
 14
1.000000000000000E+20
 24
1.000000000000000E+20
 34
1.000000000000000E+20
 15
-1.000000000000000E+20
 25
-1.000000000000000E+20
 35
-1.000000000000000E+20
146
0.0
 13
0.0
 23
0.0
 33
0.0
 16
1.0
 26
0.0
 36
0.0
 17
0.0
 27
1.0
 37
0.0
 76
     0
330
73
  0
LAYOUT
  5
26
102
{ACAD_REACTORS
330
1A
102
}
330
1A
100
AcDbPlotSettings
  1

  2
none_device
  4

  6

 40
0.0
 41
0.0
 42
0.0
 43
0.0
 44
0.0
 45
0.0
 46
0.0
 47
0.0
 48
0.0
 49
0.0
140
0.0
141
0.0
142
1.0
143
1.0
 70
   688
 72
     0
 73
     0
 74
     5
  7

 75
    16
 76
     0
 77
     2
 78
   300
147
1.0
148
0.0
149
0.0
100
AcDbLayout
  1
Layout2
 70
     1
 71
     2
 10
0.0
 20
0.0
 11
0.0
 21
0.0
 12
0.0
 22
0.0
 32
0.0
 14
0.0
 24
0.0
 34
0.0
 15
0.0
 25
0.0
 35
0.0
146
0.0
 13
0.0
 23
0.0
 33
0.0
 16
1.0
 26
0.0
 36
0.0
 17
0.0
 27
1.0
 37
0.0
 76
     0
330
23
  0
LAYOUT
  5
22
102
{ACAD_REACTORS
330
1A
102
}
330
1A
100
AcDbPlotSettings
  1

  2
none_device
  4
Letter_(8.50_x_11.00_Inches)
  6

 40
6.35
 41
6.35
 42
6.35000508
 43
6.35000508
 44
215.9
 45
279.4
 46
0.0
 47
0.0
 48
0.0
 49
0.0
140
0.0
141
0.0
142
1.0
143
1.0
 70
 11952
 72
     0
 73
     0
 74
     0
  7

 75
     0
 76
     0
 77
     2
 78
   300
147
1.0
148
0.0
149
0.0
100
AcDbLayout
  1
Model
 70
     1
 71
     0
 10
0.0
 20
0.0
 11
46.81102362204724
 21
33.11023622047244
 12
0.0
 22
0.0
 32
0.0
 14
1.126653958929319
 24
0.3573773641115478
 34
-2.032377062237089
 15
46.41568767877938
 25
32.40770253565866
 35
0.1661011993534642
146
0.0
 13
0.0
 23
0.0
 33
0.0
 16
1.0
 26
0.0
 36
0.0
 17
0.0
 27
1.0
 37
0.0
 76
     0
330
1F
  0
MLINESTYLE
  5
18
102
{ACAD_REACTORS
330
17
102
}
330
17
100
AcDbMlineStyle
  2
Standard
 70
     0
  3

 62
   256
 51
90.0
 52
90.0
 71
     2
 49
0.5
 62
   256
  6
BYLAYER
 49
-0.5
 62
   256
  6
BYLAYER
  0
ACDBPLACEHOLDER
  5
F
102
{ACAD_REACTORS
330
E
102
}
330
E
  0
ACAD_PROXY_OBJECT
  5
48
102
{ACAD_REACTORS
330
47
102
}
330
47
100
AcDbProxyObject
 90
      499
 91
      505
 95
   393239
 70
     0
 93
       41
310
903313A31580
  0
ACAD_PROXY_OBJECT
  5
49
102
{ACAD_REACTORS
330
47
102
}
330
47
100
AcDbProxyObject
 90
      499
 91
      505
 95
   393239
 70
     0
 93
      105
310
903313A324000000000000004000
  0
ACAD_PROXY_OBJECT
  5
4A
102
{ACAD_REACTORS
330
47
102
}
330
47
100
AcDbProxyObject
 90
      499
 91
      505
 95
   393239
 70
     0
 93
      105
310
903313A344000000000000104000
  0
ACAD_PROXY_OBJECT
  5
4B
102
{ACAD_REACTORS
330
47
102
}
330
47
100
AcDbProxyObject
 90
      499
 91
      505
 95
   393239
 70
     0
 93
      105
310
903313A354000000000000144000
  0
ACAD_PROXY_OBJECT
  5
4C
102
{ACAD_REACTORS
330
47
102
}
330
47
100
AcDbProxyObject
 90
      499
 91
      505
 95
   393239
 70
     0
 93
      105
310
903313A384000000000000204000
  0
ACAD_PROXY_OBJECT
  5
4D
102
{ACAD_REACTORS
330
47
102
}
330
47
100
AcDbProxyObject
 90
      499
 91
      505
 95
   393239
 70
     0
 93
      113
310
904313A31304000000000000244000
  0
ACAD_PROXY_OBJECT
  5
4E
102
{ACAD_REACTORS
330
47
102
}
330
47
100
AcDbProxyObject
 90
      499
 91
      505
 95
   393239
 70
     0
 93
      113
310
904313A31364000000000000304000
  0
ACAD_PROXY_OBJECT
  5
4F
102
{ACAD_REACTORS
330
47
102
}
330
47
100
AcDbProxyObject
 90
      499
 91
      505
 95
   393239
 70
     0
 93
      113
310
904313A32304000000000000344000
  0
ACAD_PROXY_OBJECT
  5
50
102
{ACAD_REACTORS
330
47
102
}
330
47
100
AcDbProxyObject
 90
      499
 91
      505
 95
   393239
 70
     0
 93
      113
310
904313A333040000000000003E4000
  0
ACAD_PROXY_OBJECT
  5
51
102
{ACAD_REACTORS
330
47
102
}
330
47
100
AcDbProxyObject
 90
      499
 91
      505
 95
   393239
 70
     0
 93
      113
310
904313A34304000000000000444000
  0
ACAD_PROXY_OBJECT
  5
52
102
{ACAD_REACTORS
330
47
102
}
330
47
100
AcDbProxyObject
 90
      499
 91
      505
 95
   393239
 70
     0
 93
      113
310
904313A35304000000000000494000
  0
ACAD_PROXY_OBJECT
  5
53
102
{ACAD_REACTORS
330
47
102
}
330
47
100
AcDbProxyObject
 90
      499
 91
      505
 95
   393239
 70
     0
 93
      121
310
905313A3130304000000000000594000
  0
ACAD_PROXY_OBJECT
  5
54
102
{ACAD_REACTORS
330
47
102
}
330
47
100
AcDbProxyObject
 90
      499
 91
      505
 95
   393239
 70
     0
 93
      105
310
903323A310000000000000010100
  0
ACAD_PROXY_OBJECT
  5
55
102
{ACAD_REACTORS
330
47
102
}
330
47
100
AcDbProxyObject
 90
      499
 91
      505
 95
   393239
 70
     0
 93
      105
310
903343A310000000000000410100
  0
ACAD_PROXY_OBJECT
  5
56
102
{ACAD_REACTORS
330
47
102
}
330
47
100
AcDbProxyObject
 90
      499
 91
      505
 95
   393239
 70
     0
 93
      105
310
903383A310000000000000810100
  0
ACAD_PROXY_OBJECT
  5
57
102
{ACAD_REACTORS
330
47
102
}
330
47
100
AcDbProxyObject
 90
      499
 91
      505
 95
   393239
 70
     0
 93
      113
310
90431303A310000000000000910100
  0
ACAD_PROXY_OBJECT
  5
58
102
{ACAD_REACTORS
330
47
102
}
330
47
100
AcDbProxyObject
 90
      499
 91
      505
 95
   393239
 70
     0
 93
      121
310
9053130303A310000000000001650100
  0
ACAD_PROXY_OBJECT
  5
44D
102
{ACAD_REACTORS
330
47
102
}
330
47
100
AcDbProxyObject
 90
      499
 91
      505
 95
   393239
 70
     0
 93
      257
310
90E312F31323822203D2031272D3022000000000000200FC000000000000284000
  0
ACAD_PROXY_OBJECT
  5
44E
102
{ACAD_REACTORS
330
47
102
}
330
47
100
AcDbProxyObject
 90
      499
 91
      505
 95
   393239
 70
     0
 93
      249
310
90D312F363422203D2031272D3022000000000000240FC000000000000284000
  0
ACAD_PROXY_OBJECT
  5
5B
102
{ACAD_REACTORS
330
47
102
}
330
47
100
AcDbProxyObject
 90
      499
 91
      505
 95
   393239
 70
     0
 93
      249
310
90D312F333222203D2031272D3022000000000000280FC000000000000284000
  0
ACAD_PROXY_OBJECT
  5
5C
102
{ACAD_REACTORS
330
47
102
}
330
47
100
AcDbProxyObject
 90
      499
 91
      505
 95
   393239
 70
     0
 93
      249
310
90D312F313622203D2031272D30220000000000002C0FC000000000000284000
  0
ACAD_PROXY_OBJECT
  5
5D
102
{ACAD_REACTORS
330
47
102
}
330
47
100
AcDbProxyObject
 90
      499
 91
      505
 95
   393239
 70
     0
 93
      249
310
90D332F333222203D2031272D30220000000000002E0FC000000000000284000
  0
ACAD_PROXY_OBJECT
  5
44F
102
{ACAD_REACTORS
330
47
102
}
330
47
100
AcDbProxyObject
 90
      499
 91
      505
 95
   393239
 70
     0
 93
      241
310
90C312F3822203D2031272D3022000000000000300FC000000000000284000
  0
ACAD_PROXY_OBJECT
  5
5F
102
{ACAD_REACTORS
330
47
102
}
330
47
100
AcDbProxyObject
 90
      499
 91
      505
 95
   393239
 70
     0
 93
      249
310
90D332F313622203D2031272D3022000000000000320FC000000000000284000
  0
ACAD_PROXY_OBJECT
  5
60
102
{ACAD_REACTORS
330
47
102
}
330
47
100
AcDbProxyObject
 90
      499
 91
      505
 95
   393239
 70
     0
 93
      241
310
90C312F3422203D2031272D3022000000000000340FC000000000000284000
  0
ACAD_PROXY_OBJECT
  5
61
102
{ACAD_REACTORS
330
47
102
}
330
47
100
AcDbProxyObject
 90
      499
 91
      505
 95
   393239
 70
     0
 93
      241
310
90C332F3822203D2031272D3022000000000000360FC000000000000284000
  0
ACAD_PROXY_OBJECT
  5
62
102
{ACAD_REACTORS
330
47
102
}
330
47
100
AcDbProxyObject
 90
      499
 91
      505
 95
   393239
 70
     0
 93
      241
310
90C312F3222203D2031272D3022000000000000380FC000000000000284000
  0
ACAD_PROXY_OBJECT
  5
63
102
{ACAD_REACTORS
330
47
102
}
330
47
100
AcDbProxyObject
 90
      499
 91
      505
 95
   393239
 70
     0
 93
      241
310
90C332F3422203D2031272D30220000000000003A0FC000000000000284000
  0
ACAD_PROXY_OBJECT
  5
64
102
{ACAD_REACTORS
330
47
102
}
330
47
100
AcDbProxyObject
 90
      499
 91
      505
 95
   393239
 70
     0
 93
      161
310
90A3122203D2031272D30224000000000000284000
  0
ACAD_PROXY_OBJECT
  5
65
102
{ACAD_REACTORS
330
47
102
}
330
47
100
AcDbProxyObject
 90
      499
 91
      505
 95
   393239
 70
     0
 93
      257
310
90E312D312F3222203D2031272D30220000000000003E0FC000000000000284000
  0
ACAD_PROXY_OBJECT
  5
66
102
{ACAD_REACTORS
330
47
102
}
330
47
100
AcDbProxyObject
 90
      499
 91
      505
 95
   393239
 70
     0
 93
      225
310
90A3322203D2031272D302200000000000002100000000000000284000
  0
ACAD_PROXY_OBJECT
  5
67
102
{ACAD_REACTORS
330
47
102
}
330
47
100
AcDbProxyObject
 90
      499
 91
      505
 95
   393239
 70
     0
 93
      225
310
90A3622203D2031272D302200000000000006100000000000000284000
  0
ACAD_PROXY_OBJECT
  5
68
102
{ACAD_REACTORS
330
47
102
}
330
47
100
AcDbProxyObject
 90
      499
 91
      505
 95
   393239
 70
     0
 93
      249
310
90D31272D3022203D2031272D30220000000000000A100000000000000284000
  0
TABLESTYLE
  5
93
102
{ACAD_REACTORS
330
92
102
}
330
92
100
AcDbTableStyle
  3
Standard
 70
     0
 71
     0
 40
0.06
 41
0.06
280
     0
281
     0
  7
Standard
140
0.18
170
     2
 62
     0
 63
     7
283
     0
274
    -2
284
     1
 64
     0
275
    -2
285
     1
 65
     0
276
    -2
286
     1
 66
     0
277
    -2
287
     1
 67
     0
278
    -2
288
     1
 68
     0
279
    -2
289
     1
 69
     0
  7
Standard
140
0.25
170
     5
 62
     0
 63
     7
283
     0
274
    -2
284
     1
 64
     0
275
    -2
285
     1
 65
     0
276
    -2
286
     1
 66
     0
277
    -2
287
     1
 67
     0
278
    -2
288
     1
 68
     0
279
    -2
289
     1
 69
     0
  7
Standard
140
0.18
170
     5
 62
     0
 63
     7
283
     0
274
    -2
284
     1
 64
     0
275
    -2
285
     1
 65
     0
276
    -2
286
     1
 66
     0
277
    -2
287
     1
 67
     0
278
    -2
288
     1
 68
     0
279
    -2
289
     1
 69
     0
  0
DICTIONARYVAR
  5
98
102
{ACAD_REACTORS
330
59
102
}
330
59
100
DictionaryVariables
280
     0
  1
STANDARD
  0
DICTIONARYVAR
  5
439
102
{ACAD_REACTORS
330
59
102
}
330
59
100
DictionaryVariables
280
     0
  1
2
  0
ENDSEC
  0
EOF
