  0
SECTION
  2
HEADER
  9
$ACADVER
  1
AC1018
  9
$ACADMAINTVER
 70
    39
  9
$DWGCODEPAGE
  3
ANSI_1252
  9
$LASTSAVEDBY
  1
fottrem
  9
$INSBASE
 10
0.0
 20
0.0
 30
0.0
  9
$EXTMIN
 10
0.1653543307086614
 20
0.1653543307086614
 30
-6.748114081333341
  9
$EXTMAX
 10
69.83464566929135
 20
49.83464566929134
 30
5.596455511811007
  9
$LIMMIN
 10
0.0
 20
0.0
  9
$LIMMAX
 10
70.0
 20
50.0
  9
$ORTHOMODE
 70
     0
  9
$REGENMODE
 70
     1
  9
$FILLMODE
 70
     1
  9
$QTEXTMODE
 70
     0
  9
$MIRRTEXT
 70
     1
  9
$LTSCALE
 40
1.0
  9
$ATTMODE
 70
     1
  9
$TEXTSIZE
 40
0.5
  9
$TRACEWID
 40
0.05
  9
$TEXTSTYLE
  7
Standard
  9
$CLAYER
  8
0
  9
$CELTYPE
  6
ByLayer
  9
$CECOLOR
 62
   256
  9
$CELTSCALE
 40
1.0
  9
$DISPSILH
 70
     0
  9
$DIMSCALE
 40
1.0
  9
$DIMASZ
 40
0.3
  9
$DIMEXO
 40
0.1666666666666667
  9
$DIMDLI
 40
0.38
  9
$DIMRND
 40
0.0
  9
$DIMDLE
 40
0.0
  9
$DIMEXE
 40
0.3750000000000001
  9
$DIMTP
 40
0.0
  9
$DIMTM
 40
0.0
  9
$DIMTXT
 40
0.5
  9
$DIMCEN
 40
0.09
  9
$DIMTSZ
 40
0.0
  9
$DIMTOL
 70
     0
  9
$DIMLIM
 70
     0
  9
$DIMTIH
 70
     1
  9
$DIMTOH
 70
     1
  9
$DIMSE1
 70
     0
  9
$DIMSE2
 70
     0
  9
$DIMTAD
 70
     0
  9
$DIMZIN
 70
     1
  9
$DIMBLK
  1

  9
$DIMASO
 70
     1
  9
$DIMSHO
 70
     1
  9
$DIMPOST
  1

  9
$DIMAPOST
  1

  9
$DIMALT
 70
     0
  9
$DIMALTD
 70
     2
  9
$DIMALTF
 40
25.4
  9
$DIMLFAC
 40
1.0
  9
$DIMTOFL
 70
     0
  9
$DIMTVP
 40
0.0
  9
$DIMTIX
 70
     0
  9
$DIMSOXD
 70
     0
  9
$DIMSAH
 70
     0
  9
$DIMBLK1
  1

  9
$DIMBLK2
  1

  9
$DIMSTYLE
  2
Standard
  9
$DIMCLRD
 70
     0
  9
$DIMCLRE
 70
     0
  9
$DIMCLRT
 70
     0
  9
$DIMTFAC
 40
1.0
  9
$DIMGAP
 40
0.125
  9
$DIMJUST
 70
     0
  9
$DIMSD1
 70
     0
  9
$DIMSD2
 70
     0
  9
$DIMTOLJ
 70
     1
  9
$DIMTZIN
 70
     1
  9
$DIMALTZ
 70
     0
  9
$DIMALTTZ
 70
     0
  9
$DIMUPT
 70
     0
  9
$DIMDEC
 70
     2
  9
$DIMTDEC
 70
     2
  9
$DIMALTU
 70
     2
  9
$DIMALTTD
 70
     2
  9
$DIMTXSTY
  7
Standard
  9
$DIMAUNIT
 70
     0
  9
$DIMADEC
 70
     2
  9
$DIMALTRND
 40
0.0
  9
$DIMAZIN
 70
     0
  9
$DIMDSEP
 70
    46
  9
$DIMATFIT
 70
     3
  9
$DIMFRAC
 70
     0
  9
$DIMLDRBLK
  1

  9
$DIMLUNIT
 70
     2
  9
$DIMLWD
 70
    -2
  9
$DIMLWE
 70
    -2
  9
$DIMTMOVE
 70
     0
  9
$LUNITS
 70
     2
  9
$LUPREC
 70
     4
  9
$SKETCHINC
 40
0.1
  9
$FILLETRAD
 40
0.5
  9
$AUNITS
 70
     0
  9
$AUPREC
 70
     2
  9
$MENU
  1
.
  9
$ELEVATION
 40
0.0
  9
$PELEVATION
 40
0.0
  9
$THICKNESS
 40
0.0
  9
$LIMCHECK
 70
     0
  9
$CHAMFERA
 40
0.0
  9
$CHAMFERB
 40
0.0
  9
$CHAMFERC
 40
0.0
  9
$CHAMFERD
 40
0.0
  9
$SKPOLY
 70
     0
  9
$TDCREATE
 40
2453353.550459155
  9
$TDUCREATE
 40
2453353.717125822
  9
$TDUPDATE
 40
2459488.660286597
  9
$TDUUPDATE
 40
2459488.826953264
  9
$TDINDWG
 40
0.0429166782
  9
$TDUSRTIMER
 40
0.0429166782
  9
$USRTIMER
 70
     1
  9
$ANGBASE
 50
0.0
  9
$ANGDIR
 70
     0
  9
$PDMODE
 70
     0
  9
$PDSIZE
 40
-1.0
  9
$PLINEWID
 40
0.0
  9
$SPLFRAME
 70
     0
  9
$SPLINETYPE
 70
     6
  9
$SPLINESEGS
 70
     8
  9
$HANDSEED
  5
617
  9
$SURFTAB1
 70
     6
  9
$SURFTAB2
 70
     6
  9
$SURFTYPE
 70
     6
  9
$SURFU
 70
     6
  9
$SURFV
 70
     6
  9
$UCSBASE
  2

  9
$UCSNAME
  2

  9
$UCSORG
 10
0.0
 20
0.0
 30
0.0
  9
$UCSXDIR
 10
1.0
 20
0.0
 30
0.0
  9
$UCSYDIR
 10
0.0
 20
1.0
 30
0.0
  9
$UCSORTHOREF
  2

  9
$UCSORTHOVIEW
 70
     0
  9
$UCSORGTOP
 10
0.0
 20
0.0
 30
0.0
  9
$UCSORGBOTTOM
 10
0.0
 20
0.0
 30
0.0
  9
$UCSORGLEFT
 10
0.0
 20
0.0
 30
0.0
  9
$UCSORGRIGHT
 10
0.0
 20
0.0
 30
0.0
  9
$UCSORGFRONT
 10
0.0
 20
0.0
 30
0.0
  9
$UCSORGBACK
 10
0.0
 20
0.0
 30
0.0
  9
$PUCSBASE
  2

  9
$PUCSNAME
  2

  9
$PUCSORG
 10
0.0
 20
0.0
 30
0.0
  9
$PUCSXDIR
 10
1.0
 20
0.0
 30
0.0
  9
$PUCSYDIR
 10
0.0
 20
1.0
 30
0.0
  9
$PUCSORTHOREF
  2

  9
$PUCSORTHOVIEW
 70
     0
  9
$PUCSORGTOP
 10
0.0
 20
0.0
 30
0.0
  9
$PUCSORGBOTTOM
 10
0.0
 20
0.0
 30
0.0
  9
$PUCSORGLEFT
 10
0.0
 20
0.0
 30
0.0
  9
$PUCSORGRIGHT
 10
0.0
 20
0.0
 30
0.0
  9
$PUCSORGFRONT
 10
0.0
 20
0.0
 30
0.0
  9
$PUCSORGBACK
 10
0.0
 20
0.0
 30
0.0
  9
$USERI1
 70
     0
  9
$USERI2
 70
     0
  9
$USERI3
 70
     0
  9
$USERI4
 70
     0
  9
$USERI5
 70
     0
  9
$USERR1
 40
0.0
  9
$USERR2
 40
0.0
  9
$USERR3
 40
0.0
  9
$USERR4
 40
0.0
  9
$USERR5
 40
0.0
  9
$WORLDVIEW
 70
     1
  9
$SHADEDGE
 70
     3
  9
$SHADEDIF
 70
    70
  9
$TILEMODE
 70
     1
  9
$MAXACTVP
 70
    64
  9
$PINSBASE
 10
0.0
 20
0.0
 30
0.0
  9
$PLIMCHECK
 70
     0
  9
$PEXTMIN
 10
1.000000000000000E+20
 20
1.000000000000000E+20
 30
1.000000000000000E+20
  9
$PEXTMAX
 10
-1.000000000000000E+20
 20
-1.000000000000000E+20
 30
-1.000000000000000E+20
  9
$PLIMMIN
 10
0.0
 20
0.0
  9
$PLIMMAX
 10
12.0
 20
9.0
  9
$UNITMODE
 70
     0
  9
$VISRETAIN
 70
     1
  9
$PLINEGEN
 70
     0
  9
$PSLTSCALE
 70
     1
  9
$TREEDEPTH
 70
  3020
  9
$CMLSTYLE
  2
Standard
  9
$CMLJUST
 70
     0
  9
$CMLSCALE
 40
1.0
  9
$PROXYGRAPHICS
 70
     1
  9
$MEASUREMENT
 70
     0
  9
$CELWEIGHT
370
    -1
  9
$ENDCAPS
280
     0
  9
$JOINSTYLE
280
     0
  9
$LWDISPLAY
290
     1
  9
$INSUNITS
 70
     1
  9
$HYPERLINKBASE
  1

  9
$STYLESHEET
  1

  9
$XEDIT
290
     0
  9
$CEPSNTYPE
380
     0
  9
$PSTYLEMODE
290
     1
  9
$FINGERPRINTGUID
  2
{f3d2543c-e208-4f49-ad80-fc597f8053cd}
  9
$VERSIONGUID
  2
{FAEB1C32-E019-11D5-929B-00C0DF256EC4}
  9
$EXTNAMES
290
     1
  9
$PSVPSCALE
 40
0.0
  9
$OLESTARTUP
290
     0
  9
$SORTENTS
280
   127
  9
$INDEXCTL
280
     0
  9
$HIDETEXT
280
     1
  9
$XCLIPFRAME
290
     0
  9
$HALOGAP
280
     0
  9
$OBSCOLOR
 70
   257
  9
$OBSLTYPE
280
     0
  9
$INTERSECTIONDISPLAY
280
     0
  9
$INTERSECTIONCOLOR
 70
   257
  9
$DIMASSOC
280
     2
  9
$PROJECTNAME
  1

  0
ENDSEC
  0
SECTION
  2
CLASSES
  0
CLASS
  1
ACDBDICTIONARYWDFLT
  2
AcDbDictionaryWithDefault
  3
ObjectDBX Classes
 90
        0
 91
        3
280
     0
281
     0
  0
CLASS
  1
ACDBPLACEHOLDER
  2
AcDbPlaceHolder
  3
ObjectDBX Classes
 90
        0
 91
        1
280
     0
281
     0
  0
CLASS
  1
LAYOUT
  2
AcDbLayout
  3
ObjectDBX Classes
 90
        0
 91
        1
280
     0
281
     0
  0
CLASS
  1
DICTIONARYVAR
  2
AcDbDictionaryVar
  3
ObjectDBX Classes
 90
        0
 91
        3
280
     0
281
     0
  0
CLASS
  1
TABLESTYLE
  2
AcDbTableStyle
  3
ObjectDBX Classes
 90
     2047
 91
        3
280
     0
281
     0
  0
CLASS
  1
SCALE
  2
AcDbScale
  3
ObjectDBX Classes
 90
     1153
 91
       67
280
     1
281
     0
  0
ENDSEC
  0
SECTION
  2
TABLES
  0
TABLE
  2
VPORT
  5
8
330
0
100
AcDbSymbolTable
 70
     2
  0
VPORT
  5
97
330
8
100
AcDbSymbolTableRecord
100
AcDbViewportTableRecord
  2
*Active
 70
     0
 10
0.0
 20
0.0
 11
1.0
 21
1.0
 12
35.00000000000001
 22
25.0
 13
0.0
 23
0.0
 14
0.5
 24
0.5
 15
0.5
 25
0.5
 16
0.0
 26
0.0
 36
1.0
 17
0.0
 27
0.0
 37
0.0
 40
50.66267716535433
 41
1.4
 42
50.0
 43
0.0
 44
0.0
 50
0.0
 51
0.0
 71
    16
 72
  2000
 73
     1
 74
     1
 75
     0
 76
     0
 77
     0
 78
     0
281
     0
 65
     0
110
0.0
120
0.0
130
0.0
111
1.0
121
0.0
131
0.0
112
0.0
122
1.0
132
0.0
 79
     0
146
0.0
  0
ENDTAB
  0
TABLE
  2
LTYPE
  5
5
330
0
100
AcDbSymbolTable
 70
     8
  0
LTYPE
  5
14
330
5
100
AcDbSymbolTableRecord
100
AcDbLinetypeTableRecord
  2
ByBlock
 70
     0
  3

 72
    65
 73
     0
 40
0.0
  0
LTYPE
  5
15
330
5
100
AcDbSymbolTableRecord
100
AcDbLinetypeTableRecord
  2
ByLayer
 70
     0
  3

 72
    65
 73
     0
 40
0.0
  0
LTYPE
  5
16
330
5
100
AcDbSymbolTableRecord
100
AcDbLinetypeTableRecord
  2
Continuous
 70
     0
  3
Solid line
 72
    65
 73
     0
 40
0.0
  0
LTYPE
  5
5D5
330
5
100
AcDbSymbolTableRecord
100
AcDbLinetypeTableRecord
  2
SLD-Solid
 70
     0
  3
SolidWorks Line Style
 72
    65
 73
     0
 40
0.0
  0
LTYPE
  5
5D6
330
5
100
AcDbSymbolTableRecord
100
AcDbLinetypeTableRecord
  2
SLD-Dashed
 70
     0
  3
SolidWorks Line Style
 72
    65
 73
     2
 40
0.075
 49
0.05
 74
     4
 75
     0
340
0
 46
1.0
 50
0.0
 44
0.0
 45
0.0
 49
-0.025
 74
     4
 75
     0
340
0
 46
1.0
 50
0.0
 44
0.0
 45
0.0
  0
LTYPE
  5
5D7
330
5
100
AcDbSymbolTableRecord
100
AcDbLinetypeTableRecord
  2
SLD-Phantom
 70
     0
  3
SolidWorks Line Style
 72
    65
 73
     6
 40
0.4999999999999999
 49
0.25
 74
     4
 75
     0
340
0
 46
1.0
 50
0.0
 44
0.0
 45
0.0
 49
-0.05
 74
     4
 75
     0
340
0
 46
1.0
 50
0.0
 44
0.0
 45
0.0
 49
0.05
 74
     4
 75
     0
340
0
 46
1.0
 50
0.0
 44
0.0
 45
0.0
 49
-0.05
 74
     4
 75
     0
340
0
 46
1.0
 50
0.0
 44
0.0
 45
0.0
 49
0.05
 74
     4
 75
     0
340
0
 46
1.0
 50
0.0
 44
0.0
 45
0.0
 49
-0.05
 74
     4
 75
     0
340
0
 46
1.0
 50
0.0
 44
0.0
 45
0.0
  0
LTYPE
  5
5D8
330
5
100
AcDbSymbolTableRecord
100
AcDbLinetypeTableRecord
  2
SLD-Chain
 70
     0
  3
SolidWorks Line Style
 72
    65
 73
     4
 40
0.4
 49
0.25
 74
     4
 75
     0
340
0
 46
1.0
 50
0.0
 44
0.0
 45
0.0
 49
-0.05
 74
     4
 75
     0
340
0
 46
1.0
 50
0.0
 44
0.0
 45
0.0
 49
0.05
 74
     4
 75
     0
340
0
 46
1.0
 50
0.0
 44
0.0
 45
0.0
 49
-0.05
 74
     4
 75
     0
340
0
 46
1.0
 50
0.0
 44
0.0
 45
0.0
  0
LTYPE
  5
5D9
330
5
100
AcDbSymbolTableRecord
100
AcDbLinetypeTableRecord
  2
SLD-Center
 70
     0
  3
SolidWorks Line Style
 72
    65
 73
     4
 40
0.7500000000000002
 49
0.6000000000000001
 74
     4
 75
     0
340
0
 46
1.0
 50
0.0
 44
0.0
 45
0.0
 49
-0.05
 74
     4
 75
     0
340
0
 46
1.0
 50
0.0
 44
0.0
 45
0.0
 49
0.05
 74
     4
 75
     0
340
0
 46
1.0
 50
0.0
 44
0.0
 45
0.0
 49
-0.05
 74
     4
 75
     0
340
0
 46
1.0
 50
0.0
 44
0.0
 45
0.0
  0
LTYPE
  5
5DA
330
5
100
AcDbSymbolTableRecord
100
AcDbLinetypeTableRecord
  2
SLD-Stitch
 70
     0
  3
SolidWorks Line Style
 72
    65
 73
     2
 40
0.025
 49
0.0
 74
     4
 75
     0
340
0
 46
1.0
 50
0.0
 44
0.0
 45
0.0
 49
-0.025
 74
     4
 75
     0
340
0
 46
1.0
 50
0.0
 44
0.0
 45
0.0
  0
LTYPE
  5
5DB
330
5
100
AcDbSymbolTableRecord
100
AcDbLinetypeTableRecord
  2
SLD-Thin-Thick-Chain
 70
     0
  3
SolidWorks Line Style
 72
    65
 73
     4
 40
0.4
 49
0.25
 74
     4
 75
     0
340
0
 46
1.0
 50
0.0
 44
0.0
 45
0.0
 49
-0.05
 74
     4
 75
     0
340
0
 46
1.0
 50
0.0
 44
0.0
 45
0.0
 49
0.05
 74
     4
 75
     0
340
0
 46
1.0
 50
0.0
 44
0.0
 45
0.0
 49
-0.05
 74
     4
 75
     0
340
0
 46
1.0
 50
0.0
 44
0.0
 45
0.0
  0
ENDTAB
  0
TABLE
  2
LAYER
  5
2
330
0
100
AcDbSymbolTable
 70
     6
  0
LAYER
  5
10
330
2
100
AcDbSymbolTableRecord
100
AcDbLayerTableRecord
  2
0
 70
     0
 62
     7
  6
Continuous
370
    -3
390
F
  0
LAYER
  5
5DC
330
2
100
AcDbSymbolTableRecord
100
AcDbLayerTableRecord
  2
FORMAT
 70
     0
 62
     7
  6
SLD-Solid
370
    -3
390
F
  0
LAYER
  5
5DD
330
2
100
AcDbSymbolTableRecord
100
AcDbLayerTableRecord
  2
NOTES
 70
     0
 62
     1
  6
SLD-Solid
370
    -3
390
F
  0
LAYER
  5
77
330
2
100
AcDbSymbolTableRecord
100
AcDbLayerTableRecord
  2
OBJECT
 70
     0
 62
     7
  6
SLD-Solid
370
    25
390
F
  0
LAYER
  5
78
330
2
100
AcDbSymbolTableRecord
100
AcDbLayerTableRecord
  2
DIMS
 70
     0
 62
     5
  6
SLD-Solid
370
    -3
390
F
  0
LAYER
  5
79
330
2
100
AcDbSymbolTableRecord
100
AcDbLayerTableRecord
  2
TITLE
 70
     0
 62
     8
  6
SLD-Solid
370
    -3
390
F
  0
ENDTAB
  0
TABLE
  2
STYLE
  5
3
330
0
100
AcDbSymbolTable
 70
     5
  0
STYLE
  5
11
330
3
100
AcDbSymbolTableRecord
100
AcDbTextStyleTableRecord
  2
Standard
 70
     0
 40
0.0
 41
1.0
 50
0.0
 71
     0
 42
0.5
  3
GOTHIC.TTF
  4

1001
ACAD
1000
CENTURY GOTHIC
1071
       34
  0
STYLE
  5
106
330
3
100
AcDbSymbolTableRecord
100
AcDbTextStyleTableRecord
  2
SLDTEXTSTYLE0
 70
     0
 40
0.0
 41
0.948
 50
0.0
 71
     0
 42
0.5
  3
ARIAL.TTF
  4

1001
ACAD
1000
Arial
1071
      290
  0
STYLE
  5
10A
330
3
100
AcDbSymbolTableRecord
100
AcDbTextStyleTableRecord
  2
SLDTEXTSTYLE1
 70
     0
 40
0.0
 41
0.913
 50
0.0
 71
     0
 42
0.5
  3
GOTHIC.TTF
  4

1001
ACAD
1000
Century Gothic
1071
      290
  0
STYLE
  5
119
330
3
100
AcDbSymbolTableRecord
100
AcDbTextStyleTableRecord
  2
SLDTEXTSTYLE2
 70
     0
 40
0.0
 41
0.87
 50
0.0
 71
     0
 42
0.5
  3
ARIALNB.TTF
  4

1001
ACAD
1000
Arial Narrow
1071
 33554722
  0
STYLE
  5
11B
330
3
100
AcDbSymbolTableRecord
100
AcDbTextStyleTableRecord
  2
SLDTEXTSTYLE3
 70
     0
 40
0.0
 41
0.87
 50
0.0
 71
     0
 42
0.5
  3
ARIALN.TTF
  4

1001
ACAD
1000
Arial Narrow
1071
      290
  0
ENDTAB
  0
TABLE
  2
VIEW
  5
6
330
0
100
AcDbSymbolTable
 70
     0
  0
ENDTAB
  0
TABLE
  2
UCS
  5
7
330
0
100
AcDbSymbolTable
 70
     0
  0
ENDTAB
  0
TABLE
  2
APPID
  5
9
330
0
100
AcDbSymbolTable
 70
     1
  0
APPID
  5
12
330
9
100
AcDbSymbolTableRecord
100
AcDbRegAppTableRecord
  2
ACAD
 70
     0
  0
ENDTAB
  0
TABLE
  2
DIMSTYLE
  5
A
330
0
100
AcDbSymbolTable
 70
     5
100
AcDbDimStyleTable
  0
DIMSTYLE
105
27
330
A
100
AcDbSymbolTableRecord
100
AcDbDimStyleTableRecord
  2
Standard
 70
     0
340
11
  0
DIMSTYLE
105
21C
102
{ACAD_REACTORS
330
21B
330
2A9
330
360
330
36B
102
}
330
A
100
AcDbSymbolTableRecord
100
AcDbDimStyleTableRecord
  2
SLDDIMSTYLE0
 70
     0
 41
0.3
 44
0.0
 45
0.000000001
 78
    12
 79
     3
140
0.5
147
0.125
173
     1
271
     2
272
     2
276
     2
277
     5
284
    12
340
10A
341
5DE
343
5DE
344
5DE
  0
DIMSTYLE
105
22D
102
{ACAD_REACTORS
330
22C
330
23C
330
2B5
330
2C4
330
2D3
330
2E2
330
2F1
330
53F
330
54E
330
5B3
102
}
330
A
100
AcDbSymbolTableRecord
100
AcDbDimStyleTableRecord
  2
SLDDIMSTYLE1
 70
     0
 41
0.3
 44
0.0
 45
0.000000001
 78
    12
 79
     3
140
0.5
147
0.125
173
     1
271
     6
272
     2
276
     2
277
     5
284
    12
340
10A
341
5DE
343
5DE
344
5DE
  0
DIMSTYLE
105
29F
102
{ACAD_REACTORS
330
29E
330
357
102
}
330
A
100
AcDbSymbolTableRecord
100
AcDbDimStyleTableRecord
  2
SLDDIMSTYLE2
 70
     0
 41
0.3
 44
0.0
 45
0.000000001
 78
    12
 79
     3
140
0.5
147
0.125
172
     1
173
     1
271
     2
272
     2
276
     2
277
     5
284
    12
289
     0
340
10A
341
5DE
343
5DE
344
5DE
  0
DIMSTYLE
105
532
102
{ACAD_REACTORS
330
531
330
5C1
102
}
330
A
100
AcDbSymbolTableRecord
100
AcDbDimStyleTableRecord
  2
SLDDIMSTYLE3
 70
     0
 41
0.3
 44
0.0
 45
0.000000001
 78
    12
 79
     3
140
0.5
141
0.0
147
0.125
173
     1
271
     2
272
     2
276
     2
277
     5
284
    12
340
10A
341
5DE
343
5DE
344
5DE
  0
ENDTAB
  0
TABLE
  2
BLOCK_RECORD
  5
1
330
0
100
AcDbSymbolTable
 70
    23
  0
BLOCK_RECORD
  5
1F
330
1
100
AcDbSymbolTableRecord
100
AcDbBlockTableRecord
  2
*Model_Space
340
22
  0
BLOCK_RECORD
  5
73
330
1
100
AcDbSymbolTableRecord
100
AcDbBlockTableRecord
  2
*Paper_Space
340
74
  0
BLOCK_RECORD
  5
5DE
330
1
100
AcDbSymbolTableRecord
100
AcDbBlockTableRecord
  2
_Open90
340
0
102
{BLKREFS
331
226
331
227
331
231
331
232
331
240
331
241
331
2A3
331
2A4
331
2AD
331
2AE
331
2B9
331
2BA
331
2C8
331
2C9
331
2D7
331
2D8
331
2E6
331
2E7
331
2F5
331
2F6
331
35B
331
35C
331
364
331
365
331
36F
331
370
331
536
331
543
331
544
331
552
331
553
331
5B7
331
5B8
331
5C5
102
}
  0
BLOCK_RECORD
  5
23
330
1
100
AcDbSymbolTableRecord
100
AcDbBlockTableRecord
  2
*Paper_Space1
340
26
  0
BLOCK_RECORD
  5
110
330
1
100
AcDbSymbolTableRecord
100
AcDbBlockTableRecord
  2
SW_NOTE_0
340
0
  0
BLOCK_RECORD
  5
116
330
1
100
AcDbSymbolTableRecord
100
AcDbBlockTableRecord
  2
SW_NOTE_0_1
340
0
102
{BLKREFS
331
11F
102
}
  0
BLOCK_RECORD
  5
223
330
1
100
AcDbSymbolTableRecord
100
AcDbBlockTableRecord
  2
_D
340
0
  0
BLOCK_RECORD
  5
22E
330
1
100
AcDbSymbolTableRecord
100
AcDbBlockTableRecord
  2
_D_1
340
0
  0
BLOCK_RECORD
  5
23D
330
1
100
AcDbSymbolTableRecord
100
AcDbBlockTableRecord
  2
_D_2
340
0
  0
BLOCK_RECORD
  5
2A0
330
1
100
AcDbSymbolTableRecord
100
AcDbBlockTableRecord
  2
_D_3
340
0
  0
BLOCK_RECORD
  5
2AA
330
1
100
AcDbSymbolTableRecord
100
AcDbBlockTableRecord
  2
_D_4
340
0
  0
BLOCK_RECORD
  5
2B6
330
1
100
AcDbSymbolTableRecord
100
AcDbBlockTableRecord
  2
_D_5
340
0
  0
BLOCK_RECORD
  5
2C5
330
1
100
AcDbSymbolTableRecord
100
AcDbBlockTableRecord
  2
_D_6
340
0
  0
BLOCK_RECORD
  5
2D4
330
1
100
AcDbSymbolTableRecord
100
AcDbBlockTableRecord
  2
_D_7
340
0
  0
BLOCK_RECORD
  5
2E3
330
1
100
AcDbSymbolTableRecord
100
AcDbBlockTableRecord
  2
_D_8
340
0
  0
BLOCK_RECORD
  5
2F2
330
1
100
AcDbSymbolTableRecord
100
AcDbBlockTableRecord
  2
_D_9
340
0
  0
BLOCK_RECORD
  5
358
330
1
100
AcDbSymbolTableRecord
100
AcDbBlockTableRecord
  2
_D_10
340
0
  0
BLOCK_RECORD
  5
361
330
1
100
AcDbSymbolTableRecord
100
AcDbBlockTableRecord
  2
_D_11
340
0
  0
BLOCK_RECORD
  5
36C
330
1
100
AcDbSymbolTableRecord
100
AcDbBlockTableRecord
  2
_D_12
340
0
  0
BLOCK_RECORD
  5
4B2
330
1
100
AcDbSymbolTableRecord
100
AcDbBlockTableRecord
  2
SW_NOTE_0_2
340
0
102
{BLKREFS
331
4B7
102
}
  0
BLOCK_RECORD
  5
533
330
1
100
AcDbSymbolTableRecord
100
AcDbBlockTableRecord
  2
_D_13
340
0
  0
BLOCK_RECORD
  5
540
330
1
100
AcDbSymbolTableRecord
100
AcDbBlockTableRecord
  2
_D_14
340
0
  0
BLOCK_RECORD
  5
54F
330
1
100
AcDbSymbolTableRecord
100
AcDbBlockTableRecord
  2
_D_15
340
0
  0
BLOCK_RECORD
  5
5B4
330
1
100
AcDbSymbolTableRecord
100
AcDbBlockTableRecord
  2
_D_16
340
0
  0
BLOCK_RECORD
  5
5C2
330
1
100
AcDbSymbolTableRecord
100
AcDbBlockTableRecord
  2
_D_17
340
0
  0
ENDTAB
  0
ENDSEC
  0
SECTION
  2
BLOCKS
  0
BLOCK
  5
20
330
1F
100
AcDbEntity
  8
0
100
AcDbBlockBegin
  2
*Model_Space
 70
     0
 71
     0
 10
0.0
 20
0.0
 30
0.0
  3
*Model_Space
  1

  0
ENDBLK
  5
21
330
1F
100
AcDbEntity
  8
0
100
AcDbBlockEnd
  0
BLOCK
  5
75
330
73
100
AcDbEntity
 67
     1
  8
0
100
AcDbBlockBegin
  2
*Paper_Space
 70
     0
 71
     0
 10
0.0
 20
0.0
 30
0.0
  3
*Paper_Space
  1

  0
ENDBLK
  5
76
330
73
100
AcDbEntity
 67
     1
  8
0
100
AcDbBlockEnd
  0
BLOCK
  5
5DF
330
5DE
100
AcDbEntity
  8
0
100
AcDbBlockBegin
  2
_Open90
 70
     0
 71
     0
 10
0.0
 20
0.0
 30
0.0
  3
_Open90
  1

  0
LINE
  5
220
330
5DE
100
AcDbEntity
  8
0
  6
ByBlock
 62
     0
370
    -2
100
AcDbLine
 10
-0.5
 20
0.5
 30
0.0
 11
0.0
 21
0.0
 31
0.0
  0
LINE
  5
221
330
5DE
100
AcDbEntity
  8
0
  6
ByBlock
 62
     0
370
    -2
100
AcDbLine
 10
0.0
 20
0.0
 30
0.0
 11
-0.5
 21
-0.5
 31
0.0
  0
LINE
  5
222
330
5DE
100
AcDbEntity
  8
0
  6
ByBlock
 62
     0
370
    -2
100
AcDbLine
 10
0.0
 20
0.0
 30
0.0
 11
-1.0
 21
0.0
 31
0.0
  0
ENDBLK
  5
5E0
330
5DE
100
AcDbEntity
  8
0
100
AcDbBlockEnd
  0
BLOCK
  5
5E7
330
23
100
AcDbEntity
  8
0
100
AcDbBlockBegin
  2
*Paper_Space1
 70
     0
 71
     0
 10
0.0
 20
0.0
 30
0.0
  3
*Paper_Space1
  1

  0
ENDBLK
  5
5E8
330
23
100
AcDbEntity
  8
0
100
AcDbBlockEnd
  0
BLOCK
  5
5E9
330
110
100
AcDbEntity
  8
0
100
AcDbBlockBegin
  2
SW_NOTE_0
 70
     0
 71
     0
 10
0.0
 20
0.0
 30
0.0
  3
SW_NOTE_0
  1

  0
MTEXT
  5
113
330
110
100
AcDbEntity
  8
NOTES
 62
     0
100
AcDbMText
 10
0.0
 20
0.3759780907668229
 30
0.0
 40
0.2916666666666666
 41
0.0
 71
     1
 72
     1
  1
FROST PRODUCTS LTD.
  7
SLDTEXTSTYLE0
 73
     1
 44
1.0
  0
MTEXT
  5
114
330
110
100
AcDbEntity
  8
NOTES
 62
     0
100
AcDbMText
 10
0.0
 20
-0.0495142708586375
 30
0.0
 40
0.2291666666666666
 41
0.0
 71
     1
 72
     1
  1
5280 JOHN LUCUS DRIVE, BURLINGTON, ON, L7L 5Z9
  7
SLDTEXTSTYLE0
 73
     1
 44
1.0
  0
ENDBLK
  5
5EA
330
110
100
AcDbEntity
  8
0
100
AcDbBlockEnd
  0
BLOCK
  5
5EB
330
116
100
AcDbEntity
  8
0
100
AcDbBlockBegin
  2
SW_NOTE_0_1
 70
     0
 71
     0
 10
0.0
 20
0.0
 30
0.0
  3
SW_NOTE_0_1
  1

  0
MTEXT
  5
11A
330
116
100
AcDbEntity
  8
NOTES
 62
     0
100
AcDbMText
 10
0.0
 20
0.2381282770514712
 30
0.0
 40
0.1847290640394089
 41
0.0
 71
     1
 72
     1
  1
PROPRIETARY AND CONFIDENTIAL
  7
SLDTEXTSTYLE2
 73
     1
 44
1.0
  0
MTEXT
  5
11C
330
116
100
AcDbEntity
  8
NOTES
 62
     0
100
AcDbMText
 10
0.0
 20
-0.0504364795553608
 30
0.0
 40
0.25
 41
0.0
 71
     1
 72
     1
  1
THE INFORMATION CONTAINED IN THIS DRAWING IS THE SOLE PROPERTY OF 
  7
SLDTEXTSTYLE3
 73
     1
 44
1.0
  0
MTEXT
  5
11D
330
116
100
AcDbEntity
  8
NOTES
 62
     0
100
AcDbMText
 10
0.0
 20
-0.4231398940537119
 30
0.0
 40
0.25
 41
0.0
 71
     1
 72
     1
  1
FROST PRODUCTS LTD.  ANY REPRODUCTION IN PART OR AS A WHOLE WITHOUT 
  7
SLDTEXTSTYLE3
 73
     1
 44
1.0
  0
MTEXT
  5
11E
330
116
100
AcDbEntity
  8
NOTES
 62
     0
100
AcDbMText
 10
0.0
 20
-0.7958433085520636
 30
0.0
 40
0.25
 41
0.0
 71
     1
 72
     1
  1
THE WRITTEN PERMISSION OF FROST PRODUCTS LTD. IS PROHIBITED.
  7
SLDTEXTSTYLE3
 73
     1
 44
1.0
  0
ENDBLK
  5
5EC
330
116
100
AcDbEntity
  8
0
100
AcDbBlockEnd
  0
BLOCK
  5
5ED
330
223
100
AcDbEntity
  8
0
100
AcDbBlockBegin
  2
_D
 70
     0
 71
     0
 10
0.0
 20
0.0
 30
0.0
  3
_D
  1

  0
INSERT
  5
226
330
223
100
AcDbEntity
  8
DIMS
100
AcDbBlockReference
  2
_Open90
 10
10.43974044310616
 20
34.60696282945372
 30
0.0
 41
0.3
 42
0.3
 50
90.00000000000031
  0
INSERT
  5
227
330
223
100
AcDbEntity
  8
DIMS
100
AcDbBlockReference
  2
_Open90
 10
10.43974044310609
 20
10.60696282945368
 30
0.0
 41
0.3
 42
0.3
 50
270.0000000000003
  0
LINE
  5
228
330
223
100
AcDbEntity
  8
DIMS
100
AcDbLine
 10
11.01323300496284
 20
34.60696282945371
 30
0.0
 11
10.06474044310616
 21
34.60696282945372
 31
0.0
  0
LINE
  5
229
330
223
100
AcDbEntity
  8
DIMS
100
AcDbLine
 10
10.43974044310616
 20
34.60696282945372
 30
0.0
 11
10.4397404431061
 21
13.57768507942838
 31
0.0
  0
MTEXT
  5
22A
330
223
100
AcDbEntity
  8
DIMS
100
AcDbMText
 10
-10.54500167269562
 20
13.42260698556242
 30
0.0
 40
0.5
 41
0.0
 71
     1
 72
     1
  1
                                                                                                                48" (1220mm) Max. height of top of unit for unrestricted installation
  7
SLDTEXTSTYLE1
 73
     1
 44
1.0
  0
MTEXT
  5
22B
330
223
100
AcDbEntity
  8
DIMS
100
AcDbMText
 10
10.25501822036631
 20
10.24760689010113
 30
0.0
 40
0.5
 41
0.0
 71
     1
 72
     1
  1
  
  7
SLDTEXTSTYLE1
 73
     1
 44
1.0
  0
ENDBLK
  5
5EE
330
223
100
AcDbEntity
  8
0
100
AcDbBlockEnd
  0
BLOCK
  5
5EF
330
22E
100
AcDbEntity
  8
0
100
AcDbBlockBegin
  2
_D_1
 70
     0
 71
     0
 10
0.0
 20
0.0
 30
0.0
  3
_D_1
  1

  0
INSERT
  5
231
330
22E
100
AcDbEntity
  8
DIMS
100
AcDbBlockReference
  2
_Open90
 10
11.1218996716295
 20
35.49860412415616
 30
2.499682541941266
 41
0.3
 42
0.3
 50
180.0000000000004
  0
INSERT
  5
232
330
22E
100
AcDbEntity
  8
DIMS
100
AcDbBlockReference
  2
_Open90
 10
23.0758996716295
 20
35.49860412415616
 30
2.499682541941266
 41
0.3
 42
0.3
 50
0.0000000000004071
  0
LINE
  5
233
330
22E
100
AcDbEntity
  8
DIMS
100
AcDbLine
 10
17.14365016435475
 20
35.54988882254428
 30
0.0
 11
18.02906685927886
 21
35.54988882254428
 31
0.0
  0
LINE
  5
234
330
22E
100
AcDbEntity
  8
DIMS
100
AcDbLine
 10
11.1218996716295
 20
34.71562949612041
 30
0.0
 11
11.1218996716295
 21
35.87360412415616
 31
0.0
  0
LINE
  5
235
330
22E
100
AcDbEntity
  8
DIMS
100
AcDbLine
 10
23.0758996716295
 20
34.71562949612036
 30
0.0
 11
23.0758996716295
 21
35.87360412415616
 31
0.0
  0
LINE
  5
236
330
22E
100
AcDbEntity
  8
DIMS
100
AcDbLine
 10
11.1218996716295
 20
35.49860412415616
 30
0.0
 11
16.33149737141311
 21
35.49860412415616
 31
0.0
  0
LINE
  5
237
330
22E
100
AcDbEntity
  8
DIMS
100
AcDbLine
 10
23.0758996716295
 20
35.49860412415616
 30
0.0
 11
18.30858079864332
 21
35.49860412415616
 31
0.0
  0
MTEXT
  5
238
330
22E
100
AcDbEntity
  8
DIMS
100
AcDbMText
 10
16.33149737141311
 20
35.77928988297565
 30
0.0
 40
0.5
 41
0.0
 71
     1
 72
     1
  1
11
  7
SLDTEXTSTYLE1
 73
     1
 44
1.0
  0
MTEXT
  5
239
330
22E
100
AcDbEntity
  8
DIMS
100
AcDbMText
 10
17.21691406633723
 20
36.14460238202116
 30
0.0
 40
0.5
 41
0.0
 71
     1
 72
     1
  1
15
  7
SLDTEXTSTYLE1
 73
     1
 44
1.0
  0
MTEXT
  5
23A
330
22E
100
AcDbEntity
  8
DIMS
100
AcDbMText
 10
17.21691406633723
 20
35.48342180347313
 30
0.0
 40
0.5
 41
0.0
 71
     1
 72
     1
  1
16
  7
SLDTEXTSTYLE1
 73
     1
 44
1.0
  0
MTEXT
  5
23B
330
22E
100
AcDbEntity
  8
DIMS
100
AcDbMText
 10
18.10233083459384
 20
35.77928988297565
 30
0.0
 40
0.5
 41
0.0
 71
     1
 72
     1
  1
"
  7
SLDTEXTSTYLE1
 73
     1
 44
1.0
  0
ENDBLK
  5
5F0
330
22E
100
AcDbEntity
  8
0
100
AcDbBlockEnd
  0
BLOCK
  5
5F1
330
23D
100
AcDbEntity
  8
0
100
AcDbBlockBegin
  2
_D_2
 70
     0
 71
     0
 10
0.0
 20
0.0
 30
0.0
  3
_D_2
  1

  0
INSERT
  5
240
330
23D
100
AcDbEntity
  8
DIMS
100
AcDbBlockReference
  2
_Open90
 10
24.40599796126982
 20
18.49346282945367
 30
2.499682541941266
 41
0.3
 42
0.3
 50
270.0000000000001
  0
INSERT
  5
241
330
23D
100
AcDbEntity
  8
DIMS
100
AcDbBlockReference
  2
_Open90
 10
24.4059979612699
 20
34.60696282945369
 30
2.499682541941266
 41
0.3
 42
0.3
 50
90.0000000000001
  0
LINE
  5
242
330
23D
100
AcDbEntity
  8
DIMS
100
AcDbLine
 10
24.41433130000242
 20
26.62946556637719
 30
0.0
 11
24.93030354944696
 21
26.62946556637719
 31
0.0
  0
LINE
  5
243
330
23D
100
AcDbEntity
  8
DIMS
100
AcDbLine
 10
23.20256633829606
 20
18.49346282945368
 30
0.0
 11
24.78099796126982
 21
18.49346282945367
 31
0.0
  0
LINE
  5
244
330
23D
100
AcDbEntity
  8
DIMS
100
AcDbLine
 10
23.18456633829617
 20
34.6069628294537
 30
0.0
 11
24.7809979612699
 21
34.60696282945369
 31
0.0
  0
LINE
  5
245
330
23D
100
AcDbEntity
  8
DIMS
100
AcDbLine
 10
24.40599796126982
 20
18.49346282945367
 30
0.0
 11
24.40599796126985
 21
25.9243267147014
 31
0.0
  0
LINE
  5
246
330
23D
100
AcDbEntity
  8
DIMS
100
AcDbLine
 10
24.4059979612699
 20
34.60696282945369
 30
0.0
 11
24.40599796126986
 21
27.23203502127678
 31
0.0
  0
MTEXT
  5
247
330
23D
100
AcDbEntity
  8
DIMS
100
AcDbMText
 10
23.60217850706079
 20
26.85886662680856
 30
0.0
 40
0.5
 41
0.0
 71
     1
 72
     1
  1
16
  7
SLDTEXTSTYLE1
 73
     1
 44
1.0
  0
MTEXT
  5
248
330
23D
100
AcDbEntity
  8
DIMS
100
AcDbMText
 10
24.48759520198491
 20
27.22417912585407
 30
0.0
 40
0.5
 41
0.0
 71
     1
 72
     1
  1
1
  7
SLDTEXTSTYLE1
 73
     1
 44
1.0
  0
MTEXT
  5
249
330
23D
100
AcDbEntity
  8
DIMS
100
AcDbMText
 10
24.48759520198491
 20
26.56299854730603
 30
0.0
 40
0.5
 41
0.0
 71
     1
 72
     1
  1
8
  7
SLDTEXTSTYLE1
 73
     1
 44
1.0
  0
MTEXT
  5
24A
330
23D
100
AcDbEntity
  8
DIMS
100
AcDbMText
 10
25.00356745142945
 20
26.85886662680856
 30
0.0
 40
0.5
 41
0.0
 71
     1
 72
     1
  1
"
  7
SLDTEXTSTYLE1
 73
     1
 44
1.0
  0
ENDBLK
  5
5F2
330
23D
100
AcDbEntity
  8
0
100
AcDbBlockEnd
  0
BLOCK
  5
5F3
330
2A0
100
AcDbEntity
  8
0
100
AcDbBlockBegin
  2
_D_3
 70
     0
 71
     0
 10
0.0
 20
0.0
 30
0.0
  3
_D_3
  1

  0
INSERT
  5
2A3
330
2A0
100
AcDbEntity
  8
DIMS
100
AcDbBlockReference
  2
_Open90
 10
28.75179909509946
 20
18.89063131932223
 30
5.596455511811007
 41
0.3
 42
0.3
 50
90.00000000000041
  0
INSERT
  5
2A4
330
2A0
100
AcDbEntity
  8
DIMS
100
AcDbBlockReference
  2
_Open90
 10
28.75179909509946
 20
34.17896282945368
 30
5.596455511811007
 41
0.3
 42
0.3
 50
270.0000000000004
  0
LINE
  5
2A5
330
2A0
100
AcDbEntity
  8
DIMS
100
AcDbLine
 10
27.87468696738621
 20
15.80737737095028
 30
0.0
 11
28.75179909509946
 21
15.80737737095028
 31
0.0
  0
LINE
  5
2A6
330
2A0
100
AcDbEntity
  8
DIMS
100
AcDbLine
 10
28.75179909509946
 20
15.80737737095028
 30
0.0
 11
28.75179909509946
 21
18.89063131932223
 31
0.0
  0
LINE
  5
2A7
330
2A0
100
AcDbEntity
  8
DIMS
100
AcDbLine
 10
28.75179909509946
 20
34.17896282945368
 30
0.0
 11
28.75179909509946
 21
34.47896282945368
 31
0.0
  0
MTEXT
  5
2A8
330
2A0
100
AcDbEntity
  8
DIMS
100
AcDbMText
 10
20.32121502573864
 20
16.04917428901698
 30
0.0
 40
0.5
 41
0.0
 71
     1
 72
     1
  1
roungh opening 15 3/8"
  7
SLDTEXTSTYLE1
 73
     1
 44
1.0
  0
ENDBLK
  5
5F4
330
2A0
100
AcDbEntity
  8
0
100
AcDbBlockEnd
  0
BLOCK
  5
5F5
330
2AA
100
AcDbEntity
  8
0
100
AcDbBlockBegin
  2
_D_4
 70
     0
 71
     0
 10
0.0
 20
0.0
 30
0.0
  3
_D_4
  1

  0
INSERT
  5
2AD
330
2AA
100
AcDbEntity
  8
DIMS
100
AcDbBlockReference
  2
_Open90
 10
28.33450444866683
 20
36.82948566409938
 30
5.596455511811007
 41
0.3
 42
0.3
 50
180.0000000000004
  0
INSERT
  5
2AE
330
2AA
100
AcDbEntity
  8
DIMS
100
AcDbBlockReference
  2
_Open90
 10
29.3345044486667
 20
36.82948566409938
 30
5.596455511811007
 41
0.3
 42
0.3
 50
0.0000000000004071
  0
LINE
  5
2AF
330
2AA
100
AcDbEntity
  8
DIMS
100
AcDbLine
 10
28.33450444866683
 20
34.77362949612036
 30
0.0
 11
28.33450444866683
 21
37.20448566409938
 31
0.0
  0
LINE
  5
2B0
330
2AA
100
AcDbEntity
  8
DIMS
100
AcDbLine
 10
29.3345044486667
 20
34.53662949612034
 30
0.0
 11
29.3345044486667
 21
37.20448566409938
 31
0.0
  0
LINE
  5
2B1
330
2AA
100
AcDbEntity
  8
DIMS
100
AcDbLine
 10
28.33450444866683
 20
36.82948566409938
 30
0.0
 11
26.86696183541946
 21
36.82948566409938
 31
0.0
  0
LINE
  5
2B2
330
2AA
100
AcDbEntity
  8
DIMS
100
AcDbLine
 10
29.3345044486667
 20
36.82948566409938
 30
0.0
 11
28.33450444866683
 21
36.82948566409938
 31
0.0
  0
MTEXT
  5
2B3
330
2AA
100
AcDbEntity
  8
DIMS
100
AcDbMText
 10
20.73779509341002
 20
37.46815759409875
 30
0.0
 40
0.5
 41
0.0
 71
     1
 72
     1
  1
partition mounting 
  7
SLDTEXTSTYLE1
 73
     1
 44
1.0
  0
MTEXT
  5
2B4
330
2AA
100
AcDbEntity
  8
DIMS
100
AcDbMText
 10
20.73779509341002
 20
36.67440757023342
 30
0.0
 40
0.5
 41
0.0
 71
     1
 72
     1
  1
thickness 1" to 1.5"
  7
SLDTEXTSTYLE1
 73
     1
 44
1.0
  0
ENDBLK
  5
5F6
330
2AA
100
AcDbEntity
  8
0
100
AcDbBlockEnd
  0
BLOCK
  5
5F7
330
2B6
100
AcDbEntity
  8
0
100
AcDbBlockBegin
  2
_D_5
 70
     0
 71
     0
 10
0.0
 20
0.0
 30
0.0
  3
_D_5
  1

  0
INSERT
  5
2B9
330
2B6
100
AcDbEntity
  8
DIMS
100
AcDbBlockReference
  2
_Open90
 10
32.09751047915073
 20
30.36996282945368
 30
5.596455511811007
 41
0.3
 42
0.3
 50
90.00000000000026
  0
INSERT
  5
2BA
330
2B6
100
AcDbEntity
  8
DIMS
100
AcDbBlockReference
  2
_Open90
 10
32.09751047915071
 20
22.74496282945367
 30
5.596455511811007
 41
0.3
 42
0.3
 50
270.0000000000002
  0
LINE
  5
2BB
330
2B6
100
AcDbEntity
  8
DIMS
100
AcDbLine
 10
31.92112155847725
 20
27.117652608903
 30
0.0
 11
32.4370938079218
 21
27.117652608903
 31
0.0
  0
LINE
  5
2BC
330
2B6
100
AcDbEntity
  8
DIMS
100
AcDbLine
 10
28.7181711153334
 20
30.36996282945368
 30
0.0
 11
32.47251047915073
 21
30.36996282945368
 31
0.0
  0
LINE
  5
2BD
330
2B6
100
AcDbEntity
  8
DIMS
100
AcDbLine
 10
28.71817111533338
 20
22.74496282945368
 30
0.0
 11
32.47251047915071
 21
22.74496282945367
 31
0.0
  0
LINE
  5
2BE
330
2B6
100
AcDbEntity
  8
DIMS
100
AcDbLine
 10
32.09751047915073
 20
30.36996282945368
 30
0.0
 11
32.09751047915072
 21
27.72022206380262
 31
0.0
  0
LINE
  5
2BF
330
2B6
100
AcDbEntity
  8
DIMS
100
AcDbLine
 10
32.09751047915071
 20
22.74496282945367
 30
0.0
 11
32.09751047915072
 21
26.41251375722723
 31
0.0
  0
MTEXT
  5
2C0
330
2B6
100
AcDbEntity
  8
DIMS
100
AcDbMText
 10
31.47841321101519
 20
27.34705366933437
 30
0.0
 40
0.5
 41
0.0
 71
     1
 72
     1
  1
7
  7
SLDTEXTSTYLE1
 73
     1
 44
1.0
  0
MTEXT
  5
2C1
330
2B6
100
AcDbEntity
  8
DIMS
100
AcDbMText
 10
31.99438546045974
 20
27.71236616837987
 30
0.0
 40
0.5
 41
0.0
 71
     1
 72
     1
  1
5
  7
SLDTEXTSTYLE1
 73
     1
 44
1.0
  0
MTEXT
  5
2C2
330
2B6
100
AcDbEntity
  8
DIMS
100
AcDbMText
 10
31.99438546045974
 20
27.05118558983184
 30
0.0
 40
0.5
 41
0.0
 71
     1
 72
     1
  1
8
  7
SLDTEXTSTYLE1
 73
     1
 44
1.0
  0
MTEXT
  5
2C3
330
2B6
100
AcDbEntity
  8
DIMS
100
AcDbMText
 10
32.51035770990428
 20
27.34705366933437
 30
0.0
 40
0.5
 41
0.0
 71
     1
 72
     1
  1
"
  7
SLDTEXTSTYLE1
 73
     1
 44
1.0
  0
ENDBLK
  5
5F8
330
2B6
100
AcDbEntity
  8
0
100
AcDbBlockEnd
  0
BLOCK
  5
5F9
330
2C5
100
AcDbEntity
  8
0
100
AcDbBlockBegin
  2
_D_6
 70
     0
 71
     0
 10
0.0
 20
0.0
 30
0.0
  3
_D_6
  1

  0
INSERT
  5
2C8
330
2C5
100
AcDbEntity
  8
DIMS
100
AcDbBlockReference
  2
_Open90
 10
32.09751047915072
 20
22.74496282945368
 30
5.596455511811007
 41
0.3
 42
0.3
 50
90.00000000000041
  0
INSERT
  5
2C9
330
2C5
100
AcDbEntity
  8
DIMS
100
AcDbBlockReference
  2
_Open90
 10
32.09751047915072
 20
18.89063131932223
 30
5.596455511811007
 41
0.3
 42
0.3
 50
270.0000000000004
  0
LINE
  5
2CA
330
2C5
100
AcDbEntity
  8
DIMS
100
AcDbLine
 10
31.92112155847725
 20
20.93161466397589
 30
0.0
 11
32.4370938079218
 21
20.93161466397589
 31
0.0
  0
LINE
  5
2CB
330
2C5
100
AcDbEntity
  8
DIMS
100
AcDbLine
 10
28.71817111533338
 20
22.74496282945368
 30
0.0
 11
32.47251047915072
 21
22.74496282945368
 31
0.0
  0
LINE
  5
2CC
330
2C5
100
AcDbEntity
  8
DIMS
100
AcDbLine
 10
28.95217111533348
 20
18.89063131932223
 30
0.0
 11
32.47251047915072
 21
18.89063131932223
 31
0.0
  0
LINE
  5
2CD
330
2C5
100
AcDbEntity
  8
DIMS
100
AcDbLine
 10
32.09751047915072
 20
22.74496282945368
 30
0.0
 11
32.09751047915072
 21
21.5341841188755
 31
0.0
  0
LINE
  5
2CE
330
2C5
100
AcDbEntity
  8
DIMS
100
AcDbLine
 10
32.09751047915072
 20
18.89063131932223
 30
0.0
 11
32.09751047915072
 21
20.22647581230011
 31
0.0
  0
MTEXT
  5
2CF
330
2C5
100
AcDbEntity
  8
DIMS
100
AcDbMText
 10
31.47841321101519
 20
21.16101572440726
 30
0.0
 40
0.5
 41
0.0
 71
     1
 72
     1
  1
3
  7
SLDTEXTSTYLE1
 73
     1
 44
1.0
  0
MTEXT
  5
2D0
330
2C5
100
AcDbEntity
  8
DIMS
100
AcDbMText
 10
31.99438546045974
 20
21.52632822345276
 30
0.0
 40
0.5
 41
0.0
 71
     1
 72
     1
  1
7
  7
SLDTEXTSTYLE1
 73
     1
 44
1.0
  0
MTEXT
  5
2D1
330
2C5
100
AcDbEntity
  8
DIMS
100
AcDbMText
 10
31.99438546045974
 20
20.86514764490473
 30
0.0
 40
0.5
 41
0.0
 71
     1
 72
     1
  1
8
  7
SLDTEXTSTYLE1
 73
     1
 44
1.0
  0
MTEXT
  5
2D2
330
2C5
100
AcDbEntity
  8
DIMS
100
AcDbMText
 10
32.51035770990428
 20
21.16101572440726
 30
0.0
 40
0.5
 41
0.0
 71
     1
 72
     1
  1
"
  7
SLDTEXTSTYLE1
 73
     1
 44
1.0
  0
ENDBLK
  5
5FA
330
2C5
100
AcDbEntity
  8
0
100
AcDbBlockEnd
  0
BLOCK
  5
5FB
330
2D4
100
AcDbEntity
  8
0
100
AcDbBlockBegin
  2
_D_7
 70
     0
 71
     0
 10
0.0
 20
0.0
 30
0.0
  3
_D_7
  1

  0
INSERT
  5
2D7
330
2D4
100
AcDbEntity
  8
DIMS
100
AcDbBlockReference
  2
_Open90
 10
32.0975104791507
 20
30.36996282945366
 30
5.596455511811007
 41
0.3
 42
0.3
 50
269.9999999999999
  0
INSERT
  5
2D8
330
2D4
100
AcDbEntity
  8
DIMS
100
AcDbBlockReference
  2
_Open90
 10
32.09751047915073
 20
34.17896282945366
 30
5.596455511811007
 41
0.3
 42
0.3
 50
89.99999999999993
  0
LINE
  5
2D9
330
2D4
100
AcDbEntity
  8
DIMS
100
AcDbLine
 10
31.73639937240369
 20
32.33604307310227
 30
0.0
 11
32.62181606732781
 21
32.33604307310227
 31
0.0
  0
LINE
  5
2DA
330
2D4
100
AcDbEntity
  8
DIMS
100
AcDbLine
 10
28.7181711153334
 20
30.36996282945368
 30
0.0
 11
32.4725104791507
 21
30.36996282945365
 31
0.0
  0
LINE
  5
2DB
330
2D4
100
AcDbEntity
  8
DIMS
100
AcDbLine
 10
28.9521711153335
 20
34.17896282945368
 30
0.0
 11
32.47251047915073
 21
34.17896282945365
 31
0.0
  0
LINE
  5
2DC
330
2D4
100
AcDbEntity
  8
DIMS
100
AcDbLine
 10
32.0975104791507
 20
30.36996282945366
 30
0.0
 11
32.09751047915071
 21
31.63090422142651
 31
0.0
  0
LINE
  5
2DD
330
2D4
100
AcDbEntity
  8
DIMS
100
AcDbLine
 10
32.09751047915073
 20
34.17896282945366
 30
0.0
 11
32.09751047915072
 21
32.93861252800188
 31
0.0
  0
MTEXT
  5
2DE
330
2D4
100
AcDbEntity
  8
DIMS
100
AcDbMText
 10
31.29369102494163
 20
32.56544413353365
 30
0.0
 40
0.5
 41
0.0
 71
     1
 72
     1
  1
3
  7
SLDTEXTSTYLE1
 73
     1
 44
1.0
  0
MTEXT
  5
2DF
330
2D4
100
AcDbEntity
  8
DIMS
100
AcDbMText
 10
31.80966327438618
 20
32.93075663257915
 30
0.0
 40
0.5
 41
0.0
 71
     1
 72
     1
  1
13
  7
SLDTEXTSTYLE1
 73
     1
 44
1.0
  0
MTEXT
  5
2E0
330
2D4
100
AcDbEntity
  8
DIMS
100
AcDbMText
 10
31.80966327438618
 20
32.26957605403111
 30
0.0
 40
0.5
 41
0.0
 71
     1
 72
     1
  1
16
  7
SLDTEXTSTYLE1
 73
     1
 44
1.0
  0
MTEXT
  5
2E1
330
2D4
100
AcDbEntity
  8
DIMS
100
AcDbMText
 10
32.69507996931029
 20
32.56544413353365
 30
0.0
 40
0.5
 41
0.0
 71
     1
 72
     1
  1
"
  7
SLDTEXTSTYLE1
 73
     1
 44
1.0
  0
ENDBLK
  5
5FC
330
2D4
100
AcDbEntity
  8
0
100
AcDbBlockEnd
  0
BLOCK
  5
5FD
330
2E3
100
AcDbEntity
  8
0
100
AcDbBlockBegin
  2
_D_8
 70
     0
 71
     0
 10
0.0
 20
0.0
 30
0.0
  3
_D_8
  1

  0
INSERT
  5
2E6
330
2E3
100
AcDbEntity
  8
DIMS
100
AcDbBlockReference
  2
_Open90
 10
29.3345044486667
 20
35.26947545076887
 30
5.596455511811007
 41
0.3
 42
0.3
 50
180.0000000000004
  0
INSERT
  5
2E7
330
2E3
100
AcDbEntity
  8
DIMS
100
AcDbBlockReference
  2
_Open90
 10
30.8825044486667
 20
35.26947545076887
 30
5.596455511811007
 41
0.3
 42
0.3
 50
0.0000000000004071
  0
LINE
  5
2E8
330
2E3
100
AcDbEntity
  8
DIMS
100
AcDbLine
 10
31.65375960800194
 20
35.32076014915699
 30
0.0
 11
32.53917630292606
 21
35.32076014915699
 31
0.0
  0
LINE
  5
2E9
330
2E3
100
AcDbEntity
  8
DIMS
100
AcDbLine
 10
29.3345044486667
 20
34.72068047080285
 30
0.0
 11
29.3345044486667
 21
35.64447545076887
 31
0.0
  0
LINE
  5
2EA
330
2E3
100
AcDbEntity
  8
DIMS
100
AcDbLine
 10
30.8825044486667
 20
34.17662949612035
 30
0.0
 11
30.8825044486667
 21
35.64447545076887
 31
0.0
  0
LINE
  5
2EB
330
2E3
100
AcDbEntity
  8
DIMS
100
AcDbLine
 10
29.3345044486667
 20
35.26947545076887
 30
0.0
 11
30.8825044486667
 21
35.26947545076887
 31
0.0
  0
LINE
  5
2EC
330
2E3
100
AcDbEntity
  8
DIMS
100
AcDbLine
 10
30.8825044486667
 20
35.26947545076887
 30
0.0
 11
31.21105126053988
 21
35.26947545076887
 31
0.0
  0
MTEXT
  5
2ED
330
2E3
100
AcDbEntity
  8
DIMS
100
AcDbMText
 10
31.21105126053988
 20
35.55016120958836
 30
0.0
 40
0.5
 41
0.0
 71
     1
 72
     1
  1
1
  7
SLDTEXTSTYLE1
 73
     1
 44
1.0
  0
MTEXT
  5
2EE
330
2E3
100
AcDbEntity
  8
DIMS
100
AcDbMText
 10
31.91174573272421
 20
35.91547370863387
 30
0.0
 40
0.5
 41
0.0
 71
     1
 72
     1
  1
9
  7
SLDTEXTSTYLE1
 73
     1
 44
1.0
  0
MTEXT
  5
2EF
330
2E3
100
AcDbEntity
  8
DIMS
100
AcDbMText
 10
31.72702350998443
 20
35.25429313008583
 30
0.0
 40
0.5
 41
0.0
 71
     1
 72
     1
  1
16
  7
SLDTEXTSTYLE1
 73
     1
 44
1.0
  0
MTEXT
  5
2F0
330
2E3
100
AcDbEntity
  8
DIMS
100
AcDbMText
 10
32.61244020490854
 20
35.55016120958836
 30
0.0
 40
0.5
 41
0.0
 71
     1
 72
     1
  1
"
  7
SLDTEXTSTYLE1
 73
     1
 44
1.0
  0
ENDBLK
  5
5FE
330
2E3
100
AcDbEntity
  8
0
100
AcDbBlockEnd
  0
BLOCK
  5
5FF
330
2F2
100
AcDbEntity
  8
0
100
AcDbBlockBegin
  2
_D_9
 70
     0
 71
     0
 10
0.0
 20
0.0
 30
0.0
  3
_D_9
  1

  0
INSERT
  5
2F5
330
2F2
100
AcDbEntity
  8
DIMS
100
AcDbBlockReference
  2
_Open90
 10
25.92836271638321
 20
34.11996282945368
 30
5.596455511811007
 41
0.3
 42
0.3
 50
90.00000000000068
  0
INSERT
  5
2F6
330
2F2
100
AcDbEntity
  8
DIMS
100
AcDbBlockReference
  2
_Open90
 10
25.92836271638329
 20
18.99496282945367
 30
5.596455511811007
 41
0.3
 42
0.3
 50
270.0000000000007
  0
LINE
  5
2F7
330
2F2
100
AcDbEntity
  8
DIMS
100
AcDbLine
 10
25.9366960551158
 20
28.54490431863569
 30
0.0
 11
26.45266830456034
 21
28.54490431863569
 31
0.0
  0
LINE
  5
2F8
330
2F2
100
AcDbEntity
  8
DIMS
100
AcDbLine
 10
26.75983778200004
 20
34.11996282945368
 30
0.0
 11
25.55336271638321
 21
34.11996282945368
 31
0.0
  0
LINE
  5
2F9
330
2F2
100
AcDbEntity
  8
DIMS
100
AcDbLine
 10
26.75983778200004
 20
18.99496282945368
 30
0.0
 11
25.55336271638329
 21
18.99496282945367
 31
0.0
  0
LINE
  5
2FA
330
2F2
100
AcDbEntity
  8
DIMS
100
AcDbLine
 10
25.92836271638321
 20
34.11996282945368
 30
0.0
 11
25.92836271638323
 21
29.1474737735353
 31
0.0
  0
LINE
  5
2FB
330
2F2
100
AcDbEntity
  8
DIMS
100
AcDbLine
 10
25.92836271638329
 20
18.99496282945367
 30
0.0
 11
25.92836271638324
 21
27.83976546695992
 31
0.0
  0
MTEXT
  5
2FC
330
2F2
100
AcDbEntity
  8
DIMS
100
AcDbMText
 10
25.12454326217416
 20
28.77430537906706
 30
0.0
 40
0.5
 41
0.0
 71
     1
 72
     1
  1
15
  7
SLDTEXTSTYLE1
 73
     1
 44
1.0
  0
MTEXT
  5
2FD
330
2F2
100
AcDbEntity
  8
DIMS
100
AcDbMText
 10
26.00995995709829
 20
29.13961787811257
 30
0.0
 40
0.5
 41
0.0
 71
     1
 72
     1
  1
1
  7
SLDTEXTSTYLE1
 73
     1
 44
1.0
  0
MTEXT
  5
2FE
330
2F2
100
AcDbEntity
  8
DIMS
100
AcDbMText
 10
26.00995995709829
 20
28.47843729956453
 30
0.0
 40
0.5
 41
0.0
 71
     1
 72
     1
  1
8
  7
SLDTEXTSTYLE1
 73
     1
 44
1.0
  0
MTEXT
  5
2FF
330
2F2
100
AcDbEntity
  8
DIMS
100
AcDbMText
 10
26.52593220654283
 20
28.77430537906706
 30
0.0
 40
0.5
 41
0.0
 71
     1
 72
     1
  1
"
  7
SLDTEXTSTYLE1
 73
     1
 44
1.0
  0
ENDBLK
  5
600
330
2F2
100
AcDbEntity
  8
0
100
AcDbBlockEnd
  0
BLOCK
  5
601
330
358
100
AcDbEntity
  8
0
100
AcDbBlockBegin
  2
_D_10
 70
     0
 71
     0
 10
0.0
 20
0.0
 30
0.0
  3
_D_10
  1

  0
INSERT
  5
35B
330
358
100
AcDbEntity
  8
DIMS
100
AcDbBlockReference
  2
_Open90
 10
11.54989967162944
 20
42.22564933616244
 30
-6.748114081333341
 41
0.3
 42
0.3
 50
0.0000000000011959
  0
INSERT
  5
35C
330
358
100
AcDbEntity
  8
DIMS
100
AcDbBlockReference
  2
_Open90
 10
22.64789967162949
 20
42.2256493361626
 30
-6.748114081333341
 41
0.3
 42
0.3
 50
180.0000000000012
  0
LINE
  5
35D
330
358
100
AcDbEntity
  8
DIMS
100
AcDbLine
 10
11.54989967162944
 20
42.22564933616244
 30
0.0
 11
9.29225333532017
 21
42.22564933616241
 31
0.0
  0
LINE
  5
35E
330
358
100
AcDbEntity
  8
DIMS
100
AcDbLine
 10
22.64789967162949
 20
42.2256493361626
 30
0.0
 11
22.94789967162949
 21
42.2256493361626
 31
0.0
  0
MTEXT
  5
35F
330
358
100
AcDbEntity
  8
DIMS
100
AcDbMText
 10
2.145031047308604
 20
42.46744625422906
 30
0.0
 40
0.5
 41
0.0
 71
     1
 72
     1
  1
rough opening 11 1/8"
  7
SLDTEXTSTYLE1
 73
     1
 44
1.0
  0
ENDBLK
  5
602
330
358
100
AcDbEntity
  8
0
100
AcDbBlockEnd
  0
BLOCK
  5
603
330
361
100
AcDbEntity
  8
0
100
AcDbBlockBegin
  2
_D_11
 70
     0
 71
     0
 10
0.0
 20
0.0
 30
0.0
  3
_D_11
  1

  0
INSERT
  5
364
330
361
100
AcDbEntity
  8
DIMS
100
AcDbBlockReference
  2
_Open90
 10
25.43085790935877
 20
44.2463719500353
 30
-6.748114081333341
 41
0.3
 42
0.3
 50
90.00000000000041
  0
INSERT
  5
365
330
361
100
AcDbEntity
  8
DIMS
100
AcDbBlockReference
  2
_Open90
 10
25.43085790935877
 20
40.2283719500353
 30
-6.748114081333341
 41
0.3
 42
0.3
 50
270.0000000000004
  0
LINE
  5
366
330
361
100
AcDbEntity
  8
DIMS
100
AcDbLine
 10
22.68056633829602
 20
44.2463719500353
 30
0.0
 11
25.80585790935877
 21
44.2463719500353
 31
0.0
  0
LINE
  5
367
330
361
100
AcDbEntity
  8
DIMS
100
AcDbLine
 10
22.71356633829602
 20
40.2283719500353
 30
0.0
 11
25.80585790935877
 21
40.2283719500353
 31
0.0
  0
LINE
  5
368
330
361
100
AcDbEntity
  8
DIMS
100
AcDbLine
 10
25.43085790935877
 20
44.2463719500353
 30
0.0
 11
25.43085790935876
 21
42.62252434809504
 31
0.0
  0
LINE
  5
369
330
361
100
AcDbEntity
  8
DIMS
100
AcDbLine
 10
25.43085790935877
 20
40.2283719500353
 30
0.0
 11
25.43085790935877
 21
41.8287743242297
 31
0.0
  0
MTEXT
  5
36A
330
361
100
AcDbEntity
  8
DIMS
100
AcDbMText
 10
25.14301068626112
 20
42.46744625422912
 30
0.0
 40
0.5
 41
0.0
 71
     1
 72
     1
  1
4"
  7
SLDTEXTSTYLE1
 73
     1
 44
1.0
  0
ENDBLK
  5
604
330
361
100
AcDbEntity
  8
0
100
AcDbBlockEnd
  0
BLOCK
  5
605
330
36C
100
AcDbEntity
  8
0
100
AcDbBlockBegin
  2
_D_12
 70
     0
 71
     0
 10
0.0
 20
0.0
 30
0.0
  3
_D_12
  1

  0
INSERT
  5
36F
330
36C
100
AcDbEntity
  8
DIMS
100
AcDbBlockReference
  2
_Open90
 10
11.60889967162935
 20
39.0560097453109
 30
-6.748114081333341
 41
0.3
 42
0.3
 50
180.0000000000004
  0
INSERT
  5
370
330
36C
100
AcDbEntity
  8
DIMS
100
AcDbBlockReference
  2
_Open90
 10
22.60889967162936
 20
39.0560097453109
 30
-6.748114081333341
 41
0.3
 42
0.3
 50
0.0000000000004071
  0
LINE
  5
371
330
36C
100
AcDbEntity
  8
DIMS
100
AcDbLine
 10
11.60889967162935
 20
40.12370528336864
 30
0.0
 11
11.60889967162935
 21
38.6810097453109
 31
0.0
  0
LINE
  5
372
330
36C
100
AcDbEntity
  8
DIMS
100
AcDbLine
 10
22.60889967162936
 20
40.12370528336863
 30
0.0
 11
22.60889967162936
 21
38.6810097453109
 31
0.0
  0
LINE
  5
373
330
36C
100
AcDbEntity
  8
DIMS
100
AcDbLine
 10
11.60889967162935
 20
39.0560097453109
 30
0.0
 11
18.68008623886903
 21
39.0560097453109
 31
0.0
  0
LINE
  5
374
330
36C
100
AcDbEntity
  8
DIMS
100
AcDbLine
 10
22.60889967162936
 20
39.0560097453109
 30
0.0
 11
19.62522509387765
 21
39.0560097453109
 31
0.0
  0
MTEXT
  5
375
330
36C
100
AcDbEntity
  8
DIMS
100
AcDbMText
 10
18.68008623886903
 20
39.29780666337759
 30
0.0
 40
0.5
 41
0.0
 71
     1
 72
     1
  1
11"
  7
SLDTEXTSTYLE1
 73
     1
 44
1.0
  0
ENDBLK
  5
606
330
36C
100
AcDbEntity
  8
0
100
AcDbBlockEnd
  0
BLOCK
  5
607
330
4B2
100
AcDbEntity
  8
0
100
AcDbBlockBegin
  2
SW_NOTE_0_2
 70
     0
 71
     0
 10
0.0
 20
0.0
 30
0.0
  3
SW_NOTE_0_2
  1

  0
MTEXT
  5
4B5
330
4B2
100
AcDbEntity
  8
NOTES
 62
     0
100
AcDbMText
 10
0.0
 20
0.6386718750000004
 30
0.0
 40
0.5
 41
0.0
 71
     1
 72
     1
  1
3D view
  7
SLDTEXTSTYLE1
 73
     1
 44
1.0
  0
MTEXT
  5
4B6
330
4B2
100
AcDbEntity
  8
NOTES
 62
     0
100
AcDbMText
 10
0.0
 20
-0.3613281862472921
 30
0.0
 40
0.5
 41
0.0
 71
     1
 72
     1
  1
code 640
  7
SLDTEXTSTYLE1
 73
     1
 44
1.0
  0
ENDBLK
  5
608
330
4B2
100
AcDbEntity
  8
0
100
AcDbBlockEnd
  0
BLOCK
  5
609
330
533
100
AcDbEntity
  8
0
100
AcDbBlockBegin
  2
_D_13
 70
     0
 71
     0
 10
0.0
 20
0.0
 30
0.0
  3
_D_13
  1

  0
INSERT
  5
536
330
533
100
AcDbEntity
  8
DIMS
100
AcDbBlockReference
  2
_Open90
 10
45.87377654169013
 20
18.55836028907523
 30
0.4395485830716256
 41
0.3
 42
0.3
 50
120.0000000000025
  0
LINE
  5
537
330
533
100
AcDbEntity
  8
DIMS
100
AcDbLine
 10
49.3751145924745
 20
14.49773616338868
 30
0.0
 11
50.26053128739862
 21
14.49773616338868
 31
0.0
  0
LINE
  5
538
330
533
100
AcDbEntity
  8
DIMS
100
AcDbLine
 10
45.87377654169013
 20
18.55836028907523
 30
0.0
 11
48.24778820815283
 21
14.44645146500056
 31
0.0
  0
LINE
  5
539
330
533
100
AcDbEntity
  8
DIMS
100
AcDbLine
 10
48.24778820815283
 20
14.44645146500056
 30
0.0
 11
48.54778820815282
 21
14.44645146500056
 31
0.0
  0
MTEXT
  5
53A
330
533
100
AcDbEntity
  8
DIMS
100
AcDbMText
 10
48.54778820815282
 20
14.71949833456516
 30
0.0
 40
0.5
 41
0.0
 71
     1
 72
     1
  1
%%c
  7
SLDTEXTSTYLE1
 73
     1
 44
1.0
  0
MTEXT
  5
53B
330
533
100
AcDbEntity
  8
DIMS
100
AcDbMText
 10
49.63310071719678
 20
15.09244972286556
 30
0.0
 40
0.5
 41
0.0
 71
     1
 72
     1
  1
3
  7
SLDTEXTSTYLE1
 73
     1
 44
1.0
  0
MTEXT
  5
53C
330
533
100
AcDbEntity
  8
DIMS
100
AcDbMText
 10
49.44837849445699
 20
14.43126914431753
 30
0.0
 40
0.5
 41
0.0
 71
     1
 72
     1
  1
16
  7
SLDTEXTSTYLE1
 73
     1
 44
1.0
  0
MTEXT
  5
53D
330
533
100
AcDbEntity
  8
DIMS
100
AcDbMText
 10
50.33379518938111
 20
14.72713722382006
 30
0.0
 40
0.5
 41
0.0
 71
     1
 72
     1
  1
"
  7
SLDTEXTSTYLE1
 73
     1
 44
1.0
  0
MTEXT
  5
53E
330
533
100
AcDbEntity
  8
DIMS
100
AcDbMText
 10
50.54004515343059
 20
14.72713722382006
 30
0.0
 40
0.5
 41
0.0
 71
     1
 72
     1
  1
 top/bottom mounting hole (4)
  7
SLDTEXTSTYLE1
 73
     1
 44
1.0
  0
ENDBLK
  5
60A
330
533
100
AcDbEntity
  8
0
100
AcDbBlockEnd
  0
BLOCK
  5
60B
330
540
100
AcDbEntity
  8
0
100
AcDbBlockBegin
  2
_D_14
 70
     0
 71
     0
 10
0.0
 20
0.0
 30
0.0
  3
_D_14
  1

  0
INSERT
  5
543
330
540
100
AcDbEntity
  8
DIMS
100
AcDbBlockReference
  2
_Open90
 10
37.32377654169013
 20
35.99094652287128
 30
0.4395485830716255
 41
0.3
 42
0.3
 50
180.0000000000004
  0
INSERT
  5
544
330
540
100
AcDbEntity
  8
DIMS
100
AcDbBlockReference
  2
_Open90
 10
45.82377654169014
 20
35.99094652287128
 30
0.4395485830716255
 41
0.3
 42
0.3
 50
0.0000000000004326
  0
LINE
  5
545
330
540
100
AcDbEntity
  8
DIMS
100
AcDbLine
 10
41.32419141883413
 20
36.0422312212594
 30
0.0
 11
41.84016366827867
 21
36.0422312212594
 31
0.0
  0
LINE
  5
546
330
540
100
AcDbEntity
  8
DIMS
100
AcDbLine
 10
37.32377654169013
 20
34.63662949612035
 30
0.0
 11
37.32377654169013
 21
36.36594652287128
 31
0.0
  0
LINE
  5
547
330
540
100
AcDbEntity
  8
DIMS
100
AcDbLine
 10
45.82377654169014
 20
34.63662949612035
 30
0.0
 11
45.82377654169014
 21
36.36594652287128
 31
0.0
  0
LINE
  5
548
330
540
100
AcDbEntity
  8
DIMS
100
AcDbLine
 10
37.32377654169013
 20
35.99094652287128
 30
0.0
 11
40.88148307137207
 21
35.99094652287128
 31
0.0
  0
LINE
  5
549
330
540
100
AcDbEntity
  8
DIMS
100
AcDbLine
 10
45.82377654169014
 20
35.99094652287128
 30
0.0
 11
42.11967760764313
 21
35.99094652287128
 31
0.0
  0
MTEXT
  5
54A
330
540
100
AcDbEntity
  8
DIMS
100
AcDbMText
 10
40.88148307137207
 20
36.27163228169077
 30
0.0
 40
0.5
 41
0.0
 71
     1
 72
     1
  1
8
  7
SLDTEXTSTYLE1
 73
     1
 44
1.0
  0
MTEXT
  5
54B
330
540
100
AcDbEntity
  8
DIMS
100
AcDbMText
 10
41.39745532081661
 20
36.63694478073627
 30
0.0
 40
0.5
 41
0.0
 71
     1
 72
     1
  1
1
  7
SLDTEXTSTYLE1
 73
     1
 44
1.0
  0
MTEXT
  5
54C
330
540
100
AcDbEntity
  8
DIMS
100
AcDbMText
 10
41.39745532081661
 20
35.97576420218824
 30
0.0
 40
0.5
 41
0.0
 71
     1
 72
     1
  1
2
  7
SLDTEXTSTYLE1
 73
     1
 44
1.0
  0
MTEXT
  5
54D
330
540
100
AcDbEntity
  8
DIMS
100
AcDbMText
 10
41.91342757026116
 20
36.27163228169077
 30
0.0
 40
0.5
 41
0.0
 71
     1
 72
     1
  1
"
  7
SLDTEXTSTYLE1
 73
     1
 44
1.0
  0
ENDBLK
  5
60C
330
540
100
AcDbEntity
  8
0
100
AcDbBlockEnd
  0
BLOCK
  5
60D
330
54F
100
AcDbEntity
  8
0
100
AcDbBlockBegin
  2
_D_15
 70
     0
 71
     0
 10
0.0
 20
0.0
 30
0.0
  3
_D_15
  1

  0
INSERT
  5
552
330
54F
100
AcDbEntity
  8
DIMS
100
AcDbBlockReference
  2
_Open90
 10
49.40671920148711
 20
34.46996282945369
 30
0.4395485830716255
 41
0.3
 42
0.3
 50
90.00000000000041
  0
INSERT
  5
553
330
54F
100
AcDbEntity
  8
DIMS
100
AcDbBlockReference
  2
_Open90
 10
49.40671920148711
 20
18.64496282945368
 30
0.4395485830716255
 41
0.3
 42
0.3
 50
270.0000000000004
  0
LINE
  5
554
330
54F
100
AcDbEntity
  8
DIMS
100
AcDbLine
 10
49.23033028081364
 20
27.50614669709921
 30
0.0
 11
50.11574697573776
 21
27.50614669709921
 31
0.0
  0
LINE
  5
555
330
54F
100
AcDbEntity
  8
DIMS
100
AcDbLine
 10
45.9904432083568
 20
34.46996282945369
 30
0.0
 11
49.78171920148711
 21
34.46996282945369
 31
0.0
  0
LINE
  5
556
330
54F
100
AcDbEntity
  8
DIMS
100
AcDbLine
 10
45.9904432083568
 20
18.64496282945368
 30
0.0
 11
49.78171920148711
 21
18.64496282945368
 31
0.0
  0
LINE
  5
557
330
54F
100
AcDbEntity
  8
DIMS
100
AcDbLine
 10
49.40671920148711
 20
34.46996282945369
 30
0.0
 11
49.40671920148711
 21
28.10871615199879
 31
0.0
  0
LINE
  5
558
330
54F
100
AcDbEntity
  8
DIMS
100
AcDbLine
 10
49.40671920148711
 20
18.64496282945368
 30
0.0
 11
49.40671920148711
 21
26.80100784542341
 31
0.0
  0
MTEXT
  5
559
330
54F
100
AcDbEntity
  8
DIMS
100
AcDbMText
 10
48.41817748787201
 20
27.73554775753058
 30
0.0
 40
0.5
 41
0.0
 71
     1
 72
     1
  1
15
  7
SLDTEXTSTYLE1
 73
     1
 44
1.0
  0
MTEXT
  5
55A
330
54F
100
AcDbEntity
  8
DIMS
100
AcDbMText
 10
49.30359418279613
 20
28.10086025657609
 30
0.0
 40
0.5
 41
0.0
 71
     1
 72
     1
  1
13
  7
SLDTEXTSTYLE1
 73
     1
 44
1.0
  0
MTEXT
  5
55B
330
54F
100
AcDbEntity
  8
DIMS
100
AcDbMText
 10
49.30359418279613
 20
27.43967967802805
 30
0.0
 40
0.5
 41
0.0
 71
     1
 72
     1
  1
16
  7
SLDTEXTSTYLE1
 73
     1
 44
1.0
  0
MTEXT
  5
55C
330
54F
100
AcDbEntity
  8
DIMS
100
AcDbMText
 10
50.18901095105273
 20
27.73554775753058
 30
0.0
 40
0.5
 41
0.0
 71
     1
 72
     1
  1
"
  7
SLDTEXTSTYLE1
 73
     1
 44
1.0
  0
ENDBLK
  5
60E
330
54F
100
AcDbEntity
  8
0
100
AcDbBlockEnd
  0
BLOCK
  5
60F
330
5B4
100
AcDbEntity
  8
0
100
AcDbBlockBegin
  2
_D_16
 70
     0
 71
     0
 10
0.0
 20
0.0
 30
0.0
  3
_D_16
  1

  0
INSERT
  5
5B7
330
5B4
100
AcDbEntity
  8
DIMS
100
AcDbBlockReference
  2
_Open90
 10
6.789989165781522
 20
35.54203039006125
 30
-5.596455511811018
 41
0.3
 42
0.3
 50
0.0000000000004071
  0
INSERT
  5
5B8
330
5B4
100
AcDbEntity
  8
DIMS
100
AcDbBlockReference
  2
_Open90
 10
6.006989165781545
 20
35.54203039006125
 30
-5.596455511811018
 41
0.3
 42
0.3
 50
180.0000000000004
  0
LINE
  5
5B9
330
5B4
100
AcDbEntity
  8
DIMS
100
AcDbLine
 10
4.059269081821383
 20
35.59331508844937
 30
0.0
 11
4.944685776745501
 21
35.59331508844937
 31
0.0
  0
LINE
  5
5BA
330
5B4
100
AcDbEntity
  8
DIMS
100
AcDbLine
 10
6.789989165781522
 20
30.53662949612034
 30
0.0
 11
6.789989165781522
 21
35.91703039006125
 31
0.0
  0
LINE
  5
5BB
330
5B4
100
AcDbEntity
  8
DIMS
100
AcDbLine
 10
6.006989165781545
 20
34.72068047080284
 30
0.0
 11
6.006989165781545
 21
35.91703039006125
 31
0.0
  0
LINE
  5
5BC
330
5B4
100
AcDbEntity
  8
DIMS
100
AcDbLine
 10
6.789989165781522
 20
35.54203039006125
 30
0.0
 11
6.006989165781545
 21
35.54203039006125
 31
0.0
  0
LINE
  5
5BD
330
5B4
100
AcDbEntity
  8
DIMS
100
AcDbLine
 10
6.006989165781545
 20
35.54203039006125
 30
0.0
 11
5.224199716109956
 21
35.54203039006125
 31
0.0
  0
MTEXT
  5
5BE
330
5B4
100
AcDbEntity
  8
DIMS
100
AcDbMText
 10
4.132532983803869
 20
36.18802864792624
 30
0.0
 40
0.5
 41
0.0
 71
     1
 72
     1
  1
13
  7
SLDTEXTSTYLE1
 73
     1
 44
1.0
  0
MTEXT
  5
5BF
330
5B4
100
AcDbEntity
  8
DIMS
100
AcDbMText
 10
4.132532983803869
 20
35.5268480693782
 30
0.0
 40
0.5
 41
0.0
 71
     1
 72
     1
  1
16
  7
SLDTEXTSTYLE1
 73
     1
 44
1.0
  0
MTEXT
  5
5C0
330
5B4
100
AcDbEntity
  8
DIMS
100
AcDbMText
 10
5.017949678727987
 20
35.82271614888074
 30
0.0
 40
0.5
 41
0.0
 71
     1
 72
     1
  1
"
  7
SLDTEXTSTYLE1
 73
     1
 44
1.0
  0
ENDBLK
  5
610
330
5B4
100
AcDbEntity
  8
0
100
AcDbBlockEnd
  0
BLOCK
  5
611
330
5C2
100
AcDbEntity
  8
0
100
AcDbBlockBegin
  2
_D_17
 70
     0
 71
     0
 10
0.0
 20
0.0
 30
0.0
  3
_D_17
  1

  0
INSERT
  5
5C5
330
5C2
100
AcDbEntity
  8
DIMS
100
AcDbBlockReference
  2
_Open90
 10
6.827632326369423
 20
30.46260727052249
 30
-5.596455511811018
 41
0.3
 42
0.3
 50
247.8871775103272
  0
LINE
  5
5C6
330
5C2
100
AcDbEntity
  8
DIMS
100
AcDbLine
 10
10.9311895447144
 20
37.83876155487415
 30
0.0
 11
11.81660623963852
 21
37.83876155487415
 31
0.0
  0
LINE
  5
5C7
330
5C2
100
AcDbEntity
  8
DIMS
100
AcDbLine
 10
6.827632326369423
 20
30.46260727052249
 30
0.0
 11
9.803863160392726
 21
37.78747685648603
 31
0.0
  0
LINE
  5
5C8
330
5C2
100
AcDbEntity
  8
DIMS
100
AcDbLine
 10
9.803863160392726
 20
37.78747685648603
 30
0.0
 11
10.10386316039273
 21
37.78747685648603
 31
0.0
  0
MTEXT
  5
5C9
330
5C2
100
AcDbEntity
  8
DIMS
100
AcDbMText
 10
10.10386316039273
 20
38.06052372605062
 30
0.0
 40
0.5
 41
0.0
 71
     1
 72
     1
  1
%%c
  7
SLDTEXTSTYLE1
 73
     1
 44
1.0
  0
MTEXT
  5
5CA
330
5C2
100
AcDbEntity
  8
DIMS
100
AcDbMText
 10
11.18917566943668
 20
38.43347511435102
 30
0.0
 40
0.5
 41
0.0
 71
     1
 72
     1
  1
3
  7
SLDTEXTSTYLE1
 73
     1
 44
1.0
  0
MTEXT
  5
5CB
330
5C2
100
AcDbEntity
  8
DIMS
100
AcDbMText
 10
11.00445344669689
 20
37.77229453580298
 30
0.0
 40
0.5
 41
0.0
 71
     1
 72
     1
  1
16
  7
SLDTEXTSTYLE1
 73
     1
 44
1.0
  0
MTEXT
  5
5CC
330
5C2
100
AcDbEntity
  8
DIMS
100
AcDbMText
 10
11.88987014162101
 20
38.06816261530552
 30
0.0
 40
0.5
 41
0.0
 71
     1
 72
     1
  1
"
  7
SLDTEXTSTYLE1
 73
     1
 44
1.0
  0
MTEXT
  5
5CD
330
5C2
100
AcDbEntity
  8
DIMS
100
AcDbMText
 10
12.09612010567049
 20
38.06816261530552
 30
0.0
 40
0.5
 41
0.0
 71
     1
 72
     1
  1
side mounting hole(4)
  7
SLDTEXTSTYLE1
 73
     1
 44
1.0
  0
ENDBLK
  5
612
330
5C2
100
AcDbEntity
  8
0
100
AcDbBlockEnd
  0
ENDSEC
  0
SECTION
  2
ENTITIES
  0
LINE
  5
7A
330
1F
100
AcDbEntity
  8
DIMS
100
AcDbLine
 10
10.44295797225178
 20
10.61422589088549
 30
0.0
 11
10.44295797225178
 21
11.64402808626557
 31
0.0
  0
LINE
  5
7B
330
1F
100
AcDbEntity
  8
DIMS
100
AcDbLine
 10
10.44295797225178
 20
11.64402808626557
 30
0.0
 11
10.77193949367115
 21
11.84706574652278
 31
0.0
  0
LINE
  5
7C
330
1F
100
AcDbEntity
  8
DIMS
100
AcDbLine
 10
10.77193949367115
 20
11.84706574652278
 30
0.0
 11
10.11397645083242
 21
12.10572386575131
 31
0.0
  0
LINE
  5
7D
330
1F
100
AcDbEntity
  8
DIMS
100
AcDbLine
 10
10.11397645083242
 20
12.10572386575131
 30
0.0
 11
10.44295797225178
 21
12.30876152600852
 31
0.0
  0
LINE
  5
7E
330
1F
100
AcDbEntity
  8
DIMS
100
AcDbLine
 10
10.44295797225178
 20
12.30876152600852
 30
0.0
 11
10.44295797225178
 21
12.83430285250287
 31
0.0
  0
LINE
  5
7F
330
1F
100
AcDbEntity
  8
TITLE
370
    50
100
AcDbLine
 10
52.5182230240126
 20
1.487611764461629
 30
0.0
 11
69.49998645119504
 21
1.487611764461629
 31
0.0
  0
LINE
  5
80
330
1F
100
AcDbEntity
  8
TITLE
370
    50
100
AcDbLine
 10
69.49993174424404
 20
5.475360393555786
 30
0.0
 11
59.31053507231783
 21
5.475360393555786
 31
0.0
  0
LINE
  5
81
330
1F
100
AcDbEntity
  8
TITLE
  6
SLD-Solid
370
    18
100
AcDbLine
 10
0.5
 20
0.5
 30
0.0
 11
0.5
 21
49.50000000000001
 31
0.0
  0
LINE
  5
82
330
1F
100
AcDbEntity
  8
TITLE
  6
SLD-Solid
370
    18
100
AcDbLine
 10
0.5
 20
49.50000000000001
 30
0.0
 11
69.5
 21
49.50000000000001
 31
0.0
  0
LINE
  5
83
330
1F
100
AcDbEntity
  8
TITLE
370
    50
100
AcDbLine
 10
52.5182230240126
 20
2.54278772310344
 30
0.0
 11
45.50597912026433
 21
2.54278772310344
 31
0.0
  0
LINE
  5
84
330
1F
100
AcDbEntity
  8
TITLE
370
    50
100
AcDbLine
 10
52.5182230240126
 20
1.487611764461629
 30
0.0
 11
45.50597912026433
 21
1.487611764461629
 31
0.0
  0
LINE
  5
85
330
1F
100
AcDbEntity
  8
TITLE
  6
SLD-Solid
370
    18
100
AcDbLine
 10
69.5
 20
49.50000000000001
 30
0.0
 11
69.5
 21
0.5
 31
0.0
  0
LINE
  5
86
330
1F
100
AcDbEntity
  8
TITLE
  6
SLD-Solid
370
    18
100
AcDbLine
 10
69.5
 20
0.5
 30
0.0
 11
0.5
 21
0.5
 31
0.0
  0
LINE
  5
87
330
1F
100
AcDbEntity
  8
TITLE
370
    50
100
AcDbLine
 10
52.5182230240126
 20
1.487611764461629
 30
0.0
 11
52.5182230240126
 21
3.597963681745254
 31
0.0
  0
LINE
  5
88
330
1F
100
AcDbEntity
  8
TITLE
370
    50
100
AcDbLine
 10
45.50597912026433
 20
3.597963681745254
 30
0.0
 11
45.50597912026433
 21
0.4999999999999996
 31
0.0
  0
LINE
  5
89
330
1F
100
AcDbEntity
  8
TITLE
370
    50
100
AcDbLine
 10
45.50597912026433
 20
0.4999999999999996
 30
0.0
 11
69.5
 21
0.4999999999999996
 31
0.0
  0
LINE
  5
8A
330
1F
100
AcDbEntity
  8
TITLE
370
    50
100
AcDbLine
 10
69.49993174424404
 20
5.475360393555786
 30
0.0
 11
69.5
 21
0.4999999999999996
 31
0.0
  0
LINE
  5
8B
330
1F
100
AcDbEntity
  8
TITLE
  6
SLD-Solid
370
    18
100
AcDbLine
 10
0.4999606299212599
 20
25.0
 30
0.0
 11
0.5000393700787401
 21
25.0
 31
0.0
  0
LINE
  5
8C
330
1F
100
AcDbEntity
  8
TITLE
370
    50
100
AcDbLine
 10
52.5182230240126
 20
3.597963681745254
 30
0.0
 11
45.50597912026433
 21
3.597963681745254
 31
0.0
  0
LINE
  5
8D
330
1F
100
AcDbEntity
  8
TITLE
370
    50
100
AcDbLine
 10
52.5182230240126
 20
3.597963681745254
 30
0.0
 11
69.49976156426075
 21
3.597964834324629
 31
0.0
  0
LINE
  5
8E
330
1F
100
AcDbEntity
  8
TITLE
370
    50
100
AcDbLine
 10
59.31053507231783
 20
5.475360393555786
 30
0.0
 11
59.31053507231783
 21
0.4636772425222307
 31
0.0
  0
LINE
  5
8F
330
1F
100
AcDbEntity
  8
TITLE
  6
SLD-Solid
370
    18
100
AcDbLine
 10
35.0
 20
49.50003937007874
 30
0.0
 11
35.0
 21
49.49996062992127
 31
0.0
  0
LINE
  5
90
330
1F
100
AcDbEntity
  8
TITLE
  6
SLD-Solid
370
    18
100
AcDbLine
 10
69.50003937007874
 20
25.0
 30
0.0
 11
69.49996062992126
 21
25.0
 31
0.0
  0
LINE
  5
91
330
1F
100
AcDbEntity
  8
TITLE
  6
SLD-Solid
370
    18
100
AcDbLine
 10
35.0
 20
0.4999606299212599
 30
0.0
 11
35.0
 21
0.5000393700787401
 31
0.0
  0
LINE
  5
613
330
1F
100
AcDbEntity
  8
TITLE
  6
SLD-Solid
370
    18
100
AcDbLine
 10
0.5
 20
3.346456692913384
 30
0.0
 11
0.1653543307086614
 21
3.346456692913384
 31
0.0
  0
LINE
  5
614
330
1F
100
AcDbEntity
  8
TITLE
  6
SLD-Solid
370
    18
100
AcDbLine
 10
69.5
 20
3.346456692913384
 30
0.0
 11
69.83464566929135
 21
3.346456692913384
 31
0.0
  0
LINE
  5
94
330
1F
100
AcDbEntity
  8
TITLE
  6
SLD-Solid
370
    18
100
AcDbLine
 10
0.5
 20
5.31496062992126
 30
0.0
 11
0.1653543307086614
 21
5.31496062992126
 31
0.0
  0
LINE
  5
95
330
1F
100
AcDbEntity
  8
TITLE
  6
SLD-Solid
370
    18
100
AcDbLine
 10
69.5
 20
5.31496062992126
 30
0.0
 11
69.83464566929135
 21
5.31496062992126
 31
0.0
  0
LINE
  5
96
330
1F
100
AcDbEntity
  8
TITLE
  6
SLD-Solid
370
    18
100
AcDbLine
 10
0.5
 20
7.283464566929134
 30
0.0
 11
0.1653543307086614
 21
7.283464566929134
 31
0.0
  0
LINE
  5
615
330
1F
100
AcDbEntity
  8
TITLE
  6
SLD-Solid
370
    18
100
AcDbLine
 10
69.5
 20
7.283464566929134
 30
0.0
 11
69.83464566929135
 21
7.283464566929134
 31
0.0
  0
LINE
  5
616
330
1F
100
AcDbEntity
  8
TITLE
  6
SLD-Solid
370
    18
100
AcDbLine
 10
0.5
 20
9.251968503937007
 30
0.0
 11
0.1653543307086614
 21
9.251968503937007
 31
0.0
  0
LINE
  5
99
330
1F
100
AcDbEntity
  8
TITLE
  6
SLD-Solid
370
    18
100
AcDbLine
 10
69.5
 20
9.251968503937007
 30
0.0
 11
69.83464566929135
 21
9.251968503937007
 31
0.0
  0
LINE
  5
9A
330
1F
100
AcDbEntity
  8
TITLE
  6
SLD-Solid
370
    18
100
AcDbLine
 10
0.5
 20
11.22047244094488
 30
0.0
 11
0.1653543307086614
 21
11.22047244094488
 31
0.0
  0
LINE
  5
9B
330
1F
100
AcDbEntity
  8
TITLE
  6
SLD-Solid
370
    18
100
AcDbLine
 10
69.5
 20
11.22047244094488
 30
0.0
 11
69.83464566929135
 21
11.22047244094488
 31
0.0
  0
LINE
  5
9C
330
1F
100
AcDbEntity
  8
TITLE
  6
SLD-Solid
370
    18
100
AcDbLine
 10
0.5
 20
13.18897637795276
 30
0.0
 11
0.1653543307086614
 21
13.18897637795276
 31
0.0
  0
LINE
  5
9D
330
1F
100
AcDbEntity
  8
TITLE
  6
SLD-Solid
370
    18
100
AcDbLine
 10
69.5
 20
13.18897637795276
 30
0.0
 11
69.83464566929135
 21
13.18897637795276
 31
0.0
  0
LINE
  5
9E
330
1F
100
AcDbEntity
  8
TITLE
  6
SLD-Solid
370
    18
100
AcDbLine
 10
0.5
 20
15.15748031496063
 30
0.0
 11
0.1653543307086614
 21
15.15748031496063
 31
0.0
  0
LINE
  5
9F
330
1F
100
AcDbEntity
  8
TITLE
  6
SLD-Solid
370
    18
100
AcDbLine
 10
69.5
 20
15.15748031496063
 30
0.0
 11
69.83464566929135
 21
15.15748031496063
 31
0.0
  0
LINE
  5
A0
330
1F
100
AcDbEntity
  8
TITLE
  6
SLD-Solid
370
    18
100
AcDbLine
 10
0.5
 20
17.1259842519685
 30
0.0
 11
0.1653543307086614
 21
17.1259842519685
 31
0.0
  0
LINE
  5
A1
330
1F
100
AcDbEntity
  8
TITLE
  6
SLD-Solid
370
    18
100
AcDbLine
 10
69.5
 20
17.1259842519685
 30
0.0
 11
69.83464566929135
 21
17.1259842519685
 31
0.0
  0
LINE
  5
A2
330
1F
100
AcDbEntity
  8
TITLE
  6
SLD-Solid
370
    18
100
AcDbLine
 10
0.5
 20
19.09448818897638
 30
0.0
 11
0.1653543307086614
 21
19.09448818897638
 31
0.0
  0
LINE
  5
A3
330
1F
100
AcDbEntity
  8
TITLE
  6
SLD-Solid
370
    18
100
AcDbLine
 10
69.5
 20
19.09448818897638
 30
0.0
 11
69.83464566929135
 21
19.09448818897638
 31
0.0
  0
LINE
  5
A4
330
1F
100
AcDbEntity
  8
TITLE
  6
SLD-Solid
370
    18
100
AcDbLine
 10
0.5
 20
21.06299212598426
 30
0.0
 11
0.1653543307086614
 21
21.06299212598426
 31
0.0
  0
LINE
  5
A5
330
1F
100
AcDbEntity
  8
TITLE
  6
SLD-Solid
370
    18
100
AcDbLine
 10
69.5
 20
21.06299212598426
 30
0.0
 11
69.83464566929135
 21
21.06299212598426
 31
0.0
  0
LINE
  5
A6
330
1F
100
AcDbEntity
  8
TITLE
  6
SLD-Solid
370
    18
100
AcDbLine
 10
0.5
 20
23.03149606299213
 30
0.0
 11
0.1653543307086614
 21
23.03149606299213
 31
0.0
  0
LINE
  5
A7
330
1F
100
AcDbEntity
  8
TITLE
  6
SLD-Solid
370
    18
100
AcDbLine
 10
69.5
 20
23.03149606299213
 30
0.0
 11
69.83464566929135
 21
23.03149606299213
 31
0.0
  0
LINE
  5
A8
330
1F
100
AcDbEntity
  8
TITLE
  6
SLD-Solid
370
    18
100
AcDbLine
 10
0.5
 20
25.0
 30
0.0
 11
0.1653543307086614
 21
25.0
 31
0.0
  0
LINE
  5
A9
330
1F
100
AcDbEntity
  8
TITLE
  6
SLD-Solid
370
    18
100
AcDbLine
 10
69.5
 20
25.0
 30
0.0
 11
69.83464566929135
 21
25.0
 31
0.0
  0
LINE
  5
AA
330
1F
100
AcDbEntity
  8
TITLE
  6
SLD-Solid
370
    18
100
AcDbLine
 10
0.5
 20
26.96850393700788
 30
0.0
 11
0.1653543307086614
 21
26.96850393700788
 31
0.0
  0
LINE
  5
AB
330
1F
100
AcDbEntity
  8
TITLE
  6
SLD-Solid
370
    18
100
AcDbLine
 10
69.5
 20
26.96850393700788
 30
0.0
 11
69.83464566929135
 21
26.96850393700788
 31
0.0
  0
LINE
  5
AC
330
1F
100
AcDbEntity
  8
TITLE
  6
SLD-Solid
370
    18
100
AcDbLine
 10
0.5
 20
28.93700787401575
 30
0.0
 11
0.1653543307086614
 21
28.93700787401575
 31
0.0
  0
LINE
  5
AD
330
1F
100
AcDbEntity
  8
TITLE
  6
SLD-Solid
370
    18
100
AcDbLine
 10
69.5
 20
28.93700787401575
 30
0.0
 11
69.83464566929135
 21
28.93700787401575
 31
0.0
  0
LINE
  5
AE
330
1F
100
AcDbEntity
  8
TITLE
  6
SLD-Solid
370
    18
100
AcDbLine
 10
0.5
 20
30.90551181102363
 30
0.0
 11
0.1653543307086614
 21
30.90551181102363
 31
0.0
  0
LINE
  5
AF
330
1F
100
AcDbEntity
  8
TITLE
  6
SLD-Solid
370
    18
100
AcDbLine
 10
69.5
 20
30.90551181102363
 30
0.0
 11
69.83464566929135
 21
30.90551181102363
 31
0.0
  0
LINE
  5
B0
330
1F
100
AcDbEntity
  8
TITLE
  6
SLD-Solid
370
    18
100
AcDbLine
 10
0.5
 20
32.8740157480315
 30
0.0
 11
0.1653543307086614
 21
32.8740157480315
 31
0.0
  0
LINE
  5
B1
330
1F
100
AcDbEntity
  8
TITLE
  6
SLD-Solid
370
    18
100
AcDbLine
 10
69.5
 20
32.8740157480315
 30
0.0
 11
69.83464566929135
 21
32.8740157480315
 31
0.0
  0
LINE
  5
B2
330
1F
100
AcDbEntity
  8
TITLE
  6
SLD-Solid
370
    18
100
AcDbLine
 10
0.5
 20
34.84251968503937
 30
0.0
 11
0.1653543307086614
 21
34.84251968503937
 31
0.0
  0
LINE
  5
B3
330
1F
100
AcDbEntity
  8
TITLE
  6
SLD-Solid
370
    18
100
AcDbLine
 10
69.5
 20
34.84251968503937
 30
0.0
 11
69.83464566929135
 21
34.84251968503937
 31
0.0
  0
LINE
  5
B4
330
1F
100
AcDbEntity
  8
TITLE
  6
SLD-Solid
370
    18
100
AcDbLine
 10
0.5
 20
36.81102362204724
 30
0.0
 11
0.1653543307086614
 21
36.81102362204724
 31
0.0
  0
LINE
  5
B5
330
1F
100
AcDbEntity
  8
TITLE
  6
SLD-Solid
370
    18
100
AcDbLine
 10
69.5
 20
36.81102362204724
 30
0.0
 11
69.83464566929135
 21
36.81102362204724
 31
0.0
  0
LINE
  5
B6
330
1F
100
AcDbEntity
  8
TITLE
  6
SLD-Solid
370
    18
100
AcDbLine
 10
0.5
 20
38.77952755905513
 30
0.0
 11
0.1653543307086614
 21
38.77952755905513
 31
0.0
  0
LINE
  5
B7
330
1F
100
AcDbEntity
  8
TITLE
  6
SLD-Solid
370
    18
100
AcDbLine
 10
69.5
 20
38.77952755905513
 30
0.0
 11
69.83464566929135
 21
38.77952755905513
 31
0.0
  0
LINE
  5
B8
330
1F
100
AcDbEntity
  8
TITLE
  6
SLD-Solid
370
    18
100
AcDbLine
 10
0.5
 20
40.748031496063
 30
0.0
 11
0.1653543307086614
 21
40.748031496063
 31
0.0
  0
LINE
  5
B9
330
1F
100
AcDbEntity
  8
TITLE
  6
SLD-Solid
370
    18
100
AcDbLine
 10
69.5
 20
40.748031496063
 30
0.0
 11
69.83464566929135
 21
40.748031496063
 31
0.0
  0
LINE
  5
BA
330
1F
100
AcDbEntity
  8
TITLE
  6
SLD-Solid
370
    18
100
AcDbLine
 10
0.5
 20
42.71653543307087
 30
0.0
 11
0.1653543307086614
 21
42.71653543307087
 31
0.0
  0
LINE
  5
BB
330
1F
100
AcDbEntity
  8
TITLE
  6
SLD-Solid
370
    18
100
AcDbLine
 10
69.5
 20
42.71653543307087
 30
0.0
 11
69.83464566929135
 21
42.71653543307087
 31
0.0
  0
LINE
  5
BC
330
1F
100
AcDbEntity
  8
TITLE
  6
SLD-Solid
370
    18
100
AcDbLine
 10
0.5
 20
44.68503937007874
 30
0.0
 11
0.1653543307086614
 21
44.68503937007874
 31
0.0
  0
LINE
  5
BD
330
1F
100
AcDbEntity
  8
TITLE
  6
SLD-Solid
370
    18
100
AcDbLine
 10
69.5
 20
44.68503937007874
 30
0.0
 11
69.83464566929135
 21
44.68503937007874
 31
0.0
  0
LINE
  5
BE
330
1F
100
AcDbEntity
  8
TITLE
  6
SLD-Solid
370
    18
100
AcDbLine
 10
0.5
 20
46.65354330708661
 30
0.0
 11
0.1653543307086614
 21
46.65354330708661
 31
0.0
  0
LINE
  5
BF
330
1F
100
AcDbEntity
  8
TITLE
  6
SLD-Solid
370
    18
100
AcDbLine
 10
69.5
 20
46.65354330708661
 30
0.0
 11
69.83464566929135
 21
46.65354330708661
 31
0.0
  0
LINE
  5
C0
330
1F
100
AcDbEntity
  8
TITLE
  6
SLD-Solid
370
    18
100
AcDbLine
 10
1.535433070866139
 20
49.50000000000001
 30
0.0
 11
1.535433070866139
 21
49.83464566929134
 31
0.0
  0
LINE
  5
C1
330
1F
100
AcDbEntity
  8
TITLE
  6
SLD-Solid
370
    18
100
AcDbLine
 10
1.535433070866139
 20
0.5
 30
0.0
 11
1.535433070866139
 21
0.1653543307086614
 31
0.0
  0
LINE
  5
C2
330
1F
100
AcDbEntity
  8
TITLE
  6
SLD-Solid
370
    18
100
AcDbLine
 10
3.503937007874014
 20
49.50000000000001
 30
0.0
 11
3.503937007874014
 21
49.83464566929134
 31
0.0
  0
LINE
  5
C3
330
1F
100
AcDbEntity
  8
TITLE
  6
SLD-Solid
370
    18
100
AcDbLine
 10
3.503937007874014
 20
0.5
 30
0.0
 11
3.503937007874014
 21
0.1653543307086614
 31
0.0
  0
LINE
  5
C4
330
1F
100
AcDbEntity
  8
TITLE
  6
SLD-Solid
370
    18
100
AcDbLine
 10
5.472440944881891
 20
49.50000000000001
 30
0.0
 11
5.472440944881891
 21
49.83464566929134
 31
0.0
  0
LINE
  5
C5
330
1F
100
AcDbEntity
  8
TITLE
  6
SLD-Solid
370
    18
100
AcDbLine
 10
5.472440944881891
 20
0.5
 30
0.0
 11
5.472440944881891
 21
0.1653543307086614
 31
0.0
  0
LINE
  5
C6
330
1F
100
AcDbEntity
  8
TITLE
  6
SLD-Solid
370
    18
100
AcDbLine
 10
7.440944881889762
 20
49.50000000000001
 30
0.0
 11
7.440944881889762
 21
49.83464566929134
 31
0.0
  0
LINE
  5
C7
330
1F
100
AcDbEntity
  8
TITLE
  6
SLD-Solid
370
    18
100
AcDbLine
 10
7.440944881889762
 20
0.5
 30
0.0
 11
7.440944881889762
 21
0.1653543307086614
 31
0.0
  0
LINE
  5
C8
330
1F
100
AcDbEntity
  8
TITLE
  6
SLD-Solid
370
    18
100
AcDbLine
 10
9.409448818897637
 20
49.50000000000001
 30
0.0
 11
9.409448818897637
 21
49.83464566929134
 31
0.0
  0
LINE
  5
C9
330
1F
100
AcDbEntity
  8
TITLE
  6
SLD-Solid
370
    18
100
AcDbLine
 10
9.409448818897637
 20
0.5
 30
0.0
 11
9.409448818897637
 21
0.1653543307086614
 31
0.0
  0
LINE
  5
CA
330
1F
100
AcDbEntity
  8
TITLE
  6
SLD-Solid
370
    18
100
AcDbLine
 10
11.37795275590551
 20
49.50000000000001
 30
0.0
 11
11.37795275590551
 21
49.83464566929134
 31
0.0
  0
LINE
  5
CB
330
1F
100
AcDbEntity
  8
TITLE
  6
SLD-Solid
370
    18
100
AcDbLine
 10
11.37795275590551
 20
0.5
 30
0.0
 11
11.37795275590551
 21
0.1653543307086614
 31
0.0
  0
LINE
  5
CC
330
1F
100
AcDbEntity
  8
TITLE
  6
SLD-Solid
370
    18
100
AcDbLine
 10
13.34645669291339
 20
49.50000000000001
 30
0.0
 11
13.34645669291339
 21
49.83464566929134
 31
0.0
  0
LINE
  5
CD
330
1F
100
AcDbEntity
  8
TITLE
  6
SLD-Solid
370
    18
100
AcDbLine
 10
13.34645669291339
 20
0.5
 30
0.0
 11
13.34645669291339
 21
0.1653543307086614
 31
0.0
  0
LINE
  5
CE
330
1F
100
AcDbEntity
  8
TITLE
  6
SLD-Solid
370
    18
100
AcDbLine
 10
15.31496062992126
 20
49.50000000000001
 30
0.0
 11
15.31496062992126
 21
49.83464566929134
 31
0.0
  0
LINE
  5
CF
330
1F
100
AcDbEntity
  8
TITLE
  6
SLD-Solid
370
    18
100
AcDbLine
 10
15.31496062992126
 20
0.5
 30
0.0
 11
15.31496062992126
 21
0.1653543307086614
 31
0.0
  0
LINE
  5
D0
330
1F
100
AcDbEntity
  8
TITLE
  6
SLD-Solid
370
    18
100
AcDbLine
 10
17.28346456692913
 20
49.50000000000001
 30
0.0
 11
17.28346456692913
 21
49.83464566929134
 31
0.0
  0
LINE
  5
D1
330
1F
100
AcDbEntity
  8
TITLE
  6
SLD-Solid
370
    18
100
AcDbLine
 10
17.28346456692913
 20
0.5
 30
0.0
 11
17.28346456692913
 21
0.1653543307086614
 31
0.0
  0
LINE
  5
D2
330
1F
100
AcDbEntity
  8
TITLE
  6
SLD-Solid
370
    18
100
AcDbLine
 10
19.25196850393701
 20
49.50000000000001
 30
0.0
 11
19.25196850393701
 21
49.83464566929134
 31
0.0
  0
LINE
  5
D3
330
1F
100
AcDbEntity
  8
TITLE
  6
SLD-Solid
370
    18
100
AcDbLine
 10
19.25196850393701
 20
0.5
 30
0.0
 11
19.25196850393701
 21
0.1653543307086614
 31
0.0
  0
LINE
  5
D4
330
1F
100
AcDbEntity
  8
TITLE
  6
SLD-Solid
370
    18
100
AcDbLine
 10
21.22047244094488
 20
49.50000000000001
 30
0.0
 11
21.22047244094488
 21
49.83464566929134
 31
0.0
  0
LINE
  5
D5
330
1F
100
AcDbEntity
  8
TITLE
  6
SLD-Solid
370
    18
100
AcDbLine
 10
21.22047244094488
 20
0.5
 30
0.0
 11
21.22047244094488
 21
0.1653543307086614
 31
0.0
  0
LINE
  5
D6
330
1F
100
AcDbEntity
  8
TITLE
  6
SLD-Solid
370
    18
100
AcDbLine
 10
23.18897637795276
 20
49.50000000000001
 30
0.0
 11
23.18897637795276
 21
49.83464566929134
 31
0.0
  0
LINE
  5
D7
330
1F
100
AcDbEntity
  8
TITLE
  6
SLD-Solid
370
    18
100
AcDbLine
 10
23.18897637795276
 20
0.5
 30
0.0
 11
23.18897637795276
 21
0.1653543307086614
 31
0.0
  0
LINE
  5
D8
330
1F
100
AcDbEntity
  8
TITLE
  6
SLD-Solid
370
    18
100
AcDbLine
 10
25.15748031496063
 20
49.50000000000001
 30
0.0
 11
25.15748031496063
 21
49.83464566929134
 31
0.0
  0
LINE
  5
D9
330
1F
100
AcDbEntity
  8
TITLE
  6
SLD-Solid
370
    18
100
AcDbLine
 10
25.15748031496063
 20
0.5
 30
0.0
 11
25.15748031496063
 21
0.1653543307086614
 31
0.0
  0
LINE
  5
DA
330
1F
100
AcDbEntity
  8
TITLE
  6
SLD-Solid
370
    18
100
AcDbLine
 10
27.12598425196851
 20
49.50000000000001
 30
0.0
 11
27.12598425196851
 21
49.83464566929134
 31
0.0
  0
LINE
  5
DB
330
1F
100
AcDbEntity
  8
TITLE
  6
SLD-Solid
370
    18
100
AcDbLine
 10
27.12598425196851
 20
0.5
 30
0.0
 11
27.12598425196851
 21
0.1653543307086614
 31
0.0
  0
LINE
  5
DC
330
1F
100
AcDbEntity
  8
TITLE
  6
SLD-Solid
370
    18
100
AcDbLine
 10
29.09448818897638
 20
49.50000000000001
 30
0.0
 11
29.09448818897638
 21
49.83464566929134
 31
0.0
  0
LINE
  5
DD
330
1F
100
AcDbEntity
  8
TITLE
  6
SLD-Solid
370
    18
100
AcDbLine
 10
29.09448818897638
 20
0.5
 30
0.0
 11
29.09448818897638
 21
0.1653543307086614
 31
0.0
  0
LINE
  5
DE
330
1F
100
AcDbEntity
  8
TITLE
  6
SLD-Solid
370
    18
100
AcDbLine
 10
31.06299212598426
 20
49.50000000000001
 30
0.0
 11
31.06299212598426
 21
49.83464566929134
 31
0.0
  0
LINE
  5
DF
330
1F
100
AcDbEntity
  8
TITLE
  6
SLD-Solid
370
    18
100
AcDbLine
 10
31.06299212598426
 20
0.5
 30
0.0
 11
31.06299212598426
 21
0.1653543307086614
 31
0.0
  0
LINE
  5
E0
330
1F
100
AcDbEntity
  8
TITLE
  6
SLD-Solid
370
    18
100
AcDbLine
 10
33.03149606299213
 20
49.50000000000001
 30
0.0
 11
33.03149606299213
 21
49.83464566929134
 31
0.0
  0
LINE
  5
E1
330
1F
100
AcDbEntity
  8
TITLE
  6
SLD-Solid
370
    18
100
AcDbLine
 10
33.03149606299213
 20
0.5
 30
0.0
 11
33.03149606299213
 21
0.1653543307086614
 31
0.0
  0
LINE
  5
E2
330
1F
100
AcDbEntity
  8
TITLE
  6
SLD-Solid
370
    18
100
AcDbLine
 10
35.0
 20
49.50000000000001
 30
0.0
 11
35.0
 21
49.83464566929134
 31
0.0
  0
LINE
  5
E3
330
1F
100
AcDbEntity
  8
TITLE
  6
SLD-Solid
370
    18
100
AcDbLine
 10
35.0
 20
0.5
 30
0.0
 11
35.0
 21
0.1653543307086614
 31
0.0
  0
LINE
  5
E4
330
1F
100
AcDbEntity
  8
TITLE
  6
SLD-Solid
370
    18
100
AcDbLine
 10
36.96850393700787
 20
49.50000000000001
 30
0.0
 11
36.96850393700787
 21
49.83464566929134
 31
0.0
  0
LINE
  5
E5
330
1F
100
AcDbEntity
  8
TITLE
  6
SLD-Solid
370
    18
100
AcDbLine
 10
36.96850393700787
 20
0.5
 30
0.0
 11
36.96850393700787
 21
0.1653543307086614
 31
0.0
  0
LINE
  5
E6
330
1F
100
AcDbEntity
  8
TITLE
  6
SLD-Solid
370
    18
100
AcDbLine
 10
38.93700787401575
 20
49.50000000000001
 30
0.0
 11
38.93700787401575
 21
49.83464566929134
 31
0.0
  0
LINE
  5
E7
330
1F
100
AcDbEntity
  8
TITLE
  6
SLD-Solid
370
    18
100
AcDbLine
 10
38.93700787401575
 20
0.5
 30
0.0
 11
38.93700787401575
 21
0.1653543307086614
 31
0.0
  0
LINE
  5
E8
330
1F
100
AcDbEntity
  8
TITLE
  6
SLD-Solid
370
    18
100
AcDbLine
 10
40.90551181102363
 20
49.50000000000001
 30
0.0
 11
40.90551181102363
 21
49.83464566929134
 31
0.0
  0
LINE
  5
E9
330
1F
100
AcDbEntity
  8
TITLE
  6
SLD-Solid
370
    18
100
AcDbLine
 10
40.90551181102363
 20
0.5
 30
0.0
 11
40.90551181102363
 21
0.1653543307086614
 31
0.0
  0
LINE
  5
EA
330
1F
100
AcDbEntity
  8
TITLE
  6
SLD-Solid
370
    18
100
AcDbLine
 10
42.8740157480315
 20
49.50000000000001
 30
0.0
 11
42.8740157480315
 21
49.83464566929134
 31
0.0
  0
LINE
  5
EB
330
1F
100
AcDbEntity
  8
TITLE
  6
SLD-Solid
370
    18
100
AcDbLine
 10
42.8740157480315
 20
0.5
 30
0.0
 11
42.8740157480315
 21
0.1653543307086614
 31
0.0
  0
LINE
  5
EC
330
1F
100
AcDbEntity
  8
TITLE
  6
SLD-Solid
370
    18
100
AcDbLine
 10
44.84251968503937
 20
49.50000000000001
 30
0.0
 11
44.84251968503937
 21
49.83464566929134
 31
0.0
  0
LINE
  5
ED
330
1F
100
AcDbEntity
  8
TITLE
  6
SLD-Solid
370
    18
100
AcDbLine
 10
44.84251968503937
 20
0.5
 30
0.0
 11
44.84251968503937
 21
0.1653543307086614
 31
0.0
  0
LINE
  5
EE
330
1F
100
AcDbEntity
  8
TITLE
  6
SLD-Solid
370
    18
100
AcDbLine
 10
46.81102362204724
 20
49.50000000000001
 30
0.0
 11
46.81102362204724
 21
49.83464566929134
 31
0.0
  0
LINE
  5
EF
330
1F
100
AcDbEntity
  8
TITLE
  6
SLD-Solid
370
    18
100
AcDbLine
 10
46.81102362204724
 20
0.5
 30
0.0
 11
46.81102362204724
 21
0.1653543307086614
 31
0.0
  0
LINE
  5
F0
330
1F
100
AcDbEntity
  8
TITLE
  6
SLD-Solid
370
    18
100
AcDbLine
 10
48.77952755905513
 20
49.50000000000001
 30
0.0
 11
48.77952755905513
 21
49.83464566929134
 31
0.0
  0
LINE
  5
F1
330
1F
100
AcDbEntity
  8
TITLE
  6
SLD-Solid
370
    18
100
AcDbLine
 10
48.77952755905513
 20
0.5
 30
0.0
 11
48.77952755905513
 21
0.1653543307086614
 31
0.0
  0
LINE
  5
F2
330
1F
100
AcDbEntity
  8
TITLE
  6
SLD-Solid
370
    18
100
AcDbLine
 10
50.748031496063
 20
49.50000000000001
 30
0.0
 11
50.748031496063
 21
49.83464566929134
 31
0.0
  0
LINE
  5
F3
330
1F
100
AcDbEntity
  8
TITLE
  6
SLD-Solid
370
    18
100
AcDbLine
 10
50.748031496063
 20
0.5
 30
0.0
 11
50.748031496063
 21
0.1653543307086614
 31
0.0
  0
LINE
  5
F4
330
1F
100
AcDbEntity
  8
TITLE
  6
SLD-Solid
370
    18
100
AcDbLine
 10
52.71653543307087
 20
49.50000000000001
 30
0.0
 11
52.71653543307087
 21
49.83464566929134
 31
0.0
  0
LINE
  5
F5
330
1F
100
AcDbEntity
  8
TITLE
  6
SLD-Solid
370
    18
100
AcDbLine
 10
52.71653543307087
 20
0.5
 30
0.0
 11
52.71653543307087
 21
0.1653543307086614
 31
0.0
  0
LINE
  5
F6
330
1F
100
AcDbEntity
  8
TITLE
  6
SLD-Solid
370
    18
100
AcDbLine
 10
54.68503937007874
 20
49.50000000000001
 30
0.0
 11
54.68503937007874
 21
49.83464566929134
 31
0.0
  0
LINE
  5
F7
330
1F
100
AcDbEntity
  8
TITLE
  6
SLD-Solid
370
    18
100
AcDbLine
 10
54.68503937007874
 20
0.5
 30
0.0
 11
54.68503937007874
 21
0.1653543307086614
 31
0.0
  0
LINE
  5
F8
330
1F
100
AcDbEntity
  8
TITLE
  6
SLD-Solid
370
    18
100
AcDbLine
 10
56.65354330708661
 20
49.50000000000001
 30
0.0
 11
56.65354330708661
 21
49.83464566929134
 31
0.0
  0
LINE
  5
F9
330
1F
100
AcDbEntity
  8
TITLE
  6
SLD-Solid
370
    18
100
AcDbLine
 10
56.65354330708661
 20
0.5
 30
0.0
 11
56.65354330708661
 21
0.1653543307086614
 31
0.0
  0
LINE
  5
FA
330
1F
100
AcDbEntity
  8
TITLE
  6
SLD-Solid
370
    18
100
AcDbLine
 10
58.6220472440945
 20
49.50000000000001
 30
0.0
 11
58.6220472440945
 21
49.83464566929134
 31
0.0
  0
LINE
  5
FB
330
1F
100
AcDbEntity
  8
TITLE
  6
SLD-Solid
370
    18
100
AcDbLine
 10
58.6220472440945
 20
0.5
 30
0.0
 11
58.6220472440945
 21
0.1653543307086614
 31
0.0
  0
LINE
  5
FC
330
1F
100
AcDbEntity
  8
TITLE
  6
SLD-Solid
370
    18
100
AcDbLine
 10
60.59055118110237
 20
49.50000000000001
 30
0.0
 11
60.59055118110237
 21
49.83464566929134
 31
0.0
  0
LINE
  5
FD
330
1F
100
AcDbEntity
  8
TITLE
  6
SLD-Solid
370
    18
100
AcDbLine
 10
60.59055118110237
 20
0.5
 30
0.0
 11
60.59055118110237
 21
0.1653543307086614
 31
0.0
  0
LINE
  5
FE
330
1F
100
AcDbEntity
  8
TITLE
  6
SLD-Solid
370
    18
100
AcDbLine
 10
62.55905511811024
 20
49.50000000000001
 30
0.0
 11
62.55905511811024
 21
49.83464566929134
 31
0.0
  0
LINE
  5
FF
330
1F
100
AcDbEntity
  8
TITLE
  6
SLD-Solid
370
    18
100
AcDbLine
 10
62.55905511811024
 20
0.5
 30
0.0
 11
62.55905511811024
 21
0.1653543307086614
 31
0.0
  0
LINE
  5
100
330
1F
100
AcDbEntity
  8
TITLE
  6
SLD-Solid
370
    18
100
AcDbLine
 10
64.52755905511812
 20
49.50000000000001
 30
0.0
 11
64.52755905511812
 21
49.83464566929134
 31
0.0
  0
LINE
  5
101
330
1F
100
AcDbEntity
  8
TITLE
  6
SLD-Solid
370
    18
100
AcDbLine
 10
64.52755905511812
 20
0.5
 30
0.0
 11
64.52755905511812
 21
0.1653543307086614
 31
0.0
  0
LINE
  5
102
330
1F
100
AcDbEntity
  8
TITLE
  6
SLD-Solid
370
    18
100
AcDbLine
 10
66.49606299212599
 20
49.50000000000001
 30
0.0
 11
66.49606299212599
 21
49.83464566929134
 31
0.0
  0
LINE
  5
103
330
1F
100
AcDbEntity
  8
TITLE
  6
SLD-Solid
370
    18
100
AcDbLine
 10
66.49606299212599
 20
0.5
 30
0.0
 11
66.49606299212599
 21
0.1653543307086614
 31
0.0
  0
LINE
  5
104
330
1F
100
AcDbEntity
  8
TITLE
  6
SLD-Solid
370
    18
100
AcDbLine
 10
68.46456692913387
 20
49.50000000000001
 30
0.0
 11
68.46456692913387
 21
49.83464566929134
 31
0.0
  0
LINE
  5
105
330
1F
100
AcDbEntity
  8
TITLE
  6
SLD-Solid
370
    18
100
AcDbLine
 10
68.46456692913387
 20
0.5
 30
0.0
 11
68.46456692913387
 21
0.1653543307086614
 31
0.0
  0
MTEXT
  5
107
330
1F
100
AcDbEntity
  8
NOTES
100
AcDbMText
 10
46.40829780303407
 20
1.070290334694339
 30
0.0
 40
0.25
 41
0.0
 71
     1
 72
     1
  1
UNLESS OTHERWISE SPECIFIED DIMENSIONS ARE IN INCHES.
  7
SLDTEXTSTYLE0
 73
     1
 44
1.0
  0
MTEXT
  5
108
330
1F
100
AcDbEntity
  8
NOTES
100
AcDbMText
 10
46.43006992789031
 20
3.083062777580424
 30
0.0
 40
0.25
 41
0.0
 71
     1
 72
     1
  1
DATE:
  7
SLDTEXTSTYLE0
 73
     1
 44
1.0
  0
MTEXT
  5
109
330
1F
100
AcDbEntity
  8
NOTES
100
AcDbMText
 10
48.53870118800533
 20
2.193032963662708
 30
0.0
 40
0.25
 41
0.0
 71
     2
 72
     1
  1
DO NOT SCALE DRAWING
  7
SLDTEXTSTYLE0
 73
     1
 44
1.0
  0
MTEXT
  5
10B
330
1F
100
AcDbEntity
  8
NOTES
100
AcDbMText
 10
52.83073730750539
 20
3.268275555297609
 30
0.0
 40
0.25
 41
0.0
 71
     1
 72
     1
  1
TITLE:
  7
SLDTEXTSTYLE1
 73
     1
 44
1.0
  0
MTEXT
  5
10C
330
1F
100
AcDbEntity
  8
NOTES
100
AcDbMText
 10
60.15618310516096
 20
3.268275555297602
 30
0.0
 40
0.25
 41
0.0
 71
     1
 72
     1
  1
DWG NO.
  7
SLDTEXTSTYLE1
 73
     1
 44
1.0
  0
MTEXT
  5
10D
330
1F
100
AcDbEntity
  8
NOTES
100
AcDbMText
 10
60.18317532028495
 20
1.064581557673832
 30
0.0
 40
0.25
 41
0.0
 71
     1
 72
     1
  1
SCALE:     1:1
  7
SLDTEXTSTYLE1
 73
     1
 44
1.0
  0
MTEXT
  5
10E
330
1F
100
AcDbEntity
  8
NOTES
100
AcDbMText
 10
64.17423159292714
 20
2.651034429460866
 30
0.0
 40
0.25
 41
0.0
 71
     2
 72
     1
  1
640-CAD
  7
SLDTEXTSTYLE1
 73
     1
 44
1.0
  0
MTEXT
  5
10F
330
1F
100
AcDbEntity
  8
NOTES
100
AcDbMText
 10
56.46741810230809
 20
2.651034429460864
 30
0.0
 40
0.25
 41
0.0
 71
     2
 72
     1
  1
640 Partition Mounted Disposal
  7
SLDTEXTSTYLE1
 73
     1
 44
1.0
  0
INSERT
  5
11F
330
1F
100
AcDbEntity
  8
NOTES
100
AcDbBlockReference
  2
SW_NOTE_0_1
 10
46.61597262459082
 20
5.148152684778704
 30
0.0
  0
MTEXT
  5
120
330
1F
100
AcDbEntity
  8
NOTES
100
AcDbMText
 10
49.49744217269595
 20
3.08647332676587
 30
0.0
 40
0.25
 41
0.0
 71
     2
 72
     1
  1
August 18, 2021
  7
SLDTEXTSTYLE1
 73
     1
 44
1.0
  0
MTEXT
  5
121
330
1F
100
AcDbEntity
  8
TITLE
100
AcDbMText
 10
0.3276279775836454
 20
2.003106290974172
 30
0.0
 40
0.125
 41
0.0
 71
     2
 72
     1
  1
A
  7
SLDTEXTSTYLE1
 73
     1
 44
1.0
  0
MTEXT
  5
122
330
1F
100
AcDbEntity
  8
TITLE
100
AcDbMText
 10
69.662273646875
 20
2.003106290974172
 30
0.0
 40
0.125
 41
0.0
 71
     2
 72
     1
  1
A
  7
SLDTEXTSTYLE1
 73
     1
 44
1.0
  0
MTEXT
  5
123
330
1F
100
AcDbEntity
  8
TITLE
100
AcDbMText
 10
0.3317512413046844
 20
4.410586605934803
 30
0.0
 40
0.125
 41
0.0
 71
     2
 72
     1
  1
B
  7
SLDTEXTSTYLE1
 73
     1
 44
1.0
  0
MTEXT
  5
124
330
1F
100
AcDbEntity
  8
TITLE
100
AcDbMText
 10
69.66639691059605
 20
4.410586605934803
 30
0.0
 40
0.125
 41
0.0
 71
     2
 72
     1
  1
B
  7
SLDTEXTSTYLE1
 73
     1
 44
1.0
  0
MTEXT
  5
125
330
1F
100
AcDbEntity
  8
TITLE
100
AcDbMText
 10
0.3313750816934456
 20
6.379090542942676
 30
0.0
 40
0.125
 41
0.0
 71
     2
 72
     1
  1
C
  7
SLDTEXTSTYLE1
 73
     1
 44
1.0
  0
MTEXT
  5
126
330
1F
100
AcDbEntity
  8
TITLE
100
AcDbMText
 10
69.6660207509848
 20
6.379090542942677
 30
0.0
 40
0.125
 41
0.0
 71
     2
 72
     1
  1
C
  7
SLDTEXTSTYLE1
 73
     1
 44
1.0
  0
MTEXT
  5
127
330
1F
100
AcDbEntity
  8
TITLE
100
AcDbMText
 10
0.3311870028448152
 20
8.34759447995055
 30
0.0
 40
0.125
 41
0.0
 71
     2
 72
     1
  1
D
  7
SLDTEXTSTYLE1
 73
     1
 44
1.0
  0
MTEXT
  5
128
330
1F
100
AcDbEntity
  8
TITLE
100
AcDbMText
 10
69.66583267213616
 20
8.34759447995055
 30
0.0
 40
0.125
 41
0.0
 71
     2
 72
     1
  1
D
  7
SLDTEXTSTYLE1
 73
     1
 44
1.0
  0
MTEXT
  5
129
330
1F
100
AcDbEntity
  8
TITLE
100
AcDbMText
 10
0.3329231160377541
 20
10.31609841695842
 30
0.0
 40
0.125
 41
0.0
 71
     2
 72
     1
  1
E
  7
SLDTEXTSTYLE1
 73
     1
 44
1.0
  0
MTEXT
  5
12A
330
1F
100
AcDbEntity
  8
TITLE
100
AcDbMText
 10
69.66756878532911
 20
10.31609841695842
 30
0.0
 40
0.125
 41
0.0
 71
     2
 72
     1
  1
E
  7
SLDTEXTSTYLE1
 73
     1
 44
1.0
  0
MTEXT
  5
12B
330
1F
100
AcDbEntity
  8
TITLE
100
AcDbMText
 10
0.3313461474003637
 20
12.28460235396629
 30
0.0
 40
0.125
 41
0.0
 71
     2
 72
     1
  1
F
  7
SLDTEXTSTYLE1
 73
     1
 44
1.0
  0
MTEXT
  5
12C
330
1F
100
AcDbEntity
  8
TITLE
100
AcDbMText
 10
69.66599181669172
 20
12.2846023539663
 30
0.0
 40
0.125
 41
0.0
 71
     2
 72
     1
  1
F
  7
SLDTEXTSTYLE1
 73
     1
 44
1.0
  0
MTEXT
  5
12D
330
1F
100
AcDbEntity
  8
TITLE
100
AcDbMText
 10
0.332257605436456
 20
14.25310629097417
 30
0.0
 40
0.125
 41
0.0
 71
     2
 72
     1
  1
G
  7
SLDTEXTSTYLE1
 73
     1
 44
1.0
  0
MTEXT
  5
12E
330
1F
100
AcDbEntity
  8
TITLE
100
AcDbMText
 10
69.66690327472782
 20
14.25310629097417
 30
0.0
 40
0.125
 41
0.0
 71
     2
 72
     1
  1
G
  7
SLDTEXTSTYLE1
 73
     1
 44
1.0
  0
MTEXT
  5
12F
330
1F
100
AcDbEntity
  8
TITLE
100
AcDbMText
 10
0.3323733456814148
 20
16.22161022798205
 30
0.0
 40
0.125
 41
0.0
 71
     2
 72
     1
  1
H
  7
SLDTEXTSTYLE1
 73
     1
 44
1.0
  0
MTEXT
  5
130
330
1F
100
AcDbEntity
  8
TITLE
100
AcDbMText
 10
69.66701901497275
 20
16.22161022798205
 30
0.0
 40
0.125
 41
0.0
 71
     2
 72
     1
  1
H
  7
SLDTEXTSTYLE1
 73
     1
 44
1.0
  0
MTEXT
  5
131
330
1F
100
AcDbEntity
  8
TITLE
100
AcDbMText
 10
0.3315776305595838
 20
18.19011416498992
 30
0.0
 40
0.125
 41
0.0
 71
     2
 72
     1
  1
J
  7
SLDTEXTSTYLE1
 73
     1
 44
1.0
  0
MTEXT
  5
132
330
1F
100
AcDbEntity
  8
TITLE
100
AcDbMText
 10
69.66622329985094
 20
18.19011416498992
 30
0.0
 40
0.125
 41
0.0
 71
     2
 72
     1
  1
J
  7
SLDTEXTSTYLE1
 73
     1
 44
1.0
  0
MTEXT
  5
133
330
1F
100
AcDbEntity
  8
TITLE
100
AcDbMText
 10
0.3323154765159243
 20
20.1586181019978
 30
0.0
 40
0.125
 41
0.0
 71
     2
 72
     1
  1
K
  7
SLDTEXTSTYLE1
 73
     1
 44
1.0
  0
MTEXT
  5
134
330
1F
100
AcDbEntity
  8
TITLE
100
AcDbMText
 10
69.66696114580728
 20
20.1586181019978
 30
0.0
 40
0.125
 41
0.0
 71
     2
 72
     1
  1
K
  7
SLDTEXTSTYLE1
 73
     1
 44
1.0
  0
MTEXT
  5
135
330
1F
100
AcDbEntity
  8
TITLE
100
AcDbMText
 10
0.3312448739242835
 20
22.12712203900567
 30
0.0
 40
0.125
 41
0.0
 71
     2
 72
     1
  1
L
  7
SLDTEXTSTYLE1
 73
     1
 44
1.0
  0
MTEXT
  5
136
330
1F
100
AcDbEntity
  8
TITLE
100
AcDbMText
 10
69.66589054321565
 20
22.12712203900567
 30
0.0
 40
0.125
 41
0.0
 71
     2
 72
     1
  1
L
  7
SLDTEXTSTYLE1
 73
     1
 44
1.0
  0
MTEXT
  5
137
330
1F
100
AcDbEntity
  8
TITLE
100
AcDbMText
 10
0.3283224192293962
 20
24.09562597601354
 30
0.0
 40
0.125
 41
0.0
 71
     2
 72
     1
  1
M
  7
SLDTEXTSTYLE1
 73
     1
 44
1.0
  0
MTEXT
  5
138
330
1F
100
AcDbEntity
  8
TITLE
100
AcDbMText
 10
69.66296808852073
 20
24.09562597601354
 30
0.0
 40
0.125
 41
0.0
 71
     2
 72
     1
  1
M
  7
SLDTEXTSTYLE1
 73
     1
 44
1.0
  0
MTEXT
  5
139
330
1F
100
AcDbEntity
  8
TITLE
100
AcDbMText
 10
0.3315342275836453
 20
26.06412991302142
 30
0.0
 40
0.125
 41
0.0
 71
     2
 72
     1
  1
N
  7
SLDTEXTSTYLE1
 73
     1
 44
1.0
  0
MTEXT
  5
13A
330
1F
100
AcDbEntity
  8
TITLE
100
AcDbMText
 10
69.666179896875
 20
26.06412991302141
 30
0.0
 40
0.125
 41
0.0
 71
     2
 72
     1
  1
N
  7
SLDTEXTSTYLE1
 73
     1
 44
1.0
  0
MTEXT
  5
13B
330
1F
100
AcDbEntity
  8
TITLE
100
AcDbMText
 10
0.3321997349363143
 20
28.03263385002929
 30
0.0
 40
0.125
 41
0.0
 71
     2
 72
     1
  1
P
  7
SLDTEXTSTYLE1
 73
     1
 44
1.0
  0
MTEXT
  5
13C
330
1F
100
AcDbEntity
  8
TITLE
100
AcDbMText
 10
69.66684540422766
 20
28.03263385002929
 30
0.0
 40
0.125
 41
0.0
 71
     2
 72
     1
  1
P
  7
SLDTEXTSTYLE1
 73
     1
 44
1.0
  0
MTEXT
  5
13D
330
1F
100
AcDbEntity
  8
TITLE
100
AcDbMText
 10
0.3309265867271644
 20
30.00113778703717
 30
0.0
 40
0.125
 41
0.0
 71
     2
 72
     1
  1
R
  7
SLDTEXTSTYLE1
 73
     1
 44
1.0
  0
MTEXT
  5
13E
330
1F
100
AcDbEntity
  8
TITLE
100
AcDbMText
 10
69.6655722560185
 20
30.00113778703717
 30
0.0
 40
0.125
 41
0.0
 71
     2
 72
     1
  1
R
  7
SLDTEXTSTYLE1
 73
     1
 44
1.0
  0
MTEXT
  5
13F
330
1F
100
AcDbEntity
  8
TITLE
100
AcDbMText
 10
0.3323010070777432
 20
31.96964172404504
 30
0.0
 40
0.125
 41
0.0
 71
     2
 72
     1
  1
T
  7
SLDTEXTSTYLE1
 73
     1
 44
1.0
  0
MTEXT
  5
140
330
1F
100
AcDbEntity
  8
TITLE
100
AcDbMText
 10
69.6669466763691
 20
31.96964172404504
 30
0.0
 40
0.125
 41
0.0
 71
     2
 72
     1
  1
T
  7
SLDTEXTSTYLE1
 73
     1
 44
1.0
  0
MTEXT
  5
141
330
1F
100
AcDbEntity
  8
TITLE
100
AcDbMText
 10
0.3328507755201046
 20
33.93814566105291
 30
0.0
 40
0.125
 41
0.0
 71
     2
 72
     1
  1
U
  7
SLDTEXTSTYLE1
 73
     1
 44
1.0
  0
MTEXT
  5
142
330
1F
100
AcDbEntity
  8
TITLE
100
AcDbMText
 10
69.66749644481145
 20
33.93814566105292
 30
0.0
 40
0.125
 41
0.0
 71
     2
 72
     1
  1
U
  7
SLDTEXTSTYLE1
 73
     1
 44
1.0
  0
MTEXT
  5
143
330
1F
100
AcDbEntity
  8
TITLE
100
AcDbMText
 10
0.3307529773167151
 20
35.90664959806079
 30
0.0
 40
0.125
 41
0.0
 71
     2
 72
     1
  1
V
  7
SLDTEXTSTYLE1
 73
     1
 44
1.0
  0
MTEXT
  5
144
330
1F
100
AcDbEntity
  8
TITLE
100
AcDbMText
 10
69.66539864660804
 20
35.90664959806078
 30
0.0
 40
0.125
 41
0.0
 71
     2
 72
     1
  1
V
  7
SLDTEXTSTYLE1
 73
     1
 44
1.0
  0
MTEXT
  5
145
330
1F
100
AcDbEntity
  8
TITLE
100
AcDbMText
 10
0.3327784409203867
 20
37.87515353506867
 30
0.0
 40
0.125
 41
0.0
 71
     2
 72
     1
  1
W
  7
SLDTEXTSTYLE1
 73
     1
 44
1.0
  0
MTEXT
  5
146
330
1F
100
AcDbEntity
  8
TITLE
100
AcDbMText
 10
69.66742411021175
 20
37.87515353506867
 30
0.0
 40
0.125
 41
0.0
 71
     2
 72
     1
  1
W
  7
SLDTEXTSTYLE1
 73
     1
 44
1.0
  0
MTEXT
  5
147
330
1F
100
AcDbEntity
  8
TITLE
100
AcDbMText
 10
0.3321997349363144
 20
39.84365747207655
 30
0.0
 40
0.125
 41
0.0
 71
     2
 72
     1
  1
Y
  7
SLDTEXTSTYLE1
 73
     1
 44
1.0
  0
MTEXT
  5
148
330
1F
100
AcDbEntity
  8
TITLE
100
AcDbMText
 10
69.66684540422766
 20
39.84365747207655
 30
0.0
 40
0.125
 41
0.0
 71
     2
 72
     1
  1
Y
  7
SLDTEXTSTYLE1
 73
     1
 44
1.0
  0
MTEXT
  5
149
330
1F
100
AcDbEntity
  8
TITLE
100
AcDbMText
 10
0.32257878981296
 20
41.81216140908442
 30
0.0
 40
0.125
 41
0.0
 71
     2
 72
     1
  1
AA
  7
SLDTEXTSTYLE1
 73
     1
 44
1.0
  0
MTEXT
  5
14A
330
1F
100
AcDbEntity
  8
TITLE
100
AcDbMText
 10
69.65722445910431
 20
41.81216140908442
 30
0.0
 40
0.125
 41
0.0
 71
     2
 72
     1
  1
AA
  7
SLDTEXTSTYLE1
 73
     1
 44
1.0
  0
MTEXT
  5
14B
330
1F
100
AcDbEntity
  8
TITLE
100
AcDbMText
 10
0.3267020535339989
 20
43.78066534609228
 30
0.0
 40
0.125
 41
0.0
 71
     2
 72
     1
  1
AB
  7
SLDTEXTSTYLE1
 73
     1
 44
1.0
  0
MTEXT
  5
14C
330
1F
100
AcDbEntity
  8
TITLE
100
AcDbMText
 10
69.66134772282535
 20
43.7806653460923
 30
0.0
 40
0.125
 41
0.0
 71
     2
 72
     1
  1
AB
  7
SLDTEXTSTYLE1
 73
     1
 44
1.0
  0
MTEXT
  5
14D
330
1F
100
AcDbEntity
  8
TITLE
100
AcDbMText
 10
0.3263258985060407
 20
45.74916928310017
 30
0.0
 40
0.125
 41
0.0
 71
     2
 72
     1
  1
AC
  7
SLDTEXTSTYLE1
 73
     1
 44
1.0
  0
MTEXT
  5
14E
330
1F
100
AcDbEntity
  8
TITLE
100
AcDbMText
 10
69.66097156779739
 20
45.74916928310017
 30
0.0
 40
0.125
 41
0.0
 71
     2
 72
     1
  1
AC
  7
SLDTEXTSTYLE1
 73
     1
 44
1.0
  0
MTEXT
  5
14F
330
1F
100
AcDbEntity
  8
TITLE
100
AcDbMText
 10
0.3261378196574102
 20
48.15664959806079
 30
0.0
 40
0.125
 41
0.0
 71
     2
 72
     1
  1
AD
  7
SLDTEXTSTYLE1
 73
     1
 44
1.0
  0
MTEXT
  5
150
330
1F
100
AcDbEntity
  8
TITLE
100
AcDbMText
 10
69.66078348894875
 20
48.1566495980608
 30
0.0
 40
0.125
 41
0.0
 71
     2
 72
     1
  1
AD
  7
SLDTEXTSTYLE1
 73
     1
 44
1.0
  0
MTEXT
  5
151
330
1F
100
AcDbEntity
  8
TITLE
100
AcDbMText
 10
1.015199174063176
 20
0.4125551098718105
 30
0.0
 40
0.125
 41
0.0
 71
     2
 72
     1
  1
36
  7
SLDTEXTSTYLE1
 73
     1
 44
1.0
  0
MTEXT
  5
152
330
1F
100
AcDbEntity
  8
TITLE
100
AcDbMText
 10
1.015199174063176
 20
49.74720077916316
 30
0.0
 40
0.125
 41
0.0
 71
     2
 72
     1
  1
36
  7
SLDTEXTSTYLE1
 73
     1
 44
1.0
  0
MTEXT
  5
153
330
1F
100
AcDbEntity
  8
TITLE
100
AcDbMText
 10
2.517167678000183
 20
0.4125551098718104
 30
0.0
 40
0.125
 41
0.0
 71
     2
 72
     1
  1
35
  7
SLDTEXTSTYLE1
 73
     1
 44
1.0
  0
MTEXT
  5
154
330
1F
100
AcDbEntity
  8
TITLE
100
AcDbMText
 10
2.517167678000183
 20
49.74720077916316
 30
0.0
 40
0.125
 41
0.0
 71
     2
 72
     1
  1
35
  7
SLDTEXTSTYLE1
 73
     1
 44
1.0
  0
MTEXT
  5
155
330
1F
100
AcDbEntity
  8
TITLE
100
AcDbMText
 10
4.48567161500806
 20
0.4125551098718104
 30
0.0
 40
0.125
 41
0.0
 71
     2
 72
     1
  1
34
  7
SLDTEXTSTYLE1
 73
     1
 44
1.0
  0
MTEXT
  5
156
330
1F
100
AcDbEntity
  8
TITLE
100
AcDbMText
 10
4.485671615008059
 20
49.74720077916316
 30
0.0
 40
0.125
 41
0.0
 71
     2
 72
     1
  1
34
  7
SLDTEXTSTYLE1
 73
     1
 44
1.0
  0
MTEXT
  5
157
330
1F
100
AcDbEntity
  8
TITLE
100
AcDbMText
 10
6.454175552015934
 20
0.4125551098718104
 30
0.0
 40
0.125
 41
0.0
 71
     2
 72
     1
  1
33
  7
SLDTEXTSTYLE1
 73
     1
 44
1.0
  0
MTEXT
  5
158
330
1F
100
AcDbEntity
  8
TITLE
100
AcDbMText
 10
6.454175552015932
 20
49.74720077916316
 30
0.0
 40
0.125
 41
0.0
 71
     2
 72
     1
  1
33
  7
SLDTEXTSTYLE1
 73
     1
 44
1.0
  0
MTEXT
  5
159
330
1F
100
AcDbEntity
  8
TITLE
100
AcDbMText
 10
8.422679489023805
 20
0.4125551098718104
 30
0.0
 40
0.125
 41
0.0
 71
     2
 72
     1
  1
32
  7
SLDTEXTSTYLE1
 73
     1
 44
1.0
  0
MTEXT
  5
15A
330
1F
100
AcDbEntity
  8
TITLE
100
AcDbMText
 10
8.422679489023807
 20
49.74720077916316
 30
0.0
 40
0.125
 41
0.0
 71
     2
 72
     1
  1
32
  7
SLDTEXTSTYLE1
 73
     1
 44
1.0
  0
MTEXT
  5
15B
330
1F
100
AcDbEntity
  8
TITLE
100
AcDbMText
 10
10.39118342603168
 20
0.4125551098718104
 30
0.0
 40
0.125
 41
0.0
 71
     2
 72
     1
  1
31
  7
SLDTEXTSTYLE1
 73
     1
 44
1.0
  0
MTEXT
  5
15C
330
1F
100
AcDbEntity
  8
TITLE
100
AcDbMText
 10
10.39118342603168
 20
49.74720077916315
 30
0.0
 40
0.125
 41
0.0
 71
     2
 72
     1
  1
31
  7
SLDTEXTSTYLE1
 73
     1
 44
1.0
  0
MTEXT
  5
15D
330
1F
100
AcDbEntity
  8
TITLE
100
AcDbMText
 10
12.35968736303955
 20
0.4125551098718104
 30
0.0
 40
0.125
 41
0.0
 71
     2
 72
     1
  1
30
  7
SLDTEXTSTYLE1
 73
     1
 44
1.0
  0
MTEXT
  5
15E
330
1F
100
AcDbEntity
  8
TITLE
100
AcDbMText
 10
12.35968736303955
 20
49.74720077916316
 30
0.0
 40
0.125
 41
0.0
 71
     2
 72
     1
  1
30
  7
SLDTEXTSTYLE1
 73
     1
 44
1.0
  0
MTEXT
  5
15F
330
1F
100
AcDbEntity
  8
TITLE
100
AcDbMText
 10
14.32819130004743
 20
0.4125551098718104
 30
0.0
 40
0.125
 41
0.0
 71
     2
 72
     1
  1
29
  7
SLDTEXTSTYLE1
 73
     1
 44
1.0
  0
MTEXT
  5
160
330
1F
100
AcDbEntity
  8
TITLE
100
AcDbMText
 10
14.32819130004743
 20
49.74720077916316
 30
0.0
 40
0.125
 41
0.0
 71
     2
 72
     1
  1
29
  7
SLDTEXTSTYLE1
 73
     1
 44
1.0
  0
MTEXT
  5
161
330
1F
100
AcDbEntity
  8
TITLE
100
AcDbMText
 10
16.2966952370553
 20
0.4125551098718104
 30
0.0
 40
0.125
 41
0.0
 71
     2
 72
     1
  1
28
  7
SLDTEXTSTYLE1
 73
     1
 44
1.0
  0
MTEXT
  5
162
330
1F
100
AcDbEntity
  8
TITLE
100
AcDbMText
 10
16.29669523705531
 20
49.74720077916317
 30
0.0
 40
0.125
 41
0.0
 71
     2
 72
     1
  1
28
  7
SLDTEXTSTYLE1
 73
     1
 44
1.0
  0
MTEXT
  5
163
330
1F
100
AcDbEntity
  8
TITLE
100
AcDbMText
 10
18.26519917406318
 20
0.4125551098718105
 30
0.0
 40
0.125
 41
0.0
 71
     2
 72
     1
  1
27
  7
SLDTEXTSTYLE1
 73
     1
 44
1.0
  0
MTEXT
  5
164
330
1F
100
AcDbEntity
  8
TITLE
100
AcDbMText
 10
18.26519917406317
 20
49.74720077916316
 30
0.0
 40
0.125
 41
0.0
 71
     2
 72
     1
  1
27
  7
SLDTEXTSTYLE1
 73
     1
 44
1.0
  0
MTEXT
  5
165
330
1F
100
AcDbEntity
  8
TITLE
100
AcDbMText
 10
20.23370311107105
 20
0.4125551098718103
 30
0.0
 40
0.125
 41
0.0
 71
     2
 72
     1
  1
26
  7
SLDTEXTSTYLE1
 73
     1
 44
1.0
  0
MTEXT
  5
166
330
1F
100
AcDbEntity
  8
TITLE
100
AcDbMText
 10
20.23370311107105
 20
49.74720077916316
 30
0.0
 40
0.125
 41
0.0
 71
     2
 72
     1
  1
26
  7
SLDTEXTSTYLE1
 73
     1
 44
1.0
  0
MTEXT
  5
167
330
1F
100
AcDbEntity
  8
TITLE
100
AcDbMText
 10
22.20220704807893
 20
0.4125551098718104
 30
0.0
 40
0.125
 41
0.0
 71
     2
 72
     1
  1
25
  7
SLDTEXTSTYLE1
 73
     1
 44
1.0
  0
MTEXT
  5
168
330
1F
100
AcDbEntity
  8
TITLE
100
AcDbMText
 10
22.20220704807893
 20
49.74720077916316
 30
0.0
 40
0.125
 41
0.0
 71
     2
 72
     1
  1
25
  7
SLDTEXTSTYLE1
 73
     1
 44
1.0
  0
MTEXT
  5
169
330
1F
100
AcDbEntity
  8
TITLE
100
AcDbMText
 10
24.1707109850868
 20
0.4125551098718104
 30
0.0
 40
0.125
 41
0.0
 71
     2
 72
     1
  1
24
  7
SLDTEXTSTYLE1
 73
     1
 44
1.0
  0
MTEXT
  5
16A
330
1F
100
AcDbEntity
  8
TITLE
100
AcDbMText
 10
24.1707109850868
 20
49.74720077916316
 30
0.0
 40
0.125
 41
0.0
 71
     2
 72
     1
  1
24
  7
SLDTEXTSTYLE1
 73
     1
 44
1.0
  0
MTEXT
  5
16B
330
1F
100
AcDbEntity
  8
TITLE
100
AcDbMText
 10
26.13921492209468
 20
0.4125551098718104
 30
0.0
 40
0.125
 41
0.0
 71
     2
 72
     1
  1
23
  7
SLDTEXTSTYLE1
 73
     1
 44
1.0
  0
MTEXT
  5
16C
330
1F
100
AcDbEntity
  8
TITLE
100
AcDbMText
 10
26.13921492209468
 20
49.74720077916316
 30
0.0
 40
0.125
 41
0.0
 71
     2
 72
     1
  1
23
  7
SLDTEXTSTYLE1
 73
     1
 44
1.0
  0
MTEXT
  5
16D
330
1F
100
AcDbEntity
  8
TITLE
100
AcDbMText
 10
28.10771885910255
 20
0.4125551098718104
 30
0.0
 40
0.125
 41
0.0
 71
     2
 72
     1
  1
22
  7
SLDTEXTSTYLE1
 73
     1
 44
1.0
  0
MTEXT
  5
16E
330
1F
100
AcDbEntity
  8
TITLE
100
AcDbMText
 10
28.10771885910255
 20
49.74720077916316
 30
0.0
 40
0.125
 41
0.0
 71
     2
 72
     1
  1
22
  7
SLDTEXTSTYLE1
 73
     1
 44
1.0
  0
MTEXT
  5
16F
330
1F
100
AcDbEntity
  8
TITLE
100
AcDbMText
 10
30.07622279611043
 20
0.4125551098718104
 30
0.0
 40
0.125
 41
0.0
 71
     2
 72
     1
  1
21
  7
SLDTEXTSTYLE1
 73
     1
 44
1.0
  0
MTEXT
  5
170
330
1F
100
AcDbEntity
  8
TITLE
100
AcDbMText
 10
30.07622279611043
 20
49.74720077916316
 30
0.0
 40
0.125
 41
0.0
 71
     2
 72
     1
  1
21
  7
SLDTEXTSTYLE1
 73
     1
 44
1.0
  0
MTEXT
  5
171
330
1F
100
AcDbEntity
  8
TITLE
100
AcDbMText
 10
32.0447267331183
 20
0.4125551098718104
 30
0.0
 40
0.125
 41
0.0
 71
     2
 72
     1
  1
20
  7
SLDTEXTSTYLE1
 73
     1
 44
1.0
  0
MTEXT
  5
172
330
1F
100
AcDbEntity
  8
TITLE
100
AcDbMText
 10
32.0447267331183
 20
49.74720077916316
 30
0.0
 40
0.125
 41
0.0
 71
     2
 72
     1
  1
20
  7
SLDTEXTSTYLE1
 73
     1
 44
1.0
  0
MTEXT
  5
173
330
1F
100
AcDbEntity
  8
TITLE
100
AcDbMText
 10
34.01323067012617
 20
0.4125551098718104
 30
0.0
 40
0.125
 41
0.0
 71
     2
 72
     1
  1
19
  7
SLDTEXTSTYLE1
 73
     1
 44
1.0
  0
MTEXT
  5
174
330
1F
100
AcDbEntity
  8
TITLE
100
AcDbMText
 10
34.01323067012617
 20
49.74720077916317
 30
0.0
 40
0.125
 41
0.0
 71
     2
 72
     1
  1
19
  7
SLDTEXTSTYLE1
 73
     1
 44
1.0
  0
MTEXT
  5
175
330
1F
100
AcDbEntity
  8
TITLE
100
AcDbMText
 10
35.98173460713405
 20
0.4125551098718104
 30
0.0
 40
0.125
 41
0.0
 71
     2
 72
     1
  1
18
  7
SLDTEXTSTYLE1
 73
     1
 44
1.0
  0
MTEXT
  5
176
330
1F
100
AcDbEntity
  8
TITLE
100
AcDbMText
 10
35.98173460713404
 20
49.74720077916316
 30
0.0
 40
0.125
 41
0.0
 71
     2
 72
     1
  1
18
  7
SLDTEXTSTYLE1
 73
     1
 44
1.0
  0
MTEXT
  5
177
330
1F
100
AcDbEntity
  8
TITLE
100
AcDbMText
 10
37.95023854414192
 20
0.4125551098718105
 30
0.0
 40
0.125
 41
0.0
 71
     2
 72
     1
  1
17
  7
SLDTEXTSTYLE1
 73
     1
 44
1.0
  0
MTEXT
  5
178
330
1F
100
AcDbEntity
  8
TITLE
100
AcDbMText
 10
37.95023854414192
 20
49.74720077916315
 30
0.0
 40
0.125
 41
0.0
 71
     2
 72
     1
  1
17
  7
SLDTEXTSTYLE1
 73
     1
 44
1.0
  0
MTEXT
  5
179
330
1F
100
AcDbEntity
  8
TITLE
100
AcDbMText
 10
39.91874248114979
 20
0.4125551098718104
 30
0.0
 40
0.125
 41
0.0
 71
     2
 72
     1
  1
16
  7
SLDTEXTSTYLE1
 73
     1
 44
1.0
  0
MTEXT
  5
17A
330
1F
100
AcDbEntity
  8
TITLE
100
AcDbMText
 10
39.91874248114979
 20
49.74720077916316
 30
0.0
 40
0.125
 41
0.0
 71
     2
 72
     1
  1
16
  7
SLDTEXTSTYLE1
 73
     1
 44
1.0
  0
MTEXT
  5
17B
330
1F
100
AcDbEntity
  8
TITLE
100
AcDbMText
 10
41.88724641815767
 20
0.4125551098718104
 30
0.0
 40
0.125
 41
0.0
 71
     2
 72
     1
  1
15
  7
SLDTEXTSTYLE1
 73
     1
 44
1.0
  0
MTEXT
  5
17C
330
1F
100
AcDbEntity
  8
TITLE
100
AcDbMText
 10
41.88724641815768
 20
49.74720077916316
 30
0.0
 40
0.125
 41
0.0
 71
     2
 72
     1
  1
15
  7
SLDTEXTSTYLE1
 73
     1
 44
1.0
  0
MTEXT
  5
17D
330
1F
100
AcDbEntity
  8
TITLE
100
AcDbMText
 10
43.85575035516554
 20
0.4125551098718104
 30
0.0
 40
0.125
 41
0.0
 71
     2
 72
     1
  1
14
  7
SLDTEXTSTYLE1
 73
     1
 44
1.0
  0
MTEXT
  5
17E
330
1F
100
AcDbEntity
  8
TITLE
100
AcDbMText
 10
43.85575035516554
 20
49.74720077916316
 30
0.0
 40
0.125
 41
0.0
 71
     2
 72
     1
  1
14
  7
SLDTEXTSTYLE1
 73
     1
 44
1.0
  0
MTEXT
  5
17F
330
1F
100
AcDbEntity
  8
TITLE
100
AcDbMText
 10
45.82425429217342
 20
0.4125551098718104
 30
0.0
 40
0.125
 41
0.0
 71
     2
 72
     1
  1
13
  7
SLDTEXTSTYLE1
 73
     1
 44
1.0
  0
MTEXT
  5
180
330
1F
100
AcDbEntity
  8
TITLE
100
AcDbMText
 10
45.82425429217341
 20
49.74720077916315
 30
0.0
 40
0.125
 41
0.0
 71
     2
 72
     1
  1
13
  7
SLDTEXTSTYLE1
 73
     1
 44
1.0
  0
MTEXT
  5
181
330
1F
100
AcDbEntity
  8
TITLE
100
AcDbMText
 10
47.79275822918129
 20
0.4125551098718104
 30
0.0
 40
0.125
 41
0.0
 71
     2
 72
     1
  1
12
  7
SLDTEXTSTYLE1
 73
     1
 44
1.0
  0
MTEXT
  5
182
330
1F
100
AcDbEntity
  8
TITLE
100
AcDbMText
 10
47.79275822918129
 20
49.74720077916316
 30
0.0
 40
0.125
 41
0.0
 71
     2
 72
     1
  1
12
  7
SLDTEXTSTYLE1
 73
     1
 44
1.0
  0
MTEXT
  5
183
330
1F
100
AcDbEntity
  8
TITLE
100
AcDbMText
 10
49.76126216618918
 20
0.4125551098718104
 30
0.0
 40
0.125
 41
0.0
 71
     2
 72
     1
  1
11
  7
SLDTEXTSTYLE1
 73
     1
 44
1.0
  0
MTEXT
  5
184
330
1F
100
AcDbEntity
  8
TITLE
100
AcDbMText
 10
49.76126216618918
 20
49.74720077916316
 30
0.0
 40
0.125
 41
0.0
 71
     2
 72
     1
  1
11
  7
SLDTEXTSTYLE1
 73
     1
 44
1.0
  0
MTEXT
  5
185
330
1F
100
AcDbEntity
  8
TITLE
100
AcDbMText
 10
51.72976610319703
 20
0.4125551098718104
 30
0.0
 40
0.125
 41
0.0
 71
     2
 72
     1
  1
10
  7
SLDTEXTSTYLE1
 73
     1
 44
1.0
  0
MTEXT
  5
186
330
1F
100
AcDbEntity
  8
TITLE
100
AcDbMText
 10
51.72976610319704
 20
49.74720077916316
 30
0.0
 40
0.125
 41
0.0
 71
     2
 72
     1
  1
10
  7
SLDTEXTSTYLE1
 73
     1
 44
1.0
  0
MTEXT
  5
187
330
1F
100
AcDbEntity
  8
TITLE
100
AcDbMText
 10
53.69952872088985
 20
0.4125551098718104
 30
0.0
 40
0.125
 41
0.0
 71
     2
 72
     1
  1
9
  7
SLDTEXTSTYLE1
 73
     1
 44
1.0
  0
MTEXT
  5
188
330
1F
100
AcDbEntity
  8
TITLE
100
AcDbMText
 10
53.69952872088985
 20
49.74720077916316
 30
0.0
 40
0.125
 41
0.0
 71
     2
 72
     1
  1
9
  7
SLDTEXTSTYLE1
 73
     1
 44
1.0
  0
MTEXT
  5
189
330
1F
100
AcDbEntity
  8
TITLE
100
AcDbMText
 10
55.66803265789773
 20
0.4125551098718104
 30
0.0
 40
0.125
 41
0.0
 71
     2
 72
     1
  1
8
  7
SLDTEXTSTYLE1
 73
     1
 44
1.0
  0
MTEXT
  5
18A
330
1F
100
AcDbEntity
  8
TITLE
100
AcDbMText
 10
55.66803265789774
 20
49.74720077916315
 30
0.0
 40
0.125
 41
0.0
 71
     2
 72
     1
  1
8
  7
SLDTEXTSTYLE1
 73
     1
 44
1.0
  0
MTEXT
  5
18B
330
1F
100
AcDbEntity
  8
TITLE
100
AcDbMText
 10
57.63653659490561
 20
0.4125551098718104
 30
0.0
 40
0.125
 41
0.0
 71
     2
 72
     1
  1
7
  7
SLDTEXTSTYLE1
 73
     1
 44
1.0
  0
MTEXT
  5
18C
330
1F
100
AcDbEntity
  8
TITLE
100
AcDbMText
 10
57.63653659490561
 20
49.74720077916316
 30
0.0
 40
0.125
 41
0.0
 71
     2
 72
     1
  1
7
  7
SLDTEXTSTYLE1
 73
     1
 44
1.0
  0
MTEXT
  5
18D
330
1F
100
AcDbEntity
  8
TITLE
100
AcDbMText
 10
59.60504053191348
 20
0.4125551098718104
 30
0.0
 40
0.125
 41
0.0
 71
     2
 72
     1
  1
6
  7
SLDTEXTSTYLE1
 73
     1
 44
1.0
  0
MTEXT
  5
18E
330
1F
100
AcDbEntity
  8
TITLE
100
AcDbMText
 10
59.6050405319135
 20
49.74720077916316
 30
0.0
 40
0.125
 41
0.0
 71
     2
 72
     1
  1
6
  7
SLDTEXTSTYLE1
 73
     1
 44
1.0
  0
MTEXT
  5
18F
330
1F
100
AcDbEntity
  8
TITLE
100
AcDbMText
 10
61.57354446892136
 20
0.4125551098718104
 30
0.0
 40
0.125
 41
0.0
 71
     2
 72
     1
  1
5
  7
SLDTEXTSTYLE1
 73
     1
 44
1.0
  0
MTEXT
  5
190
330
1F
100
AcDbEntity
  8
TITLE
100
AcDbMText
 10
61.57354446892136
 20
49.74720077916314
 30
0.0
 40
0.125
 41
0.0
 71
     2
 72
     1
  1
5
  7
SLDTEXTSTYLE1
 73
     1
 44
1.0
  0
MTEXT
  5
191
330
1F
100
AcDbEntity
  8
TITLE
100
AcDbMText
 10
63.54204840592922
 20
0.4125551098718104
 30
0.0
 40
0.125
 41
0.0
 71
     2
 72
     1
  1
4
  7
SLDTEXTSTYLE1
 73
     1
 44
1.0
  0
MTEXT
  5
192
330
1F
100
AcDbEntity
  8
TITLE
100
AcDbMText
 10
63.54204840592922
 20
49.74720077916318
 30
0.0
 40
0.125
 41
0.0
 71
     2
 72
     1
  1
4
  7
SLDTEXTSTYLE1
 73
     1
 44
1.0
  0
MTEXT
  5
193
330
1F
100
AcDbEntity
  8
TITLE
100
AcDbMText
 10
65.5105523429371
 20
0.4125551098718104
 30
0.0
 40
0.125
 41
0.0
 71
     2
 72
     1
  1
3
  7
SLDTEXTSTYLE1
 73
     1
 44
1.0
  0
MTEXT
  5
194
330
1F
100
AcDbEntity
  8
TITLE
100
AcDbMText
 10
65.5105523429371
 20
49.74720077916316
 30
0.0
 40
0.125
 41
0.0
 71
     2
 72
     1
  1
3
  7
SLDTEXTSTYLE1
 73
     1
 44
1.0
  0
MTEXT
  5
195
330
1F
100
AcDbEntity
  8
TITLE
100
AcDbMText
 10
67.47905627994497
 20
0.4125551098718104
 30
0.0
 40
0.125
 41
0.0
 71
     2
 72
     1
  1
2
  7
SLDTEXTSTYLE1
 73
     1
 44
1.0
  0
MTEXT
  5
196
330
1F
100
AcDbEntity
  8
TITLE
100
AcDbMText
 10
67.47905627994498
 20
49.74720077916317
 30
0.0
 40
0.125
 41
0.0
 71
     2
 72
     1
  1
2
  7
SLDTEXTSTYLE1
 73
     1
 44
1.0
  0
MTEXT
  5
197
330
1F
100
AcDbEntity
  8
TITLE
100
AcDbMText
 10
68.98102478388199
 20
0.4125551098718104
 30
0.0
 40
0.125
 41
0.0
 71
     2
 72
     1
  1
1
  7
SLDTEXTSTYLE1
 73
     1
 44
1.0
  0
MTEXT
  5
198
330
1F
100
AcDbEntity
  8
TITLE
100
AcDbMText
 10
68.98102478388199
 20
49.74720077916316
 30
0.0
 40
0.125
 41
0.0
 71
     2
 72
     1
  1
1
  7
SLDTEXTSTYLE1
 73
     1
 44
1.0
  0
LINE
  5
199
330
1F
100
AcDbEntity
  8
0
  6
SLD-Solid
 62
     7
370
    25
100
AcDbLine
 10
11.60889967162935
 20
19.68246282945369
 30
0.0
 11
11.58389967162935
 21
19.68246282945369
 31
0.0
  0
LINE
  5
19A
330
1F
100
AcDbEntity
  8
0
  6
SLD-Solid
 62
     7
370
    25
100
AcDbLine
 10
11.58389967162935
 20
19.30746282945369
 30
0.0
 11
11.60889967162935
 21
19.30746282945369
 31
0.0
  0
LINE
  5
19B
330
1F
100
AcDbEntity
  8
0
  6
SLD-Solid
 62
     7
370
    25
100
AcDbLine
 10
11.58389967162935
 20
19.68246282945369
 30
0.0
 11
11.57889967162934
 21
19.66502575723447
 31
0.0
  0
LINE
  5
19C
330
1F
100
AcDbEntity
  8
0
  6
SLD-Solid
 62
     7
370
    25
100
AcDbLine
 10
11.57889967162934
 20
19.32489990167292
 30
0.0
 11
11.58389967162935
 21
19.30746282945369
 31
0.0
  0
ELLIPSE
  5
19D
330
1F
100
AcDbEntity
  8
0
  6
SLD-Solid
 62
     7
370
    25
100
AcDbEllipse
 10
21.10889967162936
 20
19.74496282945368
 30
0.0
 11
1.0
 21
0.0
 31
0.0
210
0.0
220
0.0
230
1.0
 40
0.298273144999996
 41
0.0
 42
6.283185307179586
  0
LINE
  5
19E
330
1F
100
AcDbEntity
  8
0
  6
SLD-Solid
 62
     7
370
    25
100
AcDbLine
 10
11.58389967162935
 20
19.42889643421567
 30
0.0
 11
11.58389967162935
 21
19.30746282945369
 31
0.0
  0
LINE
  5
19F
330
1F
100
AcDbEntity
  8
0
  6
SLD-Solid
 62
     7
370
    25
100
AcDbLine
 10
11.58389967162935
 20
19.68246282945369
 30
0.0
 11
11.58389967162935
 21
19.42889643421567
 31
0.0
  0
SPLINE
  5
1A0
330
1F
100
AcDbEntity
  8
0
  6
SLD-Solid
 62
     7
370
    25
100
AcDbSpline
210
0.0
220
0.0
230
1.0
 70
    12
 71
     3
 72
    11
 73
     7
 74
     0
 42
0.00000001
 43
0.00000001
 40
0.0
 40
0.0
 40
0.0
 40
0.0
 40
0.2499999999999949
 40
0.5000000000000109
 40
0.7500000000000073
 40
1.0
 40
1.0
 40
1.0
 40
1.0
 10
22.6188996716295
 20
18.98863131932223
 30
0.0
 41
1.0
 10
22.61977150285116
 20
18.9829371826376
 30
0.0
 41
1.0
 10
22.62151516529449
 20
18.97154890926833
 30
0.0
 41
1.0
 10
22.63492761965559
 20
18.95446649921443
 30
0.0
 41
1.0
 10
22.65409922600721
 20
18.93738408916053
 30
0.0
 41
1.0
 10
22.66929952308874
 20
18.92599581579127
 30
0.0
 41
1.0
 10
22.6768996716295
 20
18.92030167910663
 30
0.0
 41
1.0
  0
LINE
  5
1A1
330
1F
100
AcDbEntity
  8
0
  6
SLD-Solid
 62
     7
370
    25
100
AcDbLine
 10
22.61889967162949
 20
34.12212397980069
 30
0.0
 11
22.61889967162949
 21
18.98863131932223
 31
0.0
  0
SPLINE
  5
1A2
330
1F
100
AcDbEntity
  8
0
  6
SLD-Solid
 62
     7
370
    25
100
AcDbSpline
210
0.0
220
0.0
230
1.0
 70
    12
 71
     3
 72
    11
 73
     7
 74
     0
 42
0.00000001
 43
0.00000001
 40
0.0
 40
0.0
 40
0.0
 40
0.0
 40
0.2500000000000029
 40
0.4999999999999921
 40
0.7499999999999964
 40
1.0
 40
1.0
 40
1.0
 40
1.0
 10
22.67689967162951
 20
34.18012397980068
 30
0.0
 41
1.0
 10
22.66929952308875
 20
34.17529064646735
 30
0.0
 41
1.0
 10
22.65409922600723
 20
34.16562397980069
 30
0.0
 41
1.0
 10
22.6349276196556
 20
34.15112397980069
 30
0.0
 41
1.0
 10
22.6215151652945
 20
34.13662397980069
 30
0.0
 41
1.0
 10
22.61977150285117
 20
34.12695731313403
 30
0.0
 41
1.0
 10
22.6188996716295
 20
34.12212397980069
 30
0.0
 41
1.0
  0
LINE
  5
1A3
330
1F
100
AcDbEntity
  8
0
  6
SLD-Solid
 62
     7
370
    25
100
AcDbLine
 10
22.6768996716295
 20
34.18012397980068
 30
0.0
 11
22.6768996716295
 21
18.92030167910664
 31
0.0
  0
LINE
  5
1A4
330
1F
100
AcDbEntity
  8
0
  6
SLD-Solid
 62
     7
370
    25
100
AcDbLine
 10
22.67689967162951
 20
34.20416561036103
 30
0.0
 11
22.67689967162951
 21
34.18012397980068
 31
0.0
  0
LINE
  5
1A5
330
1F
100
AcDbEntity
  8
0
  6
SLD-Solid
 62
     7
370
    25
100
AcDbLine
 10
23.00587885634933
 20
34.53314479508086
 30
0.0
 11
22.67689967162951
 21
34.20416561036103
 31
0.0
  0
LINE
  5
1A6
330
1F
100
AcDbEntity
  8
0
  6
SLD-Solid
 62
     7
370
    25
100
AcDbLine
 10
23.0178996716295
 20
34.52112397980068
 30
0.0
 11
23.00587885634933
 21
34.53314479508086
 31
0.0
  0
LINE
  5
1A7
330
1F
100
AcDbEntity
  8
0
  6
SLD-Solid
 62
     7
370
    25
100
AcDbLine
 10
23.00362320722609
 20
18.56502521470322
 30
0.0
 11
23.0178996716295
 21
18.57930167910663
 31
0.0
  0
LINE
  5
1A8
330
1F
100
AcDbEntity
  8
0
  6
SLD-Solid
 62
     7
370
    25
100
AcDbLine
 10
22.6626232072261
 20
18.90602521470323
 30
0.0
 11
23.00362320722609
 21
18.56502521470322
 31
0.0
  0
LINE
  5
1A9
330
1F
100
AcDbEntity
  8
0
  6
SLD-Solid
 62
     7
370
    25
100
AcDbLine
 10
22.6768996716295
 20
18.92030167910664
 30
0.0
 11
22.6626232072261
 21
18.90602521470323
 31
0.0
  0
SPLINE
  5
1AA
330
1F
100
AcDbEntity
  8
0
  6
SLD-Solid
 62
     7
370
    25
100
AcDbSpline
210
0.0
220
0.0
230
1.0
 70
    12
 71
     3
 72
    11
 73
     7
 74
     0
 42
0.00000001
 43
0.00000001
 40
0.0
 40
0.0
 40
0.0
 40
0.0
 40
0.2500000000000109
 40
0.4999999999999968
 40
0.7499999999999926
 40
1.0
 40
1.0
 40
1.0
 40
1.0
 10
22.59106082197649
 20
34.1499628294537
 30
0.0
 41
1.0
 10
22.59589415530982
 20
34.15083466067536
 30
0.0
 41
1.0
 10
22.60556082197649
 20
34.1525783231187
 30
0.0
 41
1.0
 10
22.62006082197649
 20
34.16599077747979
 30
0.0
 41
1.0
 10
22.63456082197648
 20
34.1851623838314
 30
0.0
 41
1.0
 10
22.64422748864315
 20
34.20036268091292
 30
0.0
 41
1.0
 10
22.64906082197649
 20
34.20796282945369
 30
0.0
 41
1.0
  0
LINE
  5
1AB
330
1F
100
AcDbEntity
  8
0
  6
SLD-Solid
 62
     7
370
    25
100
AcDbLine
 10
11.60673852128251
 20
34.14996282945373
 30
0.0
 11
22.59106082197649
 21
34.14996282945369
 31
0.0
  0
LINE
  5
1AC
330
1F
100
AcDbEntity
  8
0
  6
SLD-Solid
 62
     7
370
    25
100
AcDbLine
 10
11.54873852128251
 20
34.20796282945374
 30
0.0
 11
22.64906082197649
 21
34.2079628294537
 31
0.0
  0
SPLINE
  5
1AD
330
1F
100
AcDbEntity
  8
0
  6
SLD-Solid
 62
     7
370
    25
100
AcDbSpline
210
0.0
220
0.0
230
1.0
 70
    12
 71
     3
 72
    11
 73
     7
 74
     0
 42
0.00000001
 43
0.00000001
 40
0.0
 40
0.0
 40
0.0
 40
0.0
 40
0.2500000000000051
 40
0.5000000000000062
 40
0.7499999999999974
 40
1.0
 40
1.0
 40
1.0
 40
1.0
 10
11.54873852128251
 20
34.20796282945373
 30
0.0
 41
1.0
 10
11.55357185461585
 20
34.20036268091297
 30
0.0
 41
1.0
 10
11.56323852128251
 20
34.18516238383145
 30
0.0
 41
1.0
 10
11.57773852128251
 20
34.16599077747982
 30
0.0
 41
1.0
 10
11.59223852128251
 20
34.15257832311873
 30
0.0
 41
1.0
 10
11.60190518794918
 20
34.1508346606754
 30
0.0
 41
1.0
 10
11.60673852128251
 20
34.14996282945373
 30
0.0
 41
1.0
  0
LINE
  5
1AE
330
1F
100
AcDbEntity
  8
0
  6
SLD-Solid
 62
     7
370
    25
100
AcDbLine
 10
23.00208163725666
 20
34.53694201417355
 30
0.0
 11
22.99006082197649
 21
34.54896282945372
 31
0.0
  0
LINE
  5
1AF
330
1F
100
AcDbEntity
  8
0
  6
SLD-Solid
 62
     7
370
    25
100
AcDbLine
 10
22.67310245253683
 20
34.2079628294537
 30
0.0
 11
23.00208163725666
 21
34.53694201417355
 31
0.0
  0
LINE
  5
1B0
330
1F
100
AcDbEntity
  8
0
  6
SLD-Solid
 62
     7
370
    25
100
AcDbLine
 10
22.64906082197649
 20
34.2079628294537
 30
0.0
 11
22.67310245253683
 21
34.2079628294537
 31
0.0
  0
LINE
  5
1B1
330
1F
100
AcDbEntity
  8
0
  6
SLD-Solid
 62
     7
370
    25
100
AcDbLine
 10
11.19501059922115
 20
34.53623490739238
 30
0.0
 11
11.52101059922116
 21
34.21023490739237
 31
0.0
  0
LINE
  5
1B2
330
1F
100
AcDbEntity
  8
0
  6
SLD-Solid
 62
     7
370
    25
100
AcDbLine
 10
11.20773852128251
 20
34.54896282945374
 30
0.0
 11
11.19501059922115
 21
34.53623490739238
 31
0.0
  0
LINE
  5
1B3
330
1F
100
AcDbEntity
  8
0
  6
SLD-Solid
 62
     7
370
    25
100
AcDbLine
 10
11.52101059922116
 20
34.21023490739237
 30
0.0
 11
11.54873852128251
 21
34.20796282945373
 31
0.0
  0
SPLINE
  5
1B4
330
1F
100
AcDbEntity
  8
0
  6
SLD-Solid
 62
     7
370
    25
100
AcDbSpline
210
0.0
220
0.0
230
1.0
 70
    12
 71
     3
 72
    11
 73
     7
 74
     0
 42
0.00000001
 43
0.00000001
 40
0.0
 40
0.0
 40
0.0
 40
0.0
 40
0.2500000000000093
 40
0.4999999999999856
 40
0.7499999999999925
 40
1.0
 40
1.0
 40
1.0
 40
1.0
 10
11.5788996716295
 20
34.12212397980071
 30
0.0
 41
1.0
 10
11.57802784040782
 20
34.12695731313404
 30
0.0
 41
1.0
 10
11.57628417796448
 20
34.13662397980071
 30
0.0
 41
1.0
 10
11.56287172360336
 20
34.1511239798007
 30
0.0
 41
1.0
 10
11.54370011725173
 20
34.16562397980071
 30
0.0
 41
1.0
 10
11.52849982017021
 20
34.17529064646737
 30
0.0
 41
1.0
 10
11.52089967162944
 20
34.1801239798007
 30
0.0
 41
1.0
  0
LINE
  5
1B5
330
1F
100
AcDbEntity
  8
0
  6
SLD-Solid
 62
     7
370
    25
100
AcDbLine
 10
11.57889967162945
 20
34.12212397980072
 30
0.0
 11
11.57889967162934
 21
18.97830167910675
 31
0.0
  0
LINE
  5
1B6
330
1F
100
AcDbEntity
  8
0
  6
SLD-Solid
 62
     7
370
    25
100
AcDbLine
 10
11.52089967162939
 20
18.92030167910676
 30
0.0
 11
11.5208996716295
 21
34.18012397980072
 31
0.0
  0
SPLINE
  5
1B7
330
1F
100
AcDbEntity
  8
0
  6
SLD-Solid
 62
     7
370
    25
100
AcDbSpline
210
0.0
220
0.0
230
1.0
 70
    12
 71
     3
 72
    11
 73
     7
 74
     0
 42
0.00000001
 43
0.00000001
 40
0.0
 40
0.0
 40
0.0
 40
0.0
 40
0.2500000000000014
 40
0.5000000000000028
 40
0.7499999999999941
 40
1.0
 40
1.0
 40
1.0
 40
1.0
 10
11.52089967162933
 20
18.92030167910676
 30
0.0
 41
1.0
 10
11.5284998201701
 20
18.92513501244009
 30
0.0
 41
1.0
 10
11.54370011725162
 20
18.93480167910676
 30
0.0
 41
1.0
 10
11.56287172360325
 20
18.94930167910675
 30
0.0
 41
1.0
 10
11.57628417796437
 20
18.96380167910675
 30
0.0
 41
1.0
 10
11.57802784040772
 20
18.97346834577341
 30
0.0
 41
1.0
 10
11.57889967162939
 20
18.97830167910675
 30
0.0
 41
1.0
  0
LINE
  5
1B8
330
1F
100
AcDbEntity
  8
0
  6
SLD-Solid
 62
     7
370
    25
100
AcDbLine
 10
11.19262759369074
 20
34.53385190186209
 30
0.0
 11
11.17989967162944
 21
34.52112397980073
 31
0.0
  0
LINE
  5
1B9
330
1F
100
AcDbEntity
  8
0
  6
SLD-Solid
 62
     7
370
    25
100
AcDbLine
 10
11.5186275936908
 20
34.20785190186203
 30
0.0
 11
11.19262759369074
 21
34.53385190186209
 31
0.0
  0
LINE
  5
1BA
330
1F
100
AcDbEntity
  8
0
  6
SLD-Solid
 62
     7
370
    25
100
AcDbLine
 10
11.50589967162944
 20
34.19512397980067
 30
0.0
 11
11.5186275936908
 21
34.20785190186203
 31
0.0
  0
LINE
  5
1BB
330
1F
100
AcDbEntity
  8
0
  6
SLD-Solid
 62
     7
370
    25
100
AcDbLine
 10
11.18919765196702
 20
18.56330119517119
 30
0.0
 11
11.51175759017403
 21
18.88586113337825
 31
0.0
  0
LINE
  5
1BC
330
1F
100
AcDbEntity
  8
0
  6
SLD-Solid
 62
     7
370
    25
100
AcDbLine
 10
11.17989967162938
 20
18.57930167910676
 30
0.0
 11
11.18919765196702
 21
18.56330119517119
 31
0.0
  0
LINE
  5
1BD
330
1F
100
AcDbEntity
  8
0
  6
SLD-Solid
 62
     7
370
    25
100
AcDbLine
 10
11.5058996716295
 20
34.19512397980072
 30
0.0
 11
11.52089967162947
 21
34.18012397980075
 31
0.0
  0
LINE
  5
1BE
330
1F
100
AcDbEntity
  8
0
  6
SLD-Solid
 62
     7
370
    25
100
AcDbLine
 10
11.51175759017403
 20
18.88586113337825
 30
0.0
 11
11.52089967162933
 21
18.92030167910676
 31
0.0
  0
LINE
  5
1BF
330
1F
100
AcDbEntity
  8
0
  6
SLD-Solid
 62
     7
370
    25
100
AcDbLine
 10
22.57131762436621
 20
18.95046282945362
 30
0.0
 11
11.60673852128228
 21
18.95046282945362
 31
0.0
  0
SPLINE
  5
1C0
330
1F
100
AcDbEntity
  8
0
  6
SLD-Solid
 62
     7
370
    25
100
AcDbSpline
210
0.0
220
0.0
230
1.0
 70
    12
 71
     3
 72
    11
 73
     7
 74
     0
 42
0.00000001
 43
0.00000001
 40
0.0
 40
0.0
 40
0.0
 40
0.0
 40
0.2500000000000049
 40
0.4999999999999996
 40
0.7499999999999977
 40
1.0
 40
1.0
 40
1.0
 40
1.0
 10
11.60673852128229
 20
18.95046282945362
 30
0.0
 41
1.0
 10
11.60190518794896
 20
18.94959099823195
 30
0.0
 41
1.0
 10
11.59223852128229
 20
18.94784733578862
 30
0.0
 41
1.0
 10
11.5777385212823
 20
18.93443488142752
 30
0.0
 41
1.0
 10
11.5632385212823
 20
18.9152632750759
 30
0.0
 41
1.0
 10
11.55357185461563
 20
18.90006297799438
 30
0.0
 41
1.0
 10
11.5487385212823
 20
18.89246282945362
 30
0.0
 41
1.0
  0
SPLINE
  5
1C1
330
1F
100
AcDbEntity
  8
0
  6
SLD-Solid
 62
     7
370
    25
100
AcDbSpline
210
0.0
220
0.0
230
1.0
 70
    12
 71
     3
 72
    11
 73
     7
 74
     0
 42
0.00000001
 43
0.00000001
 40
0.0
 40
0.0
 40
0.0
 40
0.0
 40
0.25
 40
0.5000000000000004
 40
0.7499999999999977
 40
1.0
 40
1.0
 40
1.0
 40
1.0
 10
22.63806082197646
 20
18.89246282945362
 30
0.0
 41
1.0
 10
22.63249888884228
 20
18.90006297799438
 30
0.0
 41
1.0
 10
22.62137502257391
 20
18.9152632750759
 30
0.0
 41
1.0
 10
22.60468922317134
 20
18.93443488142752
 30
0.0
 41
1.0
 10
22.58800342376878
 20
18.94784733578862
 30
0.0
 41
1.0
 10
22.5768795575004
 20
18.94959099823195
 30
0.0
 41
1.0
 10
22.57131762436622
 20
18.95046282945362
 30
0.0
 41
1.0
  0
LINE
  5
1C2
330
1F
100
AcDbEntity
  8
0
  6
SLD-Solid
 62
     7
370
    25
100
AcDbLine
 10
22.9985353460554
 20
18.55984708384558
 30
0.0
 11
22.65243930468866
 21
18.90594312521232
 31
0.0
  0
LINE
  5
1C3
330
1F
100
AcDbEntity
  8
0
  6
SLD-Solid
 62
     7
370
    25
100
AcDbLine
 10
22.97906082197646
 20
18.55146282945362
 30
0.0
 11
22.9985353460554
 21
18.55984708384558
 31
0.0
  0
LINE
  5
1C4
330
1F
100
AcDbEntity
  8
0
  6
SLD-Solid
 62
     7
370
    25
100
AcDbLine
 10
11.1949000725944
 20
18.56408022488839
 30
0.0
 11
11.2077385212824
 21
18.55146282945368
 31
0.0
  0
LINE
  5
1C5
330
1F
100
AcDbEntity
  8
0
  6
SLD-Solid
 62
     7
370
    25
100
AcDbLine
 10
11.51426415770017
 20
18.88344430999421
 30
0.0
 11
11.1949000725944
 21
18.56408022488839
 31
0.0
  0
LINE
  5
1C6
330
1F
100
AcDbEntity
  8
0
  6
SLD-Solid
 62
     7
370
    25
100
AcDbLine
 10
11.5487385212823
 20
18.89246282945362
 30
0.0
 11
11.51426415770017
 21
18.88344430999421
 31
0.0
  0
LINE
  5
1C7
330
1F
100
AcDbEntity
  8
0
  6
SLD-Solid
 62
     7
370
    25
100
AcDbLine
 10
22.65243930468866
 20
18.90594312521232
 30
0.0
 11
22.63806082197646
 21
18.89246282945362
 31
0.0
  0
SPLINE
  5
1C8
330
1F
100
AcDbEntity
  8
0
  6
SLD-Solid
 62
     7
370
    25
100
AcDbSpline
210
0.0
220
0.0
230
1.0
 70
    12
 71
     3
 72
    11
 73
     7
 74
     0
 42
0.00000001
 43
0.00000001
 40
0.0
 40
0.0
 40
0.0
 40
0.0
 40
0.2531995012519114
 40
0.5066285487983911
 40
0.7600586202960085
 40
1.0
 40
1.0
 40
1.0
 40
1.0
 10
23.0758996716295
 20
18.5224628294537
 30
0.0
 41
1.0
 10
23.07500478127784
 20
18.52726059172292
 30
0.0
 41
1.0
 10
23.0732141892824
 20
18.53686046582976
 30
0.0
 41
1.0
 10
23.05945488619293
 20
18.55126188446011
 30
0.0
 41
1.0
 10
23.04018267961183
 20
18.56541514189129
 30
0.0
 41
1.0
 10
23.02519071503404
 20
18.57475797721252
 30
0.0
 41
1.0
 10
23.0178996716295
 20
18.57930167910663
 30
0.0
 41
1.0
  0
SPLINE
  5
1C9
330
1F
100
AcDbEntity
  8
0
  6
SLD-Solid
 62
     7
370
    25
100
AcDbSpline
210
0.0
220
0.0
230
1.0
 70
    12
 71
     3
 72
    12
 73
     8
 74
     0
 42
0.00000001
 43
0.00000001
 40
0.0
 40
0.0
 40
0.0
 40
0.0
 40
0.2245228928297975
 40
0.4490822654039712
 40
0.6736418004067236
 40
0.8982011233140234
 40
1.0
 40
1.0
 40
1.0
 40
1.0
 10
23.0178996716295
 20
34.52112397980068
 30
0.0
 41
1.0
 10
23.02471894907196
 20
34.52320820578591
 30
0.0
 41
1.0
 10
23.03835861193075
 20
34.52737699639457
 30
0.0
 41
1.0
 10
23.05631935721713
 20
34.53363130815378
 30
0.0
 41
1.0
 10
23.06946097742828
 20
34.53988215464472
 30
0.0
 41
1.0
 10
23.07527396948398
 20
34.54500569419458
 30
0.0
 41
1.0
 10
23.0757509043217
 20
34.54802197866181
 30
0.0
 41
1.0
 10
23.0758996716295
 20
34.5489628294537
 30
0.0
 41
1.0
  0
LINE
  5
1CA
330
1F
100
AcDbEntity
  8
0
  6
SLD-Solid
 62
     7
370
    25
100
AcDbLine
 10
23.0758996716295
 20
34.5489628294537
 30
0.0
 11
23.0758996716295
 21
18.5224628294537
 31
0.0
  0
LINE
  5
1CB
330
1F
100
AcDbEntity
  8
0
  6
SLD-Solid
 62
     7
370
    25
100
AcDbLine
 10
23.0468996716295
 20
34.5489628294537
 30
0.0
 11
23.0758996716295
 21
34.5489628294537
 31
0.0
  0
SPLINE
  5
1CC
330
1F
100
AcDbEntity
  8
0
  6
SLD-Solid
 62
     7
370
    25
100
AcDbSpline
210
0.0
220
0.0
230
1.0
 70
    12
 71
     3
 72
    11
 73
     7
 74
     0
 42
0.00000001
 43
0.00000001
 40
0.0
 40
0.0
 40
0.0
 40
0.0
 40
0.2776970454959527
 40
0.5297789385149037
 40
0.7817948539836352
 40
1.0
 40
1.0
 40
1.0
 40
1.0
 10
23.0178996716295
 20
34.52112397980068
 30
0.0
 41
1.0
 10
23.02212528499659
 20
34.52370429828819
 30
0.0
 41
1.0
 10
23.03018673541711
 20
34.52862692318288
 30
0.0
 41
1.0
 10
23.03986624064906
 20
34.53587829081521
 30
0.0
 41
1.0
 10
23.04584966857337
 20
34.54258434214811
 30
0.0
 41
1.0
 10
23.04656686025817
 20
34.54694108952179
 30
0.0
 41
1.0
 10
23.0468996716295
 20
34.5489628294537
 30
0.0
 41
1.0
  0
LINE
  5
1CD
330
1F
100
AcDbEntity
  8
0
  6
SLD-Solid
 62
     7
370
    25
100
AcDbLine
 10
23.0758996716295
 20
18.5224628294537
 30
0.0
 11
23.0468996716295
 21
18.5224628294537
 31
0.0
  0
SPLINE
  5
1CE
330
1F
100
AcDbEntity
  8
0
  6
SLD-Solid
 62
     7
370
    25
100
AcDbSpline
210
0.0
220
0.0
230
1.0
 70
    12
 71
     3
 72
    10
 73
     6
 74
     0
 42
0.00000001
 43
0.00000001
 40
0.0
 40
0.0
 40
0.0
 40
0.0
 40
0.343881020946559
 40
0.6889221135688146
 40
0.9999999999999999
 40
0.9999999999999999
 40
0.9999999999999999
 40
0.9999999999999999
 10
23.0468996716295
 20
18.5224628294537
 30
0.0
 41
1.0
 10
23.04606514734942
 20
18.52897932846757
 30
0.0
 41
1.0
 10
23.04439328354816
 20
18.54203430969726
 30
0.0
 41
1.0
 10
23.03248551693093
 20
18.56099212145571
 30
0.0
 41
1.0
 10
23.02259089230039
 20
18.57341280715223
 30
0.0
 41
1.0
 10
23.0178996716295
 20
18.57930167910663
 30
0.0
 41
1.0
  0
SPLINE
  5
1CF
330
1F
100
AcDbEntity
  8
0
  6
SLD-Solid
 62
     7
370
    25
100
AcDbSpline
210
0.0
220
0.0
230
1.0
 70
    12
 71
     3
 72
    12
 73
     8
 74
     0
 42
0.00000001
 43
0.00000001
 40
0.0
 40
0.0
 40
0.0
 40
0.0
 40
0.2245228928297646
 40
0.4490822654039401
 40
0.6736418004066581
 40
0.8982011233139688
 40
1.0
 40
1.0
 40
1.0
 40
1.0
 10
23.0178996716295
 20
34.6069628294537
 30
0.0
 41
1.0
 10
23.01581544564428
 20
34.60626105329496
 30
0.0
 41
1.0
 10
23.01164665503563
 20
34.60485738695521
 30
0.0
 41
1.0
 10
23.00539234327642
 20
34.5939466409617
 30
0.0
 41
1.0
 10
22.99914149678547
 20
34.57801808264697
 30
0.0
 41
1.0
 10
22.99401795723562
 20
34.5619113402877
 30
0.0
 41
1.0
 10
22.99100167276839
 20
34.55204147495716
 30
0.0
 41
1.0
 10
22.99006082197649
 20
34.54896282945372
 30
0.0
 41
1.0
  0
SPLINE
  5
1D0
330
1F
100
AcDbEntity
  8
0
  6
SLD-Solid
 62
     7
370
    25
100
AcDbSpline
210
0.0
220
0.0
230
1.0
 70
    12
 71
     3
 72
    12
 73
     8
 74
     0
 42
0.00000001
 43
0.00000001
 40
0.0
 40
0.0
 40
0.0
 40
0.0
 40
0.2245228928300625
 40
0.4490822654043085
 40
0.673641800407132
 40
0.8982011233145049
 40
1.0
 40
1.0
 40
1.0
 40
1.0
 10
11.20773852128251
 20
34.54896282945374
 30
0.0
 41
1.0
 10
11.20565429529729
 20
34.55578210689621
 30
0.0
 41
1.0
 10
11.20148550468864
 20
34.569421769755
 30
0.0
 41
1.0
 10
11.19523119292942
 20
34.58738251504138
 30
0.0
 41
1.0
 10
11.18898034643847
 20
34.60052413525253
 30
0.0
 41
1.0
 10
11.18385680688861
 20
34.60633712730819
 30
0.0
 41
1.0
 10
11.18084052242139
 20
34.60681406214592
 30
0.0
 41
1.0
 10
11.1798996716295
 20
34.60696282945371
 30
0.0
 41
1.0
  0
LINE
  5
1D1
330
1F
100
AcDbEntity
  8
0
  6
SLD-Solid
 62
     7
370
    25
100
AcDbLine
 10
23.0178996716295
 20
34.6069628294537
 30
0.0
 11
11.1798996716295
 21
34.60696282945371
 31
0.0
  0
LINE
  5
1D2
330
1F
100
AcDbEntity
  8
0
  6
SLD-Solid
 62
     7
370
    25
100
AcDbLine
 10
23.0178996716295
 20
34.5779628294537
 30
0.0
 11
23.0178996716295
 21
34.6069628294537
 31
0.0
  0
SPLINE
  5
1D3
330
1F
100
AcDbEntity
  8
0
  6
SLD-Solid
 62
     7
370
    25
100
AcDbSpline
210
0.0
220
0.0
230
1.0
 70
    12
 71
     3
 72
    11
 73
     7
 74
     0
 42
0.00000001
 43
0.00000001
 40
0.0
 40
0.0
 40
0.0
 40
0.0
 40
0.2776970454959125
 40
0.5297789385148174
 40
0.7817948539834748
 40
1.0
 40
1.0
 40
1.0
 40
1.0
 10
23.0178996716295
 20
34.5779628294537
 30
0.0
 41
1.0
 10
23.015319353142
 20
34.5774248393412
 30
0.0
 41
1.0
 10
23.01039672824731
 20
34.57639848405454
 30
0.0
 41
1.0
 10
23.00314536061499
 20
34.56893879003263
 30
0.0
 41
1.0
 10
22.99643930928208
 20
34.5594126204415
 30
0.0
 41
1.0
 10
22.9920825619084
 20
34.55227501911687
 30
0.0
 41
1.0
 10
22.99006082197649
 20
34.54896282945372
 30
0.0
 41
1.0
  0
SPLINE
  5
1D4
330
1F
100
AcDbEntity
  8
0
  6
SLD-Solid
 62
     7
370
    25
100
AcDbSpline
210
0.0
220
0.0
230
1.0
 70
    12
 71
     3
 72
    12
 73
     8
 74
     0
 42
0.00000001
 43
0.00000001
 40
0.0
 40
0.0
 40
0.0
 40
0.0
 40
0.2245228928296908
 40
0.4490822654038588
 40
0.673641800406585
 40
0.8982011233138731
 40
1.0
 40
1.0
 40
1.0
 40
1.0
 10
11.1218996716295
 20
34.54896282945374
 30
0.0
 41
1.0
 10
11.12260144778822
 20
34.54687860346853
 30
0.0
 41
1.0
 10
11.12400511412794
 20
34.54270981285987
 30
0.0
 41
1.0
 10
11.13491586012146
 20
34.53645550110068
 30
0.0
 41
1.0
 10
11.1508444184362
 20
34.53020465460973
 30
0.0
 41
1.0
 10
11.16695116079546
 20
34.5250811150599
 30
0.0
 41
1.0
 10
11.176821026126
 20
34.52206483059263
 30
0.0
 41
1.0
 10
11.17989967162944
 20
34.52112397980073
 30
0.0
 41
1.0
  0
SPLINE
  5
1D5
330
1F
100
AcDbEntity
  8
0
  6
SLD-Solid
 62
     7
370
    25
100
AcDbSpline
210
0.0
220
0.0
230
1.0
 70
    12
 71
     3
 72
    12
 73
     8
 74
     0
 42
0.00000001
 43
0.00000001
 40
0.0
 40
0.0
 40
0.0
 40
0.0
 40
0.2245228928304952
 40
0.449082265404846
 40
0.6736418004078156
 40
0.8982011233153019
 40
1.0
 40
1.0
 40
1.0
 40
1.0
 10
11.17989967162938
 20
18.57930167910676
 30
0.0
 41
1.0
 10
11.17308039418691
 20
18.57721745312153
 30
0.0
 41
1.0
 10
11.1594407313281
 20
18.57304866251288
 30
0.0
 41
1.0
 10
11.14147998604172
 20
18.56679435075365
 30
0.0
 41
1.0
 10
11.1283383658306
 20
18.56054350426269
 30
0.0
 41
1.0
 10
11.12252537377495
 20
18.55541996471284
 30
0.0
 41
1.0
 10
11.12204843893724
 20
18.55240368024563
 30
0.0
 41
1.0
 10
11.12189967162944
 20
18.55146282945374
 30
0.0
 41
1.0
  0
LINE
  5
1D6
330
1F
100
AcDbEntity
  8
0
  6
SLD-Solid
 62
     7
370
    25
100
AcDbLine
 10
11.1218996716295
 20
34.54896282945374
 30
0.0
 11
11.12189967162944
 21
18.55146282945374
 31
0.0
  0
LINE
  5
1D7
330
1F
100
AcDbEntity
  8
0
  6
SLD-Solid
 62
     7
370
    25
100
AcDbLine
 10
11.1798996716295
 20
34.57796282945374
 30
0.0
 11
11.1798996716295
 21
34.60696282945371
 31
0.0
  0
SPLINE
  5
1D8
330
1F
100
AcDbEntity
  8
0
  6
SLD-Solid
 62
     7
370
    25
100
AcDbSpline
210
0.0
220
0.0
230
1.0
 70
    12
 71
     3
 72
    11
 73
     7
 74
     0
 42
0.00000001
 43
0.00000001
 40
0.0
 40
0.0
 40
0.0
 40
0.0
 40
0.2776970454962868
 40
0.5297789385152399
 40
0.7817948539840385
 40
1.0
 40
1.0
 40
1.0
 40
1.0
 10
11.20773852128251
 20
34.54896282945372
 30
0.0
 41
1.0
 10
11.20515820279501
 20
34.55318844282082
 30
0.0
 41
1.0
 10
11.20023557790032
 20
34.56124989324135
 30
0.0
 41
1.0
 10
11.19298421026799
 20
34.57092939847329
 30
0.0
 41
1.0
 10
11.18627815893508
 20
34.57691282639758
 30
0.0
 41
1.0
 10
11.1819214115614
 20
34.5776300180824
 30
0.0
 41
1.0
 10
11.1798996716295
 20
34.57796282945374
 30
0.0
 41
1.0
  0
LINE
  5
1D9
330
1F
100
AcDbEntity
  8
0
  6
SLD-Solid
 62
     7
370
    25
100
AcDbLine
 10
11.1508996716295
 20
34.54896282945374
 30
0.0
 11
11.1218996716295
 21
34.54896282945374
 31
0.0
  0
SPLINE
  5
1DA
330
1F
100
AcDbEntity
  8
0
  6
SLD-Solid
 62
     7
370
    25
100
AcDbSpline
210
0.0
220
0.0
230
1.0
 70
    12
 71
     3
 72
    11
 73
     7
 74
     0
 42
0.00000001
 43
0.00000001
 40
0.0
 40
0.0
 40
0.0
 40
0.0
 40
0.2776970454958088
 40
0.5297789385146641
 40
0.7817948539832542
 40
1.0
 40
1.0
 40
1.0
 40
1.0
 10
11.1508996716295
 20
34.54896282945374
 30
0.0
 41
1.0
 10
11.15143766174199
 20
34.54638251096623
 30
0.0
 41
1.0
 10
11.15246401702862
 20
34.54145988607154
 30
0.0
 41
1.0
 10
11.15992371105053
 20
34.53420851843924
 30
0.0
 41
1.0
 10
11.16944988064167
 20
34.52750246710634
 30
0.0
 41
1.0
 10
11.17658748196629
 20
34.52314571973265
 30
0.0
 41
1.0
 10
11.17989967162944
 20
34.52112397980073
 30
0.0
 41
1.0
  0
SPLINE
  5
1DB
330
1F
100
AcDbEntity
  8
0
  6
SLD-Solid
 62
     7
370
    25
100
AcDbSpline
210
0.0
220
0.0
230
1.0
 70
    12
 71
     3
 72
    12
 73
     8
 74
     0
 42
0.00000001
 43
0.00000001
 40
0.0
 40
0.0
 40
0.0
 40
0.0
 40
0.2245228928296819
 40
0.4490822654037976
 40
0.6736418004065555
 40
0.8982011233138436
 40
1.0
 40
1.0
 40
1.0
 40
1.0
 10
11.17989967162939
 20
18.49346282945374
 30
0.0
 41
1.0
 10
11.18198389761461
 20
18.49416460561246
 30
0.0
 41
1.0
 10
11.18615268822326
 20
18.49556827195219
 30
0.0
 41
1.0
 10
11.19240699998246
 20
18.50647901794569
 30
0.0
 41
1.0
 10
11.19865784647341
 20
18.52240757626043
 30
0.0
 41
1.0
 10
11.20378138602323
 20
18.5385143186197
 30
0.0
 41
1.0
 10
11.2067976704905
 20
18.54838418395023
 30
0.0
 41
1.0
 10
11.2077385212824
 20
18.55146282945368
 30
0.0
 41
1.0
  0
SPLINE
  5
1DC
330
1F
100
AcDbEntity
  8
0
  6
SLD-Solid
 62
     7
370
    25
100
AcDbSpline
210
0.0
220
0.0
230
1.0
 70
    12
 71
     3
 72
    11
 73
     7
 74
     0
 42
0.00000001
 43
0.00000001
 40
0.0
 40
0.0
 40
0.0
 40
0.0
 40
0.2531995012527351
 40
0.5066285487995247
 40
0.7600586202975025
 40
1.0
 40
1.0
 40
1.0
 40
1.0
 10
22.97906082197646
 20
18.55146282945362
 30
0.0
 41
1.0
 10
22.98385858424568
 20
18.54376476018954
 30
0.0
 41
1.0
 10
22.99345845835253
 20
18.52836164272476
 30
0.0
 41
1.0
 10
23.00785987698292
 20
18.50902033637617
 30
0.0
 41
1.0
 10
23.0220131344141
 20
18.49592004885469
 30
0.0
 41
1.0
 10
23.03135596973531
 20
18.49426683640469
 30
0.0
 41
1.0
 10
23.03589967162939
 20
18.49346282945368
 30
0.0
 41
1.0
  0
LINE
  5
1DD
330
1F
100
AcDbEntity
  8
0
  6
SLD-Solid
 62
     7
370
    25
100
AcDbLine
 10
23.03589967162939
 20
18.49346282945368
 30
0.0
 11
11.17989967162939
 21
18.49346282945374
 31
0.0
  0
LINE
  5
1DE
330
1F
100
AcDbEntity
  8
0
  6
SLD-Solid
 62
     7
370
    25
100
AcDbLine
 10
23.03589967162939
 20
18.49346282945368
 30
0.0
 11
23.03589967162939
 21
18.52246282945368
 31
0.0
  0
SPLINE
  5
1DF
330
1F
100
AcDbEntity
  8
0
  6
SLD-Solid
 62
     7
370
    25
100
AcDbSpline
210
0.0
220
0.0
230
1.0
 70
    12
 71
     3
 72
    10
 73
     6
 74
     0
 42
0.00000001
 43
0.00000001
 40
0.0
 40
0.0
 40
0.0
 40
0.0
 40
0.3438810209475393
 40
0.688922113570608
 40
1.0
 40
1.0
 40
1.0
 40
1.0
 10
22.97906082197646
 20
18.55146282945362
 30
0.0
 41
1.0
 10
22.98557732099035
 20
18.54627267074988
 30
0.0
 41
1.0
 10
22.99863230222007
 20
18.53587484450728
 30
0.0
 41
1.0
 10
23.01759011397852
 20
18.52458591052717
 30
0.0
 41
1.0
 10
23.03001079967502
 20
18.52314567241629
 30
0.0
 41
1.0
 10
23.03589967162939
 20
18.52246282945368
 30
0.0
 41
1.0
  0
LINE
  5
1E0
330
1F
100
AcDbEntity
  8
0
  6
SLD-Solid
 62
     7
370
    25
100
AcDbLine
 10
11.17989967162939
 20
18.52246282945368
 30
0.0
 11
11.17989967162939
 21
18.49346282945374
 31
0.0
  0
SPLINE
  5
1E1
330
1F
100
AcDbEntity
  8
0
  6
SLD-Solid
 62
     7
370
    25
100
AcDbSpline
210
0.0
220
0.0
230
1.0
 70
    12
 71
     3
 72
    11
 73
     7
 74
     0
 42
0.00000001
 43
0.00000001
 40
0.0
 40
0.0
 40
0.0
 40
0.0
 40
0.2776970454959551
 40
0.5297789385147649
 40
0.781794853983308
 40
1.0
 40
1.0
 40
1.0
 40
1.0
 10
11.17989967162939
 20
18.52246282945368
 30
0.0
 41
1.0
 10
11.18247999011689
 20
18.52300081956619
 30
0.0
 41
1.0
 10
11.18740261501157
 20
18.52402717485286
 30
0.0
 41
1.0
 10
11.19465398264389
 20
18.53148686887477
 30
0.0
 41
1.0
 10
11.20136003397678
 20
18.54101303846591
 30
0.0
 41
1.0
 10
11.20571678135048
 20
18.54815063979053
 30
0.0
 41
1.0
 10
11.2077385212824
 20
18.55146282945368
 30
0.0
 41
1.0
  0
LINE
  5
1E2
330
1F
100
AcDbEntity
  8
0
  6
SLD-Solid
 62
     7
370
    25
100
AcDbLine
 10
11.15089967162939
 20
18.55146282945374
 30
0.0
 11
11.12189967162944
 21
18.55146282945374
 31
0.0
  0
SPLINE
  5
1E3
330
1F
100
AcDbEntity
  8
0
  6
SLD-Solid
 62
     7
370
    25
100
AcDbSpline
210
0.0
220
0.0
230
1.0
 70
    12
 71
     3
 72
    11
 73
     7
 74
     0
 42
0.00000001
 43
0.00000001
 40
0.0
 40
0.0
 40
0.0
 40
0.0
 40
0.2776970454967684
 40
0.5297789385159063
 40
0.7817948539847294
 40
1.0
 40
1.0
 40
1.0
 40
1.0
 10
11.17989967162944
 20
18.57930167910676
 30
0.0
 41
1.0
 10
11.17567405826233
 20
18.57672136061925
 30
0.0
 41
1.0
 10
11.16761260784179
 20
18.57179873572456
 30
0.0
 41
1.0
 10
11.15793310260984
 20
18.56454736809222
 30
0.0
 41
1.0
 10
11.15194967468559
 20
18.55784131675931
 30
0.0
 41
1.0
 10
11.15123248300074
 20
18.55348456938564
 30
0.0
 41
1.0
 10
11.15089967162939
 20
18.55146282945374
 30
0.0
 41
1.0
  0
LINE
  5
1E4
330
1F
100
AcDbEntity
  8
0
  6
SLD-Solid
 62
     7
370
    25
100
AcDbLine
 10
22.61889967162948
 20
18.94863131932223
 30
0.0
 11
22.64789967162947
 21
18.94863131932223
 31
0.0
  0
LINE
  5
1E5
330
1F
100
AcDbEntity
  8
0
  6
SLD-Solid
 62
     7
370
    25
100
AcDbLine
 10
22.61889967162948
 20
18.94863131932223
 30
0.0
 11
22.61889967162948
 21
18.98863131932223
 31
0.0
  0
ARC
  5
1E6
330
1F
100
AcDbEntity
  8
0
  6
SLD-Solid
 62
     7
370
    25
100
AcDbCircle
 10
22.58989967162948
 20
18.94863131932223
 30
0.0
 40
0.0579999999999981
100
AcDbArc
 50
311.6255305235288
 51
0.0000000000008774
  0
ARC
  5
1E7
330
1F
100
AcDbEntity
  8
0
  6
SLD-Solid
 62
     7
370
    25
100
AcDbCircle
 10
22.58989967162948
 20
18.94863131932223
 30
0.0
 40
0.0289999999999999
100
AcDbArc
 50
313.5302513962192
 51
0.0000000000008774
  0
ARC
  5
1E8
330
1F
100
AcDbEntity
  8
0
  6
SLD-Solid
 62
     7
370
    25
100
AcDbCircle
 10
23.0178996716295
 20
34.5489628294537
 30
0.0
 40
0.0290000000000035
100
AcDbArc
 50
0.0
 51
90.0
  0
ARC
  5
1E9
330
1F
100
AcDbEntity
  8
0
  6
SLD-Solid
 62
     7
370
    25
100
AcDbCircle
 10
23.0178996716295
 20
34.5489628294537
 30
0.0
 40
0.0579999999999998
100
AcDbArc
 50
0.0000000000004387
 51
90.0
  0
ARC
  5
1EA
330
1F
100
AcDbEntity
  8
0
  6
SLD-Solid
 62
     7
370
    25
100
AcDbCircle
 10
11.1798996716295
 20
34.54896282945374
 30
0.0
 40
0.0579999999999981
100
AcDbArc
 50
90.0
 51
180.0
  0
ARC
  5
1EB
330
1F
100
AcDbEntity
  8
0
  6
SLD-Solid
 62
     7
370
    25
100
AcDbCircle
 10
11.1798996716295
 20
34.54896282945374
 30
0.0
 40
0.0289999999999981
100
AcDbArc
 50
90.0
 51
180.0
  0
ARC
  5
1EC
330
1F
100
AcDbEntity
  8
0
  6
SLD-Solid
 62
     7
370
    25
100
AcDbCircle
 10
11.17989967162939
 20
18.55146282945374
 30
0.0
 40
0.0290000000000603
100
AcDbArc
 50
180.0
 51
270.0000000000008
  0
ARC
  5
1ED
330
1F
100
AcDbEntity
  8
0
  6
SLD-Solid
 62
     7
370
    25
100
AcDbCircle
 10
11.17989967162939
 20
18.55146282945374
 30
0.0
 40
0.0579999999999998
100
AcDbArc
 50
179.9999999999996
 51
270.0000000000008
  0
LINE
  5
1EE
330
1F
100
AcDbEntity
  8
0
  6
SLD-Solid
 62
     7
370
    25
100
AcDbLine
 10
22.60889967162936
 20
19.05696282945367
 30
0.0
 11
22.60889967162936
 21
34.05796282945368
 31
0.0
  0
LINE
  5
1EF
330
1F
100
AcDbEntity
  8
0
  6
SLD-Solid
 62
     7
370
    25
100
AcDbLine
 10
22.54689967162935
 20
34.05796282945368
 30
0.0
 11
22.60889967162936
 21
34.05796282945368
 31
0.0
  0
LINE
  5
1F0
330
1F
100
AcDbEntity
  8
0
  6
SLD-Solid
 62
     7
370
    25
100
AcDbLine
 10
11.67089967162935
 20
18.99496282945368
 30
0.0
 11
11.67089967162935
 21
19.05696282945367
 31
0.0
  0
LINE
  5
1F1
330
1F
100
AcDbEntity
  8
0
  6
SLD-Solid
 62
     7
370
    25
100
AcDbLine
 10
11.60889967162935
 20
34.05796282945368
 30
0.0
 11
11.60889967162935
 21
19.05696282945367
 31
0.0
  0
LINE
  5
1F2
330
1F
100
AcDbEntity
  8
0
  6
SLD-Solid
 62
     7
370
    25
100
AcDbLine
 10
11.67089967162935
 20
19.05696282945367
 30
0.0
 11
11.60889967162935
 21
19.05696282945367
 31
0.0
  0
LINE
  5
1F3
330
1F
100
AcDbEntity
  8
0
  6
SLD-Solid
 62
     7
370
    25
100
AcDbLine
 10
11.60889967162935
 20
34.05796282945368
 30
0.0
 11
11.67089967162935
 21
34.05796282945368
 31
0.0
  0
ARC
  5
1F4
330
1F
100
AcDbEntity
  8
0
  6
SLD-Solid
 62
     7
370
    25
100
AcDbCircle
 10
21.10889967162935
 20
29.85796282945368
 30
0.0
 40
0.5000000000000036
100
AcDbArc
 50
270.0000000000008
 51
0.0
  0
LINE
  5
1F5
330
1F
100
AcDbEntity
  8
0
  6
SLD-Solid
 62
     7
370
    25
100
AcDbLine
 10
21.60889967162935
 20
32.85796282945368
 30
0.0
 11
21.60889967162935
 21
29.85796282945368
 31
0.0
  0
LINE
  5
1F6
330
1F
100
AcDbEntity
  8
0
  6
SLD-Solid
 62
     7
370
    25
100
AcDbLine
 10
22.54689967162935
 20
34.05796282945368
 30
0.0
 11
11.67089967162935
 21
34.05796282945368
 31
0.0
  0
ARC
  5
1F7
330
1F
100
AcDbEntity
  8
0
  6
SLD-Solid
 62
     7
370
    25
100
AcDbCircle
 10
13.10889967162935
 20
29.85796282945368
 30
0.0
 40
0.5000000000000036
100
AcDbArc
 50
180.0
 51
270.0000000000008
  0
ARC
  5
1F8
330
1F
100
AcDbEntity
  8
0
  6
SLD-Solid
 62
     7
370
    25
100
AcDbCircle
 10
13.10889967162935
 20
32.85796282945368
 30
0.0
 40
0.5
100
AcDbArc
 50
90.0
 51
180.0
  0
LINE
  5
1F9
330
1F
100
AcDbEntity
  8
0
  6
SLD-Solid
 62
     7
370
    25
100
AcDbLine
 10
12.60889967162935
 20
29.85796282945368
 30
0.0
 11
12.60889967162935
 21
32.85796282945368
 31
0.0
  0
LINE
  5
1FA
330
1F
100
AcDbEntity
  8
0
  6
SLD-Solid
 62
     7
370
    25
100
AcDbLine
 10
21.10889967162935
 20
29.35796282945368
 30
0.0
 11
13.10889967162935
 21
29.35796282945368
 31
0.0
  0
LINE
  5
1FB
330
1F
100
AcDbEntity
  8
0
  6
SLD-Solid
 62
     7
370
    25
100
AcDbLine
 10
13.10889967162935
 20
33.35796282945368
 30
0.0
 11
21.10889967162935
 21
33.35796282945368
 31
0.0
  0
ARC
  5
1FC
330
1F
100
AcDbEntity
  8
0
  6
SLD-Solid
 62
     7
370
    25
100
AcDbCircle
 10
21.10889967162935
 20
32.85796282945368
 30
0.0
 40
0.5000000000000036
100
AcDbArc
 50
0.0
 51
90.0
  0
LINE
  5
1FD
330
1F
100
AcDbEntity
  8
0
  6
SLD-Solid
 62
     7
370
    25
100
AcDbLine
 10
22.60889967162936
 20
34.11996282945368
 30
0.0
 11
22.60889967162936
 21
34.05796282945368
 31
0.0
  0
LINE
  5
1FE
330
1F
100
AcDbEntity
  8
0
  6
SLD-Solid
 62
     7
370
    25
100
AcDbLine
 10
22.60889967162936
 20
19.05696282945367
 30
0.0
 11
22.60889967162936
 21
18.99496282945368
 31
0.0
  0
LINE
  5
1FF
330
1F
100
AcDbEntity
  8
0
  6
SLD-Solid
 62
     7
370
    25
100
AcDbLine
 10
11.60889967162935
 20
18.99496282945368
 30
0.0
 11
11.60889967162935
 21
19.05696282945367
 31
0.0
  0
LINE
  5
200
330
1F
100
AcDbEntity
  8
0
  6
SLD-Solid
 62
     7
370
    25
100
AcDbLine
 10
11.60889967162935
 20
34.05796282945368
 30
0.0
 11
11.60889967162935
 21
34.11996282945368
 31
0.0
  0
LINE
  5
201
330
1F
100
AcDbEntity
  8
0
  6
SLD-Solid
 62
     7
370
    25
100
AcDbLine
 10
22.61889967162949
 20
18.9949628294537
 30
0.0
 11
22.60889967162936
 21
18.99496282945368
 31
0.0
  0
LINE
  5
202
330
1F
100
AcDbEntity
  8
0
  6
SLD-Solid
 62
     7
370
    25
100
AcDbLine
 10
22.60889967162936
 20
34.11996282945368
 30
0.0
 11
22.61889967162949
 21
34.11996282945368
 31
0.0
  0
LINE
  5
203
330
1F
100
AcDbEntity
  8
0
  6
SLD-Solid
 62
     7
370
    25
100
AcDbLine
 10
11.57889967162945
 20
34.11996282945366
 30
0.0
 11
11.60889967162935
 21
34.11996282945368
 31
0.0
  0
LINE
  5
204
330
1F
100
AcDbEntity
  8
0
  6
SLD-Solid
 62
     7
370
    25
100
AcDbLine
 10
11.60889967162935
 20
18.99496282945368
 30
0.0
 11
11.57889967162934
 21
18.99496282945368
 31
0.0
  0
LINE
  5
205
330
1F
100
AcDbEntity
  8
0
  6
SLD-Solid
 62
     7
370
    25
100
AcDbLine
 10
11.67089967162935
 20
18.96296282945367
 30
0.0
 11
22.54689967162935
 21
18.96296282945367
 31
0.0
  0
LINE
  5
206
330
1F
100
AcDbEntity
  8
0
  6
SLD-Solid
 62
     7
370
    25
100
AcDbLine
 10
11.67089967162935
 20
18.96296282945367
 30
0.0
 11
11.67089967162935
 21
18.99496282945368
 31
0.0
  0
ARC
  5
207
330
1F
100
AcDbEntity
  8
0
  6
SLD-Solid
 62
     7
370
    25
100
AcDbCircle
 10
22.92139967162936
 20
34.43246282945368
 30
0.0
 40
0.1875
100
AcDbArc
 50
0.0
 51
34.51276275496568
  0
LINE
  5
208
330
1F
100
AcDbEntity
  8
0
  6
SLD-Solid
 62
     7
370
    25
100
AcDbLine
 10
23.10889967162936
 20
34.43246282945368
 30
0.0
 11
23.10889967162936
 21
18.68246282945368
 31
0.0
  0
ARC
  5
209
330
1F
100
AcDbEntity
  8
0
  6
SLD-Solid
 62
     7
370
    25
100
AcDbCircle
 10
22.92139967162936
 20
18.68246282945368
 30
0.0
 40
0.1875000000000036
100
AcDbArc
 50
325.4872372450337
 51
0.0
  0
ARC
  5
20A
330
1F
100
AcDbEntity
  8
0
  6
SLD-Solid
 62
     7
370
    25
100
AcDbCircle
 10
11.29639967162935
 20
34.43246282945368
 30
0.0
 40
0.1875000000000071
100
AcDbArc
 50
89.99999999999946
 51
111.4610243086684
  0
LINE
  5
20B
330
1F
100
AcDbEntity
  8
0
  6
SLD-Solid
 62
     7
370
    25
100
AcDbLine
 10
11.17806588364741
 20
34.57790479252434
 30
0.0
 11
11.17484869694685
 21
34.57522700757178
 31
0.0
  0
LINE
  5
20C
330
1F
100
AcDbEntity
  8
0
  6
SLD-Solid
 62
     7
370
    25
100
AcDbLine
 10
11.29639967162935
 20
34.61996282945369
 30
0.0
 11
22.92139967162935
 21
34.61996282945368
 31
0.0
  0
LINE
  5
20D
330
1F
100
AcDbEntity
  8
0
  6
SLD-Solid
 62
     7
370
    25
100
AcDbLine
 10
22.61968646819376
 20
34.15196282945367
 30
0.0
 11
22.59762935756869
 21
34.15196282945367
 31
0.0
  0
LINE
  5
20E
330
1F
100
AcDbEntity
  8
0
  6
SLD-Solid
 62
     7
370
    25
100
AcDbLine
 10
23.03779019249887
 20
34.57006655375879
 30
0.0
 11
22.61968646819376
 21
34.15196282945367
 31
0.0
  0
ARC
  5
20F
330
1F
100
AcDbEntity
  8
0
  6
SLD-Solid
 62
     7
370
    25
100
AcDbCircle
 10
22.92139967162935
 20
34.43246282945368
 30
0.0
 40
0.1875
100
AcDbArc
 50
68.53897569130542
 51
90.0
  0
LINE
  5
210
330
1F
100
AcDbEntity
  8
0
  6
SLD-Solid
 62
     7
370
    25
100
AcDbLine
 10
22.54689967162935
 20
18.96296282945367
 30
0.0
 11
22.61889967162948
 21
18.96296282945367
 31
0.0
  0
LWPOLYLINE
  5
211
330
1F
100
AcDbEntity
  8
0
  6
SLD-Solid
 62
     7
370
    25
100
AcDbPolyline
 90
        3
 70
   128
 43
0.0
 10
23.02111735295221
 20
18.52367796231706
 10
23.02990817829836
 20
18.52955058671143
 10
23.04295064631185
 20
18.53969865133558
  0
LWPOLYLINE
  5
212
330
1F
100
AcDbEntity
  8
0
  6
SLD-Solid
 62
     7
370
    25
100
AcDbPolyline
 90
        3
 70
   128
 43
0.0
 10
11.17484869694685
 20
18.53969865133558
 10
11.18789116496035
 20
18.52955058671143
 10
11.19103531428338
 20
18.52736736787897
  0
LINE
  5
213
330
1F
100
AcDbEntity
  8
0
  6
SLD-Solid
 62
     7
370
    25
100
AcDbLine
 10
11.17484869694685
 20
18.53969865133558
 30
0.0
 11
11.1970839728158
 21
18.56193392720453
 31
0.0
  0
LINE
  5
214
330
1F
100
AcDbEntity
  8
0
  6
SLD-Solid
 62
     7
370
    25
100
AcDbLine
 10
11.52012846203242
 20
18.88497841642116
 30
0.0
 11
11.59811287506494
 21
18.96296282945367
 31
0.0
  0
LINE
  5
215
330
1F
100
AcDbEntity
  8
0
  6
SLD-Solid
 62
     7
370
    25
100
AcDbLine
 10
11.59811287506494
 20
18.96296282945367
 30
0.0
 11
11.67089967162935
 21
18.96296282945367
 31
0.0
  0
ARC
  5
216
330
1F
100
AcDbEntity
  8
0
  6
SLD-Solid
 62
     7
370
    25
100
AcDbCircle
 10
11.29639967162936
 20
18.68246282945367
 30
0.0
 40
0.1875
100
AcDbArc
 50
180.0
 51
201.4610243087422
  0
LINE
  5
217
330
1F
100
AcDbEntity
  8
0
  6
SLD-Solid
 62
     7
370
    25
100
AcDbLine
 10
11.10889967162936
 20
18.68246282945367
 30
0.0
 11
11.10889967162935
 21
34.43246282945368
 31
0.0
  0
LINE
  5
218
330
1F
100
AcDbEntity
  8
0
  6
SLD-Solid
 62
     7
370
    25
100
AcDbLine
 10
11.15363549351126
 20
34.55401380413618
 30
0.0
 11
11.15095770865908
 21
34.55079661755899
 31
0.0
  0
ARC
  5
219
330
1F
100
AcDbEntity
  8
0
  6
SLD-Solid
 62
     7
370
    25
100
AcDbCircle
 10
11.29639967162935
 20
34.43246282945368
 30
0.0
 40
0.1875
100
AcDbArc
 50
158.5389756911643
 51
180.0
  0
LINE
  5
21A
330
1F
100
AcDbEntity
  8
NOTES
100
AcDbLine
 10
3.376699664646163
 20
10.6069628294537
 30
0.0
 11
50.63278655755051
 21
10.6069628294537
 31
0.0
  0
DIMENSION
  5
21B
330
1F
100
AcDbEntity
  8
DIMS
100
AcDbDimension
  2
_D
 10
10.43974044310609
 20
10.60696282945368
 30
0.0
 11
10.43974044310609
 21
11.59331005643132
 31
0.0
 70
    32
  1
                                                                                                                48" (1220mm) Max. height of top of unit for unrestricted installation\P\P^M\P  
 71
     2
 42
-1.0
  3
SLDDIMSTYLE0
100
AcDbAlignedDimension
 13
11.1798996716295
 23
34.60696282945371
 33
0.0
 14
3.376699664646163
 24
10.6069628294537
 34
0.0
 50
90.0000000000002
100
AcDbRotatedDimension
  0
DIMENSION
  5
22C
330
1F
100
AcDbEntity
  8
DIMS
100
AcDbDimension
  2
_D_1
 10
23.0758996716295
 20
35.49860412415616
 30
0.0
 11
17.32003908502822
 21
35.49860412415616
 31
0.0
 70
    32
  1
<>
 71
     2
 42
-1.0
  3
SLDDIMSTYLE1
100
AcDbAlignedDimension
 13
11.1218996716295
 23
34.54896282945374
 33
0.0
 14
23.0758996716295
 24
34.5489628294537
 34
0.0
100
AcDbRotatedDimension
  0
DIMENSION
  5
23C
330
1F
100
AcDbEntity
  8
DIMS
100
AcDbDimension
  2
_D_2
 10
24.4059979612699
 20
34.60696282945369
 30
0.0
 11
24.40599796126986
 21
26.57818086798908
 31
0.0
 70
    32
  1
<>
 71
     2
 42
-1.0
  3
SLDDIMSTYLE1
100
AcDbAlignedDimension
 13
23.03589967162939
 23
18.49346282945368
 33
0.0
 14
23.0178996716295
 24
34.6069628294537
 34
0.0
 50
90.0000000000002
100
AcDbRotatedDimension
  0
MTEXT
  5
24B
330
1F
100
AcDbEntity
  8
NOTES
100
AcDbMText
 10
21.27722969128256
 20
17.82310057104231
 30
0.0
 40
0.5
 41
0.0
 71
     1
 72
     1
  1
Front view
  7
SLDTEXTSTYLE1
 73
     1
 44
1.0
  0
MTEXT
  5
24C
330
1F
100
AcDbEntity
  8
NOTES
100
AcDbMText
 10
10.94203387765329
 20
11.37789859115258
 30
0.0
 40
0.5
 41
0.0
 71
     1
 72
     1
  1
Floor
  7
SLDTEXTSTYLE1
 73
     1
 44
1.0
  0
ARC
  5
24D
330
1F
100
AcDbEntity
  8
0
  6
SLD-Solid
 62
     7
370
    25
100
AcDbCircle
 10
26.87175345612851
 20
20.01930998674699
 30
0.0
 40
0.0250000000000005
100
AcDbArc
 50
107.0251425275731
 51
163.4861978943763
  0
ARC
  5
24E
330
1F
100
AcDbEntity
  8
0
  6
SLD-Solid
 62
     7
370
    25
100
AcDbCircle
 10
26.87175345577289
 20
19.47061565558954
 30
0.0
 40
0.0250000000000034
100
AcDbArc
 50
200.6331375439127
 51
252.7347118810696
  0
ARC
  5
24F
330
1F
100
AcDbEntity
  8
0
  6
SLD-Solid
 62
     7
370
    25
100
AcDbCircle
 10
27.56589502390165
 20
19.74496282945368
 30
0.0
 40
0.7713905752349253
100
AcDbArc
 50
158.5838184760944
 51
201.5303757024411
  0
CIRCLE
  5
250
330
1F
100
AcDbEntity
  8
0
  6
SLD-Solid
 62
     7
370
    25
100
AcDbCircle
 10
29.10250444866672
 20
19.49496282945366
 30
0.0
 40
0.1874999999999981
  0
CIRCLE
  5
251
330
1F
100
AcDbEntity
  8
0
  6
SLD-Solid
 62
     7
370
    25
100
AcDbCircle
 10
29.10250444866672
 20
19.49496282945366
 30
0.0
 40
0.0599999999999971
  0
LINE
  5
252
330
1F
100
AcDbEntity
  8
0
  6
SLD-Solid
 62
     7
370
    25
100
AcDbLine
 10
28.33450444866685
 20
18.5224628294537
 30
0.0
 11
28.33450444866685
 21
34.5489628294537
 31
0.0
  0
LINE
  5
253
330
1F
100
AcDbEntity
  8
0
  6
SLD-Solid
 62
     7
370
    25
100
AcDbLine
 10
27.98450444866685
 20
34.6069628294537
 30
0.0
 11
28.33450444866685
 21
34.6069628294537
 31
0.0
  0
LINE
  5
254
330
1F
100
AcDbEntity
  8
0
  6
SLD-Solid
 62
     7
370
    25
100
AcDbLine
 10
28.33450444866685
 20
34.6069628294537
 30
0.0
 11
28.33450444866685
 21
34.5489628294537
 31
0.0
  0
LINE
  5
255
330
1F
100
AcDbEntity
  8
0
  6
SLD-Solid
 62
     7
370
    25
100
AcDbLine
 10
27.92650444866685
 20
34.52112397980068
 30
0.0
 11
27.92650444866685
 21
18.57930167910663
 31
0.0
  0
SPLINE
  5
256
330
1F
100
AcDbEntity
  8
0
  6
SLD-Solid
 62
     7
370
    25
100
AcDbSpline
210
0.0
220
0.0
230
1.0
 70
    12
 71
     3
 72
    11
 73
     7
 74
     0
 42
0.00000001
 43
0.00000001
 40
0.0
 40
0.0
 40
0.0
 40
0.0
 40
0.2531995012527351
 40
0.5066285487995247
 40
0.7600586202975025
 40
1.0
 40
1.0
 40
1.0
 40
1.0
 10
27.92650444866685
 20
18.55146282945362
 30
0.0
 41
1.0
 10
27.92739933901852
 20
18.54376476018954
 30
0.0
 41
1.0
 10
27.929189931014
 20
18.52836164272476
 30
0.0
 41
1.0
 10
27.94294923410353
 20
18.50902033637617
 30
0.0
 41
1.0
 10
27.96222144068462
 20
18.49592004885469
 30
0.0
 41
1.0
 10
27.97721340526237
 20
18.49426683640469
 30
0.0
 41
1.0
 10
27.98450444866685
 20
18.49346282945368
 30
0.0
 41
1.0
  0
LINE
  5
257
330
1F
100
AcDbEntity
  8
0
  6
SLD-Solid
 62
     7
370
    25
100
AcDbLine
 10
28.33450444866685
 20
18.49346282945362
 30
0.0
 11
27.98450444866685
 21
18.49346282945368
 31
0.0
  0
LINE
  5
258
330
1F
100
AcDbEntity
  8
0
  6
SLD-Solid
 62
     7
370
    25
100
AcDbLine
 10
28.33450444866685
 20
18.49346282945362
 30
0.0
 11
28.33450444866685
 21
18.52246282945362
 31
0.0
  0
SPLINE
  5
259
330
1F
100
AcDbEntity
  8
0
  6
SLD-Solid
 62
     7
370
    25
100
AcDbSpline
210
0.0
220
0.0
230
1.0
 70
    12
 71
     3
 72
    12
 73
     8
 74
     0
 42
0.00000001
 43
0.00000001
 40
0.0
 40
0.0
 40
0.0
 40
0.0
 40
0.2245228928297646
 40
0.4490822654039401
 40
0.6736418004066581
 40
0.8982011233139688
 40
1.0
 40
1.0
 40
1.0
 40
1.0
 10
27.98450444866685
 20
34.6069628294537
 30
0.0
 41
1.0
 10
27.97768517122439
 20
34.60626105329496
 30
0.0
 41
1.0
 10
27.9640455083656
 20
34.60485738695521
 30
0.0
 41
1.0
 10
27.94608476307922
 20
34.5939466409617
 30
0.0
 41
1.0
 10
27.93294314286807
 20
34.57801808264697
 30
0.0
 41
1.0
 10
27.92713015081237
 20
34.5619113402877
 30
0.0
 41
1.0
 10
27.92665321597465
 20
34.55204147495716
 30
0.0
 41
1.0
 10
27.92650444866685
 20
34.54896282945372
 30
0.0
 41
1.0
  0
LINE
  5
25A
330
1F
100
AcDbEntity
  8
0
  6
SLD-Solid
 62
     7
370
    25
100
AcDbLine
 10
27.92650444866685
 20
18.56502521470322
 30
0.0
 11
27.92650444866685
 21
18.57930167910663
 31
0.0
  0
LINE
  5
25B
330
1F
100
AcDbEntity
  8
0
  6
SLD-Solid
 62
     7
370
    25
100
AcDbLine
 10
27.92650444866685
 20
34.52112397980068
 30
0.0
 11
27.92650444866685
 21
34.53314479508086
 31
0.0
  0
LINE
  5
25C
330
1F
100
AcDbEntity
  8
0
  6
SLD-Solid
 62
     7
370
    25
100
AcDbLine
 10
27.92650444866684
 20
34.53314479508086
 30
0.0
 11
27.92650444866684
 21
34.53694201417355
 31
0.0
  0
LINE
  5
25D
330
1F
100
AcDbEntity
  8
0
  6
SLD-Solid
 62
     7
370
    25
100
AcDbLine
 10
27.92650444866684
 20
34.53694201417355
 30
0.0
 11
27.92650444866685
 21
34.54896282945372
 31
0.0
  0
LINE
  5
25E
330
1F
100
AcDbEntity
  8
0
  6
SLD-Solid
 62
     7
370
    25
100
AcDbLine
 10
27.92650444866685
 20
18.55146282945362
 30
0.0
 11
27.92650444866685
 21
18.55984708384558
 31
0.0
  0
LINE
  5
25F
330
1F
100
AcDbEntity
  8
0
  6
SLD-Solid
 62
     7
370
    25
100
AcDbLine
 10
27.92650444866685
 20
18.55984708384558
 30
0.0
 11
27.92650444866685
 21
18.56502521470322
 31
0.0
  0
ARC
  5
260
330
1F
100
AcDbEntity
  8
0
  6
SLD-Solid
 62
     7
370
    25
100
AcDbCircle
 10
28.41050444866683
 20
22.74520081813189
 30
0.0
 40
0.0570000000000022
100
AcDbArc
 50
90.0
 51
270.0000000000008
  0
LINE
  5
261
330
1F
100
AcDbEntity
  8
0
  6
SLD-Solid
 62
     7
370
    25
100
AcDbLine
 10
28.41050444866683
 20
22.68820081813189
 30
0.0
 11
29.0852434091366
 21
22.68820081813189
 31
0.0
  0
ARC
  5
262
330
1F
100
AcDbEntity
  8
0
  6
SLD-Solid
 62
     7
370
    25
100
AcDbCircle
 10
29.08524340913655
 20
22.74520081813189
 30
0.0
 40
0.0570000000000022
100
AcDbArc
 50
270.000000000058
 51
90.0
  0
LINE
  5
263
330
1F
100
AcDbEntity
  8
0
  6
SLD-Solid
 62
     7
370
    25
100
AcDbLine
 10
29.08524340913655
 20
22.80220081813189
 30
0.0
 11
28.41050444866683
 21
22.80220081813189
 31
0.0
  0
ARC
  5
264
330
1F
100
AcDbEntity
  8
0
  6
SLD-Solid
 62
     7
370
    25
100
AcDbCircle
 10
28.41050444866679
 20
30.37030487647039
 30
0.0
 40
0.0559999999999999
100
AcDbArc
 50
84.88420122242918
 51
268.6756693387366
  0
LINE
  5
265
330
1F
100
AcDbEntity
  8
0
  6
SLD-Solid
 62
     7
370
    25
100
AcDbLine
 10
28.40921018381453
 20
30.31431983491024
 30
0.0
 11
29.09450444866684
 21
30.31431983491024
 31
0.0
  0
ARC
  5
266
330
1F
100
AcDbEntity
  8
0
  6
SLD-Solid
 62
     7
370
    25
100
AcDbCircle
 10
29.09450444866678
 20
30.37020081813189
 30
0.0
 40
0.0558809832216589
100
AcDbArc
 50
270.0000000000628
 51
90.0
  0
LINE
  5
267
330
1F
100
AcDbEntity
  8
0
  6
SLD-Solid
 62
     7
370
    25
100
AcDbLine
 10
29.09450444866678
 20
30.42608180135355
 30
0.0
 11
28.4154979094485
 21
30.42608180135355
 31
0.0
  0
LINE
  5
268
330
1F
100
AcDbEntity
  8
0
  6
SLD-Solid
 62
     7
370
    25
100
AcDbLine
 10
28.33450444866685
 20
34.12212397980069
 30
0.0
 11
28.78550444866692
 21
34.12212397980069
 31
0.0
  0
LINE
  5
269
330
1F
100
AcDbEntity
  8
0
  6
SLD-Solid
 62
     7
370
    25
100
AcDbLine
 10
28.78550444866684
 20
30.74496282945368
 30
0.0
 11
28.78550444866692
 21
34.12212397980069
 31
0.0
  0
LINE
  5
26A
330
1F
100
AcDbEntity
  8
0
  6
SLD-Solid
 62
     7
370
    25
100
AcDbLine
 10
29.14411151413313
 20
30.74496282945368
 30
0.0
 11
28.78550444866692
 21
30.74496282945368
 31
0.0
  0
ARC
  5
26B
330
1F
100
AcDbEntity
  8
0
  6
SLD-Solid
 62
     7
370
    25
100
AcDbCircle
 10
29.14411151413313
 20
30.64496282945369
 30
0.0
 40
0.100000000000005
100
AcDbArc
 50
0.0
 51
90.0
  0
LINE
  5
26C
330
1F
100
AcDbEntity
  8
0
  6
SLD-Solid
 62
     7
370
    25
100
AcDbLine
 10
29.24411151413314
 20
30.09484191968926
 30
0.0
 11
29.24411151413314
 21
30.64496282945369
 31
0.0
  0
ARC
  5
26D
330
1F
100
AcDbEntity
  8
0
  6
SLD-Solid
 62
     7
370
    25
100
AcDbCircle
 10
29.14411151413313
 20
30.09484191968926
 30
0.0
 40
0.100000000000005
100
AcDbArc
 50
270.0000000000008
 51
0.0
  0
LINE
  5
26E
330
1F
100
AcDbEntity
  8
0
  6
SLD-Solid
 62
     7
370
    25
100
AcDbLine
 10
28.78550444866684
 20
29.99484191968926
 30
0.0
 11
29.14411151413313
 21
29.99484191968926
 31
0.0
  0
LINE
  5
26F
330
1F
100
AcDbEntity
  8
0
  6
SLD-Solid
 62
     7
370
    25
100
AcDbLine
 10
28.78550444866684
 20
23.12850080833369
 30
0.0
 11
28.78550444866684
 21
29.99484191968926
 31
0.0
  0
LINE
  5
270
330
1F
100
AcDbEntity
  8
0
  6
SLD-Solid
 62
     7
370
    25
100
AcDbLine
 10
29.13590469451228
 20
23.12850080833369
 30
0.0
 11
28.78550444866684
 21
23.12850080833369
 31
0.0
  0
ARC
  5
271
330
1F
100
AcDbEntity
  8
0
  6
SLD-Solid
 62
     7
370
    25
100
AcDbCircle
 10
29.13590469451228
 20
23.02850080833369
 30
0.0
 40
0.1000000000000014
100
AcDbArc
 50
0.0
 51
90.0
  0
LINE
  5
272
330
1F
100
AcDbEntity
  8
0
  6
SLD-Solid
 62
     7
370
    25
100
AcDbLine
 10
29.23590469451228
 20
22.47757233493013
 30
0.0
 11
29.23590469451228
 21
23.02850080833369
 31
0.0
  0
ARC
  5
273
330
1F
100
AcDbEntity
  8
0
  6
SLD-Solid
 62
     7
370
    25
100
AcDbCircle
 10
29.13590469451228
 20
22.47757233493013
 30
0.0
 40
0.1000000000000014
100
AcDbArc
 50
270.0000000000008
 51
0.0
  0
LINE
  5
274
330
1F
100
AcDbEntity
  8
0
  6
SLD-Solid
 62
     7
370
    25
100
AcDbLine
 10
28.78550444866684
 20
22.37757233493013
 30
0.0
 11
29.13590469451228
 21
22.37757233493013
 31
0.0
  0
LINE
  5
275
330
1F
100
AcDbEntity
  8
0
  6
SLD-Solid
 62
     7
370
    25
100
AcDbLine
 10
28.78550444866684
 20
18.94863131932223
 30
0.0
 11
28.78550444866684
 21
22.37757233493013
 31
0.0
  0
LINE
  5
276
330
1F
100
AcDbEntity
  8
0
  6
SLD-Solid
 62
     7
370
    25
100
AcDbLine
 10
28.78550444866684
 20
18.94863131932223
 30
0.0
 11
28.78550444866684
 21
18.89063131932223
 31
0.0
  0
LINE
  5
277
330
1F
100
AcDbEntity
  8
0
  6
SLD-Solid
 62
     7
370
    25
100
AcDbLine
 10
28.78550444866684
 20
18.89063131932223
 30
0.0
 11
28.66050444866684
 21
18.89063131932223
 31
0.0
  0
LINE
  5
278
330
1F
100
AcDbEntity
  8
0
  6
SLD-Solid
 62
     7
370
    25
100
AcDbLine
 10
28.33450444866685
 20
18.89063131932223
 30
0.0
 11
28.66050444866684
 21
18.89063131932223
 31
0.0
  0
LINE
  5
279
330
1F
100
AcDbEntity
  8
0
  6
SLD-Solid
 62
     7
370
    25
100
AcDbLine
 10
28.78550444866685
 20
34.14996282945368
 30
0.0
 11
28.78550444866685
 21
34.17896282945368
 31
0.0
  0
LINE
  5
27A
330
1F
100
AcDbEntity
  8
0
  6
SLD-Solid
 62
     7
370
    25
100
AcDbLine
 10
28.33450444866684
 20
34.14996282945367
 30
0.0
 11
28.78550444866685
 21
34.14996282945368
 31
0.0
  0
LINE
  5
27B
330
1F
100
AcDbEntity
  8
0
  6
SLD-Solid
 62
     7
370
    25
100
AcDbLine
 10
28.33450444866684
 20
34.1789628294537
 30
0.0
 11
28.78550444866685
 21
34.17896282945368
 31
0.0
  0
LINE
  5
27C
330
1F
100
AcDbEntity
  8
0
  6
SLD-Solid
 62
     7
370
    25
100
AcDbLine
 10
29.33450444866672
 20
18.56091185477118
 30
0.0
 11
29.33450444866672
 21
18.68246282945368
 31
0.0
  0
LINE
  5
27D
330
1F
100
AcDbEntity
  8
0
  6
SLD-Solid
 62
     7
370
    25
100
AcDbLine
 10
29.36450444866671
 20
18.56091185477118
 30
0.0
 11
29.36450444866671
 21
18.68246282945368
 31
0.0
  0
LINE
  5
27E
330
1F
100
AcDbEntity
  8
0
  6
SLD-Solid
 62
     7
370
    25
100
AcDbLine
 10
29.33450444866672
 20
34.43246282945368
 30
0.0
 11
29.33450444866672
 21
18.68246282945368
 31
0.0
  0
LINE
  5
27F
330
1F
100
AcDbEntity
  8
0
  6
SLD-Solid
 62
     7
370
    25
100
AcDbLine
 10
29.36450444866671
 20
18.68246282945368
 30
0.0
 11
29.36450444866671
 21
34.43246282945368
 31
0.0
  0
LINE
  5
280
330
1F
100
AcDbEntity
  8
0
  6
SLD-Solid
 62
     7
370
    25
100
AcDbLine
 10
29.33450444866672
 20
34.43246282945368
 30
0.0
 11
29.33450444866672
 21
34.55401380413618
 31
0.0
  0
LINE
  5
281
330
1F
100
AcDbEntity
  8
0
  6
SLD-Solid
 62
     7
370
    25
100
AcDbLine
 10
29.36450444866671
 20
34.43246282945368
 30
0.0
 11
29.36450444866671
 21
34.55401380413618
 31
0.0
  0
LINE
  5
282
330
1F
100
AcDbEntity
  8
0
  6
SLD-Solid
 62
     7
370
    25
100
AcDbLine
 10
29.33450444866673
 20
18.56091185477118
 30
0.0
 11
29.33450444866673
 21
18.53969865133558
 31
0.0
  0
LINE
  5
283
330
1F
100
AcDbEntity
  8
0
  6
SLD-Solid
 62
     7
370
    25
100
AcDbLine
 10
29.36450444866673
 20
18.53969865133558
 30
0.0
 11
29.36450444866673
 21
18.56091185477118
 31
0.0
  0
LINE
  5
284
330
1F
100
AcDbEntity
  8
0
  6
SLD-Solid
 62
     7
370
    25
100
AcDbLine
 10
29.33450444866673
 20
18.49496282945367
 30
0.0
 11
29.33450444866673
 21
18.53969865133558
 31
0.0
  0
LINE
  5
285
330
1F
100
AcDbEntity
  8
0
  6
SLD-Solid
 62
     7
370
    25
100
AcDbLine
 10
29.33450444866673
 20
18.49496282945367
 30
0.0
 11
29.36450444866673
 21
18.49496282945367
 31
0.0
  0
LINE
  5
286
330
1F
100
AcDbEntity
  8
0
  6
SLD-Solid
 62
     7
370
    25
100
AcDbLine
 10
29.36450444866673
 20
18.49496282945367
 30
0.0
 11
29.36450444866673
 21
18.53969865133558
 31
0.0
  0
LINE
  5
287
330
1F
100
AcDbEntity
  8
0
  6
SLD-Solid
 62
     7
370
    25
100
AcDbLine
 10
29.33450444866671
 20
34.57522700757177
 30
0.0
 11
29.33450444866671
 21
34.55401380413618
 31
0.0
  0
LINE
  5
288
330
1F
100
AcDbEntity
  8
0
  6
SLD-Solid
 62
     7
370
    25
100
AcDbLine
 10
29.36450444866671
 20
34.55401380413618
 30
0.0
 11
29.36450444866671
 21
34.57522700757177
 31
0.0
  0
LINE
  5
289
330
1F
100
AcDbEntity
  8
0
  6
SLD-Solid
 62
     7
370
    25
100
AcDbLine
 10
29.33450444866671
 20
34.57522700757177
 30
0.0
 11
29.33450444866671
 21
34.61996282945368
 31
0.0
  0
LINE
  5
28A
330
1F
100
AcDbEntity
  8
0
  6
SLD-Solid
 62
     7
370
    25
100
AcDbLine
 10
29.33450444866671
 20
34.61996282945368
 30
0.0
 11
29.36450444866671
 21
34.61996282945368
 31
0.0
  0
LINE
  5
28B
330
1F
100
AcDbEntity
  8
0
  6
SLD-Solid
 62
     7
370
    25
100
AcDbLine
 10
29.36450444866671
 20
34.57522700757177
 30
0.0
 11
29.36450444866671
 21
34.61996282945368
 31
0.0
  0
ARC
  5
28C
330
1F
100
AcDbEntity
  8
0
  6
SLD-Solid
 62
     7
370
    25
100
AcDbCircle
 10
28.55150444866673
 20
22.74496282945368
 30
0.0
 40
0.1000000000000012
100
AcDbArc
 50
325.4155648085315
 51
34.91634979056128
  0
ARC
  5
28D
330
1F
100
AcDbEntity
  8
0
  6
SLD-Solid
 62
     7
370
    25
100
AcDbCircle
 10
28.55150444866673
 20
22.74496282945368
 30
0.0
 40
0.1000000000000012
100
AcDbArc
 50
145.0836502094387
 51
214.5844351914701
  0
ARC
  5
28E
330
1F
100
AcDbEntity
  8
0
  6
SLD-Solid
 62
     7
370
    25
100
AcDbCircle
 10
28.55150444866675
 20
30.36996282945368
 30
0.0
 40
0.0999999999999984
100
AcDbArc
 50
326.1907375467309
 51
34.13811472947462
  0
ARC
  5
28F
330
1F
100
AcDbEntity
  8
0
  6
SLD-Solid
 62
     7
370
    25
100
AcDbCircle
 10
28.55150444866675
 20
30.36996282945368
 30
0.0
 40
0.1000000000000014
100
AcDbArc
 50
145.8618852705265
 51
213.8092624532696
  0
LINE
  5
290
330
1F
100
AcDbEntity
  8
0
  6
SLD-Solid
 62
     7
370
    25
100
AcDbLine
 10
26.92650444866672
 20
34.11996282945368
 30
0.0
 11
27.92650444866685
 21
34.11996282945368
 31
0.0
  0
LINE
  5
291
330
1F
100
AcDbEntity
  8
0
  6
SLD-Solid
 62
     7
370
    25
100
AcDbLine
 10
28.78550444866684
 20
34.11996282945368
 30
0.0
 11
29.30250444866672
 21
34.11996282945368
 31
0.0
  0
LINE
  5
292
330
1F
100
AcDbEntity
  8
0
  6
SLD-Solid
 62
     7
370
    25
100
AcDbLine
 10
29.30250444866673
 20
18.99496282945368
 30
0.0
 11
28.78550444866684
 21
18.99496282945368
 31
0.0
  0
LINE
  5
293
330
1F
100
AcDbEntity
  8
0
  6
SLD-Solid
 62
     7
370
    25
100
AcDbLine
 10
27.92650444866685
 20
18.99496282945368
 30
0.0
 11
26.92650444866673
 21
18.99496282945368
 31
0.0
  0
LINE
  5
294
330
1F
100
AcDbEntity
  8
0
  6
SLD-Solid
 62
     7
370
    25
100
AcDbLine
 10
26.86450444866673
 20
19.05696282945367
 30
0.0
 11
26.86450444866673
 21
34.05796282945368
 31
0.0
  0
ARC
  5
295
330
1F
100
AcDbEntity
  8
0
  6
SLD-Solid
 62
     7
370
    25
100
AcDbCircle
 10
29.30250444866672
 20
34.15196282945368
 30
0.0
 40
0.0320000000000036
100
AcDbArc
 50
270.0000000000072
 51
359.9999999999804
  0
ARC
  5
296
330
1F
100
AcDbEntity
  8
0
  6
SLD-Solid
 62
     7
370
    25
100
AcDbCircle
 10
29.30250444866673
 20
18.96296282945368
 30
0.0
 40
0.0320000000000036
100
AcDbArc
 50
359.9999999999944
 51
90.0
  0
ARC
  5
297
330
1F
100
AcDbEntity
  8
0
  6
SLD-Solid
 62
     7
370
    25
100
AcDbCircle
 10
26.92650444866673
 20
19.05696282945367
 30
0.0
 40
0.0619999999999976
100
AcDbArc
 50
180.0
 51
270.0000000000008
  0
ARC
  5
298
330
1F
100
AcDbEntity
  8
0
  6
SLD-Solid
 62
     7
370
    25
100
AcDbCircle
 10
26.92650444866673
 20
34.05796282945368
 30
0.0
 40
0.0619999999999976
100
AcDbArc
 50
90.00000000000328
 51
179.9999999999967
  0
LINE
  5
299
330
1F
100
AcDbEntity
  8
0
  6
SLD-Solid
 62
     7
370
    25
100
AcDbLine
 10
30.82050444866672
 20
34.00996282945368
 30
0.0
 11
29.36450444866671
 21
34.00996282945367
 31
0.0
  0
LINE
  5
29A
330
1F
100
AcDbEntity
  8
0
  6
SLD-Solid
 62
     7
370
    25
100
AcDbLine
 10
29.36450444866671
 20
19.21996282945368
 30
0.0
 11
30.82050444866672
 21
19.21996282945368
 31
0.0
  0
LINE
  5
29B
330
1F
100
AcDbEntity
  8
0
  6
SLD-Solid
 62
     7
370
    25
100
AcDbLine
 10
30.88250444866672
 20
19.28196282945367
 30
0.0
 11
30.88250444866672
 21
33.94796282945367
 31
0.0
  0
ARC
  5
29C
330
1F
100
AcDbEntity
  8
0
  6
SLD-Solid
 62
     7
370
    25
100
AcDbCircle
 10
30.82050444866672
 20
19.28196282945368
 30
0.0
 40
0.0620000000000012
100
AcDbArc
 50
270.0000000000008
 51
359.9999999999935
  0
ARC
  5
29D
330
1F
100
AcDbEntity
  8
0
  6
SLD-Solid
 62
     7
370
    25
100
AcDbCircle
 10
30.82050444866672
 20
33.94796282945368
 30
0.0
 40
0.0620000000000012
100
AcDbArc
 50
359.9999999999943
 51
90.00000000000328
  0
DIMENSION
  5
29E
330
1F
100
AcDbEntity
  8
DIMS
100
AcDbDimension
  2
_D_3
 10
28.75179909509946
 20
34.17896282945368
 30
0.0
 11
28.75179909509946
 21
15.80737737095028
 31
0.0
 70
    32
  1
roungh opening 15 3/8"
 71
     2
 42
-1.0
  3
SLDDIMSTYLE2
100
AcDbAlignedDimension
 13
28.78550444866682
 23
18.89063131932223
 33
0.0
 14
28.78550444866684
 24
34.17896282945368
 34
0.0
 50
90.0000000000002
100
AcDbRotatedDimension
  0
DIMENSION
  5
2A9
330
1F
100
AcDbEntity
  8
DIMS
100
AcDbDimension
  2
_D_4
 10
29.3345044486667
 20
36.82948566409938
 30
0.0
 11
23.80237846441474
 21
36.82948566409938
 31
0.0
 70
    32
  1
partition mounting \Pthickness 1" to 1.5"
 71
     1
 42
-1.0
  3
SLDDIMSTYLE0
100
AcDbAlignedDimension
 13
28.33450444866683
 23
34.6069628294537
 33
0.0
 14
29.3345044486667
 24
34.36996282945367
 34
0.0
100
AcDbRotatedDimension
  0
DIMENSION
  5
2B5
330
1F
100
AcDbEntity
  8
DIMS
100
AcDbDimension
  2
_D_5
 10
32.09751047915071
 20
22.74496282945367
 30
0.0
 11
32.09751047915072
 21
27.06636791051488
 31
0.0
 70
    32
  1
<>
 71
     2
 42
-1.0
  3
SLDDIMSTYLE1
100
AcDbAlignedDimension
 13
28.55150444866673
 23
30.36996282945368
 33
0.0
 14
28.55150444866671
 24
22.74496282945368
 34
0.0
 50
90.0000000000002
100
AcDbRotatedDimension
  0
DIMENSION
  5
2C4
330
1F
100
AcDbEntity
  8
DIMS
100
AcDbDimension
  2
_D_6
 10
32.09751047915072
 20
18.89063131932223
 30
0.0
 11
32.09751047915072
 21
20.88032996558777
 31
0.0
 70
    32
  1
<>
 71
     2
 42
-1.0
  3
SLDDIMSTYLE1
100
AcDbAlignedDimension
 13
28.55150444866671
 23
22.74496282945368
 33
0.0
 14
28.78550444866682
 24
18.89063131932223
 34
0.0
 50
90.0000000000002
100
AcDbRotatedDimension
  0
DIMENSION
  5
2D3
330
1F
100
AcDbEntity
  8
DIMS
100
AcDbDimension
  2
_D_7
 10
32.09751047915073
 20
34.17896282945365
 30
0.0
 11
32.09751047915071
 21
32.28475837471416
 31
0.0
 70
    32
  1
<>
 71
     2
 42
-1.0
  3
SLDDIMSTYLE1
100
AcDbAlignedDimension
 13
28.55150444866673
 23
30.36996282945368
 33
0.0
 14
28.78550444866684
 24
34.17896282945368
 34
0.0
 50
90.0000000000002
100
AcDbRotatedDimension
  0
DIMENSION
  5
2E2
330
1F
100
AcDbEntity
  8
DIMS
100
AcDbDimension
  2
_D_8
 10
30.8825044486667
 20
35.26947545076887
 30
0.0
 11
32.01487071474895
 21
35.26947545076887
 31
0.0
 70
    32
  1
<>
 71
     2
 42
-1.0
  3
SLDDIMSTYLE1
100
AcDbAlignedDimension
 13
29.3345044486667
 23
34.55401380413618
 33
0.0
 14
30.8825044486667
 24
34.00996282945368
 34
0.0
100
AcDbRotatedDimension
  0
DIMENSION
  5
2F1
330
1F
100
AcDbEntity
  8
DIMS
100
AcDbDimension
  2
_D_9
 10
25.92836271638329
 20
18.99496282945367
 30
0.0
 11
25.92836271638324
 21
28.49361962024757
 31
0.0
 70
    32
  1
<>
 71
     2
 42
-1.0
  3
SLDDIMSTYLE1
100
AcDbAlignedDimension
 13
26.92650444866671
 23
34.11996282945368
 33
0.0
 14
26.92650444866671
 24
18.99496282945368
 34
0.0
 50
90.0000000000002
100
AcDbRotatedDimension
  0
MTEXT
  5
300
330
1F
100
AcDbEntity
  8
NOTES
100
AcDbMText
 10
28.99208527124946
 20
17.98779537680187
 30
0.0
 40
0.5
 41
0.0
 71
     1
 72
     1
  1
Right side view
  7
SLDTEXTSTYLE1
 73
     1
 44
1.0
  0
ARC
  5
301
330
1F
100
AcDbEntity
  8
0
  6
SLD-Solid
 62
     7
370
    25
100
AcDbCircle
 10
20.13054259326216
 20
40.24088530063367
 30
0.0
 40
0.0249999999999959
100
AcDbArc
 50
211.3241948404108
 51
263.025225286519
  0
ARC
  5
302
330
1F
100
AcDbEntity
  8
0
  6
SLD-Solid
 62
     7
370
    25
100
AcDbCircle
 10
22.08725669923463
 20
40.24088527862552
 30
0.0
 40
0.024999979637153
100
AcDbArc
 50
276.9747801881063
 51
329.9660467310977
  0
ELLIPSE
  5
303
330
1F
100
AcDbEntity
  8
0
  6
SLD-Solid
 62
     7
370
    25
100
AcDbEllipse
 10
21.10889967162936
 20
40.92976252527029
 30
0.0
 11
2.586188492547414
 21
0.0
 31
0.0
210
0.0
220
0.0
230
1.0
 40
0.2982731449999994
 41
4.322869346280212
 42
5.102593610365775
  0
LINE
  5
304
330
1F
100
AcDbEntity
  8
0
  6
SLD-Solid
 62
     7
370
    25
100
AcDbLine
 10
22.63389967162936
 20
42.65387195003535
 30
0.0
 11
22.60889967162936
 21
42.65387195003535
 31
0.0
  0
LINE
  5
305
330
1F
100
AcDbEntity
  8
0
  6
SLD-Solid
 62
     7
370
    25
100
AcDbLine
 10
22.64789967162949
 20
42.32769575224956
 30
0.0
 11
22.66389967162936
 21
42.38349438335058
 31
0.0
  0
LINE
  5
306
330
1F
100
AcDbEntity
  8
0
  6
SLD-Solid
 62
     7
370
    25
100
AcDbLine
 10
22.66389967162936
 20
42.54924951672012
 30
0.0
 11
22.64789967162949
 21
42.60504814782115
 31
0.0
  0
LINE
  5
307
330
1F
100
AcDbEntity
  8
0
  6
SLD-Solid
 62
     7
370
    25
100
AcDbLine
 10
22.64705925884581
 20
42.60797901550172
 30
0.0
 11
22.63389967162936
 21
42.65387195003535
 31
0.0
  0
LINE
  5
308
330
1F
100
AcDbEntity
  8
0
  6
SLD-Solid
 62
     7
370
    25
100
AcDbLine
 10
11.58389967162935
 20
42.65387195003534
 30
0.0
 11
11.57085275657734
 21
42.60837195003538
 31
0.0
  0
LINE
  5
309
330
1F
100
AcDbEntity
  8
0
  6
SLD-Solid
 62
     7
370
    25
100
AcDbLine
 10
11.60889967162935
 20
42.65387195003534
 30
0.0
 11
11.58389967162935
 21
42.65387195003534
 31
0.0
  0
LINE
  5
30A
330
1F
100
AcDbEntity
  8
0
  6
SLD-Solid
 62
     7
370
    25
100
AcDbLine
 10
22.63389967162936
 20
42.60797901550172
 30
0.0
 11
22.63389967162936
 21
42.65387195003535
 31
0.0
  0
LINE
  5
30B
330
1F
100
AcDbEntity
  8
0
  6
SLD-Solid
 62
     7
370
    25
100
AcDbLine
 10
22.66389967162936
 20
42.54924951672012
 30
0.0
 11
22.66389967162936
 21
42.38349438335058
 31
0.0
  0
LINE
  5
30C
330
1F
100
AcDbEntity
  8
0
  6
SLD-Solid
 62
     7
370
    25
100
AcDbLine
 10
11.1798996716295
 20
41.69837195003547
 30
0.0
 11
23.01789967162951
 21
41.69837195003547
 31
0.0
  0
LINE
  5
30D
330
1F
100
AcDbEntity
  8
0
  6
SLD-Solid
 62
     7
370
    25
100
AcDbLine
 10
11.12189967162951
 20
41.34837195003548
 30
0.0
 11
11.12189967162951
 21
41.69837195003547
 31
0.0
  0
LINE
  5
30E
330
1F
100
AcDbEntity
  8
0
  6
SLD-Solid
 62
     7
370
    25
100
AcDbLine
 10
11.12189967162951
 20
41.69837195003547
 30
0.0
 11
11.1798996716295
 21
41.69837195003547
 31
0.0
  0
LINE
  5
30F
330
1F
100
AcDbEntity
  8
0
  6
SLD-Solid
 62
     7
370
    25
100
AcDbLine
 10
22.9900608219765
 20
41.29037195003549
 30
0.0
 11
11.20773852128252
 21
41.29037195003549
 31
0.0
  0
LINE
  5
310
330
1F
100
AcDbEntity
  8
0
  6
SLD-Solid
 62
     7
370
    25
100
AcDbLine
 10
23.07589967162951
 20
41.69837195003547
 30
0.0
 11
23.07589967162951
 21
41.34837195003548
 31
0.0
  0
LINE
  5
311
330
1F
100
AcDbEntity
  8
0
  6
SLD-Solid
 62
     7
370
    25
100
AcDbLine
 10
23.01789967162951
 20
41.69837195003547
 30
0.0
 11
23.07589967162951
 21
41.69837195003547
 31
0.0
  0
SPLINE
  5
312
330
1F
100
AcDbEntity
  8
0
  6
SLD-Solid
 62
     7
370
    25
100
AcDbSpline
210
0.0
220
0.0
230
1.0
 70
    12
 71
     3
 72
    12
 73
     8
 74
     0
 42
0.00000001
 43
0.00000001
 40
0.0
 40
0.0
 40
0.0
 40
0.0
 40
0.2245228928296908
 40
0.4490822654038588
 40
0.673641800406585
 40
0.8982011233138731
 40
1.0
 40
1.0
 40
1.0
 40
1.0
 10
11.12189967162951
 20
41.34837195003548
 30
0.0
 41
1.0
 10
11.12260144778822
 20
41.34155267259302
 30
0.0
 41
1.0
 10
11.12400511412795
 20
41.32791300973423
 30
0.0
 41
1.0
 10
11.13491586012146
 20
41.30995226444785
 30
0.0
 41
1.0
 10
11.1508444184362
 20
41.2968106442367
 30
0.0
 41
1.0
 10
11.16695116079546
 20
41.29099765218101
 30
0.0
 41
1.0
 10
11.176821026126
 20
41.29052071734328
 30
0.0
 41
1.0
 10
11.17989967162945
 20
41.29037195003549
 30
0.0
 41
1.0
  0
SPLINE
  5
313
330
1F
100
AcDbEntity
  8
0
  6
SLD-Solid
 62
     7
370
    25
100
AcDbSpline
210
0.0
220
0.0
230
1.0
 70
    12
 71
     3
 72
    12
 73
     8
 74
     0
 42
0.00000001
 43
0.00000001
 40
0.0
 40
0.0
 40
0.0
 40
0.0
 40
0.2245228928297975
 40
0.4490822654039712
 40
0.6736418004067236
 40
0.8982011233140234
 40
1.0
 40
1.0
 40
1.0
 40
1.0
 10
23.01789967162951
 20
41.29037195003549
 30
0.0
 41
1.0
 10
23.02471894907197
 20
41.29107372619421
 30
0.0
 41
1.0
 10
23.03835861193075
 20
41.29247739253399
 30
0.0
 41
1.0
 10
23.05631935721714
 20
41.30338813852748
 30
0.0
 41
1.0
 10
23.06946097742829
 20
41.31931669684224
 30
0.0
 41
1.0
 10
23.07527396948398
 20
41.33542343920149
 30
0.0
 41
1.0
 10
23.0757509043217
 20
41.34529330453203
 30
0.0
 41
1.0
 10
23.07589967162951
 20
41.34837195003548
 30
0.0
 41
1.0
  0
LINE
  5
314
330
1F
100
AcDbEntity
  8
0
  6
SLD-Solid
 62
     7
370
    25
100
AcDbLine
 10
11.20773852128252
 20
41.29037195003549
 30
0.0
 11
11.19501059922116
 21
41.29037195003547
 31
0.0
  0
LINE
  5
315
330
1F
100
AcDbEntity
  8
0
  6
SLD-Solid
 62
     7
370
    25
100
AcDbLine
 10
23.00208163725667
 20
41.29037195003547
 30
0.0
 11
22.9900608219765
 21
41.29037195003549
 31
0.0
  0
LINE
  5
316
330
1F
100
AcDbEntity
  8
0
  6
SLD-Solid
 62
     7
370
    25
100
AcDbLine
 10
11.19262759369075
 20
41.29037195003544
 30
0.0
 11
11.17989967162945
 21
41.29037195003549
 31
0.0
  0
LINE
  5
317
330
1F
100
AcDbEntity
  8
0
  6
SLD-Solid
 62
     7
370
    25
100
AcDbLine
 10
11.19501059922116
 20
41.29037195003544
 30
0.0
 11
11.19262759369075
 21
41.29037195003544
 31
0.0
  0
LINE
  5
318
330
1F
100
AcDbEntity
  8
0
  6
SLD-Solid
 62
     7
370
    25
100
AcDbLine
 10
23.00587885634933
 20
41.29037195003549
 30
0.0
 11
23.00208163725667
 21
41.29037195003549
 31
0.0
  0
LINE
  5
319
330
1F
100
AcDbEntity
  8
0
  6
SLD-Solid
 62
     7
370
    25
100
AcDbLine
 10
23.01789967162951
 20
41.29037195003549
 30
0.0
 11
23.00587885634933
 21
41.29037195003549
 31
0.0
  0
LINE
  5
31A
330
1F
100
AcDbEntity
  8
0
  6
SLD-Solid
 62
     7
370
    25
100
AcDbLine
 10
11.60673852128252
 20
41.69837195003547
 30
0.0
 11
11.60673852128252
 21
42.14937195003549
 31
0.0
  0
LINE
  5
31B
330
1F
100
AcDbEntity
  8
0
  6
SLD-Solid
 62
     7
370
    25
100
AcDbLine
 10
11.57889967162946
 20
42.14937195003542
 30
0.0
 11
11.57889967162946
 21
41.69837195003547
 31
0.0
  0
LINE
  5
31C
330
1F
100
AcDbEntity
  8
0
  6
SLD-Solid
 62
     7
370
    25
100
AcDbLine
 10
11.54989967162946
 20
41.69837195003547
 30
0.0
 11
11.54989967162946
 21
42.14937195003542
 31
0.0
  0
LINE
  5
31D
330
1F
100
AcDbEntity
  8
0
  6
SLD-Solid
 62
     7
370
    25
100
AcDbLine
 10
22.64789967162949
 20
41.69837195003547
 30
0.0
 11
22.64789967162949
 21
42.14937195003554
 31
0.0
  0
LINE
  5
31E
330
1F
100
AcDbEntity
  8
0
  6
SLD-Solid
 62
     7
370
    25
100
AcDbLine
 10
22.61889967162949
 20
41.69837195003547
 30
0.0
 11
22.61889967162949
 21
42.14937195003554
 31
0.0
  0
LINE
  5
31F
330
1F
100
AcDbEntity
  8
0
  6
SLD-Solid
 62
     7
370
    25
100
AcDbLine
 10
22.64789967162949
 20
42.50797901550177
 30
0.0
 11
22.64789967162949
 21
42.14937195003554
 31
0.0
  0
LINE
  5
320
330
1F
100
AcDbEntity
  8
0
  6
SLD-Solid
 62
     7
370
    25
100
AcDbLine
 10
22.61889967162949
 20
42.50797901550177
 30
0.0
 11
22.61889967162949
 21
42.14937195003554
 31
0.0
  0
LINE
  5
321
330
1F
100
AcDbEntity
  8
0
  6
SLD-Solid
 62
     7
370
    25
100
AcDbLine
 10
22.61889967162949
 20
42.60797901550177
 30
0.0
 11
22.64789967162949
 21
42.60797901550177
 31
0.0
  0
LINE
  5
322
330
1F
100
AcDbEntity
  8
0
  6
SLD-Solid
 62
     7
370
    25
100
AcDbLine
 10
22.64789967162949
 20
42.60797901550177
 30
0.0
 11
22.64789967162949
 21
42.50797901550177
 31
0.0
  0
LINE
  5
323
330
1F
100
AcDbEntity
  8
0
  6
SLD-Solid
 62
     7
370
    25
100
AcDbLine
 10
22.61889967162949
 20
42.50797901550177
 30
0.0
 11
22.61889967162949
 21
42.60797901550177
 31
0.0
  0
LINE
  5
324
330
1F
100
AcDbEntity
  8
0
  6
SLD-Solid
 62
     7
370
    25
100
AcDbLine
 10
11.57889967162943
 20
42.50837195003542
 30
0.0
 11
11.57889967162943
 21
42.14937195003543
 31
0.0
  0
LINE
  5
325
330
1F
100
AcDbEntity
  8
0
  6
SLD-Solid
 62
     7
370
    25
100
AcDbLine
 10
11.54989967162944
 20
42.50837195003542
 30
0.0
 11
11.54989967162943
 21
42.14937195003543
 31
0.0
  0
LINE
  5
326
330
1F
100
AcDbEntity
  8
0
  6
SLD-Solid
 62
     7
370
    25
100
AcDbLine
 10
11.54989967162944
 20
42.60837195003543
 30
0.0
 11
11.57889967162944
 21
42.60837195003543
 31
0.0
  0
LINE
  5
327
330
1F
100
AcDbEntity
  8
0
  6
SLD-Solid
 62
     7
370
    25
100
AcDbLine
 10
11.57889967162944
 20
42.60837195003543
 30
0.0
 11
11.57889967162943
 21
42.50837195003542
 31
0.0
  0
LINE
  5
328
330
1F
100
AcDbEntity
  8
0
  6
SLD-Solid
 62
     7
370
    25
100
AcDbLine
 10
11.54989967162944
 20
42.50837195003542
 30
0.0
 11
11.54989967162944
 21
42.60837195003543
 31
0.0
  0
LINE
  5
329
330
1F
100
AcDbEntity
  8
0
  6
SLD-Solid
 62
     7
370
    25
100
AcDbLine
 10
11.29639967162935
 20
42.72837195003535
 30
0.0
 11
11.17484869694686
 21
42.72837195003535
 31
0.0
  0
LINE
  5
32A
330
1F
100
AcDbEntity
  8
0
  6
SLD-Solid
 62
     7
370
    25
100
AcDbLine
 10
11.29639967162935
 20
42.69837195003534
 30
0.0
 11
11.17484869694686
 21
42.69837195003534
 31
0.0
  0
LINE
  5
32B
330
1F
100
AcDbEntity
  8
0
  6
SLD-Solid
 62
     7
370
    25
100
AcDbLine
 10
22.92139967162936
 20
42.72837195003535
 30
0.0
 11
11.29639967162935
 21
42.72837195003535
 31
0.0
  0
LINE
  5
32C
330
1F
100
AcDbEntity
  8
0
  6
SLD-Solid
 62
     7
370
    25
100
AcDbLine
 10
11.29639967162935
 20
42.69837195003534
 30
0.0
 11
22.92139967162936
 21
42.69837195003534
 31
0.0
  0
LINE
  5
32D
330
1F
100
AcDbEntity
  8
0
  6
SLD-Solid
 62
     7
370
    25
100
AcDbLine
 10
23.04295064631185
 20
42.72837195003535
 30
0.0
 11
22.92139967162936
 21
42.72837195003535
 31
0.0
  0
LINE
  5
32E
330
1F
100
AcDbEntity
  8
0
  6
SLD-Solid
 62
     7
370
    25
100
AcDbLine
 10
23.04295064631185
 20
42.69837195003534
 30
0.0
 11
22.92139967162936
 21
42.69837195003534
 31
0.0
  0
LINE
  5
32F
330
1F
100
AcDbEntity
  8
0
  6
SLD-Solid
 62
     7
370
    25
100
AcDbLine
 10
23.06416384974746
 20
42.72837195003535
 30
0.0
 11
23.04295064631186
 21
42.72837195003535
 31
0.0
  0
LINE
  5
330
330
1F
100
AcDbEntity
  8
0
  6
SLD-Solid
 62
     7
370
    25
100
AcDbLine
 10
23.04295064631185
 20
42.69837195003534
 30
0.0
 11
23.06416384974746
 21
42.69837195003534
 31
0.0
  0
LINE
  5
331
330
1F
100
AcDbEntity
  8
0
  6
SLD-Solid
 62
     7
370
    25
100
AcDbLine
 10
23.10889967162936
 20
42.69837195003534
 30
0.0
 11
23.10889967162936
 21
42.72837195003535
 31
0.0
  0
LINE
  5
332
330
1F
100
AcDbEntity
  8
0
  6
SLD-Solid
 62
     7
370
    25
100
AcDbLine
 10
23.10889967162936
 20
42.72837195003535
 30
0.0
 11
23.06416384974746
 21
42.72837195003535
 31
0.0
  0
LINE
  5
333
330
1F
100
AcDbEntity
  8
0
  6
SLD-Solid
 62
     7
370
    25
100
AcDbLine
 10
23.10889967162936
 20
42.69837195003534
 30
0.0
 11
23.06416384974746
 21
42.69837195003534
 31
0.0
  0
LINE
  5
334
330
1F
100
AcDbEntity
  8
0
  6
SLD-Solid
 62
     7
370
    25
100
AcDbLine
 10
11.17484869694686
 20
42.72837195003536
 30
0.0
 11
11.15363549351127
 21
42.72837195003536
 31
0.0
  0
LINE
  5
335
330
1F
100
AcDbEntity
  8
0
  6
SLD-Solid
 62
     7
370
    25
100
AcDbLine
 10
11.15363549351127
 20
42.69837195003536
 30
0.0
 11
11.17484869694686
 21
42.69837195003536
 31
0.0
  0
LINE
  5
336
330
1F
100
AcDbEntity
  8
0
  6
SLD-Solid
 62
     7
370
    25
100
AcDbLine
 10
11.10889967162936
 20
42.69837195003536
 30
0.0
 11
11.10889967162936
 21
42.72837195003536
 31
0.0
  0
LINE
  5
337
330
1F
100
AcDbEntity
  8
0
  6
SLD-Solid
 62
     7
370
    25
100
AcDbLine
 10
11.15363549351127
 20
42.72837195003536
 30
0.0
 11
11.10889967162936
 21
42.72837195003536
 31
0.0
  0
LINE
  5
338
330
1F
100
AcDbEntity
  8
0
  6
SLD-Solid
 62
     7
370
    25
100
AcDbLine
 10
11.15363549351127
 20
42.69837195003536
 30
0.0
 11
11.10889967162936
 21
42.69837195003536
 31
0.0
  0
ARC
  5
339
330
1F
100
AcDbEntity
  8
0
  6
SLD-Solid
 62
     7
370
    25
100
AcDbCircle
 10
22.64089967162936
 20
42.66637195003536
 30
0.0
 40
0.0320000000000036
100
AcDbArc
 50
89.99999999999363
 51
180.0
  0
LINE
  5
33A
330
1F
100
AcDbEntity
  8
0
  6
SLD-Solid
 62
     7
370
    25
100
AcDbLine
 10
22.60889967162936
 20
40.29037195003535
 30
0.0
 11
22.60889967162936
 21
41.29037195003547
 31
0.0
  0
LINE
  5
33B
330
1F
100
AcDbEntity
  8
0
  6
SLD-Solid
 62
     7
370
    25
100
AcDbLine
 10
22.60889967162936
 20
41.69837195003547
 30
0.0
 11
22.60889967162936
 21
42.66637195003536
 31
0.0
  0
LINE
  5
33C
330
1F
100
AcDbEntity
  8
0
  6
SLD-Solid
 62
     7
370
    25
100
AcDbLine
 10
22.48469967162936
 20
42.42837195003536
 30
0.0
 11
22.48469967162936
 21
42.42857195003536
 31
0.0
  0
LINE
  5
33D
330
1F
100
AcDbEntity
  8
0
  6
SLD-Solid
 62
     7
370
    25
100
AcDbLine
 10
22.48489967162936
 20
42.42837195003536
 30
0.0
 11
22.48469967162936
 21
42.42837195003536
 31
0.0
  0
LINE
  5
33E
330
1F
100
AcDbEntity
  8
0
  6
SLD-Solid
 62
     7
370
    25
100
AcDbLine
 10
22.48469967162936
 20
40.49037195003535
 30
0.0
 11
22.48489967162936
 21
40.49037195003535
 31
0.0
  0
LINE
  5
33F
330
1F
100
AcDbEntity
  8
0
  6
SLD-Solid
 62
     7
370
    25
100
AcDbLine
 10
22.48469967162936
 20
40.49017195003535
 30
0.0
 11
22.48469967162936
 21
40.49037195003535
 31
0.0
  0
LINE
  5
340
330
1F
100
AcDbEntity
  8
0
  6
SLD-Solid
 62
     7
370
    25
100
AcDbLine
 10
11.60889967162935
 20
42.66637195003536
 30
0.0
 11
11.60889967162935
 21
42.14937195003554
 31
0.0
  0
LINE
  5
341
330
1F
100
AcDbEntity
  8
0
  6
SLD-Solid
 62
     7
370
    25
100
AcDbLine
 10
11.60889967162935
 20
41.29037195003549
 30
0.0
 11
11.60889967162935
 21
40.29037195003536
 31
0.0
  0
ARC
  5
342
330
1F
100
AcDbEntity
  8
0
  6
SLD-Solid
 62
     7
370
    25
100
AcDbCircle
 10
11.57689967162935
 20
42.66637195003536
 30
0.0
 40
0.0320000000000036
100
AcDbArc
 50
0.0000000000256425
 51
90.0
  0
LINE
  5
343
330
1F
100
AcDbEntity
  8
0
  6
SLD-Solid
 62
     7
370
    25
100
AcDbLine
 10
22.54689967162935
 20
40.22837195003536
 30
0.0
 11
11.67089967162936
 21
40.22837195003536
 31
0.0
  0
ARC
  5
344
330
1F
100
AcDbEntity
  8
0
  6
SLD-Solid
 62
     7
370
    25
100
AcDbCircle
 10
11.67089967162936
 20
40.29037195003536
 30
0.0
 40
0.0620000000000047
100
AcDbArc
 50
179.9999999999984
 51
270.0000000000008
  0
ARC
  5
345
330
1F
100
AcDbEntity
  8
0
  6
SLD-Solid
 62
     7
370
    25
100
AcDbCircle
 10
22.54689967162936
 20
40.29037195003536
 30
0.0
 40
0.0620000000000047
100
AcDbArc
 50
269.9999999999976
 51
0.0
  0
LINE
  5
346
330
1F
100
AcDbEntity
  8
0
  6
SLD-Solid
 62
     7
370
    25
100
AcDbLine
 10
11.67089967162936
 20
42.42857195003531
 30
0.0
 11
11.67089967162936
 21
42.42837195003531
 31
0.0
  0
LINE
  5
347
330
1F
100
AcDbEntity
  8
0
  6
SLD-Solid
 62
     7
370
    25
100
AcDbLine
 10
22.51689967162936
 20
42.42857195003531
 30
0.0
 11
22.51689967162936
 21
42.42837195003531
 31
0.0
  0
LINE
  5
348
330
1F
100
AcDbEntity
  8
0
  6
SLD-Solid
 62
     7
370
    25
100
AcDbLine
 10
11.82509967162935
 20
43.98437195003535
 30
0.0
 11
11.82489967162935
 21
43.98437195003535
 31
0.0
  0
LINE
  5
349
330
1F
100
AcDbEntity
  8
0
  6
SLD-Solid
 62
     7
370
    25
100
AcDbLine
 10
11.82509967162935
 20
43.98457195003535
 30
0.0
 11
11.82509967162935
 21
43.98437195003535
 31
0.0
  0
LINE
  5
34A
330
1F
100
AcDbEntity
  8
0
  6
SLD-Solid
 62
     7
370
    25
100
AcDbLine
 10
22.51389967162935
 20
44.24637195003535
 30
0.0
 11
11.76289967162935
 21
44.24637195003535
 31
0.0
  0
LINE
  5
34B
330
1F
100
AcDbEntity
  8
0
  6
SLD-Solid
 62
     7
370
    25
100
AcDbLine
 10
22.57589967162935
 20
44.18437195003535
 30
0.0
 11
22.57589967162935
 21
42.72837195003535
 31
0.0
  0
LINE
  5
34C
330
1F
100
AcDbEntity
  8
0
  6
SLD-Solid
 62
     7
370
    25
100
AcDbLine
 10
22.57589967162935
 20
42.69837195003534
 30
0.0
 11
22.57589967162935
 21
42.52737195003535
 31
0.0
  0
LINE
  5
34D
330
1F
100
AcDbEntity
  8
0
  6
SLD-Solid
 62
     7
370
    25
100
AcDbLine
 10
11.70089967162935
 20
44.18437195003536
 30
0.0
 11
11.70089967162935
 21
42.72837195003535
 31
0.0
  0
LINE
  5
34E
330
1F
100
AcDbEntity
  8
0
  6
SLD-Solid
 62
     7
370
    25
100
AcDbLine
 10
22.57589967162935
 20
42.52737195003535
 30
0.0
 11
22.57589967162935
 21
42.43437195003536
 31
0.0
  0
ARC
  5
34F
330
1F
100
AcDbEntity
  8
0
  6
SLD-Solid
 62
     7
370
    25
100
AcDbCircle
 10
11.76289967162935
 20
44.18437195003536
 30
0.0
 40
0.0620000000000012
100
AcDbArc
 50
90.0
 51
180.0
  0
ARC
  5
350
330
1F
100
AcDbEntity
  8
0
  6
SLD-Solid
 62
     7
370
    25
100
AcDbCircle
 10
22.51389967162935
 20
44.18437195003535
 30
0.0
 40
0.0620000000000047
100
AcDbArc
 50
0.0000000000049247
 51
89.99999999999672
  0
LINE
  5
351
330
1F
100
AcDbEntity
  8
0
  6
SLD-Solid
 62
     7
370
    25
100
AcDbLine
 10
22.57589967162935
 20
42.43437195003536
 30
0.0
 11
22.57589967162935
 21
42.357419845317
 31
0.0
  0
LINE
  5
352
330
1F
100
AcDbEntity
  8
0
  6
SLD-Solid
 62
     7
370
    25
100
AcDbLine
 10
22.57589967162935
 20
42.357419845317
 30
0.0
 11
22.57589967162935
 21
41.69837195003543
 31
0.0
  0
LINE
  5
353
330
1F
100
AcDbEntity
  8
0
  6
SLD-Solid
 62
     7
370
    25
100
AcDbLine
 10
22.51389967162935
 20
43.9845719500353
 30
0.0
 11
22.51389967162935
 21
43.9843719500353
 31
0.0
  0
LINE
  5
354
330
1F
100
AcDbEntity
  8
0
  6
SLD-Solid
 62
     7
370
    25
100
AcDbLine
 10
22.51389967162935
 20
42.42857195003531
 30
0.0
 11
22.51389967162935
 21
42.42837195003531
 31
0.0
  0
LINE
  5
355
330
1F
100
AcDbEntity
  8
0
  6
SLD-Solid
 62
     7
370
    25
100
AcDbLine
 10
11.79289967162936
 20
43.9845719500353
 30
0.0
 11
11.79289967162935
 21
43.9843719500353
 31
0.0
  0
LINE
  5
356
330
1F
100
AcDbEntity
  8
0
  6
SLD-Solid
 62
     8
370
    25
100
AcDbLine
 10
11.82489967162936
 20
43.9845719500353
 30
0.0
 11
11.82489967162936
 21
43.9843719500353
 31
0.0
  0
DIMENSION
  5
357
330
1F
100
AcDbEntity
  8
DIMS
100
AcDbDimension
  2
_D_10
 10
22.64789967162949
 20
42.2256493361626
 30
0.0
 11
5.718642191314387
 21
42.22564933616236
 31
0.0
 70
    32
  1
rough opening 11 1/8"
 71
     2
 42
-1.0
  3
SLDDIMSTYLE2
100
AcDbAlignedDimension
 13
11.54989967162944
 23
42.60837195003538
 33
0.0
 14
22.64789967162949
 24
42.60797901550172
 34
0.0
 50
0.000000000000807
100
AcDbRotatedDimension
  0
DIMENSION
  5
360
330
1F
100
AcDbEntity
  8
DIMS
100
AcDbDimension
  2
_D_11
 10
25.43085790935877
 20
40.2283719500353
 30
0.0
 11
25.43085790935877
 21
42.22564933616241
 31
0.0
 70
    32
  1
<>
 71
     2
 42
-1.0
  3
SLDDIMSTYLE0
100
AcDbAlignedDimension
 13
22.51389967162935
 23
44.2463719500353
 33
0.0
 14
22.54689967162935
 24
40.2283719500353
 34
0.0
 50
90.0000000000002
100
AcDbRotatedDimension
  0
DIMENSION
  5
36B
330
1F
100
AcDbEntity
  8
DIMS
100
AcDbDimension
  2
_D_12
 10
22.60889967162936
 20
39.0560097453109
 30
0.0
 11
19.15265566637334
 21
39.0560097453109
 31
0.0
 70
    32
  1
<>
 71
     2
 42
-1.0
  3
SLDDIMSTYLE0
100
AcDbAlignedDimension
 13
11.60889967162935
 23
40.29037195003531
 33
0.0
 14
22.60889967162936
 24
40.29037195003529
 34
0.0
100
AcDbRotatedDimension
  0
MTEXT
  5
376
330
1F
100
AcDbEntity
  8
NOTES
100
AcDbMText
 10
15.43449087306491
 20
39.86644842054748
 30
0.0
 40
0.5
 41
0.0
 71
     1
 72
     1
  1
Top view
  7
SLDTEXTSTYLE1
 73
     1
 44
1.0
  0
LINE
  5
377
330
1F
100
AcDbEntity
  8
0
  6
SLD-Solid
 62
     7
370
    25
100
AcDbLine
 10
62.33211359307123
 20
19.58434914919703
 30
0.0
 11
62.34979126260089
 21
19.57414404779925
 31
0.0
  0
LINE
  5
378
330
1F
100
AcDbEntity
  8
0
  6
SLD-Solid
 62
     7
370
    25
100
AcDbLine
 10
62.53727602497015
 20
19.89891237119201
 30
0.0
 11
62.51959835544049
 21
19.9091174725898
 31
0.0
  0
LINE
  5
379
330
1F
100
AcDbEntity
  8
0
  6
SLD-Solid
 62
     7
370
    25
100
AcDbLine
 10
61.62539385401017
 20
19.12348359440449
 30
0.0
 11
61.62539385401017
 21
18.82126598826773
 31
0.0
  0
LINE
  5
37A
330
1F
100
AcDbEntity
  8
0
  6
SLD-Solid
 62
     7
370
    25
100
AcDbLine
 10
61.62539385401017
 20
31.22995702541529
 30
0.0
 11
61.62539385401017
 21
19.15303426429396
 31
0.0
  0
SPLINE
  5
37B
330
1F
100
AcDbEntity
  8
0
  6
SLD-Solid
 62
     7
370
    25
100
AcDbSpline
210
0.0
220
0.0
230
1.0
 70
    12
 71
     3
 72
    10
 73
     6
 74
     0
 42
0.00000001
 43
0.00000001
 40
0.0
 40
0.0
 40
0.0
 40
0.0
 40
0.4364556756995787
 40
0.8503696492435271
 40
1.0
 40
1.0
 40
1.0
 40
1.0
 10
61.6418179259334
 20
31.23189473427521
 30
0.0
 41
1.0
 10
61.64010577833781
 20
31.23142421713395
 30
0.0
 41
1.0
 10
61.63676991073113
 20
31.23050748373202
 30
0.0
 41
1.0
 10
61.63447885430879
 20
31.23020484999101
 30
0.0
 41
1.0
 10
61.63486547106629
 20
31.23004743403495
 30
0.0
 41
1.0
 10
61.63496812421803
 20
31.23000563749171
 30
0.0
 41
1.0
  0
LINE
  5
37C
330
1F
100
AcDbEntity
  8
0
  6
SLD-Solid
 62
     7
370
    25
100
AcDbLine
 10
53.80610619028861
 20
35.75685882154346
 30
0.0
 11
61.61420298032173
 21
31.24934048988272
 31
0.0
  0
SPLINE
  5
37D
330
1F
100
AcDbEntity
  8
0
  6
SLD-Solid
 62
     7
370
    25
100
AcDbSpline
210
0.0
220
0.0
230
1.0
 70
    12
 71
     3
 72
    10
 73
     6
 74
     0
 42
0.00000001
 43
0.00000001
 40
0.0
 40
0.0
 40
0.0
 40
0.0
 40
0.2909179596439138
 40
0.7829921188244108
 40
1.0
 40
1.0
 40
1.0
 40
1.0
 10
61.6189500183356
 20
31.25766062633826
 30
0.0
 41
1.0
 10
61.61904097590729
 20
31.25764912074829
 30
0.0
 41
1.0
 10
61.61928578396888
 20
31.25761815398953
 30
0.0
 41
1.0
 10
61.62102122139134
 20
31.25986876213665
 30
0.0
 41
1.0
 10
61.62373399926084
 20
31.2622495904604
 30
0.0
 41
1.0
 10
61.62456421938214
 20
31.26297822054913
 30
0.0
 41
1.0
  0
LINE
  5
37E
330
1F
100
AcDbEntity
  8
0
  6
SLD-Solid
 62
     7
370
    25
100
AcDbLine
 10
62.53284971349059
 20
28.93883246435498
 30
0.0
 11
62.51234361683618
 21
28.95067038197641
 31
0.0
  0
LINE
  5
37F
330
1F
100
AcDbEntity
  8
0
  6
SLD-Solid
 62
     7
370
    25
100
AcDbLine
 10
53.49578719070841
 20
36.23657006677684
 30
0.0
 11
53.49578719070841
 21
35.5139129379517
 31
0.0
  0
LINE
  5
380
330
1F
100
AcDbEntity
  8
0
  6
SLD-Solid
 62
     7
370
    25
100
AcDbLine
 10
53.7722769208773
 20
36.44103296711059
 30
0.0
 11
53.52478954746201
 21
36.29816154754162
 31
0.0
  0
LINE
  5
381
330
1F
100
AcDbEntity
  8
0
  6
SLD-Solid
 62
     7
370
    25
100
AcDbLine
 10
62.52704661568471
 20
22.71633032487731
 30
0.0
 11
62.5065405190303
 21
22.72816824249874
 31
0.0
  0
LINE
  5
382
330
1F
100
AcDbEntity
  8
0
  6
SLD-Solid
 62
     7
370
    25
100
AcDbLine
 10
61.26365304827891
 20
18.6675374368342
 30
0.0
 11
61.88815731936078
 21
18.3070187949937
 31
0.0
  0
SPLINE
  5
383
330
1F
100
AcDbEntity
  8
0
  6
SLD-Solid
 62
     7
370
    25
100
AcDbSpline
210
0.0
220
0.0
230
1.0
 70
    12
 71
     3
 72
     9
 73
     5
 74
     0
 42
0.00000001
 43
0.00000001
 40
0.0
 40
0.0
 40
0.0
 40
0.0
 40
0.4874603483317044
 40
1.0
 40
1.0
 40
1.0
 40
1.0
 10
61.61193502889369
 20
18.82682039867631
 30
0.0
 41
1.0
 10
61.61099647308927
 20
18.83035067872982
 30
0.0
 41
1.0
 10
61.6090710738078
 20
18.83759286789576
 30
0.0
 41
1.0
 10
61.60884959109249
 20
18.84476691182527
 30
0.0
 41
1.0
 10
61.60873607241874
 20
18.84844389380195
 30
0.0
 41
1.0
  0
LINE
  5
384
330
1F
100
AcDbEntity
  8
0
  6
SLD-Solid
 62
     7
370
    25
100
AcDbLine
 10
62.2130168331189
 20
19.12630285220355
 30
0.0
 11
62.2172657390238
 21
19.12875569337226
 31
0.0
  0
LINE
  5
385
330
1F
100
AcDbEntity
  8
0
  6
SLD-Solid
 62
     7
370
    25
100
AcDbLine
 10
53.09085764577548
 20
35.21470109228091
 30
0.0
 11
53.09085764577548
 21
22.96577237318278
 31
0.0
  0
LINE
  5
386
330
1F
100
AcDbEntity
  8
0
  6
SLD-Solid
 62
     7
370
    25
100
AcDbLine
 10
54.67749508367417
 20
36.11582774182048
 30
0.0
 11
54.53477856099602
 21
36.03343924696681
 31
0.0
  0
LINE
  5
387
330
1F
100
AcDbEntity
  8
0
  6
SLD-Solid
 62
     7
370
    25
100
AcDbLine
 10
53.93089074511811
 20
35.68482223138231
 30
0.0
 11
53.31982090845051
 21
35.332059123448
 31
0.0
  0
LINE
  5
388
330
1F
100
AcDbEntity
  8
0
  6
SLD-Solid
 62
     7
370
    25
100
AcDbLine
 10
54.82847532044318
 20
36.23264011635683
 30
0.0
 11
54.82847532044318
 21
36.27359064071885
 31
0.0
  0
LINE
  5
389
330
1F
100
AcDbEntity
  8
0
  6
SLD-Solid
 62
     7
370
    25
100
AcDbLine
 10
53.12186016506376
 20
22.91207734371517
 30
0.0
 11
60.81235351724865
 21
18.47245003162327
 31
0.0
  0
LINE
  5
38A
330
1F
100
AcDbEntity
  8
0
  6
SLD-Solid
 62
     7
370
    25
100
AcDbLine
 10
63.63549028012162
 20
20.31288407132903
 30
0.0
 11
63.63549028012162
 21
32.28827161844544
 31
0.0
  0
LINE
  5
38B
330
1F
100
AcDbEntity
  8
0
  6
SLD-Solid
 62
     7
370
    25
100
AcDbLine
 10
63.60448776083334
 20
32.34196664791306
 30
0.0
 11
56.00238275629678
 21
36.73056845301604
 31
0.0
  0
LINE
  5
38C
330
1F
100
AcDbEntity
  8
0
  6
SLD-Solid
 62
     7
370
    25
100
AcDbLine
 10
55.84280705906959
 20
36.62361899036727
 30
0.0
 11
55.39892637628341
 21
36.36737212656266
 31
0.0
  0
SPLINE
  5
38D
330
1F
100
AcDbEntity
  8
0
  6
SLD-Solid
 62
     7
370
    25
100
AcDbSpline
210
0.0
220
0.0
230
1.0
 70
    12
 71
     3
 72
    17
 73
    13
 74
     0
 42
0.00000001
 43
0.00000001
 40
0.0
 40
0.0
 40
0.0
 40
0.0
 40
0.0139242822449554
 40
0.0323321121949604
 40
0.0598988193071542
 40
0.1091848762190961
 40
0.1993457441099448
 40
0.2884166706631584
 40
0.4664047189542145
 40
0.6441730606901757
 40
0.8219504068609038
 40
1.0
 40
1.0
 40
1.0
 40
1.0
 10
59.08004268612185
 20
20.04520089733315
 30
0.0
 41
1.0
 10
59.08056708570582
 20
20.03864262216713
 30
0.0
 41
1.0
 10
59.08178473885917
 20
20.02341434075607
 30
0.0
 41
1.0
 10
59.0930389940337
 20
19.99263767723405
 30
0.0
 41
1.0
 10
59.11813247972648
 20
19.94661733813531
 30
0.0
 41
1.0
 10
59.17248598847206
 20
19.87391021466439
 30
0.0
 41
1.0
 10
59.25458362087474
 20
19.78820690057847
 30
0.0
 41
1.0
 10
59.38786227762922
 20
19.66973741653888
 30
0.0
 41
1.0
 10
59.55845718041557
 20
19.54214262579287
 30
0.0
 41
1.0
 10
59.76475503649287
 20
19.41227401216901
 30
0.0
 41
1.0
 10
59.97174364192433
 20
19.30074969857727
 30
0.0
 41
1.0
 10
60.10792773992313
 20
19.24914419718054
 30
0.0
 41
1.0
 10
60.176071886872
 20
19.22332170452372
 30
0.0
 41
1.0
  0
ELLIPSE
  5
38E
330
1F
100
AcDbEntity
  8
0
  6
SLD-Solid
 62
     7
370
    25
100
AcDbEllipse
 10
59.78269082618055
 20
19.64961392060229
 30
0.0
 11
0.6982763835041438
 21
-0.4414766190748161
 31
0.0
210
0.0
220
0.0
230
1.0
 40
0.2523363383780831
 41
0.1582033314707004
 42
3.402888610208845
  0
ELLIPSE
  5
38F
330
1F
100
AcDbEntity
  8
0
  6
SLD-Solid
 62
     7
370
    25
100
AcDbEllipse
 10
59.78269082618055
 20
19.64961392060229
 30
0.0
 11
0.6982763835041438
 21
-0.4414766190748161
 31
0.0
210
0.0
220
0.0
230
1.0
 40
0.2523363383780831
 41
4.885466541060905
 42
6.441388638650301
  0
LWPOLYLINE
  5
390
330
1F
100
AcDbEntity
  8
0
  6
SLD-Solid
 62
     7
370
    25
100
AcDbPolyline
 90
       24
 70
   128
 43
0.0
 10
62.3113327485775
 20
19.6486022567978
 10
62.31352304406243
 20
19.69148451141094
 10
62.3253556309699
 20
19.73770745104981
 10
62.34595294045947
 20
19.78384293173729
 10
62.37378736431272
 20
19.82646929592654
 10
62.40679455064647
 20
19.86242514118832
 10
62.44252650744819
 20
19.88904378696659
 10
62.47833315894469
 20
19.90435105007617
 10
62.51155888959902
 20
19.90721166083831
 10
62.53973949896616
 20
19.89741346083919
 10
62.56078496016706
 20
19.87568313774897
 10
62.57313442762101
 20
19.84363233022165
 10
62.57587199782203
 20
19.80363810002881
 10
62.56879463771185
 20
19.75866663626246
 10
62.55242724271306
 20
19.71205326665937
 10
62.52798370763689
 20
19.66725509160104
 10
62.49727689765819
 20
19.62759458679352
 10
62.46258419639879
 20
19.59601319044366
 10
62.42647860280254
 20
19.57485315024343
 10
62.39163790357437
 20
19.56568380957376
 10
62.36064607399046
 20
19.56918521648517
 10
62.33580163627283
 20
19.58509768764492
 10
62.3189471887113
 20
19.61224106786178
 10
62.3113327485775
 20
19.6486022567978
  0
ARC
  5
391
330
1F
100
AcDbEntity
  8
0
  6
SLD-Solid
 62
     7
370
    25
100
AcDbCircle
 10
62.38029866403416
 20
19.65639852284676
 30
0.0
 40
0.0866770633271669
100
AcDbArc
 50
178.4074925281191
 51
236.2262460586292
  0
LWPOLYLINE
  5
392
330
1F
100
AcDbEntity
  8
0
  6
SLD-Solid
 62
     7
370
    25
100
AcDbPolyline
 90
       10
 70
   128
 43
0.0
 10
62.51959835544049
 20
19.9091174725898
 10
62.49388122006936
 20
19.91741676223609
 10
62.46065548941502
 20
19.91455615147395
 10
62.42484883791852
 20
19.89924888836437
 10
62.38911688111681
 20
19.8726302425861
 10
62.35610969478306
 20
19.83667439732433
 10
62.32827527092982
 20
19.79404803313507
 10
62.30767796144023
 20
19.74791255244759
 10
62.29584537453277
 20
19.70168961280872
 10
62.29365507904783
 20
19.65880735819558
  0
LWPOLYLINE
  5
393
330
1F
100
AcDbEntity
  8
0
  6
SLD-Solid
 62
     7
370
    25
100
AcDbPolyline
 90
       17
 70
   128
 43
0.0
 10
62.42244256075455
 20
19.69614578295498
 10
62.42689377177702
 20
19.68030353407092
 10
62.43710777039687
 20
19.67115662132832
 10
62.45152956791436
 20
19.67009757927526
 10
62.46796357639136
 20
19.67728763746408
 10
62.48390786701192
 20
19.69163217471358
 10
62.49693506606441
 20
19.71094736526107
 10
62.50506190058493
 20
19.73229264643834
 10
62.50705113368768
 20
19.7524183926816
 10
62.50259992266521
 20
19.76826064156566
 10
62.49238592404536
 20
19.77740755430827
 10
62.47796412652787
 20
19.77846659636132
 10
62.46153011805087
 20
19.77127653817249
 10
62.44558582743031
 20
19.756932000923
 10
62.43255862837783
 20
19.73761681037551
 10
62.4244317938573
 20
19.71627152919824
 10
62.42244256075455
 20
19.69614578295498
  0
LINE
  5
394
330
1F
100
AcDbEntity
  8
0
  6
SLD-Solid
 62
     7
370
    25
100
AcDbLine
 10
61.94502336304919
 20
31.40377318202345
 30
0.0
 11
61.9655294597036
 21
31.39193526440203
 31
0.0
  0
SPLINE
  5
395
330
1F
100
AcDbEntity
  8
0
  6
SLD-Solid
 62
     7
370
    25
100
AcDbSpline
210
0.0
220
0.0
230
1.0
 70
    12
 71
     3
 72
    12
 73
     8
 74
     0
 42
0.00000001
 43
0.00000001
 40
0.0
 40
0.0
 40
0.0
 40
0.0
 40
0.2245228928297975
 40
0.4490822654039712
 40
0.6736418004067236
 40
0.8982011233140234
 40
1.0
 40
1.0
 40
1.0
 40
1.0
 10
61.88350507308597
 20
31.36920370750439
 30
0.0
 41
1.0
 10
61.88882326108904
 20
31.36840837424646
 30
0.0
 41
1.0
 10
61.89946050117696
 20
31.36681757850745
 30
0.0
 41
1.0
 10
61.91987572844393
 20
31.36904664100358
 30
0.0
 41
1.0
 10
61.9404314488099
 20
31.37528835170972
 30
0.0
 41
1.0
 10
61.95593104165653
 20
31.38367388147795
 30
0.0
 41
1.0
 10
61.96324733421908
 20
31.38997103316976
 30
0.0
 41
1.0
 10
61.9655294597036
 20
31.39193526440203
 30
0.0
 41
1.0
  0
LINE
  5
396
330
1F
100
AcDbEntity
  8
0
  6
SLD-Solid
 62
     7
370
    25
100
AcDbLine
 10
61.88350507308597
 20
31.36920370750439
 30
0.0
 11
61.90401116974038
 21
31.38104162512582
 31
0.0
  0
SPLINE
  5
397
330
1F
100
AcDbEntity
  8
0
  6
SLD-Solid
 62
     7
370
    25
100
AcDbSpline
210
0.0
220
0.0
230
1.0
 70
    12
 71
     3
 72
    11
 73
     7
 74
     0
 42
0.00000001
 43
0.00000001
 40
0.0
 40
0.0
 40
0.0
 40
0.0
 40
0.2776970454959527
 40
0.5297789385149037
 40
0.7817948539836352
 40
1.0
 40
1.0
 40
1.0
 40
1.0
 10
61.90401116974038
 20
31.38104162512582
 30
0.0
 41
1.0
 10
61.90737954606368
 20
31.38164325770933
 30
0.0
 41
1.0
 10
61.91380559510534
 20
31.38279102747009
 30
0.0
 41
1.0
 10
61.92592483912185
 20
31.38780592914458
 30
0.0
 41
1.0
 10
61.93689178069849
 20
31.39472785526194
 30
0.0
 41
1.0
 10
61.94244595810028
 20
31.40090615455521
 30
0.0
 41
1.0
 10
61.94502336304919
 20
31.40377318202345
 30
0.0
 41
1.0
  0
SPLINE
  5
398
330
1F
100
AcDbEntity
  8
0
  6
SLD-Solid
 62
     7
370
    25
100
AcDbSpline
210
0.0
220
0.0
230
1.0
 70
    12
 71
     3
 72
    11
 73
     7
 74
     0
 42
0.00000001
 43
0.00000001
 40
0.0
 40
0.0
 40
0.0
 40
0.0
 40
0.2531995012519114
 40
0.5066285487983911
 40
0.7600586202960085
 40
1.0
 40
1.0
 40
1.0
 40
1.0
 10
61.9655294597036
 20
18.30564394271505
 30
0.0
 41
1.0
 10
61.95945331968887
 20
18.30678442618846
 30
0.0
 41
1.0
 10
61.94729553113582
 20
18.30906642707791
 30
0.0
 41
1.0
 10
61.92388986574075
 20
18.31854717676815
 30
0.0
 41
1.0
 10
61.90099905563684
 20
18.33262329147469
 30
0.0
 41
1.0
 10
61.88922913808642
 20
18.34569703053256
 30
0.0
 41
1.0
 10
61.88350507308597
 20
18.35205518315731
 30
0.0
 41
1.0
  0
LINE
  5
399
330
1F
100
AcDbEntity
  8
0
  6
SLD-Solid
 62
     7
370
    25
100
AcDbLine
 10
61.9655294597036
 20
31.39193526440203
 30
0.0
 11
61.9655294597036
 21
18.30564394271505
 31
0.0
  0
SPLINE
  5
39A
330
1F
100
AcDbEntity
  8
0
  6
SLD-Solid
 62
     7
370
    25
100
AcDbSpline
210
0.0
220
0.0
230
1.0
 70
    12
 71
     3
 72
    12
 73
     8
 74
     0
 42
0.00000001
 43
0.00000001
 40
0.0
 40
0.0
 40
0.0
 40
0.0
 40
0.2245228928297646
 40
0.4490822654039401
 40
0.6736418004066581
 40
0.8982011233139688
 40
1.0
 40
1.0
 40
1.0
 40
1.0
 10
61.92451726639479
 20
31.46297046673426
 30
0.0
 41
1.0
 10
61.91822153874475
 20
31.46046457065005
 30
0.0
 41
1.0
 10
61.90562906053548
 20
31.45545237133184
 30
0.0
 41
1.0
 10
61.88850642949173
 20
31.44176468829398
 30
0.0
 41
1.0
 10
61.87479388478274
 20
31.42594552857453
 30
0.0
 41
1.0
 10
61.8670605891218
 20
31.41251227878242
 30
0.0
 41
1.0
 10
61.86459051006309
 20
31.40548970375037
 30
0.0
 41
1.0
 10
61.86382003371588
 20
31.4032991957423
 30
0.0
 41
1.0
  0
SPLINE
  5
39B
330
1F
100
AcDbEntity
  8
0
  6
SLD-Solid
 62
     7
370
    25
100
AcDbSpline
210
0.0
220
0.0
230
1.0
 70
    12
 71
     3
 72
    12
 73
     8
 74
     0
 42
0.00000001
 43
0.00000001
 40
0.0
 40
0.0
 40
0.0
 40
0.0
 40
0.2245228928300625
 40
0.4490822654043085
 40
0.673641800407132
 40
0.8982011233145049
 40
1.0
 40
1.0
 40
1.0
 40
1.0
 10
53.53246003676971
 20
36.21289094694041
 30
0.0
 41
1.0
 10
53.53148249712275
 20
36.2195964226547
 30
0.0
 41
1.0
 10
53.52952725900141
 20
36.23300846356702
 30
0.0
 41
1.0
 10
53.53281985522463
 20
36.25468099129984
 30
0.0
 41
1.0
 10
53.53966303088161
 20
36.27446538353594
 30
0.0
 41
1.0
 10
53.54742932806728
 20
36.287878215972
 30
0.0
 41
1.0
 10
53.55227554157113
 20
36.29352783134414
 30
0.0
 41
1.0
 10
53.55378719070845
 20
36.29529008061289
 30
0.0
 41
1.0
  0
LINE
  5
39C
330
1F
100
AcDbEntity
  8
0
  6
SLD-Solid
 62
     7
370
    25
100
AcDbLine
 10
61.92451726639479
 20
31.46297046673426
 30
0.0
 11
53.55378719070845
 21
36.29529008061289
 31
0.0
  0
LINE
  5
39D
330
1F
100
AcDbEntity
  8
0
  6
SLD-Solid
 62
     7
370
    25
100
AcDbLine
 10
61.92451726639479
 20
31.43929078318957
 30
0.0
 11
61.92451726639479
 21
31.46297046673426
 31
0.0
  0
SPLINE
  5
39E
330
1F
100
AcDbEntity
  8
0
  6
SLD-Solid
 62
     7
370
    25
100
AcDbSpline
210
0.0
220
0.0
230
1.0
 70
    12
 71
     3
 72
    11
 73
     7
 74
     0
 42
0.00000001
 43
0.00000001
 40
0.0
 40
0.0
 40
0.0
 40
0.0
 40
0.2776970454959125
 40
0.5297789385148174
 40
0.7817948539834748
 40
1.0
 40
1.0
 40
1.0
 40
1.0
 10
61.92451726639479
 20
31.43929078318957
 30
0.0
 41
1.0
 10
61.91970474582811
 20
31.43817987626331
 30
0.0
 41
1.0
 10
61.91052361812528
 20
31.43606053397382
 30
0.0
 41
1.0
 10
61.89855168311155
 20
31.42897821374426
 30
0.0
 41
1.0
 10
61.88957886627905
 20
31.42149468529844
 30
0.0
 41
1.0
 10
61.88599104956348
 20
31.41715222391183
 30
0.0
 41
1.0
 10
61.8843261303703
 20
31.41513711336373
 30
0.0
 41
1.0
  0
LINE
  5
39F
330
1F
100
AcDbEntity
  8
0
  6
SLD-Solid
 62
     7
370
    25
100
AcDbLine
 10
61.86382003371588
 20
31.4032991957423
 30
0.0
 11
61.8843261303703
 21
31.41513711336373
 31
0.0
  0
ARC
  5
3A0
330
1F
100
AcDbEntity
  8
0
  6
SLD-Solid
 62
     7
370
    25
100
AcDbCircle
 10
61.87648692582432
 20
31.38788333497094
 30
0.0
 40
0.0891346788391437
100
AcDbArc
 50
2.605478485639351
 51
57.39452165997852
  0
ARC
  5
3A1
330
1F
100
AcDbEntity
  8
0
  6
SLD-Solid
 62
     7
370
    25
100
AcDbCircle
 10
61.90050209610953
 20
31.4017472173079
 30
0.0
 40
0.0445673394195858
100
AcDbArc
 50
2.605478485640802
 51
57.39452165996175
  0
ARC
  5
3A2
330
1F
100
AcDbEntity
  8
0
  6
SLD-Solid
 62
     7
370
    25
100
AcDbCircle
 10
62.12397429923956
 20
31.53075475453986
 30
0.0
 40
0.0891346788392124
100
AcDbArc
 50
2.60547848566714
 51
57.39452165996882
  0
LINE
  5
3A3
330
1F
100
AcDbEntity
  8
0
  6
SLD-Solid
 62
     7
370
    25
100
AcDbLine
 10
62.2130168331189
 20
31.534806683971
 30
0.0
 11
61.9655294597036
 21
31.39193526440203
 31
0.0
  0
LINE
  5
3A4
330
1F
100
AcDbEntity
  8
0
  6
SLD-Solid
 62
     7
370
    25
100
AcDbLine
 10
62.2130168331189
 20
18.44851536228402
 30
0.0
 11
62.2130168331189
 21
31.534806683971
 31
0.0
  0
LINE
  5
3A5
330
1F
100
AcDbEntity
  8
0
  6
SLD-Solid
 62
     7
370
    25
100
AcDbLine
 10
61.9655294597036
 20
18.30564394271505
 30
0.0
 11
62.2130168331189
 21
18.44851536228402
 31
0.0
  0
LINE
  5
3A6
330
1F
100
AcDbEntity
  8
0
  6
SLD-Solid
 62
     7
370
    25
100
AcDbLine
 10
53.80127456412374
 20
36.43816150018188
 30
0.0
 11
62.17200463981008
 21
31.60584188630323
 31
0.0
  0
LINE
  5
3A7
330
1F
100
AcDbEntity
  8
0
  6
SLD-Solid
 62
     7
370
    25
100
AcDbLine
 10
61.64238166070135
 20
31.24959184625392
 30
0.0
 11
61.64238166070135
 21
31.22996087371711
 31
0.0
  0
LINE
  5
3A8
330
1F
100
AcDbEntity
  8
0
  6
SLD-Solid
 62
     7
370
    25
100
AcDbLine
 10
61.87500507308597
 20
31.38392613932551
 30
0.0
 11
61.64238166070135
 21
31.24959184625392
 31
0.0
  0
LINE
  5
3A9
330
1F
100
AcDbEntity
  8
0
  6
SLD-Solid
 62
     7
370
    25
100
AcDbLine
 10
61.88350507308597
 20
31.36920370750439
 30
0.0
 11
61.87500507308597
 21
31.38392613932551
 31
0.0
  0
LINE
  5
3AA
330
1F
100
AcDbEntity
  8
0
  6
SLD-Solid
 62
     7
370
    25
100
AcDbLine
 10
61.87341008829495
 20
18.34622557799604
 30
0.0
 11
61.88350507308597
 21
18.35205518315731
 31
0.0
  0
LINE
  5
3AB
330
1F
100
AcDbEntity
  8
0
  6
SLD-Solid
 62
     7
370
    25
100
AcDbLine
 10
61.63228667591033
 20
18.76386357791485
 30
0.0
 11
61.87341008829495
 21
18.34622557799604
 31
0.0
  0
LINE
  5
3AC
330
1F
100
AcDbEntity
  8
0
  6
SLD-Solid
 62
     7
370
    25
100
AcDbLine
 10
61.64238166070135
 20
18.76969318307613
 30
0.0
 11
61.63228667591033
 21
18.76386357791485
 31
0.0
  0
LINE
  5
3AD
330
1F
100
AcDbEntity
  8
0
  6
SLD-Solid
 62
     7
370
    25
100
AcDbLine
 10
61.87232003371588
 20
31.38857676392118
 30
0.0
 11
61.86382003371588
 21
31.4032991957423
 31
0.0
  0
LINE
  5
3AE
330
1F
100
AcDbEntity
  8
0
  6
SLD-Solid
 62
     7
370
    25
100
AcDbLine
 10
61.63969662133127
 20
31.25424247084957
 30
0.0
 11
61.87232003371588
 21
31.38857676392118
 31
0.0
  0
LINE
  5
3AF
330
1F
100
AcDbEntity
  8
0
  6
SLD-Solid
 62
     7
370
    25
100
AcDbLine
 10
61.62269662133127
 20
31.26405636195502
 30
0.0
 11
61.63969662133127
 21
31.25424247084957
 31
0.0
  0
LINE
  5
3B0
330
1F
100
AcDbEntity
  8
0
  6
SLD-Solid
 62
     7
370
    25
100
AcDbLine
 10
53.75397684743652
 20
35.80842684163371
 30
0.0
 11
53.77358344915432
 21
35.79525294702159
 31
0.0
  0
LINE
  5
3B1
330
1F
100
AcDbEntity
  8
0
  6
SLD-Solid
 62
     7
370
    25
100
AcDbLine
 10
53.5234600367697
 20
36.20769366853558
 30
0.0
 11
53.75397684743652
 21
35.80842684163371
 31
0.0
  0
LINE
  5
3B2
330
1F
100
AcDbEntity
  8
0
  6
SLD-Solid
 62
     7
370
    25
100
AcDbLine
 10
53.53246003676971
 20
36.21289094694041
 30
0.0
 11
53.5234600367697
 21
36.20769366853558
 31
0.0
  0
LINE
  5
3B3
330
1F
100
AcDbEntity
  8
0
  6
SLD-Solid
 62
     7
370
    25
100
AcDbLine
 10
61.89551116974038
 20
31.39576405694694
 30
0.0
 11
61.87500507308597
 21
31.38392613932551
 31
0.0
  0
LINE
  5
3B4
330
1F
100
AcDbEntity
  8
0
  6
SLD-Solid
 62
     7
370
    25
100
AcDbLine
 10
61.90401116974038
 20
31.38104162512582
 30
0.0
 11
61.89551116974038
 21
31.39576405694694
 31
0.0
  0
LINE
  5
3B5
330
1F
100
AcDbEntity
  8
0
  6
SLD-Solid
 62
     7
370
    25
100
AcDbLine
 10
61.89282613037029
 20
31.40041468154261
 30
0.0
 11
61.8843261303703
 21
31.41513711336373
 31
0.0
  0
LINE
  5
3B6
330
1F
100
AcDbEntity
  8
0
  6
SLD-Solid
 62
     7
370
    25
100
AcDbLine
 10
61.89282613037029
 20
31.40041468154261
 30
0.0
 11
61.87232003371588
 21
31.38857676392118
 31
0.0
  0
LINE
  5
3B7
330
1F
100
AcDbEntity
  8
0
  6
SLD-Solid
 62
     7
370
    25
100
AcDbLine
 10
61.66020271798568
 20
31.26608038847099
 30
0.0
 11
61.89282613037029
 21
31.40041468154261
 31
0.0
  0
LINE
  5
3B8
330
1F
100
AcDbEntity
  8
0
  6
SLD-Solid
 62
     7
370
    25
100
AcDbLine
 10
61.66020271798568
 20
31.26608038847099
 30
0.0
 11
61.63969662133127
 21
31.25424247084957
 31
0.0
  0
ARC
  5
3B9
330
1F
100
AcDbEntity
  8
0
  6
SLD-Solid
 62
     7
370
    25
100
AcDbCircle
 10
61.64725783650019
 20
19.12387475611823
 30
0.0
 40
0.0218671969130384
100
AcDbArc
 50
180.9824216109353
 51
216.5226646570922
  0
LINE
  5
3BA
330
1F
100
AcDbEntity
  8
0
  6
SLD-Solid
 62
     7
370
    25
100
AcDbLine
 10
61.62539385401017
 20
19.15301802991953
 30
0.0
 11
61.62968488687324
 21
19.11086069671148
 31
0.0
  0
LINE
  5
3BB
330
1F
100
AcDbEntity
  8
0
  6
SLD-Solid
 62
     7
370
    25
100
AcDbLine
 10
61.62539385401017
 20
19.12349982877889
 30
0.0
 11
61.62539385401017
 21
19.15301802991953
 31
0.0
  0
SPLINE
  5
3BC
330
1F
100
AcDbEntity
  8
0
  6
SLD-Solid
 62
     7
370
    25
100
AcDbSpline
210
0.0
220
0.0
230
1.0
 70
    12
 71
     3
 72
     9
 73
     5
 74
     0
 42
0.00000001
 43
0.00000001
 40
0.0
 40
0.0
 40
0.0
 40
0.0
 40
0.500000000000004
 40
1.0
 40
1.0
 40
1.0
 40
1.0
 10
61.62539385401017
 20
18.82126598826774
 30
0.0
 41
1.0
 10
61.62618569700975
 20
18.81218284469595
 30
0.0
 41
1.0
 10
61.62776938300889
 20
18.79401655755236
 30
0.0
 41
1.0
 10
61.63751090147053
 20
18.7778009745682
 30
0.0
 41
1.0
 10
61.64238166070135
 20
18.76969318307612
 30
0.0
 41
1.0
  0
SPLINE
  5
3BD
330
1F
100
AcDbEntity
  8
0
  6
SLD-Solid
 62
     7
370
    25
100
AcDbSpline
210
0.0
220
0.0
230
1.0
 70
    12
 71
     3
 72
     9
 73
     5
 74
     0
 42
0.00000001
 43
0.00000001
 40
0.0
 40
0.0
 40
0.0
 40
0.0
 40
0.5000000000000138
 40
1.0
 40
1.0
 40
1.0
 40
1.0
 10
61.64238166070136
 20
31.22996087371711
 30
0.0
 41
1.0
 10
61.63751090147054
 20
31.22947255629362
 30
0.0
 41
1.0
 10
61.62776938300889
 20
31.22849592144663
 30
0.0
 41
1.0
 10
61.62618569700975
 20
31.22946999075907
 30
0.0
 41
1.0
 10
61.62539385401017
 20
31.22995702541529
 30
0.0
 41
1.0
  0
SPLINE
  5
3BE
330
1F
100
AcDbEntity
  8
0
  6
SLD-Solid
 62
     7
370
    25
100
AcDbSpline
210
0.0
220
0.0
230
1.0
 70
    12
 71
     3
 72
    11
 73
     7
 74
     0
 42
0.00000001
 43
0.00000001
 40
0.0
 40
0.0
 40
0.0
 40
0.0
 40
0.2500000000000109
 40
0.4999999999999968
 40
0.7499999999999926
 40
1.0
 40
1.0
 40
1.0
 40
1.0
 10
61.62269662133127
 20
31.26404866535137
 30
0.0
 41
1.0
 10
61.62074018753582
 20
31.25968515339483
 30
0.0
 41
1.0
 10
61.61682731994489
 20
31.25095812948175
 30
0.0
 41
1.0
 10
61.61352399541462
 20
31.24816505957335
 30
0.0
 41
1.0
 10
61.61429300631073
 20
31.25242548150821
 30
0.0
 41
1.0
 10
61.61989541632443
 20
31.26017940180609
 30
0.0
 41
1.0
 10
61.62269662133127
 20
31.26405636195501
 30
0.0
 41
1.0
  0
SPLINE
  5
3BF
330
1F
100
AcDbEntity
  8
0
  6
SLD-Solid
 62
     7
370
    25
100
AcDbSpline
210
0.0
220
0.0
230
1.0
 70
    12
 71
     3
 72
    10
 73
     6
 74
     0
 42
0.00000001
 43
0.00000001
 40
0.0
 40
0.0
 40
0.0
 40
0.0
 40
0.4999489370491836
 40
0.9998978740983593
 40
0.9999999999999999
 40
0.9999999999999999
 40
0.9999999999999999
 40
0.9999999999999999
 10
53.77358344915432
 20
35.79525294702159
 30
0.0
 41
1.0
 10
53.77770258179819
 20
35.78762363236849
 30
0.0
 41
1.0
 10
53.78594084708594
 20
35.7723650030623
 30
0.0
 41
1.0
 10
53.79825044039398
 20
35.75969530242371
 30
0.0
 41
1.0
 10
53.80610494731344
 20
35.75686023320721
 30
0.0
 41
1.0
 10
53.80610655144682
 20
35.75685965419834
 30
0.0
 41
1.0
  0
LINE
  5
3C0
330
1F
100
AcDbEntity
  8
0
  6
SLD-Solid
 62
     7
370
    25
100
AcDbLine
 10
62.2130168331189
 20
22.19943311352276
 30
0.0
 11
62.44122774062014
 21
22.33117646618712
 31
0.0
  0
LWPOLYLINE
  5
3C1
330
1F
100
AcDbEntity
  8
0
  6
SLD-Solid
 62
     7
370
    25
100
AcDbPolyline
 90
        9
 70
   128
 43
0.0
 10
62.44122774062014
 20
22.33117646618712
 10
62.45665182947431
 20
22.34362346484725
 10
62.46972774062013
 20
22.36126124418267
 10
62.47846478511909
 20
22.38140461217644
 10
62.48153282714773
 20
22.40098692365158
 10
62.47846478511907
 20
22.4170269492001
 10
62.46972774062007
 20
22.42708274033544
 10
62.45665182947423
 20
22.42962339401321
 10
62.4412277406201
 20
22.42426211874207
  0
LINE
  5
3C2
330
1F
100
AcDbEntity
  8
0
  6
SLD-Solid
 62
     7
370
    25
100
AcDbLine
 10
62.4412277406201
 20
22.42426211874207
 30
0.0
 11
62.2130168331189
 21
22.29251876607773
 31
0.0
  0
LINE
  5
3C3
330
1F
100
AcDbEntity
  8
0
  6
SLD-Solid
 62
     7
370
    25
100
AcDbLine
 10
62.2130168331189
 20
28.4264705270203
 30
0.0
 11
62.44777628447281
 21
28.56199427358287
 31
0.0
  0
LWPOLYLINE
  5
3C4
330
1F
100
AcDbEntity
  8
0
  6
SLD-Solid
 62
     7
370
    25
100
AcDbPolyline
 90
        9
 70
   128
 43
0.0
 10
62.44777628447281
 20
28.56199427358287
 10
62.46289756956875
 20
28.57419691434228
 10
62.47571677608362
 20
28.59148843102842
 10
62.48428229603194
 20
28.61123634697381
 10
62.48729010664817
 20
28.63043422099107
 10
62.4842822960319
 20
28.64615935079022
 10
62.47571677608356
 20
28.65601772790802
 10
62.46289756956867
 20
28.65850850379467
 10
62.44777628447277
 20
28.65325248040041
  0
LINE
  5
3C5
330
1F
100
AcDbEntity
  8
0
  6
SLD-Solid
 62
     7
370
    25
100
AcDbLine
 10
62.44777628447277
 20
28.65325248040041
 30
0.0
 11
62.2130168331189
 21
28.51772873383787
 31
0.0
  0
LINE
  5
3C6
330
1F
100
AcDbEntity
  8
0
  6
SLD-Solid
 62
     7
370
    25
100
AcDbLine
 10
62.21300970250431
 20
31.5356938985749
 30
0.0
 11
62.22928028908622
 21
31.54508670827706
 31
0.0
  0
LINE
  5
3C7
330
1F
100
AcDbEntity
  8
0
  6
SLD-Solid
 62
     7
370
    25
100
AcDbLine
 10
62.22928028908616
 20
28.78749680070368
 30
0.0
 11
62.22928028908622
 21
31.54508670827706
 31
0.0
  0
LINE
  5
3C8
330
1F
100
AcDbEntity
  8
0
  6
SLD-Solid
 62
     7
370
    25
100
AcDbLine
 10
62.48285377685879
 20
28.93388165930549
 30
0.0
 11
62.22928028908623
 21
28.78749680070371
 31
0.0
  0
ARC
  5
3C9
330
1F
100
AcDbEntity
  8
0
  6
SLD-Solid
 62
     7
370
    25
100
AcDbCircle
 10
62.5104570182348
 20
28.90004070339811
 30
0.0
 40
0.0436709197428595
100
AcDbArc
 50
350.7859630095465
 51
129.2032852357171
  0
LINE
  5
3CA
330
1F
100
AcDbEntity
  8
0
  6
SLD-Solid
 62
     7
370
    25
100
AcDbLine
 10
62.55356445497745
 20
28.44385180941367
 30
0.0
 11
62.55356445497745
 21
28.89304798370805
 31
0.0
  0
ARC
  5
3CB
330
1F
100
AcDbEntity
  8
0
  6
SLD-Solid
 62
     7
370
    25
100
AcDbCircle
 10
62.4000428448407
 20
28.45083789463974
 30
0.0
 40
0.153680480757206
100
AcDbArc
 50
302.6054783400251
 51
357.3945215143445
  0
LINE
  5
3CC
330
1F
100
AcDbEntity
  8
0
  6
SLD-Solid
 62
     7
370
    25
100
AcDbLine
 10
62.22928028908616
 20
28.17499246403215
 30
0.0
 11
62.48285377685879
 21
28.32137732263397
 31
0.0
  0
LINE
  5
3CD
330
1F
100
AcDbEntity
  8
0
  6
SLD-Solid
 62
     7
370
    25
100
AcDbLine
 10
62.22928028908616
 20
22.56834471828137
 30
0.0
 11
62.22928028908616
 21
28.17499246403215
 31
0.0
  0
LINE
  5
3CE
330
1F
100
AcDbEntity
  8
0
  6
SLD-Solid
 62
     7
370
    25
100
AcDbLine
 10
62.47705067905291
 20
22.71137951982782
 30
0.0
 11
62.22928028908616
 21
22.56834471828137
 31
0.0
  0
ARC
  5
3CF
330
1F
100
AcDbEntity
  8
0
  6
SLD-Solid
 62
     7
370
    25
100
AcDbCircle
 10
62.50465392042891
 20
22.67753856392045
 30
0.0
 40
0.0436709197428485
100
AcDbArc
 50
350.7859630095313
 51
129.2032852357289
  0
LINE
  5
3D0
330
1F
100
AcDbEntity
  8
0
  6
SLD-Solid
 62
     7
370
    25
100
AcDbLine
 10
62.54776135717156
 20
22.22069026126646
 30
0.0
 11
62.54776135717156
 21
22.67054584423038
 31
0.0
  0
ARC
  5
3D1
330
1F
100
AcDbEntity
  8
0
  6
SLD-Solid
 62
     7
370
    25
100
AcDbCircle
 10
62.39423974703482
 20
22.22767634649252
 30
0.0
 40
0.1536804807572026
100
AcDbArc
 50
302.6054783400257
 51
357.394521514347
  0
LINE
  5
3D2
330
1F
100
AcDbEntity
  8
0
  6
SLD-Solid
 62
     7
370
    25
100
AcDbLine
 10
62.22928028908616
 20
21.9551809729403
 30
0.0
 11
62.47705067905291
 21
22.09821577448675
 31
0.0
  0
LINE
  5
3D3
330
1F
100
AcDbEntity
  8
0
  6
SLD-Solid
 62
     7
370
    25
100
AcDbLine
 10
62.22928028908618
 20
19.15531069214748
 30
0.0
 11
62.22928028908616
 21
21.9551809729403
 31
0.0
  0
LINE
  5
3D4
330
1F
100
AcDbEntity
  8
0
  6
SLD-Solid
 62
     7
370
    25
100
AcDbLine
 10
62.22928028908622
 20
31.54508670827706
 30
0.0
 11
62.20931264959074
 21
31.55661378119716
 31
0.0
  0
LINE
  5
3D5
330
1F
100
AcDbEntity
  8
0
  6
SLD-Solid
 62
     7
370
    25
100
AcDbLine
 10
54.40578610332092
 20
36.08918441678943
 30
0.0
 11
54.42200036750238
 21
36.0985447122619
 31
0.0
  0
LINE
  5
3D6
330
1F
100
AcDbEntity
  8
0
  6
SLD-Solid
 62
     7
370
    25
100
AcDbLine
 10
62.15588048011607
 20
31.63387075650722
 30
0.0
 11
54.42200036750238
 21
36.0985447122619
 31
0.0
  0
LINE
  5
3D7
330
1F
100
AcDbEntity
  8
0
  6
SLD-Solid
 62
     7
370
    25
100
AcDbLine
 10
62.1396662159346
 20
31.62451046103476
 30
0.0
 11
62.15588048011607
 21
31.63387075650722
 31
0.0
  0
LINE
  5
3D8
330
1F
100
AcDbEntity
  8
0
  6
SLD-Solid
 62
     7
370
    25
100
AcDbLine
 10
62.15588048011607
 20
31.61515016556229
 30
0.0
 11
62.15588048011607
 21
31.63387075650722
 31
0.0
  0
LINE
  5
3D9
330
1F
100
AcDbEntity
  8
0
  6
SLD-Solid
 62
     7
370
    25
100
AcDbLine
 10
62.46234768020438
 20
28.94571957692692
 30
0.0
 11
62.22928028908616
 21
28.81117263594654
 31
0.0
  0
LINE
  5
3DA
330
1F
100
AcDbEntity
  8
0
  6
SLD-Solid
 62
     7
370
    25
100
AcDbLine
 10
62.2130168331189
 20
28.45014636226316
 30
0.0
 11
62.42727018781836
 21
28.57383219120427
 31
0.0
  0
ARC
  5
3DB
330
1F
100
AcDbEntity
  8
0
  6
SLD-Solid
 62
     7
370
    25
100
AcDbCircle
 10
62.49163968568943
 20
28.90483144401506
 30
0.0
 40
0.0502977235901819
100
AcDbArc
 50
65.69288095389624
 51
125.6175774751899
  0
ARC
  5
3DC
330
1F
100
AcDbEntity
  8
0
  6
SLD-Solid
 62
     7
370
    25
100
AcDbCircle
 10
62.39384611836935
 20
28.63824530022659
 30
0.0
 40
0.0725687055999669
100
AcDbArc
 50
297.4248737616496
 51
16.25838331888474
  0
LINE
  5
3DD
330
1F
100
AcDbEntity
  8
0
  6
SLD-Solid
 62
     7
370
    25
100
AcDbLine
 10
53.52177499739952
 20
36.20672059978791
 30
0.0
 11
53.51277499739958
 21
36.20152332138306
 31
0.0
  0
LINE
  5
3DE
330
1F
100
AcDbEntity
  8
0
  6
SLD-Solid
 62
     7
370
    25
100
AcDbLine
 10
53.75229180806637
 20
35.80745377288598
 30
0.0
 11
53.52177499739952
 21
36.20672059978791
 31
0.0
  0
LINE
  5
3DF
330
1F
100
AcDbEntity
  8
0
  6
SLD-Solid
 62
     7
370
    25
100
AcDbLine
 10
53.74329180806637
 20
35.80225649448114
 30
0.0
 11
53.75229180806637
 21
35.80745377288598
 31
0.0
  0
LINE
  5
3E0
330
1F
100
AcDbEntity
  8
0
  6
SLD-Solid
 62
     7
370
    25
100
AcDbLine
 10
53.74329180806645
 20
35.80225649448118
 30
0.0
 11
53.75389840978422
 21
35.78388532146426
 31
0.0
  0
LINE
  5
3E1
330
1F
100
AcDbEntity
  8
0
  6
SLD-Solid
 62
     7
370
    25
100
AcDbLine
 10
53.5234601737028
 20
36.20769343136049
 30
0.0
 11
53.52177499739952
 21
36.20672059978791
 31
0.0
  0
LINE
  5
3E2
330
1F
100
AcDbEntity
  8
0
  6
SLD-Solid
 62
     7
370
    25
100
AcDbLine
 10
53.75397710057873
 20
35.80842667154463
 30
0.0
 11
53.75229180806637
 21
35.80745377288598
 31
0.0
  0
SPLINE
  5
3E3
330
1F
100
AcDbEntity
  8
0
  6
SLD-Solid
 62
     7
370
    25
100
AcDbSpline
210
0.0
220
0.0
230
1.0
 70
    12
 71
     3
 72
    11
 73
     7
 74
     0
 42
0.00000001
 43
0.00000001
 40
0.0
 40
0.0
 40
0.0
 40
0.0
 40
0.2500000000000093
 40
0.4999999999999856
 40
0.7499999999999925
 40
1.0
 40
1.0
 40
1.0
 40
1.0
 10
53.83592279640183
 20
35.73652595437482
 30
0.0
 41
1.0
 10
53.82993220206175
 20
35.73772604187982
 30
0.0
 41
1.0
 10
53.81795101338157
 20
35.74012621688984
 30
0.0
 41
1.0
 10
53.794910603093
 20
35.74961514946104
 30
0.0
 41
1.0
 10
53.77187019280445
 20
35.76380590043455
 30
0.0
 41
1.0
 10
53.75988900412428
 20
35.777192181121
 30
0.0
 41
1.0
 10
53.75389840978419
 20
35.78388532146423
 30
0.0
 41
1.0
  0
SPLINE
  5
3E4
330
1F
100
AcDbEntity
  8
0
  6
SLD-Solid
 62
     7
370
    25
100
AcDbSpline
210
0.0
220
0.0
230
1.0
 70
    12
 71
     3
 72
    12
 73
     8
 74
     0
 42
0.00000001
 43
0.00000001
 40
0.0
 40
0.0
 40
0.0
 40
0.0
 40
0.2245228928296908
 40
0.4490822654038588
 40
0.673641800406585
 40
0.8982011233138731
 40
1.0
 40
1.0
 40
1.0
 40
1.0
 10
53.51277499739963
 20
36.2716065487664
 30
0.0
 41
1.0
 10
53.50844927075798
 20
36.26683456860355
 30
0.0
 41
1.0
 10
53.49979711464478
 20
36.25728983294213
 30
0.0
 41
1.0
 10
53.49481201233743
 20
36.24039747229983
 30
0.0
 41
1.0
 10
53.49678267516921
 20
36.2234268362508
 30
0.0
 41
1.0
 10
53.50406145581271
 20
36.21029553261437
 30
0.0
 41
1.0
 10
53.51070326065939
 20
36.20360900745221
 30
0.0
 41
1.0
 10
53.51277499739958
 20
36.20152332138306
 30
0.0
 41
1.0
  0
LINE
  5
3E5
330
1F
100
AcDbEntity
  8
0
  6
SLD-Solid
 62
     7
370
    25
100
AcDbLine
 10
53.53328109405404
 20
36.25976863114497
 30
0.0
 11
53.51277499739963
 21
36.2716065487664
 31
0.0
  0
ARC
  5
3E6
330
1F
100
AcDbEntity
  8
0
  6
SLD-Solid
 62
     7
370
    25
100
AcDbCircle
 10
53.53777731071037
 20
36.27566232618662
 30
0.0
 40
0.0253291334508494
100
AcDbArc
 50
50.79671476429302
 51
189.2140369904189
  0
ARC
  5
3E7
330
1F
100
AcDbEntity
  8
0
  6
SLD-Solid
 62
     7
370
    25
100
AcDbCircle
 10
53.7842852009424
 20
36.41444638309297
 30
0.0
 40
0.0291726796823366
100
AcDbArc
 50
54.38242252483089
 51
114.3071190460473
  0
LINE
  5
3E8
330
1F
100
AcDbEntity
  8
0
  6
SLD-Solid
 62
     7
370
    25
100
AcDbLine
 10
53.75397845264215
 20
35.80842576307812
 30
0.0
 11
53.74329180806637
 21
35.80225649448114
 31
0.0
  0
LINE
  5
3E9
330
1F
100
AcDbEntity
  8
0
  6
SLD-Solid
 62
     7
370
    25
100
AcDbLine
 10
53.83862518099967
 20
35.73808600779653
 30
0.0
 11
53.83592279640181
 21
35.73652595437486
 31
0.0
  0
LINE
  5
3EA
330
1F
100
AcDbEntity
  8
0
  6
SLD-Solid
 62
     7
370
    25
100
AcDbLine
 10
62.47705067905291
 20
22.71137951982782
 30
0.0
 11
62.4565445823985
 21
22.72321743744925
 31
0.0
  0
LINE
  5
3EB
330
1F
100
AcDbEntity
  8
0
  6
SLD-Solid
 62
     7
370
    25
100
AcDbLine
 10
62.4565445823985
 20
22.72321743744925
 30
0.0
 11
62.22928028908616
 21
22.59202055352423
 31
0.0
  0
LINE
  5
3EC
330
1F
100
AcDbEntity
  8
0
  6
SLD-Solid
 62
     7
370
    25
100
AcDbLine
 10
62.44122774062014
 20
22.33117646618712
 30
0.0
 11
62.42072164396569
 21
22.34301438380852
 31
0.0
  0
LINE
  5
3ED
330
1F
100
AcDbEntity
  8
0
  6
SLD-Solid
 62
     7
370
    25
100
AcDbLine
 10
62.2130168331189
 20
22.22310894876562
 30
0.0
 11
62.42072164396569
 21
22.34301438380852
 31
0.0
  0
ARC
  5
3EE
330
1F
100
AcDbEntity
  8
0
  6
SLD-Solid
 62
     7
370
    25
100
AcDbCircle
 10
62.48583658788354
 20
22.68232930453739
 30
0.0
 40
0.0502977235901784
100
AcDbArc
 50
65.69288095388552
 51
125.617577475188
  0
ARC
  5
3EF
330
1F
100
AcDbEntity
  8
0
  6
SLD-Solid
 62
     7
370
    25
100
AcDbCircle
 10
62.38678775769287
 20
22.40860885122339
 30
0.0
 40
0.0738521685058531
100
AcDbArc
 50
297.3538129021539
 51
16.59262137685041
  0
LINE
  5
3F0
330
1F
100
AcDbEntity
  8
0
  6
SLD-Solid
 62
     7
370
    25
100
AcDbLine
 10
61.62508556936717
 20
18.76795365881609
 30
0.0
 11
61.6149184467382
 21
18.76281580213379
 31
0.0
  0
LINE
  5
3F1
330
1F
100
AcDbEntity
  8
0
  6
SLD-Solid
 62
     7
370
    25
100
AcDbLine
 10
61.86981242715942
 20
18.34407430838728
 30
0.0
 11
61.62508556936717
 21
18.76795365881609
 31
0.0
  0
LINE
  5
3F2
330
1F
100
AcDbEntity
  8
0
  6
SLD-Solid
 62
     7
370
    25
100
AcDbLine
 10
61.85604185912281
 20
18.34517780221498
 30
0.0
 11
61.86981242715942
 21
18.34407430838728
 31
0.0
  0
LINE
  5
3F3
330
1F
100
AcDbEntity
  8
0
  6
SLD-Solid
 62
     7
370
    25
100
AcDbLine
 10
61.63914906751383
 20
18.77607234348509
 30
0.0
 11
61.62508556936717
 21
18.76795365881609
 31
0.0
  0
LINE
  5
3F4
330
1F
100
AcDbEntity
  8
0
  6
SLD-Solid
 62
     7
370
    25
100
AcDbLine
 10
61.88355306687259
 20
18.35200661084989
 30
0.0
 11
61.86981242715942
 21
18.34407430838728
 31
0.0
  0
LINE
  5
3F5
330
1F
100
AcDbEntity
  8
0
  6
SLD-Solid
 62
     7
370
    25
100
AcDbLine
 10
61.88350626508113
 20
18.35205397679374
 30
0.0
 11
61.87341008829495
 21
18.34622557799604
 31
0.0
  0
SPLINE
  5
3F6
330
1F
100
AcDbEntity
  8
0
  6
SLD-Solid
 62
     7
370
    25
100
AcDbSpline
210
0.0
220
0.0
230
1.0
 70
    12
 71
     3
 72
    11
 73
     7
 74
     0
 42
0.00000001
 43
0.00000001
 40
0.0
 40
0.0
 40
0.0
 40
0.0
 40
0.2531995012527351
 40
0.5066285487995247
 40
0.7600586202975025
 40
1.0
 40
1.0
 40
1.0
 40
1.0
 10
61.85604185912281
 20
18.34517780221498
 30
0.0
 41
1.0
 10
61.86006717239399
 20
18.33729884634169
 30
0.0
 41
1.0
 10
61.86812144821582
 20
18.32153379166981
 30
0.0
 41
1.0
 10
61.88803408550708
 20
18.30547871151285
 30
0.0
 41
1.0
 10
61.91166945777447
 20
18.29687136790913
 30
0.0
 41
1.0
 10
61.92887675980184
 20
18.29782744994787
 30
0.0
 41
1.0
 10
61.93724518845606
 20
18.29829242140685
 30
0.0
 41
1.0
  0
SPLINE
  5
3F7
330
1F
100
AcDbEntity
  8
0
  6
SLD-Solid
 62
     7
370
    25
100
AcDbSpline
210
0.0
220
0.0
230
1.0
 70
    12
 71
     3
 72
    11
 73
     7
 74
     0
 42
0.00000001
 43
0.00000001
 40
0.0
 40
0.0
 40
0.0
 40
0.0
 40
0.25
 40
0.5000000000000004
 40
0.7499999999999977
 40
1.0
 40
1.0
 40
1.0
 40
1.0
 10
61.61491844673821
 20
18.76281580213378
 30
0.0
 41
1.0
 10
61.61160204387141
 20
18.77164792229855
 30
0.0
 41
1.0
 10
61.60496923813781
 20
18.78931216262808
 30
0.0
 41
1.0
 10
61.60265463366183
 20
18.81725279090575
 30
0.0
 41
1.0
 10
61.60441236461222
 20
18.84284174574247
 30
0.0
 41
1.0
 10
61.60729483648324
 20
18.8550111475375
 30
0.0
 41
1.0
 10
61.60873607241874
 20
18.86109584843502
 30
0.0
 41
1.0
  0
LINE
  5
3F8
330
1F
100
AcDbEntity
  8
0
  6
SLD-Solid
 62
     7
370
    25
100
AcDbLine
 10
61.60873607241874
 20
18.86109584843508
 30
0.0
 11
61.60873607241874
 21
18.84844389380195
 31
0.0
  0
SPLINE
  5
3F9
330
1F
100
AcDbEntity
  8
0
  6
SLD-Solid
 62
     7
370
    25
100
AcDbSpline
210
0.0
220
0.0
230
1.0
 70
    12
 71
     3
 72
    11
 73
     7
 74
     0
 42
0.00000001
 43
0.00000001
 40
0.0
 40
0.0
 40
0.0
 40
0.0
 40
0.3025569422515188
 40
0.6051138845030108
 40
0.9076708267545036
 40
1.0
 40
1.0
 40
1.0
 40
1.0
 10
61.63542454339262
 20
18.77465371975521
 30
0.0
 41
1.0
 10
61.63179708405356
 20
18.7802130357524
 30
0.0
 41
1.0
 10
61.62454216537547
 20
18.79133166774676
 30
0.0
 41
1.0
 10
61.61752780600101
 20
18.80858677614036
 30
0.0
 41
1.0
 10
61.61354674500878
 20
18.82138747334821
 30
0.0
 41
1.0
 10
61.61187293747157
 20
18.82697651444166
 30
0.0
 41
1.0
 10
61.61148158092593
 20
18.82828330017847
 30
0.0
 41
1.0
  0
LINE
  5
3FA
330
1F
100
AcDbEntity
  8
0
  6
SLD-Solid
 62
     7
370
    25
100
AcDbLine
 10
61.63542454339261
 20
18.77465371975521
 30
0.0
 11
61.6149184467382
 21
18.76281580213379
 31
0.0
  0
LINE
  5
3FB
330
1F
100
AcDbEntity
  8
0
  6
SLD-Solid
 62
     7
370
    25
100
AcDbLine
 10
61.62187556404689
 20
18.82833539506065
 30
0.0
 11
61.62539385401017
 21
18.82665546531842
 31
0.0
  0
LINE
  5
3FC
330
1F
100
AcDbEntity
  8
0
  6
SLD-Solid
 62
     7
370
    25
100
AcDbLine
 10
61.95443842231872
 20
18.30821786404672
 30
0.0
 11
61.93724518845606
 21
18.29829242140685
 31
0.0
  0
LINE
  5
3FD
330
1F
100
AcDbEntity
  8
0
  6
SLD-Solid
 62
     7
370
    25
100
AcDbLine
 10
61.62539385401017
 20
18.87071218105842
 30
0.0
 11
61.60873607241874
 21
18.86109584843508
 31
0.0
  0
LINE
  5
3FE
330
1F
100
AcDbEntity
  8
0
  6
SLD-Solid
 62
     7
370
    25
100
AcDbLine
 10
61.62187556404689
 20
18.82833539506065
 30
0.0
 11
61.61003076180342
 21
18.83517325384789
 31
0.0
  0
ARC
  5
3FF
330
1F
100
AcDbEntity
  8
0
  6
SLD-Solid
 62
     7
370
    25
100
AcDbCircle
 10
62.20169052685232
 20
19.15179797848484
 30
0.0
 40
0.0278124816835204
100
AcDbArc
 50
304.0563508207219
 51
7.255829572651872
  0
ARC
  5
400
330
1F
100
AcDbEntity
  8
0
  6
SLD-Solid
 62
     7
370
    25
100
AcDbCircle
 10
60.84335099796036
 20
30.83437721598978
 30
0.0
 40
0.0952953582905517
100
AcDbArc
 50
242.6096722366037
 51
297.3903277633921
  0
ARC
  5
401
330
1F
100
AcDbEntity
  8
0
  6
SLD-Solid
 62
     7
370
    25
100
AcDbCircle
 10
60.84335099796036
 20
18.58544849689162
 30
0.0
 40
0.0952953582905297
100
AcDbArc
 50
242.6096722365978
 51
297.3903277633991
  0
LINE
  5
402
330
1F
100
AcDbEntity
  8
0
  6
SLD-Solid
 62
     7
370
    25
100
AcDbLine
 10
60.79951037752679
 20
18.50083640962437
 30
0.0
 11
60.79951037752679
 21
30.74976512872251
 31
0.0
  0
ARC
  5
403
330
1F
100
AcDbEntity
  8
0
  6
SLD-Solid
 62
     7
370
    25
100
AcDbCircle
 10
60.84335099796036
 20
30.80568200511847
 30
0.0
 40
0.049184701053215
100
AcDbArc
 50
242.6096722366138
 51
297.3903277633713
  0
LINE
  5
404
330
1F
100
AcDbEntity
  8
0
  6
SLD-Solid
 62
     7
370
    25
100
AcDbLine
 10
60.86597841495833
 20
30.76201125039984
 30
0.0
 11
60.88719161839393
 21
30.7497651287225
 31
0.0
  0
LINE
  5
405
330
1F
100
AcDbEntity
  8
0
  6
SLD-Solid
 62
     7
370
    25
100
AcDbLine
 10
60.88719161839392
 20
30.80039065905942
 30
0.0
 11
60.88719161839393
 21
30.7497651287225
 31
0.0
  0
LINE
  5
406
330
1F
100
AcDbEntity
  8
0
  6
SLD-Solid
 62
     7
370
    25
100
AcDbLine
 10
60.88719161839392
 20
30.80039065905942
 30
0.0
 11
61.62539385401017
 21
31.22654573871475
 31
0.0
  0
LINE
  5
407
330
1F
100
AcDbEntity
  8
0
  6
SLD-Solid
 62
     7
370
    25
100
AcDbLine
 10
61.90126299475685
 20
31.38580160381141
 30
0.0
 11
61.9442583719381
 21
31.41062230673462
 31
0.0
  0
LINE
  5
408
330
1F
100
AcDbEntity
  8
0
  6
SLD-Solid
 62
     7
370
    25
100
AcDbLine
 10
62.20722015060892
 20
31.56242691030944
 30
0.0
 11
62.56727733049317
 21
31.7702834959048
 31
0.0
  0
LINE
  5
409
330
1F
100
AcDbEntity
  8
0
  6
SLD-Solid
 62
     7
370
    25
100
AcDbLine
 10
62.56727733049317
 20
19.42010371613283
 30
0.0
 11
62.22928028908618
 21
19.2249821774073
 31
0.0
  0
LINE
  5
40A
330
1F
100
AcDbEntity
  8
0
  6
SLD-Solid
 62
     7
370
    25
100
AcDbLine
 10
61.62539385401017
 20
18.87636595894278
 30
0.0
 11
60.88719161839393
 21
18.45021087928745
 31
0.0
  0
LINE
  5
40B
330
1F
100
AcDbEntity
  8
0
  6
SLD-Solid
 62
     7
370
    25
100
AcDbLine
 10
60.88719161839393
 20
18.50083640962437
 30
0.0
 11
60.88719161839393
 21
18.45021087928745
 31
0.0
  0
LINE
  5
40C
330
1F
100
AcDbEntity
  8
0
  6
SLD-Solid
 62
     7
370
    25
100
AcDbLine
 10
62.54606412705757
 20
31.78252961758214
 30
0.0
 11
62.19728339732443
 21
31.58118278809496
 31
0.0
  0
LINE
  5
40D
330
1F
100
AcDbEntity
  8
0
  6
SLD-Solid
 62
     7
370
    25
100
AcDbLine
 10
61.93507670733953
 20
31.42981408794007
 30
0.0
 11
61.89065725497459
 21
31.40417128391222
 31
0.0
  0
LINE
  5
40E
330
1F
100
AcDbEntity
  8
0
  6
SLD-Solid
 62
     7
370
    25
100
AcDbLine
 10
61.63532070708835
 20
31.25676863237114
 30
0.0
 11
60.86597841495833
 21
30.81263678073676
 31
0.0
  0
LINE
  5
40F
330
1F
100
AcDbEntity
  8
0
  6
SLD-Solid
 62
     7
370
    25
100
AcDbLine
 10
60.86597841495833
 20
30.81263678073676
 30
0.0
 11
60.88719161839392
 21
30.80039065905942
 31
0.0
  0
LINE
  5
410
330
1F
100
AcDbEntity
  8
0
  6
SLD-Solid
 62
     7
370
    25
100
AcDbLine
 10
60.86597841495833
 20
30.81263678073676
 30
0.0
 11
60.86597841495833
 21
30.76201125039984
 31
0.0
  0
ARC
  5
411
330
1F
100
AcDbEntity
  8
0
  6
SLD-Solid
 62
     7
370
    25
100
AcDbCircle
 10
60.86985049620615
 20
30.7597757031275
 30
0.0
 40
0.0491777538423086
100
AcDbArc
 50
122.6054783400143
 51
177.3945215143379
  0
ARC
  5
412
330
1F
100
AcDbEntity
  8
0
  6
SLD-Solid
 62
     7
370
    25
100
AcDbCircle
 10
60.8946937758116
 20
30.74543375588235
 30
0.0
 40
0.095281898069486
100
AcDbArc
 50
122.605478340039
 51
177.3945215143422
  0
ARC
  5
413
330
1F
100
AcDbEntity
  8
0
  6
SLD-Solid
 62
     7
370
    25
100
AcDbCircle
 10
53.20420042362673
 20
35.18506106797423
 30
0.0
 40
0.0952818980695034
100
AcDbArc
 50
122.6054783400368
 51
177.3945215143341
  0
LINE
  5
414
330
1F
100
AcDbEntity
  8
0
  6
SLD-Solid
 62
     7
370
    25
100
AcDbLine
 10
60.79951037752679
 20
30.74976512872251
 30
0.0
 11
53.10901702534191
 21
35.18939244081441
 31
0.0
  0
LWPOLYLINE
  5
415
330
1F
100
AcDbEntity
  8
0
  6
SLD-Solid
 62
     7
370
    25
100
AcDbPolyline
 90
       10
 70
   128
 43
0.0
 10
54.12583657668817
 20
34.03081644009385
 10
54.06444267470368
 20
34.06005584046159
 10
54.00491419536418
 20
34.07600172675522
 10
53.94905988139153
 20
34.07816959128873
 10
53.89857683785214
 20
34.06649356459525
 10
53.85499896647832
 20
34.04132841683752
 10
53.81965035884027
 20
34.00343877829596
 10
53.79360506449383
 20
33.95397590646458
 10
53.77765445652815
 20
33.89444270567456
 10
53.7722831860949
 20
33.82664806210666
  0
LINE
  5
416
330
1F
100
AcDbEntity
  8
0
  6
SLD-Solid
 62
     7
370
    25
100
AcDbLine
 10
53.7722831860949
 20
31.37702562644941
 30
0.0
 11
53.7722831860949
 21
33.82664806210666
 31
0.0
  0
ARC
  5
417
330
1F
100
AcDbEntity
  8
0
  6
SLD-Solid
 62
     7
370
    25
100
AcDbCircle
 10
54.53664467542154
 20
31.41008164950072
 30
0.0
 40
0.765075935463675
100
AcDbArc
 50
182.4763037049915
 51
237.5236964406373
  0
LINE
  5
418
330
1F
100
AcDbEntity
  8
0
  6
SLD-Solid
 62
     7
370
    25
100
AcDbLine
 10
59.78269082618054
 20
27.49902074526002
 30
0.0
 11
54.12583657668817
 21
30.76465319255086
 31
0.0
  0
LWPOLYLINE
  5
419
330
1F
100
AcDbEntity
  8
0
  6
SLD-Solid
 62
     7
370
    25
100
AcDbPolyline
 90
       10
 70
   128
 43
0.0
 10
59.78269082618054
 20
27.49902074526002
 10
59.84408472816502
 20
27.46978134489228
 10
59.90361320750453
 20
27.45383545859864
 10
59.95946752147717
 20
27.45166759406514
 10
60.00995056501657
 20
27.46334362075861
 10
60.05352843639039
 20
27.48850876851635
 10
60.08887704402843
 20
27.52639840705791
 10
60.11492233837487
 20
27.57586127888929
 10
60.13087294634055
 20
27.6353944796793
 10
60.13624421677381
 20
27.70318912324721
  0
LINE
  5
41A
330
1F
100
AcDbEntity
  8
0
  6
SLD-Solid
 62
     7
370
    25
100
AcDbLine
 10
60.13624421677381
 20
30.15281155890445
 30
0.0
 11
60.13624421677381
 21
27.70318912324721
 31
0.0
  0
ARC
  5
41B
330
1F
100
AcDbEntity
  8
0
  6
SLD-Solid
 62
     7
370
    25
100
AcDbCircle
 10
59.37188272744714
 20
30.11975553585314
 30
0.0
 40
0.7650759354636961
100
AcDbArc
 50
2.47630370499038
 51
57.52369644063533
  0
LINE
  5
41C
330
1F
100
AcDbEntity
  8
0
  6
SLD-Solid
 62
     7
370
    25
100
AcDbLine
 10
54.12583657668817
 20
34.03081644009385
 30
0.0
 11
59.78269082618054
 21
30.76518399280301
 31
0.0
  0
LINE
  5
41D
330
1F
100
AcDbEntity
  8
0
  6
SLD-Solid
 62
     7
370
    25
100
AcDbLine
 10
62.31116325434739
 20
31.72382987434208
 30
0.0
 11
62.31130467570363
 21
31.72391151515327
 31
0.0
  0
LINE
  5
41E
330
1F
100
AcDbEntity
  8
0
  6
SLD-Solid
 62
     7
370
    25
100
AcDbLine
 10
62.31130467570363
 20
31.7237482335309
 30
0.0
 11
62.31116325434739
 21
31.72382987434208
 31
0.0
  0
LINE
  5
41F
330
1F
100
AcDbEntity
  8
0
  6
SLD-Solid
 62
     7
370
    25
100
AcDbLine
 10
60.94079031240786
 20
30.93273041398588
 30
0.0
 11
60.9409317337641
 21
30.9326487731747
 31
0.0
  0
LINE
  5
420
330
1F
100
AcDbEntity
  8
0
  6
SLD-Solid
 62
     7
370
    25
100
AcDbLine
 10
60.94064889105163
 20
30.9326487731747
 30
0.0
 11
60.94079031240786
 21
30.93273041398588
 31
0.0
  0
LINE
  5
421
330
1F
100
AcDbEntity
  8
0
  6
SLD-Solid
 62
     7
370
    25
100
AcDbLine
 10
60.98463093284143
 20
30.90725848089701
 30
0.0
 11
60.94064889105163
 21
30.9326487731747
 31
0.0
  0
LINE
  5
422
330
1F
100
AcDbEntity
  8
0
  6
SLD-Solid
 62
     7
370
    25
100
AcDbLine
 10
60.98463093284143
 20
30.90725848089701
 30
0.0
 11
60.84335099796035
 21
30.82569931052592
 31
0.0
  0
LINE
  5
423
330
1F
100
AcDbEntity
  8
0
  6
SLD-Solid
 62
     7
370
    25
100
AcDbLine
 10
53.15285764577548
 20
35.26532662261783
 30
0.0
 11
53.29413758065655
 21
35.34688579298891
 31
0.0
  0
LINE
  5
424
330
1F
100
AcDbEntity
  8
0
  6
SLD-Solid
 62
     7
370
    25
100
AcDbLine
 10
53.33811962244635
 20
35.32149550071123
 30
0.0
 11
53.29413758065655
 21
35.34688579298891
 31
0.0
  0
LINE
  5
425
330
1F
100
AcDbEntity
  8
0
  6
SLD-Solid
 62
     7
370
    25
100
AcDbLine
 10
53.33826104380259
 20
35.32157714152241
 30
0.0
 11
53.33811962244635
 21
35.32149550071123
 31
0.0
  0
LINE
  5
426
330
1F
100
AcDbEntity
  8
0
  6
SLD-Solid
 62
     7
370
    25
100
AcDbLine
 10
53.33811962244635
 20
35.3216587823336
 30
0.0
 11
53.33826104380259
 21
35.32157714152241
 31
0.0
  0
LINE
  5
427
330
1F
100
AcDbEntity
  8
0
  6
SLD-Solid
 62
     7
370
    25
100
AcDbLine
 10
54.70863398574212
 20
36.11267660187861
 30
0.0
 11
54.70849256438589
 21
36.11275824268979
 31
0.0
  0
LINE
  5
428
330
1F
100
AcDbEntity
  8
0
  6
SLD-Solid
 62
     7
370
    25
100
AcDbLine
 10
54.70877540709835
 20
36.11275824268979
 30
0.0
 11
54.70863398574212
 21
36.11267660187861
 31
0.0
  0
LINE
  5
429
330
1F
100
AcDbEntity
  8
0
  6
SLD-Solid
 62
     7
370
    25
100
AcDbLine
 10
54.66479336530855
 20
36.13814853496748
 30
0.0
 11
54.70877540709835
 21
36.11275824268979
 31
0.0
  0
LINE
  5
42A
330
1F
100
AcDbEntity
  8
0
  6
SLD-Solid
 62
     7
370
    25
100
AcDbLine
 10
54.66479336530855
 20
36.13814853496748
 30
0.0
 11
54.83294335787472
 21
36.2352194594632
 31
0.0
  0
LINE
  5
42B
330
1F
100
AcDbEntity
  8
0
  6
SLD-Solid
 62
     7
370
    25
100
AcDbLine
 10
62.5234367100596
 20
31.79559214737131
 30
0.0
 11
62.35528671749343
 21
31.69852122287558
 31
0.0
  0
LINE
  5
42C
330
1F
100
AcDbEntity
  8
0
  6
SLD-Solid
 62
     7
370
    25
100
AcDbLine
 10
62.31130467570363
 20
31.72391151515327
 30
0.0
 11
62.35528671749343
 21
31.69852122287558
 31
0.0
  0
LINE
  5
42D
330
1F
100
AcDbEntity
  8
0
  6
SLD-Solid
 62
     7
370
    25
100
AcDbLine
 10
60.84335099796036
 20
30.80120308616936
 30
0.0
 11
60.98463093284143
 21
30.88276225654044
 31
0.0
  0
LINE
  5
42E
330
1F
100
AcDbEntity
  8
0
  6
SLD-Solid
 62
     7
370
    25
100
AcDbLine
 10
60.98463093284143
 20
30.88276225654044
 30
0.0
 11
60.98463093284143
 21
30.90725848089701
 31
0.0
  0
LINE
  5
42F
330
1F
100
AcDbEntity
  8
0
  6
SLD-Solid
 62
     7
370
    25
100
AcDbLine
 10
60.96355915076207
 20
30.86896071304862
 30
0.0
 11
60.9635172859191
 21
30.87057360761487
 31
0.0
  0
LINE
  5
430
330
1F
100
AcDbEntity
  8
0
  6
SLD-Solid
 62
     7
370
    25
100
AcDbLine
 10
60.98110588250692
 20
30.87909845307609
 30
0.0
 11
60.98066714669257
 21
30.88047401150337
 31
0.0
  0
LINE
  5
431
330
1F
100
AcDbEntity
  8
0
  6
SLD-Solid
 62
     7
370
    25
100
AcDbLine
 10
60.94444997072532
 20
30.93045445658642
 30
0.0
 11
60.9409317337641
 21
30.9326487731747
 31
0.0
  0
ARC
  5
432
330
1F
100
AcDbEntity
  8
0
  6
SLD-Solid
 62
     7
370
    25
100
AcDbCircle
 10
62.25949222160509
 20
31.64303310923916
 30
0.0
 40
0.0959138242858928
100
AcDbArc
 50
16.4525353656376
 51
57.30288280592284
  0
LINE
  5
433
330
1F
100
AcDbEntity
  8
0
  6
SLD-Solid
 62
     7
370
    25
100
AcDbLine
 10
60.94079031240786
 20
30.93256713236352
 30
0.0
 11
60.94079031240786
 21
30.93273041398588
 31
0.0
  0
LINE
  5
434
330
1F
100
AcDbEntity
  8
0
  6
SLD-Solid
 62
     7
370
    25
100
AcDbLine
 10
62.6125321644891
 20
19.42010371613283
 30
0.0
 11
62.6125321644891
 21
31.77028349590478
 31
0.0
  0
LINE
  5
435
330
1F
100
AcDbEntity
  8
0
  6
SLD-Solid
 62
     7
370
    25
100
AcDbLine
 10
62.6125321644891
 20
31.77909135552914
 30
0.0
 11
62.6125321644891
 21
31.77028349590478
 31
0.0
  0
LINE
  5
436
330
1F
100
AcDbEntity
  8
0
  6
SLD-Solid
 62
     7
370
    25
100
AcDbLine
 10
62.6125321644891
 20
31.77909135552914
 30
0.0
 11
62.91182513506975
 21
31.95192567694205
 31
0.0
  0
ARC
  5
437
330
1F
100
AcDbEntity
  8
0
  6
SLD-Solid
 62
     7
370
    25
100
AcDbCircle
 10
62.68028576405997
 20
31.82658410463914
 30
0.0
 40
0.2632887959541275
100
AcDbArc
 50
1.703942134671921
 51
28.42846522298596
  0
LINE
  5
438
330
1F
100
AcDbEntity
  8
0
  6
SLD-Solid
 62
     7
370
    25
100
AcDbLine
 10
62.9434581380844
 20
31.83441300145257
 30
0.0
 11
62.9434581380844
 21
18.97389521425201
 31
0.0
  0
ARC
  5
439
330
1F
100
AcDbEntity
  8
0
  6
SLD-Solid
 62
     7
370
    25
100
AcDbCircle
 10
62.84401068652825
 20
18.96606472840213
 30
0.0
 40
0.0997552611628004
100
AcDbArc
 50
312.8286600732043
 51
4.502176811058155
  0
LINE
  5
43A
330
1F
100
AcDbEntity
  8
0
  6
SLD-Solid
 62
     7
370
    25
100
AcDbLine
 10
62.91182513506975
 20
18.89290522663599
 30
0.0
 11
62.6125321644891
 21
19.41129585650848
 31
0.0
  0
LINE
  5
43B
330
1F
100
AcDbEntity
  8
0
  6
SLD-Solid
 62
     7
370
    25
100
AcDbLine
 10
62.6125321644891
 20
19.42010371613283
 30
0.0
 11
62.6125321644891
 21
19.41129585650848
 31
0.0
  0
LINE
  5
43C
330
1F
100
AcDbEntity
  8
0
  6
SLD-Solid
 62
     7
370
    25
100
AcDbLine
 10
62.91182513506975
 20
31.95192567694205
 30
0.0
 11
62.93303833850535
 21
31.96417179861939
 31
0.0
  0
ARC
  5
43D
330
1F
100
AcDbEntity
  8
0
  6
SLD-Solid
 62
     7
370
    25
100
AcDbCircle
 10
62.70149896749556
 20
31.83883022631649
 30
0.0
 40
0.2632887959541244
100
AcDbArc
 50
1.703942134669603
 51
28.42846522298392
  0
LINE
  5
43E
330
1F
100
AcDbEntity
  8
0
  6
SLD-Solid
 62
     7
370
    25
100
AcDbLine
 10
62.54606412705756
 20
31.8347839831408
 30
0.0
 11
54.85557077487268
 21
36.27441129523271
 31
0.0
  0
LINE
  5
43F
330
1F
100
AcDbEntity
  8
0
  6
SLD-Solid
 62
     7
370
    25
100
AcDbLine
 10
54.85557077487268
 20
36.27441129523271
 30
0.0
 11
54.80410273744114
 21
36.30412316080709
 31
0.0
  0
LINE
  5
440
330
1F
100
AcDbEntity
  8
0
  6
SLD-Solid
 62
     7
370
    25
100
AcDbLine
 10
54.80410273744114
 20
36.30412316080709
 30
0.0
 11
54.50480976686049
 21
36.82251379067959
 31
0.0
  0
ARC
  5
441
330
1F
100
AcDbEntity
  8
0
  6
SLD-Solid
 62
     7
370
    25
100
AcDbCircle
 10
54.53427141687416
 20
36.72723469234187
 30
0.0
 40
0.099730112812414
100
AcDbArc
 50
55.49992294259678
 51
107.1823513288231
  0
LINE
  5
442
330
1F
100
AcDbEntity
  8
0
  6
SLD-Solid
 62
     7
370
    25
100
AcDbLine
 10
54.59075928531831
 20
36.80942481413405
 30
0.0
 11
62.81087561661192
 21
32.06405266416453
 31
0.0
  0
ARC
  5
443
330
1F
100
AcDbEntity
  8
0
  6
SLD-Solid
 62
     7
370
    25
100
AcDbCircle
 10
62.67253629725314
 20
31.8400794864706
 30
0.0
 40
0.2632522585030673
100
AcDbArc
 50
31.57099602928692
 51
58.29802501523534
  0
LINE
  5
444
330
1F
100
AcDbEntity
  8
0
  6
SLD-Solid
 62
     7
370
    25
100
AcDbLine
 10
62.89682513506974
 20
31.97790643897932
 30
0.0
 11
62.5975321644891
 21
31.80507211756641
 31
0.0
  0
LINE
  5
445
330
1F
100
AcDbEntity
  8
0
  6
SLD-Solid
 62
     7
370
    25
100
AcDbLine
 10
62.5975321644891
 20
31.80507211756641
 30
0.0
 11
62.54606412705756
 21
31.8347839831408
 31
0.0
  0
LWPOLYLINE
  5
446
330
1F
100
AcDbEntity
  8
0
  6
SLD-Solid
 62
     7
370
    25
100
AcDbPolyline
 90
       17
 70
   128
 43
0.0
 10
61.70602127100794
 20
32.66104446093173
 10
61.73308107601525
 20
32.63920762117715
 10
61.75602127100795
 20
32.60826414865888
 10
61.77134941925176
 20
32.57292490656457
 10
61.77673194912659
 20
32.53856997415203
 10
61.77134941925176
 20
32.51042957845284
 10
61.75602127100795
 20
32.49278783961889
 10
61.73308107601525
 20
32.48833055246487
 10
61.70602127100794
 20
32.49773629855459
 10
61.67896146600063
 20
32.51957313830918
 10
61.65602127100794
 20
32.55051661082744
 10
61.64069312276413
 20
32.58585585292176
 10
61.63531059288928
 20
32.6202107853343
 10
61.64069312276413
 20
32.64835118103348
 10
61.65602127100794
 20
32.66599291986743
 10
61.67896146600063
 20
32.67045020702145
 10
61.70602127100794
 20
32.66104446093173
  0
LWPOLYLINE
  5
447
330
1F
100
AcDbEntity
  8
0
  6
SLD-Solid
 62
     7
370
    25
100
AcDbPolyline
 90
       17
 70
   128
 43
0.0
 10
55.6956136309223
 20
36.13077893617827
 10
55.72267343592961
 20
36.10894209642368
 10
55.7456136309223
 20
36.07799862390541
 10
55.76094177916612
 20
36.04265938181109
 10
55.76632430904095
 20
36.00830444939855
 10
55.76094177916612
 20
35.98016405369937
 10
55.74561363092229
 20
35.96252231486542
 10
55.72267343592961
 20
35.9580650277114
 10
55.6956136309223
 20
35.96747077380112
 10
55.66855382591498
 20
35.9893076135557
 10
55.6456136309223
 20
36.02025108607396
 10
55.63028548267847
 20
36.05559032816829
 10
55.62490295280364
 20
36.08994526058082
 10
55.63028548267847
 20
36.11808565628001
 10
55.6456136309223
 20
36.13572739511396
 10
55.66855382591498
 20
36.14018468226797
 10
55.6956136309223
 20
36.13077893617827
  0
ARC
  5
448
330
1F
100
AcDbEntity
  8
0
  6
SLD-Solid
 62
     7
370
    25
100
AcDbCircle
 10
62.69374950068873
 20
31.85232560814795
 30
0.0
 40
0.263252258503068
100
AcDbArc
 50
31.5709960292848
 51
58.29802501523363
  0
LINE
  5
449
330
1F
100
AcDbEntity
  8
0
  6
SLD-Solid
 62
     7
370
    25
100
AcDbLine
 10
62.89682513506974
 20
31.97790643897932
 30
0.0
 11
62.91803833850534
 21
31.99015256065666
 31
0.0
  0
LINE
  5
44A
330
1F
100
AcDbEntity
  8
0
  6
SLD-Solid
 62
     7
370
    25
100
AcDbLine
 10
62.5975321644891
 20
31.80507211756641
 30
0.0
 11
62.6187453679247
 21
31.81731823924375
 31
0.0
  0
LINE
  5
44B
330
1F
100
AcDbEntity
  8
0
  6
SLD-Solid
 62
     7
370
    25
100
AcDbLine
 10
62.6187453679247
 20
31.81731823924375
 30
0.0
 11
62.91803833850534
 21
31.99015256065666
 31
0.0
  0
LINE
  5
44C
330
1F
100
AcDbEntity
  8
0
  6
SLD-Solid
 62
     7
370
    25
100
AcDbLine
 10
62.96467134152
 20
18.98614133592935
 30
0.0
 11
62.96467134152
 21
31.84665912312991
 31
0.0
  0
LINE
  5
44D
330
1F
100
AcDbEntity
  8
0
  6
SLD-Solid
 62
     7
370
    25
100
AcDbLine
 10
62.83208882004752
 20
32.07629878584187
 30
0.0
 11
54.61197248875392
 21
36.82167093581138
 31
0.0
  0
LINE
  5
44E
330
1F
100
AcDbEntity
  8
0
  6
SLD-Solid
 62
     7
370
    25
100
AcDbLine
 10
62.35528671749343
 20
31.67402499851901
 30
0.0
 11
62.35528671749343
 21
31.69852122287558
 31
0.0
  0
LINE
  5
44F
330
1F
100
AcDbEntity
  8
0
  6
SLD-Solid
 62
     7
370
    25
100
AcDbLine
 10
62.35528671749343
 20
31.67402499851901
 30
0.0
 11
62.5234367100596
 21
31.77109592301473
 31
0.0
  0
LINE
  5
450
330
1F
100
AcDbEntity
  8
0
  6
SLD-Solid
 62
     7
370
    25
100
AcDbLine
 10
62.31130467570363
 20
31.7237482335309
 30
0.0
 11
62.31130467570363
 21
31.72391151515327
 31
0.0
  0
LINE
  5
451
330
1F
100
AcDbEntity
  8
0
  6
SLD-Solid
 62
     7
370
    25
100
AcDbLine
 10
62.34876907275731
 20
31.67778755473692
 30
0.0
 11
62.35528671749343
 21
31.67402499851901
 31
0.0
  0
ARC
  5
452
330
1F
100
AcDbEntity
  8
0
  6
SLD-Solid
 62
     7
370
    25
100
AcDbCircle
 10
62.58990474749112
 20
31.72661274118632
 30
0.0
 40
0.0491847010530826
100
AcDbArc
 50
62.60967223652371
 51
117.39032776343
  0
ARC
  5
453
330
1F
100
AcDbEntity
  8
0
  6
SLD-Solid
 62
     7
370
    25
100
AcDbCircle
 10
62.59022877023639
 20
31.69616685845537
 30
0.0
 40
0.0970002158301806
100
AcDbArc
 50
68.71192188115666
 51
117.0845335843489
  0
ARC
  5
454
330
1F
100
AcDbEntity
  8
0
  6
SLD-Solid
 62
     7
370
    25
100
AcDbCircle
 10
62.58990474749113
 20
19.37643296141432
 30
0.0
 40
0.0491847010531139
100
AcDbArc
 50
62.60967223656126
 51
117.3903277634314
  0
ARC
  5
455
330
1F
100
AcDbEntity
  8
0
  6
SLD-Solid
 62
     7
370
    25
100
AcDbCircle
 10
62.49693721181381
 20
31.83701953041313
 30
0.0
 40
0.0491777538422924
100
AcDbArc
 50
302.6054783400377
 51
357.3945215143545
  0
ARC
  5
456
330
1F
100
AcDbEntity
  8
0
  6
SLD-Solid
 62
     7
370
    25
100
AcDbCircle
 10
62.47162401303866
 20
31.85181141160371
 30
0.0
 40
0.0959142620820331
100
AcDbArc
 50
302.6971217554318
 51
343.5516606269053
  0
ARC
  5
457
330
1F
100
AcDbEntity
  8
0
  6
SLD-Solid
 62
     7
370
    25
100
AcDbCircle
 10
54.80644385962899
 20
36.276646842505
 30
0.0
 40
0.0491777538422339
100
AcDbArc
 50
302.6054783399928
 51
357.394521514397
  0
LWPOLYLINE
  5
458
330
1F
100
AcDbEntity
  8
0
  6
SLD-Solid
 62
     7
370
    25
100
AcDbPolyline
 90
        9
 70
   128
 43
0.0
 10
61.76548613960687
 20
32.50087926968627
 10
61.75429427945085
 20
32.50057667414222
 10
61.72723447444354
 20
32.50998242023194
 10
61.70017466943623
 20
32.53181925998652
 10
61.67723447444354
 20
32.56276273250479
 10
61.66190632619972
 20
32.5981019745991
 10
61.65652379632488
 20
32.63245690701164
 10
61.66190632619972
 20
32.66059730271083
 10
61.66776960584548
 20
32.6701476114779
  0
ARC
  5
459
330
1F
100
AcDbEntity
  8
0
  6
SLD-Solid
 62
     7
370
    25
100
AcDbCircle
 10
59.95204635129766
 20
27.72011867009542
 30
0.0
 40
0.2560570701143947
100
AcDbArc
 50
234.6512399390971
 51
290.8186869367541
  0
LINE
  5
45A
330
1F
100
AcDbEntity
  8
0
  6
SLD-Solid
 62
     7
370
    25
100
AcDbLine
 10
59.80390402961613
 20
27.51126686693735
 30
0.0
 11
54.14704978012377
 21
30.77689931422819
 31
0.0
  0
ARC
  5
45B
330
1F
100
AcDbEntity
  8
0
  6
SLD-Solid
 62
     7
370
    25
100
AcDbCircle
 10
54.04137739906457
 20
33.86575822651634
 30
0.0
 40
0.2493324521187798
100
AcDbArc
 50
128.3462306672054
 51
186.1852756962547
  0
ARC
  5
45C
330
1F
100
AcDbEntity
  8
0
  6
SLD-Solid
 62
     7
370
    25
100
AcDbCircle
 10
53.12188598364992
 20
22.96886656855054
 30
0.0
 40
0.0311822352666426
100
AcDbArc
 50
185.6947992512309
 51
245.625341706401
  0
ARC
  5
45D
330
1F
100
AcDbEntity
  8
0
  6
SLD-Solid
 62
     7
370
    25
100
AcDbCircle
 10
53.11862250100324
 20
35.21470109228091
 30
0.0
 40
0.0270701496437166
100
AcDbArc
 50
110.7834207994304
 51
249.2165792005704
  0
LINE
  5
45E
330
1F
100
AcDbEntity
  8
0
  6
SLD-Solid
 62
     7
370
    25
100
AcDbLine
 10
53.12185512669191
 20
35.23259846559155
 30
0.0
 11
53.10901702534191
 21
35.24000974374741
 31
0.0
  0
LINE
  5
45F
330
1F
100
AcDbEntity
  8
0
  6
SLD-Solid
 62
     7
370
    25
100
AcDbLine
 10
53.13023022877751
 20
35.27838915240699
 30
0.0
 11
53.13023022877751
 21
35.2449998780954
 31
0.0
  0
LINE
  5
460
330
1F
100
AcDbEntity
  8
0
  6
SLD-Solid
 62
     7
370
    25
100
AcDbLine
 10
54.81031594087676
 20
36.24828198925237
 30
0.0
 11
54.48646781620409
 21
36.0613284462969
 31
0.0
  0
LINE
  5
461
330
1F
100
AcDbEntity
  8
0
  6
SLD-Solid
 62
     7
370
    25
100
AcDbLine
 10
53.88258000032618
 20
35.7127114307124
 30
0.0
 11
53.13023022877751
 21
35.27838915240699
 31
0.0
  0
LINE
  5
462
330
1F
100
AcDbEntity
  8
0
  6
SLD-Solid
 62
     7
370
    25
100
AcDbLine
 10
53.13023022877751
 20
35.27838915240699
 30
0.0
 11
53.10901702534191
 21
35.29063527408434
 31
0.0
  0
LINE
  5
463
330
1F
100
AcDbEntity
  8
0
  6
SLD-Solid
 62
     7
370
    25
100
AcDbLine
 10
54.78910273744115
 20
36.26052811092971
 30
0.0
 11
54.4652546127685
 21
36.07357456797423
 31
0.0
  0
LINE
  5
464
330
1F
100
AcDbEntity
  8
0
  6
SLD-Solid
 62
     7
370
    25
100
AcDbLine
 10
53.86136679689059
 20
35.72495755238975
 30
0.0
 11
53.10901702534191
 21
35.29063527408434
 31
0.0
  0
LINE
  5
465
330
1F
100
AcDbEntity
  8
0
  6
SLD-Solid
 62
     7
370
    25
100
AcDbLine
 10
53.10901702534191
 20
35.24000974374741
 30
0.0
 11
53.10901702534191
 21
35.29063527408434
 31
0.0
  0
LINE
  5
466
330
1F
100
AcDbEntity
  8
0
  6
SLD-Solid
 62
     7
370
    25
100
AcDbLine
 10
53.33811962244635
 20
35.3216587823336
 30
0.0
 11
53.33460138548512
 21
35.32352653567715
 31
0.0
  0
ARC
  5
467
330
1F
100
AcDbEntity
  8
0
  6
SLD-Solid
 62
     7
370
    25
100
AcDbCircle
 10
54.69033152098515
 20
36.08740760028446
 30
0.0
 40
0.0311845886259013
100
AcDbArc
 50
54.38242252477767
 51
114.3071190461013
  0
LINE
  5
468
330
1F
100
AcDbEntity
  8
0
  6
SLD-Solid
 62
     7
370
    25
100
AcDbLine
 10
53.79349638953049
 20
31.38927174812675
 30
0.0
 11
53.79349638953049
 21
33.838894183784
 31
0.0
  0
LWPOLYLINE
  5
469
330
1F
100
AcDbEntity
  8
0
  6
SLD-Solid
 62
     7
370
    25
100
AcDbPolyline
 90
        9
 70
   128
 43
0.0
 10
55.75507849952051
 20
35.97061374493268
 10
55.7438866393652
 20
35.97031114938873
 10
55.71682683435789
 20
35.97971689547846
 10
55.68976702935058
 20
36.00155373523304
 10
55.66682683435789
 20
36.03249720775131
 10
55.65149868611407
 20
36.06783644984563
 10
55.64611615623924
 20
36.10219138225816
 10
55.65149868611407
 20
36.13033177795735
 10
55.65736196575936
 20
36.13988208672386
  0
LINE
  5
46A
330
1F
100
AcDbEntity
  8
0
  6
SLD-Solid
 62
     7
370
    25
100
AcDbLine
 10
54.45817676384586
 20
36.07766052318527
 30
0.0
 11
54.45817676384586
 21
36.73286167238884
 31
0.0
  0
ARC
  5
46B
330
1F
100
AcDbEntity
  8
0
  6
SLD-Solid
 62
     7
370
    25
100
AcDbCircle
 10
54.55762421540205
 20
36.74069215823871
 30
0.0
 40
0.0997552611628411
100
AcDbArc
 50
132.8286600732159
 51
184.5021768110448
  0
LINE
  5
46C
330
1F
100
AcDbEntity
  8
0
  6
SLD-Solid
 62
     7
370
    25
100
AcDbLine
 10
54.4898097668605
 20
36.81385166000486
 30
0.0
 11
54.78910273744115
 21
36.29546103013238
 31
0.0
  0
LINE
  5
46D
330
1F
100
AcDbEntity
  8
0
  6
SLD-Solid
 62
     7
370
    25
100
AcDbLine
 10
54.78910273744115
 20
36.28665317050803
 30
0.0
 11
54.78910273744115
 21
36.29546103013238
 31
0.0
  0
LINE
  5
46E
330
1F
100
AcDbEntity
  8
0
  6
SLD-Solid
 62
     7
370
    25
100
AcDbLine
 10
54.78910273744115
 20
36.29546103013238
 30
0.0
 11
54.80410517556115
 21
36.30412175331038
 31
0.0
  0
LINE
  5
46F
330
1F
100
AcDbEntity
  8
0
  6
SLD-Solid
 62
     7
370
    25
100
AcDbLine
 10
54.4898097668605
 20
36.81385166000486
 30
0.0
 11
54.50481098582143
 21
36.82251167937731
 31
0.0
  0
LINE
  5
470
330
1F
100
AcDbEntity
  8
0
  6
SLD-Solid
 62
     7
370
    25
100
AcDbLine
 10
54.66479336530856
 20
36.11365231061091
 30
0.0
 11
54.66479336530855
 21
36.13814853496748
 31
0.0
  0
LINE
  5
471
330
1F
100
AcDbEntity
  8
0
  6
SLD-Solid
 62
     7
370
    25
100
AcDbLine
 10
54.66479336530856
 20
36.11365231061091
 30
0.0
 11
54.66926004164455
 21
36.11107375324828
 31
0.0
  0
LINE
  5
472
330
1F
100
AcDbEntity
  8
0
  6
SLD-Solid
 62
     7
370
    25
100
AcDbLine
 10
54.50480976686049
 20
36.82251379067959
 30
0.0
 11
54.52602297029608
 21
36.83475991235693
 31
0.0
  0
ARC
  5
473
330
1F
100
AcDbEntity
  8
0
  6
SLD-Solid
 62
     7
370
    25
100
AcDbCircle
 10
54.55548462030976
 20
36.73948081401925
 30
0.0
 40
0.0997301128123788
100
AcDbArc
 50
55.49992294258291
 51
107.1823513288369
  0
ARC
  5
474
330
1F
100
AcDbEntity
  8
0
  6
SLD-Solid
 62
     7
370
    25
100
AcDbCircle
 10
54.80071046521541
 20
36.27359064071887
 30
0.0
 40
0.0270701496437241
100
AcDbArc
 50
290.7834207994734
 51
69.21657920055554
  0
ARC
  5
475
330
1F
100
AcDbEntity
  8
0
  6
SLD-Solid
 62
     7
370
    25
100
AcDbCircle
 10
54.7841450725837
 20
36.27359064071887
 30
0.0
 40
0.013971690138687
100
AcDbArc
 50
290.7834207994065
 51
69.21657920059427
  0
LINE
  5
476
330
1F
100
AcDbEntity
  8
0
  6
SLD-Solid
 62
     7
370
    25
100
AcDbLine
 10
54.81031594087674
 20
36.29889929218538
 30
0.0
 11
54.81031594087674
 21
36.30053635481103
 31
0.0
  0
ARC
  5
477
330
1F
100
AcDbEntity
  8
0
  6
SLD-Solid
 62
     7
370
    25
100
AcDbCircle
 10
54.55786023947792
 20
31.42232913408311
 30
0.0
 40
0.7650783527670378
100
AcDbArc
 50
182.4763980378025
 51
237.5236021078266
  0
LINE
  5
478
330
1F
100
AcDbEntity
  8
0
  6
SLD-Solid
 62
     7
370
    25
100
AcDbLine
 10
60.86597841495833
 20
18.46245700096479
 30
0.0
 11
60.88719161839393
 21
18.45021087928745
 31
0.0
  0
LINE
  5
479
330
1F
100
AcDbEntity
  8
0
  6
SLD-Solid
 62
     7
370
    25
100
AcDbLine
 10
60.86597841495833
 20
18.49282200610468
 30
0.0
 11
60.86597841495833
 21
18.46245700096479
 31
0.0
  0
ARC
  5
47A
330
1F
100
AcDbEntity
  8
0
  6
SLD-Solid
 62
     7
370
    25
100
AcDbCircle
 10
60.82623698830724
 20
18.49650092341653
 30
0.0
 40
0.027075970240572
100
AcDbArc
 50
170.7859630095513
 51
309.2032852357098
  0
ARC
  5
47B
330
1F
100
AcDbEntity
  8
0
  6
SLD-Solid
 62
     7
370
    25
100
AcDbCircle
 10
53.13939714330178
 20
22.93711034400672
 30
0.0
 40
0.0305646316731897
100
AcDbArc
 50
173.7011524960623
 51
234.9866671105244
  0
LINE
  5
47C
330
1F
100
AcDbEntity
  8
0
  6
SLD-Solid
 62
     7
370
    25
100
AcDbLine
 10
60.84335099796036
 20
18.47551953075396
 30
0.0
 11
60.86597841495833
 21
18.48858206054312
 31
0.0
  0
LINE
  5
47D
330
1F
100
AcDbEntity
  8
0
  6
SLD-Solid
 62
     7
370
    25
100
AcDbLine
 10
62.56727365260264
 20
19.42010159293182
 30
0.0
 11
62.59753216448911
 21
19.40263372583377
 31
0.0
  0
LINE
  5
47E
330
1F
100
AcDbEntity
  8
0
  6
SLD-Solid
 62
     7
370
    25
100
AcDbLine
 10
62.59753216448911
 20
19.40263372583377
 30
0.0
 11
62.89682513506976
 21
18.88424309596127
 31
0.0
  0
ARC
  5
47F
330
1F
100
AcDbEntity
  8
0
  6
SLD-Solid
 62
     7
370
    25
100
AcDbCircle
 10
62.86736348505609
 20
18.97952219429903
 30
0.0
 40
0.0997301128124558
100
AcDbArc
 50
235.4999229426114
 51
287.1823513288193
  0
LINE
  5
480
330
1F
100
AcDbEntity
  8
0
  6
SLD-Solid
 62
     7
370
    25
100
AcDbLine
 10
62.81087561661193
 20
18.89733207250682
 30
0.0
 11
62.23629388985835
 21
19.22903104295055
 31
0.0
  0
LINE
  5
481
330
1F
100
AcDbEntity
  8
0
  6
SLD-Solid
 62
     7
370
    25
100
AcDbLine
 10
62.89682513506976
 20
18.88424309596127
 30
0.0
 11
62.91803833850535
 21
18.89648921763861
 31
0.0
  0
LINE
  5
482
330
1F
100
AcDbEntity
  8
0
  6
SLD-Solid
 62
     7
370
    25
100
AcDbLine
 10
62.59753216448911
 20
19.40263372583377
 30
0.0
 11
62.61253338345004
 21
19.41129374520622
 31
0.0
  0
LINE
  5
483
330
1F
100
AcDbEntity
  8
0
  6
SLD-Solid
 62
     7
370
    25
100
AcDbLine
 10
62.91803833850535
 20
18.89648921763861
 30
0.0
 11
62.91803711954442
 21
18.89649132894088
 31
0.0
  0
LINE
  5
484
330
1F
100
AcDbEntity
  8
0
  6
SLD-Solid
 62
     7
370
    25
100
AcDbLine
 10
62.91182513506975
 20
18.89290522663599
 30
0.0
 11
62.93303833850535
 21
18.90515134831332
 31
0.0
  0
ARC
  5
485
330
1F
100
AcDbEntity
  8
0
  6
SLD-Solid
 62
     7
370
    25
100
AcDbCircle
 10
62.86522388996379
 20
18.97831085007948
 30
0.0
 40
0.0997552611628498
100
AcDbArc
 50
312.8286600732169
 51
4.502176811045742
  0
LINE
  5
486
330
1F
100
AcDbEntity
  8
0
  6
SLD-Solid
 62
     7
370
    25
100
AcDbLine
 10
62.6125321644891
 20
19.41846665350716
 30
0.0
 11
62.60323036371696
 21
19.42383646879319
 31
0.0
  0
LINE
  5
487
330
1F
100
AcDbEntity
  8
0
  6
SLD-Solid
 62
     7
370
    25
100
AcDbLine
 10
63.61733090055517
 20
32.31358849731588
 30
0.0
 11
62.94904317042785
 21
31.92779420257583
 31
0.0
  0
LINE
  5
488
330
1F
100
AcDbEntity
  8
0
  6
SLD-Solid
 62
     7
370
    25
100
AcDbLine
 10
63.61733090055517
 20
32.26296296697895
 30
0.0
 11
63.61733090055517
 21
32.31358849731588
 31
0.0
  0
LINE
  5
489
330
1F
100
AcDbEntity
  8
0
  6
SLD-Solid
 62
     7
370
    25
100
AcDbLine
 10
63.61733090055519
 20
20.23694988952563
 30
0.0
 11
63.61733090055519
 21
20.28757541986254
 31
0.0
  0
LINE
  5
48A
330
1F
100
AcDbEntity
  8
0
  6
SLD-Solid
 62
     7
370
    25
100
AcDbLine
 10
62.96467134152
 20
19.86017754591946
 30
0.0
 11
63.61733090055519
 21
20.23694988952563
 31
0.0
  0
LINE
  5
48B
330
1F
100
AcDbEntity
  8
0
  6
SLD-Solid
 62
     7
370
    25
100
AcDbLine
 10
63.59611769711958
 20
32.32583461899321
 30
0.0
 11
63.61733090055517
 21
32.31358849731588
 31
0.0
  0
LINE
  5
48C
330
1F
100
AcDbEntity
  8
0
  6
SLD-Solid
 62
     7
370
    25
100
AcDbLine
 10
63.59611769711958
 20
32.32583461899321
 30
0.0
 11
62.94099635096154
 21
31.94764111593124
 31
0.0
  0
ARC
  5
48D
330
1F
100
AcDbEntity
  8
0
  6
SLD-Solid
 62
     7
370
    25
100
AcDbCircle
 10
63.33641584935174
 20
32.2018498647746
 30
0.0
 40
0.0959138242863711
100
AcDbArc
 50
16.45253536570591
 51
57.3028828057778
  0
LINE
  5
48E
330
1F
100
AcDbEntity
  8
0
  6
SLD-Solid
 62
     7
370
    25
100
AcDbLine
 10
55.87394596113754
 20
36.6204678504254
 30
0.0
 11
55.87380453978131
 21
36.62054949123659
 31
0.0
  0
LINE
  5
48F
330
1F
100
AcDbEntity
  8
0
  6
SLD-Solid
 62
     7
370
    25
100
AcDbLine
 10
55.87408738249378
 20
36.62054949123658
 30
0.0
 11
55.87394596113754
 21
36.6204678504254
 31
0.0
  0
LINE
  5
490
330
1F
100
AcDbEntity
  8
0
  6
SLD-Solid
 62
     7
370
    25
100
AcDbLine
 10
55.83010534070397
 20
36.64593978351427
 30
0.0
 11
55.87408738249378
 21
36.62054949123658
 31
0.0
  0
LINE
  5
491
330
1F
100
AcDbEntity
  8
0
  6
SLD-Solid
 62
     7
370
    25
100
AcDbLine
 10
55.83010534070397
 20
36.64593978351427
 30
0.0
 11
55.97138527558505
 21
36.72749895388536
 31
0.0
  0
LINE
  5
492
330
1F
100
AcDbEntity
  8
0
  6
SLD-Solid
 62
     7
370
    25
100
AcDbLine
 10
63.57349028012162
 20
32.33889714878237
 30
0.0
 11
63.43221034524055
 21
32.25733797841129
 31
0.0
  0
LINE
  5
493
330
1F
100
AcDbEntity
  8
0
  6
SLD-Solid
 62
     7
370
    25
100
AcDbLine
 10
63.38822830345074
 20
32.28272827068897
 30
0.0
 11
63.43221034524055
 21
32.25733797841129
 31
0.0
  0
LINE
  5
494
330
1F
100
AcDbEntity
  8
0
  6
SLD-Solid
 62
     7
370
    25
100
AcDbLine
 10
63.3880868820945
 20
32.2826466298778
 30
0.0
 11
63.38822830345074
 21
32.28272827068897
 31
0.0
  0
LINE
  5
495
330
1F
100
AcDbEntity
  8
0
  6
SLD-Solid
 62
     7
370
    25
100
AcDbLine
 10
63.38822830345074
 20
32.28256498906661
 30
0.0
 11
63.3880868820945
 21
32.2826466298778
 31
0.0
  0
LINE
  5
496
330
1F
100
AcDbEntity
  8
0
  6
SLD-Solid
 62
     7
370
    25
100
AcDbLine
 10
63.38822830345074
 20
32.28256498906661
 30
0.0
 11
63.38822830345074
 21
32.28272827068897
 31
0.0
  0
LINE
  5
497
330
1F
100
AcDbEntity
  8
0
  6
SLD-Solid
 62
     7
370
    25
100
AcDbLine
 10
63.43221034524054
 20
32.23284175405472
 30
0.0
 11
63.43221034524055
 21
32.25733797841129
 31
0.0
  0
LINE
  5
498
330
1F
100
AcDbEntity
  8
0
  6
SLD-Solid
 62
     7
370
    25
100
AcDbLine
 10
63.42569270050436
 20
32.23660431027265
 30
0.0
 11
63.43221034524054
 21
32.23284175405472
 31
0.0
  0
LINE
  5
499
330
1F
100
AcDbEntity
  8
0
  6
SLD-Solid
 62
     7
370
    25
100
AcDbLine
 10
63.43221034524054
 20
32.23284175405472
 30
0.0
 11
63.57349028012162
 21
32.31440092442581
 31
0.0
  0
ARC
  5
49A
330
1F
100
AcDbEntity
  8
0
  6
SLD-Solid
 62
     7
370
    25
100
AcDbCircle
 10
63.60772542489383
 20
32.28827161844546
 30
0.0
 40
0.0270701496437308
100
AcDbArc
 50
290.783420799468
 51
69.2165792004993
  0
ARC
  5
49B
330
1F
100
AcDbEntity
  8
0
  6
SLD-Solid
 62
     7
370
    25
100
AcDbCircle
 10
63.60446194224725
 20
20.31597826669676
 30
0.0
 40
0.0311822352665663
100
AcDbArc
 50
294.3746582935486
 51
354.3052007488617
  0
ARC
  5
49C
330
1F
100
AcDbEntity
  8
0
  6
SLD-Solid
 62
     7
370
    25
100
AcDbCircle
 10
55.98954631898578
 20
36.70214831148002
 30
0.0
 40
0.0311845886258972
100
AcDbArc
 50
65.69288095386948
 51
125.6175774752117
  0
ARC
  5
49D
330
1F
100
AcDbEntity
  8
0
  6
SLD-Solid
 62
     7
370
    25
100
AcDbCircle
 10
63.59060428977475
 20
32.31791575611981
 30
0.0
 40
0.0270759702405654
100
AcDbArc
 50
350.7859630095349
 51
129.2032852357397
  0
LWPOLYLINE
  5
49E
330
1F
100
AcDbEntity
  8
0
  6
SLD-Solid
 62
     7
370
    25
100
AcDbPolyline
 90
        3
 70
   128
 43
0.0
 10
63.57349028012162
 20
32.31440092442581
 10
63.57790467019014
 20
32.31644723028106
 10
63.58135437397636
 20
32.31731193395309
  0
LINE
  5
49F
330
1F
100
AcDbEntity
  8
0
  6
SLD-Solid
 62
     7
370
    25
100
AcDbLine
 10
55.35061563149148
 20
36.39526132589275
 30
0.0
 11
55.94875785858708
 21
36.74056148367452
 31
0.0
  0
LINE
  5
4A0
330
1F
100
AcDbEntity
  8
0
  6
SLD-Solid
 62
     7
370
    25
100
AcDbLine
 10
55.94875785858708
 20
36.7144364240962
 30
0.0
 11
55.94875785858708
 21
36.74056148367452
 31
0.0
  0
ARC
  5
4A1
330
1F
100
AcDbEntity
  8
0
  6
SLD-Solid
 62
     7
370
    25
100
AcDbCircle
 10
55.85564349638059
 20
36.5951988488312
 30
0.0
 40
0.0311845886259476
100
AcDbArc
 50
54.38242252485971
 51
114.3071190460875
  0
LINE
  5
4A2
330
1F
100
AcDbEntity
  8
0
  6
SLD-Solid
 62
     7
370
    25
100
AcDbLine
 10
55.94875785858708
 20
36.74056148367452
 30
0.0
 11
55.92754465515149
 21
36.75280760535186
 31
0.0
  0
LINE
  5
4A3
330
1F
100
AcDbEntity
  8
0
  6
SLD-Solid
 62
     7
370
    25
100
AcDbLine
 10
55.92754465515149
 20
36.75280760535186
 30
0.0
 11
55.32940242805589
 21
36.40750744757009
 31
0.0
  0
LINE
  5
4A4
330
1F
100
AcDbEntity
  8
0
  6
SLD-Solid
 62
     7
370
    25
100
AcDbLine
 10
55.83010534070397
 20
36.6214435591577
 30
0.0
 11
55.83010534070397
 21
36.64593978351427
 31
0.0
  0
LINE
  5
4A5
330
1F
100
AcDbEntity
  8
0
  6
SLD-Solid
 62
     7
370
    25
100
AcDbLine
 10
55.83010534070397
 20
36.6214435591577
 30
0.0
 11
55.83457201703997
 21
36.61886500179506
 31
0.0
  0
SPLINE
  5
4A6
330
1F
100
AcDbEntity
  8
0
  6
SLD-Solid
 62
     8
370
    25
100
AcDbSpline
210
0.0
220
0.0
230
1.0
 70
    12
 71
     3
 72
    25
 73
    21
 74
     0
 42
0.00000001
 43
0.00000001
 40
0.0
 40
0.0
 40
0.0
 40
0.0
 40
0.0104495417352779
 40
0.0237993564711929
 40
0.0291336462947877
 40
0.0613124810129485
 40
0.093102236576948
 40
0.1564490224922212
 40
0.2196450884863312
 40
0.2828835806386365
 40
0.4089115627720368
 40
0.5348684746472595
 40
0.6608619235290405
 40
0.7870727186151439
 40
0.850222350663251
 40
0.9137198425037981
 40
0.9456006828513985
 40
0.973516946050291
 40
0.9889841767795755
 40
1.0
 40
1.0
 40
1.0
 40
1.0
 10
60.46794181706296
 20
19.24398378342664
 30
0.0
 41
1.0
 10
60.46742412338855
 20
19.25035419116229
 30
0.0
 41
1.0
 10
60.46624505002706
 20
19.26486311494176
 30
0.0
 41
1.0
 10
60.45901471923836
 20
19.28417226512066
 30
0.0
 41
1.0
 10
60.44384204082832
 20
19.31658872113132
 30
0.0
 41
1.0
 10
60.41628617857408
 20
19.35852417820148
 30
0.0
 41
1.0
 10
60.36026100096448
 20
19.42715671345829
 30
0.0
 41
1.0
 10
60.28501081199719
 20
19.50308333332711
 30
0.0
 41
1.0
 10
60.19240901192502
 20
19.5846520770769
 30
0.0
 41
1.0
 10
60.06717983451059
 20
19.68354028871895
 30
0.0
 41
1.0
 10
59.90903439902853
 20
19.79350620892028
 30
0.0
 41
1.0
 10
59.718695604914
 20
19.90728450257533
 30
0.0
 41
1.0
 10
59.52881872963182
 20
20.00305958629785
 30
0.0
 41
1.0
 10
59.3720100250208
 20
20.06513354968032
 30
0.0
 41
1.0
 10
59.24976370201756
 20
20.09722778607705
 30
0.0
 41
1.0
 10
59.17582065337422
 20
20.10609975122073
 30
0.0
 41
1.0
 10
59.12329000170985
 20
20.09938795647564
 30
0.0
 41
1.0
 10
59.09582391013399
 20
20.08558581658374
 30
0.0
 41
1.0
 10
59.08194289816642
 20
20.065898055273
 30
0.0
 41
1.0
 10
59.08060090016835
 20
20.05128097893123
 30
0.0
 41
1.0
 10
59.08004268612185
 20
20.04520089733315
 30
0.0
 41
1.0
  0
SPLINE
  5
4A7
330
1F
100
AcDbEntity
  8
0
  6
SLD-Solid
 62
     8
370
    25
100
AcDbSpline
210
0.0
220
0.0
230
1.0
 70
    12
 71
     3
 72
    13
 73
     9
 74
     0
 42
0.00000001
 43
0.00000001
 40
0.0
 40
0.0
 40
0.0
 40
0.0
 40
0.2973527587674348
 40
0.5962491910482893
 40
0.7462912808691835
 40
0.8765499995607816
 40
0.946787434722116
 40
1.0
 40
1.0
 40
1.0
 40
1.0
 10
60.176071886872
 20
19.22332170452372
 30
0.0
 41
1.0
 10
60.20973594939855
 20
19.213178621634
 30
0.0
 41
1.0
 10
60.27723883765846
 20
19.1928397991768
 30
0.0
 41
1.0
 10
60.35904188075994
 20
19.18174692673783
 30
0.0
 41
1.0
 10
60.41796176442338
 20
19.18733451768513
 30
0.0
 41
1.0
 10
60.44907334493878
 20
19.20116821496174
 30
0.0
 41
1.0
 10
60.46552030428492
 20
19.22159039728133
 30
0.0
 41
1.0
 10
60.46721243273499
 20
19.23723866729401
 30
0.0
 41
1.0
 10
60.46794181706296
 20
19.24398378342664
 30
0.0
 41
1.0
  0
LINE
  5
4A8
330
1F
100
AcDbEntity
  8
0
  6
SLD-Solid
 62
     8
370
    25
100
AcDbLine
 10
53.75389840978424
 20
35.6629173730756
 30
0.0
 11
53.75389840978424
 21
35.78388532146423
 31
0.0
  0
LINE
  5
4A9
330
1F
100
AcDbEntity
  8
0
  6
SLD-Solid
 62
     8
370
    25
100
AcDbLine
 10
53.8359227964018
 20
35.73652595437486
 30
0.0
 11
53.8359227964018
 21
35.71026904356128
 31
0.0
  0
LINE
  5
4AA
330
1F
100
AcDbEntity
  8
0
  6
SLD-Solid
 62
     8
370
    25
100
AcDbLine
 10
61.60873607241874
 20
18.86109584843502
 30
0.0
 11
61.60383922656003
 21
18.86392273737723
 31
0.0
  0
LINE
  5
4AB
330
1F
100
AcDbEntity
  8
0
  6
SLD-Solid
 62
     8
370
    25
100
AcDbLine
 10
60.9409317337641
 20
30.9326487731747
 30
0.0
 11
61.55186014907544
 21
31.28533024029782
 31
0.0
  0
LINE
  5
4AC
330
1F
100
AcDbEntity
  8
0
  6
SLD-Solid
 62
     8
370
    25
100
AcDbLine
 10
62.15574796495335
 20
31.63394725588232
 30
0.0
 11
62.31130467570363
 21
31.7237482335309
 31
0.0
  0
LINE
  5
4AD
330
1F
100
AcDbEntity
  8
0
  6
SLD-Solid
 62
     8
370
    25
100
AcDbLine
 10
60.9409317337641
 20
30.93248549155233
 30
0.0
 11
60.9409317337641
 21
30.9326487731747
 31
0.0
  0
LINE
  5
4AE
330
1F
100
AcDbEntity
  8
0
  6
SLD-Solid
 62
     8
370
    25
100
AcDbLine
 10
53.33811962244635
 20
35.32149550071123
 30
0.0
 11
53.33811962244635
 21
35.3216587823336
 31
0.0
  0
LINE
  5
4AF
330
1F
100
AcDbEntity
  8
0
  6
SLD-Solid
 62
     8
370
    25
100
AcDbLine
 10
54.78910273744115
 20
36.28665317050803
 30
0.0
 11
54.78910273744116
 21
36.2605281109297
 31
0.0
  0
LINE
  5
4B0
330
1F
100
AcDbEntity
  8
0
  6
SLD-Solid
 62
     8
370
    25
100
AcDbLine
 10
60.84335099796036
 20
18.49035322294158
 30
0.0
 11
60.84335099796036
 21
18.47551953075396
 31
0.0
  0
LINE
  5
4B1
330
1F
100
AcDbEntity
  8
0
  6
SLD-Solid
 62
     8
370
    25
100
AcDbLine
 10
63.57489736777109
 20
32.31358438361392
 30
0.0
 11
63.57348660223109
 21
32.3143988012248
 31
0.0
  0
INSERT
  5
4B7
330
1F
100
AcDbEntity
  8
NOTES
100
AcDbBlockReference
  2
SW_NOTE_0_2
 10
62.41636293844693
 20
17.54374811153621
 30
0.0
  0
LINE
  5
4B8
330
1F
100
AcDbEntity
  8
0
  6
SLD-Solid
 62
     7
370
    25
100
AcDbLine
 10
36.10377654169012
 20
19.40296282945366
 30
0.0
 11
36.10677654169012
 21
19.40296282945366
 31
0.0
  0
LINE
  5
4B9
330
1F
100
AcDbEntity
  8
0
  6
SLD-Solid
 62
     7
370
    25
100
AcDbLine
 10
36.10677654169012
 20
19.58696282945366
 30
0.0
 11
36.10377654169012
 21
19.58696282945366
 31
0.0
  0
LINE
  5
4BA
330
1F
100
AcDbEntity
  8
0
  6
SLD-Solid
 62
     7
370
    25
100
AcDbLine
 10
47.04377654169013
 20
19.58696282945369
 30
0.0
 11
47.01177654169015
 21
19.58696282945369
 31
0.0
  0
LINE
  5
4BB
330
1F
100
AcDbEntity
  8
0
  6
SLD-Solid
 62
     7
370
    25
100
AcDbLine
 10
47.01177654169015
 20
19.40296282945369
 30
0.0
 11
47.04377654169013
 21
19.40296282945369
 31
0.0
  0
LINE
  5
4BC
330
1F
100
AcDbEntity
  8
0
  6
SLD-Solid
 62
     7
370
    25
100
AcDbLine
 10
47.10377654169014
 20
18.99496282945368
 30
0.0
 11
47.10377654169014
 21
18.97830167910676
 31
0.0
  0
LINE
  5
4BD
330
1F
100
AcDbEntity
  8
0
  6
SLD-Solid
 62
     7
370
    25
100
AcDbLine
 10
47.53177654169009
 20
18.55146282945374
 30
0.0
 11
47.53177654169009
 21
18.56420040938708
 31
0.0
  0
LINE
  5
4BE
330
1F
100
AcDbEntity
  8
0
  6
SLD-Solid
 62
     7
370
    25
100
AcDbLine
 10
47.5607765416901
 20
18.55146282945374
 30
0.0
 11
47.5607765416901
 21
18.61386253790904
 31
0.0
  0
LINE
  5
4BF
330
1F
100
AcDbEntity
  8
0
  6
SLD-Solid
 62
     7
370
    25
100
AcDbLine
 10
47.56077654168998
 20
34.50106312099859
 30
0.0
 11
47.56077654168998
 21
34.54896282945374
 31
0.0
  0
ARC
  5
4C0
330
1F
100
AcDbEntity
  8
0
  6
SLD-Solid
 62
     7
370
    25
100
AcDbCircle
 10
47.50277654168998
 20
34.54896282945374
 30
0.0
 40
0.0289999999999974
100
AcDbArc
 50
3.625465875234137
 51
86.37453536448513
  0
ARC
  5
4C1
330
1F
100
AcDbEntity
  8
0
  6
SLD-Solid
 62
     7
370
    25
100
AcDbCircle
 10
47.50277654168998
 20
34.54896282945374
 30
0.0
 40
0.0579999999999998
100
AcDbArc
 50
0.0
 51
90.0
  0
ARC
  5
4C2
330
1F
100
AcDbEntity
  8
0
  6
SLD-Solid
 62
     7
370
    25
100
AcDbCircle
 10
47.5027765416901
 20
18.55146282945374
 30
0.0
 40
0.0579999999999998
100
AcDbArc
 50
270.0000000000008
 51
0.0
  0
ARC
  5
4C3
330
1F
100
AcDbEntity
  8
0
  6
SLD-Solid
 62
     7
370
    25
100
AcDbCircle
 10
47.5027765416901
 20
18.55146282945374
 30
0.0
 40
0.0289999999999999
100
AcDbArc
 50
270.0000000000008
 51
0.0
  0
LINE
  5
4C4
330
1F
100
AcDbEntity
  8
0
  6
SLD-Solid
 62
     7
370
    25
100
AcDbLine
 10
47.50277654168998
 20
34.60696282945374
 30
0.0
 11
47.45487683323455
 21
34.60696282945374
 31
0.0
  0
LINE
  5
4C5
330
1F
100
AcDbEntity
  8
0
  6
SLD-Solid
 62
     7
370
    25
100
AcDbLine
 10
35.69267625014562
 20
34.6069628294537
 30
0.0
 11
35.66477654168998
 21
34.6069628294537
 31
0.0
  0
LINE
  5
4C6
330
1F
100
AcDbEntity
  8
0
  6
SLD-Solid
 62
     7
370
    25
100
AcDbLine
 10
35.64677654169009
 20
18.49346282945362
 30
0.0
 11
35.64677654169009
 21
18.52246282945362
 31
0.0
  0
LINE
  5
4C7
330
1F
100
AcDbEntity
  8
0
  6
SLD-Solid
 62
     7
370
    25
100
AcDbLine
 10
47.5027765416901
 20
18.49346282945374
 30
0.0
 11
35.64677654169009
 21
18.49346282945362
 31
0.0
  0
ARC
  5
4C8
330
1F
100
AcDbEntity
  8
0
  6
SLD-Solid
 62
     7
370
    25
100
AcDbCircle
 10
35.66477654168998
 20
34.5489628294537
 30
0.0
 40
0.0580000000000069
100
AcDbArc
 50
90.0
 51
180.0
  0
LINE
  5
4C9
330
1F
100
AcDbEntity
  8
0
  6
SLD-Solid
 62
     7
370
    25
100
AcDbLine
 10
35.60677654168997
 20
18.5224628294537
 30
0.0
 11
35.63577654168998
 21
18.5224628294537
 31
0.0
  0
LINE
  5
4CA
330
1F
100
AcDbEntity
  8
0
  6
SLD-Solid
 62
     7
370
    25
100
AcDbLine
 10
35.60677654168997
 20
18.5224628294537
 30
0.0
 11
35.60677654168997
 21
18.57622724219612
 31
0.0
  0
LINE
  5
4CB
330
1F
100
AcDbEntity
  8
0
  6
SLD-Solid
 62
     7
370
    25
100
AcDbLine
 10
35.60677654168997
 20
34.53869841671123
 30
0.0
 11
35.60677654168997
 21
34.5489628294537
 31
0.0
  0
SPLINE
  5
4CC
330
1F
100
AcDbEntity
  8
0
  6
SLD-Solid
 62
     7
370
    25
100
AcDbSpline
210
0.0
220
0.0
230
1.0
 70
    12
 71
     3
 72
     9
 73
     5
 74
     0
 42
0.00000001
 43
0.00000001
 40
0.0
 40
0.0
 40
0.0
 40
0.0
 40
0.6116114587906029
 40
1.0
 40
1.0
 40
1.0
 40
1.0
 10
47.5027765416901
 20
18.52246282945368
 30
0.0
 41
1.0
 10
47.50019621627652
 20
18.52288764979082
 30
0.0
 41
1.0
 10
47.49597731982441
 20
18.5235822416449
 30
0.0
 41
1.0
 10
47.49176492497709
 20
18.5281435693159
 30
0.0
 41
1.0
 10
47.49012887908735
 20
18.52991513671601
 30
0.0
 41
1.0
  0
LINE
  5
4CD
330
1F
100
AcDbEntity
  8
0
  6
SLD-Solid
 62
     7
370
    25
100
AcDbLine
 10
35.6627009326402
 20
18.52551760587556
 30
0.0
 11
35.64677654169009
 21
18.52246282945368
 31
0.0
  0
SPLINE
  5
4CE
330
1F
100
AcDbEntity
  8
0
  6
SLD-Solid
 62
     7
370
    25
100
AcDbSpline
210
0.0
220
0.0
230
1.0
 70
    12
 71
     3
 72
    10
 73
     6
 74
     0
 42
0.00000001
 43
0.00000001
 40
0.0
 40
0.0
 40
0.0
 40
0.0
 40
0.343881020946559
 40
0.6889221135688146
 40
0.9999999999999999
 40
0.9999999999999999
 40
0.9999999999999999
 40
0.9999999999999999
 10
35.63577654168998
 20
18.5224628294537
 30
0.0
 41
1.0
 10
35.63661106597006
 20
18.52897932846757
 30
0.0
 41
1.0
 10
35.63828292977132
 20
18.54203430969726
 30
0.0
 41
1.0
 10
35.65019069638855
 20
18.56099212145571
 30
0.0
 41
1.0
 10
35.66008532101909
 20
18.57341280715223
 30
0.0
 41
1.0
 10
35.66477654168998
 20
18.57930167910663
 30
0.0
 41
1.0
  0
SPLINE
  5
4CF
330
1F
100
AcDbEntity
  8
0
  6
SLD-Solid
 62
     7
370
    25
100
AcDbSpline
210
0.0
220
0.0
230
1.0
 70
    12
 71
     3
 72
    11
 73
     7
 74
     0
 42
0.00000001
 43
0.00000001
 40
0.0
 40
0.0
 40
0.0
 40
0.0
 40
0.2776970454967684
 40
0.5297789385159063
 40
0.7817948539847294
 40
1.0
 40
1.0
 40
1.0
 40
1.0
 10
47.50277654169003
 20
18.57930167910676
 30
0.0
 41
1.0
 10
47.50700215505714
 20
18.57672136061925
 30
0.0
 41
1.0
 10
47.51506360547769
 20
18.57179873572456
 30
0.0
 41
1.0
 10
47.52474311070964
 20
18.56454736809222
 30
0.0
 41
1.0
 10
47.53072653863389
 20
18.55784131675931
 30
0.0
 41
1.0
 10
47.53144373031873
 20
18.55348456938564
 30
0.0
 41
1.0
 10
47.53177654169009
 20
18.55146282945374
 30
0.0
 41
1.0
  0
SPLINE
  5
4D0
330
1F
100
AcDbEntity
  8
0
  6
SLD-Solid
 62
     7
370
    25
100
AcDbSpline
210
0.0
220
0.0
230
1.0
 70
    12
 71
     3
 72
    11
 73
     7
 74
     0
 42
0.00000001
 43
0.00000001
 40
0.0
 40
0.0
 40
0.0
 40
0.0
 40
0.2500000000000014
 40
0.5000000000000028
 40
0.7499999999999941
 40
1.0
 40
1.0
 40
1.0
 40
1.0
 10
47.16177654169014
 20
18.92030167910676
 30
0.0
 41
1.0
 10
47.15417639314938
 20
18.92513501244009
 30
0.0
 41
1.0
 10
47.13897609606786
 20
18.93480167910676
 30
0.0
 41
1.0
 10
47.11980448971622
 20
18.94930167910675
 30
0.0
 41
1.0
 10
47.10639203535511
 20
18.96380167910675
 30
0.0
 41
1.0
 10
47.10464837291177
 20
18.97346834577341
 30
0.0
 41
1.0
 10
47.10377654169009
 20
18.97830167910675
 30
0.0
 41
1.0
  0
LINE
  5
4D1
330
1F
100
AcDbEntity
  8
0
  6
SLD-Solid
 62
     7
370
    25
100
AcDbLine
 10
47.50277654169003
 20
18.57930167910676
 30
0.0
 11
47.49347856135246
 21
18.56330119517119
 31
0.0
  0
LINE
  5
4D2
330
1F
100
AcDbEntity
  8
0
  6
SLD-Solid
 62
     7
370
    25
100
AcDbLine
 10
47.49347856135246
 20
18.56330119517119
 30
0.0
 11
47.17091862314545
 21
18.88586113337825
 31
0.0
  0
LINE
  5
4D3
330
1F
100
AcDbEntity
  8
0
  6
SLD-Solid
 62
     7
370
    25
100
AcDbLine
 10
47.17091862314545
 20
18.88586113337825
 30
0.0
 11
47.16177654169014
 21
18.92030167910676
 31
0.0
  0
LINE
  5
4D4
330
1F
100
AcDbEntity
  8
0
  6
SLD-Solid
 62
     7
370
    25
100
AcDbLine
 10
35.67205256823432
 20
18.57202565256229
 30
0.0
 11
35.66477654168998
 21
18.57930167910663
 31
0.0
  0
ARC
  5
4D5
330
1F
100
AcDbEntity
  8
0
  6
SLD-Solid
 62
     7
370
    25
100
AcDbCircle
 10
47.38627654169013
 20
34.43246282945368
 30
0.0
 40
0.1874999999999999
100
AcDbArc
 50
0.0000000000001696
 51
40.41143426421487
  0
LINE
  5
4D6
330
1F
100
AcDbEntity
  8
0
  6
SLD-Solid
 62
     7
370
    25
100
AcDbLine
 10
47.57377654169012
 20
34.43246282945368
 30
0.0
 11
47.57377654169012
 21
18.68246282945367
 31
0.0
  0
ARC
  5
4D7
330
1F
100
AcDbEntity
  8
0
  6
SLD-Solid
 62
     7
370
    25
100
AcDbCircle
 10
47.38627654169012
 20
18.68246282945367
 30
0.0
 40
0.187500000000003
100
AcDbArc
 50
319.5885657357882
 51
0.0000000000001696
  0
LINE
  5
4D8
330
1F
100
AcDbEntity
  8
0
  6
SLD-Solid
 62
     7
370
    25
100
AcDbLine
 10
47.52904071980822
 20
18.56091185477118
 30
0.0
 11
47.10577654169013
 21
18.98417603288927
 31
0.0
  0
LINE
  5
4D9
330
1F
100
AcDbEntity
  8
0
  6
SLD-Solid
 62
     7
370
    25
100
AcDbLine
 10
47.10577654169013
 20
18.98417603288927
 30
0.0
 11
47.10577654169013
 21
18.99496282945368
 31
0.0
  0
LINE
  5
4DA
330
1F
100
AcDbEntity
  8
0
  6
SLD-Solid
 62
     7
370
    25
100
AcDbLine
 10
47.10577654169013
 20
18.99496282945368
 30
0.0
 11
47.10577654169013
 21
34.11996282945368
 31
0.0
  0
LINE
  5
4DB
330
1F
100
AcDbEntity
  8
0
  6
SLD-Solid
 62
     7
370
    25
100
AcDbLine
 10
47.10577654169013
 20
34.11996282945368
 30
0.0
 11
47.10577654169013
 21
34.13074962601809
 31
0.0
  0
LINE
  5
4DC
330
1F
100
AcDbEntity
  8
0
  6
SLD-Solid
 62
     7
370
    25
100
AcDbLine
 10
47.10577654169013
 20
34.13074962601809
 30
0.0
 11
47.52904071980822
 21
34.55401380413618
 31
0.0
  0
ARC
  5
4DD
330
1F
100
AcDbEntity
  8
0
  6
SLD-Solid
 62
     7
370
    25
100
AcDbCircle
 10
47.38627654169013
 20
18.68246282945367
 30
0.0
 40
0.1875
100
AcDbArc
 50
270.0000000000008
 51
310.4114342642156
  0
LINE
  5
4DE
330
1F
100
AcDbEntity
  8
0
  6
SLD-Solid
 62
     7
370
    25
100
AcDbLine
 10
47.38627654169013
 20
18.49496282945367
 30
0.0
 11
35.76127654169012
 21
18.49496282945367
 31
0.0
  0
ARC
  5
4DF
330
1F
100
AcDbEntity
  8
0
  6
SLD-Solid
 62
     7
370
    25
100
AcDbCircle
 10
35.76127654169013
 20
18.68246282945367
 30
0.0
 40
0.1875
100
AcDbArc
 50
229.588565735786
 51
269.9999999999986
  0
LINE
  5
4E0
330
1F
100
AcDbEntity
  8
0
  6
SLD-Solid
 62
     7
370
    25
100
AcDbLine
 10
35.63972556700763
 20
18.53969865133558
 30
0.0
 11
36.06298974512572
 21
18.96296282945367
 31
0.0
  0
LINE
  5
4E1
330
1F
100
AcDbEntity
  8
0
  6
SLD-Solid
 62
     7
370
    25
100
AcDbLine
 10
36.06298974512572
 20
18.96296282945367
 30
0.0
 11
36.13577654169013
 21
18.96296282945367
 31
0.0
  0
LINE
  5
4E2
330
1F
100
AcDbEntity
  8
0
  6
SLD-Solid
 62
     7
370
    25
100
AcDbLine
 10
36.13577654169013
 20
18.96296282945367
 30
0.0
 11
47.01177654169013
 21
18.96296282945368
 31
0.0
  0
LINE
  5
4E3
330
1F
100
AcDbEntity
  8
0
  6
SLD-Solid
 62
     7
370
    25
100
AcDbLine
 10
47.01177654169013
 20
18.96296282945368
 30
0.0
 11
47.08456333825454
 21
18.96296282945367
 31
0.0
  0
LINE
  5
4E4
330
1F
100
AcDbEntity
  8
0
  6
SLD-Solid
 62
     7
370
    25
100
AcDbLine
 10
47.08456333825454
 20
18.96296282945367
 30
0.0
 11
47.50782751637263
 21
18.53969865133558
 31
0.0
  0
CIRCLE
  5
4E5
330
1F
100
AcDbEntity
  8
0
  6
SLD-Solid
 62
     7
370
    25
100
AcDbCircle
 10
45.82377654169014
 20
18.64496282945368
 30
0.0
 40
0.0999999999999979
  0
CIRCLE
  5
4E6
330
1F
100
AcDbEntity
  8
0
  6
SLD-Solid
 62
     7
370
    25
100
AcDbCircle
 10
37.32377654169013
 20
18.64496282945368
 30
0.0
 40
0.0999999999999979
  0
LINE
  5
4E7
330
1F
100
AcDbEntity
  8
0
  6
SLD-Solid
 62
     7
370
    25
100
AcDbLine
 10
47.04377654169013
 20
18.99496282945368
 30
0.0
 11
47.10577654169013
 21
18.99496282945368
 31
0.0
  0
LINE
  5
4E8
330
1F
100
AcDbEntity
  8
0
  6
SLD-Solid
 62
     7
370
    25
100
AcDbLine
 10
47.04377654169013
 20
18.99496282945368
 30
0.0
 11
47.04377654169014
 21
34.11996282945368
 31
0.0
  0
LINE
  5
4E9
330
1F
100
AcDbEntity
  8
0
  6
SLD-Solid
 62
     7
370
    25
100
AcDbLine
 10
47.10577654169013
 20
34.11996282945368
 30
0.0
 11
47.04377654169014
 21
34.11996282945368
 31
0.0
  0
LINE
  5
4EA
330
1F
100
AcDbEntity
  8
0
  6
SLD-Solid
 62
     7
370
    25
100
AcDbLine
 10
36.13577654169013
 20
19.02496282945368
 30
0.0
 11
36.13577654169013
 21
18.96296282945367
 31
0.0
  0
LINE
  5
4EB
330
1F
100
AcDbEntity
  8
0
  6
SLD-Solid
 62
     7
370
    25
100
AcDbLine
 10
36.13577654169013
 20
19.02496282945368
 30
0.0
 11
47.01177654169013
 21
19.02496282945367
 31
0.0
  0
LINE
  5
4EC
330
1F
100
AcDbEntity
  8
0
  6
SLD-Solid
 62
     7
370
    25
100
AcDbLine
 10
47.01177654169013
 20
18.96296282945368
 30
0.0
 11
47.01177654169013
 21
19.02496282945367
 31
0.0
  0
ARC
  5
4ED
330
1F
100
AcDbEntity
  8
0
  6
SLD-Solid
 62
     7
370
    25
100
AcDbCircle
 10
35.76127654169013
 20
34.43246282945368
 30
0.0
 40
0.1875
100
AcDbArc
 50
90.0
 51
130.4114342642132
  0
LINE
  5
4EE
330
1F
100
AcDbEntity
  8
0
  6
SLD-Solid
 62
     7
370
    25
100
AcDbLine
 10
35.76127654169013
 20
34.61996282945368
 30
0.0
 11
47.38627654169013
 21
34.61996282945369
 31
0.0
  0
ARC
  5
4EF
330
1F
100
AcDbEntity
  8
0
  6
SLD-Solid
 62
     7
370
    25
100
AcDbCircle
 10
47.38627654169013
 20
34.43246282945368
 30
0.0
 40
0.1875000000000071
100
AcDbArc
 50
49.58856573578514
 51
90.0
  0
LINE
  5
4F0
330
1F
100
AcDbEntity
  8
0
  6
SLD-Solid
 62
     7
370
    25
100
AcDbLine
 10
47.50782751637263
 20
34.57522700757178
 30
0.0
 11
47.08456333825454
 21
34.15196282945369
 31
0.0
  0
LINE
  5
4F1
330
1F
100
AcDbEntity
  8
0
  6
SLD-Solid
 62
     7
370
    25
100
AcDbLine
 10
47.08456333825454
 20
34.15196282945369
 30
0.0
 11
47.01177654169013
 21
34.15196282945369
 31
0.0
  0
LINE
  5
4F2
330
1F
100
AcDbEntity
  8
0
  6
SLD-Solid
 62
     7
370
    25
100
AcDbLine
 10
47.01177654169013
 20
34.15196282945369
 30
0.0
 11
36.13577654169012
 21
34.15196282945367
 31
0.0
  0
LINE
  5
4F3
330
1F
100
AcDbEntity
  8
0
  6
SLD-Solid
 62
     7
370
    25
100
AcDbLine
 10
36.13577654169012
 20
34.15196282945367
 30
0.0
 11
36.06298974512572
 21
34.15196282945367
 31
0.0
  0
LINE
  5
4F4
330
1F
100
AcDbEntity
  8
0
  6
SLD-Solid
 62
     7
370
    25
100
AcDbLine
 10
36.06298974512572
 20
34.15196282945367
 30
0.0
 11
35.63972556700764
 21
34.57522700757177
 31
0.0
  0
CIRCLE
  5
4F5
330
1F
100
AcDbEntity
  8
0
  6
SLD-Solid
 62
     7
370
    25
100
AcDbCircle
 10
37.32377654169013
 20
34.46996282945368
 30
0.0
 40
0.1000000000000014
  0
CIRCLE
  5
4F6
330
1F
100
AcDbEntity
  8
0
  6
SLD-Solid
 62
     7
370
    25
100
AcDbCircle
 10
45.82377654169014
 20
34.46996282945369
 30
0.0
 40
0.1000000000000014
  0
LINE
  5
4F7
330
1F
100
AcDbEntity
  8
0
  6
SLD-Solid
 62
     7
370
    25
100
AcDbLine
 10
36.13577654169012
 20
34.08996282945368
 30
0.0
 11
47.01177654169012
 21
34.08996282945368
 31
0.0
  0
LINE
  5
4F8
330
1F
100
AcDbEntity
  8
0
  6
SLD-Solid
 62
     7
370
    25
100
AcDbLine
 10
36.13577654169012
 20
34.15196282945367
 30
0.0
 11
36.13577654169012
 21
34.08996282945368
 31
0.0
  0
LINE
  5
4F9
330
1F
100
AcDbEntity
  8
0
  6
SLD-Solid
 62
     7
370
    25
100
AcDbLine
 10
36.10377654169012
 20
34.11996282945368
 30
0.0
 11
36.04177654169012
 21
34.11996282945368
 31
0.0
  0
LINE
  5
4FA
330
1F
100
AcDbEntity
  8
0
  6
SLD-Solid
 62
     7
370
    25
100
AcDbLine
 10
36.10377654169012
 20
18.99496282945368
 30
0.0
 11
36.10377654169012
 21
34.11996282945368
 31
0.0
  0
LINE
  5
4FB
330
1F
100
AcDbEntity
  8
0
  6
SLD-Solid
 62
     7
370
    25
100
AcDbLine
 10
36.04177654169012
 20
34.11996282945368
 30
0.0
 11
36.04177654169013
 21
18.99496282945369
 31
0.0
  0
LINE
  5
4FC
330
1F
100
AcDbEntity
  8
0
  6
SLD-Solid
 62
     7
370
    25
100
AcDbLine
 10
36.04177654169013
 20
18.99496282945369
 30
0.0
 11
36.10377654169012
 21
18.99496282945368
 31
0.0
  0
ARC
  5
4FD
330
1F
100
AcDbEntity
  8
0
  6
SLD-Solid
 62
     7
370
    25
100
AcDbCircle
 10
35.76127654169012
 20
18.68246282945368
 30
0.0
 40
0.187500000000003
100
AcDbArc
 50
179.9999999999987
 51
220.4114342642134
  0
LINE
  5
4FE
330
1F
100
AcDbEntity
  8
0
  6
SLD-Solid
 62
     7
370
    25
100
AcDbLine
 10
35.57377654169012
 20
18.68246282945368
 30
0.0
 11
35.57377654169012
 21
34.43246282945368
 31
0.0
  0
ARC
  5
4FF
330
1F
100
AcDbEntity
  8
0
  6
SLD-Solid
 62
     7
370
    25
100
AcDbCircle
 10
35.76127654169012
 20
34.43246282945368
 30
0.0
 40
0.18750000000001
100
AcDbArc
 50
139.5885657357849
 51
179.999999999998
  0
LINE
  5
500
330
1F
100
AcDbEntity
  8
0
  6
SLD-Solid
 62
     7
370
    25
100
AcDbLine
 10
35.61851236357202
 20
34.55401380413618
 30
0.0
 11
36.04177654169012
 21
34.13074962601809
 31
0.0
  0
LINE
  5
501
330
1F
100
AcDbEntity
  8
0
  6
SLD-Solid
 62
     7
370
    25
100
AcDbLine
 10
36.04177654169012
 20
34.13074962601809
 30
0.0
 11
36.04177654169012
 21
34.11996282945368
 31
0.0
  0
LINE
  5
502
330
1F
100
AcDbEntity
  8
0
  6
SLD-Solid
 62
     7
370
    25
100
AcDbLine
 10
36.04177654169013
 20
18.99496282945369
 30
0.0
 11
36.04177654169012
 21
18.98417603288928
 31
0.0
  0
LINE
  5
503
330
1F
100
AcDbEntity
  8
0
  6
SLD-Solid
 62
     7
370
    25
100
AcDbLine
 10
36.04177654169012
 20
18.98417603288928
 30
0.0
 11
35.61851236357202
 21
18.56091185477118
 31
0.0
  0
LINE
  5
504
330
1F
100
AcDbEntity
  8
0
  6
SLD-Solid
 62
     7
370
    25
100
AcDbLine
 10
46.98177654169013
 20
19.05696282945367
 30
0.0
 11
46.98177654169013
 21
19.21996282945368
 31
0.0
  0
LINE
  5
505
330
1F
100
AcDbEntity
  8
0
  6
SLD-Solid
 62
     7
370
    25
100
AcDbLine
 10
47.01177654169012
 20
19.69496282945368
 30
0.0
 11
47.01177654169013
 21
19.05696282945367
 31
0.0
  0
ARC
  5
506
330
1F
100
AcDbEntity
  8
0
  6
SLD-Solid
 62
     7
370
    25
100
AcDbCircle
 10
46.94977654169013
 20
19.05696282945367
 30
0.0
 40
0.0320000000000036
100
AcDbArc
 50
270.0000000000008
 51
0.0000000000028824
  0
ARC
  5
507
330
1F
100
AcDbEntity
  8
0
  6
SLD-Solid
 62
     7
370
    25
100
AcDbCircle
 10
46.94977654169013
 20
19.05696282945367
 30
0.0
 40
0.0620000000000072
100
AcDbArc
 50
328.9270490278514
 51
0.0
  0
ARC
  5
508
330
1F
100
AcDbEntity
  8
0
  6
SLD-Solid
 62
     7
370
    25
100
AcDbCircle
 10
36.19777654169012
 20
19.05696282945367
 30
0.0
 40
0.0320000000000036
100
AcDbArc
 50
180.0
 51
270.0000000000008
  0
LINE
  5
509
330
1F
100
AcDbEntity
  8
0
  6
SLD-Solid
 62
     7
370
    25
100
AcDbLine
 10
36.16577654169012
 20
19.05696282945367
 30
0.0
 11
36.16577654169012
 21
19.28196282945367
 31
0.0
  0
LINE
  5
50A
330
1F
100
AcDbEntity
  8
0
  6
SLD-Solid
 62
     7
370
    25
100
AcDbLine
 10
36.13577654169012
 20
19.05696282945367
 30
0.0
 11
36.13577654169012
 21
19.21996282945368
 31
0.0
  0
LINE
  5
50B
330
1F
100
AcDbEntity
  8
0
  6
SLD-Solid
 62
     7
370
    25
100
AcDbLine
 10
47.01177654169013
 20
34.05796282945368
 30
0.0
 11
47.01177654169013
 21
33.41996282945368
 31
0.0
  0
LINE
  5
50C
330
1F
100
AcDbEntity
  8
0
  6
SLD-Solid
 62
     7
370
    25
100
AcDbLine
 10
36.13577654169013
 20
34.00996282945368
 30
0.0
 11
36.13577654169013
 21
34.05796282945368
 31
0.0
  0
LINE
  5
50D
330
1F
100
AcDbEntity
  8
0
  6
SLD-Solid
 62
     7
370
    25
100
AcDbLine
 10
36.13577654169013
 20
34.08996282945368
 30
0.0
 11
36.13577654169013
 21
34.05796282945368
 31
0.0
  0
LINE
  5
50E
330
1F
100
AcDbEntity
  8
0
  6
SLD-Solid
 62
     7
370
    25
100
AcDbLine
 10
47.01177654169013
 20
34.05796282945368
 30
0.0
 11
47.01177654169013
 21
34.08996282945368
 31
0.0
  0
LINE
  5
50F
330
1F
100
AcDbEntity
  8
0
  6
SLD-Solid
 62
     7
370
    25
100
AcDbLine
 10
47.01177654169013
 20
19.02496282945367
 30
0.0
 11
47.01177654169013
 21
19.05696282945367
 31
0.0
  0
LINE
  5
510
330
1F
100
AcDbEntity
  8
0
  6
SLD-Solid
 62
     7
370
    25
100
AcDbLine
 10
36.13577654169013
 20
19.05696282945366
 30
0.0
 11
36.13577654169013
 21
19.02496282945367
 31
0.0
  0
LINE
  5
511
330
1F
100
AcDbEntity
  8
0
  6
SLD-Solid
 62
     7
370
    25
100
AcDbLine
 10
46.98177654169014
 20
19.28196282945368
 30
0.0
 11
46.98177654169014
 21
33.94796282945368
 31
0.0
  0
LINE
  5
512
330
1F
100
AcDbEntity
  8
0
  6
SLD-Solid
 62
     7
370
    25
100
AcDbLine
 10
46.91977654169013
 20
19.28196282945368
 30
0.0
 11
46.98177654169014
 21
19.28196282945368
 31
0.0
  0
LINE
  5
513
330
1F
100
AcDbEntity
  8
0
  6
SLD-Solid
 62
     7
370
    25
100
AcDbLine
 10
46.98177654169014
 20
33.94796282945368
 30
0.0
 11
46.91977654169014
 21
33.94796282945368
 31
0.0
  0
LINE
  5
514
330
1F
100
AcDbEntity
  8
0
  6
SLD-Solid
 62
     7
370
    25
100
AcDbLine
 10
46.91977654169014
 20
34.00996282945368
 30
0.0
 11
36.16877654169014
 21
34.00996282945368
 31
0.0
  0
LINE
  5
515
330
1F
100
AcDbEntity
  8
0
  6
SLD-Solid
 62
     7
370
    25
100
AcDbLine
 10
46.91977654169014
 20
33.94796282945368
 30
0.0
 11
46.91977654169014
 21
34.00996282945368
 31
0.0
  0
LINE
  5
516
330
1F
100
AcDbEntity
  8
0
  6
SLD-Solid
 62
     7
370
    25
100
AcDbLine
 10
36.16877654169014
 20
34.00996282945368
 30
0.0
 11
36.16877654169014
 21
33.94796282945367
 31
0.0
  0
LINE
  5
517
330
1F
100
AcDbEntity
  8
0
  6
SLD-Solid
 62
     7
370
    25
100
AcDbLine
 10
36.16877654169013
 20
19.21996282945368
 30
0.0
 11
46.91977654169013
 21
19.21996282945368
 31
0.0
  0
LINE
  5
518
330
1F
100
AcDbEntity
  8
0
  6
SLD-Solid
 62
     7
370
    25
100
AcDbLine
 10
36.16877654169013
 20
19.28196282945367
 30
0.0
 11
36.16877654169013
 21
19.21996282945368
 31
0.0
  0
LINE
  5
519
330
1F
100
AcDbEntity
  8
0
  6
SLD-Solid
 62
     7
370
    25
100
AcDbLine
 10
46.91977654169013
 20
19.21996282945368
 30
0.0
 11
46.91977654169013
 21
19.28196282945368
 31
0.0
  0
LINE
  5
51A
330
1F
100
AcDbEntity
  8
0
  6
SLD-Solid
 62
     7
370
    25
100
AcDbLine
 10
37.05677654169013
 20
32.74796282945693
 30
0.0
 11
37.05677654169013
 21
29.74796282945599
 31
0.0
  0
ARC
  5
51B
330
1F
100
AcDbEntity
  8
0
  6
SLD-Solid
 62
     7
370
    25
100
AcDbCircle
 10
37.55677654169012
 20
29.74796282945599
 30
0.0
 40
0.5000000000000071
100
AcDbArc
 50
180.0
 51
270.0000000000008
  0
LINE
  5
51C
330
1F
100
AcDbEntity
  8
0
  6
SLD-Solid
 62
     7
370
    25
100
AcDbLine
 10
37.55677654169012
 20
29.24796282945599
 30
0.0
 11
45.55677654169013
 21
29.24796282945599
 31
0.0
  0
ARC
  5
51D
330
1F
100
AcDbEntity
  8
0
  6
SLD-Solid
 62
     7
370
    25
100
AcDbCircle
 10
45.55677654169013
 20
29.74796282945599
 30
0.0
 40
0.5000000000000071
100
AcDbArc
 50
270.0000000000008
 51
0.0
  0
LINE
  5
51E
330
1F
100
AcDbEntity
  8
0
  6
SLD-Solid
 62
     7
370
    25
100
AcDbLine
 10
46.05677654169013
 20
29.74796282945599
 30
0.0
 11
46.05677654169013
 21
32.74796282945693
 31
0.0
  0
ARC
  5
51F
330
1F
100
AcDbEntity
  8
0
  6
SLD-Solid
 62
     7
370
    25
100
AcDbCircle
 10
45.55677654169013
 20
32.74796282945693
 30
0.0
 40
0.5000000000000071
100
AcDbArc
 50
0.0
 51
90.0
  0
LINE
  5
520
330
1F
100
AcDbEntity
  8
0
  6
SLD-Solid
 62
     7
370
    25
100
AcDbLine
 10
45.55677654169013
 20
33.24796282945693
 30
0.0
 11
37.55677654169013
 21
33.24796282945692
 31
0.0
  0
ARC
  5
521
330
1F
100
AcDbEntity
  8
0
  6
SLD-Solid
 62
     7
370
    25
100
AcDbCircle
 10
37.55677654169013
 20
32.74796282945693
 30
0.0
 40
0.5
100
AcDbArc
 50
90.0
 51
180.0
  0
LINE
  5
522
330
1F
100
AcDbEntity
  8
0
  6
SLD-Solid
 62
     7
370
    25
100
AcDbLine
 10
36.10677654169014
 20
33.94796282945368
 30
0.0
 11
36.10677654169013
 21
19.28196282945367
 31
0.0
  0
LINE
  5
523
330
1F
100
AcDbEntity
  8
0
  6
SLD-Solid
 62
     7
370
    25
100
AcDbLine
 10
36.16877654169014
 20
33.94796282945367
 30
0.0
 11
36.10677654169014
 21
33.94796282945368
 31
0.0
  0
LINE
  5
524
330
1F
100
AcDbEntity
  8
0
  6
SLD-Solid
 62
     7
370
    25
100
AcDbLine
 10
46.95177654169014
 20
33.94796282945368
 30
0.0
 11
46.95177654169014
 21
34.00996282945368
 31
0.0
  0
LINE
  5
525
330
1F
100
AcDbEntity
  8
0
  6
SLD-Solid
 62
     7
370
    25
100
AcDbLine
 10
46.95177654169014
 20
34.00996282945368
 30
0.0
 11
46.98177654169014
 21
34.00996282945368
 31
0.0
  0
LINE
  5
526
330
1F
100
AcDbEntity
  8
0
  6
SLD-Solid
 62
     7
370
    25
100
AcDbLine
 10
46.98177654169014
 20
33.94796282945368
 30
0.0
 11
46.98177654169014
 21
34.00996282945368
 31
0.0
  0
LINE
  5
527
330
1F
100
AcDbEntity
  8
0
  6
SLD-Solid
 62
     7
370
    25
100
AcDbLine
 10
46.95177654169014
 20
19.21996282945368
 30
0.0
 11
46.98177654169014
 21
19.21996282945368
 31
0.0
  0
LINE
  5
528
330
1F
100
AcDbEntity
  8
0
  6
SLD-Solid
 62
     7
370
    25
100
AcDbLine
 10
46.95177654169014
 20
19.21996282945368
 30
0.0
 11
46.95177654169014
 21
19.28196282945368
 31
0.0
  0
LINE
  5
529
330
1F
100
AcDbEntity
  8
0
  6
SLD-Solid
 62
     7
370
    25
100
AcDbLine
 10
46.98177654169014
 20
19.21996282945368
 30
0.0
 11
46.98177654169014
 21
19.28196282945368
 31
0.0
  0
LINE
  5
52A
330
1F
100
AcDbEntity
  8
0
  6
SLD-Solid
 62
     7
370
    25
100
AcDbLine
 10
36.13677654169013
 20
19.28196282945368
 30
0.0
 11
36.13677654169012
 21
19.21996282945368
 31
0.0
  0
LINE
  5
52B
330
1F
100
AcDbEntity
  8
0
  6
SLD-Solid
 62
     7
370
    25
100
AcDbLine
 10
36.13677654169012
 20
19.21996282945368
 30
0.0
 11
36.10677654169013
 21
19.21996282945368
 31
0.0
  0
LINE
  5
52C
330
1F
100
AcDbEntity
  8
0
  6
SLD-Solid
 62
     7
370
    25
100
AcDbLine
 10
36.10677654169013
 20
19.21996282945368
 30
0.0
 11
36.10677654169013
 21
19.28196282945367
 31
0.0
  0
LINE
  5
52D
330
1F
100
AcDbEntity
  8
0
  6
SLD-Solid
 62
     7
370
    25
100
AcDbLine
 10
36.13677654169013
 20
34.00996282945368
 30
0.0
 11
36.10677654169014
 21
34.00996282945368
 31
0.0
  0
LINE
  5
52E
330
1F
100
AcDbEntity
  8
0
  6
SLD-Solid
 62
     7
370
    25
100
AcDbLine
 10
36.13677654169013
 20
34.00996282945368
 30
0.0
 11
36.13677654169014
 21
33.94796282945368
 31
0.0
  0
LINE
  5
52F
330
1F
100
AcDbEntity
  8
0
  6
SLD-Solid
 62
     7
370
    25
100
AcDbLine
 10
36.10677654169014
 20
33.94796282945368
 30
0.0
 11
36.10677654169014
 21
34.00996282945368
 31
0.0
  0
LINE
  5
530
330
1F
100
AcDbEntity
  8
0
  6
SLD-Solid
 62
     8
370
    25
100
AcDbLine
 10
47.01177654169013
 20
33.41996282945368
 30
0.0
 11
47.01177654169013
 21
19.69496282945368
 31
0.0
  0
DIMENSION
  5
531
330
1F
100
AcDbEntity
  8
DIMS
100
AcDbDimension
  2
_D_13
 10
45.77377654169014
 20
18.73156536983212
 30
0.0
 11
54.49947214712542
 21
14.44645146500056
 31
0.0
 70
    35
  1
<> top/bottom mounting hole (4)
 71
     1
 42
-1.0
  3
SLDDIMSTYLE3
100
AcDbDiametricDimension
 15
45.87377654169013
 25
18.55836028907523
 35
0.0
 40
0.0
  0
DIMENSION
  5
53F
330
1F
100
AcDbEntity
  8
DIMS
100
AcDbDimension
  2
_D_14
 10
45.82377654169014
 20
35.99094652287128
 30
0.0
 11
41.5005803395076
 21
35.99094652287128
 31
0.0
 70
    32
  1
<>
 71
     2
 42
-1.0
  3
SLDDIMSTYLE1
100
AcDbAlignedDimension
 13
37.32377654169013
 23
34.46996282945368
 33
0.0
 14
45.82377654169014
 24
34.46996282945369
 34
0.0
100
AcDbRotatedDimension
  0
DIMENSION
  5
54E
330
1F
100
AcDbEntity
  8
DIMS
100
AcDbDimension
  2
_D_15
 10
49.40671920148711
 20
18.64496282945368
 30
0.0
 11
49.40671920148711
 21
27.4548619987111
 31
0.0
 70
    32
  1
<>
 71
     2
 42
-1.0
  3
SLDDIMSTYLE1
100
AcDbAlignedDimension
 13
45.82377654169014
 23
34.46996282945369
 33
0.0
 14
45.82377654169014
 24
18.64496282945368
 34
0.0
 50
90.0000000000002
100
AcDbRotatedDimension
  0
MTEXT
  5
55D
330
1F
100
AcDbEntity
  8
NOTES
100
AcDbMText
 10
46.55007255342614
 20
18.12645299924441
 30
0.0
 40
0.5
 41
0.0
 71
     1
 72
     1
  1
Back view
  7
SLDTEXTSTYLE1
 73
     1
 44
1.0
  0
ARC
  5
55E
330
1F
100
AcDbEntity
  8
0
  6
SLD-Solid
 62
     7
370
    25
100
AcDbCircle
 10
8.469740158319741
 20
20.01930998674699
 30
0.0
 40
0.0249999999999999
100
AcDbArc
 50
16.43955327587292
 51
72.94253566790616
  0
ARC
  5
55F
330
1F
100
AcDbEntity
  8
0
  6
SLD-Solid
 62
     7
370
    25
100
AcDbCircle
 10
8.469740158675362
 20
19.47061565558954
 30
0.0
 40
0.0250000000000003
100
AcDbArc
 50
287.376544850443
 51
339.284874657769
  0
ARC
  5
560
330
1F
100
AcDbEntity
  8
0
  6
SLD-Solid
 62
     7
370
    25
100
AcDbCircle
 10
7.775598590546597
 20
19.74496282945368
 30
0.0
 40
0.7713905752349266
100
AcDbArc
 50
338.4578930174808
 51
0.0
  0
ARC
  5
561
330
1F
100
AcDbEntity
  8
0
  6
SLD-Solid
 62
     7
370
    25
100
AcDbCircle
 10
7.775598590546597
 20
19.74496282945368
 30
0.0
 40
0.7713905752349277
100
AcDbArc
 50
0.0
 51
21.40957525647341
  0
CIRCLE
  5
562
330
1F
100
AcDbEntity
  8
0
  6
SLD-Solid
 62
     7
370
    25
100
AcDbCircle
 10
6.238989165781542
 20
19.49496282945369
 30
0.0
 40
0.0600000000000008
  0
CIRCLE
  5
563
330
1F
100
AcDbEntity
  8
0
  6
SLD-Solid
 62
     7
370
    25
100
AcDbCircle
 10
6.238989165781542
 20
19.49496282945369
 30
0.0
 40
0.1875000000000006
  0
LINE
  5
564
330
1F
100
AcDbEntity
  8
0
  6
SLD-Solid
 62
     7
370
    25
100
AcDbLine
 10
7.006989165781404
 20
18.49346282945374
 30
0.0
 11
7.356989165781399
 21
18.49346282945374
 31
0.0
  0
LINE
  5
565
330
1F
100
AcDbEntity
  8
0
  6
SLD-Solid
 62
     7
370
    25
100
AcDbLine
 10
7.006989165781404
 20
18.49346282945374
 30
0.0
 11
7.006989165781404
 21
18.55146282945374
 31
0.0
  0
LINE
  5
566
330
1F
100
AcDbEntity
  8
0
  6
SLD-Solid
 62
     7
370
    25
100
AcDbLine
 10
7.006989165781404
 20
18.55146282945374
 30
0.0
 11
7.006989165781404
 21
34.54896282945374
 31
0.0
  0
LINE
  5
567
330
1F
100
AcDbEntity
  8
0
  6
SLD-Solid
 62
     7
370
    25
100
AcDbLine
 10
7.4149891657814
 20
18.57930167910676
 30
0.0
 11
7.414989165781401
 21
34.52112397980073
 31
0.0
  0
LINE
  5
568
330
1F
100
AcDbEntity
  8
0
  6
SLD-Solid
 62
     7
370
    25
100
AcDbLine
 10
7.006989165781404
 20
34.54896282945374
 30
0.0
 11
7.006989165781404
 21
34.60696282945374
 31
0.0
  0
LINE
  5
569
330
1F
100
AcDbEntity
  8
0
  6
SLD-Solid
 62
     7
370
    25
100
AcDbLine
 10
7.006989165781404
 20
34.60696282945374
 30
0.0
 11
7.356989165781401
 21
34.60696282945371
 31
0.0
  0
SPLINE
  5
56A
330
1F
100
AcDbEntity
  8
0
  6
SLD-Solid
 62
     7
370
    25
100
AcDbSpline
210
0.0
220
0.0
230
1.0
 70
    12
 71
     3
 72
    12
 73
     8
 74
     0
 42
0.00000001
 43
0.00000001
 40
0.0
 40
0.0
 40
0.0
 40
0.0
 40
0.2245228928296819
 40
0.4490822654037976
 40
0.6736418004065555
 40
0.8982011233138436
 40
1.0
 40
1.0
 40
1.0
 40
1.0
 10
7.356989165781399
 20
18.49346282945374
 30
0.0
 41
1.0
 10
7.363808443223858
 20
18.49416460561246
 30
0.0
 41
1.0
 10
7.377448106082644
 20
18.49556827195219
 30
0.0
 41
1.0
 10
7.39540885136903
 20
18.50647901794569
 30
0.0
 41
1.0
 10
7.40855047158018
 20
18.52240757626043
 30
0.0
 41
1.0
 10
7.414363463635877
 20
18.5385143186197
 30
0.0
 41
1.0
 10
7.414840398473598
 20
18.54838418395023
 30
0.0
 41
1.0
 10
7.4149891657814
 20
18.55146282945368
 30
0.0
 41
1.0
  0
SPLINE
  5
56B
330
1F
100
AcDbEntity
  8
0
  6
SLD-Solid
 62
     7
370
    25
100
AcDbSpline
210
0.0
220
0.0
230
1.0
 70
    12
 71
     3
 72
    12
 73
     8
 74
     0
 42
0.00000001
 43
0.00000001
 40
0.0
 40
0.0
 40
0.0
 40
0.0
 40
0.2245228928300625
 40
0.4490822654043085
 40
0.673641800407132
 40
0.8982011233145049
 40
1.0
 40
1.0
 40
1.0
 40
1.0
 10
7.414989165781401
 20
34.54896282945374
 30
0.0
 41
1.0
 10
7.414287389622657
 20
34.55578210689621
 30
0.0
 41
1.0
 10
7.412883723282873
 20
34.569421769755
 30
0.0
 41
1.0
 10
7.401972977289362
 20
34.58738251504138
 30
0.0
 41
1.0
 10
7.386044418974604
 20
34.60052413525253
 30
0.0
 41
1.0
 10
7.369937676615361
 20
34.60633712730819
 30
0.0
 41
1.0
 10
7.360067811284835
 20
34.60681406214592
 30
0.0
 41
1.0
 10
7.356989165781401
 20
34.60696282945371
 30
0.0
 41
1.0
  0
LINE
  5
56C
330
1F
100
AcDbEntity
  8
0
  6
SLD-Solid
 62
     7
370
    25
100
AcDbLine
 10
7.4149891657814
 20
18.57930167910676
 30
0.0
 11
7.414989165781443
 21
18.56330119517119
 31
0.0
  0
LINE
  5
56D
330
1F
100
AcDbEntity
  8
0
  6
SLD-Solid
 62
     7
370
    25
100
AcDbLine
 10
7.414989165781443
 20
34.53385190186209
 30
0.0
 11
7.414989165781401
 21
34.52112397980073
 31
0.0
  0
LINE
  5
56E
330
1F
100
AcDbEntity
  8
0
  6
SLD-Solid
 62
     7
370
    25
100
AcDbLine
 10
7.4149891657814
 20
18.56330119517119
 30
0.0
 11
7.4149891657814
 21
18.55146282945368
 31
0.0
  0
LINE
  5
56F
330
1F
100
AcDbEntity
  8
0
  6
SLD-Solid
 62
     7
370
    25
100
AcDbLine
 10
7.414989165781401
 20
34.54896282945374
 30
0.0
 11
7.414989165781412
 21
34.53623490739238
 31
0.0
  0
LINE
  5
570
330
1F
100
AcDbEntity
  8
0
  6
SLD-Solid
 62
     7
370
    25
100
AcDbLine
 10
7.414989165781412
 20
34.53623490739238
 30
0.0
 11
7.414989165781412
 21
34.53385190186209
 31
0.0
  0
ARC
  5
571
330
1F
100
AcDbEntity
  8
0
  6
SLD-Solid
 62
     7
370
    25
100
AcDbCircle
 10
6.206250205311692
 20
23.02819210084326
 30
0.0
 40
0.0999999999999996
100
AcDbArc
 50
90.0
 51
179.9999999999987
  0
LINE
  5
572
330
1F
100
AcDbEntity
  8
0
  6
SLD-Solid
 62
     7
370
    25
100
AcDbLine
 10
6.206250205311692
 20
23.12819210084326
 30
0.0
 11
6.555989165781456
 21
23.12819210084326
 31
0.0
  0
LINE
  5
573
330
1F
100
AcDbEntity
  8
0
  6
SLD-Solid
 62
     7
370
    25
100
AcDbLine
 10
6.555989165781456
 20
29.99467394972392
 30
0.0
 11
6.555989165781454
 21
23.12819210084326
 31
0.0
  0
LINE
  5
574
330
1F
100
AcDbEntity
  8
0
  6
SLD-Solid
 62
     7
370
    25
100
AcDbLine
 10
6.555989165781456
 20
29.99467394972392
 30
0.0
 11
6.196989165781458
 21
29.99467394972392
 31
0.0
  0
ARC
  5
575
330
1F
100
AcDbEntity
  8
0
  6
SLD-Solid
 62
     7
370
    25
100
AcDbCircle
 10
6.196989165781458
 20
30.09467394972392
 30
0.0
 40
0.0999999999999988
100
AcDbArc
 50
180.0
 51
270.0000000000008
  0
LINE
  5
576
330
1F
100
AcDbEntity
  8
0
  6
SLD-Solid
 62
     7
370
    25
100
AcDbLine
 10
6.096989165781459
 20
30.09467394972392
 30
0.0
 11
6.096989165781459
 21
30.64467394972392
 31
0.0
  0
ARC
  5
577
330
1F
100
AcDbEntity
  8
0
  6
SLD-Solid
 62
     7
370
    25
100
AcDbCircle
 10
6.196989165781458
 20
30.64467394972392
 30
0.0
 40
0.1000000000000014
100
AcDbArc
 50
90.0
 51
179.9999999999987
  0
LINE
  5
578
330
1F
100
AcDbEntity
  8
0
  6
SLD-Solid
 62
     7
370
    25
100
AcDbLine
 10
6.196989165781458
 20
30.74467394972392
 30
0.0
 11
6.555989165781454
 21
30.74467394972392
 31
0.0
  0
LINE
  5
579
330
1F
100
AcDbEntity
  8
0
  6
SLD-Solid
 62
     7
370
    25
100
AcDbLine
 10
6.555989165781456
 20
34.12212397980073
 30
0.0
 11
6.555989165781454
 21
30.74467394972392
 31
0.0
  0
LINE
  5
57A
330
1F
100
AcDbEntity
  8
0
  6
SLD-Solid
 62
     7
370
    25
100
AcDbLine
 10
7.006989165781363
 20
34.12212397980073
 30
0.0
 11
6.555989165781456
 21
34.12212397980073
 31
0.0
  0
LINE
  5
57B
330
1F
100
AcDbEntity
  8
0
  6
SLD-Solid
 62
     7
370
    25
100
AcDbLine
 10
6.555989165781456
 20
22.37819210084326
 30
0.0
 11
6.555989165781456
 21
18.97830167910676
 31
0.0
  0
LINE
  5
57C
330
1F
100
AcDbEntity
  8
0
  6
SLD-Solid
 62
     7
370
    25
100
AcDbLine
 10
6.555989165781456
 20
22.37819210084326
 30
0.0
 11
6.206250205311692
 21
22.37819210084326
 31
0.0
  0
ARC
  5
57D
330
1F
100
AcDbEntity
  8
0
  6
SLD-Solid
 62
     7
370
    25
100
AcDbCircle
 10
6.206250205311692
 20
22.47819210084326
 30
0.0
 40
0.1000000000000014
100
AcDbArc
 50
179.9999999999987
 51
270.0000000000008
  0
LINE
  5
57E
330
1F
100
AcDbEntity
  8
0
  6
SLD-Solid
 62
     7
370
    25
100
AcDbLine
 10
6.106250205311692
 20
22.47819210084326
 30
0.0
 11
6.106250205311692
 21
23.02819210084326
 31
0.0
  0
ARC
  5
57F
330
1F
100
AcDbEntity
  8
0
  6
SLD-Solid
 62
     7
370
    25
100
AcDbCircle
 10
6.930989165781454
 20
30.37030487647047
 30
0.0
 40
0.056
100
AcDbArc
 50
271.3243306612633
 51
95.11579877757262
  0
LINE
  5
580
330
1F
100
AcDbEntity
  8
0
  6
SLD-Solid
 62
     7
370
    25
100
AcDbLine
 10
6.246989165781458
 20
30.42608180135363
 30
0.0
 11
6.92599570499974
 21
30.42608180135363
 31
0.0
  0
ARC
  5
581
330
1F
100
AcDbEntity
  8
0
  6
SLD-Solid
 62
     7
370
    25
100
AcDbCircle
 10
6.246989165781458
 20
30.37020081813197
 30
0.0
 40
0.0558809832216625
100
AcDbArc
 50
90.0
 51
270.0000000000008
  0
LINE
  5
582
330
1F
100
AcDbEntity
  8
0
  6
SLD-Solid
 62
     7
370
    25
100
AcDbLine
 10
6.932283430633707
 20
30.31431983491031
 30
0.0
 11
6.246989165781458
 21
30.31431983491031
 31
0.0
  0
ARC
  5
583
330
1F
100
AcDbEntity
  8
0
  6
SLD-Solid
 62
     7
370
    25
100
AcDbCircle
 10
6.930989165781399
 20
22.74520081813197
 30
0.0
 40
0.0569999999999986
100
AcDbArc
 50
270.0000000000035
 51
90.0
  0
LINE
  5
584
330
1F
100
AcDbEntity
  8
0
  6
SLD-Solid
 62
     7
370
    25
100
AcDbLine
 10
6.256250205311692
 20
22.80220081813196
 30
0.0
 11
6.930989165781399
 21
22.80220081813196
 31
0.0
  0
ARC
  5
585
330
1F
100
AcDbEntity
  8
0
  6
SLD-Solid
 62
     7
370
    25
100
AcDbCircle
 10
6.256250205311692
 20
22.74520081813197
 30
0.0
 40
0.0569999999999986
100
AcDbArc
 50
90.0
 51
270.0000000000026
  0
LINE
  5
586
330
1F
100
AcDbEntity
  8
0
  6
SLD-Solid
 62
     7
370
    25
100
AcDbLine
 10
6.930989165781401
 20
22.68820081813197
 30
0.0
 11
6.256250205311694
 21
22.68820081813197
 31
0.0
  0
LINE
  5
587
330
1F
100
AcDbEntity
  8
0
  6
SLD-Solid
 62
     7
370
    25
100
AcDbLine
 10
6.555989165781397
 20
18.92146282945362
 30
0.0
 11
6.555989165781399
 21
18.95046282945362
 31
0.0
  0
LINE
  5
588
330
1F
100
AcDbEntity
  8
0
  6
SLD-Solid
 62
     7
370
    25
100
AcDbLine
 10
6.5559891657814
 20
34.17896282945372
 30
0.0
 11
6.5559891657814
 21
34.14996282945372
 31
0.0
  0
LINE
  5
589
330
1F
100
AcDbEntity
  8
0
  6
SLD-Solid
 62
     7
370
    25
100
AcDbLine
 10
7.006989165781364
 20
34.14996282945373
 30
0.0
 11
6.5559891657814
 21
34.14996282945372
 31
0.0
  0
LINE
  5
58A
330
1F
100
AcDbEntity
  8
0
  6
SLD-Solid
 62
     7
370
    25
100
AcDbLine
 10
7.006989165781363
 20
34.17896282945372
 30
0.0
 11
6.5559891657814
 21
34.17896282945372
 31
0.0
  0
LINE
  5
58B
330
1F
100
AcDbEntity
  8
0
  6
SLD-Solid
 62
     7
370
    25
100
AcDbLine
 10
7.0069891657814
 20
18.89063131932223
 30
0.0
 11
6.555989165781414
 21
18.89063131932223
 31
0.0
  0
LINE
  5
58C
330
1F
100
AcDbEntity
  8
0
  6
SLD-Solid
 62
     7
370
    25
100
AcDbLine
 10
6.555989165781414
 20
18.89063131932223
 30
0.0
 11
6.555989165781414
 21
18.91963131932223
 31
0.0
  0
LINE
  5
58D
330
1F
100
AcDbEntity
  8
0
  6
SLD-Solid
 62
     7
370
    25
100
AcDbLine
 10
6.555989165781415
 20
18.92146282945362
 30
0.0
 11
6.555989165781415
 21
18.91963131932223
 31
0.0
  0
LINE
  5
58E
330
1F
100
AcDbEntity
  8
0
  6
SLD-Solid
 62
     7
370
    25
100
AcDbLine
 10
6.555989165781416
 20
18.95046282945362
 30
0.0
 11
6.555989165781416
 21
18.97830167910676
 31
0.0
  0
LINE
  5
58F
330
1F
100
AcDbEntity
  8
0
  6
SLD-Solid
 62
     7
370
    25
100
AcDbLine
 10
5.976989165781524
 20
34.55401380413618
 30
0.0
 11
5.976989165781524
 21
34.43246282945368
 31
0.0
  0
LINE
  5
590
330
1F
100
AcDbEntity
  8
0
  6
SLD-Solid
 62
     7
370
    25
100
AcDbLine
 10
6.006989165781524
 20
34.55401380413618
 30
0.0
 11
6.006989165781524
 21
34.43246282945368
 31
0.0
  0
LINE
  5
591
330
1F
100
AcDbEntity
  8
0
  6
SLD-Solid
 62
     7
370
    25
100
AcDbLine
 10
5.976989165781524
 20
34.43246282945368
 30
0.0
 11
5.976989165781522
 21
18.68246282945367
 31
0.0
  0
LINE
  5
592
330
1F
100
AcDbEntity
  8
0
  6
SLD-Solid
 62
     7
370
    25
100
AcDbLine
 10
6.006989165781522
 20
18.68246282945367
 30
0.0
 11
6.006989165781524
 21
34.43246282945368
 31
0.0
  0
LINE
  5
593
330
1F
100
AcDbEntity
  8
0
  6
SLD-Solid
 62
     7
370
    25
100
AcDbLine
 10
5.976989165781522
 20
18.68246282945367
 30
0.0
 11
5.976989165781522
 21
18.56091185477118
 31
0.0
  0
LINE
  5
594
330
1F
100
AcDbEntity
  8
0
  6
SLD-Solid
 62
     7
370
    25
100
AcDbLine
 10
6.006989165781522
 20
18.68246282945367
 30
0.0
 11
6.006989165781522
 21
18.56091185477118
 31
0.0
  0
LINE
  5
595
330
1F
100
AcDbEntity
  8
0
  6
SLD-Solid
 62
     7
370
    25
100
AcDbLine
 10
6.006989165781539
 20
34.55401380413618
 30
0.0
 11
6.00698916578154
 21
34.57522700757178
 31
0.0
  0
LINE
  5
596
330
1F
100
AcDbEntity
  8
0
  6
SLD-Solid
 62
     7
370
    25
100
AcDbLine
 10
5.976989165781534
 20
34.57522700757178
 30
0.0
 11
5.976989165781532
 21
34.55401380413618
 31
0.0
  0
LINE
  5
597
330
1F
100
AcDbEntity
  8
0
  6
SLD-Solid
 62
     7
370
    25
100
AcDbLine
 10
6.00698916578154
 20
34.61996282945369
 30
0.0
 11
5.976989165781534
 21
34.61996282945369
 31
0.0
  0
LINE
  5
598
330
1F
100
AcDbEntity
  8
0
  6
SLD-Solid
 62
     7
370
    25
100
AcDbLine
 10
6.00698916578154
 20
34.61996282945369
 30
0.0
 11
6.00698916578154
 21
34.57522700757178
 31
0.0
  0
LINE
  5
599
330
1F
100
AcDbEntity
  8
0
  6
SLD-Solid
 62
     7
370
    25
100
AcDbLine
 10
5.976989165781534
 20
34.61996282945369
 30
0.0
 11
5.976989165781534
 21
34.57522700757178
 31
0.0
  0
LINE
  5
59A
330
1F
100
AcDbEntity
  8
0
  6
SLD-Solid
 62
     7
370
    25
100
AcDbLine
 10
6.006989165781528
 20
18.53969865133558
 30
0.0
 11
6.006989165781528
 21
18.49496282945367
 31
0.0
  0
LINE
  5
59B
330
1F
100
AcDbEntity
  8
0
  6
SLD-Solid
 62
     7
370
    25
100
AcDbLine
 10
6.006989165781528
 20
18.49496282945367
 30
0.0
 11
5.97698916578153
 21
18.49496282945367
 31
0.0
  0
LINE
  5
59C
330
1F
100
AcDbEntity
  8
0
  6
SLD-Solid
 62
     7
370
    25
100
AcDbLine
 10
5.97698916578153
 20
18.53969865133558
 30
0.0
 11
5.97698916578153
 21
18.49496282945367
 31
0.0
  0
LINE
  5
59D
330
1F
100
AcDbEntity
  8
0
  6
SLD-Solid
 62
     7
370
    25
100
AcDbLine
 10
6.006989165781528
 20
18.53969865133558
 30
0.0
 11
6.006989165781528
 21
18.56091185477118
 31
0.0
  0
LINE
  5
59E
330
1F
100
AcDbEntity
  8
0
  6
SLD-Solid
 62
     7
370
    25
100
AcDbLine
 10
5.97698916578153
 20
18.56091185477118
 30
0.0
 11
5.97698916578153
 21
18.53969865133558
 31
0.0
  0
LINE
  5
59F
330
1F
100
AcDbEntity
  8
0
  6
SLD-Solid
 62
     7
370
    25
100
AcDbLine
 10
6.038989165781524
 20
18.99496282945368
 30
0.0
 11
6.006989165781524
 21
18.99496282945368
 31
0.0
  0
LINE
  5
5A0
330
1F
100
AcDbEntity
  8
0
  6
SLD-Solid
 62
     7
370
    25
100
AcDbLine
 10
6.006989165781524
 20
34.11996282945368
 30
0.0
 11
6.038989165781524
 21
34.11996282945368
 31
0.0
  0
ARC
  5
5A1
330
1F
100
AcDbEntity
  8
0
  6
SLD-Solid
 62
     7
370
    25
100
AcDbCircle
 10
6.789989165781518
 20
22.74496282945367
 30
0.0
 40
0.1000000000000006
100
AcDbArc
 50
325.4155648085947
 51
34.91634979062224
  0
ARC
  5
5A2
330
1F
100
AcDbEntity
  8
0
  6
SLD-Solid
 62
     7
370
    25
100
AcDbCircle
 10
6.789989165781518
 20
22.74496282945367
 30
0.0
 40
0.0999999999999998
100
AcDbArc
 50
145.0836502093775
 51
214.5844351914072
  0
ARC
  5
5A3
330
1F
100
AcDbEntity
  8
0
  6
SLD-Solid
 62
     7
370
    25
100
AcDbCircle
 10
6.789989165781503
 20
30.36996282945368
 30
0.0
 40
0.1
100
AcDbArc
 50
326.1907375467891
 51
34.13811472953248
  0
ARC
  5
5A4
330
1F
100
AcDbEntity
  8
0
  6
SLD-Solid
 62
     7
370
    25
100
AcDbCircle
 10
6.789989165781503
 20
30.36996282945368
 30
0.0
 40
0.1000000000000015
100
AcDbArc
 50
145.8618852704681
 51
213.8092624532117
  0
LINE
  5
5A5
330
1F
100
AcDbEntity
  8
0
  6
SLD-Solid
 62
     7
370
    25
100
AcDbLine
 10
6.038989165781524
 20
34.11996282945368
 30
0.0
 11
6.555989165781456
 21
34.11996282945368
 31
0.0
  0
LINE
  5
5A6
330
1F
100
AcDbEntity
  8
0
  6
SLD-Solid
 62
     7
370
    25
100
AcDbLine
 10
7.414989165781404
 20
34.11996282945368
 30
0.0
 11
8.414989165781524
 21
34.11996282945368
 31
0.0
  0
LINE
  5
5A7
330
1F
100
AcDbEntity
  8
0
  6
SLD-Solid
 62
     7
370
    25
100
AcDbLine
 10
8.414989165781524
 20
18.99496282945368
 30
0.0
 11
7.414989165781401
 21
18.99496282945368
 31
0.0
  0
LINE
  5
5A8
330
1F
100
AcDbEntity
  8
0
  6
SLD-Solid
 62
     7
370
    25
100
AcDbLine
 10
6.555989165781378
 20
18.99496282945368
 30
0.0
 11
6.038989165781524
 21
18.99496282945368
 31
0.0
  0
LINE
  5
5A9
330
1F
100
AcDbEntity
  8
0
  6
SLD-Solid
 62
     7
370
    25
100
AcDbLine
 10
8.476989165781523
 20
34.05796282945368
 30
0.0
 11
8.476989165781523
 21
19.05696282945367
 31
0.0
  0
ARC
  5
5AA
330
1F
100
AcDbEntity
  8
0
  6
SLD-Solid
 62
     7
370
    25
100
AcDbCircle
 10
6.038989165781529
 20
34.15196282945368
 30
0.0
 40
0.0320000000000036
100
AcDbArc
 50
179.9999999999813
 51
270.0000000000024
  0
ARC
  5
5AB
330
1F
100
AcDbEntity
  8
0
  6
SLD-Solid
 62
     7
370
    25
100
AcDbCircle
 10
6.038989165781524
 20
18.96296282945368
 30
0.0
 40
0.032
100
AcDbArc
 50
90.0
 51
180.0000000000072
  0
ARC
  5
5AC
330
1F
100
AcDbEntity
  8
0
  6
SLD-Solid
 62
     7
370
    25
100
AcDbCircle
 10
8.414989165781522
 20
34.05796282945368
 30
0.0
 40
0.0620000000000012
100
AcDbArc
 50
0.0
 51
90.0
  0
ARC
  5
5AD
330
1F
100
AcDbEntity
  8
0
  6
SLD-Solid
 62
     7
370
    25
100
AcDbCircle
 10
8.414989165781522
 20
19.05696282945367
 30
0.0
 40
0.0620000000000012
100
AcDbArc
 50
270.0000000000024
 51
0.0000000000020263
  0
LINE
  5
5AE
330
1F
100
AcDbEntity
  8
0
  6
SLD-Solid
 62
     7
370
    25
100
AcDbLine
 10
4.458989165781531
 20
33.94796282945368
 30
0.0
 11
4.458989165781531
 21
19.28196282945368
 31
0.0
  0
LINE
  5
5AF
330
1F
100
AcDbEntity
  8
0
  6
SLD-Solid
 62
     7
370
    25
100
AcDbLine
 10
5.976989165781524
 20
19.21996282945367
 30
0.0
 11
4.520989165781531
 21
19.21996282945368
 31
0.0
  0
LINE
  5
5B0
330
1F
100
AcDbEntity
  8
0
  6
SLD-Solid
 62
     7
370
    25
100
AcDbLine
 10
4.520989165781529
 20
34.00996282945368
 30
0.0
 11
5.976989165781526
 21
34.00996282945368
 31
0.0
  0
ARC
  5
5B1
330
1F
100
AcDbEntity
  8
0
  6
SLD-Solid
 62
     7
370
    25
100
AcDbCircle
 10
4.520989165781531
 20
33.94796282945368
 30
0.0
 40
0.0619999999999994
100
AcDbArc
 50
89.99999999999672
 51
180.0
  0
ARC
  5
5B2
330
1F
100
AcDbEntity
  8
0
  6
SLD-Solid
 62
     7
370
    25
100
AcDbCircle
 10
4.52098916578153
 20
19.28196282945368
 30
0.0
 40
0.0619999999999994
100
AcDbArc
 50
179.999999999999
 51
270.0000000000008
  0
DIMENSION
  5
5B3
330
1F
100
AcDbEntity
  8
DIMS
100
AcDbDimension
  2
_D_16
 10
6.006989165781545
 20
35.54203039006126
 30
0.0
 11
4.605102447974427
 21
35.54203039006126
 31
0.0
 70
    32
  1
<>
 71
     2
 42
-1.0
  3
SLDDIMSTYLE1
100
AcDbAlignedDimension
 13
6.789989165781522
 23
30.36996282945368
 33
0.0
 14
6.006989165781545
 24
34.55401380413618
 34
0.0
100
AcDbRotatedDimension
  0
DIMENSION
  5
5C1
330
1F
100
AcDbEntity
  8
DIMS
100
AcDbDimension
  2
_D_17
 10
6.752346005193622
 20
30.27731838838486
 30
0.0
 11
14.60520006723133
 21
37.78747685648604
 31
0.0
 70
    35
  1
<>side mounting hole(4)
 71
     1
 42
-1.0
  3
SLDDIMSTYLE3
100
AcDbDiametricDimension
 15
6.827632326369423
 25
30.46260727052249
 35
0.0
 40
0.0
  0
MTEXT
  5
5CE
330
1F
100
AcDbEntity
  8
NOTES
100
AcDbMText
 10
5.410435095477305
 20
18.05171030942233
 30
0.0
 40
0.5
 41
0.0
 71
     1
 72
     1
  1
Left side view
  7
SLDTEXTSTYLE1
 73
     1
 44
1.0
  0
MTEXT
  5
5D2
330
1F
100
AcDbEntity
  8
NOTES
100
AcDbMText
 10
60.2661315570167
 20
4.98650087456716
 30
0.0
 40
0.2916666666666666
 41
0.0
 71
     1
 72
     1
  1
FROST PRODUCTS LTD.
  7
SLDTEXTSTYLE0
 73
     1
 44
1.0
  0
MTEXT
  5
5D3
330
1F
100
AcDbEntity
  8
NOTES
100
AcDbMText
 10
60.2661315570167
 20
4.5610085129417
 30
0.0
 40
0.2291666666666666
 41
0.0
 71
     1
 72
     1
  1
5280 JOHN LUCAS DRIVE, BURLINGTON, ON, L7L 5Z9
  7
SLDTEXTSTYLE0
 73
     1
 44
1.0
  0
ENDSEC
  0
SECTION
  2
OBJECTS
  0
DICTIONARY
  5
C
330
0
100
AcDbDictionary
281
     1
  3
ACAD_COLOR
350
6C
  3
ACAD_GROUP
350
D
  3
ACAD_LAYOUT
350
1A
  3
ACAD_MATERIAL
350
6B
  3
ACAD_MLINESTYLE
350
17
  3
ACAD_PLOTSETTINGS
350
19
  3
ACAD_PLOTSTYLENAME
350
E
  3
ACAD_SCALELIST
350
47
  3
ACAD_TABLESTYLE
350
92
  3
AcDbVariableDictionary
350
59
  0
DICTIONARY
  5
6C
102
{ACAD_REACTORS
330
C
102
}
330
C
100
AcDbDictionary
281
     1
  0
DICTIONARY
  5
D
102
{ACAD_REACTORS
330
C
102
}
330
C
100
AcDbDictionary
281
     1
  0
DICTIONARY
  5
1A
102
{ACAD_REACTORS
330
C
102
}
330
C
100
AcDbDictionary
281
     1
  3
Layout1
350
74
  3
Layout2
350
26
  3
Model
350
22
  0
DICTIONARY
  5
6B
102
{ACAD_REACTORS
330
C
102
}
330
C
100
AcDbDictionary
281
     1
  0
DICTIONARY
  5
17
102
{ACAD_REACTORS
330
C
102
}
330
C
100
AcDbDictionary
281
     1
  3
Standard
350
18
  0
DICTIONARY
  5
19
102
{ACAD_REACTORS
330
C
102
}
330
C
100
AcDbDictionary
281
     1
  0
ACDBDICTIONARYWDFLT
  5
E
102
{ACAD_REACTORS
330
C
102
}
330
C
100
AcDbDictionary
281
     1
  3
Normal
350
F
100
AcDbDictionaryWithDefault
340
F
  0
DICTIONARY
  5
47
102
{ACAD_REACTORS
330
C
102
}
330
C
100
AcDbDictionary
281
     1
  3
A0
350
48
  3
A1
350
49
  3
A2
350
4A
  3
A3
350
4B
  3
A4
350
4C
  3
A5
350
4D
  3
A6
350
4E
  3
A7
350
4F
  3
A8
350
50
  3
A9
350
51
  3
B0
350
52
  3
B1
350
53
  3
B2
350
54
  3
B3
350
55
  3
B4
350
56
  3
B5
350
57
  3
B6
350
58
  3
B7
350
5E4
  3
B8
350
5E5
  3
B9
350
5B
  3
C0
350
5C
  3
C1
350
5D
  3
C2
350
5E6
  3
C3
350
5F
  3
C4
350
60
  3
C5
350
61
  3
C6
350
62
  3
C7
350
63
  3
C8
350
64
  3
C9
350
65
  3
D0
350
66
  3
D1
350
67
  3
D2
350
68
  0
DICTIONARY
  5
92
102
{ACAD_REACTORS
330
C
102
}
330
C
100
AcDbDictionary
281
     1
  3
Standard
350
93
  0
DICTIONARY
  5
59
102
{ACAD_REACTORS
330
C
102
}
330
C
100
AcDbDictionary
281
     1
  3
CTABLESTYLE
350
98
  3
HIDETEXT
350
5D1
  0
LAYOUT
  5
74
102
{ACAD_REACTORS
330
1A
102
}
330
1A
100
AcDbPlotSettings
  1

  2
none_device
  4

  6

 40
0.0
 41
0.0
 42
0.0
 43
0.0
 44
0.0
 45
0.0
 46
0.0
 47
0.0
 48
0.0
 49
0.0
140
0.0
141
0.0
142
1.0
143
1.0
 70
   688
 72
     0
 73
     0
 74
     5
  7

 75
    16
 76
     0
 77
     2
 78
   300
147
1.0
148
0.0
149
0.0
100
AcDbLayout
  1
Layout1
 70
     1
 71
     1
 10
0.0
 20
0.0
 11
12.0
 21
9.0
 12
0.0
 22
0.0
 32
0.0
 14
1.000000000000000E+20
 24
1.000000000000000E+20
 34
1.000000000000000E+20
 15
-1.000000000000000E+20
 25
-1.000000000000000E+20
 35
-1.000000000000000E+20
146
0.0
 13
0.0
 23
0.0
 33
0.0
 16
1.0
 26
0.0
 36
0.0
 17
0.0
 27
1.0
 37
0.0
 76
     0
330
73
  0
LAYOUT
  5
26
102
{ACAD_REACTORS
330
1A
102
}
330
1A
100
AcDbPlotSettings
  1

  2
none_device
  4

  6

 40
0.0
 41
0.0
 42
0.0
 43
0.0
 44
0.0
 45
0.0
 46
0.0
 47
0.0
 48
0.0
 49
0.0
140
0.0
141
0.0
142
1.0
143
1.0
 70
   688
 72
     0
 73
     0
 74
     5
  7

 75
    16
 76
     0
 77
     2
 78
   300
147
1.0
148
0.0
149
0.0
100
AcDbLayout
  1
Layout2
 70
     1
 71
     2
 10
0.0
 20
0.0
 11
0.0
 21
0.0
 12
0.0
 22
0.0
 32
0.0
 14
0.0
 24
0.0
 34
0.0
 15
0.0
 25
0.0
 35
0.0
146
0.0
 13
0.0
 23
0.0
 33
0.0
 16
1.0
 26
0.0
 36
0.0
 17
0.0
 27
1.0
 37
0.0
 76
     0
330
23
  0
LAYOUT
  5
22
102
{ACAD_REACTORS
330
1A
102
}
330
1A
100
AcDbPlotSettings
  1

  2
none_device
  4
Letter_(8.50_x_11.00_Inches)
  6

 40
6.35
 41
6.35
 42
6.35000508
 43
6.35000508
 44
215.9
 45
279.4
 46
0.0
 47
0.0
 48
0.0
 49
0.0
140
0.0
141
0.0
142
1.0
143
1.0
 70
 11952
 72
     0
 73
     0
 74
     0
  7

 75
     0
 76
     0
 77
     2
 78
   300
147
1.0
148
0.0
149
0.0
100
AcDbLayout
  1
Model
 70
     1
 71
     0
 10
0.0
 20
0.0
 11
70.0
 21
50.0
 12
0.0
 22
0.0
 32
0.0
 14
0.1653543307086614
 24
0.1653543307086614
 34
-6.748114081333341
 15
69.83464566929135
 25
49.83464566929134
 35
5.596455511811007
146
0.0
 13
0.0
 23
0.0
 33
0.0
 16
1.0
 26
0.0
 36
0.0
 17
0.0
 27
1.0
 37
0.0
 76
     0
330
1F
  0
MLINESTYLE
  5
18
102
{ACAD_REACTORS
330
17
102
}
330
17
100
AcDbMlineStyle
  2
Standard
 70
     0
  3

 62
   256
 51
90.0
 52
90.0
 71
     2
 49
0.5
 62
   256
  6
BYLAYER
 49
-0.5
 62
   256
  6
BYLAYER
  0
ACDBPLACEHOLDER
  5
F
102
{ACAD_REACTORS
330
E
102
}
330
E
  0
ACAD_PROXY_OBJECT
  5
48
102
{ACAD_REACTORS
330
47
102
}
330
47
100
AcDbProxyObject
 90
      499
 91
      505
 95
   393239
 70
     0
 93
       41
310
903313A31580
  0
ACAD_PROXY_OBJECT
  5
49
102
{ACAD_REACTORS
330
47
102
}
330
47
100
AcDbProxyObject
 90
      499
 91
      505
 95
   393239
 70
     0
 93
      105
310
903313A324000000000000004000
  0
ACAD_PROXY_OBJECT
  5
4A
102
{ACAD_REACTORS
330
47
102
}
330
47
100
AcDbProxyObject
 90
      499
 91
      505
 95
   393239
 70
     0
 93
      105
310
903313A344000000000000104000
  0
ACAD_PROXY_OBJECT
  5
4B
102
{ACAD_REACTORS
330
47
102
}
330
47
100
AcDbProxyObject
 90
      499
 91
      505
 95
   393239
 70
     0
 93
      105
310
903313A354000000000000144000
  0
ACAD_PROXY_OBJECT
  5
4C
102
{ACAD_REACTORS
330
47
102
}
330
47
100
AcDbProxyObject
 90
      499
 91
      505
 95
   393239
 70
     0
 93
      105
310
903313A384000000000000204000
  0
ACAD_PROXY_OBJECT
  5
4D
102
{ACAD_REACTORS
330
47
102
}
330
47
100
AcDbProxyObject
 90
      499
 91
      505
 95
   393239
 70
     0
 93
      113
310
904313A31304000000000000244000
  0
ACAD_PROXY_OBJECT
  5
4E
102
{ACAD_REACTORS
330
47
102
}
330
47
100
AcDbProxyObject
 90
      499
 91
      505
 95
   393239
 70
     0
 93
      113
310
904313A31364000000000000304000
  0
ACAD_PROXY_OBJECT
  5
4F
102
{ACAD_REACTORS
330
47
102
}
330
47
100
AcDbProxyObject
 90
      499
 91
      505
 95
   393239
 70
     0
 93
      113
310
904313A32304000000000000344000
  0
ACAD_PROXY_OBJECT
  5
50
102
{ACAD_REACTORS
330
47
102
}
330
47
100
AcDbProxyObject
 90
      499
 91
      505
 95
   393239
 70
     0
 93
      113
310
904313A333040000000000003E4000
  0
ACAD_PROXY_OBJECT
  5
51
102
{ACAD_REACTORS
330
47
102
}
330
47
100
AcDbProxyObject
 90
      499
 91
      505
 95
   393239
 70
     0
 93
      113
310
904313A34304000000000000444000
  0
ACAD_PROXY_OBJECT
  5
52
102
{ACAD_REACTORS
330
47
102
}
330
47
100
AcDbProxyObject
 90
      499
 91
      505
 95
   393239
 70
     0
 93
      113
310
904313A35304000000000000494000
  0
ACAD_PROXY_OBJECT
  5
53
102
{ACAD_REACTORS
330
47
102
}
330
47
100
AcDbProxyObject
 90
      499
 91
      505
 95
   393239
 70
     0
 93
      121
310
905313A3130304000000000000594000
  0
ACAD_PROXY_OBJECT
  5
54
102
{ACAD_REACTORS
330
47
102
}
330
47
100
AcDbProxyObject
 90
      499
 91
      505
 95
   393239
 70
     0
 93
      105
310
903323A310000000000000010100
  0
ACAD_PROXY_OBJECT
  5
55
102
{ACAD_REACTORS
330
47
102
}
330
47
100
AcDbProxyObject
 90
      499
 91
      505
 95
   393239
 70
     0
 93
      105
310
903343A310000000000000410100
  0
ACAD_PROXY_OBJECT
  5
56
102
{ACAD_REACTORS
330
47
102
}
330
47
100
AcDbProxyObject
 90
      499
 91
      505
 95
   393239
 70
     0
 93
      105
310
903383A310000000000000810100
  0
ACAD_PROXY_OBJECT
  5
57
102
{ACAD_REACTORS
330
47
102
}
330
47
100
AcDbProxyObject
 90
      499
 91
      505
 95
   393239
 70
     0
 93
      113
310
90431303A310000000000000910100
  0
ACAD_PROXY_OBJECT
  5
58
102
{ACAD_REACTORS
330
47
102
}
330
47
100
AcDbProxyObject
 90
      499
 91
      505
 95
   393239
 70
     0
 93
      121
310
9053130303A310000000000001650100
  0
ACAD_PROXY_OBJECT
  5
5E4
102
{ACAD_REACTORS
330
47
102
}
330
47
100
AcDbProxyObject
 90
      499
 91
      505
 95
   393239
 70
     0
 93
      257
310
90E312F31323822203D2031272D3022000000000000200FC000000000000284000
  0
ACAD_PROXY_OBJECT
  5
5E5
102
{ACAD_REACTORS
330
47
102
}
330
47
100
AcDbProxyObject
 90
      499
 91
      505
 95
   393239
 70
     0
 93
      249
310
90D312F363422203D2031272D3022000000000000240FC000000000000284000
  0
ACAD_PROXY_OBJECT
  5
5B
102
{ACAD_REACTORS
330
47
102
}
330
47
100
AcDbProxyObject
 90
      499
 91
      505
 95
   393239
 70
     0
 93
      249
310
90D312F333222203D2031272D3022000000000000280FC000000000000284000
  0
ACAD_PROXY_OBJECT
  5
5C
102
{ACAD_REACTORS
330
47
102
}
330
47
100
AcDbProxyObject
 90
      499
 91
      505
 95
   393239
 70
     0
 93
      249
310
90D312F313622203D2031272D30220000000000002C0FC000000000000284000
  0
ACAD_PROXY_OBJECT
  5
5D
102
{ACAD_REACTORS
330
47
102
}
330
47
100
AcDbProxyObject
 90
      499
 91
      505
 95
   393239
 70
     0
 93
      249
310
90D332F333222203D2031272D30220000000000002E0FC000000000000284000
  0
ACAD_PROXY_OBJECT
  5
5E6
102
{ACAD_REACTORS
330
47
102
}
330
47
100
AcDbProxyObject
 90
      499
 91
      505
 95
   393239
 70
     0
 93
      241
310
90C312F3822203D2031272D3022000000000000300FC000000000000284000
  0
ACAD_PROXY_OBJECT
  5
5F
102
{ACAD_REACTORS
330
47
102
}
330
47
100
AcDbProxyObject
 90
      499
 91
      505
 95
   393239
 70
     0
 93
      249
310
90D332F313622203D2031272D3022000000000000320FC000000000000284000
  0
ACAD_PROXY_OBJECT
  5
60
102
{ACAD_REACTORS
330
47
102
}
330
47
100
AcDbProxyObject
 90
      499
 91
      505
 95
   393239
 70
     0
 93
      241
310
90C312F3422203D2031272D3022000000000000340FC000000000000284000
  0
ACAD_PROXY_OBJECT
  5
61
102
{ACAD_REACTORS
330
47
102
}
330
47
100
AcDbProxyObject
 90
      499
 91
      505
 95
   393239
 70
     0
 93
      241
310
90C332F3822203D2031272D3022000000000000360FC000000000000284000
  0
ACAD_PROXY_OBJECT
  5
62
102
{ACAD_REACTORS
330
47
102
}
330
47
100
AcDbProxyObject
 90
      499
 91
      505
 95
   393239
 70
     0
 93
      241
310
90C312F3222203D2031272D3022000000000000380FC000000000000284000
  0
ACAD_PROXY_OBJECT
  5
63
102
{ACAD_REACTORS
330
47
102
}
330
47
100
AcDbProxyObject
 90
      499
 91
      505
 95
   393239
 70
     0
 93
      241
310
90C332F3422203D2031272D30220000000000003A0FC000000000000284000
  0
ACAD_PROXY_OBJECT
  5
64
102
{ACAD_REACTORS
330
47
102
}
330
47
100
AcDbProxyObject
 90
      499
 91
      505
 95
   393239
 70
     0
 93
      161
310
90A3122203D2031272D30224000000000000284000
  0
ACAD_PROXY_OBJECT
  5
65
102
{ACAD_REACTORS
330
47
102
}
330
47
100
AcDbProxyObject
 90
      499
 91
      505
 95
   393239
 70
     0
 93
      257
310
90E312D312F3222203D2031272D30220000000000003E0FC000000000000284000
  0
ACAD_PROXY_OBJECT
  5
66
102
{ACAD_REACTORS
330
47
102
}
330
47
100
AcDbProxyObject
 90
      499
 91
      505
 95
   393239
 70
     0
 93
      225
310
90A3322203D2031272D302200000000000002100000000000000284000
  0
ACAD_PROXY_OBJECT
  5
67
102
{ACAD_REACTORS
330
47
102
}
330
47
100
AcDbProxyObject
 90
      499
 91
      505
 95
   393239
 70
     0
 93
      225
310
90A3622203D2031272D302200000000000006100000000000000284000
  0
ACAD_PROXY_OBJECT
  5
68
102
{ACAD_REACTORS
330
47
102
}
330
47
100
AcDbProxyObject
 90
      499
 91
      505
 95
   393239
 70
     0
 93
      249
310
90D31272D3022203D2031272D30220000000000000A100000000000000284000
  0
TABLESTYLE
  5
93
102
{ACAD_REACTORS
330
92
102
}
330
92
100
AcDbTableStyle
  3
Standard
 70
     0
 71
     0
 40
0.06
 41
0.06
280
     0
281
     0
  7
Standard
140
0.18
170
     2
 62
     0
 63
     7
283
     0
274
    -2
284
     1
 64
     0
275
    -2
285
     1
 65
     0
276
    -2
286
     1
 66
     0
277
    -2
287
     1
 67
     0
278
    -2
288
     1
 68
     0
279
    -2
289
     1
 69
     0
  7
Standard
140
0.25
170
     5
 62
     0
 63
     7
283
     0
274
    -2
284
     1
 64
     0
275
    -2
285
     1
 65
     0
276
    -2
286
     1
 66
     0
277
    -2
287
     1
 67
     0
278
    -2
288
     1
 68
     0
279
    -2
289
     1
 69
     0
  7
Standard
140
0.18
170
     5
 62
     0
 63
     7
283
     0
274
    -2
284
     1
 64
     0
275
    -2
285
     1
 65
     0
276
    -2
286
     1
 66
     0
277
    -2
287
     1
 67
     0
278
    -2
288
     1
 68
     0
279
    -2
289
     1
 69
     0
  0
DICTIONARYVAR
  5
98
102
{ACAD_REACTORS
330
59
102
}
330
59
100
DictionaryVariables
280
     0
  1
STANDARD
  0
DICTIONARYVAR
  5
5D1
102
{ACAD_REACTORS
330
59
102
}
330
59
100
DictionaryVariables
280
     0
  1
2
  0
ENDSEC
  0
EOF
