  0
SECTION
  2
HEADER
  9
$ACADVER
  1
AC1018
  9
$ACADMAINTVER
 70
    39
  9
$DWGCODEPAGE
  3
ANSI_1252
  9
$LASTSAVEDBY
  1
fottrem
  9
$INSBASE
 10
0.0
 20
0.0
 30
0.0
  9
$EXTMIN
 10
4.839343957990335
 20
0.3386772425222314
 30
-13.22665514514944
  9
$EXTMAX
 10
67.0
 20
60.01656031643719
 30
1.127629449660301
  9
$LIMMIN
 10
0.0
 20
0.0
  9
$LIMMAX
 10
67.375
 20
74.0
  9
$ORTHOMODE
 70
     0
  9
$REGENMODE
 70
     1
  9
$FILLMODE
 70
     1
  9
$QTEXTMODE
 70
     0
  9
$MIRRTEXT
 70
     1
  9
$LTSCALE
 40
1.0
  9
$ATTMODE
 70
     1
  9
$TEXTSIZE
 40
0.7500000000000001
  9
$TRACEWID
 40
0.05
  9
$TEXTSTYLE
  7
Standard
  9
$CLAYER
  8
0
  9
$CELTYPE
  6
ByLayer
  9
$CECOLOR
 62
   256
  9
$CELTSCALE
 40
1.0
  9
$DISPSILH
 70
     0
  9
$DIMSCALE
 40
1.0
  9
$DIMASZ
 40
0.7500000000000001
  9
$DIMEXO
 40
0.1666666666666667
  9
$DIMDLI
 40
0.38
  9
$DIMRND
 40
0.0
  9
$DIMDLE
 40
0.0
  9
$DIMEXE
 40
0.3750000000000001
  9
$DIMTP
 40
0.0
  9
$DIMTM
 40
0.0
  9
$DIMTXT
 40
0.7500000000000001
  9
$DIMCEN
 40
0.09
  9
$DIMTSZ
 40
0.0
  9
$DIMTOL
 70
     0
  9
$DIMLIM
 70
     0
  9
$DIMTIH
 70
     1
  9
$DIMTOH
 70
     1
  9
$DIMSE1
 70
     0
  9
$DIMSE2
 70
     0
  9
$DIMTAD
 70
     0
  9
$DIMZIN
 70
     1
  9
$DIMBLK
  1

  9
$DIMASO
 70
     1
  9
$DIMSHO
 70
     1
  9
$DIMPOST
  1

  9
$DIMAPOST
  1

  9
$DIMALT
 70
     0
  9
$DIMALTD
 70
     2
  9
$DIMALTF
 40
25.4
  9
$DIMLFAC
 40
1.0
  9
$DIMTOFL
 70
     0
  9
$DIMTVP
 40
0.0
  9
$DIMTIX
 70
     0
  9
$DIMSOXD
 70
     0
  9
$DIMSAH
 70
     0
  9
$DIMBLK1
  1

  9
$DIMBLK2
  1

  9
$DIMSTYLE
  2
Standard
  9
$DIMCLRD
 70
     0
  9
$DIMCLRE
 70
     0
  9
$DIMCLRT
 70
     0
  9
$DIMTFAC
 40
1.0
  9
$DIMGAP
 40
0.125
  9
$DIMJUST
 70
     0
  9
$DIMSD1
 70
     0
  9
$DIMSD2
 70
     0
  9
$DIMTOLJ
 70
     1
  9
$DIMTZIN
 70
     1
  9
$DIMALTZ
 70
     0
  9
$DIMALTTZ
 70
     0
  9
$DIMUPT
 70
     0
  9
$DIMDEC
 70
     2
  9
$DIMTDEC
 70
     2
  9
$DIMALTU
 70
     2
  9
$DIMALTTD
 70
     2
  9
$DIMTXSTY
  7
Standard
  9
$DIMAUNIT
 70
     0
  9
$DIMADEC
 70
     2
  9
$DIMALTRND
 40
0.0
  9
$DIMAZIN
 70
     0
  9
$DIMDSEP
 70
    46
  9
$DIMATFIT
 70
     3
  9
$DIMFRAC
 70
     0
  9
$DIMLDRBLK
  1

  9
$DIMLUNIT
 70
     2
  9
$DIMLWD
 70
    -2
  9
$DIMLWE
 70
    -2
  9
$DIMTMOVE
 70
     0
  9
$LUNITS
 70
     2
  9
$LUPREC
 70
     4
  9
$SKETCHINC
 40
0.1
  9
$FILLETRAD
 40
0.5
  9
$AUNITS
 70
     0
  9
$AUPREC
 70
     2
  9
$MENU
  1
.
  9
$ELEVATION
 40
0.0
  9
$PELEVATION
 40
0.0
  9
$THICKNESS
 40
0.0
  9
$LIMCHECK
 70
     0
  9
$CHAMFERA
 40
0.0
  9
$CHAMFERB
 40
0.0
  9
$CHAMFERC
 40
0.0
  9
$CHAMFERD
 40
0.0
  9
$SKPOLY
 70
     0
  9
$TDCREATE
 40
2453353.550459155
  9
$TDUCREATE
 40
2453353.717125822
  9
$TDUPDATE
 40
2459488.471141736
  9
$TDUUPDATE
 40
2459488.637808403
  9
$TDINDWG
 40
0.0429629745
  9
$TDUSRTIMER
 40
0.0429629745
  9
$USRTIMER
 70
     1
  9
$ANGBASE
 50
0.0
  9
$ANGDIR
 70
     0
  9
$PDMODE
 70
     0
  9
$PDSIZE
 40
-1.0
  9
$PLINEWID
 40
0.0
  9
$SPLFRAME
 70
     0
  9
$SPLINETYPE
 70
     6
  9
$SPLINESEGS
 70
     8
  9
$HANDSEED
  5
4F7
  9
$SURFTAB1
 70
     6
  9
$SURFTAB2
 70
     6
  9
$SURFTYPE
 70
     6
  9
$SURFU
 70
     6
  9
$SURFV
 70
     6
  9
$UCSBASE
  2

  9
$UCSNAME
  2

  9
$UCSORG
 10
0.0
 20
0.0
 30
0.0
  9
$UCSXDIR
 10
1.0
 20
0.0
 30
0.0
  9
$UCSYDIR
 10
0.0
 20
1.0
 30
0.0
  9
$UCSORTHOREF
  2

  9
$UCSORTHOVIEW
 70
     0
  9
$UCSORGTOP
 10
0.0
 20
0.0
 30
0.0
  9
$UCSORGBOTTOM
 10
0.0
 20
0.0
 30
0.0
  9
$UCSORGLEFT
 10
0.0
 20
0.0
 30
0.0
  9
$UCSORGRIGHT
 10
0.0
 20
0.0
 30
0.0
  9
$UCSORGFRONT
 10
0.0
 20
0.0
 30
0.0
  9
$UCSORGBACK
 10
0.0
 20
0.0
 30
0.0
  9
$PUCSBASE
  2

  9
$PUCSNAME
  2

  9
$PUCSORG
 10
0.0
 20
0.0
 30
0.0
  9
$PUCSXDIR
 10
1.0
 20
0.0
 30
0.0
  9
$PUCSYDIR
 10
0.0
 20
1.0
 30
0.0
  9
$PUCSORTHOREF
  2

  9
$PUCSORTHOVIEW
 70
     0
  9
$PUCSORGTOP
 10
0.0
 20
0.0
 30
0.0
  9
$PUCSORGBOTTOM
 10
0.0
 20
0.0
 30
0.0
  9
$PUCSORGLEFT
 10
0.0
 20
0.0
 30
0.0
  9
$PUCSORGRIGHT
 10
0.0
 20
0.0
 30
0.0
  9
$PUCSORGFRONT
 10
0.0
 20
0.0
 30
0.0
  9
$PUCSORGBACK
 10
0.0
 20
0.0
 30
0.0
  9
$USERI1
 70
     0
  9
$USERI2
 70
     0
  9
$USERI3
 70
     0
  9
$USERI4
 70
     0
  9
$USERI5
 70
     0
  9
$USERR1
 40
0.0
  9
$USERR2
 40
0.0
  9
$USERR3
 40
0.0
  9
$USERR4
 40
0.0
  9
$USERR5
 40
0.0
  9
$WORLDVIEW
 70
     1
  9
$SHADEDGE
 70
     3
  9
$SHADEDIF
 70
    70
  9
$TILEMODE
 70
     1
  9
$MAXACTVP
 70
    64
  9
$PINSBASE
 10
0.0
 20
0.0
 30
0.0
  9
$PLIMCHECK
 70
     0
  9
$PEXTMIN
 10
1.000000000000000E+20
 20
1.000000000000000E+20
 30
1.000000000000000E+20
  9
$PEXTMAX
 10
-1.000000000000000E+20
 20
-1.000000000000000E+20
 30
-1.000000000000000E+20
  9
$PLIMMIN
 10
0.0
 20
0.0
  9
$PLIMMAX
 10
12.0
 20
9.0
  9
$UNITMODE
 70
     0
  9
$VISRETAIN
 70
     1
  9
$PLINEGEN
 70
     0
  9
$PSLTSCALE
 70
     1
  9
$TREEDEPTH
 70
  3020
  9
$CMLSTYLE
  2
Standard
  9
$CMLJUST
 70
     0
  9
$CMLSCALE
 40
1.0
  9
$PROXYGRAPHICS
 70
     1
  9
$MEASUREMENT
 70
     0
  9
$CELWEIGHT
370
    -1
  9
$ENDCAPS
280
     0
  9
$JOINSTYLE
280
     0
  9
$LWDISPLAY
290
     1
  9
$INSUNITS
 70
     1
  9
$HYPERLINKBASE
  1

  9
$STYLESHEET
  1

  9
$XEDIT
290
     0
  9
$CEPSNTYPE
380
     0
  9
$PSTYLEMODE
290
     1
  9
$FINGERPRINTGUID
  2
{80203017-9ddc-4c9c-809c-624c5d13268d}
  9
$VERSIONGUID
  2
{FAEB1C32-E019-11D5-929B-00C0DF256EC4}
  9
$EXTNAMES
290
     1
  9
$PSVPSCALE
 40
0.0
  9
$OLESTARTUP
290
     0
  9
$SORTENTS
280
   127
  9
$INDEXCTL
280
     0
  9
$HIDETEXT
280
     1
  9
$XCLIPFRAME
290
     0
  9
$HALOGAP
280
     0
  9
$OBSCOLOR
 70
   257
  9
$OBSLTYPE
280
     0
  9
$INTERSECTIONDISPLAY
280
     0
  9
$INTERSECTIONCOLOR
 70
   257
  9
$DIMASSOC
280
     2
  9
$PROJECTNAME
  1

  0
ENDSEC
  0
SECTION
  2
CLASSES
  0
CLASS
  1
ACDBDICTIONARYWDFLT
  2
AcDbDictionaryWithDefault
  3
ObjectDBX Classes
 90
        0
 91
        3
280
     0
281
     0
  0
CLASS
  1
ACDBPLACEHOLDER
  2
AcDbPlaceHolder
  3
ObjectDBX Classes
 90
        0
 91
        1
280
     0
281
     0
  0
CLASS
  1
LAYOUT
  2
AcDbLayout
  3
ObjectDBX Classes
 90
        0
 91
        1
280
     0
281
     0
  0
CLASS
  1
DICTIONARYVAR
  2
AcDbDictionaryVar
  3
ObjectDBX Classes
 90
        0
 91
        3
280
     0
281
     0
  0
CLASS
  1
TABLESTYLE
  2
AcDbTableStyle
  3
ObjectDBX Classes
 90
     2047
 91
        3
280
     0
281
     0
  0
CLASS
  1
SCALE
  2
AcDbScale
  3
ObjectDBX Classes
 90
     1153
 91
       67
280
     1
281
     0
  0
ENDSEC
  0
SECTION
  2
TABLES
  0
TABLE
  2
VPORT
  5
8
330
0
100
AcDbSymbolTable
 70
     2
  0
VPORT
  5
97
330
8
100
AcDbSymbolTableRecord
100
AcDbViewportTableRecord
  2
*Active
 70
     0
 10
0.0
 20
0.0
 11
1.0
 21
1.0
 12
35.91967197899517
 22
30.17761877947971
 13
0.0
 23
0.0
 14
0.5
 24
0.5
 15
0.5
 25
0.5
 16
0.0
 26
0.0
 36
1.0
 17
0.0
 27
0.0
 37
0.0
 40
60.87144073539326
 41
0.910472972972973
 42
50.0
 43
0.0
 44
0.0
 50
0.0
 51
0.0
 71
    16
 72
  2000
 73
     1
 74
     1
 75
     0
 76
     0
 77
     0
 78
     0
281
     0
 65
     0
110
0.0
120
0.0
130
0.0
111
1.0
121
0.0
131
0.0
112
0.0
122
1.0
132
0.0
 79
     0
146
0.0
  0
ENDTAB
  0
TABLE
  2
LTYPE
  5
5
330
0
100
AcDbSymbolTable
 70
     8
  0
LTYPE
  5
14
330
5
100
AcDbSymbolTableRecord
100
AcDbLinetypeTableRecord
  2
ByBlock
 70
     0
  3

 72
    65
 73
     0
 40
0.0
  0
LTYPE
  5
15
330
5
100
AcDbSymbolTableRecord
100
AcDbLinetypeTableRecord
  2
ByLayer
 70
     0
  3

 72
    65
 73
     0
 40
0.0
  0
LTYPE
  5
16
330
5
100
AcDbSymbolTableRecord
100
AcDbLinetypeTableRecord
  2
Continuous
 70
     0
  3
Solid line
 72
    65
 73
     0
 40
0.0
  0
LTYPE
  5
4BE
330
5
100
AcDbSymbolTableRecord
100
AcDbLinetypeTableRecord
  2
SLD-Solid
 70
     0
  3
SolidWorks Line Style
 72
    65
 73
     0
 40
0.0
  0
LTYPE
  5
4BF
330
5
100
AcDbSymbolTableRecord
100
AcDbLinetypeTableRecord
  2
SLD-Dashed
 70
     0
  3
SolidWorks Line Style
 72
    65
 73
     2
 40
0.075
 49
0.05
 74
     4
 75
     0
340
0
 46
1.0
 50
0.0
 44
0.0
 45
0.0
 49
-0.025
 74
     4
 75
     0
340
0
 46
1.0
 50
0.0
 44
0.0
 45
0.0
  0
LTYPE
  5
4C0
330
5
100
AcDbSymbolTableRecord
100
AcDbLinetypeTableRecord
  2
SLD-Phantom
 70
     0
  3
SolidWorks Line Style
 72
    65
 73
     6
 40
0.4999999999999999
 49
0.25
 74
     4
 75
     0
340
0
 46
1.0
 50
0.0
 44
0.0
 45
0.0
 49
-0.05
 74
     4
 75
     0
340
0
 46
1.0
 50
0.0
 44
0.0
 45
0.0
 49
0.05
 74
     4
 75
     0
340
0
 46
1.0
 50
0.0
 44
0.0
 45
0.0
 49
-0.05
 74
     4
 75
     0
340
0
 46
1.0
 50
0.0
 44
0.0
 45
0.0
 49
0.05
 74
     4
 75
     0
340
0
 46
1.0
 50
0.0
 44
0.0
 45
0.0
 49
-0.05
 74
     4
 75
     0
340
0
 46
1.0
 50
0.0
 44
0.0
 45
0.0
  0
LTYPE
  5
4C1
330
5
100
AcDbSymbolTableRecord
100
AcDbLinetypeTableRecord
  2
SLD-Chain
 70
     0
  3
SolidWorks Line Style
 72
    65
 73
     4
 40
0.4
 49
0.25
 74
     4
 75
     0
340
0
 46
1.0
 50
0.0
 44
0.0
 45
0.0
 49
-0.05
 74
     4
 75
     0
340
0
 46
1.0
 50
0.0
 44
0.0
 45
0.0
 49
0.05
 74
     4
 75
     0
340
0
 46
1.0
 50
0.0
 44
0.0
 45
0.0
 49
-0.05
 74
     4
 75
     0
340
0
 46
1.0
 50
0.0
 44
0.0
 45
0.0
  0
LTYPE
  5
4C2
330
5
100
AcDbSymbolTableRecord
100
AcDbLinetypeTableRecord
  2
SLD-Center
 70
     0
  3
SolidWorks Line Style
 72
    65
 73
     4
 40
0.7500000000000002
 49
0.6000000000000001
 74
     4
 75
     0
340
0
 46
1.0
 50
0.0
 44
0.0
 45
0.0
 49
-0.05
 74
     4
 75
     0
340
0
 46
1.0
 50
0.0
 44
0.0
 45
0.0
 49
0.05
 74
     4
 75
     0
340
0
 46
1.0
 50
0.0
 44
0.0
 45
0.0
 49
-0.05
 74
     4
 75
     0
340
0
 46
1.0
 50
0.0
 44
0.0
 45
0.0
  0
LTYPE
  5
4C3
330
5
100
AcDbSymbolTableRecord
100
AcDbLinetypeTableRecord
  2
SLD-Stitch
 70
     0
  3
SolidWorks Line Style
 72
    65
 73
     2
 40
0.025
 49
0.0
 74
     4
 75
     0
340
0
 46
1.0
 50
0.0
 44
0.0
 45
0.0
 49
-0.025
 74
     4
 75
     0
340
0
 46
1.0
 50
0.0
 44
0.0
 45
0.0
  0
LTYPE
  5
4C4
330
5
100
AcDbSymbolTableRecord
100
AcDbLinetypeTableRecord
  2
SLD-Thin-Thick-Chain
 70
     0
  3
SolidWorks Line Style
 72
    65
 73
     4
 40
0.4
 49
0.25
 74
     4
 75
     0
340
0
 46
1.0
 50
0.0
 44
0.0
 45
0.0
 49
-0.05
 74
     4
 75
     0
340
0
 46
1.0
 50
0.0
 44
0.0
 45
0.0
 49
0.05
 74
     4
 75
     0
340
0
 46
1.0
 50
0.0
 44
0.0
 45
0.0
 49
-0.05
 74
     4
 75
     0
340
0
 46
1.0
 50
0.0
 44
0.0
 45
0.0
  0
ENDTAB
  0
TABLE
  2
LAYER
  5
2
330
0
100
AcDbSymbolTable
 70
     6
  0
LAYER
  5
10
330
2
100
AcDbSymbolTableRecord
100
AcDbLayerTableRecord
  2
0
 70
     0
 62
     7
  6
Continuous
370
    -3
390
F
  0
LAYER
  5
4C5
330
2
100
AcDbSymbolTableRecord
100
AcDbLayerTableRecord
  2
FORMAT
 70
     0
 62
     7
  6
SLD-Solid
370
    -3
390
F
  0
LAYER
  5
4C6
330
2
100
AcDbSymbolTableRecord
100
AcDbLayerTableRecord
  2
NOTES
 70
     0
 62
     1
  6
SLD-Solid
370
    -3
390
F
  0
LAYER
  5
77
330
2
100
AcDbSymbolTableRecord
100
AcDbLayerTableRecord
  2
OBJECT
 70
     0
 62
     7
  6
SLD-Solid
370
    -3
390
F
  0
LAYER
  5
78
330
2
100
AcDbSymbolTableRecord
100
AcDbLayerTableRecord
  2
DIMS
 70
     0
 62
     5
  6
SLD-Solid
370
    -3
390
F
  0
LAYER
  5
79
330
2
100
AcDbSymbolTableRecord
100
AcDbLayerTableRecord
  2
TITLE
 70
     0
 62
     8
  6
SLD-Solid
370
    -3
390
F
  0
ENDTAB
  0
TABLE
  2
STYLE
  5
3
330
0
100
AcDbSymbolTable
 70
     5
  0
STYLE
  5
11
330
3
100
AcDbSymbolTableRecord
100
AcDbTextStyleTableRecord
  2
Standard
 70
     0
 40
0.0
 41
1.0
 50
0.0
 71
     0
 42
0.7500000000000001
  3
GOTHIC.TTF
  4

1001
ACAD
1000
CENTURY GOTHIC
1071
       34
  0
STYLE
  5
85
330
3
100
AcDbSymbolTableRecord
100
AcDbTextStyleTableRecord
  2
SLDTEXTSTYLE0
 70
     0
 40
0.0
 41
0.948
 50
0.0
 71
     0
 42
0.7500000000000001
  3
ARIAL.TTF
  4

1001
ACAD
1000
Arial
1071
      290
  0
STYLE
  5
89
330
3
100
AcDbSymbolTableRecord
100
AcDbTextStyleTableRecord
  2
SLDTEXTSTYLE1
 70
     0
 40
0.0
 41
0.913
 50
0.0
 71
     0
 42
0.7500000000000001
  3
GOTHIC.TTF
  4

1001
ACAD
1000
Century Gothic
1071
      290
  0
STYLE
  5
4BD
330
3
100
AcDbSymbolTableRecord
100
AcDbTextStyleTableRecord
  2
SLDTEXTSTYLE2
 70
     0
 40
0.0
 41
0.87
 50
0.0
 71
     0
 42
0.7500000000000001
  3
ARIALNB.TTF
  4

1001
ACAD
1000
Arial Narrow
1071
 33554722
  0
STYLE
  5
9A
330
3
100
AcDbSymbolTableRecord
100
AcDbTextStyleTableRecord
  2
SLDTEXTSTYLE3
 70
     0
 40
0.0
 41
0.87
 50
0.0
 71
     0
 42
0.7500000000000001
  3
ARIALN.TTF
  4

1001
ACAD
1000
Arial Narrow
1071
      290
  0
ENDTAB
  0
TABLE
  2
VIEW
  5
6
330
0
100
AcDbSymbolTable
 70
     0
  0
ENDTAB
  0
TABLE
  2
UCS
  5
7
330
0
100
AcDbSymbolTable
 70
     0
  0
ENDTAB
  0
TABLE
  2
APPID
  5
9
330
0
100
AcDbSymbolTable
 70
     1
  0
APPID
  5
12
330
9
100
AcDbSymbolTableRecord
100
AcDbRegAppTableRecord
  2
ACAD
 70
     0
  0
ENDTAB
  0
TABLE
  2
DIMSTYLE
  5
A
330
0
100
AcDbSymbolTable
 70
     6
100
AcDbDimStyleTable
  0
DIMSTYLE
105
27
330
A
100
AcDbSymbolTableRecord
100
AcDbDimStyleTableRecord
  2
Standard
 70
     0
340
11
  0
DIMSTYLE
105
175
102
{ACAD_REACTORS
330
174
330
258
330
263
102
}
330
A
100
AcDbSymbolTableRecord
100
AcDbDimStyleTableRecord
  2
SLDDIMSTYLE0
 70
     0
 41
0.7500000000000001
 44
0.0
 45
0.000000001
 78
    12
 79
     3
140
0.7500000000000001
147
0.1875
173
     1
271
     2
272
     2
276
     2
277
     5
284
    12
340
89
341
4C7
343
4C7
344
4C7
  0
DIMSTYLE
105
186
102
{ACAD_REACTORS
330
185
330
195
330
23A
330
26D
330
27D
330
499
102
}
330
A
100
AcDbSymbolTableRecord
100
AcDbDimStyleTableRecord
  2
SLDDIMSTYLE1
 70
     0
 41
0.7500000000000001
 44
0.0
 45
0.000000001
 78
    12
 79
     3
140
0.7500000000000001
147
0.1875
173
     1
271
     6
272
     2
276
     2
277
     5
284
    12
340
89
341
4C7
343
4C7
344
4C7
  0
DIMSTYLE
105
1A5
102
{ACAD_REACTORS
330
1A4
102
}
330
A
100
AcDbSymbolTableRecord
100
AcDbDimStyleTableRecord
  2
SLDDIMSTYLE2
 70
     0
 41
0.7500000000000001
 44
0.0
 45
0.000000001
 78
    12
 79
     3
140
0.7500000000000001
147
0.1875
172
     1
173
     1
271
     2
272
     2
276
     2
277
     5
284
    12
289
     0
340
89
341
4C7
343
4C7
344
4C7
  0
DIMSTYLE
105
24A
102
{ACAD_REACTORS
330
249
330
4A8
102
}
330
A
100
AcDbSymbolTableRecord
100
AcDbDimStyleTableRecord
  2
SLDDIMSTYLE3
 70
     0
 41
0.7500000000000001
 44
0.0
 45
0.000000001
 78
    12
 79
     3
140
0.7500000000000001
147
0.1875
172
     1
173
     1
271
     6
272
     2
276
     2
277
     5
284
    12
289
     0
340
89
341
4C7
343
4C7
344
4C7
  0
DIMSTYLE
105
3D3
330
A
100
AcDbSymbolTableRecord
100
AcDbDimStyleTableRecord
  2
SLDDIMSTYLE4
 70
     0
 41
0.0769230769230769
 44
0.0
 45
0.000000001
146
0.2307692307692308
147
0.0
173
     1
271
     0
272
     0
276
     2
277
     5
340
11
341
4CD
343
4CD
344
4CD
  0
ENDTAB
  0
TABLE
  2
BLOCK_RECORD
  5
1
330
0
100
AcDbSymbolTable
 70
    18
  0
BLOCK_RECORD
  5
1F
330
1
100
AcDbSymbolTableRecord
100
AcDbBlockTableRecord
  2
*Model_Space
340
22
  0
BLOCK_RECORD
  5
73
330
1
100
AcDbSymbolTableRecord
100
AcDbBlockTableRecord
  2
*Paper_Space
340
74
  0
BLOCK_RECORD
  5
4C7
330
1
100
AcDbSymbolTableRecord
100
AcDbBlockTableRecord
  2
_Open90
340
0
102
{BLKREFS
331
17F
331
180
331
18A
331
18B
331
199
331
19A
331
1A9
331
1AA
331
23E
331
23F
331
24E
331
24F
331
25C
331
25D
331
267
331
268
331
271
331
272
331
281
331
282
331
49D
331
49E
331
4AC
331
4AD
102
}
  0
BLOCK_RECORD
  5
4CD
330
1
100
AcDbSymbolTableRecord
100
AcDbBlockTableRecord
  2
_Origin
340
0
  0
BLOCK_RECORD
  5
23
330
1
100
AcDbSymbolTableRecord
100
AcDbBlockTableRecord
  2
*Paper_Space2
340
26
  0
BLOCK_RECORD
  5
8F
330
1
100
AcDbSymbolTableRecord
100
AcDbBlockTableRecord
  2
SW_NOTE_0
340
0
  0
BLOCK_RECORD
  5
95
330
1
100
AcDbSymbolTableRecord
100
AcDbBlockTableRecord
  2
SW_NOTE_0_1
340
0
102
{BLKREFS
331
9E
102
}
  0
BLOCK_RECORD
  5
17C
330
1
100
AcDbSymbolTableRecord
100
AcDbBlockTableRecord
  2
_D
340
0
  0
BLOCK_RECORD
  5
187
330
1
100
AcDbSymbolTableRecord
100
AcDbBlockTableRecord
  2
_D_1
340
0
  0
BLOCK_RECORD
  5
196
330
1
100
AcDbSymbolTableRecord
100
AcDbBlockTableRecord
  2
_D_2
340
0
  0
BLOCK_RECORD
  5
1A6
330
1
100
AcDbSymbolTableRecord
100
AcDbBlockTableRecord
  2
_D_3
340
0
  0
BLOCK_RECORD
  5
23B
330
1
100
AcDbSymbolTableRecord
100
AcDbBlockTableRecord
  2
_D_4
340
0
  0
BLOCK_RECORD
  5
24B
330
1
100
AcDbSymbolTableRecord
100
AcDbBlockTableRecord
  2
_D_5
340
0
  0
BLOCK_RECORD
  5
259
330
1
100
AcDbSymbolTableRecord
100
AcDbBlockTableRecord
  2
_D_6
340
0
  0
BLOCK_RECORD
  5
264
330
1
100
AcDbSymbolTableRecord
100
AcDbBlockTableRecord
  2
_D_7
340
0
  0
BLOCK_RECORD
  5
26E
330
1
100
AcDbSymbolTableRecord
100
AcDbBlockTableRecord
  2
_D_8
340
0
  0
BLOCK_RECORD
  5
27E
330
1
100
AcDbSymbolTableRecord
100
AcDbBlockTableRecord
  2
_D_9
340
0
  0
BLOCK_RECORD
  5
3CD
330
1
100
AcDbSymbolTableRecord
100
AcDbBlockTableRecord
  2
SW_NOTE_0_2
340
0
102
{BLKREFS
331
3D2
102
}
  0
BLOCK_RECORD
  5
49A
330
1
100
AcDbSymbolTableRecord
100
AcDbBlockTableRecord
  2
_D_10
340
0
  0
BLOCK_RECORD
  5
4A9
330
1
100
AcDbSymbolTableRecord
100
AcDbBlockTableRecord
  2
_D_11
340
0
  0
ENDTAB
  0
ENDSEC
  0
SECTION
  2
BLOCKS
  0
BLOCK
  5
20
330
1F
100
AcDbEntity
  8
0
100
AcDbBlockBegin
  2
*Model_Space
 70
     0
 71
     0
 10
0.0
 20
0.0
 30
0.0
  3
*Model_Space
  1

  0
ENDBLK
  5
21
330
1F
100
AcDbEntity
  8
0
100
AcDbBlockEnd
  0
BLOCK
  5
75
330
73
100
AcDbEntity
 67
     1
  8
0
100
AcDbBlockBegin
  2
*Paper_Space
 70
     0
 71
     0
 10
0.0
 20
0.0
 30
0.0
  3
*Paper_Space
  1

  0
ENDBLK
  5
76
330
73
100
AcDbEntity
 67
     1
  8
0
100
AcDbBlockEnd
  0
BLOCK
  5
4C8
330
4C7
100
AcDbEntity
  8
0
100
AcDbBlockBegin
  2
_Open90
 70
     0
 71
     0
 10
0.0
 20
0.0
 30
0.0
  3
_Open90
  1

  0
LINE
  5
179
330
4C7
100
AcDbEntity
  8
0
  6
ByBlock
 62
     0
370
    -2
100
AcDbLine
 10
-0.5
 20
0.5
 30
0.0
 11
0.0
 21
0.0
 31
0.0
  0
LINE
  5
17A
330
4C7
100
AcDbEntity
  8
0
  6
ByBlock
 62
     0
370
    -2
100
AcDbLine
 10
0.0
 20
0.0
 30
0.0
 11
-0.5
 21
-0.5
 31
0.0
  0
LINE
  5
17B
330
4C7
100
AcDbEntity
  8
0
  6
ByBlock
 62
     0
370
    -2
100
AcDbLine
 10
0.0
 20
0.0
 30
0.0
 11
-1.0
 21
0.0
 31
0.0
  0
ENDBLK
  5
4C9
330
4C7
100
AcDbEntity
  8
0
100
AcDbBlockEnd
  0
BLOCK
  5
4CE
330
4CD
100
AcDbEntity
  8
0
100
AcDbBlockBegin
  2
_Origin
 70
     0
 71
     0
 10
0.0
 20
0.0
 30
0.0
  3
_Origin
  1

  0
CIRCLE
  5
3D7
330
4CD
100
AcDbEntity
  8
0
  6
ByBlock
 62
     0
370
    -2
100
AcDbCircle
 10
0.0
 20
0.0
 30
0.0
 40
0.5
  0
LINE
  5
3D8
330
4CD
100
AcDbEntity
  8
0
  6
ByBlock
 62
     0
370
    -2
100
AcDbLine
 10
0.0
 20
0.0
 30
0.0
 11
-1.0
 21
0.0
 31
0.0
  0
ENDBLK
  5
4CF
330
4CD
100
AcDbEntity
  8
0
100
AcDbBlockEnd
  0
BLOCK
  5
4D5
330
23
100
AcDbEntity
  8
0
100
AcDbBlockBegin
  2
*Paper_Space2
 70
     0
 71
     0
 10
0.0
 20
0.0
 30
0.0
  3
*Paper_Space2
  1

  0
ENDBLK
  5
4D6
330
23
100
AcDbEntity
  8
0
100
AcDbBlockEnd
  0
BLOCK
  5
4D7
330
8F
100
AcDbEntity
  8
0
100
AcDbBlockBegin
  2
SW_NOTE_0
 70
     0
 71
     0
 10
0.0
 20
0.0
 30
0.0
  3
SW_NOTE_0
  1

  0
MTEXT
  5
4F5
330
8F
100
AcDbEntity
  8
NOTES
 62
     0
100
AcDbMText
 10
0.0
 20
0.3759780907668234
 30
0.0
 40
0.2916666666666666
 41
0.0
 71
     1
 72
     1
  1
FROST PRODUCTS LTD.
  7
SLDTEXTSTYLE0
 73
     1
 44
1.0
  0
MTEXT
  5
4F6
330
8F
100
AcDbEntity
  8
NOTES
 62
     0
100
AcDbMText
 10
0.0
 20
-0.0495142708586375
 30
0.0
 40
0.2291666666666666
 41
0.0
 71
     1
 72
     1
  1
5280 JOHN LUCUS DRIVE, BURLINGTON, ON, L7L 5Z9
  7
SLDTEXTSTYLE0
 73
     1
 44
1.0
  0
ENDBLK
  5
4D8
330
8F
100
AcDbEntity
  8
0
100
AcDbBlockEnd
  0
BLOCK
  5
4D9
330
95
100
AcDbEntity
  8
0
100
AcDbBlockBegin
  2
SW_NOTE_0_1
 70
     0
 71
     0
 10
0.0
 20
0.0
 30
0.0
  3
SW_NOTE_0_1
  1

  0
MTEXT
  5
99
330
95
100
AcDbEntity
  8
NOTES
 62
     0
100
AcDbMText
 10
0.0
 20
0.2381282770514712
 30
0.0
 40
0.1847290640394089
 41
0.0
 71
     1
 72
     1
  1
PROPRIETARY AND CONFIDENTIAL
  7
SLDTEXTSTYLE2
 73
     1
 44
1.0
  0
MTEXT
  5
9B
330
95
100
AcDbEntity
  8
NOTES
 62
     0
100
AcDbMText
 10
0.0
 20
-0.0504364795553608
 30
0.0
 40
0.25
 41
0.0
 71
     1
 72
     1
  1
THE INFORMATION CONTAINED IN THIS DRAWING IS THE SOLE PROPERTY OF 
  7
SLDTEXTSTYLE3
 73
     1
 44
1.0
  0
MTEXT
  5
9C
330
95
100
AcDbEntity
  8
NOTES
 62
     0
100
AcDbMText
 10
0.0
 20
-0.4231398940537119
 30
0.0
 40
0.25
 41
0.0
 71
     1
 72
     1
  1
FROST PRODUCTS LTD.  ANY REPRODUCTION IN PART OR AS A WHOLE WITHOUT 
  7
SLDTEXTSTYLE3
 73
     1
 44
1.0
  0
MTEXT
  5
9D
330
95
100
AcDbEntity
  8
NOTES
 62
     0
100
AcDbMText
 10
0.0
 20
-0.7958433085520636
 30
0.0
 40
0.25
 41
0.0
 71
     1
 72
     1
  1
THE WRITTEN PERMISSION OF FROST PRODUCTS LTD. IS PROHIBITED.
  7
SLDTEXTSTYLE3
 73
     1
 44
1.0
  0
ENDBLK
  5
4DA
330
95
100
AcDbEntity
  8
0
100
AcDbBlockEnd
  0
BLOCK
  5
4DB
330
17C
100
AcDbEntity
  8
0
100
AcDbBlockBegin
  2
_D
 70
     0
 71
     0
 10
0.0
 20
0.0
 30
0.0
  3
_D
  1

  0
INSERT
  5
17F
330
17C
100
AcDbEntity
  8
DIMS
100
AcDbBlockReference
  2
_Open90
 10
5.408461420656844
 20
6.646072509568886
 30
0.0
 41
0.7500000000000001
 42
0.7500000000000001
 50
270.0000000000004
  0
INSERT
  5
180
330
17C
100
AcDbEntity
  8
DIMS
100
AcDbBlockReference
  2
_Open90
 10
5.408461420656846
 20
38.70857250956887
 30
0.0
 41
0.7500000000000001
 42
0.7500000000000001
 50
90.00000000000041
  0
LINE
  5
181
330
17C
100
AcDbEntity
  8
DIMS
100
AcDbLine
 10
7.945896760375292
 20
38.70857250956887
 30
0.0
 11
5.033461420656845
 21
38.70857250956887
 31
0.0
  0
LINE
  5
182
330
17C
100
AcDbEntity
  8
DIMS
100
AcDbLine
 10
5.408461420656844
 20
6.646072509568886
 30
0.0
 11
5.408461420656844
 21
8.294897754438626
 31
0.0
  0
LINE
  5
183
330
17C
100
AcDbEntity
  8
DIMS
100
AcDbLine
 10
5.408461420656846
 20
38.70857250956887
 30
0.0
 11
5.408461420656844
 21
9.485522753570368
 31
0.0
  0
MTEXT
  5
184
330
17C
100
AcDbEntity
  8
DIMS
100
AcDbMText
 10
-3.614456852487976
 20
9.252905566938624
 30
0.0
 40
0.7500000000000001
 41
0.0
 71
     1
 72
     1
  1
                                48" (1220mm) max.
  7
SLDTEXTSTYLE1
 73
     1
 44
1.0
  0
ENDBLK
  5
4DC
330
17C
100
AcDbEntity
  8
0
100
AcDbBlockEnd
  0
BLOCK
  5
4DD
330
187
100
AcDbEntity
  8
0
100
AcDbBlockBegin
  2
_D_1
 70
     0
 71
     0
 10
0.0
 20
0.0
 30
0.0
  3
_D_1
  1

  0
INSERT
  5
18A
330
187
100
AcDbEntity
  8
DIMS
100
AcDbBlockReference
  2
_Open90
 10
26.75365842853076
 20
43.13138545840305
 30
-2.33411085708441
 41
0.7500000000000001
 42
0.7500000000000001
 50
90.00000000000024
  0
INSERT
  5
18B
330
187
100
AcDbEntity
  8
DIMS
100
AcDbBlockReference
  2
_Open90
 10
26.75365842853066
 20
13.06798545840306
 30
-2.33411085708441
 41
0.7500000000000001
 42
0.7500000000000001
 50
270.0000000000002
  0
LINE
  5
18C
330
187
100
AcDbEntity
  8
DIMS
100
AcDbLine
 10
26.48907496502147
 20
28.26597257242535
 30
0.0
 11
27.81720006240701
 21
28.26597257242535
 31
0.0
  0
LINE
  5
18D
330
187
100
AcDbEntity
  8
DIMS
100
AcDbLine
 10
23.89466416759065
 20
43.13138545840305
 30
0.0
 11
27.12865842853076
 21
43.13138545840305
 31
0.0
  0
LINE
  5
18E
330
187
100
AcDbEntity
  8
DIMS
100
AcDbLine
 10
23.89429416759081
 20
13.06798545840307
 30
0.0
 11
27.12865842853066
 21
13.06798545840306
 31
0.0
  0
LINE
  5
18F
330
187
100
AcDbEntity
  8
DIMS
100
AcDbLine
 10
26.75365842853076
 20
43.13138545840305
 30
0.0
 11
26.75365842853071
 21
29.16982675935798
 31
0.0
  0
LINE
  5
190
330
187
100
AcDbEntity
  8
DIMS
100
AcDbLine
 10
26.75365842853066
 20
13.06798545840306
 30
0.0
 11
26.75365842853071
 21
27.20826415282994
 31
0.0
  0
MTEXT
  5
191
330
187
100
AcDbEntity
  8
DIMS
100
AcDbMText
 10
25.27084578477558
 20
28.61007415848914
 30
0.0
 40
0.7500000000000001
 41
0.0
 71
     1
 72
     1
  1
30
  7
SLDTEXTSTYLE1
 73
     1
 44
1.0
  0
MTEXT
  5
192
330
187
100
AcDbEntity
  8
DIMS
100
AcDbMText
 10
26.87605417960456
 20
29.15804289330755
 30
0.0
 40
0.7500000000000001
 41
0.0
 71
     1
 72
     1
  1
1
  7
SLDTEXTSTYLE1
 73
     1
 44
1.0
  0
MTEXT
  5
193
330
187
100
AcDbEntity
  8
DIMS
100
AcDbMText
 10
26.59897084549488
 20
28.16627202720423
 30
0.0
 40
0.7500000000000001
 41
0.0
 71
     1
 72
     1
  1
16
  7
SLDTEXTSTYLE1
 73
     1
 44
1.0
  0
MTEXT
  5
194
330
187
100
AcDbEntity
  8
DIMS
100
AcDbMText
 10
27.92709597954666
 20
28.61007415848914
 30
0.0
 40
0.7500000000000001
 41
0.0
 71
     1
 72
     1
  1
"
  7
SLDTEXTSTYLE1
 73
     1
 44
1.0
  0
ENDBLK
  5
4DE
330
187
100
AcDbEntity
  8
0
100
AcDbBlockEnd
  0
BLOCK
  5
4DF
330
196
100
AcDbEntity
  8
0
100
AcDbBlockBegin
  2
_D_2
 70
     0
 71
     0
 10
0.0
 20
0.0
 30
0.0
  3
_D_2
  1

  0
INSERT
  5
199
330
196
100
AcDbEntity
  8
DIMS
100
AcDbBlockReference
  2
_Open90
 10
23.76143303482987
 20
44.94250848989911
 30
-2.33411085708441
 41
0.7500000000000001
 42
0.7500000000000001
 50
0.0000000000016793
  0
INSERT
  5
19A
330
196
100
AcDbEntity
  8
DIMS
100
AcDbBlockReference
  2
_Open90
 10
6.511293034829879
 20
44.94250848989872
 30
-2.33411085708441
 41
0.7500000000000001
 42
0.7500000000000001
 50
180.0000000000017
  0
LINE
  5
19B
330
196
100
AcDbEntity
  8
DIMS
100
AcDbLine
 10
14.94645953008982
 20
45.0194356062303
 30
0.0
 11
15.72041792258976
 21
45.0194356062303
 31
0.0
  0
LINE
  5
19C
330
196
100
AcDbEntity
  8
DIMS
100
AcDbLine
 10
23.76143303482991
 20
43.26461659116379
 30
0.0
 11
23.76143303482987
 21
45.31750848989911
 31
0.0
  0
LINE
  5
19D
330
196
100
AcDbEntity
  8
DIMS
100
AcDbLine
 10
6.511293034829917
 20
43.26461659116372
 30
0.0
 11
6.51129303482987
 21
45.31750848989872
 31
0.0
  0
LINE
  5
19E
330
196
100
AcDbEntity
  8
DIMS
100
AcDbLine
 10
23.76143303482987
 20
44.94250848989911
 30
0.0
 11
16.13968863913866
 21
44.94250848989894
 31
0.0
  0
LINE
  5
19F
330
196
100
AcDbEntity
  8
DIMS
100
AcDbLine
 10
6.511293034829879
 20
44.94250848989872
 30
0.0
 11
13.72823034984394
 21
44.94250848989888
 31
0.0
  0
MTEXT
  5
1A0
330
196
100
AcDbEntity
  8
DIMS
100
AcDbMText
 10
13.72823034984394
 20
45.36353719229408
 30
0.0
 40
0.7500000000000001
 41
0.0
 71
     1
 72
     1
  1
17
  7
SLDTEXTSTYLE1
 73
     1
 44
1.0
  0
MTEXT
  5
1A1
330
196
100
AcDbEntity
  8
DIMS
100
AcDbMText
 10
15.05635539223011
 20
45.9115059271125
 30
0.0
 40
0.7500000000000001
 41
0.0
 71
     1
 72
     1
  1
1
  7
SLDTEXTSTYLE1
 73
     1
 44
1.0
  0
MTEXT
  5
1A2
330
196
100
AcDbEntity
  8
DIMS
100
AcDbMText
 10
15.05635539223011
 20
44.91973506100918
 30
0.0
 40
0.7500000000000001
 41
0.0
 71
     1
 72
     1
  1
4
  7
SLDTEXTSTYLE1
 73
     1
 44
1.0
  0
MTEXT
  5
1A3
330
196
100
AcDbEntity
  8
DIMS
100
AcDbMText
 10
15.83031369306444
 20
45.36353719229408
 30
0.0
 40
0.7500000000000001
 41
0.0
 71
     1
 72
     1
  1
"
  7
SLDTEXTSTYLE1
 73
     1
 44
1.0
  0
ENDBLK
  5
4E0
330
196
100
AcDbEntity
  8
0
100
AcDbBlockEnd
  0
BLOCK
  5
4E1
330
1A6
100
AcDbEntity
  8
0
100
AcDbBlockBegin
  2
_D_3
 70
     0
 71
     0
 10
0.0
 20
0.0
 30
0.0
  3
_D_3
  1

  0
INSERT
  5
1A9
330
1A6
100
AcDbEntity
  8
DIMS
100
AcDbBlockReference
  2
_Open90
 10
5.408461420656866
 20
38.7085725095691
 30
-2.33411085708441
 41
0.7500000000000001
 42
0.7500000000000001
 50
90.00000000000041
  0
INSERT
  5
1AA
330
1A6
100
AcDbEntity
  8
DIMS
100
AcDbBlockReference
  2
_Open90
 10
5.408461420656866
 20
41.72768545840313
 30
-2.33411085708441
 41
0.7500000000000001
 42
0.7500000000000001
 50
270.0000000000004
  0
LINE
  5
1AB
330
1A6
100
AcDbEntity
  8
DIMS
100
AcDbLine
 10
7.945896760375292
 20
38.7085725095691
 30
0.0
 11
5.033461420656866
 21
38.7085725095691
 31
0.0
  0
LINE
  5
1AC
330
1A6
100
AcDbEntity
  8
DIMS
100
AcDbLine
 10
7.248596368163391
 20
41.72768545840313
 30
0.0
 11
5.033461420656866
 21
41.72768545840313
 31
0.0
  0
LINE
  5
1AD
330
1A6
100
AcDbEntity
  8
DIMS
100
AcDbLine
 10
5.408461420656866
 20
38.7085725095691
 30
0.0
 11
5.408461420656866
 21
37.2662648172614
 31
0.0
  0
LINE
  5
1AE
330
1A6
100
AcDbEntity
  8
DIMS
100
AcDbLine
 10
5.408461420656866
 20
41.72768545840313
 30
0.0
 11
5.408461420656866
 21
43.16999315071082
 31
0.0
  0
MTEXT
  5
1AF
330
1A6
100
AcDbEntity
  8
DIMS
100
AcDbMText
 10
4.97669059517695
 20
40.7809871440201
 30
0.0
 40
0.7500000000000001
 41
0.0
 71
     1
 72
     1
  1
3"
  7
SLDTEXTSTYLE1
 73
     1
 44
1.0
  0
ENDBLK
  5
4E2
330
1A6
100
AcDbEntity
  8
0
100
AcDbBlockEnd
  0
BLOCK
  5
4E3
330
23B
100
AcDbEntity
  8
0
100
AcDbBlockBegin
  2
_D_4
 70
     0
 71
     0
 10
0.0
 20
0.0
 30
0.0
  3
_D_4
  1

  0
INSERT
  5
23E
330
23B
100
AcDbEntity
  8
DIMS
100
AcDbBlockReference
  2
_Open90
 10
39.18997256541207
 20
44.23384707257628
 30
1.127629449660301
 41
0.7500000000000001
 42
0.7500000000000001
 50
0.0000000000005598
  0
INSERT
  5
23F
330
23B
100
AcDbEntity
  8
DIMS
100
AcDbBlockReference
  2
_Open90
 10
35.44007256541207
 20
44.23384707257627
 30
1.127629449660301
 41
0.7500000000000001
 42
0.7500000000000001
 50
180.0000000000006
  0
LINE
  5
240
330
23B
100
AcDbEntity
  8
DIMS
100
AcDbLine
 10
37.41676436576984
 20
44.31077418890766
 30
0.0
 11
38.19072275826978
 21
44.31077418890766
 31
0.0
  0
LINE
  5
241
330
23B
100
AcDbEntity
  8
DIMS
100
AcDbLine
 10
39.18997256541208
 20
41.89445212506971
 30
0.0
 11
39.18997256541207
 21
44.60884707257628
 31
0.0
  0
LINE
  5
242
330
23B
100
AcDbEntity
  8
DIMS
100
AcDbLine
 10
35.44007256541207
 20
43.26461659116379
 30
0.0
 11
35.44007256541207
 21
44.60884707257627
 31
0.0
  0
LINE
  5
243
330
23B
100
AcDbEntity
  8
DIMS
100
AcDbLine
 10
39.18997256541207
 20
44.23384707257628
 30
0.0
 11
38.60999358481742
 21
44.23384707257628
 31
0.0
  0
LINE
  5
244
330
23B
100
AcDbEntity
  8
DIMS
100
AcDbLine
 10
35.44007256541207
 20
44.23384707257627
 30
0.0
 11
36.75270185374331
 21
44.23384707257628
 31
0.0
  0
MTEXT
  5
245
330
23B
100
AcDbEntity
  8
DIMS
100
AcDbMText
 10
36.75270185374331
 20
44.65487577497145
 30
0.0
 40
0.7500000000000001
 41
0.0
 71
     1
 72
     1
  1
3
  7
SLDTEXTSTYLE1
 73
     1
 44
1.0
  0
MTEXT
  5
246
330
23B
100
AcDbEntity
  8
DIMS
100
AcDbMText
 10
37.52666022791013
 20
45.20284450978986
 30
0.0
 40
0.7500000000000001
 41
0.0
 71
     1
 72
     1
  1
3
  7
SLDTEXTSTYLE1
 73
     1
 44
1.0
  0
MTEXT
  5
247
330
23B
100
AcDbEntity
  8
DIMS
100
AcDbMText
 10
37.52666022791013
 20
44.21107364368654
 30
0.0
 40
0.7500000000000001
 41
0.0
 71
     1
 72
     1
  1
4
  7
SLDTEXTSTYLE1
 73
     1
 44
1.0
  0
MTEXT
  5
248
330
23B
100
AcDbEntity
  8
DIMS
100
AcDbMText
 10
38.30061863874319
 20
44.65487577497145
 30
0.0
 40
0.7500000000000001
 41
0.0
 71
     1
 72
     1
  1
"
  7
SLDTEXTSTYLE1
 73
     1
 44
1.0
  0
ENDBLK
  5
4E4
330
23B
100
AcDbEntity
  8
0
100
AcDbBlockEnd
  0
BLOCK
  5
4E5
330
24B
100
AcDbEntity
  8
0
100
AcDbBlockBegin
  2
_D_5
 70
     0
 71
     0
 10
0.0
 20
0.0
 30
0.0
  3
_D_5
  1

  0
INSERT
  5
24E
330
24B
100
AcDbEntity
  8
DIMS
100
AcDbBlockReference
  2
_Open90
 10
35.16017256541207
 20
44.2338470725763
 30
1.127629449660301
 41
0.7500000000000001
 42
0.7500000000000001
 50
0.0000000000005598
  0
INSERT
  5
24F
330
24B
100
AcDbEntity
  8
DIMS
100
AcDbBlockReference
  2
_Open90
 10
35.44007256541207
 20
44.2338470725763
 30
1.127629449660301
 41
0.7500000000000001
 42
0.7500000000000001
 50
180.0000000000006
  0
LINE
  5
250
330
24B
100
AcDbEntity
  8
DIMS
100
AcDbLine
 10
32.84563467846689
 20
44.31077418890769
 30
0.0
 11
33.61959307096684
 21
44.31077418890769
 31
0.0
  0
LINE
  5
251
330
24B
100
AcDbEntity
  8
DIMS
100
AcDbLine
 10
35.16017256541208
 20
43.23915212506972
 30
0.0
 11
35.16017256541207
 21
44.6088470725763
 31
0.0
  0
LINE
  5
252
330
24B
100
AcDbEntity
  8
DIMS
100
AcDbLine
 10
35.44007256541207
 20
43.26461659116379
 30
0.0
 11
35.44007256541207
 21
44.6088470725763
 31
0.0
  0
LINE
  5
253
330
24B
100
AcDbEntity
  8
DIMS
100
AcDbLine
 10
35.16017256541207
 20
44.2338470725763
 30
0.0
 11
34.03886386084822
 21
44.2338470725763
 31
0.0
  0
LINE
  5
254
330
24B
100
AcDbEntity
  8
DIMS
100
AcDbLine
 10
35.44007256541207
 20
44.2338470725763
 30
0.0
 11
36.88238025771976
 21
44.2338470725763
 31
0.0
  0
MTEXT
  5
255
330
24B
100
AcDbEntity
  8
DIMS
100
AcDbMText
 10
32.95553054060719
 20
45.20284450978989
 30
0.0
 40
0.7500000000000001
 41
0.0
 71
     1
 72
     1
  1
1
  7
SLDTEXTSTYLE1
 73
     1
 44
1.0
  0
MTEXT
  5
256
330
24B
100
AcDbEntity
  8
DIMS
100
AcDbMText
 10
32.95553054060719
 20
44.21107364368657
 30
0.0
 40
0.7500000000000001
 41
0.0
 71
     1
 72
     1
  1
4
  7
SLDTEXTSTYLE1
 73
     1
 44
1.0
  0
MTEXT
  5
257
330
24B
100
AcDbEntity
  8
DIMS
100
AcDbMText
 10
33.729488914774
 20
44.65487577497148
 30
0.0
 40
0.7500000000000001
 41
0.0
 71
     1
 72
     1
  1
"
  7
SLDTEXTSTYLE1
 73
     1
 44
1.0
  0
ENDBLK
  5
4E6
330
24B
100
AcDbEntity
  8
0
100
AcDbBlockEnd
  0
BLOCK
  5
4E7
330
259
100
AcDbEntity
  8
0
100
AcDbBlockBegin
  2
_D_6
 70
     0
 71
     0
 10
0.0
 20
0.0
 30
0.0
  3
_D_6
  1

  0
INSERT
  5
25C
330
259
100
AcDbEntity
  8
DIMS
100
AcDbBlockReference
  2
_Open90
 10
31.16017256541191
 20
45.88739037966278
 30
1.127629449660301
 41
0.7500000000000001
 42
0.7500000000000001
 50
180.0000000000006
  0
INSERT
  5
25D
330
259
100
AcDbEntity
  8
DIMS
100
AcDbBlockReference
  2
_Open90
 10
39.18997256541206
 20
45.8873903796628
 30
1.127629449660301
 41
0.7500000000000001
 42
0.7500000000000001
 50
0.0000000000006361
  0
LINE
  5
25E
330
259
100
AcDbEntity
  8
DIMS
100
AcDbLine
 10
31.16017256541194
 20
38.83523917623553
 30
0.0
 11
31.16017256541191
 21
46.26239037966278
 31
0.0
  0
LINE
  5
25F
330
259
100
AcDbEntity
  8
DIMS
100
AcDbLine
 10
39.18997256541208
 20
41.89445212506971
 30
0.0
 11
39.18997256541206
 21
46.26239037966281
 31
0.0
  0
LINE
  5
260
330
259
100
AcDbEntity
  8
DIMS
100
AcDbLine
 10
31.16017256541191
 20
45.88739037966278
 30
0.0
 11
34.72795815597055
 21
45.88739037966278
 31
0.0
  0
LINE
  5
261
330
259
100
AcDbEntity
  8
DIMS
100
AcDbLine
 10
39.18997256541206
 20
45.8873903796628
 30
0.0
 11
35.59149980693038
 21
45.88739037966279
 31
0.0
  0
MTEXT
  5
262
330
259
100
AcDbEntity
  8
DIMS
100
AcDbMText
 10
34.72795815597055
 20
46.2500856925969
 30
0.0
 40
0.7500000000000001
 41
0.0
 71
     1
 72
     1
  1
8"
  7
SLDTEXTSTYLE1
 73
     1
 44
1.0
  0
ENDBLK
  5
4E8
330
259
100
AcDbEntity
  8
0
100
AcDbBlockEnd
  0
BLOCK
  5
4E9
330
264
100
AcDbEntity
  8
0
100
AcDbBlockBegin
  2
_D_7
 70
     0
 71
     0
 10
0.0
 20
0.0
 30
0.0
  3
_D_7
  1

  0
INSERT
  5
267
330
264
100
AcDbEntity
  8
DIMS
100
AcDbBlockReference
  2
_Open90
 10
31.16017256541194
 20
40.42816321520441
 30
1.127629449660301
 41
0.7500000000000001
 42
0.7500000000000001
 50
180.0000000000004
  0
INSERT
  5
268
330
264
100
AcDbEntity
  8
DIMS
100
AcDbBlockReference
  2
_Open90
 10
35.16017256541348
 20
40.42816321520441
 30
1.127629449660301
 41
0.7500000000000001
 42
0.7500000000000001
 50
0.0000000000004071
  0
LINE
  5
269
330
264
100
AcDbEntity
  8
DIMS
100
AcDbLine
 10
31.16017256541194
 20
38.83523917623553
 30
0.0
 11
31.16017256541194
 21
40.80316321520441
 31
0.0
  0
LINE
  5
26A
330
264
100
AcDbEntity
  8
DIMS
100
AcDbLine
 10
31.16017256541194
 20
40.42816321520441
 30
0.0
 11
32.95553052227405
 21
40.42816321520441
 31
0.0
  0
LINE
  5
26B
330
264
100
AcDbEntity
  8
DIMS
100
AcDbLine
 10
35.16017256541348
 20
40.42816321520441
 30
0.0
 11
33.81907217323387
 21
40.42816321520441
 31
0.0
  0
MTEXT
  5
26C
330
264
100
AcDbEntity
  8
DIMS
100
AcDbMText
 10
32.95553052227405
 20
40.79085852813854
 30
0.0
 40
0.7500000000000001
 41
0.0
 71
     1
 72
     1
  1
4"
  7
SLDTEXTSTYLE1
 73
     1
 44
1.0
  0
ENDBLK
  5
4EA
330
264
100
AcDbEntity
  8
0
100
AcDbBlockEnd
  0
BLOCK
  5
4EB
330
26E
100
AcDbEntity
  8
0
100
AcDbBlockBegin
  2
_D_8
 70
     0
 71
     0
 10
0.0
 20
0.0
 30
0.0
  3
_D_8
  1

  0
INSERT
  5
271
330
26E
100
AcDbEntity
  8
DIMS
100
AcDbBlockReference
  2
_Open90
 10
39.81989382525605
 20
43.13138545840303
 30
1.127629449660301
 41
0.7500000000000001
 42
0.7500000000000001
 50
90.00000000000021
  0
INSERT
  5
272
330
26E
100
AcDbEntity
  8
DIMS
100
AcDbBlockReference
  2
_Open90
 10
39.81989382525605
 20
41.78668545840304
 30
1.127629449660301
 41
0.7500000000000001
 42
0.7500000000000001
 50
270.0000000000002
  0
LINE
  5
273
330
26E
100
AcDbEntity
  8
DIMS
100
AcDbLine
 10
40.73395633728259
 20
45.25565607867146
 30
0.0
 11
41.50791472978252
 21
45.25565607867146
 31
0.0
  0
LINE
  5
274
330
26E
100
AcDbEntity
  8
DIMS
100
AcDbLine
 10
35.60673923207874
 20
43.13138545840305
 30
0.0
 11
40.19489382525605
 21
43.13138545840303
 31
0.0
  0
LINE
  5
275
330
26E
100
AcDbEntity
  8
DIMS
100
AcDbLine
 10
39.29773923207873
 20
41.78668545840304
 30
0.0
 11
40.19489382525605
 21
41.78668545840304
 31
0.0
  0
LINE
  5
276
330
26E
100
AcDbEntity
  8
DIMS
100
AcDbLine
 10
40.06989382525605
 20
45.17872896234007
 30
0.0
 11
39.81989382525605
 21
45.17872896234007
 31
0.0
  0
LINE
  5
277
330
26E
100
AcDbEntity
  8
DIMS
100
AcDbLine
 10
39.81989382525605
 20
45.17872896234007
 30
0.0
 11
39.81989382525605
 21
43.13138545840303
 31
0.0
  0
LINE
  5
278
330
26E
100
AcDbEntity
  8
DIMS
100
AcDbLine
 10
39.81989382525605
 20
43.13138545840303
 30
0.0
 11
39.81989382525605
 21
41.78668545840304
 31
0.0
  0
MTEXT
  5
279
330
26E
100
AcDbEntity
  8
DIMS
100
AcDbMText
 10
40.06989382525605
 20
45.59975766473524
 30
0.0
 40
0.7500000000000001
 41
0.0
 71
     1
 72
     1
  1
1
  7
SLDTEXTSTYLE1
 73
     1
 44
1.0
  0
MTEXT
  5
27A
330
26E
100
AcDbEntity
  8
DIMS
100
AcDbMText
 10
40.84385219942287
 20
46.14772639955365
 30
0.0
 40
0.7500000000000001
 41
0.0
 71
     1
 72
     1
  1
3
  7
SLDTEXTSTYLE1
 73
     1
 44
1.0
  0
MTEXT
  5
27B
330
26E
100
AcDbEntity
  8
DIMS
100
AcDbMText
 10
40.84385219942287
 20
45.15595553345033
 30
0.0
 40
0.7500000000000001
 41
0.0
 71
     1
 72
     1
  1
8
  7
SLDTEXTSTYLE1
 73
     1
 44
1.0
  0
MTEXT
  5
27C
330
26E
100
AcDbEntity
  8
DIMS
100
AcDbMText
 10
41.61781061025593
 20
45.59975766473524
 30
0.0
 40
0.7500000000000001
 41
0.0
 71
     1
 72
     1
  1
"
  7
SLDTEXTSTYLE1
 73
     1
 44
1.0
  0
ENDBLK
  5
4EC
330
26E
100
AcDbEntity
  8
0
100
AcDbBlockEnd
  0
BLOCK
  5
4ED
330
27E
100
AcDbEntity
  8
0
100
AcDbBlockBegin
  2
_D_9
 70
     0
 71
     0
 10
0.0
 20
0.0
 30
0.0
  3
_D_9
  1

  0
INSERT
  5
281
330
27E
100
AcDbEntity
  8
DIMS
100
AcDbBlockReference
  2
_Open90
 10
39.81989382525615
 20
13.06798545840322
 30
1.127629449660301
 41
0.7500000000000001
 42
0.7500000000000001
 50
270.0000000000022
  0
INSERT
  5
282
330
27E
100
AcDbEntity
  8
DIMS
100
AcDbBlockReference
  2
_Open90
 10
39.8198938252561
 20
14.41268545840322
 30
1.127629449660301
 41
0.7500000000000001
 42
0.7500000000000001
 50
90.0000000000022
  0
LINE
  5
283
330
27E
100
AcDbEntity
  8
DIMS
100
AcDbLine
 10
40.73395633728268
 20
16.35116302681034
 30
0.0
 11
41.50791472978262
 21
16.35116302681034
 31
0.0
  0
LINE
  5
284
330
27E
100
AcDbEntity
  8
DIMS
100
AcDbLine
 10
35.60673923208015
 20
13.06798545840309
 30
0.0
 11
40.19489382525615
 21
13.06798545840323
 31
0.0
  0
LINE
  5
285
330
27E
100
AcDbEntity
  8
DIMS
100
AcDbLine
 10
39.29773923208015
 20
14.4126854584032
 30
0.0
 11
40.1948938252561
 21
14.41268545840323
 31
0.0
  0
LINE
  5
286
330
27E
100
AcDbEntity
  8
DIMS
100
AcDbLine
 10
40.06989382525614
 20
16.27423591047896
 30
0.0
 11
39.81989382525615
 21
16.27423591047896
 31
0.0
  0
LINE
  5
287
330
27E
100
AcDbEntity
  8
DIMS
100
AcDbLine
 10
39.81989382525615
 20
16.27423591047896
 30
0.0
 11
39.8198938252561
 21
14.41268545840322
 31
0.0
  0
LINE
  5
288
330
27E
100
AcDbEntity
  8
DIMS
100
AcDbLine
 10
39.81989382525615
 20
13.06798545840322
 30
0.0
 11
39.8198938252561
 21
14.41268545840322
 31
0.0
  0
MTEXT
  5
289
330
27E
100
AcDbEntity
  8
DIMS
100
AcDbMText
 10
40.06989382525615
 20
16.69526461287412
 30
0.0
 40
0.7500000000000001
 41
0.0
 71
     1
 72
     1
  1
1
  7
SLDTEXTSTYLE1
 73
     1
 44
1.0
  0
MTEXT
  5
28A
330
27E
100
AcDbEntity
  8
DIMS
100
AcDbMText
 10
40.84385219942297
 20
17.24323334769254
 30
0.0
 40
0.7500000000000001
 41
0.0
 71
     1
 72
     1
  1
3
  7
SLDTEXTSTYLE1
 73
     1
 44
1.0
  0
MTEXT
  5
28B
330
27E
100
AcDbEntity
  8
DIMS
100
AcDbMText
 10
40.84385219942297
 20
16.25146248158921
 30
0.0
 40
0.7500000000000001
 41
0.0
 71
     1
 72
     1
  1
8
  7
SLDTEXTSTYLE1
 73
     1
 44
1.0
  0
MTEXT
  5
28C
330
27E
100
AcDbEntity
  8
DIMS
100
AcDbMText
 10
41.61781061025603
 20
16.69526461287412
 30
0.0
 40
0.7500000000000001
 41
0.0
 71
     1
 72
     1
  1
"
  7
SLDTEXTSTYLE1
 73
     1
 44
1.0
  0
ENDBLK
  5
4EE
330
27E
100
AcDbEntity
  8
0
100
AcDbBlockEnd
  0
BLOCK
  5
4EF
330
3CD
100
AcDbEntity
  8
0
100
AcDbBlockBegin
  2
SW_NOTE_0_2
 70
     0
 71
     0
 10
0.0
 20
0.0
 30
0.0
  3
SW_NOTE_0_2
  1

  0
MTEXT
  5
3D0
330
3CD
100
AcDbEntity
  8
NOTES
 62
     0
100
AcDbMText
 10
-10.55242972399382
 20
1.476491412112395
 30
0.0
 40
0.7500000000000001
 41
0.0
 71
     1
 72
     1
  1
create holes as 
  7
SLDTEXTSTYLE1
 73
     1
 44
1.0
  0
MTEXT
  5
3D1
330
3CD
100
AcDbEntity
  8
NOTES
 62
     0
100
AcDbMText
 10
-10.55242972399382
 20
0.2264913722195222
 30
0.0
 40
0.7500000000000001
 41
0.0
 71
     1
 72
     1
  1
required for mounting
  7
SLDTEXTSTYLE1
 73
     1
 44
1.0
  0
ENDBLK
  5
4F0
330
3CD
100
AcDbEntity
  8
0
100
AcDbBlockEnd
  0
BLOCK
  5
4F1
330
49A
100
AcDbEntity
  8
0
100
AcDbBlockBegin
  2
_D_10
 70
     0
 71
     0
 10
0.0
 20
0.0
 30
0.0
  3
_D_10
  1

  0
INSERT
  5
49D
330
49A
100
AcDbEntity
  8
DIMS
100
AcDbBlockReference
  2
_Open90
 10
22.94626303482993
 20
59.02869816134461
 30
-13.22665514514944
 41
0.7500000000000001
 42
0.7500000000000001
 50
0.0000000000004326
  0
INSERT
  5
49E
330
49A
100
AcDbEntity
  8
DIMS
100
AcDbBlockReference
  2
_Open90
 10
7.326463034829922
 20
59.0286981613446
 30
-13.22665514514944
 41
0.7500000000000001
 42
0.7500000000000001
 50
180.0000000000004
  0
LINE
  5
49F
330
49A
100
AcDbEntity
  8
DIMS
100
AcDbLine
 10
15.14886307042844
 20
59.105625277676
 30
0.0
 11
15.92282146292838
 21
59.105625277676
 31
0.0
  0
LINE
  5
4A0
330
49A
100
AcDbEntity
  8
DIMS
100
AcDbLine
 10
22.94626303482993
 20
57.95724971819782
 30
0.0
 11
22.94626303482993
 21
59.40369816134461
 31
0.0
  0
LINE
  5
4A1
330
49A
100
AcDbEntity
  8
DIMS
100
AcDbLine
 10
7.326463034829922
 20
57.95724971819782
 30
0.0
 11
7.326463034829922
 21
59.4036981613446
 31
0.0
  0
LINE
  5
4A2
330
49A
100
AcDbEntity
  8
DIMS
100
AcDbLine
 10
22.94626303482993
 20
59.02869816134461
 30
0.0
 11
16.34209217947729
 21
59.02869816134461
 31
0.0
  0
LINE
  5
4A3
330
49A
100
AcDbEntity
  8
DIMS
100
AcDbLine
 10
7.326463034829922
 20
59.0286981613446
 30
0.0
 11
13.93063389018255
 21
59.02869816134461
 31
0.0
  0
MTEXT
  5
4A4
330
49A
100
AcDbEntity
  8
DIMS
100
AcDbMText
 10
13.93063389018255
 20
59.44972686373978
 30
0.0
 40
0.7500000000000001
 41
0.0
 71
     1
 72
     1
  1
15
  7
SLDTEXTSTYLE1
 73
     1
 44
1.0
  0
MTEXT
  5
4A5
330
49A
100
AcDbEntity
  8
DIMS
100
AcDbMText
 10
15.25875893256873
 20
59.9976955985582
 30
0.0
 40
0.7500000000000001
 41
0.0
 71
     1
 72
     1
  1
5
  7
SLDTEXTSTYLE1
 73
     1
 44
1.0
  0
MTEXT
  5
4A6
330
49A
100
AcDbEntity
  8
DIMS
100
AcDbMText
 10
15.25875893256873
 20
59.00592473245488
 30
0.0
 40
0.7500000000000001
 41
0.0
 71
     1
 72
     1
  1
8
  7
SLDTEXTSTYLE1
 73
     1
 44
1.0
  0
MTEXT
  5
4A7
330
49A
100
AcDbEntity
  8
DIMS
100
AcDbMText
 10
16.03271723340306
 20
59.44972686373978
 30
0.0
 40
0.7500000000000001
 41
0.0
 71
     1
 72
     1
  1
"
  7
SLDTEXTSTYLE1
 73
     1
 44
1.0
  0
ENDBLK
  5
4F2
330
49A
100
AcDbEntity
  8
0
100
AcDbBlockEnd
  0
BLOCK
  5
4F3
330
4A9
100
AcDbEntity
  8
0
100
AcDbBlockBegin
  2
_D_11
 70
     0
 71
     0
 10
0.0
 20
0.0
 30
0.0
  3
_D_11
  1

  0
INSERT
  5
4AC
330
4A9
100
AcDbEntity
  8
DIMS
100
AcDbBlockReference
  2
_Open90
 10
22.94626303482993
 20
59.02869816134461
 30
-13.22665514514944
 41
0.7500000000000001
 42
0.7500000000000001
 50
0.0000000000003562
  0
INSERT
  5
4AD
330
4A9
100
AcDbEntity
  8
DIMS
100
AcDbBlockReference
  2
_Open90
 10
23.76143303482992
 20
59.02869816134461
 30
-13.22665514514944
 41
0.7500000000000001
 42
0.7500000000000001
 50
180.0000000000003
  0
LINE
  5
4AE
330
4A9
100
AcDbEntity
  8
DIMS
100
AcDbLine
 10
25.25113657094477
 20
59.105625277676
 30
0.0
 11
26.57926166833031
 21
59.105625277676
 31
0.0
  0
LINE
  5
4AF
330
4A9
100
AcDbEntity
  8
DIMS
100
AcDbLine
 10
22.94626303482993
 20
57.95724971819782
 30
0.0
 11
22.94626303482993
 21
59.40369816134461
 31
0.0
  0
LINE
  5
4B0
330
4A9
100
AcDbEntity
  8
DIMS
100
AcDbLine
 10
23.76143303482991
 20
54.34310262328528
 30
0.0
 11
23.76143303482992
 21
59.40369816134461
 31
0.0
  0
LINE
  5
4B1
330
4A9
100
AcDbEntity
  8
DIMS
100
AcDbLine
 10
22.94626303482993
 20
59.02869816134461
 30
0.0
 11
21.50395534252223
 21
59.02869816134461
 31
0.0
  0
LINE
  5
4B2
330
4A9
100
AcDbEntity
  8
DIMS
100
AcDbLine
 10
23.76143303482992
 20
59.02869816134461
 30
0.0
 11
25.14124072713761
 21
59.02869816134461
 31
0.0
  0
MTEXT
  5
4B3
330
4A9
100
AcDbEntity
  8
DIMS
100
AcDbMText
 10
25.36103245141819
 20
59.9976955985582
 30
0.0
 40
0.7500000000000001
 41
0.0
 71
     1
 72
     1
  1
13
  7
SLDTEXTSTYLE1
 73
     1
 44
1.0
  0
MTEXT
  5
4B4
330
4A9
100
AcDbEntity
  8
DIMS
100
AcDbMText
 10
25.36103245141819
 20
59.00592473245488
 30
0.0
 40
0.7500000000000001
 41
0.0
 71
     1
 72
     1
  1
16
  7
SLDTEXTSTYLE1
 73
     1
 44
1.0
  0
MTEXT
  5
4B5
330
4A9
100
AcDbEntity
  8
DIMS
100
AcDbMText
 10
26.68915751213748
 20
59.44972686373978
 30
0.0
 40
0.7500000000000001
 41
0.0
 71
     1
 72
     1
  1
"
  7
SLDTEXTSTYLE1
 73
     1
 44
1.0
  0
ENDBLK
  5
4F4
330
4A9
100
AcDbEntity
  8
0
100
AcDbBlockEnd
  0
ENDSEC
  0
SECTION
  2
ENTITIES
  0
LINE
  5
7A
330
1F
100
AcDbEntity
  8
TITLE
370
    50
100
AcDbLine
 10
50.01822302401259
 20
1.36261176446163
 30
0.0
 11
66.99998645119504
 21
1.36261176446163
 31
0.0
  0
LINE
  5
7B
330
1F
100
AcDbEntity
  8
TITLE
370
    50
100
AcDbLine
 10
66.99993174424402
 20
5.350360393555786
 30
0.0
 11
56.81053507231783
 21
5.350360393555786
 31
0.0
  0
LINE
  5
7C
330
1F
100
AcDbEntity
  8
TITLE
370
    50
100
AcDbLine
 10
50.01822302401259
 20
2.417787723103441
 30
0.0
 11
43.00597912026433
 21
2.417787723103439
 31
0.0
  0
LINE
  5
7D
330
1F
100
AcDbEntity
  8
TITLE
370
    50
100
AcDbLine
 10
50.01822302401259
 20
1.36261176446163
 30
0.0
 11
43.00597912026433
 21
1.362611764461628
 31
0.0
  0
LINE
  5
7E
330
1F
100
AcDbEntity
  8
TITLE
370
    50
100
AcDbLine
 10
50.01822302401259
 20
1.36261176446163
 30
0.0
 11
50.01822302401259
 21
3.472963681745252
 31
0.0
  0
LINE
  5
7F
330
1F
100
AcDbEntity
  8
TITLE
370
    50
100
AcDbLine
 10
43.00597912026433
 20
3.472963681745252
 30
0.0
 11
43.00597912026433
 21
0.3750000000000002
 31
0.0
  0
LINE
  5
80
330
1F
100
AcDbEntity
  8
TITLE
370
    50
100
AcDbLine
 10
43.00597912026433
 20
0.3750000000000002
 30
0.0
 11
67.0
 21
0.3750000000000002
 31
0.0
  0
LINE
  5
81
330
1F
100
AcDbEntity
  8
TITLE
370
    50
100
AcDbLine
 10
66.99993174424402
 20
5.350360393555786
 30
0.0
 11
67.0
 21
0.3750000000000002
 31
0.0
  0
LINE
  5
82
330
1F
100
AcDbEntity
  8
TITLE
370
    50
100
AcDbLine
 10
50.01822302401259
 20
3.472963681745252
 30
0.0
 11
43.00597912026433
 21
3.472963681745252
 31
0.0
  0
LINE
  5
83
330
1F
100
AcDbEntity
  8
TITLE
370
    50
100
AcDbLine
 10
50.01822302401259
 20
3.472963681745252
 30
0.0
 11
66.99976156426075
 21
3.472964834324626
 31
0.0
  0
LINE
  5
84
330
1F
100
AcDbEntity
  8
TITLE
370
    50
100
AcDbLine
 10
56.81053507231783
 20
5.350360393555786
 30
0.0
 11
56.81053507231783
 21
0.3386772425222314
 31
0.0
  0
MTEXT
  5
86
330
1F
100
AcDbEntity
  8
NOTES
100
AcDbMText
 10
43.90829780303404
 20
0.9452903346943409
 30
0.0
 40
0.25
 41
0.0
 71
     1
 72
     1
  1
UNLESS OTHERWISE SPECIFIED DIMENSIONS ARE IN INCHES.
  7
SLDTEXTSTYLE0
 73
     1
 44
1.0
  0
MTEXT
  5
87
330
1F
100
AcDbEntity
  8
NOTES
100
AcDbMText
 10
43.93006992789032
 20
2.958062777580434
 30
0.0
 40
0.25
 41
0.0
 71
     1
 72
     1
  1
DATE:
  7
SLDTEXTSTYLE0
 73
     1
 44
1.0
  0
MTEXT
  5
88
330
1F
100
AcDbEntity
  8
NOTES
100
AcDbMText
 10
46.03870118800535
 20
2.068032963662712
 30
0.0
 40
0.25
 41
0.0
 71
     2
 72
     1
  1
DO NOT SCALE DRAWING
  7
SLDTEXTSTYLE0
 73
     1
 44
1.0
  0
MTEXT
  5
8A
330
1F
100
AcDbEntity
  8
NOTES
100
AcDbMText
 10
50.33073730750542
 20
3.1432755552976
 30
0.0
 40
0.25
 41
0.0
 71
     1
 72
     1
  1
TITLE:
  7
SLDTEXTSTYLE1
 73
     1
 44
1.0
  0
MTEXT
  5
8B
330
1F
100
AcDbEntity
  8
NOTES
100
AcDbMText
 10
57.65618310516097
 20
3.143275555297591
 30
0.0
 40
0.25
 41
0.0
 71
     1
 72
     1
  1
DWG NO.
  7
SLDTEXTSTYLE1
 73
     1
 44
1.0
  0
MTEXT
  5
8C
330
1F
100
AcDbEntity
  8
NOTES
100
AcDbMText
 10
57.68317532028493
 20
0.939581557673826
 30
0.0
 40
0.25
 41
0.0
 71
     1
 72
     1
  1
SCALE:     1:1
  7
SLDTEXTSTYLE1
 73
     1
 44
1.0
  0
MTEXT
  5
8D
330
1F
100
AcDbEntity
  8
NOTES
100
AcDbMText
 10
61.68922002564615
 20
2.526034429460857
 30
0.0
 40
0.25
 41
0.0
 71
     2
 72
     1
  1
330 - Drawing
  7
SLDTEXTSTYLE1
 73
     1
 44
1.0
  0
MTEXT
  5
8E
330
1F
100
AcDbEntity
  8
NOTES
100
AcDbMText
 10
53.93865666815198
 20
2.526034429460865
 30
0.0
 40
0.25
 41
0.0
 71
     2
 72
     1
  1
330 assembly
  7
SLDTEXTSTYLE1
 73
     1
 44
1.0
  0
INSERT
  5
9E
330
1F
100
AcDbEntity
  8
NOTES
100
AcDbBlockReference
  2
SW_NOTE_0_1
 10
44.11597262459083
 20
5.023152684778707
 30
0.0
  0
MTEXT
  5
9F
330
1F
100
AcDbEntity
  8
NOTES
100
AcDbMText
 10
46.99342008834341
 20
2.961473326765856
 30
0.0
 40
0.25
 41
0.0
 71
     2
 72
     1
  1
May 5, 2021
  7
SLDTEXTSTYLE1
 73
     1
 44
1.0
  0
LINE
  5
A0
330
1F
100
AcDbEntity
  8
0
  6
SLD-Solid
 62
     7
370
    25
100
AcDbLine
 10
22.15996264485416
 20
38.70857250956887
 30
0.0
 11
8.112563427041957
 21
38.7085725095691
 31
0.0
  0
LINE
  5
A1
330
1F
100
AcDbEntity
  8
0
  6
SLD-Solid
 62
     7
370
    25
100
AcDbLine
 10
22.69876303483023
 20
38.68477097695384
 30
0.0
 11
22.15996264485398
 21
38.68477097695385
 31
0.0
  0
LINE
  5
A2
330
1F
100
AcDbEntity
  8
0
  6
SLD-Solid
 62
     7
370
    25
100
AcDbLine
 10
8.112563427041472
 20
38.68477097695408
 30
0.0
 11
7.573763034829422
 21
38.68477097695408
 31
0.0
  0
LINE
  5
A3
330
1F
100
AcDbEntity
  8
0
  6
SLD-Solid
 62
     7
370
    25
100
AcDbLine
 10
22.50190243271404
 20
14.50862527719829
 30
0.0
 11
22.15203212931825
 21
14.50862527719829
 31
0.0
  0
LINE
  5
A4
330
1F
100
AcDbEntity
  8
0
  6
SLD-Solid
 62
     7
370
    25
100
AcDbLine
 10
22.15203212931825
 20
14.50862527719829
 30
0.0
 11
22.15202819456185
 21
14.50158545840294
 31
0.0
  0
LINE
  5
A5
330
1F
100
AcDbEntity
  8
0
  6
SLD-Solid
 62
     7
370
    25
100
AcDbLine
 10
8.120497875098305
 20
14.50158545840318
 30
0.0
 11
22.15202819456185
 21
14.50158545840294
 31
0.0
  0
LINE
  5
A6
330
1F
100
AcDbEntity
  8
0
  6
SLD-Solid
 62
     7
370
    25
100
AcDbLine
 10
8.120497875098305
 20
14.50158545840318
 30
0.0
 11
8.120493940341893
 21
14.50862527719854
 31
0.0
  0
LINE
  5
A7
330
1F
100
AcDbEntity
  8
0
  6
SLD-Solid
 62
     7
370
    25
100
AcDbLine
 10
8.120493940341893
 20
14.50862527719854
 30
0.0
 11
7.770623636946098
 21
14.50862527719855
 31
0.0
  0
LINE
  5
A8
330
1F
100
AcDbEntity
  8
0
  6
SLD-Solid
 62
     7
370
    25
100
AcDbLine
 10
7.770623636946483
 20
38.66206886564845
 30
0.0
 11
7.770623636946098
 21
14.50862527719855
 31
0.0
  0
LINE
  5
A9
330
1F
100
AcDbEntity
  8
0
  6
SLD-Solid
 62
     7
370
    25
100
AcDbLine
 10
8.112563427041957
 20
38.66206886564844
 30
0.0
 11
7.770623636946483
 21
38.66206886564845
 31
0.0
  0
LINE
  5
AA
330
1F
100
AcDbEntity
  8
0
  6
SLD-Solid
 62
     7
370
    25
100
AcDbLine
 10
8.112563427041957
 20
38.6685725095691
 30
0.0
 11
8.112563427041957
 21
38.66206886564844
 31
0.0
  0
LINE
  5
AB
330
1F
100
AcDbEntity
  8
0
  6
SLD-Solid
 62
     7
370
    25
100
AcDbLine
 10
8.112563427041957
 20
38.6685725095691
 30
0.0
 11
22.15996264485416
 21
38.66857250956887
 31
0.0
  0
LINE
  5
AC
330
1F
100
AcDbEntity
  8
0
  6
SLD-Solid
 62
     7
370
    25
100
AcDbLine
 10
22.15996264485416
 20
38.66206886564822
 30
0.0
 11
22.15996264485416
 21
38.66857250956887
 31
0.0
  0
LINE
  5
AD
330
1F
100
AcDbEntity
  8
0
  6
SLD-Solid
 62
     7
370
    25
100
AcDbLine
 10
22.50190243271446
 20
38.66206886564822
 30
0.0
 11
22.15996264485416
 21
38.66206886564822
 31
0.0
  0
LINE
  5
AE
330
1F
100
AcDbEntity
  8
0
  6
SLD-Solid
 62
     7
370
    25
100
AcDbLine
 10
22.50190243271446
 20
38.66206886564822
 30
0.0
 11
22.50190243271404
 21
14.50862527719829
 31
0.0
  0
LINE
  5
AF
330
1F
100
AcDbEntity
  8
0
  6
SLD-Solid
 62
     7
370
    25
100
AcDbLine
 10
8.120532291250488
 20
14.44258545840319
 30
0.0
 11
22.15199377840965
 21
14.44258545840294
 31
0.0
  0
SPLINE
  5
B0
330
1F
100
AcDbEntity
  8
0
  6
SLD-Solid
 62
     7
370
    25
100
AcDbSpline
210
0.0
220
0.0
230
1.0
 70
    12
 71
     3
 72
    11
 73
     7
 74
     0
 42
0.00000001
 43
0.00000001
 40
0.0
 40
0.0
 40
0.0
 40
0.0
 40
0.2500000000001613
 40
0.5000000000001311
 40
0.7500000000001108
 40
0.9999999999999999
 40
0.9999999999999999
 40
0.9999999999999999
 40
0.9999999999999999
 10
8.120497875098305
 20
14.50158545840318
 30
0.0
 41
1.0
 10
8.120500743110982
 20
14.49385427281861
 30
0.0
 41
1.0
 10
8.120506479136337
 20
14.47839190164947
 30
0.0
 41
1.0
 10
8.120515083174388
 20
14.45888975036075
 30
0.0
 41
1.0
 10
8.120523687212437
 20
14.44524604678652
 30
0.0
 41
1.0
 10
8.120529423237803
 20
14.44347232119763
 30
0.0
 41
1.0
 10
8.120532291250488
 20
14.44258545840319
 30
0.0
 41
1.0
  0
SPLINE
  5
B1
330
1F
100
AcDbEntity
  8
0
  6
SLD-Solid
 62
     7
370
    25
100
AcDbSpline
210
0.0
220
0.0
230
1.0
 70
    12
 71
     3
 72
    11
 73
     7
 74
     0
 42
0.00000001
 43
0.00000001
 40
0.0
 40
0.0
 40
0.0
 40
0.0
 40
0.2499999999999885
 40
0.5000000000000167
 40
0.7500000000000349
 40
1.0
 40
1.0
 40
1.0
 40
1.0
 10
22.15199377840965
 20
14.44258545840294
 30
0.0
 41
1.0
 10
22.15199664642235
 20
14.44347232119739
 30
0.0
 41
1.0
 10
22.15200238244773
 20
14.4452460467863
 30
0.0
 41
1.0
 10
22.15201098648577
 20
14.45888975036052
 30
0.0
 41
1.0
 10
22.15201959052383
 20
14.47839190164924
 30
0.0
 41
1.0
 10
22.15202532654918
 20
14.49385427281837
 30
0.0
 41
1.0
 10
22.15202819456185
 20
14.50158545840294
 30
0.0
 41
1.0
  0
LINE
  5
B2
330
1F
100
AcDbEntity
  8
0
  6
SLD-Solid
 62
     7
370
    25
100
AcDbLine
 10
22.78190243271446
 20
38.66206886564821
 30
0.0
 11
22.50190243271446
 21
38.66206886564822
 31
0.0
  0
LINE
  5
B3
330
1F
100
AcDbEntity
  8
0
  6
SLD-Solid
 62
     7
370
    25
100
AcDbLine
 10
22.78190243271446
 20
38.66206886564821
 30
0.0
 11
22.78190243271404
 21
14.5086252771983
 31
0.0
  0
LINE
  5
B4
330
1F
100
AcDbEntity
  8
0
  6
SLD-Solid
 62
     7
370
    25
100
AcDbLine
 10
22.50190243271404
 20
14.50862527719829
 30
0.0
 11
22.78190243271404
 21
14.5086252771983
 31
0.0
  0
LINE
  5
B5
330
1F
100
AcDbEntity
  8
0
  6
SLD-Solid
 62
     7
370
    25
100
AcDbLine
 10
8.112563427041959
 20
38.7085725095691
 30
0.0
 11
8.112563427041957
 21
38.6685725095691
 31
0.0
  0
LINE
  5
B6
330
1F
100
AcDbEntity
  8
0
  6
SLD-Solid
 62
     7
370
    25
100
AcDbLine
 10
22.15996264485416
 20
38.66857250956887
 30
0.0
 11
22.15996264485416
 21
38.70857250956887
 31
0.0
  0
LINE
  5
B7
330
1F
100
AcDbEntity
  8
0
  6
SLD-Solid
 62
     7
370
    25
100
AcDbLine
 10
7.490623636946482
 20
38.66206886564845
 30
0.0
 11
7.490623636946098
 21
14.50862527719855
 31
0.0
  0
LINE
  5
B8
330
1F
100
AcDbEntity
  8
0
  6
SLD-Solid
 62
     7
370
    25
100
AcDbLine
 10
7.770623636946483
 20
38.66206886564845
 30
0.0
 11
7.490623636946482
 21
38.66206886564845
 31
0.0
  0
LINE
  5
B9
330
1F
100
AcDbEntity
  8
0
  6
SLD-Solid
 62
     7
370
    25
100
AcDbLine
 10
7.490623636946098
 20
14.50862527719855
 30
0.0
 11
7.770623636946098
 21
14.50862527719855
 31
0.0
  0
ARC
  5
BA
330
1F
100
AcDbEntity
  8
0
  6
SLD-Solid
 62
     7
370
    25
100
AcDbCircle
 10
7.530623636946479
 20
38.6685725095691
 30
0.0
 40
0.0400000000000054
100
AcDbArc
 50
359.9999999999615
 51
180.0
  0
LINE
  5
BB
330
1F
100
AcDbEntity
  8
0
  6
SLD-Solid
 62
     7
370
    25
100
AcDbLine
 10
7.540623636946478
 20
38.66857250956908
 30
0.0
 11
7.570623636946484
 21
38.66857250956908
 31
0.0
  0
ARC
  5
BC
330
1F
100
AcDbEntity
  8
0
  6
SLD-Solid
 62
     7
370
    25
100
AcDbCircle
 10
7.530623636946479
 20
38.6685725095691
 30
0.0
 40
0.0099999999999989
100
AcDbArc
 50
359.9999999998435
 51
180.0
  0
LINE
  5
BD
330
1F
100
AcDbEntity
  8
0
  6
SLD-Solid
 62
     7
370
    25
100
AcDbLine
 10
7.490623636946482
 20
38.6685725095691
 30
0.0
 11
7.52062363694648
 21
38.6685725095691
 31
0.0
  0
LINE
  5
BE
330
1F
100
AcDbEntity
  8
0
  6
SLD-Solid
 62
     7
370
    25
100
AcDbLine
 10
7.490623636946482
 20
38.66206886564845
 30
0.0
 11
7.490623636946482
 21
38.6685725095691
 31
0.0
  0
LINE
  5
BF
330
1F
100
AcDbEntity
  8
0
  6
SLD-Solid
 62
     7
370
    25
100
AcDbLine
 10
7.52062363694648
 20
38.66206886564845
 30
0.0
 11
7.52062363694648
 21
38.6685725095691
 31
0.0
  0
LINE
  5
C0
330
1F
100
AcDbEntity
  8
0
  6
SLD-Solid
 62
     7
370
    25
100
AcDbLine
 10
7.540623636946478
 20
38.66857250956908
 30
0.0
 11
7.540623636946481
 21
38.66206886564846
 31
0.0
  0
LINE
  5
C1
330
1F
100
AcDbEntity
  8
0
  6
SLD-Solid
 62
     7
370
    25
100
AcDbLine
 10
7.570623636946484
 20
38.66857250956908
 30
0.0
 11
7.570623636946482
 21
38.66206886564846
 31
0.0
  0
LINE
  5
C2
330
1F
100
AcDbEntity
  8
0
  6
SLD-Solid
 62
     7
370
    25
100
AcDbLine
 10
22.75190243271448
 20
38.66857250956886
 30
0.0
 11
22.78190243271448
 21
38.66857250956886
 31
0.0
  0
LINE
  5
C3
330
1F
100
AcDbEntity
  8
0
  6
SLD-Solid
 62
     7
370
    25
100
AcDbLine
 10
22.78190243271448
 20
38.66857250956886
 30
0.0
 11
22.78190243271448
 21
38.66206886564821
 31
0.0
  0
LINE
  5
C4
330
1F
100
AcDbEntity
  8
0
  6
SLD-Solid
 62
     7
370
    25
100
AcDbLine
 10
22.75190243271448
 20
38.66857250956886
 30
0.0
 11
22.75190243271448
 21
38.66206886564821
 31
0.0
  0
ARC
  5
C5
330
1F
100
AcDbEntity
  8
0
  6
SLD-Solid
 62
     7
370
    25
100
AcDbCircle
 10
22.74190243271448
 20
38.66857250956886
 30
0.0
 40
0.0100000000000016
100
AcDbArc
 50
0.0000000000127222
 51
180.000000000123
  0
LINE
  5
C6
330
1F
100
AcDbEntity
  8
0
  6
SLD-Solid
 62
     7
370
    25
100
AcDbLine
 10
22.70190243271448
 20
38.66857250956884
 30
0.0
 11
22.73190243271448
 21
38.66857250956884
 31
0.0
  0
ARC
  5
C7
330
1F
100
AcDbEntity
  8
0
  6
SLD-Solid
 62
     7
370
    25
100
AcDbCircle
 10
22.74190243271448
 20
38.66857250956886
 30
0.0
 40
0.0400000000000027
100
AcDbArc
 50
0.0000000000260805
 51
180.0000000000313
  0
LINE
  5
C8
330
1F
100
AcDbEntity
  8
0
  6
SLD-Solid
 62
     7
370
    25
100
AcDbLine
 10
22.73190243271448
 20
38.66206886564822
 30
0.0
 11
22.73190243271448
 21
38.66857250956884
 31
0.0
  0
LINE
  5
C9
330
1F
100
AcDbEntity
  8
0
  6
SLD-Solid
 62
     7
370
    25
100
AcDbLine
 10
22.70190243271448
 20
38.66206886564822
 30
0.0
 11
22.70190243271448
 21
38.66857250956884
 31
0.0
  0
LINE
  5
CA
330
1F
100
AcDbEntity
  8
0
  6
SLD-Solid
 62
     7
370
    25
100
AcDbLine
 10
7.5206236369461
 20
14.50158545840318
 30
0.0
 11
7.490623636946098
 21
14.5015854584032
 31
0.0
  0
LINE
  5
CB
330
1F
100
AcDbEntity
  8
0
  6
SLD-Solid
 62
     7
370
    25
100
AcDbLine
 10
7.490623636946098
 20
14.50862527719855
 30
0.0
 11
7.490623636946098
 21
14.5015854584032
 31
0.0
  0
LINE
  5
CC
330
1F
100
AcDbEntity
  8
0
  6
SLD-Solid
 62
     7
370
    25
100
AcDbLine
 10
7.5206236369461
 20
14.50862527719853
 30
0.0
 11
7.5206236369461
 21
14.50158545840318
 31
0.0
  0
SPLINE
  5
CD
330
1F
100
AcDbEntity
  8
0
  6
SLD-Solid
 62
     7
370
    25
100
AcDbSpline
210
0.0
220
0.0
230
1.0
 70
    12
 71
     3
 72
    11
 73
     7
 74
     0
 42
0.00000001
 43
0.00000001
 40
0.0
 40
0.0
 40
0.0
 40
0.0
 40
0.249999999999304
 40
0.4999999999995666
 40
0.7499999999997929
 40
1.0
 40
1.0
 40
1.0
 40
1.0
 10
7.549623636946007
 20
14.4425854584032
 30
0.0
 41
1.0
 10
7.541892451361472
 20
14.44347232119766
 30
0.0
 41
1.0
 10
7.526430080192369
 20
14.44524604678658
 30
0.0
 41
1.0
 10
7.506927928903672
 20
14.45888975036078
 30
0.0
 41
1.0
 10
7.493284225329453
 20
14.4783919016495
 30
0.0
 41
1.0
 10
7.49151049974055
 20
14.49385427281863
 30
0.0
 41
1.0
 10
7.490623636946098
 20
14.5015854584032
 30
0.0
 41
1.0
  0
SPLINE
  5
CE
330
1F
100
AcDbEntity
  8
0
  6
SLD-Solid
 62
     7
370
    25
100
AcDbSpline
210
0.0
220
0.0
230
1.0
 70
    12
 71
     3
 72
    11
 73
     7
 74
     0
 42
0.00000001
 43
0.00000001
 40
0.0
 40
0.0
 40
0.0
 40
0.0
 40
0.11290010918607
 40
0.4086000727908124
 40
0.7043000363957211
 40
1.0
 40
1.0
 40
1.0
 40
1.0
 10
7.542763034830056
 20
14.47395011701174
 30
0.0
 41
1.0
 10
7.541328658567958
 20
14.47416569284572
 30
0.0
 41
1.0
 10
7.536137465668957
 20
14.47494588962402
 30
0.0
 41
1.0
 10
7.528677541082359
 20
14.48071823733946
 30
0.0
 41
1.0
 10
7.521921401247796
 20
14.49015553436125
 30
0.0
 41
1.0
 10
7.521056225046665
 20
14.49777548372254
 30
0.0
 41
1.0
 10
7.5206236369461
 20
14.50158545840318
 30
0.0
 41
1.0
  0
LINE
  5
CF
330
1F
100
AcDbEntity
  8
0
  6
SLD-Solid
 62
     7
370
    25
100
AcDbLine
 10
7.549623636946007
 20
14.4725854584032
 30
0.0
 11
7.549623636946007
 21
14.4425854584032
 31
0.0
  0
LINE
  5
D0
330
1F
100
AcDbEntity
  8
0
  6
SLD-Solid
 62
     7
370
    25
100
AcDbLine
 10
7.838836029498818
 20
14.4425854584032
 30
0.0
 11
7.838836029498818
 21
14.4725854584032
 31
0.0
  0
LINE
  5
D1
330
1F
100
AcDbEntity
  8
0
  6
SLD-Solid
 62
     7
370
    25
100
AcDbLine
 10
7.549623636946007
 20
14.4425854584032
 30
0.0
 11
7.838836029498818
 21
14.4425854584032
 31
0.0
  0
LINE
  5
D2
330
1F
100
AcDbEntity
  8
0
  6
SLD-Solid
 62
     7
370
    25
100
AcDbLine
 10
7.988836029498918
 20
14.44258545840317
 30
0.0
 11
7.988836029498918
 21
14.47258545840317
 31
0.0
  0
LINE
  5
D3
330
1F
100
AcDbEntity
  8
0
  6
SLD-Solid
 62
     7
370
    25
100
AcDbLine
 10
7.838836029498818
 20
14.4425854584032
 30
0.0
 11
7.988836029498918
 21
14.44258545840317
 31
0.0
  0
LINE
  5
D4
330
1F
100
AcDbEntity
  8
0
  6
SLD-Solid
 62
     7
370
    25
100
AcDbLine
 10
22.43369004071922
 20
14.44258545840296
 30
0.0
 11
22.43369004071924
 21
14.47258545840295
 31
0.0
  0
LINE
  5
D5
330
1F
100
AcDbEntity
  8
0
  6
SLD-Solid
 62
     7
370
    25
100
AcDbLine
 10
22.28369004071923
 20
14.44258545840294
 30
0.0
 11
22.28369004071925
 21
14.47258545840294
 31
0.0
  0
LINE
  5
D6
330
1F
100
AcDbEntity
  8
0
  6
SLD-Solid
 62
     7
370
    25
100
AcDbLine
 10
22.28369004071923
 20
14.44258545840294
 30
0.0
 11
22.43369004071922
 21
14.44258545840296
 31
0.0
  0
LINE
  5
D7
330
1F
100
AcDbEntity
  8
0
  6
SLD-Solid
 62
     7
370
    25
100
AcDbLine
 10
22.72290243271404
 20
14.44258545840295
 30
0.0
 11
22.72290243271406
 21
14.47258545840295
 31
0.0
  0
LINE
  5
D8
330
1F
100
AcDbEntity
  8
0
  6
SLD-Solid
 62
     7
370
    25
100
AcDbLine
 10
22.43369004071922
 20
14.44258545840296
 30
0.0
 11
22.72290243271404
 21
14.44258545840295
 31
0.0
  0
LINE
  5
D9
330
1F
100
AcDbEntity
  8
0
  6
SLD-Solid
 62
     7
370
    25
100
AcDbLine
 10
22.78190243271404
 20
14.50158545840295
 30
0.0
 11
22.75190243271405
 21
14.50158545840293
 31
0.0
  0
LINE
  5
DA
330
1F
100
AcDbEntity
  8
0
  6
SLD-Solid
 62
     7
370
    25
100
AcDbLine
 10
22.78190243271404
 20
14.50158545840295
 30
0.0
 11
22.78190243271404
 21
14.50862527719831
 31
0.0
  0
LINE
  5
DB
330
1F
100
AcDbEntity
  8
0
  6
SLD-Solid
 62
     7
370
    25
100
AcDbLine
 10
22.75190243271405
 20
14.50158545840293
 30
0.0
 11
22.75190243271404
 21
14.50862527719829
 31
0.0
  0
ARC
  5
DC
330
1F
100
AcDbEntity
  8
0
  6
SLD-Solid
 62
     7
370
    25
100
AcDbCircle
 10
22.72290243271404
 20
14.50158545840295
 30
0.0
 40
0.0590000000000011
100
AcDbArc
 50
270.0000000000008
 51
0.0000000000043126
  0
ARC
  5
DD
330
1F
100
AcDbEntity
  8
0
  6
SLD-Solid
 62
     7
370
    25
100
AcDbCircle
 10
22.72290243271404
 20
14.50158545840295
 30
0.0
 40
0.0290000000000035
100
AcDbArc
 50
283.6843336279616
 51
359.9999999999692
  0
LINE
  5
DE
330
1F
100
AcDbEntity
  8
0
  6
SLD-Solid
 62
     7
370
    25
100
AcDbLine
 10
7.573763034830423
 20
38.68477097695408
 30
0.0
 11
7.573763034830421
 21
38.66206886564849
 31
0.0
  0
LINE
  5
DF
330
1F
100
AcDbEntity
  8
0
  6
SLD-Solid
 62
     7
370
    25
100
AcDbLine
 10
22.69876303483056
 20
38.66206886564824
 30
0.0
 11
22.69876303483056
 21
38.68477097695384
 31
0.0
  0
LINE
  5
E0
330
1F
100
AcDbEntity
  8
0
  6
SLD-Solid
 62
     7
370
    25
100
AcDbLine
 10
22.44851303483006
 20
14.50258545840298
 30
0.0
 11
22.44851303483006
 21
14.47258545840298
 31
0.0
  0
LINE
  5
E1
330
1F
100
AcDbEntity
  8
0
  6
SLD-Solid
 62
     7
370
    25
100
AcDbLine
 10
7.824013034830037
 20
14.50258545840321
 30
0.0
 11
7.824013034830055
 21
14.47258545840321
 31
0.0
  0
LINE
  5
E2
330
1F
100
AcDbEntity
  8
0
  6
SLD-Solid
 62
     7
370
    25
100
AcDbLine
 10
7.824013034830055
 20
14.47258545840321
 30
0.0
 11
8.120509365736943
 21
14.47258545840321
 31
0.0
  0
LINE
  5
E3
330
1F
100
AcDbEntity
  8
0
  6
SLD-Solid
 62
     7
370
    25
100
AcDbLine
 10
22.15201670392322
 20
14.47258545840298
 30
0.0
 11
22.44851303483006
 21
14.47258545840298
 31
0.0
  0
LINE
  5
E4
330
1F
100
AcDbEntity
  8
0
  6
SLD-Solid
 62
     7
370
    25
100
AcDbLine
 10
7.824013034830037
 20
14.50258545840321
 30
0.0
 11
8.12049749402314
 21
14.50258545840321
 31
0.0
  0
LINE
  5
E5
330
1F
100
AcDbEntity
  8
0
  6
SLD-Solid
 62
     7
370
    25
100
AcDbLine
 10
22.15202857563703
 20
14.50258545840298
 30
0.0
 11
22.44851303483006
 21
14.50258545840298
 31
0.0
  0
LINE
  5
E6
330
1F
100
AcDbEntity
  8
0
  6
SLD-Solid
 62
     7
370
    25
100
AcDbLine
 10
22.72976303483003
 20
14.50258545840298
 30
0.0
 11
22.72976303483006
 21
14.47258545840297
 31
0.0
  0
LINE
  5
E7
330
1F
100
AcDbEntity
  8
0
  6
SLD-Solid
 62
     7
370
    25
100
AcDbLine
 10
22.44851303483006
 20
14.47258545840298
 30
0.0
 11
22.72976303483006
 21
14.47258545840297
 31
0.0
  0
LINE
  5
E8
330
1F
100
AcDbEntity
  8
0
  6
SLD-Solid
 62
     7
370
    25
100
AcDbLine
 10
22.44851303483006
 20
14.50258545840298
 30
0.0
 11
22.72976303483003
 21
14.50258545840298
 31
0.0
  0
LINE
  5
E9
330
1F
100
AcDbEntity
  8
0
  6
SLD-Solid
 62
     7
370
    25
100
AcDbLine
 10
7.542763034830041
 20
14.50258545840322
 30
0.0
 11
7.542763034830059
 21
14.47258545840321
 31
0.0
  0
LINE
  5
EA
330
1F
100
AcDbEntity
  8
0
  6
SLD-Solid
 62
     7
370
    25
100
AcDbLine
 10
7.542763034830059
 20
14.47258545840321
 30
0.0
 11
7.824013034830055
 21
14.47258545840321
 31
0.0
  0
LINE
  5
EB
330
1F
100
AcDbEntity
  8
0
  6
SLD-Solid
 62
     7
370
    25
100
AcDbLine
 10
7.542763034830041
 20
14.50258545840322
 30
0.0
 11
7.824013034830037
 21
14.50258545840321
 31
0.0
  0
LINE
  5
EC
330
1F
100
AcDbEntity
  8
0
  6
SLD-Solid
 62
     7
370
    25
100
AcDbLine
 10
7.542763034830112
 20
14.50258545840324
 30
0.0
 11
7.542763034830108
 21
14.50862527719858
 31
0.0
  0
LINE
  5
ED
330
1F
100
AcDbEntity
  8
0
  6
SLD-Solid
 62
     7
370
    25
100
AcDbLine
 10
22.72976303483009
 20
14.50862527719831
 30
0.0
 11
22.7297630348301
 21
14.502585458403
 31
0.0
  0
SPLINE
  5
EE
330
1F
100
AcDbEntity
  8
0
  6
SLD-Solid
 62
     7
370
    25
100
AcDbSpline
210
0.0
220
0.0
230
1.0
 70
    12
 71
     3
 72
    11
 73
     7
 74
     0
 42
0.00000001
 43
0.00000001
 40
0.0
 40
0.0
 40
0.0
 40
0.0
 40
0.2500000000001779
 40
0.5000000000001165
 40
0.7500000000000577
 40
1.0
 40
1.0
 40
1.0
 40
1.0
 10
23.70216303483005
 20
13.12688545840307
 30
0.0
 41
1.0
 10
23.70428507367124
 20
13.1230853837712
 30
0.0
 41
1.0
 10
23.7085291513536
 20
13.11548523450747
 30
0.0
 41
1.0
 10
23.71489526787711
 20
13.10589943041979
 30
0.0
 41
1.0
 10
23.72126138440063
 20
13.0991932026013
 30
0.0
 41
1.0
 10
23.72550546208298
 20
13.0983213712967
 30
0.0
 41
1.0
 10
23.72762750092415
 20
13.0978854556444
 30
0.0
 41
1.0
  0
LINE
  5
EF
330
1F
100
AcDbEntity
  8
0
  6
SLD-Solid
 62
     7
370
    25
100
AcDbLine
 10
23.72762750092415
 20
13.06798545840307
 30
0.0
 11
23.72762750092415
 21
13.0978854556444
 31
0.0
  0
SPLINE
  5
F0
330
1F
100
AcDbEntity
  8
0
  6
SLD-Solid
 62
     7
370
    25
100
AcDbSpline
210
0.0
220
0.0
230
1.0
 70
    12
 71
     3
 72
    12
 73
     8
 74
     0
 42
0.00000001
 43
0.00000001
 40
0.0
 40
0.0
 40
0.0
 40
0.0
 40
0.2227005890337892
 40
0.4454287934403922
 40
0.6681571093941615
 40
0.8908852285057968
 40
1.0
 40
1.0
 40
1.0
 40
1.0
 10
23.70216303483005
 20
13.12688545840307
 30
0.0
 41
1.0
 10
23.70405404511324
 20
13.12001653522344
 30
0.0
 41
1.0
 10
23.70783630016913
 20
13.10627783710229
 30
0.0
 41
1.0
 10
23.7135106053473
 20
13.08814521983318
 30
0.0
 41
1.0
 10
23.71918193613244
 20
13.07479926439151
 30
0.0
 41
1.0
 10
23.7238990396793
 20
13.06868424127455
 30
0.0
 41
1.0
 10
23.72670489489704
 20
13.06815836982848
 30
0.0
 41
1.0
 10
23.72762750092415
 20
13.0679854556444
 30
0.0
 41
1.0
  0
SPLINE
  5
F1
330
1F
100
AcDbEntity
  8
0
  6
SLD-Solid
 62
     7
370
    25
100
AcDbSpline
210
0.0
220
0.0
230
1.0
 70
    12
 71
     3
 72
    11
 73
     7
 74
     0
 42
0.00000001
 43
0.00000001
 40
0.0
 40
0.0
 40
0.0
 40
0.0
 40
0.2499999999999
 40
0.4999999999997805
 40
0.7499999999996709
 40
1.0
 40
1.0
 40
1.0
 40
1.0
 10
23.73116304082634
 20
13.10142099230901
 30
0.0
 41
1.0
 10
23.73072712481779
 20
13.10354303115018
 30
0.0
 41
1.0
 10
23.72985529280069
 20
13.10778710883252
 30
0.0
 41
1.0
 10
23.72314906409666
 20
13.11415322535604
 30
0.0
 41
1.0
 10
23.71356325930756
 20
13.12051934187956
 30
0.0
 41
1.0
 10
23.70596310965589
 20
13.1247634195619
 30
0.0
 41
1.0
 10
23.70216303483005
 20
13.12688545840307
 30
0.0
 41
1.0
  0
SPLINE
  5
F2
330
1F
100
AcDbEntity
  8
0
  6
SLD-Solid
 62
     7
370
    25
100
AcDbSpline
210
0.0
220
0.0
230
1.0
 70
    12
 71
     3
 72
    11
 73
     7
 74
     0
 42
0.00000001
 43
0.00000001
 40
0.0
 40
0.0
 40
0.0
 40
0.0
 40
0.2499999999999377
 40
0.4999999999998656
 40
0.7499999999998059
 40
1.0
 40
1.0
 40
1.0
 40
1.0
 10
23.76106304082634
 20
13.10142099230901
 30
0.0
 41
1.0
 10
23.76017768047432
 20
13.10354303115018
 30
0.0
 41
1.0
 10
23.75840695977026
 20
13.10778710883252
 30
0.0
 41
1.0
 10
23.74478637945279
 20
13.11415322535604
 30
0.0
 41
1.0
 10
23.72531728142468
 20
13.12051934187956
 30
0.0
 41
1.0
 10
23.70988111702826
 20
13.1247634195619
 30
0.0
 41
1.0
 10
23.70216303483005
 20
13.12688545840307
 30
0.0
 41
1.0
  0
LINE
  5
F3
330
1F
100
AcDbEntity
  8
0
  6
SLD-Solid
 62
     7
370
    25
100
AcDbLine
 10
23.76106303483008
 20
13.10142099230901
 30
0.0
 11
23.73116304082634
 21
13.10142099230901
 31
0.0
  0
LINE
  5
F4
330
1F
100
AcDbEntity
  8
0
  6
SLD-Solid
 62
     7
370
    25
100
AcDbLine
 10
6.544358568736018
 20
13.06798545840312
 30
0.0
 11
6.544358568736018
 21
13.09788545564444
 31
0.0
  0
SPLINE
  5
F5
330
1F
100
AcDbEntity
  8
0
  6
SLD-Solid
 62
     7
370
    25
100
AcDbSpline
210
0.0
220
0.0
230
1.0
 70
    12
 71
     3
 72
    11
 73
     7
 74
     0
 42
0.00000001
 43
0.00000001
 40
0.0
 40
0.0
 40
0.0
 40
0.0
 40
0.2499999999997514
 40
0.4999999999998292
 40
0.7499999999999098
 40
1.0
 40
1.0
 40
1.0
 40
1.0
 10
6.56982303483006
 20
13.12688545840311
 30
0.0
 41
1.0
 10
6.567700995988897
 20
13.12308538377124
 30
0.0
 41
1.0
 10
6.563456918306576
 20
13.1154852345075
 30
0.0
 41
1.0
 10
6.557090801783049
 20
13.10589943041983
 30
0.0
 41
1.0
 10
6.550724685259536
 20
13.09919320260135
 30
0.0
 41
1.0
 10
6.546480607577191
 20
13.09832137129674
 30
0.0
 41
1.0
 10
6.54435856873602
 20
13.09788545564444
 30
0.0
 41
1.0
  0
SPLINE
  5
F6
330
1F
100
AcDbEntity
  8
0
  6
SLD-Solid
 62
     7
370
    25
100
AcDbSpline
210
0.0
220
0.0
230
1.0
 70
    12
 71
     3
 72
    12
 73
     8
 74
     0
 42
0.00000001
 43
0.00000001
 40
0.0
 40
0.0
 40
0.0
 40
0.0
 40
0.2227005890336294
 40
0.4454287934403065
 40
0.6681571093941119
 40
0.8908852285057833
 40
1.0
 40
1.0
 40
1.0
 40
1.0
 10
6.56982303483006
 20
13.12688545840311
 30
0.0
 41
1.0
 10
6.567932024546898
 20
13.12001653522348
 30
0.0
 41
1.0
 10
6.56414976949105
 20
13.10627783710233
 30
0.0
 41
1.0
 10
6.55847546431287
 20
13.08814521983323
 30
0.0
 41
1.0
 10
6.552804133527734
 20
13.07479926439155
 30
0.0
 41
1.0
 10
6.548087029980862
 20
13.06868424127459
 30
0.0
 41
1.0
 10
6.545281174763134
 20
13.06815836982853
 30
0.0
 41
1.0
 10
6.54435856873602
 20
13.06798545564445
 30
0.0
 41
1.0
  0
SPLINE
  5
F7
330
1F
100
AcDbEntity
  8
0
  6
SLD-Solid
 62
     7
370
    25
100
AcDbSpline
210
0.0
220
0.0
230
1.0
 70
    12
 71
     3
 72
    11
 73
     7
 74
     0
 42
0.00000001
 43
0.00000001
 40
0.0
 40
0.0
 40
0.0
 40
0.0
 40
0.2500000000000734
 40
0.500000000000137
 40
0.7500000000002114
 40
1.0
 40
1.0
 40
1.0
 40
1.0
 10
6.510923028833828
 20
13.10142099230905
 30
0.0
 41
1.0
 10
6.511808389185854
 20
13.10354303115022
 30
0.0
 41
1.0
 10
6.513579109889906
 20
13.10778710883256
 30
0.0
 41
1.0
 10
6.527199690207382
 20
13.11415322535608
 30
0.0
 41
1.0
 10
6.546668788235474
 20
13.12051934187959
 30
0.0
 41
1.0
 10
6.562104952631872
 20
13.12476341956194
 30
0.0
 41
1.0
 10
6.569823034830065
 20
13.12688545840311
 30
0.0
 41
1.0
  0
SPLINE
  5
F8
330
1F
100
AcDbEntity
  8
0
  6
SLD-Solid
 62
     7
370
    25
100
AcDbSpline
210
0.0
220
0.0
230
1.0
 70
    12
 71
     3
 72
    11
 73
     7
 74
     0
 42
0.00000001
 43
0.00000001
 40
0.0
 40
0.0
 40
0.0
 40
0.0
 40
0.250000000000126
 40
0.5000000000002276
 40
0.7500000000003441
 40
1.0
 40
1.0
 40
1.0
 40
1.0
 10
6.540823028833828
 20
13.10142099230905
 30
0.0
 41
1.0
 10
6.541258944842381
 20
13.10354303115022
 30
0.0
 41
1.0
 10
6.542130776859486
 20
13.10778710883256
 30
0.0
 41
1.0
 10
6.548837005563508
 20
13.11415322535608
 30
0.0
 41
1.0
 10
6.558422810352601
 20
13.12051934187959
 30
0.0
 41
1.0
 10
6.566022960004244
 20
13.12476341956194
 30
0.0
 41
1.0
 10
6.569823034830062
 20
13.12688545840311
 30
0.0
 41
1.0
  0
LINE
  5
F9
330
1F
100
AcDbEntity
  8
0
  6
SLD-Solid
 62
     7
370
    25
100
AcDbLine
 10
6.510923034830086
 20
13.10142099230905
 30
0.0
 11
6.540823028833827
 21
13.10142099230905
 31
0.0
  0
LINE
  5
FA
330
1F
100
AcDbEntity
  8
0
  6
SLD-Solid
 62
     7
370
    25
100
AcDbLine
 10
6.56982303483006
 20
13.12688545840312
 30
0.0
 11
23.70216303483005
 21
13.12688545840307
 31
0.0
  0
LINE
  5
FB
330
1F
100
AcDbEntity
  8
0
  6
SLD-Solid
 62
     7
370
    25
100
AcDbLine
 10
6.56982303483006
 20
13.12688545840312
 30
0.0
 11
6.569823034830063
 21
14.42668545840312
 31
0.0
  0
LINE
  5
FC
330
1F
100
AcDbEntity
  8
0
  6
SLD-Solid
 62
     7
370
    25
100
AcDbLine
 10
6.569823034830063
 20
14.42668545840312
 30
0.0
 11
7.340993034830062
 21
14.42668545840312
 31
0.0
  0
LINE
  5
FD
330
1F
100
AcDbEntity
  8
0
  6
SLD-Solid
 62
     7
370
    25
100
AcDbLine
 10
7.340993034830062
 20
14.42668545840312
 30
0.0
 11
7.340993034830062
 21
14.38368545840312
 31
0.0
  0
LINE
  5
FE
330
1F
100
AcDbEntity
  8
0
  6
SLD-Solid
 62
     7
370
    25
100
AcDbLine
 10
7.340993034830062
 20
14.38368545840312
 30
0.0
 11
7.355993034830062
 21
14.38368545840312
 31
0.0
  0
LINE
  5
FF
330
1F
100
AcDbEntity
  8
0
  6
SLD-Solid
 62
     7
370
    25
100
AcDbLine
 10
7.355993034830062
 20
14.38368545840312
 30
0.0
 11
22.91599303483006
 21
14.38368545840307
 31
0.0
  0
LINE
  5
100
330
1F
100
AcDbEntity
  8
0
  6
SLD-Solid
 62
     7
370
    25
100
AcDbLine
 10
22.93099303483006
 20
14.38368545840307
 30
0.0
 11
22.91599303483006
 21
14.38368545840307
 31
0.0
  0
LINE
  5
101
330
1F
100
AcDbEntity
  8
0
  6
SLD-Solid
 62
     7
370
    25
100
AcDbLine
 10
22.93099303483006
 20
14.42668545840307
 30
0.0
 11
22.93099303483006
 21
14.38368545840307
 31
0.0
  0
LINE
  5
102
330
1F
100
AcDbEntity
  8
0
  6
SLD-Solid
 62
     7
370
    25
100
AcDbLine
 10
23.70216303483006
 20
14.42668545840307
 30
0.0
 11
22.93099303483006
 21
14.42668545840307
 31
0.0
  0
LINE
  5
103
330
1F
100
AcDbEntity
  8
0
  6
SLD-Solid
 62
     7
370
    25
100
AcDbLine
 10
23.70216303483005
 20
13.12688545840308
 30
0.0
 11
23.70216303483006
 21
14.42668545840307
 31
0.0
  0
LINE
  5
104
330
1F
100
AcDbEntity
  8
0
  6
SLD-Solid
 62
     7
370
    25
100
AcDbLine
 10
6.510923034830087
 20
13.10142099230905
 30
0.0
 11
6.51092303483006
 21
14.42668545840312
 31
0.0
  0
LINE
  5
105
330
1F
100
AcDbEntity
  8
0
  6
SLD-Solid
 62
     7
370
    25
100
AcDbLine
 10
6.569823034830063
 20
14.42668545840312
 30
0.0
 11
6.51092303483006
 21
14.42668545840312
 31
0.0
  0
LINE
  5
106
330
1F
100
AcDbEntity
  8
0
  6
SLD-Solid
 62
     7
370
    25
100
AcDbLine
 10
23.72762750092415
 20
13.06798545840307
 30
0.0
 11
6.544358568736018
 21
13.06798545840312
 31
0.0
  0
LINE
  5
107
330
1F
100
AcDbEntity
  8
0
  6
SLD-Solid
 62
     7
370
    25
100
AcDbLine
 10
23.70216303483006
 20
14.42668545840307
 30
0.0
 11
23.76106303483006
 21
14.42668545840307
 31
0.0
  0
LINE
  5
108
330
1F
100
AcDbEntity
  8
0
  6
SLD-Solid
 62
     7
370
    25
100
AcDbLine
 10
23.76106303483008
 20
13.10142099230901
 30
0.0
 11
23.76106303483006
 21
14.42668545840307
 31
0.0
  0
LINE
  5
109
330
1F
100
AcDbEntity
  8
0
  6
SLD-Solid
 62
     7
370
    25
100
AcDbLine
 10
22.91599303483006
 20
14.44258545840307
 30
0.0
 11
22.91599303483006
 21
14.38368545840307
 31
0.0
  0
LINE
  5
10A
330
1F
100
AcDbEntity
  8
0
  6
SLD-Solid
 62
     7
370
    25
100
AcDbLine
 10
7.355993034830062
 20
14.44258545840312
 30
0.0
 11
7.355993034830062
 21
14.38368545840312
 31
0.0
  0
LINE
  5
10B
330
1F
100
AcDbEntity
  8
0
  6
SLD-Solid
 62
     7
370
    25
100
AcDbLine
 10
7.355993034830062
 20
14.44258545840312
 30
0.0
 11
7.549623636946007
 21
14.44258545840312
 31
0.0
  0
LINE
  5
10C
330
1F
100
AcDbEntity
  8
0
  6
SLD-Solid
 62
     7
370
    25
100
AcDbLine
 10
7.988836029498919
 20
14.44258545840312
 30
0.0
 11
8.120532291250488
 21
14.44258545840312
 31
0.0
  0
LINE
  5
10D
330
1F
100
AcDbEntity
  8
0
  6
SLD-Solid
 62
     7
370
    25
100
AcDbLine
 10
22.15199377840965
 20
14.44258545840307
 30
0.0
 11
22.28369004071923
 21
14.44258545840307
 31
0.0
  0
LINE
  5
10E
330
1F
100
AcDbEntity
  8
0
  6
SLD-Solid
 62
     7
370
    25
100
AcDbLine
 10
22.72290243271404
 20
14.44258545840307
 30
0.0
 11
22.91599303483006
 21
14.44258545840307
 31
0.0
  0
LINE
  5
10F
330
1F
100
AcDbEntity
  8
0
  6
SLD-Solid
 62
     7
370
    25
100
AcDbLine
 10
7.355993034830062
 20
14.47168545840313
 30
0.0
 11
7.355993034830089
 21
14.47158545840312
 31
0.0
  0
ARC
  5
110
330
1F
100
AcDbEntity
  8
0
  6
SLD-Solid
 62
     7
370
    25
100
AcDbCircle
 10
7.384993034830075
 20
14.47158545840312
 30
0.0
 40
0.0588999999999976
100
AcDbArc
 50
222.2049100991452
 51
240.504188564911
  0
ARC
  5
111
330
1F
100
AcDbEntity
  8
0
  6
SLD-Solid
 62
     7
370
    25
100
AcDbCircle
 10
7.384993034830075
 20
14.47158545840312
 30
0.0
 40
0.0289999999999981
100
AcDbArc
 50
180.0
 51
269.9999999999446
  0
LINE
  5
112
330
1F
100
AcDbEntity
  8
0
  6
SLD-Solid
 62
     7
370
    25
100
AcDbLine
 10
22.91599303483006
 20
14.47168545840313
 30
0.0
 11
22.91599303483008
 21
14.47158545840307
 31
0.0
  0
ARC
  5
113
330
1F
100
AcDbEntity
  8
0
  6
SLD-Solid
 62
     7
370
    25
100
AcDbCircle
 10
22.8869930348301
 20
14.47158545840307
 30
0.0
 40
0.0289999999999981
100
AcDbArc
 50
269.9999999999516
 51
0.0
  0
ARC
  5
114
330
1F
100
AcDbEntity
  8
0
  6
SLD-Solid
 62
     7
370
    25
100
AcDbCircle
 10
22.8869930348301
 20
14.47158545840307
 30
0.0
 40
0.0588999999999898
100
AcDbArc
 50
299.4958114350454
 51
318.5830250233772
  0
LINE
  5
115
330
1F
100
AcDbEntity
  8
0
  6
SLD-Solid
 62
     7
370
    25
100
AcDbLine
 10
22.81699303483006
 20
14.4425854584032
 30
0.0
 11
22.81699303483008
 21
14.47158545840319
 31
0.0
  0
LINE
  5
116
330
1F
100
AcDbEntity
  8
0
  6
SLD-Solid
 62
     7
370
    25
100
AcDbLine
 10
7.45499303483006
 20
14.44258545840313
 30
0.0
 11
7.454993034830088
 21
14.47158545840313
 31
0.0
  0
LINE
  5
117
330
1F
100
AcDbEntity
  8
0
  6
SLD-Solid
 62
     7
370
    25
100
AcDbLine
 10
7.454993034830088
 20
14.47168545840313
 30
0.0
 11
7.454993034830088
 21
14.47158545840313
 31
0.0
  0
LINE
  5
118
330
1F
100
AcDbEntity
  8
0
  6
SLD-Solid
 62
     7
370
    25
100
AcDbLine
 10
22.81699303483008
 20
14.47168545840313
 30
0.0
 11
22.81699303483008
 21
14.47158545840319
 31
0.0
  0
SPLINE
  5
119
330
1F
100
AcDbEntity
  8
0
  6
SLD-Solid
 62
     7
370
    25
100
AcDbSpline
210
0.0
220
0.0
230
1.0
 70
    12
 71
     3
 72
    11
 73
     7
 74
     0
 42
0.00000001
 43
0.00000001
 40
0.0
 40
0.0
 40
0.0
 40
0.0
 40
0.2500000000001952
 40
0.5000000000000906
 40
0.7500000000000523
 40
1.0
 40
1.0
 40
1.0
 40
1.0
 10
6.570193034829947
 20
43.07248545840299
 30
0.0
 41
1.0
 10
6.568070995988766
 20
43.07628553303486
 30
0.0
 41
1.0
 10
6.5638269183064
 20
43.08388568229859
 30
0.0
 41
1.0
 10
6.557460801782888
 20
43.09347148638626
 30
0.0
 41
1.0
 10
6.551094685259367
 20
43.10017771420478
 30
0.0
 41
1.0
 10
6.546850607577023
 20
43.10104954550936
 30
0.0
 41
1.0
 10
6.544728568735851
 20
43.10148546116167
 30
0.0
 41
1.0
  0
LINE
  5
11A
330
1F
100
AcDbEntity
  8
0
  6
SLD-Solid
 62
     7
370
    25
100
AcDbLine
 10
6.54472856873585
 20
43.13138545840299
 30
0.0
 11
6.54472856873585
 21
43.10148546116167
 31
0.0
  0
SPLINE
  5
11B
330
1F
100
AcDbEntity
  8
0
  6
SLD-Solid
 62
     7
370
    25
100
AcDbSpline
210
0.0
220
0.0
230
1.0
 70
    12
 71
     3
 72
    12
 73
     8
 74
     0
 42
0.00000001
 43
0.00000001
 40
0.0
 40
0.0
 40
0.0
 40
0.0
 40
0.2227005890337912
 40
0.4454287934403932
 40
0.6681571093941633
 40
0.8908852285057975
 40
1.0
 40
1.0
 40
1.0
 40
1.0
 10
6.570193034829947
 20
43.07248545840299
 30
0.0
 41
1.0
 10
6.568302024546759
 20
43.07935438158262
 30
0.0
 41
1.0
 10
6.56451976949087
 20
43.09309307970376
 30
0.0
 41
1.0
 10
6.558845464312704
 20
43.11122569697289
 30
0.0
 41
1.0
 10
6.553174133527562
 20
43.12457165241456
 30
0.0
 41
1.0
 10
6.548457029980693
 20
43.13068667553151
 30
0.0
 41
1.0
 10
6.545651174762966
 20
43.13121254697757
 30
0.0
 41
1.0
 10
6.544728568735851
 20
43.13138546116166
 30
0.0
 41
1.0
  0
SPLINE
  5
11C
330
1F
100
AcDbEntity
  8
0
  6
SLD-Solid
 62
     7
370
    25
100
AcDbSpline
210
0.0
220
0.0
230
1.0
 70
    12
 71
     3
 72
    11
 73
     7
 74
     0
 42
0.00000001
 43
0.00000001
 40
0.0
 40
0.0
 40
0.0
 40
0.0
 40
0.2499999999999045
 40
0.4999999999997872
 40
0.7499999999996974
 40
1.0
 40
1.0
 40
1.0
 40
1.0
 10
6.54119302883366
 20
43.09794992449706
 30
0.0
 41
1.0
 10
6.541628944842213
 20
43.09582788565589
 30
0.0
 41
1.0
 10
6.542500776859317
 20
43.09158380797354
 30
0.0
 41
1.0
 10
6.549207005563337
 20
43.08521769145003
 30
0.0
 41
1.0
 10
6.558792810352437
 20
43.0788515749265
 30
0.0
 41
1.0
 10
6.566392960004112
 20
43.07460749724416
 30
0.0
 41
1.0
 10
6.570193034829949
 20
43.07248545840299
 30
0.0
 41
1.0
  0
SPLINE
  5
11D
330
1F
100
AcDbEntity
  8
0
  6
SLD-Solid
 62
     7
370
    25
100
AcDbSpline
210
0.0
220
0.0
230
1.0
 70
    12
 71
     3
 72
    11
 73
     7
 74
     0
 42
0.00000001
 43
0.00000001
 40
0.0
 40
0.0
 40
0.0
 40
0.0
 40
0.2499999999999377
 40
0.4999999999998654
 40
0.7499999999998149
 40
1.0
 40
1.0
 40
1.0
 40
1.0
 10
6.511293028833659
 20
43.09794992449706
 30
0.0
 41
1.0
 10
6.512178389185686
 20
43.09582788565589
 30
0.0
 41
1.0
 10
6.513949109889738
 20
43.09158380797354
 30
0.0
 41
1.0
 10
6.527569690207211
 20
43.08521769145001
 30
0.0
 41
1.0
 10
6.54703878823532
 20
43.0788515749265
 30
0.0
 41
1.0
 10
6.562474952631738
 20
43.07460749724416
 30
0.0
 41
1.0
 10
6.570193034829951
 20
43.07248545840299
 30
0.0
 41
1.0
  0
LINE
  5
11E
330
1F
100
AcDbEntity
  8
0
  6
SLD-Solid
 62
     7
370
    25
100
AcDbLine
 10
6.511293034829918
 20
43.09794992449706
 30
0.0
 11
6.541193028833659
 21
43.09794992449706
 31
0.0
  0
LINE
  5
11F
330
1F
100
AcDbEntity
  8
0
  6
SLD-Solid
 62
     7
370
    25
100
AcDbLine
 10
23.72799750092398
 20
43.13138545840305
 30
0.0
 11
23.72799750092398
 21
43.10148546116173
 31
0.0
  0
SPLINE
  5
120
330
1F
100
AcDbEntity
  8
0
  6
SLD-Solid
 62
     7
370
    25
100
AcDbSpline
210
0.0
220
0.0
230
1.0
 70
    12
 71
     3
 72
    11
 73
     7
 74
     0
 42
0.00000001
 43
0.00000001
 40
0.0
 40
0.0
 40
0.0
 40
0.0
 40
0.2499999999997304
 40
0.4999999999998219
 40
0.7499999999999185
 40
1.0
 40
1.0
 40
1.0
 40
1.0
 10
23.70253303482994
 20
43.07248545840306
 30
0.0
 41
1.0
 10
23.7046550736711
 20
43.07628553303492
 30
0.0
 41
1.0
 10
23.70889915135343
 20
43.08388568229866
 30
0.0
 41
1.0
 10
23.71526526787695
 20
43.09347148638634
 30
0.0
 41
1.0
 10
23.72163138440046
 20
43.10017771420483
 30
0.0
 41
1.0
 10
23.72587546208281
 20
43.10104954550943
 30
0.0
 41
1.0
 10
23.72799750092398
 20
43.10148546116173
 30
0.0
 41
1.0
  0
SPLINE
  5
121
330
1F
100
AcDbEntity
  8
0
  6
SLD-Solid
 62
     7
370
    25
100
AcDbSpline
210
0.0
220
0.0
230
1.0
 70
    12
 71
     3
 72
    12
 73
     8
 74
     0
 42
0.00000001
 43
0.00000001
 40
0.0
 40
0.0
 40
0.0
 40
0.0
 40
0.2227005890336266
 40
0.4454287934403039
 40
0.6681571093941114
 40
0.890885228505783
 40
1.0
 40
1.0
 40
1.0
 40
1.0
 10
23.70253303482994
 20
43.07248545840306
 30
0.0
 41
1.0
 10
23.7044240451131
 20
43.07935438158269
 30
0.0
 41
1.0
 10
23.70820630016895
 20
43.09309307970386
 30
0.0
 41
1.0
 10
23.71388060534713
 20
43.11122569697295
 30
0.0
 41
1.0
 10
23.71955193613227
 20
43.12457165241461
 30
0.0
 41
1.0
 10
23.72426903967914
 20
43.13068667553158
 30
0.0
 41
1.0
 10
23.72707489489687
 20
43.13121254697764
 30
0.0
 41
1.0
 10
23.72799750092398
 20
43.13138546116173
 30
0.0
 41
1.0
  0
SPLINE
  5
122
330
1F
100
AcDbEntity
  8
0
  6
SLD-Solid
 62
     7
370
    25
100
AcDbSpline
210
0.0
220
0.0
230
1.0
 70
    12
 71
     3
 72
    11
 73
     7
 74
     0
 42
0.00000001
 43
0.00000001
 40
0.0
 40
0.0
 40
0.0
 40
0.0
 40
0.2500000000000776
 40
0.500000000000133
 40
0.7500000000002042
 40
0.9999999999999999
 40
0.9999999999999999
 40
0.9999999999999999
 40
0.9999999999999999
 10
23.76143304082617
 20
43.09794992449712
 30
0.0
 41
1.0
 10
23.76054768047415
 20
43.09582788565595
 30
0.0
 41
1.0
 10
23.7587769597701
 20
43.0915838079736
 30
0.0
 41
1.0
 10
23.74515637945262
 20
43.0852176914501
 30
0.0
 41
1.0
 10
23.72568728142452
 20
43.07885157492657
 30
0.0
 41
1.0
 10
23.71025111702813
 20
43.07460749724422
 30
0.0
 41
1.0
 10
23.70253303482994
 20
43.07248545840306
 30
0.0
 41
1.0
  0
SPLINE
  5
123
330
1F
100
AcDbEntity
  8
0
  6
SLD-Solid
 62
     7
370
    25
100
AcDbSpline
210
0.0
220
0.0
230
1.0
 70
    12
 71
     3
 72
    11
 73
     7
 74
     0
 42
0.00000001
 43
0.00000001
 40
0.0
 40
0.0
 40
0.0
 40
0.0
 40
0.250000000000137
 40
0.5000000000002107
 40
0.7500000000003229
 40
1.0
 40
1.0
 40
1.0
 40
1.0
 10
23.73153304082617
 20
43.09794992449712
 30
0.0
 41
1.0
 10
23.73109712481762
 20
43.09582788565595
 30
0.0
 41
1.0
 10
23.73022529280052
 20
43.09158380797361
 30
0.0
 41
1.0
 10
23.72351906409649
 20
43.08521769145008
 30
0.0
 41
1.0
 10
23.7139332593074
 20
43.07885157492657
 30
0.0
 41
1.0
 10
23.70633310965576
 20
43.07460749724423
 30
0.0
 41
1.0
 10
23.70253303482994
 20
43.07248545840306
 30
0.0
 41
1.0
  0
LINE
  5
124
330
1F
100
AcDbEntity
  8
0
  6
SLD-Solid
 62
     7
370
    25
100
AcDbLine
 10
23.76143303482991
 20
43.09794992449712
 30
0.0
 11
23.73153304082617
 21
43.09794992449712
 31
0.0
  0
LINE
  5
125
330
1F
100
AcDbEntity
  8
0
  6
SLD-Solid
 62
     7
370
    25
100
AcDbLine
 10
23.70253303482994
 20
43.07248545840305
 30
0.0
 11
6.570193034829947
 21
43.07248545840299
 31
0.0
  0
LINE
  5
126
330
1F
100
AcDbEntity
  8
0
  6
SLD-Solid
 62
     7
370
    25
100
AcDbLine
 10
23.70253303482994
 20
43.07248545840305
 30
0.0
 11
23.70253303482994
 21
41.77268545840305
 31
0.0
  0
LINE
  5
127
330
1F
100
AcDbEntity
  8
0
  6
SLD-Solid
 62
     7
370
    25
100
AcDbLine
 10
23.70253303482994
 20
41.77268545840305
 30
0.0
 11
22.93136303482995
 21
41.77268545840305
 31
0.0
  0
LINE
  5
128
330
1F
100
AcDbEntity
  8
0
  6
SLD-Solid
 62
     7
370
    25
100
AcDbLine
 10
22.93136303482995
 20
41.77268545840305
 30
0.0
 11
22.93136303482995
 21
41.81568545840305
 31
0.0
  0
LINE
  5
129
330
1F
100
AcDbEntity
  8
0
  6
SLD-Solid
 62
     7
370
    25
100
AcDbLine
 10
22.93136303482995
 20
41.81568545840305
 30
0.0
 11
22.91636303482995
 21
41.81568545840305
 31
0.0
  0
LINE
  5
12A
330
1F
100
AcDbEntity
  8
0
  6
SLD-Solid
 62
     7
370
    25
100
AcDbLine
 10
22.91636303482995
 20
41.81568545840305
 30
0.0
 11
7.35636303482995
 21
41.815685458403
 31
0.0
  0
LINE
  5
12B
330
1F
100
AcDbEntity
  8
0
  6
SLD-Solid
 62
     7
370
    25
100
AcDbLine
 10
7.341363034829951
 20
41.815685458403
 30
0.0
 11
7.35636303482995
 21
41.815685458403
 31
0.0
  0
LINE
  5
12C
330
1F
100
AcDbEntity
  8
0
  6
SLD-Solid
 62
     7
370
    25
100
AcDbLine
 10
7.341363034829951
 20
41.772685458403
 30
0.0
 11
7.341363034829951
 21
41.815685458403
 31
0.0
  0
LINE
  5
12D
330
1F
100
AcDbEntity
  8
0
  6
SLD-Solid
 62
     7
370
    25
100
AcDbLine
 10
6.570193034829951
 20
41.77268545840299
 30
0.0
 11
7.341363034829951
 21
41.772685458403
 31
0.0
  0
LINE
  5
12E
330
1F
100
AcDbEntity
  8
0
  6
SLD-Solid
 62
     7
370
    25
100
AcDbLine
 10
6.570193034829947
 20
43.07248545840299
 30
0.0
 11
6.570193034829951
 21
41.77268545840299
 31
0.0
  0
LINE
  5
12F
330
1F
100
AcDbEntity
  8
0
  6
SLD-Solid
 62
     7
370
    25
100
AcDbLine
 10
23.76143303482991
 20
43.09794992449712
 30
0.0
 11
23.76143303482995
 21
41.77268545840305
 31
0.0
  0
LINE
  5
130
330
1F
100
AcDbEntity
  8
0
  6
SLD-Solid
 62
     7
370
    25
100
AcDbLine
 10
23.70253303482994
 20
41.77268545840305
 30
0.0
 11
23.76143303482995
 21
41.77268545840305
 31
0.0
  0
LINE
  5
131
330
1F
100
AcDbEntity
  8
0
  6
SLD-Solid
 62
     7
370
    25
100
AcDbLine
 10
6.54472856873585
 20
43.13138545840299
 30
0.0
 11
23.72799750092398
 21
43.13138545840305
 31
0.0
  0
LINE
  5
132
330
1F
100
AcDbEntity
  8
0
  6
SLD-Solid
 62
     7
370
    25
100
AcDbLine
 10
6.570193034829951
 20
41.77268545840299
 30
0.0
 11
6.511293034829948
 21
41.77268545840299
 31
0.0
  0
LINE
  5
133
330
1F
100
AcDbEntity
  8
0
  6
SLD-Solid
 62
     7
370
    25
100
AcDbLine
 10
6.511293034829919
 20
43.09794992449706
 30
0.0
 11
6.511293034829948
 21
41.77268545840299
 31
0.0
  0
LINE
  5
134
330
1F
100
AcDbEntity
  8
0
  6
SLD-Solid
 62
     7
370
    25
100
AcDbLine
 10
7.35636303482995
 20
41.75678545840299
 30
0.0
 11
7.35636303482995
 21
41.815685458403
 31
0.0
  0
LINE
  5
135
330
1F
100
AcDbEntity
  8
0
  6
SLD-Solid
 62
     7
370
    25
100
AcDbLine
 10
22.91636303482995
 20
41.75678545840304
 30
0.0
 11
22.91636303482995
 21
41.81568545840305
 31
0.0
  0
LINE
  5
136
330
1F
100
AcDbEntity
  8
0
  6
SLD-Solid
 62
     7
370
    25
100
AcDbLine
 10
22.91636303482995
 20
41.75678545840304
 30
0.0
 11
7.35636303482995
 21
41.75678545840299
 31
0.0
  0
LINE
  5
137
330
1F
100
AcDbEntity
  8
0
  6
SLD-Solid
 62
     7
370
    25
100
AcDbLine
 10
22.91636303482995
 20
41.72768545840313
 30
0.0
 11
22.91636303482992
 21
41.72778545840305
 31
0.0
  0
ARC
  5
138
330
1F
100
AcDbEntity
  8
0
  6
SLD-Solid
 62
     7
370
    25
100
AcDbCircle
 10
22.88736303482993
 20
41.72778545840305
 30
0.0
 40
0.0589000000000044
100
AcDbArc
 50
41.95815831472484
 51
60.50418856490899
  0
ARC
  5
139
330
1F
100
AcDbEntity
  8
0
  6
SLD-Solid
 62
     7
370
    25
100
AcDbCircle
 10
22.88736303482993
 20
41.72778545840305
 30
0.0
 40
0.0289999999999964
100
AcDbArc
 50
0.0
 51
89.99999999993683
  0
LINE
  5
13A
330
1F
100
AcDbEntity
  8
0
  6
SLD-Solid
 62
     7
370
    25
100
AcDbLine
 10
7.35636303482995
 20
41.72768545840313
 30
0.0
 11
7.356363034829923
 21
41.727785458403
 31
0.0
  0
ARC
  5
13B
330
1F
100
AcDbEntity
  8
0
  6
SLD-Solid
 62
     7
370
    25
100
AcDbCircle
 10
7.385363034829909
 20
41.727785458403
 30
0.0
 40
0.0289999999999964
100
AcDbArc
 50
89.99999999994735
 51
180.0
  0
ARC
  5
13C
330
1F
100
AcDbEntity
  8
0
  6
SLD-Solid
 62
     7
370
    25
100
AcDbCircle
 10
7.385363034829909
 20
41.727785458403
 30
0.0
 40
0.058899999999985
100
AcDbArc
 50
119.4958114350474
 51
138.3336600840156
  0
LINE
  5
13D
330
1F
100
AcDbEntity
  8
0
  6
SLD-Solid
 62
     7
370
    25
100
AcDbLine
 10
7.455363034829924
 20
41.72778545840287
 30
0.0
 11
22.81736303482992
 21
41.72778545840304
 31
0.0
  0
LINE
  5
13E
330
1F
100
AcDbEntity
  8
0
  6
SLD-Solid
 62
     7
370
    25
100
AcDbLine
 10
7.455363034829951
 20
41.75678545840287
 30
0.0
 11
7.455363034829924
 21
41.72778545840287
 31
0.0
  0
LINE
  5
13F
330
1F
100
AcDbEntity
  8
0
  6
SLD-Solid
 62
     7
370
    25
100
AcDbLine
 10
22.81736303482995
 20
41.75678545840304
 30
0.0
 11
22.81736303482992
 21
41.72778545840304
 31
0.0
  0
LINE
  5
140
330
1F
100
AcDbEntity
  8
0
  6
SLD-Solid
 62
     7
370
    25
100
AcDbLine
 10
22.81736303482992
 20
41.72768545840313
 30
0.0
 11
22.81736303482992
 21
41.72778545840304
 31
0.0
  0
LINE
  5
141
330
1F
100
AcDbEntity
  8
0
  6
SLD-Solid
 62
     7
370
    25
100
AcDbLine
 10
7.455363034829924
 20
41.72768545840313
 30
0.0
 11
7.455363034829924
 21
41.72778545840287
 31
0.0
  0
LINE
  5
142
330
1F
100
AcDbEntity
  8
0
  6
SLD-Solid
 62
     7
370
    25
100
AcDbLine
 10
22.94516303482993
 20
14.47168545840313
 30
0.0
 11
22.94516303483007
 21
41.72768545840313
 31
0.0
  0
LINE
  5
143
330
1F
100
AcDbEntity
  8
0
  6
SLD-Solid
 62
     7
370
    25
100
AcDbLine
 10
22.88626303482993
 20
14.47168545840313
 30
0.0
 11
22.94516303482993
 21
14.47168545840313
 31
0.0
  0
LINE
  5
144
330
1F
100
AcDbEntity
  8
0
  6
SLD-Solid
 62
     7
370
    25
100
AcDbLine
 10
22.88626303482993
 20
14.47168545840313
 30
0.0
 11
22.88626303483007
 21
41.72768545840313
 31
0.0
  0
LINE
  5
145
330
1F
100
AcDbEntity
  8
0
  6
SLD-Solid
 62
     7
370
    25
100
AcDbLine
 10
22.88626303483007
 20
41.72768545840313
 30
0.0
 11
22.94516303483007
 21
41.72768545840313
 31
0.0
  0
LINE
  5
146
330
1F
100
AcDbEntity
  8
0
  6
SLD-Solid
 62
     7
370
    25
100
AcDbLine
 10
7.386263034830188
 20
14.47168545840313
 30
0.0
 11
7.386263034830042
 21
41.72768545840313
 31
0.0
  0
LINE
  5
147
330
1F
100
AcDbEntity
  8
0
  6
SLD-Solid
 62
     7
370
    25
100
AcDbLine
 10
7.386263034830188
 20
14.47168545840313
 30
0.0
 11
7.327363034830185
 21
14.47168545840313
 31
0.0
  0
LINE
  5
148
330
1F
100
AcDbEntity
  8
0
  6
SLD-Solid
 62
     7
370
    25
100
AcDbLine
 10
7.327363034830185
 20
14.47168545840313
 30
0.0
 11
7.327363034830038
 21
41.72768545840313
 31
0.0
  0
LINE
  5
149
330
1F
100
AcDbEntity
  8
0
  6
SLD-Solid
 62
     7
370
    25
100
AcDbLine
 10
7.386263034830042
 20
41.72768545840313
 30
0.0
 11
7.327363034830038
 21
41.72768545840313
 31
0.0
  0
LINE
  5
14A
330
1F
100
AcDbEntity
  8
0
  6
SLD-Solid
 62
     7
370
    25
100
AcDbLine
 10
6.570363034830189
 20
14.42668545840311
 30
0.0
 11
6.51146303483019
 21
14.42668545840311
 31
0.0
  0
LINE
  5
14B
330
1F
100
AcDbEntity
  8
0
  6
SLD-Solid
 62
     7
370
    25
100
AcDbLine
 10
6.511463034830044
 20
41.77268545840315
 30
0.0
 11
6.51146303483019
 21
14.42668545840311
 31
0.0
  0
LINE
  5
14C
330
1F
100
AcDbEntity
  8
0
  6
SLD-Solid
 62
     7
370
    25
100
AcDbLine
 10
6.570363034830189
 20
14.42668545840311
 30
0.0
 11
6.570363034830042
 21
41.77268545840315
 31
0.0
  0
LINE
  5
14D
330
1F
100
AcDbEntity
  8
0
  6
SLD-Solid
 62
     7
370
    25
100
AcDbLine
 10
22.93116303482993
 20
14.46668545840313
 30
0.0
 11
22.93116303482993
 21
14.42668545840313
 31
0.0
  0
LINE
  5
14E
330
1F
100
AcDbEntity
  8
0
  6
SLD-Solid
 62
     7
370
    25
100
AcDbLine
 10
22.94516303482993
 20
14.46668545840313
 30
0.0
 11
22.93116303482993
 21
14.46668545840313
 31
0.0
  0
LINE
  5
14F
330
1F
100
AcDbEntity
  8
0
  6
SLD-Solid
 62
     7
370
    25
100
AcDbLine
 10
22.94516303483007
 20
41.72768545840313
 30
0.0
 11
22.94516303483007
 21
41.73268545840313
 31
0.0
  0
LINE
  5
150
330
1F
100
AcDbEntity
  8
0
  6
SLD-Solid
 62
     7
370
    25
100
AcDbLine
 10
23.70216303482993
 20
14.42668545840311
 30
0.0
 11
23.70216303483007
 21
41.77268545840315
 31
0.0
  0
LINE
  5
151
330
1F
100
AcDbEntity
  8
0
  6
SLD-Solid
 62
     7
370
    25
100
AcDbLine
 10
22.94516303482993
 20
14.47168545840313
 30
0.0
 11
22.94516303482993
 21
14.46668545840313
 31
0.0
  0
LINE
  5
152
330
1F
100
AcDbEntity
  8
0
  6
SLD-Solid
 62
     7
370
    25
100
AcDbLine
 10
22.93116303483007
 20
41.77268545840314
 30
0.0
 11
22.93116303483007
 21
41.73268545840313
 31
0.0
  0
LINE
  5
153
330
1F
100
AcDbEntity
  8
0
  6
SLD-Solid
 62
     7
370
    25
100
AcDbLine
 10
23.70216303483007
 20
41.77268545840315
 30
0.0
 11
22.93116303483007
 21
41.77268545840314
 31
0.0
  0
LINE
  5
154
330
1F
100
AcDbEntity
  8
0
  6
SLD-Solid
 62
     7
370
    25
100
AcDbLine
 10
23.70216303482993
 20
14.42668545840311
 30
0.0
 11
22.93116303482993
 21
14.42668545840313
 31
0.0
  0
LINE
  5
155
330
1F
100
AcDbEntity
  8
0
  6
SLD-Solid
 62
     7
370
    25
100
AcDbLine
 10
22.93116303483007
 20
41.73268545840313
 30
0.0
 11
22.94516303483007
 21
41.73268545840313
 31
0.0
  0
LINE
  5
156
330
1F
100
AcDbEntity
  8
0
  6
SLD-Solid
 62
     7
370
    25
100
AcDbLine
 10
23.70216303483007
 20
41.77268545840315
 30
0.0
 11
23.76106303483007
 21
41.77268545840315
 31
0.0
  0
LINE
  5
157
330
1F
100
AcDbEntity
  8
0
  6
SLD-Solid
 62
     7
370
    25
100
AcDbLine
 10
23.76106303483007
 20
41.77268545840315
 30
0.0
 11
23.76106303482992
 21
14.42668545840311
 31
0.0
  0
LINE
  5
158
330
1F
100
AcDbEntity
  8
0
  6
SLD-Solid
 62
     7
370
    25
100
AcDbLine
 10
6.570363034830189
 20
14.42668545840311
 30
0.0
 11
7.341363034830185
 21
14.42668545840313
 31
0.0
  0
LINE
  5
159
330
1F
100
AcDbEntity
  8
0
  6
SLD-Solid
 62
     7
370
    25
100
AcDbLine
 10
7.34136303483004
 20
41.77268545840314
 30
0.0
 11
7.34136303483004
 21
41.73268545840313
 31
0.0
  0
LINE
  5
15A
330
1F
100
AcDbEntity
  8
0
  6
SLD-Solid
 62
     7
370
    25
100
AcDbLine
 10
7.327363034830185
 20
14.47168545840313
 30
0.0
 11
7.327363034830185
 21
14.46668545840313
 31
0.0
  0
LINE
  5
15B
330
1F
100
AcDbEntity
  8
0
  6
SLD-Solid
 62
     7
370
    25
100
AcDbLine
 10
7.327363034830038
 20
41.72768545840313
 30
0.0
 11
7.327363034830038
 21
41.73268545840313
 31
0.0
  0
LINE
  5
15C
330
1F
100
AcDbEntity
  8
0
  6
SLD-Solid
 62
     7
370
    25
100
AcDbLine
 10
7.34136303483004
 20
41.73268545840313
 30
0.0
 11
7.327363034830038
 21
41.73268545840313
 31
0.0
  0
LINE
  5
15D
330
1F
100
AcDbEntity
  8
0
  6
SLD-Solid
 62
     7
370
    25
100
AcDbLine
 10
7.341363034830185
 20
14.46668545840313
 30
0.0
 11
7.341363034830185
 21
14.42668545840313
 31
0.0
  0
LINE
  5
15E
330
1F
100
AcDbEntity
  8
0
  6
SLD-Solid
 62
     7
370
    25
100
AcDbLine
 10
6.570363034830042
 20
41.77268545840315
 30
0.0
 11
7.34136303483004
 21
41.77268545840314
 31
0.0
  0
LINE
  5
15F
330
1F
100
AcDbEntity
  8
0
  6
SLD-Solid
 62
     7
370
    25
100
AcDbLine
 10
7.327363034830185
 20
14.46668545840313
 30
0.0
 11
7.341363034830185
 21
14.46668545840313
 31
0.0
  0
LINE
  5
160
330
1F
100
AcDbEntity
  8
0
  6
SLD-Solid
 62
     7
370
    25
100
AcDbLine
 10
22.85726303483006
 20
41.72768545840313
 30
0.0
 11
22.85726303482991
 21
14.47168545840313
 31
0.0
  0
LINE
  5
161
330
1F
100
AcDbEntity
  8
0
  6
SLD-Solid
 62
     7
370
    25
100
AcDbLine
 10
22.88626303482991
 20
14.47168545840313
 30
0.0
 11
22.85726303482991
 21
14.47168545840313
 31
0.0
  0
LINE
  5
162
330
1F
100
AcDbEntity
  8
0
  6
SLD-Solid
 62
     7
370
    25
100
AcDbLine
 10
22.88626303483006
 20
41.72768545840313
 30
0.0
 11
22.85726303483006
 21
41.72768545840313
 31
0.0
  0
LINE
  5
163
330
1F
100
AcDbEntity
  8
0
  6
SLD-Solid
 62
     7
370
    25
100
AcDbLine
 10
7.415263034830057
 20
41.72768545840313
 30
0.0
 11
7.415263034830203
 21
14.47168545840313
 31
0.0
  0
LINE
  5
164
330
1F
100
AcDbEntity
  8
0
  6
SLD-Solid
 62
     7
370
    25
100
AcDbLine
 10
7.386263034830203
 20
14.47168545840313
 30
0.0
 11
7.415263034830203
 21
14.47168545840313
 31
0.0
  0
LINE
  5
165
330
1F
100
AcDbEntity
  8
0
  6
SLD-Solid
 62
     7
370
    25
100
AcDbLine
 10
7.386263034830057
 20
41.72768545840313
 30
0.0
 11
7.415263034830057
 21
41.72768545840313
 31
0.0
  0
LINE
  5
166
330
1F
100
AcDbEntity
  8
0
  6
SLD-Solid
 62
     7
370
    25
100
AcDbLine
 10
22.85726303482991
 20
14.47168545840313
 30
0.0
 11
22.77376489431404
 21
14.47168545840313
 31
0.0
  0
LINE
  5
167
330
1F
100
AcDbEntity
  8
0
  6
SLD-Solid
 62
     7
370
    25
100
AcDbLine
 10
22.28369004071925
 20
14.47168545840313
 30
0.0
 11
22.15201629936529
 21
14.47168545840314
 31
0.0
  0
LINE
  5
168
330
1F
100
AcDbEntity
  8
0
  6
SLD-Solid
 62
     7
370
    25
100
AcDbLine
 10
8.120509770294873
 20
14.47168545840329
 30
0.0
 11
7.988836029498918
 21
14.47168545840313
 31
0.0
  0
LINE
  5
169
330
1F
100
AcDbEntity
  8
0
  6
SLD-Solid
 62
     7
370
    25
100
AcDbLine
 10
7.500006933020837
 20
14.4716854584033
 30
0.0
 11
7.415263034830203
 21
14.47168545840313
 31
0.0
  0
LINE
  5
16A
330
1F
100
AcDbEntity
  8
0
  6
SLD-Solid
 62
     7
370
    25
100
AcDbLine
 10
22.85726303483006
 20
41.72768545840313
 30
0.0
 11
7.415263034830057
 21
41.72768545840313
 31
0.0
  0
LINE
  5
16B
330
1F
100
AcDbEntity
  8
0
  6
SLD-Solid
 62
     8
370
    25
100
AcDbLine
 10
7.355993034830089
 20
14.47158545840312
 30
0.0
 11
7.327363034830185
 21
14.47158545840312
 31
0.0
  0
LINE
  5
16C
330
1F
100
AcDbEntity
  8
0
  6
SLD-Solid
 62
     8
370
    25
100
AcDbLine
 10
22.91599303483008
 20
14.47158545840307
 30
0.0
 11
22.94516303482993
 21
14.47158545840307
 31
0.0
  0
LINE
  5
16D
330
1F
100
AcDbEntity
  8
0
  6
SLD-Solid
 62
     8
370
    25
100
AcDbLine
 10
22.81699303483008
 20
14.47158545840319
 30
0.0
 11
22.77370597589772
 21
14.47158545840319
 31
0.0
  0
LINE
  5
16E
330
1F
100
AcDbEntity
  8
0
  6
SLD-Solid
 62
     8
370
    25
100
AcDbLine
 10
22.28369004071925
 20
14.47158545840319
 30
0.0
 11
22.15201625441441
 21
14.4715854584032
 31
0.0
  0
LINE
  5
16F
330
1F
100
AcDbEntity
  8
0
  6
SLD-Solid
 62
     8
370
    25
100
AcDbLine
 10
8.120509815245754
 20
14.47158545840323
 30
0.0
 11
7.988836029498918
 21
14.47158545840314
 31
0.0
  0
LINE
  5
170
330
1F
100
AcDbEntity
  8
0
  6
SLD-Solid
 62
     8
370
    25
100
AcDbLine
 10
7.500073750884634
 20
14.47158545840324
 30
0.0
 11
7.454993034830088
 21
14.47158545840313
 31
0.0
  0
LINE
  5
171
330
1F
100
AcDbEntity
  8
0
  6
SLD-Solid
 62
     8
370
    25
100
AcDbLine
 10
22.91636303482992
 20
41.72778545840305
 30
0.0
 11
22.94516303483007
 21
41.72778545840305
 31
0.0
  0
LINE
  5
172
330
1F
100
AcDbEntity
  8
0
  6
SLD-Solid
 62
     8
370
    25
100
AcDbLine
 10
7.356363034829923
 20
41.727785458403
 30
0.0
 11
7.327363034830038
 21
41.727785458403
 31
0.0
  0
LINE
  5
173
330
1F
100
AcDbEntity
  8
NOTES
100
AcDbLine
 10
4.839343957990335
 20
6.646072509568886
 30
0.0
 11
39.34911278998415
 21
6.646072509568886
 31
0.0
  0
DIMENSION
  5
174
330
1F
100
AcDbEntity
  8
DIMS
100
AcDbDimension
  2
_D
 10
5.408461420656844
 20
38.70857250956887
 30
0.0
 11
5.408461420656843
 21
8.890210254004499
 31
0.0
 70
    32
  1
                                48" (1220mm) max.
 71
     2
 42
-1.0
  3
SLDDIMSTYLE0
100
AcDbAlignedDimension
 13
4.839343957990335
 23
6.646072509568886
 33
0.0
 14
8.112563427041959
 24
38.70857250956887
 34
0.0
 50
90.0000000000002
100
AcDbRotatedDimension
  0
DIMENSION
  5
185
330
1F
100
AcDbEntity
  8
DIMS
100
AcDbDimension
  2
_D_1
 10
26.75365842853067
 20
13.06798545840306
 30
0.0
 11
26.75365842853072
 21
28.18904545609399
 31
0.0
 70
    32
  1
<>
 71
     2
 42
-1.0
  3
SLDDIMSTYLE1
100
AcDbAlignedDimension
 13
23.72799750092398
 23
43.13138545840305
 33
0.0
 14
23.72762750092415
 24
13.06798545840307
 34
0.0
 50
90.0000000000002
100
AcDbRotatedDimension
  0
DIMENSION
  5
195
330
1F
100
AcDbEntity
  8
DIMS
100
AcDbDimension
  2
_D_2
 10
6.511293034829879
 20
44.94250848989873
 30
0.0
 11
14.9339594944913
 21
44.94250848989891
 31
0.0
 70
    32
  1
<>
 71
     2
 42
-1.0
  3
SLDDIMSTYLE1
100
AcDbAlignedDimension
 13
23.76143303482991
 23
43.09794992449712
 33
0.0
 14
6.51129303482992
 24
43.09794992449706
 34
0.0
 50
0.0000000000012744
100
AcDbRotatedDimension
  0
DIMENSION
  5
1A4
330
1F
100
AcDbEntity
  8
DIMS
100
AcDbDimension
  2
_D_3
 10
5.408461420656863
 20
41.72768545840313
 30
0.0
 11
5.408461420656863
 21
40.41829183108599
 31
0.0
 70
    32
  1
<>
 71
     2
 42
-1.0
  3
SLDDIMSTYLE2
100
AcDbAlignedDimension
 13
8.112563427041959
 23
38.7085725095691
 33
0.0
 14
7.415263034830058
 24
41.72768545840313
 34
0.0
 50
90.0000000000002
100
AcDbRotatedDimension
  0
MTEXT
  5
1B0
330
1F
100
AcDbEntity
  8
NOTES
100
AcDbMText
 10
6.612866911187146
 20
12.36212141098086
 30
0.0
 40
0.7500000000000001
 41
0.0
 71
     1
 72
     1
  1
Front view
  7
SLDTEXTSTYLE1
 73
     1
 44
1.0
  0
MTEXT
  5
1B1
330
1F
100
AcDbEntity
  8
NOTES
100
AcDbMText
 10
5.975087505229916
 20
7.50181687900347
 30
0.0
 40
0.7500000000000001
 41
0.0
 71
     1
 72
     1
  1
Floor
  7
SLDTEXTSTYLE1
 73
     1
 44
1.0
  0
LINE
  5
1B2
330
1F
100
AcDbEntity
  8
0
  6
SLD-Solid
 62
     7
370
    25
100
AcDbLine
 10
39.17507256541352
 20
34.90568545840316
 30
0.0
 11
39.27007256541351
 21
34.90568545840316
 31
0.0
  0
LINE
  5
1B3
330
1F
100
AcDbEntity
  8
0
  6
SLD-Solid
 62
     7
370
    25
100
AcDbLine
 10
39.27007256541351
 20
35.07368545840315
 30
0.0
 11
39.17507256541352
 21
35.07368545840315
 31
0.0
  0
ARC
  5
1B4
330
1F
100
AcDbEntity
  8
0
  6
SLD-Solid
 62
     7
370
    25
100
AcDbCircle
 10
39.27007256541351
 20
35.05868545840315
 30
0.0
 40
0.0150000000000006
100
AcDbArc
 50
0.0
 51
90.0
  0
ARC
  5
1B5
330
1F
100
AcDbEntity
  8
0
  6
SLD-Solid
 62
     7
370
    25
100
AcDbCircle
 10
39.27007256541351
 20
34.92068545840316
 30
0.0
 40
0.0150000000000006
100
AcDbArc
 50
270.0000000000008
 51
0.0
  0
ARC
  5
1B6
330
1F
100
AcDbEntity
  8
0
  6
SLD-Solid
 62
     7
370
    25
100
AcDbCircle
 10
39.17507256541352
 20
35.05868545840315
 30
0.0
 40
0.0150000000000006
100
AcDbArc
 50
90.0
 51
180.0
  0
ARC
  5
1B7
330
1F
100
AcDbEntity
  8
0
  6
SLD-Solid
 62
     7
370
    25
100
AcDbCircle
 10
39.17507256541352
 20
34.92068545840316
 30
0.0
 40
0.0150000000000006
100
AcDbArc
 50
180.0
 51
270.0000000000008
  0
LINE
  5
1B8
330
1F
100
AcDbEntity
  8
0
  6
SLD-Solid
 62
     7
370
    25
100
AcDbLine
 10
39.15997256541351
 20
34.92718545840315
 30
0.0
 11
39.16007256541351
 21
34.92718545840315
 31
0.0
  0
LINE
  5
1B9
330
1F
100
AcDbEntity
  8
0
  6
SLD-Solid
 62
     7
370
    25
100
AcDbLine
 10
39.16007256541351
 20
35.05218545840315
 30
0.0
 11
39.15997256541351
 21
35.05218545840315
 31
0.0
  0
LINE
  5
1BA
330
1F
100
AcDbEntity
  8
0
  6
SLD-Solid
 62
     7
370
    25
100
AcDbLine
 10
35.16017256541351
 20
38.70857250956888
 30
0.0
 11
31.6895115733192
 21
38.70857250956886
 31
0.0
  0
LINE
  5
1BB
330
1F
100
AcDbEntity
  8
0
  6
SLD-Solid
 62
     7
370
    25
100
AcDbLine
 10
39.28507256541351
 20
35.05868545840315
 30
0.0
 11
39.28507256541351
 21
34.92068545840316
 31
0.0
  0
LINE
  5
1BC
330
1F
100
AcDbEntity
  8
0
  6
SLD-Solid
 62
     7
370
    25
100
AcDbLine
 10
39.16007256541351
 20
34.92068545840316
 30
0.0
 11
39.16007256541351
 21
35.05868545840315
 31
0.0
  0
LINE
  5
1BD
330
1F
100
AcDbEntity
  8
0
  6
SLD-Solid
 62
     7
370
    25
100
AcDbLine
 10
31.68951157331966
 20
38.70857250956886
 30
0.0
 11
31.68951157331964
 21
38.66857250956886
 31
0.0
  0
LINE
  5
1BE
330
1F
100
AcDbEntity
  8
0
  6
SLD-Solid
 62
     7
370
    25
100
AcDbLine
 10
31.68951157331964
 20
38.66857250956886
 30
0.0
 11
31.68951157331964
 21
38.66206886564821
 31
0.0
  0
LINE
  5
1BF
330
1F
100
AcDbEntity
  8
0
  6
SLD-Solid
 62
     7
370
    25
100
AcDbLine
 10
31.69764208494369
 20
14.50158545840295
 30
0.0
 11
31.69764208494369
 21
14.50862527719831
 31
0.0
  0
LINE
  5
1C0
330
1F
100
AcDbEntity
  8
0
  6
SLD-Solid
 62
     7
370
    25
100
AcDbLine
 10
31.69764208494369
 20
14.50862527719831
 30
0.0
 11
31.44017256541206
 21
14.5086252771983
 31
0.0
  0
LINE
  5
1C1
330
1F
100
AcDbEntity
  8
0
  6
SLD-Solid
 62
     7
370
    25
100
AcDbLine
 10
31.44017256541196
 20
38.66206886564821
 30
0.0
 11
31.44017256541206
 21
14.5086252771983
 31
0.0
  0
LINE
  5
1C2
330
1F
100
AcDbEntity
  8
0
  6
SLD-Solid
 62
     7
370
    25
100
AcDbLine
 10
31.68951157331964
 20
38.66206886564821
 30
0.0
 11
31.44017256541196
 21
38.66206886564821
 31
0.0
  0
LINE
  5
1C3
330
1F
100
AcDbEntity
  8
0
  6
SLD-Solid
 62
     7
370
    25
100
AcDbLine
 10
31.16017256541196
 20
38.66206886564822
 30
0.0
 11
31.16017256541206
 21
14.50862527719829
 31
0.0
  0
LINE
  5
1C4
330
1F
100
AcDbEntity
  8
0
  6
SLD-Solid
 62
     7
370
    25
100
AcDbLine
 10
31.44017256541196
 20
38.66206886564821
 30
0.0
 11
31.16017256541196
 21
38.66206886564822
 31
0.0
  0
LINE
  5
1C5
330
1F
100
AcDbEntity
  8
0
  6
SLD-Solid
 62
     7
370
    25
100
AcDbLine
 10
31.16017256541206
 20
14.50862527719829
 30
0.0
 11
31.44017256541206
 21
14.5086252771983
 31
0.0
  0
LINE
  5
1C6
330
1F
100
AcDbEntity
  8
0
  6
SLD-Solid
 62
     7
370
    25
100
AcDbLine
 10
31.69764208494369
 20
14.44258545840295
 30
0.0
 11
35.16017256541357
 21
14.44258545840296
 31
0.0
  0
LINE
  5
1C7
330
1F
100
AcDbEntity
  8
0
  6
SLD-Solid
 62
     7
370
    25
100
AcDbLine
 10
31.69764208494369
 20
14.50158545840295
 30
0.0
 11
31.69764208494369
 21
14.44258545840295
 31
0.0
  0
LINE
  5
1C8
330
1F
100
AcDbEntity
  8
0
  6
SLD-Solid
 62
     7
370
    25
100
AcDbLine
 10
31.21017256541197
 20
38.66857250956885
 30
0.0
 11
31.24017256541196
 21
38.66857250956889
 31
0.0
  0
ARC
  5
1C9
330
1F
100
AcDbEntity
  8
0
  6
SLD-Solid
 62
     7
370
    25
100
AcDbCircle
 10
31.20017256541196
 20
38.66857250956887
 30
0.0
 40
0.0100000000000016
100
AcDbArc
 50
359.9999999998787
 51
180.0
  0
LINE
  5
1CA
330
1F
100
AcDbEntity
  8
0
  6
SLD-Solid
 62
     7
370
    25
100
AcDbLine
 10
31.16017256541197
 20
38.66857250956887
 30
0.0
 11
31.19017256541196
 21
38.66857250956887
 31
0.0
  0
ARC
  5
1CB
330
1F
100
AcDbEntity
  8
0
  6
SLD-Solid
 62
     7
370
    25
100
AcDbCircle
 10
31.20017256541196
 20
38.66857250956887
 30
0.0
 40
0.0399999999999991
100
AcDbArc
 50
0.0000000000305333
 51
180.0
  0
LINE
  5
1CC
330
1F
100
AcDbEntity
  8
0
  6
SLD-Solid
 62
     7
370
    25
100
AcDbLine
 10
31.24017256541196
 20
38.66857250956889
 30
0.0
 11
31.24017256541199
 21
38.66206886564822
 31
0.0
  0
LINE
  5
1CD
330
1F
100
AcDbEntity
  8
0
  6
SLD-Solid
 62
     7
370
    25
100
AcDbLine
 10
31.21017256541197
 20
38.66857250956885
 30
0.0
 11
31.21017256541199
 21
38.66206886564822
 31
0.0
  0
LINE
  5
1CE
330
1F
100
AcDbEntity
  8
0
  6
SLD-Solid
 62
     7
370
    25
100
AcDbLine
 10
31.16017256541197
 20
38.66206886564822
 30
0.0
 11
31.16017256541197
 21
38.66857250956887
 31
0.0
  0
LINE
  5
1CF
330
1F
100
AcDbEntity
  8
0
  6
SLD-Solid
 62
     7
370
    25
100
AcDbLine
 10
31.19017256541196
 20
38.66206886564822
 30
0.0
 11
31.19017256541196
 21
38.66857250956887
 31
0.0
  0
LINE
  5
1D0
330
1F
100
AcDbEntity
  8
0
  6
SLD-Solid
 62
     7
370
    25
100
AcDbLine
 10
31.21917256541206
 20
14.47258545840294
 30
0.0
 11
31.21917256541206
 21
14.44258545840294
 31
0.0
  0
SPLINE
  5
1D1
330
1F
100
AcDbEntity
  8
0
  6
SLD-Solid
 62
     7
370
    25
100
AcDbSpline
210
0.0
220
0.0
230
1.0
 70
    12
 71
     3
 72
    10
 73
     6
 74
     0
 42
0.00000001
 43
0.00000001
 40
0.0
 40
0.0
 40
0.0
 40
0.0
 40
0.1388572809134016
 40
0.5694286404568109
 40
1.0
 40
1.0
 40
1.0
 40
1.0
 10
31.20170059480767
 20
14.47905202353716
 30
0.0
 41
1.0
 10
31.20065879077068
 20
14.47968872764056
 30
0.0
 41
1.0
 10
31.19638654049682
 20
14.48229973622137
 30
0.0
 41
1.0
 10
31.19157976063716
 20
14.49034703740286
 30
0.0
 41
1.0
 10
31.19064163048709
 20
14.49783931806958
 30
0.0
 41
1.0
 10
31.19017256541207
 20
14.50158545840294
 30
0.0
 41
1.0
  0
SPLINE
  5
1D2
330
1F
100
AcDbEntity
  8
0
  6
SLD-Solid
 62
     7
370
    25
100
AcDbSpline
210
0.0
220
0.0
230
1.0
 70
    12
 71
     3
 72
    11
 73
     7
 74
     0
 42
0.00000001
 43
0.00000001
 40
0.0
 40
0.0
 40
0.0
 40
0.0
 40
0.2499999999999885
 40
0.5000000000000167
 40
0.7500000000000349
 40
1.0
 40
1.0
 40
1.0
 40
1.0
 10
31.21917256541206
 20
14.44258545840294
 30
0.0
 41
1.0
 10
31.21144137982749
 20
14.44347232119739
 30
0.0
 41
1.0
 10
31.19597900865836
 20
14.4452460467863
 30
0.0
 41
1.0
 10
31.17647685736964
 20
14.45888975036052
 30
0.0
 41
1.0
 10
31.16283315379542
 20
14.47839190164924
 30
0.0
 41
1.0
 10
31.16105942820652
 20
14.49385427281837
 30
0.0
 41
1.0
 10
31.16017256541206
 20
14.50158545840294
 30
0.0
 41
1.0
  0
LINE
  5
1D3
330
1F
100
AcDbEntity
  8
0
  6
SLD-Solid
 62
     7
370
    25
100
AcDbLine
 10
31.16017256541206
 20
14.50862527719829
 30
0.0
 11
31.16017256541206
 21
14.50158545840294
 31
0.0
  0
LINE
  5
1D4
330
1F
100
AcDbEntity
  8
0
  6
SLD-Solid
 62
     7
370
    25
100
AcDbLine
 10
31.19017256541207
 20
14.50862527719829
 30
0.0
 11
31.19017256541207
 21
14.50158545840294
 31
0.0
  0
LINE
  5
1D5
330
1F
100
AcDbEntity
  8
0
  6
SLD-Solid
 62
     7
370
    25
100
AcDbLine
 10
31.50838495796636
 20
14.44258545840294
 30
0.0
 11
31.50838495796636
 21
14.47258545840294
 31
0.0
  0
LINE
  5
1D6
330
1F
100
AcDbEntity
  8
0
  6
SLD-Solid
 62
     7
370
    25
100
AcDbLine
 10
31.21917256541206
 20
14.44258545840294
 30
0.0
 11
31.50838495796636
 21
14.44258545840294
 31
0.0
  0
LINE
  5
1D7
330
1F
100
AcDbEntity
  8
0
  6
SLD-Solid
 62
     7
370
    25
100
AcDbLine
 10
31.65838495796637
 20
14.44258545840294
 30
0.0
 11
31.65838495796637
 21
14.47258545840294
 31
0.0
  0
LINE
  5
1D8
330
1F
100
AcDbEntity
  8
0
  6
SLD-Solid
 62
     7
370
    25
100
AcDbLine
 10
31.50838495796636
 20
14.44258545840294
 30
0.0
 11
31.65838495796637
 21
14.44258545840294
 31
0.0
  0
LINE
  5
1D9
330
1F
100
AcDbEntity
  8
0
  6
SLD-Solid
 62
     7
370
    25
100
AcDbLine
 10
31.69748043529353
 20
14.4425854584032
 30
0.0
 11
31.69764208438493
 21
14.4425854584032
 31
0.0
  0
SPLINE
  5
1DA
330
1F
100
AcDbEntity
  8
0
  6
SLD-Solid
 62
     7
370
    25
100
AcDbSpline
210
0.0
220
0.0
230
1.0
 70
    12
 71
     3
 72
    10
 73
     6
 74
     0
 42
0.00000001
 43
0.00000001
 40
0.0
 40
0.0
 40
0.0
 40
0.0
 40
0.3755681015960901
 40
0.7511362031936203
 40
0.9999999999999999
 40
0.9999999999999999
 40
0.9999999999999999
 40
0.9999999999999999
 10
31.69748043529353
 20
14.4425854584032
 30
0.0
 41
1.0
 10
31.69747756728085
 20
14.44350684531263
 30
0.0
 41
1.0
 10
31.69747183125547
 20
14.44534961913149
 30
0.0
 41
1.0
 10
31.69746419479042
 20
14.45699938544
 30
0.0
 41
1.0
 10
31.69745942633805
 20
14.46811824294644
 30
0.0
 41
1.0
 10
31.69745752589835
 20
14.47254960063697
 30
0.0
 41
1.0
  0
LINE
  5
1DB
330
1F
100
AcDbEntity
  8
0
  6
SLD-Solid
 62
     7
370
    25
100
AcDbLine
 10
31.69744208438493
 20
14.50862527719853
 30
0.0
 11
31.69744546021268
 21
14.50258545840298
 31
0.0
  0
LINE
  5
1DC
330
1F
100
AcDbEntity
  8
0
  6
SLD-Solid
 62
     7
370
    25
100
AcDbLine
 10
31.48295059480767
 20
14.50258545840298
 30
0.0
 11
31.69764208494369
 21
14.50258545840298
 31
0.0
  0
LINE
  5
1DD
330
1F
100
AcDbEntity
  8
0
  6
SLD-Solid
 62
     7
370
    25
100
AcDbLine
 10
31.48295059480767
 20
14.50258545840298
 30
0.0
 11
31.48295059480767
 21
14.47258545840297
 31
0.0
  0
LINE
  5
1DE
330
1F
100
AcDbEntity
  8
0
  6
SLD-Solid
 62
     7
370
    25
100
AcDbLine
 10
31.48295059480767
 20
14.47258545840297
 30
0.0
 11
31.6976420843849
 21
14.47258545840308
 31
0.0
  0
LINE
  5
1DF
330
1F
100
AcDbEntity
  8
0
  6
SLD-Solid
 62
     7
370
    25
100
AcDbLine
 10
31.20170059480768
 20
14.50258545840298
 30
0.0
 11
31.20170059480768
 21
14.47258545840298
 31
0.0
  0
LINE
  5
1E0
330
1F
100
AcDbEntity
  8
0
  6
SLD-Solid
 62
     7
370
    25
100
AcDbLine
 10
31.20170059480768
 20
14.50258545840298
 30
0.0
 11
31.48295059480767
 21
14.50258545840298
 31
0.0
  0
LINE
  5
1E1
330
1F
100
AcDbEntity
  8
0
  6
SLD-Solid
 62
     7
370
    25
100
AcDbLine
 10
31.20170059480768
 20
14.47258545840298
 30
0.0
 11
31.48295059480767
 21
14.47258545840297
 31
0.0
  0
LINE
  5
1E2
330
1F
100
AcDbEntity
  8
0
  6
SLD-Solid
 62
     7
370
    25
100
AcDbLine
 10
35.21907256541352
 20
14.42668545840307
 30
0.0
 11
35.44007256541352
 21
14.42668545840318
 31
0.0
  0
LINE
  5
1E3
330
1F
100
AcDbEntity
  8
0
  6
SLD-Solid
 62
     7
370
    25
100
AcDbLine
 10
35.44007256541352
 20
14.42668545840318
 30
0.0
 11
35.44007256541351
 21
13.10142099230901
 31
0.0
  0
LINE
  5
1E4
330
1F
100
AcDbEntity
  8
0
  6
SLD-Solid
 62
     7
370
    25
100
AcDbLine
 10
35.21907256541352
 20
13.10142099230901
 30
0.0
 11
35.44007256541351
 21
13.10142099230901
 31
0.0
  0
LINE
  5
1E5
330
1F
100
AcDbEntity
  8
0
  6
SLD-Solid
 62
     7
370
    25
100
AcDbLine
 10
35.21907256541351
 20
13.10142099230901
 30
0.0
 11
35.21907256541352
 21
14.42668545840307
 31
0.0
  0
LINE
  5
1E6
330
1F
100
AcDbEntity
  8
0
  6
SLD-Solid
 62
     7
370
    25
100
AcDbLine
 10
35.16017256541352
 20
14.42668545840307
 30
0.0
 11
35.21907256541352
 21
14.42668545840307
 31
0.0
  0
SPLINE
  5
1E7
330
1F
100
AcDbEntity
  8
0
  6
SLD-Solid
 62
     7
370
    25
100
AcDbSpline
210
0.0
220
0.0
230
1.0
 70
    12
 71
     3
 72
    11
 73
     7
 74
     0
 42
0.00000001
 43
0.00000001
 40
0.0
 40
0.0
 40
0.0
 40
0.0
 40
0.2499999999999377
 40
0.4999999999998656
 40
0.7499999999998059
 40
1.0
 40
1.0
 40
1.0
 40
1.0
 10
35.21907255981056
 20
13.10142099230901
 30
0.0
 41
1.0
 10
35.21135447769657
 20
13.10354303115018
 30
0.0
 41
1.0
 10
35.19591831346861
 20
13.10778710883252
 30
0.0
 41
1.0
 10
35.17644921673619
 20
13.11415322535604
 30
0.0
 41
1.0
 10
35.16282863827075
 20
13.12051934187956
 30
0.0
 41
1.0
 10
35.16105791903509
 20
13.1247634195619
 30
0.0
 41
1.0
 10
35.16017255941725
 20
13.12688545840307
 30
0.0
 41
1.0
  0
LINE
  5
1E8
330
1F
100
AcDbEntity
  8
0
  6
SLD-Solid
 62
     7
370
    25
100
AcDbLine
 10
35.16017256541352
 20
13.12688545840308
 30
0.0
 11
35.16017256541351
 21
14.42668545840307
 31
0.0
  0
SPLINE
  5
1E9
330
1F
100
AcDbEntity
  8
0
  6
SLD-Solid
 62
     7
370
    25
100
AcDbSpline
210
0.0
220
0.0
230
1.0
 70
    12
 71
     3
 72
    10
 73
     6
 74
     0
 42
0.00000001
 43
0.00000001
 40
0.0
 40
0.0
 40
0.0
 40
0.0
 40
0.0517606371337393
 40
0.5258803185668685
 40
1.0
 40
1.0
 40
1.0
 40
1.0
 10
35.19788016623997
 20
13.10740648118366
 30
0.0
 41
1.0
 10
35.19810348454041
 20
13.10705986449345
 30
0.0
 41
1.0
 10
35.20037236501563
 20
13.1035382908505
 30
0.0
 41
1.0
 10
35.20789522120969
 20
13.09934021351029
 30
0.0
 41
1.0
 10
35.21534678401224
 20
13.09837037493303
 30
0.0
 41
1.0
 10
35.21907256541352
 20
13.0978854556444
 30
0.0
 41
1.0
  0
LINE
  5
1EA
330
1F
100
AcDbEntity
  8
0
  6
SLD-Solid
 62
     7
370
    25
100
AcDbLine
 10
35.21907256541351
 20
13.06798545840307
 30
0.0
 11
35.21907256541352
 21
13.0978854556444
 31
0.0
  0
SPLINE
  5
1EB
330
1F
100
AcDbEntity
  8
0
  6
SLD-Solid
 62
     7
370
    25
100
AcDbSpline
210
0.0
220
0.0
230
1.0
 70
    12
 71
     3
 72
    12
 73
     8
 74
     0
 42
0.00000001
 43
0.00000001
 40
0.0
 40
0.0
 40
0.0
 40
0.0
 40
0.2227005890337892
 40
0.4454287934403922
 40
0.6681571093941615
 40
0.8908852285057968
 40
1.0
 40
1.0
 40
1.0
 40
1.0
 10
35.16017256265484
 20
13.12688545840307
 30
0.0
 41
1.0
 10
35.16087361406495
 20
13.12001653522344
 30
0.0
 41
1.0
 10
35.16227580381713
 20
13.10627783710229
 30
0.0
 41
1.0
 10
35.1731817003004
 20
13.08814521983318
 30
0.0
 41
1.0
 10
35.18912744943292
 20
13.07479926439151
 30
0.0
 41
1.0
 10
35.2055277759786
 20
13.06868424127455
 30
0.0
 41
1.0
 10
35.2157209134724
 20
13.06815836982848
 30
0.0
 41
1.0
 10
35.21907256541351
 20
13.0679854556444
 30
0.0
 41
1.0
  0
LINE
  5
1EC
330
1F
100
AcDbEntity
  8
0
  6
SLD-Solid
 62
     7
370
    25
100
AcDbLine
 10
35.44007256541352
 20
13.06798545840308
 30
0.0
 11
35.44007256541352
 21
13.09788545840307
 31
0.0
  0
LINE
  5
1ED
330
1F
100
AcDbEntity
  8
0
  6
SLD-Solid
 62
     7
370
    25
100
AcDbLine
 10
35.21907256541352
 20
13.09788545840307
 30
0.0
 11
35.44007256541352
 21
13.09788545840307
 31
0.0
  0
LINE
  5
1EE
330
1F
100
AcDbEntity
  8
0
  6
SLD-Solid
 62
     7
370
    25
100
AcDbLine
 10
35.21907256541351
 20
13.06798545840307
 30
0.0
 11
35.44007256541352
 21
13.06798545840308
 31
0.0
  0
ARC
  5
1EF
330
1F
100
AcDbEntity
  8
0
  6
SLD-Solid
 62
     7
370
    25
100
AcDbCircle
 10
38.97421966032604
 20
14.92258545840305
 30
0.0
 40
0.0800000000000001
100
AcDbArc
 50
0.0000000000063611
 51
90.0
  0
LINE
  5
1F0
330
1F
100
AcDbEntity
  8
0
  6
SLD-Solid
 62
     7
370
    25
100
AcDbLine
 10
39.05421966032604
 20
14.47158545840307
 30
0.0
 11
39.05421966032603
 21
14.92258545840306
 31
0.0
  0
LINE
  5
1F1
330
1F
100
AcDbEntity
  8
0
  6
SLD-Solid
 62
     7
370
    25
100
AcDbLine
 10
38.97421966032604
 20
15.00258545840305
 30
0.0
 11
35.43997256541351
 21
15.00258545840305
 31
0.0
  0
LINE
  5
1F2
330
1F
100
AcDbEntity
  8
0
  6
SLD-Solid
 62
     7
370
    25
100
AcDbLine
 10
39.05421966032604
 20
14.47158545840307
 30
0.0
 11
39.05421966032603
 21
14.41268545840308
 31
0.0
  0
LINE
  5
1F3
330
1F
100
AcDbEntity
  8
0
  6
SLD-Solid
 62
     7
370
    25
100
AcDbLine
 10
39.05421966032603
 20
14.41268545840308
 30
0.0
 11
35.44007256541352
 21
14.41268545840307
 31
0.0
  0
LINE
  5
1F4
330
1F
100
AcDbEntity
  8
0
  6
SLD-Solid
 62
     7
370
    25
100
AcDbLine
 10
39.11581681542894
 20
14.44258545840309
 30
0.0
 11
39.11581681542894
 21
14.41268545840308
 31
0.0
  0
LINE
  5
1F5
330
1F
100
AcDbEntity
  8
0
  6
SLD-Solid
 62
     7
370
    25
100
AcDbLine
 10
39.08581681542893
 20
14.41268545840308
 30
0.0
 11
39.08581681542894
 21
14.44258545840309
 31
0.0
  0
LINE
  5
1F6
330
1F
100
AcDbEntity
  8
0
  6
SLD-Solid
 62
     7
370
    25
100
AcDbLine
 10
39.08581681542894
 20
14.44258545840309
 30
0.0
 11
39.11581681542894
 21
14.44258545840309
 31
0.0
  0
LINE
  5
1F7
330
1F
100
AcDbEntity
  8
0
  6
SLD-Solid
 62
     7
370
    25
100
AcDbLine
 10
39.11581681542894
 20
14.41268545840308
 30
0.0
 11
39.08581681542893
 21
14.41268545840308
 31
0.0
  0
LINE
  5
1F8
330
1F
100
AcDbEntity
  8
0
  6
SLD-Solid
 62
     7
370
    25
100
AcDbLine
 10
39.08581681542894
 20
14.44258545840309
 30
0.0
 11
39.05421966032604
 21
14.44258545840309
 31
0.0
  0
LINE
  5
1F9
330
1F
100
AcDbEntity
  8
0
  6
SLD-Solid
 62
     7
370
    25
100
AcDbLine
 10
39.08581681542893
 20
14.41268545840308
 30
0.0
 11
39.05421966032603
 21
14.41268545840308
 31
0.0
  0
LINE
  5
1FA
330
1F
100
AcDbEntity
  8
0
  6
SLD-Solid
 62
     7
370
    25
100
AcDbLine
 10
39.16007256541351
 20
14.47158545840319
 30
0.0
 11
39.18997256541351
 21
14.4715854584032
 31
0.0
  0
LINE
  5
1FB
330
1F
100
AcDbEntity
  8
0
  6
SLD-Solid
 62
     7
370
    25
100
AcDbLine
 10
39.16007256541351
 20
14.92258545840317
 30
0.0
 11
39.16007256541351
 21
14.47158545840319
 31
0.0
  0
LINE
  5
1FC
330
1F
100
AcDbEntity
  8
0
  6
SLD-Solid
 62
     7
370
    25
100
AcDbLine
 10
39.18997256541351
 20
14.92258545840317
 30
0.0
 11
39.16007256541351
 21
14.92258545840317
 31
0.0
  0
LINE
  5
1FD
330
1F
100
AcDbEntity
  8
0
  6
SLD-Solid
 62
     7
370
    25
100
AcDbLine
 10
39.18997256541351
 20
14.92258545840317
 30
0.0
 11
39.18997256541351
 21
14.4715854584032
 31
0.0
  0
LINE
  5
1FE
330
1F
100
AcDbEntity
  8
0
  6
SLD-Solid
 62
     7
370
    25
100
AcDbLine
 10
39.13107256541351
 20
14.4425854584032
 30
0.0
 11
39.13107256541351
 21
14.41268545840319
 31
0.0
  0
ARC
  5
1FF
330
1F
100
AcDbEntity
  8
0
  6
SLD-Solid
 62
     7
370
    25
100
AcDbCircle
 10
39.13107256541351
 20
14.47158545840319
 30
0.0
 40
0.0290000000000035
100
AcDbArc
 50
270.0000000000008
 51
0.0
  0
ARC
  5
200
330
1F
100
AcDbEntity
  8
0
  6
SLD-Solid
 62
     7
370
    25
100
AcDbCircle
 10
39.13107256541351
 20
14.47158545840319
 30
0.0
 40
0.0589000000000013
100
AcDbArc
 50
270.0000000000008
 51
0.000000000001728
  0
LINE
  5
201
330
1F
100
AcDbEntity
  8
0
  6
SLD-Solid
 62
     7
370
    25
100
AcDbLine
 10
39.13107256541351
 20
14.4425854584032
 30
0.0
 11
39.11581681542894
 21
14.4425854584032
 31
0.0
  0
LINE
  5
202
330
1F
100
AcDbEntity
  8
0
  6
SLD-Solid
 62
     7
370
    25
100
AcDbLine
 10
39.13107256541351
 20
14.41268545840319
 30
0.0
 11
39.11581681542894
 21
14.41268545840319
 31
0.0
  0
LINE
  5
203
330
1F
100
AcDbEntity
  8
0
  6
SLD-Solid
 62
     7
370
    25
100
AcDbLine
 10
39.16007256541351
 20
15.00258545840307
 30
0.0
 11
39.18997256541351
 21
15.00258545840307
 31
0.0
  0
LINE
  5
204
330
1F
100
AcDbEntity
  8
0
  6
SLD-Solid
 62
     7
370
    25
100
AcDbLine
 10
39.16007256541351
 20
14.92258545840317
 30
0.0
 11
39.16007256541351
 21
15.00258545840307
 31
0.0
  0
LINE
  5
205
330
1F
100
AcDbEntity
  8
0
  6
SLD-Solid
 62
     7
370
    25
100
AcDbLine
 10
39.18997256541351
 20
15.00258545840307
 30
0.0
 11
39.18997256541351
 21
14.92258545840317
 31
0.0
  0
LINE
  5
206
330
1F
100
AcDbEntity
  8
0
  6
SLD-Solid
 62
     7
370
    25
100
AcDbLine
 10
35.2190725654121
 20
43.09794992449712
 30
0.0
 11
35.44007256541209
 21
43.09794992449712
 31
0.0
  0
LINE
  5
207
330
1F
100
AcDbEntity
  8
0
  6
SLD-Solid
 62
     7
370
    25
100
AcDbLine
 10
35.4400725654121
 20
41.77268545840305
 30
0.0
 11
35.44007256541209
 21
43.09794992449712
 31
0.0
  0
LINE
  5
208
330
1F
100
AcDbEntity
  8
0
  6
SLD-Solid
 62
     7
370
    25
100
AcDbLine
 10
35.2190725654121
 20
41.77268545840305
 30
0.0
 11
35.4400725654121
 21
41.77268545840305
 31
0.0
  0
LINE
  5
209
330
1F
100
AcDbEntity
  8
0
  6
SLD-Solid
 62
     7
370
    25
100
AcDbLine
 10
35.2190725654121
 20
43.09794992449712
 30
0.0
 11
35.2190725654121
 21
41.77268545840305
 31
0.0
  0
SPLINE
  5
20A
330
1F
100
AcDbEntity
  8
0
  6
SLD-Solid
 62
     7
370
    25
100
AcDbSpline
210
0.0
220
0.0
230
1.0
 70
    12
 71
     3
 72
    11
 73
     7
 74
     0
 42
0.00000001
 43
0.00000001
 40
0.0
 40
0.0
 40
0.0
 40
0.0
 40
0.2500000000000776
 40
0.500000000000133
 40
0.7500000000002042
 40
0.9999999999999999
 40
0.9999999999999999
 40
0.9999999999999999
 40
0.9999999999999999
 10
35.21907255980914
 20
43.09794992449712
 30
0.0
 41
1.0
 10
35.21135447769515
 20
43.09582788565595
 30
0.0
 41
1.0
 10
35.1959183134672
 20
43.0915838079736
 30
0.0
 41
1.0
 10
35.17644921673477
 20
43.0852176914501
 30
0.0
 41
1.0
 10
35.16282863826934
 20
43.07885157492657
 30
0.0
 41
1.0
 10
35.16105791903367
 20
43.07460749724422
 30
0.0
 41
1.0
 10
35.16017255941584
 20
43.07248545840306
 30
0.0
 41
1.0
  0
LINE
  5
20B
330
1F
100
AcDbEntity
  8
0
  6
SLD-Solid
 62
     7
370
    25
100
AcDbLine
 10
35.1601725654121
 20
41.77268545840305
 30
0.0
 11
35.2190725654121
 21
41.77268545840305
 31
0.0
  0
LINE
  5
20C
330
1F
100
AcDbEntity
  8
0
  6
SLD-Solid
 62
     7
370
    25
100
AcDbLine
 10
35.1601725654121
 20
43.07248545840305
 30
0.0
 11
35.1601725654121
 21
41.77268545840305
 31
0.0
  0
LINE
  5
20D
330
1F
100
AcDbEntity
  8
0
  6
SLD-Solid
 62
     7
370
    25
100
AcDbLine
 10
35.2190725654121
 20
43.13138545840305
 30
0.0
 11
35.2190725654121
 21
43.10148546116173
 31
0.0
  0
SPLINE
  5
20E
330
1F
100
AcDbEntity
  8
0
  6
SLD-Solid
 62
     7
370
    25
100
AcDbSpline
210
0.0
220
0.0
230
1.0
 70
    12
 71
     3
 72
    10
 73
     6
 74
     0
 42
0.00000001
 43
0.00000001
 40
0.0
 40
0.0
 40
0.0
 40
0.0
 40
0.0517606371335929
 40
0.525880318566811
 40
1.0
 40
1.0
 40
1.0
 40
1.0
 10
35.19788016623855
 20
43.09196443562247
 30
0.0
 41
1.0
 10
35.19810348453899
 20
43.09231105231269
 30
0.0
 41
1.0
 10
35.20037236501421
 20
43.09583262595562
 30
0.0
 41
1.0
 10
35.20789522120827
 20
43.10003070329584
 30
0.0
 41
1.0
 10
35.21534678401083
 20
43.1010005418731
 30
0.0
 41
1.0
 10
35.2190725654121
 20
43.10148546116173
 30
0.0
 41
1.0
  0
SPLINE
  5
20F
330
1F
100
AcDbEntity
  8
0
  6
SLD-Solid
 62
     7
370
    25
100
AcDbSpline
210
0.0
220
0.0
230
1.0
 70
    12
 71
     3
 72
    12
 73
     8
 74
     0
 42
0.00000001
 43
0.00000001
 40
0.0
 40
0.0
 40
0.0
 40
0.0
 40
0.2227005890336266
 40
0.4454287934403039
 40
0.6681571093941114
 40
0.890885228505783
 40
1.0
 40
1.0
 40
1.0
 40
1.0
 10
35.16017256265342
 20
43.07248545840306
 30
0.0
 41
1.0
 10
35.16087361406354
 20
43.07935438158269
 30
0.0
 41
1.0
 10
35.16227580381571
 20
43.09309307970386
 30
0.0
 41
1.0
 10
35.17318170029899
 20
43.11122569697295
 30
0.0
 41
1.0
 10
35.1891274494315
 20
43.12457165241461
 30
0.0
 41
1.0
 10
35.20552777597719
 20
43.13068667553158
 30
0.0
 41
1.0
 10
35.21572091347098
 20
43.13121254697764
 30
0.0
 41
1.0
 10
35.2190725654121
 20
43.13138546116173
 30
0.0
 41
1.0
  0
LINE
  5
210
330
1F
100
AcDbEntity
  8
0
  6
SLD-Solid
 62
     7
370
    25
100
AcDbLine
 10
35.2190725654121
 20
43.13138545840305
 30
0.0
 11
35.4400725654121
 21
43.13138545840305
 31
0.0
  0
LINE
  5
211
330
1F
100
AcDbEntity
  8
0
  6
SLD-Solid
 62
     7
370
    25
100
AcDbLine
 10
35.4400725654121
 20
43.13138545840305
 30
0.0
 11
35.4400725654121
 21
43.10148545840305
 31
0.0
  0
LINE
  5
212
330
1F
100
AcDbEntity
  8
0
  6
SLD-Solid
 62
     7
370
    25
100
AcDbLine
 10
35.2190725654121
 20
43.10148545840305
 30
0.0
 11
35.4400725654121
 21
43.10148545840305
 31
0.0
  0
LINE
  5
213
330
1F
100
AcDbEntity
  8
0
  6
SLD-Solid
 62
     7
370
    25
100
AcDbLine
 10
39.05421966032462
 20
41.72778545840305
 30
0.0
 11
39.05421966032461
 21
41.27678545840306
 31
0.0
  0
LINE
  5
214
330
1F
100
AcDbEntity
  8
0
  6
SLD-Solid
 62
     7
370
    25
100
AcDbLine
 10
38.97421966032461
 20
41.19678545840306
 30
0.0
 11
35.43997256541351
 21
41.19678545840306
 31
0.0
  0
ARC
  5
215
330
1F
100
AcDbEntity
  8
0
  6
SLD-Solid
 62
     7
370
    25
100
AcDbCircle
 10
38.97421966032461
 20
41.27678545840306
 30
0.0
 40
0.0799999999999983
100
AcDbArc
 50
270.0000000000008
 51
0.0
  0
LINE
  5
216
330
1F
100
AcDbEntity
  8
0
  6
SLD-Solid
 62
     7
370
    25
100
AcDbLine
 10
39.05421966032461
 20
41.78668545840304
 30
0.0
 11
35.4400725654121
 21
41.78668545840305
 31
0.0
  0
LINE
  5
217
330
1F
100
AcDbEntity
  8
0
  6
SLD-Solid
 62
     7
370
    25
100
AcDbLine
 10
39.05421966032462
 20
41.72778545840305
 30
0.0
 11
39.05421966032461
 21
41.78668545840304
 31
0.0
  0
LINE
  5
218
330
1F
100
AcDbEntity
  8
0
  6
SLD-Solid
 62
     7
370
    25
100
AcDbLine
 10
39.08581681542751
 20
41.78668545840304
 30
0.0
 11
39.08581681542753
 21
41.75678545840304
 31
0.0
  0
LINE
  5
219
330
1F
100
AcDbEntity
  8
0
  6
SLD-Solid
 62
     7
370
    25
100
AcDbLine
 10
39.11581681542753
 20
41.75678545840304
 30
0.0
 11
39.11581681542751
 21
41.78668545840304
 31
0.0
  0
LINE
  5
21A
330
1F
100
AcDbEntity
  8
0
  6
SLD-Solid
 62
     7
370
    25
100
AcDbLine
 10
39.08581681542753
 20
41.75678545840304
 30
0.0
 11
39.11581681542753
 21
41.75678545840304
 31
0.0
  0
LINE
  5
21B
330
1F
100
AcDbEntity
  8
0
  6
SLD-Solid
 62
     7
370
    25
100
AcDbLine
 10
39.11581681542751
 20
41.78668545840304
 30
0.0
 11
39.08581681542751
 21
41.78668545840304
 31
0.0
  0
LINE
  5
21C
330
1F
100
AcDbEntity
  8
0
  6
SLD-Solid
 62
     7
370
    25
100
AcDbLine
 10
39.08581681542753
 20
41.75678545840304
 30
0.0
 11
39.05421966032462
 21
41.75678545840304
 31
0.0
  0
LINE
  5
21D
330
1F
100
AcDbEntity
  8
0
  6
SLD-Solid
 62
     7
370
    25
100
AcDbLine
 10
39.08581681542751
 20
41.78668545840304
 30
0.0
 11
39.05421966032461
 21
41.78668545840304
 31
0.0
  0
LINE
  5
21E
330
1F
100
AcDbEntity
  8
0
  6
SLD-Solid
 62
     7
370
    25
100
AcDbLine
 10
39.18997256541209
 20
41.27678545840306
 30
0.0
 11
39.16007256541209
 21
41.27678545840306
 31
0.0
  0
LINE
  5
21F
330
1F
100
AcDbEntity
  8
0
  6
SLD-Solid
 62
     7
370
    25
100
AcDbLine
 10
39.16007256541209
 20
41.27678545840306
 30
0.0
 11
39.1600725654121
 21
41.72778545840304
 31
0.0
  0
LINE
  5
220
330
1F
100
AcDbEntity
  8
0
  6
SLD-Solid
 62
     7
370
    25
100
AcDbLine
 10
39.1600725654121
 20
41.72778545840304
 30
0.0
 11
39.1899725654121
 21
41.72778545840304
 31
0.0
  0
LINE
  5
221
330
1F
100
AcDbEntity
  8
0
  6
SLD-Solid
 62
     7
370
    25
100
AcDbLine
 10
39.18997256541209
 20
41.27678545840306
 30
0.0
 11
39.1899725654121
 21
41.72778545840304
 31
0.0
  0
LINE
  5
222
330
1F
100
AcDbEntity
  8
0
  6
SLD-Solid
 62
     7
370
    25
100
AcDbLine
 10
39.16007256541209
 20
41.19678545840295
 30
0.0
 11
39.18997256541209
 21
41.19678545840295
 31
0.0
  0
LINE
  5
223
330
1F
100
AcDbEntity
  8
0
  6
SLD-Solid
 62
     7
370
    25
100
AcDbLine
 10
39.16007256541209
 20
41.27678545840306
 30
0.0
 11
39.16007256541209
 21
41.19678545840295
 31
0.0
  0
LINE
  5
224
330
1F
100
AcDbEntity
  8
0
  6
SLD-Solid
 62
     7
370
    25
100
AcDbLine
 10
39.18997256541209
 20
41.19678545840295
 30
0.0
 11
39.18997256541209
 21
41.27678545840306
 31
0.0
  0
LINE
  5
225
330
1F
100
AcDbEntity
  8
0
  6
SLD-Solid
 62
     7
370
    25
100
AcDbLine
 10
39.1310725654121
 20
41.75678545840304
 30
0.0
 11
39.13107256541209
 21
41.78668545840304
 31
0.0
  0
ARC
  5
226
330
1F
100
AcDbEntity
  8
0
  6
SLD-Solid
 62
     7
370
    25
100
AcDbCircle
 10
39.1310725654121
 20
41.72778545840304
 30
0.0
 40
0.0589000000000013
100
AcDbArc
 50
0.0
 51
90.00000000000692
  0
ARC
  5
227
330
1F
100
AcDbEntity
  8
0
  6
SLD-Solid
 62
     7
370
    25
100
AcDbCircle
 10
39.1310725654121
 20
41.72778545840304
 30
0.0
 40
0.0290000000000035
100
AcDbArc
 50
0.0
 51
90.0
  0
LINE
  5
228
330
1F
100
AcDbEntity
  8
0
  6
SLD-Solid
 62
     7
370
    25
100
AcDbLine
 10
39.1310725654121
 20
41.75678545840304
 30
0.0
 11
39.11581681542753
 21
41.75678545840304
 31
0.0
  0
LINE
  5
229
330
1F
100
AcDbEntity
  8
0
  6
SLD-Solid
 62
     7
370
    25
100
AcDbLine
 10
39.13107256541209
 20
41.78668545840304
 30
0.0
 11
39.11581681542751
 21
41.78668545840304
 31
0.0
  0
LINE
  5
22A
330
1F
100
AcDbEntity
  8
0
  6
SLD-Solid
 62
     7
370
    25
100
AcDbLine
 10
35.43997256541351
 20
41.77268545840314
 30
0.0
 11
35.43997256541351
 21
14.42668545840312
 31
0.0
  0
LINE
  5
22B
330
1F
100
AcDbEntity
  8
0
  6
SLD-Solid
 62
     7
370
    25
100
AcDbLine
 10
35.21907256541352
 20
14.42668545840311
 30
0.0
 11
35.43997256541351
 21
14.42668545840312
 31
0.0
  0
LINE
  5
22C
330
1F
100
AcDbEntity
  8
0
  6
SLD-Solid
 62
     7
370
    25
100
AcDbLine
 10
35.21907256541352
 20
41.77268545840315
 30
0.0
 11
35.21907256541352
 21
14.42668545840311
 31
0.0
  0
LINE
  5
22D
330
1F
100
AcDbEntity
  8
0
  6
SLD-Solid
 62
     7
370
    25
100
AcDbLine
 10
35.16017256541352
 20
14.42668545840311
 30
0.0
 11
35.16017256541352
 21
41.77268545840315
 31
0.0
  0
LINE
  5
22E
330
1F
100
AcDbEntity
  8
0
  6
SLD-Solid
 62
     7
370
    25
100
AcDbLine
 10
39.10107256541352
 20
14.47168545840313
 30
0.0
 11
39.10107256541352
 21
41.72768545840313
 31
0.0
  0
LINE
  5
22F
330
1F
100
AcDbEntity
  8
0
  6
SLD-Solid
 62
     7
370
    25
100
AcDbLine
 10
39.05421966032604
 20
14.47168545840313
 30
0.0
 11
39.10107256541352
 21
14.47168545840313
 31
0.0
  0
LINE
  5
230
330
1F
100
AcDbEntity
  8
0
  6
SLD-Solid
 62
     7
370
    25
100
AcDbLine
 10
39.05421966032462
 20
41.72768545840313
 30
0.0
 11
39.10107256541352
 21
41.72768545840313
 31
0.0
  0
LINE
  5
231
330
1F
100
AcDbEntity
  8
0
  6
SLD-Solid
 62
     7
370
    25
100
AcDbLine
 10
39.15997256541352
 20
41.72768545840313
 30
0.0
 11
39.15997256541352
 21
14.47168545840313
 31
0.0
  0
LINE
  5
232
330
1F
100
AcDbEntity
  8
0
  6
SLD-Solid
 62
     7
370
    25
100
AcDbLine
 10
39.10107256541352
 20
14.47168545840313
 30
0.0
 11
39.15997256541352
 21
14.47168545840313
 31
0.0
  0
LINE
  5
233
330
1F
100
AcDbEntity
  8
0
  6
SLD-Solid
 62
     7
370
    25
100
AcDbLine
 10
39.10107256541352
 20
41.72768545840313
 30
0.0
 11
39.15997256541352
 21
41.72768545840313
 31
0.0
  0
LINE
  5
234
330
1F
100
AcDbEntity
  8
0
  6
SLD-Solid
 62
     8
370
    25
100
AcDbLine
 10
39.27007256541351
 20
34.90568545840316
 30
0.0
 11
39.27007256541351
 21
35.07368545840315
 31
0.0
  0
LINE
  5
235
330
1F
100
AcDbEntity
  8
0
  6
SLD-Solid
 62
     8
370
    25
100
AcDbLine
 10
39.17507256541352
 20
35.07368545840315
 30
0.0
 11
39.17507256541352
 21
34.90568545840316
 31
0.0
  0
LINE
  5
236
330
1F
100
AcDbEntity
  8
0
  6
SLD-Solid
 62
     8
370
    25
100
AcDbLine
 10
31.68951157331964
 20
38.66857250956886
 30
0.0
 11
35.16017256541351
 21
38.66857250956888
 31
0.0
  0
LINE
  5
237
330
1F
100
AcDbEntity
  8
0
  6
SLD-Solid
 62
     8
370
    25
100
AcDbLine
 10
31.69764208494369
 20
14.50158545840295
 30
0.0
 11
35.16017256541351
 21
14.50158545840296
 31
0.0
  0
LINE
  5
238
330
1F
100
AcDbEntity
  8
0
  6
SLD-Solid
 62
     8
370
    25
100
AcDbLine
 10
35.43997256541351
 20
14.47158545840307
 30
0.0
 11
39.05421966032604
 21
14.47158545840307
 31
0.0
  0
LINE
  5
239
330
1F
100
AcDbEntity
  8
0
  6
SLD-Solid
 62
     8
370
    25
100
AcDbLine
 10
35.43997256541351
 20
41.72778545840305
 30
0.0
 11
39.05421966032462
 21
41.72778545840305
 31
0.0
  0
DIMENSION
  5
23A
330
1F
100
AcDbEntity
  8
DIMS
100
AcDbDimension
  2
_D_4
 10
35.44007256541207
 20
44.23384707257627
 30
0.0
 11
37.68134771928037
 21
44.23384707257628
 31
0.0
 70
    32
  1
<>
 71
     2
 42
-1.0
  3
SLDDIMSTYLE1
100
AcDbAlignedDimension
 13
39.18997256541208
 23
41.72778545840304
 33
0.0
 14
35.44007256541207
 24
43.09794992449712
 34
0.0
 50
0.0000000000002171
100
AcDbRotatedDimension
  0
DIMENSION
  5
249
330
1F
100
AcDbEntity
  8
DIMS
100
AcDbDimension
  2
_D_5
 10
35.44007256541207
 20
44.23384707257631
 30
0.0
 11
33.38730134775398
 21
44.2338470725763
 31
0.0
 70
    32
  1
<>
 71
     2
 42
-1.0
  3
SLDDIMSTYLE3
100
AcDbAlignedDimension
 13
35.16017256541208
 23
43.07248545840305
 33
0.0
 14
35.44007256541207
 24
43.09794992449712
 34
0.0
100
AcDbRotatedDimension
  0
DIMENSION
  5
258
330
1F
100
AcDbEntity
  8
DIMS
100
AcDbDimension
  2
_D_6
 10
39.18997256541206
 20
45.8873903796628
 30
0.0
 11
35.15972898145047
 21
45.88739037966279
 31
0.0
 70
    32
  1
<>
 71
     2
 42
-1.0
  3
SLDDIMSTYLE0
100
AcDbAlignedDimension
 13
31.16017256541194
 23
38.66857250956887
 33
0.0
 14
39.18997256541208
 24
41.72778545840304
 34
0.0
 50
0.0000000000002028
100
AcDbRotatedDimension
  0
DIMENSION
  5
263
330
1F
100
AcDbEntity
  8
DIMS
100
AcDbDimension
  2
_D_7
 10
35.16017256541348
 20
40.42816321520441
 30
0.0
 11
33.38730134775397
 21
40.42816321520441
 31
0.0
 70
    32
  1
<>
 71
     2
 42
-1.0
  3
SLDDIMSTYLE0
100
AcDbAlignedDimension
 13
31.16017256541194
 23
38.66857250956887
 33
0.0
 14
35.16017256541348
 24
41.77268545840315
 34
0.0
100
AcDbRotatedDimension
  0
DIMENSION
  5
26D
330
1F
100
AcDbEntity
  8
DIMS
100
AcDbDimension
  2
_D_8
 10
39.81989382525605
 20
41.78668545840304
 30
0.0
 11
39.81989382525606
 21
45.17872896234007
 31
0.0
 70
    32
  1
<>
 71
     2
 42
-1.0
  3
SLDDIMSTYLE1
100
AcDbAlignedDimension
 13
35.44007256541207
 23
43.13138545840305
 33
0.0
 14
39.13107256541206
 24
41.78668545840304
 34
0.0
 50
90.0000000000002
100
AcDbRotatedDimension
  0
DIMENSION
  5
27D
330
1F
100
AcDbEntity
  8
DIMS
100
AcDbDimension
  2
_D_9
 10
39.8198938252561
 20
14.41268545840321
 30
0.0
 11
39.81989382525605
 21
16.27423591047896
 31
0.0
 70
    32
  1
<>
 71
     2
 42
-1.0
  3
SLDDIMSTYLE1
100
AcDbAlignedDimension
 13
35.44007256541349
 23
13.06798545840308
 33
0.0
 14
39.13107256541348
 24
14.41268545840319
 34
0.0
 50
90.0000000000002
100
AcDbRotatedDimension
  0
MTEXT
  5
28D
330
1F
100
AcDbEntity
  8
NOTES
100
AcDbMText
 10
31.11438469801442
 20
13.09742331852106
 30
0.0
 40
0.7500000000000001
 41
0.0
 71
     1
 72
     1
  1
Side view
  7
SLDTEXTSTYLE1
 73
     1
 44
1.0
  0
LINE
  5
28E
330
1F
100
AcDbEntity
  8
0
  6
SLD-Solid
 62
     7
370
    25
100
AcDbLine
 10
47.2470423530993
 20
39.15005871512115
 30
0.0
 11
47.32756964239238
 21
39.21705590889335
 31
0.0
  0
LINE
  5
28F
330
1F
100
AcDbEntity
  8
0
  6
SLD-Solid
 62
     7
370
    25
100
AcDbLine
 10
47.389561345819
 20
39.32444032420106
 30
0.0
 11
47.40730928528343
 21
39.42767926520205
 31
0.0
  0
LINE
  5
290
330
1F
100
AcDbEntity
  8
0
  6
SLD-Solid
 62
     7
370
    25
100
AcDbLine
 10
58.12132952085214
 20
34.73273040275598
 30
0.0
 11
55.52072768397399
 21
33.23143491829913
 31
0.0
  0
LINE
  5
291
330
1F
100
AcDbEntity
  8
0
  6
SLD-Solid
 62
     7
370
    25
100
AcDbLine
 10
54.80321593225085
 20
33.26923493225653
 30
0.0
 11
44.87020468730129
 21
39.00344026797368
 31
0.0
  0
LINE
  5
292
330
1F
100
AcDbEntity
  8
0
  6
SLD-Solid
 62
     7
370
    25
100
AcDbLine
 10
44.49812399579934
 20
39.20103800540446
 30
0.0
 11
44.49812399579913
 21
19.4787655678551
 31
0.0
  0
LINE
  5
293
330
1F
100
AcDbEntity
  8
0
  6
SLD-Solid
 62
     7
370
    25
100
AcDbLine
 10
44.54229763744831
 20
39.20230916328353
 30
0.0
 11
44.54229763744831
 21
39.15313380733401
 31
0.0
  0
LINE
  5
294
330
1F
100
AcDbEntity
  8
0
  6
SLD-Solid
 62
     7
370
    25
100
AcDbLine
 10
49.40730276355377
 20
42.12084123304491
 30
0.0
 11
44.76472929538728
 21
39.44074061741806
 31
0.0
  0
LINE
  5
295
330
1F
100
AcDbEntity
  8
0
  6
SLD-Solid
 62
     7
370
    25
100
AcDbLine
 10
55.56253777230094
 20
13.42343963821632
 30
0.0
 11
58.12132952085214
 21
14.9005986724408
 31
0.0
  0
LINE
  5
296
330
1F
100
AcDbEntity
  8
0
  6
SLD-Solid
 62
     7
370
    25
100
AcDbLine
 10
44.83968394780866
 20
19.18892778553109
 30
0.0
 11
54.76161477331668
 21
13.46111903980231
 31
0.0
  0
LINE
  5
297
330
1F
100
AcDbEntity
  8
0
  6
SLD-Solid
 62
     7
370
    25
100
AcDbLine
 10
58.12132952085214
 20
35.15046775580996
 30
0.0
 11
49.49082095872801
 21
40.1327542977735
 31
0.0
  0
LINE
  5
298
330
1F
100
AcDbEntity
  8
0
  6
SLD-Solid
 62
     7
370
    25
100
AcDbLine
 10
49.3658311171485
 20
39.91624208217832
 30
0.0
 11
58.12132952085214
 21
34.86180044053541
 31
0.0
  0
LINE
  5
299
330
1F
100
AcDbEntity
  8
0
  6
SLD-Solid
 62
     7
370
    25
100
AcDbLine
 10
49.01227772655523
 20
40.1327542977735
 30
0.0
 11
45.96312058686515
 21
38.37251334881251
 31
0.0
  0
LINE
  5
29A
330
1F
100
AcDbEntity
  8
0
  6
SLD-Solid
 62
     7
370
    25
100
AcDbLine
 10
46.21314090535736
 20
38.22817969117524
 30
0.0
 11
49.13726756813473
 21
39.91624208217832
 31
0.0
  0
SPLINE
  5
29B
330
1F
100
AcDbEntity
  8
0
  6
SLD-Solid
 62
     7
370
    25
100
AcDbSpline
210
0.0
220
0.0
230
1.0
 70
    12
 71
     3
 72
    13
 73
     9
 74
     0
 42
0.00000001
 43
0.00000001
 40
0.0
 40
0.0
 40
0.0
 40
0.0
 40
0.0532773099950988
 40
0.269893104818482
 40
0.4759050318041904
 40
0.6264470081121682
 40
0.7854813042398737
 40
0.9999999999999999
 40
0.9999999999999999
 40
0.9999999999999999
 40
0.9999999999999999
 10
49.49033325086976
 20
40.13217274000731
 30
0.0
 41
1.0
 10
49.48688439214759
 20
40.13443128062374
 30
0.0
 41
1.0
 10
49.46941310486429
 20
40.14587263416389
 30
0.0
 41
1.0
 10
49.43369338433951
 20
40.16042307378083
 30
0.0
 41
1.0
 10
49.38891910500063
 20
40.17494826958107
 30
0.0
 41
1.0
 10
49.34647937895529
 20
40.18398854486558
 30
0.0
 41
1.0
 10
49.30221860983102
 20
40.1903496978538
 30
0.0
 41
1.0
 10
49.27003264211156
 20
40.19125132843902
 30
0.0
 41
1.0
 10
49.25154934264162
 20
40.19176910401945
 30
0.0
 41
1.0
  0
SPLINE
  5
29C
330
1F
100
AcDbEntity
  8
0
  6
SLD-Solid
 62
     7
370
    25
100
AcDbSpline
210
0.0
220
0.0
230
1.0
 70
    12
 71
     3
 72
    13
 73
     9
 74
     0
 42
0.00000001
 43
0.00000001
 40
0.0
 40
0.0
 40
0.0
 40
0.0
 40
0.2767828660118293
 40
0.3857232616673205
 40
0.5659471891701805
 40
0.7507729164358757
 40
0.9479806419484066
 40
1.0
 40
1.0
 40
1.0
 40
1.0
 10
49.25154934264162
 20
40.19176910401945
 30
0.0
 41
1.0
 10
49.22768554181096
 20
40.19093671231438
 30
0.0
 41
1.0
 10
49.19442906454122
 20
40.18977669526529
 30
0.0
 41
1.0
 10
49.14696406044043
 20
40.18213880008801
 30
0.0
 41
1.0
 10
49.10814624590223
 20
40.17333335918969
 30
0.0
 41
1.0
 10
49.0646328267626
 20
40.15848235001312
 30
0.0
 41
1.0
 10
49.03236059578646
 20
40.14487918599386
 30
0.0
 41
1.0
 10
49.01609853436111
 20
40.13446498073453
 30
0.0
 41
1.0
 10
49.01270427245409
 20
40.13229129934943
 30
0.0
 41
1.0
  0
SPLINE
  5
29D
330
1F
100
AcDbEntity
  8
0
  6
SLD-Solid
 62
     7
370
    25
100
AcDbSpline
210
0.0
220
0.0
230
1.0
 70
    12
 71
     3
 72
    13
 73
     9
 74
     0
 42
0.00000001
 43
0.00000001
 40
0.0
 40
0.0
 40
0.0
 40
0.0
 40
0.0479075767696373
 40
0.261999982531832
 40
0.4654735147233904
 40
0.628316220155574
 40
0.8172830322296084
 40
1.0
 40
1.0
 40
1.0
 40
1.0
 10
49.13771368345601
 20
39.91628021873394
 30
0.0
 41
1.0
 10
49.13857569177872
 20
39.91684641958896
 30
0.0
 41
1.0
 10
49.14328989735373
 20
39.91994289459617
 30
0.0
 41
1.0
 10
49.15817772196318
 20
39.92645338687868
 30
0.0
 41
1.0
 10
49.17912147874134
 20
39.93311836663363
 30
0.0
 41
1.0
 10
49.20221972920658
 20
39.93802332230379
 30
0.0
 41
1.0
 10
49.22599847982139
 20
39.94115994727912
 30
0.0
 41
1.0
 10
49.24312840129456
 20
39.94156834081166
 30
0.0
 41
1.0
 10
49.25154934264162
 20
39.94176910401945
 30
0.0
 41
1.0
  0
SPLINE
  5
29E
330
1F
100
AcDbEntity
  8
0
  6
SLD-Solid
 62
     7
370
    25
100
AcDbSpline
210
0.0
220
0.0
230
1.0
 70
    12
 71
     3
 72
    12
 73
     8
 74
     0
 42
0.00000001
 43
0.00000001
 40
0.0
 40
0.0
 40
0.0
 40
0.0
 40
0.3106492916799338
 40
0.4321236476210201
 40
0.6281509962356067
 40
0.8224509557158592
 40
1.0
 40
1.0
 40
1.0
 40
1.0
 10
49.25154934264162
 20
39.94176910401945
 30
0.0
 41
1.0
 10
49.26589254972641
 20
39.94121418447924
 30
0.0
 41
1.0
 10
49.28584443479446
 20
39.940442272673
 30
0.0
 41
1.0
 10
49.31275994108508
 20
39.93568588863253
 30
0.0
 41
1.0
 10
49.33298434029236
 20
39.93055735303894
 30
0.0
 41
1.0
 10
49.35254817604851
 20
39.92337387903579
 30
0.0
 41
1.0
 10
49.36142228527288
 20
39.91852603739247
 30
0.0
 41
1.0
 10
49.36565946110423
 20
39.91621130845168
 30
0.0
 41
1.0
  0
LINE
  5
29F
330
1F
100
AcDbEntity
  8
0
  6
SLD-Solid
 62
     7
370
    25
100
AcDbLine
 10
58.91335783158625
 20
15.1994812277797
 30
0.0
 11
60.88040324372719
 21
16.3350323733229
 31
0.0
  0
LINE
  5
2A0
330
1F
100
AcDbEntity
  8
0
  6
SLD-Solid
 62
     7
370
    25
100
AcDbLine
 10
57.05094985529828
 20
14.28268164425034
 30
0.0
 11
58.69506181790263
 21
13.333556010946
 31
0.0
  0
LINE
  5
2A1
330
1F
100
AcDbEntity
  8
0
  6
SLD-Solid
 62
     7
370
    25
100
AcDbLine
 10
60.87603243327345
 20
16.76688692310195
 30
0.0
 11
60.85501014866877
 21
16.7790228296842
 31
0.0
  0
LINE
  5
2A2
330
1F
100
AcDbEntity
  8
0
  6
SLD-Solid
 62
     7
370
    25
100
AcDbLine
 10
47.12783572361408
 20
43.43674954530608
 30
0.0
 11
58.12882285785878
 21
37.0860148518955
 31
0.0
  0
LINE
  5
2A3
330
1F
100
AcDbEntity
  8
0
  6
SLD-Solid
 62
     7
370
    25
100
AcDbLine
 10
60.87470521354973
 20
38.69492647820019
 30
0.0
 11
60.87470521354973
 21
38.71934104847557
 31
0.0
  0
LINE
  5
2A4
330
1F
100
AcDbEntity
  8
0
  6
SLD-Solid
 62
     7
370
    25
100
AcDbLine
 10
60.88551060889332
 20
38.75264752220956
 30
0.0
 11
50.02293623630559
 21
45.02347822911975
 31
0.0
  0
LINE
  5
2A5
330
1F
100
AcDbEntity
  8
0
  6
SLD-Solid
 62
     7
370
    25
100
AcDbLine
 10
46.54247718612851
 20
44.84530248684499
 30
0.0
 11
46.54247718612851
 21
43.77356635102505
 31
0.0
  0
LINE
  5
2A6
330
1F
100
AcDbEntity
  8
0
  6
SLD-Solid
 62
     7
370
    25
100
AcDbLine
 10
49.86020033792901
 20
45.02068084546829
 30
0.0
 11
48.26781163809682
 21
44.10141441619129
 31
0.0
  0
LINE
  5
2A7
330
1F
100
AcDbEntity
  8
0
  6
SLD-Solid
 62
     7
370
    25
100
AcDbLine
 10
58.12132952085214
 20
37.05249284506407
 30
0.0
 11
58.12132952085214
 21
14.79685647630607
 31
0.0
  0
LINE
  5
2A8
330
1F
100
AcDbEntity
  8
0
  6
SLD-Solid
 62
     7
370
    25
100
AcDbLine
 10
60.92196335935201
 20
16.41738575786855
 30
0.0
 11
60.92196335935201
 21
38.67302212662656
 31
0.0
  0
LINE
  5
2A9
330
1F
100
AcDbEntity
  8
0
  6
SLD-Solid
 62
     7
370
    25
100
AcDbLine
 10
46.54259740027865
 20
43.77139504486013
 30
0.0
 11
46.54259740027865
 21
40.46708202808065
 31
0.0
  0
ELLIPSE
  5
2AA
330
1F
100
AcDbEntity
  8
0
  6
SLD-Solid
 62
     7
370
    25
100
AcDbEllipse
 10
47.69444980696738
 20
39.0682820169674
 30
0.0
 11
-0.1534319845717675
 21
0.3293378081501999
 31
0.0
210
0.0
220
0.0
230
1.0
 40
0.4325751887295335
 41
3.179552434969283
 42
3.88993852763743
  0
LINE
  5
2AB
330
1F
100
AcDbEntity
  8
0
  6
SLD-Solid
 62
     7
370
    25
100
AcDbLine
 10
49.66002413262679
 20
41.7743165362301
 30
0.0
 11
49.62395473738846
 21
41.75349411757664
 31
0.0
  0
LINE
  5
2AC
330
1F
100
AcDbEntity
  8
0
  6
SLD-Solid
 62
     7
370
    25
100
AcDbLine
 10
49.66002413262678
 20
38.50815328868711
 30
0.0
 11
49.66002413262678
 21
39.74640806936131
 31
0.0
  0
LINE
  5
2AD
330
1F
100
AcDbEntity
  8
0
  6
SLD-Solid
 62
     7
370
    25
100
AcDbLine
 10
49.66002413262679
 20
40.03507538463585
 30
0.0
 11
49.66002413262679
 21
41.7743165362301
 31
0.0
  0
LINE
  5
2AE
330
1F
100
AcDbEntity
  8
0
  6
SLD-Solid
 62
     7
370
    25
100
AcDbLine
 10
47.69409199680473
 20
37.37324482388297
 30
0.0
 11
49.66002413262678
 21
38.50815328868711
 31
0.0
  0
LINE
  5
2AF
330
1F
100
AcDbEntity
  8
0
  6
SLD-Solid
 62
     7
370
    25
100
AcDbLine
 10
49.66002413262679
 20
41.7743165362301
 30
0.0
 11
49.64453094784825
 21
41.78326056142382
 31
0.0
  0
LWPOLYLINE
  5
2B0
330
1F
100
AcDbEntity
  8
0
  6
SLD-Solid
 62
     7
370
    25
100
AcDbPolyline
 90
        3
 70
   128
 43
0.0
 10
47.39146994430219
 20
39.34578295799523
 10
47.3865584301853
 20
39.3107821595362
 10
47.38243366223789
 20
39.29751064296219
  0
LWPOLYLINE
  5
2B1
330
1F
100
AcDbEntity
  8
0
  6
SLD-Solid
 62
     7
370
    25
100
AcDbPolyline
 90
        3
 70
   128
 43
0.0
 10
47.40730928528343
 20
39.42767926520205
 10
47.40732103566077
 20
39.42774765462563
 10
47.41224357820914
 20
39.48285630106084
  0
ARC
  5
2B2
330
1F
100
AcDbEntity
  8
0
  6
SLD-Solid
 62
     7
370
    25
100
AcDbCircle
 10
46.85320352740231
 20
38.59679325965734
 30
0.0
 40
0.1191876121758013
100
AcDbArc
 50
243.9718055902372
 51
275.637281516992
  0
LINE
  5
2B3
330
1F
100
AcDbEntity
  8
0
  6
SLD-Solid
 62
     7
370
    25
100
AcDbLine
 10
46.80090240880488
 20
38.49005557170752
 30
0.0
 11
46.80090240880488
 21
38.48969386708377
 31
0.0
  0
LINE
  5
2B4
330
1F
100
AcDbEntity
  8
0
  6
SLD-Solid
 62
     7
370
    25
100
AcDbLine
 10
47.85530563743337
 20
38.75442165745376
 30
0.0
 11
47.80197602738788
 21
39.01913798095482
 31
0.0
  0
LINE
  5
2B5
330
1F
100
AcDbEntity
  8
0
  6
SLD-Solid
 62
     7
370
    25
100
AcDbLine
 10
47.80197602738788
 20
39.01913798095482
 30
0.0
 11
46.86491138123163
 21
38.47818207529903
 31
0.0
  0
ARC
  5
2B6
330
1F
100
AcDbEntity
  8
0
  6
SLD-Solid
 62
     7
370
    25
100
AcDbCircle
 10
46.78870793562859
 20
38.66029882447116
 30
0.0
 40
0.1706794372137268
100
AcDbArc
 50
274.0970819557067
 51
298.5312310805851
  0
LWPOLYLINE
  5
2B7
330
1F
100
AcDbEntity
  8
0
  6
SLD-Solid
 62
     7
370
    25
100
AcDbPolyline
 90
       17
 70
   128
 43
0.0
 10
47.36256115261166
 20
39.30999394633668
 10
47.35982162281884
 20
39.32431647759848
 10
47.35202010201743
 20
39.33329553953715
 10
47.34034430102846
 20
39.33556415136793
 10
47.32657175471113
 20
39.33077693750462
 10
47.3127992083938
 20
39.31966270786168
 10
47.30112340740484
 20
39.30391350315153
 10
47.29332188660342
 20
39.28592699702439
 10
47.2905823568106
 20
39.26844147199002
 10
47.29332188660342
 20
39.25411894072823
 10
47.30112340740484
 20
39.24513987878957
 10
47.3127992083938
 20
39.24287126695879
 10
47.32657175471113
 20
39.2476584808221
 10
47.34034430102846
 20
39.25877271046503
 10
47.35202010201742
 20
39.27452191517518
 10
47.35982162281884
 20
39.29250842130232
 10
47.36256115261166
 20
39.30999394633668
  0
LINE
  5
2B8
330
1F
100
AcDbEntity
  8
0
  6
SLD-Solid
 62
     7
370
    25
100
AcDbLine
 10
47.80729551894767
 20
39.05130313459046
 30
0.0
 11
46.87023087279142
 21
38.51034722893468
 31
0.0
  0
LINE
  5
2B9
330
1F
100
AcDbEntity
  8
0
  6
SLD-Solid
 62
     7
370
    25
100
AcDbLine
 10
46.87023087279142
 20
38.50998552431093
 30
0.0
 11
46.87023087279142
 21
38.51034722893468
 31
0.0
  0
ARC
  5
2BA
330
1F
100
AcDbEntity
  8
0
  6
SLD-Solid
 62
     7
370
    25
100
AcDbCircle
 10
46.78870793562862
 20
38.65993711984726
 30
0.0
 40
0.170679437213564
100
AcDbArc
 50
274.0970819556987
 51
298.5312310806008
  0
ARC
  5
2BB
330
1F
100
AcDbEntity
  8
0
  6
SLD-Solid
 62
     7
370
    25
100
AcDbCircle
 10
46.78135622643641
 20
38.50850423061318
 30
0.0
 40
0.0888869900252475
100
AcDbArc
 50
340.0541717331048
 51
0.9548732159019302
  0
LINE
  5
2BC
330
1F
100
AcDbEntity
  8
0
  6
SLD-Solid
 62
     7
370
    25
100
AcDbLine
 10
47.80729551894767
 20
39.05094142996671
 30
0.0
 11
47.80729551894767
 21
39.05130313459046
 31
0.0
  0
LINE
  5
2BD
330
1F
100
AcDbEntity
  8
0
  6
SLD-Solid
 62
     7
370
    25
100
AcDbLine
 10
46.87023087279142
 20
38.50998552431093
 30
0.0
 11
47.80729551894767
 21
39.05094142996671
 31
0.0
  0
ARC
  5
2BE
330
1F
100
AcDbEntity
  8
0
  6
SLD-Solid
 62
     7
370
    25
100
AcDbCircle
 10
47.7184208725926
 20
39.04946013626896
 30
0.0
 40
0.0888869900253031
100
AcDbArc
 50
340.0541717331275
 51
0.9548732159013196
  0
ARC
  5
2BF
330
1F
100
AcDbEntity
  8
0
  6
SLD-Solid
 62
     7
370
    25
100
AcDbCircle
 10
47.88872769935168
 20
38.74229279532807
 30
0.0
 40
0.0355547960103244
100
AcDbArc
 50
160.0541717331773
 51
180.954873215844
  0
ARC
  5
2C0
330
1F
100
AcDbEntity
  8
0
  6
SLD-Solid
 62
     7
370
    25
100
AcDbCircle
 10
47.77601598662339
 20
39.11422116993418
 30
0.0
 40
0.0702644171251682
100
AcDbArc
 50
296.4341445731539
 51
340.9830022979293
  0
LINE
  5
2C1
330
1F
100
AcDbEntity
  8
0
  6
SLD-Solid
 62
     7
370
    25
100
AcDbLine
 10
47.84244550880963
 20
39.09132560494773
 30
0.0
 11
47.84244550880963
 21
39.09096390032398
 31
0.0
  0
ARC
  5
2C2
330
1F
100
AcDbEntity
  8
0
  6
SLD-Solid
 62
     7
370
    25
100
AcDbCircle
 10
47.77601598662341
 20
39.11385946531043
 30
0.0
 40
0.0702644171251547
100
AcDbArc
 50
296.4341445731461
 51
340.9830022979255
  0
ARC
  5
2C3
330
1F
100
AcDbEntity
  8
0
  6
SLD-Solid
 62
     7
370
    25
100
AcDbCircle
 10
47.72712991264859
 20
39.10862314614682
 30
0.0
 40
0.1166599146279715
100
AcDbArc
 50
309.9093830053222
 51
351.2934556841741
  0
LINE
  5
2C4
330
1F
100
AcDbEntity
  8
0
  6
SLD-Solid
 62
     7
370
    25
100
AcDbLine
 10
47.84244550880963
 20
39.09096390032398
 30
0.0
 11
47.88976312383716
 21
38.85608978299495
 31
0.0
  0
ELLIPSE
  5
2C5
330
1F
100
AcDbEntity
  8
0
  6
SLD-Solid
 62
     7
370
    25
100
AcDbEllipse
 10
47.7298051460267
 20
39.04787181417176
 30
0.0
 11
-0.1240094253388477
 21
0.2941171015669894
 31
0.0
210
0.0
220
0.0
230
1.0
 40
0.3442308749622759
 41
3.156455917690001
 42
3.866842010358136
  0
ARC
  5
2C6
330
1F
100
AcDbEntity
  8
0
  6
SLD-Solid
 62
     7
370
    25
100
AcDbCircle
 10
47.9163349327117
 20
38.84693155700027
 30
0.0
 40
0.0281057668501462
100
AcDbArc
 50
116.4341445731819
 51
160.9830022977725
  0
ARC
  5
2C7
330
1F
100
AcDbEntity
  8
0
  6
SLD-Solid
 62
     7
370
    25
100
AcDbCircle
 10
55.1947111278364
 20
33.4554922203431
 30
0.0
 40
0.430366134215223
100
AcDbArc
 50
242.6096722365969
 51
297.3903277634064
  0
LINE
  5
2C8
330
1F
100
AcDbEntity
  8
0
  6
SLD-Solid
 62
     7
370
    25
100
AcDbLine
 10
55.01793443253977
 20
33.08561923823296
 30
0.0
 11
54.99672122910417
 21
33.07337311655562
 31
0.0
  0
ARC
  5
2C9
330
1F
100
AcDbEntity
  8
0
  6
SLD-Solid
 62
     7
370
    25
100
AcDbCircle
 10
55.1947111278364
 20
33.42679700947181
 30
0.0
 40
0.384255476977905
100
AcDbArc
 50
242.6096722365983
 51
297.3903277634038
  0
LINE
  5
2CA
330
1F
100
AcDbEntity
  8
0
  6
SLD-Solid
 62
     7
370
    25
100
AcDbLine
 10
55.37148782313304
 20
33.08561923823295
 30
0.0
 11
55.39270102656864
 21
33.07337311655562
 31
0.0
  0
LINE
  5
2CB
330
1F
100
AcDbEntity
  8
0
  6
SLD-Solid
 62
     7
370
    25
100
AcDbLine
 10
54.99672122910417
 20
33.07337311655562
 30
0.0
 11
54.99672122910395
 21
13.35110067900626
 31
0.0
  0
LINE
  5
2CC
330
1F
100
AcDbEntity
  8
0
  6
SLD-Solid
 62
     7
370
    25
100
AcDbLine
 10
55.39270102656864
 20
33.07337311655562
 30
0.0
 11
55.39270102656842
 21
13.35110067900627
 31
0.0
  0
ARC
  5
2CD
330
1F
100
AcDbEntity
  8
0
  6
SLD-Solid
 62
     7
370
    25
100
AcDbCircle
 10
55.19471112783617
 20
13.73321978279374
 30
0.0
 40
0.4303661342152089
100
AcDbArc
 50
242.6096722365961
 51
297.3903277634084
  0
ARC
  5
2CE
330
1F
100
AcDbEntity
  8
0
  6
SLD-Solid
 62
     7
370
    25
100
AcDbCircle
 10
55.20053748618697
 20
33.40221105660603
 30
0.0
 40
0.3535150388197246
100
AcDbArc
 50
242.6096722366002
 51
297.3903277633998
  0
LINE
  5
2CF
330
1F
100
AcDbEntity
  8
0
  6
SLD-Solid
 62
     7
370
    25
100
AcDbLine
 10
55.03790292651405
 20
33.08832750706623
 30
0.0
 11
55.05911612994964
 21
33.10057362874358
 31
0.0
  0
ARC
  5
2D0
330
1F
100
AcDbEntity
  8
0
  6
SLD-Solid
 62
     7
370
    25
100
AcDbCircle
 10
55.20053748618697
 20
33.37351584573474
 30
0.0
 40
0.3074043815823972
100
AcDbArc
 50
242.609672236602
 51
297.3903277633979
  0
LINE
  5
2D1
330
1F
100
AcDbEntity
  8
0
  6
SLD-Solid
 62
     7
370
    25
100
AcDbLine
 10
55.34195884242428
 20
33.10057362874357
 30
0.0
 11
55.36317204585988
 21
33.08832750706623
 31
0.0
  0
LINE
  5
2D2
330
1F
100
AcDbEntity
  8
0
  6
SLD-Solid
 62
     7
370
    25
100
AcDbLine
 10
54.99672122910395
 20
13.35110067900626
 30
0.0
 11
54.74932556503698
 21
13.49391915589537
 31
0.0
  0
LINE
  5
2D3
330
1F
100
AcDbEntity
  8
0
  6
SLD-Solid
 62
     7
370
    25
100
AcDbLine
 10
54.74932556503698
 20
13.49391915589537
 30
0.0
 11
54.74932278274406
 21
13.4881724627242
 31
0.0
  0
LINE
  5
2D4
330
1F
100
AcDbEntity
  8
0
  6
SLD-Solid
 62
     7
370
    25
100
AcDbLine
 10
44.82753254342679
 20
19.21590004977259
 30
0.0
 11
54.74932278274406
 21
13.4881724627242
 31
0.0
  0
LINE
  5
2D5
330
1F
100
AcDbEntity
  8
0
  6
SLD-Solid
 62
     7
370
    25
100
AcDbLine
 10
44.82753254342679
 20
19.21590004977259
 30
0.0
 11
44.82752976113385
 21
19.22164995531081
 31
0.0
  0
LINE
  5
2D6
330
1F
100
AcDbEntity
  8
0
  6
SLD-Solid
 62
     7
370
    25
100
AcDbLine
 10
44.82752976113385
 20
19.22164995531081
 30
0.0
 11
44.58013409706689
 21
19.36446843219991
 31
0.0
  0
LINE
  5
2D7
330
1F
100
AcDbEntity
  8
0
  6
SLD-Solid
 62
     7
370
    25
100
AcDbLine
 10
44.58013409706709
 20
39.08674086974926
 30
0.0
 11
44.58013409706689
 21
19.36446843219991
 31
0.0
  0
LINE
  5
2D8
330
1F
100
AcDbEntity
  8
0
  6
SLD-Solid
 62
     7
370
    25
100
AcDbLine
 10
44.8219220414011
 20
38.9471596605548
 30
0.0
 11
44.58013409706709
 21
39.08674086974926
 31
0.0
  0
LINE
  5
2D9
330
1F
100
AcDbEntity
  8
0
  6
SLD-Solid
 62
     7
370
    25
100
AcDbLine
 10
44.8219220414011
 20
38.95247015124199
 30
0.0
 11
44.8219220414011
 21
38.9471596605548
 31
0.0
  0
LINE
  5
2DA
330
1F
100
AcDbEntity
  8
0
  6
SLD-Solid
 62
     7
370
    25
100
AcDbLine
 10
44.8219220414011
 20
38.95247015124199
 30
0.0
 11
54.75493328635067
 21
33.21826481552484
 31
0.0
  0
LINE
  5
2DB
330
1F
100
AcDbEntity
  8
0
  6
SLD-Solid
 62
     7
370
    25
100
AcDbLine
 10
54.75493328635067
 20
33.21295432483765
 30
0.0
 11
54.75493328635067
 21
33.21826481552484
 31
0.0
  0
LINE
  5
2DC
330
1F
100
AcDbEntity
  8
0
  6
SLD-Solid
 62
     7
370
    25
100
AcDbLine
 10
54.99672122910417
 20
33.07337311655562
 30
0.0
 11
54.75493328635067
 21
33.21295432483765
 31
0.0
  0
LINE
  5
2DD
330
1F
100
AcDbEntity
  8
0
  6
SLD-Solid
 62
     7
370
    25
100
AcDbLine
 10
55.56901032987449
 20
33.18046480156762
 30
0.0
 11
55.56901032987449
 21
33.17515431088043
 31
0.0
  0
LINE
  5
2DE
330
1F
100
AcDbEntity
  8
0
  6
SLD-Solid
 62
     7
370
    25
100
AcDbLine
 10
55.57475946977807
 20
13.45045248179794
 30
0.0
 11
55.57475946977807
 21
13.45620078115263
 31
0.0
  0
LINE
  5
2DF
330
1F
100
AcDbEntity
  8
0
  6
SLD-Solid
 62
     7
370
    25
100
AcDbLine
 10
55.57475946977807
 20
13.45620078115263
 30
0.0
 11
55.39270102656842
 21
13.35110067900627
 31
0.0
  0
LINE
  5
2E0
330
1F
100
AcDbEntity
  8
0
  6
SLD-Solid
 62
     7
370
    25
100
AcDbLine
 10
55.56901032987449
 20
33.17515431088043
 30
0.0
 11
55.39270102656864
 21
33.07337311655562
 31
0.0
  0
LINE
  5
2E1
330
1F
100
AcDbEntity
  8
0
  6
SLD-Solid
 62
     7
370
    25
100
AcDbLine
 10
55.56901032987449
 20
33.17515431088043
 30
0.0
 11
55.54779712643891
 21
33.18740043255778
 31
0.0
  0
LINE
  5
2E2
330
1F
100
AcDbEntity
  8
0
  6
SLD-Solid
 62
     7
370
    25
100
AcDbLine
 10
55.54779712643891
 20
33.18740043255778
 30
0.0
 11
55.37148782313304
 21
33.08561923823295
 31
0.0
  0
LINE
  5
2E3
330
1F
100
AcDbEntity
  8
0
  6
SLD-Solid
 62
     7
370
    25
100
AcDbLine
 10
54.75493328635067
 20
33.21295432483765
 30
0.0
 11
54.77614648978626
 21
33.225200446515
 31
0.0
  0
LINE
  5
2E4
330
1F
100
AcDbEntity
  8
0
  6
SLD-Solid
 62
     7
370
    25
100
AcDbLine
 10
55.01793443253977
 20
33.08561923823296
 30
0.0
 11
54.77614648978626
 21
33.225200446515
 31
0.0
  0
LINE
  5
2E5
330
1F
100
AcDbEntity
  8
0
  6
SLD-Solid
 62
     7
370
    25
100
AcDbLine
 10
54.79028862541
 20
33.23867501832039
 30
0.0
 11
54.79028862541
 21
33.23127220043042
 31
0.0
  0
LINE
  5
2E6
330
1F
100
AcDbEntity
  8
0
  6
SLD-Solid
 62
     7
370
    25
100
AcDbLine
 10
54.79028862541
 20
33.23127220043042
 30
0.0
 11
55.03790292651405
 21
33.08832750706623
 31
0.0
  0
LINE
  5
2E7
330
1F
100
AcDbEntity
  8
0
  6
SLD-Solid
 62
     7
370
    25
100
AcDbLine
 10
44.83053702328064
 20
38.98091441576391
 30
0.0
 11
44.6096630777754
 21
39.10842223042393
 31
0.0
  0
LINE
  5
2E8
330
1F
100
AcDbEntity
  8
0
  6
SLD-Solid
 62
     7
370
    25
100
AcDbLine
 10
54.79028862541
 20
33.23127220043042
 30
0.0
 11
54.81150182884559
 21
33.24351832210776
 31
0.0
  0
LINE
  5
2E9
330
1F
100
AcDbEntity
  8
0
  6
SLD-Solid
 62
     7
370
    25
100
AcDbLine
 10
54.81150182884559
 20
33.24351832210776
 30
0.0
 11
55.05911612994964
 21
33.10057362874358
 31
0.0
  0
LINE
  5
2EA
330
1F
100
AcDbEntity
  8
0
  6
SLD-Solid
 62
     7
370
    25
100
AcDbLine
 10
55.503886295316
 20
33.16956011419258
 30
0.0
 11
55.36317204585988
 21
33.08832750706623
 31
0.0
  0
LINE
  5
2EB
330
1F
100
AcDbEntity
  8
0
  6
SLD-Solid
 62
     7
370
    25
100
AcDbLine
 10
55.503886295316
 20
33.16205124932306
 30
0.0
 11
55.503886295316
 21
33.16956011419258
 31
0.0
  0
LINE
  5
2EC
330
1F
100
AcDbEntity
  8
0
  6
SLD-Solid
 62
     7
370
    25
100
AcDbLine
 10
55.4826730918804
 20
33.18180623586993
 30
0.0
 11
55.34195884242428
 21
33.10057362874357
 31
0.0
  0
LINE
  5
2ED
330
1F
100
AcDbEntity
  8
0
  6
SLD-Solid
 62
     7
370
    25
100
AcDbLine
 10
55.503886295316
 20
33.16956011419258
 30
0.0
 11
55.4826730918804
 21
33.18180623586993
 31
0.0
  0
LWPOLYLINE
  5
2EE
330
1F
100
AcDbEntity
  8
0
  6
SLD-Solid
 62
     7
370
    25
100
AcDbPolyline
 90
        9
 70
   128
 43
0.0
 10
55.51244178737959
 20
33.21312112604051
 10
55.51459479932952
 20
33.22437728432018
 10
55.52072605862704
 20
33.23143397985378
 10
55.52990213662411
 20
33.23321689471538
 10
55.54072605862703
 20
33.22945459627951
 10
55.55154998062996
 20
33.22071986037768
 10
55.56072605862704
 20
33.20834247137037
 10
55.56685731792457
 20
33.19420677453265
 10
55.56901032987449
 20
33.18046480156762
  0
LINE
  5
2EF
330
1F
100
AcDbEntity
  8
0
  6
SLD-Solid
 62
     7
370
    25
100
AcDbLine
 10
55.54779712643891
 20
33.19271092324496
 30
0.0
 11
55.56901032987449
 21
33.18046480156762
 31
0.0
  0
LWPOLYLINE
  5
2F0
330
1F
100
AcDbEntity
  8
0
  6
SLD-Solid
 62
     7
370
    25
100
AcDbPolyline
 90
        9
 70
   128
 43
0.0
 10
55.53365499081518
 20
33.20087500436317
 10
55.53419324380265
 20
33.2036890439331
 10
55.53572605862704
 20
33.2054532178165
 10
55.5380200781263
 20
33.2058989465319
 10
55.54072605862703
 20
33.20495837192293
 10
55.54343203912777
 20
33.20277468794749
 10
55.54572605862704
 20
33.19968034069566
 10
55.54725887345143
 20
33.19614641648623
 10
55.54779712643891
 20
33.19271092324496
  0
LINE
  5
2F1
330
1F
100
AcDbEntity
  8
0
  6
SLD-Solid
 62
     7
370
    25
100
AcDbLine
 10
55.51244178737959
 20
33.21312112604051
 30
0.0
 11
55.53365499081518
 21
33.20087500436317
 31
0.0
  0
LINE
  5
2F2
330
1F
100
AcDbEntity
  8
0
  6
SLD-Solid
 62
     7
370
    25
100
AcDbLine
 10
55.54779712643891
 20
33.19271092324496
 30
0.0
 11
55.54779712643891
 21
33.18740043255778
 31
0.0
  0
LINE
  5
2F3
330
1F
100
AcDbEntity
  8
0
  6
SLD-Solid
 62
     7
370
    25
100
AcDbLine
 10
55.53365499081518
 20
33.17923635143955
 30
0.0
 11
55.53365499081518
 21
33.20087500436317
 31
0.0
  0
LINE
  5
2F4
330
1F
100
AcDbEntity
  8
0
  6
SLD-Solid
 62
     7
370
    25
100
AcDbLine
 10
55.51244178737959
 20
33.16699022976221
 30
0.0
 11
55.51244178737959
 21
33.21312112604051
 31
0.0
  0
LWPOLYLINE
  5
2F5
330
1F
100
AcDbEntity
  8
0
  6
SLD-Solid
 62
     7
370
    25
100
AcDbPolyline
 90
        9
 70
   128
 43
0.0
 10
54.75493328635067
 20
33.21826481552484
 10
54.7570862983006
 20
33.23200678848985
 10
54.76321755759813
 20
33.24614248532758
 10
54.77239363559521
 20
33.25851987433489
 10
54.78321755759813
 20
33.26725461023673
 10
54.79404147960106
 20
33.27101690867261
 10
54.80321755759813
 20
33.26923399381101
 10
54.80934881689566
 20
33.26217729827743
 10
54.81150182884559
 20
33.25092113999778
  0
LINE
  5
2F6
330
1F
100
AcDbEntity
  8
0
  6
SLD-Solid
 62
     7
370
    25
100
AcDbLine
 10
54.79028862541
 20
33.23867501832039
 30
0.0
 11
54.81150182884559
 21
33.25092113999778
 31
0.0
  0
LWPOLYLINE
  5
2F7
330
1F
100
AcDbEntity
  8
0
  6
SLD-Solid
 62
     7
370
    25
100
AcDbPolyline
 90
        9
 70
   128
 43
0.0
 10
54.77614648978626
 20
33.23051093720218
 10
54.77668474277375
 20
33.23394643044344
 10
54.77821755759813
 20
33.23748035465287
 10
54.7805115770974
 20
33.24057470190469
 10
54.78321755759813
 20
33.24275838588015
 10
54.78592353809886
 20
33.24369896048913
 10
54.78821755759813
 20
33.24325323177372
 10
54.78975037242252
 20
33.24148905789033
 10
54.79028862541
 20
33.23867501832039
  0
LINE
  5
2F8
330
1F
100
AcDbEntity
  8
0
  6
SLD-Solid
 62
     7
370
    25
100
AcDbLine
 10
54.75493328635067
 20
33.21826481552484
 30
0.0
 11
54.77614648978626
 21
33.23051093720218
 31
0.0
  0
LWPOLYLINE
  5
2F9
330
1F
100
AcDbEntity
  8
0
  6
SLD-Solid
 62
     7
370
    25
100
AcDbPolyline
 90
        7
 70
   128
 43
0.0
 10
44.87020468730129
 20
39.00344026797367
 10
44.86103023465151
 20
39.00522224438976
 10
44.85020631264858
 20
39.00145994595388
 10
44.83938239064566
 20
38.99272521005205
 10
44.83020631264858
 20
38.98034782104475
 10
44.82407505335105
 20
38.96621212420702
 10
44.8219220414011
 20
38.95247015124199
  0
LINE
  5
2FA
330
1F
100
AcDbEntity
  8
0
  6
SLD-Solid
 62
     7
370
    25
100
AcDbLine
 10
54.77614648978626
 20
33.225200446515
 30
0.0
 11
54.77614648978626
 21
33.23051093720218
 31
0.0
  0
LINE
  5
2FB
330
1F
100
AcDbEntity
  8
0
  6
SLD-Solid
 62
     7
370
    25
100
AcDbLine
 10
54.81150182884559
 20
33.25092113999778
 30
0.0
 11
54.81150182884559
 21
33.24351832210776
 31
0.0
  0
LINE
  5
2FC
330
1F
100
AcDbEntity
  8
0
  6
SLD-Solid
 62
     7
370
    25
100
AcDbLine
 10
44.60134730050269
 20
39.09898699142661
 30
0.0
 11
44.58013409706709
 21
39.08674086974926
 31
0.0
  0
LINE
  5
2FD
330
1F
100
AcDbEntity
  8
0
  6
SLD-Solid
 62
     7
370
    25
100
AcDbLine
 10
44.82524046606726
 20
38.96973621812623
 30
0.0
 11
44.60134730050269
 21
39.09898699142661
 31
0.0
  0
LINE
  5
2FE
330
1F
100
AcDbEntity
  8
0
  6
SLD-Solid
 62
     7
370
    25
100
AcDbLine
 10
44.6096630777754
 20
39.10842223042393
 30
0.0
 11
44.63087628121101
 21
39.12066835210126
 31
0.0
  0
LINE
  5
2FF
330
1F
100
AcDbEntity
  8
0
  6
SLD-Solid
 62
     7
370
    25
100
AcDbLine
 10
44.84439378197777
 20
38.99740732259339
 30
0.0
 11
44.63087628121101
 21
39.12066835210126
 31
0.0
  0
ARC
  5
300
330
1F
100
AcDbEntity
  8
0
  6
SLD-Solid
 62
     7
370
    25
100
AcDbCircle
 10
44.62351366456994
 20
39.20103800540443
 30
0.0
 40
0.1222522887136085
100
AcDbArc
 50
110.7834207994676
 51
249.2165792005277
  0
ARC
  5
301
330
1F
100
AcDbEntity
  8
0
  6
SLD-Solid
 62
     7
370
    25
100
AcDbCircle
 10
44.6382519732965
 20
19.49273935338688
 30
0.0
 40
0.1408229979782927
100
AcDbArc
 50
185.6947992512042
 51
245.6253417064115
  0
LINE
  5
302
330
1F
100
AcDbEntity
  8
0
  6
SLD-Solid
 62
     7
370
    25
100
AcDbLine
 10
44.60134730050269
 20
39.30308901938228
 30
0.0
 11
44.58013409706709
 21
39.31533514105963
 31
0.0
  0
ARC
  5
303
330
1F
100
AcDbEntity
  8
0
  6
SLD-Solid
 62
     7
370
    25
100
AcDbCircle
 10
44.64007905720165
 20
39.20103800540444
 30
0.0
 40
0.1091538292085672
100
AcDbArc
 50
110.7834207994633
 51
249.2165792005362
  0
ARC
  5
304
330
1F
100
AcDbEntity
  8
0
  6
SLD-Solid
 62
     7
370
    25
100
AcDbCircle
 10
44.64529629393846
 20
39.20230916328354
 30
0.0
 40
0.1004215228718836
100
AcDbArc
 50
110.7834207994719
 51
249.2165792005289
  0
LINE
  5
305
330
1F
100
AcDbEntity
  8
0
  6
SLD-Solid
 62
     7
370
    25
100
AcDbLine
 10
44.63087628121102
 20
39.28394997446581
 30
0.0
 11
44.6096630777754
 21
39.29619609614315
 31
0.0
  0
ARC
  5
306
330
1F
100
AcDbEntity
  8
0
  6
SLD-Solid
 62
     7
370
    25
100
AcDbCircle
 10
44.66186168657018
 20
39.20230916328354
 30
0.0
 40
0.0873230633668581
100
AcDbArc
 50
110.7834207994638
 51
249.2165792005326
  0
LINE
  5
307
330
1F
100
AcDbEntity
  8
0
  6
SLD-Solid
 62
     7
370
    25
100
AcDbLine
 10
44.75037732723153
 20
39.37742870326951
 30
0.0
 11
44.77159053066713
 21
39.36518258159217
 31
0.0
  0
LINE
  5
308
330
1F
100
AcDbEntity
  8
0
  6
SLD-Solid
 62
     7
370
    25
100
AcDbLine
 10
44.77159053066713
 20
39.36518258159217
 30
0.0
 11
44.63087628121102
 21
39.28394997446581
 31
0.0
  0
LINE
  5
309
330
1F
100
AcDbEntity
  8
0
  6
SLD-Solid
 62
     7
370
    25
100
AcDbLine
 10
44.75037732723153
 20
39.37742870326951
 30
0.0
 11
44.6096630777754
 21
39.29619609614315
 31
0.0
  0
LINE
  5
30A
330
1F
100
AcDbEntity
  8
0
  6
SLD-Solid
 62
     7
370
    25
100
AcDbLine
 10
44.77159053066713
 20
39.03943574497509
 30
0.0
 11
44.77159053066713
 21
39.36518258159217
 31
0.0
  0
LINE
  5
30B
330
1F
100
AcDbEntity
  8
0
  6
SLD-Solid
 62
     7
370
    25
100
AcDbLine
 10
44.77765660222801
 20
39.4048702127947
 30
0.0
 11
44.77765660222801
 21
39.41018070348188
 31
0.0
  0
LINE
  5
30C
330
1F
100
AcDbEntity
  8
0
  6
SLD-Solid
 62
     7
370
    25
100
AcDbLine
 10
44.60134730050269
 20
39.30308901938228
 30
0.0
 11
44.77765660222801
 21
39.4048702127947
 31
0.0
  0
LINE
  5
30D
330
1F
100
AcDbEntity
  8
0
  6
SLD-Solid
 62
     7
370
    25
100
AcDbLine
 10
44.58013409706709
 20
39.31533514105963
 30
0.0
 11
44.75644339879242
 21
39.41711633447204
 31
0.0
  0
LINE
  5
30E
330
1F
100
AcDbEntity
  8
0
  6
SLD-Solid
 62
     7
370
    25
100
AcDbLine
 10
44.75644339879242
 20
39.41711633447204
 30
0.0
 11
44.77765660222801
 21
39.4048702127947
 31
0.0
  0
LWPOLYLINE
  5
30F
330
1F
100
AcDbEntity
  8
0
  6
SLD-Solid
 62
     7
370
    25
100
AcDbPolyline
 90
        9
 70
   128
 43
0.0
 10
44.75644339879242
 20
39.42242682515922
 10
44.75859641074235
 20
39.43368298343889
 10
44.76472767003988
 20
39.44073967897248
 10
44.77390374803696
 20
39.44252259383408
 10
44.78472767003989
 20
39.43876029539819
 10
44.79555159204281
 20
39.43002555949636
 10
44.80472767003988
 20
39.41764817048906
 10
44.81085892933741
 20
39.40351247365133
 10
44.81301194128736
 20
39.3897705006863
  0
LINE
  5
310
330
1F
100
AcDbEntity
  8
0
  6
SLD-Solid
 62
     7
370
    25
100
AcDbLine
 10
44.79179873785176
 20
39.40201662236365
 30
0.0
 11
44.81301194128736
 21
39.3897705006863
 31
0.0
  0
LWPOLYLINE
  5
311
330
1F
100
AcDbEntity
  8
0
  6
SLD-Solid
 62
     7
370
    25
100
AcDbPolyline
 90
        9
 70
   128
 43
0.0
 10
44.77765660222801
 20
39.41018070348188
 10
44.7781948552155
 20
39.4129947430518
 10
44.77972767003988
 20
39.4147589169352
 10
44.78202168953915
 20
39.4152046456506
 10
44.78472767003989
 20
39.41426407104163
 10
44.78743365054061
 20
39.41208038706616
 10
44.78972767003988
 20
39.40898603981434
 10
44.79126048486427
 20
39.40545211560491
 10
44.79179873785176
 20
39.40201662236365
  0
LINE
  5
312
330
1F
100
AcDbEntity
  8
0
  6
SLD-Solid
 62
     7
370
    25
100
AcDbLine
 10
44.75644339879242
 20
39.42242682515922
 30
0.0
 11
44.77765660222801
 21
39.41018070348188
 31
0.0
  0
LINE
  5
313
330
1F
100
AcDbEntity
  8
0
  6
SLD-Solid
 62
     7
370
    25
100
AcDbLine
 10
49.67698707969995
 20
41.96515579119151
 30
0.0
 11
49.67698707969996
 21
41.89018035587144
 31
0.0
  0
ARC
  5
314
330
1F
100
AcDbEntity
  8
0
  6
SLD-Solid
 62
     7
370
    25
100
AcDbCircle
 10
49.44670466449492
 20
41.90065948371051
 30
0.0
 40
0.2305207211357152
100
AcDbArc
 50
302.6054783400085
 51
357.3945215143518
  0
LINE
  5
315
330
1F
100
AcDbEntity
  8
0
  6
SLD-Solid
 62
     7
370
    25
100
AcDbLine
 10
49.57092106252195
 20
41.70646862570189
 30
0.0
 11
44.87941798204432
 21
38.9981215461307
 31
0.0
  0
LINE
  5
316
330
1F
100
AcDbEntity
  8
0
  6
SLD-Solid
 62
     7
370
    25
100
AcDbLine
 10
44.81301194128736
 20
39.3897705006863
 30
0.0
 11
44.81301194128735
 21
39.01552367360686
 31
0.0
  0
LINE
  5
317
330
1F
100
AcDbEntity
  8
0
  6
SLD-Solid
 62
     7
370
    25
100
AcDbLine
 10
44.79179873785176
 20
39.40201662236365
 30
0.0
 11
44.79179873785176
 21
39.02776979528416
 31
0.0
  0
LINE
  5
318
330
1F
100
AcDbEntity
  8
0
  6
SLD-Solid
 62
     7
370
    25
100
AcDbLine
 10
44.75644339879242
 20
39.41711633447204
 30
0.0
 11
44.75644339879242
 21
39.42242682515922
 31
0.0
  0
ARC
  5
319
330
1F
100
AcDbEntity
  8
0
  6
SLD-Solid
 62
     7
370
    25
100
AcDbCircle
 10
55.5493260820999
 20
13.4463267771808
 30
0.0
 40
0.0257658426482814
100
AcDbArc
 50
230.7967147642822
 51
9.214036990465148
  0
LINE
  5
31A
330
1F
100
AcDbEntity
  8
0
  6
SLD-Solid
 62
     7
370
    25
100
AcDbLine
 10
55.5280546758538
 20
13.42923867752466
 30
0.0
 11
55.53304016968806
 21
13.42636061319545
 31
0.0
  0
SPLINE
  5
31B
330
1F
100
AcDbEntity
  8
0
  6
SLD-Solid
 62
     7
370
    25
100
AcDbSpline
210
0.0
220
0.0
230
1.0
 70
    12
 71
     3
 72
    10
 73
     6
 74
     0
 42
0.00000001
 43
0.00000001
 40
0.0
 40
0.0
 40
0.0
 40
0.0
 40
0.4999489370493086
 40
0.9998978740982344
 40
1.0
 40
1.0
 40
1.0
 40
1.0
 10
44.82753254342679
 20
19.21590004977259
 30
0.0
 41
1.0
 10
44.82824811524902
 20
19.2101450277528
 30
0.0
 41
1.0
 10
44.82967925889349
 20
19.19863498371321
 30
0.0
 41
1.0
 10
44.83525121611147
 20
19.18975891477159
 30
0.0
 41
1.0
 10
44.83976585545012
 20
19.18888120733301
 30
0.0
 41
1.0
 10
44.83976677747918
 20
19.18888102807799
 30
0.0
 41
1.0
  0
SPLINE
  5
31C
330
1F
100
AcDbEntity
  8
0
  6
SLD-Solid
 62
     7
370
    25
100
AcDbSpline
210
0.0
220
0.0
230
1.0
 70
    12
 71
     3
 72
    11
 73
     7
 74
     0
 42
0.00000001
 43
0.00000001
 40
0.0
 40
0.0
 40
0.0
 40
0.0
 40
0.2499999999999885
 40
0.5000000000000167
 40
0.7500000000000349
 40
1.0
 40
1.0
 40
1.0
 40
1.0
 10
54.79101774693946
 20
13.46409464293463
 30
0.0
 41
1.0
 10
54.78555300117723
 20
13.4616617305538
 30
0.0
 41
1.0
 10
54.77462350965276
 20
13.45679590579216
 30
0.0
 41
1.0
 10
54.76083949020241
 20
13.4599721771275
 30
0.0
 41
1.0
 10
54.75119801885825
 20
13.47032355223443
 30
0.0
 41
1.0
 10
54.74994786144879
 20
13.48222282589427
 30
0.0
 41
1.0
 10
54.74932278274406
 20
13.4881724627242
 30
0.0
 41
1.0
  0
LINE
  5
31D
330
1F
100
AcDbEntity
  8
0
  6
SLD-Solid
 62
     7
370
    25
100
AcDbLine
 10
54.79101774693946
 20
13.46409464293463
 30
0.0
 11
54.79600045423841
 21
13.46697431589643
 31
0.0
  0
LINE
  5
31E
330
1F
100
AcDbEntity
  8
0
  6
SLD-Solid
 62
     7
370
    25
100
AcDbLine
 10
49.73117183358525
 20
36.1972636655723
 30
0.0
 11
49.73117183358529
 21
39.70533537585482
 31
0.0
  0
LINE
  5
31F
330
1F
100
AcDbEntity
  8
0
  6
SLD-Solid
 62
     7
370
    25
100
AcDbLine
 10
49.73117183358529
 20
39.99400269112936
 30
0.0
 11
49.73117183358531
 21
41.93387559859112
 31
0.0
  0
ARC
  5
320
330
1F
100
AcDbEntity
  8
0
  6
SLD-Solid
 62
     7
370
    25
100
AcDbCircle
 10
58.71550935421035
 20
14.50743993345701
 30
0.0
 40
0.0905305903760409
100
AcDbArc
 50
242.6096722366051
 51
297.3903277633875
  0
LINE
  5
321
330
1F
100
AcDbEntity
  8
0
  6
SLD-Solid
 62
     7
370
    25
100
AcDbLine
 10
58.75715794362224
 20
13.34492592744529
 30
0.0
 11
58.75715794362223
 21
14.42705845055309
 31
0.0
  0
SPLINE
  5
322
330
1F
100
AcDbEntity
  8
0
  6
SLD-Solid
 62
     7
370
    25
100
AcDbSpline
210
0.0
220
0.0
230
1.0
 70
    12
 71
     3
 72
    11
 73
     7
 74
     0
 42
0.00000001
 43
0.00000001
 40
0.0
 40
0.0
 40
0.0
 40
0.0
 40
0.2499999999999377
 40
0.4999999999998656
 40
0.7499999999998059
 40
1.0
 40
1.0
 40
1.0
 40
1.0
 10
58.75715794390035
 20
13.34492592271045
 30
0.0
 41
1.0
 10
58.75107439139109
 20
13.34386950929253
 30
0.0
 41
1.0
 10
58.73890728637256
 20
13.34175668245669
 30
0.0
 41
1.0
 10
58.71550935134331
 20
13.34456748828971
 30
0.0
 41
1.0
 10
58.69211141670744
 20
13.35215307165094
 30
0.0
 41
1.0
 10
58.67994431260812
 20
13.36119682442784
 30
0.0
 41
1.0
 10
58.67386076055845
 20
13.3657187008163
 30
0.0
 41
1.0
  0
LINE
  5
323
330
1F
100
AcDbEntity
  8
0
  6
SLD-Solid
 62
     7
370
    25
100
AcDbLine
 10
58.67386076479845
 20
13.365718703264
 30
0.0
 11
58.67386076479845
 21
14.42705845055309
 31
0.0
  0
LINE
  5
324
330
1F
100
AcDbEntity
  8
0
  6
SLD-Solid
 62
     7
370
    25
100
AcDbLine
 10
58.75715794362223
 20
14.42705845055309
 30
0.0
 11
58.91342854226446
 21
14.51727154690959
 31
0.0
  0
LINE
  5
325
330
1F
100
AcDbEntity
  8
0
  6
SLD-Solid
 62
     7
370
    25
100
AcDbLine
 10
58.91342854226446
 20
14.51727154690959
 30
0.0
 11
58.91342854226447
 21
13.43513902380171
 31
0.0
  0
LINE
  5
326
330
1F
100
AcDbEntity
  8
0
  6
SLD-Solid
 62
     7
370
    25
100
AcDbLine
 10
58.75715794362224
 20
13.3449259274453
 30
0.0
 11
58.91342854226447
 21
13.43513902380171
 31
0.0
  0
LINE
  5
327
330
1F
100
AcDbEntity
  8
0
  6
SLD-Solid
 62
     7
370
    25
100
AcDbLine
 10
58.12856122835083
 20
14.70674191743916
 30
0.0
 11
58.11795462663303
 21
14.71286497827783
 31
0.0
  0
LINE
  5
328
330
1F
100
AcDbEntity
  8
0
  6
SLD-Solid
 62
     7
370
    25
100
AcDbLine
 10
58.12856122835083
 20
14.74185317235025
 30
0.0
 11
58.12856122835083
 21
14.70674191743916
 31
0.0
  0
LINE
  5
329
330
1F
100
AcDbEntity
  8
0
  6
SLD-Solid
 62
     7
370
    25
100
AcDbLine
 10
58.67386076479845
 20
14.42705845055309
 30
0.0
 11
58.12856122835083
 21
14.74185317235025
 31
0.0
  0
LINE
  5
32A
330
1F
100
AcDbEntity
  8
0
  6
SLD-Solid
 62
     7
370
    25
100
AcDbLine
 10
58.91342854226446
 20
14.51727154690959
 30
0.0
 11
58.91335783158624
 21
14.51731236731524
 31
0.0
  0
LINE
  5
32B
330
1F
100
AcDbEntity
  8
0
  6
SLD-Solid
 62
     7
370
    25
100
AcDbLine
 10
58.12868143650353
 20
14.7419225670397
 30
0.0
 11
58.12856122835083
 21
14.74185317235025
 31
0.0
  0
ARC
  5
32C
330
1F
100
AcDbEntity
  8
0
  6
SLD-Solid
 62
     7
370
    25
100
AcDbCircle
 10
60.8581182770688
 20
16.73585351433647
 30
0.0
 40
0.0349367357942815
100
AcDbArc
 50
350.7859630095445
 51
129.2032852357094
  0
LINE
  5
32D
330
1F
100
AcDbEntity
  8
0
  6
SLD-Solid
 62
     7
370
    25
100
AcDbLine
 10
60.89260422646294
 20
16.36199943242394
 30
0.0
 11
60.89260422646293
 21
16.73025933858441
 31
0.0
  0
LINE
  5
32E
330
1F
100
AcDbEntity
  8
0
  6
SLD-Solid
 62
     7
370
    25
100
AcDbLine
 10
60.83603568396801
 20
16.76292627906236
 30
0.0
 11
58.91335783158625
 21
15.65298798058335
 31
0.0
  0
ARC
  5
32F
330
1F
100
AcDbEntity
  8
0
  6
SLD-Solid
 62
     7
370
    25
100
AcDbCircle
 10
58.2020085493405
 20
14.71009520264137
 30
0.0
 40
0.0840995456562614
100
AcDbArc
 50
150.6811883874736
 51
178.1126514286958
  0
LINE
  5
330
330
1F
100
AcDbEntity
  8
0
  6
SLD-Solid
 62
     7
370
    25
100
AcDbLine
 10
58.12856122835083
 20
14.7189880391165
 30
0.0
 11
58.11795462663303
 21
14.71286497827783
 31
0.0
  0
ARC
  5
331
330
1F
100
AcDbEntity
  8
0
  6
SLD-Solid
 62
     7
370
    25
100
AcDbCircle
 10
60.86458634722584
 20
16.35843221113689
 30
0.0
 40
0.0282440546780347
100
AcDbArc
 50
304.0563508243236
 51
7.255829569080213
  0
LINE
  5
332
330
1F
100
AcDbEntity
  8
0
  6
SLD-Solid
 62
     7
370
    25
100
AcDbLine
 10
58.73351545086476
 20
13.33127296999587
 30
0.0
 11
58.73351545086476
 21
13.34327834652339
 31
0.0
  0
SPLINE
  5
333
330
1F
100
AcDbEntity
  8
0
  6
SLD-Solid
 62
     7
370
    25
100
AcDbSpline
210
0.0
220
0.0
230
1.0
 70
    12
 71
     3
 72
    12
 73
     8
 74
     0
 42
0.00000001
 43
0.00000001
 40
0.0
 40
0.0
 40
0.0
 40
0.0
 40
0.2227005890337892
 40
0.4454287934403922
 40
0.6681571093941615
 40
0.8908852285057968
 40
1.0
 40
1.0
 40
1.0
 40
1.0
 10
58.67386076284777
 20
13.36571870213789
 30
0.0
 41
1.0
 10
58.67569362724836
 20
13.35962419998966
 30
0.0
 41
1.0
 10
58.67935958332883
 20
13.34743443996125
 30
0.0
 41
1.0
 10
58.69108355635707
 20
13.33476397472434
 30
0.0
 41
1.0
 10
58.7063691401563
 20
13.32806051667413
 30
0.0
 41
1.0
 10
58.72130141817597
 20
13.32783648974774
 30
0.0
 41
1.0
 10
58.73049309407089
 20
13.33042261283747
 30
0.0
 41
1.0
 10
58.73351545086476
 20
13.3312729677433
 30
0.0
 41
1.0
  0
LINE
  5
334
330
1F
100
AcDbEntity
  8
0
  6
SLD-Solid
 62
     7
370
    25
100
AcDbLine
 10
58.73351545086476
 20
13.33127296999587
 30
0.0
 11
58.75266778794162
 21
13.34232937884806
 31
0.0
  0
LINE
  5
335
330
1F
100
AcDbEntity
  8
0
  6
SLD-Solid
 62
     7
370
    25
100
AcDbLine
 10
58.73377708037268
 20
37.87911497854071
 30
0.0
 11
58.73377708037268
 21
37.85470041051791
 31
0.0
  0
SPLINE
  5
336
330
1F
100
AcDbEntity
  8
0
  6
SLD-Solid
 62
     7
370
    25
100
AcDbSpline
210
0.0
220
0.0
230
1.0
 70
    12
 71
     3
 72
    11
 73
     7
 74
     0
 42
0.00000001
 43
0.00000001
 40
0.0
 40
0.0
 40
0.0
 40
0.0
 40
0.2499999999997304
 40
0.4999999999998219
 40
0.7499999999999185
 40
1.0
 40
1.0
 40
1.0
 40
1.0
 10
58.6952648851132
 20
37.82957750431432
 30
0.0
 41
1.0
 10
58.6970736320815
 20
37.831992138015
 30
0.0
 41
1.0
 10
58.70069112601809
 20
37.83682140541634
 30
0.0
 41
1.0
 10
58.70993466934834
 20
37.84478744047874
 30
0.0
 41
1.0
 10
58.72121438058545
 20
37.85157763870879
 30
0.0
 41
1.0
 10
58.72958951377694
 20
37.85365948658153
 30
0.0
 41
1.0
 10
58.73377708037268
 20
37.85470041051791
 30
0.0
 41
1.0
  0
LINE
  5
337
330
1F
100
AcDbEntity
  8
0
  6
SLD-Solid
 62
     7
370
    25
100
AcDbLine
 10
58.67412239235573
 20
37.81737220304257
 30
0.0
 11
58.6952648851132
 21
37.82957750431432
 31
0.0
  0
SPLINE
  5
338
330
1F
100
AcDbEntity
  8
0
  6
SLD-Solid
 62
     7
370
    25
100
AcDbSpline
210
0.0
220
0.0
230
1.0
 70
    12
 71
     3
 72
    12
 73
     8
 74
     0
 42
0.00000001
 43
0.00000001
 40
0.0
 40
0.0
 40
0.0
 40
0.0
 40
0.2227005890336266
 40
0.4454287934403039
 40
0.6681571093941114
 40
0.890885228505783
 40
1.0
 40
1.0
 40
1.0
 40
1.0
 10
58.67412239235573
 20
37.81737220304257
 30
0.0
 41
1.0
 10
58.6759552567563
 20
37.8224952131141
 30
0.0
 41
1.0
 10
58.67962121283674
 20
37.83274186852192
 30
0.0
 41
1.0
 10
58.69134518586499
 20
37.84968344733804
 30
0.0
 41
1.0
 10
58.70663076966422
 20
37.86477502387131
 30
0.0
 41
1.0
 10
58.7215630476839
 20
37.87453732882616
 30
0.0
 41
1.0
 10
58.73075472357881
 20
37.87798224291094
 30
0.0
 41
1.0
 10
58.73377708037268
 20
37.87911498079328
 30
0.0
 41
1.0
  0
SPLINE
  5
339
330
1F
100
AcDbEntity
  8
0
  6
SLD-Solid
 62
     7
370
    25
100
AcDbSpline
210
0.0
220
0.0
230
1.0
 70
    12
 71
     3
 72
    12
 73
     8
 74
     0
 42
0.00000001
 43
0.00000001
 40
0.0
 40
0.0
 40
0.0
 40
0.0
 40
0.2227005890337912
 40
0.4454287934403932
 40
0.6681571093941633
 40
0.8908852285057975
 40
1.0
 40
1.0
 40
1.0
 40
1.0
 10
46.55972860076223
 20
44.81086287829486
 30
0.0
 41
1.0
 10
46.55888717277373
 20
44.81752972450111
 30
0.0
 41
1.0
 10
46.55720421245781
 20
44.83086424361751
 30
0.0
 41
1.0
 10
46.56090350614605
 20
44.85243837121008
 30
0.0
 41
1.0
 10
46.56816861703223
 20
44.87216006820116
 30
0.0
 41
1.0
 10
46.57642990324081
 20
44.88577345475598
 30
0.0
 41
1.0
 10
46.58165350063275
 20
44.8915090918011
 30
0.0
 41
1.0
 10
46.58337109547035
 20
44.89339505272801
 30
0.0
 41
1.0
  0
LINE
  5
33A
330
1F
100
AcDbEntity
  8
0
  6
SLD-Solid
 62
     7
370
    25
100
AcDbLine
 10
46.58337109547035
 20
44.89339505047545
 30
0.0
 11
58.73377708037268
 21
37.87911497854071
 31
0.0
  0
LINE
  5
33B
330
1F
100
AcDbEntity
  8
0
  6
SLD-Solid
 62
     7
370
    25
100
AcDbLine
 10
58.67412239430641
 20
37.81737220416868
 30
0.0
 11
46.55972860271289
 21
44.81086287942097
 31
0.0
  0
SPLINE
  5
33C
330
1F
100
AcDbEntity
  8
0
  6
SLD-Solid
 62
     7
370
    25
100
AcDbSpline
210
0.0
220
0.0
230
1.0
 70
    12
 71
     3
 72
    11
 73
     7
 74
     0
 42
0.00000001
 43
0.00000001
 40
0.0
 40
0.0
 40
0.0
 40
0.0
 40
0.2500000000000776
 40
0.500000000000133
 40
0.7500000000002042
 40
0.9999999999999999
 40
0.9999999999999999
 40
0.9999999999999999
 40
0.9999999999999999
 10
58.75741957340826
 20
37.83816497525252
 30
0.0
 41
1.0
 10
58.751336020899
 20
37.83364309919815
 30
0.0
 41
1.0
 10
58.73916891588048
 20
37.82459934708942
 30
0.0
 41
1.0
 10
58.71577098085123
 20
37.81701376501311
 30
0.0
 41
1.0
 10
58.69237304621538
 20
37.81420296046499
 30
0.0
 41
1.0
 10
58.68020594211607
 20
37.81631578796897
 30
0.0
 41
1.0
 10
58.67412239006641
 20
37.81737220172097
 30
0.0
 41
1.0
  0
SPLINE
  5
33D
330
1F
100
AcDbEntity
  8
0
  6
SLD-Solid
 62
     7
370
    25
100
AcDbSpline
210
0.0
220
0.0
230
1.0
 70
    12
 71
     3
 72
    11
 73
     7
 74
     0
 42
0.00000001
 43
0.00000001
 40
0.0
 40
0.0
 40
0.0
 40
0.0
 40
0.250000000000137
 40
0.5000000000002107
 40
0.7500000000003229
 40
1.0
 40
1.0
 40
1.0
 40
1.0
 10
58.73627708266201
 20
37.85037027768532
 30
0.0
 41
1.0
 10
58.73328178484729
 20
37.84726428311008
 30
0.0
 41
1.0
 10
58.72729118921787
 20
37.84105229395961
 30
0.0
 41
1.0
 10
58.71577098230666
 20
37.83467864562811
 30
0.0
 41
1.0
 10
58.70425077558914
 20
37.8306559066829
 30
0.0
 41
1.0
 10
58.6982601804123
 20
37.82993697088946
 30
0.0
 41
1.0
 10
58.69526488282389
 20
37.82957750299273
 30
0.0
 41
1.0
  0
LINE
  5
33E
330
1F
100
AcDbEntity
  8
0
  6
SLD-Solid
 62
     7
370
    25
100
AcDbLine
 10
58.75741957313016
 20
37.83816497998737
 30
0.0
 11
58.73627708461268
 21
37.85037027881142
 31
0.0
  0
LINE
  5
33F
330
1F
100
AcDbEntity
  8
0
  6
SLD-Solid
 62
     7
370
    25
100
AcDbLine
 10
58.75741957313016
 20
37.83816497998737
 30
0.0
 11
58.75741957313019
 21
36.75603245687957
 31
0.0
  0
ARC
  5
340
330
1F
100
AcDbEntity
  8
0
  6
SLD-Solid
 62
     7
370
    25
100
AcDbCircle
 10
58.7157709837183
 20
36.83641393978351
 30
0.0
 40
0.0905305903760581
100
AcDbArc
 50
242.6096722366158
 51
297.3903277633818
  0
LINE
  5
341
330
1F
100
AcDbEntity
  8
0
  6
SLD-Solid
 62
     7
370
    25
100
AcDbLine
 10
58.67412239430641
 20
37.81737220416868
 30
0.0
 11
58.67412239430641
 21
36.75603245687957
 31
0.0
  0
LINE
  5
342
330
1F
100
AcDbEntity
  8
0
  6
SLD-Solid
 62
     7
370
    25
100
AcDbLine
 10
58.91369017177239
 20
37.92837807634378
 30
0.0
 11
58.89254767901491
 21
37.94058337761553
 31
0.0
  0
LINE
  5
343
330
1F
100
AcDbEntity
  8
0
  6
SLD-Solid
 62
     7
370
    25
100
AcDbLine
 10
58.75741957313016
 20
37.83816497998737
 30
0.0
 11
58.91369017177239
 21
37.92837807634378
 31
0.0
  0
LINE
  5
344
330
1F
100
AcDbEntity
  8
0
  6
SLD-Solid
 62
     7
370
    25
100
AcDbLine
 10
58.73627707842201
 20
37.85037028013302
 30
0.0
 11
58.89254767901491
 21
37.94058337761553
 31
0.0
  0
LINE
  5
345
330
1F
100
AcDbEntity
  8
0
  6
SLD-Solid
 62
     7
370
    25
100
AcDbLine
 10
58.91369017177242
 20
36.84624555323598
 30
0.0
 11
58.91369017177239
 21
37.92837807634378
 31
0.0
  0
LINE
  5
346
330
1F
100
AcDbEntity
  8
0
  6
SLD-Solid
 62
     7
370
    25
100
AcDbLine
 10
58.75741957313019
 20
36.75603245687957
 30
0.0
 11
58.91369017177242
 21
36.84624555323598
 31
0.0
  0
LINE
  5
347
330
1F
100
AcDbEntity
  8
0
  6
SLD-Solid
 62
     7
370
    25
100
AcDbLine
 10
58.73377708037268
 20
37.87911497854071
 30
0.0
 11
58.89004767901491
 21
37.96932807489713
 31
0.0
  0
LINE
  5
348
330
1F
100
AcDbEntity
  8
0
  6
SLD-Solid
 62
     7
370
    25
100
AcDbLine
 10
46.58337109547035
 20
44.89339505047545
 30
0.0
 11
46.73964169411258
 21
44.98360814683184
 31
0.0
  0
LINE
  5
349
330
1F
100
AcDbEntity
  8
0
  6
SLD-Solid
 62
     7
370
    25
100
AcDbLine
 10
46.73964169411258
 20
44.98360814683184
 30
0.0
 11
58.89004767901491
 21
37.96932807489713
 31
0.0
  0
LINE
  5
34A
330
1F
100
AcDbEntity
  8
0
  6
SLD-Solid
 62
     7
370
    25
100
AcDbLine
 10
58.89004767901491
 20
37.96932807489713
 30
0.0
 11
58.89004767901491
 21
37.94491350462174
 31
0.0
  0
LINE
  5
34B
330
1F
100
AcDbEntity
  8
0
  6
SLD-Solid
 62
     7
370
    25
100
AcDbLine
 10
58.73377708037268
 20
37.85470040826533
 30
0.0
 11
58.89004767901491
 21
37.94491350462174
 31
0.0
  0
LINE
  5
34C
330
1F
100
AcDbEntity
  8
0
  6
SLD-Solid
 62
     7
370
    25
100
AcDbLine
 10
58.67412239430641
 20
36.75603245687957
 30
0.0
 11
58.12882285785879
 21
37.07082717867673
 31
0.0
  0
LINE
  5
34D
330
1F
100
AcDbEntity
  8
0
  6
SLD-Solid
 62
     7
370
    25
100
AcDbLine
 10
58.12882285785879
 20
37.07082717867673
 30
0.0
 11
58.12882285785879
 21
37.10593843358782
 31
0.0
  0
LINE
  5
34E
330
1F
100
AcDbEntity
  8
0
  6
SLD-Solid
 62
     7
370
    25
100
AcDbLine
 10
58.12882285785879
 20
37.10593843358782
 30
0.0
 11
58.11821625614098
 21
37.11206149442648
 31
0.0
  0
LINE
  5
34F
330
1F
100
AcDbEntity
  8
0
  6
SLD-Solid
 62
     7
370
    25
100
AcDbLine
 10
58.11821625614098
 20
37.11206149442648
 30
0.0
 11
47.11563474087833
 21
43.46371660440713
 31
0.0
  0
LINE
  5
350
330
1F
100
AcDbEntity
  8
0
  6
SLD-Solid
 62
     7
370
    25
100
AcDbLine
 10
47.10502813916053
 20
43.4698396652458
 30
0.0
 11
47.11563474087833
 21
43.46371660440713
 31
0.0
  0
LINE
  5
351
330
1F
100
AcDbEntity
  8
0
  6
SLD-Solid
 62
     7
370
    25
100
AcDbLine
 10
47.10502813916053
 20
43.43472841033471
 30
0.0
 11
47.10502813916053
 21
43.4698396652458
 31
0.0
  0
LINE
  5
352
330
1F
100
AcDbEntity
  8
0
  6
SLD-Solid
 62
     7
370
    25
100
AcDbLine
 10
46.5597286027129
 20
43.74952313213186
 30
0.0
 11
47.10502813916053
 21
43.43472841033471
 31
0.0
  0
LINE
  5
353
330
1F
100
AcDbEntity
  8
0
  6
SLD-Solid
 62
     7
370
    25
100
AcDbLine
 10
46.55972860271289
 20
44.81086287942096
 30
0.0
 11
46.55972860271289
 21
43.74952313213186
 31
0.0
  0
ARC
  5
354
330
1F
100
AcDbEntity
  8
0
  6
SLD-Solid
 62
     7
370
    25
100
AcDbCircle
 10
47.14449585296473
 20
43.46053089559417
 30
0.0
 40
0.0290364001127056
100
AcDbArc
 50
173.7011525231651
 51
234.9866670834699
  0
ARC
  5
355
330
1F
100
AcDbEntity
  8
0
  6
SLD-Solid
 62
     7
370
    25
100
AcDbCircle
 10
58.14849487208038
 20
37.10930264976358
 30
0.0
 40
0.0304040426108076
100
AcDbArc
 50
174.7938542040972
 51
229.6827256768589
  0
LINE
  5
356
330
1F
100
AcDbEntity
  8
0
  6
SLD-Solid
 62
     7
370
    25
100
AcDbLine
 10
49.99348862962946
 20
45.02056220494551
 30
0.0
 11
49.98270118536328
 21
45.01433474592584
 31
0.0
  0
LINE
  5
357
330
1F
100
AcDbEntity
  8
0
  6
SLD-Solid
 62
     7
370
    25
100
AcDbLine
 10
60.85606300221717
 20
38.7497314980354
 30
0.0
 11
49.99348862962946
 21
45.02056220494551
 31
0.0
  0
LINE
  5
358
330
1F
100
AcDbEntity
  8
0
  6
SLD-Solid
 62
     7
370
    25
100
AcDbLine
 10
60.85606300221717
 20
38.7497314980354
 30
0.0
 11
60.84527555795099
 21
38.74350403901573
 31
0.0
  0
LINE
  5
359
330
1F
100
AcDbEntity
  8
0
  6
SLD-Solid
 62
     7
370
    25
100
AcDbLine
 10
60.84527555795099
 20
38.74350403901573
 30
0.0
 11
60.86591841698532
 21
38.73158717015291
 31
0.0
  0
ARC
  5
35A
330
1F
100
AcDbEntity
  8
0
  6
SLD-Solid
 62
     7
370
    25
100
AcDbCircle
 10
60.86127060618141
 20
38.71934104847556
 30
0.0
 40
0.0130984595050397
100
AcDbArc
 50
290.7834207995738
 51
69.21657920042706
  0
LINE
  5
35B
330
1F
100
AcDbEntity
  8
0
  6
SLD-Solid
 62
     7
370
    25
100
AcDbLine
 10
60.86591841698532
 20
38.70709492679822
 30
0.0
 11
60.84357585434585
 21
38.69419683992996
 31
0.0
  0
LINE
  5
35C
330
1F
100
AcDbEntity
  8
0
  6
SLD-Solid
 62
     7
370
    25
100
AcDbLine
 10
60.84357585434585
 20
38.69419683992996
 30
0.0
 11
60.851217266559
 21
38.68978554655632
 31
0.0
  0
LINE
  5
35D
330
1F
100
AcDbEntity
  8
0
  6
SLD-Solid
 62
     7
370
    25
100
AcDbLine
 10
49.89728935681831
 20
45.01335352792048
 30
0.0
 11
49.88964794460515
 21
45.01776482129412
 31
0.0
  0
LINE
  5
35E
330
1F
100
AcDbEntity
  8
0
  6
SLD-Solid
 62
     7
370
    25
100
AcDbLine
 10
49.91963191945777
 20
45.02625161478875
 30
0.0
 11
49.89728935681831
 21
45.01335352792048
 31
0.0
  0
ARC
  5
35F
330
1F
100
AcDbEntity
  8
0
  6
SLD-Solid
 62
     7
370
    25
100
AcDbCircle
 10
49.94084512289336
 20
44.98531028224007
 30
0.0
 40
0.0461106572373622
100
AcDbArc
 50
62.60967223660061
 51
117.3903277633916
  0
LINE
  5
360
330
1F
100
AcDbEntity
  8
0
  6
SLD-Solid
 62
     7
370
    25
100
AcDbLine
 10
49.98270118536328
 20
45.01433474592584
 30
0.0
 11
49.96205832632896
 21
45.02625161478875
 31
0.0
  0
ARC
  5
361
330
1F
100
AcDbEntity
  8
0
  6
SLD-Solid
 62
     7
370
    25
100
AcDbCircle
 10
60.80244162760048
 20
38.61353326964502
 30
0.0
 40
0.0905178031658338
100
AcDbArc
 50
2.605478485616744
 51
57.39452166001307
  0
LINE
  5
362
330
1F
100
AcDbEntity
  8
0
  6
SLD-Solid
 62
     7
370
    25
100
AcDbLine
 10
60.89286585597087
 20
38.61764807384311
 30
0.0
 11
60.89286585597089
 21
38.24938816768263
 31
0.0
  0
ARC
  5
363
330
1F
100
AcDbEntity
  8
0
  6
SLD-Solid
 62
     7
370
    25
100
AcDbCircle
 10
60.77004856786149
 20
38.25497703586348
 30
0.0
 40
0.1229443846057673
100
AcDbArc
 50
302.6054783400247
 51
357.3945215143478
  0
LINE
  5
364
330
1F
100
AcDbEntity
  8
0
  6
SLD-Solid
 62
     7
370
    25
100
AcDbLine
 10
60.83629731347596
 20
38.15140857825886
 30
0.0
 11
58.91369017177241
 21
37.0415111001855
 31
0.0
  0
LINE
  5
365
330
1F
100
AcDbEntity
  8
0
  6
SLD-Solid
 62
     7
370
    25
100
AcDbLine
 10
60.86591841698532
 20
38.70709492679822
 30
0.0
 11
60.86591841698532
 21
38.68268035652284
 31
0.0
  0
LINE
  5
366
330
1F
100
AcDbEntity
  8
0
  6
SLD-Solid
 62
     7
370
    25
100
AcDbLine
 10
60.86591841698532
 20
38.68268035652284
 30
0.0
 11
60.86301546854
 21
38.68100452005654
 31
0.0
  0
ARC
  5
367
330
1F
100
AcDbEntity
  8
0
  6
SLD-Solid
 62
     7
370
    25
100
AcDbCircle
 10
60.85969150167501
 20
38.69642366950716
 30
0.0
 40
0.0150881783548201
100
AcDbArc
 50
294.3746582935889
 51
354.3052007488088
  0
ARC
  5
368
330
1F
100
AcDbEntity
  8
0
  6
SLD-Solid
 62
     7
370
    25
100
AcDbCircle
 10
60.87232131138762
 20
38.72979917500597
 30
0.0
 40
0.0257221717285421
100
AcDbArc
 50
350.7859630095458
 51
129.203285235716
  0
LINE
  5
369
330
1F
100
AcDbEntity
  8
0
  6
SLD-Solid
 62
     7
370
    25
100
AcDbLine
 10
60.87656909887157
 20
38.71347516183678
 30
0.0
 11
60.89771159162905
 21
38.72568046310852
 31
0.0
  0
ARC
  5
36A
330
1F
100
AcDbEntity
  8
0
  6
SLD-Solid
 62
     7
370
    25
100
AcDbCircle
 10
60.85936037382939
 20
38.71432659402131
 30
0.0
 40
0.0172297752261092
100
AcDbArc
 50
357.1674994839038
 51
34.55060243300954
  0
ARC
  5
36B
330
1F
100
AcDbEntity
  8
0
  6
SLD-Solid
 62
     7
370
    25
100
AcDbCircle
 10
50.01074162086018
 20
44.9964790946604
 30
0.0
 40
0.0296253591946462
100
AcDbArc
 50
65.69288095408255
 51
125.617577475211
  0
LINE
  5
36C
330
1F
100
AcDbEntity
  8
0
  6
SLD-Solid
 62
     7
370
    25
100
AcDbLine
 10
60.87656909887157
 20
38.71331186694564
 30
0.0
 11
60.87656909887157
 21
38.71347516183678
 31
0.0
  0
LINE
  5
36D
330
1F
100
AcDbEntity
  8
0
  6
SLD-Solid
 62
     7
370
    25
100
AcDbLine
 10
60.89771159162905
 20
38.70110656567389
 30
0.0
 11
60.89771159162905
 21
38.72568046310852
 31
0.0
  0
SPLINE
  5
36E
330
1F
100
AcDbEntity
  8
0
  6
SLD-Solid
 62
     7
370
    25
100
AcDbSpline
210
0.0
220
0.0
230
1.0
 70
    12
 71
     3
 72
    11
 73
     7
 74
     0
 42
0.00000001
 43
0.00000001
 40
0.0
 40
0.0
 40
0.0
 40
0.0
 40
0.2499999999999377
 40
0.4999999999998654
 40
0.7499999999998149
 40
1.0
 40
1.0
 40
1.0
 40
1.0
 10
46.55972859451099
 20
44.87974209318657
 30
0.0
 41
1.0
 10
46.55489713061915
 20
44.87449740175892
 30
0.0
 41
1.0
 10
46.54523420283547
 20
44.86400801890363
 30
0.0
 41
1.0
 10
46.54109867721858
 20
44.84530248456838
 30
0.0
 41
1.0
 10
46.54523420506124
 20
44.82659695046024
 30
0.0
 41
1.0
 10
46.55489713400235
 20
44.8161075681356
 30
0.0
 41
1.0
 10
46.55972859847291
 20
44.81086287697327
 30
0.0
 41
1.0
  0
LINE
  5
36F
330
1F
100
AcDbEntity
  8
0
  6
SLD-Solid
 62
     7
370
    25
100
AcDbLine
 10
46.55972860271288
 20
44.87974209302602
 30
0.0
 11
46.56996700180248
 21
44.87383159104017
 31
0.0
  0
ARC
  5
370
330
1F
100
AcDbEntity
  8
0
  6
SLD-Solid
 62
     7
370
    25
100
AcDbCircle
 10
46.57195411310552
 20
43.77650583662443
 30
0.0
 40
0.0296231235033289
100
AcDbArc
 50
185.6947992512484
 51
245.6253417063729
  0
LINE
  5
371
330
1F
100
AcDbEntity
  8
0
  6
SLD-Solid
 62
     7
370
    25
100
AcDbLine
 10
46.55972860271288
 20
44.87974209302602
 30
0.0
 11
46.58336341667327
 21
44.89338618070278
 31
0.0
  0
LINE
  5
372
330
1F
100
AcDbEntity
  8
0
  6
SLD-Solid
 62
     7
370
    25
100
AcDbLine
 10
47.12064268699942
 20
43.44374249693188
 30
0.0
 11
47.10502813916053
 21
43.43472841033471
 31
0.0
  0
ARC
  5
373
330
1F
100
AcDbEntity
  8
0
  6
SLD-Solid
 62
     7
370
    25
100
AcDbCircle
 10
49.87239495337443
 20
44.99368171100912
 30
0.0
 40
0.0296253591945596
100
AcDbArc
 50
54.38242252466899
 51
114.3071190461263
  0
LINE
  5
374
330
1F
100
AcDbEntity
  8
0
  6
SLD-Solid
 62
     7
370
    25
100
AcDbLine
 10
58.67386076479836
 20
14.42705845055317
 30
0.0
 11
58.67386076479846
 21
36.75618349238086
 31
0.0
  0
LINE
  5
375
330
1F
100
AcDbEntity
  8
0
  6
SLD-Solid
 62
     7
370
    25
100
AcDbLine
 10
58.91335783158634
 20
36.84605369733033
 30
0.0
 11
58.91335783158624
 21
14.517230726504
 31
0.0
  0
LINE
  5
376
330
1F
100
AcDbEntity
  8
0
  6
SLD-Solid
 62
     7
370
    25
100
AcDbLine
 10
58.75715794362213
 20
14.42705845055317
 30
0.0
 11
58.91335783158624
 21
14.517230726504
 31
0.0
  0
LINE
  5
377
330
1F
100
AcDbEntity
  8
0
  6
SLD-Solid
 62
     7
370
    25
100
AcDbLine
 10
58.67386076479836
 20
14.42705845055317
 30
0.0
 11
58.12868143650353
 21
14.74178377766085
 31
0.0
  0
LINE
  5
378
330
1F
100
AcDbEntity
  8
0
  6
SLD-Solid
 62
     7
370
    25
100
AcDbLine
 10
58.12868143650353
 20
14.77444541013628
 30
0.0
 11
58.12868143650353
 21
14.74178377766085
 31
0.0
  0
LINE
  5
379
330
1F
100
AcDbEntity
  8
0
  6
SLD-Solid
 62
     7
370
    25
100
AcDbLine
 10
58.13858093144014
 20
14.76873055335352
 30
0.0
 11
58.12868143650353
 21
14.77444541013628
 31
0.0
  0
LINE
  5
37A
330
1F
100
AcDbEntity
  8
0
  6
SLD-Solid
 62
     7
370
    25
100
AcDbLine
 10
58.13858093144014
 20
14.77281325741295
 30
0.0
 11
58.13858093144014
 21
14.76873055335352
 31
0.0
  0
LINE
  5
37B
330
1F
100
AcDbEntity
  8
0
  6
SLD-Solid
 62
     7
370
    25
100
AcDbLine
 10
58.13858093144014
 20
14.77281325741295
 30
0.0
 11
58.13858093144025
 21
37.02844962617089
 31
0.0
  0
LINE
  5
37C
330
1F
100
AcDbEntity
  8
0
  6
SLD-Solid
 62
     7
370
    25
100
AcDbLine
 10
58.13858093144025
 20
37.02844962617089
 30
0.0
 11
58.13858093144025
 21
37.03253233023031
 31
0.0
  0
LINE
  5
37D
330
1F
100
AcDbEntity
  8
0
  6
SLD-Solid
 62
     7
370
    25
100
AcDbLine
 10
58.12868143650363
 20
37.03824718701307
 30
0.0
 11
58.13858093144025
 21
37.03253233023031
 31
0.0
  0
LINE
  5
37E
330
1F
100
AcDbEntity
  8
0
  6
SLD-Solid
 62
     7
370
    25
100
AcDbLine
 10
58.12868143650363
 20
37.0709088194885
 30
0.0
 11
58.12868143650363
 21
37.03824718701307
 31
0.0
  0
LINE
  5
37F
330
1F
100
AcDbEntity
  8
0
  6
SLD-Solid
 62
     7
370
    25
100
AcDbLine
 10
58.67386076479846
 20
36.75618349238086
 30
0.0
 11
58.12868143650363
 21
37.0709088194885
 31
0.0
  0
LINE
  5
380
330
1F
100
AcDbEntity
  8
0
  6
SLD-Solid
 62
     7
370
    25
100
AcDbLine
 10
58.12882285785879
 20
37.07099046029906
 30
0.0
 11
58.12868143650363
 21
37.0709088194885
 31
0.0
  0
ARC
  5
381
330
1F
100
AcDbEntity
  8
0
  6
SLD-Solid
 62
     7
370
    25
100
AcDbCircle
 10
58.15080644183274
 20
14.7997959619055
 30
0.0
 40
0.0296231235033093
100
AcDbArc
 50
185.6947992512251
 51
245.6253417063894
  0
LWPOLYLINE
  5
382
330
1F
100
AcDbEntity
  8
0
  6
SLD-Solid
 62
     7
370
    25
100
AcDbPolyline
 90
        8
 70
   128
 43
0.0
 10
58.12868143650363
 20
37.06894306334699
 10
58.12581301638721
 20
37.06550494136402
 10
58.12246126783639
 20
37.05912635423266
 10
58.12132952085214
 20
37.05249284506407
 10
58.12246126783639
 20
37.04585933589547
 10
58.12581301638721
 20
37.03948074876411
 10
58.13125596068752
 20
37.0336022091963
 10
58.13858093144025
 20
37.02844962617089
  0
LINE
  5
383
330
1F
100
AcDbEntity
  8
0
  6
SLD-Solid
 62
     7
370
    25
100
AcDbLine
 10
60.88356945600642
 20
38.68486004424799
 30
0.0
 11
60.87372770673992
 21
38.69054156516496
 31
0.0
  0
LINE
  5
384
330
1F
100
AcDbEntity
  8
0
  6
SLD-Solid
 62
     7
370
    25
100
AcDbLine
 10
47.17842582304876
 20
43.40369893058327
 30
0.0
 11
47.18175654695426
 21
43.40562171656626
 31
0.0
  0
ARC
  5
385
330
1F
100
AcDbEntity
  8
0
  6
SLD-Solid
 62
     7
370
    25
100
AcDbCircle
 10
47.13677723363687
 20
43.48408041348708
 30
0.0
 40
0.0905305903759382
100
AcDbArc
 50
242.6096722365765
 51
297.3903277634251
  0
LINE
  5
386
330
1F
100
AcDbEntity
  8
0
  6
SLD-Solid
 62
     7
370
    25
100
AcDbLine
 10
47.09866475280131
 20
43.40574028261298
 30
0.0
 11
47.09512864422498
 21
43.40369893058327
 31
0.0
  0
ARC
  5
387
330
1F
100
AcDbEntity
  8
0
  6
SLD-Solid
 62
     7
370
    25
100
AcDbCircle
 10
47.13658274606622
 20
43.45663351732267
 30
0.0
 40
0.0456879511683901
100
AcDbArc
 50
253.552541304862
 51
296.941870113484
  0
LINE
  5
388
330
1F
100
AcDbEntity
  8
0
  6
SLD-Solid
 62
     7
370
    25
100
AcDbLine
 10
47.15728333029128
 20
43.41590423185501
 30
0.0
 11
47.16061405419678
 21
43.41782701783801
 31
0.0
  0
LINE
  5
389
330
1F
100
AcDbEntity
  8
0
  6
SLD-Solid
 62
     7
370
    25
100
AcDbLine
 10
60.87470521354973
 20
38.71438786503868
 30
0.0
 11
60.9047119487639
 21
38.69706534551973
 31
0.0
  0
ARC
  5
38A
330
1F
100
AcDbEntity
  8
0
  6
SLD-Solid
 62
     7
370
    25
100
AcDbCircle
 10
60.89558674688562
 20
38.67302212662656
 30
0.0
 40
0.0257166421615361
100
AcDbArc
 50
290.7834207994716
 51
69.21657920052925
  0
LINE
  5
38B
330
1F
100
AcDbEntity
  8
0
  6
SLD-Solid
 62
     7
370
    25
100
AcDbLine
 10
60.88905652124924
 20
38.63994122180173
 30
0.0
 11
60.9047119487639
 21
38.64897890773338
 31
0.0
  0
LINE
  5
38C
330
1F
100
AcDbEntity
  8
0
  6
SLD-Solid
 62
     7
370
    25
100
AcDbLine
 10
60.88031404742988
 20
38.65930490163607
 30
0.0
 11
60.88356945600642
 21
38.66118420900513
 31
0.0
  0
ARC
  5
38D
330
1F
100
AcDbEntity
  8
0
  6
SLD-Solid
 62
     7
370
    25
100
AcDbCircle
 10
60.87907657222934
 20
38.67302212662656
 30
0.0
 40
0.0126618441881997
100
AcDbArc
 50
290.7834207994706
 51
69.2165792005188
  0
LINE
  5
38E
330
1F
100
AcDbEntity
  8
0
  6
SLD-Solid
 62
     7
370
    25
100
AcDbLine
 10
60.90471194876379
 20
16.39334253897544
 30
0.0
 11
60.9047119487639
 21
38.64897890773338
 31
0.0
  0
LINE
  5
38F
330
1F
100
AcDbEntity
  8
0
  6
SLD-Solid
 62
     7
370
    25
100
AcDbLine
 10
60.89260422646294
 20
16.38635289966982
 30
0.0
 11
60.90471194876379
 21
16.39334253897544
 31
0.0
  0
ARC
  5
390
330
1F
100
AcDbEntity
  8
0
  6
SLD-Solid
 62
     7
370
    25
100
AcDbCircle
 10
60.89248643837123
 20
16.42032524346796
 30
0.0
 40
0.0296231235032603
100
AcDbArc
 50
294.3746582935655
 51
354.3052007488367
  0
LINE
  5
391
330
1F
100
AcDbEntity
  8
0
  6
SLD-Solid
 62
     7
370
    25
100
AcDbLine
 10
46.55984881086676
 20
43.74945373744303
 30
0.0
 11
47.1050281391616
 21
43.43472841033537
 31
0.0
  0
LINE
  5
392
330
1F
100
AcDbEntity
  8
0
  6
SLD-Solid
 62
     7
370
    25
100
AcDbLine
 10
47.1050281391616
 20
43.43472841033537
 30
0.0
 11
47.1050281391616
 21
43.40206677785993
 31
0.0
  0
LINE
  5
393
330
1F
100
AcDbEntity
  8
0
  6
SLD-Solid
 62
     7
370
    25
100
AcDbLine
 10
47.1050281391616
 20
43.40206677785993
 30
0.0
 11
47.09512864422498
 21
43.40778163464269
 31
0.0
  0
LINE
  5
394
330
1F
100
AcDbEntity
  8
0
  6
SLD-Solid
 62
     7
370
    25
100
AcDbLine
 10
47.09512864422498
 20
43.40369893058327
 30
0.0
 11
47.09512864422498
 21
43.40778163464269
 31
0.0
  0
LINE
  5
395
330
1F
100
AcDbEntity
  8
0
  6
SLD-Solid
 62
     7
370
    25
100
AcDbLine
 10
47.12617063191907
 20
43.4378261886314
 30
0.0
 11
47.12617063191907
 21
43.41427207913168
 31
0.0
  0
LINE
  5
396
330
1F
100
AcDbEntity
  8
0
  6
SLD-Solid
 62
     7
370
    25
100
AcDbLine
 10
47.12617063191907
 20
43.41427207913168
 30
0.0
 11
47.1050281391616
 21
43.40206677785993
 31
0.0
  0
ARC
  5
397
330
1F
100
AcDbEntity
  8
0
  6
SLD-Solid
 62
     7
370
    25
100
AcDbCircle
 10
46.57207432125934
 20
43.77643644193557
 30
0.0
 40
0.0296231235032843
100
AcDbArc
 50
185.6947992512019
 51
245.6253417064128
  0
LINE
  5
398
330
1F
100
AcDbEntity
  8
0
  6
SLD-Solid
 62
     7
370
    25
100
AcDbLine
 10
58.13270653884226
 20
14.77676905225631
 30
0.0
 11
58.12868143650353
 21
14.77444541013628
 31
0.0
  0
LINE
  5
399
330
1F
100
AcDbEntity
  8
0
  6
SLD-Solid
 62
     8
370
    25
100
AcDbLine
 10
47.90382311978195
 20
39.20418975860413
 30
0.0
 11
47.90382311978194
 21
38.87209877113783
 31
0.0
  0
LINE
  5
39A
330
1F
100
AcDbEntity
  8
0
  6
SLD-Solid
 62
     8
370
    25
100
AcDbLine
 10
46.46647767716566
 20
38.3744278965596
 30
0.0
 11
46.46647767716566
 21
38.08193148579089
 31
0.0
  0
LINE
  5
39B
330
1F
100
AcDbEntity
  8
0
  6
SLD-Solid
 62
     8
370
    25
100
AcDbLine
 10
47.85317784080945
 20
38.741700277849
 30
0.0
 11
46.58838930789472
 21
38.01155339941069
 31
0.0
  0
LWPOLYLINE
  5
39C
330
1F
100
AcDbEntity
  8
0
  6
SLD-Solid
 62
     8
370
    25
100
AcDbPolyline
 90
       25
 70
   128
 43
0.0
 10
46.92914842704798
 20
39.22307172797176
 10
46.93406743314515
 20
39.28358432828482
 10
46.94863541679095
 20
39.34745082685487
 10
46.9722925385437
 20
39.41221686995856
 10
47.00412966848149
 20
39.47539353488065
 10
47.04292332355529
 20
39.53455297781807
 10
47.08718268535635
 20
39.58742173455574
 10
47.13520689143159
 20
39.63196808842136
 10
47.18515039847382
 20
39.66648014801775
 10
47.23509390551605
 20
39.68963163424923
 10
47.2831181115913
 20
39.70053284848341
 10
47.32737747339235
 20
39.69876486317074
 10
47.36617112846616
 20
39.6843956209953
 10
47.39800825840396
 20
39.65797732387552
 10
47.4216653801567
 20
39.62052521215417
 10
47.43623336380249
 20
39.57347854948131
 10
47.44115236989965
 20
39.51864531271937
 10
47.43623336380249
 20
39.45813271240631
 10
47.42166538015669
 20
39.39426621383628
 10
47.39800825840395
 20
39.32950017073259
 10
47.36617112846615
 20
39.26632350581049
 10
47.32737747339235
 20
39.20716406287307
 10
47.28311811159128
 20
39.15429530613541
 10
47.23509390551605
 20
39.10974895226979
 10
47.2199198361548
 20
39.09804811198577
  0
LWPOLYLINE
  5
39D
330
1F
100
AcDbEntity
  8
0
  6
SLD-Solid
 62
     8
370
    25
100
AcDbPolyline
 90
        9
 70
   128
 43
0.0
 10
47.15038096079284
 20
39.05790417372706
 10
47.13520689143159
 20
39.05208540644192
 10
47.08718268535634
 20
39.04118419220774
 10
47.04292332355529
 20
39.0429521775204
 10
47.00412966848148
 20
39.05732141969585
 10
46.97229253854368
 20
39.08373971681563
 10
46.94863541679095
 20
39.12119182853698
 10
46.93406743314515
 20
39.16823849120983
 10
46.92914842704798
 20
39.22307172797176
  0
LWPOLYLINE
  5
39E
330
1F
100
AcDbEntity
  8
0
  6
SLD-Solid
 62
     8
370
    25
100
AcDbPolyline
 90
       17
 70
   128
 43
0.0
 10
47.32756964239238
 20
39.21705590889335
 10
47.3241707398964
 20
39.21431525610558
 10
47.2958864573725
 20
39.19798708735938
 10
47.26930792580058
 20
39.19381456835176
 10
47.24764090834554
 20
39.2023009664549
 10
47.23349876708359
 20
39.22242269681164
 10
47.2285872529667
 20
39.25175278177583
 10
47.23349876708359
 20
39.28675358023488
 10
47.24764090834554
 20
39.32320347933781
 10
47.26930792580058
 20
39.3567060833096
 10
47.2958864573725
 20
39.38322048366551
 10
47.3241707398964
 20
39.39954865241171
 10
47.35074927146832
 20
39.4037211714193
 10
47.37241628892335
 20
39.39523477331616
 10
47.3865584301853
 20
39.37511304295943
 10
47.39146994430219
 20
39.34578295799523
 10
47.39146994430219
 20
39.34578295799523
  0
LWPOLYLINE
  5
39F
330
1F
100
AcDbEntity
  8
0
  6
SLD-Solid
 62
     8
370
    25
100
AcDbPolyline
 90
       24
 70
   128
 43
0.0
 10
47.41224357820914
 20
39.48285630106084
 10
47.40732103566077
 20
39.53228150084527
 10
47.39278358063422
 20
39.57371218656917
 10
47.3693109683693
 20
39.60521110541497
 10
47.33800075212759
 20
39.625305402946
 10
47.30031696282175
 20
39.63305549214291
 10
47.25802165255719
 20
39.62809898744845
 10
47.21309250303402
 20
39.61066764951336
 10
47.16763035134878
 20
39.58157654832597
 10
47.12376095718672
 20
39.54218595144536
 10
47.08353560466153
 20
39.49433771940215
 10
47.04883518655003
 20
39.4402691823472
 10
47.02128225583635
 20
39.38250852498035
 10
47.00216515693778
 20
39.32375657144368
 10
46.99237778415171
 20
39.26676049778649
 10
46.99237778415171
 20
39.21418537706639
 10
47.00216515693779
 20
39.16848956349521
 10
47.02128225583635
 20
39.13180974252828
 10
47.04883518655003
 20
39.10586102182732
 10
47.08353560466153
 20
39.09185673473238
 10
47.12376095718672
 20
39.09045170614338
 10
47.16763035134878
 20
39.10171163363555
 10
47.21309250303402
 20
39.12511001551388
 10
47.2470423530993
 20
39.15005871512115
  0
ARC
  5
3A0
330
1F
100
AcDbEntity
  8
0
  6
SLD-Solid
 62
     8
370
    25
100
AcDbCircle
 10
45.93486708604962
 20
38.48417286795608
 30
0.0
 40
0.8660553021968246
100
AcDbArc
 50
0.3891861040966507
 51
5.375043741282469
  0
LINE
  5
3A1
330
1F
100
AcDbEntity
  8
0
  6
SLD-Solid
 62
     8
370
    25
100
AcDbLine
 10
46.64230320279113
 20
38.47592981197416
 30
0.0
 11
46.80090240880488
 21
38.49005557170752
 31
0.0
  0
LINE
  5
3A2
330
1F
100
AcDbEntity
  8
0
  6
SLD-Solid
 62
     8
370
    25
100
AcDbLine
 10
46.80090240880488
 20
38.48969386708377
 30
0.0
 11
46.501907081534
 21
38.06147852600254
 31
0.0
  0
LINE
  5
3A3
330
1F
100
AcDbEntity
  8
0
  6
SLD-Solid
 62
     8
370
    25
100
AcDbLine
 10
46.55325608820103
 20
38.03183537542586
 30
0.0
 11
46.86491138123163
 21
38.47818207529903
 31
0.0
  0
LINE
  5
3A4
330
1F
100
AcDbEntity
  8
0
  6
SLD-Solid
 62
     8
370
    25
100
AcDbLine
 10
46.49420906276027
 20
38.06592249764802
 30
0.0
 11
46.49420906276028
 21
38.39043688470247
 31
0.0
  0
LINE
  5
3A5
330
1F
100
AcDbEntity
  8
0
  6
SLD-Solid
 62
     8
370
    25
100
AcDbLine
 10
46.57843497444942
 20
38.01729991379066
 30
0.0
 11
47.85530563743337
 21
38.75442165745376
 31
0.0
  0
ARC
  5
3A6
330
1F
100
AcDbEntity
  8
0
  6
SLD-Solid
 62
     8
370
    25
100
AcDbCircle
 10
46.69120287018491
 20
38.50437223896707
 30
0.0
 40
0.1791276813404093
100
AcDbArc
 50
1.911514848129592
 51
29.93823843821595
  0
ARC
  5
3A7
330
1F
100
AcDbEntity
  8
0
  6
SLD-Solid
 62
     8
370
    25
100
AcDbCircle
 10
47.62826751634095
 20
39.04532814462281
 30
0.0
 40
0.1791276813406167
100
AcDbArc
 50
1.911514848141022
 51
29.93823843819571
  0
ARC
  5
3A8
330
1F
100
AcDbEntity
  8
0
  6
SLD-Solid
 62
     8
370
    25
100
AcDbCircle
 10
47.74172662219549
 20
39.08862512217402
 30
0.0
 40
0.1007550828891601
100
AcDbArc
 50
1.53585101896289
 51
40.89188704774742
  0
LINE
  5
3A9
330
1F
100
AcDbEntity
  8
0
  6
SLD-Solid
 62
     8
370
    25
100
AcDbLine
 10
47.86691469365051
 20
39.18288297772603
 30
0.0
 11
47.84244550880963
 21
39.09132560494773
 31
0.0
  0
LINE
  5
3AA
330
1F
100
AcDbEntity
  8
0
  6
SLD-Solid
 62
     8
370
    25
100
AcDbLine
 10
47.88976312383716
 20
38.85608978299495
 30
0.0
 11
47.88976312383716
 21
39.19607309571323
 31
0.0
  0
LINE
  5
3AB
330
1F
100
AcDbEntity
  8
0
  6
SLD-Solid
 62
     8
370
    25
100
AcDbLine
 10
55.36317204585988
 20
33.08103454000332
 30
0.0
 11
55.36317204585988
 21
33.08832750706623
 31
0.0
  0
LINE
  5
3AC
330
1F
100
AcDbEntity
  8
0
  6
SLD-Solid
 62
     8
370
    25
100
AcDbLine
 10
55.03790292651405
 20
33.08832750706623
 30
0.0
 11
55.03790292651407
 21
33.07526774196186
 31
0.0
  0
LINE
  5
3AD
330
1F
100
AcDbEntity
  8
0
  6
SLD-Solid
 62
     8
370
    25
100
AcDbLine
 10
55.56901032987449
 20
33.18046480156762
 30
0.0
 11
58.12132952085214
 21
34.65388730783913
 31
0.0
  0
LINE
  5
3AE
330
1F
100
AcDbEntity
  8
0
  6
SLD-Solid
 62
     8
370
    25
100
AcDbLine
 10
55.57475946977807
 20
13.45045248179794
 30
0.0
 11
58.12132952085214
 21
14.92055608024805
 31
0.0
  0
LINE
  5
3AF
330
1F
100
AcDbEntity
  8
0
  6
SLD-Solid
 62
     8
370
    25
100
AcDbLine
 10
54.78321640835075
 20
33.24275772232592
 30
0.0
 11
54.79028862541
 21
33.23867501832039
 31
0.0
  0
LINE
  5
3B0
330
1F
100
AcDbEntity
  8
0
  6
SLD-Solid
 62
     8
370
    25
100
AcDbLine
 10
44.6096630777754
 20
39.10842223042393
 30
0.0
 11
44.6096630777754
 21
39.09418639539062
 31
0.0
  0
LINE
  5
3B1
330
1F
100
AcDbEntity
  8
0
  6
SLD-Solid
 62
     8
370
    25
100
AcDbLine
 10
55.53365499081518
 20
33.20087500436317
 30
0.0
 11
55.54072720787466
 21
33.20495770836883
 31
0.0
  0
LINE
  5
3B2
330
1F
100
AcDbEntity
  8
0
  6
SLD-Solid
 62
     8
370
    25
100
AcDbLine
 10
44.60134730050269
 20
39.30308901938228
 30
0.0
 11
44.6013473005027
 21
39.29113643366856
 31
0.0
  0
LINE
  5
3B3
330
1F
100
AcDbEntity
  8
0
  6
SLD-Solid
 62
     8
370
    25
100
AcDbLine
 10
44.63087628121102
 20
39.12066835210126
 30
0.0
 11
44.63087628121102
 21
39.28394997446581
 31
0.0
  0
LINE
  5
3B4
330
1F
100
AcDbEntity
  8
0
  6
SLD-Solid
 62
     8
370
    25
100
AcDbLine
 10
44.78472881928728
 20
39.4142634074874
 30
0.0
 11
44.77765660222801
 21
39.41018070348188
 31
0.0
  0
LINE
  5
3B5
330
1F
100
AcDbEntity
  8
0
  6
SLD-Solid
 62
     8
370
    25
100
AcDbLine
 10
49.70773874061721
 20
36.21079130219891
 30
0.0
 11
49.70773874061724
 21
39.71886301248144
 31
0.0
  0
LINE
  5
3B6
330
1F
100
AcDbEntity
  8
0
  6
SLD-Solid
 62
     8
370
    25
100
AcDbLine
 10
49.70773874061724
 20
40.00753032775598
 30
0.0
 11
49.70773874061727
 21
41.94740323521773
 31
0.0
  0
LINE
  5
3B7
330
1F
100
AcDbEntity
  8
0
  6
SLD-Solid
 62
     8
370
    25
100
AcDbLine
 10
49.47559028575998
 20
42.0814196855865
 30
0.0
 11
44.81301194128736
 21
39.3897705006863
 31
0.0
  0
LINE
  5
3B8
330
1F
100
AcDbEntity
  8
0
  6
SLD-Solid
 62
     8
370
    25
100
AcDbLine
 10
55.57475946977807
 20
13.45045248179794
 30
0.0
 11
55.56978075705445
 21
13.45332663147529
 31
0.0
  0
LINE
  5
3B9
330
1F
100
AcDbEntity
  8
0
  6
SLD-Solid
 62
     8
370
    25
100
AcDbLine
 10
55.53304016968806
 20
13.42636061319545
 30
0.0
 11
55.53304016968806
 21
13.43211674185386
 31
0.0
  0
LINE
  5
3BA
330
1F
100
AcDbEntity
  8
0
  6
SLD-Solid
 62
     8
370
    25
100
AcDbLine
 10
54.79101774693947
 20
13.47432660876028
 30
0.0
 11
54.79101774693946
 21
13.46409464293462
 31
0.0
  0
LWPOLYLINE
  5
3BB
330
1F
100
AcDbEntity
  8
0
  6
SLD-Solid
 62
     8
370
    25
100
AcDbPolyline
 90
       11
 70
   128
 43
0.0
 10
49.3658311171485
 20
39.91624208217832
 10
49.36061663538579
 20
39.91980259430427
 10
49.34526815988967
 20
39.94164072189751
 10
49.33993769028994
 20
39.97347268298699
 10
49.34526815988967
 20
40.0114590732756
 10
49.36061663538579
 20
40.05101817347516
 10
49.3841318641141
 20
40.08737857227142
 10
49.41297756244213
 20
40.11615466894725
 10
49.44367451343437
 20
40.13387564155355
 10
49.47252021176241
 20
40.13840407926034
 10
49.49082095872801
 20
40.1327542977735
  0
LWPOLYLINE
  5
3BC
330
1F
100
AcDbEntity
  8
0
  6
SLD-Solid
 62
     8
370
    25
100
AcDbPolyline
 90
        8
 70
   128
 43
0.0
 10
49.1631609949933
 20
39.97347268298699
 10
49.15783052539356
 20
40.0114590732756
 10
49.14248204989745
 20
40.05101817347516
 10
49.11896682116915
 20
40.08737857227143
 10
49.09012112284111
 20
40.11615466894725
 10
49.05942417184887
 20
40.13387564155357
 10
49.03057847352083
 20
40.13840407926035
 10
49.01227772655523
 20
40.1327542977735
  0
ARC
  5
3BD
330
1F
100
AcDbEntity
  8
0
  6
SLD-Solid
 62
     8
370
    25
100
AcDbCircle
 10
49.10417478306572
 20
39.96568750440779
 30
0.0
 40
0.0594977495631191
100
AcDbArc
 50
303.7935661094428
 51
7.518614283945882
  0
LINE
  5
3BE
330
1F
100
AcDbEntity
  8
0
  6
SLD-Solid
 62
     8
370
    25
100
AcDbLine
 10
57.06820605568207
 20
14.29264343668917
 30
0.0
 11
58.67386076479845
 21
13.36571870326399
 31
0.0
  0
LINE
  5
3BF
330
1F
100
AcDbEntity
  8
0
  6
SLD-Solid
 62
     8
370
    25
100
AcDbLine
 10
57.95704230742783
 20
14.80575768287818
 30
0.0
 11
58.11795462663303
 21
14.71286497827783
 31
0.0
  0
LINE
  5
3C0
330
1F
100
AcDbEntity
  8
0
  6
SLD-Solid
 62
     8
370
    25
100
AcDbLine
 10
58.91335783158625
 20
15.21940480947202
 30
0.0
 11
60.89260422646294
 21
16.36199943242394
 31
0.0
  0
LINE
  5
3C1
330
1F
100
AcDbEntity
  8
0
  6
SLD-Solid
 62
     8
370
    25
100
AcDbLine
 10
60.83603568396801
 20
16.76292627906236
 30
0.0
 11
60.81501339936332
 21
16.77506218564461
 31
0.0
  0
LINE
  5
3C2
330
1F
100
AcDbEntity
  8
0
  6
SLD-Solid
 62
     8
370
    25
100
AcDbLine
 10
58.04034625586887
 20
14.85384802868139
 30
0.0
 11
58.12132952085214
 21
14.80709738492198
 31
0.0
  0
LINE
  5
3C3
330
1F
100
AcDbEntity
  8
0
  6
SLD-Solid
 62
     8
370
    25
100
AcDbLine
 10
60.851217266559
 20
38.68978554655632
 30
0.0
 11
58.91369017177239
 21
37.57127496290323
 31
0.0
  0
LINE
  5
3C4
330
1F
100
AcDbEntity
  8
0
  6
SLD-Solid
 62
     8
370
    25
100
AcDbLine
 10
49.88964794460515
 20
45.01776482129412
 30
0.0
 11
48.28506106610446
 21
44.09145653336198
 31
0.0
  0
LINE
  5
3C5
330
1F
100
AcDbEntity
  8
0
  6
SLD-Solid
 62
     8
370
    25
100
AcDbLine
 10
58.9136901717724
 20
37.47509427129683
 30
0.0
 11
60.89286585597087
 21
38.61764807384311
 31
0.0
  0
LINE
  5
3C6
330
1F
100
AcDbEntity
  8
0
  6
SLD-Solid
 62
     8
370
    25
100
AcDbLine
 10
60.85606300221718
 20
38.73727657999606
 30
0.0
 11
60.85606300221717
 21
38.7497314980354
 31
0.0
  0
LINE
  5
3C7
330
1F
100
AcDbEntity
  8
0
  6
SLD-Solid
 62
     8
370
    25
100
AcDbLine
 10
60.87470521354973
 20
38.71455115992981
 30
0.0
 11
60.87656909887157
 21
38.71347516183678
 31
0.0
  0
LINE
  5
3C8
330
1F
100
AcDbEntity
  8
0
  6
SLD-Solid
 62
     8
370
    25
100
AcDbLine
 10
58.75715794362223
 20
36.75588235938987
 30
0.0
 11
58.75715794362213
 21
14.42705845055317
 31
0.0
  0
LINE
  5
3C9
330
1F
100
AcDbEntity
  8
0
  6
SLD-Solid
 62
     8
370
    25
100
AcDbLine
 10
60.88356945600642
 20
38.68486004424799
 30
0.0
 11
60.88356945600642
 21
38.66118420900513
 31
0.0
  0
LINE
  5
3CA
330
1F
100
AcDbEntity
  8
0
  6
SLD-Solid
 62
     8
370
    25
100
AcDbLine
 10
47.09512864422499
 20
40.7860515257542
 30
0.0
 11
47.09512864422498
 21
43.40369893058327
 31
0.0
  0
LINE
  5
3CB
330
1F
100
AcDbEntity
  8
0
  6
SLD-Solid
 62
     8
370
    25
100
AcDbLine
 10
46.55984881086678
 20
40.47704105542932
 30
0.0
 11
46.55984881086676
 21
43.74945373744303
 31
0.0
  0
LINE
  5
3CC
330
1F
100
AcDbEntity
  8
0
  6
SLD-Solid
 62
     8
370
    25
100
AcDbLine
 10
47.17842582304877
 20
40.83413796354056
 30
0.0
 11
47.17842582304876
 21
43.40369893058327
 31
0.0
  0
INSERT
  5
3D2
102
{ACAD_REACTORS
330
3D9
102
}
330
1F
100
AcDbEntity
  8
NOTES
100
AcDbBlockReference
  2
SW_NOTE_0_2
 10
46.69292605122939
 20
48.88903698929018
 30
0.0
  0
LEADER
  5
3D9
330
1F
100
AcDbEntity
  8
NOTES
100
AcDbLeader
  3
SLDDIMSTYLE4
 73
     2
 76
     3
 10
49.86950445530162
 20
44.09499047868654
 30
0.0
 10
47.19292605122939
 20
48.88903698929018
 30
0.0
 10
46.69292605122939
 20
48.88903698929018
 30
0.0
340
3D2
1001
ACAD
1000
DSTYLE
1002
{
1070
   176
1070
     0
1070
    77
1070
     0
1070
    40
1040
1.0
1070
   147
1040
0.0
1002
}
  0
MTEXT
  5
3DA
330
1F
100
AcDbEntity
  8
NOTES
100
AcDbMText
 10
46.47439970757461
 20
13.98852462847967
 30
0.0
 40
0.7500000000000001
 41
0.0
 71
     1
 72
     1
  1
3D view
  7
SLDTEXTSTYLE1
 73
     1
 44
1.0
  0
ARC
  5
3DB
330
1F
100
AcDbEntity
  8
0
  6
SLD-Solid
 62
     7
370
    25
100
AcDbCircle
 10
21.06736303483011
 20
58.00643595662014
 30
0.0
 40
0.0150000000000006
100
AcDbArc
 50
90.0
 51
180.0
  0
ARC
  5
3DC
330
1F
100
AcDbEntity
  8
0
  6
SLD-Solid
 62
     7
370
    25
100
AcDbCircle
 10
21.20536303483011
 20
58.00643595662014
 30
0.0
 40
0.0150000000000006
100
AcDbArc
 50
0.0
 51
90.0
  0
LINE
  5
3DD
330
1F
100
AcDbEntity
  8
0
  6
SLD-Solid
 62
     7
370
    25
100
AcDbLine
 10
21.22036303483011
 20
57.9263359566187
 30
0.0
 11
21.22036303483011
 21
58.00643595662014
 31
0.0
  0
LINE
  5
3DE
330
1F
100
AcDbEntity
  8
0
  6
SLD-Solid
 62
     7
370
    25
100
AcDbLine
 10
21.05236303483011
 20
58.00643595662014
 30
0.0
 11
21.05236303483011
 21
57.9263359566187
 31
0.0
  0
LINE
  5
3DF
330
1F
100
AcDbEntity
  8
0
  6
SLD-Solid
 62
     7
370
    25
100
AcDbLine
 10
9.220363034830484
 20
57.9263359566187
 30
0.0
 11
9.220363034830482
 21
58.00643595662014
 31
0.0
  0
LINE
  5
3E0
330
1F
100
AcDbEntity
  8
0
  6
SLD-Solid
 62
     7
370
    25
100
AcDbLine
 10
9.052363034830483
 20
58.00643595662014
 30
0.0
 11
9.052363034830481
 21
57.9263359566187
 31
0.0
  0
ARC
  5
3E1
330
1F
100
AcDbEntity
  8
0
  6
SLD-Solid
 62
     7
370
    25
100
AcDbCircle
 10
9.067363034830484
 20
58.00643595662014
 30
0.0
 40
0.0150000000000006
100
AcDbArc
 50
90.0
 51
180.0
  0
ARC
  5
3E2
330
1F
100
AcDbEntity
  8
0
  6
SLD-Solid
 62
     7
370
    25
100
AcDbCircle
 10
9.205363034830482
 20
58.00643595662014
 30
0.0
 40
0.0150000000000006
100
AcDbArc
 50
0.0
 51
90.0
  0
LINE
  5
3E3
330
1F
100
AcDbEntity
  8
0
  6
SLD-Solid
 62
     7
370
    25
100
AcDbLine
 10
15.22036303483011
 20
57.9263359566187
 30
0.0
 11
15.22036303483011
 21
58.00643595662014
 31
0.0
  0
LINE
  5
3E4
330
1F
100
AcDbEntity
  8
0
  6
SLD-Solid
 62
     7
370
    25
100
AcDbLine
 10
15.05236303483011
 20
58.00643595662014
 30
0.0
 11
15.05236303483011
 21
57.9263359566187
 31
0.0
  0
ARC
  5
3E5
330
1F
100
AcDbEntity
  8
0
  6
SLD-Solid
 62
     7
370
    25
100
AcDbCircle
 10
15.06736303483011
 20
58.00643595662014
 30
0.0
 40
0.0150000000000006
100
AcDbArc
 50
90.0
 51
180.0
  0
ARC
  5
3E6
330
1F
100
AcDbEntity
  8
0
  6
SLD-Solid
 62
     7
370
    25
100
AcDbCircle
 10
15.20536303483011
 20
58.00643595662014
 30
0.0
 40
0.0150000000000006
100
AcDbArc
 50
0.0
 51
90.0
  0
LINE
  5
3E7
330
1F
100
AcDbEntity
  8
0
  6
SLD-Solid
 62
     7
370
    25
100
AcDbLine
 10
22.69860687702633
 20
53.50292264125493
 30
0.0
 11
22.70190243271445
 21
53.4987769826509
 31
0.0
  0
LINE
  5
3E8
330
1F
100
AcDbEntity
  8
0
  6
SLD-Solid
 62
     7
370
    25
100
AcDbLine
 10
22.54539798840252
 20
53.68550988468971
 30
0.0
 11
22.69860687702631
 21
53.50292264125493
 31
0.0
  0
ARC
  5
3E9
330
1F
100
AcDbEntity
  8
0
  6
SLD-Solid
 62
     7
370
    25
100
AcDbCircle
 10
22.62200243271442
 20
53.74978864565836
 30
0.0
 40
0.0999999999999979
100
AcDbArc
 50
180.0
 51
219.9999999999997
  0
ARC
  5
3EA
330
1F
100
AcDbEntity
  8
0
  6
SLD-Solid
 62
     7
370
    25
100
AcDbCircle
 10
22.62200243271442
 20
53.85158203488352
 30
0.0
 40
0.1000000000000019
100
AcDbArc
 50
153.2858755421512
 51
180.0
  0
LINE
  5
3EB
330
1F
100
AcDbEntity
  8
0
  6
SLD-Solid
 62
     7
370
    25
100
AcDbLine
 10
7.570623636946499
 20
53.49877698265115
 30
0.0
 11
7.573919192634531
 21
53.50292264125505
 31
0.0
  0
LINE
  5
3EC
330
1F
100
AcDbEntity
  8
0
  6
SLD-Solid
 62
     7
370
    25
100
AcDbLine
 10
7.57391919263454
 20
53.50292264125507
 30
0.0
 11
7.727128081258337
 21
53.68550988468984
 31
0.0
  0
ARC
  5
3ED
330
1F
100
AcDbEntity
  8
0
  6
SLD-Solid
 62
     7
370
    25
100
AcDbCircle
 10
7.650523636946441
 20
53.85158203488364
 30
0.0
 40
0.1000000000000015
100
AcDbArc
 50
0.0
 51
26.71412445777139
  0
ARC
  5
3EE
330
1F
100
AcDbEntity
  8
0
  6
SLD-Solid
 62
     7
370
    25
100
AcDbCircle
 10
7.650523636946441
 20
53.74978864565848
 30
0.0
 40
0.0999999999999988
100
AcDbArc
 50
319.9999999999985
 51
0.0
  0
LINE
  5
3EF
330
1F
100
AcDbEntity
  8
0
  6
SLD-Solid
 62
     7
370
    25
100
AcDbLine
 10
7.597002432714403
 20
53.53043217554895
 30
0.0
 11
7.597002432714392
 21
50.30153595661864
 31
0.0
  0
LINE
  5
3F0
330
1F
100
AcDbEntity
  8
0
  6
SLD-Solid
 62
     7
370
    25
100
AcDbLine
 10
7.847002432714391
 20
50.30153595661864
 30
0.0
 11
7.847002432714405
 21
53.89653595661871
 31
0.0
  0
ARC
  5
3F1
330
1F
100
AcDbEntity
  8
0
  6
SLD-Solid
 62
     7
370
    25
100
AcDbCircle
 10
7.972002432714389
 20
50.30153595661863
 30
0.0
 40
0.3750000000000009
100
AcDbArc
 50
179.9999999999983
 51
240.0735651335178
  0
LWPOLYLINE
  5
3F2
330
1F
100
AcDbEntity
  8
0
  6
SLD-Solid
 62
     7
370
    25
100
AcDbPolyline
 90
        3
 70
   128
 43
0.0
 10
7.851171972979695
 20
49.9465359566182
 10
7.898843561958356
 20
49.93374147646741
 10
7.972002432714407
 20
49.92653595661863
  0
ARC
  5
3F3
330
1F
100
AcDbEntity
  8
0
  6
SLD-Solid
 62
     7
370
    25
100
AcDbCircle
 10
7.972002432714389
 20
50.30153595661863
 30
0.0
 40
0.125
100
AcDbArc
 50
180.0
 51
270.0000000000094
  0
LINE
  5
3F4
330
1F
100
AcDbEntity
  8
0
  6
SLD-Solid
 62
     7
370
    25
100
AcDbLine
 10
22.34700243271452
 20
50.17653595661858
 30
0.0
 11
7.97200243271377
 21
50.17653595661863
 31
0.0
  0
LINE
  5
3F5
330
1F
100
AcDbEntity
  8
0
  6
SLD-Solid
 62
     7
370
    25
100
AcDbLine
 10
22.47200243271462
 20
53.8965359566187
 30
0.0
 11
22.47200243271461
 21
50.30153595661858
 31
0.0
  0
LWPOLYLINE
  5
3F6
330
1F
100
AcDbEntity
  8
0
  6
SLD-Solid
 62
     7
370
    25
100
AcDbPolyline
 90
        3
 70
   128
 43
0.0
 10
22.34700243271452
 20
49.92653595661855
 10
22.42016130347058
 20
49.93374147646733
 10
22.46783289245006
 20
49.94653595661836
  0
ARC
  5
3F7
330
1F
100
AcDbEntity
  8
0
  6
SLD-Solid
 62
     7
370
    25
100
AcDbCircle
 10
22.34700243271455
 20
50.30153595661858
 30
0.0
 40
0.3750000000000602
100
AcDbArc
 50
300.4872105565493
 51
345.5515623157337
  0
ARC
  5
3F8
330
1F
100
AcDbEntity
  8
0
  6
SLD-Solid
 62
     7
370
    25
100
AcDbCircle
 10
22.34700243271455
 20
50.30153595661858
 30
0.0
 40
0.1250000000000497
100
AcDbArc
 50
269.9999999999845
 51
0.0
  0
LINE
  5
3F9
330
1F
100
AcDbEntity
  8
0
  6
SLD-Solid
 62
     7
370
    25
100
AcDbLine
 10
21.08310658868548
 20
58.02143595662014
 30
0.0
 11
21.20536303483011
 21
58.02143595662014
 31
0.0
  0
LINE
  5
3FA
330
1F
100
AcDbEntity
  8
0
  6
SLD-Solid
 62
     7
370
    25
100
AcDbLine
 10
21.06736303483011
 20
58.02143595662014
 30
0.0
 11
21.08310658868548
 21
58.02143595662014
 31
0.0
  0
LINE
  5
3FB
330
1F
100
AcDbEntity
  8
0
  6
SLD-Solid
 62
     7
370
    25
100
AcDbLine
 10
9.067363034830484
 20
58.02143595662014
 30
0.0
 11
9.205363034830482
 21
58.02143595662014
 31
0.0
  0
LINE
  5
3FC
330
1F
100
AcDbEntity
  8
0
  6
SLD-Solid
 62
     7
370
    25
100
AcDbLine
 10
15.06736962295118
 20
58.02143595662014
 30
0.0
 11
15.20536303483011
 21
58.02143595662014
 31
0.0
  0
LINE
  5
3FD
330
1F
100
AcDbEntity
  8
0
  6
SLD-Solid
 62
     7
370
    25
100
AcDbLine
 10
22.74014214771327
 20
50.3006853402709
 30
0.0
 11
22.75190243271444
 21
50.3006853402709
 31
0.0
  0
LINE
  5
3FE
330
1F
100
AcDbEntity
  8
0
  6
SLD-Solid
 62
     7
370
    25
100
AcDbLine
 10
22.72200243271444
 20
50.37553595661839
 30
0.0
 11
22.72200243271444
 21
50.42587496452612
 31
0.0
  0
LINE
  5
3FF
330
1F
100
AcDbEntity
  8
0
  6
SLD-Solid
 62
     7
370
    25
100
AcDbLine
 10
22.52200243271442
 20
53.74978864565836
 30
0.0
 11
22.52200243271442
 21
53.85158203488352
 31
0.0
  0
LINE
  5
400
330
1F
100
AcDbEntity
  8
0
  6
SLD-Solid
 62
     7
370
    25
100
AcDbLine
 10
7.550523636946438
 20
50.42587496229098
 30
0.0
 11
7.550523636946429
 21
50.37553595661822
 31
0.0
  0
LINE
  5
401
330
1F
100
AcDbEntity
  8
0
  6
SLD-Solid
 62
     7
370
    25
100
AcDbLine
 10
7.532383921947656
 20
50.300685340271
 30
0.0
 11
7.520623636946429
 21
50.300685340271
 31
0.0
  0
LINE
  5
402
330
1F
100
AcDbEntity
  8
0
  6
SLD-Solid
 62
     7
370
    25
100
AcDbLine
 10
7.75052363694644
 20
53.85158203488365
 30
0.0
 11
7.75052363694644
 21
53.74978864565848
 31
0.0
  0
LINE
  5
403
330
1F
100
AcDbEntity
  8
0
  6
SLD-Solid
 62
     7
370
    25
100
AcDbLine
 10
7.570623636946499
 20
52.82811897983969
 30
0.0
 11
7.597002432714402
 21
52.86412228209586
 31
0.0
  0
LINE
  5
404
330
1F
100
AcDbEntity
  8
0
  6
SLD-Solid
 62
     7
370
    25
100
AcDbLine
 10
7.570623636946506
 20
53.89653595661871
 30
0.0
 11
7.570623636946484
 21
50.42587496229115
 31
0.0
  0
LINE
  5
405
330
1F
100
AcDbEntity
  8
0
  6
SLD-Solid
 62
     7
370
    25
100
AcDbLine
 10
7.490623636946482
 20
50.42587496229113
 30
0.0
 11
7.570623636946484
 21
50.42587496229115
 31
0.0
  0
LINE
  5
406
330
1F
100
AcDbEntity
  8
0
  6
SLD-Solid
 62
     7
370
    25
100
AcDbLine
 10
7.490623636946505
 20
53.89653595661871
 30
0.0
 11
7.490623636946482
 21
50.42587496229113
 31
0.0
  0
LINE
  5
407
330
1F
100
AcDbEntity
  8
0
  6
SLD-Solid
 62
     7
370
    25
100
AcDbLine
 10
8.112563427041957
 20
49.89653595661864
 30
0.0
 11
22.15996264485416
 21
49.89653595661859
 31
0.0
  0
LINE
  5
408
330
1F
100
AcDbEntity
  8
0
  6
SLD-Solid
 62
     7
370
    25
100
AcDbLine
 10
8.112563427041957
 20
49.97653595661863
 30
0.0
 11
22.15996264485416
 21
49.97653595661859
 31
0.0
  0
LINE
  5
409
330
1F
100
AcDbEntity
  8
0
  6
SLD-Solid
 62
     7
370
    25
100
AcDbLine
 10
22.15996264485416
 20
49.89653595661859
 30
0.0
 11
22.15996264485416
 21
49.97653595661859
 31
0.0
  0
LINE
  5
40A
330
1F
100
AcDbEntity
  8
0
  6
SLD-Solid
 62
     7
370
    25
100
AcDbLine
 10
8.112563427041957
 20
49.97653595661863
 30
0.0
 11
8.112563427041957
 21
49.89653595661864
 31
0.0
  0
LINE
  5
40B
330
1F
100
AcDbEntity
  8
0
  6
SLD-Solid
 62
     7
370
    25
100
AcDbLine
 10
22.78190243271448
 20
50.42587496452627
 30
0.0
 11
22.78190243271446
 21
53.89653595661871
 31
0.0
  0
LINE
  5
40C
330
1F
100
AcDbEntity
  8
0
  6
SLD-Solid
 62
     7
370
    25
100
AcDbLine
 10
22.70190243271448
 20
50.42587496452628
 30
0.0
 11
22.78190243271448
 21
50.42587496452627
 31
0.0
  0
LINE
  5
40D
330
1F
100
AcDbEntity
  8
0
  6
SLD-Solid
 62
     7
370
    25
100
AcDbLine
 10
22.70190243271448
 20
50.42587496452628
 30
0.0
 11
22.70190243271447
 21
53.89653595661871
 31
0.0
  0
ARC
  5
40E
330
1F
100
AcDbEntity
  8
0
  6
SLD-Solid
 62
     7
370
    25
100
AcDbCircle
 10
7.770623636946483
 20
50.17653595661863
 30
0.0
 40
0.2800000000000002
100
AcDbArc
 50
179.9999999999971
 51
270.0000000000008
  0
LINE
  5
40F
330
1F
100
AcDbEntity
  8
0
  6
SLD-Solid
 62
     7
370
    25
100
AcDbLine
 10
7.52062363694648
 20
50.17653595661864
 30
0.0
 11
7.490623636946482
 21
50.17653595661864
 31
0.0
  0
ARC
  5
410
330
1F
100
AcDbEntity
  8
0
  6
SLD-Solid
 62
     7
370
    25
100
AcDbCircle
 10
7.770623636946483
 20
50.17653595661863
 30
0.0
 40
0.2500000000000027
100
AcDbArc
 50
179.9999999999967
 51
270.0000000000008
  0
LINE
  5
411
330
1F
100
AcDbEntity
  8
0
  6
SLD-Solid
 62
     7
370
    25
100
AcDbLine
 10
7.770623636946483
 20
49.92653595661863
 30
0.0
 11
7.770623636946483
 21
49.89653595661864
 31
0.0
  0
LINE
  5
412
330
1F
100
AcDbEntity
  8
0
  6
SLD-Solid
 62
     7
370
    25
100
AcDbLine
 10
7.52062363694648
 20
50.17653595661864
 30
0.0
 11
7.52062363694648
 21
50.42587496229113
 31
0.0
  0
LINE
  5
413
330
1F
100
AcDbEntity
  8
0
  6
SLD-Solid
 62
     7
370
    25
100
AcDbLine
 10
7.490623636946482
 20
50.17653595661864
 30
0.0
 11
7.490623636946482
 21
50.42587496229113
 31
0.0
  0
LINE
  5
414
330
1F
100
AcDbEntity
  8
0
  6
SLD-Solid
 62
     7
370
    25
100
AcDbLine
 10
8.112563427041957
 20
49.92653595661864
 30
0.0
 11
7.770623636946483
 21
49.92653595661863
 31
0.0
  0
LINE
  5
415
330
1F
100
AcDbEntity
  8
0
  6
SLD-Solid
 62
     7
370
    25
100
AcDbLine
 10
8.112563427041957
 20
49.89653595661864
 30
0.0
 11
7.770623636946483
 21
49.89653595661864
 31
0.0
  0
LINE
  5
416
330
1F
100
AcDbEntity
  8
0
  6
SLD-Solid
 62
     7
370
    25
100
AcDbLine
 10
22.50190243271446
 20
49.92653595661859
 30
0.0
 11
22.50190243271446
 21
49.89653595661859
 31
0.0
  0
LINE
  5
417
330
1F
100
AcDbEntity
  8
0
  6
SLD-Solid
 62
     7
370
    25
100
AcDbLine
 10
22.50190243271446
 20
49.92653595661859
 30
0.0
 11
22.15996264485416
 21
49.92653595661859
 31
0.0
  0
LINE
  5
418
330
1F
100
AcDbEntity
  8
0
  6
SLD-Solid
 62
     7
370
    25
100
AcDbLine
 10
22.50190243271446
 20
49.89653595661859
 30
0.0
 11
22.15996264485416
 21
49.89653595661859
 31
0.0
  0
ARC
  5
419
330
1F
100
AcDbEntity
  8
0
  6
SLD-Solid
 62
     7
370
    25
100
AcDbCircle
 10
22.50190243271446
 20
50.17653595661859
 30
0.0
 40
0.2800000000000011
100
AcDbArc
 50
270.0000000000008
 51
0.0000000000018175
  0
ARC
  5
41A
330
1F
100
AcDbEntity
  8
0
  6
SLD-Solid
 62
     7
370
    25
100
AcDbCircle
 10
22.50190243271446
 20
50.17653595661859
 30
0.0
 40
0.25
100
AcDbArc
 50
270.0000000000008
 51
0.0000000000020356
  0
LINE
  5
41B
330
1F
100
AcDbEntity
  8
0
  6
SLD-Solid
 62
     7
370
    25
100
AcDbLine
 10
22.75190243271446
 20
50.17653595661859
 30
0.0
 11
22.78190243271446
 21
50.17653595661859
 31
0.0
  0
LINE
  5
41C
330
1F
100
AcDbEntity
  8
0
  6
SLD-Solid
 62
     7
370
    25
100
AcDbLine
 10
22.78190243271448
 20
50.42587496452627
 30
0.0
 11
22.78190243271446
 21
50.17653595661859
 31
0.0
  0
LINE
  5
41D
330
1F
100
AcDbEntity
  8
0
  6
SLD-Solid
 62
     7
370
    25
100
AcDbLine
 10
22.75190243271448
 20
50.42587496452628
 30
0.0
 11
22.75190243271446
 21
50.17653595661859
 31
0.0
  0
LINE
  5
41E
330
1F
100
AcDbEntity
  8
0
  6
SLD-Solid
 62
     7
370
    25
100
AcDbLine
 10
7.762383921947667
 20
49.94653595661821
 30
0.0
 11
7.762383921947667
 21
49.97653595661821
 31
0.0
  0
ARC
  5
41F
330
1F
100
AcDbEntity
  8
0
  6
SLD-Solid
 62
     7
370
    25
100
AcDbCircle
 10
7.762383921947667
 20
50.1765359566182
 30
0.0
 40
0.2300000000000058
100
AcDbArc
 50
180.0
 51
270.0000000000008
  0
LINE
  5
420
330
1F
100
AcDbEntity
  8
0
  6
SLD-Solid
 62
     7
370
    25
100
AcDbLine
 10
7.562383921947668
 20
50.17653595661822
 30
0.0
 11
7.532383921947662
 21
50.1765359566182
 31
0.0
  0
ARC
  5
421
330
1F
100
AcDbEntity
  8
0
  6
SLD-Solid
 62
     7
370
    25
100
AcDbCircle
 10
7.762383921947667
 20
50.1765359566182
 30
0.0
 40
0.1999999999999993
100
AcDbArc
 50
179.9999999999939
 51
270.0000000000008
  0
LINE
  5
422
330
1F
100
AcDbEntity
  8
0
  6
SLD-Solid
 62
     7
370
    25
100
AcDbLine
 10
7.562383921947659
 20
50.37553595661822
 30
0.0
 11
7.562383921947668
 21
50.17653595661822
 31
0.0
  0
LINE
  5
423
330
1F
100
AcDbEntity
  8
0
  6
SLD-Solid
 62
     7
370
    25
100
AcDbLine
 10
7.532383921947654
 20
50.37553595661821
 30
0.0
 11
7.532383921947662
 21
50.1765359566182
 31
0.0
  0
LINE
  5
424
330
1F
100
AcDbEntity
  8
0
  6
SLD-Solid
 62
     7
370
    25
100
AcDbLine
 10
7.532383921947654
 20
50.37553595661821
 30
0.0
 11
7.562383921947659
 21
50.37553595661822
 31
0.0
  0
LINE
  5
425
330
1F
100
AcDbEntity
  8
0
  6
SLD-Solid
 62
     7
370
    25
100
AcDbLine
 10
8.112563424806773
 20
49.94653595661822
 30
0.0
 11
7.762383921947667
 21
49.94653595661821
 31
0.0
  0
LINE
  5
426
330
1F
100
AcDbEntity
  8
0
  6
SLD-Solid
 62
     7
370
    25
100
AcDbLine
 10
8.112563427041957
 20
49.97653595661863
 30
0.0
 11
7.762383921947667
 21
49.97653595661821
 31
0.0
  0
LINE
  5
427
330
1F
100
AcDbEntity
  8
0
  6
SLD-Solid
 62
     7
370
    25
100
AcDbLine
 10
22.51014214771327
 20
49.94653595661838
 30
0.0
 11
22.51014214771327
 21
49.97653595661838
 31
0.0
  0
LINE
  5
428
330
1F
100
AcDbEntity
  8
0
  6
SLD-Solid
 62
     7
370
    25
100
AcDbLine
 10
22.15996264485416
 20
49.94653595661859
 30
0.0
 11
22.51014214771327
 21
49.94653595661838
 31
0.0
  0
LINE
  5
429
330
1F
100
AcDbEntity
  8
0
  6
SLD-Solid
 62
     7
370
    25
100
AcDbLine
 10
22.15996264485416
 20
49.97653595661859
 30
0.0
 11
22.51014214771327
 21
49.97653595661838
 31
0.0
  0
LINE
  5
42A
330
1F
100
AcDbEntity
  8
0
  6
SLD-Solid
 62
     7
370
    25
100
AcDbLine
 10
22.71014214771327
 20
50.17653595661839
 30
0.0
 11
22.74014214771327
 21
50.17653595661839
 31
0.0
  0
ARC
  5
42B
330
1F
100
AcDbEntity
  8
0
  6
SLD-Solid
 62
     7
370
    25
100
AcDbCircle
 10
22.51014214771327
 20
50.17653595661838
 30
0.0
 40
0.2000000000000028
100
AcDbArc
 50
269.9999999999998
 51
0.0000000000048008
  0
ARC
  5
42C
330
1F
100
AcDbEntity
  8
0
  6
SLD-Solid
 62
     7
370
    25
100
AcDbCircle
 10
22.51014214771327
 20
50.17653595661838
 30
0.0
 40
0.230000000000004
100
AcDbArc
 50
269.9999999999999
 51
0.0000000000028335
  0
LINE
  5
42D
330
1F
100
AcDbEntity
  8
0
  6
SLD-Solid
 62
     7
370
    25
100
AcDbLine
 10
22.71014214771327
 20
50.3755359566184
 30
0.0
 11
22.71014214771327
 21
50.17653595661839
 31
0.0
  0
LINE
  5
42E
330
1F
100
AcDbEntity
  8
0
  6
SLD-Solid
 62
     7
370
    25
100
AcDbLine
 10
22.74014214771327
 20
50.37553595661839
 30
0.0
 11
22.74014214771327
 21
50.17653595661839
 31
0.0
  0
LINE
  5
42F
330
1F
100
AcDbEntity
  8
0
  6
SLD-Solid
 62
     7
370
    25
100
AcDbLine
 10
22.74014214771327
 20
50.37553595661839
 30
0.0
 11
22.71014214771327
 21
50.3755359566184
 31
0.0
  0
LWPOLYLINE
  5
430
330
1F
100
AcDbEntity
  8
0
  6
SLD-Solid
 62
     7
370
    25
100
AcDbPolyline
 90
        3
 70
   128
 43
0.0
 10
7.755036709560726
 20
49.94665333785938
 10
7.769143881763001
 20
49.94346812590103
 10
7.824013034830037
 20
49.93806398601444
  0
LWPOLYLINE
  5
431
330
1F
100
AcDbEntity
  8
0
  6
SLD-Solid
 62
     7
370
    25
100
AcDbPolyline
 90
        3
 70
   128
 43
0.0
 10
22.44851303483006
 20
49.9380639860143
 10
22.50338218789709
 20
49.9434681259009
 10
22.51748935940483
 20
49.94665333768354
  0
LINE
  5
432
330
1F
100
AcDbEntity
  8
0
  6
SLD-Solid
 62
     7
370
    25
100
AcDbLine
 10
7.824013034830037
 20
49.93806398601444
 30
0.0
 11
7.879735826701316
 21
49.93806398601445
 31
0.0
  0
LINE
  5
433
330
1F
100
AcDbEntity
  8
0
  6
SLD-Solid
 62
     7
370
    25
100
AcDbLine
 10
22.43926903872746
 20
49.9380639860143
 30
0.0
 11
22.44851303483006
 21
49.9380639860143
 31
0.0
  0
LINE
  5
434
330
1F
100
AcDbEntity
  8
0
  6
SLD-Solid
 62
     7
370
    25
100
AcDbLine
 10
7.454993034830063
 20
57.89643595662012
 30
0.0
 11
7.455363034830024
 21
57.89643595662012
 31
0.0
  0
LINE
  5
435
330
1F
100
AcDbEntity
  8
0
  6
SLD-Solid
 62
     7
370
    25
100
AcDbLine
 10
7.454993034830063
 20
57.92633595662013
 30
0.0
 11
7.454993034830063
 21
57.89643595662012
 31
0.0
  0
LINE
  5
436
330
1F
100
AcDbEntity
  8
0
  6
SLD-Solid
 62
     7
370
    25
100
AcDbLine
 10
7.455363034830024
 20
57.92633595662013
 30
0.0
 11
7.454993034830063
 21
57.92633595662013
 31
0.0
  0
LINE
  5
437
330
1F
100
AcDbEntity
  8
0
  6
SLD-Solid
 62
     7
370
    25
100
AcDbLine
 10
7.326093034830057
 20
57.71058305153265
 30
0.0
 11
7.326093034830061
 21
54.17643595661863
 31
0.0
  0
LINE
  5
438
330
1F
100
AcDbEntity
  8
0
  6
SLD-Solid
 62
     7
370
    25
100
AcDbLine
 10
7.326463034829922
 20
57.79058305153265
 30
0.0
 11
7.326093034830057
 21
57.79058305153265
 31
0.0
  0
LINE
  5
439
330
1F
100
AcDbEntity
  8
0
  6
SLD-Solid
 62
     7
370
    25
100
AcDbLine
 10
7.326093034830057
 20
57.79058305153265
 30
0.0
 11
7.326093034830057
 21
57.71058305153265
 31
0.0
  0
LINE
  5
43A
330
1F
100
AcDbEntity
  8
0
  6
SLD-Solid
 62
     7
370
    25
100
AcDbLine
 10
7.454993034830088
 20
57.89633595662004
 30
0.0
 11
7.454993034830088
 21
57.89643595662013
 31
0.0
  0
LINE
  5
43B
330
1F
100
AcDbEntity
  8
0
  6
SLD-Solid
 62
     7
370
    25
100
AcDbLine
 10
7.395799623617572
 20
57.82218020663557
 30
0.0
 11
7.395799623617572
 21
57.79058305153265
 31
0.0
  0
ARC
  5
43C
330
1F
100
AcDbEntity
  8
0
  6
SLD-Solid
 62
     7
370
    25
100
AcDbCircle
 10
7.425799623617572
 20
57.82218020663557
 30
0.0
 40
0.0300000000000002
100
AcDbArc
 50
90.0
 51
179.9999999999966
  0
LINE
  5
43D
330
1F
100
AcDbEntity
  8
0
  6
SLD-Solid
 62
     7
370
    25
100
AcDbLine
 10
7.426169623617462
 20
57.85218020663556
 30
0.0
 11
7.425799623617572
 21
57.85218020663556
 31
0.0
  0
LINE
  5
43E
330
1F
100
AcDbEntity
  8
0
  6
SLD-Solid
 62
     7
370
    25
100
AcDbLine
 10
7.45499303483006
 20
57.86643595662004
 30
0.0
 11
7.45499303483006
 21
57.85218020663556
 31
0.0
  0
LINE
  5
43F
330
1F
100
AcDbEntity
  8
0
  6
SLD-Solid
 62
     7
370
    25
100
AcDbLine
 10
23.73153303482991
 20
54.17643595662014
 30
0.0
 11
23.73116303483006
 21
54.17643595662014
 31
0.0
  0
LINE
  5
440
330
1F
100
AcDbEntity
  8
0
  6
SLD-Solid
 62
     7
370
    25
100
AcDbLine
 10
23.73116303483006
 20
54.17633595662004
 30
0.0
 11
23.73116303483006
 21
54.17643595662014
 31
0.0
  0
LINE
  5
441
330
1F
100
AcDbEntity
  8
0
  6
SLD-Solid
 62
     7
370
    25
100
AcDbLine
 10
6.569823034830063
 20
53.89653595662013
 30
0.0
 11
6.570193034829948
 21
53.89653595662013
 31
0.0
  0
LINE
  5
442
330
1F
100
AcDbEntity
  8
0
  6
SLD-Solid
 62
     7
370
    25
100
AcDbLine
 10
6.51092303483006
 20
54.17643595662014
 30
0.0
 11
6.511293034829917
 21
54.17643595662014
 31
0.0
  0
LINE
  5
443
330
1F
100
AcDbEntity
  8
0
  6
SLD-Solid
 62
     7
370
    25
100
AcDbLine
 10
6.51092303483006
 20
53.95543595662014
 30
0.0
 11
6.51092303483006
 21
54.17643595662014
 31
0.0
  0
LWPOLYLINE
  5
444
330
1F
100
AcDbEntity
  8
0
  6
SLD-Solid
 62
     7
370
    25
100
AcDbPolyline
 90
        3
 70
   128
 43
0.0
 10
6.569823034830063
 20
53.89653595662013
 10
6.558332214863313
 20
53.89766770360438
 10
6.551879091435704
 20
53.89933581756665
  0
ARC
  5
445
330
1F
100
AcDbEntity
  8
0
  6
SLD-Solid
 62
     7
370
    25
100
AcDbCircle
 10
6.569823034830063
 20
53.95543595662014
 30
0.0
 40
0.0589000059962648
100
AcDbArc
 50
180.0
 51
247.8063849605566
  0
LINE
  5
446
330
1F
100
AcDbEntity
  8
0
  6
SLD-Solid
 62
     7
370
    25
100
AcDbLine
 10
6.544358568736018
 20
53.95543595662014
 30
0.0
 11
6.544358568736017
 21
54.17643595662013
 31
0.0
  0
LINE
  5
447
330
1F
100
AcDbEntity
  8
0
  6
SLD-Solid
 62
     7
370
    25
100
AcDbLine
 10
6.544728568735844
 20
54.17643595662013
 30
0.0
 11
6.544358568736017
 21
54.17643595662013
 31
0.0
  0
SPLINE
  5
448
330
1F
100
AcDbEntity
  8
0
  6
SLD-Solid
 62
     7
370
    25
100
AcDbSpline
210
0.0
220
0.0
230
1.0
 70
    12
 71
     3
 72
    12
 73
     8
 74
     0
 42
0.00000001
 43
0.00000001
 40
0.0
 40
0.0
 40
0.0
 40
0.0
 40
0.2227005890337912
 40
0.4454287934403932
 40
0.6681571093941633
 40
0.8908852285057975
 40
1.0
 40
1.0
 40
1.0
 40
1.0
 10
6.570193034829947
 20
53.89653595386006
 30
0.0
 41
1.0
 10
6.568302024546759
 20
53.89723700527016
 30
0.0
 41
1.0
 10
6.56451976949087
 20
53.89863919502234
 30
0.0
 41
1.0
 10
6.558845464312704
 20
53.90954509150561
 30
0.0
 41
1.0
 10
6.553174133527562
 20
53.92549084063812
 30
0.0
 41
1.0
 10
6.548457029980693
 20
53.94189116718381
 30
0.0
 41
1.0
 10
6.545651174762966
 20
53.95208430467761
 30
0.0
 41
1.0
 10
6.544728568735851
 20
53.95543595661873
 30
0.0
 41
1.0
  0
LINE
  5
449
330
1F
100
AcDbEntity
  8
0
  6
SLD-Solid
 62
     7
370
    25
100
AcDbLine
 10
6.54472856873585
 20
53.95543595661873
 30
0.0
 11
23.72799750092398
 21
53.95543595661871
 31
0.0
  0
SPLINE
  5
44A
330
1F
100
AcDbEntity
  8
0
  6
SLD-Solid
 62
     7
370
    25
100
AcDbSpline
210
0.0
220
0.0
230
1.0
 70
    12
 71
     3
 72
    12
 73
     8
 74
     0
 42
0.00000001
 43
0.00000001
 40
0.0
 40
0.0
 40
0.0
 40
0.0
 40
0.2227005890336266
 40
0.4454287934403039
 40
0.6681571093941114
 40
0.890885228505783
 40
1.0
 40
1.0
 40
1.0
 40
1.0
 10
23.70253303482994
 20
53.89653595386005
 30
0.0
 41
1.0
 10
23.7044240451131
 20
53.89723700527016
 30
0.0
 41
1.0
 10
23.70820630016895
 20
53.89863919502234
 30
0.0
 41
1.0
 10
23.71388060534713
 20
53.90954509150561
 30
0.0
 41
1.0
 10
23.71955193613227
 20
53.92549084063812
 30
0.0
 41
1.0
 10
23.72426903967914
 20
53.94189116718381
 30
0.0
 41
1.0
 10
23.72707489489687
 20
53.95208430467761
 30
0.0
 41
1.0
 10
23.72799750092398
 20
53.95543595661871
 30
0.0
 41
1.0
  0
LINE
  5
44B
330
1F
100
AcDbEntity
  8
0
  6
SLD-Solid
 62
     7
370
    25
100
AcDbLine
 10
23.70253303482994
 20
53.89653595661873
 30
0.0
 11
6.570193034829947
 21
53.89653595661873
 31
0.0
  0
LINE
  5
44C
330
1F
100
AcDbEntity
  8
0
  6
SLD-Solid
 62
     7
370
    25
100
AcDbLine
 10
23.72799750092398
 20
53.95543595661871
 30
0.0
 11
23.72799750092398
 21
54.17643595661872
 31
0.0
  0
LINE
  5
44D
330
1F
100
AcDbEntity
  8
0
  6
SLD-Solid
 62
     7
370
    25
100
AcDbLine
 10
6.54472856873585
 20
53.95543595661873
 30
0.0
 11
6.544728568735849
 21
54.17643595661873
 31
0.0
  0
LINE
  5
44E
330
1F
100
AcDbEntity
  8
0
  6
SLD-Solid
 62
     7
370
    25
100
AcDbLine
 10
6.544728568735849
 20
54.17643595661873
 30
0.0
 11
23.72799750092398
 21
54.17643595661872
 31
0.0
  0
LINE
  5
44F
330
1F
100
AcDbEntity
  8
0
  6
SLD-Solid
 62
     7
370
    25
100
AcDbLine
 10
23.76143303482991
 20
54.17643595661872
 30
0.0
 11
23.73153303482991
 21
54.17643595661872
 31
0.0
  0
LINE
  5
450
330
1F
100
AcDbEntity
  8
0
  6
SLD-Solid
 62
     7
370
    25
100
AcDbLine
 10
23.76143303482991
 20
53.95543595661871
 30
0.0
 11
23.76143303482991
 21
54.17643595661872
 31
0.0
  0
LINE
  5
451
330
1F
100
AcDbEntity
  8
0
  6
SLD-Solid
 62
     7
370
    25
100
AcDbLine
 10
23.76143303482991
 20
53.95543595661871
 30
0.0
 11
23.73153304082617
 21
53.95543595661871
 31
0.0
  0
LINE
  5
452
330
1F
100
AcDbEntity
  8
0
  6
SLD-Solid
 62
     7
370
    25
100
AcDbLine
 10
23.73153303482991
 20
53.95543595386005
 30
0.0
 11
23.73153303482991
 21
54.17643595661872
 31
0.0
  0
SPLINE
  5
453
330
1F
100
AcDbEntity
  8
0
  6
SLD-Solid
 62
     7
370
    25
100
AcDbSpline
210
0.0
220
0.0
230
1.0
 70
    12
 71
     3
 72
    10
 73
     6
 74
     0
 42
0.00000001
 43
0.00000001
 40
0.0
 40
0.0
 40
0.0
 40
0.0
 40
0.4720112955845789
 40
0.9440225911690384
 40
1.0
 40
1.0
 40
1.0
 40
1.0
 10
23.73153304082617
 20
53.95543595386005
 30
0.0
 41
1.0
 10
23.73104896506317
 20
53.951709088632
 30
0.0
 41
1.0
 10
23.73008081353717
 20
53.94425535817592
 30
0.0
 41
1.0
 10
23.7258550443354
 20
53.93671037807633
 30
0.0
 41
1.0
 10
23.72230025443464
 20
53.93442646847257
 30
0.0
 41
1.0
 10
23.72192337529704
 20
53.9341843281757
 30
0.0
 41
1.0
  0
SPLINE
  5
454
330
1F
100
AcDbEntity
  8
0
  6
SLD-Solid
 62
     7
370
    25
100
AcDbSpline
210
0.0
220
0.0
230
1.0
 70
    12
 71
     3
 72
    11
 73
     7
 74
     0
 42
0.00000001
 43
0.00000001
 40
0.0
 40
0.0
 40
0.0
 40
0.0
 40
0.2500000000000776
 40
0.500000000000133
 40
0.7500000000002042
 40
0.9999999999999999
 40
0.9999999999999999
 40
0.9999999999999999
 40
0.9999999999999999
 10
23.76143304082617
 20
53.95543595101577
 30
0.0
 41
1.0
 10
23.76054768047415
 20
53.94771786890178
 30
0.0
 41
1.0
 10
23.7587769597701
 20
53.93228170467381
 30
0.0
 41
1.0
 10
23.74515637945262
 20
53.9128126079414
 30
0.0
 41
1.0
 10
23.72568728142452
 20
53.89919202947596
 30
0.0
 41
1.0
 10
23.71025111702813
 20
53.8974213102403
 30
0.0
 41
1.0
 10
23.70253303482994
 20
53.89653595062246
 30
0.0
 41
1.0
  0
SPLINE
  5
455
330
1F
100
AcDbEntity
  8
0
  6
SLD-Solid
 62
     7
370
    25
100
AcDbSpline
210
0.0
220
0.0
230
1.0
 70
    12
 71
     3
 72
    11
 73
     7
 74
     0
 42
0.00000001
 43
0.00000001
 40
0.0
 40
0.0
 40
0.0
 40
0.0
 40
0.2499999999999377
 40
0.4999999999998654
 40
0.7499999999998149
 40
1.0
 40
1.0
 40
1.0
 40
1.0
 10
6.511293028833659
 20
53.95543595101577
 30
0.0
 41
1.0
 10
6.512178389185686
 20
53.94771786890178
 30
0.0
 41
1.0
 10
6.513949109889738
 20
53.93228170467383
 30
0.0
 41
1.0
 10
6.527569690207211
 20
53.9128126079414
 30
0.0
 41
1.0
 10
6.54703878823532
 20
53.89919202947596
 30
0.0
 41
1.0
 10
6.562474952631738
 20
53.8974213102403
 30
0.0
 41
1.0
 10
6.570193034829951
 20
53.89653595062247
 30
0.0
 41
1.0
  0
LINE
  5
456
330
1F
100
AcDbEntity
  8
0
  6
SLD-Solid
 62
     7
370
    25
100
AcDbLine
 10
6.511293034829918
 20
53.95543595661873
 30
0.0
 11
6.541193028833659
 21
53.95543595661873
 31
0.0
  0
SPLINE
  5
457
330
1F
100
AcDbEntity
  8
0
  6
SLD-Solid
 62
     7
370
    25
100
AcDbSpline
210
0.0
220
0.0
230
1.0
 70
    12
 71
     3
 72
    10
 73
     6
 74
     0
 42
0.00000001
 43
0.00000001
 40
0.0
 40
0.0
 40
0.0
 40
0.0
 40
0.4720112955845969
 40
0.9440225911691524
 40
1.0
 40
1.0
 40
1.0
 40
1.0
 10
6.541193028833659
 20
53.95543595386006
 30
0.0
 41
1.0
 10
6.541677104596658
 20
53.951709088632
 30
0.0
 41
1.0
 10
6.542645256122658
 20
53.94425535817592
 30
0.0
 41
1.0
 10
6.546871025324434
 20
53.93671037807634
 30
0.0
 41
1.0
 10
6.550425815225192
 20
53.93442646847257
 30
0.0
 41
1.0
 10
6.550802694362792
 20
53.93418432817571
 30
0.0
 41
1.0
  0
LINE
  5
458
330
1F
100
AcDbEntity
  8
0
  6
SLD-Solid
 62
     7
370
    25
100
AcDbLine
 10
6.511293034829918
 20
53.95543595661873
 30
0.0
 11
6.511293034829918
 21
54.17643595661872
 31
0.0
  0
LINE
  5
459
330
1F
100
AcDbEntity
  8
0
  6
SLD-Solid
 62
     7
370
    25
100
AcDbLine
 10
6.511293034829919
 20
54.17643595661872
 30
0.0
 11
6.541193034829919
 21
54.17643595661872
 31
0.0
  0
LINE
  5
45A
330
1F
100
AcDbEntity
  8
0
  6
SLD-Solid
 62
     7
370
    25
100
AcDbLine
 10
6.541193034829918
 20
53.95543595386006
 30
0.0
 11
6.541193034829918
 21
54.17643595661872
 31
0.0
  0
LINE
  5
45B
330
1F
100
AcDbEntity
  8
0
  6
SLD-Solid
 62
     7
370
    25
100
AcDbLine
 10
7.455363034829952
 20
57.86743595661872
 30
0.0
 11
7.455363034829951
 21
57.85218020663415
 31
0.0
  0
LINE
  5
45C
330
1F
100
AcDbEntity
  8
0
  6
SLD-Solid
 62
     7
370
    25
100
AcDbLine
 10
22.81736303482995
 20
57.86743595661871
 30
0.0
 11
7.455363034829952
 21
57.86743595661872
 31
0.0
  0
LINE
  5
45D
330
1F
100
AcDbEntity
  8
0
  6
SLD-Solid
 62
     7
370
    25
100
AcDbLine
 10
22.81736303482995
 20
57.86743595661871
 30
0.0
 11
22.81736303482995
 21
57.85218020663414
 31
0.0
  0
LINE
  5
45E
330
1F
100
AcDbEntity
  8
0
  6
SLD-Solid
 62
     7
370
    25
100
AcDbLine
 10
22.81736303482995
 20
57.85218020663414
 30
0.0
 11
22.84655644604243
 21
57.85218020663414
 31
0.0
  0
ARC
  5
45F
330
1F
100
AcDbEntity
  8
0
  6
SLD-Solid
 62
     7
370
    25
100
AcDbCircle
 10
22.84655644604243
 20
57.82218020663414
 30
0.0
 40
0.0300000000000011
100
AcDbArc
 50
0.0
 51
90.0
  0
LINE
  5
460
330
1F
100
AcDbEntity
  8
0
  6
SLD-Solid
 62
     7
370
    25
100
AcDbLine
 10
22.87655644604244
 20
57.82218020663414
 30
0.0
 11
22.87655644604244
 21
57.79058305153124
 31
0.0
  0
LINE
  5
461
330
1F
100
AcDbEntity
  8
0
  6
SLD-Solid
 62
     7
370
    25
100
AcDbLine
 10
22.87655644604244
 20
57.79058305153124
 30
0.0
 11
22.88736303482996
 21
57.79058305153124
 31
0.0
  0
LINE
  5
462
330
1F
100
AcDbEntity
  8
0
  6
SLD-Solid
 62
     7
370
    25
100
AcDbLine
 10
7.396169623617462
 20
57.79058305153124
 30
0.0
 11
7.385363034829936
 21
57.79058305153124
 31
0.0
  0
LINE
  5
463
330
1F
100
AcDbEntity
  8
0
  6
SLD-Solid
 62
     7
370
    25
100
AcDbLine
 10
7.396169623617462
 20
57.82218020663414
 30
0.0
 11
7.396169623617462
 21
57.79058305153124
 31
0.0
  0
ARC
  5
464
330
1F
100
AcDbEntity
  8
0
  6
SLD-Solid
 62
     7
370
    25
100
AcDbCircle
 10
7.426169623617462
 20
57.82218020663414
 30
0.0
 40
0.0300000000000011
100
AcDbArc
 50
90.0
 51
180.0
  0
LINE
  5
465
330
1F
100
AcDbEntity
  8
0
  6
SLD-Solid
 62
     7
370
    25
100
AcDbLine
 10
7.455363034829951
 20
57.85218020663415
 30
0.0
 11
7.426169623617462
 21
57.85218020663415
 31
0.0
  0
LINE
  5
466
330
1F
100
AcDbEntity
  8
0
  6
SLD-Solid
 62
     7
370
    25
100
AcDbLine
 10
22.94626303482993
 20
57.79058305153124
 30
0.0
 11
22.88736303482996
 21
57.79058305153124
 31
0.0
  0
LINE
  5
467
330
1F
100
AcDbEntity
  8
0
  6
SLD-Solid
 62
     7
370
    25
100
AcDbLine
 10
22.94626303482992
 20
54.17643595661871
 30
0.0
 11
22.94626303482993
 21
57.79058305153124
 31
0.0
  0
LINE
  5
468
330
1F
100
AcDbEntity
  8
0
  6
SLD-Solid
 62
     7
370
    25
100
AcDbLine
 10
7.455363034829952
 20
57.86743595661872
 30
0.0
 11
7.455363034829924
 21
57.92633595661873
 31
0.0
  0
LINE
  5
469
330
1F
100
AcDbEntity
  8
0
  6
SLD-Solid
 62
     7
370
    25
100
AcDbLine
 10
22.81736303482992
 20
57.92633595661872
 30
0.0
 11
7.455363034829924
 21
57.92633595661873
 31
0.0
  0
LINE
  5
46A
330
1F
100
AcDbEntity
  8
0
  6
SLD-Solid
 62
     7
370
    25
100
AcDbLine
 10
22.81736303482995
 20
57.86743595661871
 30
0.0
 11
22.81736303482992
 21
57.92633595661872
 31
0.0
  0
LINE
  5
46B
330
1F
100
AcDbEntity
  8
0
  6
SLD-Solid
 62
     7
370
    25
100
AcDbLine
 10
7.326463034829923
 20
54.17643595661872
 30
0.0
 11
7.326463034829922
 21
57.79058305153125
 31
0.0
  0
LINE
  5
46C
330
1F
100
AcDbEntity
  8
0
  6
SLD-Solid
 62
     7
370
    25
100
AcDbLine
 10
7.326463034829922
 20
57.79058305153125
 30
0.0
 11
7.385363034829936
 21
57.79058305153124
 31
0.0
  0
LINE
  5
46D
330
1F
100
AcDbEntity
  8
0
  6
SLD-Solid
 62
     7
370
    25
100
AcDbLine
 10
6.541193034829918
 20
54.17633595662014
 30
0.0
 11
6.541363034830042
 21
54.17633595662014
 31
0.0
  0
LINE
  5
46E
330
1F
100
AcDbEntity
  8
0
  6
SLD-Solid
 62
     7
370
    25
100
AcDbLine
 10
6.541363034830043
 20
53.95543595662014
 30
0.0
 11
6.541363034830042
 21
54.17633595662014
 31
0.0
  0
ARC
  5
46F
330
1F
100
AcDbEntity
  8
0
  6
SLD-Solid
 62
     7
370
    25
100
AcDbCircle
 10
6.570363034830042
 20
53.95543595662014
 30
0.0
 40
0.0290000000000046
100
AcDbArc
 50
180.0
 51
226.9679812259982
  0
ARC
  5
470
330
1F
100
AcDbEntity
  8
0
  6
SLD-Solid
 62
     7
370
    25
100
AcDbCircle
 10
6.570363034830042
 20
53.95543595662014
 30
0.0
 40
0.0589000000000013
100
AcDbArc
 50
224.1774867562288
 51
270.0000000000008
  0
LWPOLYLINE
  5
471
330
1F
100
AcDbEntity
  8
0
  6
SLD-Solid
 62
     7
370
    25
100
AcDbPolyline
 90
        3
 70
   128
 43
0.0
 10
6.513125149716736
 20
53.94154227072489
 10
6.512594781814292
 20
53.94394513665338
 10
6.511463034830044
 20
53.95543595662014
  0
LINE
  5
472
330
1F
100
AcDbEntity
  8
0
  6
SLD-Solid
 62
     7
370
    25
100
AcDbLine
 10
23.73153303482991
 20
54.17633595662014
 30
0.0
 11
23.73116303483007
 21
54.17633595662014
 31
0.0
  0
LINE
  5
473
330
1F
100
AcDbEntity
  8
0
  6
SLD-Solid
 62
     7
370
    25
100
AcDbLine
 10
23.73116303483007
 20
53.95543595662014
 30
0.0
 11
23.73116303483007
 21
54.17633595662014
 31
0.0
  0
ARC
  5
474
330
1F
100
AcDbEntity
  8
0
  6
SLD-Solid
 62
     7
370
    25
100
AcDbCircle
 10
23.70216303483007
 20
53.95543595662014
 30
0.0
 40
0.0290000000000079
100
AcDbArc
 50
313.6361275579711
 51
0.0
  0
ARC
  5
475
330
1F
100
AcDbEntity
  8
0
  6
SLD-Solid
 62
     7
370
    25
100
AcDbCircle
 10
23.70216303483007
 20
53.95543595662014
 30
0.0
 40
0.0589000000000013
100
AcDbArc
 50
270.0000000000008
 51
0.0
  0
ARC
  5
476
330
1F
100
AcDbEntity
  8
0
  6
SLD-Solid
 62
     7
370
    25
100
AcDbCircle
 10
7.415263034830057
 20
57.83743595662014
 30
0.0
 40
0.0589000000000004
100
AcDbArc
 50
90.0
 51
180.0
  0
LINE
  5
477
330
1F
100
AcDbEntity
  8
0
  6
SLD-Solid
 62
     7
370
    25
100
AcDbLine
 10
22.91616303483006
 20
57.79058305153124
 30
0.0
 11
22.91616303483006
 21
57.83743595662014
 31
0.0
  0
LINE
  5
478
330
1F
100
AcDbEntity
  8
0
  6
SLD-Solid
 62
     7
370
    25
100
AcDbLine
 10
7.356363034830057
 20
57.79058305153125
 30
0.0
 11
7.356363034830057
 21
57.83743595662014
 31
0.0
  0
ARC
  5
479
330
1F
100
AcDbEntity
  8
0
  6
SLD-Solid
 62
     7
370
    25
100
AcDbCircle
 10
22.85726303483006
 20
57.83743595662014
 30
0.0
 40
0.0289999999999999
100
AcDbArc
 50
0.0
 51
90.0
  0
LINE
  5
47A
330
1F
100
AcDbEntity
  8
0
  6
SLD-Solid
 62
     7
370
    25
100
AcDbLine
 10
22.88626303483006
 20
57.79058305153124
 30
0.0
 11
22.88626303483006
 21
57.83743595662014
 31
0.0
  0
LINE
  5
47B
330
1F
100
AcDbEntity
  8
0
  6
SLD-Solid
 62
     7
370
    25
100
AcDbLine
 10
7.386263034830056
 20
57.79058305153124
 30
0.0
 11
7.386263034830057
 21
57.83743595662014
 31
0.0
  0
LINE
  5
47C
330
1F
100
AcDbEntity
  8
0
  6
SLD-Solid
 62
     7
370
    25
100
AcDbLine
 10
7.415263034830057
 20
57.89633595662013
 30
0.0
 11
7.455363034829928
 21
57.89633595662013
 31
0.0
  0
LINE
  5
47D
330
1F
100
AcDbEntity
  8
0
  6
SLD-Solid
 62
     7
370
    25
100
AcDbLine
 10
22.81736303482992
 20
57.89633595662013
 30
0.0
 11
22.85726303483006
 21
57.89633595662013
 31
0.0
  0
ARC
  5
47E
330
1F
100
AcDbEntity
  8
0
  6
SLD-Solid
 62
     7
370
    25
100
AcDbCircle
 10
7.415263034830057
 20
57.83743595662014
 30
0.0
 40
0.0290000000000008
100
AcDbArc
 50
90.0
 51
180.0
  0
LINE
  5
47F
330
1F
100
AcDbEntity
  8
0
  6
SLD-Solid
 62
     7
370
    25
100
AcDbLine
 10
22.85726303483006
 20
57.86643595662014
 30
0.0
 11
22.81736303482995
 21
57.86643595662014
 31
0.0
  0
LINE
  5
480
330
1F
100
AcDbEntity
  8
0
  6
SLD-Solid
 62
     7
370
    25
100
AcDbLine
 10
7.455363034829953
 20
57.86643595662014
 30
0.0
 11
7.415263034830057
 21
57.86643595662014
 31
0.0
  0
ARC
  5
481
330
1F
100
AcDbEntity
  8
0
  6
SLD-Solid
 62
     7
370
    25
100
AcDbCircle
 10
22.85726303483006
 20
57.83743595662014
 30
0.0
 40
0.0588999999999977
100
AcDbArc
 50
0.0
 51
90.0
  0
LINE
  5
482
330
1F
100
AcDbEntity
  8
0
  6
SLD-Solid
 62
     8
370
    25
100
AcDbLine
 10
21.07152910039317
 20
58.00643595662014
 30
0.0
 11
21.05236303483011
 21
58.00643595662014
 31
0.0
  0
LINE
  5
483
330
1F
100
AcDbEntity
  8
0
  6
SLD-Solid
 62
     8
370
    25
100
AcDbLine
 10
21.22036303483011
 20
58.00643595662014
 30
0.0
 11
21.07152910039317
 21
58.00643595662014
 31
0.0
  0
LINE
  5
484
330
1F
100
AcDbEntity
  8
0
  6
SLD-Solid
 62
     8
370
    25
100
AcDbLine
 10
9.220363034830482
 20
58.00643595662014
 30
0.0
 11
9.052363034830483
 21
58.00643595662014
 31
0.0
  0
LINE
  5
485
330
1F
100
AcDbEntity
  8
0
  6
SLD-Solid
 62
     8
370
    25
100
AcDbLine
 10
15.22036303483011
 20
58.00643595662014
 30
0.0
 11
15.05237105515141
 21
58.00643595662014
 31
0.0
  0
LINE
  5
486
330
1F
100
AcDbEntity
  8
0
  6
SLD-Solid
 62
     8
370
    25
100
AcDbLine
 10
22.69860687702631
 20
53.50292264125493
 30
0.0
 11
22.69860687702632
 21
53.89653595661871
 31
0.0
  0
LINE
  5
487
330
1F
100
AcDbEntity
  8
0
  6
SLD-Solid
 62
     8
370
    25
100
AcDbLine
 10
22.54539798840252
 20
53.89653595661871
 30
0.0
 11
22.54539798840252
 21
53.68550988468971
 31
0.0
  0
LINE
  5
488
330
1F
100
AcDbEntity
  8
0
  6
SLD-Solid
 62
     8
370
    25
100
AcDbLine
 10
7.573919192634548
 20
53.89653595661871
 30
0.0
 11
7.57391919263454
 21
53.50292264125505
 31
0.0
  0
LINE
  5
489
330
1F
100
AcDbEntity
  8
0
  6
SLD-Solid
 62
     8
370
    25
100
AcDbLine
 10
7.727128081258337
 20
53.68550988468984
 30
0.0
 11
7.727128081258341
 21
53.8965359566187
 31
0.0
  0
LINE
  5
48A
330
1F
100
AcDbEntity
  8
0
  6
SLD-Solid
 62
     8
370
    25
100
AcDbLine
 10
7.570623636946499
 20
53.08042720947088
 30
0.0
 11
7.597002432714402
 21
53.08042720947088
 31
0.0
  0
LINE
  5
48B
330
1F
100
AcDbEntity
  8
0
  6
SLD-Solid
 62
     8
370
    25
100
AcDbLine
 10
7.570623636946495
 20
52.88282723757737
 30
0.0
 11
7.597002432714402
 21
53.0571566456821
 31
0.0
  0
LINE
  5
48C
330
1F
100
AcDbEntity
  8
0
  6
SLD-Solid
 62
     8
370
    25
100
AcDbLine
 10
7.84700243271439
 20
50.30153595661863
 30
0.0
 11
7.597002432714389
 21
50.30153595661864
 31
0.0
  0
LINE
  5
48D
330
1F
100
AcDbEntity
  8
0
  6
SLD-Solid
 62
     8
370
    25
100
AcDbLine
 10
7.972002432714408
 20
50.17653595661863
 30
0.0
 11
7.97200243271441
 21
49.97653595661821
 31
0.0
  0
LINE
  5
48E
330
1F
100
AcDbEntity
  8
0
  6
SLD-Solid
 62
     8
370
    25
100
AcDbLine
 10
7.97200243271441
 20
49.94653595661821
 30
0.0
 11
7.972002432714408
 21
49.92653595661863
 31
0.0
  0
LINE
  5
48F
330
1F
100
AcDbEntity
  8
0
  6
SLD-Solid
 62
     8
370
    25
100
AcDbLine
 10
22.34700243271452
 20
49.92653595661858
 30
0.0
 11
22.34700243271452
 21
49.94653595661838
 31
0.0
  0
LINE
  5
490
330
1F
100
AcDbEntity
  8
0
  6
SLD-Solid
 62
     8
370
    25
100
AcDbLine
 10
22.34700243271452
 20
49.97653595661837
 30
0.0
 11
22.34700243271452
 21
50.17653595661858
 31
0.0
  0
LINE
  5
491
330
1F
100
AcDbEntity
  8
0
  6
SLD-Solid
 62
     8
370
    25
100
AcDbLine
 10
22.71014214771327
 20
50.30153595661858
 30
0.0
 11
22.47200243271461
 21
50.30153595661859
 31
0.0
  0
LINE
  5
492
330
1F
100
AcDbEntity
  8
0
  6
SLD-Solid
 62
     8
370
    25
100
AcDbLine
 10
7.326093034830057
 20
57.71058305153265
 30
0.0
 11
7.326463034829922
 21
57.71058305153265
 31
0.0
  0
LINE
  5
493
330
1F
100
AcDbEntity
  8
0
  6
SLD-Solid
 62
     8
370
    25
100
AcDbLine
 10
6.569823034830063
 20
53.89653843205407
 30
0.0
 11
6.569823034830063
 21
53.89653595662013
 31
0.0
  0
LINE
  5
494
330
1F
100
AcDbEntity
  8
0
  6
SLD-Solid
 62
     8
370
    25
100
AcDbLine
 10
6.511293034829918
 20
53.95543595662014
 30
0.0
 11
6.51092303483006
 21
53.95543595662014
 31
0.0
  0
LINE
  5
495
330
1F
100
AcDbEntity
  8
0
  6
SLD-Solid
 62
     8
370
    25
100
AcDbLine
 10
6.544728568735851
 20
53.95543595662014
 30
0.0
 11
6.54435856873602
 21
53.95543595662014
 31
0.0
  0
LINE
  5
496
330
1F
100
AcDbEntity
  8
0
  6
SLD-Solid
 62
     8
370
    25
100
AcDbLine
 10
22.88736303482996
 20
57.79058305153124
 30
0.0
 11
22.88736303482996
 21
54.17643595661871
 31
0.0
  0
LINE
  5
497
330
1F
100
AcDbEntity
  8
0
  6
SLD-Solid
 62
     8
370
    25
100
AcDbLine
 10
7.385363034829936
 20
57.79058305153124
 30
0.0
 11
7.385363034829935
 21
54.17643595661872
 31
0.0
  0
LINE
  5
498
330
1F
100
AcDbEntity
  8
0
  6
SLD-Solid
 62
     8
370
    25
100
AcDbLine
 10
23.73116303483007
 20
53.95543595662014
 30
0.0
 11
23.73153303482991
 21
53.95543595662014
 31
0.0
  0
DIMENSION
  5
499
330
1F
100
AcDbEntity
  8
DIMS
100
AcDbDimension
  2
_D_10
 10
7.326463034829922
 20
59.02869816134459
 30
0.0
 11
15.13636303482992
 21
59.0286981613446
 31
0.0
 70
    32
  1
<>
 71
     2
 42
-1.0
  3
SLDDIMSTYLE1
100
AcDbAlignedDimension
 13
22.94626303482993
 23
57.79058305153115
 33
0.0
 14
7.326463034829922
 24
57.79058305153115
 34
0.0
 50
0.0000000000000521
100
AcDbRotatedDimension
  0
DIMENSION
  5
4A8
330
1F
100
AcDbEntity
  8
DIMS
100
AcDbDimension
  2
_D_11
 10
23.76143303482992
 20
59.0286981613446
 30
0.0
 11
26.06988659267465
 21
59.0286981613446
 31
0.0
 70
    32
  1
<>
 71
     2
 42
-1.0
  3
SLDDIMSTYLE3
100
AcDbAlignedDimension
 13
22.94626303482993
 23
57.79058305153115
 33
0.0
 14
23.76143303482991
 24
54.17643595661862
 34
0.0
 50
-0.0000000000004994
100
AcDbRotatedDimension
  0
MTEXT
  5
4B6
330
1F
100
AcDbEntity
  8
NOTES
100
AcDbMText
 10
7.247872742153596
 20
49.21773589880342
 30
0.0
 40
0.7500000000000001
 41
0.0
 71
     1
 72
     1
  1
Top view
  7
SLDTEXTSTYLE1
 73
     1
 44
1.0
  0
MTEXT
  5
4BA
330
1F
100
AcDbEntity
  8
NOTES
100
AcDbMText
 10
57.76613155701668
 20
4.861500874567167
 30
0.0
 40
0.2916666666666666
 41
0.0
 71
     1
 72
     1
  1
FROST PRODUCTS LTD.
  7
SLDTEXTSTYLE0
 73
     1
 44
1.0
  0
MTEXT
  5
4BB
330
1F
100
AcDbEntity
  8
NOTES
100
AcDbMText
 10
57.76613155701668
 20
4.436008512941706
 30
0.0
 40
0.2291666666666666
 41
0.0
 71
     1
 72
     1
  1
5280 JOHN LUCAS DRIVE, BURLINGTON, ON, L7L 5Z9
  7
SLDTEXTSTYLE0
 73
     1
 44
1.0
  0
ENDSEC
  0
SECTION
  2
OBJECTS
  0
DICTIONARY
  5
C
330
0
100
AcDbDictionary
281
     1
  3
ACAD_COLOR
350
6C
  3
ACAD_GROUP
350
D
  3
ACAD_LAYOUT
350
1A
  3
ACAD_MATERIAL
350
6B
  3
ACAD_MLINESTYLE
350
17
  3
ACAD_PLOTSETTINGS
350
19
  3
ACAD_PLOTSTYLENAME
350
E
  3
ACAD_SCALELIST
350
47
  3
ACAD_TABLESTYLE
350
92
  3
AcDbVariableDictionary
350
59
  0
DICTIONARY
  5
6C
102
{ACAD_REACTORS
330
C
102
}
330
C
100
AcDbDictionary
281
     1
  0
DICTIONARY
  5
D
102
{ACAD_REACTORS
330
C
102
}
330
C
100
AcDbDictionary
281
     1
  0
DICTIONARY
  5
1A
102
{ACAD_REACTORS
330
C
102
}
330
C
100
AcDbDictionary
281
     1
  3
Layout1
350
74
  3
Layout2
350
26
  3
Model
350
22
  0
DICTIONARY
  5
6B
102
{ACAD_REACTORS
330
C
102
}
330
C
100
AcDbDictionary
281
     1
  0
DICTIONARY
  5
17
102
{ACAD_REACTORS
330
C
102
}
330
C
100
AcDbDictionary
281
     1
  3
Standard
350
18
  0
DICTIONARY
  5
19
102
{ACAD_REACTORS
330
C
102
}
330
C
100
AcDbDictionary
281
     1
  0
ACDBDICTIONARYWDFLT
  5
E
102
{ACAD_REACTORS
330
C
102
}
330
C
100
AcDbDictionary
281
     1
  3
Normal
350
F
100
AcDbDictionaryWithDefault
340
F
  0
DICTIONARY
  5
47
102
{ACAD_REACTORS
330
C
102
}
330
C
100
AcDbDictionary
281
     1
  3
A0
350
48
  3
A1
350
49
  3
A2
350
4A
  3
A3
350
4B
  3
A4
350
4C
  3
A5
350
4D
  3
A6
350
4E
  3
A7
350
4F
  3
A8
350
50
  3
A9
350
51
  3
B0
350
52
  3
B1
350
53
  3
B2
350
54
  3
B3
350
55
  3
B4
350
56
  3
B5
350
57
  3
B6
350
58
  3
B7
350
4D2
  3
B8
350
4D3
  3
B9
350
5B
  3
C0
350
5C
  3
C1
350
5D
  3
C2
350
4D4
  3
C3
350
5F
  3
C4
350
60
  3
C5
350
61
  3
C6
350
62
  3
C7
350
63
  3
C8
350
64
  3
C9
350
65
  3
D0
350
66
  3
D1
350
67
  3
D2
350
68
  0
DICTIONARY
  5
92
102
{ACAD_REACTORS
330
C
102
}
330
C
100
AcDbDictionary
281
     1
  3
Standard
350
93
  0
DICTIONARY
  5
59
102
{ACAD_REACTORS
330
C
102
}
330
C
100
AcDbDictionary
281
     1
  3
CTABLESTYLE
350
98
  3
HIDETEXT
350
4B9
  0
LAYOUT
  5
74
102
{ACAD_REACTORS
330
1A
102
}
330
1A
100
AcDbPlotSettings
  1

  2
none_device
  4

  6

 40
0.0
 41
0.0
 42
0.0
 43
0.0
 44
0.0
 45
0.0
 46
0.0
 47
0.0
 48
0.0
 49
0.0
140
0.0
141
0.0
142
1.0
143
1.0
 70
   688
 72
     0
 73
     0
 74
     5
  7

 75
    16
 76
     0
 77
     2
 78
   300
147
1.0
148
0.0
149
0.0
100
AcDbLayout
  1
Layout1
 70
     1
 71
     1
 10
0.0
 20
0.0
 11
12.0
 21
9.0
 12
0.0
 22
0.0
 32
0.0
 14
1.000000000000000E+20
 24
1.000000000000000E+20
 34
1.000000000000000E+20
 15
-1.000000000000000E+20
 25
-1.000000000000000E+20
 35
-1.000000000000000E+20
146
0.0
 13
0.0
 23
0.0
 33
0.0
 16
1.0
 26
0.0
 36
0.0
 17
0.0
 27
1.0
 37
0.0
 76
     0
330
73
  0
LAYOUT
  5
26
102
{ACAD_REACTORS
330
1A
102
}
330
1A
100
AcDbPlotSettings
  1

  2
none_device
  4

  6

 40
0.0
 41
0.0
 42
0.0
 43
0.0
 44
0.0
 45
0.0
 46
0.0
 47
0.0
 48
0.0
 49
0.0
140
0.0
141
0.0
142
1.0
143
1.0
 70
   688
 72
     0
 73
     0
 74
     5
  7

 75
    16
 76
     0
 77
     2
 78
   300
147
1.0
148
0.0
149
0.0
100
AcDbLayout
  1
Layout2
 70
     1
 71
     2
 10
0.0
 20
0.0
 11
0.0
 21
0.0
 12
0.0
 22
0.0
 32
0.0
 14
0.0
 24
0.0
 34
0.0
 15
0.0
 25
0.0
 35
0.0
146
0.0
 13
0.0
 23
0.0
 33
0.0
 16
1.0
 26
0.0
 36
0.0
 17
0.0
 27
1.0
 37
0.0
 76
     0
330
23
  0
LAYOUT
  5
22
102
{ACAD_REACTORS
330
1A
102
}
330
1A
100
AcDbPlotSettings
  1

  2
none_device
  4
Letter_(8.50_x_11.00_Inches)
  6

 40
6.35
 41
6.35
 42
6.35000508
 43
6.35000508
 44
215.9
 45
279.4
 46
0.0
 47
0.0
 48
0.0
 49
0.0
140
0.0
141
0.0
142
1.0
143
1.0
 70
 11952
 72
     0
 73
     0
 74
     0
  7

 75
     0
 76
     0
 77
     2
 78
   300
147
1.0
148
0.0
149
0.0
100
AcDbLayout
  1
Model
 70
     1
 71
     0
 10
0.0
 20
0.0
 11
67.375
 21
74.0
 12
0.0
 22
0.0
 32
0.0
 14
4.839343957990335
 24
0.3386772425222314
 34
-13.22665514514944
 15
67.0
 25
60.01656031643719
 35
1.127629449660301
146
0.0
 13
0.0
 23
0.0
 33
0.0
 16
1.0
 26
0.0
 36
0.0
 17
0.0
 27
1.0
 37
0.0
 76
     0
330
1F
  0
MLINESTYLE
  5
18
102
{ACAD_REACTORS
330
17
102
}
330
17
100
AcDbMlineStyle
  2
Standard
 70
     0
  3

 62
   256
 51
90.0
 52
90.0
 71
     2
 49
0.5
 62
   256
  6
BYLAYER
 49
-0.5
 62
   256
  6
BYLAYER
  0
ACDBPLACEHOLDER
  5
F
102
{ACAD_REACTORS
330
E
102
}
330
E
  0
ACAD_PROXY_OBJECT
  5
48
102
{ACAD_REACTORS
330
47
102
}
330
47
100
AcDbProxyObject
 90
      499
 91
      505
 95
   393239
 70
     0
 93
       41
310
903313A31580
  0
ACAD_PROXY_OBJECT
  5
49
102
{ACAD_REACTORS
330
47
102
}
330
47
100
AcDbProxyObject
 90
      499
 91
      505
 95
   393239
 70
     0
 93
      105
310
903313A324000000000000004000
  0
ACAD_PROXY_OBJECT
  5
4A
102
{ACAD_REACTORS
330
47
102
}
330
47
100
AcDbProxyObject
 90
      499
 91
      505
 95
   393239
 70
     0
 93
      105
310
903313A344000000000000104000
  0
ACAD_PROXY_OBJECT
  5
4B
102
{ACAD_REACTORS
330
47
102
}
330
47
100
AcDbProxyObject
 90
      499
 91
      505
 95
   393239
 70
     0
 93
      105
310
903313A354000000000000144000
  0
ACAD_PROXY_OBJECT
  5
4C
102
{ACAD_REACTORS
330
47
102
}
330
47
100
AcDbProxyObject
 90
      499
 91
      505
 95
   393239
 70
     0
 93
      105
310
903313A384000000000000204000
  0
ACAD_PROXY_OBJECT
  5
4D
102
{ACAD_REACTORS
330
47
102
}
330
47
100
AcDbProxyObject
 90
      499
 91
      505
 95
   393239
 70
     0
 93
      113
310
904313A31304000000000000244000
  0
ACAD_PROXY_OBJECT
  5
4E
102
{ACAD_REACTORS
330
47
102
}
330
47
100
AcDbProxyObject
 90
      499
 91
      505
 95
   393239
 70
     0
 93
      113
310
904313A31364000000000000304000
  0
ACAD_PROXY_OBJECT
  5
4F
102
{ACAD_REACTORS
330
47
102
}
330
47
100
AcDbProxyObject
 90
      499
 91
      505
 95
   393239
 70
     0
 93
      113
310
904313A32304000000000000344000
  0
ACAD_PROXY_OBJECT
  5
50
102
{ACAD_REACTORS
330
47
102
}
330
47
100
AcDbProxyObject
 90
      499
 91
      505
 95
   393239
 70
     0
 93
      113
310
904313A333040000000000003E4000
  0
ACAD_PROXY_OBJECT
  5
51
102
{ACAD_REACTORS
330
47
102
}
330
47
100
AcDbProxyObject
 90
      499
 91
      505
 95
   393239
 70
     0
 93
      113
310
904313A34304000000000000444000
  0
ACAD_PROXY_OBJECT
  5
52
102
{ACAD_REACTORS
330
47
102
}
330
47
100
AcDbProxyObject
 90
      499
 91
      505
 95
   393239
 70
     0
 93
      113
310
904313A35304000000000000494000
  0
ACAD_PROXY_OBJECT
  5
53
102
{ACAD_REACTORS
330
47
102
}
330
47
100
AcDbProxyObject
 90
      499
 91
      505
 95
   393239
 70
     0
 93
      121
310
905313A3130304000000000000594000
  0
ACAD_PROXY_OBJECT
  5
54
102
{ACAD_REACTORS
330
47
102
}
330
47
100
AcDbProxyObject
 90
      499
 91
      505
 95
   393239
 70
     0
 93
      105
310
903323A310000000000000010100
  0
ACAD_PROXY_OBJECT
  5
55
102
{ACAD_REACTORS
330
47
102
}
330
47
100
AcDbProxyObject
 90
      499
 91
      505
 95
   393239
 70
     0
 93
      105
310
903343A310000000000000410100
  0
ACAD_PROXY_OBJECT
  5
56
102
{ACAD_REACTORS
330
47
102
}
330
47
100
AcDbProxyObject
 90
      499
 91
      505
 95
   393239
 70
     0
 93
      105
310
903383A310000000000000810100
  0
ACAD_PROXY_OBJECT
  5
57
102
{ACAD_REACTORS
330
47
102
}
330
47
100
AcDbProxyObject
 90
      499
 91
      505
 95
   393239
 70
     0
 93
      113
310
90431303A310000000000000910100
  0
ACAD_PROXY_OBJECT
  5
58
102
{ACAD_REACTORS
330
47
102
}
330
47
100
AcDbProxyObject
 90
      499
 91
      505
 95
   393239
 70
     0
 93
      121
310
9053130303A310000000000001650100
  0
ACAD_PROXY_OBJECT
  5
4D2
102
{ACAD_REACTORS
330
47
102
}
330
47
100
AcDbProxyObject
 90
      499
 91
      505
 95
   393239
 70
     0
 93
      257
310
90E312F31323822203D2031272D3022000000000000200FC000000000000284000
  0
ACAD_PROXY_OBJECT
  5
4D3
102
{ACAD_REACTORS
330
47
102
}
330
47
100
AcDbProxyObject
 90
      499
 91
      505
 95
   393239
 70
     0
 93
      249
310
90D312F363422203D2031272D3022000000000000240FC000000000000284000
  0
ACAD_PROXY_OBJECT
  5
5B
102
{ACAD_REACTORS
330
47
102
}
330
47
100
AcDbProxyObject
 90
      499
 91
      505
 95
   393239
 70
     0
 93
      249
310
90D312F333222203D2031272D3022000000000000280FC000000000000284000
  0
ACAD_PROXY_OBJECT
  5
5C
102
{ACAD_REACTORS
330
47
102
}
330
47
100
AcDbProxyObject
 90
      499
 91
      505
 95
   393239
 70
     0
 93
      249
310
90D312F313622203D2031272D30220000000000002C0FC000000000000284000
  0
ACAD_PROXY_OBJECT
  5
5D
102
{ACAD_REACTORS
330
47
102
}
330
47
100
AcDbProxyObject
 90
      499
 91
      505
 95
   393239
 70
     0
 93
      249
310
90D332F333222203D2031272D30220000000000002E0FC000000000000284000
  0
ACAD_PROXY_OBJECT
  5
4D4
102
{ACAD_REACTORS
330
47
102
}
330
47
100
AcDbProxyObject
 90
      499
 91
      505
 95
   393239
 70
     0
 93
      241
310
90C312F3822203D2031272D3022000000000000300FC000000000000284000
  0
ACAD_PROXY_OBJECT
  5
5F
102
{ACAD_REACTORS
330
47
102
}
330
47
100
AcDbProxyObject
 90
      499
 91
      505
 95
   393239
 70
     0
 93
      249
310
90D332F313622203D2031272D3022000000000000320FC000000000000284000
  0
ACAD_PROXY_OBJECT
  5
60
102
{ACAD_REACTORS
330
47
102
}
330
47
100
AcDbProxyObject
 90
      499
 91
      505
 95
   393239
 70
     0
 93
      241
310
90C312F3422203D2031272D3022000000000000340FC000000000000284000
  0
ACAD_PROXY_OBJECT
  5
61
102
{ACAD_REACTORS
330
47
102
}
330
47
100
AcDbProxyObject
 90
      499
 91
      505
 95
   393239
 70
     0
 93
      241
310
90C332F3822203D2031272D3022000000000000360FC000000000000284000
  0
ACAD_PROXY_OBJECT
  5
62
102
{ACAD_REACTORS
330
47
102
}
330
47
100
AcDbProxyObject
 90
      499
 91
      505
 95
   393239
 70
     0
 93
      241
310
90C312F3222203D2031272D3022000000000000380FC000000000000284000
  0
ACAD_PROXY_OBJECT
  5
63
102
{ACAD_REACTORS
330
47
102
}
330
47
100
AcDbProxyObject
 90
      499
 91
      505
 95
   393239
 70
     0
 93
      241
310
90C332F3422203D2031272D30220000000000003A0FC000000000000284000
  0
ACAD_PROXY_OBJECT
  5
64
102
{ACAD_REACTORS
330
47
102
}
330
47
100
AcDbProxyObject
 90
      499
 91
      505
 95
   393239
 70
     0
 93
      161
310
90A3122203D2031272D30224000000000000284000
  0
ACAD_PROXY_OBJECT
  5
65
102
{ACAD_REACTORS
330
47
102
}
330
47
100
AcDbProxyObject
 90
      499
 91
      505
 95
   393239
 70
     0
 93
      257
310
90E312D312F3222203D2031272D30220000000000003E0FC000000000000284000
  0
ACAD_PROXY_OBJECT
  5
66
102
{ACAD_REACTORS
330
47
102
}
330
47
100
AcDbProxyObject
 90
      499
 91
      505
 95
   393239
 70
     0
 93
      225
310
90A3322203D2031272D302200000000000002100000000000000284000
  0
ACAD_PROXY_OBJECT
  5
67
102
{ACAD_REACTORS
330
47
102
}
330
47
100
AcDbProxyObject
 90
      499
 91
      505
 95
   393239
 70
     0
 93
      225
310
90A3622203D2031272D302200000000000006100000000000000284000
  0
ACAD_PROXY_OBJECT
  5
68
102
{ACAD_REACTORS
330
47
102
}
330
47
100
AcDbProxyObject
 90
      499
 91
      505
 95
   393239
 70
     0
 93
      249
310
90D31272D3022203D2031272D30220000000000000A100000000000000284000
  0
TABLESTYLE
  5
93
102
{ACAD_REACTORS
330
92
102
}
330
92
100
AcDbTableStyle
  3
Standard
 70
     0
 71
     0
 40
0.06
 41
0.06
280
     0
281
     0
  7
Standard
140
0.18
170
     2
 62
     0
 63
     7
283
     0
274
    -2
284
     1
 64
     0
275
    -2
285
     1
 65
     0
276
    -2
286
     1
 66
     0
277
    -2
287
     1
 67
     0
278
    -2
288
     1
 68
     0
279
    -2
289
     1
 69
     0
  7
Standard
140
0.25
170
     5
 62
     0
 63
     7
283
     0
274
    -2
284
     1
 64
     0
275
    -2
285
     1
 65
     0
276
    -2
286
     1
 66
     0
277
    -2
287
     1
 67
     0
278
    -2
288
     1
 68
     0
279
    -2
289
     1
 69
     0
  7
Standard
140
0.18
170
     5
 62
     0
 63
     7
283
     0
274
    -2
284
     1
 64
     0
275
    -2
285
     1
 65
     0
276
    -2
286
     1
 66
     0
277
    -2
287
     1
 67
     0
278
    -2
288
     1
 68
     0
279
    -2
289
     1
 69
     0
  0
DICTIONARYVAR
  5
98
102
{ACAD_REACTORS
330
59
102
}
330
59
100
DictionaryVariables
280
     0
  1
STANDARD
  0
DICTIONARYVAR
  5
4B9
102
{ACAD_REACTORS
330
59
102
}
330
59
100
DictionaryVariables
280
     0
  1
2
  0
ENDSEC
  0
EOF
