  0
SECTION
  2
HEADER
  9
$ACADVER
  1
AC1018
  9
$ACADMAINTVER
 70
    39
  9
$DWGCODEPAGE
  3
ANSI_1252
  9
$LASTSAVEDBY
  1
fottrem
  9
$INSBASE
 10
0.0
 20
0.0
 30
0.0
  9
$EXTMIN
 10
0.1653543307086614
 20
0.1653543307086614
 30
-12.1354702060702
  9
$EXTMAX
 10
69.83464566929135
 20
79.83464566929135
 30
5.661532101351726
  9
$LIMMIN
 10
0.0
 20
0.0
  9
$LIMMAX
 10
70.0
 20
80.0
  9
$ORTHOMODE
 70
     0
  9
$REGENMODE
 70
     1
  9
$FILLMODE
 70
     1
  9
$QTEXTMODE
 70
     0
  9
$MIRRTEXT
 70
     1
  9
$LTSCALE
 40
1.0
  9
$ATTMODE
 70
     1
  9
$TEXTSIZE
 40
0.5
  9
$TRACEWID
 40
0.05
  9
$TEXTSTYLE
  7
Standard
  9
$CLAYER
  8
0
  9
$CELTYPE
  6
ByLayer
  9
$CECOLOR
 62
   256
  9
$CELTSCALE
 40
1.0
  9
$DISPSILH
 70
     0
  9
$DIMSCALE
 40
1.0
  9
$DIMASZ
 40
0.3
  9
$DIMEXO
 40
0.1666666666666667
  9
$DIMDLI
 40
0.38
  9
$DIMRND
 40
0.0
  9
$DIMDLE
 40
0.0
  9
$DIMEXE
 40
0.3750000000000001
  9
$DIMTP
 40
0.0
  9
$DIMTM
 40
0.0
  9
$DIMTXT
 40
0.5
  9
$DIMCEN
 40
0.09
  9
$DIMTSZ
 40
0.0
  9
$DIMTOL
 70
     0
  9
$DIMLIM
 70
     0
  9
$DIMTIH
 70
     1
  9
$DIMTOH
 70
     1
  9
$DIMSE1
 70
     0
  9
$DIMSE2
 70
     0
  9
$DIMTAD
 70
     0
  9
$DIMZIN
 70
     1
  9
$DIMBLK
  1

  9
$DIMASO
 70
     1
  9
$DIMSHO
 70
     1
  9
$DIMPOST
  1

  9
$DIMAPOST
  1

  9
$DIMALT
 70
     0
  9
$DIMALTD
 70
     2
  9
$DIMALTF
 40
25.4
  9
$DIMLFAC
 40
1.0
  9
$DIMTOFL
 70
     0
  9
$DIMTVP
 40
0.0
  9
$DIMTIX
 70
     0
  9
$DIMSOXD
 70
     0
  9
$DIMSAH
 70
     0
  9
$DIMBLK1
  1

  9
$DIMBLK2
  1

  9
$DIMSTYLE
  2
Standard
  9
$DIMCLRD
 70
     0
  9
$DIMCLRE
 70
     0
  9
$DIMCLRT
 70
     0
  9
$DIMTFAC
 40
1.0
  9
$DIMGAP
 40
0.125
  9
$DIMJUST
 70
     0
  9
$DIMSD1
 70
     0
  9
$DIMSD2
 70
     0
  9
$DIMTOLJ
 70
     1
  9
$DIMTZIN
 70
     1
  9
$DIMALTZ
 70
     0
  9
$DIMALTTZ
 70
     0
  9
$DIMUPT
 70
     0
  9
$DIMDEC
 70
     2
  9
$DIMTDEC
 70
     2
  9
$DIMALTU
 70
     2
  9
$DIMALTTD
 70
     2
  9
$DIMTXSTY
  7
Standard
  9
$DIMAUNIT
 70
     0
  9
$DIMADEC
 70
     2
  9
$DIMALTRND
 40
0.0
  9
$DIMAZIN
 70
     0
  9
$DIMDSEP
 70
    46
  9
$DIMATFIT
 70
     3
  9
$DIMFRAC
 70
     0
  9
$DIMLDRBLK
  1

  9
$DIMLUNIT
 70
     2
  9
$DIMLWD
 70
    -2
  9
$DIMLWE
 70
    -2
  9
$DIMTMOVE
 70
     0
  9
$LUNITS
 70
     2
  9
$LUPREC
 70
     4
  9
$SKETCHINC
 40
0.1
  9
$FILLETRAD
 40
0.5
  9
$AUNITS
 70
     0
  9
$AUPREC
 70
     2
  9
$MENU
  1
.
  9
$ELEVATION
 40
0.0
  9
$PELEVATION
 40
0.0
  9
$THICKNESS
 40
0.0
  9
$LIMCHECK
 70
     0
  9
$CHAMFERA
 40
0.0
  9
$CHAMFERB
 40
0.0
  9
$CHAMFERC
 40
0.0
  9
$CHAMFERD
 40
0.0
  9
$SKPOLY
 70
     0
  9
$TDCREATE
 40
2453353.550459155
  9
$TDUCREATE
 40
2453353.717125822
  9
$TDUPDATE
 40
2459488.584345058
  9
$TDUUPDATE
 40
2459488.751011725
  9
$TDINDWG
 40
0.043194456
  9
$TDUSRTIMER
 40
0.043194456
  9
$USRTIMER
 70
     1
  9
$ANGBASE
 50
0.0
  9
$ANGDIR
 70
     0
  9
$PDMODE
 70
     0
  9
$PDSIZE
 40
-1.0
  9
$PLINEWID
 40
0.0
  9
$SPLFRAME
 70
     0
  9
$SPLINETYPE
 70
     6
  9
$SPLINESEGS
 70
     8
  9
$HANDSEED
  5
54E
  9
$SURFTAB1
 70
     6
  9
$SURFTAB2
 70
     6
  9
$SURFTYPE
 70
     6
  9
$SURFU
 70
     6
  9
$SURFV
 70
     6
  9
$UCSBASE
  2

  9
$UCSNAME
  2

  9
$UCSORG
 10
0.0
 20
0.0
 30
0.0
  9
$UCSXDIR
 10
1.0
 20
0.0
 30
0.0
  9
$UCSYDIR
 10
0.0
 20
1.0
 30
0.0
  9
$UCSORTHOREF
  2

  9
$UCSORTHOVIEW
 70
     0
  9
$UCSORGTOP
 10
0.0
 20
0.0
 30
0.0
  9
$UCSORGBOTTOM
 10
0.0
 20
0.0
 30
0.0
  9
$UCSORGLEFT
 10
0.0
 20
0.0
 30
0.0
  9
$UCSORGRIGHT
 10
0.0
 20
0.0
 30
0.0
  9
$UCSORGFRONT
 10
0.0
 20
0.0
 30
0.0
  9
$UCSORGBACK
 10
0.0
 20
0.0
 30
0.0
  9
$PUCSBASE
  2

  9
$PUCSNAME
  2

  9
$PUCSORG
 10
0.0
 20
0.0
 30
0.0
  9
$PUCSXDIR
 10
1.0
 20
0.0
 30
0.0
  9
$PUCSYDIR
 10
0.0
 20
1.0
 30
0.0
  9
$PUCSORTHOREF
  2

  9
$PUCSORTHOVIEW
 70
     0
  9
$PUCSORGTOP
 10
0.0
 20
0.0
 30
0.0
  9
$PUCSORGBOTTOM
 10
0.0
 20
0.0
 30
0.0
  9
$PUCSORGLEFT
 10
0.0
 20
0.0
 30
0.0
  9
$PUCSORGRIGHT
 10
0.0
 20
0.0
 30
0.0
  9
$PUCSORGFRONT
 10
0.0
 20
0.0
 30
0.0
  9
$PUCSORGBACK
 10
0.0
 20
0.0
 30
0.0
  9
$USERI1
 70
     0
  9
$USERI2
 70
     0
  9
$USERI3
 70
     0
  9
$USERI4
 70
     0
  9
$USERI5
 70
     0
  9
$USERR1
 40
0.0
  9
$USERR2
 40
0.0
  9
$USERR3
 40
0.0
  9
$USERR4
 40
0.0
  9
$USERR5
 40
0.0
  9
$WORLDVIEW
 70
     1
  9
$SHADEDGE
 70
     3
  9
$SHADEDIF
 70
    70
  9
$TILEMODE
 70
     1
  9
$MAXACTVP
 70
    64
  9
$PINSBASE
 10
0.0
 20
0.0
 30
0.0
  9
$PLIMCHECK
 70
     0
  9
$PEXTMIN
 10
1.000000000000000E+20
 20
1.000000000000000E+20
 30
1.000000000000000E+20
  9
$PEXTMAX
 10
-1.000000000000000E+20
 20
-1.000000000000000E+20
 30
-1.000000000000000E+20
  9
$PLIMMIN
 10
0.0
 20
0.0
  9
$PLIMMAX
 10
12.0
 20
9.0
  9
$UNITMODE
 70
     0
  9
$VISRETAIN
 70
     1
  9
$PLINEGEN
 70
     0
  9
$PSLTSCALE
 70
     1
  9
$TREEDEPTH
 70
  3020
  9
$CMLSTYLE
  2
Standard
  9
$CMLJUST
 70
     0
  9
$CMLSCALE
 40
1.0
  9
$PROXYGRAPHICS
 70
     1
  9
$MEASUREMENT
 70
     0
  9
$CELWEIGHT
370
    -1
  9
$ENDCAPS
280
     0
  9
$JOINSTYLE
280
     0
  9
$LWDISPLAY
290
     1
  9
$INSUNITS
 70
     1
  9
$HYPERLINKBASE
  1

  9
$STYLESHEET
  1

  9
$XEDIT
290
     0
  9
$CEPSNTYPE
380
     0
  9
$PSTYLEMODE
290
     1
  9
$FINGERPRINTGUID
  2
{58f88ccf-328d-4330-8f6c-7c36bc275a8a}
  9
$VERSIONGUID
  2
{FAEB1C32-E019-11D5-929B-00C0DF256EC4}
  9
$EXTNAMES
290
     1
  9
$PSVPSCALE
 40
0.0
  9
$OLESTARTUP
290
     0
  9
$SORTENTS
280
   127
  9
$INDEXCTL
280
     0
  9
$HIDETEXT
280
     1
  9
$XCLIPFRAME
290
     0
  9
$HALOGAP
280
     0
  9
$OBSCOLOR
 70
   257
  9
$OBSLTYPE
280
     0
  9
$INTERSECTIONDISPLAY
280
     0
  9
$INTERSECTIONCOLOR
 70
   257
  9
$DIMASSOC
280
     2
  9
$PROJECTNAME
  1

  0
ENDSEC
  0
SECTION
  2
CLASSES
  0
CLASS
  1
ACDBDICTIONARYWDFLT
  2
AcDbDictionaryWithDefault
  3
ObjectDBX Classes
 90
        0
 91
        3
280
     0
281
     0
  0
CLASS
  1
ACDBPLACEHOLDER
  2
AcDbPlaceHolder
  3
ObjectDBX Classes
 90
        0
 91
        1
280
     0
281
     0
  0
CLASS
  1
LAYOUT
  2
AcDbLayout
  3
ObjectDBX Classes
 90
        0
 91
        1
280
     0
281
     0
  0
CLASS
  1
DICTIONARYVAR
  2
AcDbDictionaryVar
  3
ObjectDBX Classes
 90
        0
 91
        3
280
     0
281
     0
  0
CLASS
  1
TABLESTYLE
  2
AcDbTableStyle
  3
ObjectDBX Classes
 90
     2047
 91
        3
280
     0
281
     0
  0
CLASS
  1
SCALE
  2
AcDbScale
  3
ObjectDBX Classes
 90
     1153
 91
       67
280
     1
281
     0
  0
ENDSEC
  0
SECTION
  2
TABLES
  0
TABLE
  2
VPORT
  5
8
330
0
100
AcDbSymbolTable
 70
     2
  0
VPORT
  5
97
330
8
100
AcDbSymbolTableRecord
100
AcDbViewportTableRecord
  2
*Active
 70
     0
 10
0.0
 20
0.0
 11
1.0
 21
1.0
 12
35.00000000000001
 22
40.00000000000001
 13
0.0
 23
0.0
 14
0.5
 24
0.5
 15
0.5
 25
0.5
 16
0.0
 26
0.0
 36
1.0
 17
0.0
 27
0.0
 37
0.0
 40
81.26267716535435
 41
0.875
 42
50.0
 43
0.0
 44
0.0
 50
0.0
 51
0.0
 71
    16
 72
  2000
 73
     1
 74
     3
 75
     0
 76
     0
 77
     0
 78
     0
281
     0
 65
     0
110
0.0
120
0.0
130
0.0
111
1.0
121
0.0
131
0.0
112
0.0
122
1.0
132
0.0
 79
     0
146
0.0
  0
ENDTAB
  0
TABLE
  2
LTYPE
  5
5
330
0
100
AcDbSymbolTable
 70
     8
  0
LTYPE
  5
14
330
5
100
AcDbSymbolTableRecord
100
AcDbLinetypeTableRecord
  2
ByBlock
 70
     0
  3

 72
    65
 73
     0
 40
0.0
  0
LTYPE
  5
15
330
5
100
AcDbSymbolTableRecord
100
AcDbLinetypeTableRecord
  2
ByLayer
 70
     0
  3

 72
    65
 73
     0
 40
0.0
  0
LTYPE
  5
16
330
5
100
AcDbSymbolTableRecord
100
AcDbLinetypeTableRecord
  2
Continuous
 70
     0
  3
Solid line
 72
    65
 73
     0
 40
0.0
  0
LTYPE
  5
520
330
5
100
AcDbSymbolTableRecord
100
AcDbLinetypeTableRecord
  2
SLD-Solid
 70
     0
  3
SolidWorks Line Style
 72
    65
 73
     0
 40
0.0
  0
LTYPE
  5
521
330
5
100
AcDbSymbolTableRecord
100
AcDbLinetypeTableRecord
  2
SLD-Dashed
 70
     0
  3
SolidWorks Line Style
 72
    65
 73
     2
 40
0.075
 49
0.05
 74
     4
 75
     0
340
0
 46
1.0
 50
0.0
 44
0.0
 45
0.0
 49
-0.025
 74
     4
 75
     0
340
0
 46
1.0
 50
0.0
 44
0.0
 45
0.0
  0
LTYPE
  5
522
330
5
100
AcDbSymbolTableRecord
100
AcDbLinetypeTableRecord
  2
SLD-Phantom
 70
     0
  3
SolidWorks Line Style
 72
    65
 73
     6
 40
0.4999999999999999
 49
0.25
 74
     4
 75
     0
340
0
 46
1.0
 50
0.0
 44
0.0
 45
0.0
 49
-0.05
 74
     4
 75
     0
340
0
 46
1.0
 50
0.0
 44
0.0
 45
0.0
 49
0.05
 74
     4
 75
     0
340
0
 46
1.0
 50
0.0
 44
0.0
 45
0.0
 49
-0.05
 74
     4
 75
     0
340
0
 46
1.0
 50
0.0
 44
0.0
 45
0.0
 49
0.05
 74
     4
 75
     0
340
0
 46
1.0
 50
0.0
 44
0.0
 45
0.0
 49
-0.05
 74
     4
 75
     0
340
0
 46
1.0
 50
0.0
 44
0.0
 45
0.0
  0
LTYPE
  5
523
330
5
100
AcDbSymbolTableRecord
100
AcDbLinetypeTableRecord
  2
SLD-Chain
 70
     0
  3
SolidWorks Line Style
 72
    65
 73
     4
 40
0.4
 49
0.25
 74
     4
 75
     0
340
0
 46
1.0
 50
0.0
 44
0.0
 45
0.0
 49
-0.05
 74
     4
 75
     0
340
0
 46
1.0
 50
0.0
 44
0.0
 45
0.0
 49
0.05
 74
     4
 75
     0
340
0
 46
1.0
 50
0.0
 44
0.0
 45
0.0
 49
-0.05
 74
     4
 75
     0
340
0
 46
1.0
 50
0.0
 44
0.0
 45
0.0
  0
LTYPE
  5
524
330
5
100
AcDbSymbolTableRecord
100
AcDbLinetypeTableRecord
  2
SLD-Center
 70
     0
  3
SolidWorks Line Style
 72
    65
 73
     4
 40
0.7500000000000002
 49
0.6000000000000001
 74
     4
 75
     0
340
0
 46
1.0
 50
0.0
 44
0.0
 45
0.0
 49
-0.05
 74
     4
 75
     0
340
0
 46
1.0
 50
0.0
 44
0.0
 45
0.0
 49
0.05
 74
     4
 75
     0
340
0
 46
1.0
 50
0.0
 44
0.0
 45
0.0
 49
-0.05
 74
     4
 75
     0
340
0
 46
1.0
 50
0.0
 44
0.0
 45
0.0
  0
LTYPE
  5
525
330
5
100
AcDbSymbolTableRecord
100
AcDbLinetypeTableRecord
  2
SLD-Stitch
 70
     0
  3
SolidWorks Line Style
 72
    65
 73
     2
 40
0.025
 49
0.0
 74
     4
 75
     0
340
0
 46
1.0
 50
0.0
 44
0.0
 45
0.0
 49
-0.025
 74
     4
 75
     0
340
0
 46
1.0
 50
0.0
 44
0.0
 45
0.0
  0
LTYPE
  5
526
330
5
100
AcDbSymbolTableRecord
100
AcDbLinetypeTableRecord
  2
SLD-Thin-Thick-Chain
 70
     0
  3
SolidWorks Line Style
 72
    65
 73
     4
 40
0.4
 49
0.25
 74
     4
 75
     0
340
0
 46
1.0
 50
0.0
 44
0.0
 45
0.0
 49
-0.05
 74
     4
 75
     0
340
0
 46
1.0
 50
0.0
 44
0.0
 45
0.0
 49
0.05
 74
     4
 75
     0
340
0
 46
1.0
 50
0.0
 44
0.0
 45
0.0
 49
-0.05
 74
     4
 75
     0
340
0
 46
1.0
 50
0.0
 44
0.0
 45
0.0
  0
ENDTAB
  0
TABLE
  2
LAYER
  5
2
330
0
100
AcDbSymbolTable
 70
     6
  0
LAYER
  5
10
330
2
100
AcDbSymbolTableRecord
100
AcDbLayerTableRecord
  2
0
 70
     0
 62
     7
  6
Continuous
370
    -3
390
F
  0
LAYER
  5
527
330
2
100
AcDbSymbolTableRecord
100
AcDbLayerTableRecord
  2
FORMAT
 70
     0
 62
     7
  6
SLD-Solid
370
    -3
390
F
  0
LAYER
  5
528
330
2
100
AcDbSymbolTableRecord
100
AcDbLayerTableRecord
  2
NOTES
 70
     0
 62
     1
  6
SLD-Solid
370
    -3
390
F
  0
LAYER
  5
77
330
2
100
AcDbSymbolTableRecord
100
AcDbLayerTableRecord
  2
OBJECT
 70
     0
 62
     7
  6
SLD-Solid
370
    25
390
F
  0
LAYER
  5
78
330
2
100
AcDbSymbolTableRecord
100
AcDbLayerTableRecord
  2
DIMS
 70
     0
 62
     5
  6
SLD-Solid
370
    -3
390
F
  0
LAYER
  5
79
330
2
100
AcDbSymbolTableRecord
100
AcDbLayerTableRecord
  2
TITLE
 70
     0
 62
     8
  6
SLD-Solid
370
    -3
390
F
  0
ENDTAB
  0
TABLE
  2
STYLE
  5
3
330
0
100
AcDbSymbolTable
 70
     5
  0
STYLE
  5
11
330
3
100
AcDbSymbolTableRecord
100
AcDbTextStyleTableRecord
  2
Standard
 70
     0
 40
0.0
 41
1.0
 50
0.0
 71
     0
 42
0.5
  3
GOTHIC.TTF
  4

1001
ACAD
1000
CENTURY GOTHIC
1071
       34
  0
STYLE
  5
128
330
3
100
AcDbSymbolTableRecord
100
AcDbTextStyleTableRecord
  2
SLDTEXTSTYLE0
 70
     0
 40
0.0
 41
0.948
 50
0.0
 71
     0
 42
0.5
  3
ARIAL.TTF
  4

1001
ACAD
1000
Arial
1071
      290
  0
STYLE
  5
12C
330
3
100
AcDbSymbolTableRecord
100
AcDbTextStyleTableRecord
  2
SLDTEXTSTYLE1
 70
     0
 40
0.0
 41
0.913
 50
0.0
 71
     0
 42
0.5
  3
GOTHIC.TTF
  4

1001
ACAD
1000
Century Gothic
1071
      290
  0
STYLE
  5
13B
330
3
100
AcDbSymbolTableRecord
100
AcDbTextStyleTableRecord
  2
SLDTEXTSTYLE2
 70
     0
 40
0.0
 41
0.87
 50
0.0
 71
     0
 42
0.5
  3
ARIALNB.TTF
  4

1001
ACAD
1000
Arial Narrow
1071
 33554722
  0
STYLE
  5
13D
330
3
100
AcDbSymbolTableRecord
100
AcDbTextStyleTableRecord
  2
SLDTEXTSTYLE3
 70
     0
 40
0.0
 41
0.87
 50
0.0
 71
     0
 42
0.5
  3
ARIALN.TTF
  4

1001
ACAD
1000
Arial Narrow
1071
      290
  0
ENDTAB
  0
TABLE
  2
VIEW
  5
6
330
0
100
AcDbSymbolTable
 70
     0
  0
ENDTAB
  0
TABLE
  2
UCS
  5
7
330
0
100
AcDbSymbolTable
 70
     0
  0
ENDTAB
  0
TABLE
  2
APPID
  5
9
330
0
100
AcDbSymbolTable
 70
     1
  0
APPID
  5
12
330
9
100
AcDbSymbolTableRecord
100
AcDbRegAppTableRecord
  2
ACAD
 70
     0
  0
ENDTAB
  0
TABLE
  2
DIMSTYLE
  5
A
330
0
100
AcDbSymbolTable
 70
     5
100
AcDbDimStyleTable
  0
DIMSTYLE
105
27
330
A
100
AcDbSymbolTableRecord
100
AcDbDimStyleTableRecord
  2
Standard
 70
     0
340
11
  0
DIMSTYLE
105
230
102
{ACAD_REACTORS
330
22F
330
358
330
363
102
}
330
A
100
AcDbSymbolTableRecord
100
AcDbDimStyleTableRecord
  2
SLDDIMSTYLE0
 70
     0
 41
0.3
 44
0.0
 45
0.000000001
 78
    12
 79
     3
140
0.5
147
0.125
173
     1
271
     2
272
     2
276
     2
277
     5
284
    12
340
12C
341
529
343
529
344
529
  0
DIMSTYLE
105
241
102
{ACAD_REACTORS
330
240
330
2A5
330
36E
330
508
102
}
330
A
100
AcDbSymbolTableRecord
100
AcDbDimStyleTableRecord
  2
SLDDIMSTYLE1
 70
     0
 41
0.3
 44
0.0
 45
0.000000001
 78
    12
 79
     3
140
0.5
147
0.125
173
     1
271
     6
272
     2
276
     2
277
     5
284
    12
340
12C
341
529
343
529
344
529
  0
DIMSTYLE
105
34B
102
{ACAD_REACTORS
330
34A
102
}
330
A
100
AcDbSymbolTableRecord
100
AcDbDimStyleTableRecord
  2
SLDDIMSTYLE2
 70
     0
 41
0.3
 44
0.0
 45
0.000000001
 78
    12
 79
     3
140
0.5
141
0.0
147
0.125
173
     1
271
     2
272
     2
276
     2
277
     5
284
    12
340
12C
341
529
343
529
344
529
  0
DIMSTYLE
105
37F
330
A
100
AcDbSymbolTableRecord
100
AcDbDimStyleTableRecord
  2
SLDDIMSTYLE3
 70
     0
 41
0.3
 44
0.0
 45
0.000000001
146
0.3
147
0.0
173
     1
271
     0
272
     0
276
     2
277
     5
340
11
341
529
343
529
344
529
  0
ENDTAB
  0
TABLE
  2
BLOCK_RECORD
  5
1
330
0
100
AcDbSymbolTable
 70
    13
  0
BLOCK_RECORD
  5
1F
330
1
100
AcDbSymbolTableRecord
100
AcDbBlockTableRecord
  2
*Model_Space
340
22
  0
BLOCK_RECORD
  5
73
330
1
100
AcDbSymbolTableRecord
100
AcDbBlockTableRecord
  2
*Paper_Space
340
74
  0
BLOCK_RECORD
  5
529
330
1
100
AcDbSymbolTableRecord
100
AcDbBlockTableRecord
  2
_Open90
340
0
102
{BLKREFS
331
23A
331
23B
331
245
331
246
331
2A9
331
2AA
331
34F
331
35C
331
35D
331
367
331
368
331
372
331
373
331
50C
331
50D
102
}
  0
BLOCK_RECORD
  5
23
330
1
100
AcDbSymbolTableRecord
100
AcDbBlockTableRecord
  2
*Paper_Space1
340
26
  0
BLOCK_RECORD
  5
132
330
1
100
AcDbSymbolTableRecord
100
AcDbBlockTableRecord
  2
SW_NOTE_0
340
0
  0
BLOCK_RECORD
  5
138
330
1
100
AcDbSymbolTableRecord
100
AcDbBlockTableRecord
  2
SW_NOTE_0_1
340
0
102
{BLKREFS
331
141
102
}
  0
BLOCK_RECORD
  5
237
330
1
100
AcDbSymbolTableRecord
100
AcDbBlockTableRecord
  2
_D
340
0
  0
BLOCK_RECORD
  5
242
330
1
100
AcDbSymbolTableRecord
100
AcDbBlockTableRecord
  2
_D_1
340
0
  0
BLOCK_RECORD
  5
2A6
330
1
100
AcDbSymbolTableRecord
100
AcDbBlockTableRecord
  2
_D_2
340
0
  0
BLOCK_RECORD
  5
34C
330
1
100
AcDbSymbolTableRecord
100
AcDbBlockTableRecord
  2
_D_3
340
0
  0
BLOCK_RECORD
  5
359
330
1
100
AcDbSymbolTableRecord
100
AcDbBlockTableRecord
  2
_D_4
340
0
  0
BLOCK_RECORD
  5
364
330
1
100
AcDbSymbolTableRecord
100
AcDbBlockTableRecord
  2
_D_5
340
0
  0
BLOCK_RECORD
  5
36F
330
1
100
AcDbSymbolTableRecord
100
AcDbBlockTableRecord
  2
_D_6
340
0
  0
BLOCK_RECORD
  5
46B
330
1
100
AcDbSymbolTableRecord
100
AcDbBlockTableRecord
  2
SW_NOTE_0_2
340
0
102
{BLKREFS
331
470
102
}
  0
BLOCK_RECORD
  5
509
330
1
100
AcDbSymbolTableRecord
100
AcDbBlockTableRecord
  2
_D_7
340
0
  0
ENDTAB
  0
ENDSEC
  0
SECTION
  2
BLOCKS
  0
BLOCK
  5
20
330
1F
100
AcDbEntity
  8
0
100
AcDbBlockBegin
  2
*Model_Space
 70
     0
 71
     0
 10
0.0
 20
0.0
 30
0.0
  3
*Model_Space
  1

  0
ENDBLK
  5
21
330
1F
100
AcDbEntity
  8
0
100
AcDbBlockEnd
  0
BLOCK
  5
75
330
73
100
AcDbEntity
 67
     1
  8
0
100
AcDbBlockBegin
  2
*Paper_Space
 70
     0
 71
     0
 10
0.0
 20
0.0
 30
0.0
  3
*Paper_Space
  1

  0
ENDBLK
  5
76
330
73
100
AcDbEntity
 67
     1
  8
0
100
AcDbBlockEnd
  0
BLOCK
  5
52A
330
529
100
AcDbEntity
  8
0
100
AcDbBlockBegin
  2
_Open90
 70
     0
 71
     0
 10
0.0
 20
0.0
 30
0.0
  3
_Open90
  1

  0
LINE
  5
234
330
529
100
AcDbEntity
  8
0
  6
ByBlock
 62
     0
370
    -2
100
AcDbLine
 10
-0.5
 20
0.5
 30
0.0
 11
0.0
 21
0.0
 31
0.0
  0
LINE
  5
235
330
529
100
AcDbEntity
  8
0
  6
ByBlock
 62
     0
370
    -2
100
AcDbLine
 10
0.0
 20
0.0
 30
0.0
 11
-0.5
 21
-0.5
 31
0.0
  0
LINE
  5
236
330
529
100
AcDbEntity
  8
0
  6
ByBlock
 62
     0
370
    -2
100
AcDbLine
 10
0.0
 20
0.0
 30
0.0
 11
-1.0
 21
0.0
 31
0.0
  0
ENDBLK
  5
52B
330
529
100
AcDbEntity
  8
0
100
AcDbBlockEnd
  0
BLOCK
  5
532
330
23
100
AcDbEntity
  8
0
100
AcDbBlockBegin
  2
*Paper_Space1
 70
     0
 71
     0
 10
0.0
 20
0.0
 30
0.0
  3
*Paper_Space1
  1

  0
ENDBLK
  5
533
330
23
100
AcDbEntity
  8
0
100
AcDbBlockEnd
  0
BLOCK
  5
534
330
132
100
AcDbEntity
  8
0
100
AcDbBlockBegin
  2
SW_NOTE_0
 70
     0
 71
     0
 10
0.0
 20
0.0
 30
0.0
  3
SW_NOTE_0
  1

  0
MTEXT
  5
135
330
132
100
AcDbEntity
  8
NOTES
 62
     0
100
AcDbMText
 10
0.0
 20
0.3759780907668229
 30
0.0
 40
0.2916666666666666
 41
0.0
 71
     1
 72
     1
  1
FROST PRODUCTS LTD.
  7
SLDTEXTSTYLE0
 73
     1
 44
1.0
  0
MTEXT
  5
136
330
132
100
AcDbEntity
  8
NOTES
 62
     0
100
AcDbMText
 10
0.0
 20
-0.0495142708586375
 30
0.0
 40
0.2291666666666666
 41
0.0
 71
     1
 72
     1
  1
5280 JOHN LUCUS DRIVE, BURLINGTON, ON, L7L 5Z9
  7
SLDTEXTSTYLE0
 73
     1
 44
1.0
  0
ENDBLK
  5
535
330
132
100
AcDbEntity
  8
0
100
AcDbBlockEnd
  0
BLOCK
  5
536
330
138
100
AcDbEntity
  8
0
100
AcDbBlockBegin
  2
SW_NOTE_0_1
 70
     0
 71
     0
 10
0.0
 20
0.0
 30
0.0
  3
SW_NOTE_0_1
  1

  0
MTEXT
  5
13C
330
138
100
AcDbEntity
  8
NOTES
 62
     0
100
AcDbMText
 10
0.0
 20
0.2381282770514712
 30
0.0
 40
0.1847290640394089
 41
0.0
 71
     1
 72
     1
  1
PROPRIETARY AND CONFIDENTIAL
  7
SLDTEXTSTYLE2
 73
     1
 44
1.0
  0
MTEXT
  5
13E
330
138
100
AcDbEntity
  8
NOTES
 62
     0
100
AcDbMText
 10
0.0
 20
-0.0504364795553608
 30
0.0
 40
0.25
 41
0.0
 71
     1
 72
     1
  1
THE INFORMATION CONTAINED IN THIS DRAWING IS THE SOLE PROPERTY OF 
  7
SLDTEXTSTYLE3
 73
     1
 44
1.0
  0
MTEXT
  5
13F
330
138
100
AcDbEntity
  8
NOTES
 62
     0
100
AcDbMText
 10
0.0
 20
-0.4231398940537119
 30
0.0
 40
0.25
 41
0.0
 71
     1
 72
     1
  1
FROST PRODUCTS LTD.  ANY REPRODUCTION IN PART OR AS A WHOLE WITHOUT 
  7
SLDTEXTSTYLE3
 73
     1
 44
1.0
  0
MTEXT
  5
140
330
138
100
AcDbEntity
  8
NOTES
 62
     0
100
AcDbMText
 10
0.0
 20
-0.7958433085520636
 30
0.0
 40
0.25
 41
0.0
 71
     1
 72
     1
  1
THE WRITTEN PERMISSION OF FROST PRODUCTS LTD. IS PROHIBITED.
  7
SLDTEXTSTYLE3
 73
     1
 44
1.0
  0
ENDBLK
  5
537
330
138
100
AcDbEntity
  8
0
100
AcDbBlockEnd
  0
BLOCK
  5
538
330
237
100
AcDbEntity
  8
0
100
AcDbBlockBegin
  2
_D
 70
     0
 71
     0
 10
0.0
 20
0.0
 30
0.0
  3
_D
  1

  0
INSERT
  5
23A
330
237
100
AcDbEntity
  8
DIMS
100
AcDbBlockReference
  2
_Open90
 10
4.437323692510323
 20
37.83868288084886
 30
0.0
 41
0.3
 42
0.3
 50
90.00000000000041
  0
INSERT
  5
23B
330
237
100
AcDbEntity
  8
DIMS
100
AcDbBlockReference
  2
_Open90
 10
4.437323692510325
 20
7.836156495637147
 30
0.0
 41
0.3
 42
0.3
 50
270.0000000000004
  0
LINE
  5
23C
330
237
100
AcDbEntity
  8
DIMS
100
AcDbLine
 10
6.164919455223749
 20
37.83868288084886
 30
0.0
 11
4.062323692510322
 21
37.83868288084886
 31
0.0
  0
LINE
  5
23D
330
237
100
AcDbEntity
  8
DIMS
100
AcDbLine
 10
4.437323692510323
 20
37.83868288084886
 30
0.0
 11
4.437323692510325
 21
10.53281424653265
 31
0.0
  0
MTEXT
  5
23E
330
237
100
AcDbEntity
  8
DIMS
100
AcDbMText
 10
-8.48629149278424
 20
10.37773615266669
 30
0.0
 40
0.5
 41
0.0
 71
     1
 72
     1
  1
                                                                    48" Max. height for barrier free installation
  7
SLDTEXTSTYLE1
 73
     1
 44
1.0
  0
MTEXT
  5
23F
330
237
100
AcDbEntity
  8
DIMS
100
AcDbMText
 10
4.344962581140432
 20
7.202736057205394
 30
0.0
 40
0.5
 41
0.0
 71
     1
 72
     1
  1
 
  7
SLDTEXTSTYLE1
 73
     1
 44
1.0
  0
ENDBLK
  5
539
330
237
100
AcDbEntity
  8
0
100
AcDbBlockEnd
  0
BLOCK
  5
53A
330
242
100
AcDbEntity
  8
0
100
AcDbBlockBegin
  2
_D_1
 70
     0
 71
     0
 10
0.0
 20
0.0
 30
0.0
  3
_D_1
  1

  0
INSERT
  5
245
330
242
100
AcDbEntity
  8
OBJECT
100
AcDbBlockReference
  2
_Open90
 10
23.43308524300458
 20
37.83868288084877
 30
-5.661532101351726
 41
0.3
 42
0.3
 50
90.00000000000041
  0
INSERT
  5
246
330
242
100
AcDbEntity
  8
OBJECT
100
AcDbBlockReference
  2
_Open90
 10
23.43308524300457
 20
13.56764305925951
 30
-5.661532101351726
 41
0.3
 42
0.3
 50
270.0000000000004
  0
LINE
  5
247
330
242
100
AcDbEntity
  8
OBJECT
100
AcDbLine
 10
23.44141858173713
 20
25.75444766844227
 30
0.0
 11
23.95739083118168
 21
25.75444766844227
 31
0.0
  0
LINE
  5
248
330
242
100
AcDbEntity
  8
OBJECT
100
AcDbLine
 10
21.62325278855792
 20
37.83868288084877
 30
0.0
 11
23.80808524300458
 21
37.83868288084877
 31
0.0
  0
LINE
  5
249
330
242
100
AcDbEntity
  8
OBJECT
100
AcDbLine
 10
21.64739218644396
 20
13.56764305925951
 30
0.0
 11
23.80808524300457
 21
13.56764305925951
 31
0.0
  0
LINE
  5
24A
330
242
100
AcDbEntity
  8
OBJECT
100
AcDbLine
 10
23.43308524300458
 20
37.83868288084877
 30
0.0
 11
23.43308524300458
 21
26.3570171233418
 31
0.0
  0
LINE
  5
24B
330
242
100
AcDbEntity
  8
OBJECT
100
AcDbLine
 10
23.43308524300457
 20
13.56764305925951
 30
0.0
 11
23.43308524300458
 21
25.04930881676642
 31
0.0
  0
MTEXT
  5
24C
330
242
100
AcDbEntity
  8
OBJECT
100
AcDbMText
 10
22.6292657887955
 20
25.98384872887365
 30
0.0
 40
0.5
 41
0.0
 71
     1
 72
     1
  1
24
  7
SLDTEXTSTYLE1
 73
     1
 44
1.0
  0
MTEXT
  5
24D
330
242
100
AcDbEntity
  8
OBJECT
100
AcDbMText
 10
23.51468248371962
 20
26.34916122791915
 30
0.0
 40
0.5
 41
0.0
 71
     1
 72
     1
  1
1
  7
SLDTEXTSTYLE1
 73
     1
 44
1.0
  0
MTEXT
  5
24E
330
242
100
AcDbEntity
  8
OBJECT
100
AcDbMText
 10
23.51468248371962
 20
25.68798064937112
 30
0.0
 40
0.5
 41
0.0
 71
     1
 72
     1
  1
4
  7
SLDTEXTSTYLE1
 73
     1
 44
1.0
  0
MTEXT
  5
24F
330
242
100
AcDbEntity
  8
OBJECT
100
AcDbMText
 10
24.03065473316416
 20
25.98384872887365
 30
0.0
 40
0.5
 41
0.0
 71
     1
 72
     1
  1
"
  7
SLDTEXTSTYLE1
 73
     1
 44
1.0
  0
ENDBLK
  5
53B
330
242
100
AcDbEntity
  8
0
100
AcDbBlockEnd
  0
BLOCK
  5
53C
330
2A6
100
AcDbEntity
  8
0
100
AcDbBlockBegin
  2
_D_2
 70
     0
 71
     0
 10
0.0
 20
0.0
 30
0.0
  3
_D_2
  1

  0
INSERT
  5
2A9
330
2A6
100
AcDbEntity
  8
OBJECT
100
AcDbBlockReference
  2
_Open90
 10
28.57712424626884
 20
39.64970650289615
 30
0.0000497047244397
 41
0.3
 42
0.3
 50
180.0000000000004
  0
INSERT
  5
2AA
330
2A6
100
AcDbEntity
  8
OBJECT
100
AcDbBlockReference
  2
_Open90
 10
40.14865227287057
 20
39.64970650289615
 30
0.0000497047244397
 41
0.3
 42
0.3
 50
0.0000000000004071
  0
LINE
  5
2AB
330
2A6
100
AcDbEntity
  8
OBJECT
100
AcDbLine
 10
33.85243417077982
 20
39.70099120128427
 30
0.0
 11
34.73785086570394
 21
39.70099120128427
 31
0.0
  0
LINE
  5
2AC
330
2A6
100
AcDbEntity
  8
OBJECT
100
AcDbLine
 10
28.57712424626884
 20
37.95379313596547
 30
0.0
 11
28.57712424626884
 21
40.02470650289615
 31
0.0
  0
LINE
  5
2AD
330
2A6
100
AcDbEntity
  8
OBJECT
100
AcDbLine
 10
40.14865227287057
 20
37.9253495452804
 30
0.0
 11
40.14865227287057
 21
40.02470650289615
 31
0.0
  0
LINE
  5
2AE
330
2A6
100
AcDbEntity
  8
OBJECT
100
AcDbLine
 10
28.57712424626884
 20
39.64970650289615
 30
0.0
 11
33.04028137783818
 21
39.64970650289615
 31
0.0
  0
LINE
  5
2AF
330
2A6
100
AcDbEntity
  8
OBJECT
100
AcDbLine
 10
40.14865227287057
 20
39.64970650289615
 30
0.0
 11
35.0173648050684
 21
39.64970650289615
 31
0.0
  0
MTEXT
  5
2B0
330
2A6
100
AcDbEntity
  8
OBJECT
100
AcDbMText
 10
33.04028137783819
 20
39.93039226171564
 30
0.0
 40
0.5
 41
0.0
 71
     1
 72
     1
  1
11
  7
SLDTEXTSTYLE1
 73
     1
 44
1.0
  0
MTEXT
  5
2B1
330
2A6
100
AcDbEntity
  8
OBJECT
100
AcDbMText
 10
34.1104202955021
 20
40.29570476076114
 30
0.0
 40
0.5
 41
0.0
 71
     1
 72
     1
  1
9
  7
SLDTEXTSTYLE1
 73
     1
 44
1.0
  0
MTEXT
  5
2B2
330
2A6
100
AcDbEntity
  8
OBJECT
100
AcDbMText
 10
33.92569807276231
 20
39.63452418221311
 30
0.0
 40
0.5
 41
0.0
 71
     1
 72
     1
  1
16
  7
SLDTEXTSTYLE1
 73
     1
 44
1.0
  0
MTEXT
  5
2B3
330
2A6
100
AcDbEntity
  8
OBJECT
100
AcDbMText
 10
34.81111484101891
 20
39.93039226171564
 30
0.0
 40
0.5
 41
0.0
 71
     1
 72
     1
  1
"
  7
SLDTEXTSTYLE1
 73
     1
 44
1.0
  0
ENDBLK
  5
53D
330
2A6
100
AcDbEntity
  8
0
100
AcDbBlockEnd
  0
BLOCK
  5
53E
330
34C
100
AcDbEntity
  8
0
100
AcDbBlockBegin
  2
_D_3
 70
     0
 71
     0
 10
0.0
 20
0.0
 30
0.0
  3
_D_3
  1

  0
INSERT
  5
34F
330
34C
100
AcDbEntity
  8
OBJECT
100
AcDbBlockReference
  2
_Open90
 10
46.76705953523257
 20
34.67290394244939
 30
5.661532101351726
 41
0.3
 42
0.3
 50
278.1040730060354
  0
LINE
  5
350
330
34C
100
AcDbEntity
  8
OBJECT
100
AcDbLine
 10
38.79978841074097
 20
42.75830810794671
 30
0.0
 11
39.31576066018551
 21
42.75830810794671
 31
0.0
  0
LINE
  5
351
330
34C
100
AcDbEntity
  8
OBJECT
100
AcDbLine
 10
46.76705953523257
 20
34.67290394244939
 30
0.0
 11
45.62305231177306
 21
42.70702340955861
 31
0.0
  0
LINE
  5
352
330
34C
100
AcDbEntity
  8
OBJECT
100
AcDbLine
 10
45.62305231177306
 20
42.70702340955861
 30
0.0
 11
45.32305231177306
 21
42.70702340955861
 31
0.0
  0
MTEXT
  5
353
330
34C
100
AcDbEntity
  8
OBJECT
100
AcDbMText
 10
37.97246202641929
 20
42.98007027912318
 30
0.0
 40
0.5
 41
0.0
 71
     1
 72
     1
  1
%%c
  7
SLDTEXTSTYLE1
 73
     1
 44
1.0
  0
MTEXT
  5
354
330
34C
100
AcDbEntity
  8
OBJECT
100
AcDbMText
 10
38.87305231272345
 20
43.35302166742358
 30
0.0
 40
0.5
 41
0.0
 71
     1
 72
     1
  1
1
  7
SLDTEXTSTYLE1
 73
     1
 44
1.0
  0
MTEXT
  5
355
330
34C
100
AcDbEntity
  8
OBJECT
100
AcDbMText
 10
38.87305231272345
 20
42.69184108887555
 30
0.0
 40
0.5
 41
0.0
 71
     1
 72
     1
  1
8
  7
SLDTEXTSTYLE1
 73
     1
 44
1.0
  0
MTEXT
  5
356
330
34C
100
AcDbEntity
  8
OBJECT
100
AcDbMText
 10
39.38902448883551
 20
42.98770916837808
 30
0.0
 40
0.5
 41
0.0
 71
     1
 72
     1
  1
"
  7
SLDTEXTSTYLE1
 73
     1
 44
1.0
  0
MTEXT
  5
357
330
34C
100
AcDbEntity
  8
OBJECT
100
AcDbMText
 10
39.59527459954996
 20
42.98770916837808
 30
0.0
 40
0.5
 41
0.0
 71
     1
 72
     1
  1
 mounting hole(3)
  7
SLDTEXTSTYLE1
 73
     1
 44
1.0
  0
ENDBLK
  5
53F
330
34C
100
AcDbEntity
  8
0
100
AcDbBlockEnd
  0
BLOCK
  5
540
330
359
100
AcDbEntity
  8
0
100
AcDbBlockBegin
  2
_D_4
 70
     0
 71
     0
 10
0.0
 20
0.0
 30
0.0
  3
_D_4
  1

  0
INSERT
  5
35C
330
359
100
AcDbEntity
  8
OBJECT
100
AcDbBlockReference
  2
_Open90
 10
46.77805532079349
 20
40.59458839265996
 30
5.661532101351726
 41
0.3
 42
0.3
 50
180.0000000000004
  0
INSERT
  5
35D
330
359
100
AcDbEntity
  8
OBJECT
100
AcDbBlockReference
  2
_Open90
 10
52.77805532079349
 20
40.59458839265996
 30
5.661532101351726
 41
0.3
 42
0.3
 50
0.0000000000004071
  0
LINE
  5
35E
330
359
100
AcDbEntity
  8
OBJECT
100
AcDbLine
 10
46.77805532079349
 20
34.76234954528047
 30
0.0
 11
46.77805532079349
 21
40.96958839265996
 31
0.0
  0
LINE
  5
35F
330
359
100
AcDbEntity
  8
OBJECT
100
AcDbLine
 10
52.77805532079349
 20
34.76234954528047
 30
0.0
 11
52.77805532079349
 21
40.96958839265996
 31
0.0
  0
LINE
  5
360
330
359
100
AcDbEntity
  8
OBJECT
100
AcDbLine
 10
46.77805532079349
 20
40.59458839265996
 30
0.0
 11
49.49020809769586
 21
40.59458839265996
 31
0.0
  0
LINE
  5
361
330
359
100
AcDbEntity
  8
OBJECT
100
AcDbLine
 10
52.77805532079349
 20
40.59458839265996
 30
0.0
 11
50.06590254389115
 21
40.59458839265996
 31
0.0
  0
MTEXT
  5
362
330
359
100
AcDbEntity
  8
OBJECT
100
AcDbMText
 10
49.49020809769584
 20
40.83638531072668
 30
0.0
 40
0.5
 41
0.0
 71
     1
 72
     1
  1
6"
  7
SLDTEXTSTYLE1
 73
     1
 44
1.0
  0
ENDBLK
  5
541
330
359
100
AcDbEntity
  8
0
100
AcDbBlockEnd
  0
BLOCK
  5
542
330
364
100
AcDbEntity
  8
0
100
AcDbBlockBegin
  2
_D_5
 70
     0
 71
     0
 10
0.0
 20
0.0
 30
0.0
  3
_D_5
  1

  0
INSERT
  5
367
330
364
100
AcDbEntity
  8
OBJECT
100
AcDbBlockReference
  2
_Open90
 10
52.77805532079358
 20
40.59458839265998
 30
5.661532101351726
 41
0.3
 42
0.3
 50
179.9999999999996
  0
INSERT
  5
368
330
364
100
AcDbEntity
  8
OBJECT
100
AcDbBlockReference
  2
_Open90
 10
58.77805532079358
 20
40.59458839265989
 30
5.661532101351726
 41
0.3
 42
0.3
 50
359.9999999999996
  0
LINE
  5
369
330
364
100
AcDbEntity
  8
OBJECT
100
AcDbLine
 10
52.77805532079349
 20
34.76234954528047
 30
0.0
 11
52.77805532079359
 21
40.96958839265998
 31
0.0
  0
LINE
  5
36A
330
364
100
AcDbEntity
  8
OBJECT
100
AcDbLine
 10
58.7780553207935
 20
34.76234954528038
 30
0.0
 11
58.7780553207936
 21
40.96958839265989
 31
0.0
  0
LINE
  5
36B
330
364
100
AcDbEntity
  8
OBJECT
100
AcDbLine
 10
52.77805532079358
 20
40.59458839265998
 30
0.0
 11
55.49020809769593
 21
40.59458839265994
 31
0.0
  0
LINE
  5
36C
330
364
100
AcDbEntity
  8
OBJECT
100
AcDbLine
 10
58.77805532079358
 20
40.59458839265989
 30
0.0
 11
56.06590254389123
 21
40.59458839265992
 31
0.0
  0
MTEXT
  5
36D
330
364
100
AcDbEntity
  8
OBJECT
100
AcDbMText
 10
55.49020809769593
 20
40.83638531072663
 30
0.0
 40
0.5
 41
0.0
 71
     1
 72
     1
  1
6"
  7
SLDTEXTSTYLE1
 73
     1
 44
1.0
  0
ENDBLK
  5
543
330
364
100
AcDbEntity
  8
0
100
AcDbBlockEnd
  0
BLOCK
  5
544
330
36F
100
AcDbEntity
  8
0
100
AcDbBlockBegin
  2
_D_6
 70
     0
 71
     0
 10
0.0
 20
0.0
 30
0.0
  3
_D_6
  1

  0
INSERT
  5
372
330
36F
100
AcDbEntity
  8
OBJECT
100
AcDbBlockReference
  2
_Open90
 10
44.50249466306907
 20
37.83868288084877
 30
5.661532101351726
 41
0.3
 42
0.3
 50
90.00000000000041
  0
INSERT
  5
373
330
36F
100
AcDbEntity
  8
OBJECT
100
AcDbBlockReference
  2
_Open90
 10
44.50249466306907
 20
34.59568287861381
 30
5.661532101351726
 41
0.3
 42
0.3
 50
270.0000000000004
  0
LINE
  5
374
330
36F
100
AcDbEntity
  8
OBJECT
100
AcDbLine
 10
44.3261057423956
 20
36.26846757811942
 30
0.0
 11
44.84207799184015
 21
36.26846757811942
 31
0.0
  0
LINE
  5
375
330
36F
100
AcDbEntity
  8
OBJECT
100
AcDbLine
 10
45.04888865412892
 20
37.83868288084877
 30
0.0
 11
44.12749466306907
 21
37.83868288084877
 31
0.0
  0
LINE
  5
376
330
36F
100
AcDbEntity
  8
OBJECT
100
AcDbLine
 10
46.61138865412683
 20
34.59568287861381
 30
0.0
 11
44.12749466306907
 21
34.59568287861381
 31
0.0
  0
LINE
  5
377
330
36F
100
AcDbEntity
  8
OBJECT
100
AcDbLine
 10
44.50249466306907
 20
37.83868288084877
 30
0.0
 11
44.50249466306907
 21
36.87103703301902
 31
0.0
  0
LINE
  5
378
330
36F
100
AcDbEntity
  8
OBJECT
100
AcDbLine
 10
44.50249466306907
 20
34.59568287861381
 30
0.0
 11
44.50249466306907
 21
35.56332872644364
 31
0.0
  0
MTEXT
  5
379
330
36F
100
AcDbEntity
  8
OBJECT
100
AcDbMText
 10
43.88339739493355
 20
36.49786863855079
 30
0.0
 40
0.5
 41
0.0
 71
     1
 72
     1
  1
3
  7
SLDTEXTSTYLE1
 73
     1
 44
1.0
  0
MTEXT
  5
37A
330
36F
100
AcDbEntity
  8
OBJECT
100
AcDbMText
 10
44.39936964437809
 20
36.86318113759629
 30
0.0
 40
0.5
 41
0.0
 71
     1
 72
     1
  1
1
  7
SLDTEXTSTYLE1
 73
     1
 44
1.0
  0
MTEXT
  5
37B
330
36F
100
AcDbEntity
  8
OBJECT
100
AcDbMText
 10
44.39936964437809
 20
36.20200055904826
 30
0.0
 40
0.5
 41
0.0
 71
     1
 72
     1
  1
4
  7
SLDTEXTSTYLE1
 73
     1
 44
1.0
  0
MTEXT
  5
37C
330
36F
100
AcDbEntity
  8
OBJECT
100
AcDbMText
 10
44.91534189382264
 20
36.49786863855079
 30
0.0
 40
0.5
 41
0.0
 71
     1
 72
     1
  1
"
  7
SLDTEXTSTYLE1
 73
     1
 44
1.0
  0
ENDBLK
  5
545
330
36F
100
AcDbEntity
  8
0
100
AcDbBlockEnd
  0
BLOCK
  5
546
330
46B
100
AcDbEntity
  8
0
100
AcDbBlockBegin
  2
SW_NOTE_0_2
 70
     0
 71
     0
 10
0.0
 20
0.0
 30
0.0
  3
SW_NOTE_0_2
  1

  0
MTEXT
  5
46E
330
46B
100
AcDbEntity
  8
NOTES
 62
     0
100
AcDbMText
 10
0.0
 20
0.6386718749999982
 30
0.0
 40
0.5
 41
0.0
 71
     1
 72
     1
  1
3D view
  7
SLDTEXTSTYLE1
 73
     1
 44
1.0
  0
MTEXT
  5
46F
330
46B
100
AcDbEntity
  8
NOTES
 62
     0
100
AcDbMText
 10
0.0
 20
-0.3613281862472943
 30
0.0
 40
0.5
 41
0.0
 71
     1
 72
     1
  1
code 327
  7
SLDTEXTSTYLE1
 73
     1
 44
1.0
  0
ENDBLK
  5
547
330
46B
100
AcDbEntity
  8
0
100
AcDbBlockEnd
  0
BLOCK
  5
548
330
509
100
AcDbEntity
  8
0
100
AcDbBlockBegin
  2
_D_7
 70
     0
 71
     0
 10
0.0
 20
0.0
 30
0.0
  3
_D_7
  1

  0
INSERT
  5
50C
330
509
100
AcDbEntity
  8
OBJECT
100
AcDbBlockReference
  2
_Open90
 10
6.248446724009375
 20
50.9163342063965
 30
-12.1354702060702
 41
0.3
 42
0.3
 50
180.0000000000004
  0
INSERT
  5
50D
330
509
100
AcDbEntity
  8
OBJECT
100
AcDbBlockReference
  2
_Open90
 10
21.53972551977732
 20
50.91633420639651
 30
-12.1354702060702
 41
0.3
 42
0.3
 50
0.0000000000004326
  0
LINE
  5
50E
330
509
100
AcDbEntity
  8
OBJECT
100
AcDbLine
 10
13.17101606122658
 20
50.96761890478463
 30
0.0
 11
14.05643275615069
 21
50.96761890478463
 31
0.0
  0
LINE
  5
50F
330
509
100
AcDbEntity
  8
OBJECT
100
AcDbLine
 10
6.248446724009374
 20
52.60457009878505
 30
0.0
 11
6.248446724009375
 21
50.5413342063965
 31
0.0
  0
LINE
  5
510
330
509
100
AcDbEntity
  8
OBJECT
100
AcDbLine
 10
21.53972551977732
 20
52.60457009878511
 30
0.0
 11
21.53972551977732
 21
50.54133420639651
 31
0.0
  0
LINE
  5
511
330
509
100
AcDbEntity
  8
OBJECT
100
AcDbLine
 10
6.248446724009375
 20
50.9163342063965
 30
0.0
 11
12.35886326828494
 21
50.91633420639651
 31
0.0
  0
LINE
  5
512
330
509
100
AcDbEntity
  8
OBJECT
100
AcDbLine
 10
21.53972551977732
 20
50.91633420639651
 30
0.0
 11
14.33594669551515
 21
50.91633420639651
 31
0.0
  0
MTEXT
  5
513
330
509
100
AcDbEntity
  8
OBJECT
100
AcDbMText
 10
12.35886326828494
 20
51.197019965216
 30
0.0
 40
0.5
 41
0.0
 71
     1
 72
     1
  1
15
  7
SLDTEXTSTYLE1
 73
     1
 44
1.0
  0
MTEXT
  5
514
330
509
100
AcDbEntity
  8
OBJECT
100
AcDbMText
 10
13.42900218594885
 20
51.5623324642615
 30
0.0
 40
0.5
 41
0.0
 71
     1
 72
     1
  1
5
  7
SLDTEXTSTYLE1
 73
     1
 44
1.0
  0
MTEXT
  5
515
330
509
100
AcDbEntity
  8
OBJECT
100
AcDbMText
 10
13.24427996320906
 20
50.90115188571347
 30
0.0
 40
0.5
 41
0.0
 71
     1
 72
     1
  1
16
  7
SLDTEXTSTYLE1
 73
     1
 44
1.0
  0
MTEXT
  5
516
330
509
100
AcDbEntity
  8
OBJECT
100
AcDbMText
 10
14.12969673146567
 20
51.197019965216
 30
0.0
 40
0.5
 41
0.0
 71
     1
 72
     1
  1
"
  7
SLDTEXTSTYLE1
 73
     1
 44
1.0
  0
ENDBLK
  5
549
330
509
100
AcDbEntity
  8
0
100
AcDbBlockEnd
  0
ENDSEC
  0
SECTION
  2
ENTITIES
  0
LINE
  5
7A
330
1F
100
AcDbEntity
  8
OBJECT
100
AcDbLine
 10
52.74474341287173
 20
44.95617341763555
 30
0.0
 11
52.78616482349195
 21
44.98076133672969
 31
0.0
  0
LINE
  5
7B
330
1F
100
AcDbEntity
  8
OBJECT
100
AcDbLine
 10
52.81481368315596
 20
44.58997587500099
 30
0.0
 11
52.84271226609071
 21
44.59433038281659
 31
0.0
  0
LINE
  5
7C
330
1F
100
AcDbEntity
  8
OBJECT
100
AcDbLine
 10
52.84271226609071
 20
44.59433038281659
 30
0.0
 11
52.84335756950589
 21
44.59443110401707
 31
0.0
  0
LINE
  5
7D
330
1F
100
AcDbEntity
  8
OBJECT
100
AcDbLine
 10
50.86567132581258
 20
32.19692478689519
 30
0.0
 11
50.86567132581258
 21
32.18794418381039
 31
0.0
  0
LINE
  5
7E
330
1F
100
AcDbEntity
  8
OBJECT
100
AcDbLine
 10
35.73439253004465
 20
32.19692478689519
 30
0.0
 11
35.73439253004465
 21
32.18785871477457
 31
0.0
  0
LINE
  5
81
330
1F
100
AcDbEntity
  8
TITLE
370
    50
100
AcDbLine
 10
52.5182230240126
 20
1.487611764461629
 30
0.0
 11
69.49998645119504
 21
1.487611764461629
 31
0.0
  0
LINE
  5
82
330
1F
100
AcDbEntity
  8
TITLE
370
    50
100
AcDbLine
 10
69.49993174424404
 20
5.475360393555786
 30
0.0
 11
59.31053507231783
 21
5.475360393555786
 31
0.0
  0
LINE
  5
83
330
1F
100
AcDbEntity
  8
TITLE
  6
SLD-Solid
370
    18
100
AcDbLine
 10
0.5
 20
0.5
 30
0.0
 11
0.5
 21
79.5
 31
0.0
  0
LINE
  5
84
330
1F
100
AcDbEntity
  8
TITLE
  6
SLD-Solid
370
    18
100
AcDbLine
 10
0.5
 20
79.5
 30
0.0
 11
69.5
 21
79.5
 31
0.0
  0
LINE
  5
85
330
1F
100
AcDbEntity
  8
TITLE
370
    50
100
AcDbLine
 10
52.5182230240126
 20
2.54278772310344
 30
0.0
 11
45.50597912026433
 21
2.54278772310344
 31
0.0
  0
LINE
  5
86
330
1F
100
AcDbEntity
  8
TITLE
370
    50
100
AcDbLine
 10
52.5182230240126
 20
1.487611764461629
 30
0.0
 11
45.50597912026433
 21
1.487611764461629
 31
0.0
  0
LINE
  5
87
330
1F
100
AcDbEntity
  8
TITLE
  6
SLD-Solid
370
    18
100
AcDbLine
 10
69.5
 20
79.5
 30
0.0
 11
69.5
 21
0.5
 31
0.0
  0
LINE
  5
88
330
1F
100
AcDbEntity
  8
TITLE
  6
SLD-Solid
370
    18
100
AcDbLine
 10
69.5
 20
0.5
 30
0.0
 11
0.5
 21
0.5
 31
0.0
  0
LINE
  5
89
330
1F
100
AcDbEntity
  8
TITLE
370
    50
100
AcDbLine
 10
52.5182230240126
 20
1.487611764461629
 30
0.0
 11
52.5182230240126
 21
3.597963681745254
 31
0.0
  0
LINE
  5
8A
330
1F
100
AcDbEntity
  8
TITLE
370
    50
100
AcDbLine
 10
45.50597912026433
 20
3.597963681745254
 30
0.0
 11
45.50597912026433
 21
0.4999999999999996
 31
0.0
  0
LINE
  5
8B
330
1F
100
AcDbEntity
  8
TITLE
370
    50
100
AcDbLine
 10
45.50597912026433
 20
0.4999999999999996
 30
0.0
 11
69.5
 21
0.4999999999999996
 31
0.0
  0
LINE
  5
8C
330
1F
100
AcDbEntity
  8
TITLE
370
    50
100
AcDbLine
 10
69.49993174424404
 20
5.475360393555786
 30
0.0
 11
69.5
 21
0.4999999999999996
 31
0.0
  0
LINE
  5
8D
330
1F
100
AcDbEntity
  8
TITLE
  6
SLD-Solid
370
    18
100
AcDbLine
 10
0.4999606299212599
 20
40.0
 30
0.0
 11
0.5000393700787401
 21
40.0
 31
0.0
  0
LINE
  5
8E
330
1F
100
AcDbEntity
  8
TITLE
370
    50
100
AcDbLine
 10
52.5182230240126
 20
3.597963681745254
 30
0.0
 11
45.50597912026433
 21
3.597963681745254
 31
0.0
  0
LINE
  5
8F
330
1F
100
AcDbEntity
  8
TITLE
370
    50
100
AcDbLine
 10
52.5182230240126
 20
3.597963681745254
 30
0.0
 11
69.49976156426075
 21
3.597964834324629
 31
0.0
  0
LINE
  5
90
330
1F
100
AcDbEntity
  8
TITLE
370
    50
100
AcDbLine
 10
59.31053507231783
 20
5.475360393555786
 30
0.0
 11
59.31053507231783
 21
0.4636772425222307
 31
0.0
  0
LINE
  5
91
330
1F
100
AcDbEntity
  8
TITLE
  6
SLD-Solid
370
    18
100
AcDbLine
 10
35.0
 20
79.50003937007874
 30
0.0
 11
35.0
 21
79.49996062992125
 31
0.0
  0
LINE
  5
54A
330
1F
100
AcDbEntity
  8
TITLE
  6
SLD-Solid
370
    18
100
AcDbLine
 10
69.50003937007874
 20
40.0
 30
0.0
 11
69.49996062992126
 21
40.0
 31
0.0
  0
LINE
  5
54B
330
1F
100
AcDbEntity
  8
TITLE
  6
SLD-Solid
370
    18
100
AcDbLine
 10
35.0
 20
0.4999606299212599
 30
0.0
 11
35.0
 21
0.5000393700787401
 31
0.0
  0
LINE
  5
94
330
1F
100
AcDbEntity
  8
TITLE
  6
SLD-Solid
370
    18
100
AcDbLine
 10
0.5
 20
2.598425196850392
 30
0.0
 11
0.1653543307086614
 21
2.598425196850392
 31
0.0
  0
LINE
  5
95
330
1F
100
AcDbEntity
  8
TITLE
  6
SLD-Solid
370
    18
100
AcDbLine
 10
69.5
 20
2.598425196850392
 30
0.0
 11
69.83464566929135
 21
2.598425196850392
 31
0.0
  0
LINE
  5
96
330
1F
100
AcDbEntity
  8
TITLE
  6
SLD-Solid
370
    18
100
AcDbLine
 10
0.5
 20
4.566929133858268
 30
0.0
 11
0.1653543307086614
 21
4.566929133858268
 31
0.0
  0
LINE
  5
54C
330
1F
100
AcDbEntity
  8
TITLE
  6
SLD-Solid
370
    18
100
AcDbLine
 10
69.5
 20
4.566929133858268
 30
0.0
 11
69.83464566929135
 21
4.566929133858268
 31
0.0
  0
LINE
  5
54D
330
1F
100
AcDbEntity
  8
TITLE
  6
SLD-Solid
370
    18
100
AcDbLine
 10
0.5
 20
6.535433070866139
 30
0.0
 11
0.1653543307086614
 21
6.535433070866139
 31
0.0
  0
LINE
  5
99
330
1F
100
AcDbEntity
  8
TITLE
  6
SLD-Solid
370
    18
100
AcDbLine
 10
69.5
 20
6.535433070866139
 30
0.0
 11
69.83464566929135
 21
6.535433070866139
 31
0.0
  0
LINE
  5
9A
330
1F
100
AcDbEntity
  8
TITLE
  6
SLD-Solid
370
    18
100
AcDbLine
 10
0.5
 20
8.503937007874015
 30
0.0
 11
0.1653543307086614
 21
8.503937007874015
 31
0.0
  0
LINE
  5
9B
330
1F
100
AcDbEntity
  8
TITLE
  6
SLD-Solid
370
    18
100
AcDbLine
 10
69.5
 20
8.503937007874015
 30
0.0
 11
69.83464566929135
 21
8.503937007874015
 31
0.0
  0
LINE
  5
9C
330
1F
100
AcDbEntity
  8
TITLE
  6
SLD-Solid
370
    18
100
AcDbLine
 10
0.5
 20
10.47244094488189
 30
0.0
 11
0.1653543307086614
 21
10.47244094488189
 31
0.0
  0
LINE
  5
9D
330
1F
100
AcDbEntity
  8
TITLE
  6
SLD-Solid
370
    18
100
AcDbLine
 10
69.5
 20
10.47244094488189
 30
0.0
 11
69.83464566929135
 21
10.47244094488189
 31
0.0
  0
LINE
  5
9E
330
1F
100
AcDbEntity
  8
TITLE
  6
SLD-Solid
370
    18
100
AcDbLine
 10
0.5
 20
12.44094488188976
 30
0.0
 11
0.1653543307086614
 21
12.44094488188976
 31
0.0
  0
LINE
  5
9F
330
1F
100
AcDbEntity
  8
TITLE
  6
SLD-Solid
370
    18
100
AcDbLine
 10
69.5
 20
12.44094488188976
 30
0.0
 11
69.83464566929135
 21
12.44094488188976
 31
0.0
  0
LINE
  5
A0
330
1F
100
AcDbEntity
  8
TITLE
  6
SLD-Solid
370
    18
100
AcDbLine
 10
0.5
 20
14.40944881889764
 30
0.0
 11
0.1653543307086614
 21
14.40944881889764
 31
0.0
  0
LINE
  5
A1
330
1F
100
AcDbEntity
  8
TITLE
  6
SLD-Solid
370
    18
100
AcDbLine
 10
69.5
 20
14.40944881889764
 30
0.0
 11
69.83464566929135
 21
14.40944881889764
 31
0.0
  0
LINE
  5
A2
330
1F
100
AcDbEntity
  8
TITLE
  6
SLD-Solid
370
    18
100
AcDbLine
 10
0.5
 20
16.37795275590551
 30
0.0
 11
0.1653543307086614
 21
16.37795275590551
 31
0.0
  0
LINE
  5
A3
330
1F
100
AcDbEntity
  8
TITLE
  6
SLD-Solid
370
    18
100
AcDbLine
 10
69.5
 20
16.37795275590551
 30
0.0
 11
69.83464566929135
 21
16.37795275590551
 31
0.0
  0
LINE
  5
A4
330
1F
100
AcDbEntity
  8
TITLE
  6
SLD-Solid
370
    18
100
AcDbLine
 10
0.5
 20
18.34645669291339
 30
0.0
 11
0.1653543307086614
 21
18.34645669291339
 31
0.0
  0
LINE
  5
A5
330
1F
100
AcDbEntity
  8
TITLE
  6
SLD-Solid
370
    18
100
AcDbLine
 10
69.5
 20
18.34645669291339
 30
0.0
 11
69.83464566929135
 21
18.34645669291339
 31
0.0
  0
LINE
  5
A6
330
1F
100
AcDbEntity
  8
TITLE
  6
SLD-Solid
370
    18
100
AcDbLine
 10
0.5
 20
20.31496062992126
 30
0.0
 11
0.1653543307086614
 21
20.31496062992126
 31
0.0
  0
LINE
  5
A7
330
1F
100
AcDbEntity
  8
TITLE
  6
SLD-Solid
370
    18
100
AcDbLine
 10
69.5
 20
20.31496062992126
 30
0.0
 11
69.83464566929135
 21
20.31496062992126
 31
0.0
  0
LINE
  5
A8
330
1F
100
AcDbEntity
  8
TITLE
  6
SLD-Solid
370
    18
100
AcDbLine
 10
0.5
 20
22.28346456692914
 30
0.0
 11
0.1653543307086614
 21
22.28346456692914
 31
0.0
  0
LINE
  5
A9
330
1F
100
AcDbEntity
  8
TITLE
  6
SLD-Solid
370
    18
100
AcDbLine
 10
69.5
 20
22.28346456692914
 30
0.0
 11
69.83464566929135
 21
22.28346456692914
 31
0.0
  0
LINE
  5
AA
330
1F
100
AcDbEntity
  8
TITLE
  6
SLD-Solid
370
    18
100
AcDbLine
 10
0.5
 20
24.25196850393701
 30
0.0
 11
0.1653543307086614
 21
24.25196850393701
 31
0.0
  0
LINE
  5
AB
330
1F
100
AcDbEntity
  8
TITLE
  6
SLD-Solid
370
    18
100
AcDbLine
 10
69.5
 20
24.25196850393701
 30
0.0
 11
69.83464566929135
 21
24.25196850393701
 31
0.0
  0
LINE
  5
AC
330
1F
100
AcDbEntity
  8
TITLE
  6
SLD-Solid
370
    18
100
AcDbLine
 10
0.5
 20
26.22047244094488
 30
0.0
 11
0.1653543307086614
 21
26.22047244094488
 31
0.0
  0
LINE
  5
AD
330
1F
100
AcDbEntity
  8
TITLE
  6
SLD-Solid
370
    18
100
AcDbLine
 10
69.5
 20
26.22047244094488
 30
0.0
 11
69.83464566929135
 21
26.22047244094488
 31
0.0
  0
LINE
  5
AE
330
1F
100
AcDbEntity
  8
TITLE
  6
SLD-Solid
370
    18
100
AcDbLine
 10
0.5
 20
28.18897637795276
 30
0.0
 11
0.1653543307086614
 21
28.18897637795276
 31
0.0
  0
LINE
  5
AF
330
1F
100
AcDbEntity
  8
TITLE
  6
SLD-Solid
370
    18
100
AcDbLine
 10
69.5
 20
28.18897637795276
 30
0.0
 11
69.83464566929135
 21
28.18897637795276
 31
0.0
  0
LINE
  5
B0
330
1F
100
AcDbEntity
  8
TITLE
  6
SLD-Solid
370
    18
100
AcDbLine
 10
0.5
 20
30.15748031496063
 30
0.0
 11
0.1653543307086614
 21
30.15748031496063
 31
0.0
  0
LINE
  5
B1
330
1F
100
AcDbEntity
  8
TITLE
  6
SLD-Solid
370
    18
100
AcDbLine
 10
69.5
 20
30.15748031496063
 30
0.0
 11
69.83464566929135
 21
30.15748031496063
 31
0.0
  0
LINE
  5
B2
330
1F
100
AcDbEntity
  8
TITLE
  6
SLD-Solid
370
    18
100
AcDbLine
 10
0.5
 20
32.1259842519685
 30
0.0
 11
0.1653543307086614
 21
32.1259842519685
 31
0.0
  0
LINE
  5
B3
330
1F
100
AcDbEntity
  8
TITLE
  6
SLD-Solid
370
    18
100
AcDbLine
 10
69.5
 20
32.1259842519685
 30
0.0
 11
69.83464566929135
 21
32.1259842519685
 31
0.0
  0
LINE
  5
B4
330
1F
100
AcDbEntity
  8
TITLE
  6
SLD-Solid
370
    18
100
AcDbLine
 10
0.5
 20
34.09448818897638
 30
0.0
 11
0.1653543307086614
 21
34.09448818897638
 31
0.0
  0
LINE
  5
B5
330
1F
100
AcDbEntity
  8
TITLE
  6
SLD-Solid
370
    18
100
AcDbLine
 10
69.5
 20
34.09448818897638
 30
0.0
 11
69.83464566929135
 21
34.09448818897638
 31
0.0
  0
LINE
  5
B6
330
1F
100
AcDbEntity
  8
TITLE
  6
SLD-Solid
370
    18
100
AcDbLine
 10
0.5
 20
36.06299212598425
 30
0.0
 11
0.1653543307086614
 21
36.06299212598425
 31
0.0
  0
LINE
  5
B7
330
1F
100
AcDbEntity
  8
TITLE
  6
SLD-Solid
370
    18
100
AcDbLine
 10
69.5
 20
36.06299212598425
 30
0.0
 11
69.83464566929135
 21
36.06299212598425
 31
0.0
  0
LINE
  5
B8
330
1F
100
AcDbEntity
  8
TITLE
  6
SLD-Solid
370
    18
100
AcDbLine
 10
0.5
 20
38.03149606299213
 30
0.0
 11
0.1653543307086614
 21
38.03149606299213
 31
0.0
  0
LINE
  5
B9
330
1F
100
AcDbEntity
  8
TITLE
  6
SLD-Solid
370
    18
100
AcDbLine
 10
69.5
 20
38.03149606299213
 30
0.0
 11
69.83464566929135
 21
38.03149606299213
 31
0.0
  0
LINE
  5
BA
330
1F
100
AcDbEntity
  8
TITLE
  6
SLD-Solid
370
    18
100
AcDbLine
 10
0.5
 20
40.0
 30
0.0
 11
0.1653543307086614
 21
40.0
 31
0.0
  0
LINE
  5
BB
330
1F
100
AcDbEntity
  8
TITLE
  6
SLD-Solid
370
    18
100
AcDbLine
 10
69.5
 20
40.0
 30
0.0
 11
69.83464566929135
 21
40.0
 31
0.0
  0
LINE
  5
BC
330
1F
100
AcDbEntity
  8
TITLE
  6
SLD-Solid
370
    18
100
AcDbLine
 10
0.5
 20
41.96850393700787
 30
0.0
 11
0.1653543307086614
 21
41.96850393700787
 31
0.0
  0
LINE
  5
BD
330
1F
100
AcDbEntity
  8
TITLE
  6
SLD-Solid
370
    18
100
AcDbLine
 10
69.5
 20
41.96850393700787
 30
0.0
 11
69.83464566929135
 21
41.96850393700787
 31
0.0
  0
LINE
  5
BE
330
1F
100
AcDbEntity
  8
TITLE
  6
SLD-Solid
370
    18
100
AcDbLine
 10
0.5
 20
43.93700787401576
 30
0.0
 11
0.1653543307086614
 21
43.93700787401576
 31
0.0
  0
LINE
  5
BF
330
1F
100
AcDbEntity
  8
TITLE
  6
SLD-Solid
370
    18
100
AcDbLine
 10
69.5
 20
43.93700787401576
 30
0.0
 11
69.83464566929135
 21
43.93700787401576
 31
0.0
  0
LINE
  5
C0
330
1F
100
AcDbEntity
  8
TITLE
  6
SLD-Solid
370
    18
100
AcDbLine
 10
0.5
 20
45.90551181102362
 30
0.0
 11
0.1653543307086614
 21
45.90551181102362
 31
0.0
  0
LINE
  5
C1
330
1F
100
AcDbEntity
  8
TITLE
  6
SLD-Solid
370
    18
100
AcDbLine
 10
69.5
 20
45.90551181102362
 30
0.0
 11
69.83464566929135
 21
45.90551181102362
 31
0.0
  0
LINE
  5
C2
330
1F
100
AcDbEntity
  8
TITLE
  6
SLD-Solid
370
    18
100
AcDbLine
 10
0.5
 20
47.8740157480315
 30
0.0
 11
0.1653543307086614
 21
47.8740157480315
 31
0.0
  0
LINE
  5
C3
330
1F
100
AcDbEntity
  8
TITLE
  6
SLD-Solid
370
    18
100
AcDbLine
 10
69.5
 20
47.8740157480315
 30
0.0
 11
69.83464566929135
 21
47.8740157480315
 31
0.0
  0
LINE
  5
C4
330
1F
100
AcDbEntity
  8
TITLE
  6
SLD-Solid
370
    18
100
AcDbLine
 10
0.5
 20
49.84251968503937
 30
0.0
 11
0.1653543307086614
 21
49.84251968503937
 31
0.0
  0
LINE
  5
C5
330
1F
100
AcDbEntity
  8
TITLE
  6
SLD-Solid
370
    18
100
AcDbLine
 10
69.5
 20
49.84251968503937
 30
0.0
 11
69.83464566929135
 21
49.84251968503937
 31
0.0
  0
LINE
  5
C6
330
1F
100
AcDbEntity
  8
TITLE
  6
SLD-Solid
370
    18
100
AcDbLine
 10
0.5
 20
51.81102362204724
 30
0.0
 11
0.1653543307086614
 21
51.81102362204724
 31
0.0
  0
LINE
  5
C7
330
1F
100
AcDbEntity
  8
TITLE
  6
SLD-Solid
370
    18
100
AcDbLine
 10
69.5
 20
51.81102362204724
 30
0.0
 11
69.83464566929135
 21
51.81102362204724
 31
0.0
  0
LINE
  5
C8
330
1F
100
AcDbEntity
  8
TITLE
  6
SLD-Solid
370
    18
100
AcDbLine
 10
0.5
 20
53.77952755905513
 30
0.0
 11
0.1653543307086614
 21
53.77952755905513
 31
0.0
  0
LINE
  5
C9
330
1F
100
AcDbEntity
  8
TITLE
  6
SLD-Solid
370
    18
100
AcDbLine
 10
69.5
 20
53.77952755905513
 30
0.0
 11
69.83464566929135
 21
53.77952755905513
 31
0.0
  0
LINE
  5
CA
330
1F
100
AcDbEntity
  8
TITLE
  6
SLD-Solid
370
    18
100
AcDbLine
 10
0.5
 20
55.74803149606299
 30
0.0
 11
0.1653543307086614
 21
55.74803149606299
 31
0.0
  0
LINE
  5
CB
330
1F
100
AcDbEntity
  8
TITLE
  6
SLD-Solid
370
    18
100
AcDbLine
 10
69.5
 20
55.74803149606299
 30
0.0
 11
69.83464566929135
 21
55.74803149606299
 31
0.0
  0
LINE
  5
CC
330
1F
100
AcDbEntity
  8
TITLE
  6
SLD-Solid
370
    18
100
AcDbLine
 10
0.5
 20
57.71653543307087
 30
0.0
 11
0.1653543307086614
 21
57.71653543307087
 31
0.0
  0
LINE
  5
CD
330
1F
100
AcDbEntity
  8
TITLE
  6
SLD-Solid
370
    18
100
AcDbLine
 10
69.5
 20
57.71653543307087
 30
0.0
 11
69.83464566929135
 21
57.71653543307087
 31
0.0
  0
LINE
  5
CE
330
1F
100
AcDbEntity
  8
TITLE
  6
SLD-Solid
370
    18
100
AcDbLine
 10
0.5
 20
59.68503937007874
 30
0.0
 11
0.1653543307086614
 21
59.68503937007874
 31
0.0
  0
LINE
  5
CF
330
1F
100
AcDbEntity
  8
TITLE
  6
SLD-Solid
370
    18
100
AcDbLine
 10
69.5
 20
59.68503937007874
 30
0.0
 11
69.83464566929135
 21
59.68503937007874
 31
0.0
  0
LINE
  5
D0
330
1F
100
AcDbEntity
  8
TITLE
  6
SLD-Solid
370
    18
100
AcDbLine
 10
0.5
 20
61.65354330708661
 30
0.0
 11
0.1653543307086614
 21
61.65354330708661
 31
0.0
  0
LINE
  5
D1
330
1F
100
AcDbEntity
  8
TITLE
  6
SLD-Solid
370
    18
100
AcDbLine
 10
69.5
 20
61.65354330708661
 30
0.0
 11
69.83464566929135
 21
61.65354330708661
 31
0.0
  0
LINE
  5
D2
330
1F
100
AcDbEntity
  8
TITLE
  6
SLD-Solid
370
    18
100
AcDbLine
 10
0.5
 20
63.6220472440945
 30
0.0
 11
0.1653543307086614
 21
63.6220472440945
 31
0.0
  0
LINE
  5
D3
330
1F
100
AcDbEntity
  8
TITLE
  6
SLD-Solid
370
    18
100
AcDbLine
 10
69.5
 20
63.6220472440945
 30
0.0
 11
69.83464566929135
 21
63.6220472440945
 31
0.0
  0
LINE
  5
D4
330
1F
100
AcDbEntity
  8
TITLE
  6
SLD-Solid
370
    18
100
AcDbLine
 10
0.5
 20
65.59055118110236
 30
0.0
 11
0.1653543307086614
 21
65.59055118110236
 31
0.0
  0
LINE
  5
D5
330
1F
100
AcDbEntity
  8
TITLE
  6
SLD-Solid
370
    18
100
AcDbLine
 10
69.5
 20
65.59055118110236
 30
0.0
 11
69.83464566929135
 21
65.59055118110236
 31
0.0
  0
LINE
  5
D6
330
1F
100
AcDbEntity
  8
TITLE
  6
SLD-Solid
370
    18
100
AcDbLine
 10
0.5
 20
67.55905511811025
 30
0.0
 11
0.1653543307086614
 21
67.55905511811025
 31
0.0
  0
LINE
  5
D7
330
1F
100
AcDbEntity
  8
TITLE
  6
SLD-Solid
370
    18
100
AcDbLine
 10
69.5
 20
67.55905511811025
 30
0.0
 11
69.83464566929135
 21
67.55905511811025
 31
0.0
  0
LINE
  5
D8
330
1F
100
AcDbEntity
  8
TITLE
  6
SLD-Solid
370
    18
100
AcDbLine
 10
0.5
 20
69.52755905511812
 30
0.0
 11
0.1653543307086614
 21
69.52755905511812
 31
0.0
  0
LINE
  5
D9
330
1F
100
AcDbEntity
  8
TITLE
  6
SLD-Solid
370
    18
100
AcDbLine
 10
69.5
 20
69.52755905511812
 30
0.0
 11
69.83464566929135
 21
69.52755905511812
 31
0.0
  0
LINE
  5
DA
330
1F
100
AcDbEntity
  8
TITLE
  6
SLD-Solid
370
    18
100
AcDbLine
 10
0.5
 20
71.49606299212599
 30
0.0
 11
0.1653543307086614
 21
71.49606299212599
 31
0.0
  0
LINE
  5
DB
330
1F
100
AcDbEntity
  8
TITLE
  6
SLD-Solid
370
    18
100
AcDbLine
 10
69.5
 20
71.49606299212599
 30
0.0
 11
69.83464566929135
 21
71.49606299212599
 31
0.0
  0
LINE
  5
DC
330
1F
100
AcDbEntity
  8
TITLE
  6
SLD-Solid
370
    18
100
AcDbLine
 10
0.5
 20
73.46456692913387
 30
0.0
 11
0.1653543307086614
 21
73.46456692913387
 31
0.0
  0
LINE
  5
DD
330
1F
100
AcDbEntity
  8
TITLE
  6
SLD-Solid
370
    18
100
AcDbLine
 10
69.5
 20
73.46456692913387
 30
0.0
 11
69.83464566929135
 21
73.46456692913387
 31
0.0
  0
LINE
  5
DE
330
1F
100
AcDbEntity
  8
TITLE
  6
SLD-Solid
370
    18
100
AcDbLine
 10
0.5
 20
75.43307086614173
 30
0.0
 11
0.1653543307086614
 21
75.43307086614173
 31
0.0
  0
LINE
  5
DF
330
1F
100
AcDbEntity
  8
TITLE
  6
SLD-Solid
370
    18
100
AcDbLine
 10
69.5
 20
75.43307086614173
 30
0.0
 11
69.83464566929135
 21
75.43307086614173
 31
0.0
  0
LINE
  5
E0
330
1F
100
AcDbEntity
  8
TITLE
  6
SLD-Solid
370
    18
100
AcDbLine
 10
0.5
 20
77.40157480314961
 30
0.0
 11
0.1653543307086614
 21
77.40157480314961
 31
0.0
  0
LINE
  5
E1
330
1F
100
AcDbEntity
  8
TITLE
  6
SLD-Solid
370
    18
100
AcDbLine
 10
69.5
 20
77.40157480314961
 30
0.0
 11
69.83464566929135
 21
77.40157480314961
 31
0.0
  0
LINE
  5
E2
330
1F
100
AcDbEntity
  8
TITLE
  6
SLD-Solid
370
    18
100
AcDbLine
 10
1.535433070866139
 20
79.5
 30
0.0
 11
1.535433070866139
 21
79.83464566929135
 31
0.0
  0
LINE
  5
E3
330
1F
100
AcDbEntity
  8
TITLE
  6
SLD-Solid
370
    18
100
AcDbLine
 10
1.535433070866139
 20
0.5
 30
0.0
 11
1.535433070866139
 21
0.1653543307086614
 31
0.0
  0
LINE
  5
E4
330
1F
100
AcDbEntity
  8
TITLE
  6
SLD-Solid
370
    18
100
AcDbLine
 10
3.503937007874014
 20
79.5
 30
0.0
 11
3.503937007874014
 21
79.83464566929135
 31
0.0
  0
LINE
  5
E5
330
1F
100
AcDbEntity
  8
TITLE
  6
SLD-Solid
370
    18
100
AcDbLine
 10
3.503937007874014
 20
0.5
 30
0.0
 11
3.503937007874014
 21
0.1653543307086614
 31
0.0
  0
LINE
  5
E6
330
1F
100
AcDbEntity
  8
TITLE
  6
SLD-Solid
370
    18
100
AcDbLine
 10
5.472440944881891
 20
79.5
 30
0.0
 11
5.472440944881891
 21
79.83464566929135
 31
0.0
  0
LINE
  5
E7
330
1F
100
AcDbEntity
  8
TITLE
  6
SLD-Solid
370
    18
100
AcDbLine
 10
5.472440944881891
 20
0.5
 30
0.0
 11
5.472440944881891
 21
0.1653543307086614
 31
0.0
  0
LINE
  5
E8
330
1F
100
AcDbEntity
  8
TITLE
  6
SLD-Solid
370
    18
100
AcDbLine
 10
7.440944881889762
 20
79.5
 30
0.0
 11
7.440944881889762
 21
79.83464566929135
 31
0.0
  0
LINE
  5
E9
330
1F
100
AcDbEntity
  8
TITLE
  6
SLD-Solid
370
    18
100
AcDbLine
 10
7.440944881889762
 20
0.5
 30
0.0
 11
7.440944881889762
 21
0.1653543307086614
 31
0.0
  0
LINE
  5
EA
330
1F
100
AcDbEntity
  8
TITLE
  6
SLD-Solid
370
    18
100
AcDbLine
 10
9.409448818897637
 20
79.5
 30
0.0
 11
9.409448818897637
 21
79.83464566929135
 31
0.0
  0
LINE
  5
EB
330
1F
100
AcDbEntity
  8
TITLE
  6
SLD-Solid
370
    18
100
AcDbLine
 10
9.409448818897637
 20
0.5
 30
0.0
 11
9.409448818897637
 21
0.1653543307086614
 31
0.0
  0
LINE
  5
EC
330
1F
100
AcDbEntity
  8
TITLE
  6
SLD-Solid
370
    18
100
AcDbLine
 10
11.37795275590551
 20
79.5
 30
0.0
 11
11.37795275590551
 21
79.83464566929135
 31
0.0
  0
LINE
  5
ED
330
1F
100
AcDbEntity
  8
TITLE
  6
SLD-Solid
370
    18
100
AcDbLine
 10
11.37795275590551
 20
0.5
 30
0.0
 11
11.37795275590551
 21
0.1653543307086614
 31
0.0
  0
LINE
  5
EE
330
1F
100
AcDbEntity
  8
TITLE
  6
SLD-Solid
370
    18
100
AcDbLine
 10
13.34645669291339
 20
79.5
 30
0.0
 11
13.34645669291339
 21
79.83464566929135
 31
0.0
  0
LINE
  5
EF
330
1F
100
AcDbEntity
  8
TITLE
  6
SLD-Solid
370
    18
100
AcDbLine
 10
13.34645669291339
 20
0.5
 30
0.0
 11
13.34645669291339
 21
0.1653543307086614
 31
0.0
  0
LINE
  5
F0
330
1F
100
AcDbEntity
  8
TITLE
  6
SLD-Solid
370
    18
100
AcDbLine
 10
15.31496062992126
 20
79.5
 30
0.0
 11
15.31496062992126
 21
79.83464566929135
 31
0.0
  0
LINE
  5
F1
330
1F
100
AcDbEntity
  8
TITLE
  6
SLD-Solid
370
    18
100
AcDbLine
 10
15.31496062992126
 20
0.5
 30
0.0
 11
15.31496062992126
 21
0.1653543307086614
 31
0.0
  0
LINE
  5
F2
330
1F
100
AcDbEntity
  8
TITLE
  6
SLD-Solid
370
    18
100
AcDbLine
 10
17.28346456692913
 20
79.5
 30
0.0
 11
17.28346456692913
 21
79.83464566929135
 31
0.0
  0
LINE
  5
F3
330
1F
100
AcDbEntity
  8
TITLE
  6
SLD-Solid
370
    18
100
AcDbLine
 10
17.28346456692913
 20
0.5
 30
0.0
 11
17.28346456692913
 21
0.1653543307086614
 31
0.0
  0
LINE
  5
F4
330
1F
100
AcDbEntity
  8
TITLE
  6
SLD-Solid
370
    18
100
AcDbLine
 10
19.25196850393701
 20
79.5
 30
0.0
 11
19.25196850393701
 21
79.83464566929135
 31
0.0
  0
LINE
  5
F5
330
1F
100
AcDbEntity
  8
TITLE
  6
SLD-Solid
370
    18
100
AcDbLine
 10
19.25196850393701
 20
0.5
 30
0.0
 11
19.25196850393701
 21
0.1653543307086614
 31
0.0
  0
LINE
  5
F6
330
1F
100
AcDbEntity
  8
TITLE
  6
SLD-Solid
370
    18
100
AcDbLine
 10
21.22047244094488
 20
79.5
 30
0.0
 11
21.22047244094488
 21
79.83464566929135
 31
0.0
  0
LINE
  5
F7
330
1F
100
AcDbEntity
  8
TITLE
  6
SLD-Solid
370
    18
100
AcDbLine
 10
21.22047244094488
 20
0.5
 30
0.0
 11
21.22047244094488
 21
0.1653543307086614
 31
0.0
  0
LINE
  5
F8
330
1F
100
AcDbEntity
  8
TITLE
  6
SLD-Solid
370
    18
100
AcDbLine
 10
23.18897637795276
 20
79.5
 30
0.0
 11
23.18897637795276
 21
79.83464566929135
 31
0.0
  0
LINE
  5
F9
330
1F
100
AcDbEntity
  8
TITLE
  6
SLD-Solid
370
    18
100
AcDbLine
 10
23.18897637795276
 20
0.5
 30
0.0
 11
23.18897637795276
 21
0.1653543307086614
 31
0.0
  0
LINE
  5
FA
330
1F
100
AcDbEntity
  8
TITLE
  6
SLD-Solid
370
    18
100
AcDbLine
 10
25.15748031496063
 20
79.5
 30
0.0
 11
25.15748031496063
 21
79.83464566929135
 31
0.0
  0
LINE
  5
FB
330
1F
100
AcDbEntity
  8
TITLE
  6
SLD-Solid
370
    18
100
AcDbLine
 10
25.15748031496063
 20
0.5
 30
0.0
 11
25.15748031496063
 21
0.1653543307086614
 31
0.0
  0
LINE
  5
FC
330
1F
100
AcDbEntity
  8
TITLE
  6
SLD-Solid
370
    18
100
AcDbLine
 10
27.12598425196851
 20
79.5
 30
0.0
 11
27.12598425196851
 21
79.83464566929135
 31
0.0
  0
LINE
  5
FD
330
1F
100
AcDbEntity
  8
TITLE
  6
SLD-Solid
370
    18
100
AcDbLine
 10
27.12598425196851
 20
0.5
 30
0.0
 11
27.12598425196851
 21
0.1653543307086614
 31
0.0
  0
LINE
  5
FE
330
1F
100
AcDbEntity
  8
TITLE
  6
SLD-Solid
370
    18
100
AcDbLine
 10
29.09448818897638
 20
79.5
 30
0.0
 11
29.09448818897638
 21
79.83464566929135
 31
0.0
  0
LINE
  5
FF
330
1F
100
AcDbEntity
  8
TITLE
  6
SLD-Solid
370
    18
100
AcDbLine
 10
29.09448818897638
 20
0.5
 30
0.0
 11
29.09448818897638
 21
0.1653543307086614
 31
0.0
  0
LINE
  5
100
330
1F
100
AcDbEntity
  8
TITLE
  6
SLD-Solid
370
    18
100
AcDbLine
 10
31.06299212598426
 20
79.5
 30
0.0
 11
31.06299212598426
 21
79.83464566929135
 31
0.0
  0
LINE
  5
101
330
1F
100
AcDbEntity
  8
TITLE
  6
SLD-Solid
370
    18
100
AcDbLine
 10
31.06299212598426
 20
0.5
 30
0.0
 11
31.06299212598426
 21
0.1653543307086614
 31
0.0
  0
LINE
  5
102
330
1F
100
AcDbEntity
  8
TITLE
  6
SLD-Solid
370
    18
100
AcDbLine
 10
33.03149606299213
 20
79.5
 30
0.0
 11
33.03149606299213
 21
79.83464566929135
 31
0.0
  0
LINE
  5
103
330
1F
100
AcDbEntity
  8
TITLE
  6
SLD-Solid
370
    18
100
AcDbLine
 10
33.03149606299213
 20
0.5
 30
0.0
 11
33.03149606299213
 21
0.1653543307086614
 31
0.0
  0
LINE
  5
104
330
1F
100
AcDbEntity
  8
TITLE
  6
SLD-Solid
370
    18
100
AcDbLine
 10
35.0
 20
79.5
 30
0.0
 11
35.0
 21
79.83464566929135
 31
0.0
  0
LINE
  5
105
330
1F
100
AcDbEntity
  8
TITLE
  6
SLD-Solid
370
    18
100
AcDbLine
 10
35.0
 20
0.5
 30
0.0
 11
35.0
 21
0.1653543307086614
 31
0.0
  0
LINE
  5
106
330
1F
100
AcDbEntity
  8
TITLE
  6
SLD-Solid
370
    18
100
AcDbLine
 10
36.96850393700787
 20
79.5
 30
0.0
 11
36.96850393700787
 21
79.83464566929135
 31
0.0
  0
LINE
  5
107
330
1F
100
AcDbEntity
  8
TITLE
  6
SLD-Solid
370
    18
100
AcDbLine
 10
36.96850393700787
 20
0.5
 30
0.0
 11
36.96850393700787
 21
0.1653543307086614
 31
0.0
  0
LINE
  5
108
330
1F
100
AcDbEntity
  8
TITLE
  6
SLD-Solid
370
    18
100
AcDbLine
 10
38.93700787401575
 20
79.5
 30
0.0
 11
38.93700787401575
 21
79.83464566929135
 31
0.0
  0
LINE
  5
109
330
1F
100
AcDbEntity
  8
TITLE
  6
SLD-Solid
370
    18
100
AcDbLine
 10
38.93700787401575
 20
0.5
 30
0.0
 11
38.93700787401575
 21
0.1653543307086614
 31
0.0
  0
LINE
  5
10A
330
1F
100
AcDbEntity
  8
TITLE
  6
SLD-Solid
370
    18
100
AcDbLine
 10
40.90551181102363
 20
79.5
 30
0.0
 11
40.90551181102363
 21
79.83464566929135
 31
0.0
  0
LINE
  5
10B
330
1F
100
AcDbEntity
  8
TITLE
  6
SLD-Solid
370
    18
100
AcDbLine
 10
40.90551181102363
 20
0.5
 30
0.0
 11
40.90551181102363
 21
0.1653543307086614
 31
0.0
  0
LINE
  5
10C
330
1F
100
AcDbEntity
  8
TITLE
  6
SLD-Solid
370
    18
100
AcDbLine
 10
42.8740157480315
 20
79.5
 30
0.0
 11
42.8740157480315
 21
79.83464566929135
 31
0.0
  0
LINE
  5
10D
330
1F
100
AcDbEntity
  8
TITLE
  6
SLD-Solid
370
    18
100
AcDbLine
 10
42.8740157480315
 20
0.5
 30
0.0
 11
42.8740157480315
 21
0.1653543307086614
 31
0.0
  0
LINE
  5
10E
330
1F
100
AcDbEntity
  8
TITLE
  6
SLD-Solid
370
    18
100
AcDbLine
 10
44.84251968503937
 20
79.5
 30
0.0
 11
44.84251968503937
 21
79.83464566929135
 31
0.0
  0
LINE
  5
10F
330
1F
100
AcDbEntity
  8
TITLE
  6
SLD-Solid
370
    18
100
AcDbLine
 10
44.84251968503937
 20
0.5
 30
0.0
 11
44.84251968503937
 21
0.1653543307086614
 31
0.0
  0
LINE
  5
110
330
1F
100
AcDbEntity
  8
TITLE
  6
SLD-Solid
370
    18
100
AcDbLine
 10
46.81102362204724
 20
79.5
 30
0.0
 11
46.81102362204724
 21
79.83464566929135
 31
0.0
  0
LINE
  5
111
330
1F
100
AcDbEntity
  8
TITLE
  6
SLD-Solid
370
    18
100
AcDbLine
 10
46.81102362204724
 20
0.5
 30
0.0
 11
46.81102362204724
 21
0.1653543307086614
 31
0.0
  0
LINE
  5
112
330
1F
100
AcDbEntity
  8
TITLE
  6
SLD-Solid
370
    18
100
AcDbLine
 10
48.77952755905513
 20
79.5
 30
0.0
 11
48.77952755905513
 21
79.83464566929135
 31
0.0
  0
LINE
  5
113
330
1F
100
AcDbEntity
  8
TITLE
  6
SLD-Solid
370
    18
100
AcDbLine
 10
48.77952755905513
 20
0.5
 30
0.0
 11
48.77952755905513
 21
0.1653543307086614
 31
0.0
  0
LINE
  5
114
330
1F
100
AcDbEntity
  8
TITLE
  6
SLD-Solid
370
    18
100
AcDbLine
 10
50.748031496063
 20
79.5
 30
0.0
 11
50.748031496063
 21
79.83464566929135
 31
0.0
  0
LINE
  5
115
330
1F
100
AcDbEntity
  8
TITLE
  6
SLD-Solid
370
    18
100
AcDbLine
 10
50.748031496063
 20
0.5
 30
0.0
 11
50.748031496063
 21
0.1653543307086614
 31
0.0
  0
LINE
  5
116
330
1F
100
AcDbEntity
  8
TITLE
  6
SLD-Solid
370
    18
100
AcDbLine
 10
52.71653543307087
 20
79.5
 30
0.0
 11
52.71653543307087
 21
79.83464566929135
 31
0.0
  0
LINE
  5
117
330
1F
100
AcDbEntity
  8
TITLE
  6
SLD-Solid
370
    18
100
AcDbLine
 10
52.71653543307087
 20
0.5
 30
0.0
 11
52.71653543307087
 21
0.1653543307086614
 31
0.0
  0
LINE
  5
118
330
1F
100
AcDbEntity
  8
TITLE
  6
SLD-Solid
370
    18
100
AcDbLine
 10
54.68503937007874
 20
79.5
 30
0.0
 11
54.68503937007874
 21
79.83464566929135
 31
0.0
  0
LINE
  5
119
330
1F
100
AcDbEntity
  8
TITLE
  6
SLD-Solid
370
    18
100
AcDbLine
 10
54.68503937007874
 20
0.5
 30
0.0
 11
54.68503937007874
 21
0.1653543307086614
 31
0.0
  0
LINE
  5
11A
330
1F
100
AcDbEntity
  8
TITLE
  6
SLD-Solid
370
    18
100
AcDbLine
 10
56.65354330708661
 20
79.5
 30
0.0
 11
56.65354330708661
 21
79.83464566929135
 31
0.0
  0
LINE
  5
11B
330
1F
100
AcDbEntity
  8
TITLE
  6
SLD-Solid
370
    18
100
AcDbLine
 10
56.65354330708661
 20
0.5
 30
0.0
 11
56.65354330708661
 21
0.1653543307086614
 31
0.0
  0
LINE
  5
11C
330
1F
100
AcDbEntity
  8
TITLE
  6
SLD-Solid
370
    18
100
AcDbLine
 10
58.6220472440945
 20
79.5
 30
0.0
 11
58.6220472440945
 21
79.83464566929135
 31
0.0
  0
LINE
  5
11D
330
1F
100
AcDbEntity
  8
TITLE
  6
SLD-Solid
370
    18
100
AcDbLine
 10
58.6220472440945
 20
0.5
 30
0.0
 11
58.6220472440945
 21
0.1653543307086614
 31
0.0
  0
LINE
  5
11E
330
1F
100
AcDbEntity
  8
TITLE
  6
SLD-Solid
370
    18
100
AcDbLine
 10
60.59055118110237
 20
79.5
 30
0.0
 11
60.59055118110237
 21
79.83464566929135
 31
0.0
  0
LINE
  5
11F
330
1F
100
AcDbEntity
  8
TITLE
  6
SLD-Solid
370
    18
100
AcDbLine
 10
60.59055118110237
 20
0.5
 30
0.0
 11
60.59055118110237
 21
0.1653543307086614
 31
0.0
  0
LINE
  5
120
330
1F
100
AcDbEntity
  8
TITLE
  6
SLD-Solid
370
    18
100
AcDbLine
 10
62.55905511811024
 20
79.5
 30
0.0
 11
62.55905511811024
 21
79.83464566929135
 31
0.0
  0
LINE
  5
121
330
1F
100
AcDbEntity
  8
TITLE
  6
SLD-Solid
370
    18
100
AcDbLine
 10
62.55905511811024
 20
0.5
 30
0.0
 11
62.55905511811024
 21
0.1653543307086614
 31
0.0
  0
LINE
  5
122
330
1F
100
AcDbEntity
  8
TITLE
  6
SLD-Solid
370
    18
100
AcDbLine
 10
64.52755905511812
 20
79.5
 30
0.0
 11
64.52755905511812
 21
79.83464566929135
 31
0.0
  0
LINE
  5
123
330
1F
100
AcDbEntity
  8
TITLE
  6
SLD-Solid
370
    18
100
AcDbLine
 10
64.52755905511812
 20
0.5
 30
0.0
 11
64.52755905511812
 21
0.1653543307086614
 31
0.0
  0
LINE
  5
124
330
1F
100
AcDbEntity
  8
TITLE
  6
SLD-Solid
370
    18
100
AcDbLine
 10
66.49606299212599
 20
79.5
 30
0.0
 11
66.49606299212599
 21
79.83464566929135
 31
0.0
  0
LINE
  5
125
330
1F
100
AcDbEntity
  8
TITLE
  6
SLD-Solid
370
    18
100
AcDbLine
 10
66.49606299212599
 20
0.5
 30
0.0
 11
66.49606299212599
 21
0.1653543307086614
 31
0.0
  0
LINE
  5
126
330
1F
100
AcDbEntity
  8
TITLE
  6
SLD-Solid
370
    18
100
AcDbLine
 10
68.46456692913387
 20
79.5
 30
0.0
 11
68.46456692913387
 21
79.83464566929135
 31
0.0
  0
LINE
  5
127
330
1F
100
AcDbEntity
  8
TITLE
  6
SLD-Solid
370
    18
100
AcDbLine
 10
68.46456692913387
 20
0.5
 30
0.0
 11
68.46456692913387
 21
0.1653543307086614
 31
0.0
  0
MTEXT
  5
129
330
1F
100
AcDbEntity
  8
NOTES
100
AcDbMText
 10
46.40829780303407
 20
1.070290334694339
 30
0.0
 40
0.25
 41
0.0
 71
     1
 72
     1
  1
UNLESS OTHERWISE SPECIFIED DIMENSIONS ARE IN INCHES.
  7
SLDTEXTSTYLE0
 73
     1
 44
1.0
  0
MTEXT
  5
12A
330
1F
100
AcDbEntity
  8
NOTES
100
AcDbMText
 10
46.43006992789031
 20
3.083062777580424
 30
0.0
 40
0.25
 41
0.0
 71
     1
 72
     1
  1
DATE:
  7
SLDTEXTSTYLE0
 73
     1
 44
1.0
  0
MTEXT
  5
12B
330
1F
100
AcDbEntity
  8
NOTES
100
AcDbMText
 10
48.53870118800533
 20
2.193032963662708
 30
0.0
 40
0.25
 41
0.0
 71
     2
 72
     1
  1
DO NOT SCALE DRAWING
  7
SLDTEXTSTYLE0
 73
     1
 44
1.0
  0
MTEXT
  5
12D
330
1F
100
AcDbEntity
  8
NOTES
100
AcDbMText
 10
52.83073730750539
 20
3.268275555297609
 30
0.0
 40
0.25
 41
0.0
 71
     1
 72
     1
  1
TITLE:
  7
SLDTEXTSTYLE1
 73
     1
 44
1.0
  0
MTEXT
  5
12E
330
1F
100
AcDbEntity
  8
NOTES
100
AcDbMText
 10
60.15618310516096
 20
3.268275555297602
 30
0.0
 40
0.25
 41
0.0
 71
     1
 72
     1
  1
DWG NO.
  7
SLDTEXTSTYLE1
 73
     1
 44
1.0
  0
MTEXT
  5
12F
330
1F
100
AcDbEntity
  8
NOTES
100
AcDbMText
 10
60.18317532028495
 20
1.064581557673832
 30
0.0
 40
0.25
 41
0.0
 71
     1
 72
     1
  1
SCALE:     1:1
  7
SLDTEXTSTYLE1
 73
     1
 44
1.0
  0
MTEXT
  5
130
330
1F
100
AcDbEntity
  8
NOTES
100
AcDbMText
 10
64.17460776499757
 20
2.651034429460866
 30
0.0
 40
0.25
 41
0.0
 71
     2
 72
     1
  1
327 CAD
  7
SLDTEXTSTYLE1
 73
     1
 44
1.0
  0
MTEXT
  5
131
330
1F
100
AcDbEntity
  8
NOTES
100
AcDbMText
 10
56.46356984598481
 20
2.651034429460864
 30
0.0
 40
0.25
 41
0.0
 71
     2
 72
     1
  1
327 wall mounted disposal
  7
SLDTEXTSTYLE1
 73
     1
 44
1.0
  0
INSERT
  5
141
330
1F
100
AcDbEntity
  8
NOTES
100
AcDbBlockReference
  2
SW_NOTE_0_1
 10
46.61597262459082
 20
5.148152684778704
 30
0.0
  0
MTEXT
  5
142
330
1F
100
AcDbEntity
  8
NOTES
100
AcDbMText
 10
49.49101854023564
 20
3.08647332676587
 30
0.0
 40
0.25
 41
0.0
 71
     2
 72
     1
  1
August 20, 2021
  7
SLDTEXTSTYLE1
 73
     1
 44
1.0
  0
MTEXT
  5
143
330
1F
100
AcDbEntity
  8
TITLE
100
AcDbMText
 10
0.3276279775836453
 20
1.629090542942676
 30
0.0
 40
0.125
 41
0.0
 71
     2
 72
     1
  1
A
  7
SLDTEXTSTYLE1
 73
     1
 44
1.0
  0
MTEXT
  5
144
330
1F
100
AcDbEntity
  8
TITLE
100
AcDbMText
 10
69.662273646875
 20
1.629090542942676
 30
0.0
 40
0.125
 41
0.0
 71
     2
 72
     1
  1
A
  7
SLDTEXTSTYLE1
 73
     1
 44
1.0
  0
MTEXT
  5
145
330
1F
100
AcDbEntity
  8
TITLE
100
AcDbMText
 10
0.3317512413046843
 20
3.66255510987181
 30
0.0
 40
0.125
 41
0.0
 71
     2
 72
     1
  1
B
  7
SLDTEXTSTYLE1
 73
     1
 44
1.0
  0
MTEXT
  5
146
330
1F
100
AcDbEntity
  8
TITLE
100
AcDbMText
 10
69.66639691059602
 20
3.662555109871809
 30
0.0
 40
0.125
 41
0.0
 71
     2
 72
     1
  1
B
  7
SLDTEXTSTYLE1
 73
     1
 44
1.0
  0
MTEXT
  5
147
330
1F
100
AcDbEntity
  8
TITLE
100
AcDbMText
 10
0.3313750816934456
 20
5.631059046879683
 30
0.0
 40
0.125
 41
0.0
 71
     2
 72
     1
  1
C
  7
SLDTEXTSTYLE1
 73
     1
 44
1.0
  0
MTEXT
  5
148
330
1F
100
AcDbEntity
  8
TITLE
100
AcDbMText
 10
69.6660207509848
 20
5.631059046879683
 30
0.0
 40
0.125
 41
0.0
 71
     2
 72
     1
  1
C
  7
SLDTEXTSTYLE1
 73
     1
 44
1.0
  0
MTEXT
  5
149
330
1F
100
AcDbEntity
  8
TITLE
100
AcDbMText
 10
0.3311870028448152
 20
7.599562983887556
 30
0.0
 40
0.125
 41
0.0
 71
     2
 72
     1
  1
D
  7
SLDTEXTSTYLE1
 73
     1
 44
1.0
  0
MTEXT
  5
14A
330
1F
100
AcDbEntity
  8
TITLE
100
AcDbMText
 10
69.66583267213616
 20
7.599562983887556
 30
0.0
 40
0.125
 41
0.0
 71
     2
 72
     1
  1
D
  7
SLDTEXTSTYLE1
 73
     1
 44
1.0
  0
MTEXT
  5
14B
330
1F
100
AcDbEntity
  8
TITLE
100
AcDbMText
 10
0.3329231160377541
 20
9.568066920895433
 30
0.0
 40
0.125
 41
0.0
 71
     2
 72
     1
  1
E
  7
SLDTEXTSTYLE1
 73
     1
 44
1.0
  0
MTEXT
  5
14C
330
1F
100
AcDbEntity
  8
TITLE
100
AcDbMText
 10
69.66756878532911
 20
9.568066920895433
 30
0.0
 40
0.125
 41
0.0
 71
     2
 72
     1
  1
E
  7
SLDTEXTSTYLE1
 73
     1
 44
1.0
  0
MTEXT
  5
14D
330
1F
100
AcDbEntity
  8
TITLE
100
AcDbMText
 10
0.3313461474003637
 20
11.53657085790331
 30
0.0
 40
0.125
 41
0.0
 71
     2
 72
     1
  1
F
  7
SLDTEXTSTYLE1
 73
     1
 44
1.0
  0
MTEXT
  5
14E
330
1F
100
AcDbEntity
  8
TITLE
100
AcDbMText
 10
69.66599181669172
 20
11.53657085790331
 30
0.0
 40
0.125
 41
0.0
 71
     2
 72
     1
  1
F
  7
SLDTEXTSTYLE1
 73
     1
 44
1.0
  0
MTEXT
  5
14F
330
1F
100
AcDbEntity
  8
TITLE
100
AcDbMText
 10
0.332257605436456
 20
13.50507479491118
 30
0.0
 40
0.125
 41
0.0
 71
     2
 72
     1
  1
G
  7
SLDTEXTSTYLE1
 73
     1
 44
1.0
  0
MTEXT
  5
150
330
1F
100
AcDbEntity
  8
TITLE
100
AcDbMText
 10
69.6669032747278
 20
13.50507479491118
 30
0.0
 40
0.125
 41
0.0
 71
     2
 72
     1
  1
G
  7
SLDTEXTSTYLE1
 73
     1
 44
1.0
  0
MTEXT
  5
151
330
1F
100
AcDbEntity
  8
TITLE
100
AcDbMText
 10
0.3323733456814148
 20
15.47357873191905
 30
0.0
 40
0.125
 41
0.0
 71
     2
 72
     1
  1
H
  7
SLDTEXTSTYLE1
 73
     1
 44
1.0
  0
MTEXT
  5
152
330
1F
100
AcDbEntity
  8
TITLE
100
AcDbMText
 10
69.66701901497275
 20
15.47357873191905
 30
0.0
 40
0.125
 41
0.0
 71
     2
 72
     1
  1
H
  7
SLDTEXTSTYLE1
 73
     1
 44
1.0
  0
MTEXT
  5
153
330
1F
100
AcDbEntity
  8
TITLE
100
AcDbMText
 10
0.3315776305595838
 20
17.44208266892693
 30
0.0
 40
0.125
 41
0.0
 71
     2
 72
     1
  1
J
  7
SLDTEXTSTYLE1
 73
     1
 44
1.0
  0
MTEXT
  5
154
330
1F
100
AcDbEntity
  8
TITLE
100
AcDbMText
 10
69.66622329985093
 20
17.44208266892693
 30
0.0
 40
0.125
 41
0.0
 71
     2
 72
     1
  1
J
  7
SLDTEXTSTYLE1
 73
     1
 44
1.0
  0
MTEXT
  5
155
330
1F
100
AcDbEntity
  8
TITLE
100
AcDbMText
 10
0.3323154765159243
 20
19.4105866059348
 30
0.0
 40
0.125
 41
0.0
 71
     2
 72
     1
  1
K
  7
SLDTEXTSTYLE1
 73
     1
 44
1.0
  0
MTEXT
  5
156
330
1F
100
AcDbEntity
  8
TITLE
100
AcDbMText
 10
69.66696114580726
 20
19.4105866059348
 30
0.0
 40
0.125
 41
0.0
 71
     2
 72
     1
  1
K
  7
SLDTEXTSTYLE1
 73
     1
 44
1.0
  0
MTEXT
  5
157
330
1F
100
AcDbEntity
  8
TITLE
100
AcDbMText
 10
0.3312448739242835
 20
21.37909054294268
 30
0.0
 40
0.125
 41
0.0
 71
     2
 72
     1
  1
L
  7
SLDTEXTSTYLE1
 73
     1
 44
1.0
  0
MTEXT
  5
158
330
1F
100
AcDbEntity
  8
TITLE
100
AcDbMText
 10
69.66589054321564
 20
21.37909054294268
 30
0.0
 40
0.125
 41
0.0
 71
     2
 72
     1
  1
L
  7
SLDTEXTSTYLE1
 73
     1
 44
1.0
  0
MTEXT
  5
159
330
1F
100
AcDbEntity
  8
TITLE
100
AcDbMText
 10
0.3283224192293962
 20
23.34759447995055
 30
0.0
 40
0.125
 41
0.0
 71
     2
 72
     1
  1
M
  7
SLDTEXTSTYLE1
 73
     1
 44
1.0
  0
MTEXT
  5
15A
330
1F
100
AcDbEntity
  8
TITLE
100
AcDbMText
 10
69.66296808852074
 20
23.34759447995055
 30
0.0
 40
0.125
 41
0.0
 71
     2
 72
     1
  1
M
  7
SLDTEXTSTYLE1
 73
     1
 44
1.0
  0
MTEXT
  5
15B
330
1F
100
AcDbEntity
  8
TITLE
100
AcDbMText
 10
0.3315342275836453
 20
25.31609841695843
 30
0.0
 40
0.125
 41
0.0
 71
     2
 72
     1
  1
N
  7
SLDTEXTSTYLE1
 73
     1
 44
1.0
  0
MTEXT
  5
15C
330
1F
100
AcDbEntity
  8
TITLE
100
AcDbMText
 10
69.666179896875
 20
25.31609841695843
 30
0.0
 40
0.125
 41
0.0
 71
     2
 72
     1
  1
N
  7
SLDTEXTSTYLE1
 73
     1
 44
1.0
  0
MTEXT
  5
15D
330
1F
100
AcDbEntity
  8
TITLE
100
AcDbMText
 10
0.3321997349363143
 20
27.2846023539663
 30
0.0
 40
0.125
 41
0.0
 71
     2
 72
     1
  1
P
  7
SLDTEXTSTYLE1
 73
     1
 44
1.0
  0
MTEXT
  5
15E
330
1F
100
AcDbEntity
  8
TITLE
100
AcDbMText
 10
69.66684540422766
 20
27.2846023539663
 30
0.0
 40
0.125
 41
0.0
 71
     2
 72
     1
  1
P
  7
SLDTEXTSTYLE1
 73
     1
 44
1.0
  0
MTEXT
  5
15F
330
1F
100
AcDbEntity
  8
TITLE
100
AcDbMText
 10
0.3309265867271644
 20
29.25310629097418
 30
0.0
 40
0.125
 41
0.0
 71
     2
 72
     1
  1
R
  7
SLDTEXTSTYLE1
 73
     1
 44
1.0
  0
MTEXT
  5
160
330
1F
100
AcDbEntity
  8
TITLE
100
AcDbMText
 10
69.6655722560185
 20
29.25310629097418
 30
0.0
 40
0.125
 41
0.0
 71
     2
 72
     1
  1
R
  7
SLDTEXTSTYLE1
 73
     1
 44
1.0
  0
MTEXT
  5
161
330
1F
100
AcDbEntity
  8
TITLE
100
AcDbMText
 10
0.3323010070777432
 20
31.22161022798205
 30
0.0
 40
0.125
 41
0.0
 71
     2
 72
     1
  1
T
  7
SLDTEXTSTYLE1
 73
     1
 44
1.0
  0
MTEXT
  5
162
330
1F
100
AcDbEntity
  8
TITLE
100
AcDbMText
 10
69.6669466763691
 20
31.22161022798205
 30
0.0
 40
0.125
 41
0.0
 71
     2
 72
     1
  1
T
  7
SLDTEXTSTYLE1
 73
     1
 44
1.0
  0
MTEXT
  5
163
330
1F
100
AcDbEntity
  8
TITLE
100
AcDbMText
 10
0.3328507755201046
 20
33.19011416498992
 30
0.0
 40
0.125
 41
0.0
 71
     2
 72
     1
  1
U
  7
SLDTEXTSTYLE1
 73
     1
 44
1.0
  0
MTEXT
  5
164
330
1F
100
AcDbEntity
  8
TITLE
100
AcDbMText
 10
69.66749644481145
 20
33.19011416498992
 30
0.0
 40
0.125
 41
0.0
 71
     2
 72
     1
  1
U
  7
SLDTEXTSTYLE1
 73
     1
 44
1.0
  0
MTEXT
  5
165
330
1F
100
AcDbEntity
  8
TITLE
100
AcDbMText
 10
0.3307529773167151
 20
35.1586181019978
 30
0.0
 40
0.125
 41
0.0
 71
     2
 72
     1
  1
V
  7
SLDTEXTSTYLE1
 73
     1
 44
1.0
  0
MTEXT
  5
166
330
1F
100
AcDbEntity
  8
TITLE
100
AcDbMText
 10
69.66539864660805
 20
35.1586181019978
 30
0.0
 40
0.125
 41
0.0
 71
     2
 72
     1
  1
V
  7
SLDTEXTSTYLE1
 73
     1
 44
1.0
  0
MTEXT
  5
167
330
1F
100
AcDbEntity
  8
TITLE
100
AcDbMText
 10
0.3327784409203867
 20
37.12712203900568
 30
0.0
 40
0.125
 41
0.0
 71
     2
 72
     1
  1
W
  7
SLDTEXTSTYLE1
 73
     1
 44
1.0
  0
MTEXT
  5
168
330
1F
100
AcDbEntity
  8
TITLE
100
AcDbMText
 10
69.66742411021173
 20
37.12712203900568
 30
0.0
 40
0.125
 41
0.0
 71
     2
 72
     1
  1
W
  7
SLDTEXTSTYLE1
 73
     1
 44
1.0
  0
MTEXT
  5
169
330
1F
100
AcDbEntity
  8
TITLE
100
AcDbMText
 10
0.3321997349363143
 20
39.09562597601355
 30
0.0
 40
0.125
 41
0.0
 71
     2
 72
     1
  1
Y
  7
SLDTEXTSTYLE1
 73
     1
 44
1.0
  0
MTEXT
  5
16A
330
1F
100
AcDbEntity
  8
TITLE
100
AcDbMText
 10
69.66684540422766
 20
39.09562597601354
 30
0.0
 40
0.125
 41
0.0
 71
     2
 72
     1
  1
Y
  7
SLDTEXTSTYLE1
 73
     1
 44
1.0
  0
MTEXT
  5
16B
330
1F
100
AcDbEntity
  8
TITLE
100
AcDbMText
 10
0.32257878981296
 20
41.06412991302142
 30
0.0
 40
0.125
 41
0.0
 71
     2
 72
     1
  1
AA
  7
SLDTEXTSTYLE1
 73
     1
 44
1.0
  0
MTEXT
  5
16C
330
1F
100
AcDbEntity
  8
TITLE
100
AcDbMText
 10
69.65722445910431
 20
41.06412991302142
 30
0.0
 40
0.125
 41
0.0
 71
     2
 72
     1
  1
AA
  7
SLDTEXTSTYLE1
 73
     1
 44
1.0
  0
MTEXT
  5
16D
330
1F
100
AcDbEntity
  8
TITLE
100
AcDbMText
 10
0.3267020535339989
 20
43.0326338500293
 30
0.0
 40
0.125
 41
0.0
 71
     2
 72
     1
  1
AB
  7
SLDTEXTSTYLE1
 73
     1
 44
1.0
  0
MTEXT
  5
16E
330
1F
100
AcDbEntity
  8
TITLE
100
AcDbMText
 10
69.66134772282534
 20
43.0326338500293
 30
0.0
 40
0.125
 41
0.0
 71
     2
 72
     1
  1
AB
  7
SLDTEXTSTYLE1
 73
     1
 44
1.0
  0
MTEXT
  5
16F
330
1F
100
AcDbEntity
  8
TITLE
100
AcDbMText
 10
0.3263258985060407
 20
45.00113778703717
 30
0.0
 40
0.125
 41
0.0
 71
     2
 72
     1
  1
AC
  7
SLDTEXTSTYLE1
 73
     1
 44
1.0
  0
MTEXT
  5
170
330
1F
100
AcDbEntity
  8
TITLE
100
AcDbMText
 10
69.66097156779739
 20
45.00113778703717
 30
0.0
 40
0.125
 41
0.0
 71
     2
 72
     1
  1
AC
  7
SLDTEXTSTYLE1
 73
     1
 44
1.0
  0
MTEXT
  5
171
330
1F
100
AcDbEntity
  8
TITLE
100
AcDbMText
 10
0.3261378196574102
 20
46.96964172404503
 30
0.0
 40
0.125
 41
0.0
 71
     2
 72
     1
  1
AD
  7
SLDTEXTSTYLE1
 73
     1
 44
1.0
  0
MTEXT
  5
172
330
1F
100
AcDbEntity
  8
TITLE
100
AcDbMText
 10
69.66078348894875
 20
46.96964172404503
 30
0.0
 40
0.125
 41
0.0
 71
     2
 72
     1
  1
AD
  7
SLDTEXTSTYLE1
 73
     1
 44
1.0
  0
MTEXT
  5
173
330
1F
100
AcDbEntity
  8
TITLE
100
AcDbMText
 10
0.3278739282670687
 20
48.93814566105292
 30
0.0
 40
0.125
 41
0.0
 71
     2
 72
     1
  1
AE
  7
SLDTEXTSTYLE1
 73
     1
 44
1.0
  0
MTEXT
  5
174
330
1F
100
AcDbEntity
  8
TITLE
100
AcDbMText
 10
69.66251959755841
 20
48.93814566105292
 30
0.0
 40
0.125
 41
0.0
 71
     2
 72
     1
  1
AE
  7
SLDTEXTSTYLE1
 73
     1
 44
1.0
  0
MTEXT
  5
175
330
1F
100
AcDbEntity
  8
TITLE
100
AcDbMText
 10
0.3262969596296784
 20
50.90664959806079
 30
0.0
 40
0.125
 41
0.0
 71
     2
 72
     1
  1
AF
  7
SLDTEXTSTYLE1
 73
     1
 44
1.0
  0
MTEXT
  5
176
330
1F
100
AcDbEntity
  8
TITLE
100
AcDbMText
 10
69.66094262892103
 20
50.90664959806079
 30
0.0
 40
0.125
 41
0.0
 71
     2
 72
     1
  1
AF
  7
SLDTEXTSTYLE1
 73
     1
 44
1.0
  0
MTEXT
  5
177
330
1F
100
AcDbEntity
  8
TITLE
100
AcDbMText
 10
0.3272084176657706
 20
52.87515353506867
 30
0.0
 40
0.125
 41
0.0
 71
     2
 72
     1
  1
AG
  7
SLDTEXTSTYLE1
 73
     1
 44
1.0
  0
MTEXT
  5
178
330
1F
100
AcDbEntity
  8
TITLE
100
AcDbMText
 10
69.66185408695712
 20
52.87515353506867
 30
0.0
 40
0.125
 41
0.0
 71
     2
 72
     1
  1
AG
  7
SLDTEXTSTYLE1
 73
     1
 44
1.0
  0
MTEXT
  5
179
330
1F
100
AcDbEntity
  8
TITLE
100
AcDbMText
 10
0.3273241624940099
 20
54.84365747207654
 30
0.0
 40
0.125
 41
0.0
 71
     2
 72
     1
  1
AH
  7
SLDTEXTSTYLE1
 73
     1
 44
1.0
  0
MTEXT
  5
17A
330
1F
100
AcDbEntity
  8
TITLE
100
AcDbMText
 10
69.66196983178536
 20
54.84365747207654
 30
0.0
 40
0.125
 41
0.0
 71
     2
 72
     1
  1
AH
  7
SLDTEXTSTYLE1
 73
     1
 44
1.0
  0
MTEXT
  5
17B
330
1F
100
AcDbEntity
  8
TITLE
100
AcDbMText
 10
0.3265284427888985
 20
56.8121614090844
 30
0.0
 40
0.125
 41
0.0
 71
     2
 72
     1
  1
AJ
  7
SLDTEXTSTYLE1
 73
     1
 44
1.0
  0
MTEXT
  5
17C
330
1F
100
AcDbEntity
  8
TITLE
100
AcDbMText
 10
69.66117411208025
 20
56.8121614090844
 30
0.0
 40
0.125
 41
0.0
 71
     2
 72
     1
  1
AJ
  7
SLDTEXTSTYLE1
 73
     1
 44
1.0
  0
MTEXT
  5
17D
330
1F
100
AcDbEntity
  8
TITLE
100
AcDbMText
 10
0.327266288745239
 20
58.78066534609229
 30
0.0
 40
0.125
 41
0.0
 71
     2
 72
     1
  1
AK
  7
SLDTEXTSTYLE1
 73
     1
 44
1.0
  0
MTEXT
  5
17E
330
1F
100
AcDbEntity
  8
TITLE
100
AcDbMText
 10
69.6619119580366
 20
58.7806653460923
 30
0.0
 40
0.125
 41
0.0
 71
     2
 72
     1
  1
AK
  7
SLDTEXTSTYLE1
 73
     1
 44
1.0
  0
MTEXT
  5
17F
330
1F
100
AcDbEntity
  8
TITLE
100
AcDbMText
 10
0.3261956815703178
 20
60.74916928310016
 30
0.0
 40
0.125
 41
0.0
 71
     2
 72
     1
  1
AL
  7
SLDTEXTSTYLE1
 73
     1
 44
1.0
  0
MTEXT
  5
180
330
1F
100
AcDbEntity
  8
TITLE
100
AcDbMText
 10
69.66084135086166
 20
60.74916928310016
 30
0.0
 40
0.125
 41
0.0
 71
     2
 72
     1
  1
AL
  7
SLDTEXTSTYLE1
 73
     1
 44
1.0
  0
MTEXT
  5
181
330
1F
100
AcDbEntity
  8
TITLE
100
AcDbMText
 10
0.3232732314587108
 20
62.71767322010804
 30
0.0
 40
0.125
 41
0.0
 71
     2
 72
     1
  1
AM
  7
SLDTEXTSTYLE1
 73
     1
 44
1.0
  0
MTEXT
  5
182
330
1F
100
AcDbEntity
  8
TITLE
100
AcDbMText
 10
69.65791890075006
 20
62.71767322010804
 30
0.0
 40
0.125
 41
0.0
 71
     2
 72
     1
  1
AM
  7
SLDTEXTSTYLE1
 73
     1
 44
1.0
  0
MTEXT
  5
183
330
1F
100
AcDbEntity
  8
TITLE
100
AcDbMText
 10
0.32648503981296
 20
64.6861771571159
 30
0.0
 40
0.125
 41
0.0
 71
     2
 72
     1
  1
AN
  7
SLDTEXTSTYLE1
 73
     1
 44
1.0
  0
MTEXT
  5
184
330
1F
100
AcDbEntity
  8
TITLE
100
AcDbMText
 10
69.6611307091043
 20
64.6861771571159
 30
0.0
 40
0.125
 41
0.0
 71
     2
 72
     1
  1
AN
  7
SLDTEXTSTYLE1
 73
     1
 44
1.0
  0
MTEXT
  5
185
330
1F
100
AcDbEntity
  8
TITLE
100
AcDbMText
 10
0.3271505425823485
 20
66.65468109412379
 30
0.0
 40
0.125
 41
0.0
 71
     2
 72
     1
  1
AP
  7
SLDTEXTSTYLE1
 73
     1
 44
1.0
  0
MTEXT
  5
186
330
1F
100
AcDbEntity
  8
TITLE
100
AcDbMText
 10
69.6617962118737
 20
66.65468109412379
 30
0.0
 40
0.125
 41
0.0
 71
     2
 72
     1
  1
AP
  7
SLDTEXTSTYLE1
 73
     1
 44
1.0
  0
MTEXT
  5
187
330
1F
100
AcDbEntity
  8
TITLE
100
AcDbMText
 10
0.325877398956479
 20
68.62318503113165
 30
0.0
 40
0.125
 41
0.0
 71
     2
 72
     1
  1
AR
  7
SLDTEXTSTYLE1
 73
     1
 44
1.0
  0
MTEXT
  5
188
330
1F
100
AcDbEntity
  8
TITLE
100
AcDbMText
 10
69.66052306824781
 20
68.62318503113165
 30
0.0
 40
0.125
 41
0.0
 71
     2
 72
     1
  1
AR
  7
SLDTEXTSTYLE1
 73
     1
 44
1.0
  0
MTEXT
  5
189
330
1F
100
AcDbEntity
  8
TITLE
100
AcDbMText
 10
0.3272518193070578
 20
70.59168896813952
 30
0.0
 40
0.125
 41
0.0
 71
     2
 72
     1
  1
AT
  7
SLDTEXTSTYLE1
 73
     1
 44
1.0
  0
MTEXT
  5
18A
330
1F
100
AcDbEntity
  8
TITLE
100
AcDbMText
 10
69.66189748859841
 20
70.59168896813952
 30
0.0
 40
0.125
 41
0.0
 71
     2
 72
     1
  1
AT
  7
SLDTEXTSTYLE1
 73
     1
 44
1.0
  0
MTEXT
  5
18B
330
1F
100
AcDbEntity
  8
TITLE
100
AcDbMText
 10
0.3278015877494192
 20
72.56019290514742
 30
0.0
 40
0.125
 41
0.0
 71
     2
 72
     1
  1
AU
  7
SLDTEXTSTYLE1
 73
     1
 44
1.0
  0
MTEXT
  5
18C
330
1F
100
AcDbEntity
  8
TITLE
100
AcDbMText
 10
69.66244725704077
 20
72.56019290514742
 30
0.0
 40
0.125
 41
0.0
 71
     2
 72
     1
  1
AU
  7
SLDTEXTSTYLE1
 73
     1
 44
1.0
  0
MTEXT
  5
18D
330
1F
100
AcDbEntity
  8
TITLE
100
AcDbMText
 10
0.3257037895460298
 20
74.52869684215528
 30
0.0
 40
0.125
 41
0.0
 71
     2
 72
     1
  1
AV
  7
SLDTEXTSTYLE1
 73
     1
 44
1.0
  0
MTEXT
  5
18E
330
1F
100
AcDbEntity
  8
TITLE
100
AcDbMText
 10
69.66034945883739
 20
74.52869684215528
 30
0.0
 40
0.125
 41
0.0
 71
     2
 72
     1
  1
AV
  7
SLDTEXTSTYLE1
 73
     1
 44
1.0
  0
MTEXT
  5
18F
330
1F
100
AcDbEntity
  8
TITLE
100
AcDbMText
 10
0.327729248566421
 20
76.49720077916315
 30
0.0
 40
0.125
 41
0.0
 71
     2
 72
     1
  1
AW
  7
SLDTEXTSTYLE1
 73
     1
 44
1.0
  0
MTEXT
  5
190
330
1F
100
AcDbEntity
  8
TITLE
100
AcDbMText
 10
69.66237491785776
 20
76.49720077916315
 30
0.0
 40
0.125
 41
0.0
 71
     2
 72
     1
  1
AW
  7
SLDTEXTSTYLE1
 73
     1
 44
1.0
  0
MTEXT
  5
191
330
1F
100
AcDbEntity
  8
TITLE
100
AcDbMText
 10
0.3271505425823485
 20
78.53066534609229
 30
0.0
 40
0.125
 41
0.0
 71
     2
 72
     1
  1
AY
  7
SLDTEXTSTYLE1
 73
     1
 44
1.0
  0
MTEXT
  5
192
330
1F
100
AcDbEntity
  8
TITLE
100
AcDbMText
 10
69.66179621187368
 20
78.53066534609229
 30
0.0
 40
0.125
 41
0.0
 71
     2
 72
     1
  1
AY
  7
SLDTEXTSTYLE1
 73
     1
 44
1.0
  0
MTEXT
  5
193
330
1F
100
AcDbEntity
  8
TITLE
100
AcDbMText
 10
1.015199174063176
 20
0.4125551098718105
 30
0.0
 40
0.125
 41
0.0
 71
     2
 72
     1
  1
36
  7
SLDTEXTSTYLE1
 73
     1
 44
1.0
  0
MTEXT
  5
194
330
1F
100
AcDbEntity
  8
TITLE
100
AcDbMText
 10
1.015199174063176
 20
79.74720077916314
 30
0.0
 40
0.125
 41
0.0
 71
     2
 72
     1
  1
36
  7
SLDTEXTSTYLE1
 73
     1
 44
1.0
  0
MTEXT
  5
195
330
1F
100
AcDbEntity
  8
TITLE
100
AcDbMText
 10
2.517167678000183
 20
0.4125551098718104
 30
0.0
 40
0.125
 41
0.0
 71
     2
 72
     1
  1
35
  7
SLDTEXTSTYLE1
 73
     1
 44
1.0
  0
MTEXT
  5
196
330
1F
100
AcDbEntity
  8
TITLE
100
AcDbMText
 10
2.517167678000183
 20
79.74720077916314
 30
0.0
 40
0.125
 41
0.0
 71
     2
 72
     1
  1
35
  7
SLDTEXTSTYLE1
 73
     1
 44
1.0
  0
MTEXT
  5
197
330
1F
100
AcDbEntity
  8
TITLE
100
AcDbMText
 10
4.48567161500806
 20
0.4125551098718104
 30
0.0
 40
0.125
 41
0.0
 71
     2
 72
     1
  1
34
  7
SLDTEXTSTYLE1
 73
     1
 44
1.0
  0
MTEXT
  5
198
330
1F
100
AcDbEntity
  8
TITLE
100
AcDbMText
 10
4.485671615008059
 20
79.74720077916314
 30
0.0
 40
0.125
 41
0.0
 71
     2
 72
     1
  1
34
  7
SLDTEXTSTYLE1
 73
     1
 44
1.0
  0
MTEXT
  5
199
330
1F
100
AcDbEntity
  8
TITLE
100
AcDbMText
 10
6.454175552015934
 20
0.4125551098718104
 30
0.0
 40
0.125
 41
0.0
 71
     2
 72
     1
  1
33
  7
SLDTEXTSTYLE1
 73
     1
 44
1.0
  0
MTEXT
  5
19A
330
1F
100
AcDbEntity
  8
TITLE
100
AcDbMText
 10
6.454175552015934
 20
79.74720077916314
 30
0.0
 40
0.125
 41
0.0
 71
     2
 72
     1
  1
33
  7
SLDTEXTSTYLE1
 73
     1
 44
1.0
  0
MTEXT
  5
19B
330
1F
100
AcDbEntity
  8
TITLE
100
AcDbMText
 10
8.422679489023805
 20
0.4125551098718104
 30
0.0
 40
0.125
 41
0.0
 71
     2
 72
     1
  1
32
  7
SLDTEXTSTYLE1
 73
     1
 44
1.0
  0
MTEXT
  5
19C
330
1F
100
AcDbEntity
  8
TITLE
100
AcDbMText
 10
8.422679489023807
 20
79.74720077916314
 30
0.0
 40
0.125
 41
0.0
 71
     2
 72
     1
  1
32
  7
SLDTEXTSTYLE1
 73
     1
 44
1.0
  0
MTEXT
  5
19D
330
1F
100
AcDbEntity
  8
TITLE
100
AcDbMText
 10
10.39118342603168
 20
0.4125551098718104
 30
0.0
 40
0.125
 41
0.0
 71
     2
 72
     1
  1
31
  7
SLDTEXTSTYLE1
 73
     1
 44
1.0
  0
MTEXT
  5
19E
330
1F
100
AcDbEntity
  8
TITLE
100
AcDbMText
 10
10.39118342603168
 20
79.74720077916314
 30
0.0
 40
0.125
 41
0.0
 71
     2
 72
     1
  1
31
  7
SLDTEXTSTYLE1
 73
     1
 44
1.0
  0
MTEXT
  5
19F
330
1F
100
AcDbEntity
  8
TITLE
100
AcDbMText
 10
12.35968736303955
 20
0.4125551098718104
 30
0.0
 40
0.125
 41
0.0
 71
     2
 72
     1
  1
30
  7
SLDTEXTSTYLE1
 73
     1
 44
1.0
  0
MTEXT
  5
1A0
330
1F
100
AcDbEntity
  8
TITLE
100
AcDbMText
 10
12.35968736303955
 20
79.74720077916314
 30
0.0
 40
0.125
 41
0.0
 71
     2
 72
     1
  1
30
  7
SLDTEXTSTYLE1
 73
     1
 44
1.0
  0
MTEXT
  5
1A1
330
1F
100
AcDbEntity
  8
TITLE
100
AcDbMText
 10
14.32819130004743
 20
0.4125551098718104
 30
0.0
 40
0.125
 41
0.0
 71
     2
 72
     1
  1
29
  7
SLDTEXTSTYLE1
 73
     1
 44
1.0
  0
MTEXT
  5
1A2
330
1F
100
AcDbEntity
  8
TITLE
100
AcDbMText
 10
14.32819130004743
 20
79.74720077916314
 30
0.0
 40
0.125
 41
0.0
 71
     2
 72
     1
  1
29
  7
SLDTEXTSTYLE1
 73
     1
 44
1.0
  0
MTEXT
  5
1A3
330
1F
100
AcDbEntity
  8
TITLE
100
AcDbMText
 10
16.2966952370553
 20
0.4125551098718104
 30
0.0
 40
0.125
 41
0.0
 71
     2
 72
     1
  1
28
  7
SLDTEXTSTYLE1
 73
     1
 44
1.0
  0
MTEXT
  5
1A4
330
1F
100
AcDbEntity
  8
TITLE
100
AcDbMText
 10
16.2966952370553
 20
79.74720077916314
 30
0.0
 40
0.125
 41
0.0
 71
     2
 72
     1
  1
28
  7
SLDTEXTSTYLE1
 73
     1
 44
1.0
  0
MTEXT
  5
1A5
330
1F
100
AcDbEntity
  8
TITLE
100
AcDbMText
 10
18.26519917406318
 20
0.4125551098718105
 30
0.0
 40
0.125
 41
0.0
 71
     2
 72
     1
  1
27
  7
SLDTEXTSTYLE1
 73
     1
 44
1.0
  0
MTEXT
  5
1A6
330
1F
100
AcDbEntity
  8
TITLE
100
AcDbMText
 10
18.26519917406318
 20
79.74720077916314
 30
0.0
 40
0.125
 41
0.0
 71
     2
 72
     1
  1
27
  7
SLDTEXTSTYLE1
 73
     1
 44
1.0
  0
MTEXT
  5
1A7
330
1F
100
AcDbEntity
  8
TITLE
100
AcDbMText
 10
20.23370311107105
 20
0.4125551098718104
 30
0.0
 40
0.125
 41
0.0
 71
     2
 72
     1
  1
26
  7
SLDTEXTSTYLE1
 73
     1
 44
1.0
  0
MTEXT
  5
1A8
330
1F
100
AcDbEntity
  8
TITLE
100
AcDbMText
 10
20.23370311107105
 20
79.74720077916314
 30
0.0
 40
0.125
 41
0.0
 71
     2
 72
     1
  1
26
  7
SLDTEXTSTYLE1
 73
     1
 44
1.0
  0
MTEXT
  5
1A9
330
1F
100
AcDbEntity
  8
TITLE
100
AcDbMText
 10
22.20220704807893
 20
0.4125551098718104
 30
0.0
 40
0.125
 41
0.0
 71
     2
 72
     1
  1
25
  7
SLDTEXTSTYLE1
 73
     1
 44
1.0
  0
MTEXT
  5
1AA
330
1F
100
AcDbEntity
  8
TITLE
100
AcDbMText
 10
22.20220704807893
 20
79.74720077916314
 30
0.0
 40
0.125
 41
0.0
 71
     2
 72
     1
  1
25
  7
SLDTEXTSTYLE1
 73
     1
 44
1.0
  0
MTEXT
  5
1AB
330
1F
100
AcDbEntity
  8
TITLE
100
AcDbMText
 10
24.1707109850868
 20
0.4125551098718104
 30
0.0
 40
0.125
 41
0.0
 71
     2
 72
     1
  1
24
  7
SLDTEXTSTYLE1
 73
     1
 44
1.0
  0
MTEXT
  5
1AC
330
1F
100
AcDbEntity
  8
TITLE
100
AcDbMText
 10
24.1707109850868
 20
79.74720077916314
 30
0.0
 40
0.125
 41
0.0
 71
     2
 72
     1
  1
24
  7
SLDTEXTSTYLE1
 73
     1
 44
1.0
  0
MTEXT
  5
1AD
330
1F
100
AcDbEntity
  8
TITLE
100
AcDbMText
 10
26.13921492209468
 20
0.4125551098718104
 30
0.0
 40
0.125
 41
0.0
 71
     2
 72
     1
  1
23
  7
SLDTEXTSTYLE1
 73
     1
 44
1.0
  0
MTEXT
  5
1AE
330
1F
100
AcDbEntity
  8
TITLE
100
AcDbMText
 10
26.13921492209468
 20
79.74720077916314
 30
0.0
 40
0.125
 41
0.0
 71
     2
 72
     1
  1
23
  7
SLDTEXTSTYLE1
 73
     1
 44
1.0
  0
MTEXT
  5
1AF
330
1F
100
AcDbEntity
  8
TITLE
100
AcDbMText
 10
28.10771885910255
 20
0.4125551098718104
 30
0.0
 40
0.125
 41
0.0
 71
     2
 72
     1
  1
22
  7
SLDTEXTSTYLE1
 73
     1
 44
1.0
  0
MTEXT
  5
1B0
330
1F
100
AcDbEntity
  8
TITLE
100
AcDbMText
 10
28.10771885910255
 20
79.74720077916314
 30
0.0
 40
0.125
 41
0.0
 71
     2
 72
     1
  1
22
  7
SLDTEXTSTYLE1
 73
     1
 44
1.0
  0
MTEXT
  5
1B1
330
1F
100
AcDbEntity
  8
TITLE
100
AcDbMText
 10
30.07622279611043
 20
0.4125551098718104
 30
0.0
 40
0.125
 41
0.0
 71
     2
 72
     1
  1
21
  7
SLDTEXTSTYLE1
 73
     1
 44
1.0
  0
MTEXT
  5
1B2
330
1F
100
AcDbEntity
  8
TITLE
100
AcDbMText
 10
30.07622279611043
 20
79.74720077916314
 30
0.0
 40
0.125
 41
0.0
 71
     2
 72
     1
  1
21
  7
SLDTEXTSTYLE1
 73
     1
 44
1.0
  0
MTEXT
  5
1B3
330
1F
100
AcDbEntity
  8
TITLE
100
AcDbMText
 10
32.0447267331183
 20
0.4125551098718104
 30
0.0
 40
0.125
 41
0.0
 71
     2
 72
     1
  1
20
  7
SLDTEXTSTYLE1
 73
     1
 44
1.0
  0
MTEXT
  5
1B4
330
1F
100
AcDbEntity
  8
TITLE
100
AcDbMText
 10
32.0447267331183
 20
79.74720077916314
 30
0.0
 40
0.125
 41
0.0
 71
     2
 72
     1
  1
20
  7
SLDTEXTSTYLE1
 73
     1
 44
1.0
  0
MTEXT
  5
1B5
330
1F
100
AcDbEntity
  8
TITLE
100
AcDbMText
 10
34.01323067012617
 20
0.4125551098718104
 30
0.0
 40
0.125
 41
0.0
 71
     2
 72
     1
  1
19
  7
SLDTEXTSTYLE1
 73
     1
 44
1.0
  0
MTEXT
  5
1B6
330
1F
100
AcDbEntity
  8
TITLE
100
AcDbMText
 10
34.01323067012617
 20
79.74720077916314
 30
0.0
 40
0.125
 41
0.0
 71
     2
 72
     1
  1
19
  7
SLDTEXTSTYLE1
 73
     1
 44
1.0
  0
MTEXT
  5
1B7
330
1F
100
AcDbEntity
  8
TITLE
100
AcDbMText
 10
35.98173460713405
 20
0.4125551098718104
 30
0.0
 40
0.125
 41
0.0
 71
     2
 72
     1
  1
18
  7
SLDTEXTSTYLE1
 73
     1
 44
1.0
  0
MTEXT
  5
1B8
330
1F
100
AcDbEntity
  8
TITLE
100
AcDbMText
 10
35.98173460713405
 20
79.74720077916314
 30
0.0
 40
0.125
 41
0.0
 71
     2
 72
     1
  1
18
  7
SLDTEXTSTYLE1
 73
     1
 44
1.0
  0
MTEXT
  5
1B9
330
1F
100
AcDbEntity
  8
TITLE
100
AcDbMText
 10
37.95023854414192
 20
0.4125551098718105
 30
0.0
 40
0.125
 41
0.0
 71
     2
 72
     1
  1
17
  7
SLDTEXTSTYLE1
 73
     1
 44
1.0
  0
MTEXT
  5
1BA
330
1F
100
AcDbEntity
  8
TITLE
100
AcDbMText
 10
37.95023854414192
 20
79.74720077916314
 30
0.0
 40
0.125
 41
0.0
 71
     2
 72
     1
  1
17
  7
SLDTEXTSTYLE1
 73
     1
 44
1.0
  0
MTEXT
  5
1BB
330
1F
100
AcDbEntity
  8
TITLE
100
AcDbMText
 10
39.91874248114979
 20
0.4125551098718104
 30
0.0
 40
0.125
 41
0.0
 71
     2
 72
     1
  1
16
  7
SLDTEXTSTYLE1
 73
     1
 44
1.0
  0
MTEXT
  5
1BC
330
1F
100
AcDbEntity
  8
TITLE
100
AcDbMText
 10
39.91874248114979
 20
79.74720077916314
 30
0.0
 40
0.125
 41
0.0
 71
     2
 72
     1
  1
16
  7
SLDTEXTSTYLE1
 73
     1
 44
1.0
  0
MTEXT
  5
1BD
330
1F
100
AcDbEntity
  8
TITLE
100
AcDbMText
 10
41.88724641815767
 20
0.4125551098718104
 30
0.0
 40
0.125
 41
0.0
 71
     2
 72
     1
  1
15
  7
SLDTEXTSTYLE1
 73
     1
 44
1.0
  0
MTEXT
  5
1BE
330
1F
100
AcDbEntity
  8
TITLE
100
AcDbMText
 10
41.88724641815767
 20
79.74720077916314
 30
0.0
 40
0.125
 41
0.0
 71
     2
 72
     1
  1
15
  7
SLDTEXTSTYLE1
 73
     1
 44
1.0
  0
MTEXT
  5
1BF
330
1F
100
AcDbEntity
  8
TITLE
100
AcDbMText
 10
43.85575035516554
 20
0.4125551098718104
 30
0.0
 40
0.125
 41
0.0
 71
     2
 72
     1
  1
14
  7
SLDTEXTSTYLE1
 73
     1
 44
1.0
  0
MTEXT
  5
1C0
330
1F
100
AcDbEntity
  8
TITLE
100
AcDbMText
 10
43.85575035516554
 20
79.74720077916314
 30
0.0
 40
0.125
 41
0.0
 71
     2
 72
     1
  1
14
  7
SLDTEXTSTYLE1
 73
     1
 44
1.0
  0
MTEXT
  5
1C1
330
1F
100
AcDbEntity
  8
TITLE
100
AcDbMText
 10
45.82425429217342
 20
0.4125551098718104
 30
0.0
 40
0.125
 41
0.0
 71
     2
 72
     1
  1
13
  7
SLDTEXTSTYLE1
 73
     1
 44
1.0
  0
MTEXT
  5
1C2
330
1F
100
AcDbEntity
  8
TITLE
100
AcDbMText
 10
45.82425429217342
 20
79.74720077916314
 30
0.0
 40
0.125
 41
0.0
 71
     2
 72
     1
  1
13
  7
SLDTEXTSTYLE1
 73
     1
 44
1.0
  0
MTEXT
  5
1C3
330
1F
100
AcDbEntity
  8
TITLE
100
AcDbMText
 10
47.79275822918129
 20
0.4125551098718104
 30
0.0
 40
0.125
 41
0.0
 71
     2
 72
     1
  1
12
  7
SLDTEXTSTYLE1
 73
     1
 44
1.0
  0
MTEXT
  5
1C4
330
1F
100
AcDbEntity
  8
TITLE
100
AcDbMText
 10
47.79275822918129
 20
79.74720077916314
 30
0.0
 40
0.125
 41
0.0
 71
     2
 72
     1
  1
12
  7
SLDTEXTSTYLE1
 73
     1
 44
1.0
  0
MTEXT
  5
1C5
330
1F
100
AcDbEntity
  8
TITLE
100
AcDbMText
 10
49.76126216618918
 20
0.4125551098718104
 30
0.0
 40
0.125
 41
0.0
 71
     2
 72
     1
  1
11
  7
SLDTEXTSTYLE1
 73
     1
 44
1.0
  0
MTEXT
  5
1C6
330
1F
100
AcDbEntity
  8
TITLE
100
AcDbMText
 10
49.76126216618918
 20
79.74720077916314
 30
0.0
 40
0.125
 41
0.0
 71
     2
 72
     1
  1
11
  7
SLDTEXTSTYLE1
 73
     1
 44
1.0
  0
MTEXT
  5
1C7
330
1F
100
AcDbEntity
  8
TITLE
100
AcDbMText
 10
51.72976610319703
 20
0.4125551098718104
 30
0.0
 40
0.125
 41
0.0
 71
     2
 72
     1
  1
10
  7
SLDTEXTSTYLE1
 73
     1
 44
1.0
  0
MTEXT
  5
1C8
330
1F
100
AcDbEntity
  8
TITLE
100
AcDbMText
 10
51.72976610319704
 20
79.74720077916314
 30
0.0
 40
0.125
 41
0.0
 71
     2
 72
     1
  1
10
  7
SLDTEXTSTYLE1
 73
     1
 44
1.0
  0
MTEXT
  5
1C9
330
1F
100
AcDbEntity
  8
TITLE
100
AcDbMText
 10
53.69952872088985
 20
0.4125551098718104
 30
0.0
 40
0.125
 41
0.0
 71
     2
 72
     1
  1
9
  7
SLDTEXTSTYLE1
 73
     1
 44
1.0
  0
MTEXT
  5
1CA
330
1F
100
AcDbEntity
  8
TITLE
100
AcDbMText
 10
53.69952872088985
 20
79.74720077916314
 30
0.0
 40
0.125
 41
0.0
 71
     2
 72
     1
  1
9
  7
SLDTEXTSTYLE1
 73
     1
 44
1.0
  0
MTEXT
  5
1CB
330
1F
100
AcDbEntity
  8
TITLE
100
AcDbMText
 10
55.66803265789773
 20
0.4125551098718104
 30
0.0
 40
0.125
 41
0.0
 71
     2
 72
     1
  1
8
  7
SLDTEXTSTYLE1
 73
     1
 44
1.0
  0
MTEXT
  5
1CC
330
1F
100
AcDbEntity
  8
TITLE
100
AcDbMText
 10
55.66803265789774
 20
79.74720077916314
 30
0.0
 40
0.125
 41
0.0
 71
     2
 72
     1
  1
8
  7
SLDTEXTSTYLE1
 73
     1
 44
1.0
  0
MTEXT
  5
1CD
330
1F
100
AcDbEntity
  8
TITLE
100
AcDbMText
 10
57.63653659490561
 20
0.4125551098718104
 30
0.0
 40
0.125
 41
0.0
 71
     2
 72
     1
  1
7
  7
SLDTEXTSTYLE1
 73
     1
 44
1.0
  0
MTEXT
  5
1CE
330
1F
100
AcDbEntity
  8
TITLE
100
AcDbMText
 10
57.63653659490561
 20
79.74720077916314
 30
0.0
 40
0.125
 41
0.0
 71
     2
 72
     1
  1
7
  7
SLDTEXTSTYLE1
 73
     1
 44
1.0
  0
MTEXT
  5
1CF
330
1F
100
AcDbEntity
  8
TITLE
100
AcDbMText
 10
59.60504053191348
 20
0.4125551098718104
 30
0.0
 40
0.125
 41
0.0
 71
     2
 72
     1
  1
6
  7
SLDTEXTSTYLE1
 73
     1
 44
1.0
  0
MTEXT
  5
1D0
330
1F
100
AcDbEntity
  8
TITLE
100
AcDbMText
 10
59.60504053191349
 20
79.74720077916314
 30
0.0
 40
0.125
 41
0.0
 71
     2
 72
     1
  1
6
  7
SLDTEXTSTYLE1
 73
     1
 44
1.0
  0
MTEXT
  5
1D1
330
1F
100
AcDbEntity
  8
TITLE
100
AcDbMText
 10
61.57354446892136
 20
0.4125551098718104
 30
0.0
 40
0.125
 41
0.0
 71
     2
 72
     1
  1
5
  7
SLDTEXTSTYLE1
 73
     1
 44
1.0
  0
MTEXT
  5
1D2
330
1F
100
AcDbEntity
  8
TITLE
100
AcDbMText
 10
61.57354446892135
 20
79.74720077916314
 30
0.0
 40
0.125
 41
0.0
 71
     2
 72
     1
  1
5
  7
SLDTEXTSTYLE1
 73
     1
 44
1.0
  0
MTEXT
  5
1D3
330
1F
100
AcDbEntity
  8
TITLE
100
AcDbMText
 10
63.54204840592922
 20
0.4125551098718104
 30
0.0
 40
0.125
 41
0.0
 71
     2
 72
     1
  1
4
  7
SLDTEXTSTYLE1
 73
     1
 44
1.0
  0
MTEXT
  5
1D4
330
1F
100
AcDbEntity
  8
TITLE
100
AcDbMText
 10
63.54204840592924
 20
79.74720077916314
 30
0.0
 40
0.125
 41
0.0
 71
     2
 72
     1
  1
4
  7
SLDTEXTSTYLE1
 73
     1
 44
1.0
  0
MTEXT
  5
1D5
330
1F
100
AcDbEntity
  8
TITLE
100
AcDbMText
 10
65.5105523429371
 20
0.4125551098718104
 30
0.0
 40
0.125
 41
0.0
 71
     2
 72
     1
  1
3
  7
SLDTEXTSTYLE1
 73
     1
 44
1.0
  0
MTEXT
  5
1D6
330
1F
100
AcDbEntity
  8
TITLE
100
AcDbMText
 10
65.51055234293712
 20
79.74720077916314
 30
0.0
 40
0.125
 41
0.0
 71
     2
 72
     1
  1
3
  7
SLDTEXTSTYLE1
 73
     1
 44
1.0
  0
MTEXT
  5
1D7
330
1F
100
AcDbEntity
  8
TITLE
100
AcDbMText
 10
67.47905627994497
 20
0.4125551098718104
 30
0.0
 40
0.125
 41
0.0
 71
     2
 72
     1
  1
2
  7
SLDTEXTSTYLE1
 73
     1
 44
1.0
  0
MTEXT
  5
1D8
330
1F
100
AcDbEntity
  8
TITLE
100
AcDbMText
 10
67.47905627994497
 20
79.74720077916314
 30
0.0
 40
0.125
 41
0.0
 71
     2
 72
     1
  1
2
  7
SLDTEXTSTYLE1
 73
     1
 44
1.0
  0
MTEXT
  5
1D9
330
1F
100
AcDbEntity
  8
TITLE
100
AcDbMText
 10
68.98102478388199
 20
0.4125551098718104
 30
0.0
 40
0.125
 41
0.0
 71
     2
 72
     1
  1
1
  7
SLDTEXTSTYLE1
 73
     1
 44
1.0
  0
MTEXT
  5
1DA
330
1F
100
AcDbEntity
  8
TITLE
100
AcDbMText
 10
68.98102478388199
 20
79.74720077916315
 30
0.0
 40
0.125
 41
0.0
 71
     2
 72
     1
  1
1
  7
SLDTEXTSTYLE1
 73
     1
 44
1.0
  0
LINE
  5
1DB
330
1F
100
AcDbEntity
  8
0
  6
SLD-Solid
 62
     7
370
    25
100
AcDbLine
 10
21.45658612189104
 20
37.83868288084886
 30
0.0
 11
6.331586121890408
 21
37.83868288084886
 31
0.0
  0
LINE
  5
1DC
330
1F
100
AcDbEntity
  8
0
  6
SLD-Solid
 62
     7
370
    25
100
AcDbLine
 10
20.91778572688787
 20
37.83363011321946
 30
0.0
 11
6.870386514104847
 21
37.83363011321945
 31
0.0
  0
LINE
  5
1DD
330
1F
100
AcDbEntity
  8
0
  6
SLD-Solid
 62
     7
370
    25
100
AcDbLine
 10
6.331586121893261
 20
13.59764305925953
 30
0.0
 11
6.331586121893261
 21
13.62764305925953
 31
0.0
  0
LINE
  5
1DE
330
1F
100
AcDbEntity
  8
0
  6
SLD-Solid
 62
     7
370
    25
100
AcDbLine
 10
6.331586121893261
 20
13.62764305925953
 30
0.0
 11
6.581586121893261
 21
13.62764305925953
 31
0.0
  0
LINE
  5
1DF
330
1F
100
AcDbEntity
  8
0
  6
SLD-Solid
 62
     7
370
    25
100
AcDbLine
 10
6.581586121893261
 20
13.62764305925953
 30
0.0
 11
6.581586121893261
 21
13.59764305925953
 31
0.0
  0
LINE
  5
1E0
330
1F
100
AcDbEntity
  8
0
  6
SLD-Solid
 62
     7
370
    25
100
AcDbLine
 10
6.581586121893261
 20
13.59764305925953
 30
0.0
 11
6.331586121893261
 21
13.59764305925953
 31
0.0
  0
LINE
  5
1E1
330
1F
100
AcDbEntity
  8
0
  6
SLD-Solid
 62
     7
370
    25
100
AcDbLine
 10
21.20658612189326
 20
13.62764305925953
 30
0.0
 11
21.20658612189326
 21
13.59764305925953
 31
0.0
  0
LINE
  5
1E2
330
1F
100
AcDbEntity
  8
0
  6
SLD-Solid
 62
     7
370
    25
100
AcDbLine
 10
6.581586121893261
 20
13.59764305925953
 30
0.0
 11
6.878332452801788
 21
13.59764305925953
 31
0.0
  0
LINE
  5
1E3
330
1F
100
AcDbEntity
  8
0
  6
SLD-Solid
 62
     7
370
    25
100
AcDbLine
 10
20.90983979098493
 20
13.59764305925953
 30
0.0
 11
21.20658612189326
 21
13.59764305925953
 31
0.0
  0
LINE
  5
1E4
330
1F
100
AcDbEntity
  8
0
  6
SLD-Solid
 62
     7
370
    25
100
AcDbLine
 10
6.581586121893261
 20
13.62764305925953
 30
0.0
 11
6.878320403234484
 21
13.62764305925953
 31
0.0
  0
LINE
  5
1E5
330
1F
100
AcDbEntity
  8
0
  6
SLD-Solid
 62
     7
370
    25
100
AcDbLine
 10
20.9098518405522
 20
13.62764305925953
 30
0.0
 11
21.20658612189326
 21
13.62764305925953
 31
0.0
  0
LINE
  5
1E6
330
1F
100
AcDbEntity
  8
0
  6
SLD-Solid
 62
     7
370
    25
100
AcDbLine
 10
21.45658612189326
 20
13.59764305925953
 30
0.0
 11
21.45658612189326
 21
13.62764305925953
 31
0.0
  0
LINE
  5
1E7
330
1F
100
AcDbEntity
  8
0
  6
SLD-Solid
 62
     7
370
    25
100
AcDbLine
 10
21.45658612189326
 20
13.62764305925953
 30
0.0
 11
21.20658612189326
 21
13.62764305925953
 31
0.0
  0
LINE
  5
1E8
330
1F
100
AcDbEntity
  8
0
  6
SLD-Solid
 62
     7
370
    25
100
AcDbLine
 10
21.20658612189326
 20
13.59764305925953
 30
0.0
 11
21.45658612189326
 21
13.59764305925953
 31
0.0
  0
LINE
  5
1E9
330
1F
100
AcDbEntity
  8
0
  6
SLD-Solid
 62
     7
370
    25
100
AcDbLine
 10
21.45658612189326
 20
13.63368288084884
 30
0.0
 11
21.45658612189326
 21
13.62764305925953
 31
0.0
  0
LINE
  5
1EA
330
1F
100
AcDbEntity
  8
0
  6
SLD-Solid
 62
     7
370
    25
100
AcDbLine
 10
6.331586121893261
 20
13.62764305925953
 30
0.0
 11
6.331586121893261
 21
13.63368288084881
 31
0.0
  0
LINE
  5
1EB
330
1F
100
AcDbEntity
  8
0
  6
SLD-Solid
 62
     7
370
    25
100
AcDbLine
 10
21.45658612189129
 20
37.7871264692988
 30
0.0
 11
21.45658612189129
 21
37.83868288084878
 31
0.0
  0
LINE
  5
1EC
330
1F
100
AcDbEntity
  8
0
  6
SLD-Solid
 62
     7
370
    25
100
AcDbLine
 10
6.331586121891168
 20
37.83868288084877
 30
0.0
 11
6.331586121891168
 21
37.78712646929873
 31
0.0
  0
SPLINE
  5
1ED
330
1F
100
AcDbEntity
  8
0
  6
SLD-Solid
 62
     7
370
    25
100
AcDbSpline
210
0.0
220
0.0
230
1.0
 70
    12
 71
     3
 72
    11
 73
     7
 74
     0
 42
0.00000001
 43
0.00000001
 40
0.0
 40
0.0
 40
0.0
 40
0.0
 40
0.2499999999998262
 40
0.4999999999997431
 40
0.7499999999996598
 40
1.0
 40
1.0
 40
1.0
 40
1.0
 10
6.878320962163132
 20
13.62664305925951
 30
0.0
 41
1.0
 10
6.878323830175813
 20
13.61891187367494
 30
0.0
 41
1.0
 10
6.878329566201181
 20
13.6034495025058
 30
0.0
 41
1.0
 10
6.878338170239232
 20
13.58394735121709
 30
0.0
 41
1.0
 10
6.87834677427728
 20
13.57030364764286
 30
0.0
 41
1.0
 10
6.878352510302646
 20
13.56852992205396
 30
0.0
 41
1.0
 10
6.87835537831533
 20
13.56764305925951
 30
0.0
 41
1.0
  0
LINE
  5
1EE
330
1F
100
AcDbEntity
  8
0
  6
SLD-Solid
 62
     7
370
    25
100
AcDbLine
 10
21.25972551977731
 20
13.63368288084884
 30
0.0
 11
20.90985521638151
 21
13.63368288084884
 31
0.0
  0
LINE
  5
1EF
330
1F
100
AcDbEntity
  8
0
  6
SLD-Solid
 62
     7
370
    25
100
AcDbLine
 10
20.90985521638151
 20
13.63368288084884
 30
0.0
 11
20.90985128162355
 21
13.62664305925951
 31
0.0
  0
LINE
  5
1F0
330
1F
100
AcDbEntity
  8
0
  6
SLD-Solid
 62
     7
370
    25
100
AcDbLine
 10
6.878320962163132
 20
13.62664305925951
 30
0.0
 11
20.90985128162355
 21
13.62664305925951
 31
0.0
  0
LINE
  5
1F1
330
1F
100
AcDbEntity
  8
0
  6
SLD-Solid
 62
     7
370
    25
100
AcDbLine
 10
6.878320962163132
 20
13.62664305925951
 30
0.0
 11
6.87831702740517
 21
13.63368288084884
 31
0.0
  0
LINE
  5
1F2
330
1F
100
AcDbEntity
  8
0
  6
SLD-Solid
 62
     7
370
    25
100
AcDbLine
 10
6.87831702740517
 20
13.63368288084884
 30
0.0
 11
6.528446724009377
 21
13.63368288084881
 31
0.0
  0
LINE
  5
1F3
330
1F
100
AcDbEntity
  8
0
  6
SLD-Solid
 62
     7
370
    25
100
AcDbLine
 10
6.528446724009372
 20
37.78712646929873
 30
0.0
 11
6.528446724009377
 21
13.63368288084881
 31
0.0
  0
LINE
  5
1F4
330
1F
100
AcDbEntity
  8
0
  6
SLD-Solid
 62
     7
370
    25
100
AcDbLine
 10
6.870386514104847
 20
37.78712646929873
 30
0.0
 11
6.528446724009372
 21
37.78712646929873
 31
0.0
  0
LINE
  5
1F5
330
1F
100
AcDbEntity
  8
0
  6
SLD-Solid
 62
     7
370
    25
100
AcDbLine
 10
6.870386514104855
 20
37.79363011321939
 30
0.0
 11
6.870386514104847
 21
37.78712646929873
 31
0.0
  0
LINE
  5
1F6
330
1F
100
AcDbEntity
  8
0
  6
SLD-Solid
 62
     7
370
    25
100
AcDbLine
 10
6.870386514104855
 20
37.79363011321939
 30
0.0
 11
20.91778572688787
 21
37.79363011321946
 31
0.0
  0
LINE
  5
1F7
330
1F
100
AcDbEntity
  8
0
  6
SLD-Solid
 62
     7
370
    25
100
AcDbLine
 10
20.91778572688787
 20
37.7871264692988
 30
0.0
 11
20.91778572688787
 21
37.79363011321946
 31
0.0
  0
LINE
  5
1F8
330
1F
100
AcDbEntity
  8
0
  6
SLD-Solid
 62
     7
370
    25
100
AcDbLine
 10
21.25972551977732
 20
37.7871264692988
 30
0.0
 11
20.91778572688787
 21
37.7871264692988
 31
0.0
  0
LINE
  5
1F9
330
1F
100
AcDbEntity
  8
0
  6
SLD-Solid
 62
     7
370
    25
100
AcDbLine
 10
21.25972551977732
 20
37.7871264692988
 30
0.0
 11
21.25972551977731
 21
13.63368288084884
 31
0.0
  0
LINE
  5
1FA
330
1F
100
AcDbEntity
  8
0
  6
SLD-Solid
 62
     7
370
    25
100
AcDbLine
 10
6.87835537831533
 20
13.56764305925951
 30
0.0
 11
20.90981686547135
 21
13.56764305925951
 31
0.0
  0
SPLINE
  5
1FB
330
1F
100
AcDbEntity
  8
0
  6
SLD-Solid
 62
     7
370
    25
100
AcDbSpline
210
0.0
220
0.0
230
1.0
 70
    12
 71
     3
 72
    11
 73
     7
 74
     0
 42
0.00000001
 43
0.00000001
 40
0.0
 40
0.0
 40
0.0
 40
0.0
 40
0.2500000000003381
 40
0.5000000000002528
 40
0.7500000000001807
 40
1.0
 40
1.0
 40
1.0
 40
1.0
 10
20.90981686547135
 20
13.56764305925951
 30
0.0
 41
1.0
 10
20.90981973348405
 20
13.56852992205396
 30
0.0
 41
1.0
 10
20.90982546950945
 20
13.57030364764286
 30
0.0
 41
1.0
 10
20.90983407354748
 20
13.58394735121709
 30
0.0
 41
1.0
 10
20.90984267758555
 20
13.6034495025058
 30
0.0
 41
1.0
 10
20.90984841361088
 20
13.61891187367494
 30
0.0
 41
1.0
 10
20.90985128162355
 20
13.62664305925951
 30
0.0
 41
1.0
  0
LINE
  5
1FC
330
1F
100
AcDbEntity
  8
0
  6
SLD-Solid
 62
     7
370
    25
100
AcDbLine
 10
6.248446724009372
 20
37.78712646929873
 30
0.0
 11
6.248446724009376
 21
13.63368288084881
 31
0.0
  0
LINE
  5
1FD
330
1F
100
AcDbEntity
  8
0
  6
SLD-Solid
 62
     7
370
    25
100
AcDbLine
 10
6.528446724009372
 20
37.78712646929873
 30
0.0
 11
6.248446724009372
 21
37.78712646929873
 31
0.0
  0
LINE
  5
1FE
330
1F
100
AcDbEntity
  8
0
  6
SLD-Solid
 62
     7
370
    25
100
AcDbLine
 10
6.248446724009376
 20
13.63368288084881
 30
0.0
 11
6.528446724009377
 21
13.63368288084881
 31
0.0
  0
LINE
  5
1FF
330
1F
100
AcDbEntity
  8
0
  6
SLD-Solid
 62
     7
370
    25
100
AcDbLine
 10
6.870386514104855
 20
37.83363011321938
 30
0.0
 11
6.870386514104855
 21
37.79363011321939
 31
0.0
  0
LINE
  5
200
330
1F
100
AcDbEntity
  8
0
  6
SLD-Solid
 62
     7
370
    25
100
AcDbLine
 10
20.91778572688787
 20
37.79363011321946
 30
0.0
 11
20.91778572688787
 21
37.83363011321946
 31
0.0
  0
LINE
  5
201
330
1F
100
AcDbEntity
  8
0
  6
SLD-Solid
 62
     7
370
    25
100
AcDbLine
 10
21.53972551977732
 20
37.7871264692988
 30
0.0
 11
21.25972551977732
 21
37.7871264692988
 31
0.0
  0
LINE
  5
202
330
1F
100
AcDbEntity
  8
0
  6
SLD-Solid
 62
     7
370
    25
100
AcDbLine
 10
21.53972551977732
 20
37.7871264692988
 30
0.0
 11
21.5397255197773
 21
13.63368288084884
 31
0.0
  0
LINE
  5
203
330
1F
100
AcDbEntity
  8
0
  6
SLD-Solid
 62
     7
370
    25
100
AcDbLine
 10
21.25972551977731
 20
13.63368288084884
 30
0.0
 11
21.5397255197773
 21
13.63368288084884
 31
0.0
  0
ARC
  5
204
330
1F
100
AcDbEntity
  8
0
  6
SLD-Solid
 62
     7
370
    25
100
AcDbCircle
 10
21.49972551977732
 20
37.79363011321946
 30
0.0
 40
0.0400000000000027
100
AcDbArc
 50
0.0
 51
180.0000000000702
  0
LINE
  5
205
330
1F
100
AcDbEntity
  8
0
  6
SLD-Solid
 62
     7
370
    25
100
AcDbLine
 10
21.50972551977732
 20
37.79363011321946
 30
0.0
 11
21.53972551977732
 21
37.79363011321946
 31
0.0
  0
ARC
  5
206
330
1F
100
AcDbEntity
  8
0
  6
SLD-Solid
 62
     7
370
    25
100
AcDbCircle
 10
21.49972551977732
 20
37.79363011321946
 30
0.0
 40
0.0100000000000051
100
AcDbArc
 50
0.0
 51
180.000000000123
  0
LINE
  5
207
330
1F
100
AcDbEntity
  8
0
  6
SLD-Solid
 62
     7
370
    25
100
AcDbLine
 10
21.45972551977732
 20
37.79363011321944
 30
0.0
 11
21.48972551977731
 21
37.79363011321944
 31
0.0
  0
LINE
  5
208
330
1F
100
AcDbEntity
  8
0
  6
SLD-Solid
 62
     7
370
    25
100
AcDbLine
 10
21.48972551977729
 20
37.7871264692988
 30
0.0
 11
21.48972551977731
 21
37.79363011321944
 31
0.0
  0
LINE
  5
209
330
1F
100
AcDbEntity
  8
0
  6
SLD-Solid
 62
     7
370
    25
100
AcDbLine
 10
21.45972551977729
 20
37.7871264692988
 30
0.0
 11
21.45972551977732
 21
37.79363011321944
 31
0.0
  0
LINE
  5
20A
330
1F
100
AcDbEntity
  8
0
  6
SLD-Solid
 62
     7
370
    25
100
AcDbLine
 10
21.50972551977732
 20
37.79363011321946
 30
0.0
 11
21.50972551977732
 21
37.7871264692988
 31
0.0
  0
LINE
  5
20B
330
1F
100
AcDbEntity
  8
0
  6
SLD-Solid
 62
     7
370
    25
100
AcDbLine
 10
21.53972551977732
 20
37.79363011321946
 30
0.0
 11
21.53972551977732
 21
37.7871264692988
 31
0.0
  0
LINE
  5
20C
330
1F
100
AcDbEntity
  8
0
  6
SLD-Solid
 62
     7
370
    25
100
AcDbLine
 10
6.298446724009372
 20
37.79363011321936
 30
0.0
 11
6.298446724009368
 21
37.78712646929873
 31
0.0
  0
LINE
  5
20D
330
1F
100
AcDbEntity
  8
0
  6
SLD-Solid
 62
     7
370
    25
100
AcDbLine
 10
6.298446724009372
 20
37.79363011321936
 30
0.0
 11
6.328446724009373
 21
37.79363011321936
 31
0.0
  0
LINE
  5
20E
330
1F
100
AcDbEntity
  8
0
  6
SLD-Solid
 62
     7
370
    25
100
AcDbLine
 10
6.328446724009373
 20
37.79363011321936
 30
0.0
 11
6.328446724009365
 21
37.78712646929873
 31
0.0
  0
LINE
  5
20F
330
1F
100
AcDbEntity
  8
0
  6
SLD-Solid
 62
     7
370
    25
100
AcDbLine
 10
6.248446724009372
 20
37.79363011321939
 30
0.0
 11
6.278446724009373
 21
37.79363011321939
 31
0.0
  0
ARC
  5
210
330
1F
100
AcDbEntity
  8
0
  6
SLD-Solid
 62
     7
370
    25
100
AcDbCircle
 10
6.288446724009372
 20
37.79363011321939
 30
0.0
 40
0.0099999999999998
100
AcDbArc
 50
359.9999999997323
 51
180.0
  0
ARC
  5
211
330
1F
100
AcDbEntity
  8
0
  6
SLD-Solid
 62
     7
370
    25
100
AcDbCircle
 10
6.288446724009372
 20
37.79363011321939
 30
0.0
 40
0.0400000000000009
100
AcDbArc
 50
359.9999999999337
 51
180.0
  0
LINE
  5
212
330
1F
100
AcDbEntity
  8
0
  6
SLD-Solid
 62
     7
370
    25
100
AcDbLine
 10
6.278446724009373
 20
37.78712646929873
 30
0.0
 11
6.278446724009373
 21
37.79363011321939
 31
0.0
  0
LINE
  5
213
330
1F
100
AcDbEntity
  8
0
  6
SLD-Solid
 62
     7
370
    25
100
AcDbLine
 10
6.248446724009372
 20
37.78712646929873
 30
0.0
 11
6.248446724009372
 21
37.79363011321939
 31
0.0
  0
LINE
  5
214
330
1F
100
AcDbEntity
  8
0
  6
SLD-Solid
 62
     7
370
    25
100
AcDbLine
 10
6.278446724009378
 20
13.63368288084881
 30
0.0
 11
6.278446724009378
 21
13.62664305925949
 31
0.0
  0
LINE
  5
215
330
1F
100
AcDbEntity
  8
0
  6
SLD-Solid
 62
     7
370
    25
100
AcDbLine
 10
6.248446724009376
 20
13.63368288084881
 30
0.0
 11
6.248446724009376
 21
13.62664305925949
 31
0.0
  0
SPLINE
  5
216
330
1F
100
AcDbEntity
  8
0
  6
SLD-Solid
 62
     7
370
    25
100
AcDbSpline
210
0.0
220
0.0
230
1.0
 70
    12
 71
     3
 72
    11
 73
     7
 74
     0
 42
0.00000001
 43
0.00000001
 40
0.0
 40
0.0
 40
0.0
 40
0.0
 40
0.2499999999999843
 40
0.4999999999999876
 40
0.750000000000004
 40
1.0
 40
1.0
 40
1.0
 40
1.0
 10
6.307446724009377
 20
13.56764305925949
 30
0.0
 41
1.0
 10
6.29971553842481
 20
13.56852992205394
 30
0.0
 41
1.0
 10
6.284253167255672
 20
13.57030364764285
 30
0.0
 41
1.0
 10
6.264751015966953
 20
13.58394735121707
 30
0.0
 41
1.0
 10
6.251107312392735
 20
13.60344950250578
 30
0.0
 41
1.0
 10
6.24933358680383
 20
13.61891187367492
 30
0.0
 41
1.0
 10
6.248446724009376
 20
13.62664305925949
 30
0.0
 41
1.0
  0
SPLINE
  5
217
330
1F
100
AcDbEntity
  8
0
  6
SLD-Solid
 62
     7
370
    25
100
AcDbSpline
210
0.0
220
0.0
230
1.0
 70
    12
 71
     3
 72
    11
 73
     7
 74
     0
 42
0.00000001
 43
0.00000001
 40
0.0
 40
0.0
 40
0.0
 40
0.0
 40
0.2499999999999751
 40
0.4999999999999628
 40
0.7500000000000108
 40
1.0
 40
1.0
 40
1.0
 40
1.0
 10
6.307446724009377
 20
13.59764305925949
 30
0.0
 41
1.0
 10
6.303646649738997
 20
13.59807897487032
 30
0.0
 41
1.0
 10
6.296046501198236
 20
13.59895080609199
 30
0.0
 41
1.0
 10
6.286460698022424
 20
13.60565703327254
 30
0.0
 41
1.0
 10
6.279754470841871
 20
13.61524283644835
 30
0.0
 41
1.0
 10
6.27888263962021
 20
13.62284298498911
 30
0.0
 41
1.0
 10
6.278446724009378
 20
13.62664305925949
 30
0.0
 41
1.0
  0
LINE
  5
218
330
1F
100
AcDbEntity
  8
0
  6
SLD-Solid
 62
     7
370
    25
100
AcDbLine
 10
6.307446724009377
 20
13.59764305925949
 30
0.0
 11
6.307446724009377
 21
13.56764305925949
 31
0.0
  0
LINE
  5
219
330
1F
100
AcDbEntity
  8
0
  6
SLD-Solid
 62
     7
370
    25
100
AcDbLine
 10
6.596659113768216
 20
13.56764305925949
 30
0.0
 11
6.596659113768216
 21
13.59764305925949
 31
0.0
  0
LINE
  5
21A
330
1F
100
AcDbEntity
  8
0
  6
SLD-Solid
 62
     7
370
    25
100
AcDbLine
 10
6.307446724009377
 20
13.56764305925949
 30
0.0
 11
6.596659113768216
 21
13.56764305925949
 31
0.0
  0
LINE
  5
21B
330
1F
100
AcDbEntity
  8
0
  6
SLD-Solid
 62
     7
370
    25
100
AcDbLine
 10
6.307446724009377
 20
13.59764305925949
 30
0.0
 11
6.331586121893261
 21
13.59764305925951
 31
0.0
  0
LINE
  5
21C
330
1F
100
AcDbEntity
  8
0
  6
SLD-Solid
 62
     7
370
    25
100
AcDbLine
 10
21.19151312778247
 20
13.56764305925951
 30
0.0
 11
21.19151312778247
 21
13.59764305925951
 31
0.0
  0
LINE
  5
21D
330
1F
100
AcDbEntity
  8
0
  6
SLD-Solid
 62
     7
370
    25
100
AcDbLine
 10
21.04151312778248
 20
13.56764305925951
 30
0.0
 11
21.19151312778247
 21
13.56764305925951
 31
0.0
  0
LINE
  5
21E
330
1F
100
AcDbEntity
  8
0
  6
SLD-Solid
 62
     7
370
    25
100
AcDbLine
 10
21.04151312778248
 20
13.56764305925951
 30
0.0
 11
21.04151312778248
 21
13.59764305925951
 31
0.0
  0
LINE
  5
21F
330
1F
100
AcDbEntity
  8
0
  6
SLD-Solid
 62
     7
370
    25
100
AcDbLine
 10
21.48072551977729
 20
13.56764305925951
 30
0.0
 11
21.48072551977729
 21
13.59764305925951
 31
0.0
  0
LINE
  5
220
330
1F
100
AcDbEntity
  8
0
  6
SLD-Solid
 62
     7
370
    25
100
AcDbLine
 10
21.19151312778247
 20
13.56764305925951
 30
0.0
 11
21.48072551977729
 21
13.56764305925951
 31
0.0
  0
LINE
  5
221
330
1F
100
AcDbEntity
  8
0
  6
SLD-Solid
 62
     7
370
    25
100
AcDbLine
 10
21.45658612189326
 20
13.59764305925951
 30
0.0
 11
21.48072551977729
 21
13.59764305925951
 31
0.0
  0
LINE
  5
222
330
1F
100
AcDbEntity
  8
0
  6
SLD-Solid
 62
     7
370
    25
100
AcDbLine
 10
21.5397255197773
 20
13.62664305925951
 30
0.0
 11
21.5097255197773
 21
13.62664305925951
 31
0.0
  0
LINE
  5
223
330
1F
100
AcDbEntity
  8
0
  6
SLD-Solid
 62
     7
370
    25
100
AcDbLine
 10
21.5097255197773
 20
13.62664305925951
 30
0.0
 11
21.5097255197773
 21
13.63368288084884
 31
0.0
  0
LINE
  5
224
330
1F
100
AcDbEntity
  8
0
  6
SLD-Solid
 62
     7
370
    25
100
AcDbLine
 10
21.5397255197773
 20
13.62664305925951
 30
0.0
 11
21.5397255197773
 21
13.63368288084884
 31
0.0
  0
ARC
  5
225
330
1F
100
AcDbEntity
  8
0
  6
SLD-Solid
 62
     7
370
    25
100
AcDbCircle
 10
21.48072551977729
 20
13.62664305925951
 30
0.0
 40
0.0590000000000046
100
AcDbArc
 50
270.0000000000008
 51
0.0
  0
ARC
  5
226
330
1F
100
AcDbEntity
  8
0
  6
SLD-Solid
 62
     7
370
    25
100
AcDbCircle
 10
21.48072551977729
 20
13.62664305925951
 30
0.0
 40
0.0290000000000035
100
AcDbArc
 50
270.0000000000008
 51
0.0
  0
LINE
  5
227
330
1F
100
AcDbEntity
  8
0
  6
SLD-Solid
 62
     7
370
    25
100
AcDbLine
 10
6.746659113768136
 20
13.56764305925949
 30
0.0
 11
6.746659113768136
 21
13.59764305925949
 31
0.0
  0
LINE
  5
228
330
1F
100
AcDbEntity
  8
0
  6
SLD-Solid
 62
     7
370
    25
100
AcDbLine
 10
6.596659113768216
 20
13.56764305925949
 30
0.0
 11
6.746659113768136
 21
13.56764305925949
 31
0.0
  0
LINE
  5
229
330
1F
100
AcDbEntity
  8
DIMS
100
AcDbLine
 10
4.098948177834297
 20
7.836156495637147
 30
0.0
 11
64.13850076690066
 21
7.836156495637147
 31
0.0
  0
LINE
  5
22A
330
1F
100
AcDbEntity
  8
DIMS
100
AcDbLine
 10
4.42905142867384
 20
7.836156495637147
 30
0.0
 11
4.42905142867384
 21
8.464824807798918
 31
0.0
  0
LINE
  5
22B
330
1F
100
AcDbEntity
  8
DIMS
100
AcDbLine
 10
4.42905142867384
 20
8.464824807798918
 30
0.0
 11
4.603120669274318
 21
8.631843287911082
 31
0.0
  0
LINE
  5
22C
330
1F
100
AcDbEntity
  8
DIMS
100
AcDbLine
 10
4.603120669274318
 20
8.631843287911082
 30
0.0
 11
4.254982188073362
 21
8.994678592158596
 31
0.0
  0
LINE
  5
22D
330
1F
100
AcDbEntity
  8
DIMS
100
AcDbLine
 10
4.254982188073362
 20
8.994678592158596
 30
0.0
 11
4.42905142867384
 21
9.161697072270758
 31
0.0
  0
LINE
  5
22E
330
1F
100
AcDbEntity
  8
DIMS
100
AcDbLine
 10
4.42905142867384
 20
9.161697072270758
 30
0.0
 11
4.42905142867384
 21
9.80684218174854
 31
0.0
  0
DIMENSION
  5
22F
330
1F
100
AcDbEntity
  8
DIMS
100
AcDbDimension
  2
_D
 10
4.43732369251032
 20
7.836156495637147
 30
0.0
 11
4.43732369251032
 21
8.548439223535585
 31
0.0
 70
    32
  1
                                                                    48" Max. height for barrier free installation\P\P^M\P 
 71
     2
 42
-1.0
  3
SLDDIMSTYLE0
100
AcDbAlignedDimension
 13
6.331586121890417
 23
37.83868288084886
 33
0.0
 14
4.098948177834297
 24
7.836156495637147
 34
0.0
 50
90.0000000000002
100
AcDbRotatedDimension
  0
DIMENSION
  5
240
330
1F
100
AcDbEntity
  8
OBJECT
100
AcDbDimension
  2
_D_1
 10
23.43308524300457
 20
13.56764305925951
 30
0.0
 11
23.43308524300458
 21
25.70316297005414
 31
0.0
 70
    32
  1
<>
 71
     2
 42
-1.0
  3
SLDDIMSTYLE1
100
AcDbAlignedDimension
 13
21.45658612189125
 23
37.83868288084877
 33
0.0
 14
21.48072551977729
 24
13.56764305925951
 34
0.0
 50
90.0000000000002
100
AcDbRotatedDimension
  0
MTEXT
  5
250
330
1F
100
AcDbEntity
  8
NOTES
100
AcDbMText
 10
6.926799292398964
 20
13.26058933850145
 30
0.0
 40
0.5
 41
0.0
 71
     1
 72
     1
  1
Front view
  7
SLDTEXTSTYLE1
 73
     1
 44
1.0
  0
MTEXT
  5
251
330
1F
100
AcDbEntity
  8
NOTES
100
AcDbMText
 10
4.87601098114281
 20
8.50151900627984
 30
0.0
 40
0.5
 41
0.0
 71
     1
 72
     1
  1
Floor
  7
SLDTEXTSTYLE1
 73
     1
 44
1.0
  0
LINE
  5
252
330
1F
100
AcDbEntity
  8
0
  6
SLD-Solid
 62
     7
370
    25
100
AcDbLine
 10
39.98516285917107
 20
37.83363011321946
 30
0.0
 11
29.10646324914733
 21
37.83363011321946
 31
0.0
  0
LINE
  5
253
330
1F
100
AcDbEntity
  8
0
  6
SLD-Solid
 62
     7
370
    25
100
AcDbLine
 10
28.88707926346709
 20
13.59764305925953
 30
0.0
 11
28.88707926346709
 21
13.62764305925953
 31
0.0
  0
LINE
  5
254
330
1F
100
AcDbEntity
  8
0
  6
SLD-Solid
 62
     7
370
    25
100
AcDbLine
 10
40.07865227566454
 20
13.62764305925953
 30
0.0
 11
39.98420734736005
 21
13.62764305925953
 31
0.0
  0
LINE
  5
255
330
1F
100
AcDbEntity
  8
0
  6
SLD-Solid
 62
     7
370
    25
100
AcDbLine
 10
29.1145937646829
 20
13.62764305925953
 30
0.0
 11
28.88707926346709
 21
13.62764305925953
 31
0.0
  0
LINE
  5
256
330
1F
100
AcDbEntity
  8
0
  6
SLD-Solid
 62
     7
370
    25
100
AcDbLine
 10
40.07865227566454
 20
13.62764305925953
 30
0.0
 11
40.07865227566454
 21
13.59764305925953
 31
0.0
  0
LINE
  5
257
330
1F
100
AcDbEntity
  8
0
  6
SLD-Solid
 62
     7
370
    25
100
AcDbLine
 10
40.07865227566454
 20
13.59764305925953
 30
0.0
 11
39.98420734791885
 21
13.59764305925951
 31
0.0
  0
LINE
  5
258
330
1F
100
AcDbEntity
  8
0
  6
SLD-Solid
 62
     7
370
    25
100
AcDbLine
 10
29.11459376524167
 20
13.59764305925951
 30
0.0
 11
28.88707926346709
 21
13.59764305925953
 31
0.0
  0
LINE
  5
259
330
1F
100
AcDbEntity
  8
0
  6
SLD-Solid
 62
     7
370
    25
100
AcDbLine
 10
40.11865227566454
 20
13.66764305925953
 30
0.0
 11
40.14865227566454
 21
13.66764305925953
 31
0.0
  0
LINE
  5
25A
330
1F
100
AcDbEntity
  8
0
  6
SLD-Solid
 62
     7
370
    25
100
AcDbLine
 10
40.11865227566458
 20
13.75868288084883
 30
0.0
 11
40.11865227566454
 21
13.66764305925953
 31
0.0
  0
LINE
  5
25B
330
1F
100
AcDbEntity
  8
0
  6
SLD-Solid
 62
     7
370
    25
100
AcDbLine
 10
40.14865227566457
 20
13.75868288084883
 30
0.0
 11
40.14865227566454
 21
13.66764305925953
 31
0.0
  0
ARC
  5
25C
330
1F
100
AcDbEntity
  8
0
  6
SLD-Solid
 62
     7
370
    25
100
AcDbCircle
 10
40.07865227566454
 20
13.66764305925953
 30
0.0
 40
0.0700000000000003
100
AcDbArc
 50
270.0000000000008
 51
359.9999999999993
  0
ARC
  5
25D
330
1F
100
AcDbEntity
  8
0
  6
SLD-Solid
 62
     7
370
    25
100
AcDbCircle
 10
40.07865227566454
 20
13.66764305925953
 30
0.0
 40
0.0400000000000009
100
AcDbArc
 50
270.0000000000008
 51
359.9999999999983
  0
LINE
  5
25E
330
1F
100
AcDbEntity
  8
0
  6
SLD-Solid
 62
     7
370
    25
100
AcDbLine
 10
28.63707926346709
 20
13.62764305925953
 30
0.0
 11
28.63707926346709
 21
13.59764305925953
 31
0.0
  0
LINE
  5
25F
330
1F
100
AcDbEntity
  8
0
  6
SLD-Solid
 62
     7
370
    25
100
AcDbLine
 10
28.88707926346709
 20
13.62764305925953
 30
0.0
 11
28.63707926346709
 21
13.62764305925953
 31
0.0
  0
LINE
  5
260
330
1F
100
AcDbEntity
  8
0
  6
SLD-Solid
 62
     7
370
    25
100
AcDbLine
 10
28.63707926346709
 20
13.59764305925953
 30
0.0
 11
28.88707926346709
 21
13.59764305925953
 31
0.0
  0
LINE
  5
261
330
1F
100
AcDbEntity
  8
0
  6
SLD-Solid
 62
     7
370
    25
100
AcDbLine
 10
40.28865227566454
 20
35.35168287861381
 30
0.0
 11
40.31865227566453
 21
35.35168287861381
 31
0.0
  0
ARC
  5
262
330
1F
100
AcDbEntity
  8
0
  6
SLD-Solid
 62
     7
370
    25
100
AcDbCircle
 10
40.25665227566454
 20
35.35168287861381
 30
0.0
 40
0.0319999999999965
100
AcDbArc
 50
0.0
 51
90.0
  0
LINE
  5
263
330
1F
100
AcDbEntity
  8
0
  6
SLD-Solid
 62
     7
370
    25
100
AcDbLine
 10
40.25665227566454
 20
35.41368287861381
 30
0.0
 11
40.25665227566454
 21
35.3836828786138
 31
0.0
  0
ARC
  5
264
330
1F
100
AcDbEntity
  8
0
  6
SLD-Solid
 62
     7
370
    25
100
AcDbCircle
 10
40.25665227566454
 20
35.35168287861381
 30
0.0
 40
0.0619999999999976
100
AcDbArc
 50
0.0
 51
90.0
  0
LINE
  5
265
330
1F
100
AcDbEntity
  8
0
  6
SLD-Solid
 62
     7
370
    25
100
AcDbLine
 10
40.28865227566454
 20
35.35168287861381
 30
0.0
 11
40.28865227566454
 21
33.83968287861381
 31
0.0
  0
LINE
  5
266
330
1F
100
AcDbEntity
  8
0
  6
SLD-Solid
 62
     7
370
    25
100
AcDbLine
 10
40.31865227566453
 20
33.83968287861381
 30
0.0
 11
40.31865227566453
 21
35.35168287861381
 31
0.0
  0
LINE
  5
267
330
1F
100
AcDbEntity
  8
0
  6
SLD-Solid
 62
     7
370
    25
100
AcDbLine
 10
40.28865227566454
 20
33.83968287861381
 30
0.0
 11
40.31865227566453
 21
33.83968287861381
 31
0.0
  0
ARC
  5
268
330
1F
100
AcDbEntity
  8
0
  6
SLD-Solid
 62
     7
370
    25
100
AcDbCircle
 10
40.18065227566454
 20
35.4456828786138
 30
0.0
 40
0.0620000000000001
100
AcDbArc
 50
238.9270460133836
 51
270.0000000000008
  0
ARC
  5
269
330
1F
100
AcDbEntity
  8
0
  6
SLD-Solid
 62
     7
370
    25
100
AcDbCircle
 10
40.18065227566454
 20
35.4456828786138
 30
0.0
 40
0.0320000000000036
100
AcDbArc
 50
180.0
 51
270.0000000000008
  0
LINE
  5
26A
330
1F
100
AcDbEntity
  8
0
  6
SLD-Solid
 62
     7
370
    25
100
AcDbLine
 10
40.18065227566454
 20
35.41368287861381
 30
0.0
 11
40.18065227566454
 21
35.3836828786138
 31
0.0
  0
LINE
  5
26B
330
1F
100
AcDbEntity
  8
0
  6
SLD-Solid
 62
     7
370
    25
100
AcDbLine
 10
40.18065227566454
 20
35.3836828786138
 30
0.0
 11
40.25665227566454
 21
35.3836828786138
 31
0.0
  0
LINE
  5
26C
330
1F
100
AcDbEntity
  8
0
  6
SLD-Solid
 62
     7
370
    25
100
AcDbLine
 10
40.25665227566454
 20
35.41368287861381
 30
0.0
 11
40.18065227566454
 21
35.41368287861381
 31
0.0
  0
LINE
  5
26D
330
1F
100
AcDbEntity
  8
0
  6
SLD-Solid
 62
     7
370
    25
100
AcDbLine
 10
40.37542657052913
 20
36.31313893531335
 30
0.0
 11
40.24834785151013
 21
37.76565534026859
 31
0.0
  0
LINE
  5
26E
330
1F
100
AcDbEntity
  8
0
  6
SLD-Solid
 62
     7
370
    25
100
AcDbLine
 10
40.37542657052913
 20
36.31313893531335
 30
0.0
 11
40.34554072958638
 21
36.31052426303093
 31
0.0
  0
LINE
  5
26F
330
1F
100
AcDbEntity
  8
0
  6
SLD-Solid
 62
     7
370
    25
100
AcDbLine
 10
40.21846201056737
 20
37.76304066798616
 30
0.0
 11
40.24834785151013
 21
37.76565534026859
 31
0.0
  0
LINE
  5
270
330
1F
100
AcDbEntity
  8
0
  6
SLD-Solid
 62
     7
370
    25
100
AcDbLine
 10
40.34554072958638
 20
36.31052426303093
 30
0.0
 11
40.21846201056737
 21
37.76304066798616
 31
0.0
  0
LINE
  5
271
330
1F
100
AcDbEntity
  8
0
  6
SLD-Solid
 62
     7
370
    25
100
AcDbLine
 10
40.39721550621604
 20
36.06409026079042
 30
0.0
 11
40.37542657052913
 21
36.31313893531335
 31
0.0
  0
LINE
  5
272
330
1F
100
AcDbEntity
  8
0
  6
SLD-Solid
 62
     7
370
    25
100
AcDbLine
 10
40.39721550621604
 20
36.06409026079042
 30
0.0
 11
40.3673296652733
 21
36.06147558850799
 31
0.0
  0
LINE
  5
273
330
1F
100
AcDbEntity
  8
0
  6
SLD-Solid
 62
     7
370
    25
100
AcDbLine
 10
40.3673296652733
 20
36.06147558850799
 30
0.0
 11
40.34554072958638
 21
36.31052426303093
 31
0.0
  0
ARC
  5
274
330
1F
100
AcDbEntity
  8
0
  6
SLD-Solid
 62
     7
370
    25
100
AcDbCircle
 10
40.16865227566279
 20
37.75868288084878
 30
0.0
 40
0.0799999999999986
100
AcDbArc
 50
4.999999999995591
 51
180.0
  0
ARC
  5
275
330
1F
100
AcDbEntity
  8
0
  6
SLD-Solid
 62
     7
370
    25
100
AcDbCircle
 10
40.16865227566279
 20
37.75868288084878
 30
0.0
 40
0.0500000000000043
100
AcDbArc
 50
4.999999999996783
 51
180.0
  0
LINE
  5
276
330
1F
100
AcDbEntity
  8
0
  6
SLD-Solid
 62
     7
370
    25
100
AcDbLine
 10
28.57712424626886
 20
37.7871264692988
 30
0.0
 11
28.57712424626885
 21
13.63368288084884
 31
0.0
  0
LINE
  5
277
330
1F
100
AcDbEntity
  8
0
  6
SLD-Solid
 62
     7
370
    25
100
AcDbLine
 10
28.85712424626886
 20
37.7871264692988
 30
0.0
 11
28.57712424626886
 21
37.7871264692988
 31
0.0
  0
LINE
  5
278
330
1F
100
AcDbEntity
  8
0
  6
SLD-Solid
 62
     7
370
    25
100
AcDbLine
 10
28.85712424626886
 20
37.7871264692988
 30
0.0
 11
28.85712424626886
 21
13.63368288084884
 31
0.0
  0
LINE
  5
279
330
1F
100
AcDbEntity
  8
0
  6
SLD-Solid
 62
     7
370
    25
100
AcDbLine
 10
28.57712424626885
 20
13.63368288084884
 30
0.0
 11
28.85712424626886
 21
13.63368288084884
 31
0.0
  0
LINE
  5
27A
330
1F
100
AcDbEntity
  8
0
  6
SLD-Solid
 62
     7
370
    25
100
AcDbLine
 10
29.10646324914737
 20
37.79363011321946
 30
0.0
 11
29.10646324914737
 21
37.7871264692988
 31
0.0
  0
LINE
  5
27B
330
1F
100
AcDbEntity
  8
0
  6
SLD-Solid
 62
     7
370
    25
100
AcDbLine
 10
29.10646324914737
 20
37.79363011321946
 30
0.0
 11
39.98516285917107
 21
37.79363011321946
 31
0.0
  0
LINE
  5
27C
330
1F
100
AcDbEntity
  8
0
  6
SLD-Solid
 62
     7
370
    25
100
AcDbLine
 10
39.98516285917107
 20
37.79363011321946
 30
0.0
 11
39.98516285917108
 21
37.77868287861375
 31
0.0
  0
ARC
  5
27D
330
1F
100
AcDbEntity
  8
0
  6
SLD-Solid
 62
     7
370
    25
100
AcDbCircle
 10
40.00516285917109
 20
37.77868287861375
 30
0.0
 40
0.0200000000000102
100
AcDbArc
 50
179.9999999999415
 51
270.0000000000008
  0
LINE
  5
27E
330
1F
100
AcDbEntity
  8
0
  6
SLD-Solid
 62
     7
370
    25
100
AcDbLine
 10
40.00516285917109
 20
37.75868287861374
 30
0.0
 11
40.07865227287064
 21
37.75868287861373
 31
0.0
  0
LINE
  5
27F
330
1F
100
AcDbEntity
  8
0
  6
SLD-Solid
 62
     7
370
    25
100
AcDbLine
 10
40.07865227287063
 20
13.75868287861367
 30
0.0
 11
40.07865227287064
 21
37.75868287861373
 31
0.0
  0
LINE
  5
280
330
1F
100
AcDbEntity
  8
0
  6
SLD-Solid
 62
     7
370
    25
100
AcDbLine
 10
40.07865227287063
 20
13.75868287861367
 30
0.0
 11
40.00420734736006
 21
13.75868287861367
 31
0.0
  0
ARC
  5
281
330
1F
100
AcDbEntity
  8
0
  6
SLD-Solid
 62
     7
370
    25
100
AcDbCircle
 10
40.00420734736007
 20
13.73868287861367
 30
0.0
 40
0.0200000000000031
100
AcDbArc
 50
90.00000000002035
 51
179.9999999999415
  0
LINE
  5
282
330
1F
100
AcDbEntity
  8
0
  6
SLD-Solid
 62
     7
370
    25
100
AcDbLine
 10
39.98420734736006
 20
13.73868287861367
 30
0.0
 11
39.98420734736005
 21
13.62664305925949
 31
0.0
  0
LINE
  5
283
330
1F
100
AcDbEntity
  8
0
  6
SLD-Solid
 62
     7
370
    25
100
AcDbLine
 10
29.1145937646829
 20
13.62664305925951
 30
0.0
 11
39.98420734736005
 21
13.62664305925949
 31
0.0
  0
LINE
  5
284
330
1F
100
AcDbEntity
  8
0
  6
SLD-Solid
 62
     7
370
    25
100
AcDbLine
 10
29.1145937646829
 20
13.62664305925951
 30
0.0
 11
29.1145937646829
 21
13.63368288084884
 31
0.0
  0
LINE
  5
285
330
1F
100
AcDbEntity
  8
0
  6
SLD-Solid
 62
     7
370
    25
100
AcDbLine
 10
29.1145937646829
 20
13.63368288084884
 30
0.0
 11
28.85712424626886
 21
13.63368288084884
 31
0.0
  0
LINE
  5
286
330
1F
100
AcDbEntity
  8
0
  6
SLD-Solid
 62
     7
370
    25
100
AcDbLine
 10
29.10646324914737
 20
37.7871264692988
 30
0.0
 11
28.85712424626886
 21
37.7871264692988
 31
0.0
  0
LINE
  5
287
330
1F
100
AcDbEntity
  8
0
  6
SLD-Solid
 62
     7
370
    25
100
AcDbLine
 10
39.98516285917107
 20
37.79363011321946
 30
0.0
 11
39.98516285917107
 21
37.83363011321946
 31
0.0
  0
LINE
  5
288
330
1F
100
AcDbEntity
  8
0
  6
SLD-Solid
 62
     7
370
    25
100
AcDbLine
 10
29.10646324914737
 20
37.83363011321946
 30
0.0
 11
29.10646324914737
 21
37.79363011321946
 31
0.0
  0
LINE
  5
289
330
1F
100
AcDbEntity
  8
0
  6
SLD-Solid
 62
     7
370
    25
100
AcDbLine
 10
29.1145937646829
 20
13.56764305925951
 30
0.0
 11
39.98420734736005
 21
13.56764305925949
 31
0.0
  0
LINE
  5
28A
330
1F
100
AcDbEntity
  8
0
  6
SLD-Solid
 62
     7
370
    25
100
AcDbLine
 10
39.98420734736005
 20
13.56764305925949
 30
0.0
 11
39.98420734736005
 21
13.62664305925949
 31
0.0
  0
LINE
  5
28B
330
1F
100
AcDbEntity
  8
0
  6
SLD-Solid
 62
     7
370
    25
100
AcDbLine
 10
29.1145937646829
 20
13.62664305925951
 30
0.0
 11
29.1145937646829
 21
13.56764305925951
 31
0.0
  0
LINE
  5
28C
330
1F
100
AcDbEntity
  8
0
  6
SLD-Solid
 62
     7
370
    25
100
AcDbLine
 10
40.14865227287064
 20
13.75868287861367
 30
0.0
 11
40.14865227287059
 21
37.75868287861373
 31
0.0
  0
LINE
  5
28D
330
1F
100
AcDbEntity
  8
0
  6
SLD-Solid
 62
     7
370
    25
100
AcDbLine
 10
40.07865227287063
 20
13.75868287861367
 30
0.0
 11
40.14865227287064
 21
13.75868287861367
 31
0.0
  0
LINE
  5
28E
330
1F
100
AcDbEntity
  8
0
  6
SLD-Solid
 62
     7
370
    25
100
AcDbLine
 10
40.14865227287059
 20
37.75868287861373
 30
0.0
 11
40.07865227287064
 21
37.75868287861373
 31
0.0
  0
ARC
  5
28F
330
1F
100
AcDbEntity
  8
0
  6
SLD-Solid
 62
     7
370
    25
100
AcDbCircle
 10
28.61712424626885
 20
37.79363011321946
 30
0.0
 40
0.0400000000000027
100
AcDbArc
 50
0.0000000000305333
 51
180.0
  0
LINE
  5
290
330
1F
100
AcDbEntity
  8
0
  6
SLD-Solid
 62
     7
370
    25
100
AcDbLine
 10
28.62712424626885
 20
37.79363011321944
 30
0.0
 11
28.65712424626885
 21
37.79363011321948
 31
0.0
  0
ARC
  5
291
330
1F
100
AcDbEntity
  8
0
  6
SLD-Solid
 62
     7
370
    25
100
AcDbCircle
 10
28.61712424626885
 20
37.79363011321946
 30
0.0
 40
0.009999999999998
100
AcDbArc
 50
359.9999999998787
 51
180.0
  0
LINE
  5
292
330
1F
100
AcDbEntity
  8
0
  6
SLD-Solid
 62
     7
370
    25
100
AcDbLine
 10
28.57712424626885
 20
37.79363011321946
 30
0.0
 11
28.60712424626886
 21
37.79363011321946
 31
0.0
  0
LINE
  5
293
330
1F
100
AcDbEntity
  8
0
  6
SLD-Solid
 62
     7
370
    25
100
AcDbLine
 10
28.60712424626886
 20
37.7871264692988
 30
0.0
 11
28.60712424626886
 21
37.79363011321946
 31
0.0
  0
LINE
  5
294
330
1F
100
AcDbEntity
  8
0
  6
SLD-Solid
 62
     7
370
    25
100
AcDbLine
 10
28.57712424626885
 20
37.7871264692988
 30
0.0
 11
28.57712424626885
 21
37.79363011321946
 31
0.0
  0
LINE
  5
295
330
1F
100
AcDbEntity
  8
0
  6
SLD-Solid
 62
     7
370
    25
100
AcDbLine
 10
28.62712424626885
 20
37.79363011321944
 30
0.0
 11
28.62712424626881
 21
37.7871264692988
 31
0.0
  0
LINE
  5
296
330
1F
100
AcDbEntity
  8
0
  6
SLD-Solid
 62
     7
370
    25
100
AcDbLine
 10
28.65712424626885
 20
37.79363011321948
 30
0.0
 11
28.65712424626881
 21
37.7871264692988
 31
0.0
  0
LINE
  5
297
330
1F
100
AcDbEntity
  8
0
  6
SLD-Solid
 62
     7
370
    25
100
AcDbLine
 10
28.60712424626886
 20
13.62664305925951
 30
0.0
 11
28.57712424626885
 21
13.62664305925951
 31
0.0
  0
SPLINE
  5
298
330
1F
100
AcDbEntity
  8
0
  6
SLD-Solid
 62
     7
370
    25
100
AcDbSpline
210
0.0
220
0.0
230
1.0
 70
    12
 71
     3
 72
    11
 73
     7
 74
     0
 42
0.00000001
 43
0.00000001
 40
0.0
 40
0.0
 40
0.0
 40
0.0
 40
0.2500000000006939
 40
0.5000000000005402
 40
0.7500000000003529
 40
1.0
 40
1.0
 40
1.0
 40
1.0
 10
28.63612424626885
 20
13.59764305925951
 30
0.0
 41
1.0
 10
28.63232417199846
 20
13.59807897487034
 30
0.0
 41
1.0
 10
28.62472402345768
 20
13.598950806092
 30
0.0
 41
1.0
 10
28.61513822028187
 20
13.60565703327256
 30
0.0
 41
1.0
 10
28.6084319931013
 20
13.61524283644837
 30
0.0
 41
1.0
 10
28.60756016187967
 20
13.62284298498913
 30
0.0
 41
1.0
 10
28.60712424626886
 20
13.62664305925951
 30
0.0
 41
1.0
  0
LINE
  5
299
330
1F
100
AcDbEntity
  8
0
  6
SLD-Solid
 62
     7
370
    25
100
AcDbLine
 10
28.63612424626885
 20
13.59764305925951
 30
0.0
 11
28.63612424626885
 21
13.56764305925951
 31
0.0
  0
SPLINE
  5
29A
330
1F
100
AcDbEntity
  8
0
  6
SLD-Solid
 62
     7
370
    25
100
AcDbSpline
210
0.0
220
0.0
230
1.0
 70
    12
 71
     3
 72
    11
 73
     7
 74
     0
 42
0.00000001
 43
0.00000001
 40
0.0
 40
0.0
 40
0.0
 40
0.0
 40
0.2500000000003381
 40
0.5000000000002528
 40
0.7500000000001807
 40
1.0
 40
1.0
 40
1.0
 40
1.0
 10
28.63612424626885
 20
13.56764305925951
 30
0.0
 41
1.0
 10
28.62839306068428
 20
13.56852992205396
 30
0.0
 41
1.0
 10
28.61293068951512
 20
13.57030364764286
 30
0.0
 41
1.0
 10
28.59342853822639
 20
13.58394735121709
 30
0.0
 41
1.0
 10
28.57978483465216
 20
13.6034495025058
 30
0.0
 41
1.0
 10
28.57801110906329
 20
13.61891187367494
 30
0.0
 41
1.0
 10
28.57712424626885
 20
13.62664305925951
 30
0.0
 41
1.0
  0
LINE
  5
29B
330
1F
100
AcDbEntity
  8
0
  6
SLD-Solid
 62
     7
370
    25
100
AcDbLine
 10
28.60712424626886
 20
13.63368288084884
 30
0.0
 11
28.60712424626886
 21
13.62664305925951
 31
0.0
  0
LINE
  5
29C
330
1F
100
AcDbEntity
  8
0
  6
SLD-Solid
 62
     7
370
    25
100
AcDbLine
 10
28.57712424626885
 20
13.63368288084884
 30
0.0
 11
28.57712424626885
 21
13.62664305925951
 31
0.0
  0
LINE
  5
29D
330
1F
100
AcDbEntity
  8
0
  6
SLD-Solid
 62
     7
370
    25
100
AcDbLine
 10
28.92533663602918
 20
13.56764305925951
 30
0.0
 11
28.92533663602918
 21
13.59764305925951
 31
0.0
  0
LINE
  5
29E
330
1F
100
AcDbEntity
  8
0
  6
SLD-Solid
 62
     7
370
    25
100
AcDbLine
 10
28.63612424626885
 20
13.56764305925951
 30
0.0
 11
28.92533663602918
 21
13.56764305925951
 31
0.0
  0
LINE
  5
29F
330
1F
100
AcDbEntity
  8
0
  6
SLD-Solid
 62
     7
370
    25
100
AcDbLine
 10
28.63612424626885
 20
13.59764305925951
 30
0.0
 11
28.63707926346709
 21
13.59764305925952
 31
0.0
  0
LINE
  5
2A0
330
1F
100
AcDbEntity
  8
0
  6
SLD-Solid
 62
     7
370
    25
100
AcDbLine
 10
29.07533663602919
 20
13.56764305925951
 30
0.0
 11
29.07533663602919
 21
13.59764305925951
 31
0.0
  0
LINE
  5
2A1
330
1F
100
AcDbEntity
  8
0
  6
SLD-Solid
 62
     7
370
    25
100
AcDbLine
 10
28.92533663602918
 20
13.56764305925951
 30
0.0
 11
29.07533663602919
 21
13.56764305925951
 31
0.0
  0
LINE
  5
2A2
330
1F
100
AcDbEntity
  8
0
  6
SLD-Solid
 62
     7
370
    25
100
AcDbLine
 10
29.11443211615178
 20
13.56764305925949
 30
0.0
 11
29.11459376524162
 21
13.56764305925949
 31
0.0
  0
SPLINE
  5
2A3
330
1F
100
AcDbEntity
  8
0
  6
SLD-Solid
 62
     7
370
    25
100
AcDbSpline
210
0.0
220
0.0
230
1.0
 70
    12
 71
     3
 72
    10
 73
     6
 74
     0
 42
0.00000001
 43
0.00000001
 40
0.0
 40
0.0
 40
0.0
 40
0.0
 40
0.3755681015969295
 40
0.7511362031938874
 40
1.0
 40
1.0
 40
1.0
 40
1.0
 10
29.11443211615178
 20
13.56764305925949
 30
0.0
 41
1.0
 10
29.1144292481391
 20
13.56856444616891
 30
0.0
 41
1.0
 10
29.11442351211373
 20
13.57040721998776
 30
0.0
 41
1.0
 10
29.11441587564867
 20
13.58205698629629
 30
0.0
 41
1.0
 10
29.11441110719631
 20
13.59317584380273
 30
0.0
 41
1.0
 10
29.11440920675662
 20
13.59760720149326
 30
0.0
 41
1.0
  0
LINE
  5
2A4
330
1F
100
AcDbEntity
  8
0
  6
SLD-Solid
 62
     7
370
    25
100
AcDbLine
 10
29.11439376524162
 20
13.63368288084881
 30
0.0
 11
29.11439714107093
 21
13.62764305925953
 31
0.0
  0
DIMENSION
  5
2A5
330
1F
100
AcDbEntity
  8
OBJECT
100
AcDbDimension
  2
_D_2
 10
40.14865227287057
 20
39.64970650289614
 30
0.0
 11
34.02882309145329
 21
39.64970650289614
 31
0.0
 70
    32
  1
<>
 71
     2
 42
-1.0
  3
SLDDIMSTYLE1
100
AcDbAlignedDimension
 13
28.57712424626884
 23
37.7871264692988
 33
0.0
 14
40.14865227287057
 24
37.75868287861373
 34
0.0
100
AcDbRotatedDimension
  0
MTEXT
  5
2B4
330
1F
100
AcDbEntity
  8
NOTES
100
AcDbMText
 10
31.10829761360558
 20
12.83112400396874
 30
0.0
 40
0.5
 41
0.0
 71
     1
 72
     1
  1
Side view
  7
SLDTEXTSTYLE1
 73
     1
 44
1.0
  0
LINE
  5
2B5
330
1F
100
AcDbEntity
  8
0
  6
SLD-Solid
 62
     7
370
    25
100
AcDbLine
 10
60.34055532079643
 20
37.83868288084886
 30
0.0
 11
45.21555532079579
 21
37.83868288084886
 31
0.0
  0
LINE
  5
2B6
330
1F
100
AcDbEntity
  8
0
  6
SLD-Solid
 62
     7
370
    25
100
AcDbLine
 10
45.21555532079358
 20
14.46021607145698
 30
0.0
 11
60.34055532079357
 21
14.46021607145698
 31
0.0
  0
LINE
  5
2B7
330
1F
100
AcDbEntity
  8
0
  6
SLD-Solid
 62
     7
370
    25
100
AcDbLine
 10
60.34055532079357
 20
14.46021607145698
 30
0.0
 11
60.34055532079357
 21
13.66764305925953
 31
0.0
  0
LINE
  5
2B8
330
1F
100
AcDbEntity
  8
0
  6
SLD-Solid
 62
     7
370
    25
100
AcDbLine
 10
45.21555532079358
 20
13.66764305925953
 30
0.0
 11
60.34055532079357
 21
13.66764305925953
 31
0.0
  0
LINE
  5
2B9
330
1F
100
AcDbEntity
  8
0
  6
SLD-Solid
 62
     7
370
    25
100
AcDbLine
 10
45.21555532079358
 20
14.46021607145698
 30
0.0
 11
45.21555532079358
 21
13.66764305925953
 31
0.0
  0
LINE
  5
2BA
330
1F
100
AcDbEntity
  8
0
  6
SLD-Solid
 62
     7
370
    25
100
AcDbLine
 10
45.21555532079358
 20
13.66764305925953
 30
0.0
 11
45.21555532079358
 21
13.59764305925953
 31
0.0
  0
LINE
  5
2BB
330
1F
100
AcDbEntity
  8
0
  6
SLD-Solid
 62
     7
370
    25
100
AcDbLine
 10
45.21555532079358
 20
13.59764305925953
 30
0.0
 11
60.34055532079357
 21
13.59764305925953
 31
0.0
  0
LINE
  5
2BC
330
1F
100
AcDbEntity
  8
0
  6
SLD-Solid
 62
     7
370
    25
100
AcDbLine
 10
60.34055532079357
 20
13.59764305925953
 30
0.0
 11
60.34055532079357
 21
13.66764305925953
 31
0.0
  0
LINE
  5
2BD
330
1F
100
AcDbEntity
  8
0
  6
SLD-Solid
 62
     7
370
    25
100
AcDbLine
 10
59.2780553207935
 20
35.41368287861372
 30
0.0
 11
46.27805532079349
 21
35.41368287861381
 31
0.0
  0
LINE
  5
2BE
330
1F
100
AcDbEntity
  8
0
  6
SLD-Solid
 62
     7
370
    25
100
AcDbLine
 10
59.2780553207935
 20
35.41368287861372
 30
0.0
 11
59.2780553207935
 21
35.35168287861372
 31
0.0
  0
LINE
  5
2BF
330
1F
100
AcDbEntity
  8
0
  6
SLD-Solid
 62
     7
370
    25
100
AcDbLine
 10
46.27805532079349
 20
35.35168287861381
 30
0.0
 11
59.2780553207935
 21
35.35168287861372
 31
0.0
  0
LINE
  5
2C0
330
1F
100
AcDbEntity
  8
0
  6
SLD-Solid
 62
     7
370
    25
100
AcDbLine
 10
46.27805532079349
 20
35.35168287861381
 30
0.0
 11
46.27805532079349
 21
35.41368287861381
 31
0.0
  0
CIRCLE
  5
2C1
330
1F
100
AcDbEntity
  8
0
  6
SLD-Solid
 62
     7
370
    25
100
AcDbCircle
 10
52.77805532079349
 20
34.59568287861381
 30
0.0
 40
0.0779999999999959
  0
CIRCLE
  5
2C2
330
1F
100
AcDbEntity
  8
0
  6
SLD-Solid
 62
     7
370
    25
100
AcDbCircle
 10
46.77805532079349
 20
34.59568287861381
 30
0.0
 40
0.078000000000003
  0
CIRCLE
  5
2C3
330
1F
100
AcDbEntity
  8
0
  6
SLD-Solid
 62
     7
370
    25
100
AcDbCircle
 10
58.7780553207935
 20
34.59568287861372
 30
0.0
 40
0.078000000000003
  0
LINE
  5
2C4
330
1F
100
AcDbEntity
  8
0
  6
SLD-Solid
 62
     7
370
    25
100
AcDbLine
 10
46.27805532079349
 20
33.83968287861381
 30
0.0
 11
46.27805532079349
 21
35.35168287861381
 31
0.0
  0
LINE
  5
2C5
330
1F
100
AcDbEntity
  8
0
  6
SLD-Solid
 62
     7
370
    25
100
AcDbLine
 10
59.2780553207935
 20
35.35168287861372
 30
0.0
 11
59.2780553207935
 21
33.83968287861372
 31
0.0
  0
LINE
  5
2C6
330
1F
100
AcDbEntity
  8
0
  6
SLD-Solid
 62
     7
370
    25
100
AcDbLine
 10
59.2780553207935
 20
33.83968287861372
 30
0.0
 11
46.27805532079349
 21
33.83968287861381
 31
0.0
  0
LINE
  5
2C7
330
1F
100
AcDbEntity
  8
0
  6
SLD-Solid
 62
     7
370
    25
100
AcDbLine
 10
59.2780553207935
 20
35.44568287861372
 30
0.0
 11
59.2780553207935
 21
35.41368287861372
 31
0.0
  0
LINE
  5
2C8
330
1F
100
AcDbEntity
  8
0
  6
SLD-Solid
 62
     7
370
    25
100
AcDbLine
 10
46.27805532079349
 20
35.41368287861381
 30
0.0
 11
46.27805532079349
 21
35.4456828786138
 31
0.0
  0
LINE
  5
2C9
330
1F
100
AcDbEntity
  8
0
  6
SLD-Solid
 62
     7
370
    25
100
AcDbLine
 10
59.2780553207935
 20
35.44568287861372
 30
0.0
 11
46.27805532079349
 21
35.4456828786138
 31
0.0
  0
LINE
  5
2CA
330
1F
100
AcDbEntity
  8
0
  6
SLD-Solid
 62
     7
370
    25
100
AcDbLine
 10
59.2780553207935
 20
36.06147558850799
 30
0.0
 11
59.2780553207935
 21
35.44568287861372
 31
0.0
  0
LINE
  5
2CB
330
1F
100
AcDbEntity
  8
0
  6
SLD-Solid
 62
     7
370
    25
100
AcDbLine
 10
46.27805532079349
 20
35.4456828786138
 30
0.0
 11
46.27805532079349
 21
36.06147558850799
 31
0.0
  0
ARC
  5
2CC
330
1F
100
AcDbEntity
  8
0
  6
SLD-Solid
 62
     7
370
    25
100
AcDbCircle
 10
60.09103007851405
 20
36.31361550652908
 30
0.0
 40
0.2495256973857197
100
AcDbArc
 50
269.8909866588851
 51
359.8905702451284
  0
LINE
  5
2CD
330
1F
100
AcDbEntity
  8
0
  6
SLD-Solid
 62
     7
370
    25
100
AcDbLine
 10
60.09055532079567
 20
36.06409026079042
 30
0.0
 11
54.52805532079563
 21
36.06409026079042
 31
0.0
  0
ARC
  5
2CE
330
1F
100
AcDbEntity
  8
0
  6
SLD-Solid
 62
     7
370
    25
100
AcDbCircle
 10
54.52758056307726
 20
36.31361550652909
 30
0.0
 40
0.2495256973857268
100
AcDbArc
 50
180.1094297548748
 51
270.1090133411149
  0
LINE
  5
2CF
330
1F
100
AcDbEntity
  8
0
  6
SLD-Solid
 62
     7
370
    25
100
AcDbLine
 10
54.27805532079564
 20
36.31313893531335
 30
0.0
 11
54.27805532079564
 21
37.3093336334051
 31
0.0
  0
ARC
  5
2D0
330
1F
100
AcDbEntity
  8
0
  6
SLD-Solid
 62
     7
370
    25
100
AcDbCircle
 10
54.028530078514
 20
37.30885706218938
 30
0.0
 40
0.2495256973857319
100
AcDbArc
 50
0.1094297548723647
 51
90.10901334111081
  0
LINE
  5
2D1
330
1F
100
AcDbEntity
  8
0
  6
SLD-Solid
 62
     7
370
    25
100
AcDbLine
 10
54.02805532079564
 20
37.55838230792804
 30
0.0
 11
51.5280553207956
 21
37.55838230792804
 31
0.0
  0
ARC
  5
2D2
330
1F
100
AcDbEntity
  8
0
  6
SLD-Solid
 62
     7
370
    25
100
AcDbCircle
 10
51.52758056307724
 20
37.30885706218938
 30
0.0
 40
0.2495256973857248
100
AcDbArc
 50
89.89098665888919
 51
179.890570245126
  0
LINE
  5
2D3
330
1F
100
AcDbEntity
  8
0
  6
SLD-Solid
 62
     7
370
    25
100
AcDbLine
 10
51.27805532079561
 20
37.30933363340512
 30
0.0
 11
51.27805532079561
 21
36.31313893531335
 31
0.0
  0
ARC
  5
2D4
330
1F
100
AcDbEntity
  8
0
  6
SLD-Solid
 62
     7
370
    25
100
AcDbCircle
 10
51.028530078514
 20
36.31361550652907
 30
0.0
 40
0.2495256973857055
100
AcDbArc
 50
269.8909866588834
 51
359.8905702451317
  0
LINE
  5
2D5
330
1F
100
AcDbEntity
  8
0
  6
SLD-Solid
 62
     7
370
    25
100
AcDbLine
 10
51.02805532079561
 20
36.06409026079042
 30
0.0
 11
45.46555532079554
 21
36.06409026079042
 31
0.0
  0
ARC
  5
2D6
330
1F
100
AcDbEntity
  8
0
  6
SLD-Solid
 62
     7
370
    25
100
AcDbCircle
 10
45.46508056307721
 20
36.31361550652915
 30
0.0
 40
0.2495256973857835
100
AcDbArc
 50
180.1094297548878
 51
270.1090133411067
  0
LINE
  5
2D7
330
1F
100
AcDbEntity
  8
0
  6
SLD-Solid
 62
     7
370
    25
100
AcDbLine
 10
45.21555532079552
 20
36.31313893531335
 30
0.0
 11
45.21555532079555
 21
37.76565534026859
 31
0.0
  0
LINE
  5
2D8
330
1F
100
AcDbEntity
  8
0
  6
SLD-Solid
 62
     7
370
    25
100
AcDbLine
 10
60.34055532079568
 20
37.76565534026858
 30
0.0
 11
45.21555532079555
 21
37.76565534026859
 31
0.0
  0
LINE
  5
2D9
330
1F
100
AcDbEntity
  8
0
  6
SLD-Solid
 62
     7
370
    25
100
AcDbLine
 10
60.34055532079568
 20
37.76565534026858
 30
0.0
 11
60.34055532079568
 21
36.31313893531335
 31
0.0
  0
LINE
  5
2DA
330
1F
100
AcDbEntity
  8
0
  6
SLD-Solid
 62
     7
370
    25
100
AcDbLine
 10
60.09055532079567
 20
36.06409026079042
 30
0.0
 11
60.09055532079567
 21
36.06147558850799
 31
0.0
  0
LINE
  5
2DB
330
1F
100
AcDbEntity
  8
0
  6
SLD-Solid
 62
     7
370
    25
100
AcDbLine
 10
60.34055532079568
 20
36.31313893531335
 30
0.0
 11
60.34055532079568
 21
36.31052426303093
 31
0.0
  0
ARC
  5
2DC
330
1F
100
AcDbEntity
  8
0
  6
SLD-Solid
 62
     7
370
    25
100
AcDbCircle
 10
60.09103007851404
 20
36.31100083424666
 30
0.0
 40
0.2495256973857339
100
AcDbArc
 50
269.8909866588867
 51
359.8905702451268
  0
LINE
  5
2DD
330
1F
100
AcDbEntity
  8
0
  6
SLD-Solid
 62
     7
370
    25
100
AcDbLine
 10
54.52805532079563
 20
36.06409026079042
 30
0.0
 11
54.52805532079563
 21
36.06147558850799
 31
0.0
  0
LINE
  5
2DE
330
1F
100
AcDbEntity
  8
0
  6
SLD-Solid
 62
     7
370
    25
100
AcDbLine
 10
60.09055532079567
 20
36.06147558850799
 30
0.0
 11
54.52805532079563
 21
36.06147558850799
 31
0.0
  0
LINE
  5
2DF
330
1F
100
AcDbEntity
  8
0
  6
SLD-Solid
 62
     7
370
    25
100
AcDbLine
 10
54.27805532079564
 20
36.31313893531335
 30
0.0
 11
54.27805532079564
 21
36.31052426303093
 31
0.0
  0
ARC
  5
2E0
330
1F
100
AcDbEntity
  8
0
  6
SLD-Solid
 62
     7
370
    25
100
AcDbCircle
 10
54.52758056307726
 20
36.31100083424665
 30
0.0
 40
0.2495256973857197
100
AcDbArc
 50
180.1094297548715
 51
270.1090133411149
  0
LINE
  5
2E1
330
1F
100
AcDbEntity
  8
0
  6
SLD-Solid
 62
     7
370
    25
100
AcDbLine
 10
51.02805532079561
 20
36.06409026079042
 30
0.0
 11
51.02805532079561
 21
36.06147558850799
 31
0.0
  0
LINE
  5
2E2
330
1F
100
AcDbEntity
  8
0
  6
SLD-Solid
 62
     7
370
    25
100
AcDbLine
 10
51.27805532079561
 20
36.31313893531335
 30
0.0
 11
51.27805532079561
 21
36.31052426303093
 31
0.0
  0
ARC
  5
2E3
330
1F
100
AcDbEntity
  8
0
  6
SLD-Solid
 62
     7
370
    25
100
AcDbCircle
 10
51.02853007851397
 20
36.31100083424665
 30
0.0
 40
0.2495256973857247
100
AcDbArc
 50
269.8909866588884
 51
359.89057024513
  0
LINE
  5
2E4
330
1F
100
AcDbEntity
  8
0
  6
SLD-Solid
 62
     7
370
    25
100
AcDbLine
 10
45.46555532079554
 20
36.06409026079042
 30
0.0
 11
45.46555532079554
 21
36.06147558850799
 31
0.0
  0
LINE
  5
2E5
330
1F
100
AcDbEntity
  8
0
  6
SLD-Solid
 62
     7
370
    25
100
AcDbLine
 10
51.02805532079561
 20
36.06147558850799
 30
0.0
 11
45.46555532079554
 21
36.06147558850799
 31
0.0
  0
LINE
  5
2E6
330
1F
100
AcDbEntity
  8
0
  6
SLD-Solid
 62
     7
370
    25
100
AcDbLine
 10
45.21555532079552
 20
36.31313893531335
 30
0.0
 11
45.21555532079552
 21
36.31052426303093
 31
0.0
  0
ARC
  5
2E7
330
1F
100
AcDbEntity
  8
0
  6
SLD-Solid
 62
     7
370
    25
100
AcDbCircle
 10
45.46508056307721
 20
36.31100083424671
 30
0.0
 40
0.2495256973857764
100
AcDbArc
 50
180.1094297548846
 51
270.1090133411067
  0
LINE
  5
2E8
330
1F
100
AcDbEntity
  8
0
  6
SLD-Solid
 62
     7
370
    25
100
AcDbLine
 10
54.02805532079564
 20
37.55838230792804
 30
0.0
 11
54.02805532079564
 21
37.55576763564561
 31
0.0
  0
ARC
  5
2E9
330
1F
100
AcDbEntity
  8
0
  6
SLD-Solid
 62
     7
370
    25
100
AcDbCircle
 10
54.028530078514
 20
37.30624238990695
 30
0.0
 40
0.2495256973857248
100
AcDbArc
 50
0.1094297548723678
 51
90.10901334111244
  0
LINE
  5
2EA
330
1F
100
AcDbEntity
  8
0
  6
SLD-Solid
 62
     7
370
    25
100
AcDbLine
 10
51.5280553207956
 20
37.55838230792804
 30
0.0
 11
51.5280553207956
 21
37.55576763564562
 31
0.0
  0
ARC
  5
2EB
330
1F
100
AcDbEntity
  8
0
  6
SLD-Solid
 62
     7
370
    25
100
AcDbCircle
 10
51.52758056307724
 20
37.30624238990696
 30
0.0
 40
0.2495256973857196
100
AcDbArc
 50
89.89098665888756
 51
179.8905702451293
  0
LINE
  5
2EC
330
1F
100
AcDbEntity
  8
0
  6
SLD-Solid
 62
     7
370
    25
100
AcDbLine
 10
54.02805532079564
 20
37.55576763564561
 30
0.0
 11
51.5280553207956
 21
37.55576763564562
 31
0.0
  0
LINE
  5
2ED
330
1F
100
AcDbEntity
  8
0
  6
SLD-Solid
 62
     7
370
    25
100
AcDbLine
 10
60.34055532079568
 20
37.76565534026858
 30
0.0
 11
60.34055532079567
 21
37.83868288084877
 31
0.0
  0
LINE
  5
2EE
330
1F
100
AcDbEntity
  8
0
  6
SLD-Solid
 62
     7
370
    25
100
AcDbLine
 10
45.21555532079555
 20
37.83868288084878
 30
0.0
 11
45.21555532079555
 21
37.76565534026859
 31
0.0
  0
LINE
  5
2EF
330
1F
100
AcDbEntity
  8
0
  6
SLD-Solid
 62
     7
370
    25
100
AcDbLine
 10
60.42369471867746
 20
13.75868288084882
 30
0.0
 11
60.42369471867746
 21
37.75868288084883
 31
0.0
  0
LINE
  5
2F0
330
1F
100
AcDbEntity
  8
0
  6
SLD-Solid
 62
     7
370
    25
100
AcDbLine
 10
60.35369471867747
 20
13.75868288084883
 30
0.0
 11
60.42369471867746
 21
13.75868288084882
 31
0.0
  0
LINE
  5
2F1
330
1F
100
AcDbEntity
  8
0
  6
SLD-Solid
 62
     7
370
    25
100
AcDbLine
 10
60.35369471867747
 20
13.75868288084883
 30
0.0
 11
60.35369471867747
 21
37.75868288084883
 31
0.0
  0
LINE
  5
2F2
330
1F
100
AcDbEntity
  8
0
  6
SLD-Solid
 62
     7
370
    25
100
AcDbLine
 10
60.42369471867746
 20
37.75868288084883
 30
0.0
 11
60.35369471867747
 21
37.75868288084883
 31
0.0
  0
ARC
  5
2F3
330
1F
100
AcDbEntity
  8
0
  6
SLD-Solid
 62
     7
370
    25
100
AcDbCircle
 10
60.07312170648001
 20
13.90868288084882
 30
0.0
 40
0.1499999999999968
100
AcDbArc
 50
180.0000000000168
 51
270.0000000000008
  0
LINE
  5
2F4
330
1F
100
AcDbEntity
  8
0
  6
SLD-Solid
 62
     7
370
    25
100
AcDbLine
 10
59.92312170648002
 20
13.90868288084882
 30
0.0
 11
59.92312170648001
 21
36.06147558850799
 31
0.0
  0
LINE
  5
2F5
330
1F
100
AcDbEntity
  8
0
  6
SLD-Solid
 62
     7
370
    25
100
AcDbLine
 10
60.34055532079568
 20
37.75868288084883
 30
0.0
 11
60.35369471867747
 21
37.75868288084883
 31
0.0
  0
LINE
  5
2F6
330
1F
100
AcDbEntity
  8
0
  6
SLD-Solid
 62
     7
370
    25
100
AcDbLine
 10
60.35369471867747
 20
13.75868288084883
 30
0.0
 11
60.07312170648001
 21
13.75868288084883
 31
0.0
  0
LINE
  5
2F7
330
1F
100
AcDbEntity
  8
0
  6
SLD-Solid
 62
     7
370
    25
100
AcDbLine
 10
45.2024159229096
 20
37.75868287861373
 30
0.0
 11
45.21555532079555
 21
37.75868287861373
 31
0.0
  0
LINE
  5
2F8
330
1F
100
AcDbEntity
  8
0
  6
SLD-Solid
 62
     7
370
    25
100
AcDbLine
 10
45.63298893734225
 20
36.06147558850799
 30
0.0
 11
45.63298893734227
 21
13.90868287861366
 31
0.0
  0
ARC
  5
2F9
330
1F
100
AcDbEntity
  8
0
  6
SLD-Solid
 62
     7
370
    25
100
AcDbCircle
 10
45.48298893734228
 20
13.90868287861366
 30
0.0
 40
0.1499999999999968
100
AcDbArc
 50
270.0000000000008
 51
0.0000000000159452
  0
LINE
  5
2FA
330
1F
100
AcDbEntity
  8
0
  6
SLD-Solid
 62
     7
370
    25
100
AcDbLine
 10
45.48298893734228
 20
13.75868287861367
 30
0.0
 11
45.20241592290962
 21
13.75868287861367
 31
0.0
  0
LINE
  5
2FB
330
1F
100
AcDbEntity
  8
0
  6
SLD-Solid
 62
     7
370
    25
100
AcDbLine
 10
45.20241592290962
 20
13.75868287861367
 30
0.0
 11
45.2024159229096
 21
37.75868287861373
 31
0.0
  0
LINE
  5
2FC
330
1F
100
AcDbEntity
  8
0
  6
SLD-Solid
 62
     7
370
    25
100
AcDbLine
 10
45.13241592290962
 20
13.75868287861367
 30
0.0
 11
45.20241592290962
 21
13.75868287861367
 31
0.0
  0
LINE
  5
2FD
330
1F
100
AcDbEntity
  8
0
  6
SLD-Solid
 62
     7
370
    25
100
AcDbLine
 10
45.13241592290962
 20
13.75868287861367
 30
0.0
 11
45.1324159229096
 21
37.75868287861373
 31
0.0
  0
LINE
  5
2FE
330
1F
100
AcDbEntity
  8
0
  6
SLD-Solid
 62
     7
370
    25
100
AcDbLine
 10
45.2024159229096
 20
37.75868287861373
 30
0.0
 11
45.1324159229096
 21
37.75868287861373
 31
0.0
  0
LINE
  5
2FF
330
1F
100
AcDbEntity
  8
0
  6
SLD-Solid
 62
     7
370
    25
100
AcDbLine
 10
60.42369471867747
 20
37.77868288084884
 30
0.0
 11
60.39369471867747
 21
37.77868288084884
 31
0.0
  0
LINE
  5
300
330
1F
100
AcDbEntity
  8
0
  6
SLD-Solid
 62
     7
370
    25
100
AcDbLine
 10
60.39369471867747
 20
37.75868288084883
 30
0.0
 11
60.39369471867747
 21
37.77868288084884
 31
0.0
  0
LINE
  5
301
330
1F
100
AcDbEntity
  8
0
  6
SLD-Solid
 62
     7
370
    25
100
AcDbLine
 10
60.42369471867746
 20
37.75868288084883
 30
0.0
 11
60.42369471867747
 21
37.77868288084884
 31
0.0
  0
LINE
  5
302
330
1F
100
AcDbEntity
  8
0
  6
SLD-Solid
 62
     7
370
    25
100
AcDbLine
 10
45.1324159229096
 20
37.77868287861375
 30
0.0
 11
45.1624159229096
 21
37.77868287861375
 31
0.0
  0
LINE
  5
303
330
1F
100
AcDbEntity
  8
0
  6
SLD-Solid
 62
     7
370
    25
100
AcDbLine
 10
45.1324159229096
 20
37.77868287861375
 30
0.0
 11
45.13241592290957
 21
37.75868287861374
 31
0.0
  0
LINE
  5
304
330
1F
100
AcDbEntity
  8
0
  6
SLD-Solid
 62
     7
370
    25
100
AcDbLine
 10
45.1624159229096
 20
37.77868287861375
 30
0.0
 11
45.16241592290958
 21
37.75868287861374
 31
0.0
  0
LINE
  5
305
330
1F
100
AcDbEntity
  8
0
  6
SLD-Solid
 62
     7
370
    25
100
AcDbLine
 10
60.42369471867746
 20
13.73868288084882
 30
0.0
 11
60.39369471867747
 21
13.73868288084882
 31
0.0
  0
LINE
  5
306
330
1F
100
AcDbEntity
  8
0
  6
SLD-Solid
 62
     7
370
    25
100
AcDbLine
 10
60.39369471867747
 20
13.73868288084882
 30
0.0
 11
60.39369471867747
 21
13.75868288084883
 31
0.0
  0
LINE
  5
307
330
1F
100
AcDbEntity
  8
0
  6
SLD-Solid
 62
     7
370
    25
100
AcDbLine
 10
60.42369471867746
 20
13.73868288084882
 30
0.0
 11
60.42369471867746
 21
13.75868288084883
 31
0.0
  0
LINE
  5
308
330
1F
100
AcDbEntity
  8
0
  6
SLD-Solid
 62
     7
370
    25
100
AcDbLine
 10
45.13241592290962
 20
13.73868287861367
 30
0.0
 11
45.16241592290962
 21
13.73868287861367
 31
0.0
  0
LINE
  5
309
330
1F
100
AcDbEntity
  8
0
  6
SLD-Solid
 62
     7
370
    25
100
AcDbLine
 10
45.13241592290959
 20
13.75868287861367
 30
0.0
 11
45.13241592290962
 21
13.73868287861367
 31
0.0
  0
LINE
  5
30A
330
1F
100
AcDbEntity
  8
0
  6
SLD-Solid
 62
     7
370
    25
100
AcDbLine
 10
45.1624159229096
 20
13.75868287861367
 30
0.0
 11
45.16241592290962
 21
13.73868287861367
 31
0.0
  0
LINE
  5
30B
330
1F
100
AcDbEntity
  8
0
  6
SLD-Solid
 62
     7
370
    25
100
AcDbLine
 10
60.42369471867747
 20
37.79363011321939
 30
0.0
 11
60.39369471867747
 21
37.79363011321939
 31
0.0
  0
LINE
  5
30C
330
1F
100
AcDbEntity
  8
0
  6
SLD-Solid
 62
     7
370
    25
100
AcDbLine
 10
60.39369471867747
 20
37.77868288084884
 30
0.0
 11
60.39369471867747
 21
37.79363011321939
 31
0.0
  0
LINE
  5
30D
330
1F
100
AcDbEntity
  8
0
  6
SLD-Solid
 62
     7
370
    25
100
AcDbLine
 10
60.42369471867747
 20
37.77868288084884
 30
0.0
 11
60.42369471867747
 21
37.79363011321939
 31
0.0
  0
ARC
  5
30E
330
1F
100
AcDbEntity
  8
0
  6
SLD-Solid
 62
     7
370
    25
100
AcDbCircle
 10
60.38369471867746
 20
37.79363011321939
 30
0.0
 40
0.0100000000000122
100
AcDbArc
 50
0.0
 51
180.0000000002694
  0
LINE
  5
30F
330
1F
100
AcDbEntity
  8
0
  6
SLD-Solid
 62
     7
370
    25
100
AcDbLine
 10
60.34369471867747
 20
37.79363011321939
 30
0.0
 11
60.37369471867746
 21
37.79363011321936
 31
0.0
  0
ARC
  5
310
330
1F
100
AcDbEntity
  8
0
  6
SLD-Solid
 62
     7
370
    25
100
AcDbCircle
 10
60.38369471867746
 20
37.79363011321939
 30
0.0
 40
0.0400000000000063
100
AcDbArc
 50
0.0
 51
179.9999999999402
  0
LINE
  5
311
330
1F
100
AcDbEntity
  8
0
  6
SLD-Solid
 62
     7
370
    25
100
AcDbLine
 10
60.34369471867747
 20
37.79363011321939
 30
0.0
 11
60.34369471867747
 21
37.75868288084883
 31
0.0
  0
LINE
  5
312
330
1F
100
AcDbEntity
  8
0
  6
SLD-Solid
 62
     7
370
    25
100
AcDbLine
 10
60.37369471867746
 20
37.79363011321936
 30
0.0
 11
60.37369471867748
 21
37.75868288084883
 31
0.0
  0
LINE
  5
313
330
1F
100
AcDbEntity
  8
0
  6
SLD-Solid
 62
     7
370
    25
100
AcDbLine
 10
45.21241592290959
 20
37.75868287861373
 30
0.0
 11
45.21241592290959
 21
37.79363011321946
 31
0.0
  0
LINE
  5
314
330
1F
100
AcDbEntity
  8
0
  6
SLD-Solid
 62
     7
370
    25
100
AcDbLine
 10
45.18241592290959
 20
37.79363011321944
 30
0.0
 11
45.21241592290959
 21
37.79363011321946
 31
0.0
  0
LINE
  5
315
330
1F
100
AcDbEntity
  8
0
  6
SLD-Solid
 62
     7
370
    25
100
AcDbLine
 10
45.18241592290959
 20
37.75868287861373
 30
0.0
 11
45.18241592290959
 21
37.79363011321944
 31
0.0
  0
LINE
  5
316
330
1F
100
AcDbEntity
  8
0
  6
SLD-Solid
 62
     7
370
    25
100
AcDbLine
 10
45.1624159229096
 20
37.79363011321946
 30
0.0
 11
45.1324159229096
 21
37.79363011321946
 31
0.0
  0
LINE
  5
317
330
1F
100
AcDbEntity
  8
0
  6
SLD-Solid
 62
     7
370
    25
100
AcDbLine
 10
45.1324159229096
 20
37.79363011321946
 30
0.0
 11
45.1324159229096
 21
37.77868287861375
 31
0.0
  0
LINE
  5
318
330
1F
100
AcDbEntity
  8
0
  6
SLD-Solid
 62
     7
370
    25
100
AcDbLine
 10
45.1624159229096
 20
37.79363011321946
 30
0.0
 11
45.1624159229096
 21
37.77868287861375
 31
0.0
  0
ARC
  5
319
330
1F
100
AcDbEntity
  8
0
  6
SLD-Solid
 62
     7
370
    25
100
AcDbCircle
 10
45.17241592290959
 20
37.79363011321946
 30
0.0
 40
0.0399999999999991
100
AcDbArc
 50
0.0000000000631642
 51
180.0
  0
ARC
  5
31A
330
1F
100
AcDbEntity
  8
0
  6
SLD-Solid
 62
     7
370
    25
100
AcDbCircle
 10
45.17241592290959
 20
37.79363011321946
 30
0.0
 40
0.009999999999998
100
AcDbArc
 50
359.9999999998643
 51
180.0
  0
LINE
  5
31B
330
1F
100
AcDbEntity
  8
0
  6
SLD-Solid
 62
     7
370
    25
100
AcDbLine
 10
60.42369471867746
 20
13.62664305925949
 30
0.0
 11
60.39369471867747
 21
13.62664305925949
 31
0.0
  0
LINE
  5
31C
330
1F
100
AcDbEntity
  8
0
  6
SLD-Solid
 62
     7
370
    25
100
AcDbLine
 10
60.39369471867747
 20
13.62664305925949
 30
0.0
 11
60.39369471867747
 21
13.73868288084882
 31
0.0
  0
LINE
  5
31D
330
1F
100
AcDbEntity
  8
0
  6
SLD-Solid
 62
     7
370
    25
100
AcDbLine
 10
60.42369471867746
 20
13.62664305925949
 30
0.0
 11
60.42369471867746
 21
13.73868288084882
 31
0.0
  0
LINE
  5
31E
330
1F
100
AcDbEntity
  8
0
  6
SLD-Solid
 62
     7
370
    25
100
AcDbLine
 10
60.36469471867746
 20
13.56764305925949
 30
0.0
 11
60.36469471867746
 21
13.59764305925949
 31
0.0
  0
ARC
  5
31F
330
1F
100
AcDbEntity
  8
0
  6
SLD-Solid
 62
     7
370
    25
100
AcDbCircle
 10
60.36469471867746
 20
13.62664305925949
 30
0.0
 40
0.0290000000000106
100
AcDbArc
 50
270.0000000000008
 51
0.0
  0
ARC
  5
320
330
1F
100
AcDbEntity
  8
0
  6
SLD-Solid
 62
     7
370
    25
100
AcDbCircle
 10
60.36469471867746
 20
13.62664305925949
 30
0.0
 40
0.0590000000000046
100
AcDbArc
 50
270.0000000000008
 51
0.0
  0
LINE
  5
321
330
1F
100
AcDbEntity
  8
0
  6
SLD-Solid
 62
     7
370
    25
100
AcDbLine
 10
60.07548232891862
 20
13.56764305925949
 30
0.0
 11
60.07548232891862
 21
13.59764305925949
 31
0.0
  0
LINE
  5
322
330
1F
100
AcDbEntity
  8
0
  6
SLD-Solid
 62
     7
370
    25
100
AcDbLine
 10
60.34055532079357
 20
13.59764305925949
 30
0.0
 11
60.36469471867746
 21
13.59764305925949
 31
0.0
  0
LINE
  5
323
330
1F
100
AcDbEntity
  8
0
  6
SLD-Solid
 62
     7
370
    25
100
AcDbLine
 10
60.07548232891862
 20
13.56764305925949
 30
0.0
 11
60.36469471867746
 21
13.56764305925949
 31
0.0
  0
LINE
  5
324
330
1F
100
AcDbEntity
  8
0
  6
SLD-Solid
 62
     7
370
    25
100
AcDbLine
 10
59.92548232891862
 20
13.56764305925949
 30
0.0
 11
59.92548232891862
 21
13.59764305925949
 31
0.0
  0
LINE
  5
325
330
1F
100
AcDbEntity
  8
0
  6
SLD-Solid
 62
     7
370
    25
100
AcDbLine
 10
59.92548232891862
 20
13.56764305925949
 30
0.0
 11
60.07548232891862
 21
13.56764305925949
 31
0.0
  0
LINE
  5
326
330
1F
100
AcDbEntity
  8
0
  6
SLD-Solid
 62
     7
370
    25
100
AcDbLine
 10
45.48062831490444
 20
13.56764305925949
 30
0.0
 11
45.48062831490444
 21
13.59764305925949
 31
0.0
  0
LINE
  5
327
330
1F
100
AcDbEntity
  8
0
  6
SLD-Solid
 62
     7
370
    25
100
AcDbLine
 10
45.19141592290961
 20
13.56764305925949
 30
0.0
 11
45.48062831490444
 21
13.56764305925949
 31
0.0
  0
LINE
  5
328
330
1F
100
AcDbEntity
  8
0
  6
SLD-Solid
 62
     7
370
    25
100
AcDbLine
 10
45.19141592290961
 20
13.59764305925949
 30
0.0
 11
45.19141592290961
 21
13.56764305925949
 31
0.0
  0
LINE
  5
329
330
1F
100
AcDbEntity
  8
0
  6
SLD-Solid
 62
     7
370
    25
100
AcDbLine
 10
45.19141592290961
 20
13.59764305925949
 30
0.0
 11
45.21555532079358
 21
13.59764305925949
 31
0.0
  0
ARC
  5
32A
330
1F
100
AcDbEntity
  8
0
  6
SLD-Solid
 62
     7
370
    25
100
AcDbCircle
 10
45.19141592290961
 20
13.62664305925949
 30
0.0
 40
0.0590000000000011
100
AcDbArc
 50
180.0
 51
270.0000000000008
  0
LINE
  5
32B
330
1F
100
AcDbEntity
  8
0
  6
SLD-Solid
 62
     7
370
    25
100
AcDbLine
 10
45.16241592290962
 20
13.62664305925949
 30
0.0
 11
45.13241592290962
 21
13.62664305925949
 31
0.0
  0
ARC
  5
32C
330
1F
100
AcDbEntity
  8
0
  6
SLD-Solid
 62
     7
370
    25
100
AcDbCircle
 10
45.19141592290961
 20
13.62664305925949
 30
0.0
 40
0.0289999999999981
100
AcDbArc
 50
179.9999999999965
 51
270.0000000000008
  0
LINE
  5
32D
330
1F
100
AcDbEntity
  8
0
  6
SLD-Solid
 62
     7
370
    25
100
AcDbLine
 10
45.13241592290962
 20
13.73868287861367
 30
0.0
 11
45.13241592290962
 21
13.62664305925949
 31
0.0
  0
LINE
  5
32E
330
1F
100
AcDbEntity
  8
0
  6
SLD-Solid
 62
     7
370
    25
100
AcDbLine
 10
45.16241592290962
 20
13.73868287861367
 30
0.0
 11
45.16241592290962
 21
13.62664305925949
 31
0.0
  0
LINE
  5
32F
330
1F
100
AcDbEntity
  8
0
  6
SLD-Solid
 62
     7
370
    25
100
AcDbLine
 10
45.63062831490443
 20
13.56764305925949
 30
0.0
 11
45.63062831490443
 21
13.59764305925949
 31
0.0
  0
LINE
  5
330
330
1F
100
AcDbEntity
  8
0
  6
SLD-Solid
 62
     7
370
    25
100
AcDbLine
 10
45.48062831490444
 20
13.56764305925949
 30
0.0
 11
45.63062831490443
 21
13.56764305925949
 31
0.0
  0
LINE
  5
331
330
1F
100
AcDbEntity
  8
0
  6
SLD-Solid
 62
     7
370
    25
100
AcDbLine
 10
59.64362441528167
 20
13.56764305925951
 30
0.0
 11
59.64362441528167
 21
13.59764305925951
 31
0.0
  0
LINE
  5
332
330
1F
100
AcDbEntity
  8
0
  6
SLD-Solid
 62
     7
370
    25
100
AcDbLine
 10
45.91248622630532
 20
13.56764305925951
 30
0.0
 11
45.91248622630532
 21
13.59764305925951
 31
0.0
  0
LINE
  5
333
330
1F
100
AcDbEntity
  8
0
  6
SLD-Solid
 62
     7
370
    25
100
AcDbLine
 10
45.91248622630532
 20
13.56764305925951
 30
0.0
 11
59.64362441528167
 21
13.56764305925951
 31
0.0
  0
LINE
  5
334
330
1F
100
AcDbEntity
  8
0
  6
SLD-Solid
 62
     7
370
    25
100
AcDbLine
 10
59.79362441528168
 20
13.56764305925951
 30
0.0
 11
59.79362441528168
 21
13.59764305925951
 31
0.0
  0
LINE
  5
335
330
1F
100
AcDbEntity
  8
0
  6
SLD-Solid
 62
     7
370
    25
100
AcDbLine
 10
59.64362441528167
 20
13.56764305925951
 30
0.0
 11
59.79362441528168
 21
13.56764305925951
 31
0.0
  0
LINE
  5
336
330
1F
100
AcDbEntity
  8
0
  6
SLD-Solid
 62
     7
370
    25
100
AcDbLine
 10
45.76248622630534
 20
13.56764305925951
 30
0.0
 11
45.76248622630534
 21
13.59764305925951
 31
0.0
  0
LINE
  5
337
330
1F
100
AcDbEntity
  8
0
  6
SLD-Solid
 62
     7
370
    25
100
AcDbLine
 10
45.76248622630534
 20
13.56764305925951
 30
0.0
 11
45.91248622630532
 21
13.56764305925951
 31
0.0
  0
LINE
  5
338
330
1F
100
AcDbEntity
  8
0
  6
SLD-Solid
 62
     7
370
    25
100
AcDbLine
 10
45.17417621293984
 20
37.78456404109883
 30
0.0
 11
45.18241592290951
 21
37.78456404109883
 31
0.0
  0
LINE
  5
339
330
1F
100
AcDbEntity
  8
0
  6
SLD-Solid
 62
     7
370
    25
100
AcDbLine
 10
45.17417621293986
 20
37.75868287861373
 30
0.0
 11
45.17417621293984
 21
37.78456404109883
 31
0.0
  0
LINE
  5
33A
330
1F
100
AcDbEntity
  8
0
  6
SLD-Solid
 62
     7
370
    25
100
AcDbLine
 10
60.38193442864712
 20
37.75868288084883
 30
0.0
 11
60.38193442864712
 21
37.78456404109877
 31
0.0
  0
LINE
  5
33B
330
1F
100
AcDbEntity
  8
0
  6
SLD-Solid
 62
     7
370
    25
100
AcDbLine
 10
60.38193442864712
 20
37.78456404109877
 30
0.0
 11
60.37369471867738
 21
37.78456404109877
 31
0.0
  0
LINE
  5
33C
330
1F
100
AcDbEntity
  8
0
  6
SLD-Solid
 62
     7
370
    25
100
AcDbLine
 10
59.7937860643715
 20
13.56764305925951
 30
0.0
 11
59.7937860643715
 21
13.59764305925951
 31
0.0
  0
LINE
  5
33D
330
1F
100
AcDbEntity
  8
0
  6
SLD-Solid
 62
     7
370
    25
100
AcDbLine
 10
59.79362441528168
 20
13.56764305925951
 30
0.0
 11
59.7937860643715
 21
13.56764305925951
 31
0.0
  0
LINE
  5
33E
330
1F
100
AcDbEntity
  8
0
  6
SLD-Solid
 62
     7
370
    25
100
AcDbLine
 10
45.76232457721549
 20
13.59764305925951
 30
0.0
 11
45.76232457721549
 21
13.56764305925951
 31
0.0
  0
LINE
  5
33F
330
1F
100
AcDbEntity
  8
0
  6
SLD-Solid
 62
     7
370
    25
100
AcDbLine
 10
45.76232457721549
 20
13.56764305925951
 30
0.0
 11
45.76248622630534
 21
13.56764305925951
 31
0.0
  0
LINE
  5
340
330
1F
100
AcDbEntity
  8
0
  6
SLD-Solid
 62
     7
370
    25
100
AcDbLine
 10
60.39369471867747
 20
13.63368288084881
 30
0.0
 11
60.34055532079349
 21
13.63368288084881
 31
0.0
  0
LINE
  5
341
330
1F
100
AcDbEntity
  8
0
  6
SLD-Solid
 62
     7
370
    25
100
AcDbLine
 10
60.34055532079558
 20
37.78712646929873
 30
0.0
 11
60.34369471867739
 21
37.78712646929873
 31
0.0
  0
LINE
  5
342
330
1F
100
AcDbEntity
  8
0
  6
SLD-Solid
 62
     7
370
    25
100
AcDbLine
 10
60.37369471867739
 20
37.78712646929873
 30
0.0
 11
60.39369471867747
 21
37.78712646929873
 31
0.0
  0
LINE
  5
343
330
1F
100
AcDbEntity
  8
0
  6
SLD-Solid
 62
     7
370
    25
100
AcDbLine
 10
45.2155553207935
 20
13.63368288084884
 30
0.0
 11
45.16241592290954
 21
13.63368288084884
 31
0.0
  0
LINE
  5
344
330
1F
100
AcDbEntity
  8
0
  6
SLD-Solid
 62
     7
370
    25
100
AcDbLine
 10
45.16241592290952
 20
37.7871264692988
 30
0.0
 11
45.18241592290951
 21
37.7871264692988
 31
0.0
  0
LINE
  5
345
330
1F
100
AcDbEntity
  8
0
  6
SLD-Solid
 62
     7
370
    25
100
AcDbLine
 10
45.21241592290951
 20
37.7871264692988
 30
0.0
 11
45.21555532079547
 21
37.7871264692988
 31
0.0
  0
LINE
  5
346
330
1F
100
AcDbEntity
  8
0
  6
SLD-Solid
 62
     7
370
    25
100
AcDbLine
 10
45.21555532079547
 20
37.78456404109883
 30
0.0
 11
45.21241592290951
 21
37.78456404109883
 31
0.0
  0
LINE
  5
347
330
1F
100
AcDbEntity
  8
0
  6
SLD-Solid
 62
     7
370
    25
100
AcDbLine
 10
60.34369471867739
 20
37.78456404109877
 30
0.0
 11
60.34055532079559
 21
37.78456404109877
 31
0.0
  0
SPLINE
  5
348
330
1F
100
AcDbEntity
  8
0
  6
SLD-Solid
 62
     7
370
    25
100
AcDbSpline
210
0.0
220
0.0
230
1.0
 70
    12
 71
     3
 72
    10
 73
     6
 74
     0
 42
0.00000001
 43
0.00000001
 40
0.0
 40
0.0
 40
0.0
 40
0.0
 40
0.2488637968059323
 40
0.6244318984026482
 40
1.0
 40
1.0
 40
1.0
 40
1.0
 10
59.79380897376667
 20
13.59760720149328
 30
0.0
 41
1.0
 10
59.79380707332698
 20
13.59317584380275
 30
0.0
 41
1.0
 10
59.79380230487461
 20
13.58205698629631
 30
0.0
 41
1.0
 10
59.79379466840956
 20
13.57040721998778
 30
0.0
 41
1.0
 10
59.79378893238419
 20
13.56856444616893
 30
0.0
 41
1.0
 10
59.7937860643715
 20
13.56764305925951
 30
0.0
 41
1.0
  0
SPLINE
  5
349
330
1F
100
AcDbEntity
  8
0
  6
SLD-Solid
 62
     7
370
    25
100
AcDbSpline
210
0.0
220
0.0
230
1.0
 70
    12
 71
     3
 72
    10
 73
     6
 74
     0
 42
0.00000001
 43
0.00000001
 40
0.0
 40
0.0
 40
0.0
 40
0.0
 40
0.3755681015973574
 40
0.7511362031940788
 40
0.9999999999999999
 40
0.9999999999999999
 40
0.9999999999999999
 40
0.9999999999999999
 10
45.76232457721549
 20
13.56764305925951
 30
0.0
 41
1.0
 10
45.76232170920279
 20
13.56856444616893
 30
0.0
 41
1.0
 10
45.76231597317739
 20
13.57040721998778
 30
0.0
 41
1.0
 10
45.76230833671234
 20
13.58205698629631
 30
0.0
 41
1.0
 10
45.76230356825997
 20
13.59317584380275
 30
0.0
 41
1.0
 10
45.76230166782028
 20
13.59760720149328
 30
0.0
 41
1.0
  0
DIMENSION
  5
34A
330
1F
100
AcDbEntity
  8
OBJECT
100
AcDbDimension
  2
_D_3
 10
46.78905110635441
 20
34.51846181477823
 30
0.0
 11
41.64775716909617
 21
42.70702340955861
 31
0.0
 70
    35
  1
<> mounting hole(3)
 71
     1
 42
-1.0
  3
SLDDIMSTYLE2
100
AcDbDiametricDimension
 15
46.76705953523257
 25
34.67290394244939
 35
0.0
 40
0.0
  0
DIMENSION
  5
358
330
1F
100
AcDbEntity
  8
OBJECT
100
AcDbDimension
  2
_D_4
 10
52.77805532079349
 20
40.59458839265998
 30
0.0
 11
49.77805532079349
 21
40.59458839265998
 31
0.0
 70
    32
  1
<>
 71
     2
 42
-1.0
  3
SLDDIMSTYLE0
100
AcDbAlignedDimension
 13
46.77805532079349
 23
34.59568287861381
 33
0.0
 14
52.77805532079349
 24
34.59568287861381
 34
0.0
100
AcDbRotatedDimension
  0
DIMENSION
  5
363
330
1F
100
AcDbEntity
  8
OBJECT
100
AcDbDimension
  2
_D_5
 10
58.77805532079358
 20
40.59458839265989
 30
0.0
 11
55.77805532079358
 21
40.59458839265993
 31
0.0
 70
    32
  1
<>
 71
     2
 42
-1.0
  3
SLDDIMSTYLE0
100
AcDbAlignedDimension
 13
52.77805532079349
 23
34.59568287861381
 33
0.0
 14
58.7780553207935
 24
34.59568287861372
 34
0.0
 50
-0.0000000000008142
100
AcDbRotatedDimension
  0
DIMENSION
  5
36E
330
1F
100
AcDbEntity
  8
OBJECT
100
AcDbDimension
  2
_D_6
 10
44.50249466306907
 20
34.59568287861381
 30
0.0
 11
44.50249466306907
 21
36.21718287973129
 31
0.0
 70
    32
  1
<>
 71
     2
 42
-1.0
  3
SLDDIMSTYLE1
100
AcDbAlignedDimension
 13
45.21555532079559
 23
37.83868288084877
 33
0.0
 14
46.77805532079349
 24
34.59568287861381
 34
0.0
 50
90.0000000000002
100
AcDbRotatedDimension
  0
MTEXT
  5
37D
330
1F
100
AcDbEntity
  8
NOTES
100
AcDbMText
 10
46.68697381662426
 20
12.90920861024741
 30
0.0
 40
0.5
 41
0.0
 71
     1
 72
     1
  1
Back view
  7
SLDTEXTSTYLE1
 73
     1
 44
1.0
  0
MTEXT
  5
37E
330
1F
100
AcDbEntity
  8
OBJECT
100
AcDbMText
 10
61.80327198015983
 20
28.22633090989388
 30
0.0
 40
0.5
 41
0.0
 71
     1
 72
     1
  1
bin hanger
  7
SLDTEXTSTYLE1
 73
     1
 44
1.0
  0
LEADER
  5
380
330
1F
100
AcDbEntity
  8
OBJECT
100
AcDbLeader
  3
SLDDIMSTYLE3
 76
     3
 10
56.88309666228201
 20
33.8396828786138
 30
0.0
 10
61.28149606299214
 20
27.98326771955677
 30
0.0
 10
61.78149606299215
 20
27.98326771955677
 30
0.0
1001
ACAD
1000
DSTYLE
1002
{
1070
   176
1070
     0
1070
    77
1070
     0
1070
    40
1040
1.0
1070
   147
1040
0.0
1002
}
  0
LINE
  5
381
330
1F
100
AcDbEntity
  8
0
  6
SLD-Solid
 62
     7
370
    25
100
AcDbLine
 10
60.57194618537185
 20
68.36006420677217
 30
0.0
 11
51.495625809244
 21
73.59971243086233
 31
0.0
  0
LINE
  5
382
330
1F
100
AcDbEntity
  8
0
  6
SLD-Solid
 62
     7
370
    25
100
AcDbLine
 10
51.3706359676645
 20
73.38320021526715
 30
0.0
 11
60.32192586687962
 21
68.21573054913489
 31
0.0
  0
LINE
  5
383
330
1F
100
AcDbEntity
  8
0
  6
SLD-Solid
 62
     7
370
    25
100
AcDbLine
 10
45.45954895017989
 20
70.35059615296458
 30
0.0
 11
45.2301880098607
 21
70.21818890048594
 31
0.0
  0
LINE
  5
384
330
1F
100
AcDbEntity
  8
0
  6
SLD-Solid
 62
     7
370
    25
100
AcDbLine
 10
45.48020832835292
 20
70.07385524284868
 30
0.0
 11
48.08383559001894
 21
71.57689726785941
 31
0.0
  0
LINE
  5
385
330
1F
100
AcDbEntity
  8
0
  6
SLD-Solid
 62
     7
370
    25
100
AcDbLine
 10
48.08383559001891
 20
71.57689726785941
 30
0.0
 11
51.21278309676937
 21
73.38320021526717
 31
0.0
  0
LINE
  5
386
330
1F
100
AcDbEntity
  8
0
  6
SLD-Solid
 62
     7
370
    25
100
AcDbLine
 10
51.08779325518986
 20
73.59971243086233
 30
0.0
 11
50.41116443060466
 21
73.20910292478642
 31
0.0
  0
SPLINE
  5
387
330
1F
100
AcDbEntity
  8
0
  6
SLD-Solid
 62
     7
370
    25
100
AcDbSpline
210
0.0
220
0.0
230
1.0
 70
    12
 71
     3
 72
    14
 73
    10
 74
     0
 42
0.00000001
 43
0.00000001
 40
0.0
 40
0.0
 40
0.0
 40
0.0
 40
0.0830953810848714
 40
0.2201164685374678
 40
0.3707220538153095
 40
0.5353139682868224
 40
0.7039810042362296
 40
0.8527688940461327
 40
1.0
 40
1.0
 40
1.0
 40
1.0
 10
51.21278309676938
 20
73.38320021526715
 30
0.0
 41
1.0
 10
51.21516090524321
 20
73.38448039339926
 30
0.0
 41
1.0
 10
51.22145962843676
 20
73.38787153603386
 30
0.0
 41
1.0
 10
51.23928694383874
 20
73.39428575840037
 30
0.0
 41
1.0
 10
51.26656778062917
 20
73.39958400636267
 30
0.0
 41
1.0
 10
51.29914806438561
 20
73.40099107755796
 30
0.0
 41
1.0
 10
51.33046452361702
 20
73.3975538304741
 30
0.0
 41
1.0
 10
51.35655241078495
 20
73.39039682926695
 30
0.0
 41
1.0
 10
51.36595793680313
 20
73.38559066127993
 30
0.0
 41
1.0
 10
51.37063596766451
 20
73.38320021526715
 30
0.0
 41
1.0
  0
SPLINE
  5
388
330
1F
100
AcDbEntity
  8
0
  6
SLD-Solid
 62
     7
370
    25
100
AcDbSpline
210
0.0
220
0.0
230
1.0
 70
    12
 71
     3
 72
    15
 73
    11
 74
     0
 42
0.00000001
 43
0.00000001
 40
0.0
 40
0.0
 40
0.0
 40
0.0
 40
0.0863772874372954
 40
0.2312551921588258
 40
0.3764993263192311
 40
0.5216860649781202
 40
0.6675930106439352
 40
0.8155933623940022
 40
0.9564660451655329
 40
1.0
 40
1.0
 40
1.0
 40
1.0
 10
51.49562580924401
 20
73.59971243086233
 30
0.0
 41
1.0
 10
51.48532585759197
 20
73.60521340811034
 30
0.0
 41
1.0
 10
51.45775012131703
 20
73.61994100130403
 30
0.0
 41
1.0
 10
51.40769207485936
 20
73.63693019624073
 30
0.0
 41
1.0
 10
51.34601516775597
 20
73.64861046199961
 30
0.0
 41
1.0
 10
51.28203395632797
 20
73.65160934117958
 30
0.0
 41
1.0
 10
51.21802713070007
 20
73.64597290061876
 30
0.0
 41
1.0
 10
51.15748561902875
 20
73.63169328224161
 30
0.0
 41
1.0
 10
51.11465640650545
 20
73.61460420923288
 30
0.0
 41
1.0
 10
51.09292379908977
 20
73.60255658424478
 30
0.0
 41
1.0
 10
51.08779325518987
 20
73.59971243086233
 30
0.0
 41
1.0
  0
LINE
  5
389
330
1F
100
AcDbEntity
  8
0
  6
SLD-Solid
 62
     7
370
    25
100
AcDbLine
 10
48.01134262093531
 20
71.80725454375624
 30
0.0
 11
48.0787099403703
 21
71.86330288952476
 31
0.0
  0
LINE
  5
38A
330
1F
100
AcDbEntity
  8
0
  6
SLD-Solid
 62
     7
370
    25
100
AcDbLine
 10
48.14070164379693
 20
71.97068730483247
 30
0.0
 11
48.15844958326134
 21
72.07392624583346
 31
0.0
  0
LINE
  5
38B
330
1F
100
AcDbEntity
  8
0
  6
SLD-Solid
 62
     7
370
    25
100
AcDbLine
 10
62.68808105419026
 20
69.58837388318632
 30
0.0
 11
51.9930909887433
 21
75.76246022884582
 31
0.0
  0
LINE
  5
38C
330
1F
100
AcDbEntity
  8
0
  6
SLD-Solid
 62
     7
370
    25
100
AcDbLine
 10
62.73672585793108
 20
68.30397350216623
 30
0.0
 11
62.75785833872317
 21
68.3183080102817
 31
0.0
  0
LINE
  5
38D
330
1F
100
AcDbEntity
  8
0
  6
SLD-Solid
 62
     7
370
    25
100
AcDbLine
 10
62.52884348033648
 20
69.48975696896869
 30
0.0
 11
54.83644121559728
 21
65.0490276651157
 31
0.0
  0
LINE
  5
38E
330
1F
100
AcDbEntity
  8
0
  6
SLD-Solid
 62
     7
370
    25
100
AcDbLine
 10
54.11892946387386
 20
65.08682768317878
 30
0.0
 11
44.18591822248041
 21
70.82103301684278
 31
0.0
  0
LINE
  5
38F
330
1F
100
AcDbEntity
  8
0
  6
SLD-Solid
 62
     7
370
    25
100
AcDbLine
 10
62.66373564994972
 20
49.88000856543156
 30
0.0
 11
62.66373564994973
 21
69.47698805068961
 31
0.0
  0
LINE
  5
390
330
1F
100
AcDbEntity
  8
0
  6
SLD-Solid
 62
     7
370
    25
100
AcDbLine
 10
43.81383753097845
 20
71.01863075427347
 30
0.0
 11
43.81383753097845
 21
51.29635831672392
 31
0.0
  0
LINE
  5
391
330
1F
100
AcDbEntity
  8
0
  6
SLD-Solid
 62
     7
370
    25
100
AcDbLine
 10
43.85801117618359
 20
71.01990191009965
 30
0.0
 11
43.85801117618359
 21
70.97072655036881
 31
0.0
  0
LINE
  5
392
330
1F
100
AcDbEntity
  8
0
  6
SLD-Solid
 62
     7
370
    25
100
AcDbLine
 10
51.77284509451522
 20
75.69906266968374
 30
0.0
 11
44.08044283056628
 21
71.25833336628703
 31
0.0
  0
LINE
  5
393
330
1F
100
AcDbEntity
  8
0
  6
SLD-Solid
 62
     7
370
    25
100
AcDbLine
 10
54.87825130668995
 20
45.24103238434773
 30
0.0
 11
62.56422877987833
 21
49.67805273498572
 31
0.0
  0
LINE
  5
394
330
1F
100
AcDbEntity
  8
0
  6
SLD-Solid
 62
     7
370
    25
100
AcDbLine
 10
44.15539748298904
 20
51.00652053211791
 30
0.0
 11
54.07732830849492
 21
45.27871178639063
 31
0.0
  0
LINE
  5
395
330
1F
100
AcDbEntity
  8
0
  6
SLD-Solid
 62
     7
370
    25
100
AcDbLine
 10
62.58444469458084
 20
49.77837276159574
 30
0.0
 11
62.57645047735559
 21
49.77375779822385
 31
0.0
  0
LINE
  5
396
330
1F
100
AcDbEntity
  8
0
  6
SLD-Solid
 62
     7
370
    25
100
AcDbLine
 10
62.58444469458084
 20
49.77837276159574
 30
0.0
 11
62.58444469458084
 21
49.75387653723917
 31
0.0
  0
LINE
  5
397
330
1F
100
AcDbEntity
  8
0
  6
SLD-Solid
 62
     7
370
    25
100
AcDbLine
 10
62.58444469458084
 20
49.75387653723917
 30
0.0
 11
62.57645047735559
 21
49.74926157386728
 31
0.0
  0
LINE
  5
398
330
1F
100
AcDbEntity
  8
0
  6
SLD-Solid
 62
     7
370
    25
100
AcDbLine
 10
62.6127289658283
 20
49.83382460547245
 30
0.0
 11
62.6127289658283
 21
49.82736255630763
 31
0.0
  0
LINE
  5
399
330
1F
100
AcDbEntity
  8
0
  6
SLD-Solid
 62
     7
370
    25
100
AcDbLine
 10
62.6339421692639
 20
49.84607072714979
 30
0.0
 11
62.6339421692639
 21
49.83960867798496
 31
0.0
  0
LINE
  5
39A
330
1F
100
AcDbEntity
  8
0
  6
SLD-Solid
 62
     7
370
    25
100
AcDbLine
 10
62.6127289658283
 20
49.82736255630763
 30
0.0
 11
62.6339421692639
 21
49.83960867798496
 31
0.0
  0
ARC
  5
39B
330
1F
100
AcDbEntity
  8
0
  6
SLD-Solid
 62
     7
370
    25
100
AcDbCircle
 10
62.55132032177363
 20
49.83015699039802
 30
0.0
 40
0.061472192302847
100
AcDbArc
 50
302.6054783400149
 51
357.3945215143695
  0
ARC
  5
39C
330
1F
100
AcDbEntity
  8
0
  6
SLD-Solid
 62
     7
370
    25
100
AcDbCircle
 10
62.52647704216817
 20
49.8444989376432
 30
0.0
 40
0.1075763365300427
100
AcDbArc
 50
302.6054783400255
 51
357.3945215143472
  0
ELLIPSE
  5
39D
330
1F
100
AcDbEntity
  8
0
  6
SLD-Solid
 62
     7
370
    25
100
AcDbEllipse
 10
48.44559010494528
 20
71.7145289975988
 30
0.0
 11
-0.1534319845717605
 21
0.3293378081501999
 31
0.0
210
0.0
220
0.0
230
1.0
 40
0.4325751887295455
 41
3.179552434969462
 42
3.889938527637623
  0
ELLIPSE
  5
39E
330
1F
100
AcDbEntity
  8
0
  6
SLD-Solid
 62
     7
370
    25
100
AcDbEllipse
 10
47.4269912879582
 20
71.1265044170073
 30
0.0
 11
0.1848817051211925
 21
0.5146932093845322
 31
0.0
210
0.0
220
0.0
230
1.0
 40
0.1909188560627335
 41
2.653063696721934
 42
3.36344978939016
  0
LINE
  5
39F
330
1F
100
AcDbEntity
  8
0
  6
SLD-Solid
 62
     7
370
    25
100
AcDbLine
 10
48.60431813878736
 20
71.38794725848044
 30
0.0
 11
47.26826325411611
 21
70.61665919088786
 31
0.0
  0
LINE
  5
3A0
330
1F
100
AcDbEntity
  8
0
  6
SLD-Solid
 62
     7
370
    25
100
AcDbLine
 10
50.41116443060466
 20
71.15440026931854
 30
0.0
 11
50.41116443060466
 21
72.92043560951187
 31
0.0
  0
LINE
  5
3A1
330
1F
100
AcDbEntity
  8
0
  6
SLD-Solid
 62
     7
370
    25
100
AcDbLine
 10
50.41116443060466
 20
73.2090403121024
 30
0.0
 11
50.41116443060466
 21
74.404153713814
 31
0.0
  0
LINE
  5
3A2
330
1F
100
AcDbEntity
  8
0
  6
SLD-Solid
 62
     7
370
    25
100
AcDbLine
 10
47.00980553198401
 20
69.19083757275203
 30
0.0
 11
50.41116443060466
 21
71.15440026931854
 31
0.0
  0
LINE
  5
3A3
330
1F
100
AcDbEntity
  8
0
  6
SLD-Solid
 62
     7
370
    25
100
AcDbLine
 10
45.46141696229882
 20
70.35161192072287
 30
0.0
 11
45.46141696229882
 21
71.54672532243451
 31
0.0
  0
LINE
  5
3A4
330
1F
100
AcDbEntity
  8
0
  6
SLD-Solid
 62
     7
370
    25
100
AcDbLine
 10
45.44027446954134
 20
70.33946923213513
 30
0.0
 11
45.44027446954134
 21
71.53452002116276
 31
0.0
  0
LWPOLYLINE
  5
3A5
330
1F
100
AcDbEntity
  8
0
  6
SLD-Solid
 62
     7
370
    25
100
AcDbPolyline
 90
        3
 70
   128
 43
0.0
 10
48.14261024228011
 20
71.99202993862664
 10
48.13769872816322
 20
71.9570291401676
 10
48.13357396021577
 20
71.94375762359353
  0
LWPOLYLINE
  5
3A6
330
1F
100
AcDbEntity
  8
0
  6
SLD-Solid
 62
     7
370
    25
100
AcDbPolyline
 90
        3
 70
   128
 43
0.0
 10
48.15844958326134
 20
72.07392624583346
 10
48.15846133363868
 20
72.07399463525708
 10
48.16338387618705
 20
72.1291032816923
  0
ELLIPSE
  5
3A7
330
1F
100
AcDbEntity
  8
0
  6
SLD-Solid
 62
     7
370
    25
100
AcDbEllipse
 10
47.46234662701752
 20
71.10609421421172
 30
0.0
 11
0.2108205858579595
 21
0.4814827461608077
 31
0.0
210
0.0
220
0.0
230
1.0
 40
0.137986580131802
 41
2.644719001180151
 42
3.355105093848486
  0
LINE
  5
3A8
330
1F
100
AcDbEntity
  8
0
  6
SLD-Solid
 62
     7
370
    25
100
AcDbLine
 10
47.55204270678284
 20
71.13594084771525
 30
0.0
 11
47.24534936073823
 21
70.69670055261565
 31
0.0
  0
ARC
  5
3A9
330
1F
100
AcDbEntity
  8
0
  6
SLD-Solid
 62
     7
370
    25
100
AcDbCircle
 10
47.60434382538026
 20
71.24304024028957
 30
0.0
 40
0.1191876121764865
100
AcDbArc
 50
243.9718055903975
 51
275.637281516956
  0
LINE
  5
3AA
330
1F
100
AcDbEntity
  8
0
  6
SLD-Solid
 62
     7
370
    25
100
AcDbLine
 10
47.27039105074003
 20
70.62938057049263
 30
0.0
 11
47.61605167920958
 21
71.12442905593058
 31
0.0
  0
LINE
  5
3AB
330
1F
100
AcDbEntity
  8
0
  6
SLD-Solid
 62
     7
370
    25
100
AcDbLine
 10
47.55204270678284
 20
71.13630255233898
 30
0.0
 11
47.55204270678284
 21
71.13594084771525
 31
0.0
  0
LINE
  5
3AC
330
1F
100
AcDbEntity
  8
0
  6
SLD-Solid
 62
     7
370
    25
100
AcDbLine
 10
48.60644593541128
 20
71.4006686380852
 30
0.0
 11
48.55311632536581
 21
71.66538496158635
 31
0.0
  0
LINE
  5
3AD
330
1F
100
AcDbEntity
  8
0
  6
SLD-Solid
 62
     7
370
    25
100
AcDbLine
 10
47.27039105074003
 20
70.62938057049263
 30
0.0
 11
48.60644593541128
 21
71.4006686380852
 31
0.0
  0
LINE
  5
3AE
330
1F
100
AcDbEntity
  8
0
  6
SLD-Solid
 62
     7
370
    25
100
AcDbLine
 10
48.55311632536581
 20
71.66538496158635
 30
0.0
 11
47.61605167920958
 21
71.12442905593058
 31
0.0
  0
ARC
  5
3AF
330
1F
100
AcDbEntity
  8
0
  6
SLD-Solid
 62
     7
370
    25
100
AcDbCircle
 10
47.53984823360575
 20
71.30654580510476
 30
0.0
 40
0.1706794372159169
100
AcDbArc
 50
274.0970819559219
 51
298.5312310804841
  0
LWPOLYLINE
  5
3B0
330
1F
100
AcDbEntity
  8
0
  6
SLD-Solid
 62
     7
370
    25
100
AcDbPolyline
 90
       17
 70
   128
 43
0.0
 10
48.11370145058959
 20
71.95624092696809
 10
48.11096192079675
 20
71.97056345822988
 10
48.10316039999534
 20
71.97954252016855
 10
48.09148459900638
 20
71.98181113199932
 10
48.07771205268904
 20
71.97702391813601
 10
48.06393950637172
 20
71.96590968849308
 10
48.05226370538276
 20
71.95016048378294
 10
48.04446218458134
 20
71.93217397765578
 10
48.04172265478852
 20
71.91468845262142
 10
48.04446218458134
 20
71.90036592135964
 10
48.05226370538276
 20
71.89138685942098
 10
48.06393950637172
 20
71.88911824759019
 10
48.07771205268904
 20
71.8939054614535
 10
48.09148459900638
 20
71.90501969109644
 10
48.10316039999534
 20
71.92076889580659
 10
48.11096192079675
 20
71.93875540193373
 10
48.11370145058959
 20
71.95624092696809
  0
ARC
  5
3B1
330
1F
100
AcDbEntity
  8
0
  6
SLD-Solid
 62
     7
370
    25
100
AcDbCircle
 10
47.25022715000896
 20
70.62860325150977
 30
0.0
 40
0.0682717748859254
100
AcDbArc
 50
94.0970819558579
 51
118.5312310805771
  0
LINE
  5
3B2
330
1F
100
AcDbEntity
  8
0
  6
SLD-Solid
 62
     7
370
    25
100
AcDbLine
 10
48.55843581692559
 20
71.69755011522199
 30
0.0
 11
47.62137117076936
 21
71.15659420956621
 31
0.0
  0
LINE
  5
3B3
330
1F
100
AcDbEntity
  8
0
  6
SLD-Solid
 62
     7
370
    25
100
AcDbLine
 10
47.62137117076936
 20
71.15623250494247
 30
0.0
 11
47.62137117076936
 21
71.15659420956621
 31
0.0
  0
ARC
  5
3B4
330
1F
100
AcDbEntity
  8
0
  6
SLD-Solid
 62
     7
370
    25
100
AcDbCircle
 10
47.53984823360588
 20
71.30618410048066
 30
0.0
 40
0.1706794372155388
100
AcDbArc
 50
274.0970819558855
 51
298.5312310805012
  0
ARC
  5
3B5
330
1F
100
AcDbEntity
  8
0
  6
SLD-Solid
 62
     7
370
    25
100
AcDbCircle
 10
47.53249652441411
 20
71.15475121124473
 30
0.0
 40
0.0888869900254804
100
AcDbArc
 50
340.0541717331536
 51
0.9548732158856731
  0
LINE
  5
3B6
330
1F
100
AcDbEntity
  8
0
  6
SLD-Solid
 62
     7
370
    25
100
AcDbLine
 10
48.55843581692559
 20
71.69718841059826
 30
0.0
 11
48.55843581692559
 21
71.69755011522199
 31
0.0
  0
LINE
  5
3B7
330
1F
100
AcDbEntity
  8
0
  6
SLD-Solid
 62
     7
370
    25
100
AcDbLine
 10
47.62137117076936
 20
71.15623250494247
 30
0.0
 11
48.55843581692559
 21
71.69718841059826
 31
0.0
  0
ARC
  5
3B8
330
1F
100
AcDbEntity
  8
0
  6
SLD-Solid
 62
     7
370
    25
100
AcDbCircle
 10
48.46956117057044
 20
71.69570711690051
 30
0.0
 40
0.0888869900253835
100
AcDbArc
 50
340.0541717331317
 51
0.9548732158959005
  0
ARC
  5
3B9
330
1F
100
AcDbEntity
  8
0
  6
SLD-Solid
 62
     7
370
    25
100
AcDbCircle
 10
47.30381311265864
 20
70.6172517083669
 30
0.0
 40
0.0355547960106146
100
AcDbArc
 50
160.0541717332729
 51
180.9548732157789
  0
ARC
  5
3BA
330
1F
100
AcDbEntity
  8
0
  6
SLD-Solid
 62
     7
370
    25
100
AcDbCircle
 10
48.63986799732977
 20
71.38853977595947
 30
0.0
 40
0.0355547960105011
100
AcDbArc
 50
160.0541717332319
 51
180.954873215782
  0
ARC
  5
3BB
330
1F
100
AcDbEntity
  8
0
  6
SLD-Solid
 62
     7
370
    25
100
AcDbCircle
 10
48.52715628460127
 20
71.76046815056579
 30
0.0
 40
0.0702644171252573
100
AcDbArc
 50
296.4341445731619
 51
340.9830022978072
  0
LINE
  5
3BC
330
1F
100
AcDbEntity
  8
0
  6
SLD-Solid
 62
     7
370
    25
100
AcDbLine
 10
48.59358580678754
 20
71.73757258557917
 30
0.0
 11
48.59358580678754
 21
71.73721088095544
 31
0.0
  0
ARC
  5
3BD
330
1F
100
AcDbEntity
  8
0
  6
SLD-Solid
 62
     7
370
    25
100
AcDbCircle
 10
48.5271562846014
 20
71.76010644594194
 30
0.0
 40
0.070264417125095
100
AcDbArc
 50
296.4341445731046
 51
340.983002297859
  0
ARC
  5
3BE
330
1F
100
AcDbEntity
  8
0
  6
SLD-Solid
 62
     7
370
    25
100
AcDbCircle
 10
48.47827021062653
 20
71.75487012677836
 30
0.0
 40
0.1166599146279662
100
AcDbArc
 50
309.9093830053146
 51
351.293455684134
  0
LINE
  5
3BF
330
1F
100
AcDbEntity
  8
0
  6
SLD-Solid
 62
     7
370
    25
100
AcDbLine
 10
48.59358580678754
 20
71.73721088095544
 30
0.0
 11
48.64090342181508
 21
71.50233676362639
 31
0.0
  0
ELLIPSE
  5
3C0
330
1F
100
AcDbEntity
  8
0
  6
SLD-Solid
 62
     7
370
    25
100
AcDbEllipse
 10
48.48094544400461
 20
71.69411879480325
 30
0.0
 11
-0.1240094253388406
 21
0.2941171015669965
 31
0.0
210
0.0
220
0.0
230
1.0
 40
0.3442308749622805
 41
3.156455917689907
 42
3.866842010358064
  0
ARC
  5
3C1
330
1F
100
AcDbEntity
  8
0
  6
SLD-Solid
 62
     7
370
    25
100
AcDbCircle
 10
48.66747523068962
 20
71.49317853763175
 30
0.0
 40
0.028105766850128
100
AcDbArc
 50
116.4341445732207
 51
160.9830022978362
  0
LINE
  5
3C2
330
1F
100
AcDbEntity
  8
0
  6
SLD-Solid
 62
     7
370
    25
100
AcDbLine
 10
51.89652569694347
 20
75.66051999538209
 30
0.0
 11
62.59151576239007
 21
69.4864336497228
 31
0.0
  0
LWPOLYLINE
  5
3C3
330
1F
100
AcDbEntity
  8
0
  6
SLD-Solid
 62
     7
370
    25
100
AcDbPolyline
 90
        8
 70
   128
 43
0.0
 10
51.99309098874382
 20
75.76246022884546
 10
51.99039247119873
 20
75.76382076167731
 10
51.97186082748874
 20
75.76563388573435
 10
51.95062675427062
 20
75.75701296266494
 10
51.92974800428496
 20
75.73919942414693
 10
51.91223116295382
 20
75.71475845848228
 10
51.90059869353881
 20
75.68720961790085
 10
51.89652569694347
 20
75.66051999538209
  0
LWPOLYLINE
  5
3C4
330
1F
100
AcDbEntity
  8
0
  6
SLD-Solid
 62
     7
370
    25
100
AcDbPolyline
 90
        9
 70
   128
 43
0.0
 10
62.59151576239007
 20
69.4864336497228
 10
62.59558875898541
 20
69.51312327224157
 10
62.60722122840041
 20
69.54067211282297
 10
62.62473806973155
 20
69.56511307848763
 10
62.64561681971721
 20
69.58292661700565
 10
62.66685089293534
 20
69.59154754007506
 10
62.68538253664533
 20
69.589734416018
 10
62.69854315383522
 20
69.5777483386434
 10
62.70443758699722
 20
69.55731532917027
  0
LINE
  5
3C5
330
1F
100
AcDbEntity
  8
0
  6
SLD-Solid
 62
     7
370
    25
100
AcDbLine
 10
62.68330510620513
 20
69.5429808210548
 30
0.0
 11
62.70443758699722
 21
69.55731532917027
 31
0.0
  0
LWPOLYLINE
  5
3C6
330
1F
100
AcDbEntity
  8
0
  6
SLD-Solid
 62
     7
370
    25
100
AcDbPolyline
 90
        9
 70
   128
 43
0.0
 10
62.61272896582567
 20
69.49867977140013
 10
62.61527458869775
 20
69.51536078547436
 10
62.62254488208213
 20
69.53257881083775
 10
62.6334929079141
 20
69.54785441437816
 10
62.64654212665513
 20
69.55898787595193
 10
62.65981342241646
 20
69.5643759528703
 10
62.67139569973521
 20
69.56324275033465
 10
62.67962108547889
 20
69.55575145197551
 10
62.68330510620513
 20
69.5429808210548
  0
LINE
  5
3C7
330
1F
100
AcDbEntity
  8
0
  6
SLD-Solid
 62
     7
370
    25
100
AcDbLine
 10
62.61272896582567
 20
69.49867977140013
 30
0.0
 11
62.59151576239007
 21
69.4864336497228
 31
0.0
  0
LINE
  5
3C8
330
1F
100
AcDbEntity
  8
0
  6
SLD-Solid
 62
     7
370
    25
100
AcDbLine
 10
62.59151576239007
 20
69.4864336497228
 30
0.0
 11
62.59151576239007
 21
69.4430502124063
 31
0.0
  0
LINE
  5
3C9
330
1F
100
AcDbEntity
  8
0
  6
SLD-Solid
 62
     7
370
    25
100
AcDbLine
 10
51.89652569694347
 20
66.36979406912032
 30
0.0
 11
51.89652569694347
 21
73.07961053664242
 31
0.0
  0
LINE
  5
3CA
330
1F
100
AcDbEntity
  8
0
  6
SLD-Solid
 62
     7
370
    25
100
AcDbLine
 10
51.89652569694347
 20
73.36827785191696
 30
0.0
 11
51.89652569694347
 21
75.66051999538209
 31
0.0
  0
LINE
  5
3CB
330
1F
100
AcDbEntity
  8
0
  6
SLD-Solid
 62
     7
370
    25
100
AcDbLine
 10
62.61272896582567
 20
69.49867977140013
 30
0.0
 11
62.61272896582567
 21
69.45529633408366
 31
0.0
  0
LINE
  5
3CC
330
1F
100
AcDbEntity
  8
0
  6
SLD-Solid
 62
     7
370
    25
100
AcDbLine
 10
62.79429581096007
 20
68.42315045311432
 30
0.0
 11
62.70443758699722
 21
69.55731532917027
 31
0.0
  0
LINE
  5
3CD
330
1F
100
AcDbEntity
  8
0
  6
SLD-Solid
 62
     7
370
    25
100
AcDbLine
 10
62.79429581096007
 20
68.42315045311432
 30
0.0
 11
62.77316333016798
 21
68.40881594499886
 31
0.0
  0
LINE
  5
3CE
330
1F
100
AcDbEntity
  8
0
  6
SLD-Solid
 62
     7
370
    25
100
AcDbLine
 10
62.77316333016798
 20
68.40881594499886
 30
0.0
 11
62.68330510620513
 21
69.5429808210548
 31
0.0
  0
LWPOLYLINE
  5
3CF
330
1F
100
AcDbEntity
  8
0
  6
SLD-Solid
 62
     7
370
    25
100
AcDbPolyline
 90
        8
 70
   128
 43
0.0
 10
62.66373564994973
 20
68.29483601713872
 10
62.67827045559591
 20
68.29215234799537
 10
62.70740904360818
 20
68.29247948433687
 10
62.73228110271479
 20
68.30119912885569
 10
62.75193081363267
 20
68.31797619050297
 10
62.76560304899093
 20
68.34216593620832
 10
62.77277239245223
 20
68.37283876761003
 10
62.77316333016798
 20
68.40881594499886
  0
ARC
  5
3D0
330
1F
100
AcDbEntity
  8
0
  6
SLD-Solid
 62
     7
370
    25
100
AcDbCircle
 10
62.68656058526953
 20
68.40184024471337
 30
0.0
 40
0.1098226016659785
100
AcDbArc
 50
310.4819437714401
 51
11.18877125674729
  0
LINE
  5
3D1
330
1F
100
AcDbEntity
  8
0
  6
SLD-Solid
 62
     7
370
    25
100
AcDbLine
 10
54.31243476428335
 20
64.89096586542495
 30
0.0
 11
54.31243476428332
 21
45.16869342787536
 31
0.0
  0
ARC
  5
3D2
330
1F
100
AcDbEntity
  8
0
  6
SLD-Solid
 62
     7
370
    25
100
AcDbCircle
 10
54.51042466301556
 20
65.27308496921246
 30
0.0
 40
0.4303661342152388
100
AcDbArc
 50
242.6096722365994
 51
297.3903277634064
  0
LINE
  5
3D3
330
1F
100
AcDbEntity
  8
0
  6
SLD-Solid
 62
     7
370
    25
100
AcDbLine
 10
54.70841456174781
 20
64.89096586542496
 30
0.0
 11
54.70841456174779
 21
45.16869342787536
 31
0.0
  0
ARC
  5
3D4
330
1F
100
AcDbEntity
  8
0
  6
SLD-Solid
 62
     7
370
    25
100
AcDbCircle
 10
54.51042466301556
 20
45.55081253166299
 30
0.0
 40
0.4303661342153491
100
AcDbArc
 50
242.6096722366047
 51
297.3903277633977
  0
LINE
  5
3D5
330
1F
100
AcDbEntity
  8
0
  6
SLD-Solid
 62
     7
370
    25
100
AcDbLine
 10
54.33364796771894
 20
64.9032119871023
 30
0.0
 11
54.31243476428335
 21
64.89096586542495
 31
0.0
  0
ARC
  5
3D6
330
1F
100
AcDbEntity
  8
0
  6
SLD-Solid
 62
     7
370
    25
100
AcDbCircle
 10
54.51042466301558
 20
65.24438975834124
 30
0.0
 40
0.3842554769779807
100
AcDbArc
 50
242.6096722366037
 51
297.3903277633979
  0
LINE
  5
3D7
330
1F
100
AcDbEntity
  8
0
  6
SLD-Solid
 62
     7
370
    25
100
AcDbLine
 10
54.68720135831222
 20
64.9032119871023
 30
0.0
 11
54.70841456174781
 21
64.89096586542496
 31
0.0
  0
ARC
  5
3D8
330
1F
100
AcDbEntity
  8
0
  6
SLD-Solid
 62
     7
370
    25
100
AcDbCircle
 10
54.51625101780999
 20
65.21980380752835
 30
0.0
 40
0.3535150388197784
100
AcDbArc
 50
242.609672236605
 51
297.3903277633935
  0
LINE
  5
3D9
330
1F
100
AcDbEntity
  8
0
  6
SLD-Solid
 62
     7
370
    25
100
AcDbLine
 10
54.35361645813707
 20
64.90592025798848
 30
0.0
 11
54.37482966157266
 21
64.91816637966583
 31
0.0
  0
ARC
  5
3DA
330
1F
100
AcDbEntity
  8
0
  6
SLD-Solid
 62
     7
370
    25
100
AcDbCircle
 10
54.51625101780997
 20
65.19110859665689
 30
0.0
 40
0.3074043815822958
100
AcDbArc
 50
242.6096722365951
 51
297.3903277634017
  0
LINE
  5
3DB
330
1F
100
AcDbEntity
  8
0
  6
SLD-Solid
 62
     7
370
    25
100
AcDbLine
 10
54.65767237404726
 20
64.91816637966582
 30
0.0
 11
54.67888557748288
 21
64.90592025798848
 31
0.0
  0
LINE
  5
3DC
330
1F
100
AcDbEntity
  8
0
  6
SLD-Solid
 62
     7
370
    25
100
AcDbLine
 10
54.31243476428332
 20
45.16869342787536
 30
0.0
 11
54.06503910021637
 21
45.31151190476447
 31
0.0
  0
LINE
  5
3DD
330
1F
100
AcDbEntity
  8
0
  6
SLD-Solid
 62
     7
370
    25
100
AcDbLine
 10
54.06503910021637
 20
45.31151190476447
 30
0.0
 11
54.06503631792233
 21
45.30576520931254
 31
0.0
  0
LINE
  5
3DE
330
1F
100
AcDbEntity
  8
0
  6
SLD-Solid
 62
     7
370
    25
100
AcDbLine
 10
44.14324607860721
 20
51.03349279635941
 30
0.0
 11
54.06503631792233
 21
45.30576520931254
 31
0.0
  0
LINE
  5
3DF
330
1F
100
AcDbEntity
  8
0
  6
SLD-Solid
 62
     7
370
    25
100
AcDbLine
 10
44.14324607860721
 20
51.03349279635941
 30
0.0
 11
44.14324329631317
 21
51.03924270417966
 31
0.0
  0
LINE
  5
3E0
330
1F
100
AcDbEntity
  8
0
  6
SLD-Solid
 62
     7
370
    25
100
AcDbLine
 10
44.14324329631317
 20
51.03924270417966
 30
0.0
 11
43.89584763224621
 21
51.18206118106873
 31
0.0
  0
LINE
  5
3E1
330
1F
100
AcDbEntity
  8
0
  6
SLD-Solid
 62
     7
370
    25
100
AcDbLine
 10
43.8958476322462
 20
70.9043336186183
 30
0.0
 11
43.89584763224621
 21
51.18206118106873
 31
0.0
  0
LINE
  5
3E2
330
1F
100
AcDbEntity
  8
0
  6
SLD-Solid
 62
     7
370
    25
100
AcDbLine
 10
44.13763557658022
 20
70.76475240942383
 30
0.0
 11
43.8958476322462
 21
70.9043336186183
 31
0.0
  0
LINE
  5
3E3
330
1F
100
AcDbEntity
  8
0
  6
SLD-Solid
 62
     7
370
    25
100
AcDbLine
 10
44.13763557658023
 20
70.77006290011103
 30
0.0
 11
44.13763557658022
 21
70.76475240942383
 31
0.0
  0
LINE
  5
3E4
330
1F
100
AcDbEntity
  8
0
  6
SLD-Solid
 62
     7
370
    25
100
AcDbLine
 10
44.13763557658023
 20
70.77006290011103
 30
0.0
 11
54.07064681797368
 21
65.0358575664471
 31
0.0
  0
LINE
  5
3E5
330
1F
100
AcDbEntity
  8
0
  6
SLD-Solid
 62
     7
370
    25
100
AcDbLine
 10
54.07064681797368
 20
65.03054707575991
 30
0.0
 11
54.07064681797368
 21
65.0358575664471
 31
0.0
  0
LINE
  5
3E6
330
1F
100
AcDbEntity
  8
0
  6
SLD-Solid
 62
     7
370
    25
100
AcDbLine
 10
54.31243476428335
 20
64.89096586542495
 30
0.0
 11
54.07064681797368
 21
65.03054707575991
 31
0.0
  0
LINE
  5
3E7
330
1F
100
AcDbEntity
  8
0
  6
SLD-Solid
 62
     7
370
    25
100
AcDbLine
 10
54.88472386149749
 20
64.99805754838404
 30
0.0
 11
54.88472386149749
 21
64.99274705769686
 31
0.0
  0
LINE
  5
3E8
330
1F
100
AcDbEntity
  8
0
  6
SLD-Solid
 62
     7
370
    25
100
AcDbLine
 10
54.88472386149749
 20
64.99805754838404
 30
0.0
 11
62.57712612623666
 21
69.43878685223702
 31
0.0
  0
LINE
  5
3E9
330
1F
100
AcDbEntity
  8
0
  6
SLD-Solid
 62
     7
370
    25
100
AcDbLine
 10
62.57712612623666
 20
69.43878685223702
 30
0.0
 11
62.57712612623667
 21
69.42658182515662
 31
0.0
  0
ARC
  5
3EA
330
1F
100
AcDbEntity
  8
0
  6
SLD-Solid
 62
     7
370
    25
100
AcDbCircle
 10
62.58574761358523
 20
69.42518328121862
 30
0.0
 40
0.0087341839485916
100
AcDbArc
 50
170.785963009683
 51
309.2032852355522
  0
LINE
  5
3EB
330
1F
100
AcDbEntity
  8
0
  6
SLD-Solid
 62
     7
370
    25
100
AcDbLine
 10
62.59126826186042
 20
69.41841509003712
 30
0.0
 11
62.64323312463278
 21
69.44841376677583
 31
0.0
  0
LINE
  5
3EC
330
1F
100
AcDbEntity
  8
0
  6
SLD-Solid
 62
     7
370
    25
100
AcDbLine
 10
62.64323312463276
 20
49.85143428151779
 30
0.0
 11
62.64323312463278
 21
69.44841376677583
 31
0.0
  0
LINE
  5
3ED
330
1F
100
AcDbEntity
  8
0
  6
SLD-Solid
 62
     7
370
    25
100
AcDbLine
 10
62.64323312463276
 20
49.85143428151779
 30
0.0
 11
62.59059261297933
 21
49.82104556098234
 31
0.0
  0
ARC
  5
3EE
330
1F
100
AcDbEntity
  8
0
  6
SLD-Solid
 62
     7
370
    25
100
AcDbCircle
 10
62.607154799383
 20
49.79515344658114
 30
0.0
 40
0.0307360961515086
100
AcDbArc
 50
122.6054783400538
 51
177.3945215142364
  0
LINE
  5
3EF
330
1F
100
AcDbEntity
  8
0
  6
SLD-Solid
 62
     7
370
    25
100
AcDbLine
 10
62.57645047735559
 20
49.79655066362641
 30
0.0
 11
62.57645047735559
 21
49.70506557856742
 31
0.0
  0
LINE
  5
3F0
330
1F
100
AcDbEntity
  8
0
  6
SLD-Solid
 62
     7
370
    25
100
AcDbLine
 10
54.89047300416719
 20
45.26804522792944
 30
0.0
 11
62.57645047735559
 21
49.70506557856742
 31
0.0
  0
LINE
  5
3F1
330
1F
100
AcDbEntity
  8
0
  6
SLD-Solid
 62
     7
370
    25
100
AcDbLine
 10
54.89047300416719
 20
45.26804522792944
 30
0.0
 11
54.89047300416719
 21
45.27379352956553
 31
0.0
  0
LINE
  5
3F2
330
1F
100
AcDbEntity
  8
0
  6
SLD-Solid
 62
     7
370
    25
100
AcDbLine
 10
54.89047300416719
 20
45.27379352956553
 30
0.0
 11
54.70841456174779
 21
45.16869342787536
 31
0.0
  0
LINE
  5
3F3
330
1F
100
AcDbEntity
  8
0
  6
SLD-Solid
 62
     7
370
    25
100
AcDbLine
 10
54.88472386149749
 20
64.99274705769686
 30
0.0
 11
54.70841456174781
 21
64.89096586542496
 31
0.0
  0
LINE
  5
3F4
330
1F
100
AcDbEntity
  8
0
  6
SLD-Solid
 62
     7
370
    25
100
AcDbLine
 10
54.07064681797368
 20
65.03054707575991
 30
0.0
 11
54.09186002140928
 21
65.04279319743725
 31
0.0
  0
LINE
  5
3F5
330
1F
100
AcDbEntity
  8
0
  6
SLD-Solid
 62
     7
370
    25
100
AcDbLine
 10
54.33364796771894
 20
64.9032119871023
 30
0.0
 11
54.09186002140928
 21
65.04279319743725
 31
0.0
  0
LINE
  5
3F6
330
1F
100
AcDbEntity
  8
0
  6
SLD-Solid
 62
     7
370
    25
100
AcDbLine
 10
54.88472386149749
 20
64.99274705769686
 30
0.0
 11
54.8635106580619
 21
65.0049931793742
 31
0.0
  0
LINE
  5
3F7
330
1F
100
AcDbEntity
  8
0
  6
SLD-Solid
 62
     7
370
    25
100
AcDbLine
 10
54.8635106580619
 20
65.0049931793742
 30
0.0
 11
54.68720135831222
 21
64.9032119871023
 31
0.0
  0
LINE
  5
3F8
330
1F
100
AcDbEntity
  8
0
  6
SLD-Solid
 62
     7
370
    25
100
AcDbLine
 10
54.10600215703301
 20
65.05626776924265
 30
0.0
 11
54.10600215703301
 21
65.04886495135268
 31
0.0
  0
LINE
  5
3F9
330
1F
100
AcDbEntity
  8
0
  6
SLD-Solid
 62
     7
370
    25
100
AcDbLine
 10
54.10600215703301
 20
65.04886495135268
 30
0.0
 11
54.35361645813707
 21
64.90592025798848
 31
0.0
  0
LINE
  5
3FA
330
1F
100
AcDbEntity
  8
0
  6
SLD-Solid
 62
     7
370
    25
100
AcDbLine
 10
44.14625055845976
 20
70.79850716463294
 30
0.0
 11
43.92537661651069
 21
70.92601497724004
 31
0.0
  0
LINE
  5
3FB
330
1F
100
AcDbEntity
  8
0
  6
SLD-Solid
 62
     7
370
    25
100
AcDbLine
 10
54.79838662350342
 20
64.99939898679219
 30
0.0
 11
54.65767237404726
 21
64.91816637966582
 31
0.0
  0
LINE
  5
3FC
330
1F
100
AcDbEntity
  8
0
  6
SLD-Solid
 62
     7
370
    25
100
AcDbLine
 10
54.81959982693903
 20
64.98715286511484
 30
0.0
 11
54.79838662350342
 21
64.99939898679219
 31
0.0
  0
LINE
  5
3FD
330
1F
100
AcDbEntity
  8
0
  6
SLD-Solid
 62
     7
370
    25
100
AcDbLine
 10
54.81959982693903
 20
64.98715286511484
 30
0.0
 11
54.67888557748288
 21
64.90592025798848
 31
0.0
  0
LINE
  5
3FE
330
1F
100
AcDbEntity
  8
0
  6
SLD-Solid
 62
     7
370
    25
100
AcDbLine
 10
54.81959982693903
 20
64.97964399613949
 30
0.0
 11
54.81959982693903
 21
64.98715286511484
 31
0.0
  0
LINE
  5
3FF
330
1F
100
AcDbEntity
  8
0
  6
SLD-Solid
 62
     7
370
    25
100
AcDbLine
 10
54.10600215703301
 20
65.04886495135268
 30
0.0
 11
54.12721536046861
 21
65.06111107303002
 31
0.0
  0
LINE
  5
400
330
1F
100
AcDbEntity
  8
0
  6
SLD-Solid
 62
     7
370
    25
100
AcDbLine
 10
54.12721536046861
 20
65.06111107303002
 30
0.0
 11
54.37482966157266
 21
64.91816637966583
 31
0.0
  0
LWPOLYLINE
  5
401
330
1F
100
AcDbEntity
  8
0
  6
SLD-Solid
 62
     7
370
    25
100
AcDbPolyline
 90
        9
 70
   128
 43
0.0
 10
54.82815531900253
 20
65.03071387285692
 10
54.83030833095248
 20
65.0419700311366
 10
54.83643959025
 20
65.04902672667019
 10
54.84561566824708
 20
65.0508096415318
 10
54.85643959025003
 20
65.04704734309593
 10
54.86726351225295
 20
65.03831260719411
 10
54.87643959025005
 20
65.0259352181868
 10
54.88257084954758
 20
65.01179952134909
 10
54.88472386149749
 20
64.99805754838404
  0
LWPOLYLINE
  5
402
330
1F
100
AcDbEntity
  8
0
  6
SLD-Solid
 62
     7
370
    25
100
AcDbPolyline
 90
        7
 70
   128
 43
0.0
 10
62.57712612623666
 20
69.43878685223702
 10
62.57497311428673
 20
69.45252882520202
 10
62.56884185498919
 20
69.46666452203975
 10
62.55966577699213
 20
69.47904191104706
 10
62.5488418549892
 20
69.48777664694889
 10
62.53801793298628
 20
69.49153894538478
 10
62.52884348033648
 20
69.48975696896869
  0
LINE
  5
403
330
1F
100
AcDbEntity
  8
0
  6
SLD-Solid
 62
     7
370
    25
100
AcDbLine
 10
54.8635106580619
 20
65.01030367006138
 30
0.0
 11
54.88472386149749
 21
64.99805754838404
 31
0.0
  0
LWPOLYLINE
  5
404
330
1F
100
AcDbEntity
  8
0
  6
SLD-Solid
 62
     7
370
    25
100
AcDbPolyline
 90
        9
 70
   128
 43
0.0
 10
54.84936852243816
 20
65.0184677511796
 10
54.84990677542565
 20
65.02128179074951
 10
54.85143959025002
 20
65.02304596463291
 10
54.85373360974929
 20
65.02349169334832
 10
54.85643959025003
 20
65.02255111873936
 10
54.85914557075075
 20
65.02036743476391
 10
54.86143959025002
 20
65.01727308751208
 10
54.86297240507441
 20
65.01373916330266
 10
54.8635106580619
 20
65.01030367006138
  0
LINE
  5
405
330
1F
100
AcDbEntity
  8
0
  6
SLD-Solid
 62
     7
370
    25
100
AcDbLine
 10
54.82815531900253
 20
65.03071387285692
 30
0.0
 11
54.84936852243816
 21
65.0184677511796
 31
0.0
  0
LINE
  5
406
330
1F
100
AcDbEntity
  8
0
  6
SLD-Solid
 62
     7
370
    25
100
AcDbLine
 10
54.8635106580619
 20
65.01030367006138
 30
0.0
 11
54.8635106580619
 21
65.0049931793742
 31
0.0
  0
LINE
  5
407
330
1F
100
AcDbEntity
  8
0
  6
SLD-Solid
 62
     7
370
    25
100
AcDbLine
 10
54.84936852243816
 20
64.99682909825597
 30
0.0
 11
54.84936852243816
 21
65.0184677511796
 31
0.0
  0
LINE
  5
408
330
1F
100
AcDbEntity
  8
0
  6
SLD-Solid
 62
     7
370
    25
100
AcDbLine
 10
54.82815531900253
 20
64.98458297657861
 30
0.0
 11
54.82815531900253
 21
65.03071387285692
 31
0.0
  0
LWPOLYLINE
  5
409
330
1F
100
AcDbEntity
  8
0
  6
SLD-Solid
 62
     7
370
    25
100
AcDbPolyline
 90
        9
 70
   128
 43
0.0
 10
54.07064681797368
 20
65.0358575664471
 10
54.07279982992362
 20
65.04959953941211
 10
54.07893108922114
 20
65.06373523624984
 10
54.08810716721822
 20
65.07611262525715
 10
54.09893108922115
 20
65.08484736115898
 10
54.10975501122407
 20
65.08860965959487
 10
54.11893108922115
 20
65.08682674473326
 10
54.12506234851867
 20
65.07977004919968
 10
54.12721536046861
 20
65.06851389092003
  0
LINE
  5
40A
330
1F
100
AcDbEntity
  8
0
  6
SLD-Solid
 62
     7
370
    25
100
AcDbLine
 10
54.10600215703301
 20
65.05626776924265
 30
0.0
 11
54.12721536046861
 21
65.06851389092003
 31
0.0
  0
LWPOLYLINE
  5
40B
330
1F
100
AcDbEntity
  8
0
  6
SLD-Solid
 62
     7
370
    25
100
AcDbPolyline
 90
        9
 70
   128
 43
0.0
 10
54.09186002140928
 20
65.04810368812444
 10
54.09239827439676
 20
65.0515391813657
 10
54.09393108922114
 20
65.05507310557513
 10
54.09622510872041
 20
65.05816745282695
 10
54.09893108922115
 20
65.06035113680241
 10
54.10163706972187
 20
65.06129171141139
 10
54.10393108922115
 20
65.06084598269598
 10
54.10546390404553
 20
65.05908180881258
 10
54.10600215703301
 20
65.05626776924265
  0
LINE
  5
40C
330
1F
100
AcDbEntity
  8
0
  6
SLD-Solid
 62
     7
370
    25
100
AcDbLine
 10
54.07064681797368
 20
65.0358575664471
 30
0.0
 11
54.09186002140928
 21
65.04810368812444
 31
0.0
  0
LWPOLYLINE
  5
40D
330
1F
100
AcDbEntity
  8
0
  6
SLD-Solid
 62
     7
370
    25
100
AcDbPolyline
 90
        7
 70
   128
 43
0.0
 10
44.18591822248038
 20
70.82103301684272
 10
44.17674376983062
 20
70.8228149932588
 10
44.16591984782771
 20
70.81905269482291
 10
44.15509592582478
 20
70.81031795892109
 10
44.14591984782771
 20
70.79794056991378
 10
44.13978858853017
 20
70.78380487307605
 10
44.13763557658023
 20
70.77006290011103
  0
LINE
  5
40E
330
1F
100
AcDbEntity
  8
0
  6
SLD-Solid
 62
     7
370
    25
100
AcDbLine
 10
54.09186002140928
 20
65.04279319743725
 30
0.0
 11
54.09186002140928
 21
65.04810368812444
 31
0.0
  0
LINE
  5
40F
330
1F
100
AcDbEntity
  8
0
  6
SLD-Solid
 62
     7
370
    25
100
AcDbLine
 10
54.12721536046861
 20
65.06851389092003
 30
0.0
 11
54.12721536046861
 21
65.06111107303002
 31
0.0
  0
LINE
  5
410
330
1F
100
AcDbEntity
  8
0
  6
SLD-Solid
 62
     7
370
    25
100
AcDbLine
 10
62.62201992119719
 20
69.46065988845318
 30
0.0
 11
62.64323312463278
 21
69.44841376677583
 31
0.0
  0
LINE
  5
411
330
1F
100
AcDbEntity
  8
0
  6
SLD-Solid
 62
     7
370
    25
100
AcDbLine
 10
62.57712612623667
 20
69.43474325227356
 30
0.0
 11
62.62201992119719
 21
69.46065988845318
 31
0.0
  0
ARC
  5
412
330
1F
100
AcDbEntity
  8
0
  6
SLD-Solid
 62
     7
370
    25
100
AcDbCircle
 10
62.63238823275704
 20
69.47698805068961
 30
0.0
 40
0.030563072178397
100
AcDbArc
 50
290.7834207995184
 51
69.21657920054473
  0
ARC
  5
413
330
1F
100
AcDbEntity
  8
0
  6
SLD-Solid
 62
     7
370
    25
100
AcDbCircle
 10
62.61582284012534
 20
69.47698805068961
 30
0.0
 40
0.0174646126733564
100
AcDbArc
 50
290.7834207995286
 51
69.21657920059765
  0
LINE
  5
414
330
1F
100
AcDbEntity
  8
0
  6
SLD-Solid
 62
     7
370
    25
100
AcDbLine
 10
62.62201992119715
 20
69.49331621292606
 30
0.0
 11
62.64323312463274
 21
69.5055623346034
 31
0.0
  0
ARC
  5
415
330
1F
100
AcDbEntity
  8
0
  6
SLD-Solid
 62
     7
370
    25
100
AcDbCircle
 10
62.62870365557539
 20
49.88350201181451
 30
0.0
 40
0.0352057494945482
100
AcDbArc
 50
294.3746582935731
 51
354.3052007488268
  0
LINE
  5
416
330
1F
100
AcDbEntity
  8
0
  6
SLD-Solid
 62
     7
370
    25
100
AcDbLine
 10
62.62201992119715
 20
69.49331621292606
 30
0.0
 11
62.61272896582567
 21
69.49867976729557
 31
0.0
  0
LINE
  5
417
330
1F
100
AcDbEntity
  8
0
  6
SLD-Solid
 62
     7
370
    25
100
AcDbLine
 10
62.64323312463274
 20
69.5055623346034
 30
0.0
 11
62.61703310942581
 21
69.52068728143885
 31
0.0
  0
LINE
  5
418
330
1F
100
AcDbEntity
  8
0
  6
SLD-Solid
 62
     7
370
    25
100
AcDbLine
 10
43.9170608356818
 20
70.91657974029563
 30
0.0
 11
43.8958476322462
 21
70.9043336186183
 31
0.0
  0
LINE
  5
419
330
1F
100
AcDbEntity
  8
0
  6
SLD-Solid
 62
     7
370
    25
100
AcDbLine
 10
44.14095400124639
 20
70.78732896699526
 30
0.0
 11
43.9170608356818
 21
70.91657974029563
 31
0.0
  0
LINE
  5
41A
330
1F
100
AcDbEntity
  8
0
  6
SLD-Solid
 62
     7
370
    25
100
AcDbLine
 10
43.92537661651069
 20
70.92601497724004
 30
0.0
 11
43.94658981994628
 21
70.93826109891738
 31
0.0
  0
LINE
  5
41B
330
1F
100
AcDbEntity
  8
0
  6
SLD-Solid
 62
     7
370
    25
100
AcDbLine
 10
44.16010731715689
 20
70.81500007146244
 30
0.0
 11
43.94658981994628
 21
70.93826109891738
 31
0.0
  0
ARC
  5
41C
330
1F
100
AcDbEntity
  8
0
  6
SLD-Solid
 62
     7
370
    25
100
AcDbCircle
 10
43.93922719974904
 20
71.01863075427347
 30
0.0
 40
0.1222522887135927
100
AcDbArc
 50
110.7834207994638
 51
249.2165792005339
  0
ARC
  5
41D
330
1F
100
AcDbEntity
  8
0
  6
SLD-Solid
 62
     7
370
    25
100
AcDbCircle
 10
43.95396550847581
 20
51.3103321022557
 30
0.0
 40
0.1408229979782866
100
AcDbArc
 50
185.6947992512033
 51
245.6253417064136
  0
LINE
  5
41E
330
1F
100
AcDbEntity
  8
0
  6
SLD-Solid
 62
     7
370
    25
100
AcDbLine
 10
43.9170608356818
 20
71.12068176825132
 30
0.0
 11
43.89584763224621
 21
71.13292788992865
 31
0.0
  0
ARC
  5
41F
330
1F
100
AcDbEntity
  8
0
  6
SLD-Solid
 62
     7
370
    25
100
AcDbCircle
 10
43.95579259238078
 20
71.01863075427347
 30
0.0
 40
0.1091538292085747
100
AcDbArc
 50
110.7834207994737
 51
249.2165792005271
  0
ARC
  5
420
330
1F
100
AcDbEntity
  8
0
  6
SLD-Solid
 62
     7
370
    25
100
AcDbCircle
 10
43.96100983267371
 20
71.01990191009965
 30
0.0
 40
0.1004215228718694
100
AcDbArc
 50
110.783420799462
 51
249.2165792005464
  0
LINE
  5
421
330
1F
100
AcDbEntity
  8
0
  6
SLD-Solid
 62
     7
370
    25
100
AcDbLine
 10
43.94658981994625
 20
71.10154272128189
 30
0.0
 11
43.92537661651068
 21
71.11378884295925
 31
0.0
  0
ARC
  5
422
330
1F
100
AcDbEntity
  8
0
  6
SLD-Solid
 62
     7
370
    25
100
AcDbCircle
 10
43.97757522530542
 20
71.01990191009963
 30
0.0
 40
0.0873230633668381
100
AcDbArc
 50
110.7834207994731
 51
249.2165792005494
  0
LINE
  5
423
330
1F
100
AcDbEntity
  8
0
  6
SLD-Solid
 62
     7
370
    25
100
AcDbLine
 10
44.08730406940236
 20
70.85702849179124
 30
0.0
 11
44.08730406940236
 21
71.18277532840825
 31
0.0
  0
LINE
  5
424
330
1F
100
AcDbEntity
  8
0
  6
SLD-Solid
 62
     7
370
    25
100
AcDbLine
 10
44.08730406940236
 20
71.18277532840825
 30
0.0
 11
43.94658981994625
 21
71.10154272128189
 31
0.0
  0
LINE
  5
425
330
1F
100
AcDbEntity
  8
0
  6
SLD-Solid
 62
     7
370
    25
100
AcDbLine
 10
44.0660908659668
 20
71.19502145008562
 30
0.0
 11
44.08730406940236
 21
71.18277532840825
 31
0.0
  0
LINE
  5
426
330
1F
100
AcDbEntity
  8
0
  6
SLD-Solid
 62
     7
370
    25
100
AcDbLine
 10
44.0660908659668
 20
71.19502145008562
 30
0.0
 11
43.92537661651068
 21
71.11378884295925
 31
0.0
  0
LINE
  5
427
330
1F
100
AcDbEntity
  8
0
  6
SLD-Solid
 62
     7
370
    25
100
AcDbLine
 10
44.09337013740714
 20
71.22246296166372
 30
0.0
 11
44.09337013740714
 21
71.22777345235092
 31
0.0
  0
LINE
  5
428
330
1F
100
AcDbEntity
  8
0
  6
SLD-Solid
 62
     7
370
    25
100
AcDbLine
 10
51.85187940054248
 20
75.67812967256778
 30
0.0
 11
51.81961510051303
 21
75.65950388862173
 31
0.0
  0
LINE
  5
429
330
1F
100
AcDbEntity
  8
0
  6
SLD-Solid
 62
     7
370
    25
100
AcDbLine
 10
43.9170608356818
 20
71.12068176825132
 30
0.0
 11
44.09337013740714
 21
71.22246296166372
 31
0.0
  0
LINE
  5
42A
330
1F
100
AcDbEntity
  8
0
  6
SLD-Solid
 62
     7
370
    25
100
AcDbLine
 10
43.89584763224621
 20
71.13292788992865
 30
0.0
 11
44.07215693397153
 21
71.23470908334107
 31
0.0
  0
LINE
  5
42B
330
1F
100
AcDbEntity
  8
0
  6
SLD-Solid
 62
     7
370
    25
100
AcDbLine
 10
44.07215693397153
 20
71.23470908334107
 30
0.0
 11
44.09337013740714
 21
71.22246296166372
 31
0.0
  0
LINE
  5
42C
330
1F
100
AcDbEntity
  8
0
  6
SLD-Solid
 62
     7
370
    25
100
AcDbLine
 10
51.8211277404154
 20
75.64809255295206
 30
0.0
 11
44.12872547646644
 21
71.20736324955531
 31
0.0
  0
LWPOLYLINE
  5
42D
330
1F
100
AcDbEntity
  8
0
  6
SLD-Solid
 62
     7
370
    25
100
AcDbPolyline
 90
        9
 70
   128
 43
0.0
 10
44.07215693397153
 20
71.24001957402825
 10
44.07430994592148
 20
71.25127573230792
 10
44.080441205219
 20
71.25833242784151
 10
44.08961728321607
 20
71.26011534270312
 10
44.100441205219
 20
71.25635304426723
 10
44.11126512722192
 20
71.2476183083654
 10
44.120441205219
 20
71.23524091935809
 10
44.12657246451653
 20
71.22110522252036
 10
44.12872547646644
 20
71.20736324955531
  0
LWPOLYLINE
  5
42E
330
1F
100
AcDbEntity
  8
0
  6
SLD-Solid
 62
     7
370
    25
100
AcDbPolyline
 90
        7
 70
   128
 43
0.0
 10
51.8211277404154
 20
75.64809255295206
 10
51.81897472846547
 20
75.66183452591707
 10
51.81284346916794
 20
75.67597022275481
 10
51.80366739117088
 20
75.68834761176213
 10
51.79284346916796
 20
75.69708234766397
 10
51.78201954716506
 20
75.70084464609985
 10
51.77284509451524
 20
75.69906266968376
  0
LINE
  5
42F
330
1F
100
AcDbEntity
  8
0
  6
SLD-Solid
 62
     7
370
    25
100
AcDbLine
 10
44.10751227303084
 20
71.21960937123265
 30
0.0
 11
44.12872547646644
 21
71.20736324955531
 31
0.0
  0
LWPOLYLINE
  5
430
330
1F
100
AcDbEntity
  8
0
  6
SLD-Solid
 62
     7
370
    25
100
AcDbPolyline
 90
        9
 70
   128
 43
0.0
 10
44.09337013740714
 20
71.22777345235092
 10
44.09390839039462
 20
71.23058749192083
 10
44.095441205219
 20
71.23235166580422
 10
44.09773522471826
 20
71.23279739451962
 10
44.100441205219
 20
71.23185681991065
 10
44.10314718571973
 20
71.2296731359352
 10
44.10544120521899
 20
71.22657878868337
 10
44.10697402004338
 20
71.22304486447393
 10
44.10751227303084
 20
71.21960937123265
  0
LINE
  5
431
330
1F
100
AcDbEntity
  8
0
  6
SLD-Solid
 62
     7
370
    25
100
AcDbLine
 10
44.07215693397153
 20
71.24001957402825
 30
0.0
 11
44.09337013740714
 21
71.22777345235092
 31
0.0
  0
LINE
  5
432
330
1F
100
AcDbEntity
  8
0
  6
SLD-Solid
 62
     7
370
    25
100
AcDbLine
 10
51.8211277404154
 20
75.64809255295206
 30
0.0
 11
51.8211277404154
 21
75.34058932884206
 31
0.0
  0
ARC
  5
433
330
1F
100
AcDbEntity
  8
0
  6
SLD-Solid
 62
     7
370
    25
100
AcDbCircle
 10
51.59084532495444
 20
75.35106845677676
 30
0.0
 40
0.2305207213957286
100
AcDbArc
 50
302.605478607349
 51
357.3945214934971
  0
LINE
  5
434
330
1F
100
AcDbEntity
  8
0
  6
SLD-Solid
 62
     7
370
    25
100
AcDbLine
 10
51.71506172402766
 20
75.1568775991287
 30
0.0
 11
44.19513151722349
 21
70.81571429499976
 31
0.0
  0
LINE
  5
435
330
1F
100
AcDbEntity
  8
0
  6
SLD-Solid
 62
     7
370
    25
100
AcDbLine
 10
44.12872547646644
 20
71.20736324955531
 30
0.0
 11
44.12872547646644
 21
70.83311642247591
 31
0.0
  0
LINE
  5
436
330
1F
100
AcDbEntity
  8
0
  6
SLD-Solid
 62
     7
370
    25
100
AcDbLine
 10
44.10751227303084
 20
71.21960937123265
 30
0.0
 11
44.10751227303086
 21
70.84536254415322
 31
0.0
  0
LINE
  5
437
330
1F
100
AcDbEntity
  8
0
  6
SLD-Solid
 62
     7
370
    25
100
AcDbLine
 10
44.07215693397153
 20
71.23470908334107
 30
0.0
 11
44.07215693397153
 21
71.24001957402825
 31
0.0
  0
ARC
  5
438
330
1F
100
AcDbEntity
  8
0
  6
SLD-Solid
 62
     7
370
    25
100
AcDbCircle
 10
54.86503961648904
 20
45.2639195233123
 30
0.0
 40
0.025765842648281
100
AcDbArc
 50
230.7967147642674
 51
9.21403699046241
  0
ARC
  5
439
330
1F
100
AcDbEntity
  8
0
  6
SLD-Solid
 62
     7
370
    25
100
AcDbCircle
 10
62.54754036509677
 20
49.70187446107266
 30
0.0
 40
0.0290856978888735
100
AcDbArc
 50
305.0133328967962
 51
6.298847496551019
  0
LINE
  5
43A
330
1F
100
AcDbEntity
  8
0
  6
SLD-Solid
 62
     7
370
    25
100
AcDbLine
 10
54.84376820826696
 20
45.24683142479685
 30
0.0
 11
54.84875370407719
 21
45.24395335932696
 31
0.0
  0
SPLINE
  5
43B
330
1F
100
AcDbEntity
  8
0
  6
SLD-Solid
 62
     7
370
    25
100
AcDbSpline
210
0.0
220
0.0
230
1.0
 70
    12
 71
     3
 72
    11
 73
     7
 74
     0
 42
0.00000001
 43
0.00000001
 40
0.0
 40
0.0
 40
0.0
 40
0.0
 40
0.2500000000003381
 40
0.5000000000002528
 40
0.7500000000001807
 40
1.0
 40
1.0
 40
1.0
 40
1.0
 10
54.10673128211774
 20
45.28168738952296
 30
0.0
 41
1.0
 10
54.1012665363555
 20
45.27925447714214
 30
0.0
 41
1.0
 10
54.09033704483102
 20
45.27438865238047
 30
0.0
 41
1.0
 10
54.07655302538068
 20
45.27756492371582
 30
0.0
 41
1.0
 10
54.06691155403649
 20
45.28791629882273
 30
0.0
 41
1.0
 10
54.06566139662706
 20
45.29981557248261
 30
0.0
 41
1.0
 10
54.06503631792233
 20
45.30576520931254
 30
0.0
 41
1.0
  0
SPLINE
  5
43C
330
1F
100
AcDbEntity
  8
0
  6
SLD-Solid
 62
     7
370
    25
100
AcDbSpline
210
0.0
220
0.0
230
1.0
 70
    12
 71
     3
 72
    10
 73
     6
 74
     0
 42
0.00000001
 43
0.00000001
 40
0.0
 40
0.0
 40
0.0
 40
0.0
 40
0.4999489370490264
 40
0.9998978740982344
 40
1.0
 40
1.0
 40
1.0
 40
1.0
 10
44.14324607860721
 20
51.03349279635941
 30
0.0
 41
1.0
 10
44.14396165042957
 20
51.02773777433963
 30
0.0
 41
1.0
 10
44.14539279407431
 20
51.01622773030005
 30
0.0
 41
1.0
 10
44.15096475129089
 20
51.00735166135835
 30
0.0
 41
1.0
 10
44.15547939063052
 20
51.00647395391982
 30
0.0
 41
1.0
 10
44.15548031265958
 20
51.0064737746648
 30
0.0
 41
1.0
  0
LINE
  5
43D
330
1F
100
AcDbEntity
  8
0
  6
SLD-Solid
 62
     7
370
    25
100
AcDbLine
 10
54.10673128211774
 20
45.28168738952296
 30
0.0
 11
54.11171399139153
 21
45.28456706362611
 31
0.0
  0
LINE
  5
43E
330
1F
100
AcDbEntity
  8
0
  6
SLD-Solid
 62
     7
370
    25
100
AcDbLine
 10
51.85187940054248
 20
75.67812967256778
 30
0.0
 11
51.83066619710689
 21
75.69037579424511
 31
0.0
  0
LINE
  5
43F
330
1F
100
AcDbEntity
  8
0
  6
SLD-Solid
 62
     7
370
    25
100
AcDbLine
 10
51.83066619710689
 20
75.69037579424511
 30
0.0
 11
51.81098121363968
 21
75.6790118951769
 31
0.0
  0
ARC
  5
440
330
1F
100
AcDbEntity
  8
0
  6
SLD-Solid
 62
     7
370
    25
100
AcDbCircle
 10
51.88042809722154
 20
75.62200914365177
 30
0.0
 40
0.0629646078990876
100
AcDbArc
 50
72.6122138054397
 51
116.9625894193458
  0
ARC
  5
441
330
1F
100
AcDbEntity
  8
0
  6
SLD-Solid
 62
     7
370
    25
100
AcDbCircle
 10
51.88031666589898
 20
75.59417505893508
 30
0.0
 40
0.1082577966035986
100
AcDbArc
 50
76.86523304011145
 51
117.2988556419875
  0
LINE
  5
442
330
1F
100
AcDbEntity
  8
0
  6
SLD-Solid
 62
     8
370
    25
100
AcDbLine
 10
62.58444469458084
 20
49.77837276159574
 30
0.0
 11
62.57645047735559
 21
49.78298772496763
 31
0.0
  0
LINE
  5
443
330
1F
100
AcDbEntity
  8
0
  6
SLD-Solid
 62
     8
370
    25
100
AcDbLine
 10
62.6127289658283
 20
49.82736255630763
 30
0.0
 11
62.60713206065473
 21
49.83059358089004
 31
0.0
  0
LWPOLYLINE
  5
444
330
1F
100
AcDbEntity
  8
0
  6
SLD-Solid
 62
     8
370
    25
100
AcDbPolyline
 90
        8
 70
   128
 43
0.0
 10
51.34474254080593
 20
73.44043081607583
 10
51.35007301040567
 20
73.47841720636445
 10
51.36542148590178
 20
73.517976306564
 10
51.38893671463008
 20
73.55433670536027
 10
51.41778241295813
 20
73.58311280203608
 10
51.44847936395038
 20
73.6008337746424
 10
51.47732506227841
 20
73.60536221234919
 10
51.495625809244
 20
73.59971243086233
  0
ARC
  5
445
330
1F
100
AcDbEntity
  8
0
  6
SLD-Solid
 62
     8
370
    25
100
AcDbCircle
 10
51.40372875273359
 20
73.43264563749666
 30
0.0
 40
0.0594977495631928
100
AcDbArc
 50
172.4813857160911
 51
236.2064338905191
  0
ARC
  5
446
330
1F
100
AcDbEntity
  8
0
  6
SLD-Solid
 62
     8
370
    25
100
AcDbCircle
 10
48.04847877908492
 20
71.62736702649832
 30
0.0
 40
0.0616222412485341
100
AcDbArc
 50
305.0133328739914
 51
6.298847519366232
  0
SPLINE
  5
447
330
1F
100
AcDbEntity
  8
0
  6
SLD-Solid
 62
     8
370
    25
100
AcDbSpline
210
0.0
220
0.0
230
1.0
 70
    12
 71
     3
 72
    12
 73
     8
 74
     0
 42
0.00000001
 43
0.00000001
 40
0.0
 40
0.0
 40
0.0
 40
0.0
 40
0.2138041236131923
 40
0.4276082472263742
 40
0.6414123708395668
 40
0.855216494452761
 40
1.0
 40
1.0
 40
1.0
 40
1.0
 10
48.1097290168775
 20
71.63412786866807
 30
0.0
 41
1.0
 10
48.1084021784898
 20
71.64824461298589
 30
0.0
 41
1.0
 10
48.10574850171439
 20
71.67647810162148
 30
0.0
 41
1.0
 10
48.08528210346867
 20
71.72238892994844
 30
0.0
 41
1.0
 10
48.05616709978602
 20
71.76143969939463
 30
0.0
 41
1.0
 10
48.02482176011722
 20
71.78817769407283
 30
0.0
 41
1.0
 10
48.00602476345188
 20
71.79316785571618
 30
0.0
 41
1.0
 10
47.99843527946066
 20
71.79518268566909
 30
0.0
 41
1.0
  0
LWPOLYLINE
  5
448
330
1F
100
AcDbEntity
  8
0
  6
SLD-Solid
 62
     8
370
    25
100
AcDbPolyline
 90
        8
 70
   128
 43
0.0
 10
51.23867652362794
 20
73.44043081607583
 10
51.2333460540282
 20
73.47841720636445
 10
51.21799757853208
 20
73.51797630656401
 10
51.19448234980378
 20
73.55433670536027
 10
51.16563665147574
 20
73.5831128020361
 10
51.13493970048349
 20
73.6008337746424
 10
51.10609400215546
 20
73.60536221234919
 10
51.08779325518986
 20
73.59971243086233
  0
ARC
  5
449
330
1F
100
AcDbEntity
  8
0
  6
SLD-Solid
 62
     8
370
    25
100
AcDbCircle
 10
51.17969031170028
 20
73.43264563749668
 30
0.0
 40
0.059497749563191
100
AcDbArc
 50
303.7935661094825
 51
7.518614283895332
  0
LINE
  5
44A
330
1F
100
AcDbEntity
  8
0
  6
SLD-Solid
 62
     8
370
    25
100
AcDbLine
 10
48.65496341775985
 20
71.90660234484437
 30
0.0
 11
48.65496341775985
 21
71.51834575176927
 31
0.0
  0
LINE
  5
44B
330
1F
100
AcDbEntity
  8
0
  6
SLD-Solid
 62
     8
370
    25
100
AcDbLine
 10
47.21761797514363
 20
71.07684048279984
 30
0.0
 11
47.21761797514363
 21
70.68858388972475
 31
0.0
  0
LWPOLYLINE
  5
44C
330
1F
100
AcDbEntity
  8
0
  6
SLD-Solid
 62
     8
370
    25
100
AcDbPolyline
 90
       22
 70
   128
 43
0.0
 10
47.68028872502591
 20
71.86931870860323
 10
47.68520773112307
 20
71.92983130891629
 10
47.69977571476888
 20
71.99369780748631
 10
47.72343283652162
 20
72.05846385059
 10
47.75526996645941
 20
72.1216405155121
 10
47.79406362153321
 20
72.18079995844953
 10
47.83832298333427
 20
72.23366871518719
 10
47.88634718940951
 20
72.2782150690528
 10
47.93629069645174
 20
72.3127271286492
 10
47.98623420349397
 20
72.33587861488068
 10
48.0342584095692
 20
72.34677982911487
 10
48.07851777137027
 20
72.34501184380218
 10
48.11731142644407
 20
72.33064260162675
 10
48.14914855638187
 20
72.30422430450699
 10
48.1728056781346
 20
72.26677219278562
 10
48.18737366178041
 20
72.21972553011275
 10
48.19229266787757
 20
72.16489229335083
 10
48.18737366178041
 20
72.10437969303777
 10
48.1728056781346
 20
72.04051319446774
 10
48.14914855638186
 20
71.97574715136405
 10
48.11731142644407
 20
71.91257048644195
 10
48.0895656355144
 20
71.8688098553042
  0
ARC
  5
44D
330
1F
100
AcDbEntity
  8
0
  6
SLD-Solid
 62
     8
370
    25
100
AcDbCircle
 10
47.84779072519696
 20
71.84780393972956
 30
0.0
 40
0.168878078331663
100
AcDbArc
 50
172.6807280735814
 51
247.4455938159422
  0
LWPOLYLINE
  5
44E
330
1F
100
AcDbEntity
  8
0
  6
SLD-Solid
 62
     8
370
    25
100
AcDbPolyline
 90
       17
 70
   128
 43
0.0
 10
48.0787099403703
 20
71.86330288952476
 10
48.07531103787431
 20
71.86056223673698
 10
48.04702675535042
 20
71.84423406799078
 10
48.02044822377849
 20
71.84006154898317
 10
47.99878120632346
 20
71.84854794708632
 10
47.98463906506151
 20
71.86866967744304
 10
47.97972755094462
 20
71.89799976240724
 10
47.98463906506151
 20
71.93300056086628
 10
47.99878120632346
 20
71.96945045996921
 10
48.02044822377849
 20
72.002953063941
 10
48.04702675535042
 20
72.0294674642969
 10
48.07531103787431
 20
72.0457956330431
 10
48.10188956944624
 20
72.04996815205071
 10
48.12355658690127
 20
72.04148175394758
 10
48.13769872816322
 20
72.02136002359084
 10
48.14261024228011
 20
71.99202993862664
 10
48.14261024228011
 20
71.99202993862664
  0
LWPOLYLINE
  5
44F
330
1F
100
AcDbEntity
  8
0
  6
SLD-Solid
 62
     8
370
    25
100
AcDbPolyline
 90
       21
 70
   128
 43
0.0
 10
48.16338387618705
 20
72.1291032816923
 10
48.15846133363868
 20
72.17852848147672
 10
48.14392387861213
 20
72.21995916720063
 10
48.12045126634721
 20
72.25145808604643
 10
48.0891410501055
 20
72.27155238357746
 10
48.05145726079967
 20
72.27930247277436
 10
48.0091619505351
 20
72.2743459680799
 10
47.96423280101193
 20
72.25691463014482
 10
47.9187706493267
 20
72.22782352895742
 10
47.87490125516464
 20
72.18843293207682
 10
47.83467590263946
 20
72.14058470003361
 10
47.79997548452796
 20
72.08651616297867
 10
47.77242255381427
 20
72.0287555056118
 10
47.75330545491571
 20
71.97000355207514
 10
47.74351808212963
 20
71.91300747841795
 10
47.74351808212963
 20
71.86043235769786
 10
47.75330545491571
 20
71.81473654412667
 10
47.77242255381428
 20
71.77805672315974
 10
47.79997548452796
 20
71.75210800245878
 10
47.83467590263946
 20
71.73810371536383
 10
47.8681159503213
 20
71.7360632770016
  0
ARC
  5
450
330
1F
100
AcDbEntity
  8
0
  6
SLD-Solid
 62
     8
370
    25
100
AcDbCircle
 10
46.64936456120688
 20
71.1293462175441
 30
0.0
 40
0.9027049490803876
100
AcDbArc
 50
0.4415313884157169
 51
8.583672110662386
  0
LINE
  5
451
330
1F
100
AcDbEntity
  8
0
  6
SLD-Solid
 62
     8
370
    25
100
AcDbLine
 10
47.27840236828388
 20
71.11193056604628
 30
0.0
 11
47.55204270678284
 21
71.13630255233898
 31
0.0
  0
LINE
  5
452
330
1F
100
AcDbEntity
  8
0
  6
SLD-Solid
 62
     8
370
    25
100
AcDbLine
 10
47.24534936073823
 20
70.69670055261565
 30
0.0
 11
47.24534936073823
 21
71.09284947094271
 31
0.0
  0
ARC
  5
453
330
1F
100
AcDbEntity
  8
0
  6
SLD-Solid
 62
     8
370
    25
100
AcDbCircle
 10
47.42827596852081
 20
71.14749617521302
 30
0.0
 40
0.1933094187061256
100
AcDbArc
 50
2.697600621377869
 51
43.19328736844702
  0
ARC
  5
454
330
1F
100
AcDbEntity
  8
0
  6
SLD-Solid
 62
     8
370
    25
100
AcDbCircle
 10
48.36534061467705
 20
71.68845208086879
 30
0.0
 40
0.1933094187061304
100
AcDbArc
 50
2.697600621382076
 51
43.19328736845605
  0
ARC
  5
455
330
1F
100
AcDbEntity
  8
0
  6
SLD-Solid
 62
     8
370
    25
100
AcDbCircle
 10
48.47945892743355
 20
71.72997240919341
 30
0.0
 40
0.1143796628434215
100
AcDbArc
 50
3.809935232578514
 51
64.76499595852758
  0
LINE
  5
456
330
1F
100
AcDbEntity
  8
0
  6
SLD-Solid
 62
     8
370
    25
100
AcDbLine
 10
48.63580389974616
 20
71.89554179052558
 30
0.0
 11
48.59358580678754
 21
71.73757258557917
 31
0.0
  0
LINE
  5
457
330
1F
100
AcDbEntity
  8
0
  6
SLD-Solid
 62
     8
370
    25
100
AcDbLine
 10
48.64090342181508
 20
71.50233676362639
 30
0.0
 11
48.64090342181508
 21
71.89848568195347
 31
0.0
  0
LINE
  5
458
330
1F
100
AcDbEntity
  8
0
  6
SLD-Solid
 62
     8
370
    25
100
AcDbLine
 10
62.65116000130936
 20
69.56153779511483
 30
0.0
 11
62.68330510620513
 21
69.5429808210548
 31
0.0
  0
LINE
  5
459
330
1F
100
AcDbEntity
  8
0
  6
SLD-Solid
 62
     8
370
    25
100
AcDbLine
 10
54.67888557748288
 20
64.89862728700042
 30
0.0
 11
54.67888557748288
 21
64.90592025798848
 31
0.0
  0
LINE
  5
45A
330
1F
100
AcDbEntity
  8
0
  6
SLD-Solid
 62
     8
370
    25
100
AcDbLine
 10
54.35361645813707
 20
64.90592025798848
 30
0.0
 11
54.35361645813707
 21
64.89286049248453
 31
0.0
  0
LINE
  5
45B
330
1F
100
AcDbEntity
  8
0
  6
SLD-Solid
 62
     8
370
    25
100
AcDbLine
 10
54.09892993997367
 20
65.06035047324812
 30
0.0
 11
54.10600215703301
 21
65.05626776924265
 31
0.0
  0
LINE
  5
45C
330
1F
100
AcDbEntity
  8
0
  6
SLD-Solid
 62
     8
370
    25
100
AcDbLine
 10
43.92537661651069
 20
70.92601497724004
 30
0.0
 11
43.92537661651069
 21
70.91177914220673
 31
0.0
  0
LINE
  5
45D
330
1F
100
AcDbEntity
  8
0
  6
SLD-Solid
 62
     8
370
    25
100
AcDbLine
 10
54.84936852243816
 20
65.0184677511796
 30
0.0
 11
54.85644073949743
 21
65.02255045518511
 31
0.0
  0
LINE
  5
45E
330
1F
100
AcDbEntity
  8
0
  6
SLD-Solid
 62
     8
370
    25
100
AcDbLine
 10
62.59126826186042
 20
69.41841509003712
 30
0.0
 11
62.57712612642347
 21
69.42657917104752
 31
0.0
  0
LINE
  5
45F
330
1F
100
AcDbEntity
  8
0
  6
SLD-Solid
 62
     8
370
    25
100
AcDbLine
 10
62.62201992119717
 20
69.46065988845315
 30
0.0
 11
62.62201992119715
 21
69.49331621292606
 31
0.0
  0
LINE
  5
460
330
1F
100
AcDbEntity
  8
0
  6
SLD-Solid
 62
     8
370
    25
100
AcDbLine
 10
43.9170608356818
 20
71.12068176825132
 30
0.0
 11
43.9170608356818
 21
71.10872917820384
 31
0.0
  0
LINE
  5
461
330
1F
100
AcDbEntity
  8
0
  6
SLD-Solid
 62
     8
370
    25
100
AcDbLine
 10
43.94658981994625
 20
70.93826109891738
 30
0.0
 11
43.94658981994625
 21
71.10154272128189
 31
0.0
  0
LINE
  5
462
330
1F
100
AcDbEntity
  8
0
  6
SLD-Solid
 62
     8
370
    25
100
AcDbLine
 10
44.10044235446638
 20
71.23185615635641
 30
0.0
 11
44.09337013740714
 21
71.22777345235092
 31
0.0
  0
LINE
  5
463
330
1F
100
AcDbEntity
  8
0
  6
SLD-Solid
 62
     8
370
    25
100
AcDbLine
 10
51.85187940054248
 20
66.39556782742274
 30
0.0
 11
51.85187940054248
 21
73.10538429494484
 31
0.0
  0
LINE
  5
464
330
1F
100
AcDbEntity
  8
0
  6
SLD-Solid
 62
     8
370
    25
100
AcDbLine
 10
51.85187940054248
 20
73.39405161021938
 30
0.0
 11
51.85187940054248
 21
75.67812967256778
 31
0.0
  0
LINE
  5
465
330
1F
100
AcDbEntity
  8
0
  6
SLD-Solid
 62
     8
370
    25
100
AcDbLine
 10
54.89047300416719
 20
45.26804522792944
 30
0.0
 11
54.88549428946763
 21
45.27091937874749
 31
0.0
  0
LINE
  5
466
330
1F
100
AcDbEntity
  8
0
  6
SLD-Solid
 62
     8
370
    25
100
AcDbLine
 10
54.84875370407719
 20
45.24395335932696
 30
0.0
 11
54.84875370407719
 21
45.24970949026675
 31
0.0
  0
LINE
  5
467
330
1F
100
AcDbEntity
  8
OBJECT
100
AcDbLine
 10
55.4954669856192
 20
65.8604516314068
 30
0.0
 11
55.4954669856192
 21
65.85514114071961
 31
0.0
  0
LINE
  5
468
330
1F
100
AcDbEntity
  8
OBJECT
100
AcDbLine
 10
55.5437496315194
 20
65.91142174813848
 30
0.0
 11
55.55203552811413
 21
65.88570513798972
 31
0.0
  0
LINE
  5
469
330
1F
100
AcDbEntity
  8
OBJECT
100
AcDbLine
 10
56.26126138324261
 20
65.87362173418114
 30
0.0
 11
56.22320679114893
 21
65.82399305175188
 31
0.0
  0
LINE
  5
46A
330
1F
100
AcDbEntity
  8
OBJECT
100
AcDbLine
 10
56.30954402914303
 20
65.82265161744957
 30
0.0
 11
56.30954402914303
 21
65.8173411267624
 31
0.0
  0
INSERT
  5
470
330
1F
100
AcDbEntity
  8
NOTES
100
AcDbBlockReference
  2
SW_NOTE_0_2
 10
49.3264499012859
 20
45.60487001258703
 30
0.0
  0
LINE
  5
471
330
1F
100
AcDbEntity
  8
0
  6
SLD-Solid
 62
     7
370
    25
100
AcDbLine
 10
6.519086120496356
 20
58.45992557334188
 30
0.0
 11
6.519086120496324
 21
62.88492557334187
 31
0.0
  0
LINE
  5
472
330
1F
100
AcDbEntity
  8
0
  6
SLD-Solid
 62
     7
370
    25
100
AcDbLine
 10
6.519086120496407
 20
54.28492557334188
 30
0.0
 11
6.519086120496379
 21
58.45992557334188
 31
0.0
  0
LINE
  5
473
330
1F
100
AcDbEntity
  8
0
  6
SLD-Solid
 62
     7
370
    25
100
AcDbLine
 10
21.19408612049699
 20
63.20992557334197
 30
0.0
 11
6.594086120496341
 21
63.20992557334187
 31
0.0
  0
LINE
  5
474
330
1F
100
AcDbEntity
  8
0
  6
SLD-Solid
 62
     7
370
    25
100
AcDbLine
 10
6.594086120496343
 20
62.95992557334187
 30
0.0
 11
21.19408612049699
 21
62.95992557334198
 31
0.0
  0
LINE
  5
475
330
1F
100
AcDbEntity
  8
0
  6
SLD-Solid
 62
     7
370
    25
100
AcDbLine
 10
21.2690861204965
 20
62.88492557334197
 30
0.0
 11
21.26908612049655
 21
54.28492557334198
 31
0.0
  0
ARC
  5
476
330
1F
100
AcDbEntity
  8
0
  6
SLD-Solid
 62
     7
370
    25
100
AcDbCircle
 10
6.594086120496345
 20
62.88492557334187
 30
0.0
 40
0.0750000000000011
100
AcDbArc
 50
90.00000000000068
 51
180.0
  0
ARC
  5
477
330
1F
100
AcDbEntity
  8
0
  6
SLD-Solid
 62
     7
370
    25
100
AcDbCircle
 10
6.594086120496345
 20
62.88492557334187
 30
0.0
 40
0.3250000000000028
100
AcDbArc
 50
90.00000000000064
 51
144.8205895036089
  0
ARC
  5
478
330
1F
100
AcDbEntity
  8
0
  6
SLD-Solid
 62
     7
370
    25
100
AcDbCircle
 10
21.19408612049656
 20
54.28492557334198
 30
0.0
 40
0.0750000000000028
100
AcDbArc
 50
270.0000000000008
 51
0.0
  0
ARC
  5
479
330
1F
100
AcDbEntity
  8
0
  6
SLD-Solid
 62
     7
370
    25
100
AcDbCircle
 10
21.19408612049656
 20
54.28492557334198
 30
0.0
 40
0.3250000000000099
100
AcDbArc
 50
270.0000000000002
 51
324.8205903584918
  0
LINE
  5
47A
330
1F
100
AcDbEntity
  8
0
  6
SLD-Solid
 62
     7
370
    25
100
AcDbLine
 10
6.594086120495912
 20
53.95992557334188
 30
0.0
 11
21.19408612049655
 21
53.95992557334198
 31
0.0
  0
LINE
  5
47B
330
1F
100
AcDbEntity
  8
0
  6
SLD-Solid
 62
     7
370
    25
100
AcDbLine
 10
21.19408612049655
 20
54.20992557334198
 30
0.0
 11
6.594086120495909
 21
54.20992557334188
 31
0.0
  0
ARC
  5
47C
330
1F
100
AcDbEntity
  8
0
  6
SLD-Solid
 62
     7
370
    25
100
AcDbCircle
 10
6.594086120496426
 20
54.28492557334187
 30
0.0
 40
0.0749999999999984
100
AcDbArc
 50
180.0
 51
269.9999999999968
  0
ARC
  5
47D
330
1F
100
AcDbEntity
  8
0
  6
SLD-Solid
 62
     7
370
    25
100
AcDbCircle
 10
6.594086120496426
 20
54.28492557334187
 30
0.0
 40
0.3249999999999985
100
AcDbArc
 50
215.1794104963662
 51
269.9999999999966
  0
ARC
  5
47E
330
1F
100
AcDbEntity
  8
0
  6
SLD-Solid
 62
     7
370
    25
100
AcDbCircle
 10
21.1940861204965
 20
62.88492557334197
 30
0.0
 40
0.0750000000000028
100
AcDbArc
 50
0.0
 51
90.0
  0
ARC
  5
47F
330
1F
100
AcDbEntity
  8
0
  6
SLD-Solid
 62
     7
370
    25
100
AcDbCircle
 10
21.1940861204965
 20
62.88492557334197
 30
0.0
 40
0.3250000000000027
100
AcDbArc
 50
35.17940964151111
 51
90.0
  0
LINE
  5
480
330
1F
100
AcDbEntity
  8
0
  6
SLD-Solid
 62
     7
370
    25
100
AcDbLine
 10
21.45972551977728
 20
58.72729450246936
 30
0.0
 11
21.45642996408782
 21
58.72314884386357
 31
0.0
  0
LINE
  5
481
330
1F
100
AcDbEntity
  8
0
  6
SLD-Solid
 62
     7
370
    25
100
AcDbLine
 10
21.45642996408782
 20
58.12762344583155
 30
0.0
 11
21.45972551977728
 21
58.12347778722577
 31
0.0
  0
LINE
  5
482
330
1F
100
AcDbEntity
  8
0
  6
SLD-Solid
 62
     7
370
    25
100
AcDbLine
 10
21.45642996408782
 20
58.72314884386357
 30
0.0
 11
21.30322107546403
 21
58.54056160042879
 31
0.0
  0
LINE
  5
483
330
1F
100
AcDbEntity
  8
0
  6
SLD-Solid
 62
     7
370
    25
100
AcDbLine
 10
21.30322107546403
 20
58.31021068926633
 30
0.0
 11
21.45642996408782
 21
58.12762344583156
 31
0.0
  0
ARC
  5
484
330
1F
100
AcDbEntity
  8
0
  6
SLD-Solid
 62
     7
370
    25
100
AcDbCircle
 10
21.37982551977592
 20
58.37448945023498
 30
0.0
 40
0.0999999999999979
100
AcDbArc
 50
180.0
 51
219.9999999999984
  0
ARC
  5
485
330
1F
100
AcDbEntity
  8
0
  6
SLD-Solid
 62
     7
370
    25
100
AcDbCircle
 10
21.37982551977592
 20
58.47628283946014
 30
0.0
 40
0.1000000000000002
100
AcDbArc
 50
139.9999999999993
 51
180.0
  0
LINE
  5
486
330
1F
100
AcDbEntity
  8
0
  6
SLD-Solid
 62
     7
370
    25
100
AcDbLine
 10
6.328446724009376
 20
58.12347778722757
 30
0.0
 11
6.331742279697475
 21
58.12762344583155
 31
0.0
  0
LINE
  5
487
330
1F
100
AcDbEntity
  8
0
  6
SLD-Solid
 62
     7
370
    25
100
AcDbLine
 10
6.331742279697475
 20
58.72314884386357
 30
0.0
 11
6.328446724009376
 21
58.72729450246755
 31
0.0
  0
LINE
  5
488
330
1F
100
AcDbEntity
  8
0
  6
SLD-Solid
 62
     7
370
    25
100
AcDbLine
 10
6.331742279697475
 20
58.12762344583155
 30
0.0
 11
6.48495116832127
 21
58.31021068926633
 31
0.0
  0
LINE
  5
489
330
1F
100
AcDbEntity
  8
0
  6
SLD-Solid
 62
     7
370
    25
100
AcDbLine
 10
6.48495116832127
 20
58.54056160042879
 30
0.0
 11
6.331742279697475
 21
58.72314884386357
 31
0.0
  0
ARC
  5
48A
330
1F
100
AcDbEntity
  8
0
  6
SLD-Solid
 62
     7
370
    25
100
AcDbCircle
 10
6.408346724009373
 20
58.47628283946014
 30
0.0
 40
0.1000000000000002
100
AcDbArc
 50
0.0
 51
40.00000000000072
  0
ARC
  5
48B
330
1F
100
AcDbEntity
  8
0
  6
SLD-Solid
 62
     7
370
    25
100
AcDbCircle
 10
6.408346724009373
 20
58.37448945023498
 30
0.0
 40
0.0999999999999996
100
AcDbArc
 50
320.0000000000032
 51
0.0
  0
LINE
  5
48C
330
1F
100
AcDbEntity
  8
0
  6
SLD-Solid
 62
     7
370
    25
100
AcDbLine
 10
6.331586121893264
 20
63.99276479484754
 30
0.0
 11
6.331586121893263
 21
64.0027647948457
 31
0.0
  0
LINE
  5
48D
330
1F
100
AcDbEntity
  8
0
  6
SLD-Solid
 62
     7
370
    25
100
AcDbLine
 10
21.45658612189326
 20
63.99276479484754
 30
0.0
 11
6.331586121893264
 21
63.99276479484754
 31
0.0
  0
LINE
  5
48E
330
1F
100
AcDbEntity
  8
0
  6
SLD-Solid
 62
     7
370
    25
100
AcDbLine
 10
21.45658612189326
 20
64.0027647948457
 30
0.0
 11
21.45658612189326
 21
63.99276479484754
 31
0.0
  0
ARC
  5
48F
330
1F
100
AcDbEntity
  8
0
  6
SLD-Solid
 62
     7
370
    25
100
AcDbCircle
 10
21.20658612189327
 20
52.80119178265009
 30
0.0
 40
0.2499999999999964
100
AcDbArc
 50
296.6856564630824
 51
0.0
  0
ARC
  5
490
330
1F
100
AcDbEntity
  8
0
  6
SLD-Solid
 62
     7
370
    25
100
AcDbCircle
 10
6.581586121893264
 20
52.80119178265009
 30
0.0
 40
0.25
100
AcDbArc
 50
180.0
 51
243.3143385050852
  0
LINE
  5
491
330
1F
100
AcDbEntity
  8
0
  6
SLD-Solid
 62
     7
370
    25
100
AcDbLine
 10
6.331586121893264
 20
63.99276479484754
 30
0.0
 11
6.331586121893264
 21
63.07654694671487
 31
0.0
  0
LINE
  5
492
330
1F
100
AcDbEntity
  8
0
  6
SLD-Solid
 62
     7
370
    25
100
AcDbLine
 10
6.331586121893264
 20
54.09330419996884
 30
0.0
 11
6.331586121893264
 21
52.80119178265009
 31
0.0
  0
LINE
  5
493
330
1F
100
AcDbEntity
  8
0
  6
SLD-Solid
 62
     7
370
    25
100
AcDbLine
 10
21.45658612189326
 20
63.99276479484754
 30
0.0
 11
21.45658612189326
 21
63.07654694288793
 31
0.0
  0
LINE
  5
494
330
1F
100
AcDbEntity
  8
0
  6
SLD-Solid
 62
     7
370
    25
100
AcDbLine
 10
21.45658612189326
 20
54.09330420379579
 30
0.0
 11
21.45658612189326
 21
52.80119178265009
 31
0.0
  0
LINE
  5
495
330
1F
100
AcDbEntity
  8
0
  6
SLD-Solid
 62
     7
370
    25
100
AcDbLine
 10
21.27982551977593
 20
58.47628283946014
 30
0.0
 11
21.27982551977593
 21
58.37448945023498
 31
0.0
  0
LINE
  5
496
330
1F
100
AcDbEntity
  8
0
  6
SLD-Solid
 62
     7
370
    25
100
AcDbLine
 10
21.2625842183448
 20
59.08799091055481
 30
0.0
 11
21.2625842183448
 21
57.76278137914032
 31
0.0
  0
ARC
  5
497
330
1F
100
AcDbEntity
  8
0
  6
SLD-Solid
 62
     7
370
    25
100
AcDbCircle
 10
21.3875842183448
 20
59.08799091055481
 30
0.0
 40
0.1250000000000015
100
AcDbArc
 50
161.4389070566485
 51
180.0
  0
ARC
  5
498
330
1F
100
AcDbEntity
  8
0
  6
SLD-Solid
 62
     7
370
    25
100
AcDbCircle
 10
21.3875842183448
 20
57.76278137914032
 30
0.0
 40
0.1250000000000004
100
AcDbArc
 50
180.0
 51
198.5610929433662
  0
LINE
  5
499
330
1F
100
AcDbEntity
  8
0
  6
SLD-Solid
 62
     7
370
    25
100
AcDbLine
 10
6.508346724009373
 20
58.47628283946014
 30
0.0
 11
6.508346724009373
 21
58.37448945023498
 31
0.0
  0
ARC
  5
49A
330
1F
100
AcDbEntity
  8
0
  6
SLD-Solid
 62
     7
370
    25
100
AcDbCircle
 10
6.400588025440497
 20
59.08799091055481
 30
0.0
 40
0.1250000000000009
100
AcDbArc
 50
0.0
 51
18.56109696437108
  0
LINE
  5
49B
330
1F
100
AcDbEntity
  8
0
  6
SLD-Solid
 62
     7
370
    25
100
AcDbLine
 10
6.525588025440498
 20
59.08799091055481
 30
0.0
 11
6.525588025440498
 21
57.76278137914032
 31
0.0
  0
ARC
  5
49C
330
1F
100
AcDbEntity
  8
0
  6
SLD-Solid
 62
     7
370
    25
100
AcDbCircle
 10
6.400588025440497
 20
57.76278137914032
 30
0.0
 40
0.1250000000000009
100
AcDbArc
 50
341.4389030356745
 51
0.0
  0
LINE
  5
49D
330
1F
100
AcDbEntity
  8
0
  6
SLD-Solid
 62
     7
370
    25
100
AcDbLine
 10
15.39408612189123
 20
64.23276479484753
 30
0.0
 11
12.3940861218912
 21
64.23276479484753
 31
0.0
  0
LINE
  5
49E
330
1F
100
AcDbEntity
  8
0
  6
SLD-Solid
 62
     7
370
    25
100
AcDbLine
 10
6.331586121891171
 20
64.00276479484579
 30
0.0
 11
21.45658612189129
 21
64.00276479484579
 31
0.0
  0
LINE
  5
49F
330
1F
100
AcDbEntity
  8
0
  6
SLD-Solid
 62
     7
370
    25
100
AcDbLine
 10
6.331586121891162
 20
64.16246037069313
 30
0.0
 11
6.331586121891171
 21
64.00276479484579
 31
0.0
  0
LINE
  5
4A0
330
1F
100
AcDbEntity
  8
0
  6
SLD-Solid
 62
     7
370
    25
100
AcDbLine
 10
6.331586121891162
 20
64.16246037069313
 30
0.0
 11
21.45658612189129
 21
64.16246037069313
 31
0.0
  0
LINE
  5
4A1
330
1F
100
AcDbEntity
  8
0
  6
SLD-Solid
 62
     7
370
    25
100
AcDbLine
 10
21.45658612189129
 20
64.00276479484579
 30
0.0
 11
21.45658612189129
 21
64.16246037069313
 31
0.0
  0
ARC
  5
4A2
330
1F
100
AcDbEntity
  8
0
  6
SLD-Solid
 62
     7
370
    25
100
AcDbCircle
 10
6.519560879609601
 20
63.57787924577913
 30
0.0
 40
0.7360667381467773
100
AcDbArc
 50
85.16619396416678
 51
104.7959448232395
  0
LINE
  5
4A3
330
1F
100
AcDbEntity
  8
0
  6
SLD-Solid
 62
     7
370
    25
100
AcDbLine
 10
6.581586121891164
 20
64.31132802539905
 30
0.0
 11
12.1440861218912
 21
64.31132802539905
 31
0.0
  0
ARC
  5
4A4
330
1F
100
AcDbEntity
  8
0
  6
SLD-Solid
 62
     7
370
    25
100
AcDbCircle
 10
12.20611136417276
 20
63.57787924577915
 30
0.0
 40
0.7360667381467563
100
AcDbArc
 50
75.20405517676011
 51
94.83380603583309
  0
LINE
  5
4A5
330
1F
100
AcDbEntity
  8
0
  6
SLD-Solid
 62
     7
370
    25
100
AcDbLine
 10
12.3940861218912
 20
64.28953908971212
 30
0.0
 11
12.3940861218912
 21
64.20238334696447
 31
0.0
  0
ARC
  5
4A6
330
1F
100
AcDbEntity
  8
0
  6
SLD-Solid
 62
     7
370
    25
100
AcDbCircle
 10
12.58206087960957
 20
64.91404319089763
 30
0.0
 40
0.7360667381469247
100
AcDbArc
 50
255.2040551767698
 51
274.8338060358383
  0
LINE
  5
4A7
330
1F
100
AcDbEntity
  8
0
  6
SLD-Solid
 62
     7
370
    25
100
AcDbLine
 10
12.6440861218912
 20
64.18059441127757
 30
0.0
 11
15.14408612189123
 21
64.18059441127757
 31
0.0
  0
ARC
  5
4A8
330
1F
100
AcDbEntity
  8
0
  6
SLD-Solid
 62
     7
370
    25
100
AcDbCircle
 10
15.20611136417285
 20
64.91404319089769
 30
0.0
 40
0.7360667381469813
100
AcDbArc
 50
265.1661939641643
 51
284.7959448232312
  0
LINE
  5
4A9
330
1F
100
AcDbEntity
  8
0
  6
SLD-Solid
 62
     7
370
    25
100
AcDbLine
 10
15.39408612189123
 20
64.20238334696447
 30
0.0
 11
15.39408612189122
 21
64.28953908971212
 31
0.0
  0
ARC
  5
4AA
330
1F
100
AcDbEntity
  8
0
  6
SLD-Solid
 62
     7
370
    25
100
AcDbCircle
 10
15.58206087960967
 20
63.57787924577908
 30
0.0
 40
0.7360667381468278
100
AcDbArc
 50
85.16619396416738
 51
104.7959448232393
  0
LINE
  5
4AB
330
1F
100
AcDbEntity
  8
0
  6
SLD-Solid
 62
     7
370
    25
100
AcDbLine
 10
15.64408612189123
 20
64.31132802539905
 30
0.0
 11
21.20658612189129
 21
64.31132802539905
 31
0.0
  0
ARC
  5
4AC
330
1F
100
AcDbEntity
  8
0
  6
SLD-Solid
 62
     7
370
    25
100
AcDbCircle
 10
21.26861136417283
 20
63.57787924577877
 30
0.0
 40
0.73606673814713
100
AcDbArc
 50
75.2040551767648
 51
94.83380603582953
  0
LINE
  5
4AD
330
1F
100
AcDbEntity
  8
0
  6
SLD-Solid
 62
     7
370
    25
100
AcDbLine
 10
21.45658612189131
 20
64.28953908971212
 30
0.0
 11
21.45658612189129
 21
64.16246037069313
 31
0.0
  0
LINE
  5
4AE
330
1F
100
AcDbEntity
  8
0
  6
SLD-Solid
 62
     7
370
    25
100
AcDbLine
 10
6.331586121891162
 20
64.16246037069313
 30
0.0
 11
6.331586121891162
 21
64.28953908971212
 31
0.0
  0
LINE
  5
4AF
330
1F
100
AcDbEntity
  8
0
  6
SLD-Solid
 62
     7
370
    25
100
AcDbLine
 10
21.53972551977732
 20
53.02057576833037
 30
0.0
 11
21.53972551977724
 21
63.89927537835407
 31
0.0
  0
LINE
  5
4B0
330
1F
100
AcDbEntity
  8
0
  6
SLD-Solid
 62
     7
370
    25
100
AcDbLine
 10
21.45972551977732
 20
53.02057576833032
 30
0.0
 11
21.53972551977732
 21
53.02057576833037
 31
0.0
  0
LINE
  5
4B1
330
1F
100
AcDbEntity
  8
0
  6
SLD-Solid
 62
     7
370
    25
100
AcDbLine
 10
21.45972551977732
 20
53.02057576833032
 30
0.0
 11
21.45972551977724
 21
63.89927537835403
 31
0.0
  0
LINE
  5
4B2
330
1F
100
AcDbEntity
  8
0
  6
SLD-Solid
 62
     7
370
    25
100
AcDbLine
 10
21.53972551977724
 20
63.89927537835407
 30
0.0
 11
21.45972551977724
 21
63.89927537835403
 31
0.0
  0
LINE
  5
4B3
330
1F
100
AcDbEntity
  8
0
  6
SLD-Solid
 62
     7
370
    25
100
AcDbLine
 10
6.870386514104858
 20
52.4912367654518
 30
0.0
 11
20.91778572688787
 21
52.49123676545185
 31
0.0
  0
LINE
  5
4B4
330
1F
100
AcDbEntity
  8
0
  6
SLD-Solid
 62
     7
370
    25
100
AcDbLine
 10
6.870386514104849
 20
52.5712367654518
 30
0.0
 11
6.870386514104858
 21
52.4912367654518
 31
0.0
  0
LINE
  5
4B5
330
1F
100
AcDbEntity
  8
0
  6
SLD-Solid
 62
     7
370
    25
100
AcDbLine
 10
6.870386514104849
 20
52.5712367654518
 30
0.0
 11
20.91778572688787
 21
52.57123676545185
 31
0.0
  0
LINE
  5
4B6
330
1F
100
AcDbEntity
  8
0
  6
SLD-Solid
 62
     7
370
    25
100
AcDbLine
 10
20.91778572688787
 20
52.49123676545185
 30
0.0
 11
20.91778572688787
 21
52.57123676545185
 31
0.0
  0
LINE
  5
4B7
330
1F
100
AcDbEntity
  8
0
  6
SLD-Solid
 62
     7
370
    25
100
AcDbLine
 10
6.328446724009371
 20
63.89927538003037
 30
0.0
 11
6.328446724009376
 21
53.02057577112426
 31
0.0
  0
LINE
  5
4B8
330
1F
100
AcDbEntity
  8
0
  6
SLD-Solid
 62
     7
370
    25
100
AcDbLine
 10
6.248446724009374
 20
53.02057577112429
 30
0.0
 11
6.328446724009376
 21
53.02057577112426
 31
0.0
  0
LINE
  5
4B9
330
1F
100
AcDbEntity
  8
0
  6
SLD-Solid
 62
     7
370
    25
100
AcDbLine
 10
6.248446724009369
 20
63.8992753800304
 30
0.0
 11
6.248446724009374
 21
53.02057577112429
 31
0.0
  0
LINE
  5
4BA
330
1F
100
AcDbEntity
  8
0
  6
SLD-Solid
 62
     7
370
    25
100
AcDbLine
 10
6.328446724009371
 20
63.89927538003037
 30
0.0
 11
6.248446724009369
 21
63.8992753800304
 31
0.0
  0
LINE
  5
4BB
330
1F
100
AcDbEntity
  8
0
  6
SLD-Solid
 62
     7
370
    25
100
AcDbLine
 10
21.25972551977732
 20
52.52123676545185
 30
0.0
 11
21.25972551977733
 21
52.49123676545185
 31
0.0
  0
LINE
  5
4BC
330
1F
100
AcDbEntity
  8
0
  6
SLD-Solid
 62
     7
370
    25
100
AcDbLine
 10
21.25972551977733
 20
52.49123676545185
 30
0.0
 11
20.91778572688787
 21
52.49123676545185
 31
0.0
  0
LINE
  5
4BD
330
1F
100
AcDbEntity
  8
0
  6
SLD-Solid
 62
     7
370
    25
100
AcDbLine
 10
21.25972551977732
 20
52.52123676545185
 30
0.0
 11
20.91778572688787
 21
52.52123676545185
 31
0.0
  0
ARC
  5
4BE
330
1F
100
AcDbEntity
  8
0
  6
SLD-Solid
 62
     7
370
    25
100
AcDbCircle
 10
21.25972551977732
 20
52.77123676545185
 30
0.0
 40
0.2500000000000071
100
AcDbArc
 50
270.0000000000008
 51
0.0000000000016284
  0
LINE
  5
4BF
330
1F
100
AcDbEntity
  8
0
  6
SLD-Solid
 62
     7
370
    25
100
AcDbLine
 10
21.50972551977732
 20
52.77123676545186
 30
0.0
 11
21.53972551977732
 21
52.77123676545186
 31
0.0
  0
ARC
  5
4C0
330
1F
100
AcDbEntity
  8
0
  6
SLD-Solid
 62
     7
370
    25
100
AcDbCircle
 10
21.25972551977732
 20
52.77123676545185
 30
0.0
 40
0.2800000000000011
100
AcDbArc
 50
270.0000000000015
 51
0.000000000001454
  0
LINE
  5
4C1
330
1F
100
AcDbEntity
  8
0
  6
SLD-Solid
 62
     7
370
    25
100
AcDbLine
 10
21.50972551977732
 20
53.02057576833037
 30
0.0
 11
21.50972551977732
 21
52.77123676545186
 31
0.0
  0
LINE
  5
4C2
330
1F
100
AcDbEntity
  8
0
  6
SLD-Solid
 62
     7
370
    25
100
AcDbLine
 10
21.53972551977732
 20
53.02057576833037
 30
0.0
 11
21.53972551977732
 21
52.77123676545186
 31
0.0
  0
LINE
  5
4C3
330
1F
100
AcDbEntity
  8
0
  6
SLD-Solid
 62
     7
370
    25
100
AcDbLine
 10
6.278446724009371
 20
52.77123676545181
 30
0.0
 11
6.248446724009374
 21
52.77123676545181
 31
0.0
  0
LINE
  5
4C4
330
1F
100
AcDbEntity
  8
0
  6
SLD-Solid
 62
     7
370
    25
100
AcDbLine
 10
6.248446724009374
 20
52.77123676545181
 30
0.0
 11
6.248446724009374
 21
53.02057577112429
 31
0.0
  0
LINE
  5
4C5
330
1F
100
AcDbEntity
  8
0
  6
SLD-Solid
 62
     7
370
    25
100
AcDbLine
 10
6.278446724009371
 20
52.77123676545181
 30
0.0
 11
6.278446724009376
 21
53.02057577112429
 31
0.0
  0
LINE
  5
4C6
330
1F
100
AcDbEntity
  8
0
  6
SLD-Solid
 62
     7
370
    25
100
AcDbLine
 10
6.528446724009374
 20
52.5212367654518
 30
0.0
 11
6.528446724009374
 21
52.4912367654518
 31
0.0
  0
LINE
  5
4C7
330
1F
100
AcDbEntity
  8
0
  6
SLD-Solid
 62
     7
370
    25
100
AcDbLine
 10
6.870386514104849
 20
52.4912367654518
 30
0.0
 11
6.528446724009374
 21
52.4912367654518
 31
0.0
  0
LINE
  5
4C8
330
1F
100
AcDbEntity
  8
0
  6
SLD-Solid
 62
     7
370
    25
100
AcDbLine
 10
6.870386514104849
 20
52.5212367654518
 30
0.0
 11
6.528446724009374
 21
52.5212367654518
 31
0.0
  0
ARC
  5
4C9
330
1F
100
AcDbEntity
  8
0
  6
SLD-Solid
 62
     7
370
    25
100
AcDbCircle
 10
6.528446724009374
 20
52.7712367654518
 30
0.0
 40
0.2500000000000027
100
AcDbArc
 50
179.9999999999967
 51
270.0000000000008
  0
ARC
  5
4CA
330
1F
100
AcDbEntity
  8
0
  6
SLD-Solid
 62
     7
370
    25
100
AcDbCircle
 10
6.528446724009374
 20
52.7712367654518
 30
0.0
 40
0.2800000000000002
100
AcDbArc
 50
179.9999999999971
 51
270.0000000000008
  0
ARC
  5
4CB
330
1F
100
AcDbEntity
  8
0
  6
SLD-Solid
 62
     7
370
    25
100
AcDbCircle
 10
21.26796522974697
 20
52.77123676545164
 30
0.0
 40
0.230000000000004
100
AcDbArc
 50
270.0000000000008
 51
0.0
  0
LINE
  5
4CC
330
1F
100
AcDbEntity
  8
0
  6
SLD-Solid
 62
     7
370
    25
100
AcDbLine
 10
21.26796522974697
 20
52.54123676545164
 30
0.0
 11
21.26796522974697
 21
52.57123676545164
 31
0.0
  0
LINE
  5
4CD
330
1F
100
AcDbEntity
  8
0
  6
SLD-Solid
 62
     7
370
    25
100
AcDbLine
 10
21.46796522974697
 20
52.7712367654516
 30
0.0
 11
21.49796522974697
 21
52.77123676545164
 31
0.0
  0
ARC
  5
4CE
330
1F
100
AcDbEntity
  8
0
  6
SLD-Solid
 62
     7
370
    25
100
AcDbCircle
 10
21.26796522974697
 20
52.77123676545164
 30
0.0
 40
0.1999999999999957
100
AcDbArc
 50
270.0000000000008
 51
359.9999999999886
  0
LINE
  5
4CF
330
1F
100
AcDbEntity
  8
0
  6
SLD-Solid
 62
     7
370
    25
100
AcDbLine
 10
20.91778572688787
 20
52.54123676545185
 30
0.0
 11
21.26796522974697
 21
52.54123676545164
 31
0.0
  0
LINE
  5
4D0
330
1F
100
AcDbEntity
  8
0
  6
SLD-Solid
 62
     7
370
    25
100
AcDbLine
 10
20.91778572688787
 20
52.57123676545185
 30
0.0
 11
21.26796522974697
 21
52.57123676545164
 31
0.0
  0
LINE
  5
4D1
330
1F
100
AcDbEntity
  8
0
  6
SLD-Solid
 62
     7
370
    25
100
AcDbLine
 10
21.497965229747
 20
52.97023676545165
 30
0.0
 11
21.46796522974699
 21
52.97023676545164
 31
0.0
  0
LINE
  5
4D2
330
1F
100
AcDbEntity
  8
0
  6
SLD-Solid
 62
     7
370
    25
100
AcDbLine
 10
21.497965229747
 20
52.97023676545165
 30
0.0
 11
21.49796522974697
 21
52.77123676545164
 31
0.0
  0
LINE
  5
4D3
330
1F
100
AcDbEntity
  8
0
  6
SLD-Solid
 62
     7
370
    25
100
AcDbLine
 10
21.46796522974699
 20
52.97023676545164
 30
0.0
 11
21.46796522974697
 21
52.7712367654516
 31
0.0
  0
LINE
  5
4D4
330
1F
100
AcDbEntity
  8
0
  6
SLD-Solid
 62
     7
370
    25
100
AcDbLine
 10
6.520207014039729
 20
52.54123676545137
 30
0.0
 11
6.520207014039729
 21
52.57123676545137
 31
0.0
  0
LINE
  5
4D5
330
1F
100
AcDbEntity
  8
0
  6
SLD-Solid
 62
     7
370
    25
100
AcDbLine
 10
6.870386516898835
 20
52.54123676545139
 30
0.0
 11
6.520207014039729
 21
52.54123676545137
 31
0.0
  0
LINE
  5
4D6
330
1F
100
AcDbEntity
  8
0
  6
SLD-Solid
 62
     7
370
    25
100
AcDbLine
 10
6.870386514104849
 20
52.5712367654518
 30
0.0
 11
6.520207014039729
 21
52.57123676545137
 31
0.0
  0
LINE
  5
4D7
330
1F
100
AcDbEntity
  8
0
  6
SLD-Solid
 62
     7
370
    25
100
AcDbLine
 10
6.290207014039715
 20
52.97023676545136
 30
0.0
 11
6.320207014039717
 21
52.97023676545133
 31
0.0
  0
LINE
  5
4D8
330
1F
100
AcDbEntity
  8
0
  6
SLD-Solid
 62
     7
370
    25
100
AcDbLine
 10
6.320207014039717
 20
52.97023676545133
 30
0.0
 11
6.320207014039725
 21
52.77123676545133
 31
0.0
  0
LINE
  5
4D9
330
1F
100
AcDbEntity
  8
0
  6
SLD-Solid
 62
     7
370
    25
100
AcDbLine
 10
6.320207014039725
 20
52.77123676545133
 30
0.0
 11
6.290207014039724
 21
52.77123676545137
 31
0.0
  0
LINE
  5
4DA
330
1F
100
AcDbEntity
  8
0
  6
SLD-Solid
 62
     7
370
    25
100
AcDbLine
 10
6.290207014039715
 20
52.97023676545136
 30
0.0
 11
6.290207014039724
 21
52.77123676545137
 31
0.0
  0
ARC
  5
4DB
330
1F
100
AcDbEntity
  8
0
  6
SLD-Solid
 62
     7
370
    25
100
AcDbCircle
 10
6.520207014039724
 20
52.77123676545137
 30
0.0
 40
0.1999999999999993
100
AcDbArc
 50
180.000000000013
 51
270.0000000000021
  0
ARC
  5
4DC
330
1F
100
AcDbEntity
  8
0
  6
SLD-Solid
 62
     7
370
    25
100
AcDbCircle
 10
6.520207014039724
 20
52.77123676545137
 30
0.0
 40
0.2300000000000004
100
AcDbArc
 50
180.0
 51
270.0000000000019
  0
LINE
  5
4DD
330
1F
100
AcDbEntity
  8
0
  6
SLD-Solid
 62
     7
370
    25
100
AcDbLine
 10
6.248446724009374
 20
63.9192753800304
 30
0.0
 11
6.278446724009371
 21
63.9192753800304
 31
0.0
  0
LINE
  5
4DE
330
1F
100
AcDbEntity
  8
0
  6
SLD-Solid
 62
     7
370
    25
100
AcDbLine
 10
6.248446724009374
 20
63.9192753800304
 30
0.0
 11
6.248446724009369
 21
63.8992753800304
 31
0.0
  0
LINE
  5
4DF
330
1F
100
AcDbEntity
  8
0
  6
SLD-Solid
 62
     7
370
    25
100
AcDbLine
 10
6.278446724009371
 20
63.9192753800304
 30
0.0
 11
6.278446724009367
 21
63.8992753800304
 31
0.0
  0
LINE
  5
4E0
330
1F
100
AcDbEntity
  8
0
  6
SLD-Solid
 62
     7
370
    25
100
AcDbLine
 10
21.53972551977727
 20
63.91927537835408
 30
0.0
 11
21.50972551977726
 21
63.91927537835408
 31
0.0
  0
LINE
  5
4E1
330
1F
100
AcDbEntity
  8
0
  6
SLD-Solid
 62
     7
370
    25
100
AcDbLine
 10
21.50972551977724
 20
63.89927537835408
 30
0.0
 11
21.50972551977726
 21
63.91927537835408
 31
0.0
  0
LINE
  5
4E2
330
1F
100
AcDbEntity
  8
0
  6
SLD-Solid
 62
     7
370
    25
100
AcDbLine
 10
21.53972551977724
 20
63.89927537835408
 30
0.0
 11
21.53972551977727
 21
63.91927537835408
 31
0.0
  0
LINE
  5
4E3
330
1F
100
AcDbEntity
  8
0
  6
SLD-Solid
 62
     7
370
    25
100
AcDbLine
 10
6.331586121891171
 20
64.06276479484755
 30
0.0
 11
6.318446724009371
 21
64.06276479484752
 31
0.0
  0
LINE
  5
4E4
330
1F
100
AcDbEntity
  8
0
  6
SLD-Solid
 62
     7
370
    25
100
AcDbLine
 10
6.331586121891171
 20
64.03276479484755
 30
0.0
 11
6.318446724009376
 21
64.03276479484751
 31
0.0
  0
LINE
  5
4E5
330
1F
100
AcDbEntity
  8
0
  6
SLD-Solid
 62
     7
370
    25
100
AcDbLine
 10
6.318446724009376
 20
64.03276479484751
 30
0.0
 11
6.318446724009371
 21
64.06276479484752
 31
0.0
  0
LINE
  5
4E6
330
1F
100
AcDbEntity
  8
0
  6
SLD-Solid
 62
     7
370
    25
100
AcDbLine
 10
6.278446724009371
 20
63.99276479484757
 30
0.0
 11
6.248446724009374
 21
63.99276479484757
 31
0.0
  0
LINE
  5
4E7
330
1F
100
AcDbEntity
  8
0
  6
SLD-Solid
 62
     7
370
    25
100
AcDbLine
 10
6.248446724009374
 20
63.99276479484757
 30
0.0
 11
6.248446724009374
 21
63.9192753800304
 31
0.0
  0
LINE
  5
4E8
330
1F
100
AcDbEntity
  8
0
  6
SLD-Solid
 62
     7
370
    25
100
AcDbLine
 10
6.278446724009371
 20
63.99276479484757
 30
0.0
 11
6.278446724009371
 21
63.9192753800304
 31
0.0
  0
ARC
  5
4E9
330
1F
100
AcDbEntity
  8
0
  6
SLD-Solid
 62
     7
370
    25
100
AcDbCircle
 10
6.318446724009371
 20
63.99276479484752
 30
0.0
 40
0.04
100
AcDbArc
 50
89.99999999999363
 51
179.9999999999186
  0
ARC
  5
4EA
330
1F
100
AcDbEntity
  8
0
  6
SLD-Solid
 62
     7
370
    25
100
AcDbCircle
 10
6.318446724009371
 20
63.99276479484752
 30
0.0
 40
0.0700000000000074
100
AcDbArc
 50
90.0
 51
179.9999999999535
  0
ARC
  5
4EB
330
1F
100
AcDbEntity
  8
0
  6
SLD-Solid
 62
     7
370
    25
100
AcDbCircle
 10
21.46972551977724
 20
63.99276479205358
 30
0.0
 40
0.0700000000000003
100
AcDbArc
 50
0.0000000000407111
 51
90.00000000000291
  0
LINE
  5
4EC
330
1F
100
AcDbEntity
  8
0
  6
SLD-Solid
 62
     7
370
    25
100
AcDbLine
 10
21.50972551977724
 20
63.99276479205363
 30
0.0
 11
21.53972551977724
 21
63.99276479205363
 31
0.0
  0
ARC
  5
4ED
330
1F
100
AcDbEntity
  8
0
  6
SLD-Solid
 62
     7
370
    25
100
AcDbCircle
 10
21.46972551977724
 20
63.99276479205358
 30
0.0
 40
0.0400000000000134
100
AcDbArc
 50
0.0000000000756518
 51
90.0
  0
LINE
  5
4EE
330
1F
100
AcDbEntity
  8
0
  6
SLD-Solid
 62
     7
370
    25
100
AcDbLine
 10
21.46972551977724
 20
64.0327647920536
 30
0.0
 11
21.46972551977724
 21
64.06276479205358
 31
0.0
  0
LINE
  5
4EF
330
1F
100
AcDbEntity
  8
0
  6
SLD-Solid
 62
     7
370
    25
100
AcDbLine
 10
21.50972551977726
 20
63.91927537835408
 30
0.0
 11
21.50972551977724
 21
63.99276479205363
 31
0.0
  0
LINE
  5
4F0
330
1F
100
AcDbEntity
  8
0
  6
SLD-Solid
 62
     7
370
    25
100
AcDbLine
 10
21.53972551977727
 20
63.91927537835408
 30
0.0
 11
21.53972551977724
 21
63.99276479205363
 31
0.0
  0
LINE
  5
4F1
330
1F
100
AcDbEntity
  8
0
  6
SLD-Solid
 62
     7
370
    25
100
AcDbLine
 10
21.46972551977724
 20
64.0327647920536
 30
0.0
 11
21.45658612189129
 21
64.03276479205364
 31
0.0
  0
LINE
  5
4F2
330
1F
100
AcDbEntity
  8
0
  6
SLD-Solid
 62
     7
370
    25
100
AcDbLine
 10
21.46972551977724
 20
64.06276479205358
 30
0.0
 11
21.45658612189129
 21
64.06276479205364
 31
0.0
  0
LINE
  5
4F3
330
1F
100
AcDbEntity
  8
0
  6
SLD-Solid
 62
     7
370
    25
100
AcDbLine
 10
6.328446724009376
 20
53.02855637283637
 30
0.0
 11
6.331586121893264
 21
53.02855812753579
 31
0.0
  0
LINE
  5
4F4
330
1F
100
AcDbEntity
  8
0
  6
SLD-Solid
 62
     7
370
    25
100
AcDbLine
 10
6.331586121893264
 20
63.8983198671018
 30
0.0
 11
6.328446724009371
 21
63.8983198671018
 31
0.0
  0
LINE
  5
4F5
330
1F
100
AcDbEntity
  8
0
  6
SLD-Solid
 62
     7
370
    25
100
AcDbLine
 10
21.45972551977724
 20
63.89831986654305
 30
0.0
 11
21.45658612189326
 21
63.89831986654305
 31
0.0
  0
LINE
  5
4F6
330
1F
100
AcDbEntity
  8
0
  6
SLD-Solid
 62
     7
370
    25
100
AcDbLine
 10
21.45658612189326
 20
53.02870628386589
 30
0.0
 11
21.45972551977732
 21
53.02870628386589
 31
0.0
  0
SPLINE
  5
4F7
330
1F
100
AcDbEntity
  8
0
  6
SLD-Solid
 62
     8
370
    25
100
AcDbSpline
210
0.0
220
0.0
230
1.0
 70
    28
 71
     3
 72
     9
 73
     5
 74
     0
 42
0.00000001
 43
0.00000001
 40
0.0
 40
0.0
 40
0.0
 40
0.0
 40
0.9567691468499335
 40
1.0
 40
1.0
 40
1.0
 40
1.0
 10
6.519086120496379
 20
58.45992557334188
 30
0.0
 41
1.0
 10
6.518718012801191
 20
58.45992557334188
 30
0.0
 41
1.0
 10
6.518333272452488
 20
58.45992557334189
 30
0.0
 41
1.0
 10
6.508760560513456
 20
58.45992557334188
 30
0.0
 41
1.0
 10
6.508346724009373
 20
58.45992557334188
 30
0.0
 41
1.0
  0
LINE
  5
4F8
330
1F
100
AcDbEntity
  8
0
  6
SLD-Solid
 62
     8
370
    25
100
AcDbLine
 10
6.519086120496325
 20
62.88492557334187
 30
0.0
 11
6.328446724009376
 21
62.88492557334187
 31
0.0
  0
LINE
  5
4F9
330
1F
100
AcDbEntity
  8
0
  6
SLD-Solid
 62
     8
370
    25
100
AcDbLine
 10
6.519086120496408
 20
54.28492557334188
 30
0.0
 11
6.328446724009376
 21
54.28492557334188
 31
0.0
  0
LINE
  5
4FA
330
1F
100
AcDbEntity
  8
0
  6
SLD-Solid
 62
     8
370
    25
100
AcDbLine
 10
21.1940861204965
 20
62.95992557334198
 30
0.0
 11
21.19408612049649
 21
63.20992557334197
 31
0.0
  0
LINE
  5
4FB
330
1F
100
AcDbEntity
  8
0
  6
SLD-Solid
 62
     8
370
    25
100
AcDbLine
 10
6.594086120496343
 20
62.95992557334187
 30
0.0
 11
6.594086120496341
 21
63.20992557334187
 31
0.0
  0
LINE
  5
4FC
330
1F
100
AcDbEntity
  8
0
  6
SLD-Solid
 62
     8
370
    25
100
AcDbLine
 10
21.26908612049655
 20
54.28492557334198
 30
0.0
 11
21.45972551977731
 21
54.28492557334198
 31
0.0
  0
LINE
  5
4FD
330
1F
100
AcDbEntity
  8
0
  6
SLD-Solid
 62
     8
370
    25
100
AcDbLine
 10
21.26908612049649
 20
62.88492557334197
 30
0.0
 11
21.45972551977725
 21
62.88492557334197
 31
0.0
  0
LINE
  5
4FE
330
1F
100
AcDbEntity
  8
0
  6
SLD-Solid
 62
     8
370
    25
100
AcDbLine
 10
21.19408612049655
 20
54.20992557334198
 30
0.0
 11
21.19408612049655
 21
53.95992557334198
 31
0.0
  0
LINE
  5
4FF
330
1F
100
AcDbEntity
  8
0
  6
SLD-Solid
 62
     8
370
    25
100
AcDbLine
 10
6.5940861204964
 20
54.20992557334188
 30
0.0
 11
6.594086120496402
 21
53.95992557334188
 31
0.0
  0
LINE
  5
500
330
1F
100
AcDbEntity
  8
0
  6
SLD-Solid
 62
     8
370
    25
100
AcDbLine
 10
21.45642996408782
 20
58.72314884386357
 30
0.0
 11
21.45642996408782
 21
58.12762344583155
 31
0.0
  0
LINE
  5
501
330
1F
100
AcDbEntity
  8
0
  6
SLD-Solid
 62
     8
370
    25
100
AcDbLine
 10
21.30322107546403
 20
58.31021068926633
 30
0.0
 11
21.30322107546403
 21
58.54056160042879
 31
0.0
  0
LINE
  5
502
330
1F
100
AcDbEntity
  8
0
  6
SLD-Solid
 62
     8
370
    25
100
AcDbLine
 10
21.26908612049653
 20
57.76278137914032
 30
0.0
 11
21.2625842183448
 21
57.76278137914032
 31
0.0
  0
LINE
  5
503
330
1F
100
AcDbEntity
  8
0
  6
SLD-Solid
 62
     8
370
    25
100
AcDbLine
 10
21.26908612049652
 20
59.08799091055481
 30
0.0
 11
21.2625842183448
 21
59.08799091055481
 31
0.0
  0
LINE
  5
504
330
1F
100
AcDbEntity
  8
0
  6
SLD-Solid
 62
     8
370
    25
100
AcDbLine
 10
6.331742279697475
 20
58.72314884386357
 30
0.0
 11
6.331742279697475
 21
58.12762344583155
 31
0.0
  0
LINE
  5
505
330
1F
100
AcDbEntity
  8
0
  6
SLD-Solid
 62
     8
370
    25
100
AcDbLine
 10
6.48495116832127
 20
58.31021068926633
 30
0.0
 11
6.48495116832127
 21
58.54056160042879
 31
0.0
  0
LINE
  5
506
330
1F
100
AcDbEntity
  8
0
  6
SLD-Solid
 62
     8
370
    25
100
AcDbLine
 10
6.51908612049635
 20
59.08799091055481
 30
0.0
 11
6.525588025440498
 21
59.08799091055481
 31
0.0
  0
LINE
  5
507
330
1F
100
AcDbEntity
  8
0
  6
SLD-Solid
 62
     8
370
    25
100
AcDbLine
 10
6.519086120496382
 20
57.76278137914032
 30
0.0
 11
6.525588025440498
 21
57.76278137914032
 31
0.0
  0
DIMENSION
  5
508
330
1F
100
AcDbEntity
  8
OBJECT
100
AcDbDimension
  2
_D_7
 10
21.53972551977732
 20
50.91633420639651
 30
0.0
 11
13.34740498190005
 21
50.91633420639651
 31
0.0
 70
    32
  1
<>
 71
     2
 42
-1.0
  3
SLDDIMSTYLE1
100
AcDbAlignedDimension
 13
6.248446724009374
 23
52.77123676545172
 33
0.0
 14
21.53972551977732
 24
52.77123676545177
 34
0.0
 50
0.0000000000000532
100
AcDbRotatedDimension
  0
MTEXT
  5
517
330
1F
100
AcDbEntity
  8
NOTES
100
AcDbMText
 10
7.300935117328653
 20
52.32864614516937
 30
0.0
 40
0.5
 41
0.0
 71
     1
 72
     1
  1
Top view
  7
SLDTEXTSTYLE1
 73
     1
 44
1.0
  0
MTEXT
  5
518
330
1F
100
AcDbEntity
  8
DIMS
100
AcDbMText
 10
21.92573756862301
 20
65.5225905199716
 30
0.0
 40
0.5
 41
0.0
 71
     1
 72
     1
  1
bag holder apparatus
  7
SLDTEXTSTYLE1
 73
     1
 44
1.0
  0
LEADER
  5
519
330
1F
100
AcDbEntity
  8
DIMS
100
AcDbLeader
  3
SLDDIMSTYLE3
 76
     3
 10
20.0551042158027
 20
63.20992557334188
 30
0.0
 10
21.40452755905513
 20
65.276574806171
 30
0.0
 10
21.90452755905512
 20
65.276574806171
 30
0.0
1001
ACAD
1000
DSTYLE
1002
{
1070
   176
1070
     0
1070
    77
1070
     0
1070
    40
1040
1.0
1070
   147
1040
0.0
1002
}
  0
MTEXT
  5
51D
330
1F
100
AcDbEntity
  8
NOTES
100
AcDbMText
 10
60.2661315570167
 20
4.98650087456716
 30
0.0
 40
0.2916666666666666
 41
0.0
 71
     1
 72
     1
  1
FROST PRODUCTS LTD.
  7
SLDTEXTSTYLE0
 73
     1
 44
1.0
  0
MTEXT
  5
51E
330
1F
100
AcDbEntity
  8
NOTES
100
AcDbMText
 10
60.2661315570167
 20
4.5610085129417
 30
0.0
 40
0.2291666666666666
 41
0.0
 71
     1
 72
     1
  1
5280 JOHN LUCAS DRIVE, BURLINGTON, ON, L7L 5Z9
  7
SLDTEXTSTYLE0
 73
     1
 44
1.0
  0
ENDSEC
  0
SECTION
  2
OBJECTS
  0
DICTIONARY
  5
C
330
0
100
AcDbDictionary
281
     1
  3
ACAD_COLOR
350
6C
  3
ACAD_GROUP
350
D
  3
ACAD_LAYOUT
350
1A
  3
ACAD_MATERIAL
350
6B
  3
ACAD_MLINESTYLE
350
17
  3
ACAD_PLOTSETTINGS
350
19
  3
ACAD_PLOTSTYLENAME
350
E
  3
ACAD_SCALELIST
350
47
  3
ACAD_TABLESTYLE
350
92
  3
AcDbVariableDictionary
350
59
  0
DICTIONARY
  5
6C
102
{ACAD_REACTORS
330
C
102
}
330
C
100
AcDbDictionary
281
     1
  0
DICTIONARY
  5
D
102
{ACAD_REACTORS
330
C
102
}
330
C
100
AcDbDictionary
281
     1
  0
DICTIONARY
  5
1A
102
{ACAD_REACTORS
330
C
102
}
330
C
100
AcDbDictionary
281
     1
  3
Layout1
350
74
  3
Layout2
350
26
  3
Model
350
22
  0
DICTIONARY
  5
6B
102
{ACAD_REACTORS
330
C
102
}
330
C
100
AcDbDictionary
281
     1
  0
DICTIONARY
  5
17
102
{ACAD_REACTORS
330
C
102
}
330
C
100
AcDbDictionary
281
     1
  3
Standard
350
18
  0
DICTIONARY
  5
19
102
{ACAD_REACTORS
330
C
102
}
330
C
100
AcDbDictionary
281
     1
  0
ACDBDICTIONARYWDFLT
  5
E
102
{ACAD_REACTORS
330
C
102
}
330
C
100
AcDbDictionary
281
     1
  3
Normal
350
F
100
AcDbDictionaryWithDefault
340
F
  0
DICTIONARY
  5
47
102
{ACAD_REACTORS
330
C
102
}
330
C
100
AcDbDictionary
281
     1
  3
A0
350
48
  3
A1
350
49
  3
A2
350
4A
  3
A3
350
4B
  3
A4
350
4C
  3
A5
350
4D
  3
A6
350
4E
  3
A7
350
4F
  3
A8
350
50
  3
A9
350
51
  3
B0
350
52
  3
B1
350
53
  3
B2
350
54
  3
B3
350
55
  3
B4
350
56
  3
B5
350
57
  3
B6
350
58
  3
B7
350
52F
  3
B8
350
530
  3
B9
350
5B
  3
C0
350
5C
  3
C1
350
5D
  3
C2
350
531
  3
C3
350
5F
  3
C4
350
60
  3
C5
350
61
  3
C6
350
62
  3
C7
350
63
  3
C8
350
64
  3
C9
350
65
  3
D0
350
66
  3
D1
350
67
  3
D2
350
68
  0
DICTIONARY
  5
92
102
{ACAD_REACTORS
330
C
102
}
330
C
100
AcDbDictionary
281
     1
  3
Standard
350
93
  0
DICTIONARY
  5
59
102
{ACAD_REACTORS
330
C
102
}
330
C
100
AcDbDictionary
281
     1
  3
CTABLESTYLE
350
98
  3
HIDETEXT
350
51C
  0
LAYOUT
  5
74
102
{ACAD_REACTORS
330
1A
102
}
330
1A
100
AcDbPlotSettings
  1

  2
none_device
  4

  6

 40
0.0
 41
0.0
 42
0.0
 43
0.0
 44
0.0
 45
0.0
 46
0.0
 47
0.0
 48
0.0
 49
0.0
140
0.0
141
0.0
142
1.0
143
1.0
 70
   688
 72
     0
 73
     0
 74
     5
  7

 75
    16
 76
     0
 77
     2
 78
   300
147
1.0
148
0.0
149
0.0
100
AcDbLayout
  1
Layout1
 70
     1
 71
     1
 10
0.0
 20
0.0
 11
12.0
 21
9.0
 12
0.0
 22
0.0
 32
0.0
 14
1.000000000000000E+20
 24
1.000000000000000E+20
 34
1.000000000000000E+20
 15
-1.000000000000000E+20
 25
-1.000000000000000E+20
 35
-1.000000000000000E+20
146
0.0
 13
0.0
 23
0.0
 33
0.0
 16
1.0
 26
0.0
 36
0.0
 17
0.0
 27
1.0
 37
0.0
 76
     0
330
73
  0
LAYOUT
  5
26
102
{ACAD_REACTORS
330
1A
102
}
330
1A
100
AcDbPlotSettings
  1

  2
none_device
  4

  6

 40
0.0
 41
0.0
 42
0.0
 43
0.0
 44
0.0
 45
0.0
 46
0.0
 47
0.0
 48
0.0
 49
0.0
140
0.0
141
0.0
142
1.0
143
1.0
 70
   688
 72
     0
 73
     0
 74
     5
  7

 75
    16
 76
     0
 77
     2
 78
   300
147
1.0
148
0.0
149
0.0
100
AcDbLayout
  1
Layout2
 70
     1
 71
     2
 10
0.0
 20
0.0
 11
0.0
 21
0.0
 12
0.0
 22
0.0
 32
0.0
 14
0.0
 24
0.0
 34
0.0
 15
0.0
 25
0.0
 35
0.0
146
0.0
 13
0.0
 23
0.0
 33
0.0
 16
1.0
 26
0.0
 36
0.0
 17
0.0
 27
1.0
 37
0.0
 76
     0
330
23
  0
LAYOUT
  5
22
102
{ACAD_REACTORS
330
1A
102
}
330
1A
100
AcDbPlotSettings
  1

  2
none_device
  4
Letter_(8.50_x_11.00_Inches)
  6

 40
6.35
 41
6.35
 42
6.35000508
 43
6.35000508
 44
215.9
 45
279.4
 46
0.0
 47
0.0
 48
0.0
 49
0.0
140
0.0
141
0.0
142
1.0
143
1.0
 70
 11952
 72
     0
 73
     0
 74
     0
  7

 75
     0
 76
     0
 77
     2
 78
   300
147
1.0
148
0.0
149
0.0
100
AcDbLayout
  1
Model
 70
     1
 71
     0
 10
0.0
 20
0.0
 11
70.0
 21
80.0
 12
0.0
 22
0.0
 32
0.0
 14
0.1653543307086614
 24
0.1653543307086614
 34
-12.1354702060702
 15
69.83464566929135
 25
79.83464566929135
 35
5.661532101351726
146
0.0
 13
0.0
 23
0.0
 33
0.0
 16
1.0
 26
0.0
 36
0.0
 17
0.0
 27
1.0
 37
0.0
 76
     0
330
1F
  0
MLINESTYLE
  5
18
102
{ACAD_REACTORS
330
17
102
}
330
17
100
AcDbMlineStyle
  2
Standard
 70
     0
  3

 62
   256
 51
90.0
 52
90.0
 71
     2
 49
0.5
 62
   256
  6
BYLAYER
 49
-0.5
 62
   256
  6
BYLAYER
  0
ACDBPLACEHOLDER
  5
F
102
{ACAD_REACTORS
330
E
102
}
330
E
  0
ACAD_PROXY_OBJECT
  5
48
102
{ACAD_REACTORS
330
47
102
}
330
47
100
AcDbProxyObject
 90
      499
 91
      505
 95
   393239
 70
     0
 93
       41
310
903313A31580
  0
ACAD_PROXY_OBJECT
  5
49
102
{ACAD_REACTORS
330
47
102
}
330
47
100
AcDbProxyObject
 90
      499
 91
      505
 95
   393239
 70
     0
 93
      105
310
903313A324000000000000004000
  0
ACAD_PROXY_OBJECT
  5
4A
102
{ACAD_REACTORS
330
47
102
}
330
47
100
AcDbProxyObject
 90
      499
 91
      505
 95
   393239
 70
     0
 93
      105
310
903313A344000000000000104000
  0
ACAD_PROXY_OBJECT
  5
4B
102
{ACAD_REACTORS
330
47
102
}
330
47
100
AcDbProxyObject
 90
      499
 91
      505
 95
   393239
 70
     0
 93
      105
310
903313A354000000000000144000
  0
ACAD_PROXY_OBJECT
  5
4C
102
{ACAD_REACTORS
330
47
102
}
330
47
100
AcDbProxyObject
 90
      499
 91
      505
 95
   393239
 70
     0
 93
      105
310
903313A384000000000000204000
  0
ACAD_PROXY_OBJECT
  5
4D
102
{ACAD_REACTORS
330
47
102
}
330
47
100
AcDbProxyObject
 90
      499
 91
      505
 95
   393239
 70
     0
 93
      113
310
904313A31304000000000000244000
  0
ACAD_PROXY_OBJECT
  5
4E
102
{ACAD_REACTORS
330
47
102
}
330
47
100
AcDbProxyObject
 90
      499
 91
      505
 95
   393239
 70
     0
 93
      113
310
904313A31364000000000000304000
  0
ACAD_PROXY_OBJECT
  5
4F
102
{ACAD_REACTORS
330
47
102
}
330
47
100
AcDbProxyObject
 90
      499
 91
      505
 95
   393239
 70
     0
 93
      113
310
904313A32304000000000000344000
  0
ACAD_PROXY_OBJECT
  5
50
102
{ACAD_REACTORS
330
47
102
}
330
47
100
AcDbProxyObject
 90
      499
 91
      505
 95
   393239
 70
     0
 93
      113
310
904313A333040000000000003E4000
  0
ACAD_PROXY_OBJECT
  5
51
102
{ACAD_REACTORS
330
47
102
}
330
47
100
AcDbProxyObject
 90
      499
 91
      505
 95
   393239
 70
     0
 93
      113
310
904313A34304000000000000444000
  0
ACAD_PROXY_OBJECT
  5
52
102
{ACAD_REACTORS
330
47
102
}
330
47
100
AcDbProxyObject
 90
      499
 91
      505
 95
   393239
 70
     0
 93
      113
310
904313A35304000000000000494000
  0
ACAD_PROXY_OBJECT
  5
53
102
{ACAD_REACTORS
330
47
102
}
330
47
100
AcDbProxyObject
 90
      499
 91
      505
 95
   393239
 70
     0
 93
      121
310
905313A3130304000000000000594000
  0
ACAD_PROXY_OBJECT
  5
54
102
{ACAD_REACTORS
330
47
102
}
330
47
100
AcDbProxyObject
 90
      499
 91
      505
 95
   393239
 70
     0
 93
      105
310
903323A310000000000000010100
  0
ACAD_PROXY_OBJECT
  5
55
102
{ACAD_REACTORS
330
47
102
}
330
47
100
AcDbProxyObject
 90
      499
 91
      505
 95
   393239
 70
     0
 93
      105
310
903343A310000000000000410100
  0
ACAD_PROXY_OBJECT
  5
56
102
{ACAD_REACTORS
330
47
102
}
330
47
100
AcDbProxyObject
 90
      499
 91
      505
 95
   393239
 70
     0
 93
      105
310
903383A310000000000000810100
  0
ACAD_PROXY_OBJECT
  5
57
102
{ACAD_REACTORS
330
47
102
}
330
47
100
AcDbProxyObject
 90
      499
 91
      505
 95
   393239
 70
     0
 93
      113
310
90431303A310000000000000910100
  0
ACAD_PROXY_OBJECT
  5
58
102
{ACAD_REACTORS
330
47
102
}
330
47
100
AcDbProxyObject
 90
      499
 91
      505
 95
   393239
 70
     0
 93
      121
310
9053130303A310000000000001650100
  0
ACAD_PROXY_OBJECT
  5
52F
102
{ACAD_REACTORS
330
47
102
}
330
47
100
AcDbProxyObject
 90
      499
 91
      505
 95
   393239
 70
     0
 93
      257
310
90E312F31323822203D2031272D3022000000000000200FC000000000000284000
  0
ACAD_PROXY_OBJECT
  5
530
102
{ACAD_REACTORS
330
47
102
}
330
47
100
AcDbProxyObject
 90
      499
 91
      505
 95
   393239
 70
     0
 93
      249
310
90D312F363422203D2031272D3022000000000000240FC000000000000284000
  0
ACAD_PROXY_OBJECT
  5
5B
102
{ACAD_REACTORS
330
47
102
}
330
47
100
AcDbProxyObject
 90
      499
 91
      505
 95
   393239
 70
     0
 93
      249
310
90D312F333222203D2031272D3022000000000000280FC000000000000284000
  0
ACAD_PROXY_OBJECT
  5
5C
102
{ACAD_REACTORS
330
47
102
}
330
47
100
AcDbProxyObject
 90
      499
 91
      505
 95
   393239
 70
     0
 93
      249
310
90D312F313622203D2031272D30220000000000002C0FC000000000000284000
  0
ACAD_PROXY_OBJECT
  5
5D
102
{ACAD_REACTORS
330
47
102
}
330
47
100
AcDbProxyObject
 90
      499
 91
      505
 95
   393239
 70
     0
 93
      249
310
90D332F333222203D2031272D30220000000000002E0FC000000000000284000
  0
ACAD_PROXY_OBJECT
  5
531
102
{ACAD_REACTORS
330
47
102
}
330
47
100
AcDbProxyObject
 90
      499
 91
      505
 95
   393239
 70
     0
 93
      241
310
90C312F3822203D2031272D3022000000000000300FC000000000000284000
  0
ACAD_PROXY_OBJECT
  5
5F
102
{ACAD_REACTORS
330
47
102
}
330
47
100
AcDbProxyObject
 90
      499
 91
      505
 95
   393239
 70
     0
 93
      249
310
90D332F313622203D2031272D3022000000000000320FC000000000000284000
  0
ACAD_PROXY_OBJECT
  5
60
102
{ACAD_REACTORS
330
47
102
}
330
47
100
AcDbProxyObject
 90
      499
 91
      505
 95
   393239
 70
     0
 93
      241
310
90C312F3422203D2031272D3022000000000000340FC000000000000284000
  0
ACAD_PROXY_OBJECT
  5
61
102
{ACAD_REACTORS
330
47
102
}
330
47
100
AcDbProxyObject
 90
      499
 91
      505
 95
   393239
 70
     0
 93
      241
310
90C332F3822203D2031272D3022000000000000360FC000000000000284000
  0
ACAD_PROXY_OBJECT
  5
62
102
{ACAD_REACTORS
330
47
102
}
330
47
100
AcDbProxyObject
 90
      499
 91
      505
 95
   393239
 70
     0
 93
      241
310
90C312F3222203D2031272D3022000000000000380FC000000000000284000
  0
ACAD_PROXY_OBJECT
  5
63
102
{ACAD_REACTORS
330
47
102
}
330
47
100
AcDbProxyObject
 90
      499
 91
      505
 95
   393239
 70
     0
 93
      241
310
90C332F3422203D2031272D30220000000000003A0FC000000000000284000
  0
ACAD_PROXY_OBJECT
  5
64
102
{ACAD_REACTORS
330
47
102
}
330
47
100
AcDbProxyObject
 90
      499
 91
      505
 95
   393239
 70
     0
 93
      161
310
90A3122203D2031272D30224000000000000284000
  0
ACAD_PROXY_OBJECT
  5
65
102
{ACAD_REACTORS
330
47
102
}
330
47
100
AcDbProxyObject
 90
      499
 91
      505
 95
   393239
 70
     0
 93
      257
310
90E312D312F3222203D2031272D30220000000000003E0FC000000000000284000
  0
ACAD_PROXY_OBJECT
  5
66
102
{ACAD_REACTORS
330
47
102
}
330
47
100
AcDbProxyObject
 90
      499
 91
      505
 95
   393239
 70
     0
 93
      225
310
90A3322203D2031272D302200000000000002100000000000000284000
  0
ACAD_PROXY_OBJECT
  5
67
102
{ACAD_REACTORS
330
47
102
}
330
47
100
AcDbProxyObject
 90
      499
 91
      505
 95
   393239
 70
     0
 93
      225
310
90A3622203D2031272D302200000000000006100000000000000284000
  0
ACAD_PROXY_OBJECT
  5
68
102
{ACAD_REACTORS
330
47
102
}
330
47
100
AcDbProxyObject
 90
      499
 91
      505
 95
   393239
 70
     0
 93
      249
310
90D31272D3022203D2031272D30220000000000000A100000000000000284000
  0
TABLESTYLE
  5
93
102
{ACAD_REACTORS
330
92
102
}
330
92
100
AcDbTableStyle
  3
Standard
 70
     0
 71
     0
 40
0.06
 41
0.06
280
     0
281
     0
  7
Standard
140
0.18
170
     2
 62
     0
 63
     7
283
     0
274
    -2
284
     1
 64
     0
275
    -2
285
     1
 65
     0
276
    -2
286
     1
 66
     0
277
    -2
287
     1
 67
     0
278
    -2
288
     1
 68
     0
279
    -2
289
     1
 69
     0
  7
Standard
140
0.25
170
     5
 62
     0
 63
     7
283
     0
274
    -2
284
     1
 64
     0
275
    -2
285
     1
 65
     0
276
    -2
286
     1
 66
     0
277
    -2
287
     1
 67
     0
278
    -2
288
     1
 68
     0
279
    -2
289
     1
 69
     0
  7
Standard
140
0.18
170
     5
 62
     0
 63
     7
283
     0
274
    -2
284
     1
 64
     0
275
    -2
285
     1
 65
     0
276
    -2
286
     1
 66
     0
277
    -2
287
     1
 67
     0
278
    -2
288
     1
 68
     0
279
    -2
289
     1
 69
     0
  0
DICTIONARYVAR
  5
98
102
{ACAD_REACTORS
330
59
102
}
330
59
100
DictionaryVariables
280
     0
  1
STANDARD
  0
DICTIONARYVAR
  5
51C
102
{ACAD_REACTORS
330
59
102
}
330
59
100
DictionaryVariables
280
     0
  1
2
  0
ENDSEC
  0
EOF
