  0
SECTION
  2
HEADER
  9
$ACADVER
  1
AC1015
  9
$ACADMAINTVER
 70
     6
  9
$DWGCODEPAGE
  3
ANSI_1252
  9
$INSBASE
 10
0.0
 20
0.0
 30
0.0
  9
$EXTMIN
 10
0.0
 20
0.0
 30
0.0
  9
$EXTMAX
 10
80.375
 20
100.0
 30
0.0
  9
$LIMMIN
 10
0.0
 20
0.0
  9
$LIMMAX
 10
80.375
 20
100.0
  9
$ORTHOMODE
 70
     0
  9
$REGENMODE
 70
     1
  9
$FILLMODE
 70
     1
  9
$QTEXTMODE
 70
     0
  9
$MIRRTEXT
 70
     1
  9
$LTSCALE
 40
1.0
  9
$ATTMODE
 70
     1
  9
$TEXTSIZE
 40
0.75
  9
$TRACEWID
 40
0.05
  9
$TEXTSTYLE
  7
STANDARD
  9
$CLAYER
  8
0
  9
$CELTYPE
  6
ByLayer
  9
$CECOLOR
 62
   256
  9
$CELTSCALE
 40
1.0
  9
$DISPSILH
 70
     0
  9
$DIMSCALE
 40
1.0
  9
$DIMASZ
 40
0.75
  9
$DIMEXO
 40
0.1666666667
  9
$DIMDLI
 40
0.38
  9
$DIMRND
 40
0.0
  9
$DIMDLE
 40
0.0
  9
$DIMEXE
 40
0.375
  9
$DIMTP
 40
0.0
  9
$DIMTM
 40
0.0
  9
$DIMTXT
 40
0.75
  9
$DIMCEN
 40
0.09
  9
$DIMTSZ
 40
0.0
  9
$DIMTOL
 70
     0
  9
$DIMLIM
 70
     0
  9
$DIMTIH
 70
     1
  9
$DIMTOH
 70
     1
  9
$DIMSE1
 70
     0
  9
$DIMSE2
 70
     0
  9
$DIMTAD
 70
     0
  9
$DIMZIN
 70
     1
  9
$DIMBLK
  1

  9
$DIMASO
 70
     1
  9
$DIMSHO
 70
     1
  9
$DIMPOST
  1

  9
$DIMAPOST
  1

  9
$DIMALT
 70
     0
  9
$DIMALTD
 70
     2
  9
$DIMALTF
 40
25.4
  9
$DIMLFAC
 40
1.0
  9
$DIMTOFL
 70
     0
  9
$DIMTVP
 40
0.0
  9
$DIMTIX
 70
     0
  9
$DIMSOXD
 70
     0
  9
$DIMSAH
 70
     0
  9
$DIMBLK1
  1

  9
$DIMBLK2
  1

  9
$DIMSTYLE
  2
Standard
  9
$DIMCLRD
 70
     0
  9
$DIMCLRE
 70
     0
  9
$DIMCLRT
 70
     0
  9
$DIMTFAC
 40
1.0
  9
$DIMGAP
 40
0.125
  9
$DIMJUST
 70
     0
  9
$DIMSD1
 70
     0
  9
$DIMSD2
 70
     0
  9
$DIMTOLJ
 70
     1
  9
$DIMTZIN
 70
     1
  9
$DIMALTZ
 70
     0
  9
$DIMALTTZ
 70
     0
  9
$DIMUPT
 70
     0
  9
$DIMDEC
 70
     2
  9
$DIMTDEC
 70
     2
  9
$DIMALTU
 70
     2
  9
$DIMALTTD
 70
     2
  9
$DIMTXSTY
  7
STANDARD
  9
$DIMAUNIT
 70
     0
  9
$DIMADEC
 70
     2
  9
$DIMALTRND
 40
0.0
  9
$DIMAZIN
 70
     0
  9
$DIMDSEP
 70
    46
  9
$DIMATFIT
 70
     3
  9
$DIMFRAC
 70
     0
  9
$DIMLDRBLK
  1

  9
$DIMLUNIT
 70
     2
  9
$DIMLWD
 70
    -2
  9
$DIMLWE
 70
    -2
  9
$DIMTMOVE
 70
     0
  9
$LUNITS
 70
     2
  9
$LUPREC
 70
     4
  9
$SKETCHINC
 40
0.1
  9
$FILLETRAD
 40
0.5
  9
$AUNITS
 70
     0
  9
$AUPREC
 70
     2
  9
$MENU
  1
.
  9
$ELEVATION
 40
0.0
  9
$PELEVATION
 40
0.0
  9
$THICKNESS
 40
0.0
  9
$LIMCHECK
 70
     0
  9
$CHAMFERA
 40
0.0
  9
$CHAMFERB
 40
0.0
  9
$CHAMFERC
 40
0.0
  9
$CHAMFERD
 40
0.0
  9
$SKPOLY
 70
     0
  9
$TDCREATE
 40
2459377.637136805
  9
$TDUCREATE
 40
2459377.803803472
  9
$TDUPDATE
 40
2459377.637142685
  9
$TDUUPDATE
 40
2459377.803809352
  9
$TDINDWG
 40
0.0000000116
  9
$TDUSRTIMER
 40
0.0000000116
  9
$USRTIMER
 70
     1
  9
$ANGBASE
 50
0.0
  9
$ANGDIR
 70
     0
  9
$PDMODE
 70
     0
  9
$PDSIZE
 40
-1.0
  9
$PLINEWID
 40
0.0
  9
$SPLFRAME
 70
     0
  9
$SPLINETYPE
 70
     6
  9
$SPLINESEGS
 70
     8
  9
$HANDSEED
  5
314
  9
$SURFTAB1
 70
     6
  9
$SURFTAB2
 70
     6
  9
$SURFTYPE
 70
     6
  9
$SURFU
 70
     6
  9
$SURFV
 70
     6
  9
$UCSBASE
  2

  9
$UCSNAME
  2

  9
$UCSORG
 10
0.0
 20
0.0
 30
0.0
  9
$UCSXDIR
 10
1.0
 20
0.0
 30
0.0
  9
$UCSYDIR
 10
0.0
 20
1.0
 30
0.0
  9
$UCSORTHOREF
  2

  9
$UCSORTHOVIEW
 70
     0
  9
$UCSORGTOP
 10
0.0
 20
0.0
 30
0.0
  9
$UCSORGBOTTOM
 10
0.0
 20
0.0
 30
0.0
  9
$UCSORGLEFT
 10
0.0
 20
0.0
 30
0.0
  9
$UCSORGRIGHT
 10
0.0
 20
0.0
 30
0.0
  9
$UCSORGFRONT
 10
0.0
 20
0.0
 30
0.0
  9
$UCSORGBACK
 10
0.0
 20
0.0
 30
0.0
  9
$PUCSBASE
  2

  9
$PUCSNAME
  2

  9
$PUCSORG
 10
0.0
 20
0.0
 30
0.0
  9
$PUCSXDIR
 10
1.0
 20
0.0
 30
0.0
  9
$PUCSYDIR
 10
0.0
 20
1.0
 30
0.0
  9
$PUCSORTHOREF
  2

  9
$PUCSORTHOVIEW
 70
     0
  9
$PUCSORGTOP
 10
0.0
 20
0.0
 30
0.0
  9
$PUCSORGBOTTOM
 10
0.0
 20
0.0
 30
0.0
  9
$PUCSORGLEFT
 10
0.0
 20
0.0
 30
0.0
  9
$PUCSORGRIGHT
 10
0.0
 20
0.0
 30
0.0
  9
$PUCSORGFRONT
 10
0.0
 20
0.0
 30
0.0
  9
$PUCSORGBACK
 10
0.0
 20
0.0
 30
0.0
  9
$USERI1
 70
     0
  9
$USERI2
 70
     0
  9
$USERI3
 70
     0
  9
$USERI4
 70
     0
  9
$USERI5
 70
     0
  9
$USERR1
 40
0.0
  9
$USERR2
 40
0.0
  9
$USERR3
 40
0.0
  9
$USERR4
 40
0.0
  9
$USERR5
 40
0.0
  9
$WORLDVIEW
 70
     1
  9
$SHADEDGE
 70
     3
  9
$SHADEDIF
 70
    70
  9
$TILEMODE
 70
     1
  9
$MAXACTVP
 70
    64
  9
$PINSBASE
 10
0.0
 20
0.0
 30
0.0
  9
$PLIMCHECK
 70
     0
  9
$PEXTMIN
 10
1.0000000000E+20
 20
1.0000000000E+20
 30
1.0000000000E+20
  9
$PEXTMAX
 10
-1.0000000000E+20
 20
-1.0000000000E+20
 30
-1.0000000000E+20
  9
$PLIMMIN
 10
0.0
 20
0.0
  9
$PLIMMAX
 10
12.0
 20
9.0
  9
$UNITMODE
 70
     0
  9
$VISRETAIN
 70
     1
  9
$PLINEGEN
 70
     0
  9
$PSLTSCALE
 70
     1
  9
$TREEDEPTH
 70
  3020
  9
$CMLSTYLE
  2
Standard
  9
$CMLJUST
 70
     0
  9
$CMLSCALE
 40
1.0
  9
$PROXYGRAPHICS
 70
     1
  9
$MEASUREMENT
 70
     0
  9
$CELWEIGHT
370
    -1
  9
$ENDCAPS
280
     0
  9
$JOINSTYLE
280
     0
  9
$LWDISPLAY
290
     1
  9
$INSUNITS
 70
     1
  9
$HYPERLINKBASE
  1

  9
$STYLESHEET
  1

  9
$XEDIT
290
     1
  9
$CEPSNTYPE
380
     0
  9
$PSTYLEMODE
290
     1
  9
$FINGERPRINTGUID
  2
{604d03f3-3505-4b32-b802-ef3e727e9647}
  9
$VERSIONGUID
  2
{FAEB1C32-E019-11D5-929B-00C0DF256EC4}
  9
$EXTNAMES
290
     1
  9
$PSVPSCALE
 40
0.0
  9
$OLESTARTUP
290
     0
  0
ENDSEC
  0
SECTION
  2
CLASSES
  0
CLASS
  1
ACDBDICTIONARYWDFLT
  2
AcDbDictionaryWithDefault
  3
ObjectDBX Classes
 90
        0
280
     0
281
     0
  0
CLASS
  1
VISUALSTYLE
  2
AcDbVisualStyle
  3
ObjectDBX Classes
 90
     4095
280
     0
281
     0
  0
CLASS
  1
MATERIAL
  2
AcDbMaterial
  3
ObjectDBX Classes
 90
     1153
280
     0
281
     0
  0
CLASS
  1
SCALE
  2
AcDbScale
  3
ObjectDBX Classes
 90
     1153
280
     0
281
     0
  0
CLASS
  1
TABLESTYLE
  2
AcDbTableStyle
  3
ObjectDBX Classes
 90
     4095
280
     0
281
     0
  0
CLASS
  1
MLEADERSTYLE
  2
AcDbMLeaderStyle
  3
ACDB_MLEADERSTYLE_CLASS
 90
     4095
280
     0
281
     0
  0
CLASS
  1
SUN
  2
AcDbSun
  3
SCENEOE
 90
     1153
280
     0
281
     0
  0
CLASS
  1
ACDBPLACEHOLDER
  2
AcDbPlaceHolder
  3
ObjectDBX Classes
 90
        0
280
     0
281
     0
  0
CLASS
  1
LAYOUT
  2
AcDbLayout
  3
ObjectDBX Classes
 90
        0
280
     0
281
     0
  0
ENDSEC
  0
SECTION
  2
TABLES
  0
TABLE
  2
VPORT
  5
8
330
0
100
AcDbSymbolTable
 70
     1
  0
VPORT
  5
29
330
8
100
AcDbSymbolTableRecord
100
AcDbViewportTableRecord
  2
*Active
 70
     0
 10
0.0
 20
0.0
 11
1.0
 21
1.0
 12
40.1875
 22
50.0
 13
0.0
 23
0.0
 14
0.5
 24
0.5
 15
0.5
 25
0.5
 16
0.0
 26
0.0
 36
1.0
 17
0.0
 27
0.0
 37
0.0
 40
100.0
 41
0.80375
 42
50.0
 43
0.0
 44
0.0
 50
0.0
 51
0.0
 71
     0
 72
  2000
 73
     1
 74
     3
 75
     0
 76
     0
 77
     0
 78
     0
281
     0
 65
     1
110
0.0
120
0.0
130
0.0
111
1.0
121
0.0
131
0.0
112
0.0
122
1.0
132
0.0
 79
     0
146
0.0
  0
ENDTAB
  0
TABLE
  2
LTYPE
  5
5
330
0
100
AcDbSymbolTable
 70
     8
  0
LTYPE
  5
14
330
5
100
AcDbSymbolTableRecord
100
AcDbLinetypeTableRecord
  2
ByBlock
 70
     0
  3

 72
    65
 73
     0
 40
0.0
  0
LTYPE
  5
15
330
5
100
AcDbSymbolTableRecord
100
AcDbLinetypeTableRecord
  2
ByLayer
 70
     0
  3

 72
    65
 73
     0
 40
0.0
  0
LTYPE
  5
16
330
5
100
AcDbSymbolTableRecord
100
AcDbLinetypeTableRecord
  2
Continuous
 70
     0
  3
Solid line
 72
    65
 73
     0
 40
0.0
  0
LTYPE
  5
6E
330
5
100
AcDbSymbolTableRecord
100
AcDbLinetypeTableRecord
  2
SLD-Solid
 70
     0
  3
SolidWorks Line Style
 72
    65
 73
     0
 40
0.0
  0
LTYPE
  5
6F
330
5
100
AcDbSymbolTableRecord
100
AcDbLinetypeTableRecord
  2
SLD-Dashed
 70
     0
  3
SolidWorks Line Style
 72
    65
 73
     2
 40
0.075
 49
0.05
 74
     0
 49
-0.025
 74
     0
  0
LTYPE
  5
70
330
5
100
AcDbSymbolTableRecord
100
AcDbLinetypeTableRecord
  2
SLD-Phantom
 70
     0
  3
SolidWorks Line Style
 72
    65
 73
     6
 40
0.5
 49
0.25
 74
     0
 49
-0.05
 74
     0
 49
0.05
 74
     0
 49
-0.05
 74
     0
 49
0.05
 74
     0
 49
-0.05
 74
     0
  0
LTYPE
  5
71
330
5
100
AcDbSymbolTableRecord
100
AcDbLinetypeTableRecord
  2
SLD-Chain
 70
     0
  3
SolidWorks Line Style
 72
    65
 73
     4
 40
0.4
 49
0.25
 74
     0
 49
-0.05
 74
     0
 49
0.05
 74
     0
 49
-0.05
 74
     0
  0
LTYPE
  5
72
330
5
100
AcDbSymbolTableRecord
100
AcDbLinetypeTableRecord
  2
SLD-Center
 70
     0
  3
SolidWorks Line Style
 72
    65
 73
     4
 40
0.75
 49
0.6
 74
     0
 49
-0.05
 74
     0
 49
0.05
 74
     0
 49
-0.05
 74
     0
  0
LTYPE
  5
73
330
5
100
AcDbSymbolTableRecord
100
AcDbLinetypeTableRecord
  2
SLD-Stitch
 70
     0
  3
SolidWorks Line Style
 72
    65
 73
     2
 40
0.025
 49
0.0
 74
     0
 49
-0.025
 74
     0
  0
LTYPE
  5
74
330
5
100
AcDbSymbolTableRecord
100
AcDbLinetypeTableRecord
  2
SLD-Thin-Thick-Chain
 70
     0
  3
SolidWorks Line Style
 72
    65
 73
     4
 40
0.4
 49
0.25
 74
     0
 49
-0.05
 74
     0
 49
0.05
 74
     0
 49
-0.05
 74
     0
  0
ENDTAB
  0
TABLE
  2
LAYER
  5
2
330
0
100
AcDbSymbolTable
 70
     6
  0
LAYER
  5
10
330
2
100
AcDbSymbolTableRecord
100
AcDbLayerTableRecord
  2
0
 70
     0
 62
     7
  6
Continuous
370
    -3
390
F
  0
LAYER
  5
75
330
2
100
AcDbSymbolTableRecord
100
AcDbLayerTableRecord
  2
FORMAT
 70
     0
 62
     7
  6
SLD-Solid
370
    -3
390
F
  0
LAYER
  5
76
330
2
100
AcDbSymbolTableRecord
100
AcDbLayerTableRecord
  2
NOTES
 70
     0
 62
     1
  6
SLD-Solid
370
    -3
390
F
  0
LAYER
  5
77
330
2
100
AcDbSymbolTableRecord
100
AcDbLayerTableRecord
  2
OBJECT
 70
     0
 62
     7
  6
SLD-Solid
370
    -3
390
F
  0
LAYER
  5
78
330
2
100
AcDbSymbolTableRecord
100
AcDbLayerTableRecord
  2
DIMS
 70
     0
 62
     5
  6
SLD-Solid
370
    -3
390
F
  0
LAYER
  5
79
330
2
100
AcDbSymbolTableRecord
100
AcDbLayerTableRecord
  2
TITLE
 70
     0
 62
     8
  6
SLD-Solid
370
    -3
390
F
  0
ENDTAB
  0
TABLE
  2
STYLE
  5
3
330
0
100
AcDbSymbolTable
 70
     5
  0
STYLE
  5
11
330
3
100
AcDbSymbolTableRecord
100
AcDbTextStyleTableRecord
  2
STANDARD
 70
     0
 40
0.0
 41
1.0
 50
0.0
 71
     0
 42
0.75
  3
GOTHIC.TTF
  4

1001
ACAD
1000
CENTURY GOTHIC
1071
       34
  0
STYLE
  5
13D
330
3
100
AcDbSymbolTableRecord
100
AcDbTextStyleTableRecord
  2
SLDTEXTSTYLE0
 70
     0
 40
0.0
 41
0.948
 50
0.0
 71
     0
 42
0.75
  3
ARIAL.TTF
  4

1001
ACAD
1000
Arial
1071
      290
  0
STYLE
  5
141
330
3
100
AcDbSymbolTableRecord
100
AcDbTextStyleTableRecord
  2
SLDTEXTSTYLE1
 70
     0
 40
0.0
 41
0.913
 50
0.0
 71
     0
 42
0.75
  3
GOTHIC.TTF
  4

1001
ACAD
1000
Century Gothic
1071
      290
  0
STYLE
  5
150
330
3
100
AcDbSymbolTableRecord
100
AcDbTextStyleTableRecord
  2
SLDTEXTSTYLE2
 70
     0
 40
0.0
 41
0.87
 50
0.0
 71
     0
 42
0.75
  3
ARIALNB.TTF
  4

1001
ACAD
1000
Arial Narrow
1071
 33554722
  0
STYLE
  5
152
330
3
100
AcDbSymbolTableRecord
100
AcDbTextStyleTableRecord
  2
SLDTEXTSTYLE3
 70
     0
 40
0.0
 41
0.87
 50
0.0
 71
     0
 42
0.75
  3
ARIALN.TTF
  4

1001
ACAD
1000
Arial Narrow
1071
      290
  0
ENDTAB
  0
TABLE
  2
VIEW
  5
6
330
0
100
AcDbSymbolTable
 70
     0
  0
ENDTAB
  0
TABLE
  2
UCS
  5
7
330
0
100
AcDbSymbolTable
 70
     0
  0
ENDTAB
  0
TABLE
  2
APPID
  5
9
330
0
100
AcDbSymbolTable
 70
     1
  0
APPID
  5
12
330
9
100
AcDbSymbolTableRecord
100
AcDbRegAppTableRecord
  2
ACAD
 70
     0
  0
ENDTAB
  0
TABLE
  2
DIMSTYLE
  5
A
330
0
100
AcDbSymbolTable
 70
     5
100
AcDbDimStyleTable
  0
DIMSTYLE
105
27
330
A
100
AcDbSymbolTableRecord
100
AcDbDimStyleTableRecord
  2
Standard
 70
     0
178
     0
340
11
  0
DIMSTYLE
105
224
102
{ACAD_REACTORS
330
223
330
2FF
102
}
330
A
100
AcDbSymbolTableRecord
100
AcDbDimStyleTableRecord
  2
SLDDIMSTYLE0
 70
     0
 41
0.75
 44
0.0
 45
0.000000001
 78
    12
 79
     3
140
0.75
147
0.1875
173
     1
178
     0
271
     6
272
     2
276
     2
277
     5
284
    12
340
141
341
225
343
225
344
225
  0
DIMSTYLE
105
23A
102
{ACAD_REACTORS
330
239
102
}
330
A
100
AcDbSymbolTableRecord
100
AcDbDimStyleTableRecord
  2
SLDDIMSTYLE1
 70
     0
 41
0.75
 44
0.0
 45
0.000000001
 78
    12
 79
     3
140
0.75
147
0.1875
172
     1
173
     1
178
     0
271
     6
272
     2
276
     2
277
     5
284
    12
289
     0
340
141
341
225
343
225
344
225
  0
DIMSTYLE
105
262
102
{ACAD_REACTORS
330
261
330
26F
102
}
330
A
100
AcDbSymbolTableRecord
100
AcDbDimStyleTableRecord
  2
SLDDIMSTYLE2
 70
     0
 41
0.75
 44
0.0
 45
0.000000001
 78
    12
 79
     3
140
0.75
141
0.0
147
0.1875
173
     1
178
     0
271
     2
272
     2
276
     2
277
     5
284
    12
340
141
341
225
343
225
344
225
  0
DIMSTYLE
105
311
330
A
100
AcDbSymbolTableRecord
100
AcDbDimStyleTableRecord
  2
SLDDIMSTYLE3
 70
     0
 41
0.75
 44
0.0
 45
0.000000001
146
0.75
147
0.0
173
     1
178
     0
271
     0
272
     0
276
     2
277
     5
340
11
341
225
343
225
344
225
  0
ENDTAB
  0
TABLE
  2
BLOCK_RECORD
  5
1
330
0
100
AcDbSymbolTable
 70
     9
  0
BLOCK_RECORD
  5
1F
330
1
100
AcDbSymbolTableRecord
100
AcDbBlockTableRecord
  2
*Model_Space
340
22
  0
BLOCK_RECORD
  5
1B
330
1
100
AcDbSymbolTableRecord
100
AcDbBlockTableRecord
  2
*Paper_Space
340
1E
  0
BLOCK_RECORD
  5
23
330
1
100
AcDbSymbolTableRecord
100
AcDbBlockTableRecord
  2
*Paper_Space0
340
26
  0
BLOCK_RECORD
  5
147
330
1
100
AcDbSymbolTableRecord
100
AcDbBlockTableRecord
  2
SW_NOTE_0
340
0
102
{BLKREFS
331
14C
102
}
  0
BLOCK_RECORD
  5
14D
330
1
100
AcDbSymbolTableRecord
100
AcDbBlockTableRecord
  2
SW_NOTE_0_1
340
0
102
{BLKREFS
331
156
102
}
  0
BLOCK_RECORD
  5
225
330
1
100
AcDbSymbolTableRecord
100
AcDbBlockTableRecord
  2
_Open90
340
0
102
{BLKREFS
331
22E
331
22F
331
23E
331
23F
331
266
331
273
331
303
331
304
331
27F
331
281
102
}
  0
BLOCK_RECORD
  5
22B
330
1
100
AcDbSymbolTableRecord
100
AcDbBlockTableRecord
  2
_D
340
0
  0
BLOCK_RECORD
  5
23B
330
1
100
AcDbSymbolTableRecord
100
AcDbBlockTableRecord
  2
_D_1
340
0
  0
BLOCK_RECORD
  5
263
330
1
100
AcDbSymbolTableRecord
100
AcDbBlockTableRecord
  2
_D_2
340
0
  0
BLOCK_RECORD
  5
270
330
1
100
AcDbSymbolTableRecord
100
AcDbBlockTableRecord
  2
_D_3
340
0
  0
BLOCK_RECORD
  5
300
330
1
100
AcDbSymbolTableRecord
100
AcDbBlockTableRecord
  2
_D_4
340
0
  0
ENDTAB
  0
ENDSEC
  0
SECTION
  2
BLOCKS
  0
BLOCK
  5
20
330
1F
100
AcDbEntity
  8
0
100
AcDbBlockBegin
  2
*Model_Space
 70
     0
 10
0.0
 20
0.0
 30
0.0
  3
*Model_Space
  1

  0
ENDBLK
  5
21
330
1F
100
AcDbEntity
  8
0
100
AcDbBlockEnd
  0
BLOCK
  5
1C
330
1B
100
AcDbEntity
 67
     1
  8
0
100
AcDbBlockBegin
  2
*Paper_Space
 70
     0
 10
0.0
 20
0.0
 30
0.0
  3
*Paper_Space
  1

  0
ENDBLK
  5
1D
330
1B
100
AcDbEntity
 67
     1
  8
0
100
AcDbBlockEnd
  0
BLOCK
  5
24
330
23
100
AcDbEntity
  8
0
100
AcDbBlockBegin
  2
*Paper_Space0
 70
     0
 10
0.0
 20
0.0
 30
0.0
  3
*Paper_Space0
  1

  0
ENDBLK
  5
25
330
23
100
AcDbEntity
  8
0
100
AcDbBlockEnd
  0
BLOCK
  5
148
330
147
100
AcDbEntity
  8
0
100
AcDbBlockBegin
  2
SW_NOTE_0
 70
     0
 10
0.0
 20
0.0
 30
0.0
  3
SW_NOTE_0
  1

  0
MTEXT
  5
14A
330
147
100
AcDbEntity
  8
NOTES
 62
     0
100
AcDbMText
 10
0.0
 20
0.3759780908
 30
0.0
 40
0.2916666667
 41
0.0
 71
     1
 72
     1
  1
FROST PRODUCTS LTD.
  7
SLDTEXTSTYLE0
 73
     1
 44
1.0
  0
MTEXT
  5
14B
330
147
100
AcDbEntity
  8
NOTES
 62
     0
100
AcDbMText
 10
0.0
 20
-0.0495142709
 30
0.0
 40
0.2291666667
 41
0.0
 71
     1
 72
     1
  1
5280 JOHN LUCUS DRIVE, BURLINGTON, ON, L7L 5Z9
  7
SLDTEXTSTYLE0
 73
     1
 44
1.0
  0
ENDBLK
  5
149
330
147
100
AcDbEntity
  8
0
100
AcDbBlockEnd
  0
BLOCK
  5
14E
330
14D
100
AcDbEntity
  8
0
100
AcDbBlockBegin
  2
SW_NOTE_0_1
 70
     0
 10
0.0
 20
0.0
 30
0.0
  3
SW_NOTE_0_1
  1

  0
MTEXT
  5
151
330
14D
100
AcDbEntity
  8
NOTES
 62
     0
100
AcDbMText
 10
0.0
 20
0.2381282771
 30
0.0
 40
0.184729064
 41
0.0
 71
     1
 72
     1
  1
PROPRIETARY AND CONFIDENTIAL
  7
SLDTEXTSTYLE2
 73
     1
 44
1.0
  0
MTEXT
  5
153
330
14D
100
AcDbEntity
  8
NOTES
 62
     0
100
AcDbMText
 10
0.0
 20
-0.0504364796
 30
0.0
 40
0.25
 41
0.0
 71
     1
 72
     1
  1
THE INFORMATION CONTAINED IN THIS DRAWING IS THE SOLE PROPERTY OF 
  7
SLDTEXTSTYLE3
 73
     1
 44
1.0
  0
MTEXT
  5
154
330
14D
100
AcDbEntity
  8
NOTES
 62
     0
100
AcDbMText
 10
0.0
 20
-0.4231398941
 30
0.0
 40
0.25
 41
0.0
 71
     1
 72
     1
  1
FROST PRODUCTS LTD.  ANY REPRODUCTION IN PART OR AS A WHOLE WITHOUT 
  7
SLDTEXTSTYLE3
 73
     1
 44
1.0
  0
MTEXT
  5
155
330
14D
100
AcDbEntity
  8
NOTES
 62
     0
100
AcDbMText
 10
0.0
 20
-0.7958433086
 30
0.0
 40
0.25
 41
0.0
 71
     1
 72
     1
  1
THE WRITTEN PERMISSION OF FROST PRODUCTS LTD. IS PROHIBITED.
  7
SLDTEXTSTYLE3
 73
     1
 44
1.0
  0
ENDBLK
  5
14F
330
14D
100
AcDbEntity
  8
0
100
AcDbBlockEnd
  0
BLOCK
  5
226
330
225
100
AcDbEntity
  8
0
100
AcDbBlockBegin
  2
_Open90
 70
     0
 10
0.0
 20
0.0
 30
0.0
  3
_Open90
  1

  0
LINE
  5
228
330
225
100
AcDbEntity
  8
0
  6
ByBlock
 62
     0
370
    -2
100
AcDbLine
 10
-0.5
 20
0.5
 30
0.0
 11
0.0
 21
0.0
 31
0.0
  0
LINE
  5
229
330
225
100
AcDbEntity
  8
0
  6
ByBlock
 62
     0
370
    -2
100
AcDbLine
 10
0.0
 20
0.0
 30
0.0
 11
-0.5
 21
-0.5
 31
0.0
  0
LINE
  5
22A
330
225
100
AcDbEntity
  8
0
  6
ByBlock
 62
     0
370
    -2
100
AcDbLine
 10
0.0
 20
0.0
 30
0.0
 11
-1.0
 21
0.0
 31
0.0
  0
ENDBLK
  5
227
330
225
100
AcDbEntity
  8
0
100
AcDbBlockEnd
  0
BLOCK
  5
22C
330
22B
100
AcDbEntity
  8
0
100
AcDbBlockBegin
  2
_D
 70
     0
 10
0.0
 20
0.0
 30
0.0
  3
_D
  1

  0
INSERT
  5
22E
330
22B
100
AcDbEntity
  8
DIMS
100
AcDbBlockReference
  2
_Open90
 10
51.5156081984
 20
48.6212692118
 30
0.0
 41
0.75
 42
0.75
 50
90.0
  0
INSERT
  5
22F
330
22B
100
AcDbEntity
  8
DIMS
100
AcDbBlockReference
  2
_Open90
 10
51.5156081984
 20
19.1789714397
 30
0.0
 41
0.75
 42
0.75
 50
270.0
  0
LINE
  5
230
330
22B
100
AcDbEntity
  8
DIMS
100
AcDbLine
 10
51.2510247349
 20
33.6572516013
 30
0.0
 11
52.5791498323
 21
33.6572516013
 31
0.0
  0
LINE
  5
231
330
22B
100
AcDbEntity
  8
DIMS
100
AcDbLine
 10
48.7227466689
 20
48.6212692118
 30
0.0
 11
51.8906081984
 21
48.6212692118
 31
0.0
  0
LINE
  5
232
330
22B
100
AcDbEntity
  8
DIMS
100
AcDbLine
 10
48.5250214667
 20
19.1789714397
 30
0.0
 11
51.8906081984
 21
19.1789714397
 31
0.0
  0
LINE
  5
233
330
22B
100
AcDbEntity
  8
DIMS
100
AcDbLine
 10
51.5156081984
 20
48.6212692118
 30
0.0
 11
51.5156081984
 21
34.5611057882
 31
0.0
  0
LINE
  5
234
330
22B
100
AcDbEntity
  8
DIMS
100
AcDbLine
 10
51.5156081984
 20
19.1789714397
 30
0.0
 11
51.5156081984
 21
32.5995431817
 31
0.0
  0
MTEXT
  5
235
330
22B
100
AcDbEntity
  8
DIMS
100
AcDbMText
 10
50.0327955547
 20
34.0013531874
 30
0.0
 40
0.75
 41
0.0
 71
     1
 72
     1
  1
29
  7
SLDTEXTSTYLE1
 73
     1
 44
1.0
  0
MTEXT
  5
236
330
22B
100
AcDbEntity
  8
DIMS
100
AcDbMText
 10
51.6380039495
 20
34.5493219222
 30
0.0
 40
0.75
 41
0.0
 71
     1
 72
     1
  1
7
  7
SLDTEXTSTYLE1
 73
     1
 44
1.0
  0
MTEXT
  5
237
330
22B
100
AcDbEntity
  8
DIMS
100
AcDbMText
 10
51.3609206154
 20
33.5575510561
 30
0.0
 40
0.75
 41
0.0
 71
     1
 72
     1
  1
16
  7
SLDTEXTSTYLE1
 73
     1
 44
1.0
  0
MTEXT
  5
238
330
22B
100
AcDbEntity
  8
DIMS
100
AcDbMText
 10
52.6890457494
 20
34.0013531874
 30
0.0
 40
0.75
 41
0.0
 71
     1
 72
     1
  1
"
  7
SLDTEXTSTYLE1
 73
     1
 44
1.0
  0
ENDBLK
  5
22D
330
22B
100
AcDbEntity
  8
0
100
AcDbBlockEnd
  0
BLOCK
  5
23C
330
23B
100
AcDbEntity
  8
0
100
AcDbBlockBegin
  2
_D_1
 70
     0
 10
0.0
 20
0.0
 30
0.0
  3
_D_1
  1

  0
INSERT
  5
23E
330
23B
100
AcDbEntity
  8
DIMS
100
AcDbBlockReference
  2
_Open90
 10
50.3345058362
 20
46.8712692118
 30
0.0
 41
0.75
 42
0.75
 50
90.0
  0
INSERT
  5
23F
330
23B
100
AcDbEntity
  8
DIMS
100
AcDbBlockReference
  2
_Open90
 10
50.3345058362
 20
48.6212692118
 30
0.0
 41
0.75
 42
0.75
 50
270.0
  0
LINE
  5
240
330
23B
100
AcDbEntity
  8
DIMS
100
AcDbLine
 10
50.0699224827
 20
47.7077006971
 30
0.0
 11
50.8438808752
 21
47.7077006971
 31
0.0
  0
LINE
  5
241
330
23B
100
AcDbEntity
  8
DIMS
100
AcDbLine
 10
49.020605245
 20
46.8712692118
 30
0.0
 11
50.7095058362
 21
46.8712692118
 31
0.0
  0
LINE
  5
242
330
23B
100
AcDbEntity
  8
DIMS
100
AcDbLine
 10
48.7227466689
 20
48.6212692118
 30
0.0
 11
50.7095058362
 21
48.6212692118
 31
0.0
  0
LINE
  5
243
330
23B
100
AcDbEntity
  8
DIMS
100
AcDbLine
 10
50.3345058362
 20
46.8712692118
 30
0.0
 11
50.3345058362
 21
45.4289615195
 31
0.0
  0
LINE
  5
244
330
23B
100
AcDbEntity
  8
DIMS
100
AcDbLine
 10
50.3345058362
 20
48.6212692118
 30
0.0
 11
50.3345058362
 21
50.0635769041
 31
0.0
  0
MTEXT
  5
245
330
23B
100
AcDbEntity
  8
DIMS
100
AcDbMText
 10
49.4058599707
 20
48.0518022832
 30
0.0
 40
0.75
 41
0.0
 71
     1
 72
     1
  1
1
  7
SLDTEXTSTYLE1
 73
     1
 44
1.0
  0
MTEXT
  5
246
330
23B
100
AcDbEntity
  8
DIMS
100
AcDbMText
 10
50.1798183449
 20
48.599771018
 30
0.0
 40
0.75
 41
0.0
 71
     1
 72
     1
  1
3
  7
SLDTEXTSTYLE1
 73
     1
 44
1.0
  0
MTEXT
  5
247
330
23B
100
AcDbEntity
  8
DIMS
100
AcDbMText
 10
50.1798183449
 20
47.6080001519
 30
0.0
 40
0.75
 41
0.0
 71
     1
 72
     1
  1
4
  7
SLDTEXTSTYLE1
 73
     1
 44
1.0
  0
MTEXT
  5
248
330
23B
100
AcDbEntity
  8
DIMS
100
AcDbMText
 10
50.9537767557
 20
48.0518022832
 30
0.0
 40
0.75
 41
0.0
 71
     1
 72
     1
  1
"
  7
SLDTEXTSTYLE1
 73
     1
 44
1.0
  0
ENDBLK
  5
23D
330
23B
100
AcDbEntity
  8
0
100
AcDbBlockEnd
  0
BLOCK
  5
264
330
263
100
AcDbEntity
  8
0
100
AcDbBlockBegin
  2
_D_2
 70
     0
 10
0.0
 20
0.0
 30
0.0
  3
_D_2
  1

  0
INSERT
  5
266
330
263
100
AcDbEntity
  8
DIMS
100
AcDbBlockReference
  2
_Open90
 10
46.1387512694
 20
59.1842368491
 30
-14.7211488861
 41
0.75
 42
0.75
 50
135.0
  0
LINE
  5
267
330
263
100
AcDbEntity
  8
DIMS
100
AcDbLine
 10
50.6858236001
 20
57.3134146485
 30
0.0
 11
51.4597819926
 21
57.3134146485
 31
0.0
  0
LINE
  5
268
330
263
100
AcDbEntity
  8
DIMS
100
AcDbLine
 10
46.1387512694
 20
59.1842368491
 30
0.0
 11
48.0865005863
 21
57.2364875322
 31
0.0
  0
LINE
  5
269
330
263
100
AcDbEntity
  8
DIMS
100
AcDbLine
 10
48.0865005863
 20
57.2364875322
 30
0.0
 11
48.3365005863
 21
57.2364875322
 31
0.0
  0
MTEXT
  5
26A
330
263
100
AcDbEntity
  8
DIMS
100
AcDbMText
 10
48.3365005863
 20
57.6460579053
 30
0.0
 40
0.75
 41
0.0
 71
     1
 72
     1
  1
%%c
  7
SLDTEXTSTYLE1
 73
     1
 44
1.0
  0
MTEXT
  5
26B
330
263
100
AcDbEntity
  8
DIMS
100
AcDbMText
 10
49.4675943465
 20
57.6575162346
 30
0.0
 40
0.75
 41
0.0
 71
     1
 72
     1
  1
18
  7
SLDTEXTSTYLE1
 73
     1
 44
1.0
  0
MTEXT
  5
26C
330
263
100
AcDbEntity
  8
DIMS
100
AcDbMText
 10
50.7957194622
 20
58.2054849694
 30
0.0
 40
0.75
 41
0.0
 71
     1
 72
     1
  1
1
  7
SLDTEXTSTYLE1
 73
     1
 44
1.0
  0
MTEXT
  5
26D
330
263
100
AcDbEntity
  8
DIMS
100
AcDbMText
 10
50.7957194622
 20
57.2137141033
 30
0.0
 40
0.75
 41
0.0
 71
     1
 72
     1
  1
2
  7
SLDTEXTSTYLE1
 73
     1
 44
1.0
  0
MTEXT
  5
26E
330
263
100
AcDbEntity
  8
DIMS
100
AcDbMText
 10
51.5696776897
 20
57.6575162346
 30
0.0
 40
0.75
 41
0.0
 71
     1
 72
     1
  1
"
  7
SLDTEXTSTYLE1
 73
     1
 44
1.0
  0
ENDBLK
  5
265
330
263
100
AcDbEntity
  8
0
100
AcDbBlockEnd
  0
BLOCK
  5
271
330
270
100
AcDbEntity
  8
0
100
AcDbBlockBegin
  2
_D_3
 70
     0
 10
0.0
 20
0.0
 30
0.0
  3
_D_3
  1

  0
INSERT
  5
273
330
270
100
AcDbEntity
  8
DIMS
100
AcDbBlockReference
  2
_Open90
 10
41.716491885
 20
62.0508882674
 30
-14.7211488861
 41
0.75
 42
0.75
 50
120.0
  0
LINE
  5
274
330
270
100
AcDbEntity
  8
DIMS
100
AcDbLine
 10
47.8962738302
 20
54.9664337114
 30
0.0
 11
48.6702322227
 21
54.9664337114
 31
0.0
  0
LINE
  5
275
330
270
100
AcDbEntity
  8
DIMS
100
AcDbLine
 10
41.716491885
 20
62.0508882674
 30
0.0
 11
45.8511175213
 21
54.8895065951
 31
0.0
  0
LINE
  5
276
330
270
100
AcDbEntity
  8
DIMS
100
AcDbLine
 10
45.8511175213
 20
54.8895065951
 30
0.0
 11
46.1011175213
 21
54.8895065951
 31
0.0
  0
MTEXT
  5
277
330
270
100
AcDbEntity
  8
DIMS
100
AcDbMText
 10
46.1011175213
 20
55.2990769681
 30
0.0
 40
0.75
 41
0.0
 71
     1
 72
     1
  1
%%c
  7
SLDTEXTSTYLE1
 73
     1
 44
1.0
  0
MTEXT
  5
278
330
270
100
AcDbEntity
  8
DIMS
100
AcDbMText
 10
47.2322112815
 20
55.3105352974
 30
0.0
 40
0.75
 41
0.0
 71
     1
 72
     1
  1
8
  7
SLDTEXTSTYLE1
 73
     1
 44
1.0
  0
MTEXT
  5
279
330
270
100
AcDbEntity
  8
DIMS
100
AcDbMText
 10
48.0061696923
 20
55.8585040323
 30
0.0
 40
0.75
 41
0.0
 71
     1
 72
     1
  1
1
  7
SLDTEXTSTYLE1
 73
     1
 44
1.0
  0
MTEXT
  5
27A
330
270
100
AcDbEntity
  8
DIMS
100
AcDbMText
 10
48.0061696923
 20
54.8667331662
 30
0.0
 40
0.75
 41
0.0
 71
     1
 72
     1
  1
2
  7
SLDTEXTSTYLE1
 73
     1
 44
1.0
  0
MTEXT
  5
27B
330
270
100
AcDbEntity
  8
DIMS
100
AcDbMText
 10
48.7801280665
 20
55.3105352974
 30
0.0
 40
0.75
 41
0.0
 71
     1
 72
     1
  1
"
  7
SLDTEXTSTYLE1
 73
     1
 44
1.0
  0
ENDBLK
  5
272
330
270
100
AcDbEntity
  8
0
100
AcDbBlockEnd
  0
BLOCK
  5
301
330
300
100
AcDbEntity
  8
0
100
AcDbBlockBegin
  2
_D_4
 70
     0
 10
0.0
 20
0.0
 30
0.0
  3
_D_4
  1

  0
INSERT
  5
303
330
300
100
AcDbEntity
  8
DIMS
100
AcDbBlockReference
  2
_Open90
 10
11.9902903956
 20
50.4254960781
 30
4.6312228545
 41
0.75
 42
0.75
 50
180.0
  0
INSERT
  5
304
330
300
100
AcDbEntity
  8
DIMS
100
AcDbBlockReference
  2
_Open90
 10
20.4902903956
 20
50.4254960781
 30
4.6312228545
 41
0.75
 42
0.75
 50
0.0
  0
LINE
  5
305
330
300
100
AcDbEntity
  8
DIMS
100
AcDbLine
 10
16.0639772379
 20
50.5024231945
 30
0.0
 11
16.8379356304
 21
50.5024231945
 31
0.0
  0
LINE
  5
306
330
300
100
AcDbEntity
  8
DIMS
100
AcDbLine
 10
11.9902903956
 20
47.2811391228
 30
0.0
 11
11.9902903956
 21
50.8004960781
 31
0.0
  0
LINE
  5
307
330
300
100
AcDbEntity
  8
DIMS
100
AcDbLine
 10
20.4902903956
 20
47.2811391228
 30
0.0
 11
20.4902903956
 21
50.8004960781
 31
0.0
  0
LINE
  5
308
330
300
100
AcDbEntity
  8
DIMS
100
AcDbLine
 10
11.9902903956
 20
50.4254960781
 30
0.0
 11
14.268820929
 21
50.4254960781
 31
0.0
  0
LINE
  5
309
330
300
100
AcDbEntity
  8
DIMS
100
AcDbLine
 10
20.4902903956
 20
50.4254960781
 30
0.0
 11
17.257206567
 21
50.4254960781
 31
0.0
  0
MTEXT
  5
30A
330
300
100
AcDbEntity
  8
DIMS
100
AcDbMText
 10
14.268820929
 20
50.8350664512
 30
0.0
 40
0.75
 41
0.0
 71
     1
 72
     1
  1
%%c
  7
SLDTEXTSTYLE1
 73
     1
 44
1.0
  0
MTEXT
  5
30B
330
300
100
AcDbEntity
  8
DIMS
100
AcDbMText
 10
15.3999146892
 20
50.8465247805
 30
0.0
 40
0.75
 41
0.0
 71
     1
 72
     1
  1
8
  7
SLDTEXTSTYLE1
 73
     1
 44
1.0
  0
MTEXT
  5
30C
330
300
100
AcDbEntity
  8
DIMS
100
AcDbMText
 10
16.1738731001
 20
51.3944935154
 30
0.0
 40
0.75
 41
0.0
 71
     1
 72
     1
  1
1
  7
SLDTEXTSTYLE1
 73
     1
 44
1.0
  0
MTEXT
  5
30D
330
300
100
AcDbEntity
  8
DIMS
100
AcDbMText
 10
16.1738731001
 20
50.4027226493
 30
0.0
 40
0.75
 41
0.0
 71
     1
 72
     1
  1
2
  7
SLDTEXTSTYLE1
 73
     1
 44
1.0
  0
MTEXT
  5
30E
330
300
100
AcDbEntity
  8
DIMS
100
AcDbMText
 10
16.9478314742
 20
50.8465247805
 30
0.0
 40
0.75
 41
0.0
 71
     1
 72
     1
  1
"
  7
SLDTEXTSTYLE1
 73
     1
 44
1.0
  0
ENDBLK
  5
302
330
300
100
AcDbEntity
  8
0
100
AcDbBlockEnd
  0
ENDSEC
  0
SECTION
  2
ENTITIES
  0
LINE
  5
7A
330
1F
100
AcDbEntity
  8
TITLE
370
    50
100
AcDbLine
 10
62.893223024
 20
1.4876117645
 30
0.0
 11
79.8749864512
 21
1.4876117645
 31
0.0
  0
LINE
  5
7B
330
1F
100
AcDbEntity
  8
TITLE
370
    50
100
AcDbLine
 10
79.8749317442
 20
5.4753603936
 30
0.0
 11
69.6855350723
 21
5.4753603936
 31
0.0
  0
LINE
  5
7C
330
1F
100
AcDbEntity
  8
TITLE
  6
SLD-Solid
370
    18
100
AcDbLine
 10
0.5
 20
0.5
 30
0.0
 11
0.5
 21
99.5
 31
0.0
  0
LINE
  5
7D
330
1F
100
AcDbEntity
  8
TITLE
  6
SLD-Solid
370
    18
100
AcDbLine
 10
0.5
 20
99.5
 30
0.0
 11
79.875
 21
99.5
 31
0.0
  0
LINE
  5
7E
330
1F
100
AcDbEntity
  8
TITLE
370
    50
100
AcDbLine
 10
62.893223024
 20
2.5427877231
 30
0.0
 11
55.8809791203
 21
2.5427877231
 31
0.0
  0
LINE
  5
7F
330
1F
100
AcDbEntity
  8
TITLE
370
    50
100
AcDbLine
 10
62.893223024
 20
1.4876117645
 30
0.0
 11
55.8809791203
 21
1.4876117645
 31
0.0
  0
LINE
  5
80
330
1F
100
AcDbEntity
  8
TITLE
  6
SLD-Solid
370
    18
100
AcDbLine
 10
79.875
 20
99.5
 30
0.0
 11
79.875
 21
0.5
 31
0.0
  0
LINE
  5
81
330
1F
100
AcDbEntity
  8
TITLE
  6
SLD-Solid
370
    18
100
AcDbLine
 10
79.875
 20
0.5
 30
0.0
 11
0.5
 21
0.5
 31
0.0
  0
LINE
  5
82
330
1F
100
AcDbEntity
  8
TITLE
370
    50
100
AcDbLine
 10
62.893223024
 20
1.4876117645
 30
0.0
 11
62.893223024
 21
3.5979636817
 31
0.0
  0
LINE
  5
83
330
1F
100
AcDbEntity
  8
TITLE
370
    50
100
AcDbLine
 10
55.8809791203
 20
3.5979636817
 30
0.0
 11
55.8809791203
 21
0.5
 31
0.0
  0
LINE
  5
84
330
1F
100
AcDbEntity
  8
TITLE
370
    50
100
AcDbLine
 10
55.8809791203
 20
0.5
 30
0.0
 11
79.875
 21
0.5
 31
0.0
  0
LINE
  5
85
330
1F
100
AcDbEntity
  8
TITLE
370
    50
100
AcDbLine
 10
79.8749317442
 20
5.4753603936
 30
0.0
 11
79.875
 21
0.5
 31
0.0
  0
LINE
  5
86
330
1F
100
AcDbEntity
  8
TITLE
  6
SLD-Solid
370
    18
100
AcDbLine
 10
0.4999606299
 20
50.0
 30
0.0
 11
0.5000393701
 21
50.0
 31
0.0
  0
LINE
  5
87
330
1F
100
AcDbEntity
  8
TITLE
370
    50
100
AcDbLine
 10
62.893223024
 20
3.5979636817
 30
0.0
 11
55.8809791203
 21
3.5979636817
 31
0.0
  0
LINE
  5
88
330
1F
100
AcDbEntity
  8
TITLE
370
    50
100
AcDbLine
 10
62.893223024
 20
3.5979636817
 30
0.0
 11
79.8747615643
 21
3.5979648343
 31
0.0
  0
LINE
  5
89
330
1F
100
AcDbEntity
  8
TITLE
370
    50
100
AcDbLine
 10
69.6855350723
 20
5.4753603936
 30
0.0
 11
69.6855350723
 21
0.4636772425
 31
0.0
  0
LINE
  5
8A
330
1F
100
AcDbEntity
  8
TITLE
  6
SLD-Solid
370
    18
100
AcDbLine
 10
40.1875
 20
99.5000393701
 30
0.0
 11
40.1875
 21
99.4999606299
 31
0.0
  0
LINE
  5
8B
330
1F
100
AcDbEntity
  8
TITLE
  6
SLD-Solid
370
    18
100
AcDbLine
 10
79.8750393701
 20
50.0
 30
0.0
 11
79.8749606299
 21
50.0
 31
0.0
  0
LINE
  5
8C
330
1F
100
AcDbEntity
  8
TITLE
  6
SLD-Solid
370
    18
100
AcDbLine
 10
40.1875
 20
0.4999606299
 30
0.0
 11
40.1875
 21
0.5000393701
 31
0.0
  0
LINE
  5
8D
330
1F
100
AcDbEntity
  8
TITLE
  6
SLD-Solid
370
    18
100
AcDbLine
 10
0.5
 20
2.7559055118
 30
0.0
 11
0.1653543307
 21
2.7559055118
 31
0.0
  0
LINE
  5
8E
330
1F
100
AcDbEntity
  8
TITLE
  6
SLD-Solid
370
    18
100
AcDbLine
 10
79.875
 20
2.7559055118
 30
0.0
 11
80.2096456693
 21
2.7559055118
 31
0.0
  0
LINE
  5
8F
330
1F
100
AcDbEntity
  8
TITLE
  6
SLD-Solid
370
    18
100
AcDbLine
 10
0.5
 20
4.7244094488
 30
0.0
 11
0.1653543307
 21
4.7244094488
 31
0.0
  0
LINE
  5
90
330
1F
100
AcDbEntity
  8
TITLE
  6
SLD-Solid
370
    18
100
AcDbLine
 10
79.875
 20
4.7244094488
 30
0.0
 11
80.2096456693
 21
4.7244094488
 31
0.0
  0
LINE
  5
91
330
1F
100
AcDbEntity
  8
TITLE
  6
SLD-Solid
370
    18
100
AcDbLine
 10
0.5
 20
6.6929133858
 30
0.0
 11
0.1653543307
 21
6.6929133858
 31
0.0
  0
LINE
  5
92
330
1F
100
AcDbEntity
  8
TITLE
  6
SLD-Solid
370
    18
100
AcDbLine
 10
79.875
 20
6.6929133858
 30
0.0
 11
80.2096456693
 21
6.6929133858
 31
0.0
  0
LINE
  5
93
330
1F
100
AcDbEntity
  8
TITLE
  6
SLD-Solid
370
    18
100
AcDbLine
 10
0.5
 20
8.6614173228
 30
0.0
 11
0.1653543307
 21
8.6614173228
 31
0.0
  0
LINE
  5
94
330
1F
100
AcDbEntity
  8
TITLE
  6
SLD-Solid
370
    18
100
AcDbLine
 10
79.875
 20
8.6614173228
 30
0.0
 11
80.2096456693
 21
8.6614173228
 31
0.0
  0
LINE
  5
95
330
1F
100
AcDbEntity
  8
TITLE
  6
SLD-Solid
370
    18
100
AcDbLine
 10
0.5
 20
10.6299212598
 30
0.0
 11
0.1653543307
 21
10.6299212598
 31
0.0
  0
LINE
  5
96
330
1F
100
AcDbEntity
  8
TITLE
  6
SLD-Solid
370
    18
100
AcDbLine
 10
79.875
 20
10.6299212598
 30
0.0
 11
80.2096456693
 21
10.6299212598
 31
0.0
  0
LINE
  5
97
330
1F
100
AcDbEntity
  8
TITLE
  6
SLD-Solid
370
    18
100
AcDbLine
 10
0.5
 20
12.5984251969
 30
0.0
 11
0.1653543307
 21
12.5984251969
 31
0.0
  0
LINE
  5
98
330
1F
100
AcDbEntity
  8
TITLE
  6
SLD-Solid
370
    18
100
AcDbLine
 10
79.875
 20
12.5984251969
 30
0.0
 11
80.2096456693
 21
12.5984251969
 31
0.0
  0
LINE
  5
99
330
1F
100
AcDbEntity
  8
TITLE
  6
SLD-Solid
370
    18
100
AcDbLine
 10
0.5
 20
14.5669291339
 30
0.0
 11
0.1653543307
 21
14.5669291339
 31
0.0
  0
LINE
  5
9A
330
1F
100
AcDbEntity
  8
TITLE
  6
SLD-Solid
370
    18
100
AcDbLine
 10
79.875
 20
14.5669291339
 30
0.0
 11
80.2096456693
 21
14.5669291339
 31
0.0
  0
LINE
  5
9B
330
1F
100
AcDbEntity
  8
TITLE
  6
SLD-Solid
370
    18
100
AcDbLine
 10
0.5
 20
16.5354330709
 30
0.0
 11
0.1653543307
 21
16.5354330709
 31
0.0
  0
LINE
  5
9C
330
1F
100
AcDbEntity
  8
TITLE
  6
SLD-Solid
370
    18
100
AcDbLine
 10
79.875
 20
16.5354330709
 30
0.0
 11
80.2096456693
 21
16.5354330709
 31
0.0
  0
LINE
  5
9D
330
1F
100
AcDbEntity
  8
TITLE
  6
SLD-Solid
370
    18
100
AcDbLine
 10
0.5
 20
18.5039370079
 30
0.0
 11
0.1653543307
 21
18.5039370079
 31
0.0
  0
LINE
  5
9E
330
1F
100
AcDbEntity
  8
TITLE
  6
SLD-Solid
370
    18
100
AcDbLine
 10
79.875
 20
18.5039370079
 30
0.0
 11
80.2096456693
 21
18.5039370079
 31
0.0
  0
LINE
  5
9F
330
1F
100
AcDbEntity
  8
TITLE
  6
SLD-Solid
370
    18
100
AcDbLine
 10
0.5
 20
20.4724409449
 30
0.0
 11
0.1653543307
 21
20.4724409449
 31
0.0
  0
LINE
  5
A0
330
1F
100
AcDbEntity
  8
TITLE
  6
SLD-Solid
370
    18
100
AcDbLine
 10
79.875
 20
20.4724409449
 30
0.0
 11
80.2096456693
 21
20.4724409449
 31
0.0
  0
LINE
  5
A1
330
1F
100
AcDbEntity
  8
TITLE
  6
SLD-Solid
370
    18
100
AcDbLine
 10
0.5
 20
22.4409448819
 30
0.0
 11
0.1653543307
 21
22.4409448819
 31
0.0
  0
LINE
  5
A2
330
1F
100
AcDbEntity
  8
TITLE
  6
SLD-Solid
370
    18
100
AcDbLine
 10
79.875
 20
22.4409448819
 30
0.0
 11
80.2096456693
 21
22.4409448819
 31
0.0
  0
LINE
  5
A3
330
1F
100
AcDbEntity
  8
TITLE
  6
SLD-Solid
370
    18
100
AcDbLine
 10
0.5
 20
24.4094488189
 30
0.0
 11
0.1653543307
 21
24.4094488189
 31
0.0
  0
LINE
  5
A4
330
1F
100
AcDbEntity
  8
TITLE
  6
SLD-Solid
370
    18
100
AcDbLine
 10
79.875
 20
24.4094488189
 30
0.0
 11
80.2096456693
 21
24.4094488189
 31
0.0
  0
LINE
  5
A5
330
1F
100
AcDbEntity
  8
TITLE
  6
SLD-Solid
370
    18
100
AcDbLine
 10
0.5
 20
26.3779527559
 30
0.0
 11
0.1653543307
 21
26.3779527559
 31
0.0
  0
LINE
  5
A6
330
1F
100
AcDbEntity
  8
TITLE
  6
SLD-Solid
370
    18
100
AcDbLine
 10
79.875
 20
26.3779527559
 30
0.0
 11
80.2096456693
 21
26.3779527559
 31
0.0
  0
LINE
  5
A7
330
1F
100
AcDbEntity
  8
TITLE
  6
SLD-Solid
370
    18
100
AcDbLine
 10
0.5
 20
28.3464566929
 30
0.0
 11
0.1653543307
 21
28.3464566929
 31
0.0
  0
LINE
  5
A8
330
1F
100
AcDbEntity
  8
TITLE
  6
SLD-Solid
370
    18
100
AcDbLine
 10
79.875
 20
28.3464566929
 30
0.0
 11
80.2096456693
 21
28.3464566929
 31
0.0
  0
LINE
  5
A9
330
1F
100
AcDbEntity
  8
TITLE
  6
SLD-Solid
370
    18
100
AcDbLine
 10
0.5
 20
30.3149606299
 30
0.0
 11
0.1653543307
 21
30.3149606299
 31
0.0
  0
LINE
  5
AA
330
1F
100
AcDbEntity
  8
TITLE
  6
SLD-Solid
370
    18
100
AcDbLine
 10
79.875
 20
30.3149606299
 30
0.0
 11
80.2096456693
 21
30.3149606299
 31
0.0
  0
LINE
  5
AB
330
1F
100
AcDbEntity
  8
TITLE
  6
SLD-Solid
370
    18
100
AcDbLine
 10
0.5
 20
32.2834645669
 30
0.0
 11
0.1653543307
 21
32.2834645669
 31
0.0
  0
LINE
  5
AC
330
1F
100
AcDbEntity
  8
TITLE
  6
SLD-Solid
370
    18
100
AcDbLine
 10
79.875
 20
32.2834645669
 30
0.0
 11
80.2096456693
 21
32.2834645669
 31
0.0
  0
LINE
  5
AD
330
1F
100
AcDbEntity
  8
TITLE
  6
SLD-Solid
370
    18
100
AcDbLine
 10
0.5
 20
34.2519685039
 30
0.0
 11
0.1653543307
 21
34.2519685039
 31
0.0
  0
LINE
  5
AE
330
1F
100
AcDbEntity
  8
TITLE
  6
SLD-Solid
370
    18
100
AcDbLine
 10
79.875
 20
34.2519685039
 30
0.0
 11
80.2096456693
 21
34.2519685039
 31
0.0
  0
LINE
  5
AF
330
1F
100
AcDbEntity
  8
TITLE
  6
SLD-Solid
370
    18
100
AcDbLine
 10
0.5
 20
36.2204724409
 30
0.0
 11
0.1653543307
 21
36.2204724409
 31
0.0
  0
LINE
  5
B0
330
1F
100
AcDbEntity
  8
TITLE
  6
SLD-Solid
370
    18
100
AcDbLine
 10
79.875
 20
36.2204724409
 30
0.0
 11
80.2096456693
 21
36.2204724409
 31
0.0
  0
LINE
  5
B1
330
1F
100
AcDbEntity
  8
TITLE
  6
SLD-Solid
370
    18
100
AcDbLine
 10
0.5
 20
38.188976378
 30
0.0
 11
0.1653543307
 21
38.188976378
 31
0.0
  0
LINE
  5
B2
330
1F
100
AcDbEntity
  8
TITLE
  6
SLD-Solid
370
    18
100
AcDbLine
 10
79.875
 20
38.188976378
 30
0.0
 11
80.2096456693
 21
38.188976378
 31
0.0
  0
LINE
  5
B3
330
1F
100
AcDbEntity
  8
TITLE
  6
SLD-Solid
370
    18
100
AcDbLine
 10
0.5
 20
40.157480315
 30
0.0
 11
0.1653543307
 21
40.157480315
 31
0.0
  0
LINE
  5
B4
330
1F
100
AcDbEntity
  8
TITLE
  6
SLD-Solid
370
    18
100
AcDbLine
 10
79.875
 20
40.157480315
 30
0.0
 11
80.2096456693
 21
40.157480315
 31
0.0
  0
LINE
  5
B5
330
1F
100
AcDbEntity
  8
TITLE
  6
SLD-Solid
370
    18
100
AcDbLine
 10
0.5
 20
42.125984252
 30
0.0
 11
0.1653543307
 21
42.125984252
 31
0.0
  0
LINE
  5
B6
330
1F
100
AcDbEntity
  8
TITLE
  6
SLD-Solid
370
    18
100
AcDbLine
 10
79.875
 20
42.125984252
 30
0.0
 11
80.2096456693
 21
42.125984252
 31
0.0
  0
LINE
  5
B7
330
1F
100
AcDbEntity
  8
TITLE
  6
SLD-Solid
370
    18
100
AcDbLine
 10
0.5
 20
44.094488189
 30
0.0
 11
0.1653543307
 21
44.094488189
 31
0.0
  0
LINE
  5
B8
330
1F
100
AcDbEntity
  8
TITLE
  6
SLD-Solid
370
    18
100
AcDbLine
 10
79.875
 20
44.094488189
 30
0.0
 11
80.2096456693
 21
44.094488189
 31
0.0
  0
LINE
  5
B9
330
1F
100
AcDbEntity
  8
TITLE
  6
SLD-Solid
370
    18
100
AcDbLine
 10
0.5
 20
46.062992126
 30
0.0
 11
0.1653543307
 21
46.062992126
 31
0.0
  0
LINE
  5
BA
330
1F
100
AcDbEntity
  8
TITLE
  6
SLD-Solid
370
    18
100
AcDbLine
 10
79.875
 20
46.062992126
 30
0.0
 11
80.2096456693
 21
46.062992126
 31
0.0
  0
LINE
  5
BB
330
1F
100
AcDbEntity
  8
TITLE
  6
SLD-Solid
370
    18
100
AcDbLine
 10
0.5
 20
48.031496063
 30
0.0
 11
0.1653543307
 21
48.031496063
 31
0.0
  0
LINE
  5
BC
330
1F
100
AcDbEntity
  8
TITLE
  6
SLD-Solid
370
    18
100
AcDbLine
 10
79.875
 20
48.031496063
 30
0.0
 11
80.2096456693
 21
48.031496063
 31
0.0
  0
LINE
  5
BD
330
1F
100
AcDbEntity
  8
TITLE
  6
SLD-Solid
370
    18
100
AcDbLine
 10
0.5
 20
50.0
 30
0.0
 11
0.1653543307
 21
50.0
 31
0.0
  0
LINE
  5
BE
330
1F
100
AcDbEntity
  8
TITLE
  6
SLD-Solid
370
    18
100
AcDbLine
 10
79.875
 20
50.0
 30
0.0
 11
80.2096456693
 21
50.0
 31
0.0
  0
LINE
  5
BF
330
1F
100
AcDbEntity
  8
TITLE
  6
SLD-Solid
370
    18
100
AcDbLine
 10
0.5
 20
51.968503937
 30
0.0
 11
0.1653543307
 21
51.968503937
 31
0.0
  0
LINE
  5
C0
330
1F
100
AcDbEntity
  8
TITLE
  6
SLD-Solid
370
    18
100
AcDbLine
 10
79.875
 20
51.968503937
 30
0.0
 11
80.2096456693
 21
51.968503937
 31
0.0
  0
LINE
  5
C1
330
1F
100
AcDbEntity
  8
TITLE
  6
SLD-Solid
370
    18
100
AcDbLine
 10
0.5
 20
53.937007874
 30
0.0
 11
0.1653543307
 21
53.937007874
 31
0.0
  0
LINE
  5
C2
330
1F
100
AcDbEntity
  8
TITLE
  6
SLD-Solid
370
    18
100
AcDbLine
 10
79.875
 20
53.937007874
 30
0.0
 11
80.2096456693
 21
53.937007874
 31
0.0
  0
LINE
  5
C3
330
1F
100
AcDbEntity
  8
TITLE
  6
SLD-Solid
370
    18
100
AcDbLine
 10
0.5
 20
55.905511811
 30
0.0
 11
0.1653543307
 21
55.905511811
 31
0.0
  0
LINE
  5
C4
330
1F
100
AcDbEntity
  8
TITLE
  6
SLD-Solid
370
    18
100
AcDbLine
 10
79.875
 20
55.905511811
 30
0.0
 11
80.2096456693
 21
55.905511811
 31
0.0
  0
LINE
  5
C5
330
1F
100
AcDbEntity
  8
TITLE
  6
SLD-Solid
370
    18
100
AcDbLine
 10
0.5
 20
57.874015748
 30
0.0
 11
0.1653543307
 21
57.874015748
 31
0.0
  0
LINE
  5
C6
330
1F
100
AcDbEntity
  8
TITLE
  6
SLD-Solid
370
    18
100
AcDbLine
 10
79.875
 20
57.874015748
 30
0.0
 11
80.2096456693
 21
57.874015748
 31
0.0
  0
LINE
  5
C7
330
1F
100
AcDbEntity
  8
TITLE
  6
SLD-Solid
370
    18
100
AcDbLine
 10
0.5
 20
59.842519685
 30
0.0
 11
0.1653543307
 21
59.842519685
 31
0.0
  0
LINE
  5
C8
330
1F
100
AcDbEntity
  8
TITLE
  6
SLD-Solid
370
    18
100
AcDbLine
 10
79.875
 20
59.842519685
 30
0.0
 11
80.2096456693
 21
59.842519685
 31
0.0
  0
LINE
  5
C9
330
1F
100
AcDbEntity
  8
TITLE
  6
SLD-Solid
370
    18
100
AcDbLine
 10
0.5
 20
61.811023622
 30
0.0
 11
0.1653543307
 21
61.811023622
 31
0.0
  0
LINE
  5
CA
330
1F
100
AcDbEntity
  8
TITLE
  6
SLD-Solid
370
    18
100
AcDbLine
 10
79.875
 20
61.811023622
 30
0.0
 11
80.2096456693
 21
61.811023622
 31
0.0
  0
LINE
  5
CB
330
1F
100
AcDbEntity
  8
TITLE
  6
SLD-Solid
370
    18
100
AcDbLine
 10
0.5
 20
63.7795275591
 30
0.0
 11
0.1653543307
 21
63.7795275591
 31
0.0
  0
LINE
  5
CC
330
1F
100
AcDbEntity
  8
TITLE
  6
SLD-Solid
370
    18
100
AcDbLine
 10
79.875
 20
63.7795275591
 30
0.0
 11
80.2096456693
 21
63.7795275591
 31
0.0
  0
LINE
  5
CD
330
1F
100
AcDbEntity
  8
TITLE
  6
SLD-Solid
370
    18
100
AcDbLine
 10
0.5
 20
65.7480314961
 30
0.0
 11
0.1653543307
 21
65.7480314961
 31
0.0
  0
LINE
  5
CE
330
1F
100
AcDbEntity
  8
TITLE
  6
SLD-Solid
370
    18
100
AcDbLine
 10
79.875
 20
65.7480314961
 30
0.0
 11
80.2096456693
 21
65.7480314961
 31
0.0
  0
LINE
  5
CF
330
1F
100
AcDbEntity
  8
TITLE
  6
SLD-Solid
370
    18
100
AcDbLine
 10
0.5
 20
67.7165354331
 30
0.0
 11
0.1653543307
 21
67.7165354331
 31
0.0
  0
LINE
  5
D0
330
1F
100
AcDbEntity
  8
TITLE
  6
SLD-Solid
370
    18
100
AcDbLine
 10
79.875
 20
67.7165354331
 30
0.0
 11
80.2096456693
 21
67.7165354331
 31
0.0
  0
LINE
  5
D1
330
1F
100
AcDbEntity
  8
TITLE
  6
SLD-Solid
370
    18
100
AcDbLine
 10
0.5
 20
69.6850393701
 30
0.0
 11
0.1653543307
 21
69.6850393701
 31
0.0
  0
LINE
  5
D2
330
1F
100
AcDbEntity
  8
TITLE
  6
SLD-Solid
370
    18
100
AcDbLine
 10
79.875
 20
69.6850393701
 30
0.0
 11
80.2096456693
 21
69.6850393701
 31
0.0
  0
LINE
  5
D3
330
1F
100
AcDbEntity
  8
TITLE
  6
SLD-Solid
370
    18
100
AcDbLine
 10
0.5
 20
71.6535433071
 30
0.0
 11
0.1653543307
 21
71.6535433071
 31
0.0
  0
LINE
  5
D4
330
1F
100
AcDbEntity
  8
TITLE
  6
SLD-Solid
370
    18
100
AcDbLine
 10
79.875
 20
71.6535433071
 30
0.0
 11
80.2096456693
 21
71.6535433071
 31
0.0
  0
LINE
  5
D5
330
1F
100
AcDbEntity
  8
TITLE
  6
SLD-Solid
370
    18
100
AcDbLine
 10
0.5
 20
73.6220472441
 30
0.0
 11
0.1653543307
 21
73.6220472441
 31
0.0
  0
LINE
  5
D6
330
1F
100
AcDbEntity
  8
TITLE
  6
SLD-Solid
370
    18
100
AcDbLine
 10
79.875
 20
73.6220472441
 30
0.0
 11
80.2096456693
 21
73.6220472441
 31
0.0
  0
LINE
  5
D7
330
1F
100
AcDbEntity
  8
TITLE
  6
SLD-Solid
370
    18
100
AcDbLine
 10
0.5
 20
75.5905511811
 30
0.0
 11
0.1653543307
 21
75.5905511811
 31
0.0
  0
LINE
  5
D8
330
1F
100
AcDbEntity
  8
TITLE
  6
SLD-Solid
370
    18
100
AcDbLine
 10
79.875
 20
75.5905511811
 30
0.0
 11
80.2096456693
 21
75.5905511811
 31
0.0
  0
LINE
  5
D9
330
1F
100
AcDbEntity
  8
TITLE
  6
SLD-Solid
370
    18
100
AcDbLine
 10
0.5
 20
77.5590551181
 30
0.0
 11
0.1653543307
 21
77.5590551181
 31
0.0
  0
LINE
  5
DA
330
1F
100
AcDbEntity
  8
TITLE
  6
SLD-Solid
370
    18
100
AcDbLine
 10
79.875
 20
77.5590551181
 30
0.0
 11
80.2096456693
 21
77.5590551181
 31
0.0
  0
LINE
  5
DB
330
1F
100
AcDbEntity
  8
TITLE
  6
SLD-Solid
370
    18
100
AcDbLine
 10
0.5
 20
79.5275590551
 30
0.0
 11
0.1653543307
 21
79.5275590551
 31
0.0
  0
LINE
  5
DC
330
1F
100
AcDbEntity
  8
TITLE
  6
SLD-Solid
370
    18
100
AcDbLine
 10
79.875
 20
79.5275590551
 30
0.0
 11
80.2096456693
 21
79.5275590551
 31
0.0
  0
LINE
  5
DD
330
1F
100
AcDbEntity
  8
TITLE
  6
SLD-Solid
370
    18
100
AcDbLine
 10
0.5
 20
81.4960629921
 30
0.0
 11
0.1653543307
 21
81.4960629921
 31
0.0
  0
LINE
  5
DE
330
1F
100
AcDbEntity
  8
TITLE
  6
SLD-Solid
370
    18
100
AcDbLine
 10
79.875
 20
81.4960629921
 30
0.0
 11
80.2096456693
 21
81.4960629921
 31
0.0
  0
LINE
  5
DF
330
1F
100
AcDbEntity
  8
TITLE
  6
SLD-Solid
370
    18
100
AcDbLine
 10
0.5
 20
83.4645669291
 30
0.0
 11
0.1653543307
 21
83.4645669291
 31
0.0
  0
LINE
  5
E0
330
1F
100
AcDbEntity
  8
TITLE
  6
SLD-Solid
370
    18
100
AcDbLine
 10
79.875
 20
83.4645669291
 30
0.0
 11
80.2096456693
 21
83.4645669291
 31
0.0
  0
LINE
  5
E1
330
1F
100
AcDbEntity
  8
TITLE
  6
SLD-Solid
370
    18
100
AcDbLine
 10
0.5
 20
85.4330708661
 30
0.0
 11
0.1653543307
 21
85.4330708661
 31
0.0
  0
LINE
  5
E2
330
1F
100
AcDbEntity
  8
TITLE
  6
SLD-Solid
370
    18
100
AcDbLine
 10
79.875
 20
85.4330708661
 30
0.0
 11
80.2096456693
 21
85.4330708661
 31
0.0
  0
LINE
  5
E3
330
1F
100
AcDbEntity
  8
TITLE
  6
SLD-Solid
370
    18
100
AcDbLine
 10
0.5
 20
87.4015748031
 30
0.0
 11
0.1653543307
 21
87.4015748031
 31
0.0
  0
LINE
  5
E4
330
1F
100
AcDbEntity
  8
TITLE
  6
SLD-Solid
370
    18
100
AcDbLine
 10
79.875
 20
87.4015748031
 30
0.0
 11
80.2096456693
 21
87.4015748031
 31
0.0
  0
LINE
  5
E5
330
1F
100
AcDbEntity
  8
TITLE
  6
SLD-Solid
370
    18
100
AcDbLine
 10
0.5
 20
89.3700787402
 30
0.0
 11
0.1653543307
 21
89.3700787402
 31
0.0
  0
LINE
  5
E6
330
1F
100
AcDbEntity
  8
TITLE
  6
SLD-Solid
370
    18
100
AcDbLine
 10
79.875
 20
89.3700787402
 30
0.0
 11
80.2096456693
 21
89.3700787402
 31
0.0
  0
LINE
  5
E7
330
1F
100
AcDbEntity
  8
TITLE
  6
SLD-Solid
370
    18
100
AcDbLine
 10
0.5
 20
91.3385826772
 30
0.0
 11
0.1653543307
 21
91.3385826772
 31
0.0
  0
LINE
  5
E8
330
1F
100
AcDbEntity
  8
TITLE
  6
SLD-Solid
370
    18
100
AcDbLine
 10
79.875
 20
91.3385826772
 30
0.0
 11
80.2096456693
 21
91.3385826772
 31
0.0
  0
LINE
  5
E9
330
1F
100
AcDbEntity
  8
TITLE
  6
SLD-Solid
370
    18
100
AcDbLine
 10
0.5
 20
93.3070866142
 30
0.0
 11
0.1653543307
 21
93.3070866142
 31
0.0
  0
LINE
  5
EA
330
1F
100
AcDbEntity
  8
TITLE
  6
SLD-Solid
370
    18
100
AcDbLine
 10
79.875
 20
93.3070866142
 30
0.0
 11
80.2096456693
 21
93.3070866142
 31
0.0
  0
LINE
  5
EB
330
1F
100
AcDbEntity
  8
TITLE
  6
SLD-Solid
370
    18
100
AcDbLine
 10
0.5
 20
95.2755905512
 30
0.0
 11
0.1653543307
 21
95.2755905512
 31
0.0
  0
LINE
  5
EC
330
1F
100
AcDbEntity
  8
TITLE
  6
SLD-Solid
370
    18
100
AcDbLine
 10
79.875
 20
95.2755905512
 30
0.0
 11
80.2096456693
 21
95.2755905512
 31
0.0
  0
LINE
  5
ED
330
1F
100
AcDbEntity
  8
TITLE
  6
SLD-Solid
370
    18
100
AcDbLine
 10
0.5
 20
97.2440944882
 30
0.0
 11
0.1653543307
 21
97.2440944882
 31
0.0
  0
LINE
  5
EE
330
1F
100
AcDbEntity
  8
TITLE
  6
SLD-Solid
370
    18
100
AcDbLine
 10
79.875
 20
97.2440944882
 30
0.0
 11
80.2096456693
 21
97.2440944882
 31
0.0
  0
LINE
  5
EF
330
1F
100
AcDbEntity
  8
TITLE
  6
SLD-Solid
370
    18
100
AcDbLine
 10
2.7859251969
 20
99.5
 30
0.0
 11
2.7859251969
 21
99.8346456693
 31
0.0
  0
LINE
  5
F0
330
1F
100
AcDbEntity
  8
TITLE
  6
SLD-Solid
370
    18
100
AcDbLine
 10
2.7859251969
 20
0.5
 30
0.0
 11
2.7859251969
 21
0.1653543307
 31
0.0
  0
LINE
  5
F1
330
1F
100
AcDbEntity
  8
TITLE
  6
SLD-Solid
370
    18
100
AcDbLine
 10
4.7544291339
 20
99.5
 30
0.0
 11
4.7544291339
 21
99.8346456693
 31
0.0
  0
LINE
  5
F2
330
1F
100
AcDbEntity
  8
TITLE
  6
SLD-Solid
370
    18
100
AcDbLine
 10
4.7544291339
 20
0.5
 30
0.0
 11
4.7544291339
 21
0.1653543307
 31
0.0
  0
LINE
  5
F3
330
1F
100
AcDbEntity
  8
TITLE
  6
SLD-Solid
370
    18
100
AcDbLine
 10
6.7229330709
 20
99.5
 30
0.0
 11
6.7229330709
 21
99.8346456693
 31
0.0
  0
LINE
  5
F4
330
1F
100
AcDbEntity
  8
TITLE
  6
SLD-Solid
370
    18
100
AcDbLine
 10
6.7229330709
 20
0.5
 30
0.0
 11
6.7229330709
 21
0.1653543307
 31
0.0
  0
LINE
  5
F5
330
1F
100
AcDbEntity
  8
TITLE
  6
SLD-Solid
370
    18
100
AcDbLine
 10
8.6914370079
 20
99.5
 30
0.0
 11
8.6914370079
 21
99.8346456693
 31
0.0
  0
LINE
  5
F6
330
1F
100
AcDbEntity
  8
TITLE
  6
SLD-Solid
370
    18
100
AcDbLine
 10
8.6914370079
 20
0.5
 30
0.0
 11
8.6914370079
 21
0.1653543307
 31
0.0
  0
LINE
  5
F7
330
1F
100
AcDbEntity
  8
TITLE
  6
SLD-Solid
370
    18
100
AcDbLine
 10
10.6599409449
 20
99.5
 30
0.0
 11
10.6599409449
 21
99.8346456693
 31
0.0
  0
LINE
  5
F8
330
1F
100
AcDbEntity
  8
TITLE
  6
SLD-Solid
370
    18
100
AcDbLine
 10
10.6599409449
 20
0.5
 30
0.0
 11
10.6599409449
 21
0.1653543307
 31
0.0
  0
LINE
  5
F9
330
1F
100
AcDbEntity
  8
TITLE
  6
SLD-Solid
370
    18
100
AcDbLine
 10
12.6284448819
 20
99.5
 30
0.0
 11
12.6284448819
 21
99.8346456693
 31
0.0
  0
LINE
  5
FA
330
1F
100
AcDbEntity
  8
TITLE
  6
SLD-Solid
370
    18
100
AcDbLine
 10
12.6284448819
 20
0.5
 30
0.0
 11
12.6284448819
 21
0.1653543307
 31
0.0
  0
LINE
  5
FB
330
1F
100
AcDbEntity
  8
TITLE
  6
SLD-Solid
370
    18
100
AcDbLine
 10
14.5969488189
 20
99.5
 30
0.0
 11
14.5969488189
 21
99.8346456693
 31
0.0
  0
LINE
  5
FC
330
1F
100
AcDbEntity
  8
TITLE
  6
SLD-Solid
370
    18
100
AcDbLine
 10
14.5969488189
 20
0.5
 30
0.0
 11
14.5969488189
 21
0.1653543307
 31
0.0
  0
LINE
  5
FD
330
1F
100
AcDbEntity
  8
TITLE
  6
SLD-Solid
370
    18
100
AcDbLine
 10
16.5654527559
 20
99.5
 30
0.0
 11
16.5654527559
 21
99.8346456693
 31
0.0
  0
LINE
  5
FE
330
1F
100
AcDbEntity
  8
TITLE
  6
SLD-Solid
370
    18
100
AcDbLine
 10
16.5654527559
 20
0.5
 30
0.0
 11
16.5654527559
 21
0.1653543307
 31
0.0
  0
LINE
  5
FF
330
1F
100
AcDbEntity
  8
TITLE
  6
SLD-Solid
370
    18
100
AcDbLine
 10
18.5339566929
 20
99.5
 30
0.0
 11
18.5339566929
 21
99.8346456693
 31
0.0
  0
LINE
  5
100
330
1F
100
AcDbEntity
  8
TITLE
  6
SLD-Solid
370
    18
100
AcDbLine
 10
18.5339566929
 20
0.5
 30
0.0
 11
18.5339566929
 21
0.1653543307
 31
0.0
  0
LINE
  5
101
330
1F
100
AcDbEntity
  8
TITLE
  6
SLD-Solid
370
    18
100
AcDbLine
 10
20.5024606299
 20
99.5
 30
0.0
 11
20.5024606299
 21
99.8346456693
 31
0.0
  0
LINE
  5
102
330
1F
100
AcDbEntity
  8
TITLE
  6
SLD-Solid
370
    18
100
AcDbLine
 10
20.5024606299
 20
0.5
 30
0.0
 11
20.5024606299
 21
0.1653543307
 31
0.0
  0
LINE
  5
103
330
1F
100
AcDbEntity
  8
TITLE
  6
SLD-Solid
370
    18
100
AcDbLine
 10
22.4709645669
 20
99.5
 30
0.0
 11
22.4709645669
 21
99.8346456693
 31
0.0
  0
LINE
  5
104
330
1F
100
AcDbEntity
  8
TITLE
  6
SLD-Solid
370
    18
100
AcDbLine
 10
22.4709645669
 20
0.5
 30
0.0
 11
22.4709645669
 21
0.1653543307
 31
0.0
  0
LINE
  5
105
330
1F
100
AcDbEntity
  8
TITLE
  6
SLD-Solid
370
    18
100
AcDbLine
 10
24.4394685039
 20
99.5
 30
0.0
 11
24.4394685039
 21
99.8346456693
 31
0.0
  0
LINE
  5
106
330
1F
100
AcDbEntity
  8
TITLE
  6
SLD-Solid
370
    18
100
AcDbLine
 10
24.4394685039
 20
0.5
 30
0.0
 11
24.4394685039
 21
0.1653543307
 31
0.0
  0
LINE
  5
107
330
1F
100
AcDbEntity
  8
TITLE
  6
SLD-Solid
370
    18
100
AcDbLine
 10
26.4079724409
 20
99.5
 30
0.0
 11
26.4079724409
 21
99.8346456693
 31
0.0
  0
LINE
  5
108
330
1F
100
AcDbEntity
  8
TITLE
  6
SLD-Solid
370
    18
100
AcDbLine
 10
26.4079724409
 20
0.5
 30
0.0
 11
26.4079724409
 21
0.1653543307
 31
0.0
  0
LINE
  5
109
330
1F
100
AcDbEntity
  8
TITLE
  6
SLD-Solid
370
    18
100
AcDbLine
 10
28.376476378
 20
99.5
 30
0.0
 11
28.376476378
 21
99.8346456693
 31
0.0
  0
LINE
  5
10A
330
1F
100
AcDbEntity
  8
TITLE
  6
SLD-Solid
370
    18
100
AcDbLine
 10
28.376476378
 20
0.5
 30
0.0
 11
28.376476378
 21
0.1653543307
 31
0.0
  0
LINE
  5
10B
330
1F
100
AcDbEntity
  8
TITLE
  6
SLD-Solid
370
    18
100
AcDbLine
 10
30.344980315
 20
99.5
 30
0.0
 11
30.344980315
 21
99.8346456693
 31
0.0
  0
LINE
  5
10C
330
1F
100
AcDbEntity
  8
TITLE
  6
SLD-Solid
370
    18
100
AcDbLine
 10
30.344980315
 20
0.5
 30
0.0
 11
30.344980315
 21
0.1653543307
 31
0.0
  0
LINE
  5
10D
330
1F
100
AcDbEntity
  8
TITLE
  6
SLD-Solid
370
    18
100
AcDbLine
 10
32.313484252
 20
99.5
 30
0.0
 11
32.313484252
 21
99.8346456693
 31
0.0
  0
LINE
  5
10E
330
1F
100
AcDbEntity
  8
TITLE
  6
SLD-Solid
370
    18
100
AcDbLine
 10
32.313484252
 20
0.5
 30
0.0
 11
32.313484252
 21
0.1653543307
 31
0.0
  0
LINE
  5
10F
330
1F
100
AcDbEntity
  8
TITLE
  6
SLD-Solid
370
    18
100
AcDbLine
 10
34.281988189
 20
99.5
 30
0.0
 11
34.281988189
 21
99.8346456693
 31
0.0
  0
LINE
  5
110
330
1F
100
AcDbEntity
  8
TITLE
  6
SLD-Solid
370
    18
100
AcDbLine
 10
34.281988189
 20
0.5
 30
0.0
 11
34.281988189
 21
0.1653543307
 31
0.0
  0
LINE
  5
111
330
1F
100
AcDbEntity
  8
TITLE
  6
SLD-Solid
370
    18
100
AcDbLine
 10
36.250492126
 20
99.5
 30
0.0
 11
36.250492126
 21
99.8346456693
 31
0.0
  0
LINE
  5
112
330
1F
100
AcDbEntity
  8
TITLE
  6
SLD-Solid
370
    18
100
AcDbLine
 10
36.250492126
 20
0.5
 30
0.0
 11
36.250492126
 21
0.1653543307
 31
0.0
  0
LINE
  5
113
330
1F
100
AcDbEntity
  8
TITLE
  6
SLD-Solid
370
    18
100
AcDbLine
 10
38.218996063
 20
99.5
 30
0.0
 11
38.218996063
 21
99.8346456693
 31
0.0
  0
LINE
  5
114
330
1F
100
AcDbEntity
  8
TITLE
  6
SLD-Solid
370
    18
100
AcDbLine
 10
38.218996063
 20
0.5
 30
0.0
 11
38.218996063
 21
0.1653543307
 31
0.0
  0
LINE
  5
115
330
1F
100
AcDbEntity
  8
TITLE
  6
SLD-Solid
370
    18
100
AcDbLine
 10
40.1875
 20
99.5
 30
0.0
 11
40.1875
 21
99.8346456693
 31
0.0
  0
LINE
  5
116
330
1F
100
AcDbEntity
  8
TITLE
  6
SLD-Solid
370
    18
100
AcDbLine
 10
40.1875
 20
0.5
 30
0.0
 11
40.1875
 21
0.1653543307
 31
0.0
  0
LINE
  5
117
330
1F
100
AcDbEntity
  8
TITLE
  6
SLD-Solid
370
    18
100
AcDbLine
 10
42.156003937
 20
99.5
 30
0.0
 11
42.156003937
 21
99.8346456693
 31
0.0
  0
LINE
  5
118
330
1F
100
AcDbEntity
  8
TITLE
  6
SLD-Solid
370
    18
100
AcDbLine
 10
42.156003937
 20
0.5
 30
0.0
 11
42.156003937
 21
0.1653543307
 31
0.0
  0
LINE
  5
119
330
1F
100
AcDbEntity
  8
TITLE
  6
SLD-Solid
370
    18
100
AcDbLine
 10
44.124507874
 20
99.5
 30
0.0
 11
44.124507874
 21
99.8346456693
 31
0.0
  0
LINE
  5
11A
330
1F
100
AcDbEntity
  8
TITLE
  6
SLD-Solid
370
    18
100
AcDbLine
 10
44.124507874
 20
0.5
 30
0.0
 11
44.124507874
 21
0.1653543307
 31
0.0
  0
LINE
  5
11B
330
1F
100
AcDbEntity
  8
TITLE
  6
SLD-Solid
370
    18
100
AcDbLine
 10
46.093011811
 20
99.5
 30
0.0
 11
46.093011811
 21
99.8346456693
 31
0.0
  0
LINE
  5
11C
330
1F
100
AcDbEntity
  8
TITLE
  6
SLD-Solid
370
    18
100
AcDbLine
 10
46.093011811
 20
0.5
 30
0.0
 11
46.093011811
 21
0.1653543307
 31
0.0
  0
LINE
  5
11D
330
1F
100
AcDbEntity
  8
TITLE
  6
SLD-Solid
370
    18
100
AcDbLine
 10
48.061515748
 20
99.5
 30
0.0
 11
48.061515748
 21
99.8346456693
 31
0.0
  0
LINE
  5
11E
330
1F
100
AcDbEntity
  8
TITLE
  6
SLD-Solid
370
    18
100
AcDbLine
 10
48.061515748
 20
0.5
 30
0.0
 11
48.061515748
 21
0.1653543307
 31
0.0
  0
LINE
  5
11F
330
1F
100
AcDbEntity
  8
TITLE
  6
SLD-Solid
370
    18
100
AcDbLine
 10
50.030019685
 20
99.5
 30
0.0
 11
50.030019685
 21
99.8346456693
 31
0.0
  0
LINE
  5
120
330
1F
100
AcDbEntity
  8
TITLE
  6
SLD-Solid
370
    18
100
AcDbLine
 10
50.030019685
 20
0.5
 30
0.0
 11
50.030019685
 21
0.1653543307
 31
0.0
  0
LINE
  5
121
330
1F
100
AcDbEntity
  8
TITLE
  6
SLD-Solid
370
    18
100
AcDbLine
 10
51.998523622
 20
99.5
 30
0.0
 11
51.998523622
 21
99.8346456693
 31
0.0
  0
LINE
  5
122
330
1F
100
AcDbEntity
  8
TITLE
  6
SLD-Solid
370
    18
100
AcDbLine
 10
51.998523622
 20
0.5
 30
0.0
 11
51.998523622
 21
0.1653543307
 31
0.0
  0
LINE
  5
123
330
1F
100
AcDbEntity
  8
TITLE
  6
SLD-Solid
370
    18
100
AcDbLine
 10
53.9670275591
 20
99.5
 30
0.0
 11
53.9670275591
 21
99.8346456693
 31
0.0
  0
LINE
  5
124
330
1F
100
AcDbEntity
  8
TITLE
  6
SLD-Solid
370
    18
100
AcDbLine
 10
53.9670275591
 20
0.5
 30
0.0
 11
53.9670275591
 21
0.1653543307
 31
0.0
  0
LINE
  5
125
330
1F
100
AcDbEntity
  8
TITLE
  6
SLD-Solid
370
    18
100
AcDbLine
 10
55.9355314961
 20
99.5
 30
0.0
 11
55.9355314961
 21
99.8346456693
 31
0.0
  0
LINE
  5
126
330
1F
100
AcDbEntity
  8
TITLE
  6
SLD-Solid
370
    18
100
AcDbLine
 10
55.9355314961
 20
0.5
 30
0.0
 11
55.9355314961
 21
0.1653543307
 31
0.0
  0
LINE
  5
127
330
1F
100
AcDbEntity
  8
TITLE
  6
SLD-Solid
370
    18
100
AcDbLine
 10
57.9040354331
 20
99.5
 30
0.0
 11
57.9040354331
 21
99.8346456693
 31
0.0
  0
LINE
  5
128
330
1F
100
AcDbEntity
  8
TITLE
  6
SLD-Solid
370
    18
100
AcDbLine
 10
57.9040354331
 20
0.5
 30
0.0
 11
57.9040354331
 21
0.1653543307
 31
0.0
  0
LINE
  5
129
330
1F
100
AcDbEntity
  8
TITLE
  6
SLD-Solid
370
    18
100
AcDbLine
 10
59.8725393701
 20
99.5
 30
0.0
 11
59.8725393701
 21
99.8346456693
 31
0.0
  0
LINE
  5
12A
330
1F
100
AcDbEntity
  8
TITLE
  6
SLD-Solid
370
    18
100
AcDbLine
 10
59.8725393701
 20
0.5
 30
0.0
 11
59.8725393701
 21
0.1653543307
 31
0.0
  0
LINE
  5
12B
330
1F
100
AcDbEntity
  8
TITLE
  6
SLD-Solid
370
    18
100
AcDbLine
 10
61.8410433071
 20
99.5
 30
0.0
 11
61.8410433071
 21
99.8346456693
 31
0.0
  0
LINE
  5
12C
330
1F
100
AcDbEntity
  8
TITLE
  6
SLD-Solid
370
    18
100
AcDbLine
 10
61.8410433071
 20
0.5
 30
0.0
 11
61.8410433071
 21
0.1653543307
 31
0.0
  0
LINE
  5
12D
330
1F
100
AcDbEntity
  8
TITLE
  6
SLD-Solid
370
    18
100
AcDbLine
 10
63.8095472441
 20
99.5
 30
0.0
 11
63.8095472441
 21
99.8346456693
 31
0.0
  0
LINE
  5
12E
330
1F
100
AcDbEntity
  8
TITLE
  6
SLD-Solid
370
    18
100
AcDbLine
 10
63.8095472441
 20
0.5
 30
0.0
 11
63.8095472441
 21
0.1653543307
 31
0.0
  0
LINE
  5
12F
330
1F
100
AcDbEntity
  8
TITLE
  6
SLD-Solid
370
    18
100
AcDbLine
 10
65.7780511811
 20
99.5
 30
0.0
 11
65.7780511811
 21
99.8346456693
 31
0.0
  0
LINE
  5
130
330
1F
100
AcDbEntity
  8
TITLE
  6
SLD-Solid
370
    18
100
AcDbLine
 10
65.7780511811
 20
0.5
 30
0.0
 11
65.7780511811
 21
0.1653543307
 31
0.0
  0
LINE
  5
131
330
1F
100
AcDbEntity
  8
TITLE
  6
SLD-Solid
370
    18
100
AcDbLine
 10
67.7465551181
 20
99.5
 30
0.0
 11
67.7465551181
 21
99.8346456693
 31
0.0
  0
LINE
  5
132
330
1F
100
AcDbEntity
  8
TITLE
  6
SLD-Solid
370
    18
100
AcDbLine
 10
67.7465551181
 20
0.5
 30
0.0
 11
67.7465551181
 21
0.1653543307
 31
0.0
  0
LINE
  5
133
330
1F
100
AcDbEntity
  8
TITLE
  6
SLD-Solid
370
    18
100
AcDbLine
 10
69.7150590551
 20
99.5
 30
0.0
 11
69.7150590551
 21
99.8346456693
 31
0.0
  0
LINE
  5
134
330
1F
100
AcDbEntity
  8
TITLE
  6
SLD-Solid
370
    18
100
AcDbLine
 10
69.7150590551
 20
0.5
 30
0.0
 11
69.7150590551
 21
0.1653543307
 31
0.0
  0
LINE
  5
135
330
1F
100
AcDbEntity
  8
TITLE
  6
SLD-Solid
370
    18
100
AcDbLine
 10
71.6835629921
 20
99.5
 30
0.0
 11
71.6835629921
 21
99.8346456693
 31
0.0
  0
LINE
  5
136
330
1F
100
AcDbEntity
  8
TITLE
  6
SLD-Solid
370
    18
100
AcDbLine
 10
71.6835629921
 20
0.5
 30
0.0
 11
71.6835629921
 21
0.1653543307
 31
0.0
  0
LINE
  5
137
330
1F
100
AcDbEntity
  8
TITLE
  6
SLD-Solid
370
    18
100
AcDbLine
 10
73.6520669291
 20
99.5
 30
0.0
 11
73.6520669291
 21
99.8346456693
 31
0.0
  0
LINE
  5
138
330
1F
100
AcDbEntity
  8
TITLE
  6
SLD-Solid
370
    18
100
AcDbLine
 10
73.6520669291
 20
0.5
 30
0.0
 11
73.6520669291
 21
0.1653543307
 31
0.0
  0
LINE
  5
139
330
1F
100
AcDbEntity
  8
TITLE
  6
SLD-Solid
370
    18
100
AcDbLine
 10
75.6205708661
 20
99.5
 30
0.0
 11
75.6205708661
 21
99.8346456693
 31
0.0
  0
LINE
  5
13A
330
1F
100
AcDbEntity
  8
TITLE
  6
SLD-Solid
370
    18
100
AcDbLine
 10
75.6205708661
 20
0.5
 30
0.0
 11
75.6205708661
 21
0.1653543307
 31
0.0
  0
LINE
  5
13B
330
1F
100
AcDbEntity
  8
TITLE
  6
SLD-Solid
370
    18
100
AcDbLine
 10
77.5890748031
 20
99.5
 30
0.0
 11
77.5890748031
 21
99.8346456693
 31
0.0
  0
LINE
  5
13C
330
1F
100
AcDbEntity
  8
TITLE
  6
SLD-Solid
370
    18
100
AcDbLine
 10
77.5890748031
 20
0.5
 30
0.0
 11
77.5890748031
 21
0.1653543307
 31
0.0
  0
MTEXT
  5
13E
330
1F
100
AcDbEntity
  8
NOTES
100
AcDbMText
 10
56.783297803
 20
1.0702903347
 30
0.0
 40
0.25
 41
0.0
 71
     1
 72
     1
  1
UNLESS OTHERWISE SPECIFIED DIMENSIONS ARE IN INCHES.
  7
SLDTEXTSTYLE0
 73
     1
 44
1.0
  0
MTEXT
  5
13F
330
1F
100
AcDbEntity
  8
NOTES
100
AcDbMText
 10
56.8050699279
 20
3.0830627776
 30
0.0
 40
0.25
 41
0.0
 71
     1
 72
     1
  1
DATE:
  7
SLDTEXTSTYLE0
 73
     1
 44
1.0
  0
MTEXT
  5
140
330
1F
100
AcDbEntity
  8
NOTES
100
AcDbMText
 10
58.913701188
 20
2.1930329637
 30
0.0
 40
0.25
 41
0.0
 71
     2
 72
     1
  1
DO NOT SCALE DRAWING
  7
SLDTEXTSTYLE0
 73
     1
 44
1.0
  0
MTEXT
  5
142
330
1F
100
AcDbEntity
  8
NOTES
100
AcDbMText
 10
63.2057373075
 20
3.2682755553
 30
0.0
 40
0.25
 41
0.0
 71
     1
 72
     1
  1
TITLE:
  7
SLDTEXTSTYLE1
 73
     1
 44
1.0
  0
MTEXT
  5
143
330
1F
100
AcDbEntity
  8
NOTES
100
AcDbMText
 10
70.5311831052
 20
3.2682755553
 30
0.0
 40
0.25
 41
0.0
 71
     1
 72
     1
  1
DWG NO.
  7
SLDTEXTSTYLE1
 73
     1
 44
1.0
  0
MTEXT
  5
144
330
1F
100
AcDbEntity
  8
NOTES
100
AcDbMText
 10
70.5581753203
 20
1.0645815577
 30
0.0
 40
0.25
 41
0.0
 71
     1
 72
     1
  1
SCALE:     1:1
  7
SLDTEXTSTYLE1
 73
     1
 44
1.0
  0
MTEXT
  5
145
330
1F
100
AcDbEntity
  8
NOTES
100
AcDbMText
 10
74.5580567665
 20
2.6510344295
 30
0.0
 40
0.25
 41
0.0
 71
     2
 72
     1
  1
310 - S CAD
  7
SLDTEXTSTYLE1
 73
     1
 44
1.0
  0
MTEXT
  5
146
330
1F
100
AcDbEntity
  8
NOTES
100
AcDbMText
 10
66.8242182959
 20
2.6510344295
 30
0.0
 40
0.25
 41
0.0
 71
     2
 72
     1
  1
310 - S Waste Receptacle
  7
SLDTEXTSTYLE1
 73
     1
 44
1.0
  0
INSERT
  5
14C
330
1F
100
AcDbEntity
  8
NOTES
100
AcDbBlockReference
  2
SW_NOTE_0
 10
70.641131557
 20
4.6105227838
 30
0.0
  0
INSERT
  5
156
330
1F
100
AcDbEntity
  8
NOTES
100
AcDbBlockReference
  2
SW_NOTE_0_1
 10
56.9909726246
 20
5.1481526848
 30
0.0
  0
MTEXT
  5
157
330
1F
100
AcDbEntity
  8
NOTES
100
AcDbMText
 10
59.8885590082
 20
3.0864733268
 30
0.0
 40
0.25
 41
0.0
 71
     2
 72
     1
  1
June 11, 2021
  7
SLDTEXTSTYLE1
 73
     1
 44
1.0
  0
MTEXT
  5
158
330
1F
100
AcDbEntity
  8
TITLE
100
AcDbMText
 10
0.3276279776
 20
1.7078307004
 30
0.0
 40
0.125
 41
0.0
 71
     2
 72
     1
  1
A
  7
SLDTEXTSTYLE1
 73
     1
 44
1.0
  0
MTEXT
  5
159
330
1F
100
AcDbEntity
  8
TITLE
100
AcDbMText
 10
80.0372736469
 20
1.7078307004
 30
0.0
 40
0.125
 41
0.0
 71
     2
 72
     1
  1
A
  7
SLDTEXTSTYLE1
 73
     1
 44
1.0
  0
MTEXT
  5
15A
330
1F
100
AcDbEntity
  8
TITLE
100
AcDbMText
 10
0.3317512413
 20
3.8200354248
 30
0.0
 40
0.125
 41
0.0
 71
     2
 72
     1
  1
B
  7
SLDTEXTSTYLE1
 73
     1
 44
1.0
  0
MTEXT
  5
15B
330
1F
100
AcDbEntity
  8
TITLE
100
AcDbMText
 10
80.0413969106
 20
3.8200354248
 30
0.0
 40
0.125
 41
0.0
 71
     2
 72
     1
  1
B
  7
SLDTEXTSTYLE1
 73
     1
 44
1.0
  0
MTEXT
  5
15C
330
1F
100
AcDbEntity
  8
TITLE
100
AcDbMText
 10
0.3313750817
 20
5.7885393618
 30
0.0
 40
0.125
 41
0.0
 71
     2
 72
     1
  1
C
  7
SLDTEXTSTYLE1
 73
     1
 44
1.0
  0
MTEXT
  5
15D
330
1F
100
AcDbEntity
  8
TITLE
100
AcDbMText
 10
80.041020751
 20
5.7885393618
 30
0.0
 40
0.125
 41
0.0
 71
     2
 72
     1
  1
C
  7
SLDTEXTSTYLE1
 73
     1
 44
1.0
  0
MTEXT
  5
15E
330
1F
100
AcDbEntity
  8
TITLE
100
AcDbMText
 10
0.3311870028
 20
7.7570432988
 30
0.0
 40
0.125
 41
0.0
 71
     2
 72
     1
  1
D
  7
SLDTEXTSTYLE1
 73
     1
 44
1.0
  0
MTEXT
  5
15F
330
1F
100
AcDbEntity
  8
TITLE
100
AcDbMText
 10
80.0408326721
 20
7.7570432988
 30
0.0
 40
0.125
 41
0.0
 71
     2
 72
     1
  1
D
  7
SLDTEXTSTYLE1
 73
     1
 44
1.0
  0
MTEXT
  5
160
330
1F
100
AcDbEntity
  8
TITLE
100
AcDbMText
 10
0.332923116
 20
9.7255472359
 30
0.0
 40
0.125
 41
0.0
 71
     2
 72
     1
  1
E
  7
SLDTEXTSTYLE1
 73
     1
 44
1.0
  0
MTEXT
  5
161
330
1F
100
AcDbEntity
  8
TITLE
100
AcDbMText
 10
80.0425687853
 20
9.7255472359
 30
0.0
 40
0.125
 41
0.0
 71
     2
 72
     1
  1
E
  7
SLDTEXTSTYLE1
 73
     1
 44
1.0
  0
MTEXT
  5
162
330
1F
100
AcDbEntity
  8
TITLE
100
AcDbMText
 10
0.3313461474
 20
11.6940511729
 30
0.0
 40
0.125
 41
0.0
 71
     2
 72
     1
  1
F
  7
SLDTEXTSTYLE1
 73
     1
 44
1.0
  0
MTEXT
  5
163
330
1F
100
AcDbEntity
  8
TITLE
100
AcDbMText
 10
80.0409918167
 20
11.6940511729
 30
0.0
 40
0.125
 41
0.0
 71
     2
 72
     1
  1
F
  7
SLDTEXTSTYLE1
 73
     1
 44
1.0
  0
MTEXT
  5
164
330
1F
100
AcDbEntity
  8
TITLE
100
AcDbMText
 10
0.3322576054
 20
13.6625551099
 30
0.0
 40
0.125
 41
0.0
 71
     2
 72
     1
  1
G
  7
SLDTEXTSTYLE1
 73
     1
 44
1.0
  0
MTEXT
  5
165
330
1F
100
AcDbEntity
  8
TITLE
100
AcDbMText
 10
80.0419032747
 20
13.6625551099
 30
0.0
 40
0.125
 41
0.0
 71
     2
 72
     1
  1
G
  7
SLDTEXTSTYLE1
 73
     1
 44
1.0
  0
MTEXT
  5
166
330
1F
100
AcDbEntity
  8
TITLE
100
AcDbMText
 10
0.3323733457
 20
15.6310590469
 30
0.0
 40
0.125
 41
0.0
 71
     2
 72
     1
  1
H
  7
SLDTEXTSTYLE1
 73
     1
 44
1.0
  0
MTEXT
  5
167
330
1F
100
AcDbEntity
  8
TITLE
100
AcDbMText
 10
80.042019015
 20
15.6310590469
 30
0.0
 40
0.125
 41
0.0
 71
     2
 72
     1
  1
H
  7
SLDTEXTSTYLE1
 73
     1
 44
1.0
  0
MTEXT
  5
168
330
1F
100
AcDbEntity
  8
TITLE
100
AcDbMText
 10
0.3315776306
 20
17.5995629839
 30
0.0
 40
0.125
 41
0.0
 71
     2
 72
     1
  1
J
  7
SLDTEXTSTYLE1
 73
     1
 44
1.0
  0
MTEXT
  5
169
330
1F
100
AcDbEntity
  8
TITLE
100
AcDbMText
 10
80.0412232999
 20
17.5995629839
 30
0.0
 40
0.125
 41
0.0
 71
     2
 72
     1
  1
J
  7
SLDTEXTSTYLE1
 73
     1
 44
1.0
  0
MTEXT
  5
16A
330
1F
100
AcDbEntity
  8
TITLE
100
AcDbMText
 10
0.3323154765
 20
19.5680669209
 30
0.0
 40
0.125
 41
0.0
 71
     2
 72
     1
  1
K
  7
SLDTEXTSTYLE1
 73
     1
 44
1.0
  0
MTEXT
  5
16B
330
1F
100
AcDbEntity
  8
TITLE
100
AcDbMText
 10
80.0419611458
 20
19.5680669209
 30
0.0
 40
0.125
 41
0.0
 71
     2
 72
     1
  1
K
  7
SLDTEXTSTYLE1
 73
     1
 44
1.0
  0
MTEXT
  5
16C
330
1F
100
AcDbEntity
  8
TITLE
100
AcDbMText
 10
0.3312448739
 20
21.5365708579
 30
0.0
 40
0.125
 41
0.0
 71
     2
 72
     1
  1
L
  7
SLDTEXTSTYLE1
 73
     1
 44
1.0
  0
MTEXT
  5
16D
330
1F
100
AcDbEntity
  8
TITLE
100
AcDbMText
 10
80.0408905432
 20
21.5365708579
 30
0.0
 40
0.125
 41
0.0
 71
     2
 72
     1
  1
L
  7
SLDTEXTSTYLE1
 73
     1
 44
1.0
  0
MTEXT
  5
16E
330
1F
100
AcDbEntity
  8
TITLE
100
AcDbMText
 10
0.3283224192
 20
23.5050747949
 30
0.0
 40
0.125
 41
0.0
 71
     2
 72
     1
  1
M
  7
SLDTEXTSTYLE1
 73
     1
 44
1.0
  0
MTEXT
  5
16F
330
1F
100
AcDbEntity
  8
TITLE
100
AcDbMText
 10
80.0379680885
 20
23.5050747949
 30
0.0
 40
0.125
 41
0.0
 71
     2
 72
     1
  1
M
  7
SLDTEXTSTYLE1
 73
     1
 44
1.0
  0
MTEXT
  5
170
330
1F
100
AcDbEntity
  8
TITLE
100
AcDbMText
 10
0.3315342276
 20
25.4735787319
 30
0.0
 40
0.125
 41
0.0
 71
     2
 72
     1
  1
N
  7
SLDTEXTSTYLE1
 73
     1
 44
1.0
  0
MTEXT
  5
171
330
1F
100
AcDbEntity
  8
TITLE
100
AcDbMText
 10
80.0411798969
 20
25.4735787319
 30
0.0
 40
0.125
 41
0.0
 71
     2
 72
     1
  1
N
  7
SLDTEXTSTYLE1
 73
     1
 44
1.0
  0
MTEXT
  5
172
330
1F
100
AcDbEntity
  8
TITLE
100
AcDbMText
 10
0.3321997349
 20
27.4420826689
 30
0.0
 40
0.125
 41
0.0
 71
     2
 72
     1
  1
P
  7
SLDTEXTSTYLE1
 73
     1
 44
1.0
  0
MTEXT
  5
173
330
1F
100
AcDbEntity
  8
TITLE
100
AcDbMText
 10
80.0418454042
 20
27.4420826689
 30
0.0
 40
0.125
 41
0.0
 71
     2
 72
     1
  1
P
  7
SLDTEXTSTYLE1
 73
     1
 44
1.0
  0
MTEXT
  5
174
330
1F
100
AcDbEntity
  8
TITLE
100
AcDbMText
 10
0.3309265867
 20
29.4105866059
 30
0.0
 40
0.125
 41
0.0
 71
     2
 72
     1
  1
R
  7
SLDTEXTSTYLE1
 73
     1
 44
1.0
  0
MTEXT
  5
175
330
1F
100
AcDbEntity
  8
TITLE
100
AcDbMText
 10
80.040572256
 20
29.4105866059
 30
0.0
 40
0.125
 41
0.0
 71
     2
 72
     1
  1
R
  7
SLDTEXTSTYLE1
 73
     1
 44
1.0
  0
MTEXT
  5
176
330
1F
100
AcDbEntity
  8
TITLE
100
AcDbMText
 10
0.3323010071
 20
31.3790905429
 30
0.0
 40
0.125
 41
0.0
 71
     2
 72
     1
  1
T
  7
SLDTEXTSTYLE1
 73
     1
 44
1.0
  0
MTEXT
  5
177
330
1F
100
AcDbEntity
  8
TITLE
100
AcDbMText
 10
80.0419466764
 20
31.3790905429
 30
0.0
 40
0.125
 41
0.0
 71
     2
 72
     1
  1
T
  7
SLDTEXTSTYLE1
 73
     1
 44
1.0
  0
MTEXT
  5
178
330
1F
100
AcDbEntity
  8
TITLE
100
AcDbMText
 10
0.3328507755
 20
33.34759448
 30
0.0
 40
0.125
 41
0.0
 71
     2
 72
     1
  1
U
  7
SLDTEXTSTYLE1
 73
     1
 44
1.0
  0
MTEXT
  5
179
330
1F
100
AcDbEntity
  8
TITLE
100
AcDbMText
 10
80.0424964448
 20
33.34759448
 30
0.0
 40
0.125
 41
0.0
 71
     2
 72
     1
  1
U
  7
SLDTEXTSTYLE1
 73
     1
 44
1.0
  0
MTEXT
  5
17A
330
1F
100
AcDbEntity
  8
TITLE
100
AcDbMText
 10
0.3307529773
 20
35.316098417
 30
0.0
 40
0.125
 41
0.0
 71
     2
 72
     1
  1
V
  7
SLDTEXTSTYLE1
 73
     1
 44
1.0
  0
MTEXT
  5
17B
330
1F
100
AcDbEntity
  8
TITLE
100
AcDbMText
 10
80.0403986466
 20
35.316098417
 30
0.0
 40
0.125
 41
0.0
 71
     2
 72
     1
  1
V
  7
SLDTEXTSTYLE1
 73
     1
 44
1.0
  0
MTEXT
  5
17C
330
1F
100
AcDbEntity
  8
TITLE
100
AcDbMText
 10
0.3327784409
 20
37.284602354
 30
0.0
 40
0.125
 41
0.0
 71
     2
 72
     1
  1
W
  7
SLDTEXTSTYLE1
 73
     1
 44
1.0
  0
MTEXT
  5
17D
330
1F
100
AcDbEntity
  8
TITLE
100
AcDbMText
 10
80.0424241102
 20
37.284602354
 30
0.0
 40
0.125
 41
0.0
 71
     2
 72
     1
  1
W
  7
SLDTEXTSTYLE1
 73
     1
 44
1.0
  0
MTEXT
  5
17E
330
1F
100
AcDbEntity
  8
TITLE
100
AcDbMText
 10
0.3321997349
 20
39.253106291
 30
0.0
 40
0.125
 41
0.0
 71
     2
 72
     1
  1
Y
  7
SLDTEXTSTYLE1
 73
     1
 44
1.0
  0
MTEXT
  5
17F
330
1F
100
AcDbEntity
  8
TITLE
100
AcDbMText
 10
80.0418454042
 20
39.253106291
 30
0.0
 40
0.125
 41
0.0
 71
     2
 72
     1
  1
Y
  7
SLDTEXTSTYLE1
 73
     1
 44
1.0
  0
MTEXT
  5
180
330
1F
100
AcDbEntity
  8
TITLE
100
AcDbMText
 10
0.3225787898
 20
41.221610228
 30
0.0
 40
0.125
 41
0.0
 71
     2
 72
     1
  1
AA
  7
SLDTEXTSTYLE1
 73
     1
 44
1.0
  0
MTEXT
  5
181
330
1F
100
AcDbEntity
  8
TITLE
100
AcDbMText
 10
80.0322244591
 20
41.221610228
 30
0.0
 40
0.125
 41
0.0
 71
     2
 72
     1
  1
AA
  7
SLDTEXTSTYLE1
 73
     1
 44
1.0
  0
MTEXT
  5
182
330
1F
100
AcDbEntity
  8
TITLE
100
AcDbMText
 10
0.3267020535
 20
43.190114165
 30
0.0
 40
0.125
 41
0.0
 71
     2
 72
     1
  1
AB
  7
SLDTEXTSTYLE1
 73
     1
 44
1.0
  0
MTEXT
  5
183
330
1F
100
AcDbEntity
  8
TITLE
100
AcDbMText
 10
80.0363477228
 20
43.190114165
 30
0.0
 40
0.125
 41
0.0
 71
     2
 72
     1
  1
AB
  7
SLDTEXTSTYLE1
 73
     1
 44
1.0
  0
MTEXT
  5
184
330
1F
100
AcDbEntity
  8
TITLE
100
AcDbMText
 10
0.3263258985
 20
45.158618102
 30
0.0
 40
0.125
 41
0.0
 71
     2
 72
     1
  1
AC
  7
SLDTEXTSTYLE1
 73
     1
 44
1.0
  0
MTEXT
  5
185
330
1F
100
AcDbEntity
  8
TITLE
100
AcDbMText
 10
80.0359715678
 20
45.158618102
 30
0.0
 40
0.125
 41
0.0
 71
     2
 72
     1
  1
AC
  7
SLDTEXTSTYLE1
 73
     1
 44
1.0
  0
MTEXT
  5
186
330
1F
100
AcDbEntity
  8
TITLE
100
AcDbMText
 10
0.3261378197
 20
47.127122039
 30
0.0
 40
0.125
 41
0.0
 71
     2
 72
     1
  1
AD
  7
SLDTEXTSTYLE1
 73
     1
 44
1.0
  0
MTEXT
  5
187
330
1F
100
AcDbEntity
  8
TITLE
100
AcDbMText
 10
80.0357834889
 20
47.127122039
 30
0.0
 40
0.125
 41
0.0
 71
     2
 72
     1
  1
AD
  7
SLDTEXTSTYLE1
 73
     1
 44
1.0
  0
MTEXT
  5
188
330
1F
100
AcDbEntity
  8
TITLE
100
AcDbMText
 10
0.3278739283
 20
49.095625976
 30
0.0
 40
0.125
 41
0.0
 71
     2
 72
     1
  1
AE
  7
SLDTEXTSTYLE1
 73
     1
 44
1.0
  0
MTEXT
  5
189
330
1F
100
AcDbEntity
  8
TITLE
100
AcDbMText
 10
80.0375195976
 20
49.095625976
 30
0.0
 40
0.125
 41
0.0
 71
     2
 72
     1
  1
AE
  7
SLDTEXTSTYLE1
 73
     1
 44
1.0
  0
MTEXT
  5
18A
330
1F
100
AcDbEntity
  8
TITLE
100
AcDbMText
 10
0.3262969596
 20
51.064129913
 30
0.0
 40
0.125
 41
0.0
 71
     2
 72
     1
  1
AF
  7
SLDTEXTSTYLE1
 73
     1
 44
1.0
  0
MTEXT
  5
18B
330
1F
100
AcDbEntity
  8
TITLE
100
AcDbMText
 10
80.0359426289
 20
51.064129913
 30
0.0
 40
0.125
 41
0.0
 71
     2
 72
     1
  1
AF
  7
SLDTEXTSTYLE1
 73
     1
 44
1.0
  0
MTEXT
  5
18C
330
1F
100
AcDbEntity
  8
TITLE
100
AcDbMText
 10
0.3272084177
 20
53.03263385
 30
0.0
 40
0.125
 41
0.0
 71
     2
 72
     1
  1
AG
  7
SLDTEXTSTYLE1
 73
     1
 44
1.0
  0
MTEXT
  5
18D
330
1F
100
AcDbEntity
  8
TITLE
100
AcDbMText
 10
80.036854087
 20
53.03263385
 30
0.0
 40
0.125
 41
0.0
 71
     2
 72
     1
  1
AG
  7
SLDTEXTSTYLE1
 73
     1
 44
1.0
  0
MTEXT
  5
18E
330
1F
100
AcDbEntity
  8
TITLE
100
AcDbMText
 10
0.3273241625
 20
55.001137787
 30
0.0
 40
0.125
 41
0.0
 71
     2
 72
     1
  1
AH
  7
SLDTEXTSTYLE1
 73
     1
 44
1.0
  0
MTEXT
  5
18F
330
1F
100
AcDbEntity
  8
TITLE
100
AcDbMText
 10
80.0369698318
 20
55.001137787
 30
0.0
 40
0.125
 41
0.0
 71
     2
 72
     1
  1
AH
  7
SLDTEXTSTYLE1
 73
     1
 44
1.0
  0
MTEXT
  5
190
330
1F
100
AcDbEntity
  8
TITLE
100
AcDbMText
 10
0.3265284428
 20
56.969641724
 30
0.0
 40
0.125
 41
0.0
 71
     2
 72
     1
  1
AJ
  7
SLDTEXTSTYLE1
 73
     1
 44
1.0
  0
MTEXT
  5
191
330
1F
100
AcDbEntity
  8
TITLE
100
AcDbMText
 10
80.0361741121
 20
56.969641724
 30
0.0
 40
0.125
 41
0.0
 71
     2
 72
     1
  1
AJ
  7
SLDTEXTSTYLE1
 73
     1
 44
1.0
  0
MTEXT
  5
192
330
1F
100
AcDbEntity
  8
TITLE
100
AcDbMText
 10
0.3272662887
 20
58.9381456611
 30
0.0
 40
0.125
 41
0.0
 71
     2
 72
     1
  1
AK
  7
SLDTEXTSTYLE1
 73
     1
 44
1.0
  0
MTEXT
  5
193
330
1F
100
AcDbEntity
  8
TITLE
100
AcDbMText
 10
80.036911958
 20
58.9381456611
 30
0.0
 40
0.125
 41
0.0
 71
     2
 72
     1
  1
AK
  7
SLDTEXTSTYLE1
 73
     1
 44
1.0
  0
MTEXT
  5
194
330
1F
100
AcDbEntity
  8
TITLE
100
AcDbMText
 10
0.3261956816
 20
60.9066495981
 30
0.0
 40
0.125
 41
0.0
 71
     2
 72
     1
  1
AL
  7
SLDTEXTSTYLE1
 73
     1
 44
1.0
  0
MTEXT
  5
195
330
1F
100
AcDbEntity
  8
TITLE
100
AcDbMText
 10
80.0358413509
 20
60.9066495981
 30
0.0
 40
0.125
 41
0.0
 71
     2
 72
     1
  1
AL
  7
SLDTEXTSTYLE1
 73
     1
 44
1.0
  0
MTEXT
  5
196
330
1F
100
AcDbEntity
  8
TITLE
100
AcDbMText
 10
0.3232732315
 20
62.8751535351
 30
0.0
 40
0.125
 41
0.0
 71
     2
 72
     1
  1
AM
  7
SLDTEXTSTYLE1
 73
     1
 44
1.0
  0
MTEXT
  5
197
330
1F
100
AcDbEntity
  8
TITLE
100
AcDbMText
 10
80.0329189008
 20
62.8751535351
 30
0.0
 40
0.125
 41
0.0
 71
     2
 72
     1
  1
AM
  7
SLDTEXTSTYLE1
 73
     1
 44
1.0
  0
MTEXT
  5
198
330
1F
100
AcDbEntity
  8
TITLE
100
AcDbMText
 10
0.3264850398
 20
64.8436574721
 30
0.0
 40
0.125
 41
0.0
 71
     2
 72
     1
  1
AN
  7
SLDTEXTSTYLE1
 73
     1
 44
1.0
  0
MTEXT
  5
199
330
1F
100
AcDbEntity
  8
TITLE
100
AcDbMText
 10
80.0361307091
 20
64.8436574721
 30
0.0
 40
0.125
 41
0.0
 71
     2
 72
     1
  1
AN
  7
SLDTEXTSTYLE1
 73
     1
 44
1.0
  0
MTEXT
  5
19A
330
1F
100
AcDbEntity
  8
TITLE
100
AcDbMText
 10
0.3271505426
 20
66.8121614091
 30
0.0
 40
0.125
 41
0.0
 71
     2
 72
     1
  1
AP
  7
SLDTEXTSTYLE1
 73
     1
 44
1.0
  0
MTEXT
  5
19B
330
1F
100
AcDbEntity
  8
TITLE
100
AcDbMText
 10
80.0367962119
 20
66.8121614091
 30
0.0
 40
0.125
 41
0.0
 71
     2
 72
     1
  1
AP
  7
SLDTEXTSTYLE1
 73
     1
 44
1.0
  0
MTEXT
  5
19C
330
1F
100
AcDbEntity
  8
TITLE
100
AcDbMText
 10
0.325877399
 20
68.7806653461
 30
0.0
 40
0.125
 41
0.0
 71
     2
 72
     1
  1
AR
  7
SLDTEXTSTYLE1
 73
     1
 44
1.0
  0
MTEXT
  5
19D
330
1F
100
AcDbEntity
  8
TITLE
100
AcDbMText
 10
80.0355230682
 20
68.7806653461
 30
0.0
 40
0.125
 41
0.0
 71
     2
 72
     1
  1
AR
  7
SLDTEXTSTYLE1
 73
     1
 44
1.0
  0
MTEXT
  5
19E
330
1F
100
AcDbEntity
  8
TITLE
100
AcDbMText
 10
0.3272518193
 20
70.7491692831
 30
0.0
 40
0.125
 41
0.0
 71
     2
 72
     1
  1
AT
  7
SLDTEXTSTYLE1
 73
     1
 44
1.0
  0
MTEXT
  5
19F
330
1F
100
AcDbEntity
  8
TITLE
100
AcDbMText
 10
80.0368974886
 20
70.7491692831
 30
0.0
 40
0.125
 41
0.0
 71
     2
 72
     1
  1
AT
  7
SLDTEXTSTYLE1
 73
     1
 44
1.0
  0
MTEXT
  5
1A0
330
1F
100
AcDbEntity
  8
TITLE
100
AcDbMText
 10
0.3278015877
 20
72.7176732201
 30
0.0
 40
0.125
 41
0.0
 71
     2
 72
     1
  1
AU
  7
SLDTEXTSTYLE1
 73
     1
 44
1.0
  0
MTEXT
  5
1A1
330
1F
100
AcDbEntity
  8
TITLE
100
AcDbMText
 10
80.037447257
 20
72.7176732201
 30
0.0
 40
0.125
 41
0.0
 71
     2
 72
     1
  1
AU
  7
SLDTEXTSTYLE1
 73
     1
 44
1.0
  0
MTEXT
  5
1A2
330
1F
100
AcDbEntity
  8
TITLE
100
AcDbMText
 10
0.3257037895
 20
74.6861771571
 30
0.0
 40
0.125
 41
0.0
 71
     2
 72
     1
  1
AV
  7
SLDTEXTSTYLE1
 73
     1
 44
1.0
  0
MTEXT
  5
1A3
330
1F
100
AcDbEntity
  8
TITLE
100
AcDbMText
 10
80.0353494588
 20
74.6861771571
 30
0.0
 40
0.125
 41
0.0
 71
     2
 72
     1
  1
AV
  7
SLDTEXTSTYLE1
 73
     1
 44
1.0
  0
MTEXT
  5
1A4
330
1F
100
AcDbEntity
  8
TITLE
100
AcDbMText
 10
0.3277292486
 20
76.6546810941
 30
0.0
 40
0.125
 41
0.0
 71
     2
 72
     1
  1
AW
  7
SLDTEXTSTYLE1
 73
     1
 44
1.0
  0
MTEXT
  5
1A5
330
1F
100
AcDbEntity
  8
TITLE
100
AcDbMText
 10
80.0373749179
 20
76.6546810941
 30
0.0
 40
0.125
 41
0.0
 71
     2
 72
     1
  1
AW
  7
SLDTEXTSTYLE1
 73
     1
 44
1.0
  0
MTEXT
  5
1A6
330
1F
100
AcDbEntity
  8
TITLE
100
AcDbMText
 10
0.3271505426
 20
78.6231850311
 30
0.0
 40
0.125
 41
0.0
 71
     2
 72
     1
  1
AY
  7
SLDTEXTSTYLE1
 73
     1
 44
1.0
  0
MTEXT
  5
1A7
330
1F
100
AcDbEntity
  8
TITLE
100
AcDbMText
 10
80.0367962119
 20
78.6231850311
 30
0.0
 40
0.125
 41
0.0
 71
     2
 72
     1
  1
AY
  7
SLDTEXTSTYLE1
 73
     1
 44
1.0
  0
MTEXT
  5
1A8
330
1F
100
AcDbEntity
  8
TITLE
100
AcDbMText
 10
0.3267020535
 20
80.5916889681
 30
0.0
 40
0.125
 41
0.0
 71
     2
 72
     1
  1
BA
  7
SLDTEXTSTYLE1
 73
     1
 44
1.0
  0
MTEXT
  5
1A9
330
1F
100
AcDbEntity
  8
TITLE
100
AcDbMText
 10
80.0363477228
 20
80.5916889681
 30
0.0
 40
0.125
 41
0.0
 71
     2
 72
     1
  1
BA
  7
SLDTEXTSTYLE1
 73
     1
 44
1.0
  0
MTEXT
  5
1AA
330
1F
100
AcDbEntity
  8
TITLE
100
AcDbMText
 10
0.3308253173
 20
82.5601929051
 30
0.0
 40
0.125
 41
0.0
 71
     2
 72
     1
  1
BB
  7
SLDTEXTSTYLE1
 73
     1
 44
1.0
  0
MTEXT
  5
1AB
330
1F
100
AcDbEntity
  8
TITLE
100
AcDbMText
 10
80.0404709865
 20
82.5601929051
 30
0.0
 40
0.125
 41
0.0
 71
     2
 72
     1
  1
BB
  7
SLDTEXTSTYLE1
 73
     1
 44
1.0
  0
MTEXT
  5
1AC
330
1F
100
AcDbEntity
  8
TITLE
100
AcDbMText
 10
0.3304491531
 20
84.5286968422
 30
0.0
 40
0.125
 41
0.0
 71
     2
 72
     1
  1
BC
  7
SLDTEXTSTYLE1
 73
     1
 44
1.0
  0
MTEXT
  5
1AD
330
1F
100
AcDbEntity
  8
TITLE
100
AcDbMText
 10
80.0400948224
 20
84.5286968422
 30
0.0
 40
0.125
 41
0.0
 71
     2
 72
     1
  1
BC
  7
SLDTEXTSTYLE1
 73
     1
 44
1.0
  0
MTEXT
  5
1AE
330
1F
100
AcDbEntity
  8
TITLE
100
AcDbMText
 10
0.3302610742
 20
86.4972007792
 30
0.0
 40
0.125
 41
0.0
 71
     2
 72
     1
  1
BD
  7
SLDTEXTSTYLE1
 73
     1
 44
1.0
  0
MTEXT
  5
1AF
330
1F
100
AcDbEntity
  8
TITLE
100
AcDbMText
 10
80.0399067435
 20
86.4972007792
 30
0.0
 40
0.125
 41
0.0
 71
     2
 72
     1
  1
BD
  7
SLDTEXTSTYLE1
 73
     1
 44
1.0
  0
MTEXT
  5
1B0
330
1F
100
AcDbEntity
  8
TITLE
100
AcDbMText
 10
0.331997192
 20
88.4657047162
 30
0.0
 40
0.125
 41
0.0
 71
     2
 72
     1
  1
BE
  7
SLDTEXTSTYLE1
 73
     1
 44
1.0
  0
MTEXT
  5
1B1
330
1F
100
AcDbEntity
  8
TITLE
100
AcDbMText
 10
80.0416428613
 20
88.4657047162
 30
0.0
 40
0.125
 41
0.0
 71
     2
 72
     1
  1
BE
  7
SLDTEXTSTYLE1
 73
     1
 44
1.0
  0
MTEXT
  5
1B2
330
1F
100
AcDbEntity
  8
TITLE
100
AcDbMText
 10
0.3304202234
 20
90.4342086532
 30
0.0
 40
0.125
 41
0.0
 71
     2
 72
     1
  1
BF
  7
SLDTEXTSTYLE1
 73
     1
 44
1.0
  0
MTEXT
  5
1B3
330
1F
100
AcDbEntity
  8
TITLE
100
AcDbMText
 10
80.0400658926
 20
90.4342086532
 30
0.0
 40
0.125
 41
0.0
 71
     2
 72
     1
  1
BF
  7
SLDTEXTSTYLE1
 73
     1
 44
1.0
  0
MTEXT
  5
1B4
330
1F
100
AcDbEntity
  8
TITLE
100
AcDbMText
 10
0.3313316814
 20
92.4027125902
 30
0.0
 40
0.125
 41
0.0
 71
     2
 72
     1
  1
BG
  7
SLDTEXTSTYLE1
 73
     1
 44
1.0
  0
MTEXT
  5
1B5
330
1F
100
AcDbEntity
  8
TITLE
100
AcDbMText
 10
80.0409773507
 20
92.4027125902
 30
0.0
 40
0.125
 41
0.0
 71
     2
 72
     1
  1
BG
  7
SLDTEXTSTYLE1
 73
     1
 44
1.0
  0
MTEXT
  5
1B6
330
1F
100
AcDbEntity
  8
TITLE
100
AcDbMText
 10
0.331447417
 20
94.3712165272
 30
0.0
 40
0.125
 41
0.0
 71
     2
 72
     1
  1
BH
  7
SLDTEXTSTYLE1
 73
     1
 44
1.0
  0
MTEXT
  5
1B7
330
1F
100
AcDbEntity
  8
TITLE
100
AcDbMText
 10
80.0410930863
 20
94.3712165272
 30
0.0
 40
0.125
 41
0.0
 71
     2
 72
     1
  1
BH
  7
SLDTEXTSTYLE1
 73
     1
 44
1.0
  0
MTEXT
  5
1B8
330
1F
100
AcDbEntity
  8
TITLE
100
AcDbMText
 10
0.3306517065
 20
96.3397204642
 30
0.0
 40
0.125
 41
0.0
 71
     2
 72
     1
  1
BJ
  7
SLDTEXTSTYLE1
 73
     1
 44
1.0
  0
MTEXT
  5
1B9
330
1F
100
AcDbEntity
  8
TITLE
100
AcDbMText
 10
80.0402973758
 20
96.3397204642
 30
0.0
 40
0.125
 41
0.0
 71
     2
 72
     1
  1
BJ
  7
SLDTEXTSTYLE1
 73
     1
 44
1.0
  0
MTEXT
  5
1BA
330
1F
100
AcDbEntity
  8
TITLE
100
AcDbMText
 10
0.3313895525
 20
98.4519251886
 30
0.0
 40
0.125
 41
0.0
 71
     2
 72
     1
  1
BK
  7
SLDTEXTSTYLE1
 73
     1
 44
1.0
  0
MTEXT
  5
1BB
330
1F
100
AcDbEntity
  8
TITLE
100
AcDbMText
 10
80.0410352218
 20
98.4519251886
 30
0.0
 40
0.125
 41
0.0
 71
     2
 72
     1
  1
BK
  7
SLDTEXTSTYLE1
 73
     1
 44
1.0
  0
MTEXT
  5
1BC
330
1F
100
AcDbEntity
  8
TITLE
100
AcDbMText
 10
1.6404452371
 20
0.4125551099
 30
0.0
 40
0.125
 41
0.0
 71
     2
 72
     1
  1
40
  7
SLDTEXTSTYLE1
 73
     1
 44
1.0
  0
MTEXT
  5
1BD
330
1F
100
AcDbEntity
  8
TITLE
100
AcDbMText
 10
1.6404452371
 20
99.7472007792
 30
0.0
 40
0.125
 41
0.0
 71
     2
 72
     1
  1
40
  7
SLDTEXTSTYLE1
 73
     1
 44
1.0
  0
MTEXT
  5
1BE
330
1F
100
AcDbEntity
  8
TITLE
100
AcDbMText
 10
3.767659804
 20
0.4125551099
 30
0.0
 40
0.125
 41
0.0
 71
     2
 72
     1
  1
39
  7
SLDTEXTSTYLE1
 73
     1
 44
1.0
  0
MTEXT
  5
1BF
330
1F
100
AcDbEntity
  8
TITLE
100
AcDbMText
 10
3.767659804
 20
99.7472007792
 30
0.0
 40
0.125
 41
0.0
 71
     2
 72
     1
  1
39
  7
SLDTEXTSTYLE1
 73
     1
 44
1.0
  0
MTEXT
  5
1C0
330
1F
100
AcDbEntity
  8
TITLE
100
AcDbMText
 10
5.736163741
 20
0.4125551099
 30
0.0
 40
0.125
 41
0.0
 71
     2
 72
     1
  1
38
  7
SLDTEXTSTYLE1
 73
     1
 44
1.0
  0
MTEXT
  5
1C1
330
1F
100
AcDbEntity
  8
TITLE
100
AcDbMText
 10
5.736163741
 20
99.7472007792
 30
0.0
 40
0.125
 41
0.0
 71
     2
 72
     1
  1
38
  7
SLDTEXTSTYLE1
 73
     1
 44
1.0
  0
MTEXT
  5
1C2
330
1F
100
AcDbEntity
  8
TITLE
100
AcDbMText
 10
7.704667678
 20
0.4125551099
 30
0.0
 40
0.125
 41
0.0
 71
     2
 72
     1
  1
37
  7
SLDTEXTSTYLE1
 73
     1
 44
1.0
  0
MTEXT
  5
1C3
330
1F
100
AcDbEntity
  8
TITLE
100
AcDbMText
 10
7.704667678
 20
99.7472007792
 30
0.0
 40
0.125
 41
0.0
 71
     2
 72
     1
  1
37
  7
SLDTEXTSTYLE1
 73
     1
 44
1.0
  0
MTEXT
  5
1C4
330
1F
100
AcDbEntity
  8
TITLE
100
AcDbMText
 10
9.673171615
 20
0.4125551099
 30
0.0
 40
0.125
 41
0.0
 71
     2
 72
     1
  1
36
  7
SLDTEXTSTYLE1
 73
     1
 44
1.0
  0
MTEXT
  5
1C5
330
1F
100
AcDbEntity
  8
TITLE
100
AcDbMText
 10
9.673171615
 20
99.7472007792
 30
0.0
 40
0.125
 41
0.0
 71
     2
 72
     1
  1
36
  7
SLDTEXTSTYLE1
 73
     1
 44
1.0
  0
MTEXT
  5
1C6
330
1F
100
AcDbEntity
  8
TITLE
100
AcDbMText
 10
11.641675552
 20
0.4125551099
 30
0.0
 40
0.125
 41
0.0
 71
     2
 72
     1
  1
35
  7
SLDTEXTSTYLE1
 73
     1
 44
1.0
  0
MTEXT
  5
1C7
330
1F
100
AcDbEntity
  8
TITLE
100
AcDbMText
 10
11.641675552
 20
99.7472007792
 30
0.0
 40
0.125
 41
0.0
 71
     2
 72
     1
  1
35
  7
SLDTEXTSTYLE1
 73
     1
 44
1.0
  0
MTEXT
  5
1C8
330
1F
100
AcDbEntity
  8
TITLE
100
AcDbMText
 10
13.610179489
 20
0.4125551099
 30
0.0
 40
0.125
 41
0.0
 71
     2
 72
     1
  1
34
  7
SLDTEXTSTYLE1
 73
     1
 44
1.0
  0
MTEXT
  5
1C9
330
1F
100
AcDbEntity
  8
TITLE
100
AcDbMText
 10
13.610179489
 20
99.7472007792
 30
0.0
 40
0.125
 41
0.0
 71
     2
 72
     1
  1
34
  7
SLDTEXTSTYLE1
 73
     1
 44
1.0
  0
MTEXT
  5
1CA
330
1F
100
AcDbEntity
  8
TITLE
100
AcDbMText
 10
15.578683426
 20
0.4125551099
 30
0.0
 40
0.125
 41
0.0
 71
     2
 72
     1
  1
33
  7
SLDTEXTSTYLE1
 73
     1
 44
1.0
  0
MTEXT
  5
1CB
330
1F
100
AcDbEntity
  8
TITLE
100
AcDbMText
 10
15.578683426
 20
99.7472007792
 30
0.0
 40
0.125
 41
0.0
 71
     2
 72
     1
  1
33
  7
SLDTEXTSTYLE1
 73
     1
 44
1.0
  0
MTEXT
  5
1CC
330
1F
100
AcDbEntity
  8
TITLE
100
AcDbMText
 10
17.547187363
 20
0.4125551099
 30
0.0
 40
0.125
 41
0.0
 71
     2
 72
     1
  1
32
  7
SLDTEXTSTYLE1
 73
     1
 44
1.0
  0
MTEXT
  5
1CD
330
1F
100
AcDbEntity
  8
TITLE
100
AcDbMText
 10
17.547187363
 20
99.7472007792
 30
0.0
 40
0.125
 41
0.0
 71
     2
 72
     1
  1
32
  7
SLDTEXTSTYLE1
 73
     1
 44
1.0
  0
MTEXT
  5
1CE
330
1F
100
AcDbEntity
  8
TITLE
100
AcDbMText
 10
19.5156913
 20
0.4125551099
 30
0.0
 40
0.125
 41
0.0
 71
     2
 72
     1
  1
31
  7
SLDTEXTSTYLE1
 73
     1
 44
1.0
  0
MTEXT
  5
1CF
330
1F
100
AcDbEntity
  8
TITLE
100
AcDbMText
 10
19.5156913
 20
99.7472007792
 30
0.0
 40
0.125
 41
0.0
 71
     2
 72
     1
  1
31
  7
SLDTEXTSTYLE1
 73
     1
 44
1.0
  0
MTEXT
  5
1D0
330
1F
100
AcDbEntity
  8
TITLE
100
AcDbMText
 10
21.4841952371
 20
0.4125551099
 30
0.0
 40
0.125
 41
0.0
 71
     2
 72
     1
  1
30
  7
SLDTEXTSTYLE1
 73
     1
 44
1.0
  0
MTEXT
  5
1D1
330
1F
100
AcDbEntity
  8
TITLE
100
AcDbMText
 10
21.4841952371
 20
99.7472007792
 30
0.0
 40
0.125
 41
0.0
 71
     2
 72
     1
  1
30
  7
SLDTEXTSTYLE1
 73
     1
 44
1.0
  0
MTEXT
  5
1D2
330
1F
100
AcDbEntity
  8
TITLE
100
AcDbMText
 10
23.4526991741
 20
0.4125551099
 30
0.0
 40
0.125
 41
0.0
 71
     2
 72
     1
  1
29
  7
SLDTEXTSTYLE1
 73
     1
 44
1.0
  0
MTEXT
  5
1D3
330
1F
100
AcDbEntity
  8
TITLE
100
AcDbMText
 10
23.4526991741
 20
99.7472007792
 30
0.0
 40
0.125
 41
0.0
 71
     2
 72
     1
  1
29
  7
SLDTEXTSTYLE1
 73
     1
 44
1.0
  0
MTEXT
  5
1D4
330
1F
100
AcDbEntity
  8
TITLE
100
AcDbMText
 10
25.4212031111
 20
0.4125551099
 30
0.0
 40
0.125
 41
0.0
 71
     2
 72
     1
  1
28
  7
SLDTEXTSTYLE1
 73
     1
 44
1.0
  0
MTEXT
  5
1D5
330
1F
100
AcDbEntity
  8
TITLE
100
AcDbMText
 10
25.4212031111
 20
99.7472007792
 30
0.0
 40
0.125
 41
0.0
 71
     2
 72
     1
  1
28
  7
SLDTEXTSTYLE1
 73
     1
 44
1.0
  0
MTEXT
  5
1D6
330
1F
100
AcDbEntity
  8
TITLE
100
AcDbMText
 10
27.3897070481
 20
0.4125551099
 30
0.0
 40
0.125
 41
0.0
 71
     2
 72
     1
  1
27
  7
SLDTEXTSTYLE1
 73
     1
 44
1.0
  0
MTEXT
  5
1D7
330
1F
100
AcDbEntity
  8
TITLE
100
AcDbMText
 10
27.3897070481
 20
99.7472007792
 30
0.0
 40
0.125
 41
0.0
 71
     2
 72
     1
  1
27
  7
SLDTEXTSTYLE1
 73
     1
 44
1.0
  0
MTEXT
  5
1D8
330
1F
100
AcDbEntity
  8
TITLE
100
AcDbMText
 10
29.3582109851
 20
0.4125551099
 30
0.0
 40
0.125
 41
0.0
 71
     2
 72
     1
  1
26
  7
SLDTEXTSTYLE1
 73
     1
 44
1.0
  0
MTEXT
  5
1D9
330
1F
100
AcDbEntity
  8
TITLE
100
AcDbMText
 10
29.3582109851
 20
99.7472007792
 30
0.0
 40
0.125
 41
0.0
 71
     2
 72
     1
  1
26
  7
SLDTEXTSTYLE1
 73
     1
 44
1.0
  0
MTEXT
  5
1DA
330
1F
100
AcDbEntity
  8
TITLE
100
AcDbMText
 10
31.3267149221
 20
0.4125551099
 30
0.0
 40
0.125
 41
0.0
 71
     2
 72
     1
  1
25
  7
SLDTEXTSTYLE1
 73
     1
 44
1.0
  0
MTEXT
  5
1DB
330
1F
100
AcDbEntity
  8
TITLE
100
AcDbMText
 10
31.3267149221
 20
99.7472007792
 30
0.0
 40
0.125
 41
0.0
 71
     2
 72
     1
  1
25
  7
SLDTEXTSTYLE1
 73
     1
 44
1.0
  0
MTEXT
  5
1DC
330
1F
100
AcDbEntity
  8
TITLE
100
AcDbMText
 10
33.2952188591
 20
0.4125551099
 30
0.0
 40
0.125
 41
0.0
 71
     2
 72
     1
  1
24
  7
SLDTEXTSTYLE1
 73
     1
 44
1.0
  0
MTEXT
  5
1DD
330
1F
100
AcDbEntity
  8
TITLE
100
AcDbMText
 10
33.2952188591
 20
99.7472007792
 30
0.0
 40
0.125
 41
0.0
 71
     2
 72
     1
  1
24
  7
SLDTEXTSTYLE1
 73
     1
 44
1.0
  0
MTEXT
  5
1DE
330
1F
100
AcDbEntity
  8
TITLE
100
AcDbMText
 10
35.2637227961
 20
0.4125551099
 30
0.0
 40
0.125
 41
0.0
 71
     2
 72
     1
  1
23
  7
SLDTEXTSTYLE1
 73
     1
 44
1.0
  0
MTEXT
  5
1DF
330
1F
100
AcDbEntity
  8
TITLE
100
AcDbMText
 10
35.2637227961
 20
99.7472007792
 30
0.0
 40
0.125
 41
0.0
 71
     2
 72
     1
  1
23
  7
SLDTEXTSTYLE1
 73
     1
 44
1.0
  0
MTEXT
  5
1E0
330
1F
100
AcDbEntity
  8
TITLE
100
AcDbMText
 10
37.2322267331
 20
0.4125551099
 30
0.0
 40
0.125
 41
0.0
 71
     2
 72
     1
  1
22
  7
SLDTEXTSTYLE1
 73
     1
 44
1.0
  0
MTEXT
  5
1E1
330
1F
100
AcDbEntity
  8
TITLE
100
AcDbMText
 10
37.2322267331
 20
99.7472007792
 30
0.0
 40
0.125
 41
0.0
 71
     2
 72
     1
  1
22
  7
SLDTEXTSTYLE1
 73
     1
 44
1.0
  0
MTEXT
  5
1E2
330
1F
100
AcDbEntity
  8
TITLE
100
AcDbMText
 10
39.2007306701
 20
0.4125551099
 30
0.0
 40
0.125
 41
0.0
 71
     2
 72
     1
  1
21
  7
SLDTEXTSTYLE1
 73
     1
 44
1.0
  0
MTEXT
  5
1E3
330
1F
100
AcDbEntity
  8
TITLE
100
AcDbMText
 10
39.2007306701
 20
99.7472007792
 30
0.0
 40
0.125
 41
0.0
 71
     2
 72
     1
  1
21
  7
SLDTEXTSTYLE1
 73
     1
 44
1.0
  0
MTEXT
  5
1E4
330
1F
100
AcDbEntity
  8
TITLE
100
AcDbMText
 10
41.1692346071
 20
0.4125551099
 30
0.0
 40
0.125
 41
0.0
 71
     2
 72
     1
  1
20
  7
SLDTEXTSTYLE1
 73
     1
 44
1.0
  0
MTEXT
  5
1E5
330
1F
100
AcDbEntity
  8
TITLE
100
AcDbMText
 10
41.1692346071
 20
99.7472007792
 30
0.0
 40
0.125
 41
0.0
 71
     2
 72
     1
  1
20
  7
SLDTEXTSTYLE1
 73
     1
 44
1.0
  0
MTEXT
  5
1E6
330
1F
100
AcDbEntity
  8
TITLE
100
AcDbMText
 10
43.1377385441
 20
0.4125551099
 30
0.0
 40
0.125
 41
0.0
 71
     2
 72
     1
  1
19
  7
SLDTEXTSTYLE1
 73
     1
 44
1.0
  0
MTEXT
  5
1E7
330
1F
100
AcDbEntity
  8
TITLE
100
AcDbMText
 10
43.1377385441
 20
99.7472007792
 30
0.0
 40
0.125
 41
0.0
 71
     2
 72
     1
  1
19
  7
SLDTEXTSTYLE1
 73
     1
 44
1.0
  0
MTEXT
  5
1E8
330
1F
100
AcDbEntity
  8
TITLE
100
AcDbMText
 10
45.1062424811
 20
0.4125551099
 30
0.0
 40
0.125
 41
0.0
 71
     2
 72
     1
  1
18
  7
SLDTEXTSTYLE1
 73
     1
 44
1.0
  0
MTEXT
  5
1E9
330
1F
100
AcDbEntity
  8
TITLE
100
AcDbMText
 10
45.1062424811
 20
99.7472007792
 30
0.0
 40
0.125
 41
0.0
 71
     2
 72
     1
  1
18
  7
SLDTEXTSTYLE1
 73
     1
 44
1.0
  0
MTEXT
  5
1EA
330
1F
100
AcDbEntity
  8
TITLE
100
AcDbMText
 10
47.0747464182
 20
0.4125551099
 30
0.0
 40
0.125
 41
0.0
 71
     2
 72
     1
  1
17
  7
SLDTEXTSTYLE1
 73
     1
 44
1.0
  0
MTEXT
  5
1EB
330
1F
100
AcDbEntity
  8
TITLE
100
AcDbMText
 10
47.0747464182
 20
99.7472007792
 30
0.0
 40
0.125
 41
0.0
 71
     2
 72
     1
  1
17
  7
SLDTEXTSTYLE1
 73
     1
 44
1.0
  0
MTEXT
  5
1EC
330
1F
100
AcDbEntity
  8
TITLE
100
AcDbMText
 10
49.0432503552
 20
0.4125551099
 30
0.0
 40
0.125
 41
0.0
 71
     2
 72
     1
  1
16
  7
SLDTEXTSTYLE1
 73
     1
 44
1.0
  0
MTEXT
  5
1ED
330
1F
100
AcDbEntity
  8
TITLE
100
AcDbMText
 10
49.0432503552
 20
99.7472007792
 30
0.0
 40
0.125
 41
0.0
 71
     2
 72
     1
  1
16
  7
SLDTEXTSTYLE1
 73
     1
 44
1.0
  0
MTEXT
  5
1EE
330
1F
100
AcDbEntity
  8
TITLE
100
AcDbMText
 10
51.0117542922
 20
0.4125551099
 30
0.0
 40
0.125
 41
0.0
 71
     2
 72
     1
  1
15
  7
SLDTEXTSTYLE1
 73
     1
 44
1.0
  0
MTEXT
  5
1EF
330
1F
100
AcDbEntity
  8
TITLE
100
AcDbMText
 10
51.0117542922
 20
99.7472007792
 30
0.0
 40
0.125
 41
0.0
 71
     2
 72
     1
  1
15
  7
SLDTEXTSTYLE1
 73
     1
 44
1.0
  0
MTEXT
  5
1F0
330
1F
100
AcDbEntity
  8
TITLE
100
AcDbMText
 10
52.9802582292
 20
0.4125551099
 30
0.0
 40
0.125
 41
0.0
 71
     2
 72
     1
  1
14
  7
SLDTEXTSTYLE1
 73
     1
 44
1.0
  0
MTEXT
  5
1F1
330
1F
100
AcDbEntity
  8
TITLE
100
AcDbMText
 10
52.9802582292
 20
99.7472007792
 30
0.0
 40
0.125
 41
0.0
 71
     2
 72
     1
  1
14
  7
SLDTEXTSTYLE1
 73
     1
 44
1.0
  0
MTEXT
  5
1F2
330
1F
100
AcDbEntity
  8
TITLE
100
AcDbMText
 10
54.9487621662
 20
0.4125551099
 30
0.0
 40
0.125
 41
0.0
 71
     2
 72
     1
  1
13
  7
SLDTEXTSTYLE1
 73
     1
 44
1.0
  0
MTEXT
  5
1F3
330
1F
100
AcDbEntity
  8
TITLE
100
AcDbMText
 10
54.9487621662
 20
99.7472007792
 30
0.0
 40
0.125
 41
0.0
 71
     2
 72
     1
  1
13
  7
SLDTEXTSTYLE1
 73
     1
 44
1.0
  0
MTEXT
  5
1F4
330
1F
100
AcDbEntity
  8
TITLE
100
AcDbMText
 10
56.9172661032
 20
0.4125551099
 30
0.0
 40
0.125
 41
0.0
 71
     2
 72
     1
  1
12
  7
SLDTEXTSTYLE1
 73
     1
 44
1.0
  0
MTEXT
  5
1F5
330
1F
100
AcDbEntity
  8
TITLE
100
AcDbMText
 10
56.9172661032
 20
99.7472007792
 30
0.0
 40
0.125
 41
0.0
 71
     2
 72
     1
  1
12
  7
SLDTEXTSTYLE1
 73
     1
 44
1.0
  0
MTEXT
  5
1F6
330
1F
100
AcDbEntity
  8
TITLE
100
AcDbMText
 10
58.8857700402
 20
0.4125551099
 30
0.0
 40
0.125
 41
0.0
 71
     2
 72
     1
  1
11
  7
SLDTEXTSTYLE1
 73
     1
 44
1.0
  0
MTEXT
  5
1F7
330
1F
100
AcDbEntity
  8
TITLE
100
AcDbMText
 10
58.8857700402
 20
99.7472007792
 30
0.0
 40
0.125
 41
0.0
 71
     2
 72
     1
  1
11
  7
SLDTEXTSTYLE1
 73
     1
 44
1.0
  0
MTEXT
  5
1F8
330
1F
100
AcDbEntity
  8
TITLE
100
AcDbMText
 10
60.8542739772
 20
0.4125551099
 30
0.0
 40
0.125
 41
0.0
 71
     2
 72
     1
  1
10
  7
SLDTEXTSTYLE1
 73
     1
 44
1.0
  0
MTEXT
  5
1F9
330
1F
100
AcDbEntity
  8
TITLE
100
AcDbMText
 10
60.8542739772
 20
99.7472007792
 30
0.0
 40
0.125
 41
0.0
 71
     2
 72
     1
  1
10
  7
SLDTEXTSTYLE1
 73
     1
 44
1.0
  0
MTEXT
  5
1FA
330
1F
100
AcDbEntity
  8
TITLE
100
AcDbMText
 10
62.8240365949
 20
0.4125551099
 30
0.0
 40
0.125
 41
0.0
 71
     2
 72
     1
  1
9
  7
SLDTEXTSTYLE1
 73
     1
 44
1.0
  0
MTEXT
  5
1FB
330
1F
100
AcDbEntity
  8
TITLE
100
AcDbMText
 10
62.8240365949
 20
99.7472007792
 30
0.0
 40
0.125
 41
0.0
 71
     2
 72
     1
  1
9
  7
SLDTEXTSTYLE1
 73
     1
 44
1.0
  0
MTEXT
  5
1FC
330
1F
100
AcDbEntity
  8
TITLE
100
AcDbMText
 10
64.7925405319
 20
0.4125551099
 30
0.0
 40
0.125
 41
0.0
 71
     2
 72
     1
  1
8
  7
SLDTEXTSTYLE1
 73
     1
 44
1.0
  0
MTEXT
  5
1FD
330
1F
100
AcDbEntity
  8
TITLE
100
AcDbMText
 10
64.7925405319
 20
99.7472007792
 30
0.0
 40
0.125
 41
0.0
 71
     2
 72
     1
  1
8
  7
SLDTEXTSTYLE1
 73
     1
 44
1.0
  0
MTEXT
  5
1FE
330
1F
100
AcDbEntity
  8
TITLE
100
AcDbMText
 10
66.7610444689
 20
0.4125551099
 30
0.0
 40
0.125
 41
0.0
 71
     2
 72
     1
  1
7
  7
SLDTEXTSTYLE1
 73
     1
 44
1.0
  0
MTEXT
  5
1FF
330
1F
100
AcDbEntity
  8
TITLE
100
AcDbMText
 10
66.7610444689
 20
99.7472007792
 30
0.0
 40
0.125
 41
0.0
 71
     2
 72
     1
  1
7
  7
SLDTEXTSTYLE1
 73
     1
 44
1.0
  0
MTEXT
  5
200
330
1F
100
AcDbEntity
  8
TITLE
100
AcDbMText
 10
68.7295484059
 20
0.4125551099
 30
0.0
 40
0.125
 41
0.0
 71
     2
 72
     1
  1
6
  7
SLDTEXTSTYLE1
 73
     1
 44
1.0
  0
MTEXT
  5
201
330
1F
100
AcDbEntity
  8
TITLE
100
AcDbMText
 10
68.7295484059
 20
99.7472007792
 30
0.0
 40
0.125
 41
0.0
 71
     2
 72
     1
  1
6
  7
SLDTEXTSTYLE1
 73
     1
 44
1.0
  0
MTEXT
  5
202
330
1F
100
AcDbEntity
  8
TITLE
100
AcDbMText
 10
70.6980523429
 20
0.4125551099
 30
0.0
 40
0.125
 41
0.0
 71
     2
 72
     1
  1
5
  7
SLDTEXTSTYLE1
 73
     1
 44
1.0
  0
MTEXT
  5
203
330
1F
100
AcDbEntity
  8
TITLE
100
AcDbMText
 10
70.6980523429
 20
99.7472007792
 30
0.0
 40
0.125
 41
0.0
 71
     2
 72
     1
  1
5
  7
SLDTEXTSTYLE1
 73
     1
 44
1.0
  0
MTEXT
  5
204
330
1F
100
AcDbEntity
  8
TITLE
100
AcDbMText
 10
72.6665562799
 20
0.4125551099
 30
0.0
 40
0.125
 41
0.0
 71
     2
 72
     1
  1
4
  7
SLDTEXTSTYLE1
 73
     1
 44
1.0
  0
MTEXT
  5
205
330
1F
100
AcDbEntity
  8
TITLE
100
AcDbMText
 10
72.6665562799
 20
99.7472007792
 30
0.0
 40
0.125
 41
0.0
 71
     2
 72
     1
  1
4
  7
SLDTEXTSTYLE1
 73
     1
 44
1.0
  0
MTEXT
  5
206
330
1F
100
AcDbEntity
  8
TITLE
100
AcDbMText
 10
74.635060217
 20
0.4125551099
 30
0.0
 40
0.125
 41
0.0
 71
     2
 72
     1
  1
3
  7
SLDTEXTSTYLE1
 73
     1
 44
1.0
  0
MTEXT
  5
207
330
1F
100
AcDbEntity
  8
TITLE
100
AcDbMText
 10
74.635060217
 20
99.7472007792
 30
0.0
 40
0.125
 41
0.0
 71
     2
 72
     1
  1
3
  7
SLDTEXTSTYLE1
 73
     1
 44
1.0
  0
MTEXT
  5
208
330
1F
100
AcDbEntity
  8
TITLE
100
AcDbMText
 10
76.603564154
 20
0.4125551099
 30
0.0
 40
0.125
 41
0.0
 71
     2
 72
     1
  1
2
  7
SLDTEXTSTYLE1
 73
     1
 44
1.0
  0
MTEXT
  5
209
330
1F
100
AcDbEntity
  8
TITLE
100
AcDbMText
 10
76.603564154
 20
99.7472007792
 30
0.0
 40
0.125
 41
0.0
 71
     2
 72
     1
  1
2
  7
SLDTEXTSTYLE1
 73
     1
 44
1.0
  0
MTEXT
  5
20A
330
1F
100
AcDbEntity
  8
TITLE
100
AcDbMText
 10
78.7307787209
 20
0.4125551099
 30
0.0
 40
0.125
 41
0.0
 71
     2
 72
     1
  1
1
  7
SLDTEXTSTYLE1
 73
     1
 44
1.0
  0
MTEXT
  5
20B
330
1F
100
AcDbEntity
  8
TITLE
100
AcDbMText
 10
78.7307787209
 20
99.7472007792
 30
0.0
 40
0.125
 41
0.0
 71
     2
 72
     1
  1
1
  7
SLDTEXTSTYLE1
 73
     1
 44
1.0
  0
LINE
  5
20C
330
1F
100
AcDbEntity
  8
0
  6
SLD-Solid
 62
     7
370
    25
100
AcDbLine
 10
48.651391885
 20
19.4121085247
 30
0.0
 11
48.651391885
 21
46.8712692118
 31
0.0
  0
LINE
  5
20D
330
1F
100
AcDbEntity
  8
0
  6
SLD-Solid
 62
     7
370
    25
100
AcDbLine
 10
30.531591885
 20
46.8712692118
 30
0.0
 11
30.531591885
 21
19.4121085247
 31
0.0
  0
LINE
  5
20E
330
1F
100
AcDbEntity
  8
0
  6
SLD-Solid
 62
     7
370
    25
100
AcDbLine
 10
48.8539385783
 20
46.8712692118
 30
0.0
 11
48.8507149028
 21
46.9548117811
 31
0.0
  0
LINE
  5
20F
330
1F
100
AcDbEntity
  8
0
  6
SLD-Solid
 62
     7
370
    25
100
AcDbLine
 10
30.3322688672
 20
46.9548117811
 30
0.0
 11
30.3290451917
 21
46.8712692118
 31
0.0
  0
ARC
  5
210
330
1F
100
AcDbEntity
  8
0
  6
SLD-Solid
 62
     7
370
    25
100
AcDbCircle
 10
49.1289290551
 20
47.0670476286
 30
0.0
 40
0.3000000000000054
100
AcDbArc
 50
181.0
 51
201.9699024988
  0
ARC
  5
211
330
1F
100
AcDbEntity
  8
0
  6
SLD-Solid
 62
     7
370
    25
100
AcDbCircle
 10
30.0540547149
 20
47.0670476286
 30
0.0
 40
0.2999999999999983
100
AcDbArc
 50
338.0300975012
 51
359.0
  0
LINE
  5
212
330
1F
100
AcDbEntity
  8
0
  6
SLD-Solid
 62
     7
370
    25
100
AcDbLine
 10
48.8289747465
 20
47.0618119067
 30
0.0
 11
48.806041926
 21
48.3756323134
 31
0.0
  0
LINE
  5
213
330
1F
100
AcDbEntity
  8
0
  6
SLD-Solid
 62
     7
370
    25
100
AcDbLine
 10
30.376941844
 20
48.3756323134
 30
0.0
 11
30.3540090235
 21
47.0618119067
 31
0.0
  0
ARC
  5
214
330
1F
100
AcDbEntity
  8
0
  6
SLD-Solid
 62
     7
370
    25
100
AcDbCircle
 10
48.5560800022
 20
48.3712692118
 30
0.0
 40
0.2500000000000033
100
AcDbArc
 50
1.0
 51
90.0
  0
ARC
  5
215
330
1F
100
AcDbEntity
  8
0
  6
SLD-Solid
 62
     7
370
    25
100
AcDbCircle
 10
30.6269037678
 20
48.3712692118
 30
0.0
 40
0.2500000000000033
100
AcDbArc
 50
90.0
 51
179.0
  0
LINE
  5
216
330
1F
100
AcDbEntity
  8
0
  6
SLD-Solid
 62
     7
370
    25
100
AcDbLine
 10
48.5560800022
 20
48.6212692118
 30
0.0
 11
30.6269037678
 21
48.6212692118
 31
0.0
  0
ARC
  5
217
330
1F
100
AcDbEntity
  8
0
  6
SLD-Solid
 62
     7
370
    25
100
AcDbCircle
 10
48.511491885
 20
19.4121085247
 30
0.0
 40
0.0800000000000079
100
AcDbArc
 50
315.0
 51
0.0
  0
ARC
  5
218
330
1F
100
AcDbEntity
  8
0
  6
SLD-Solid
 62
     7
370
    25
100
AcDbCircle
 10
30.671491885
 20
19.4121085247
 30
0.0
 40
0.0799999999999983
100
AcDbArc
 50
180.0
 51
225.0
  0
LINE
  5
219
330
1F
100
AcDbEntity
  8
0
  6
SLD-Solid
 62
     7
370
    25
100
AcDbLine
 10
30.6149233425
 20
19.3555399822
 30
0.0
 11
30.7680604275
 21
19.2024028972
 31
0.0
  0
LINE
  5
21A
330
1F
100
AcDbEntity
  8
0
  6
SLD-Solid
 62
     7
370
    25
100
AcDbLine
 10
48.4149233425
 20
19.2024028972
 30
0.0
 11
48.5680604275
 21
19.3555399822
 31
0.0
  0
ARC
  5
21B
330
1F
100
AcDbEntity
  8
0
  6
SLD-Solid
 62
     7
370
    25
100
AcDbCircle
 10
30.82462897
 20
19.2589714397
 30
0.0
 40
0.0799999999999983
100
AcDbArc
 50
225.0
 51
270.0
  0
ARC
  5
21C
330
1F
100
AcDbEntity
  8
0
  6
SLD-Solid
 62
     7
370
    25
100
AcDbCircle
 10
48.3583548
 20
19.2589714397
 30
0.0
 40
0.0799999999999983
100
AcDbArc
 50
270.0
 51
315.0
  0
LINE
  5
21D
330
1F
100
AcDbEntity
  8
0
  6
SLD-Solid
 62
     7
370
    25
100
AcDbLine
 10
48.651391885
 20
19.4121085247
 30
0.0
 11
30.531591885
 21
19.4121085247
 31
0.0
  0
LINE
  5
21E
330
1F
100
AcDbEntity
  8
0
  6
SLD-Solid
 62
     7
370
    25
100
AcDbLine
 10
48.8539385783
 20
46.8712692118
 30
0.0
 11
30.3290451917
 21
46.8712692118
 31
0.0
  0
LINE
  5
21F
330
1F
100
AcDbEntity
  8
0
  6
SLD-Solid
 62
     7
370
    25
100
AcDbLine
 10
39.591491885
 20
19.1789714397
 30
0.0
 11
30.82462897
 21
19.1789714397
 31
0.0
  0
LINE
  5
220
330
1F
100
AcDbEntity
  8
0
  6
SLD-Solid
 62
     7
370
    25
100
AcDbLine
 10
48.3583548
 20
19.1789714397
 30
0.0
 11
39.591491885
 21
19.1789714397
 31
0.0
  0
LINE
  5
221
330
1F
100
AcDbEntity
  8
0
  6
SLD-Solid
 62
     8
370
    25
100
AcDbLine
 10
39.591491885
 20
19.2024028972
 30
0.0
 11
48.4149233425
 21
19.2024028972
 31
0.0
  0
LINE
  5
222
330
1F
100
AcDbEntity
  8
0
  6
SLD-Solid
 62
     8
370
    25
100
AcDbLine
 10
30.7680604275
 20
19.2024028972
 30
0.0
 11
39.591491885
 21
19.2024028972
 31
0.0
  0
DIMENSION
  5
223
330
1F
100
AcDbEntity
  8
DIMS
100
AcDbDimension
  2
_D
 10
51.5156081984
 20
19.1789714397
 30
0.0
 11
51.5156081984
 21
33.580324485
 31
0.0
 70
   160
  1
<>
 71
     2
 42
-1.0
  3
SLDDIMSTYLE0
100
AcDbAlignedDimension
 13
48.5560800022
 23
48.6212692118
 33
0.0
 14
48.3583548
 24
19.1789714397
 34
0.0
 50
90.0
100
AcDbRotatedDimension
  0
DIMENSION
  5
239
330
1F
100
AcDbEntity
  8
DIMS
100
AcDbDimension
  2
_D_1
 10
50.3345058362
 20
48.6212692118
 30
0.0
 11
50.3345058362
 21
47.6307735808
 31
0.0
 70
   160
  1
<>
 71
     2
 42
-1.0
  3
SLDDIMSTYLE1
100
AcDbAlignedDimension
 13
48.8539385783
 23
46.8712692118
 33
0.0
 14
48.5560800022
 24
48.6212692118
 34
0.0
 50
90.0
100
AcDbRotatedDimension
  0
MTEXT
  5
249
330
1F
100
AcDbEntity
  8
NOTES
100
AcDbMText
 10
30.8527352954
 20
17.8040031541
 30
0.0
 40
0.75
 41
0.0
 71
     1
 72
     1
  1
Front view
  7
SLDTEXTSTYLE1
 73
     1
 44
1.0
  0
LINE
  5
24A
330
1F
100
AcDbEntity
  8
0
  6
SLD-Solid
 62
     7
370
    25
100
AcDbLine
 10
73.4409615894
 20
23.2334147272
 30
0.0
 11
73.4409615894
 21
44.5428359921
 31
0.0
  0
LINE
  5
24B
330
1F
100
AcDbEntity
  8
0
  6
SLD-Solid
 62
     7
370
    25
100
AcDbLine
 10
55.3211615894
 20
44.5428359921
 30
0.0
 11
55.3211615894
 21
23.2334147272
 31
0.0
  0
SPLINE
  5
24C
330
1F
100
AcDbEntity
  8
0
  6
SLD-Solid
 62
     7
370
    25
100
AcDbSpline
210
0.0
220
0.0
230
1.0
 70
     8
 71
     3
 72
    28
 73
    24
 74
     0
 42
0.00000001
 43
0.00000001
 40
0.0
 40
0.0
 40
0.0
 40
0.0
 40
0.010215102389729
 40
0.0589743935136494
 40
0.1077721567621049
 40
0.1566359231263321
 40
0.2055891917449966
 40
0.254650290222771
 40
0.3038317107683061
 40
0.3531399503517713
 40
0.4025758232361012
 40
0.4521351615841491
 40
0.5018097831732442
 40
0.5515885903055192
 40
0.6014586714775024
 40
0.6514063027262595
 40
0.7014177808013117
 40
0.7514800567705204
 40
0.8015811695576265
 40
0.851710500572702
 40
0.9018588824570728
 40
0.9520185985763372
 40
0.9999999999999999
 40
0.9999999999999999
 40
0.9999999999999999
 40
0.9999999999999999
 10
73.58320996935743
 20
47.15145554507478
 30
0.0
 10
73.58235242467585
 20
47.16545823356165
 30
0.0
 10
73.57740160033967
 20
47.24629932840022
 30
0.0
 10
73.55619186363941
 20
47.39355594632714
 30
0.0
 10
73.51901989350444
 20
47.5928458689578
 30
0.0
 10
73.46844458618895
 20
47.79111280984896
 30
0.0
 10
73.40586834265164
 20
47.98816846827992
 30
0.0
 10
73.33097876991805
 20
48.18375831013087
 30
0.0
 10
73.24393943110779
 20
48.37763423980429
 30
0.0
 10
73.1448068135084
 20
48.56953440800239
 30
0.0
 10
73.03369197760556
 20
48.75918978775122
 30
0.0
 10
72.9107209153465
 20
48.94632508855789
 30
0.0
 10
72.77604752511031
 20
49.13066224369431
 30
0.0
 10
72.62985086485683
 20
49.31192372591607
 30
0.0
 10
72.47233502262021
 20
49.48983577793063
 30
0.0
 10
72.30372767340681
 20
49.66413152304203
 30
0.0
 10
72.12427623584358
 20
49.83455211273094
 30
0.0
 10
71.93425186499265
 20
50.00085218515167
 30
0.0
 10
71.73392321837092
 20
50.16278594884506
 30
0.0
 10
71.52364369002989
 20
50.32016267339901
 30
0.0
 10
71.30351599441393
 20
50.47264048487364
 30
0.0
 10
71.07795756244263
 20
50.61835028473418
 30
0.0
 10
70.92147643550324
 20
50.71056216574481
 30
0.0
 10
70.8449724792117
 20
50.75564475079756
 30
0.0
  0
SPLINE
  5
24D
330
1F
100
AcDbEntity
  8
0
  6
SLD-Solid
 62
     7
370
    25
100
AcDbSpline
210
0.0
220
0.0
230
1.0
 70
     8
 71
     3
 72
    70
 73
    66
 74
     0
 42
0.00000001
 43
0.00000001
 40
0.0
 40
0.0
 40
0.0
 40
0.0
 40
0.0084946643049534
 40
0.0245905306117552
 40
0.0406838224697961
 40
0.0567742491360492
 40
0.0728612869561041
 40
0.0889445985069032
 40
0.1050239981028644
 40
0.1210994222960597
 40
0.1371709050713611
 40
0.1532385572844558
 40
0.1693025498263268
 40
0.185363099992041
 40
0.2014204605602328
 40
0.2174749111359194
 40
0.23352675136257
 40
0.249576295663208
 40
0.2656238692206492
 40
0.2816698049521512
 40
0.2977144412726228
 40
0.3137581204731871
 40
0.3298011875684726
 40
0.3458439894868383
 40
0.361886874493394
 40
0.3779300882475271
 40
0.3939739677274011
 40
0.4100188628812736
 40
0.4260651233057707
 40
0.4421130974898597
 40
0.4581631317388872
 40
0.4742155686533964
 40
0.4902707450185028
 40
0.5063289889333679
 40
0.5223906159780239
 40
0.5384559241758354
 40
0.5545251874643311
 40
0.570598647335548
 40
0.5866765022507423
 40
0.6027588943767479
 40
0.6188458931377933
 40
0.6349374750367834
 40
0.6510334991887586
 40
0.6671336780484625
 40
0.6832375429358607
 40
0.6993444042115649
 40
0.7154533063853926
 40
0.731562780667572
 40
0.7476707583687648
 40
0.7637750410305896
 40
0.7798729599970332
 40
0.7959613534669244
 40
0.8120365707384423
 40
0.8280945156797599
 40
0.8441307421206395
 40
0.860140612258918
 40
0.8761195244884475
 40
0.8920632087460846
 40
0.9079680758675357
 40
0.9238315940905775
 40
0.9396526535432357
 40
0.9554318717577274
 40
0.9711717929677463
 40
0.9868769425286728
 40
1.0
 40
1.0
 40
1.0
 40
1.0
 10
70.8449724792117
 20
50.75564475079756
 30
0.0
 10
70.80209563887142
 20
50.78010592858568
 30
0.0
 10
70.67797487116692
 20
50.85091665395449
 30
0.0
 10
70.46605854544231
 20
50.96391330206769
 30
0.0
 10
70.20682803787344
 20
51.09266327326312
 30
0.0
 10
69.93967635815069
 20
51.2155525025877
 30
0.0
 10
69.66512088939692
 20
51.33252350164964
 30
0.0
 10
69.38349656555694
 20
51.44340973557441
 30
0.0
 10
69.09519727121888
 20
51.54808356712247
 30
0.0
 10
68.80061024042479
 20
51.64641684328239
 30
0.0
 10
68.50013332052042
 20
51.73829141897473
 30
0.0
 10
68.19416999961147
 20
51.82359636615965
 30
0.0
 10
67.88313034478426
 20
51.90222879568899
 30
0.0
 10
67.56743031032701
 20
51.97409374444829
 30
0.0
 10
67.24749143672453
 20
52.03910433428771
 30
0.0
 10
66.92374040170318
 20
52.09718186989071
 30
0.0
 10
66.59660857112208
 20
52.1482559567593
 30
0.0
 10
66.26653151413316
 20
52.19226461110422
 30
0.0
 10
65.93394849637005
 20
52.2291543640217
 30
0.0
 10
65.59930195174364
 20
52.25888035522635
 30
0.0
 10
65.26303693687203
 20
52.28140641440548
 30
0.0
 10
64.92560057111888
 20
52.29670512824145
 30
0.0
 10
64.58744146531647
 20
52.30475789174146
 30
0.0
 10
64.24900914216207
 20
52.30555494284405
 30
0.0
 10
63.91075417823769
 20
52.29909539345256
 30
0.0
 10
63.57312697200086
 20
52.28538728855336
 30
0.0
 10
63.23657704946039
 20
52.26444759155485
 30
0.0
 10
62.90155175068952
 20
52.23630206197339
 30
0.0
 10
62.5684962872261
 20
52.20098520069486
 30
0.0
 10
62.23785325860155
 20
52.15854017945999
 30
0.0
 10
61.91006208985667
 20
52.10901874947582
 30
0.0
 10
61.58555848279659
 20
52.05248113369228
 30
0.0
 10
61.2647738842226
 20
51.98899590403254
 30
0.0
 10
60.94813497456772
 20
51.91863984534402
 30
0.0
 10
60.63606318054907
 20
51.84149780843891
 30
0.0
 10
60.32897421562176
 20
51.75766255534725
 30
0.0
 10
60.02727765213302
 20
51.6672346008443
 30
0.0
 10
59.73137652908516
 20
51.57032205547245
 30
0.0
 10
59.44166699924179
 20
51.46704047668288
 30
0.0
 10
59.15853801885499
 20
51.35751273639902
 30
0.0
 10
58.8823710824066
 20
51.24186891524607
 30
0.0
 10
58.61354000326153
 20
51.12024623586583
 30
0.0
 10
58.35241073878723
 20
50.99278905003577
 30
0.0
 10
58.09934125502367
 20
50.85964889654434
 30
0.0
 10
57.85468142105164
 20
50.72098464857476
 30
0.0
 10
57.61877291658308
 20
50.57696277023712
 30
0.0
 10
57.39195005890057
 20
50.42775831355971
 30
0.0
 10
57.1745404906214
 20
50.27355630503924
 30
0.0
 10
56.96686320789176
 20
50.11455170849494
 30
0.0
 10
56.76922723584868
 20
49.95094962643312
 30
0.0
 10
56.58193018635081
 20
49.78296535047235
 30
0.0
 10
56.40525854073475
 20
49.61082622738679
 30
0.0
 10
56.2394861911068
 20
49.43477247269859
 30
0.0
 10
56.08487254588407
 20
49.2550577459796
 30
0.0
 10
55.94166024237393
 20
49.07194930941665
 30
0.0
 10
55.81007243311199
 20
48.88572758289762
 30
0.0
 10
55.69031025717116
 20
48.69668490356599
 30
0.0
 10
55.58254914633257
 20
48.50512344431024
 30
0.0
 10
55.4869403478825
 20
48.31135203546793
 30
0.0
 10
55.40359560755559
 20
48.11568296475627
 30
0.0
 10
55.33263876236833
 20
47.91842558718127
 30
0.0
 10
55.27401436598829
 20
47.71989008318278
 30
0.0
 10
55.22820614937293
 20
47.52035392257181
 30
0.0
 10
55.19545519492645
 20
47.33101859731341
 30
0.0
 10
55.18399577493322
 20
47.20799359434206
 30
0.0
 10
55.17877926504098
 20
47.15199066004243
 30
0.0
  0
LINE
  5
24E
330
1F
100
AcDbEntity
  8
0
  6
SLD-Solid
 62
     7
370
    25
100
AcDbLine
 10
73.6178410354
 20
45.8763344528
 30
0.0
 11
73.5949099612
 21
46.9489590594
 31
0.0
  0
LINE
  5
24F
330
1F
100
AcDbEntity
  8
0
  6
SLD-Solid
 62
     7
370
    25
100
AcDbLine
 10
55.1672132176
 20
46.9489590594
 30
0.0
 11
55.1442821434
 21
45.8763344528
 31
0.0
  0
LINE
  5
250
330
1F
100
AcDbEntity
  8
0
  6
SLD-Solid
 62
     7
370
    25
100
AcDbLine
 10
73.6400608771
 20
45.8008134354
 30
0.0
 11
73.6368384014
 21
45.8689785835
 31
0.0
  0
LINE
  5
251
330
1F
100
AcDbEntity
  8
0
  6
SLD-Solid
 62
     7
370
    25
100
AcDbLine
 10
55.1252847774
 20
45.8689785835
 30
0.0
 11
55.1220623017
 21
45.8008134354
 31
0.0
  0
SPLINE
  5
252
330
1F
100
AcDbEntity
  8
0
  6
SLD-Solid
 62
     7
370
    25
100
AcDbSpline
210
0.0
220
0.0
230
1.0
 70
     8
 71
     3
 72
    66
 73
    62
 74
     0
 42
0.00000001
 43
0.00000001
 40
0.0
 40
0.0
 40
0.0
 40
0.0
 40
0.017955244809056
 40
0.0364876070217559
 40
0.0548387669534136
 40
0.072910093851965
 40
0.0906737221689303
 40
0.1081525164700618
 40
0.1253935982879321
 40
0.1424496781729818
 40
0.1593694609211901
 40
0.1761939876193019
 40
0.1929560322999455
 40
0.2096808219023832
 40
0.2263872026964343
 40
0.2430887393350556
 40
0.2597922995997886
 40
0.2765053130067986
 40
0.2932325828046829
 40
0.3099769338442064
 40
0.3267397227302994
 40
0.3435212309080719
 40
0.3603209635934704
 40
0.3771378742760155
 40
0.3939705311722363
 40
0.4108172389079137
 40
0.4276761260144166
 40
0.4445452065761546
 40
0.4614224225422781
 40
0.4783056717718022
 40
0.4951928257653643
 40
0.5120817401997797
 40
0.528970102129863
 40
0.5458551908277165
 40
0.5627348425912347
 40
0.5796068955848511
 40
0.5964691980506663
 40
0.6133196228057304
 40
0.6301560907486756
 40
0.6469766069785243
 40
0.6637793141227412
 40
0.680562568760209
 40
0.6973250484455282
 40
0.7140658988176851
 40
0.7307849325973869
 40
0.7474828948606604
 40
0.7641618116051
 40
0.780825440839779
 40
0.7974798463322212
 40
0.8141325978760189
 40
0.8307934674167596
 40
0.8474785906876257
 40
0.8642096961189843
 40
0.8810151554620778
 40
0.8979307784160449
 40
0.9149998501970056
 40
0.9322714672456046
 40
0.9497955554962951
 40
0.9676122729821816
 40
0.985733893855191
 40
1.0
 40
1.0
 40
1.0
 40
1.0
 10
68.63086562512207
 20
45.93588937597121
 30
0.0
 10
68.62966384822884
 20
45.89679213515605
 30
0.0
 10
68.62722166693447
 20
45.81734099017478
 30
0.0
 10
68.60797266860034
 20
45.69765197874165
 30
0.0
 10
68.5771456226178
 20
45.5772581119898
 30
0.0
 10
68.53404045223729
 20
45.45809698047817
 30
0.0
 10
68.47933804372425
 20
45.34058376173851
 30
0.0
 10
68.41327757595707
 20
45.22495131790636
 30
0.0
 10
68.33612790264516
 20
45.11134337042289
 30
0.0
 10
68.24807032514722
 20
44.99989515315069
 30
0.0
 10
68.14926619257727
 20
44.89077710849177
 30
0.0
 10
68.03987810445047
 20
44.78420814940629
 30
0.0
 10
67.92009397581637
 20
44.6804522401434
 30
0.0
 10
67.79013968941018
 20
44.5798081429766
 30
0.0
 10
67.65028649002909
 20
44.4825978522156
 30
0.0
 10
67.50086139647436
 20
44.38916048361619
 30
0.0
 10
67.3422379093753
 20
44.29983514677529
 30
0.0
 10
67.1748329738484
 20
44.21495388938371
 30
0.0
 10
66.99909379052758
 20
44.1348327648149
 30
0.0
 10
66.81550641580188
 20
44.05977451785605
 30
0.0
 10
66.62459214585745
 20
43.99006499164653
 30
0.0
 10
66.42690383671456
 20
43.92597047025809
 30
0.0
 10
66.22302231484863
 20
43.86773575351038
 30
0.0
 10
66.0135529513473
 20
43.81558278650186
 30
0.0
 10
65.7991224308207
 20
43.76970970170162
 30
0.0
 10
65.58037571921346
 20
43.7302901620891
 30
0.0
 10
65.35797321879022
 20
43.69747291979611
 30
0.0
 10
65.13258808996254
 20
43.67138152574267
 30
0.0
 10
64.90490371579054
 20
43.65211414238686
 30
0.0
 10
64.67561128402237
 20
43.63974342454704
 30
0.0
 10
64.44540746213882
 20
43.63431644300559
 30
0.0
 10
64.21499286358757
 20
43.6358546280727
 30
0.0
 10
63.98507165226335
 20
43.64435354312329
 30
0.0
 10
63.75634673224746
 20
43.65978259973524
 30
0.0
 10
63.52951673321233
 20
43.68208513681926
 30
0.0
 10
63.30527201789749
 20
43.71117883120812
 30
0.0
 10
63.08429497997988
 20
43.74695558116446
 30
0.0
 10
62.86725773501631
 20
43.78928149327084
 30
0.0
 10
62.65481971490188
 20
43.83799689191181
 30
0.0
 10
62.44762513693912
 20
43.89291637178812
 30
0.0
 10
62.24630031426402
 20
43.95382892433515
 30
0.0
 10
62.05145077236485
 20
44.02049818315964
 30
0.0
 10
61.86365813620559
 20
44.09266285286352
 30
0.0
 10
61.68347675616613
 20
44.17003741120257
 30
0.0
 10
61.51143005129362
 20
44.25231320781794
 30
0.0
 10
61.34800656918024
 20
44.33916012494147
 30
0.0
 10
61.19365579875389
 20
44.43022901736659
 30
0.0
 10
61.0487838328344
 20
44.5251552090817
 30
0.0
 10
60.91375316400469
 20
44.62356040975211
 30
0.0
 10
60.78888127643076
 20
44.72505548022852
 30
0.0
 10
60.67443045048393
 20
44.82925171214147
 30
0.0
 10
60.57060221474674
 20
44.93577510946898
 30
0.0
 10
60.47753649815561
 20
45.04428435127971
 30
0.0
 10
60.39532014589269
 20
45.15448482096789
 30
0.0
 10
60.32400185841183
 20
45.26614848010622
 30
0.0
 10
60.263599066061
 20
45.37913307918131
 30
0.0
 10
60.21417997848221
 20
45.49339424412418
 30
0.0
 10
60.17571110519052
 20
45.60897978470585
 30
0.0
 10
60.14883849620566
 20
45.72598675408891
 30
0.0
 10
60.13335824605321
 20
45.83548904053205
 30
0.0
 10
60.13250441172504
 20
45.90600787196509
 30
0.0
 10
60.13212831583078
 20
45.93706992006369
 30
0.0
  0
LWPOLYLINE
  5
253
330
1F
100
AcDbEntity
  8
0
  6
SLD-Solid
 62
     7
370
    25
100
AcDbPolyline
 90
       82
 70
   128
 43
0.0
 10
73.4409615894
 20
23.2334147272
 10
73.4405887239
 20
23.185964242
 10
73.4304018921
 20
22.9809689196
 10
73.4063017445
 20
22.7763617313
 10
73.3683253349
 20
22.5724572597
 10
73.3165310518
 20
22.369569007
 10
73.2509985286
 20
22.1680089128
 10
73.1718285214
 20
21.9680868748
 10
73.0791427536
 20
21.770110272
 10
72.973083729
 20
21.5743834926
 10
72.853814513
 20
21.3812074655
 10
72.7215184813
 20
21.1908791979
 10
72.5763990385
 20
21.0036913186
 10
72.418679305
 20
20.8199316279
 10
72.2486017741
 20
20.6398826556
 10
72.0664279391
 20
20.4638212259
 10
71.8724378914
 20
20.2920180326
 10
71.6669298897
 20
20.1247372221
 10
71.4502199017
 20
19.9622359878
 10
71.2226411178
 20
19.8047641747
 10
70.9845434392
 20
19.6525638948
 10
70.73629294
 20
19.5058691553
 10
70.4782713041
 20
19.3649054987
 10
70.2108752385
 20
19.2298896558
 10
69.9345158633
 20
19.1010292129
 10
69.6496180796
 20
18.9785222923
 10
69.3566199165
 20
18.8625572477
 10
69.055971857
 20
18.7533123748
 10
68.7481361462
 20
18.650955637
 10
68.4335860799
 20
18.5556444075
 10
68.1128052773
 20
18.4675252266
 10
67.7862869372
 20
18.3867335772
 10
67.45453308
 20
18.3133936761
 10
67.1180537757
 20
18.2476182829
 10
66.7773663594
 20
18.1895085271
 10
66.4329946364
 20
18.1391537521
 10
66.0854680765
 20
18.0966313781
 10
65.7353210001
 20
18.062006783
 10
65.3830917566
 20
18.0353332021
 10
65.0293218966
 20
18.0166516457
 10
64.6745553396
 20
18.0059908367
 10
64.3193375374
 20
18.0033671661
 10
63.9642146357
 20
18.0087846676
 10
63.6097326341
 20
18.022235012
 10
63.2564365469
 20
18.0436975194
 10
62.9048695652
 20
18.0731391913
 10
62.5555722214
 20
18.1105147612
 10
62.2090815584
 20
18.1557667645
 10
61.865930304
 20
18.2088256263
 10
61.5266460515
 20
18.269609769
 10
61.1917504487
 20
18.3380257373
 10
60.861758396
 20
18.4139683418
 10
60.5371772545
 20
18.4973208213
 10
60.2185060661
 20
18.5879550217
 10
59.9062347863
 20
18.6857315934
 10
59.6008435305
 20
18.7905002054
 10
59.3028018362
 20
18.9020997764
 10
59.0125679412
 20
19.0203587227
 10
58.7305880785
 20
19.1450952218
 10
58.4572957909
 20
19.2761174918
 10
58.1931112639
 20
19.4132240867
 10
57.9384406798
 20
19.5562042059
 10
57.6936755934
 20
19.7048380179
 10
57.4591923299
 20
19.8588969992
 10
57.2353514061
 20
20.0181442848
 10
57.0224969763
 20
20.1823350327
 10
56.8209563031
 20
20.3512168006
 10
56.6310392543
 20
20.5245299334
 10
56.4530378265
 20
20.7020079633
 10
56.2872256959
 20
20.8833780185
 10
56.1338577979
 20
21.0683612434
 10
55.9931699349
 20
21.2566732274
 10
55.8653784138
 20
21.4480244417
 10
55.7506797133
 20
21.6421206847
 10
55.6492501822
 20
21.8386635343
 10
55.5612457679
 20
22.0373508071
 10
55.4868017767
 20
22.2378770222
 10
55.4260326659
 20
22.4399338715
 10
55.3790318678
 20
22.6432106938
 10
55.3458716457
 20
22.8473949518
 10
55.3266029834
 20
23.0521727133
 10
55.3211615894
 20
23.2334147272
  0
ARC
  5
254
330
1F
100
AcDbEntity
  8
0
  6
SLD-Solid
 62
     7
370
    25
100
AcDbCircle
 10
70.5190449883
 20
46.8832858918
 30
0.0
 40
3.076561582073132
100
AcDbArc
 50
357.7035798639
 51
4.8071769236
  0
ARC
  5
255
330
1F
100
AcDbEntity
  8
0
  6
SLD-Solid
 62
     7
370
    25
100
AcDbCircle
 10
58.2411878802
 20
46.8833273638
 30
0.0
 40
3.074674492542632
100
AcDbArc
 50
175.1812727425
 51
182.2687737908
  0
LWPOLYLINE
  5
256
330
1F
100
AcDbEntity
  8
0
  6
SLD-Solid
 62
     7
370
    25
100
AcDbPolyline
 90
      160
 70
   128
 43
0.0
 10
70.6787403633
 20
50.7138258547
 10
70.9226237303
 20
50.5673584688
 10
71.1562932245
 20
50.4154432593
 10
71.3793839987
 20
50.2583174238
 10
71.5915477233
 20
50.0962262956
 10
71.7924531297
 20
49.9294229609
 10
71.981786528
 20
49.7581678632
 10
72.1592522966
 20
49.5827283969
 10
72.3245733437
 20
49.4033784901
 10
72.4774915401
 20
49.2203981763
 10
72.6177681223
 20
49.0340731575
 10
72.745184065
 20
48.8446943582
 10
72.8595404233
 20
48.6525574708
 10
72.9606586434
 20
48.4579624943
 10
73.0483808412
 20
48.2612132656
 10
73.1225700488
 20
48.0626169854
 10
73.1831104286
 20
47.8624837381
 10
73.229907454
 20
47.661126008
 10
73.2628880571
 20
47.4588581914
 10
73.2820007424
 20
47.2559961054
 10
73.2872156679
 20
47.052856495
 10
73.278524691
 20
46.8497565388
 10
73.2559413816
 20
46.6470133531
 10
73.219501001
 20
46.4449434973
 10
73.1692604464
 20
46.2438624796
 10
73.1052981625
 20
46.0440842641
 10
73.0277140188
 20
45.8459207807
 10
72.9366291538
 20
45.6496814383
 10
72.8321857857
 20
45.4556726412
 10
72.7145469903
 20
45.2641973112
 10
72.5838964467
 20
45.0755544142
 10
72.4404381502
 20
44.8900384938
 10
72.2843960939
 20
44.7079392111
 10
72.116013919
 20
44.5295408923
 10
71.9355545342
 20
44.3551220855
 10
71.7432997055
 20
44.1849551247
 10
71.5395496158
 20
44.0193057056
 10
71.3246223969
 20
43.85843247
 10
71.0988536321
 20
43.7025866023
 10
70.8625958324
 20
43.5520114375
 10
70.6162178864
 20
43.4069420807
 10
70.360104484
 20
43.2676050406
 10
70.0946555158
 20
43.1342178753
 10
69.820285449
 20
43.0069888532
 10
69.5374226799
 20
42.8861166272
 10
69.2465088649
 20
42.7717899249
 10
68.9479982316
 20
42.6641872539
 10
68.6423568689
 20
42.5634766231
 10
68.3300619995
 20
42.4698152801
 10
68.0116012346
 20
42.383349466
 10
67.6874718131
 20
42.3042141869
 10
67.3581798245
 20
42.2325330031
 10
67.0242394193
 20
42.1684178363
 10
66.6861720055
 20
42.1119687947
 10
66.3445054355
 20
42.0632740168
 10
65.9997731811
 20
42.0224095338
 10
65.6525135006
 20
41.9894391506
 10
65.3032685989
 20
41.9644143465
 10
64.9525837804
 20
41.947374195
 10
64.6010065978
 20
41.938345302
 10
64.2490859973
 20
41.9373417652
 10
63.8973714609
 20
41.9443651515
 10
63.5464121493
 20
41.9594044947
 10
63.1967560437
 20
41.9824363126
 10
62.8489490906
 20
42.0134246439
 10
62.5035343493
 20
42.0523211038
 10
62.1610511439
 20
42.0990649602
 10
61.8220342213
 20
42.153583228
 10
61.4870129162
 20
42.2157907836
 10
61.1565103245
 20
42.2855904972
 10
60.8310424869
 20
42.3628733848
 10
60.5111175826
 20
42.4475187784
 10
60.1972351366
 20
42.5393945142
 10
59.8898852389
 20
42.6383571391
 10
59.5895477799
 20
42.7442521349
 10
59.2966917009
 20
42.8569141589
 10
59.011774262
 20
42.9761673029
 10
58.7352403279
 20
43.1018253672
 10
58.4675216735
 20
43.2336921517
 10
58.2090363097
 20
43.371561762
 10
57.9601878306
 20
43.5152189311
 10
57.7213647838
 20
43.6644393554
 10
57.492940063
 20
43.8189900449
 10
57.2752703262
 20
43.9786296871
 10
57.068695439
 20
44.1431090235
 10
56.8735379435
 20
44.3121712393
 10
56.690102555
 20
44.4855523638
 10
56.5186756861
 20
44.6629816831
 10
56.3595249994
 20
44.8441821622
 10
56.2128989899
 20
45.0288708782
 10
56.0790265967
 20
45.2167594616
 10
55.9581168456
 20
45.4075545466
 10
55.8503585229
 20
45.6009582293
 10
55.7559198803
 20
45.7966685329
 10
55.6749483727
 20
45.994379879
 10
55.6075704273
 20
46.1937835647
 10
55.553891247
 20
46.3945682449
 10
55.5139946453
 20
46.5964204181
 10
55.487942916
 20
46.7990249162
 10
55.4757767359
 20
47.0020653962
 10
55.4775151009
 20
47.2052248345
 10
55.4931552969
 20
47.4081860218
 10
55.5226729034
 20
47.6106320584
 10
55.5660218324
 20
47.8122468486
 10
55.6231343995
 20
48.0127155951
 10
55.6939214304
 20
48.2117252896
 10
55.7782723993
 20
48.408965202
 10
55.8760556024
 20
48.6041273658
 10
55.9871183627
 20
48.7969070584
 10
56.1112872689
 20
48.9870032771
 10
56.248368446
 20
49.1741192092
 10
56.3981478581
 20
49.3579626956
 10
56.5603916424
 20
49.5382466862
 10
56.7348464744
 20
49.7146896892
 10
56.9212399636
 20
49.8870162098
 10
57.1192810788
 20
50.0549571804
 10
57.3286606022
 20
50.2182503813
 10
57.5490516126
 20
50.3766408494
 10
57.7801099955
 20
50.5298812769
 10
58.0214749808
 20
50.677732397
 10
58.2727697057
 20
50.8199633577
 10
58.5336018032
 20
50.9563520824
 10
58.8035640151
 20
51.0866856161
 10
59.0822348273
 20
51.2107604586
 10
59.3691791285
 20
51.3283828817
 10
59.6639488892
 20
51.4393692319
 10
59.9660838615
 20
51.5435462173
 10
60.2751122973
 20
51.6407511778
 10
60.5905516856
 20
51.7308323394
 10
60.9119095052
 20
51.8136490512
 10
61.2386839939
 20
51.8890720046
 10
61.5703649322
 20
51.9569834356
 10
61.9064344397
 20
52.0172773087
 10
62.2463677837
 20
52.069859482
 10
62.5896341987
 20
52.1146478548
 10
62.9356977149
 20
52.1515724953
 10
63.2840179953
 20
52.1805757501
 10
63.6340511789
 20
52.2016123341
 10
63.9852507307
 20
52.2146494011
 10
64.3370682941
 20
52.2196665953
 10
64.6889545479
 20
52.2166560829
 10
65.0403600633
 20
52.2056225645
 10
65.3907361624
 20
52.1865832676
 10
65.7395357746
 20
52.1595679199
 10
66.0862142905
 20
52.1246187025
 10
66.4302304129
 20
52.0817901846
 10
66.7710470015
 20
52.0311492377
 10
67.1081319115
 20
51.9727749318
 10
67.440958825
 20
51.9067584114
 10
67.7690080722
 20
51.8332027533
 10
68.0917674431
 20
51.7522228061
 10
68.4087329873
 20
51.6639450104
 10
68.7194098007
 20
51.5685072013
 10
69.0233127984
 20
51.4660583938
 10
69.3199674719
 20
51.3567585495
 10
69.6089106301
 20
51.2407783271
 10
69.8896911227
 20
51.1182988159
 10
70.1618705441
 20
50.9895112533
 10
70.4250239186
 20
50.8546167256
 10
70.6787403633
 20
50.7138258547
  0
LWPOLYLINE
  5
257
330
1F
100
AcDbEntity
  8
0
  6
SLD-Solid
 62
     7
370
    25
100
AcDbPolyline
 90
      114
 70
   128
 43
0.0
 10
67.5760135989
 20
48.063038677
 10
67.7486345907
 20
47.9576857446
 10
67.9108466074
 20
47.8469574972
 10
68.0621482609
 20
47.7311961895
 10
68.2020718865
 20
47.6107596329
 10
68.3301849882
 20
47.4860200901
 10
68.4460915758
 20
47.3573631237
 10
68.5494333887
 20
47.2251864052
 10
68.6398910032
 20
47.0898984851
 10
68.71718482
 20
46.9519175306
 10
68.7810759285
 20
46.811670033
 10
68.8313668448
 20
46.6695894893
 10
68.8679021225
 20
46.5261150623
 10
68.8905688333
 20
46.3816902232
 10
68.8992969157
 20
46.2367613809
 10
68.8940593916
 20
46.0917765022
 10
68.8748724499
 20
45.9471837269
 10
68.8417953964
 20
45.8034299832
 10
68.7949304703
 20
45.6609596055
 10
68.7344225284
 20
45.5202129617
 10
68.6604585974
 20
45.3816250916
 10
68.5732672954
 20
45.2456243622
 10
68.4731181259
 20
45.1126311442
 10
68.3603206441
 20
44.9830565119
 10
68.2352235006
 20
44.857300973
 10
68.0982133635
 20
44.7357532307
 10
67.9497137233
 20
44.6187889822
 10
67.7901835839
 20
44.5067697572
 10
67.6201160438
 20
44.4000418007
 10
67.4400367719
 20
44.2989350028
 10
67.2505023831
 20
44.2037618786
 10
67.0520987172
 20
44.114816603
 10
66.8454390287
 20
44.0323741007
 10
66.6311620907
 20
43.9566891967
 10
66.409930221
 20
43.8879958287
 10
66.1824272346
 20
43.8265063239
 10
65.9493563302
 20
43.772410743
 10
65.7114379167
 20
43.7258762923
 10
65.4694073862
 20
43.687046807
 10
65.2240128412
 20
43.6560423069
 10
64.9760127822
 20
43.6329586251
 10
64.7261737631
 20
43.617867112
 10
64.4752680221
 20
43.6108144145
 10
64.2240710945
 20
43.6118223322
 10
63.9733594154
 20
43.6208877497
 10
63.7239079204
 20
43.6379826461
 10
63.4764876497
 20
43.6630541823
 10
63.2318633652
 20
43.6960248635
 10
62.9907911866
 20
43.7367927792
 10
62.7540162542
 20
43.7852319181
 10
62.5222704256
 20
43.8411925577
 10
62.296270014
 20
43.9045017268
 10
62.0767135736
 20
43.9749637404
 10
61.8642797409
 20
44.0523608044
 10
61.6596251367
 20
44.136453689
 10
61.4633823366
 20
44.2269824679
 10
61.2761579159
 20
44.3236673217
 10
61.0985305745
 20
44.4262094033
 10
60.9310493483
 20
44.5342917608
 10
60.7742319123
 20
44.6475803178
 10
60.6285629801
 20
44.7657249061
 10
60.4944928061
 20
44.8883603473
 10
60.3724357934
 20
45.0151075824
 10
60.2627692133
 20
45.145574843
 10
60.165832039
 20
45.2793588621
 10
60.0819238976
 20
45.4160461212
 10
60.0113041445
 20
45.5552141276
 10
59.9541910612
 20
45.6964327211
 10
59.9107611811
 20
45.8392654031
 10
59.8811487433
 20
45.9832706859
 10
59.8654452782
 20
46.1280034575
 10
59.8636993244
 20
46.2730163572
 10
59.8759162784
 20
46.4178611584
 10
59.9020583785
 20
46.5620901541
 10
59.9420448207
 20
46.7052575407
 10
59.9957520094
 20
46.8469207962
 10
60.0630139388
 20
46.9866420474
 10
60.1436227059
 20
47.123989424
 10
60.2373291538
 20
47.2585383931
 10
60.3438436412
 20
47.3898730716
 10
60.4628369379
 20
47.5175875115
 10
60.5939412424
 20
47.6412869548
 10
60.736751319
 20
47.7605890536
 10
60.8908257497
 20
47.875125052
 10
61.0556882994
 20
47.9845409256
 10
61.2308293873
 20
48.0884984765
 10
61.4157076625
 20
48.1866763776
 10
61.6097516767
 20
48.2787711668
 10
61.812361651
 20
48.3644981844
 10
62.0229113296
 20
48.4435924529
 10
62.2407499156
 20
48.5158094967
 10
62.4652040822
 20
48.5809260969
 10
62.6955800547
 20
48.6387409818
 10
62.9311657539
 20
48.689075449
 10
63.1712329981
 20
48.7317739176
 10
63.4150397532
 20
48.7667044089
 10
63.6618324264
 20
48.7937589548
 10
63.9108481957
 20
48.8128539314
 10
64.1613173676
 20
48.8239303171
 10
64.4124657564
 20
48.8269538754
 10
64.6635170767
 20
48.8219152607
 10
64.9136953432
 20
48.8088300471
 10
65.1622272694
 20
48.7877386801
 10
65.4083446572
 20
48.7587063521
 10
65.6512867719
 20
48.7218228003
 10
65.8903026933
 20
48.6772020296
 10
66.124653637
 20
48.6249819603
 10
66.3536152376
 20
48.5653240016
 10
66.5764797879
 20
48.4984125528
 10
66.7925584264
 20
48.4244544335
 10
67.0011832663
 20
48.3436782438
 10
67.2017094603
 20
48.2563336584
 10
67.3935171934
 20
48.1626906544
 10
67.5760135989
 20
48.063038677
  0
LWPOLYLINE
  5
258
330
1F
100
AcDbEntity
  8
0
  6
SLD-Solid
 62
     7
370
    25
100
AcDbPolyline
 90
       84
 70
   128
 43
0.0
 10
73.6400608771
 20
45.8008134354
 10
73.643072869
 20
45.7067861882
 10
73.6395898054
 20
45.4994212859
 10
73.6221810358
 20
45.2922902986
 10
73.5908727448
 20
45.0857047711
 10
73.5457120229
 20
44.8799754275
 10
73.4867667962
 20
44.6754117044
 10
73.4141257239
 20
44.4723212851
 10
73.3278980651
 20
44.2710096368
 10
73.2282135143
 20
44.0717795513
 10
73.1152220067
 20
43.8749306897
 10
72.9890934921
 20
43.6807591312
 10
72.8500176798
 20
43.4895569285
 10
72.6982037531
 20
43.3016116678
 10
72.5338800546
 20
43.1172060365
 10
72.3572937426
 20
42.9366173983
 10
72.1687104198
 20
42.7601173756
 10
71.9684137333
 20
42.5879714413
 10
71.7567049486
 20
42.4204385192
 10
71.5339024955
 20
42.2577705947
 10
71.3003414903
 20
42.1002123358
 10
71.0563732309
 20
41.9480007251
 10
70.8023646686
 20
41.8013647034
 10
70.5386978566
 20
41.6605248251
 10
70.2657693747
 20
41.5256929267
 10
69.9839897332
 20
41.3970718084
 10
69.6937827556
 20
41.2748549284
 10
69.3955849407
 20
41.1592261125
 10
69.0898448064
 20
41.0503592776
 10
68.7770222148
 20
40.9484181695
 10
68.4575876809
 20
40.8535561175
 10
68.1320216644
 20
40.7659158031
 10
67.8008138477
 20
40.6856290457
 10
67.4644623988
 20
40.6128166041
 10
67.1234732221
 20
40.5475879951
 10
66.7783591979
 20
40.4900413289
 10
66.4296394103
 20
40.440263161
 10
66.0778383671
 20
40.3983283626
 10
65.7234852104
 20
40.3643000075
 10
65.3671129211
 20
40.3382292777
 10
65.0092575169
 20
40.320155386
 10
64.6504572463
 20
40.3101055173
 10
64.2912517791
 20
40.3080947874
 10
63.9321813944
 20
40.3141262208
 10
63.5737861682
 20
40.3281907456
 10
63.2166051608
 20
40.3502672074
 10
62.8611756066
 20
40.3803224011
 10
62.5080321052
 20
40.4183111208
 10
62.1577058181
 20
40.464176228
 10
61.8107236693
 20
40.517848737
 10
61.4676075529
 20
40.5792479195
 10
61.1288735481
 20
40.6482814251
 10
60.795031143
 20
40.7248454209
 10
60.4665824684
 20
40.8088247474
 10
60.1440215422
 20
40.9000930918
 10
59.8278335268
 20
40.9985131777
 10
59.5184939988
 20
41.103936972
 10
59.2164682344
 20
41.2162059073
 10
58.922210509
 20
41.3351511204
 10
58.6361634142
 20
41.4605937065
 10
58.358757192
 20
41.592344988
 10
58.0904090876
 20
41.7302067984
 10
57.8315227222
 20
41.8739717805
 10
57.5824874853
 20
42.0234236981
 10
57.3436779498
 20
42.1783377613
 10
57.1154533077
 20
42.3384809646
 10
56.8981568306
 20
42.5036124376
 10
56.6921153531
 20
42.6734838066
 10
56.4976387812
 20
42.8478395691
 10
56.315019626
 20
43.0264174775
 10
56.1445325641
 20
43.2089489335
 10
55.9864340242
 20
43.3951593926
 10
55.8409618017
 20
43.5847687765
 10
55.7083347005
 20
43.7774918947
 10
55.5887522043
 20
43.9730388733
 10
55.4823941766
 20
44.1711155912
 10
55.3894205901
 20
44.371424122
 10
55.3099712857
 20
44.5736631828
 10
55.2441657628
 20
44.7775285867
 10
55.1921029992
 20
44.9827137009
 10
55.1538613022
 20
45.1889099074
 10
55.1294981909
 20
45.3958070676
 10
55.1190503098
 20
45.6030939885
 10
55.1220623017
 20
45.8008134354
  0
LWPOLYLINE
  5
259
330
1F
100
AcDbEntity
  8
0
  6
SLD-Solid
 62
     7
370
    25
100
AcDbPolyline
 90
       15
 70
   128
 43
0.0
 10
67.3862654094
 20
47.5939425289
 10
67.5529277468
 20
47.4920716332
 10
67.7092441161
 20
47.3848742428
 10
67.8547046457
 20
47.2727000133
 10
67.9888348737
 20
47.1559148338
 10
68.1111972951
 20
47.0348996333
 10
68.2213927891
 20
46.9100491382
 10
68.319061921
 20
46.7817705849
 10
68.4038861143
 20
46.6504823913
 10
68.4755886902
 20
46.5166127922
 10
68.5339357698
 20
46.3805984424
 10
68.5787370369
 20
46.2428829926
 10
68.6098463593
 20
46.1039156418
 10
68.6271622646
 20
45.9641496726
 10
68.6310060426
 20
45.8716191143
  0
LWPOLYLINE
  5
25A
330
1F
100
AcDbEntity
  8
0
  6
SLD-Solid
 62
     7
370
    25
100
AcDbPolyline
 90
       43
 70
   128
 43
0.0
 10
60.1310615894
 20
45.8590752913
 10
60.1314949066
 20
45.8941096099
 10
60.1418901023
 20
46.0341040352
 10
60.1661125943
 20
46.1735275531
 10
60.2040833738
 20
46.311925393
 10
60.255678588
 20
46.4488461301
 10
60.3207299441
 20
46.5838431572
 10
60.3990252581
 20
46.7164761423
 10
60.490309147
 20
46.8463124639
 10
60.5942838616
 20
46.9729286232
 10
60.7106102581
 20
47.0959116243
 10
60.8389089039
 20
47.2148603224
 10
60.9787613155
 20
47.3293867316
 10
61.1297113234
 20
47.4391172904
 10
61.2912665601
 20
47.5436940807
 10
61.462900066
 20
47.6427759946
 10
61.6440520082
 20
47.7360398476
 10
61.8341315067
 20
47.8231814323
 10
62.0325185618
 20
47.903916511
 10
62.2385660761
 20
47.9779817427
 10
62.4516019655
 20
48.045135542
 10
62.6709313511
 20
48.1051588671
 10
62.8958388261
 20
48.1578559344
 10
63.125590789
 20
48.2030548571
 10
63.3594378368
 20
48.2406082057
 10
63.5966172088
 20
48.2703934888
 10
63.8363552754
 20
48.2923135533
 10
64.0778700608
 20
48.3062969002
 10
64.3203737939
 20
48.312297919
 10
64.563075478
 20
48.3102970354
 10
64.8051834706
 20
48.300300776
 10
65.0459080658
 20
48.2823417465
 10
65.28446407
 20
48.2564785255
 10
65.5200733631
 20
48.2227954734
 10
65.7519674365
 20
48.1814024574
 10
65.9793898999
 20
48.1324344929
 10
66.2015989487
 20
48.0760513032
 10
66.417869783
 20
48.0124367986
 10
66.6274969723
 20
47.9417984763
 10
66.8297967563
 20
47.8643667439
 10
67.0241092752
 20
47.7803941675
 10
67.2098007218
 20
47.6901546484
 10
67.3862654094
 20
47.5939425289
  0
LWPOLYLINE
  5
25B
330
1F
100
AcDbEntity
  8
0
  6
SLD-Solid
 62
     7
370
    25
100
AcDbPolyline
 90
       35
 70
   128
 43
0.0
 10
58.9838095378
 20
19.0326217813
 10
59.2089823959
 20
18.9353802618
 10
59.4972750399
 20
18.8199388036
 10
59.7932899543
 20
18.7112052031
 10
60.0965590786
 20
18.6093513904
 10
60.406602882
 20
18.5145384175
 10
60.7229311216
 20
18.426916203
 10
61.0450436174
 20
18.3466232958
 10
61.3724310433
 20
18.2737866554
 10
61.7045757324
 20
18.2085214516
 10
62.0409524959
 20
18.1509308819
 10
62.3810294528
 20
18.101106009
 10
62.7242688717
 20
18.0591256162
 10
63.0701280204
 20
18.0250560832
 10
63.4180600245
 20
17.9989512808
 10
63.767514732
 20
17.9808524862
 10
64.1179395832
 20
17.9707883172
 10
64.4687804844
 20
17.9687746874
 10
64.819482684
 20
17.9748147807
 10
65.1694916497
 20
17.9888990466
 10
65.5182539454
 20
18.0110052148
 10
65.8652181063
 20
18.041098331
 10
66.2098355107
 20
18.0791308118
 10
66.5515612476
 20
18.12504252
 10
66.8898549784
 20
18.1787608598
 10
67.2241817912
 20
18.2402008915
 10
67.5540130465
 20
18.3092654656
 10
67.8788272134
 20
18.385845377
 10
68.198110694
 20
18.469819537
 10
68.5113586353
 20
18.5610551653
 10
68.818075728
 20
18.6594079995
 10
69.1177769893
 20
18.7647225236
 10
69.40998853
 20
18.8768322138
 10
69.6942483035
 20
18.9955598014
 10
69.7783136409
 20
19.0326217813
  0
LWPOLYLINE
  5
25C
330
1F
100
AcDbEntity
  8
0
  6
SLD-Solid
 62
     8
370
    25
100
AcDbPolyline
 90
       82
 70
   128
 43
0.0
 10
73.5931357857
 20
46.7600100309
 10
73.5917134158
 20
46.7285993511
 10
73.574394668
 20
46.5225394502
 10
73.5432482739
 20
46.3170221885
 10
73.4983210808
 20
46.1123566834
 10
73.4396806633
 20
45.9088507712
 10
73.3674152222
 20
45.7068105443
 10
73.2816334516
 20
45.5065398902
 10
73.1824643755
 20
45.3083400352
 10
73.0700571536
 20
45.1125090905
 10
72.9445808569
 20
44.9193416045
 10
72.8062242138
 20
44.7291281195
 10
72.6551953257
 20
44.5421547347
 10
72.4917213546
 20
44.3587026757
 10
72.3160481807
 20
44.1790478719
 10
72.1284400333
 20
44.0034605412
 10
71.9291790927
 20
43.8322047835
 10
71.7185650664
 20
43.6655381839
 10
71.4969147379
 20
43.5037114247
 10
71.2645614902
 20
43.3469679088
 10
71.0218548049
 20
43.1955433932
 10
70.7691597357
 20
43.0496656349
 10
70.5068563602
 20
42.9095540478
 10
70.2353392073
 20
42.7754193731
 10
69.9550166649
 20
42.6474633621
 10
69.6663103645
 20
42.5258784727
 10
69.3696545479
 20
42.4108475802
 10
69.0654954136
 20
42.302543702
 10
68.7542904459
 20
42.2011297373
 10
68.4365077266
 20
42.1067582226
 10
68.112625231
 20
42.0195711013
 10
67.7831301093
 20
41.9396995114
 10
67.4485179533
 20
41.8672635872
 10
67.1092920516
 20
41.8023722792
 10
66.7659626321
 20
41.7451231901
 10
66.4190460948
 20
41.695602428
 10
66.0690642353
 20
41.6538844769
 10
65.7165434595
 20
41.6200320844
 10
65.3620139921
 20
41.5940961679
 10
65.0060090791
 20
41.5761157373
 10
64.6490641857
 20
41.566117837
 10
64.2917161909
 20
41.5641175048
 10
63.9345025801
 20
41.5701177493
 10
63.5779606365
 20
41.5841095456
 10
63.222626633
 20
41.6060718487
 10
62.8690350257
 20
41.6359716252
 10
62.51771765
 20
41.6737639031
 10
62.1692029205
 20
41.7193918391
 10
61.8240150367
 20
41.7727868045
 10
61.4826731937
 20
41.8338684882
 10
61.1456908022
 20
41.9025450175
 10
60.8135747157
 20
41.9787130965
 10
60.4868244683
 20
42.062258161
 10
60.1659315235
 20
42.1530545514
 10
59.8513785347
 20
42.2509657013
 10
59.5436386195
 20
42.355844343
 10
59.243174648
 20
42.4675327291
 10
58.9504385465
 20
42.5858628696
 10
58.6658706179
 20
42.7106567847
 10
58.3898988794
 20
42.8417267726
 10
58.1229384188
 20
42.9788756916
 10
57.8653907698
 20
43.1218972566
 10
57.6176433087
 20
43.2705763496
 10
57.3800686712
 20
43.4246893431
 10
57.153024192
 20
43.5840044366
 10
56.9368513677
 20
43.7482820051
 10
56.7318753427
 20
43.9172749594
 10
56.5384044205
 20
44.090729118
 10
56.3567295996
 20
44.2683835896
 10
56.1871241362
 20
44.4499711648
 10
56.0298431332
 20
44.6352187188
 10
55.885123156
 20
44.8238476215
 10
55.7531818772
 20
45.0155741572
 10
55.6342177491
 20
45.210109951
 10
55.528409705
 20
45.4071624026
 10
55.4359168903
 20
45.6064351263
 10
55.3568784229
 20
45.8076283971
 10
55.2914131843
 20
46.0104396011
 10
55.2396196402
 20
46.2145636911
 10
55.2015756932
 20
46.419693645
 10
55.177338565
 20
46.6255209279
 10
55.168923568
 20
46.7616095314
  0
MTEXT
  5
25D
330
1F
100
AcDbEntity
  8
NOTES
100
AcDbMText
 10
55.1963249509
 20
17.3304370955
 30
0.0
 40
0.75
 41
0.0
 71
     1
 72
     1
  1
3D view 310 - S
  7
SLDTEXTSTYLE1
 73
     1
 44
1.0
  0
CIRCLE
  5
25E
330
1F
100
AcDbEntity
  8
0
  6
SLD-Solid
 62
     7
370
    25
100
AcDbCircle
 10
39.591491885
 20
65.7314962335
 30
0.0
 40
4.25
  0
CIRCLE
  5
25F
330
1F
100
AcDbEntity
  8
0
  6
SLD-Solid
 62
     7
370
    25
100
AcDbCircle
 10
39.591491885
 20
65.7314962335
 30
0.0
 40
9.259223017768065
  0
CIRCLE
  5
260
330
1F
100
AcDbEntity
  8
0
  6
SLD-Solid
 62
     7
370
    25
100
AcDbCircle
 10
39.591491885
 20
65.7314962335
 30
0.0
 40
9.262446693304781
  0
DIMENSION
  5
261
330
1F
100
AcDbEntity
  8
DIMS
100
AcDbDimension
  2
_D_2
 10
33.0442325006
 20
72.2787556179
 30
0.0
 11
50.1077766844
 21
57.2364875322
 31
0.0
 70
   163
  1
<>
 71
     1
 42
-1.0
  3
SLDDIMSTYLE2
100
AcDbDiametricDimension
 15
46.1387512694
 25
59.1842368491
 35
0.0
 40
0.0
  0
DIMENSION
  5
26F
330
1F
100
AcDbEntity
  8
DIMS
100
AcDbDimension
  2
_D_3
 10
37.466491885
 20
69.4121041996
 30
0.0
 11
47.5953103403
 21
54.8895065951
 31
0.0
 70
   163
  1
<>
 71
     1
 42
-1.0
  3
SLDDIMSTYLE2
100
AcDbDiametricDimension
 15
41.716491885
 25
62.0508882674
 35
0.0
 40
0.0
  0
MTEXT
  5
27C
330
1F
100
AcDbEntity
  8
NOTES
100
AcDbMText
 10
31.3984846881
 20
56.8415282686
 30
0.0
 40
0.75
 41
0.0
 71
     1
 72
     1
  1
Top view
  7
SLDTEXTSTYLE1
 73
     1
 44
1.0
  0
LINE
  5
27D
330
1F
100
AcDbEntity
  8
OBJECT
100
AcDbLine
 10
49.3249977098
 20
65.7314962335
 30
0.0
 11
29.8421587131
 21
65.7314962335
 31
0.0
  0
LINE
  5
27E
330
1F
100
AcDbEntity
  8
OBJECT
100
AcDbLine
 10
49.3249977098
 20
65.7314962335
 30
0.0
 11
49.3249977098
 21
66.2314962335
 31
0.0
  0
INSERT
  5
27F
330
1F
100
AcDbEntity
  8
OBJECT
100
AcDbBlockReference
  2
_Open90
 10
49.3249977098
 20
66.2314962335
 30
0.0
 41
0.25
 42
0.25
 50
90.0
  0
LINE
  5
280
330
1F
100
AcDbEntity
  8
OBJECT
100
AcDbLine
 10
29.8421587131
 20
65.7314962335
 30
0.0
 11
29.8421587131
 21
66.2314962335
 31
0.0
  0
INSERT
  5
281
330
1F
100
AcDbEntity
  8
OBJECT
100
AcDbBlockReference
  2
_Open90
 10
29.8421587131
 20
66.2314962335
 30
0.0
 41
0.25
 42
0.25
 50
90.0
  0
MTEXT
  5
282
330
1F
100
AcDbEntity
  8
OBJECT
100
AcDbMText
 10
49.0787439175
 20
67.0247852356
 30
0.0
 40
0.5
 41
0.0
 71
     1
 72
     1
  1
A
  7
SLDTEXTSTYLE1
 73
     1
 44
1.0
  0
MTEXT
  5
283
330
1F
100
AcDbEntity
  8
OBJECT
100
AcDbMText
 10
29.5959049209
 20
67.0247852356
 30
0.0
 40
0.5
 41
0.0
 71
     1
 72
     1
  1
A
  7
SLDTEXTSTYLE1
 73
     1
 44
1.0
  0
LINE
  5
284
330
1F
100
AcDbEntity
  8
0
  6
SLD-Solid
 62
     7
370
    25
100
AcDbLine
 10
24.9590403956
 20
46.498311769
 30
0.0
 11
7.5215403956
 21
46.498311769
 31
0.0
  0
LINE
  5
285
330
1F
100
AcDbEntity
  8
0
  6
SLD-Solid
 62
     7
370
    25
100
AcDbLine
 10
7.5215403956
 20
46.248311769
 30
0.0
 11
24.9590403956
 21
46.248311769
 31
0.0
  0
LINE
  5
286
330
1F
100
AcDbEntity
  8
0
  6
SLD-Solid
 62
     7
370
    25
100
AcDbLine
 10
25.2048785128
 20
48.6144724561
 30
0.0
 11
7.2757022783
 21
48.6144724561
 31
0.0
  0
CIRCLE
  5
287
330
1F
100
AcDbEntity
  8
0
  6
SLD-Solid
 62
     7
370
    25
100
AcDbCircle
 10
24.9590403956
 20
46.373311769
 30
0.0
 40
0.1249999999999929
  0
CIRCLE
  5
288
330
1F
100
AcDbEntity
  8
0
  6
SLD-Solid
 62
     7
370
    25
100
AcDbCircle
 10
7.5215403956
 20
46.373311769
 30
0.0
 40
0.1249999999999929
  0
LINE
  5
289
330
1F
100
AcDbEntity
  8
0
  6
SLD-Solid
 62
     7
370
    25
100
AcDbLine
 10
25.3001903956
 20
19.405311769
 30
0.0
 11
25.3001903956
 21
48.530311769
 31
0.0
  0
LINE
  5
28A
330
1F
100
AcDbEntity
  8
0
  6
SLD-Solid
 62
     7
370
    25
100
AcDbLine
 10
25.2701903956
 20
48.530311769
 30
0.0
 11
25.0388396739
 21
48.530311769
 31
0.0
  0
LINE
  5
28B
330
1F
100
AcDbEntity
  8
0
  6
SLD-Solid
 62
     7
370
    25
100
AcDbLine
 10
25.2701903956
 20
19.405311769
 30
0.0
 11
25.2701903956
 21
48.530311769
 31
0.0
  0
LINE
  5
28C
330
1F
100
AcDbEntity
  8
0
  6
SLD-Solid
 62
     7
370
    25
100
AcDbLine
 10
25.2402903956
 20
19.405311769
 30
0.0
 11
25.2701903956
 21
19.405311769
 31
0.0
  0
LINE
  5
28D
330
1F
100
AcDbEntity
  8
0
  6
SLD-Solid
 62
     7
370
    25
100
AcDbLine
 10
7.2103903956
 20
19.405311769
 30
0.0
 11
7.2402903956
 21
19.405311769
 31
0.0
  0
LINE
  5
28E
330
1F
100
AcDbEntity
  8
0
  6
SLD-Solid
 62
     7
370
    25
100
AcDbLine
 10
7.2103903956
 20
48.530311769
 30
0.0
 11
7.2103903956
 21
19.405311769
 31
0.0
  0
LINE
  5
28F
330
1F
100
AcDbEntity
  8
0
  6
SLD-Solid
 62
     7
370
    25
100
AcDbLine
 10
7.4417411172
 20
48.530311769
 30
0.0
 11
7.2103903956
 21
48.530311769
 31
0.0
  0
LINE
  5
290
330
1F
100
AcDbEntity
  8
0
  6
SLD-Solid
 62
     7
370
    25
100
AcDbLine
 10
7.1803903956
 20
48.530311769
 30
0.0
 11
7.1803903956
 21
19.405311769
 31
0.0
  0
LINE
  5
291
330
1F
100
AcDbEntity
  8
0
  6
SLD-Solid
 62
     7
370
    25
100
AcDbLine
 10
7.2103903956
 20
19.405311769
 30
0.0
 11
7.1803903956
 21
19.405311769
 31
0.0
  0
LINE
  5
292
330
1F
100
AcDbEntity
  8
0
  6
SLD-Solid
 62
     7
370
    25
100
AcDbLine
 10
7.1803903956
 20
48.530311769
 30
0.0
 11
7.2103903956
 21
48.530311769
 31
0.0
  0
LINE
  5
293
330
1F
100
AcDbEntity
  8
0
  6
SLD-Solid
 62
     7
370
    25
100
AcDbLine
 10
25.3001903956
 20
19.405311769
 30
0.0
 11
25.2701903956
 21
19.405311769
 31
0.0
  0
LINE
  5
294
330
1F
100
AcDbEntity
  8
0
  6
SLD-Solid
 62
     7
370
    25
100
AcDbLine
 10
25.2701903956
 20
48.530311769
 30
0.0
 11
25.3001903956
 21
48.530311769
 31
0.0
  0
ARC
  5
295
330
1F
100
AcDbEntity
  8
0
  6
SLD-Solid
 62
     7
370
    25
100
AcDbCircle
 10
7.4734274805
 20
19.252174684
 30
0.0
 40
0.0800000000000018
100
AcDbArc
 50
225.0
 51
270.0
  0
ARC
  5
296
330
1F
100
AcDbEntity
  8
0
  6
SLD-Solid
 62
     7
370
    25
100
AcDbCircle
 10
25.0071533106
 20
19.252174684
 30
0.0
 40
0.0800000000000018
100
AcDbArc
 50
270.0
 51
315.0
  0
LINE
  5
297
330
1F
100
AcDbEntity
  8
0
  6
SLD-Solid
 62
     7
370
    25
100
AcDbLine
 10
7.4168589381
 20
19.1956061415
 30
0.0
 11
7.2637218531
 21
19.3487432265
 31
0.0
  0
ARC
  5
298
330
1F
100
AcDbEntity
  8
0
  6
SLD-Solid
 62
     7
370
    25
100
AcDbCircle
 10
7.3202903956
 20
19.405311769
 30
0.0
 40
0.080000000000001
100
AcDbArc
 50
180.0
 51
225.0
  0
LINE
  5
299
330
1F
100
AcDbEntity
  8
0
  6
SLD-Solid
 62
     7
370
    25
100
AcDbLine
 10
7.2402903956
 20
20.002174684
 30
0.0
 11
7.2402903956
 21
19.405311769
 31
0.0
  0
LINE
  5
29A
330
1F
100
AcDbEntity
  8
0
  6
SLD-Solid
 62
     7
370
    25
100
AcDbLine
 10
7.2402903956
 20
20.002174684
 30
0.0
 11
7.2752903956
 21
20.002174684
 31
0.0
  0
LINE
  5
29B
330
1F
100
AcDbEntity
  8
0
  6
SLD-Solid
 62
     7
370
    25
100
AcDbLine
 10
7.2752903956
 20
19.3949564299
 30
0.0
 11
7.2752903956
 21
20.002174684
 31
0.0
  0
ARC
  5
29C
330
1F
100
AcDbEntity
  8
0
  6
SLD-Solid
 62
     7
370
    25
100
AcDbCircle
 10
7.2952903956
 20
19.3949564299
 30
0.0
 40
0.0200000000000039
100
AcDbArc
 50
180.0
 51
225.0
  0
LINE
  5
29D
330
1F
100
AcDbEntity
  8
0
  6
SLD-Solid
 62
     7
370
    25
100
AcDbLine
 10
7.4489300059
 20
19.2130325484
 30
0.0
 11
7.2811482599
 21
19.3808142943
 31
0.0
  0
ARC
  5
29E
330
1F
100
AcDbEntity
  8
0
  6
SLD-Solid
 62
     7
370
    25
100
AcDbCircle
 10
7.4630721415
 20
19.227174684
 30
0.0
 40
0.0199999999999996
100
AcDbArc
 50
225.0
 51
270.0
  0
LINE
  5
29F
330
1F
100
AcDbEntity
  8
0
  6
SLD-Solid
 62
     7
370
    25
100
AcDbLine
 10
25.0175086496
 20
19.207174684
 30
0.0
 11
7.4630721415
 21
19.207174684
 31
0.0
  0
ARC
  5
2A0
330
1F
100
AcDbEntity
  8
0
  6
SLD-Solid
 62
     7
370
    25
100
AcDbCircle
 10
25.0175086496
 20
19.227174684
 30
0.0
 40
0.020000000000002
100
AcDbArc
 50
270.0
 51
315.0
  0
LINE
  5
2A1
330
1F
100
AcDbEntity
  8
0
  6
SLD-Solid
 62
     7
370
    25
100
AcDbLine
 10
25.1994325312
 20
19.3808142943
 30
0.0
 11
25.0316507852
 21
19.2130325484
 31
0.0
  0
ARC
  5
2A2
330
1F
100
AcDbEntity
  8
0
  6
SLD-Solid
 62
     7
370
    25
100
AcDbCircle
 10
25.1852903956
 20
19.3949564299
 30
0.0
 40
0.0200000000000031
100
AcDbArc
 50
315.0
 51
0.0
  0
LINE
  5
2A3
330
1F
100
AcDbEntity
  8
0
  6
SLD-Solid
 62
     7
370
    25
100
AcDbLine
 10
25.2052903956
 20
20.002174684
 30
0.0
 11
25.2052903956
 21
19.3949564299
 31
0.0
  0
LINE
  5
2A4
330
1F
100
AcDbEntity
  8
0
  6
SLD-Solid
 62
     7
370
    25
100
AcDbLine
 10
25.2052903956
 20
20.002174684
 30
0.0
 11
25.2402903956
 21
20.002174684
 31
0.0
  0
LINE
  5
2A5
330
1F
100
AcDbEntity
  8
0
  6
SLD-Solid
 62
     7
370
    25
100
AcDbLine
 10
25.2402903956
 20
19.405311769
 30
0.0
 11
25.2402903956
 21
20.002174684
 31
0.0
  0
ARC
  5
2A6
330
1F
100
AcDbEntity
  8
0
  6
SLD-Solid
 62
     7
370
    25
100
AcDbCircle
 10
25.1602903956
 20
19.405311769
 30
0.0
 40
0.0800000000000003
100
AcDbArc
 50
315.0
 51
0.0
  0
LINE
  5
2A7
330
1F
100
AcDbEntity
  8
0
  6
SLD-Solid
 62
     7
370
    25
100
AcDbLine
 10
25.2168589381
 20
19.3487432265
 30
0.0
 11
25.0637218531
 21
19.1956061415
 31
0.0
  0
LINE
  5
2A8
330
1F
100
AcDbEntity
  8
0
  6
SLD-Solid
 62
     7
370
    25
100
AcDbLine
 10
7.4734274805
 20
19.172174684
 30
0.0
 11
25.0071533106
 21
19.172174684
 31
0.0
  0
LINE
  5
2A9
330
1F
100
AcDbEntity
  8
0
  6
SLD-Solid
 62
     7
370
    25
100
AcDbLine
 10
7.4489300059
 20
19.2130325484
 30
0.0
 11
25.0316507852
 21
19.2130325484
 31
0.0
  0
LINE
  5
2AA
330
1F
100
AcDbEntity
  8
0
  6
SLD-Solid
 62
     7
370
    25
100
AcDbLine
 10
7.2752903956
 20
19.3949564299
 30
0.0
 11
25.2052903956
 21
19.3949564299
 31
0.0
  0
LINE
  5
2AB
330
1F
100
AcDbEntity
  8
0
  6
SLD-Solid
 62
     7
370
    25
100
AcDbLine
 10
25.1994325312
 20
19.3808142943
 30
0.0
 11
7.2811482599
 21
19.3808142943
 31
0.0
  0
LINE
  5
2AC
330
1F
100
AcDbEntity
  8
0
  6
SLD-Solid
 62
     7
370
    25
100
AcDbLine
 10
25.1582182059
 20
48.558953344
 30
0.0
 11
20.7702999352
 21
47.5061937879
 31
0.0
  0
ARC
  5
2AD
330
1F
100
AcDbEntity
  8
0
  6
SLD-Solid
 62
     7
370
    25
100
AcDbCircle
 10
20.8402903956
 20
47.2144724561
 30
0.0
 40
0.3000000000000007
100
AcDbArc
 50
103.4915251741
 51
180.0
  0
LINE
  5
2AE
330
1F
100
AcDbEntity
  8
0
  6
SLD-Solid
 62
     7
370
    25
100
AcDbLine
 10
20.5402903956
 20
47.2144724561
 30
0.0
 11
20.5402903956
 21
47.1144724561
 31
0.0
  0
LINE
  5
2AF
330
1F
100
AcDbEntity
  8
0
  6
SLD-Solid
 62
     7
370
    25
100
AcDbLine
 10
20.5402903956
 20
47.1144724561
 30
0.0
 11
20.4902903956
 21
47.1144724561
 31
0.0
  0
LINE
  5
2B0
330
1F
100
AcDbEntity
  8
0
  6
SLD-Solid
 62
     7
370
    25
100
AcDbLine
 10
20.4902903956
 20
47.1144724561
 30
0.0
 11
20.4902903956
 21
47.2144724561
 31
0.0
  0
ARC
  5
2B1
330
1F
100
AcDbEntity
  8
0
  6
SLD-Solid
 62
     7
370
    25
100
AcDbCircle
 10
20.8402903956
 20
47.2144724561
 30
0.0
 40
0.350000000000006
100
AcDbArc
 50
103.4915251741
 51
180.0
  0
ARC
  5
2B2
330
1F
100
AcDbEntity
  8
0
  6
SLD-Solid
 62
     7
370
    25
100
AcDbCircle
 10
48.6103639129
 20
-58.8607919352
 30
0.0
 40
110.0
100
AcDbArc
 50
102.3162433905
 51
104.6668069577
  0
ARC
  5
2B3
330
1F
100
AcDbEntity
  8
0
  6
SLD-Solid
 62
     7
370
    25
100
AcDbCircle
 10
25.2048785128
 20
48.3644724561
 30
0.0
 40
0.2500000000000045
100
AcDbArc
 50
1.0
 51
103.4915251741
  0
LINE
  5
2B4
330
1F
100
AcDbEntity
  8
0
  6
SLD-Solid
 62
     7
370
    25
100
AcDbLine
 10
25.4548404366
 20
48.3688355577
 30
0.0
 11
25.4777732571
 21
47.0550151509
 31
0.0
  0
ARC
  5
2B5
330
1F
100
AcDbEntity
  8
0
  6
SLD-Solid
 62
     7
370
    25
100
AcDbCircle
 10
25.7777275656
 20
47.0602508729
 30
0.0
 40
0.2999999999999993
100
AcDbArc
 50
181.0
 51
201.9699024988
  0
LINE
  5
2B6
330
1F
100
AcDbEntity
  8
0
  6
SLD-Solid
 62
     7
370
    25
100
AcDbLine
 10
25.4995134133
 20
46.9480150254
 30
0.0
 11
25.5027370889
 21
46.8644724561
 31
0.0
  0
LINE
  5
2B7
330
1F
100
AcDbEntity
  8
0
  6
SLD-Solid
 62
     7
370
    25
100
AcDbLine
 10
25.5027370889
 20
46.8644724561
 30
0.0
 11
25.4777370889
 21
46.8644724561
 31
0.0
  0
LINE
  5
2B8
330
1F
100
AcDbEntity
  8
0
  6
SLD-Solid
 62
     7
370
    25
100
AcDbLine
 10
25.4777370889
 20
46.8644724561
 30
0.0
 11
25.4509180969
 21
46.9344481655
 31
0.0
  0
ARC
  5
2B9
330
1F
100
AcDbEntity
  8
0
  6
SLD-Solid
 62
     7
370
    25
100
AcDbCircle
 10
25.7777370889
 20
47.0597052869
 30
0.0
 40
0.3499999999999804
100
AcDbArc
 50
181.0
 51
200.9699024988
  0
LINE
  5
2BA
330
1F
100
AcDbEntity
  8
0
  6
SLD-Solid
 62
     7
370
    25
100
AcDbLine
 10
25.4277903956
 20
47.0535969447
 30
0.0
 11
25.4048480518
 21
48.3679629374
 31
0.0
  0
ARC
  5
2BB
330
1F
100
AcDbEntity
  8
0
  6
SLD-Solid
 62
     7
370
    25
100
AcDbCircle
 10
25.2048785128
 20
48.3644724561
 30
0.0
 40
0.2000000000000059
100
AcDbArc
 50
1.0
 51
103.4915251741
  0
ARC
  5
2BC
330
1F
100
AcDbEntity
  8
0
  6
SLD-Solid
 62
     7
370
    25
100
AcDbCircle
 10
6.7028532255
 20
47.0602508729
 30
0.0
 40
0.2999999999999985
100
AcDbArc
 50
338.0300975012
 51
359.0
  0
LINE
  5
2BD
330
1F
100
AcDbEntity
  8
0
  6
SLD-Solid
 62
     7
370
    25
100
AcDbLine
 10
6.9778437023
 20
46.8644724561
 30
0.0
 11
6.9810673778
 21
46.9480150254
 31
0.0
  0
LINE
  5
2BE
330
1F
100
AcDbEntity
  8
0
  6
SLD-Solid
 62
     7
370
    25
100
AcDbLine
 10
7.0757327393
 20
48.3679629374
 30
0.0
 11
7.0527903956
 21
47.0535969447
 31
0.0
  0
ARC
  5
2BF
330
1F
100
AcDbEntity
  8
0
  6
SLD-Solid
 62
     7
370
    25
100
AcDbCircle
 10
6.7028437023
 20
47.0597052869
 30
0.0
 40
0.3499999999999786
100
AcDbArc
 50
339.0300975012
 51
359.0
  0
LINE
  5
2C0
330
1F
100
AcDbEntity
  8
0
  6
SLD-Solid
 62
     7
370
    25
100
AcDbLine
 10
7.0296626942
 20
46.9344481655
 30
0.0
 11
7.0028437023
 21
46.8644724561
 31
0.0
  0
LINE
  5
2C1
330
1F
100
AcDbEntity
  8
0
  6
SLD-Solid
 62
     7
370
    25
100
AcDbLine
 10
7.0028437023
 20
46.8644724561
 30
0.0
 11
6.9778437023
 21
46.8644724561
 31
0.0
  0
LINE
  5
2C2
330
1F
100
AcDbEntity
  8
0
  6
SLD-Solid
 62
     7
370
    25
100
AcDbLine
 10
7.002807534
 20
47.0550151509
 30
0.0
 11
7.0257403545
 21
48.3688355577
 31
0.0
  0
ARC
  5
2C3
330
1F
100
AcDbEntity
  8
0
  6
SLD-Solid
 62
     7
370
    25
100
AcDbCircle
 10
7.2757022783
 20
48.3644724561
 30
0.0
 40
0.2500000000000053
100
AcDbArc
 50
76.5084748259
 51
179.0
  0
ARC
  5
2C4
330
1F
100
AcDbEntity
  8
0
  6
SLD-Solid
 62
     7
370
    25
100
AcDbCircle
 10
-16.1297831218
 20
-58.8607919352
 30
0.0
 40
110.0
100
AcDbArc
 50
75.3331930423
 51
77.6837566095
  0
ARC
  5
2C5
330
1F
100
AcDbEntity
  8
0
  6
SLD-Solid
 62
     7
370
    25
100
AcDbCircle
 10
11.6402903956
 20
47.2144724561
 30
0.0
 40
0.350000000000006
100
AcDbArc
 50
0.0
 51
76.5084748259
  0
LINE
  5
2C6
330
1F
100
AcDbEntity
  8
0
  6
SLD-Solid
 62
     7
370
    25
100
AcDbLine
 10
11.9902903956
 20
47.2144724561
 30
0.0
 11
11.9902903956
 21
47.1144724561
 31
0.0
  0
LINE
  5
2C7
330
1F
100
AcDbEntity
  8
0
  6
SLD-Solid
 62
     7
370
    25
100
AcDbLine
 10
11.9902903956
 20
47.1144724561
 30
0.0
 11
11.9402903956
 21
47.1144724561
 31
0.0
  0
LINE
  5
2C8
330
1F
100
AcDbEntity
  8
0
  6
SLD-Solid
 62
     7
370
    25
100
AcDbLine
 10
11.9402903956
 20
47.1144724561
 30
0.0
 11
11.9402903956
 21
47.2144724561
 31
0.0
  0
ARC
  5
2C9
330
1F
100
AcDbEntity
  8
0
  6
SLD-Solid
 62
     7
370
    25
100
AcDbCircle
 10
11.6402903956
 20
47.2144724561
 30
0.0
 40
0.3000000000000007
100
AcDbArc
 50
0.0
 51
76.5084748259
  0
LINE
  5
2CA
330
1F
100
AcDbEntity
  8
0
  6
SLD-Solid
 62
     7
370
    25
100
AcDbLine
 10
11.7102808559
 20
47.5061937879
 30
0.0
 11
7.3223625852
 21
48.558953344
 31
0.0
  0
ARC
  5
2CB
330
1F
100
AcDbEntity
  8
0
  6
SLD-Solid
 62
     7
370
    25
100
AcDbCircle
 10
7.2757022783
 20
48.3644724561
 30
0.0
 40
0.2000000000000036
100
AcDbArc
 50
76.5084748259
 51
179.0
  0
LINE
  5
2CC
330
1F
100
AcDbEntity
  8
0
  6
SLD-Solid
 62
     7
370
    25
100
AcDbLine
 10
11.9902903956
 20
47.1144724561
 30
0.0
 11
20.4902903956
 21
47.1144724561
 31
0.0
  0
LINE
  5
2CD
330
1F
100
AcDbEntity
  8
0
  6
SLD-Solid
 62
     7
370
    25
100
AcDbLine
 10
7.0028437023
 20
46.8644724561
 30
0.0
 11
7.1803903956
 21
46.8644724561
 31
0.0
  0
LINE
  5
2CE
330
1F
100
AcDbEntity
  8
0
  6
SLD-Solid
 62
     7
370
    25
100
AcDbLine
 10
25.3001903956
 20
46.8644724561
 30
0.0
 11
25.4777370889
 21
46.8644724561
 31
0.0
  0
LINE
  5
2CF
330
1F
100
AcDbEntity
  8
0
  6
SLD-Solid
 62
     7
370
    25
100
AcDbLine
 10
7.334027662
 20
48.607573566
 30
0.0
 11
25.1465531291
 21
48.607573566
 31
0.0
  0
LINE
  5
2D0
330
1F
100
AcDbEntity
  8
0
  6
SLD-Solid
 62
     7
370
    25
100
AcDbLine
 10
19.674826091
 20
47.1144724561
 30
0.0
 11
19.674826091
 21
46.498311769
 31
0.0
  0
LINE
  5
2D1
330
1F
100
AcDbEntity
  8
0
  6
SLD-Solid
 62
     7
370
    25
100
AcDbLine
 10
19.674826091
 20
46.248311769
 30
0.0
 11
19.674826091
 21
44.068311769
 31
0.0
  0
LINE
  5
2D2
330
1F
100
AcDbEntity
  8
0
  6
SLD-Solid
 62
     7
370
    25
100
AcDbLine
 10
19.6660576773
 20
47.1144724561
 30
0.0
 11
19.6660576773
 21
46.498311769
 31
0.0
  0
LINE
  5
2D3
330
1F
100
AcDbEntity
  8
0
  6
SLD-Solid
 62
     7
370
    25
100
AcDbLine
 10
19.6660576773
 20
46.248311769
 30
0.0
 11
19.6660576773
 21
44.068311769
 31
0.0
  0
LINE
  5
2D4
330
1F
100
AcDbEntity
  8
0
  6
SLD-Solid
 62
     7
370
    25
100
AcDbLine
 10
19.674826091
 20
44.068311769
 30
0.0
 11
19.6660576773
 21
44.068311769
 31
0.0
  0
LINE
  5
2D5
330
1F
100
AcDbEntity
  8
0
  6
SLD-Solid
 62
     7
370
    25
100
AcDbLine
 10
19.6660576773
 20
44.068311769
 30
0.0
 11
17.8792103636
 21
44.068311769
 31
0.0
  0
LINE
  5
2D6
330
1F
100
AcDbEntity
  8
0
  6
SLD-Solid
 62
     7
370
    25
100
AcDbLine
 10
12.8299177791
 20
44.068311769
 30
0.0
 11
14.6177781084
 21
44.068311769
 31
0.0
  0
LINE
  5
2D7
330
1F
100
AcDbEntity
  8
0
  6
SLD-Solid
 62
     7
370
    25
100
AcDbLine
 10
12.8299177791
 20
47.1144724561
 30
0.0
 11
12.8299177791
 21
46.498311769
 31
0.0
  0
LINE
  5
2D8
330
1F
100
AcDbEntity
  8
0
  6
SLD-Solid
 62
     7
370
    25
100
AcDbLine
 10
12.8299177791
 20
46.248311769
 30
0.0
 11
12.8299177791
 21
44.068311769
 31
0.0
  0
LINE
  5
2D9
330
1F
100
AcDbEntity
  8
0
  6
SLD-Solid
 62
     7
370
    25
100
AcDbLine
 10
12.8212023724
 20
47.1144724561
 30
0.0
 11
12.8212023724
 21
46.498311769
 31
0.0
  0
LINE
  5
2DA
330
1F
100
AcDbEntity
  8
0
  6
SLD-Solid
 62
     7
370
    25
100
AcDbLine
 10
12.8212023724
 20
46.248311769
 30
0.0
 11
12.8212023724
 21
44.068311769
 31
0.0
  0
LINE
  5
2DB
330
1F
100
AcDbEntity
  8
0
  6
SLD-Solid
 62
     7
370
    25
100
AcDbLine
 10
12.8212023724
 20
44.068311769
 30
0.0
 11
12.8299177791
 21
44.068311769
 31
0.0
  0
LINE
  5
2DC
330
1F
100
AcDbEntity
  8
0
  6
SLD-Solid
 62
     7
370
    25
100
AcDbLine
 10
16.9108989745
 20
46.1228687971
 30
0.0
 11
16.9108989745
 21
46.123311769
 31
0.0
  0
LINE
  5
2DD
330
1F
100
AcDbEntity
  8
0
  6
SLD-Solid
 62
     7
370
    25
100
AcDbLine
 10
16.9847987673
 20
46.123311769
 30
0.0
 11
16.9847987673
 21
46.1228687971
 31
0.0
  0
LWPOLYLINE
  5
2DE
330
1F
100
AcDbEntity
  8
0
  6
SLD-Solid
 62
     7
370
    25
100
AcDbPolyline
 90
        9
 70
   128
 43
0.0
 10
16.911014838
 20
46.248311769
 10
16.9254093685
 20
46.245909929
 10
16.9392507253
 20
46.2387967105
 10
16.9520069928
 20
46.2272454705
 10
16.9631879548
 20
46.2117001166
 10
16.9723639331
 20
46.1927580481
 10
16.9791823001
 20
46.171147198
 10
16.9833810298
 20
46.1476980592
 10
16.9847987673
 20
46.123311769
  0
ARC
  5
2DF
330
1F
100
AcDbEntity
  8
0
  6
SLD-Solid
 62
     7
370
    25
100
AcDbCircle
 10
16.764176613
 20
46.4192935556
 30
0.0
 40
0.3695155916304118
100
AcDbArc
 50
293.3961136187
 51
306.6594651442
  0
LINE
  5
2E0
330
1F
100
AcDbEntity
  8
0
  6
SLD-Solid
 62
     7
370
    25
100
AcDbLine
 10
16.9109059476
 20
46.0801589587
 30
0.0
 11
16.2483014665
 21
46.0801589587
 31
0.0
  0
LINE
  5
2E1
330
1F
100
AcDbEntity
  8
0
  6
SLD-Solid
 62
     7
370
    25
100
AcDbLine
 10
15.5856900124
 20
46.123311769
 30
0.0
 11
15.5856900124
 21
46.1228687971
 31
0.0
  0
LINE
  5
2E2
330
1F
100
AcDbEntity
  8
0
  6
SLD-Solid
 62
     7
370
    25
100
AcDbLine
 10
16.2483014665
 20
46.0801589587
 30
0.0
 11
15.5856969854
 21
46.0801589587
 31
0.0
  0
ARC
  5
2E3
330
1F
100
AcDbEntity
  8
0
  6
SLD-Solid
 62
     7
370
    25
100
AcDbCircle
 10
15.7318569061
 20
46.418149435
 30
0.0
 40
0.3682394390725125
100
AcDbArc
 50
233.3091717837
 51
246.6145109011
  0
LINE
  5
2E4
330
1F
100
AcDbEntity
  8
0
  6
SLD-Solid
 62
     7
370
    25
100
AcDbLine
 10
15.5118350223
 20
46.1228687971
 30
0.0
 11
15.5118350223
 21
46.123311769
 31
0.0
  0
LWPOLYLINE
  5
2E5
330
1F
100
AcDbEntity
  8
0
  6
SLD-Solid
 62
     7
370
    25
100
AcDbPolyline
 90
        9
 70
   128
 43
0.0
 10
15.5118350223
 20
46.123311769
 10
15.5132563515
 20
46.1476980592
 10
15.5174657182
 20
46.171147198
 10
15.5243013589
 20
46.1927580481
 10
15.5335005837
 20
46.2117001166
 10
15.5447098715
 20
46.2272454705
 10
15.5574984557
 20
46.2387967105
 10
15.5713748782
 20
46.245909929
 10
15.5858058758
 20
46.248311769
  0
LINE
  5
2E6
330
1F
100
AcDbEntity
  8
0
  6
SLD-Solid
 62
     7
370
    25
100
AcDbLine
 10
16.9847987673
 20
46.1228687971
 30
0.0
 11
17.2352922117
 21
45.6183938077
 31
0.0
  0
LINE
  5
2E7
330
1F
100
AcDbEntity
  8
0
  6
SLD-Solid
 62
     7
370
    25
100
AcDbLine
 10
17.19322613
 20
45.5115873085
 30
0.0
 11
16.9109059476
 21
46.0801589587
 31
0.0
  0
LINE
  5
2E8
330
1F
100
AcDbEntity
  8
0
  6
SLD-Solid
 62
     7
370
    25
100
AcDbLine
 10
15.5856969854
 20
46.0801589587
 30
0.0
 11
15.3037600037
 21
45.5115873085
 31
0.0
  0
LINE
  5
2E9
330
1F
100
AcDbEntity
  8
0
  6
SLD-Solid
 62
     7
370
    25
100
AcDbLine
 10
15.2616815793
 20
45.6183938077
 30
0.0
 11
15.5118350223
 21
46.1228687971
 31
0.0
  0
ELLIPSE
  5
2EA
330
1F
100
AcDbEntity
  8
0
  6
SLD-Solid
 62
     7
370
    25
100
AcDbEllipse
 10
16.9687536775
 20
46.0066804456
 30
0.0
 11
-0.251197136123551
 21
0.5062357814656551
 31
0.0
210
0.0
220
0.0
230
1.0
 40
0.309661823
 41
2.989129091827282
 42
3.69951518449547
  0
LWPOLYLINE
  5
2EB
330
1F
100
AcDbEntity
  8
0
  6
SLD-Solid
 62
     7
370
    25
100
AcDbPolyline
 90
        9
 70
   128
 43
0.0
 10
17.1932289192
 20
45.4945033731
 10
17.1932288752
 20
45.4966820739
 10
17.1932287432
 20
45.498856636
 10
17.1932285236
 20
45.5010229286
 10
17.1932282166
 20
45.5031768368
 10
17.1932278229
 20
45.5053142688
 10
17.1932273433
 20
45.5074311645
 10
17.1932267786
 20
45.5095235026
 10
17.19322613
 20
45.5115873085
  0
LINE
  5
2EC
330
1F
100
AcDbEntity
  8
0
  6
SLD-Solid
 62
     7
370
    25
100
AcDbLine
 10
17.2648521289
 20
46.123311769
 30
0.0
 11
17.2648521289
 21
45.6183938077
 31
0.0
  0
ELLIPSE
  5
2ED
330
1F
100
AcDbEntity
  8
0
  6
SLD-Solid
 62
     7
370
    25
100
AcDbEllipse
 10
15.5282380347
 20
46.0066804456
 30
0.0
 11
0.251197136123551
 21
0.5062357814656551
 31
0.0
210
0.0
220
0.0
230
1.0
 40
0.309661823
 41
2.583670122684142
 42
3.294056215352351
  0
LINE
  5
2EE
330
1F
100
AcDbEntity
  8
0
  6
SLD-Solid
 62
     7
370
    25
100
AcDbLine
 10
15.2321395833
 20
45.6183938077
 30
0.0
 11
15.2321395833
 21
46.123311769
 31
0.0
  0
LINE
  5
2EF
330
1F
100
AcDbEntity
  8
0
  6
SLD-Solid
 62
     7
370
    25
100
AcDbLine
 10
17.1932289192
 20
45.4945033731
 30
0.0
 11
16.2484958561
 21
45.4945033731
 31
0.0
  0
LINE
  5
2F0
330
1F
100
AcDbEntity
  8
0
  6
SLD-Solid
 62
     7
370
    25
100
AcDbLine
 10
17.8675171205
 20
44.068311769
 30
0.0
 11
17.8792103636
 21
44.068311769
 31
0.0
  0
LINE
  5
2F1
330
1F
100
AcDbEntity
  8
0
  6
SLD-Solid
 62
     7
370
    25
100
AcDbLine
 10
16.2484958561
 20
45.4945033731
 30
0.0
 11
15.3037627929
 21
45.4945033731
 31
0.0
  0
LINE
  5
2F2
330
1F
100
AcDbEntity
  8
0
  6
SLD-Solid
 62
     7
370
    25
100
AcDbLine
 10
14.6294745916
 20
44.068311769
 30
0.0
 11
17.8675171205
 21
44.068311769
 31
0.0
  0
LINE
  5
2F3
330
1F
100
AcDbEntity
  8
0
  6
SLD-Solid
 62
     7
370
    25
100
AcDbLine
 10
14.6294745916
 20
44.068311769
 30
0.0
 11
14.6177781084
 21
44.068311769
 31
0.0
  0
ELLIPSE
  5
2F4
330
1F
100
AcDbEntity
  8
0
  6
SLD-Solid
 62
     8
370
    25
100
AcDbEllipse
 10
16.9687536775
 20
46.123311769
 30
0.0
 11
0.2960984513836386
 21
0.0
 31
0.0
210
0.0
220
0.0
230
1.0
 40
0.5910196395
 41
0.0
 42
0.7956029534778986
  0
ELLIPSE
  5
2F5
330
1F
100
AcDbEntity
  8
0
  6
SLD-Solid
 62
     8
370
    25
100
AcDbEllipse
 10
15.5282380347
 20
46.123311769
 30
0.0
 11
0.2960984513836404
 21
0.0
 31
0.0
210
0.0
220
0.0
230
1.0
 40
0.5910196395
 41
2.345989700111896
 42
3.141592653589793
  0
ARC
  5
2F6
330
1F
100
AcDbEntity
  8
0
  6
SLD-Solid
 62
     8
370
    25
100
AcDbCircle
 10
16.248495888
 20
46.6753118154
 30
0.0
 40
0.3620413364300118
100
AcDbArc
 50
330.7320487381
 51
180.0000073438
  0
ARC
  5
2F7
330
1F
100
AcDbEntity
  8
0
  6
SLD-Solid
 62
     8
370
    25
100
AcDbCircle
 10
16.2484961293
 20
46.6753117643
 30
0.0
 40
0.3620415777331357
100
AcDbArc
 50
179.9999992594
 51
209.2679205923
  0
HATCH
  5
2F8
330
1F
100
AcDbEntity
  8
OBJECT
  6
SLD-Solid
370
    18
100
AcDbHatch
 10
0.0
 20
0.0
 30
0.0
210
0.0
220
0.0
230
1.0
  2
ANSI31
 70
     0
 71
     0
 91
        1
 92
        0
 93
       16
 72
     2
 10
25.20487851278236
 20
48.3644724560948
 40
0.1999999999999997
 50
256.5084748259348
 51
358.9999999999823
 73
     0
 72
     1
 10
25.40484805181365
 20
48.36796293738232
 11
25.42779039555585
 21
47.05359694467289
 72
     2
 10
25.77773708886057
 20
47.05970528692581
 40
0.3499999999999774
 50
180.99999999998
 51
200.9699024987982
 73
     1
 72
     1
 10
25.4509180968707
 20
46.9344481654728
 11
25.47773708886061
 21
46.8644724560948
 72
     1
 10
25.47773708886061
 20
46.8644724560948
 11
25.50273708886062
 21
46.86447245609484
 72
     1
 10
25.50273708886062
 20
46.86447245609484
 11
25.49951341332389
 21
46.94801502538737
 72
     2
 10
25.77772756562244
 20
47.06025087287293
 40
0.2999999999999984
 50
158.0300975011816
 51
179.0000000000012
 73
     0
 72
     1
 10
25.47777325707552
 20
47.05501515094175
 11
25.45484043657147
 21
48.36883555770413
 72
     2
 10
25.20487851278236
 20
48.3644724560948
 40
0.2500000000000013
 50
1.000000000001762
 51
103.4915251740668
 73
     1
 72
     2
 10
48.61036391290365
 20
-58.86079193524869
 40
110.0
 50
102.3162433904793
 51
104.6668069576539
 73
     1
 72
     2
 10
20.84029039555583
 20
47.2144724560948
 40
0.3499999999999995
 50
103.4915251740666
 51
180.0
 73
     1
 72
     1
 10
20.49029039555583
 20
47.2144724560948
 11
20.49029039555583
 21
47.11447245609481
 72
     1
 10
20.49029039555583
 20
47.11447245609481
 11
20.54029039555583
 21
47.11447245609481
 72
     1
 10
20.54029039555583
 20
47.11447245609481
 11
20.54029039555583
 21
47.2144724560948
 72
     2
 10
20.84029039555583
 20
47.2144724560948
 40
0.3000000000000008
 50
180.0
 51
256.5084748259345
 73
     0
 72
     1
 10
20.77029993519034
 20
47.50619378794735
 11
25.15821820587204
 21
48.55895334399651
 97
        0
 75
     0
 76
     1
 52
0.0
 41
1.0
 77
     0
 78
     1
 53
45.0
 43
0.0
 44
0.0
 45
-0.0883883476483184
 46
0.0883883476483184
 79
     0
 98
        1
 10
0.0
 20
0.0
  0
HATCH
  5
2F9
330
1F
100
AcDbEntity
  8
OBJECT
  6
SLD-Solid
370
    18
100
AcDbHatch
 10
0.0
 20
0.0
 30
0.0
210
0.0
220
0.0
230
1.0
  2
ANSI31
 70
     0
 71
     0
 91
        1
 92
        0
 93
       16
 72
     2
 10
7.275702278329293
 20
48.3644724560948
 40
0.1999999999999997
 50
181.0000000000193
 51
283.4915251740676
 73
     0
 72
     1
 10
7.322362585239621
 20
48.55895334399651
 11
11.71028085592132
 21
47.50619378794735
 72
     2
 10
11.64029039555583
 20
47.2144724560948
 40
0.3000000000000008
 50
283.4915251740674
 51
360.0000000000008
 73
     0
 72
     1
 10
11.94029039555583
 20
47.2144724560948
 11
11.94029039555583
 21
47.11447245609481
 72
     1
 10
11.94029039555583
 20
47.11447245609481
 11
11.99029039555583
 21
47.11447245609481
 72
     1
 10
11.99029039555583
 20
47.11447245609481
 11
11.99029039555583
 21
47.2144724560948
 72
     2
 10
11.64029039555583
 20
47.2144724560948
 40
0.3499999999999995
 50
0.0
 51
76.5084748259334
 73
     1
 72
     2
 10
-16.12978312179198
 20
-58.86079193524869
 40
110.0
 50
75.33319304234614
 51
77.68375660952067
 73
     1
 72
     2
 10
7.275702278329293
 20
48.3644724560948
 40
0.2500000000000013
 50
76.5084748259324
 51
178.9999999999982
 73
     1
 72
     1
 10
7.025740354540194
 20
48.36883555770413
 11
7.002807534036135
 21
47.05501515094175
 72
     2
 10
6.702853225489221
 20
47.06025087287293
 40
0.2999999999999984
 50
0.9999999999988016
 51
21.96990249881851
 73
     0
 72
     1
 10
6.981067377787766
 20
46.94801502538737
 11
6.977843702251046
 21
46.86447245609484
 72
     1
 10
6.977843702251046
 20
46.86447245609484
 11
7.002843702251046
 21
46.8644724560948
 72
     1
 10
7.002843702251046
 20
46.8644724560948
 11
7.02966269424096
 21
46.9344481654728
 72
     2
 10
6.702843702251091
 20
47.05970528692581
 40
0.3499999999999774
 50
339.0300975012035
 51
359.0000000000215
 73
     1
 72
     1
 10
7.052790395555808
 20
47.05359694467289
 11
7.075732739298015
 21
48.36796293738232
 97
        0
 75
     0
 76
     1
 52
0.0
 41
1.0
 77
     0
 78
     1
 53
45.0
 43
0.0
 44
0.0
 45
-0.0883883476483184
 46
0.0883883476483184
 79
     0
 98
        1
 10
0.0
 20
0.0
  0
HATCH
  5
2FA
330
1F
100
AcDbEntity
  8
OBJECT
  6
SLD-Solid
370
    18
100
AcDbHatch
 10
0.0
 20
0.0
 30
0.0
210
0.0
220
0.0
230
1.0
  2
ANSI31
 70
     0
 71
     0
 91
        1
 92
        0
 93
       20
 72
     2
 10
7.473427480545733
 20
19.25217468399251
 40
0.08
 50
225.0000000000004
 51
270.0000000000008
 73
     1
 72
     1
 10
7.473427480545733
 20
19.17217468399251
 11
25.00715331056604
 21
19.17217468399251
 72
     2
 10
25.00715331056604
 20
19.25217468399251
 40
0.08
 50
270.0000000000008
 51
315.0000000000008
 73
     1
 72
     1
 10
25.06372185306096
 20
19.19560614149759
 11
25.21685893805081
 21
19.34874322648744
 72
     2
 10
25.16029039555589
 20
19.40531176898237
 40
0.08
 50
314.999999999999
 51
360.0000000000008
 73
     1
 72
     1
 10
25.24029039555588
 20
19.40531176898237
 11
25.24029039555588
 21
20.00217468399251
 72
     1
 10
25.24029039555588
 20
20.00217468399251
 11
25.20529039555589
 21
20.00217468399251
 72
     1
 10
25.20529039555589
 20
20.00217468399251
 11
25.20529039555589
 21
19.39495642992305
 72
     2
 10
25.18529039555589
 20
19.39495642992305
 40
0.02
 50
0.0
 51
45.0000000000144
 73
     0
 72
     1
 10
25.19943253117961
 20
19.38081429429932
 11
25.03165078524908
 21
19.21303254836878
 72
     2
 10
25.01750864962534
 20
19.22717468399251
 40
0.02
 50
44.99999999998561
 51
90.0
 73
     0
 72
     1
 10
25.01750864962534
 20
19.20717468399251
 11
7.463072141486421
 21
19.20717468399251
 72
     2
 10
7.463072141486421
 20
19.22717468399251
 40
0.02
 50
90.0
 51
135.0000000000054
 73
     0
 72
     1
 10
7.44893000586269
 20
19.21303254836878
 11
7.281148259932152
 21
19.38081429429932
 72
     2
 10
7.295290395555884
 20
19.39495642992305
 40
0.02
 50
134.999999999991
 51
180.0
 73
     0
 72
     1
 10
7.275290395555883
 20
19.39495642992305
 11
7.275290395555882
 21
20.00217468399251
 72
     1
 10
7.275290395555882
 20
20.00217468399251
 11
7.240290395555883
 21
20.00217468399251
 72
     1
 10
7.240290395555883
 20
20.00217468399251
 11
7.240290395555883
 21
19.40531176898237
 72
     2
 10
7.320290395555883
 20
19.40531176898237
 40
0.08
 50
180.0
 51
225.0000000000022
 73
     1
 72
     1
 10
7.26372185306096
 20
19.34874322648744
 11
7.41685893805081
 21
19.19560614149759
 97
        0
 75
     0
 76
     1
 52
0.0
 41
1.0
 77
     0
 78
     1
 53
45.0
 43
0.0
 44
0.0
 45
-0.0883883476483184
 46
0.0883883476483184
 79
     0
 98
        1
 10
0.0
 20
0.0
  0
HATCH
  5
2FB
330
1F
100
AcDbEntity
  8
OBJECT
  6
SLD-Solid
370
    18
100
AcDbHatch
 10
0.0
 20
0.0
 30
0.0
210
0.0
220
0.0
230
1.0
  2
ANSI31
 70
     0
 71
     0
 91
        1
 92
        0
 93
        4
 72
     1
 10
25.27019039555588
 20
48.53031176898236
 11
25.27019039555589
 21
19.40531176898237
 72
     1
 10
25.27019039555589
 20
19.40531176898237
 11
25.30019039555588
 21
19.40531176898237
 72
     1
 10
25.30019039555588
 20
19.40531176898237
 11
25.30019039555588
 21
48.53031176898236
 72
     1
 10
25.30019039555588
 20
48.53031176898236
 11
25.27019039555588
 21
48.53031176898236
 97
        0
 75
     0
 76
     1
 52
0.0
 41
1.0
 77
     0
 78
     1
 53
45.0
 43
0.0
 44
0.0
 45
-0.0883883476483184
 46
0.0883883476483184
 79
     0
 98
        1
 10
0.0
 20
0.0
  0
HATCH
  5
2FC
330
1F
100
AcDbEntity
  8
OBJECT
  6
SLD-Solid
370
    18
100
AcDbHatch
 10
0.0
 20
0.0
 30
0.0
210
0.0
220
0.0
230
1.0
  2
ANSI31
 70
     0
 71
     0
 91
        1
 92
        0
 93
        4
 72
     1
 10
7.210390395555884
 20
19.40531176898237
 11
7.210390395555887
 21
48.53031176898236
 72
     1
 10
7.210390395555887
 20
48.53031176898236
 11
7.180390395555887
 21
48.53031176898236
 72
     1
 10
7.180390395555887
 20
48.53031176898236
 11
7.180390395555887
 21
19.40531176898237
 72
     1
 10
7.180390395555887
 20
19.40531176898237
 11
7.210390395555884
 21
19.40531176898237
 97
        0
 75
     0
 76
     1
 52
0.0
 41
1.0
 77
     0
 78
     1
 53
45.0
 43
0.0
 44
0.0
 45
-0.0883883476483184
 46
0.0883883476483184
 79
     0
 98
        1
 10
0.0
 20
0.0
  0
HATCH
  5
2FD
330
1F
100
AcDbEntity
  8
OBJECT
  6
SLD-Solid
370
    18
100
AcDbHatch
 10
0.0
 20
0.0
 30
0.0
210
0.0
220
0.0
230
1.0
  2
ANSI31
 70
     0
 71
     0
 91
        1
 92
        0
 93
        1
 72
     2
 10
7.521540395555219
 20
46.37331176898155
 40
0.1249999999999999
 50
0.0
 51
360.0
 73
     1
 97
        0
 75
     0
 76
     1
 52
0.0
 41
1.0
 77
     0
 78
     1
 53
45.0
 43
0.0
 44
0.0
 45
-0.0883883476483184
 46
0.0883883476483184
 79
     0
 98
        1
 10
0.0
 20
0.0
  0
HATCH
  5
2FE
330
1F
100
AcDbEntity
  8
OBJECT
  6
SLD-Solid
370
    18
100
AcDbHatch
 10
0.0
 20
0.0
 30
0.0
210
0.0
220
0.0
230
1.0
  2
ANSI31
 70
     0
 71
     0
 91
        1
 92
        0
 93
        1
 72
     2
 10
24.95904039555523
 20
46.37331176898155
 40
0.1249999999999999
 50
0.0
 51
360.0
 73
     1
 97
        0
 75
     0
 76
     1
 52
0.0
 41
1.0
 77
     0
 78
     1
 53
45.0
 43
0.0
 44
0.0
 45
-0.0883883476483184
 46
0.0883883476483184
 79
     0
 98
        1
 10
0.0
 20
0.0
  0
DIMENSION
  5
2FF
330
1F
100
AcDbEntity
  8
DIMS
100
AcDbDimension
  2
_D_4
 10
20.4902903956
 20
50.4254960781
 30
0.0
 11
15.763013748
 21
50.4254960781
 31
0.0
 70
   160
  1
%%c<>
 71
     2
 42
-1.0
  3
SLDDIMSTYLE0
100
AcDbAlignedDimension
 13
11.9902903956
 23
47.1144724561
 33
0.0
 14
20.4902903956
 24
47.1144724561
 34
0.0
100
AcDbRotatedDimension
  0
MTEXT
  5
30F
330
1F
100
AcDbEntity
  8
NOTES
100
AcDbMText
 10
16.2590272005
 20
17.9691324048
 30
0.0
 40
0.5
 41
0.0
 71
     2
 72
     1
  1
SECTION A-A
  7
SLDTEXTSTYLE1
 73
     1
 44
1.0
  0
MTEXT
  5
310
330
1F
100
AcDbEntity
  8
NOTES
100
AcDbMText
 10
24.474888604
 20
50.850408647
 30
0.0
 40
0.75
 41
0.0
 71
     1
 72
     1
  1
Bag holder apparatus
  7
SLDTEXTSTYLE1
 73
     1
 44
1.0
  0
LEADER
  5
312
330
1F
100
AcDbEntity
  8
NOTES
100
AcDbLeader
  3
SLDDIMSTYLE3
 76
     3
 10
21.3800477577
 20
46.498311769
 30
0.0
 10
23.9516764034
 20
50.4833100453
 30
0.0
 10
24.4516764034
 20
50.4833100453
 30
0.0
  0
ENDSEC
  0
SECTION
  2
OBJECTS
  0
DICTIONARY
  5
C
330
0
100
AcDbDictionary
281
     1
  3
ACAD_GROUP
350
D
  3
ACAD_LAYOUT
350
1A
  3
ACAD_MLINESTYLE
350
17
  3
ACAD_PLOTSETTINGS
350
19
  3
ACAD_PLOTSTYLENAME
350
E
  3
ACAD_SCALELIST
350
47
  3
DWGPROPS
350
313
  0
DICTIONARY
  5
D
102
{ACAD_REACTORS
330
C
102
}
330
C
100
AcDbDictionary
281
     1
  0
DICTIONARY
  5
1A
102
{ACAD_REACTORS
330
C
102
}
330
C
100
AcDbDictionary
281
     1
  3
Layout1
350
1E
  3
Layout2
350
26
  3
Model
350
22
  0
DICTIONARY
  5
17
102
{ACAD_REACTORS
330
C
102
}
330
C
100
AcDbDictionary
281
     1
  3
Standard
350
18
  0
DICTIONARY
  5
19
102
{ACAD_REACTORS
330
C
102
}
330
C
100
AcDbDictionary
281
     1
  0
ACDBDICTIONARYWDFLT
  5
E
102
{ACAD_REACTORS
330
C
102
}
330
C
100
AcDbDictionary
281
     1
  3
Normal
350
F
100
AcDbDictionaryWithDefault
340
F
  0
DICTIONARY
  5
47
102
{ACAD_REACTORS
330
C
102
}
330
C
100
AcDbDictionary
281
     1
  3
A0
350
48
  3
A1
350
49
  3
A2
350
4A
  3
A3
350
4B
  3
A4
350
4C
  3
A5
350
4D
  3
A6
350
4E
  3
A7
350
4F
  3
A8
350
50
  3
A9
350
51
  3
B0
350
52
  3
B1
350
53
  3
B2
350
54
  3
B3
350
55
  3
B4
350
56
  3
B5
350
57
  3
B6
350
58
  3
B7
350
59
  3
B8
350
5A
  3
B9
350
5B
  3
C0
350
5C
  3
C1
350
5D
  3
C2
350
5E
  3
C3
350
5F
  3
C4
350
60
  3
C5
350
61
  3
C6
350
62
  3
C7
350
63
  3
C8
350
64
  3
C9
350
65
  3
D0
350
66
  3
D1
350
67
  3
D2
350
68
  0
XRECORD
  5
313
102
{ACAD_REACTORS
330
C
102
}
330
C
100
AcDbXrecord
280
     1
  1
DWGPROPS COOKIE
  2

  3

  4

  6

  7

  8
carl
  9

300
=
301
=
302
=
303
=
304
=
305
=
306
=
307
=
308
=
309
=
 40
0.0
 41
2459377.803803472
 42
2459377.803809352
  1

 90
        0
  0
LAYOUT
  5
1E
102
{ACAD_REACTORS
330
1A
102
}
330
1A
100
AcDbPlotSettings
  1

  2
none_device
  4

  6

 40
0.0
 41
0.0
 42
0.0
 43
0.0
 44
0.0
 45
0.0
 46
0.0
 47
0.0
 48
0.0
 49
0.0
140
0.0
141
0.0
142
1.0
143
1.0
 70
   688
 72
     0
 73
     0
 74
     5
  7

 75
    16
147
1.0
148
0.0
149
0.0
100
AcDbLayout
  1
Layout1
 70
     1
 71
     1
 10
0.0
 20
0.0
 11
12.0
 21
9.0
 12
0.0
 22
0.0
 32
0.0
 14
1.0000000000E+20
 24
1.0000000000E+20
 34
1.0000000000E+20
 15
-1.0000000000E+20
 25
-1.0000000000E+20
 35
-1.0000000000E+20
146
0.0
 13
0.0
 23
0.0
 33
0.0
 16
1.0
 26
0.0
 36
0.0
 17
0.0
 27
1.0
 37
0.0
 76
     0
330
1B
  0
LAYOUT
  5
26
102
{ACAD_REACTORS
330
1A
102
}
330
1A
100
AcDbPlotSettings
  1

  2
none_device
  4

  6

 40
0.0
 41
0.0
 42
0.0
 43
0.0
 44
0.0
 45
0.0
 46
0.0
 47
0.0
 48
0.0
 49
0.0
140
0.0
141
0.0
142
1.0
143
1.0
 70
   688
 72
     0
 73
     0
 74
     5
  7

 75
    16
147
1.0
148
0.0
149
0.0
100
AcDbLayout
  1
Layout2
 70
     1
 71
     2
 10
0.0
 20
0.0
 11
0.0
 21
0.0
 12
0.0
 22
0.0
 32
0.0
 14
0.0
 24
0.0
 34
0.0
 15
0.0
 25
0.0
 35
0.0
146
0.0
 13
0.0
 23
0.0
 33
0.0
 16
1.0
 26
0.0
 36
0.0
 17
0.0
 27
1.0
 37
0.0
 76
     0
330
23
  0
LAYOUT
  5
22
102
{ACAD_REACTORS
330
1A
102
}
330
1A
100
AcDbPlotSettings
  1

  2
none_device
  4
Letter_(8.50_x_11.00_Inches)
  6

 40
6.35
 41
6.35
 42
6.35000508
 43
6.35000508
 44
215.9
 45
279.4
 46
0.0
 47
0.0
 48
0.0
 49
0.0
140
0.0
141
0.0
142
1.0
143
1.0
 70
  1712
 72
     0
 73
     0
 74
     0
  7

 75
     0
147
1.0
148
0.0
149
0.0
100
AcDbLayout
  1
Model
 70
     1
 71
     0
 10
0.0
 20
0.0
 11
80.375
 21
100.0
 12
0.0
 22
0.0
 32
0.0
 14
0.0
 24
0.0
 34
0.0
 15
80.375
 25
100.0
 35
0.0
146
0.0
 13
0.0
 23
0.0
 33
0.0
 16
1.0
 26
0.0
 36
0.0
 17
0.0
 27
1.0
 37
0.0
 76
     0
330
1F
331
29
  0
MLINESTYLE
  5
18
102
{ACAD_REACTORS
330
17
102
}
330
17
100
AcDbMlineStyle
  2
Standard
 70
     0
  3

 62
   256
 51
90.0
 52
90.0
 71
     2
 49
0.5
 62
   256
  6
BYLAYER
 49
-0.5
 62
   256
  6
BYLAYER
  0
ACDBPLACEHOLDER
  5
F
102
{ACAD_REACTORS
330
E
102
}
330
E
  0
SCALE
  5
48
102
{ACAD_REACTORS
330
47
102
}
330
47
100
AcDbScale
 70
     0
300
1:1
140
1.0
141
1.0
290
     1
  0
SCALE
  5
49
102
{ACAD_REACTORS
330
47
102
}
330
47
100
AcDbScale
 70
     0
300
1:2
140
1.0
141
2.0
290
     0
  0
SCALE
  5
4A
102
{ACAD_REACTORS
330
47
102
}
330
47
100
AcDbScale
 70
     0
300
1:4
140
1.0
141
4.0
290
     0
  0
SCALE
  5
4B
102
{ACAD_REACTORS
330
47
102
}
330
47
100
AcDbScale
 70
     0
300
1:5
140
1.0
141
5.0
290
     0
  0
SCALE
  5
4C
102
{ACAD_REACTORS
330
47
102
}
330
47
100
AcDbScale
 70
     0
300
1:8
140
1.0
141
8.0
290
     0
  0
SCALE
  5
4D
102
{ACAD_REACTORS
330
47
102
}
330
47
100
AcDbScale
 70
     0
300
1:10
140
1.0
141
10.0
290
     0
  0
SCALE
  5
4E
102
{ACAD_REACTORS
330
47
102
}
330
47
100
AcDbScale
 70
     0
300
1:16
140
1.0
141
16.0
290
     0
  0
SCALE
  5
4F
102
{ACAD_REACTORS
330
47
102
}
330
47
100
AcDbScale
 70
     0
300
1:20
140
1.0
141
20.0
290
     0
  0
SCALE
  5
50
102
{ACAD_REACTORS
330
47
102
}
330
47
100
AcDbScale
 70
     0
300
1:30
140
1.0
141
30.0
290
     0
  0
SCALE
  5
51
102
{ACAD_REACTORS
330
47
102
}
330
47
100
AcDbScale
 70
     0
300
1:40
140
1.0
141
40.0
290
     0
  0
SCALE
  5
52
102
{ACAD_REACTORS
330
47
102
}
330
47
100
AcDbScale
 70
     0
300
1:50
140
1.0
141
50.0
290
     0
  0
SCALE
  5
53
102
{ACAD_REACTORS
330
47
102
}
330
47
100
AcDbScale
 70
     0
300
1:100
140
1.0
141
100.0
290
     0
  0
SCALE
  5
54
102
{ACAD_REACTORS
330
47
102
}
330
47
100
AcDbScale
 70
     0
300
2:1
140
2.0
141
1.0
290
     0
  0
SCALE
  5
55
102
{ACAD_REACTORS
330
47
102
}
330
47
100
AcDbScale
 70
     0
300
4:1
140
4.0
141
1.0
290
     0
  0
SCALE
  5
56
102
{ACAD_REACTORS
330
47
102
}
330
47
100
AcDbScale
 70
     0
300
8:1
140
8.0
141
1.0
290
     0
  0
SCALE
  5
57
102
{ACAD_REACTORS
330
47
102
}
330
47
100
AcDbScale
 70
     0
300
10:1
140
10.0
141
1.0
290
     0
  0
SCALE
  5
58
102
{ACAD_REACTORS
330
47
102
}
330
47
100
AcDbScale
 70
     0
300
100:1
140
100.0
141
1.0
290
     0
  0
SCALE
  5
59
102
{ACAD_REACTORS
330
47
102
}
330
47
100
AcDbScale
 70
     0
300
1/128" = 1'-0"
140
0.0078125
141
12.0
290
     0
  0
SCALE
  5
5A
102
{ACAD_REACTORS
330
47
102
}
330
47
100
AcDbScale
 70
     0
300
1/64" = 1'-0"
140
0.015625
141
12.0
290
     0
  0
SCALE
  5
5B
102
{ACAD_REACTORS
330
47
102
}
330
47
100
AcDbScale
 70
     0
300
1/32" = 1'-0"
140
0.03125
141
12.0
290
     0
  0
SCALE
  5
5C
102
{ACAD_REACTORS
330
47
102
}
330
47
100
AcDbScale
 70
     0
300
1/16" = 1'-0"
140
0.0625
141
12.0
290
     0
  0
SCALE
  5
5D
102
{ACAD_REACTORS
330
47
102
}
330
47
100
AcDbScale
 70
     0
300
3/32" = 1'-0"
140
0.09375
141
12.0
290
     0
  0
SCALE
  5
5E
102
{ACAD_REACTORS
330
47
102
}
330
47
100
AcDbScale
 70
     0
300
1/8" = 1'-0"
140
0.125
141
12.0
290
     0
  0
SCALE
  5
5F
102
{ACAD_REACTORS
330
47
102
}
330
47
100
AcDbScale
 70
     0
300
3/16" = 1'-0"
140
0.1875
141
12.0
290
     0
  0
SCALE
  5
60
102
{ACAD_REACTORS
330
47
102
}
330
47
100
AcDbScale
 70
     0
300
1/4" = 1'-0"
140
0.25
141
12.0
290
     0
  0
SCALE
  5
61
102
{ACAD_REACTORS
330
47
102
}
330
47
100
AcDbScale
 70
     0
300
3/8" = 1'-0"
140
0.375
141
12.0
290
     0
  0
SCALE
  5
62
102
{ACAD_REACTORS
330
47
102
}
330
47
100
AcDbScale
 70
     0
300
1/2" = 1'-0"
140
0.5
141
12.0
290
     0
  0
SCALE
  5
63
102
{ACAD_REACTORS
330
47
102
}
330
47
100
AcDbScale
 70
     0
300
3/4" = 1'-0"
140
0.75
141
12.0
290
     0
  0
SCALE
  5
64
102
{ACAD_REACTORS
330
47
102
}
330
47
100
AcDbScale
 70
     0
300
1" = 1'-0"
140
1.0
141
12.0
290
     0
  0
SCALE
  5
65
102
{ACAD_REACTORS
330
47
102
}
330
47
100
AcDbScale
 70
     0
300
1-1/2" = 1'-0"
140
1.5
141
12.0
290
     0
  0
SCALE
  5
66
102
{ACAD_REACTORS
330
47
102
}
330
47
100
AcDbScale
 70
     0
300
3" = 1'-0"
140
3.0
141
12.0
290
     0
  0
SCALE
  5
67
102
{ACAD_REACTORS
330
47
102
}
330
47
100
AcDbScale
 70
     0
300
6" = 1'-0"
140
6.0
141
12.0
290
     0
  0
SCALE
  5
68
102
{ACAD_REACTORS
330
47
102
}
330
47
100
AcDbScale
 70
     0
300
1'-0" = 1'-0"
140
12.0
141
12.0
290
     0
  0
ENDSEC
  0
EOF
