  0
SECTION
  2
HEADER
  9
$ACADVER
  1
AC1018
  9
$ACADMAINTVER
 70
    39
  9
$DWGCODEPAGE
  3
ANSI_1252
  9
$LASTSAVEDBY
  1
fottrem
  9
$INSBASE
 10
0.0
 20
0.0
 30
0.0
  9
$EXTMIN
 10
0.1653543307086614
 20
0.1653543307086614
 30
-25.74827495405623
  9
$EXTMAX
 10
80.20964566929135
 20
99.83464566929135
 30
5.161860614139235
  9
$LIMMIN
 10
0.0
 20
0.0
  9
$LIMMAX
 10
80.375
 20
100.0
  9
$ORTHOMODE
 70
     0
  9
$REGENMODE
 70
     1
  9
$FILLMODE
 70
     1
  9
$QTEXTMODE
 70
     0
  9
$MIRRTEXT
 70
     1
  9
$LTSCALE
 40
1.0
  9
$ATTMODE
 70
     1
  9
$TEXTSIZE
 40
0.7500000000000001
  9
$TRACEWID
 40
0.05
  9
$TEXTSTYLE
  7
Standard
  9
$CLAYER
  8
0
  9
$CELTYPE
  6
ByLayer
  9
$CECOLOR
 62
   256
  9
$CELTSCALE
 40
1.0
  9
$DISPSILH
 70
     0
  9
$DIMSCALE
 40
1.0
  9
$DIMASZ
 40
0.7500000000000001
  9
$DIMEXO
 40
0.1666666666666667
  9
$DIMDLI
 40
0.38
  9
$DIMRND
 40
0.0
  9
$DIMDLE
 40
0.0
  9
$DIMEXE
 40
0.3750000000000001
  9
$DIMTP
 40
0.0
  9
$DIMTM
 40
0.0
  9
$DIMTXT
 40
0.7500000000000001
  9
$DIMCEN
 40
0.09
  9
$DIMTSZ
 40
0.0
  9
$DIMTOL
 70
     0
  9
$DIMLIM
 70
     0
  9
$DIMTIH
 70
     1
  9
$DIMTOH
 70
     1
  9
$DIMSE1
 70
     0
  9
$DIMSE2
 70
     0
  9
$DIMTAD
 70
     0
  9
$DIMZIN
 70
     1
  9
$DIMBLK
  1

  9
$DIMASO
 70
     1
  9
$DIMSHO
 70
     1
  9
$DIMPOST
  1

  9
$DIMAPOST
  1

  9
$DIMALT
 70
     0
  9
$DIMALTD
 70
     2
  9
$DIMALTF
 40
25.4
  9
$DIMLFAC
 40
1.0
  9
$DIMTOFL
 70
     0
  9
$DIMTVP
 40
0.0
  9
$DIMTIX
 70
     0
  9
$DIMSOXD
 70
     0
  9
$DIMSAH
 70
     0
  9
$DIMBLK1
  1

  9
$DIMBLK2
  1

  9
$DIMSTYLE
  2
Standard
  9
$DIMCLRD
 70
     0
  9
$DIMCLRE
 70
     0
  9
$DIMCLRT
 70
     0
  9
$DIMTFAC
 40
1.0
  9
$DIMGAP
 40
0.125
  9
$DIMJUST
 70
     0
  9
$DIMSD1
 70
     0
  9
$DIMSD2
 70
     0
  9
$DIMTOLJ
 70
     1
  9
$DIMTZIN
 70
     1
  9
$DIMALTZ
 70
     0
  9
$DIMALTTZ
 70
     0
  9
$DIMUPT
 70
     0
  9
$DIMDEC
 70
     2
  9
$DIMTDEC
 70
     2
  9
$DIMALTU
 70
     2
  9
$DIMALTTD
 70
     2
  9
$DIMTXSTY
  7
Standard
  9
$DIMAUNIT
 70
     0
  9
$DIMADEC
 70
     2
  9
$DIMALTRND
 40
0.0
  9
$DIMAZIN
 70
     0
  9
$DIMDSEP
 70
    46
  9
$DIMATFIT
 70
     3
  9
$DIMFRAC
 70
     0
  9
$DIMLDRBLK
  1

  9
$DIMLUNIT
 70
     2
  9
$DIMLWD
 70
    -2
  9
$DIMLWE
 70
    -2
  9
$DIMTMOVE
 70
     0
  9
$LUNITS
 70
     2
  9
$LUPREC
 70
     4
  9
$SKETCHINC
 40
0.1
  9
$FILLETRAD
 40
0.5
  9
$AUNITS
 70
     0
  9
$AUPREC
 70
     2
  9
$MENU
  1
.
  9
$ELEVATION
 40
0.0
  9
$PELEVATION
 40
0.0
  9
$THICKNESS
 40
0.0
  9
$LIMCHECK
 70
     0
  9
$CHAMFERA
 40
0.0
  9
$CHAMFERB
 40
0.0
  9
$CHAMFERC
 40
0.0
  9
$CHAMFERD
 40
0.0
  9
$SKPOLY
 70
     0
  9
$TDCREATE
 40
2453353.550459155
  9
$TDUCREATE
 40
2453353.717125822
  9
$TDUPDATE
 40
2459488.483146829
  9
$TDUUPDATE
 40
2459488.649813496
  9
$TDINDWG
 40
0.0434375116
  9
$TDUSRTIMER
 40
0.0434375116
  9
$USRTIMER
 70
     1
  9
$ANGBASE
 50
0.0
  9
$ANGDIR
 70
     0
  9
$PDMODE
 70
     0
  9
$PDSIZE
 40
-1.0
  9
$PLINEWID
 40
0.0
  9
$SPLFRAME
 70
     0
  9
$SPLINETYPE
 70
     6
  9
$SPLINESEGS
 70
     8
  9
$HANDSEED
  5
53B
  9
$SURFTAB1
 70
     6
  9
$SURFTAB2
 70
     6
  9
$SURFTYPE
 70
     6
  9
$SURFU
 70
     6
  9
$SURFV
 70
     6
  9
$UCSBASE
  2

  9
$UCSNAME
  2

  9
$UCSORG
 10
0.0
 20
0.0
 30
0.0
  9
$UCSXDIR
 10
1.0
 20
0.0
 30
0.0
  9
$UCSYDIR
 10
0.0
 20
1.0
 30
0.0
  9
$UCSORTHOREF
  2

  9
$UCSORTHOVIEW
 70
     0
  9
$UCSORGTOP
 10
0.0
 20
0.0
 30
0.0
  9
$UCSORGBOTTOM
 10
0.0
 20
0.0
 30
0.0
  9
$UCSORGLEFT
 10
0.0
 20
0.0
 30
0.0
  9
$UCSORGRIGHT
 10
0.0
 20
0.0
 30
0.0
  9
$UCSORGFRONT
 10
0.0
 20
0.0
 30
0.0
  9
$UCSORGBACK
 10
0.0
 20
0.0
 30
0.0
  9
$PUCSBASE
  2

  9
$PUCSNAME
  2

  9
$PUCSORG
 10
0.0
 20
0.0
 30
0.0
  9
$PUCSXDIR
 10
1.0
 20
0.0
 30
0.0
  9
$PUCSYDIR
 10
0.0
 20
1.0
 30
0.0
  9
$PUCSORTHOREF
  2

  9
$PUCSORTHOVIEW
 70
     0
  9
$PUCSORGTOP
 10
0.0
 20
0.0
 30
0.0
  9
$PUCSORGBOTTOM
 10
0.0
 20
0.0
 30
0.0
  9
$PUCSORGLEFT
 10
0.0
 20
0.0
 30
0.0
  9
$PUCSORGRIGHT
 10
0.0
 20
0.0
 30
0.0
  9
$PUCSORGFRONT
 10
0.0
 20
0.0
 30
0.0
  9
$PUCSORGBACK
 10
0.0
 20
0.0
 30
0.0
  9
$USERI1
 70
     0
  9
$USERI2
 70
     0
  9
$USERI3
 70
     0
  9
$USERI4
 70
     0
  9
$USERI5
 70
     0
  9
$USERR1
 40
0.0
  9
$USERR2
 40
0.0
  9
$USERR3
 40
0.0
  9
$USERR4
 40
0.0
  9
$USERR5
 40
0.0
  9
$WORLDVIEW
 70
     1
  9
$SHADEDGE
 70
     3
  9
$SHADEDIF
 70
    70
  9
$TILEMODE
 70
     1
  9
$MAXACTVP
 70
    64
  9
$PINSBASE
 10
0.0
 20
0.0
 30
0.0
  9
$PLIMCHECK
 70
     0
  9
$PEXTMIN
 10
1.000000000000000E+20
 20
1.000000000000000E+20
 30
1.000000000000000E+20
  9
$PEXTMAX
 10
-1.000000000000000E+20
 20
-1.000000000000000E+20
 30
-1.000000000000000E+20
  9
$PLIMMIN
 10
0.0
 20
0.0
  9
$PLIMMAX
 10
12.0
 20
9.0
  9
$UNITMODE
 70
     0
  9
$VISRETAIN
 70
     1
  9
$PLINEGEN
 70
     0
  9
$PSLTSCALE
 70
     1
  9
$TREEDEPTH
 70
  3020
  9
$CMLSTYLE
  2
Standard
  9
$CMLJUST
 70
     0
  9
$CMLSCALE
 40
1.0
  9
$PROXYGRAPHICS
 70
     1
  9
$MEASUREMENT
 70
     0
  9
$CELWEIGHT
370
    -1
  9
$ENDCAPS
280
     0
  9
$JOINSTYLE
280
     0
  9
$LWDISPLAY
290
     1
  9
$INSUNITS
 70
     1
  9
$HYPERLINKBASE
  1

  9
$STYLESHEET
  1

  9
$XEDIT
290
     0
  9
$CEPSNTYPE
380
     0
  9
$PSTYLEMODE
290
     1
  9
$FINGERPRINTGUID
  2
{a4414aa0-a589-476a-bc7d-0d5f3b705e5a}
  9
$VERSIONGUID
  2
{FAEB1C32-E019-11D5-929B-00C0DF256EC4}
  9
$EXTNAMES
290
     1
  9
$PSVPSCALE
 40
0.0
  9
$OLESTARTUP
290
     0
  9
$SORTENTS
280
   127
  9
$INDEXCTL
280
     0
  9
$HIDETEXT
280
     1
  9
$XCLIPFRAME
290
     0
  9
$HALOGAP
280
     0
  9
$OBSCOLOR
 70
   257
  9
$OBSLTYPE
280
     0
  9
$INTERSECTIONDISPLAY
280
     0
  9
$INTERSECTIONCOLOR
 70
   257
  9
$DIMASSOC
280
     2
  9
$PROJECTNAME
  1

  0
ENDSEC
  0
SECTION
  2
CLASSES
  0
CLASS
  1
ACDBDICTIONARYWDFLT
  2
AcDbDictionaryWithDefault
  3
ObjectDBX Classes
 90
        0
 91
        3
280
     0
281
     0
  0
CLASS
  1
ACDBPLACEHOLDER
  2
AcDbPlaceHolder
  3
ObjectDBX Classes
 90
        0
 91
        1
280
     0
281
     0
  0
CLASS
  1
LAYOUT
  2
AcDbLayout
  3
ObjectDBX Classes
 90
        0
 91
        1
280
     0
281
     0
  0
CLASS
  1
DICTIONARYVAR
  2
AcDbDictionaryVar
  3
ObjectDBX Classes
 90
        0
 91
        3
280
     0
281
     0
  0
CLASS
  1
TABLESTYLE
  2
AcDbTableStyle
  3
ObjectDBX Classes
 90
     2047
 91
        3
280
     0
281
     0
  0
CLASS
  1
SCALE
  2
AcDbScale
  3
ObjectDBX Classes
 90
     1153
 91
       67
280
     1
281
     0
  0
ENDSEC
  0
SECTION
  2
TABLES
  0
TABLE
  2
VPORT
  5
8
330
0
100
AcDbSymbolTable
 70
     2
  0
VPORT
  5
97
330
8
100
AcDbSymbolTableRecord
100
AcDbViewportTableRecord
  2
*Active
 70
     0
 10
0.0
 20
0.0
 11
1.0
 21
1.0
 12
40.18750000000001
 22
50.00000000000001
 13
0.0
 23
0.0
 14
0.5
 24
0.5
 15
0.5
 25
0.5
 16
0.0
 26
0.0
 36
1.0
 17
0.0
 27
0.0
 37
0.0
 40
101.6626771653543
 41
0.80375
 42
50.0
 43
0.0
 44
0.0
 50
0.0
 51
0.0
 71
    16
 72
  2000
 73
     1
 74
     1
 75
     0
 76
     0
 77
     0
 78
     0
281
     0
 65
     0
110
0.0
120
0.0
130
0.0
111
1.0
121
0.0
131
0.0
112
0.0
122
1.0
132
0.0
 79
     0
146
0.0
  0
ENDTAB
  0
TABLE
  2
LTYPE
  5
5
330
0
100
AcDbSymbolTable
 70
     8
  0
LTYPE
  5
14
330
5
100
AcDbSymbolTableRecord
100
AcDbLinetypeTableRecord
  2
ByBlock
 70
     0
  3

 72
    65
 73
     0
 40
0.0
  0
LTYPE
  5
15
330
5
100
AcDbSymbolTableRecord
100
AcDbLinetypeTableRecord
  2
ByLayer
 70
     0
  3

 72
    65
 73
     0
 40
0.0
  0
LTYPE
  5
16
330
5
100
AcDbSymbolTableRecord
100
AcDbLinetypeTableRecord
  2
Continuous
 70
     0
  3
Solid line
 72
    65
 73
     0
 40
0.0
  0
LTYPE
  5
50D
330
5
100
AcDbSymbolTableRecord
100
AcDbLinetypeTableRecord
  2
SLD-Solid
 70
     0
  3
SolidWorks Line Style
 72
    65
 73
     0
 40
0.0
  0
LTYPE
  5
50E
330
5
100
AcDbSymbolTableRecord
100
AcDbLinetypeTableRecord
  2
SLD-Dashed
 70
     0
  3
SolidWorks Line Style
 72
    65
 73
     2
 40
0.075
 49
0.05
 74
     4
 75
     0
340
0
 46
1.0
 50
0.0
 44
0.0
 45
0.0
 49
-0.025
 74
     4
 75
     0
340
0
 46
1.0
 50
0.0
 44
0.0
 45
0.0
  0
LTYPE
  5
50F
330
5
100
AcDbSymbolTableRecord
100
AcDbLinetypeTableRecord
  2
SLD-Phantom
 70
     0
  3
SolidWorks Line Style
 72
    65
 73
     6
 40
0.4999999999999999
 49
0.25
 74
     4
 75
     0
340
0
 46
1.0
 50
0.0
 44
0.0
 45
0.0
 49
-0.05
 74
     4
 75
     0
340
0
 46
1.0
 50
0.0
 44
0.0
 45
0.0
 49
0.05
 74
     4
 75
     0
340
0
 46
1.0
 50
0.0
 44
0.0
 45
0.0
 49
-0.05
 74
     4
 75
     0
340
0
 46
1.0
 50
0.0
 44
0.0
 45
0.0
 49
0.05
 74
     4
 75
     0
340
0
 46
1.0
 50
0.0
 44
0.0
 45
0.0
 49
-0.05
 74
     4
 75
     0
340
0
 46
1.0
 50
0.0
 44
0.0
 45
0.0
  0
LTYPE
  5
510
330
5
100
AcDbSymbolTableRecord
100
AcDbLinetypeTableRecord
  2
SLD-Chain
 70
     0
  3
SolidWorks Line Style
 72
    65
 73
     4
 40
0.4
 49
0.25
 74
     4
 75
     0
340
0
 46
1.0
 50
0.0
 44
0.0
 45
0.0
 49
-0.05
 74
     4
 75
     0
340
0
 46
1.0
 50
0.0
 44
0.0
 45
0.0
 49
0.05
 74
     4
 75
     0
340
0
 46
1.0
 50
0.0
 44
0.0
 45
0.0
 49
-0.05
 74
     4
 75
     0
340
0
 46
1.0
 50
0.0
 44
0.0
 45
0.0
  0
LTYPE
  5
511
330
5
100
AcDbSymbolTableRecord
100
AcDbLinetypeTableRecord
  2
SLD-Center
 70
     0
  3
SolidWorks Line Style
 72
    65
 73
     4
 40
0.7500000000000002
 49
0.6000000000000001
 74
     4
 75
     0
340
0
 46
1.0
 50
0.0
 44
0.0
 45
0.0
 49
-0.05
 74
     4
 75
     0
340
0
 46
1.0
 50
0.0
 44
0.0
 45
0.0
 49
0.05
 74
     4
 75
     0
340
0
 46
1.0
 50
0.0
 44
0.0
 45
0.0
 49
-0.05
 74
     4
 75
     0
340
0
 46
1.0
 50
0.0
 44
0.0
 45
0.0
  0
LTYPE
  5
512
330
5
100
AcDbSymbolTableRecord
100
AcDbLinetypeTableRecord
  2
SLD-Stitch
 70
     0
  3
SolidWorks Line Style
 72
    65
 73
     2
 40
0.025
 49
0.0
 74
     4
 75
     0
340
0
 46
1.0
 50
0.0
 44
0.0
 45
0.0
 49
-0.025
 74
     4
 75
     0
340
0
 46
1.0
 50
0.0
 44
0.0
 45
0.0
  0
LTYPE
  5
513
330
5
100
AcDbSymbolTableRecord
100
AcDbLinetypeTableRecord
  2
SLD-Thin-Thick-Chain
 70
     0
  3
SolidWorks Line Style
 72
    65
 73
     4
 40
0.4
 49
0.25
 74
     4
 75
     0
340
0
 46
1.0
 50
0.0
 44
0.0
 45
0.0
 49
-0.05
 74
     4
 75
     0
340
0
 46
1.0
 50
0.0
 44
0.0
 45
0.0
 49
0.05
 74
     4
 75
     0
340
0
 46
1.0
 50
0.0
 44
0.0
 45
0.0
 49
-0.05
 74
     4
 75
     0
340
0
 46
1.0
 50
0.0
 44
0.0
 45
0.0
  0
ENDTAB
  0
TABLE
  2
LAYER
  5
2
330
0
100
AcDbSymbolTable
 70
     6
  0
LAYER
  5
10
330
2
100
AcDbSymbolTableRecord
100
AcDbLayerTableRecord
  2
0
 70
     0
 62
     7
  6
Continuous
370
    -3
390
F
  0
LAYER
  5
514
330
2
100
AcDbSymbolTableRecord
100
AcDbLayerTableRecord
  2
FORMAT
 70
     0
 62
     7
  6
SLD-Solid
370
    -3
390
F
  0
LAYER
  5
515
330
2
100
AcDbSymbolTableRecord
100
AcDbLayerTableRecord
  2
NOTES
 70
     0
 62
     1
  6
SLD-Solid
370
    -3
390
F
  0
LAYER
  5
77
330
2
100
AcDbSymbolTableRecord
100
AcDbLayerTableRecord
  2
OBJECT
 70
     0
 62
     7
  6
SLD-Solid
370
    -3
390
F
  0
LAYER
  5
78
330
2
100
AcDbSymbolTableRecord
100
AcDbLayerTableRecord
  2
DIMS
 70
     0
 62
     5
  6
SLD-Solid
370
    -3
390
F
  0
LAYER
  5
79
330
2
100
AcDbSymbolTableRecord
100
AcDbLayerTableRecord
  2
TITLE
 70
     0
 62
     8
  6
SLD-Solid
370
    -3
390
F
  0
ENDTAB
  0
TABLE
  2
STYLE
  5
3
330
0
100
AcDbSymbolTable
 70
     5
  0
STYLE
  5
11
330
3
100
AcDbSymbolTableRecord
100
AcDbTextStyleTableRecord
  2
Standard
 70
     0
 40
0.0
 41
1.0
 50
0.0
 71
     0
 42
0.7500000000000001
  3
GOTHIC.TTF
  4

1001
ACAD
1000
CENTURY GOTHIC
1071
       34
  0
STYLE
  5
13D
330
3
100
AcDbSymbolTableRecord
100
AcDbTextStyleTableRecord
  2
SLDTEXTSTYLE0
 70
     0
 40
0.0
 41
0.948
 50
0.0
 71
     0
 42
0.7500000000000001
  3
ARIAL.TTF
  4

1001
ACAD
1000
Arial
1071
      290
  0
STYLE
  5
141
330
3
100
AcDbSymbolTableRecord
100
AcDbTextStyleTableRecord
  2
SLDTEXTSTYLE1
 70
     0
 40
0.0
 41
0.913
 50
0.0
 71
     0
 42
0.7500000000000001
  3
GOTHIC.TTF
  4

1001
ACAD
1000
Century Gothic
1071
      290
  0
STYLE
  5
150
330
3
100
AcDbSymbolTableRecord
100
AcDbTextStyleTableRecord
  2
SLDTEXTSTYLE2
 70
     0
 40
0.0
 41
0.87
 50
0.0
 71
     0
 42
0.7500000000000001
  3
ARIALNB.TTF
  4

1001
ACAD
1000
Arial Narrow
1071
 33554722
  0
STYLE
  5
152
330
3
100
AcDbSymbolTableRecord
100
AcDbTextStyleTableRecord
  2
SLDTEXTSTYLE3
 70
     0
 40
0.0
 41
0.87
 50
0.0
 71
     0
 42
0.7500000000000001
  3
ARIALN.TTF
  4

1001
ACAD
1000
Arial Narrow
1071
      290
  0
ENDTAB
  0
TABLE
  2
VIEW
  5
6
330
0
100
AcDbSymbolTable
 70
     0
  0
ENDTAB
  0
TABLE
  2
UCS
  5
7
330
0
100
AcDbSymbolTable
 70
     0
  0
ENDTAB
  0
TABLE
  2
APPID
  5
9
330
0
100
AcDbSymbolTable
 70
     1
  0
APPID
  5
12
330
9
100
AcDbSymbolTableRecord
100
AcDbRegAppTableRecord
  2
ACAD
 70
     0
  0
ENDTAB
  0
TABLE
  2
DIMSTYLE
  5
A
330
0
100
AcDbSymbolTable
 70
     6
100
AcDbDimStyleTable
  0
DIMSTYLE
105
27
330
A
100
AcDbSymbolTableRecord
100
AcDbDimStyleTableRecord
  2
Standard
 70
     0
340
11
  0
DIMSTYLE
105
275
102
{ACAD_REACTORS
330
274
102
}
330
A
100
AcDbSymbolTableRecord
100
AcDbDimStyleTableRecord
  2
SLDDIMSTYLE0
 70
     0
 41
0.7500000000000001
 44
0.0
 45
0.000000001
 73
     0
 74
     0
 78
    12
 79
     3
140
0.7500000000000001
147
0.1875
173
     1
271
     2
272
     2
276
     2
277
     5
284
    12
340
141
341
516
343
516
344
516
  0
DIMSTYLE
105
287
102
{ACAD_REACTORS
330
286
330
296
330
305
330
454
330
46F
102
}
330
A
100
AcDbSymbolTableRecord
100
AcDbDimStyleTableRecord
  2
SLDDIMSTYLE1
 70
     0
 41
0.7500000000000001
 44
0.0
 45
0.000000001
 78
    12
 79
     3
140
0.7500000000000001
147
0.1875
173
     1
271
     6
272
     2
276
     2
277
     5
284
    12
340
141
341
516
343
516
344
516
  0
DIMSTYLE
105
448
102
{ACAD_REACTORS
330
447
102
}
330
A
100
AcDbSymbolTableRecord
100
AcDbDimStyleTableRecord
  2
SLDDIMSTYLE2
 70
     0
 41
0.7500000000000001
 44
0.0
 45
0.000000001
 78
    12
 79
     3
140
0.7500000000000001
141
0.0
147
0.1875
173
     1
271
     2
272
     2
276
     2
277
     5
284
    12
340
141
341
516
343
516
344
516
  0
DIMSTYLE
105
464
102
{ACAD_REACTORS
330
463
330
4FB
102
}
330
A
100
AcDbSymbolTableRecord
100
AcDbDimStyleTableRecord
  2
SLDDIMSTYLE3
 70
     0
 41
0.7500000000000001
 44
0.0
 45
0.000000001
 78
    12
 79
     3
140
0.7500000000000001
147
0.1875
173
     1
271
     2
272
     2
276
     2
277
     5
284
    12
340
141
341
516
343
516
344
516
  0
DIMSTYLE
105
480
330
A
100
AcDbSymbolTableRecord
100
AcDbDimStyleTableRecord
  2
SLDDIMSTYLE4
 70
     0
 41
0.7500000000000001
 44
0.0
 45
0.000000001
146
0.7500000000000001
147
0.0
173
     1
271
     0
272
     0
276
     2
277
     5
340
11
341
516
343
516
344
516
  0
ENDTAB
  0
TABLE
  2
BLOCK_RECORD
  5
1
330
0
100
AcDbSymbolTable
 70
    13
  0
BLOCK_RECORD
  5
1F
330
1
100
AcDbSymbolTableRecord
100
AcDbBlockTableRecord
  2
*Model_Space
340
22
  0
BLOCK_RECORD
  5
73
330
1
100
AcDbSymbolTableRecord
100
AcDbBlockTableRecord
  2
*Paper_Space
340
74
  0
BLOCK_RECORD
  5
516
330
1
100
AcDbSymbolTableRecord
100
AcDbBlockTableRecord
  2
_Open90
340
0
102
{BLKREFS
331
27F
331
280
331
28B
331
28C
331
29A
331
29B
331
309
331
30A
331
44C
331
458
331
459
331
468
331
469
331
473
331
474
331
4FF
331
500
102
}
  0
BLOCK_RECORD
  5
23
330
1
100
AcDbSymbolTableRecord
100
AcDbBlockTableRecord
  2
*Paper_Space1
340
26
  0
BLOCK_RECORD
  5
147
330
1
100
AcDbSymbolTableRecord
100
AcDbBlockTableRecord
  2
SW_NOTE_0
340
0
  0
BLOCK_RECORD
  5
14D
330
1
100
AcDbSymbolTableRecord
100
AcDbBlockTableRecord
  2
SW_NOTE_0_1
340
0
102
{BLKREFS
331
156
102
}
  0
BLOCK_RECORD
  5
27C
330
1
100
AcDbSymbolTableRecord
100
AcDbBlockTableRecord
  2
_D
340
0
  0
BLOCK_RECORD
  5
288
330
1
100
AcDbSymbolTableRecord
100
AcDbBlockTableRecord
  2
_D_1
340
0
  0
BLOCK_RECORD
  5
297
330
1
100
AcDbSymbolTableRecord
100
AcDbBlockTableRecord
  2
_D_2
340
0
  0
BLOCK_RECORD
  5
306
330
1
100
AcDbSymbolTableRecord
100
AcDbBlockTableRecord
  2
_D_3
340
0
  0
BLOCK_RECORD
  5
449
330
1
100
AcDbSymbolTableRecord
100
AcDbBlockTableRecord
  2
_D_4
340
0
  0
BLOCK_RECORD
  5
455
330
1
100
AcDbSymbolTableRecord
100
AcDbBlockTableRecord
  2
_D_5
340
0
  0
BLOCK_RECORD
  5
465
330
1
100
AcDbSymbolTableRecord
100
AcDbBlockTableRecord
  2
_D_6
340
0
  0
BLOCK_RECORD
  5
470
330
1
100
AcDbSymbolTableRecord
100
AcDbBlockTableRecord
  2
_D_7
340
0
  0
BLOCK_RECORD
  5
4FC
330
1
100
AcDbSymbolTableRecord
100
AcDbBlockTableRecord
  2
_D_8
340
0
  0
ENDTAB
  0
ENDSEC
  0
SECTION
  2
BLOCKS
  0
BLOCK
  5
20
330
1F
100
AcDbEntity
  8
0
100
AcDbBlockBegin
  2
*Model_Space
 70
     0
 71
     0
 10
0.0
 20
0.0
 30
0.0
  3
*Model_Space
  1

  0
ENDBLK
  5
21
330
1F
100
AcDbEntity
  8
0
100
AcDbBlockEnd
  0
BLOCK
  5
75
330
73
100
AcDbEntity
 67
     1
  8
0
100
AcDbBlockBegin
  2
*Paper_Space
 70
     0
 71
     0
 10
0.0
 20
0.0
 30
0.0
  3
*Paper_Space
  1

  0
ENDBLK
  5
76
330
73
100
AcDbEntity
 67
     1
  8
0
100
AcDbBlockEnd
  0
BLOCK
  5
517
330
516
100
AcDbEntity
  8
0
100
AcDbBlockBegin
  2
_Open90
 70
     0
 71
     0
 10
0.0
 20
0.0
 30
0.0
  3
_Open90
  1

  0
LINE
  5
279
330
516
100
AcDbEntity
  8
0
  6
ByBlock
 62
     0
370
    -2
100
AcDbLine
 10
-0.5
 20
0.5
 30
0.0
 11
0.0
 21
0.0
 31
0.0
  0
LINE
  5
27A
330
516
100
AcDbEntity
  8
0
  6
ByBlock
 62
     0
370
    -2
100
AcDbLine
 10
0.0
 20
0.0
 30
0.0
 11
-0.5
 21
-0.5
 31
0.0
  0
LINE
  5
27B
330
516
100
AcDbEntity
  8
0
  6
ByBlock
 62
     0
370
    -2
100
AcDbLine
 10
0.0
 20
0.0
 30
0.0
 11
-1.0
 21
0.0
 31
0.0
  0
ENDBLK
  5
518
330
516
100
AcDbEntity
  8
0
100
AcDbBlockEnd
  0
BLOCK
  5
51F
330
23
100
AcDbEntity
  8
0
100
AcDbBlockBegin
  2
*Paper_Space1
 70
     0
 71
     0
 10
0.0
 20
0.0
 30
0.0
  3
*Paper_Space1
  1

  0
ENDBLK
  5
520
330
23
100
AcDbEntity
  8
0
100
AcDbBlockEnd
  0
BLOCK
  5
521
330
147
100
AcDbEntity
  8
0
100
AcDbBlockBegin
  2
SW_NOTE_0
 70
     0
 71
     0
 10
0.0
 20
0.0
 30
0.0
  3
SW_NOTE_0
  1

  0
MTEXT
  5
14A
330
147
100
AcDbEntity
  8
NOTES
 62
     0
100
AcDbMText
 10
0.0
 20
0.3759780907668229
 30
0.0
 40
0.2916666666666666
 41
0.0
 71
     1
 72
     1
  1
FROST PRODUCTS LTD.
  7
SLDTEXTSTYLE0
 73
     1
 44
1.0
  0
MTEXT
  5
14B
330
147
100
AcDbEntity
  8
NOTES
 62
     0
100
AcDbMText
 10
0.0
 20
-0.0495142708586375
 30
0.0
 40
0.2291666666666666
 41
0.0
 71
     1
 72
     1
  1
5280 JOHN LUCUS DRIVE, BURLINGTON, ON, L7L 5Z9
  7
SLDTEXTSTYLE0
 73
     1
 44
1.0
  0
ENDBLK
  5
522
330
147
100
AcDbEntity
  8
0
100
AcDbBlockEnd
  0
BLOCK
  5
523
330
14D
100
AcDbEntity
  8
0
100
AcDbBlockBegin
  2
SW_NOTE_0_1
 70
     0
 71
     0
 10
0.0
 20
0.0
 30
0.0
  3
SW_NOTE_0_1
  1

  0
MTEXT
  5
151
330
14D
100
AcDbEntity
  8
NOTES
 62
     0
100
AcDbMText
 10
0.0
 20
0.2381282770514712
 30
0.0
 40
0.1847290640394089
 41
0.0
 71
     1
 72
     1
  1
PROPRIETARY AND CONFIDENTIAL
  7
SLDTEXTSTYLE2
 73
     1
 44
1.0
  0
MTEXT
  5
153
330
14D
100
AcDbEntity
  8
NOTES
 62
     0
100
AcDbMText
 10
0.0
 20
-0.0504364795553608
 30
0.0
 40
0.25
 41
0.0
 71
     1
 72
     1
  1
THE INFORMATION CONTAINED IN THIS DRAWING IS THE SOLE PROPERTY OF 
  7
SLDTEXTSTYLE3
 73
     1
 44
1.0
  0
MTEXT
  5
154
330
14D
100
AcDbEntity
  8
NOTES
 62
     0
100
AcDbMText
 10
0.0
 20
-0.4231398940537119
 30
0.0
 40
0.25
 41
0.0
 71
     1
 72
     1
  1
FROST PRODUCTS LTD.  ANY REPRODUCTION IN PART OR AS A WHOLE WITHOUT 
  7
SLDTEXTSTYLE3
 73
     1
 44
1.0
  0
MTEXT
  5
155
330
14D
100
AcDbEntity
  8
NOTES
 62
     0
100
AcDbMText
 10
0.0
 20
-0.7958433085520636
 30
0.0
 40
0.25
 41
0.0
 71
     1
 72
     1
  1
THE WRITTEN PERMISSION OF FROST PRODUCTS LTD. IS PROHIBITED.
  7
SLDTEXTSTYLE3
 73
     1
 44
1.0
  0
ENDBLK
  5
524
330
14D
100
AcDbEntity
  8
0
100
AcDbBlockEnd
  0
BLOCK
  5
525
330
27C
100
AcDbEntity
  8
0
100
AcDbBlockBegin
  2
_D
 70
     0
 71
     0
 10
0.0
 20
0.0
 30
0.0
  3
_D
  1

  0
INSERT
  5
27F
330
27C
100
AcDbEntity
  8
DIMS
100
AcDbBlockReference
  2
_Open90
 10
6.537783050251501
 20
48.95592389063419
 30
0.0
 41
0.7500000000000001
 42
0.7500000000000001
 50
90.00000000000041
  0
INSERT
  5
280
330
27C
100
AcDbEntity
  8
DIMS
100
AcDbBlockReference
  2
_Open90
 10
6.537783050251503
 20
6.955923890634188
 30
0.0
 41
0.7500000000000001
 42
0.7500000000000001
 50
270.0000000000004
  0
LINE
  5
281
330
27C
100
AcDbEntity
  8
DIMS
100
AcDbLine
 10
12.64468095051406
 20
48.95592389063419
 30
0.0
 11
6.1627830502515
 21
48.95592389063419
 31
0.0
  0
LINE
  5
282
330
27C
100
AcDbEntity
  8
DIMS
100
AcDbLine
 10
6.537783050251501
 20
48.95592389063419
 30
0.0
 11
6.537783050251501
 21
39.86467495875863
 31
0.0
  0
LINE
  5
283
330
27C
100
AcDbEntity
  8
DIMS
100
AcDbLine
 10
6.537783050251503
 20
6.955923890634188
 30
0.0
 11
6.537783050251502
 21
16.42196166431637
 31
0.0
  0
MTEXT
  5
284
330
27C
100
AcDbEntity
  8
DIMS
100
AcDbMText
 10
5.579775237751582
 20
16.42196166431637
 30
0.0
 40
0.7500000000000001
 41
0.0
 71
     1
 72
     1
  1
48" (1220mm) Max. height above floor to center 
  7
SLDTEXTSTYLE1
 11
-7.044195017643634E-15
 21
1.0
 31
0.0
 73
     1
 44
1.0
  0
MTEXT
  5
285
330
27C
100
AcDbEntity
  8
DIMS
100
AcDbMText
 10
6.770400236883325
 20
16.42196166431638
 30
0.0
 40
0.7500000000000001
 41
0.0
 71
     1
 72
     1
  1
of inlet door for barrier free mounting
  7
SLDTEXTSTYLE1
 11
-7.044195017643634E-15
 21
1.0
 31
0.0
 73
     1
 44
1.0
  0
ENDBLK
  5
526
330
27C
100
AcDbEntity
  8
0
100
AcDbBlockEnd
  0
BLOCK
  5
527
330
288
100
AcDbEntity
  8
0
100
AcDbBlockBegin
  2
_D_1
 70
     0
 71
     0
 10
0.0
 20
0.0
 30
0.0
  3
_D_1
  1

  0
INSERT
  5
28B
330
288
100
AcDbEntity
  8
DIMS
100
AcDbBlockReference
  2
_Open90
 10
6.537783050251497
 20
48.95592389063417
 30
0.0
 41
0.7500000000000001
 42
0.7500000000000001
 50
270.0000000000006
  0
INSERT
  5
28C
330
288
100
AcDbEntity
  8
DIMS
100
AcDbBlockReference
  2
_Open90
 10
6.537783050251488
 20
52.09842885251317
 30
0.0
 41
0.7500000000000001
 42
0.7500000000000001
 50
90.00000000000057
  0
LINE
  5
28D
330
288
100
AcDbEntity
  8
DIMS
100
AcDbLine
 10
6.273199696740969
 20
50.48909687590501
 30
0.0
 11
7.047158089240908
 21
50.48909687590501
 31
0.0
  0
LINE
  5
28E
330
288
100
AcDbEntity
  8
DIMS
100
AcDbLine
 10
12.64468095051406
 20
48.95592389063419
 30
0.0
 11
6.162783050251497
 21
48.95592389063417
 31
0.0
  0
LINE
  5
28F
330
288
100
AcDbEntity
  8
DIMS
100
AcDbLine
 10
8.50161489226445
 20
52.09842885251318
 30
0.0
 11
6.162783050251488
 21
52.09842885251317
 31
0.0
  0
LINE
  5
290
330
288
100
AcDbEntity
  8
DIMS
100
AcDbLine
 10
6.537783050251497
 20
48.95592389063417
 30
0.0
 11
6.537783050251495
 21
49.4313884563096
 31
0.0
  0
LINE
  5
291
330
288
100
AcDbEntity
  8
DIMS
100
AcDbLine
 10
6.537783050251488
 20
52.09842885251317
 30
0.0
 11
6.537783050251489
 21
51.39295106283765
 31
0.0
  0
MTEXT
  5
292
330
288
100
AcDbEntity
  8
DIMS
100
AcDbMText
 10
5.609137184714442
 20
50.83319846196879
 30
0.0
 40
0.7500000000000001
 41
0.0
 71
     1
 72
     1
  1
3
  7
SLDTEXTSTYLE1
 73
     1
 44
1.0
  0
MTEXT
  5
293
330
288
100
AcDbEntity
  8
DIMS
100
AcDbMText
 10
6.383095558881259
 20
51.3811671967872
 30
0.0
 40
0.7500000000000001
 41
0.0
 71
     1
 72
     1
  1
1
  7
SLDTEXTSTYLE1
 73
     1
 44
1.0
  0
MTEXT
  5
294
330
288
100
AcDbEntity
  8
DIMS
100
AcDbMText
 10
6.383095558881259
 20
50.38939633068388
 30
0.0
 40
0.7500000000000001
 41
0.0
 71
     1
 72
     1
  1
8
  7
SLDTEXTSTYLE1
 73
     1
 44
1.0
  0
MTEXT
  5
295
330
288
100
AcDbEntity
  8
DIMS
100
AcDbMText
 10
7.157053969714319
 20
50.83319846196879
 30
0.0
 40
0.7500000000000001
 41
0.0
 71
     1
 72
     1
  1
"
  7
SLDTEXTSTYLE1
 73
     1
 44
1.0
  0
ENDBLK
  5
528
330
288
100
AcDbEntity
  8
0
100
AcDbBlockEnd
  0
BLOCK
  5
529
330
297
100
AcDbEntity
  8
0
100
AcDbBlockBegin
  2
_D_2
 70
     0
 71
     0
 10
0.0
 20
0.0
 30
0.0
  3
_D_2
  1

  0
INSERT
  5
29A
330
297
100
AcDbEntity
  8
DIMS
100
AcDbBlockReference
  2
_Open90
 10
8.431438245326163
 20
54.58601974031217
 30
5.161860614139235
 41
0.7500000000000001
 42
0.7500000000000001
 50
180.0000000000007
  0
INSERT
  5
29B
330
297
100
AcDbEntity
  8
DIMS
100
AcDbBlockReference
  2
_Open90
 10
30.11143824532616
 20
54.58601974031227
 30
5.161860614139235
 41
0.7500000000000001
 42
0.7500000000000001
 50
0.000000000000687
  0
LINE
  5
29C
330
297
100
AcDbEntity
  8
DIMS
100
AcDbLine
 10
18.92181523175185
 20
54.66294685664361
 30
0.0
 11
20.24994032913739
 21
54.66294685664361
 31
0.0
  0
LINE
  5
29D
330
297
100
AcDbEntity
  8
DIMS
100
AcDbLine
 10
8.431438245326211
 20
44.81521450087665
 30
0.0
 11
8.431438245326161
 21
54.96101974031217
 31
0.0
  0
LINE
  5
29E
330
297
100
AcDbEntity
  8
DIMS
100
AcDbLine
 10
30.11143824532621
 20
44.81521450087676
 30
0.0
 11
30.11143824532616
 21
54.96101974031227
 31
0.0
  0
LINE
  5
29F
330
297
100
AcDbEntity
  8
DIMS
100
AcDbLine
 10
8.431438245326163
 20
54.58601974031217
 30
0.0
 11
17.70358605150596
 21
54.58601974031222
 31
0.0
  0
LINE
  5
2A0
330
297
100
AcDbEntity
  8
DIMS
100
AcDbLine
 10
30.11143824532616
 20
54.58601974031227
 30
0.0
 11
20.66921133901624
 21
54.58601974031222
 31
0.0
  0
MTEXT
  5
2A1
330
297
100
AcDbEntity
  8
DIMS
100
AcDbMText
 10
17.70358605150596
 20
55.00704844270739
 30
0.0
 40
0.7500000000000001
 41
0.0
 71
     1
 72
     1
  1
21
  7
SLDTEXTSTYLE1
 73
     1
 44
1.0
  0
MTEXT
  5
2A2
330
297
100
AcDbEntity
  8
DIMS
100
AcDbMText
 10
19.03171111222526
 20
55.55501717752581
 30
0.0
 40
0.7500000000000001
 41
0.0
 71
     1
 72
     1
  1
11
  7
SLDTEXTSTYLE1
 73
     1
 44
1.0
  0
MTEXT
  5
2A3
330
297
100
AcDbEntity
  8
DIMS
100
AcDbMText
 10
19.03171111222526
 20
54.56324631142249
 30
0.0
 40
0.7500000000000001
 41
0.0
 71
     1
 72
     1
  1
16
  7
SLDTEXTSTYLE1
 73
     1
 44
1.0
  0
MTEXT
  5
2A4
330
297
100
AcDbEntity
  8
DIMS
100
AcDbMText
 10
20.35983624627704
 20
55.00704844270739
 30
0.0
 40
0.7500000000000001
 41
0.0
 71
     1
 72
     1
  1
"
  7
SLDTEXTSTYLE1
 73
     1
 44
1.0
  0
ENDBLK
  5
52A
330
297
100
AcDbEntity
  8
0
100
AcDbBlockEnd
  0
BLOCK
  5
52B
330
306
100
AcDbEntity
  8
0
100
AcDbBlockBegin
  2
_D_3
 70
     0
 71
     0
 10
0.0
 20
0.0
 30
0.0
  3
_D_3
  1

  0
INSERT
  5
309
330
306
100
AcDbEntity
  8
DIMS
100
AcDbBlockReference
  2
_Open90
 10
37.47314951059937
 20
52.11743762241422
 30
0.0425499999998883
 41
0.7500000000000001
 42
0.7500000000000001
 50
90.00000000000041
  0
INSERT
  5
30A
330
306
100
AcDbEntity
  8
DIMS
100
AcDbBlockReference
  2
_Open90
 10
37.47314951059937
 20
13.57514739465246
 30
0.0425499999998883
 41
0.7500000000000001
 42
0.7500000000000001
 50
270.0000000000004
  0
LINE
  5
30B
330
306
100
AcDbEntity
  8
DIMS
100
AcDbLine
 10
37.20856604709012
 20
32.99293314462859
 30
0.0
 11
38.53669114447566
 21
32.99293314462859
 31
0.0
  0
LINE
  5
30C
330
306
100
AcDbEntity
  8
DIMS
100
AcDbLine
 10
45.05750064527923
 20
52.11743762241422
 30
0.0
 11
37.09814951059937
 21
52.11743762241422
 31
0.0
  0
LINE
  5
30D
330
306
100
AcDbEntity
  8
DIMS
100
AcDbLine
 10
39.63681141523663
 20
13.57514739465246
 30
0.0
 11
37.09814951059937
 21
13.57514739465246
 31
0.0
  0
LINE
  5
30E
330
306
100
AcDbEntity
  8
DIMS
100
AcDbLine
 10
37.47314951059937
 20
52.11743762241422
 30
0.0
 11
37.47314951059937
 21
33.89678733156123
 31
0.0
  0
LINE
  5
30F
330
306
100
AcDbEntity
  8
DIMS
100
AcDbLine
 10
37.47314951059937
 20
13.57514739465246
 30
0.0
 11
37.47314951059937
 21
31.93522472503319
 31
0.0
  0
MTEXT
  5
310
330
306
100
AcDbEntity
  8
DIMS
100
AcDbMText
 10
35.99033686684423
 20
33.33703473069237
 30
0.0
 40
0.7500000000000001
 41
0.0
 71
     1
 72
     1
  1
38
  7
SLDTEXTSTYLE1
 73
     1
 44
1.0
  0
MTEXT
  5
311
330
306
100
AcDbEntity
  8
DIMS
100
AcDbMText
 10
37.59554526167321
 20
33.88500346551078
 30
0.0
 40
0.7500000000000001
 41
0.0
 71
     1
 72
     1
  1
9
  7
SLDTEXTSTYLE1
 73
     1
 44
1.0
  0
MTEXT
  5
312
330
306
100
AcDbEntity
  8
DIMS
100
AcDbMText
 10
37.31846192756353
 20
32.89323259940746
 30
0.0
 40
0.7500000000000001
 41
0.0
 71
     1
 72
     1
  1
16
  7
SLDTEXTSTYLE1
 73
     1
 44
1.0
  0
MTEXT
  5
313
330
306
100
AcDbEntity
  8
DIMS
100
AcDbMText
 10
38.64658706161531
 20
33.33703473069237
 30
0.0
 40
0.7500000000000001
 41
0.0
 71
     1
 72
     1
  1
"
  7
SLDTEXTSTYLE1
 73
     1
 44
1.0
  0
ENDBLK
  5
52C
330
306
100
AcDbEntity
  8
0
100
AcDbBlockEnd
  0
BLOCK
  5
52D
330
449
100
AcDbEntity
  8
0
100
AcDbBlockBegin
  2
_D_4
 70
     0
 71
     0
 10
0.0
 20
0.0
 30
0.0
  3
_D_4
  1

  0
INSERT
  5
44C
330
449
100
AcDbEntity
  8
DIMS
100
AcDbBlockReference
  2
_Open90
 10
71.74497500674168
 20
27.58295525158108
 30
-5.161860614139235
 41
0.7500000000000001
 42
0.7500000000000001
 50
75.00000000000236
  0
LINE
  5
44D
330
449
100
AcDbEntity
  8
DIMS
100
AcDbLine
 10
64.69781999313044
 20
10.45002562576244
 30
0.0
 11
66.02594509051598
 21
10.45002562576244
 31
0.0
  0
LINE
  5
44E
330
449
100
AcDbEntity
  8
DIMS
100
AcDbLine
 10
71.74497500674168
 20
27.58295525158108
 30
0.0
 11
67.13360779082721
 21
10.37309850943105
 31
0.0
  0
LINE
  5
44F
330
449
100
AcDbEntity
  8
DIMS
100
AcDbLine
 10
67.13360779082721
 20
10.37309850943105
 30
0.0
 11
66.44521602706234
 21
10.37309850943105
 31
0.0
  0
MTEXT
  5
450
330
449
100
AcDbEntity
  8
DIMS
100
AcDbMText
 10
63.45683038914824
 20
10.78266888252715
 30
0.0
 40
0.7500000000000001
 41
0.0
 71
     1
 72
     1
  1
%%c
  7
SLDTEXTSTYLE1
 73
     1
 44
1.0
  0
MTEXT
  5
451
330
449
100
AcDbEntity
  8
DIMS
100
AcDbMText
 10
65.08479920771353
 20
11.34209594664464
 30
0.0
 40
0.7500000000000001
 41
0.0
 71
     1
 72
     1
  1
3
  7
SLDTEXTSTYLE1
 73
     1
 44
1.0
  0
MTEXT
  5
452
330
449
100
AcDbEntity
  8
DIMS
100
AcDbMText
 10
64.80771587360385
 20
10.35032508054131
 30
0.0
 40
0.7500000000000001
 41
0.0
 71
     1
 72
     1
  1
16
  7
SLDTEXTSTYLE1
 73
     1
 44
1.0
  0
MTEXT
  5
453
330
449
100
AcDbEntity
  8
DIMS
100
AcDbMText
 10
66.13584093432316
 20
10.79412721182622
 30
0.0
 40
0.7500000000000001
 41
0.0
 71
     1
 72
     1
  1
"
  7
SLDTEXTSTYLE1
 73
     1
 44
1.0
  0
ENDBLK
  5
52E
330
449
100
AcDbEntity
  8
0
100
AcDbBlockEnd
  0
BLOCK
  5
52F
330
455
100
AcDbEntity
  8
0
100
AcDbBlockBegin
  2
_D_5
 70
     0
 71
     0
 10
0.0
 20
0.0
 30
0.0
  3
_D_5
  1

  0
INSERT
  5
458
330
455
100
AcDbEntity
  8
DIMS
100
AcDbBlockReference
  2
_Open90
 10
51.42621281676365
 20
38.80454783420998
 30
-5.161860614139235
 41
0.7500000000000001
 42
0.7500000000000001
 50
270.0000000000002
  0
INSERT
  5
459
330
455
100
AcDbEntity
  8
DIMS
100
AcDbBlockReference
  2
_Open90
 10
51.42621281676369
 20
52.11743762241424
 30
-5.161860614139235
 41
0.7500000000000001
 42
0.7500000000000001
 50
90.00000000000027
  0
LINE
  5
45A
330
455
100
AcDbEntity
  8
DIMS
100
AcDbLine
 10
51.16162935325442
 20
45.03419673763647
 30
0.0
 11
52.48975445063996
 21
45.03419673763647
 31
0.0
  0
LINE
  5
45B
330
455
100
AcDbEntity
  8
DIMS
100
AcDbLine
 10
56.60419024458527
 20
38.80454783420998
 30
0.0
 11
51.05121281676365
 21
38.80454783420998
 31
0.0
  0
LINE
  5
45C
330
455
100
AcDbEntity
  8
DIMS
100
AcDbLine
 10
53.4585902445852
 20
52.11743762241422
 30
0.0
 11
51.05121281676369
 21
52.11743762241424
 31
0.0
  0
LINE
  5
45D
330
455
100
AcDbEntity
  8
DIMS
100
AcDbLine
 10
51.42621281676365
 20
38.80454783420998
 30
0.0
 11
51.42621281676367
 21
43.97648831804102
 31
0.0
  0
LINE
  5
45E
330
455
100
AcDbEntity
  8
DIMS
100
AcDbLine
 10
51.42621281676369
 20
52.11743762241424
 30
0.0
 11
51.42621281676368
 21
45.93805092456908
 31
0.0
  0
MTEXT
  5
45F
330
455
100
AcDbEntity
  8
DIMS
100
AcDbMText
 10
49.94340017300853
 20
45.37829832370026
 30
0.0
 40
0.7500000000000001
 41
0.0
 71
     1
 72
     1
  1
13
  7
SLDTEXTSTYLE1
 73
     1
 44
1.0
  0
MTEXT
  5
460
330
455
100
AcDbEntity
  8
DIMS
100
AcDbMText
 10
51.5486085678375
 20
45.92626705851867
 30
0.0
 40
0.7500000000000001
 41
0.0
 71
     1
 72
     1
  1
5
  7
SLDTEXTSTYLE1
 73
     1
 44
1.0
  0
MTEXT
  5
461
330
455
100
AcDbEntity
  8
DIMS
100
AcDbMText
 10
51.27152523372783
 20
44.93449619241535
 30
0.0
 40
0.7500000000000001
 41
0.0
 71
     1
 72
     1
  1
16
  7
SLDTEXTSTYLE1
 73
     1
 44
1.0
  0
MTEXT
  5
462
330
455
100
AcDbEntity
  8
DIMS
100
AcDbMText
 10
52.59965036777961
 20
45.37829832370026
 30
0.0
 40
0.7500000000000001
 41
0.0
 71
     1
 72
     1
  1
"
  7
SLDTEXTSTYLE1
 73
     1
 44
1.0
  0
ENDBLK
  5
530
330
455
100
AcDbEntity
  8
0
100
AcDbBlockEnd
  0
BLOCK
  5
531
330
465
100
AcDbEntity
  8
0
100
AcDbBlockBegin
  2
_D_6
 70
     0
 71
     0
 10
0.0
 20
0.0
 30
0.0
  3
_D_6
  1

  0
INSERT
  5
468
330
465
100
AcDbEntity
  8
DIMS
100
AcDbBlockReference
  2
_Open90
 10
71.77085691125193
 20
53.40491737810742
 30
-5.161860614139235
 41
0.7500000000000001
 42
0.7500000000000001
 50
0.0000000000004071
  0
INSERT
  5
469
330
465
100
AcDbEntity
  8
DIMS
100
AcDbBlockReference
  2
_Open90
 10
56.77085691125193
 20
53.40491737810742
 30
-5.161860614139235
 41
0.7500000000000001
 42
0.7500000000000001
 50
180.0000000000004
  0
LINE
  5
46A
330
465
100
AcDbEntity
  8
DIMS
100
AcDbLine
 10
71.77085691125194
 20
38.97121450087664
 30
0.0
 11
71.77085691125193
 21
53.77991737810742
 31
0.0
  0
LINE
  5
46B
330
465
100
AcDbEntity
  8
DIMS
100
AcDbLine
 10
56.77085691125193
 20
38.97121450087664
 30
0.0
 11
56.77085691125193
 21
53.77991737810742
 31
0.0
  0
LINE
  5
46C
330
465
100
AcDbEntity
  8
DIMS
100
AcDbLine
 10
71.77085691125193
 20
53.40491737810742
 30
0.0
 11
64.74219880277116
 21
53.40491737810742
 31
0.0
  0
LINE
  5
46D
330
465
100
AcDbEntity
  8
DIMS
100
AcDbLine
 10
56.77085691125193
 20
53.40491737810742
 30
0.0
 11
63.32449044692574
 21
53.40491737810742
 31
0.0
  0
MTEXT
  5
46E
330
465
100
AcDbEntity
  8
DIMS
100
AcDbMText
 10
63.32449044692574
 20
53.76761269104155
 30
0.0
 40
0.7500000000000001
 41
0.0
 71
     1
 72
     1
  1
15"
  7
SLDTEXTSTYLE1
 73
     1
 44
1.0
  0
ENDBLK
  5
532
330
465
100
AcDbEntity
  8
0
100
AcDbBlockEnd
  0
BLOCK
  5
533
330
470
100
AcDbEntity
  8
0
100
AcDbBlockBegin
  2
_D_7
 70
     0
 71
     0
 10
0.0
 20
0.0
 30
0.0
  3
_D_7
  1

  0
INSERT
  5
473
330
470
100
AcDbEntity
  8
DIMS
100
AcDbBlockReference
  2
_Open90
 10
51.42621281676366
 20
38.80454783420997
 30
-5.161860614139235
 41
0.7500000000000001
 42
0.7500000000000001
 50
90.00000000000043
  0
INSERT
  5
474
330
470
100
AcDbEntity
  8
DIMS
100
AcDbBlockReference
  2
_Open90
 10
51.42621281676366
 20
27.67954783420997
 30
-5.161860614139235
 41
0.7500000000000001
 42
0.7500000000000001
 50
270.0000000000004
  0
LINE
  5
475
330
470
100
AcDbEntity
  8
DIMS
100
AcDbLine
 10
51.43871285236219
 20
33.31897495054136
 30
0.0
 11
52.21267124486213
 21
33.31897495054136
 31
0.0
  0
LINE
  5
476
330
470
100
AcDbEntity
  8
DIMS
100
AcDbLine
 10
56.60419024458527
 20
38.80454783420998
 30
0.0
 11
51.05121281676366
 21
38.80454783420997
 31
0.0
  0
LINE
  5
477
330
470
100
AcDbEntity
  8
DIMS
100
AcDbLine
 10
56.60419024458527
 20
27.67954783420998
 30
0.0
 11
51.05121281676366
 21
27.67954783420997
 31
0.0
  0
LINE
  5
478
330
470
100
AcDbEntity
  8
DIMS
100
AcDbLine
 10
51.42621281676366
 20
38.80454783420997
 30
0.0
 11
51.42621281676366
 21
34.22282913747397
 31
0.0
  0
LINE
  5
479
330
470
100
AcDbEntity
  8
DIMS
100
AcDbLine
 10
51.42621281676366
 20
27.67954783420997
 30
0.0
 11
51.42621281676366
 21
32.26126653094591
 31
0.0
  0
MTEXT
  5
47A
330
470
100
AcDbEntity
  8
DIMS
100
AcDbMText
 10
50.2204836721163
 20
33.66307653660514
 30
0.0
 40
0.7500000000000001
 41
0.0
 71
     1
 72
     1
  1
11
  7
SLDTEXTSTYLE1
 73
     1
 44
1.0
  0
MTEXT
  5
47B
330
470
100
AcDbEntity
  8
DIMS
100
AcDbMText
 10
51.54860871450248
 20
34.21104527142356
 30
0.0
 40
0.7500000000000001
 41
0.0
 71
     1
 72
     1
  1
1
  7
SLDTEXTSTYLE1
 73
     1
 44
1.0
  0
MTEXT
  5
47C
330
470
100
AcDbEntity
  8
DIMS
100
AcDbMText
 10
51.54860871450248
 20
33.21927440532023
 30
0.0
 40
0.7500000000000001
 41
0.0
 71
     1
 72
     1
  1
8
  7
SLDTEXTSTYLE1
 73
     1
 44
1.0
  0
MTEXT
  5
47D
330
470
100
AcDbEntity
  8
DIMS
100
AcDbMText
 10
52.32256701533681
 20
33.66307653660514
 30
0.0
 40
0.7500000000000001
 41
0.0
 71
     1
 72
     1
  1
"
  7
SLDTEXTSTYLE1
 73
     1
 44
1.0
  0
ENDBLK
  5
534
330
470
100
AcDbEntity
  8
0
100
AcDbBlockEnd
  0
BLOCK
  5
535
330
4FC
100
AcDbEntity
  8
0
100
AcDbBlockBegin
  2
_D_8
 70
     0
 71
     0
 10
0.0
 20
0.0
 30
0.0
  3
_D_8
  1

  0
INSERT
  5
4FF
330
4FC
100
AcDbEntity
  8
DIMS
100
AcDbBlockReference
  2
_Open90
 10
31.68624139493255
 20
61.54382969013522
 30
-25.74827495405623
 41
0.7500000000000001
 42
0.7500000000000001
 50
270.0000000000002
  0
INSERT
  5
500
330
4FC
100
AcDbEntity
  8
DIMS
100
AcDbBlockReference
  2
_Open90
 10
31.68624139493258
 20
69.55708085101614
 30
-25.74827495405623
 41
0.7500000000000001
 42
0.7500000000000001
 50
90.00000000000026
  0
LINE
  5
501
330
4FC
100
AcDbEntity
  8
DIMS
100
AcDbLine
 10
30.19910491199288
 20
61.54382969013523
 30
0.0
 11
32.06124139493256
 21
61.54382969013522
 31
0.0
  0
LINE
  5
502
330
4FC
100
AcDbEntity
  8
DIMS
100
AcDbLine
 10
29.99320491199274
 20
69.55708085101614
 30
0.0
 11
32.06124139493258
 21
69.55708085101614
 31
0.0
  0
LINE
  5
503
330
4FC
100
AcDbEntity
  8
DIMS
100
AcDbLine
 10
31.68624139493255
 20
61.54382969013522
 30
0.0
 11
31.68624139493257
 21
64.85688488141601
 31
0.0
  0
LINE
  5
504
330
4FC
100
AcDbEntity
  8
DIMS
100
AcDbLine
 10
31.68624139493258
 20
69.55708085101614
 30
0.0
 11
31.68624139493257
 21
66.04750988054778
 31
0.0
  0
MTEXT
  5
505
330
4FC
100
AcDbEntity
  8
DIMS
100
AcDbMText
 10
31.25447056945265
 20
65.81489269391624
 30
0.0
 40
0.7500000000000001
 41
0.0
 71
     1
 72
     1
  1
8"
  7
SLDTEXTSTYLE1
 73
     1
 44
1.0
  0
ENDBLK
  5
536
330
4FC
100
AcDbEntity
  8
0
100
AcDbBlockEnd
  0
ENDSEC
  0
SECTION
  2
ENTITIES
  0
LINE
  5
7A
330
1F
100
AcDbEntity
  8
TITLE
370
    50
100
AcDbLine
 10
62.89322302401259
 20
1.48761176446163
 30
0.0
 11
79.87498645119503
 21
1.48761176446163
 31
0.0
  0
LINE
  5
7B
330
1F
100
AcDbEntity
  8
TITLE
370
    50
100
AcDbLine
 10
79.87493174424402
 20
5.475360393555786
 30
0.0
 11
69.68553507231782
 21
5.475360393555786
 31
0.0
  0
LINE
  5
7C
330
1F
100
AcDbEntity
  8
TITLE
  6
SLD-Solid
370
    18
100
AcDbLine
 10
0.5
 20
0.5
 30
0.0
 11
0.5
 21
99.5
 31
0.0
  0
LINE
  5
7D
330
1F
100
AcDbEntity
  8
TITLE
  6
SLD-Solid
370
    18
100
AcDbLine
 10
0.5
 20
99.5
 30
0.0
 11
79.875
 21
99.5
 31
0.0
  0
LINE
  5
7E
330
1F
100
AcDbEntity
  8
TITLE
370
    50
100
AcDbLine
 10
62.89322302401259
 20
2.542787723103441
 30
0.0
 11
55.88097912026432
 21
2.54278772310344
 31
0.0
  0
LINE
  5
7F
330
1F
100
AcDbEntity
  8
TITLE
370
    50
100
AcDbLine
 10
62.89322302401259
 20
1.48761176446163
 30
0.0
 11
55.88097912026432
 21
1.487611764461628
 31
0.0
  0
LINE
  5
80
330
1F
100
AcDbEntity
  8
TITLE
  6
SLD-Solid
370
    18
100
AcDbLine
 10
79.875
 20
99.5
 30
0.0
 11
79.875
 21
0.5
 31
0.0
  0
LINE
  5
81
330
1F
100
AcDbEntity
  8
TITLE
  6
SLD-Solid
370
    18
100
AcDbLine
 10
79.875
 20
0.5
 30
0.0
 11
0.5
 21
0.5
 31
0.0
  0
LINE
  5
82
330
1F
100
AcDbEntity
  8
TITLE
370
    50
100
AcDbLine
 10
62.89322302401259
 20
1.48761176446163
 30
0.0
 11
62.89322302401259
 21
3.597963681745253
 31
0.0
  0
LINE
  5
83
330
1F
100
AcDbEntity
  8
TITLE
370
    50
100
AcDbLine
 10
55.88097912026432
 20
3.597963681745253
 30
0.0
 11
55.88097912026432
 21
0.5
 31
0.0
  0
LINE
  5
84
330
1F
100
AcDbEntity
  8
TITLE
370
    50
100
AcDbLine
 10
55.88097912026432
 20
0.5
 30
0.0
 11
79.875
 21
0.5
 31
0.0
  0
LINE
  5
85
330
1F
100
AcDbEntity
  8
TITLE
370
    50
100
AcDbLine
 10
79.87493174424402
 20
5.475360393555786
 30
0.0
 11
79.875
 21
0.5
 31
0.0
  0
LINE
  5
86
330
1F
100
AcDbEntity
  8
TITLE
  6
SLD-Solid
370
    18
100
AcDbLine
 10
0.4999606299212599
 20
50.0
 30
0.0
 11
0.5000393700787401
 21
50.0
 31
0.0
  0
LINE
  5
87
330
1F
100
AcDbEntity
  8
TITLE
370
    50
100
AcDbLine
 10
62.89322302401259
 20
3.597963681745253
 30
0.0
 11
55.88097912026432
 21
3.597963681745253
 31
0.0
  0
LINE
  5
88
330
1F
100
AcDbEntity
  8
TITLE
370
    50
100
AcDbLine
 10
62.89322302401259
 20
3.597963681745253
 30
0.0
 11
79.87476156426074
 21
3.597964834324628
 31
0.0
  0
LINE
  5
89
330
1F
100
AcDbEntity
  8
TITLE
370
    50
100
AcDbLine
 10
69.68553507231782
 20
5.475360393555786
 30
0.0
 11
69.68553507231782
 21
0.4636772425222311
 31
0.0
  0
LINE
  5
8A
330
1F
100
AcDbEntity
  8
TITLE
  6
SLD-Solid
370
    18
100
AcDbLine
 10
40.1875
 20
99.50003937007874
 30
0.0
 11
40.1875
 21
99.49996062992125
 31
0.0
  0
LINE
  5
8B
330
1F
100
AcDbEntity
  8
TITLE
  6
SLD-Solid
370
    18
100
AcDbLine
 10
79.87503937007874
 20
50.0
 30
0.0
 11
79.87496062992125
 21
50.0
 31
0.0
  0
LINE
  5
8C
330
1F
100
AcDbEntity
  8
TITLE
  6
SLD-Solid
370
    18
100
AcDbLine
 10
40.1875
 20
0.4999606299212599
 30
0.0
 11
40.1875
 21
0.5000393700787401
 31
0.0
  0
LINE
  5
8D
330
1F
100
AcDbEntity
  8
TITLE
  6
SLD-Solid
370
    18
100
AcDbLine
 10
0.5
 20
2.755905511811017
 30
0.0
 11
0.1653543307086614
 21
2.755905511811017
 31
0.0
  0
LINE
  5
8E
330
1F
100
AcDbEntity
  8
TITLE
  6
SLD-Solid
370
    18
100
AcDbLine
 10
79.875
 20
2.755905511811017
 30
0.0
 11
80.20964566929135
 21
2.755905511811017
 31
0.0
  0
LINE
  5
8F
330
1F
100
AcDbEntity
  8
TITLE
  6
SLD-Solid
370
    18
100
AcDbLine
 10
0.5
 20
4.724409448818893
 30
0.0
 11
0.1653543307086614
 21
4.724409448818893
 31
0.0
  0
LINE
  5
90
330
1F
100
AcDbEntity
  8
TITLE
  6
SLD-Solid
370
    18
100
AcDbLine
 10
79.875
 20
4.724409448818893
 30
0.0
 11
80.20964566929135
 21
4.724409448818893
 31
0.0
  0
LINE
  5
91
330
1F
100
AcDbEntity
  8
TITLE
  6
SLD-Solid
370
    18
100
AcDbLine
 10
0.5
 20
6.692913385826769
 30
0.0
 11
0.1653543307086614
 21
6.692913385826769
 31
0.0
  0
LINE
  5
537
330
1F
100
AcDbEntity
  8
TITLE
  6
SLD-Solid
370
    18
100
AcDbLine
 10
79.875
 20
6.692913385826769
 30
0.0
 11
80.20964566929135
 21
6.692913385826769
 31
0.0
  0
LINE
  5
538
330
1F
100
AcDbEntity
  8
TITLE
  6
SLD-Solid
370
    18
100
AcDbLine
 10
0.5
 20
8.661417322834644
 30
0.0
 11
0.1653543307086614
 21
8.661417322834644
 31
0.0
  0
LINE
  5
94
330
1F
100
AcDbEntity
  8
TITLE
  6
SLD-Solid
370
    18
100
AcDbLine
 10
79.875
 20
8.661417322834644
 30
0.0
 11
80.20964566929135
 21
8.661417322834644
 31
0.0
  0
LINE
  5
95
330
1F
100
AcDbEntity
  8
TITLE
  6
SLD-Solid
370
    18
100
AcDbLine
 10
0.5
 20
10.62992125984252
 30
0.0
 11
0.1653543307086614
 21
10.62992125984252
 31
0.0
  0
LINE
  5
96
330
1F
100
AcDbEntity
  8
TITLE
  6
SLD-Solid
370
    18
100
AcDbLine
 10
79.875
 20
10.62992125984252
 30
0.0
 11
80.20964566929135
 21
10.62992125984252
 31
0.0
  0
LINE
  5
539
330
1F
100
AcDbEntity
  8
TITLE
  6
SLD-Solid
370
    18
100
AcDbLine
 10
0.5
 20
12.59842519685039
 30
0.0
 11
0.1653543307086614
 21
12.59842519685039
 31
0.0
  0
LINE
  5
53A
330
1F
100
AcDbEntity
  8
TITLE
  6
SLD-Solid
370
    18
100
AcDbLine
 10
79.875
 20
12.59842519685039
 30
0.0
 11
80.20964566929135
 21
12.59842519685039
 31
0.0
  0
LINE
  5
99
330
1F
100
AcDbEntity
  8
TITLE
  6
SLD-Solid
370
    18
100
AcDbLine
 10
0.5
 20
14.56692913385827
 30
0.0
 11
0.1653543307086614
 21
14.56692913385827
 31
0.0
  0
LINE
  5
9A
330
1F
100
AcDbEntity
  8
TITLE
  6
SLD-Solid
370
    18
100
AcDbLine
 10
79.875
 20
14.56692913385827
 30
0.0
 11
80.20964566929135
 21
14.56692913385827
 31
0.0
  0
LINE
  5
9B
330
1F
100
AcDbEntity
  8
TITLE
  6
SLD-Solid
370
    18
100
AcDbLine
 10
0.5
 20
16.53543307086614
 30
0.0
 11
0.1653543307086614
 21
16.53543307086614
 31
0.0
  0
LINE
  5
9C
330
1F
100
AcDbEntity
  8
TITLE
  6
SLD-Solid
370
    18
100
AcDbLine
 10
79.875
 20
16.53543307086614
 30
0.0
 11
80.20964566929135
 21
16.53543307086614
 31
0.0
  0
LINE
  5
9D
330
1F
100
AcDbEntity
  8
TITLE
  6
SLD-Solid
370
    18
100
AcDbLine
 10
0.5
 20
18.50393700787401
 30
0.0
 11
0.1653543307086614
 21
18.50393700787401
 31
0.0
  0
LINE
  5
9E
330
1F
100
AcDbEntity
  8
TITLE
  6
SLD-Solid
370
    18
100
AcDbLine
 10
79.875
 20
18.50393700787401
 30
0.0
 11
80.20964566929135
 21
18.50393700787401
 31
0.0
  0
LINE
  5
9F
330
1F
100
AcDbEntity
  8
TITLE
  6
SLD-Solid
370
    18
100
AcDbLine
 10
0.5
 20
20.47244094488189
 30
0.0
 11
0.1653543307086614
 21
20.47244094488189
 31
0.0
  0
LINE
  5
A0
330
1F
100
AcDbEntity
  8
TITLE
  6
SLD-Solid
370
    18
100
AcDbLine
 10
79.875
 20
20.47244094488189
 30
0.0
 11
80.20964566929135
 21
20.47244094488189
 31
0.0
  0
LINE
  5
A1
330
1F
100
AcDbEntity
  8
TITLE
  6
SLD-Solid
370
    18
100
AcDbLine
 10
0.5
 20
22.44094488188976
 30
0.0
 11
0.1653543307086614
 21
22.44094488188976
 31
0.0
  0
LINE
  5
A2
330
1F
100
AcDbEntity
  8
TITLE
  6
SLD-Solid
370
    18
100
AcDbLine
 10
79.875
 20
22.44094488188976
 30
0.0
 11
80.20964566929135
 21
22.44094488188976
 31
0.0
  0
LINE
  5
A3
330
1F
100
AcDbEntity
  8
TITLE
  6
SLD-Solid
370
    18
100
AcDbLine
 10
0.5
 20
24.40944881889764
 30
0.0
 11
0.1653543307086614
 21
24.40944881889764
 31
0.0
  0
LINE
  5
A4
330
1F
100
AcDbEntity
  8
TITLE
  6
SLD-Solid
370
    18
100
AcDbLine
 10
79.875
 20
24.40944881889764
 30
0.0
 11
80.20964566929135
 21
24.40944881889764
 31
0.0
  0
LINE
  5
A5
330
1F
100
AcDbEntity
  8
TITLE
  6
SLD-Solid
370
    18
100
AcDbLine
 10
0.5
 20
26.37795275590551
 30
0.0
 11
0.1653543307086614
 21
26.37795275590551
 31
0.0
  0
LINE
  5
A6
330
1F
100
AcDbEntity
  8
TITLE
  6
SLD-Solid
370
    18
100
AcDbLine
 10
79.875
 20
26.37795275590551
 30
0.0
 11
80.20964566929135
 21
26.37795275590551
 31
0.0
  0
LINE
  5
A7
330
1F
100
AcDbEntity
  8
TITLE
  6
SLD-Solid
370
    18
100
AcDbLine
 10
0.5
 20
28.34645669291339
 30
0.0
 11
0.1653543307086614
 21
28.34645669291339
 31
0.0
  0
LINE
  5
A8
330
1F
100
AcDbEntity
  8
TITLE
  6
SLD-Solid
370
    18
100
AcDbLine
 10
79.875
 20
28.34645669291339
 30
0.0
 11
80.20964566929135
 21
28.34645669291339
 31
0.0
  0
LINE
  5
A9
330
1F
100
AcDbEntity
  8
TITLE
  6
SLD-Solid
370
    18
100
AcDbLine
 10
0.5
 20
30.31496062992126
 30
0.0
 11
0.1653543307086614
 21
30.31496062992126
 31
0.0
  0
LINE
  5
AA
330
1F
100
AcDbEntity
  8
TITLE
  6
SLD-Solid
370
    18
100
AcDbLine
 10
79.875
 20
30.31496062992126
 30
0.0
 11
80.20964566929135
 21
30.31496062992126
 31
0.0
  0
LINE
  5
AB
330
1F
100
AcDbEntity
  8
TITLE
  6
SLD-Solid
370
    18
100
AcDbLine
 10
0.5
 20
32.28346456692914
 30
0.0
 11
0.1653543307086614
 21
32.28346456692914
 31
0.0
  0
LINE
  5
AC
330
1F
100
AcDbEntity
  8
TITLE
  6
SLD-Solid
370
    18
100
AcDbLine
 10
79.875
 20
32.28346456692914
 30
0.0
 11
80.20964566929135
 21
32.28346456692914
 31
0.0
  0
LINE
  5
AD
330
1F
100
AcDbEntity
  8
TITLE
  6
SLD-Solid
370
    18
100
AcDbLine
 10
0.5
 20
34.25196850393701
 30
0.0
 11
0.1653543307086614
 21
34.25196850393701
 31
0.0
  0
LINE
  5
AE
330
1F
100
AcDbEntity
  8
TITLE
  6
SLD-Solid
370
    18
100
AcDbLine
 10
79.875
 20
34.25196850393701
 30
0.0
 11
80.20964566929135
 21
34.25196850393701
 31
0.0
  0
LINE
  5
AF
330
1F
100
AcDbEntity
  8
TITLE
  6
SLD-Solid
370
    18
100
AcDbLine
 10
0.5
 20
36.22047244094488
 30
0.0
 11
0.1653543307086614
 21
36.22047244094488
 31
0.0
  0
LINE
  5
B0
330
1F
100
AcDbEntity
  8
TITLE
  6
SLD-Solid
370
    18
100
AcDbLine
 10
79.875
 20
36.22047244094488
 30
0.0
 11
80.20964566929135
 21
36.22047244094488
 31
0.0
  0
LINE
  5
B1
330
1F
100
AcDbEntity
  8
TITLE
  6
SLD-Solid
370
    18
100
AcDbLine
 10
0.5
 20
38.18897637795276
 30
0.0
 11
0.1653543307086614
 21
38.18897637795276
 31
0.0
  0
LINE
  5
B2
330
1F
100
AcDbEntity
  8
TITLE
  6
SLD-Solid
370
    18
100
AcDbLine
 10
79.875
 20
38.18897637795276
 30
0.0
 11
80.20964566929135
 21
38.18897637795276
 31
0.0
  0
LINE
  5
B3
330
1F
100
AcDbEntity
  8
TITLE
  6
SLD-Solid
370
    18
100
AcDbLine
 10
0.5
 20
40.15748031496063
 30
0.0
 11
0.1653543307086614
 21
40.15748031496063
 31
0.0
  0
LINE
  5
B4
330
1F
100
AcDbEntity
  8
TITLE
  6
SLD-Solid
370
    18
100
AcDbLine
 10
79.875
 20
40.15748031496063
 30
0.0
 11
80.20964566929135
 21
40.15748031496063
 31
0.0
  0
LINE
  5
B5
330
1F
100
AcDbEntity
  8
TITLE
  6
SLD-Solid
370
    18
100
AcDbLine
 10
0.5
 20
42.12598425196851
 30
0.0
 11
0.1653543307086614
 21
42.12598425196851
 31
0.0
  0
LINE
  5
B6
330
1F
100
AcDbEntity
  8
TITLE
  6
SLD-Solid
370
    18
100
AcDbLine
 10
79.875
 20
42.12598425196851
 30
0.0
 11
80.20964566929135
 21
42.12598425196851
 31
0.0
  0
LINE
  5
B7
330
1F
100
AcDbEntity
  8
TITLE
  6
SLD-Solid
370
    18
100
AcDbLine
 10
0.5
 20
44.09448818897638
 30
0.0
 11
0.1653543307086614
 21
44.09448818897638
 31
0.0
  0
LINE
  5
B8
330
1F
100
AcDbEntity
  8
TITLE
  6
SLD-Solid
370
    18
100
AcDbLine
 10
79.875
 20
44.09448818897638
 30
0.0
 11
80.20964566929135
 21
44.09448818897638
 31
0.0
  0
LINE
  5
B9
330
1F
100
AcDbEntity
  8
TITLE
  6
SLD-Solid
370
    18
100
AcDbLine
 10
0.5
 20
46.06299212598425
 30
0.0
 11
0.1653543307086614
 21
46.06299212598425
 31
0.0
  0
LINE
  5
BA
330
1F
100
AcDbEntity
  8
TITLE
  6
SLD-Solid
370
    18
100
AcDbLine
 10
79.875
 20
46.06299212598425
 30
0.0
 11
80.20964566929135
 21
46.06299212598425
 31
0.0
  0
LINE
  5
BB
330
1F
100
AcDbEntity
  8
TITLE
  6
SLD-Solid
370
    18
100
AcDbLine
 10
0.5
 20
48.03149606299213
 30
0.0
 11
0.1653543307086614
 21
48.03149606299213
 31
0.0
  0
LINE
  5
BC
330
1F
100
AcDbEntity
  8
TITLE
  6
SLD-Solid
370
    18
100
AcDbLine
 10
79.875
 20
48.03149606299213
 30
0.0
 11
80.20964566929135
 21
48.03149606299213
 31
0.0
  0
LINE
  5
BD
330
1F
100
AcDbEntity
  8
TITLE
  6
SLD-Solid
370
    18
100
AcDbLine
 10
0.5
 20
50.0
 30
0.0
 11
0.1653543307086614
 21
50.0
 31
0.0
  0
LINE
  5
BE
330
1F
100
AcDbEntity
  8
TITLE
  6
SLD-Solid
370
    18
100
AcDbLine
 10
79.875
 20
50.0
 30
0.0
 11
80.20964566929135
 21
50.0
 31
0.0
  0
LINE
  5
BF
330
1F
100
AcDbEntity
  8
TITLE
  6
SLD-Solid
370
    18
100
AcDbLine
 10
0.5
 20
51.96850393700788
 30
0.0
 11
0.1653543307086614
 21
51.96850393700788
 31
0.0
  0
LINE
  5
C0
330
1F
100
AcDbEntity
  8
TITLE
  6
SLD-Solid
370
    18
100
AcDbLine
 10
79.875
 20
51.96850393700788
 30
0.0
 11
80.20964566929135
 21
51.96850393700788
 31
0.0
  0
LINE
  5
C1
330
1F
100
AcDbEntity
  8
TITLE
  6
SLD-Solid
370
    18
100
AcDbLine
 10
0.5
 20
53.93700787401576
 30
0.0
 11
0.1653543307086614
 21
53.93700787401576
 31
0.0
  0
LINE
  5
C2
330
1F
100
AcDbEntity
  8
TITLE
  6
SLD-Solid
370
    18
100
AcDbLine
 10
79.875
 20
53.93700787401576
 30
0.0
 11
80.20964566929135
 21
53.93700787401576
 31
0.0
  0
LINE
  5
C3
330
1F
100
AcDbEntity
  8
TITLE
  6
SLD-Solid
370
    18
100
AcDbLine
 10
0.5
 20
55.90551181102362
 30
0.0
 11
0.1653543307086614
 21
55.90551181102362
 31
0.0
  0
LINE
  5
C4
330
1F
100
AcDbEntity
  8
TITLE
  6
SLD-Solid
370
    18
100
AcDbLine
 10
79.875
 20
55.90551181102362
 30
0.0
 11
80.20964566929135
 21
55.90551181102362
 31
0.0
  0
LINE
  5
C5
330
1F
100
AcDbEntity
  8
TITLE
  6
SLD-Solid
370
    18
100
AcDbLine
 10
0.5
 20
57.8740157480315
 30
0.0
 11
0.1653543307086614
 21
57.8740157480315
 31
0.0
  0
LINE
  5
C6
330
1F
100
AcDbEntity
  8
TITLE
  6
SLD-Solid
370
    18
100
AcDbLine
 10
79.875
 20
57.8740157480315
 30
0.0
 11
80.20964566929135
 21
57.8740157480315
 31
0.0
  0
LINE
  5
C7
330
1F
100
AcDbEntity
  8
TITLE
  6
SLD-Solid
370
    18
100
AcDbLine
 10
0.5
 20
59.84251968503937
 30
0.0
 11
0.1653543307086614
 21
59.84251968503937
 31
0.0
  0
LINE
  5
C8
330
1F
100
AcDbEntity
  8
TITLE
  6
SLD-Solid
370
    18
100
AcDbLine
 10
79.875
 20
59.84251968503937
 30
0.0
 11
80.20964566929135
 21
59.84251968503937
 31
0.0
  0
LINE
  5
C9
330
1F
100
AcDbEntity
  8
TITLE
  6
SLD-Solid
370
    18
100
AcDbLine
 10
0.5
 20
61.81102362204725
 30
0.0
 11
0.1653543307086614
 21
61.81102362204725
 31
0.0
  0
LINE
  5
CA
330
1F
100
AcDbEntity
  8
TITLE
  6
SLD-Solid
370
    18
100
AcDbLine
 10
79.875
 20
61.81102362204725
 30
0.0
 11
80.20964566929135
 21
61.81102362204725
 31
0.0
  0
LINE
  5
CB
330
1F
100
AcDbEntity
  8
TITLE
  6
SLD-Solid
370
    18
100
AcDbLine
 10
0.5
 20
63.77952755905513
 30
0.0
 11
0.1653543307086614
 21
63.77952755905513
 31
0.0
  0
LINE
  5
CC
330
1F
100
AcDbEntity
  8
TITLE
  6
SLD-Solid
370
    18
100
AcDbLine
 10
79.875
 20
63.77952755905513
 30
0.0
 11
80.20964566929135
 21
63.77952755905513
 31
0.0
  0
LINE
  5
CD
330
1F
100
AcDbEntity
  8
TITLE
  6
SLD-Solid
370
    18
100
AcDbLine
 10
0.5
 20
65.74803149606299
 30
0.0
 11
0.1653543307086614
 21
65.74803149606299
 31
0.0
  0
LINE
  5
CE
330
1F
100
AcDbEntity
  8
TITLE
  6
SLD-Solid
370
    18
100
AcDbLine
 10
79.875
 20
65.74803149606299
 30
0.0
 11
80.20964566929135
 21
65.74803149606299
 31
0.0
  0
LINE
  5
CF
330
1F
100
AcDbEntity
  8
TITLE
  6
SLD-Solid
370
    18
100
AcDbLine
 10
0.5
 20
67.71653543307087
 30
0.0
 11
0.1653543307086614
 21
67.71653543307087
 31
0.0
  0
LINE
  5
D0
330
1F
100
AcDbEntity
  8
TITLE
  6
SLD-Solid
370
    18
100
AcDbLine
 10
79.875
 20
67.71653543307087
 30
0.0
 11
80.20964566929135
 21
67.71653543307087
 31
0.0
  0
LINE
  5
D1
330
1F
100
AcDbEntity
  8
TITLE
  6
SLD-Solid
370
    18
100
AcDbLine
 10
0.5
 20
69.68503937007874
 30
0.0
 11
0.1653543307086614
 21
69.68503937007874
 31
0.0
  0
LINE
  5
D2
330
1F
100
AcDbEntity
  8
TITLE
  6
SLD-Solid
370
    18
100
AcDbLine
 10
79.875
 20
69.68503937007874
 30
0.0
 11
80.20964566929135
 21
69.68503937007874
 31
0.0
  0
LINE
  5
D3
330
1F
100
AcDbEntity
  8
TITLE
  6
SLD-Solid
370
    18
100
AcDbLine
 10
0.5
 20
71.65354330708662
 30
0.0
 11
0.1653543307086614
 21
71.65354330708662
 31
0.0
  0
LINE
  5
D4
330
1F
100
AcDbEntity
  8
TITLE
  6
SLD-Solid
370
    18
100
AcDbLine
 10
79.875
 20
71.65354330708662
 30
0.0
 11
80.20964566929135
 21
71.65354330708662
 31
0.0
  0
LINE
  5
D5
330
1F
100
AcDbEntity
  8
TITLE
  6
SLD-Solid
370
    18
100
AcDbLine
 10
0.5
 20
73.62204724409449
 30
0.0
 11
0.1653543307086614
 21
73.62204724409449
 31
0.0
  0
LINE
  5
D6
330
1F
100
AcDbEntity
  8
TITLE
  6
SLD-Solid
370
    18
100
AcDbLine
 10
79.875
 20
73.62204724409449
 30
0.0
 11
80.20964566929135
 21
73.62204724409449
 31
0.0
  0
LINE
  5
D7
330
1F
100
AcDbEntity
  8
TITLE
  6
SLD-Solid
370
    18
100
AcDbLine
 10
0.5
 20
75.59055118110236
 30
0.0
 11
0.1653543307086614
 21
75.59055118110236
 31
0.0
  0
LINE
  5
D8
330
1F
100
AcDbEntity
  8
TITLE
  6
SLD-Solid
370
    18
100
AcDbLine
 10
79.875
 20
75.59055118110236
 30
0.0
 11
80.20964566929135
 21
75.59055118110236
 31
0.0
  0
LINE
  5
D9
330
1F
100
AcDbEntity
  8
TITLE
  6
SLD-Solid
370
    18
100
AcDbLine
 10
0.5
 20
77.55905511811025
 30
0.0
 11
0.1653543307086614
 21
77.55905511811025
 31
0.0
  0
LINE
  5
DA
330
1F
100
AcDbEntity
  8
TITLE
  6
SLD-Solid
370
    18
100
AcDbLine
 10
79.875
 20
77.55905511811025
 30
0.0
 11
80.20964566929135
 21
77.55905511811025
 31
0.0
  0
LINE
  5
DB
330
1F
100
AcDbEntity
  8
TITLE
  6
SLD-Solid
370
    18
100
AcDbLine
 10
0.5
 20
79.52755905511812
 30
0.0
 11
0.1653543307086614
 21
79.52755905511812
 31
0.0
  0
LINE
  5
DC
330
1F
100
AcDbEntity
  8
TITLE
  6
SLD-Solid
370
    18
100
AcDbLine
 10
79.875
 20
79.52755905511812
 30
0.0
 11
80.20964566929135
 21
79.52755905511812
 31
0.0
  0
LINE
  5
DD
330
1F
100
AcDbEntity
  8
TITLE
  6
SLD-Solid
370
    18
100
AcDbLine
 10
0.5
 20
81.496062992126
 30
0.0
 11
0.1653543307086614
 21
81.496062992126
 31
0.0
  0
LINE
  5
DE
330
1F
100
AcDbEntity
  8
TITLE
  6
SLD-Solid
370
    18
100
AcDbLine
 10
79.875
 20
81.496062992126
 30
0.0
 11
80.20964566929135
 21
81.496062992126
 31
0.0
  0
LINE
  5
DF
330
1F
100
AcDbEntity
  8
TITLE
  6
SLD-Solid
370
    18
100
AcDbLine
 10
0.5
 20
83.46456692913387
 30
0.0
 11
0.1653543307086614
 21
83.46456692913387
 31
0.0
  0
LINE
  5
E0
330
1F
100
AcDbEntity
  8
TITLE
  6
SLD-Solid
370
    18
100
AcDbLine
 10
79.875
 20
83.46456692913387
 30
0.0
 11
80.20964566929135
 21
83.46456692913387
 31
0.0
  0
LINE
  5
E1
330
1F
100
AcDbEntity
  8
TITLE
  6
SLD-Solid
370
    18
100
AcDbLine
 10
0.5
 20
85.43307086614173
 30
0.0
 11
0.1653543307086614
 21
85.43307086614173
 31
0.0
  0
LINE
  5
E2
330
1F
100
AcDbEntity
  8
TITLE
  6
SLD-Solid
370
    18
100
AcDbLine
 10
79.875
 20
85.43307086614173
 30
0.0
 11
80.20964566929135
 21
85.43307086614173
 31
0.0
  0
LINE
  5
E3
330
1F
100
AcDbEntity
  8
TITLE
  6
SLD-Solid
370
    18
100
AcDbLine
 10
0.5
 20
87.40157480314961
 30
0.0
 11
0.1653543307086614
 21
87.40157480314961
 31
0.0
  0
LINE
  5
E4
330
1F
100
AcDbEntity
  8
TITLE
  6
SLD-Solid
370
    18
100
AcDbLine
 10
79.875
 20
87.40157480314961
 30
0.0
 11
80.20964566929135
 21
87.40157480314961
 31
0.0
  0
LINE
  5
E5
330
1F
100
AcDbEntity
  8
TITLE
  6
SLD-Solid
370
    18
100
AcDbLine
 10
0.5
 20
89.37007874015748
 30
0.0
 11
0.1653543307086614
 21
89.37007874015748
 31
0.0
  0
LINE
  5
E6
330
1F
100
AcDbEntity
  8
TITLE
  6
SLD-Solid
370
    18
100
AcDbLine
 10
79.875
 20
89.37007874015748
 30
0.0
 11
80.20964566929135
 21
89.37007874015748
 31
0.0
  0
LINE
  5
E7
330
1F
100
AcDbEntity
  8
TITLE
  6
SLD-Solid
370
    18
100
AcDbLine
 10
0.5
 20
91.33858267716536
 30
0.0
 11
0.1653543307086614
 21
91.33858267716536
 31
0.0
  0
LINE
  5
E8
330
1F
100
AcDbEntity
  8
TITLE
  6
SLD-Solid
370
    18
100
AcDbLine
 10
79.875
 20
91.33858267716536
 30
0.0
 11
80.20964566929135
 21
91.33858267716536
 31
0.0
  0
LINE
  5
E9
330
1F
100
AcDbEntity
  8
TITLE
  6
SLD-Solid
370
    18
100
AcDbLine
 10
0.5
 20
93.30708661417323
 30
0.0
 11
0.1653543307086614
 21
93.30708661417323
 31
0.0
  0
LINE
  5
EA
330
1F
100
AcDbEntity
  8
TITLE
  6
SLD-Solid
370
    18
100
AcDbLine
 10
79.875
 20
93.30708661417323
 30
0.0
 11
80.20964566929135
 21
93.30708661417323
 31
0.0
  0
LINE
  5
EB
330
1F
100
AcDbEntity
  8
TITLE
  6
SLD-Solid
370
    18
100
AcDbLine
 10
0.5
 20
95.2755905511811
 30
0.0
 11
0.1653543307086614
 21
95.2755905511811
 31
0.0
  0
LINE
  5
EC
330
1F
100
AcDbEntity
  8
TITLE
  6
SLD-Solid
370
    18
100
AcDbLine
 10
79.875
 20
95.2755905511811
 30
0.0
 11
80.20964566929135
 21
95.2755905511811
 31
0.0
  0
LINE
  5
ED
330
1F
100
AcDbEntity
  8
TITLE
  6
SLD-Solid
370
    18
100
AcDbLine
 10
0.5
 20
97.24409448818899
 30
0.0
 11
0.1653543307086614
 21
97.24409448818899
 31
0.0
  0
LINE
  5
EE
330
1F
100
AcDbEntity
  8
TITLE
  6
SLD-Solid
370
    18
100
AcDbLine
 10
79.875
 20
97.24409448818899
 30
0.0
 11
80.20964566929135
 21
97.24409448818899
 31
0.0
  0
LINE
  5
EF
330
1F
100
AcDbEntity
  8
TITLE
  6
SLD-Solid
370
    18
100
AcDbLine
 10
2.785925196850392
 20
99.5
 30
0.0
 11
2.785925196850392
 21
99.83464566929135
 31
0.0
  0
LINE
  5
F0
330
1F
100
AcDbEntity
  8
TITLE
  6
SLD-Solid
370
    18
100
AcDbLine
 10
2.785925196850392
 20
0.5
 30
0.0
 11
2.785925196850392
 21
0.1653543307086614
 31
0.0
  0
LINE
  5
F1
330
1F
100
AcDbEntity
  8
TITLE
  6
SLD-Solid
370
    18
100
AcDbLine
 10
4.754429133858268
 20
99.5
 30
0.0
 11
4.754429133858268
 21
99.83464566929135
 31
0.0
  0
LINE
  5
F2
330
1F
100
AcDbEntity
  8
TITLE
  6
SLD-Solid
370
    18
100
AcDbLine
 10
4.754429133858268
 20
0.5
 30
0.0
 11
4.754429133858268
 21
0.1653543307086614
 31
0.0
  0
LINE
  5
F3
330
1F
100
AcDbEntity
  8
TITLE
  6
SLD-Solid
370
    18
100
AcDbLine
 10
6.722933070866139
 20
99.5
 30
0.0
 11
6.722933070866139
 21
99.83464566929135
 31
0.0
  0
LINE
  5
F4
330
1F
100
AcDbEntity
  8
TITLE
  6
SLD-Solid
370
    18
100
AcDbLine
 10
6.722933070866139
 20
0.5
 30
0.0
 11
6.722933070866139
 21
0.1653543307086614
 31
0.0
  0
LINE
  5
F5
330
1F
100
AcDbEntity
  8
TITLE
  6
SLD-Solid
370
    18
100
AcDbLine
 10
8.691437007874015
 20
99.5
 30
0.0
 11
8.691437007874015
 21
99.83464566929135
 31
0.0
  0
LINE
  5
F6
330
1F
100
AcDbEntity
  8
TITLE
  6
SLD-Solid
370
    18
100
AcDbLine
 10
8.691437007874015
 20
0.5
 30
0.0
 11
8.691437007874015
 21
0.1653543307086614
 31
0.0
  0
LINE
  5
F7
330
1F
100
AcDbEntity
  8
TITLE
  6
SLD-Solid
370
    18
100
AcDbLine
 10
10.65994094488189
 20
99.5
 30
0.0
 11
10.65994094488189
 21
99.83464566929135
 31
0.0
  0
LINE
  5
F8
330
1F
100
AcDbEntity
  8
TITLE
  6
SLD-Solid
370
    18
100
AcDbLine
 10
10.65994094488189
 20
0.5
 30
0.0
 11
10.65994094488189
 21
0.1653543307086614
 31
0.0
  0
LINE
  5
F9
330
1F
100
AcDbEntity
  8
TITLE
  6
SLD-Solid
370
    18
100
AcDbLine
 10
12.62844488188976
 20
99.5
 30
0.0
 11
12.62844488188976
 21
99.83464566929135
 31
0.0
  0
LINE
  5
FA
330
1F
100
AcDbEntity
  8
TITLE
  6
SLD-Solid
370
    18
100
AcDbLine
 10
12.62844488188976
 20
0.5
 30
0.0
 11
12.62844488188976
 21
0.1653543307086614
 31
0.0
  0
LINE
  5
FB
330
1F
100
AcDbEntity
  8
TITLE
  6
SLD-Solid
370
    18
100
AcDbLine
 10
14.59694881889764
 20
99.5
 30
0.0
 11
14.59694881889764
 21
99.83464566929135
 31
0.0
  0
LINE
  5
FC
330
1F
100
AcDbEntity
  8
TITLE
  6
SLD-Solid
370
    18
100
AcDbLine
 10
14.59694881889764
 20
0.5
 30
0.0
 11
14.59694881889764
 21
0.1653543307086614
 31
0.0
  0
LINE
  5
FD
330
1F
100
AcDbEntity
  8
TITLE
  6
SLD-Solid
370
    18
100
AcDbLine
 10
16.56545275590551
 20
99.5
 30
0.0
 11
16.56545275590551
 21
99.83464566929135
 31
0.0
  0
LINE
  5
FE
330
1F
100
AcDbEntity
  8
TITLE
  6
SLD-Solid
370
    18
100
AcDbLine
 10
16.56545275590551
 20
0.5
 30
0.0
 11
16.56545275590551
 21
0.1653543307086614
 31
0.0
  0
LINE
  5
FF
330
1F
100
AcDbEntity
  8
TITLE
  6
SLD-Solid
370
    18
100
AcDbLine
 10
18.53395669291339
 20
99.5
 30
0.0
 11
18.53395669291339
 21
99.83464566929135
 31
0.0
  0
LINE
  5
100
330
1F
100
AcDbEntity
  8
TITLE
  6
SLD-Solid
370
    18
100
AcDbLine
 10
18.53395669291339
 20
0.5
 30
0.0
 11
18.53395669291339
 21
0.1653543307086614
 31
0.0
  0
LINE
  5
101
330
1F
100
AcDbEntity
  8
TITLE
  6
SLD-Solid
370
    18
100
AcDbLine
 10
20.50246062992126
 20
99.5
 30
0.0
 11
20.50246062992126
 21
99.83464566929135
 31
0.0
  0
LINE
  5
102
330
1F
100
AcDbEntity
  8
TITLE
  6
SLD-Solid
370
    18
100
AcDbLine
 10
20.50246062992126
 20
0.5
 30
0.0
 11
20.50246062992126
 21
0.1653543307086614
 31
0.0
  0
LINE
  5
103
330
1F
100
AcDbEntity
  8
TITLE
  6
SLD-Solid
370
    18
100
AcDbLine
 10
22.47096456692914
 20
99.5
 30
0.0
 11
22.47096456692914
 21
99.83464566929135
 31
0.0
  0
LINE
  5
104
330
1F
100
AcDbEntity
  8
TITLE
  6
SLD-Solid
370
    18
100
AcDbLine
 10
22.47096456692914
 20
0.5
 30
0.0
 11
22.47096456692914
 21
0.1653543307086614
 31
0.0
  0
LINE
  5
105
330
1F
100
AcDbEntity
  8
TITLE
  6
SLD-Solid
370
    18
100
AcDbLine
 10
24.43946850393701
 20
99.5
 30
0.0
 11
24.43946850393701
 21
99.83464566929135
 31
0.0
  0
LINE
  5
106
330
1F
100
AcDbEntity
  8
TITLE
  6
SLD-Solid
370
    18
100
AcDbLine
 10
24.43946850393701
 20
0.5
 30
0.0
 11
24.43946850393701
 21
0.1653543307086614
 31
0.0
  0
LINE
  5
107
330
1F
100
AcDbEntity
  8
TITLE
  6
SLD-Solid
370
    18
100
AcDbLine
 10
26.40797244094488
 20
99.5
 30
0.0
 11
26.40797244094488
 21
99.83464566929135
 31
0.0
  0
LINE
  5
108
330
1F
100
AcDbEntity
  8
TITLE
  6
SLD-Solid
370
    18
100
AcDbLine
 10
26.40797244094488
 20
0.5
 30
0.0
 11
26.40797244094488
 21
0.1653543307086614
 31
0.0
  0
LINE
  5
109
330
1F
100
AcDbEntity
  8
TITLE
  6
SLD-Solid
370
    18
100
AcDbLine
 10
28.37647637795276
 20
99.5
 30
0.0
 11
28.37647637795276
 21
99.83464566929135
 31
0.0
  0
LINE
  5
10A
330
1F
100
AcDbEntity
  8
TITLE
  6
SLD-Solid
370
    18
100
AcDbLine
 10
28.37647637795276
 20
0.5
 30
0.0
 11
28.37647637795276
 21
0.1653543307086614
 31
0.0
  0
LINE
  5
10B
330
1F
100
AcDbEntity
  8
TITLE
  6
SLD-Solid
370
    18
100
AcDbLine
 10
30.34498031496063
 20
99.5
 30
0.0
 11
30.34498031496063
 21
99.83464566929135
 31
0.0
  0
LINE
  5
10C
330
1F
100
AcDbEntity
  8
TITLE
  6
SLD-Solid
370
    18
100
AcDbLine
 10
30.34498031496063
 20
0.5
 30
0.0
 11
30.34498031496063
 21
0.1653543307086614
 31
0.0
  0
LINE
  5
10D
330
1F
100
AcDbEntity
  8
TITLE
  6
SLD-Solid
370
    18
100
AcDbLine
 10
32.31348425196851
 20
99.5
 30
0.0
 11
32.31348425196851
 21
99.83464566929135
 31
0.0
  0
LINE
  5
10E
330
1F
100
AcDbEntity
  8
TITLE
  6
SLD-Solid
370
    18
100
AcDbLine
 10
32.31348425196851
 20
0.5
 30
0.0
 11
32.31348425196851
 21
0.1653543307086614
 31
0.0
  0
LINE
  5
10F
330
1F
100
AcDbEntity
  8
TITLE
  6
SLD-Solid
370
    18
100
AcDbLine
 10
34.28198818897638
 20
99.5
 30
0.0
 11
34.28198818897638
 21
99.83464566929135
 31
0.0
  0
LINE
  5
110
330
1F
100
AcDbEntity
  8
TITLE
  6
SLD-Solid
370
    18
100
AcDbLine
 10
34.28198818897638
 20
0.5
 30
0.0
 11
34.28198818897638
 21
0.1653543307086614
 31
0.0
  0
LINE
  5
111
330
1F
100
AcDbEntity
  8
TITLE
  6
SLD-Solid
370
    18
100
AcDbLine
 10
36.25049212598425
 20
99.5
 30
0.0
 11
36.25049212598425
 21
99.83464566929135
 31
0.0
  0
LINE
  5
112
330
1F
100
AcDbEntity
  8
TITLE
  6
SLD-Solid
370
    18
100
AcDbLine
 10
36.25049212598425
 20
0.5
 30
0.0
 11
36.25049212598425
 21
0.1653543307086614
 31
0.0
  0
LINE
  5
113
330
1F
100
AcDbEntity
  8
TITLE
  6
SLD-Solid
370
    18
100
AcDbLine
 10
38.21899606299213
 20
99.5
 30
0.0
 11
38.21899606299213
 21
99.83464566929135
 31
0.0
  0
LINE
  5
114
330
1F
100
AcDbEntity
  8
TITLE
  6
SLD-Solid
370
    18
100
AcDbLine
 10
38.21899606299213
 20
0.5
 30
0.0
 11
38.21899606299213
 21
0.1653543307086614
 31
0.0
  0
LINE
  5
115
330
1F
100
AcDbEntity
  8
TITLE
  6
SLD-Solid
370
    18
100
AcDbLine
 10
40.1875
 20
99.5
 30
0.0
 11
40.1875
 21
99.83464566929135
 31
0.0
  0
LINE
  5
116
330
1F
100
AcDbEntity
  8
TITLE
  6
SLD-Solid
370
    18
100
AcDbLine
 10
40.1875
 20
0.5
 30
0.0
 11
40.1875
 21
0.1653543307086614
 31
0.0
  0
LINE
  5
117
330
1F
100
AcDbEntity
  8
TITLE
  6
SLD-Solid
370
    18
100
AcDbLine
 10
42.15600393700788
 20
99.5
 30
0.0
 11
42.15600393700788
 21
99.83464566929135
 31
0.0
  0
LINE
  5
118
330
1F
100
AcDbEntity
  8
TITLE
  6
SLD-Solid
370
    18
100
AcDbLine
 10
42.15600393700788
 20
0.5
 30
0.0
 11
42.15600393700788
 21
0.1653543307086614
 31
0.0
  0
LINE
  5
119
330
1F
100
AcDbEntity
  8
TITLE
  6
SLD-Solid
370
    18
100
AcDbLine
 10
44.12450787401576
 20
99.5
 30
0.0
 11
44.12450787401576
 21
99.83464566929135
 31
0.0
  0
LINE
  5
11A
330
1F
100
AcDbEntity
  8
TITLE
  6
SLD-Solid
370
    18
100
AcDbLine
 10
44.12450787401576
 20
0.5
 30
0.0
 11
44.12450787401576
 21
0.1653543307086614
 31
0.0
  0
LINE
  5
11B
330
1F
100
AcDbEntity
  8
TITLE
  6
SLD-Solid
370
    18
100
AcDbLine
 10
46.09301181102362
 20
99.5
 30
0.0
 11
46.09301181102362
 21
99.83464566929135
 31
0.0
  0
LINE
  5
11C
330
1F
100
AcDbEntity
  8
TITLE
  6
SLD-Solid
370
    18
100
AcDbLine
 10
46.09301181102362
 20
0.5
 30
0.0
 11
46.09301181102362
 21
0.1653543307086614
 31
0.0
  0
LINE
  5
11D
330
1F
100
AcDbEntity
  8
TITLE
  6
SLD-Solid
370
    18
100
AcDbLine
 10
48.0615157480315
 20
99.5
 30
0.0
 11
48.0615157480315
 21
99.83464566929135
 31
0.0
  0
LINE
  5
11E
330
1F
100
AcDbEntity
  8
TITLE
  6
SLD-Solid
370
    18
100
AcDbLine
 10
48.0615157480315
 20
0.5
 30
0.0
 11
48.0615157480315
 21
0.1653543307086614
 31
0.0
  0
LINE
  5
11F
330
1F
100
AcDbEntity
  8
TITLE
  6
SLD-Solid
370
    18
100
AcDbLine
 10
50.03001968503937
 20
99.5
 30
0.0
 11
50.03001968503937
 21
99.83464566929135
 31
0.0
  0
LINE
  5
120
330
1F
100
AcDbEntity
  8
TITLE
  6
SLD-Solid
370
    18
100
AcDbLine
 10
50.03001968503937
 20
0.5
 30
0.0
 11
50.03001968503937
 21
0.1653543307086614
 31
0.0
  0
LINE
  5
121
330
1F
100
AcDbEntity
  8
TITLE
  6
SLD-Solid
370
    18
100
AcDbLine
 10
51.99852362204725
 20
99.5
 30
0.0
 11
51.99852362204725
 21
99.83464566929135
 31
0.0
  0
LINE
  5
122
330
1F
100
AcDbEntity
  8
TITLE
  6
SLD-Solid
370
    18
100
AcDbLine
 10
51.99852362204725
 20
0.5
 30
0.0
 11
51.99852362204725
 21
0.1653543307086614
 31
0.0
  0
LINE
  5
123
330
1F
100
AcDbEntity
  8
TITLE
  6
SLD-Solid
370
    18
100
AcDbLine
 10
53.96702755905513
 20
99.5
 30
0.0
 11
53.96702755905513
 21
99.83464566929135
 31
0.0
  0
LINE
  5
124
330
1F
100
AcDbEntity
  8
TITLE
  6
SLD-Solid
370
    18
100
AcDbLine
 10
53.96702755905513
 20
0.5
 30
0.0
 11
53.96702755905513
 21
0.1653543307086614
 31
0.0
  0
LINE
  5
125
330
1F
100
AcDbEntity
  8
TITLE
  6
SLD-Solid
370
    18
100
AcDbLine
 10
55.93553149606299
 20
99.5
 30
0.0
 11
55.93553149606299
 21
99.83464566929135
 31
0.0
  0
LINE
  5
126
330
1F
100
AcDbEntity
  8
TITLE
  6
SLD-Solid
370
    18
100
AcDbLine
 10
55.93553149606299
 20
0.5
 30
0.0
 11
55.93553149606299
 21
0.1653543307086614
 31
0.0
  0
LINE
  5
127
330
1F
100
AcDbEntity
  8
TITLE
  6
SLD-Solid
370
    18
100
AcDbLine
 10
57.90403543307087
 20
99.5
 30
0.0
 11
57.90403543307087
 21
99.83464566929135
 31
0.0
  0
LINE
  5
128
330
1F
100
AcDbEntity
  8
TITLE
  6
SLD-Solid
370
    18
100
AcDbLine
 10
57.90403543307087
 20
0.5
 30
0.0
 11
57.90403543307087
 21
0.1653543307086614
 31
0.0
  0
LINE
  5
129
330
1F
100
AcDbEntity
  8
TITLE
  6
SLD-Solid
370
    18
100
AcDbLine
 10
59.87253937007874
 20
99.5
 30
0.0
 11
59.87253937007874
 21
99.83464566929135
 31
0.0
  0
LINE
  5
12A
330
1F
100
AcDbEntity
  8
TITLE
  6
SLD-Solid
370
    18
100
AcDbLine
 10
59.87253937007874
 20
0.5
 30
0.0
 11
59.87253937007874
 21
0.1653543307086614
 31
0.0
  0
LINE
  5
12B
330
1F
100
AcDbEntity
  8
TITLE
  6
SLD-Solid
370
    18
100
AcDbLine
 10
61.84104330708662
 20
99.5
 30
0.0
 11
61.84104330708662
 21
99.83464566929135
 31
0.0
  0
LINE
  5
12C
330
1F
100
AcDbEntity
  8
TITLE
  6
SLD-Solid
370
    18
100
AcDbLine
 10
61.84104330708662
 20
0.5
 30
0.0
 11
61.84104330708662
 21
0.1653543307086614
 31
0.0
  0
LINE
  5
12D
330
1F
100
AcDbEntity
  8
TITLE
  6
SLD-Solid
370
    18
100
AcDbLine
 10
63.8095472440945
 20
99.5
 30
0.0
 11
63.8095472440945
 21
99.83464566929135
 31
0.0
  0
LINE
  5
12E
330
1F
100
AcDbEntity
  8
TITLE
  6
SLD-Solid
370
    18
100
AcDbLine
 10
63.8095472440945
 20
0.5
 30
0.0
 11
63.8095472440945
 21
0.1653543307086614
 31
0.0
  0
LINE
  5
12F
330
1F
100
AcDbEntity
  8
TITLE
  6
SLD-Solid
370
    18
100
AcDbLine
 10
65.77805118110236
 20
99.5
 30
0.0
 11
65.77805118110236
 21
99.83464566929135
 31
0.0
  0
LINE
  5
130
330
1F
100
AcDbEntity
  8
TITLE
  6
SLD-Solid
370
    18
100
AcDbLine
 10
65.77805118110236
 20
0.5
 30
0.0
 11
65.77805118110236
 21
0.1653543307086614
 31
0.0
  0
LINE
  5
131
330
1F
100
AcDbEntity
  8
TITLE
  6
SLD-Solid
370
    18
100
AcDbLine
 10
67.74655511811025
 20
99.5
 30
0.0
 11
67.74655511811025
 21
99.83464566929135
 31
0.0
  0
LINE
  5
132
330
1F
100
AcDbEntity
  8
TITLE
  6
SLD-Solid
370
    18
100
AcDbLine
 10
67.74655511811025
 20
0.5
 30
0.0
 11
67.74655511811025
 21
0.1653543307086614
 31
0.0
  0
LINE
  5
133
330
1F
100
AcDbEntity
  8
TITLE
  6
SLD-Solid
370
    18
100
AcDbLine
 10
69.71505905511812
 20
99.5
 30
0.0
 11
69.71505905511812
 21
99.83464566929135
 31
0.0
  0
LINE
  5
134
330
1F
100
AcDbEntity
  8
TITLE
  6
SLD-Solid
370
    18
100
AcDbLine
 10
69.71505905511812
 20
0.5
 30
0.0
 11
69.71505905511812
 21
0.1653543307086614
 31
0.0
  0
LINE
  5
135
330
1F
100
AcDbEntity
  8
TITLE
  6
SLD-Solid
370
    18
100
AcDbLine
 10
71.68356299212599
 20
99.5
 30
0.0
 11
71.68356299212599
 21
99.83464566929135
 31
0.0
  0
LINE
  5
136
330
1F
100
AcDbEntity
  8
TITLE
  6
SLD-Solid
370
    18
100
AcDbLine
 10
71.68356299212599
 20
0.5
 30
0.0
 11
71.68356299212599
 21
0.1653543307086614
 31
0.0
  0
LINE
  5
137
330
1F
100
AcDbEntity
  8
TITLE
  6
SLD-Solid
370
    18
100
AcDbLine
 10
73.65206692913387
 20
99.5
 30
0.0
 11
73.65206692913387
 21
99.83464566929135
 31
0.0
  0
LINE
  5
138
330
1F
100
AcDbEntity
  8
TITLE
  6
SLD-Solid
370
    18
100
AcDbLine
 10
73.65206692913387
 20
0.5
 30
0.0
 11
73.65206692913387
 21
0.1653543307086614
 31
0.0
  0
LINE
  5
139
330
1F
100
AcDbEntity
  8
TITLE
  6
SLD-Solid
370
    18
100
AcDbLine
 10
75.62057086614173
 20
99.5
 30
0.0
 11
75.62057086614173
 21
99.83464566929135
 31
0.0
  0
LINE
  5
13A
330
1F
100
AcDbEntity
  8
TITLE
  6
SLD-Solid
370
    18
100
AcDbLine
 10
75.62057086614173
 20
0.5
 30
0.0
 11
75.62057086614173
 21
0.1653543307086614
 31
0.0
  0
LINE
  5
13B
330
1F
100
AcDbEntity
  8
TITLE
  6
SLD-Solid
370
    18
100
AcDbLine
 10
77.58907480314961
 20
99.5
 30
0.0
 11
77.58907480314961
 21
99.83464566929135
 31
0.0
  0
LINE
  5
13C
330
1F
100
AcDbEntity
  8
TITLE
  6
SLD-Solid
370
    18
100
AcDbLine
 10
77.58907480314961
 20
0.5
 30
0.0
 11
77.58907480314961
 21
0.1653543307086614
 31
0.0
  0
MTEXT
  5
13E
330
1F
100
AcDbEntity
  8
NOTES
100
AcDbMText
 10
56.78329780303407
 20
1.07029033469434
 30
0.0
 40
0.25
 41
0.0
 71
     1
 72
     1
  1
UNLESS OTHERWISE SPECIFIED DIMENSIONS ARE IN INCHES.
  7
SLDTEXTSTYLE0
 73
     1
 44
1.0
  0
MTEXT
  5
13F
330
1F
100
AcDbEntity
  8
NOTES
100
AcDbMText
 10
56.8050699278903
 20
3.083062777580423
 30
0.0
 40
0.25
 41
0.0
 71
     1
 72
     1
  1
DATE:
  7
SLDTEXTSTYLE0
 73
     1
 44
1.0
  0
MTEXT
  5
140
330
1F
100
AcDbEntity
  8
NOTES
100
AcDbMText
 10
58.91370118800531
 20
2.193032963662711
 30
0.0
 40
0.25
 41
0.0
 71
     2
 72
     1
  1
DO NOT SCALE DRAWING
  7
SLDTEXTSTYLE0
 73
     1
 44
1.0
  0
MTEXT
  5
142
330
1F
100
AcDbEntity
  8
NOTES
100
AcDbMText
 10
63.20573730750537
 20
3.268275555297605
 30
0.0
 40
0.25
 41
0.0
 71
     1
 72
     1
  1
TITLE:
  7
SLDTEXTSTYLE1
 73
     1
 44
1.0
  0
MTEXT
  5
143
330
1F
100
AcDbEntity
  8
NOTES
100
AcDbMText
 10
70.53118310516095
 20
3.268275555297605
 30
0.0
 40
0.25
 41
0.0
 71
     1
 72
     1
  1
DWG NO.
  7
SLDTEXTSTYLE1
 73
     1
 44
1.0
  0
MTEXT
  5
144
330
1F
100
AcDbEntity
  8
NOTES
100
AcDbMText
 10
70.55817532028493
 20
1.064581557673831
 30
0.0
 40
0.25
 41
0.0
 71
     1
 72
     1
  1
SCALE:     1:1
  7
SLDTEXTSTYLE1
 73
     1
 44
1.0
  0
MTEXT
  5
145
330
1F
100
AcDbEntity
  8
NOTES
100
AcDbMText
 10
74.54688774141151
 20
2.651034429460866
 30
0.0
 40
0.25
 41
0.0
 71
     2
 72
     1
  1
304 - Assembly CAD
  7
SLDTEXTSTYLE1
 73
     1
 44
1.0
  0
MTEXT
  5
146
330
1F
100
AcDbEntity
  8
NOTES
100
AcDbMText
 10
66.80199577619291
 20
2.651034429460864
 30
0.0
 40
0.25
 41
0.0
 71
     2
 72
     1
  1
304 Assembly
  7
SLDTEXTSTYLE1
 73
     1
 44
1.0
  0
INSERT
  5
156
330
1F
100
AcDbEntity
  8
NOTES
100
AcDbBlockReference
  2
SW_NOTE_0_1
 10
56.99097262459081
 20
5.148152684778704
 30
0.0
  0
MTEXT
  5
157
330
1F
100
AcDbEntity
  8
NOTES
100
AcDbMText
 10
59.86694443327298
 20
3.086473326765869
 30
0.0
 40
0.25
 41
0.0
 71
     2
 72
     1
  1
May 28, 2021
  7
SLDTEXTSTYLE1
 73
     1
 44
1.0
  0
MTEXT
  5
158
330
1F
100
AcDbEntity
  8
TITLE
100
AcDbMText
 10
0.3276279775836454
 20
1.707830700422988
 30
0.0
 40
0.125
 41
0.0
 71
     2
 72
     1
  1
A
  7
SLDTEXTSTYLE1
 73
     1
 44
1.0
  0
MTEXT
  5
159
330
1F
100
AcDbEntity
  8
TITLE
100
AcDbMText
 10
80.03727364687498
 20
1.707830700422989
 30
0.0
 40
0.125
 41
0.0
 71
     2
 72
     1
  1
A
  7
SLDTEXTSTYLE1
 73
     1
 44
1.0
  0
MTEXT
  5
15A
330
1F
100
AcDbEntity
  8
TITLE
100
AcDbMText
 10
0.3317512413046844
 20
3.820035424832436
 30
0.0
 40
0.125
 41
0.0
 71
     2
 72
     1
  1
B
  7
SLDTEXTSTYLE1
 73
     1
 44
1.0
  0
MTEXT
  5
15B
330
1F
100
AcDbEntity
  8
TITLE
100
AcDbMText
 10
80.04139691059602
 20
3.820035424832436
 30
0.0
 40
0.125
 41
0.0
 71
     2
 72
     1
  1
B
  7
SLDTEXTSTYLE1
 73
     1
 44
1.0
  0
MTEXT
  5
15C
330
1F
100
AcDbEntity
  8
TITLE
100
AcDbMText
 10
0.3313750816934456
 20
5.788539361840311
 30
0.0
 40
0.125
 41
0.0
 71
     2
 72
     1
  1
C
  7
SLDTEXTSTYLE1
 73
     1
 44
1.0
  0
MTEXT
  5
15D
330
1F
100
AcDbEntity
  8
TITLE
100
AcDbMText
 10
80.04102075098477
 20
5.788539361840311
 30
0.0
 40
0.125
 41
0.0
 71
     2
 72
     1
  1
C
  7
SLDTEXTSTYLE1
 73
     1
 44
1.0
  0
MTEXT
  5
15E
330
1F
100
AcDbEntity
  8
TITLE
100
AcDbMText
 10
0.3311870028448151
 20
7.757043298848185
 30
0.0
 40
0.125
 41
0.0
 71
     2
 72
     1
  1
D
  7
SLDTEXTSTYLE1
 73
     1
 44
1.0
  0
MTEXT
  5
15F
330
1F
100
AcDbEntity
  8
TITLE
100
AcDbMText
 10
80.04083267213615
 20
7.757043298848187
 30
0.0
 40
0.125
 41
0.0
 71
     2
 72
     1
  1
D
  7
SLDTEXTSTYLE1
 73
     1
 44
1.0
  0
MTEXT
  5
160
330
1F
100
AcDbEntity
  8
TITLE
100
AcDbMText
 10
0.3329231160377541
 20
9.725547235856062
 30
0.0
 40
0.125
 41
0.0
 71
     2
 72
     1
  1
E
  7
SLDTEXTSTYLE1
 73
     1
 44
1.0
  0
MTEXT
  5
161
330
1F
100
AcDbEntity
  8
TITLE
100
AcDbMText
 10
80.04256878532908
 20
9.725547235856062
 30
0.0
 40
0.125
 41
0.0
 71
     2
 72
     1
  1
E
  7
SLDTEXTSTYLE1
 73
     1
 44
1.0
  0
MTEXT
  5
162
330
1F
100
AcDbEntity
  8
TITLE
100
AcDbMText
 10
0.3313461474003637
 20
11.69405117286393
 30
0.0
 40
0.125
 41
0.0
 71
     2
 72
     1
  1
F
  7
SLDTEXTSTYLE1
 73
     1
 44
1.0
  0
MTEXT
  5
163
330
1F
100
AcDbEntity
  8
TITLE
100
AcDbMText
 10
80.0409918166917
 20
11.69405117286393
 30
0.0
 40
0.125
 41
0.0
 71
     2
 72
     1
  1
F
  7
SLDTEXTSTYLE1
 73
     1
 44
1.0
  0
MTEXT
  5
164
330
1F
100
AcDbEntity
  8
TITLE
100
AcDbMText
 10
0.332257605436456
 20
13.66255510987181
 30
0.0
 40
0.125
 41
0.0
 71
     2
 72
     1
  1
G
  7
SLDTEXTSTYLE1
 73
     1
 44
1.0
  0
MTEXT
  5
165
330
1F
100
AcDbEntity
  8
TITLE
100
AcDbMText
 10
80.0419032747278
 20
13.66255510987181
 30
0.0
 40
0.125
 41
0.0
 71
     2
 72
     1
  1
G
  7
SLDTEXTSTYLE1
 73
     1
 44
1.0
  0
MTEXT
  5
166
330
1F
100
AcDbEntity
  8
TITLE
100
AcDbMText
 10
0.3323733456814148
 20
15.63105904687968
 30
0.0
 40
0.125
 41
0.0
 71
     2
 72
     1
  1
H
  7
SLDTEXTSTYLE1
 73
     1
 44
1.0
  0
MTEXT
  5
167
330
1F
100
AcDbEntity
  8
TITLE
100
AcDbMText
 10
80.04201901497274
 20
15.63105904687968
 30
0.0
 40
0.125
 41
0.0
 71
     2
 72
     1
  1
H
  7
SLDTEXTSTYLE1
 73
     1
 44
1.0
  0
MTEXT
  5
168
330
1F
100
AcDbEntity
  8
TITLE
100
AcDbMText
 10
0.3315776305595838
 20
17.59956298388755
 30
0.0
 40
0.125
 41
0.0
 71
     2
 72
     1
  1
J
  7
SLDTEXTSTYLE1
 73
     1
 44
1.0
  0
MTEXT
  5
169
330
1F
100
AcDbEntity
  8
TITLE
100
AcDbMText
 10
80.04122329985091
 20
17.59956298388756
 30
0.0
 40
0.125
 41
0.0
 71
     2
 72
     1
  1
J
  7
SLDTEXTSTYLE1
 73
     1
 44
1.0
  0
MTEXT
  5
16A
330
1F
100
AcDbEntity
  8
TITLE
100
AcDbMText
 10
0.3323154765159243
 20
19.56806692089543
 30
0.0
 40
0.125
 41
0.0
 71
     2
 72
     1
  1
K
  7
SLDTEXTSTYLE1
 73
     1
 44
1.0
  0
MTEXT
  5
16B
330
1F
100
AcDbEntity
  8
TITLE
100
AcDbMText
 10
80.04196114580725
 20
19.56806692089543
 30
0.0
 40
0.125
 41
0.0
 71
     2
 72
     1
  1
K
  7
SLDTEXTSTYLE1
 73
     1
 44
1.0
  0
MTEXT
  5
16C
330
1F
100
AcDbEntity
  8
TITLE
100
AcDbMText
 10
0.3312448739242835
 20
21.53657085790331
 30
0.0
 40
0.125
 41
0.0
 71
     2
 72
     1
  1
L
  7
SLDTEXTSTYLE1
 73
     1
 44
1.0
  0
MTEXT
  5
16D
330
1F
100
AcDbEntity
  8
TITLE
100
AcDbMText
 10
80.04089054321562
 20
21.53657085790331
 30
0.0
 40
0.125
 41
0.0
 71
     2
 72
     1
  1
L
  7
SLDTEXTSTYLE1
 73
     1
 44
1.0
  0
MTEXT
  5
16E
330
1F
100
AcDbEntity
  8
TITLE
100
AcDbMText
 10
0.3283224192293962
 20
23.50507479491118
 30
0.0
 40
0.125
 41
0.0
 71
     2
 72
     1
  1
M
  7
SLDTEXTSTYLE1
 73
     1
 44
1.0
  0
MTEXT
  5
16F
330
1F
100
AcDbEntity
  8
TITLE
100
AcDbMText
 10
80.03796808852074
 20
23.50507479491118
 30
0.0
 40
0.125
 41
0.0
 71
     2
 72
     1
  1
M
  7
SLDTEXTSTYLE1
 73
     1
 44
1.0
  0
MTEXT
  5
170
330
1F
100
AcDbEntity
  8
TITLE
100
AcDbMText
 10
0.3315342275836453
 20
25.47357873191906
 30
0.0
 40
0.125
 41
0.0
 71
     2
 72
     1
  1
N
  7
SLDTEXTSTYLE1
 73
     1
 44
1.0
  0
MTEXT
  5
171
330
1F
100
AcDbEntity
  8
TITLE
100
AcDbMText
 10
80.04117989687497
 20
25.47357873191906
 30
0.0
 40
0.125
 41
0.0
 71
     2
 72
     1
  1
N
  7
SLDTEXTSTYLE1
 73
     1
 44
1.0
  0
MTEXT
  5
172
330
1F
100
AcDbEntity
  8
TITLE
100
AcDbMText
 10
0.3321997349363143
 20
27.44208266892693
 30
0.0
 40
0.125
 41
0.0
 71
     2
 72
     1
  1
P
  7
SLDTEXTSTYLE1
 73
     1
 44
1.0
  0
MTEXT
  5
173
330
1F
100
AcDbEntity
  8
TITLE
100
AcDbMText
 10
80.04184540422764
 20
27.44208266892693
 30
0.0
 40
0.125
 41
0.0
 71
     2
 72
     1
  1
P
  7
SLDTEXTSTYLE1
 73
     1
 44
1.0
  0
MTEXT
  5
174
330
1F
100
AcDbEntity
  8
TITLE
100
AcDbMText
 10
0.3309265867271644
 20
29.41058660593481
 30
0.0
 40
0.125
 41
0.0
 71
     2
 72
     1
  1
R
  7
SLDTEXTSTYLE1
 73
     1
 44
1.0
  0
MTEXT
  5
175
330
1F
100
AcDbEntity
  8
TITLE
100
AcDbMText
 10
80.04057225601849
 20
29.41058660593481
 30
0.0
 40
0.125
 41
0.0
 71
     2
 72
     1
  1
R
  7
SLDTEXTSTYLE1
 73
     1
 44
1.0
  0
MTEXT
  5
176
330
1F
100
AcDbEntity
  8
TITLE
100
AcDbMText
 10
0.3323010070777431
 20
31.37909054294268
 30
0.0
 40
0.125
 41
0.0
 71
     2
 72
     1
  1
T
  7
SLDTEXTSTYLE1
 73
     1
 44
1.0
  0
MTEXT
  5
177
330
1F
100
AcDbEntity
  8
TITLE
100
AcDbMText
 10
80.04194667636908
 20
31.37909054294268
 30
0.0
 40
0.125
 41
0.0
 71
     2
 72
     1
  1
T
  7
SLDTEXTSTYLE1
 73
     1
 44
1.0
  0
MTEXT
  5
178
330
1F
100
AcDbEntity
  8
TITLE
100
AcDbMText
 10
0.3328507755201046
 20
33.34759447995055
 30
0.0
 40
0.125
 41
0.0
 71
     2
 72
     1
  1
U
  7
SLDTEXTSTYLE1
 73
     1
 44
1.0
  0
MTEXT
  5
179
330
1F
100
AcDbEntity
  8
TITLE
100
AcDbMText
 10
80.04249644481143
 20
33.34759447995056
 30
0.0
 40
0.125
 41
0.0
 71
     2
 72
     1
  1
U
  7
SLDTEXTSTYLE1
 73
     1
 44
1.0
  0
MTEXT
  5
17A
330
1F
100
AcDbEntity
  8
TITLE
100
AcDbMText
 10
0.3307529773167151
 20
35.31609841695843
 30
0.0
 40
0.125
 41
0.0
 71
     2
 72
     1
  1
V
  7
SLDTEXTSTYLE1
 73
     1
 44
1.0
  0
MTEXT
  5
17B
330
1F
100
AcDbEntity
  8
TITLE
100
AcDbMText
 10
80.04039864660804
 20
35.31609841695843
 30
0.0
 40
0.125
 41
0.0
 71
     2
 72
     1
  1
V
  7
SLDTEXTSTYLE1
 73
     1
 44
1.0
  0
MTEXT
  5
17C
330
1F
100
AcDbEntity
  8
TITLE
100
AcDbMText
 10
0.3327784409203867
 20
37.2846023539663
 30
0.0
 40
0.125
 41
0.0
 71
     2
 72
     1
  1
W
  7
SLDTEXTSTYLE1
 73
     1
 44
1.0
  0
MTEXT
  5
17D
330
1F
100
AcDbEntity
  8
TITLE
100
AcDbMText
 10
80.04242411021173
 20
37.2846023539663
 30
0.0
 40
0.125
 41
0.0
 71
     2
 72
     1
  1
W
  7
SLDTEXTSTYLE1
 73
     1
 44
1.0
  0
MTEXT
  5
17E
330
1F
100
AcDbEntity
  8
TITLE
100
AcDbMText
 10
0.3321997349363143
 20
39.25310629097418
 30
0.0
 40
0.125
 41
0.0
 71
     2
 72
     1
  1
Y
  7
SLDTEXTSTYLE1
 73
     1
 44
1.0
  0
MTEXT
  5
17F
330
1F
100
AcDbEntity
  8
TITLE
100
AcDbMText
 10
80.04184540422764
 20
39.25310629097417
 30
0.0
 40
0.125
 41
0.0
 71
     2
 72
     1
  1
Y
  7
SLDTEXTSTYLE1
 73
     1
 44
1.0
  0
MTEXT
  5
180
330
1F
100
AcDbEntity
  8
TITLE
100
AcDbMText
 10
0.32257878981296
 20
41.22161022798205
 30
0.0
 40
0.125
 41
0.0
 71
     2
 72
     1
  1
AA
  7
SLDTEXTSTYLE1
 73
     1
 44
1.0
  0
MTEXT
  5
181
330
1F
100
AcDbEntity
  8
TITLE
100
AcDbMText
 10
80.03222445910428
 20
41.22161022798205
 30
0.0
 40
0.125
 41
0.0
 71
     2
 72
     1
  1
AA
  7
SLDTEXTSTYLE1
 73
     1
 44
1.0
  0
MTEXT
  5
182
330
1F
100
AcDbEntity
  8
TITLE
100
AcDbMText
 10
0.3267020535339989
 20
43.19011416498994
 30
0.0
 40
0.125
 41
0.0
 71
     2
 72
     1
  1
AB
  7
SLDTEXTSTYLE1
 73
     1
 44
1.0
  0
MTEXT
  5
183
330
1F
100
AcDbEntity
  8
TITLE
100
AcDbMText
 10
80.03634772282533
 20
43.19011416498994
 30
0.0
 40
0.125
 41
0.0
 71
     2
 72
     1
  1
AB
  7
SLDTEXTSTYLE1
 73
     1
 44
1.0
  0
MTEXT
  5
184
330
1F
100
AcDbEntity
  8
TITLE
100
AcDbMText
 10
0.3263258985060407
 20
45.1586181019978
 30
0.0
 40
0.125
 41
0.0
 71
     2
 72
     1
  1
AC
  7
SLDTEXTSTYLE1
 73
     1
 44
1.0
  0
MTEXT
  5
185
330
1F
100
AcDbEntity
  8
TITLE
100
AcDbMText
 10
80.03597156779738
 20
45.1586181019978
 30
0.0
 40
0.125
 41
0.0
 71
     2
 72
     1
  1
AC
  7
SLDTEXTSTYLE1
 73
     1
 44
1.0
  0
MTEXT
  5
186
330
1F
100
AcDbEntity
  8
TITLE
100
AcDbMText
 10
0.3261378196574102
 20
47.12712203900567
 30
0.0
 40
0.125
 41
0.0
 71
     2
 72
     1
  1
AD
  7
SLDTEXTSTYLE1
 73
     1
 44
1.0
  0
MTEXT
  5
187
330
1F
100
AcDbEntity
  8
TITLE
100
AcDbMText
 10
80.03578348894874
 20
47.12712203900567
 30
0.0
 40
0.125
 41
0.0
 71
     2
 72
     1
  1
AD
  7
SLDTEXTSTYLE1
 73
     1
 44
1.0
  0
MTEXT
  5
188
330
1F
100
AcDbEntity
  8
TITLE
100
AcDbMText
 10
0.3278739282670687
 20
49.09562597601355
 30
0.0
 40
0.125
 41
0.0
 71
     2
 72
     1
  1
AE
  7
SLDTEXTSTYLE1
 73
     1
 44
1.0
  0
MTEXT
  5
189
330
1F
100
AcDbEntity
  8
TITLE
100
AcDbMText
 10
80.0375195975584
 20
49.09562597601355
 30
0.0
 40
0.125
 41
0.0
 71
     2
 72
     1
  1
AE
  7
SLDTEXTSTYLE1
 73
     1
 44
1.0
  0
MTEXT
  5
18A
330
1F
100
AcDbEntity
  8
TITLE
100
AcDbMText
 10
0.3262969596296783
 20
51.06412991302141
 30
0.0
 40
0.125
 41
0.0
 71
     2
 72
     1
  1
AF
  7
SLDTEXTSTYLE1
 73
     1
 44
1.0
  0
MTEXT
  5
18B
330
1F
100
AcDbEntity
  8
TITLE
100
AcDbMText
 10
80.035942628921
 20
51.06412991302141
 30
0.0
 40
0.125
 41
0.0
 71
     2
 72
     1
  1
AF
  7
SLDTEXTSTYLE1
 73
     1
 44
1.0
  0
MTEXT
  5
18C
330
1F
100
AcDbEntity
  8
TITLE
100
AcDbMText
 10
0.3272084176657706
 20
53.03263385002931
 30
0.0
 40
0.125
 41
0.0
 71
     2
 72
     1
  1
AG
  7
SLDTEXTSTYLE1
 73
     1
 44
1.0
  0
MTEXT
  5
18D
330
1F
100
AcDbEntity
  8
TITLE
100
AcDbMText
 10
80.0368540869571
 20
53.03263385002931
 30
0.0
 40
0.125
 41
0.0
 71
     2
 72
     1
  1
AG
  7
SLDTEXTSTYLE1
 73
     1
 44
1.0
  0
MTEXT
  5
18E
330
1F
100
AcDbEntity
  8
TITLE
100
AcDbMText
 10
0.3273241624940099
 20
55.00113778703717
 30
0.0
 40
0.125
 41
0.0
 71
     2
 72
     1
  1
AH
  7
SLDTEXTSTYLE1
 73
     1
 44
1.0
  0
MTEXT
  5
18F
330
1F
100
AcDbEntity
  8
TITLE
100
AcDbMText
 10
80.03696983178533
 20
55.00113778703717
 30
0.0
 40
0.125
 41
0.0
 71
     2
 72
     1
  1
AH
  7
SLDTEXTSTYLE1
 73
     1
 44
1.0
  0
MTEXT
  5
190
330
1F
100
AcDbEntity
  8
TITLE
100
AcDbMText
 10
0.3265284427888985
 20
56.96964172404503
 30
0.0
 40
0.125
 41
0.0
 71
     2
 72
     1
  1
AJ
  7
SLDTEXTSTYLE1
 73
     1
 44
1.0
  0
MTEXT
  5
191
330
1F
100
AcDbEntity
  8
TITLE
100
AcDbMText
 10
80.03617411208023
 20
56.96964172404504
 30
0.0
 40
0.125
 41
0.0
 71
     2
 72
     1
  1
AJ
  7
SLDTEXTSTYLE1
 73
     1
 44
1.0
  0
MTEXT
  5
192
330
1F
100
AcDbEntity
  8
TITLE
100
AcDbMText
 10
0.327266288745239
 20
58.93814566105291
 30
0.0
 40
0.125
 41
0.0
 71
     2
 72
     1
  1
AK
  7
SLDTEXTSTYLE1
 73
     1
 44
1.0
  0
MTEXT
  5
193
330
1F
100
AcDbEntity
  8
TITLE
100
AcDbMText
 10
80.03691195803657
 20
58.93814566105292
 30
0.0
 40
0.125
 41
0.0
 71
     2
 72
     1
  1
AK
  7
SLDTEXTSTYLE1
 73
     1
 44
1.0
  0
MTEXT
  5
194
330
1F
100
AcDbEntity
  8
TITLE
100
AcDbMText
 10
0.3261956815703178
 20
60.90664959806079
 30
0.0
 40
0.125
 41
0.0
 71
     2
 72
     1
  1
AL
  7
SLDTEXTSTYLE1
 73
     1
 44
1.0
  0
MTEXT
  5
195
330
1F
100
AcDbEntity
  8
TITLE
100
AcDbMText
 10
80.03584135086165
 20
60.90664959806079
 30
0.0
 40
0.125
 41
0.0
 71
     2
 72
     1
  1
AL
  7
SLDTEXTSTYLE1
 73
     1
 44
1.0
  0
MTEXT
  5
196
330
1F
100
AcDbEntity
  8
TITLE
100
AcDbMText
 10
0.3232732314587108
 20
62.87515353506868
 30
0.0
 40
0.125
 41
0.0
 71
     2
 72
     1
  1
AM
  7
SLDTEXTSTYLE1
 73
     1
 44
1.0
  0
MTEXT
  5
197
330
1F
100
AcDbEntity
  8
TITLE
100
AcDbMText
 10
80.03291890075005
 20
62.87515353506868
 30
0.0
 40
0.125
 41
0.0
 71
     2
 72
     1
  1
AM
  7
SLDTEXTSTYLE1
 73
     1
 44
1.0
  0
MTEXT
  5
198
330
1F
100
AcDbEntity
  8
TITLE
100
AcDbMText
 10
0.32648503981296
 20
64.84365747207654
 30
0.0
 40
0.125
 41
0.0
 71
     2
 72
     1
  1
AN
  7
SLDTEXTSTYLE1
 73
     1
 44
1.0
  0
MTEXT
  5
199
330
1F
100
AcDbEntity
  8
TITLE
100
AcDbMText
 10
80.03613070910428
 20
64.84365747207654
 30
0.0
 40
0.125
 41
0.0
 71
     2
 72
     1
  1
AN
  7
SLDTEXTSTYLE1
 73
     1
 44
1.0
  0
MTEXT
  5
19A
330
1F
100
AcDbEntity
  8
TITLE
100
AcDbMText
 10
0.3271505425823485
 20
66.81216140908441
 30
0.0
 40
0.125
 41
0.0
 71
     2
 72
     1
  1
AP
  7
SLDTEXTSTYLE1
 73
     1
 44
1.0
  0
MTEXT
  5
19B
330
1F
100
AcDbEntity
  8
TITLE
100
AcDbMText
 10
80.03679621187368
 20
66.81216140908441
 30
0.0
 40
0.125
 41
0.0
 71
     2
 72
     1
  1
AP
  7
SLDTEXTSTYLE1
 73
     1
 44
1.0
  0
MTEXT
  5
19C
330
1F
100
AcDbEntity
  8
TITLE
100
AcDbMText
 10
0.325877398956479
 20
68.78066534609229
 30
0.0
 40
0.125
 41
0.0
 71
     2
 72
     1
  1
AR
  7
SLDTEXTSTYLE1
 73
     1
 44
1.0
  0
MTEXT
  5
19D
330
1F
100
AcDbEntity
  8
TITLE
100
AcDbMText
 10
80.03552306824781
 20
68.7806653460923
 30
0.0
 40
0.125
 41
0.0
 71
     2
 72
     1
  1
AR
  7
SLDTEXTSTYLE1
 73
     1
 44
1.0
  0
MTEXT
  5
19E
330
1F
100
AcDbEntity
  8
TITLE
100
AcDbMText
 10
0.3272518193070578
 20
70.74916928310017
 30
0.0
 40
0.125
 41
0.0
 71
     2
 72
     1
  1
AT
  7
SLDTEXTSTYLE1
 73
     1
 44
1.0
  0
MTEXT
  5
19F
330
1F
100
AcDbEntity
  8
TITLE
100
AcDbMText
 10
80.03689748859838
 20
70.74916928310016
 30
0.0
 40
0.125
 41
0.0
 71
     2
 72
     1
  1
AT
  7
SLDTEXTSTYLE1
 73
     1
 44
1.0
  0
MTEXT
  5
1A0
330
1F
100
AcDbEntity
  8
TITLE
100
AcDbMText
 10
0.3278015877494193
 20
72.71767322010805
 30
0.0
 40
0.125
 41
0.0
 71
     2
 72
     1
  1
AU
  7
SLDTEXTSTYLE1
 73
     1
 44
1.0
  0
MTEXT
  5
1A1
330
1F
100
AcDbEntity
  8
TITLE
100
AcDbMText
 10
80.03744725704074
 20
72.71767322010804
 30
0.0
 40
0.125
 41
0.0
 71
     2
 72
     1
  1
AU
  7
SLDTEXTSTYLE1
 73
     1
 44
1.0
  0
MTEXT
  5
1A2
330
1F
100
AcDbEntity
  8
TITLE
100
AcDbMText
 10
0.3257037895460298
 20
74.6861771571159
 30
0.0
 40
0.125
 41
0.0
 71
     2
 72
     1
  1
AV
  7
SLDTEXTSTYLE1
 73
     1
 44
1.0
  0
MTEXT
  5
1A3
330
1F
100
AcDbEntity
  8
TITLE
100
AcDbMText
 10
80.03534945883736
 20
74.6861771571159
 30
0.0
 40
0.125
 41
0.0
 71
     2
 72
     1
  1
AV
  7
SLDTEXTSTYLE1
 73
     1
 44
1.0
  0
MTEXT
  5
1A4
330
1F
100
AcDbEntity
  8
TITLE
100
AcDbMText
 10
0.327729248566421
 20
76.65468109412379
 30
0.0
 40
0.125
 41
0.0
 71
     2
 72
     1
  1
AW
  7
SLDTEXTSTYLE1
 73
     1
 44
1.0
  0
MTEXT
  5
1A5
330
1F
100
AcDbEntity
  8
TITLE
100
AcDbMText
 10
80.03737491785775
 20
76.65468109412379
 30
0.0
 40
0.125
 41
0.0
 71
     2
 72
     1
  1
AW
  7
SLDTEXTSTYLE1
 73
     1
 44
1.0
  0
MTEXT
  5
1A6
330
1F
100
AcDbEntity
  8
TITLE
100
AcDbMText
 10
0.3271505425823485
 20
78.62318503113167
 30
0.0
 40
0.125
 41
0.0
 71
     2
 72
     1
  1
AY
  7
SLDTEXTSTYLE1
 73
     1
 44
1.0
  0
MTEXT
  5
1A7
330
1F
100
AcDbEntity
  8
TITLE
100
AcDbMText
 10
80.03679621187368
 20
78.62318503113167
 30
0.0
 40
0.125
 41
0.0
 71
     2
 72
     1
  1
AY
  7
SLDTEXTSTYLE1
 73
     1
 44
1.0
  0
MTEXT
  5
1A8
330
1F
100
AcDbEntity
  8
TITLE
100
AcDbMText
 10
0.3267020535339989
 20
80.59168896813954
 30
0.0
 40
0.125
 41
0.0
 71
     2
 72
     1
  1
BA
  7
SLDTEXTSTYLE1
 73
     1
 44
1.0
  0
MTEXT
  5
1A9
330
1F
100
AcDbEntity
  8
TITLE
100
AcDbMText
 10
80.03634772282533
 20
80.59168896813954
 30
0.0
 40
0.125
 41
0.0
 71
     2
 72
     1
  1
BA
  7
SLDTEXTSTYLE1
 73
     1
 44
1.0
  0
MTEXT
  5
1AA
330
1F
100
AcDbEntity
  8
TITLE
100
AcDbMText
 10
0.3308253172550379
 20
82.56019290514742
 30
0.0
 40
0.125
 41
0.0
 71
     2
 72
     1
  1
BB
  7
SLDTEXTSTYLE1
 73
     1
 44
1.0
  0
MTEXT
  5
1AB
330
1F
100
AcDbEntity
  8
TITLE
100
AcDbMText
 10
80.04047098654637
 20
82.56019290514742
 30
0.0
 40
0.125
 41
0.0
 71
     2
 72
     1
  1
BB
  7
SLDTEXTSTYLE1
 73
     1
 44
1.0
  0
MTEXT
  5
1AC
330
1F
100
AcDbEntity
  8
TITLE
100
AcDbMText
 10
0.3304491530605189
 20
84.52869684215528
 30
0.0
 40
0.125
 41
0.0
 71
     2
 72
     1
  1
BC
  7
SLDTEXTSTYLE1
 73
     1
 44
1.0
  0
MTEXT
  5
1AD
330
1F
100
AcDbEntity
  8
TITLE
100
AcDbMText
 10
80.04009482235185
 20
84.52869684215528
 30
0.0
 40
0.125
 41
0.0
 71
     2
 72
     1
  1
BC
  7
SLDTEXTSTYLE1
 73
     1
 44
1.0
  0
MTEXT
  5
1AE
330
1F
100
AcDbEntity
  8
TITLE
100
AcDbMText
 10
0.3302610742118884
 20
86.49720077916318
 30
0.0
 40
0.125
 41
0.0
 71
     2
 72
     1
  1
BD
  7
SLDTEXTSTYLE1
 73
     1
 44
1.0
  0
MTEXT
  5
1AF
330
1F
100
AcDbEntity
  8
TITLE
100
AcDbMText
 10
80.03990674350321
 20
86.4972007791632
 30
0.0
 40
0.125
 41
0.0
 71
     2
 72
     1
  1
BD
  7
SLDTEXTSTYLE1
 73
     1
 44
1.0
  0
MTEXT
  5
1B0
330
1F
100
AcDbEntity
  8
TITLE
100
AcDbMText
 10
0.3319971919881077
 20
88.46570471617105
 30
0.0
 40
0.125
 41
0.0
 71
     2
 72
     1
  1
BE
  7
SLDTEXTSTYLE1
 73
     1
 44
1.0
  0
MTEXT
  5
1B1
330
1F
100
AcDbEntity
  8
TITLE
100
AcDbMText
 10
80.04164286127944
 20
88.46570471617105
 30
0.0
 40
0.125
 41
0.0
 71
     2
 72
     1
  1
BE
  7
SLDTEXTSTYLE1
 73
     1
 44
1.0
  0
MTEXT
  5
1B2
330
1F
100
AcDbEntity
  8
TITLE
100
AcDbMText
 10
0.3304202233507172
 20
90.43420865317891
 30
0.0
 40
0.125
 41
0.0
 71
     2
 72
     1
  1
BF
  7
SLDTEXTSTYLE1
 73
     1
 44
1.0
  0
MTEXT
  5
1B3
330
1F
100
AcDbEntity
  8
TITLE
100
AcDbMText
 10
80.04006589264205
 20
90.43420865317889
 30
0.0
 40
0.125
 41
0.0
 71
     2
 72
     1
  1
BF
  7
SLDTEXTSTYLE1
 73
     1
 44
1.0
  0
MTEXT
  5
1B4
330
1F
100
AcDbEntity
  8
TITLE
100
AcDbMText
 10
0.3313316813868096
 20
92.4027125901868
 30
0.0
 40
0.125
 41
0.0
 71
     2
 72
     1
  1
BG
  7
SLDTEXTSTYLE1
 73
     1
 44
1.0
  0
MTEXT
  5
1B5
330
1F
100
AcDbEntity
  8
TITLE
100
AcDbMText
 10
80.04097735067815
 20
92.4027125901868
 30
0.0
 40
0.125
 41
0.0
 71
     2
 72
     1
  1
BG
  7
SLDTEXTSTYLE1
 73
     1
 44
1.0
  0
MTEXT
  5
1B6
330
1F
100
AcDbEntity
  8
TITLE
100
AcDbMText
 10
0.331447417048488
 20
94.37121652719466
 30
0.0
 40
0.125
 41
0.0
 71
     2
 72
     1
  1
BH
  7
SLDTEXTSTYLE1
 73
     1
 44
1.0
  0
MTEXT
  5
1B7
330
1F
100
AcDbEntity
  8
TITLE
100
AcDbMText
 10
80.04109308633981
 20
94.37121652719466
 30
0.0
 40
0.125
 41
0.0
 71
     2
 72
     1
  1
BH
  7
SLDTEXTSTYLE1
 73
     1
 44
1.0
  0
MTEXT
  5
1B8
330
1F
100
AcDbEntity
  8
TITLE
100
AcDbMText
 10
0.3306517065099374
 20
96.33972046420254
 30
0.0
 40
0.125
 41
0.0
 71
     2
 72
     1
  1
BJ
  7
SLDTEXTSTYLE1
 73
     1
 44
1.0
  0
MTEXT
  5
1B9
330
1F
100
AcDbEntity
  8
TITLE
100
AcDbMText
 10
80.04029737580127
 20
96.33972046420254
 30
0.0
 40
0.125
 41
0.0
 71
     2
 72
     1
  1
BJ
  7
SLDTEXTSTYLE1
 73
     1
 44
1.0
  0
MTEXT
  5
1BA
330
1F
100
AcDbEntity
  8
TITLE
100
AcDbMText
 10
0.331389552466278
 20
98.45192518861198
 30
0.0
 40
0.125
 41
0.0
 71
     2
 72
     1
  1
BK
  7
SLDTEXTSTYLE1
 73
     1
 44
1.0
  0
MTEXT
  5
1BB
330
1F
100
AcDbEntity
  8
TITLE
100
AcDbMText
 10
80.04103522175761
 20
98.45192518861197
 30
0.0
 40
0.125
 41
0.0
 71
     2
 72
     1
  1
BK
  7
SLDTEXTSTYLE1
 73
     1
 44
1.0
  0
MTEXT
  5
1BC
330
1F
100
AcDbEntity
  8
TITLE
100
AcDbMText
 10
1.640445237055303
 20
0.4125551098718104
 30
0.0
 40
0.125
 41
0.0
 71
     2
 72
     1
  1
40
  7
SLDTEXTSTYLE1
 73
     1
 44
1.0
  0
MTEXT
  5
1BD
330
1F
100
AcDbEntity
  8
TITLE
100
AcDbMText
 10
1.640445237055303
 20
99.74720077916314
 30
0.0
 40
0.125
 41
0.0
 71
     2
 72
     1
  1
40
  7
SLDTEXTSTYLE1
 73
     1
 44
1.0
  0
MTEXT
  5
1BE
330
1F
100
AcDbEntity
  8
TITLE
100
AcDbMText
 10
3.767659803984436
 20
0.4125551098718104
 30
0.0
 40
0.125
 41
0.0
 71
     2
 72
     1
  1
39
  7
SLDTEXTSTYLE1
 73
     1
 44
1.0
  0
MTEXT
  5
1BF
330
1F
100
AcDbEntity
  8
TITLE
100
AcDbMText
 10
3.767659803984436
 20
99.74720077916314
 30
0.0
 40
0.125
 41
0.0
 71
     2
 72
     1
  1
39
  7
SLDTEXTSTYLE1
 73
     1
 44
1.0
  0
MTEXT
  5
1C0
330
1F
100
AcDbEntity
  8
TITLE
100
AcDbMText
 10
5.736163740992311
 20
0.4125551098718105
 30
0.0
 40
0.125
 41
0.0
 71
     2
 72
     1
  1
38
  7
SLDTEXTSTYLE1
 73
     1
 44
1.0
  0
MTEXT
  5
1C1
330
1F
100
AcDbEntity
  8
TITLE
100
AcDbMText
 10
5.736163740992311
 20
99.74720077916314
 30
0.0
 40
0.125
 41
0.0
 71
     2
 72
     1
  1
38
  7
SLDTEXTSTYLE1
 73
     1
 44
1.0
  0
MTEXT
  5
1C2
330
1F
100
AcDbEntity
  8
TITLE
100
AcDbMText
 10
7.704667678000185
 20
0.4125551098718104
 30
0.0
 40
0.125
 41
0.0
 71
     2
 72
     1
  1
37
  7
SLDTEXTSTYLE1
 73
     1
 44
1.0
  0
MTEXT
  5
1C3
330
1F
100
AcDbEntity
  8
TITLE
100
AcDbMText
 10
7.704667678000184
 20
99.74720077916314
 30
0.0
 40
0.125
 41
0.0
 71
     2
 72
     1
  1
37
  7
SLDTEXTSTYLE1
 73
     1
 44
1.0
  0
MTEXT
  5
1C4
330
1F
100
AcDbEntity
  8
TITLE
100
AcDbMText
 10
9.673171615008059
 20
0.4125551098718104
 30
0.0
 40
0.125
 41
0.0
 71
     2
 72
     1
  1
36
  7
SLDTEXTSTYLE1
 73
     1
 44
1.0
  0
MTEXT
  5
1C5
330
1F
100
AcDbEntity
  8
TITLE
100
AcDbMText
 10
9.67317161500806
 20
99.74720077916314
 30
0.0
 40
0.125
 41
0.0
 71
     2
 72
     1
  1
36
  7
SLDTEXTSTYLE1
 73
     1
 44
1.0
  0
MTEXT
  5
1C6
330
1F
100
AcDbEntity
  8
TITLE
100
AcDbMText
 10
11.64167555201593
 20
0.4125551098718104
 30
0.0
 40
0.125
 41
0.0
 71
     2
 72
     1
  1
35
  7
SLDTEXTSTYLE1
 73
     1
 44
1.0
  0
MTEXT
  5
1C7
330
1F
100
AcDbEntity
  8
TITLE
100
AcDbMText
 10
11.64167555201593
 20
99.74720077916314
 30
0.0
 40
0.125
 41
0.0
 71
     2
 72
     1
  1
35
  7
SLDTEXTSTYLE1
 73
     1
 44
1.0
  0
MTEXT
  5
1C8
330
1F
100
AcDbEntity
  8
TITLE
100
AcDbMText
 10
13.61017948902381
 20
0.4125551098718104
 30
0.0
 40
0.125
 41
0.0
 71
     2
 72
     1
  1
34
  7
SLDTEXTSTYLE1
 73
     1
 44
1.0
  0
MTEXT
  5
1C9
330
1F
100
AcDbEntity
  8
TITLE
100
AcDbMText
 10
13.61017948902381
 20
99.74720077916314
 30
0.0
 40
0.125
 41
0.0
 71
     2
 72
     1
  1
34
  7
SLDTEXTSTYLE1
 73
     1
 44
1.0
  0
MTEXT
  5
1CA
330
1F
100
AcDbEntity
  8
TITLE
100
AcDbMText
 10
15.57868342603168
 20
0.4125551098718104
 30
0.0
 40
0.125
 41
0.0
 71
     2
 72
     1
  1
33
  7
SLDTEXTSTYLE1
 73
     1
 44
1.0
  0
MTEXT
  5
1CB
330
1F
100
AcDbEntity
  8
TITLE
100
AcDbMText
 10
15.57868342603168
 20
99.74720077916314
 30
0.0
 40
0.125
 41
0.0
 71
     2
 72
     1
  1
33
  7
SLDTEXTSTYLE1
 73
     1
 44
1.0
  0
MTEXT
  5
1CC
330
1F
100
AcDbEntity
  8
TITLE
100
AcDbMText
 10
17.54718736303955
 20
0.4125551098718104
 30
0.0
 40
0.125
 41
0.0
 71
     2
 72
     1
  1
32
  7
SLDTEXTSTYLE1
 73
     1
 44
1.0
  0
MTEXT
  5
1CD
330
1F
100
AcDbEntity
  8
TITLE
100
AcDbMText
 10
17.54718736303955
 20
99.74720077916314
 30
0.0
 40
0.125
 41
0.0
 71
     2
 72
     1
  1
32
  7
SLDTEXTSTYLE1
 73
     1
 44
1.0
  0
MTEXT
  5
1CE
330
1F
100
AcDbEntity
  8
TITLE
100
AcDbMText
 10
19.51569130004743
 20
0.4125551098718104
 30
0.0
 40
0.125
 41
0.0
 71
     2
 72
     1
  1
31
  7
SLDTEXTSTYLE1
 73
     1
 44
1.0
  0
MTEXT
  5
1CF
330
1F
100
AcDbEntity
  8
TITLE
100
AcDbMText
 10
19.51569130004743
 20
99.74720077916314
 30
0.0
 40
0.125
 41
0.0
 71
     2
 72
     1
  1
31
  7
SLDTEXTSTYLE1
 73
     1
 44
1.0
  0
MTEXT
  5
1D0
330
1F
100
AcDbEntity
  8
TITLE
100
AcDbMText
 10
21.48419523705531
 20
0.4125551098718104
 30
0.0
 40
0.125
 41
0.0
 71
     2
 72
     1
  1
30
  7
SLDTEXTSTYLE1
 73
     1
 44
1.0
  0
MTEXT
  5
1D1
330
1F
100
AcDbEntity
  8
TITLE
100
AcDbMText
 10
21.48419523705531
 20
99.74720077916314
 30
0.0
 40
0.125
 41
0.0
 71
     2
 72
     1
  1
30
  7
SLDTEXTSTYLE1
 73
     1
 44
1.0
  0
MTEXT
  5
1D2
330
1F
100
AcDbEntity
  8
TITLE
100
AcDbMText
 10
23.45269917406318
 20
0.4125551098718104
 30
0.0
 40
0.125
 41
0.0
 71
     2
 72
     1
  1
29
  7
SLDTEXTSTYLE1
 73
     1
 44
1.0
  0
MTEXT
  5
1D3
330
1F
100
AcDbEntity
  8
TITLE
100
AcDbMText
 10
23.45269917406318
 20
99.74720077916314
 30
0.0
 40
0.125
 41
0.0
 71
     2
 72
     1
  1
29
  7
SLDTEXTSTYLE1
 73
     1
 44
1.0
  0
MTEXT
  5
1D4
330
1F
100
AcDbEntity
  8
TITLE
100
AcDbMText
 10
25.42120311107105
 20
0.4125551098718104
 30
0.0
 40
0.125
 41
0.0
 71
     2
 72
     1
  1
28
  7
SLDTEXTSTYLE1
 73
     1
 44
1.0
  0
MTEXT
  5
1D5
330
1F
100
AcDbEntity
  8
TITLE
100
AcDbMText
 10
25.42120311107105
 20
99.74720077916314
 30
0.0
 40
0.125
 41
0.0
 71
     2
 72
     1
  1
28
  7
SLDTEXTSTYLE1
 73
     1
 44
1.0
  0
MTEXT
  5
1D6
330
1F
100
AcDbEntity
  8
TITLE
100
AcDbMText
 10
27.38970704807892
 20
0.4125551098718104
 30
0.0
 40
0.125
 41
0.0
 71
     2
 72
     1
  1
27
  7
SLDTEXTSTYLE1
 73
     1
 44
1.0
  0
MTEXT
  5
1D7
330
1F
100
AcDbEntity
  8
TITLE
100
AcDbMText
 10
27.38970704807893
 20
99.74720077916314
 30
0.0
 40
0.125
 41
0.0
 71
     2
 72
     1
  1
27
  7
SLDTEXTSTYLE1
 73
     1
 44
1.0
  0
MTEXT
  5
1D8
330
1F
100
AcDbEntity
  8
TITLE
100
AcDbMText
 10
29.3582109850868
 20
0.4125551098718104
 30
0.0
 40
0.125
 41
0.0
 71
     2
 72
     1
  1
26
  7
SLDTEXTSTYLE1
 73
     1
 44
1.0
  0
MTEXT
  5
1D9
330
1F
100
AcDbEntity
  8
TITLE
100
AcDbMText
 10
29.3582109850868
 20
99.74720077916314
 30
0.0
 40
0.125
 41
0.0
 71
     2
 72
     1
  1
26
  7
SLDTEXTSTYLE1
 73
     1
 44
1.0
  0
MTEXT
  5
1DA
330
1F
100
AcDbEntity
  8
TITLE
100
AcDbMText
 10
31.32671492209467
 20
0.4125551098718104
 30
0.0
 40
0.125
 41
0.0
 71
     2
 72
     1
  1
25
  7
SLDTEXTSTYLE1
 73
     1
 44
1.0
  0
MTEXT
  5
1DB
330
1F
100
AcDbEntity
  8
TITLE
100
AcDbMText
 10
31.32671492209467
 20
99.74720077916312
 30
0.0
 40
0.125
 41
0.0
 71
     2
 72
     1
  1
25
  7
SLDTEXTSTYLE1
 73
     1
 44
1.0
  0
MTEXT
  5
1DC
330
1F
100
AcDbEntity
  8
TITLE
100
AcDbMText
 10
33.29521885910255
 20
0.4125551098718104
 30
0.0
 40
0.125
 41
0.0
 71
     2
 72
     1
  1
24
  7
SLDTEXTSTYLE1
 73
     1
 44
1.0
  0
MTEXT
  5
1DD
330
1F
100
AcDbEntity
  8
TITLE
100
AcDbMText
 10
33.29521885910255
 20
99.74720077916314
 30
0.0
 40
0.125
 41
0.0
 71
     2
 72
     1
  1
24
  7
SLDTEXTSTYLE1
 73
     1
 44
1.0
  0
MTEXT
  5
1DE
330
1F
100
AcDbEntity
  8
TITLE
100
AcDbMText
 10
35.26372279611042
 20
0.4125551098718104
 30
0.0
 40
0.125
 41
0.0
 71
     2
 72
     1
  1
23
  7
SLDTEXTSTYLE1
 73
     1
 44
1.0
  0
MTEXT
  5
1DF
330
1F
100
AcDbEntity
  8
TITLE
100
AcDbMText
 10
35.26372279611042
 20
99.74720077916314
 30
0.0
 40
0.125
 41
0.0
 71
     2
 72
     1
  1
23
  7
SLDTEXTSTYLE1
 73
     1
 44
1.0
  0
MTEXT
  5
1E0
330
1F
100
AcDbEntity
  8
TITLE
100
AcDbMText
 10
37.2322267331183
 20
0.4125551098718104
 30
0.0
 40
0.125
 41
0.0
 71
     2
 72
     1
  1
22
  7
SLDTEXTSTYLE1
 73
     1
 44
1.0
  0
MTEXT
  5
1E1
330
1F
100
AcDbEntity
  8
TITLE
100
AcDbMText
 10
37.2322267331183
 20
99.74720077916314
 30
0.0
 40
0.125
 41
0.0
 71
     2
 72
     1
  1
22
  7
SLDTEXTSTYLE1
 73
     1
 44
1.0
  0
MTEXT
  5
1E2
330
1F
100
AcDbEntity
  8
TITLE
100
AcDbMText
 10
39.20073067012617
 20
0.4125551098718104
 30
0.0
 40
0.125
 41
0.0
 71
     2
 72
     1
  1
21
  7
SLDTEXTSTYLE1
 73
     1
 44
1.0
  0
MTEXT
  5
1E3
330
1F
100
AcDbEntity
  8
TITLE
100
AcDbMText
 10
39.20073067012617
 20
99.74720077916314
 30
0.0
 40
0.125
 41
0.0
 71
     2
 72
     1
  1
21
  7
SLDTEXTSTYLE1
 73
     1
 44
1.0
  0
MTEXT
  5
1E4
330
1F
100
AcDbEntity
  8
TITLE
100
AcDbMText
 10
41.16923460713404
 20
0.4125551098718104
 30
0.0
 40
0.125
 41
0.0
 71
     2
 72
     1
  1
20
  7
SLDTEXTSTYLE1
 73
     1
 44
1.0
  0
MTEXT
  5
1E5
330
1F
100
AcDbEntity
  8
TITLE
100
AcDbMText
 10
41.16923460713404
 20
99.74720077916314
 30
0.0
 40
0.125
 41
0.0
 71
     2
 72
     1
  1
20
  7
SLDTEXTSTYLE1
 73
     1
 44
1.0
  0
MTEXT
  5
1E6
330
1F
100
AcDbEntity
  8
TITLE
100
AcDbMText
 10
43.13773854414192
 20
0.4125551098718104
 30
0.0
 40
0.125
 41
0.0
 71
     2
 72
     1
  1
19
  7
SLDTEXTSTYLE1
 73
     1
 44
1.0
  0
MTEXT
  5
1E7
330
1F
100
AcDbEntity
  8
TITLE
100
AcDbMText
 10
43.13773854414192
 20
99.74720077916314
 30
0.0
 40
0.125
 41
0.0
 71
     2
 72
     1
  1
19
  7
SLDTEXTSTYLE1
 73
     1
 44
1.0
  0
MTEXT
  5
1E8
330
1F
100
AcDbEntity
  8
TITLE
100
AcDbMText
 10
45.10624248114979
 20
0.4125551098718104
 30
0.0
 40
0.125
 41
0.0
 71
     2
 72
     1
  1
18
  7
SLDTEXTSTYLE1
 73
     1
 44
1.0
  0
MTEXT
  5
1E9
330
1F
100
AcDbEntity
  8
TITLE
100
AcDbMText
 10
45.10624248114979
 20
99.74720077916314
 30
0.0
 40
0.125
 41
0.0
 71
     2
 72
     1
  1
18
  7
SLDTEXTSTYLE1
 73
     1
 44
1.0
  0
MTEXT
  5
1EA
330
1F
100
AcDbEntity
  8
TITLE
100
AcDbMText
 10
47.07474641815766
 20
0.4125551098718104
 30
0.0
 40
0.125
 41
0.0
 71
     2
 72
     1
  1
17
  7
SLDTEXTSTYLE1
 73
     1
 44
1.0
  0
MTEXT
  5
1EB
330
1F
100
AcDbEntity
  8
TITLE
100
AcDbMText
 10
47.07474641815766
 20
99.74720077916314
 30
0.0
 40
0.125
 41
0.0
 71
     2
 72
     1
  1
17
  7
SLDTEXTSTYLE1
 73
     1
 44
1.0
  0
MTEXT
  5
1EC
330
1F
100
AcDbEntity
  8
TITLE
100
AcDbMText
 10
49.04325035516555
 20
0.4125551098718104
 30
0.0
 40
0.125
 41
0.0
 71
     2
 72
     1
  1
16
  7
SLDTEXTSTYLE1
 73
     1
 44
1.0
  0
MTEXT
  5
1ED
330
1F
100
AcDbEntity
  8
TITLE
100
AcDbMText
 10
49.04325035516555
 20
99.74720077916315
 30
0.0
 40
0.125
 41
0.0
 71
     2
 72
     1
  1
16
  7
SLDTEXTSTYLE1
 73
     1
 44
1.0
  0
MTEXT
  5
1EE
330
1F
100
AcDbEntity
  8
TITLE
100
AcDbMText
 10
51.01175429217341
 20
0.4125551098718104
 30
0.0
 40
0.125
 41
0.0
 71
     2
 72
     1
  1
15
  7
SLDTEXTSTYLE1
 73
     1
 44
1.0
  0
MTEXT
  5
1EF
330
1F
100
AcDbEntity
  8
TITLE
100
AcDbMText
 10
51.01175429217341
 20
99.74720077916314
 30
0.0
 40
0.125
 41
0.0
 71
     2
 72
     1
  1
15
  7
SLDTEXTSTYLE1
 73
     1
 44
1.0
  0
MTEXT
  5
1F0
330
1F
100
AcDbEntity
  8
TITLE
100
AcDbMText
 10
52.9802582291813
 20
0.4125551098718104
 30
0.0
 40
0.125
 41
0.0
 71
     2
 72
     1
  1
14
  7
SLDTEXTSTYLE1
 73
     1
 44
1.0
  0
MTEXT
  5
1F1
330
1F
100
AcDbEntity
  8
TITLE
100
AcDbMText
 10
52.98025822918129
 20
99.74720077916312
 30
0.0
 40
0.125
 41
0.0
 71
     2
 72
     1
  1
14
  7
SLDTEXTSTYLE1
 73
     1
 44
1.0
  0
MTEXT
  5
1F2
330
1F
100
AcDbEntity
  8
TITLE
100
AcDbMText
 10
54.94876216618916
 20
0.4125551098718104
 30
0.0
 40
0.125
 41
0.0
 71
     2
 72
     1
  1
13
  7
SLDTEXTSTYLE1
 73
     1
 44
1.0
  0
MTEXT
  5
1F3
330
1F
100
AcDbEntity
  8
TITLE
100
AcDbMText
 10
54.94876216618916
 20
99.74720077916314
 30
0.0
 40
0.125
 41
0.0
 71
     2
 72
     1
  1
13
  7
SLDTEXTSTYLE1
 73
     1
 44
1.0
  0
MTEXT
  5
1F4
330
1F
100
AcDbEntity
  8
TITLE
100
AcDbMText
 10
56.91726610319703
 20
0.4125551098718104
 30
0.0
 40
0.125
 41
0.0
 71
     2
 72
     1
  1
12
  7
SLDTEXTSTYLE1
 73
     1
 44
1.0
  0
MTEXT
  5
1F5
330
1F
100
AcDbEntity
  8
TITLE
100
AcDbMText
 10
56.91726610319703
 20
99.74720077916314
 30
0.0
 40
0.125
 41
0.0
 71
     2
 72
     1
  1
12
  7
SLDTEXTSTYLE1
 73
     1
 44
1.0
  0
MTEXT
  5
1F6
330
1F
100
AcDbEntity
  8
TITLE
100
AcDbMText
 10
58.88577004020492
 20
0.4125551098718104
 30
0.0
 40
0.125
 41
0.0
 71
     2
 72
     1
  1
11
  7
SLDTEXTSTYLE1
 73
     1
 44
1.0
  0
MTEXT
  5
1F7
330
1F
100
AcDbEntity
  8
TITLE
100
AcDbMText
 10
58.88577004020492
 20
99.74720077916314
 30
0.0
 40
0.125
 41
0.0
 71
     2
 72
     1
  1
11
  7
SLDTEXTSTYLE1
 73
     1
 44
1.0
  0
MTEXT
  5
1F8
330
1F
100
AcDbEntity
  8
TITLE
100
AcDbMText
 10
60.85427397721278
 20
0.4125551098718104
 30
0.0
 40
0.125
 41
0.0
 71
     2
 72
     1
  1
10
  7
SLDTEXTSTYLE1
 73
     1
 44
1.0
  0
MTEXT
  5
1F9
330
1F
100
AcDbEntity
  8
TITLE
100
AcDbMText
 10
60.85427397721278
 20
99.74720077916312
 30
0.0
 40
0.125
 41
0.0
 71
     2
 72
     1
  1
10
  7
SLDTEXTSTYLE1
 73
     1
 44
1.0
  0
MTEXT
  5
1FA
330
1F
100
AcDbEntity
  8
TITLE
100
AcDbMText
 10
62.82403659490561
 20
0.4125551098718105
 30
0.0
 40
0.125
 41
0.0
 71
     2
 72
     1
  1
9
  7
SLDTEXTSTYLE1
 73
     1
 44
1.0
  0
MTEXT
  5
1FB
330
1F
100
AcDbEntity
  8
TITLE
100
AcDbMText
 10
62.82403659490561
 20
99.74720077916314
 30
0.0
 40
0.125
 41
0.0
 71
     2
 72
     1
  1
9
  7
SLDTEXTSTYLE1
 73
     1
 44
1.0
  0
MTEXT
  5
1FC
330
1F
100
AcDbEntity
  8
TITLE
100
AcDbMText
 10
64.79254053191349
 20
0.4125551098718104
 30
0.0
 40
0.125
 41
0.0
 71
     2
 72
     1
  1
8
  7
SLDTEXTSTYLE1
 73
     1
 44
1.0
  0
MTEXT
  5
1FD
330
1F
100
AcDbEntity
  8
TITLE
100
AcDbMText
 10
64.79254053191349
 20
99.74720077916314
 30
0.0
 40
0.125
 41
0.0
 71
     2
 72
     1
  1
8
  7
SLDTEXTSTYLE1
 73
     1
 44
1.0
  0
MTEXT
  5
1FE
330
1F
100
AcDbEntity
  8
TITLE
100
AcDbMText
 10
66.76104446892136
 20
0.4125551098718104
 30
0.0
 40
0.125
 41
0.0
 71
     2
 72
     1
  1
7
  7
SLDTEXTSTYLE1
 73
     1
 44
1.0
  0
MTEXT
  5
1FF
330
1F
100
AcDbEntity
  8
TITLE
100
AcDbMText
 10
66.76104446892137
 20
99.74720077916314
 30
0.0
 40
0.125
 41
0.0
 71
     2
 72
     1
  1
7
  7
SLDTEXTSTYLE1
 73
     1
 44
1.0
  0
MTEXT
  5
200
330
1F
100
AcDbEntity
  8
TITLE
100
AcDbMText
 10
68.72954840592924
 20
0.4125551098718104
 30
0.0
 40
0.125
 41
0.0
 71
     2
 72
     1
  1
6
  7
SLDTEXTSTYLE1
 73
     1
 44
1.0
  0
MTEXT
  5
201
330
1F
100
AcDbEntity
  8
TITLE
100
AcDbMText
 10
68.72954840592924
 20
99.74720077916314
 30
0.0
 40
0.125
 41
0.0
 71
     2
 72
     1
  1
6
  7
SLDTEXTSTYLE1
 73
     1
 44
1.0
  0
MTEXT
  5
202
330
1F
100
AcDbEntity
  8
TITLE
100
AcDbMText
 10
70.69805234293709
 20
0.4125551098718104
 30
0.0
 40
0.125
 41
0.0
 71
     2
 72
     1
  1
5
  7
SLDTEXTSTYLE1
 73
     1
 44
1.0
  0
MTEXT
  5
203
330
1F
100
AcDbEntity
  8
TITLE
100
AcDbMText
 10
70.6980523429371
 20
99.74720077916314
 30
0.0
 40
0.125
 41
0.0
 71
     2
 72
     1
  1
5
  7
SLDTEXTSTYLE1
 73
     1
 44
1.0
  0
MTEXT
  5
204
330
1F
100
AcDbEntity
  8
TITLE
100
AcDbMText
 10
72.66655627994497
 20
0.4125551098718104
 30
0.0
 40
0.125
 41
0.0
 71
     2
 72
     1
  1
4
  7
SLDTEXTSTYLE1
 73
     1
 44
1.0
  0
MTEXT
  5
205
330
1F
100
AcDbEntity
  8
TITLE
100
AcDbMText
 10
72.66655627994498
 20
99.74720077916315
 30
0.0
 40
0.125
 41
0.0
 71
     2
 72
     1
  1
4
  7
SLDTEXTSTYLE1
 73
     1
 44
1.0
  0
MTEXT
  5
206
330
1F
100
AcDbEntity
  8
TITLE
100
AcDbMText
 10
74.63506021695285
 20
0.4125551098718104
 30
0.0
 40
0.125
 41
0.0
 71
     2
 72
     1
  1
3
  7
SLDTEXTSTYLE1
 73
     1
 44
1.0
  0
MTEXT
  5
207
330
1F
100
AcDbEntity
  8
TITLE
100
AcDbMText
 10
74.63506021695284
 20
99.74720077916314
 30
0.0
 40
0.125
 41
0.0
 71
     2
 72
     1
  1
3
  7
SLDTEXTSTYLE1
 73
     1
 44
1.0
  0
MTEXT
  5
208
330
1F
100
AcDbEntity
  8
TITLE
100
AcDbMText
 10
76.60356415396072
 20
0.4125551098718104
 30
0.0
 40
0.125
 41
0.0
 71
     2
 72
     1
  1
2
  7
SLDTEXTSTYLE1
 73
     1
 44
1.0
  0
MTEXT
  5
209
330
1F
100
AcDbEntity
  8
TITLE
100
AcDbMText
 10
76.60356415396073
 20
99.74720077916314
 30
0.0
 40
0.125
 41
0.0
 71
     2
 72
     1
  1
2
  7
SLDTEXTSTYLE1
 73
     1
 44
1.0
  0
MTEXT
  5
20A
330
1F
100
AcDbEntity
  8
TITLE
100
AcDbMText
 10
78.73077872088987
 20
0.4125551098718104
 30
0.0
 40
0.125
 41
0.0
 71
     2
 72
     1
  1
1
  7
SLDTEXTSTYLE1
 73
     1
 44
1.0
  0
MTEXT
  5
20B
330
1F
100
AcDbEntity
  8
TITLE
100
AcDbMText
 10
78.73077872088987
 20
99.74720077916314
 30
0.0
 40
0.125
 41
0.0
 71
     2
 72
     1
  1
1
  7
SLDTEXTSTYLE1
 73
     1
 44
1.0
  0
LINE
  5
20C
330
1F
100
AcDbEntity
  8
0
  6
SLD-Solid
 62
     7
370
    25
100
AcDbLine
 10
8.566350291886925
 20
43.70101935099007
 30
0.0
 11
29.97652619876551
 21
43.70101935099018
 31
0.0
  0
SPLINE
  5
20D
330
1F
100
AcDbEntity
  8
0
  6
SLD-Solid
 62
     7
370
    25
100
AcDbSpline
210
0.0
220
0.0
230
1.0
 70
    12
 71
     3
 72
    12
 73
     8
 74
     0
 42
0.00000001
 43
0.00000001
 40
0.0
 40
0.0
 40
0.0
 40
0.0
 40
0.2357348826315907
 40
0.4715275342014754
 40
0.7073202912751422
 40
0.9431130742660918
 40
1.0
 40
1.0
 40
1.0
 40
1.0
 10
30.03243824532622
 20
43.78001935099018
 30
0.0
 41
1.0
 10
30.0280447827371
 20
43.7702840209073
 30
0.0
 41
1.0
 10
30.01925678090162
 20
43.75081097501194
 30
0.0
 41
1.0
 10
30.00607418809245
 20
43.72534484184959
 30
0.0
 41
1.0
 10
29.99289052947962
 20
43.70814187406236
 30
0.0
 41
1.0
 10
29.98304119766333
 20
43.70017658275182
 30
0.0
 41
1.0
 10
29.97758642082884
 20
43.70170803433298
 30
0.0
 41
1.0
 10
29.97652619876551
 20
43.70200569614475
 30
0.0
 41
1.0
  0
SPLINE
  5
20E
330
1F
100
AcDbEntity
  8
0
  6
SLD-Solid
 62
     7
370
    25
100
AcDbSpline
210
0.0
220
0.0
230
1.0
 70
    12
 71
     3
 72
    12
 73
     8
 74
     0
 42
0.00000001
 43
0.00000001
 40
0.0
 40
0.0
 40
0.0
 40
0.0
 40
0.2357348826315829
 40
0.4715275342014593
 40
0.7073202912751001
 40
0.9431130742660498
 40
1.0
 40
1.0
 40
1.0
 40
1.0
 10
8.510438245326215
 20
43.78001935099007
 30
0.0
 41
1.0
 10
8.514831707915334
 20
43.77028402090718
 30
0.0
 41
1.0
 10
8.523619709750811
 20
43.75081097501182
 30
0.0
 41
1.0
 10
8.536802302559984
 20
43.72534484184946
 30
0.0
 41
1.0
 10
8.54998596117281
 20
43.70814187406227
 30
0.0
 41
1.0
 10
8.559835292989108
 20
43.70017658275167
 30
0.0
 41
1.0
 10
8.565290069823593
 20
43.70170803433287
 30
0.0
 41
1.0
 10
8.566350291886925
 20
43.70200569614463
 30
0.0
 41
1.0
  0
LINE
  5
20F
330
1F
100
AcDbEntity
  8
0
  6
SLD-Solid
 62
     7
370
    25
100
AcDbLine
 10
30.03243824532622
 20
43.78001935099018
 30
0.0
 11
30.03243824532621
 21
44.6485478342101
 31
0.0
  0
LINE
  5
210
330
1F
100
AcDbEntity
  8
0
  6
SLD-Solid
 62
     7
370
    25
100
AcDbLine
 10
30.03243824532621
 20
44.6485478342101
 30
0.0
 11
30.11143824532621
 21
44.6485478342101
 31
0.0
  0
LINE
  5
211
330
1F
100
AcDbEntity
  8
0
  6
SLD-Solid
 62
     7
370
    25
100
AcDbLine
 10
30.11143824532621
 20
43.78001935099018
 30
0.0
 11
30.11143824532621
 21
44.6485478342101
 31
0.0
  0
LINE
  5
212
330
1F
100
AcDbEntity
  8
0
  6
SLD-Solid
 62
     7
370
    25
100
AcDbLine
 10
30.11143824532623
 20
43.7485478342101
 30
0.0
 11
30.11143824532621
 21
43.78001935099018
 31
0.0
  0
LINE
  5
213
330
1F
100
AcDbEntity
  8
0
  6
SLD-Solid
 62
     7
370
    25
100
AcDbLine
 10
30.03243824532622
 20
43.7485478342101
 30
0.0
 11
30.03243824532622
 21
43.78001935099018
 31
0.0
  0
LINE
  5
214
330
1F
100
AcDbEntity
  8
0
  6
SLD-Solid
 62
     7
370
    25
100
AcDbLine
 10
30.03243824532622
 20
43.7485478342101
 30
0.0
 11
30.11143824532623
 21
43.7485478342101
 31
0.0
  0
LINE
  5
215
330
1F
100
AcDbEntity
  8
0
  6
SLD-Solid
 62
     7
370
    25
100
AcDbLine
 10
8.510438245326215
 20
43.78001935099007
 30
0.0
 11
8.51043824532621
 21
44.64854783420999
 31
0.0
  0
LINE
  5
216
330
1F
100
AcDbEntity
  8
0
  6
SLD-Solid
 62
     7
370
    25
100
AcDbLine
 10
30.03243824532621
 20
44.6485478342101
 30
0.0
 11
8.51043824532621
 21
44.64854783420999
 31
0.0
  0
LINE
  5
217
330
1F
100
AcDbEntity
  8
0
  6
SLD-Solid
 62
     7
370
    25
100
AcDbLine
 10
8.431438245326204
 20
43.74854783420999
 30
0.0
 11
8.431438245326216
 21
43.78001935099007
 31
0.0
  0
LINE
  5
218
330
1F
100
AcDbEntity
  8
0
  6
SLD-Solid
 62
     7
370
    25
100
AcDbLine
 10
8.431438245326216
 20
43.78001935099007
 30
0.0
 11
8.431438245326211
 21
44.64854783420999
 31
0.0
  0
LINE
  5
219
330
1F
100
AcDbEntity
  8
0
  6
SLD-Solid
 62
     7
370
    25
100
AcDbLine
 10
8.51043824532621
 20
44.64854783420999
 30
0.0
 11
8.431438245326211
 21
44.64854783420999
 31
0.0
  0
LINE
  5
21A
330
1F
100
AcDbEntity
  8
0
  6
SLD-Solid
 62
     7
370
    25
100
AcDbLine
 10
8.510438245326215
 20
43.74854783420999
 30
0.0
 11
8.510438245326215
 21
43.78001935099007
 31
0.0
  0
LINE
  5
21B
330
1F
100
AcDbEntity
  8
0
  6
SLD-Solid
 62
     7
370
    25
100
AcDbLine
 10
8.510438245326215
 20
43.74854783420999
 30
0.0
 11
8.431438245326204
 21
43.74854783420999
 31
0.0
  0
SPLINE
  5
21C
330
1F
100
AcDbEntity
  8
0
  6
SLD-Solid
 62
     7
370
    25
100
AcDbSpline
210
0.0
220
0.0
230
1.0
 70
    12
 71
     3
 72
    13
 73
     9
 74
     0
 42
0.00000001
 43
0.00000001
 40
0.0
 40
0.0
 40
0.0
 40
0.0
 40
0.1259220494261003
 40
0.3401722731188955
 40
0.5544225194287364
 40
0.7686727879052534
 40
0.9829230781025956
 40
1.0
 40
1.0
 40
1.0
 40
1.0
 10
29.9949533050426
 20
43.71196868223899
 30
0.0
 41
1.0
 10
29.99991382030524
 20
43.70906804622456
 30
0.0
 41
1.0
 10
30.01331441027678
 20
43.70123211954603
 30
0.0
 41
1.0
 10
30.03937372726337
 20
43.69976323495181
 30
0.0
 41
1.0
 10
30.06811706914422
 20
43.7073001344471
 30
0.0
 41
1.0
 10
30.09112844580024
 20
43.72539414245689
 30
0.0
 41
1.0
 10
30.10441464557368
 20
43.74226669581507
 30
0.0
 41
1.0
 10
30.10624180756166
 20
43.75258936537526
 30
0.0
 41
1.0
 10
30.10637669140122
 20
43.7533514003311
 30
0.0
 41
1.0
  0
SPLINE
  5
21D
330
1F
100
AcDbEntity
  8
0
  6
SLD-Solid
 62
     7
370
    25
100
AcDbSpline
210
0.0
220
0.0
230
1.0
 70
    12
 71
     3
 72
    13
 73
     9
 74
     0
 42
0.00000001
 43
0.00000001
 40
0.0
 40
0.0
 40
0.0
 40
0.0
 40
0.1259220494260762
 40
0.3401722731188769
 40
0.5544225194287301
 40
0.7686727879052739
 40
0.9829230781026219
 40
1.0
 40
1.0
 40
1.0
 40
1.0
 10
8.54792318560983
 20
43.71196868223886
 30
0.0
 41
1.0
 10
8.54296267034719
 20
43.70906804622444
 30
0.0
 41
1.0
 10
8.529562080375658
 20
43.70123211954589
 30
0.0
 41
1.0
 10
8.503502763389058
 20
43.69976323495169
 30
0.0
 41
1.0
 10
8.474759421508212
 20
43.707300134447
 30
0.0
 41
1.0
 10
8.451748044852186
 20
43.72539414245679
 30
0.0
 41
1.0
 10
8.438461845078756
 20
43.74226669581493
 30
0.0
 41
1.0
 10
8.436634683090771
 20
43.75258936537515
 30
0.0
 41
1.0
 10
8.436499799251207
 20
43.75335140033098
 30
0.0
 41
1.0
  0
LINE
  5
21E
330
1F
100
AcDbEntity
  8
0
  6
SLD-Solid
 62
     7
370
    25
100
AcDbLine
 10
29.62653824532614
 20
13.6051473946525
 30
0.0
 11
29.32973521575351
 21
13.6051473946525
 31
0.0
  0
LINE
  5
21F
330
1F
100
AcDbEntity
  8
0
  6
SLD-Solid
 62
     7
370
    25
100
AcDbLine
 10
9.298241274898924
 20
13.6051473946525
 30
0.0
 11
9.001538245326136
 21
13.6051473946525
 31
0.0
  0
LINE
  5
220
330
1F
100
AcDbEntity
  8
0
  6
SLD-Solid
 62
     7
370
    25
100
AcDbLine
 10
8.751538245326126
 20
13.6051473946525
 30
0.0
 11
8.751538245326126
 21
13.6351473946525
 31
0.0
  0
LINE
  5
221
330
1F
100
AcDbEntity
  8
0
  6
SLD-Solid
 62
     7
370
    25
100
AcDbLine
 10
9.001538245326136
 20
13.6051473946525
 30
0.0
 11
8.751538245326126
 21
13.6051473946525
 31
0.0
  0
LINE
  5
222
330
1F
100
AcDbEntity
  8
0
  6
SLD-Solid
 62
     7
370
    25
100
AcDbLine
 10
29.87653824532613
 20
13.6351473946525
 30
0.0
 11
29.87653824532613
 21
13.6051473946525
 31
0.0
  0
LINE
  5
223
330
1F
100
AcDbEntity
  8
0
  6
SLD-Solid
 62
     7
370
    25
100
AcDbLine
 10
29.87653824532613
 20
13.6051473946525
 30
0.0
 11
29.62653824532614
 21
13.6051473946525
 31
0.0
  0
LINE
  5
224
330
1F
100
AcDbEntity
  8
0
  6
SLD-Solid
 62
     7
370
    25
100
AcDbLine
 10
29.87653824532608
 20
13.65354783420993
 30
0.0
 11
29.87653824532608
 21
13.63514739465252
 31
0.0
  0
LINE
  5
225
330
1F
100
AcDbEntity
  8
0
  6
SLD-Solid
 62
     7
370
    25
100
AcDbLine
 10
8.751538245326072
 20
13.63514739465252
 30
0.0
 11
8.751538245326072
 21
13.65354783421001
 31
0.0
  0
LINE
  5
226
330
1F
100
AcDbEntity
  8
0
  6
SLD-Solid
 62
     7
370
    25
100
AcDbLine
 10
9.298267919830279
 20
13.57514739465253
 30
0.0
 11
29.32970857082215
 21
13.57514739465246
 31
0.0
  0
SPLINE
  5
227
330
1F
100
AcDbEntity
  8
0
  6
SLD-Solid
 62
     7
370
    25
100
AcDbSpline
210
0.0
220
0.0
230
1.0
 70
    12
 71
     3
 72
    11
 73
     7
 74
     0
 42
0.00000001
 43
0.00000001
 40
0.0
 40
0.0
 40
0.0
 40
0.0
 40
0.250000000000004
 40
0.4999999999999981
 40
0.7499999999999999
 40
1.0
 40
1.0
 40
1.0
 40
1.0
 10
9.298223846084344
 20
13.64514739465253
 30
0.0
 41
1.0
 10
9.298227518896503
 20
13.6359748015861
 30
0.0
 41
1.0
 10
9.298234864520827
 20
13.61762961545322
 30
0.0
 41
1.0
 10
9.298245882957312
 20
13.59449146985644
 30
0.0
 41
1.0
 10
9.298256901393797
 20
13.57830402493787
 30
0.0
 41
1.0
 10
9.29826424701812
 20
13.57619960474764
 30
0.0
 41
1.0
 10
9.298267919830279
 20
13.57514739465253
 30
0.0
 41
1.0
  0
LINE
  5
228
330
1F
100
AcDbEntity
  8
0
  6
SLD-Solid
 62
     7
370
    25
100
AcDbLine
 10
9.298223846084344
 20
13.64514739465253
 30
0.0
 11
29.32975264456809
 21
13.64514739465246
 31
0.0
  0
SPLINE
  5
229
330
1F
100
AcDbEntity
  8
0
  6
SLD-Solid
 62
     7
370
    25
100
AcDbSpline
210
0.0
220
0.0
230
1.0
 70
    12
 71
     3
 72
    11
 73
     7
 74
     0
 42
0.00000001
 43
0.00000001
 40
0.0
 40
0.0
 40
0.0
 40
0.0
 40
0.2500000000000001
 40
0.5000000000000019
 40
0.749999999999996
 40
1.0
 40
1.0
 40
1.0
 40
1.0
 10
29.32970857082215
 20
13.57514739465246
 30
0.0
 41
1.0
 10
29.32971224363431
 20
13.57619960474758
 30
0.0
 41
1.0
 10
29.32971958925863
 20
13.5783040249378
 30
0.0
 41
1.0
 10
29.32973060769512
 20
13.59449146985637
 30
0.0
 41
1.0
 10
29.3297416261316
 20
13.61762961545315
 30
0.0
 41
1.0
 10
29.32974897175592
 20
13.63597480158603
 30
0.0
 41
1.0
 10
29.32975264456809
 20
13.64514739465246
 30
0.0
 41
1.0
  0
LINE
  5
22A
330
1F
100
AcDbEntity
  8
0
  6
SLD-Solid
 62
     7
370
    25
100
AcDbLine
 10
29.63342725099871
 20
13.65354783420993
 30
0.0
 11
29.3297573398144
 21
13.65354783420993
 31
0.0
  0
LINE
  5
22B
330
1F
100
AcDbEntity
  8
0
  6
SLD-Solid
 62
     7
370
    25
100
AcDbLine
 10
9.298223846084344
 20
13.64514739465253
 30
0.0
 11
9.298219150838026
 21
13.65354783421
 31
0.0
  0
LINE
  5
22C
330
1F
100
AcDbEntity
  8
0
  6
SLD-Solid
 62
     7
370
    25
100
AcDbLine
 10
9.298219150838026
 20
13.65354783421
 30
0.0
 11
8.994649239653725
 21
13.65354783421001
 31
0.0
  0
LINE
  5
22D
330
1F
100
AcDbEntity
  8
0
  6
SLD-Solid
 62
     7
370
    25
100
AcDbLine
 10
29.3297573398144
 20
13.65354783420993
 30
0.0
 11
29.32975264456809
 21
13.64514739465246
 31
0.0
  0
LINE
  5
22E
330
1F
100
AcDbEntity
  8
0
  6
SLD-Solid
 62
     7
370
    25
100
AcDbLine
 10
8.714649239653829
 20
43.70101935099007
 30
0.0
 11
8.714649239653726
 21
13.65354783421001
 31
0.0
  0
LINE
  5
22F
330
1F
100
AcDbEntity
  8
0
  6
SLD-Solid
 62
     7
370
    25
100
AcDbLine
 10
8.714649239653726
 20
13.65354783421001
 30
0.0
 11
8.994649239653725
 21
13.65354783421001
 31
0.0
  0
LINE
  5
230
330
1F
100
AcDbEntity
  8
0
  6
SLD-Solid
 62
     7
370
    25
100
AcDbLine
 10
29.91342725099882
 20
43.70101935099017
 30
0.0
 11
29.91342725099871
 21
13.65354783420993
 31
0.0
  0
LINE
  5
231
330
1F
100
AcDbEntity
  8
0
  6
SLD-Solid
 62
     7
370
    25
100
AcDbLine
 10
29.63342725099871
 20
13.65354783420993
 30
0.0
 11
29.91342725099871
 21
13.65354783420993
 31
0.0
  0
SPLINE
  5
232
330
1F
100
AcDbEntity
  8
0
  6
SLD-Solid
 62
     7
370
    25
100
AcDbSpline
210
0.0
220
0.0
230
1.0
 70
    12
 71
     3
 72
    11
 73
     7
 74
     0
 42
0.00000001
 43
0.00000001
 40
0.0
 40
0.0
 40
0.0
 40
0.0
 40
0.2499999999999557
 40
0.4999999999999875
 40
0.7499999999999777
 40
1.0
 40
1.0
 40
1.0
 40
1.0
 10
8.784649239653724
 20
13.57514739465253
 30
0.0
 41
1.0
 10
8.77547664658729
 20
13.57619960474765
 30
0.0
 41
1.0
 10
8.75713146045442
 20
13.57830402493787
 30
0.0
 41
1.0
 10
8.733993314857631
 20
13.59449146985644
 30
0.0
 41
1.0
 10
8.717805869939072
 20
13.61762961545322
 30
0.0
 41
1.0
 10
8.715701449748842
 20
13.6359748015861
 30
0.0
 41
1.0
 10
8.714649239653726
 20
13.64514739465253
 30
0.0
 41
1.0
  0
LINE
  5
233
330
1F
100
AcDbEntity
  8
0
  6
SLD-Solid
 62
     7
370
    25
100
AcDbLine
 10
8.714649239653726
 20
13.65354783421001
 30
0.0
 11
8.714649239653726
 21
13.64514739465253
 31
0.0
  0
LINE
  5
234
330
1F
100
AcDbEntity
  8
0
  6
SLD-Solid
 62
     7
370
    25
100
AcDbLine
 10
8.784649239653724
 20
13.57514739465253
 30
0.0
 11
9.055222251849676
 21
13.57514739465253
 31
0.0
  0
LINE
  5
235
330
1F
100
AcDbEntity
  8
0
  6
SLD-Solid
 62
     7
370
    25
100
AcDbLine
 10
29.42285423880193
 20
13.57514739465246
 30
0.0
 11
29.42285423880193
 21
13.60514739465246
 31
0.0
  0
LINE
  5
236
330
1F
100
AcDbEntity
  8
0
  6
SLD-Solid
 62
     7
370
    25
100
AcDbLine
 10
29.42285423880193
 20
13.57514739465246
 30
0.0
 11
29.57285423880192
 21
13.57514739465246
 31
0.0
  0
LINE
  5
237
330
1F
100
AcDbEntity
  8
0
  6
SLD-Solid
 62
     7
370
    25
100
AcDbLine
 10
29.57285423880192
 20
13.57514739465246
 30
0.0
 11
29.84342725099871
 21
13.57514739465246
 31
0.0
  0
ARC
  5
238
330
1F
100
AcDbEntity
  8
0
  6
SLD-Solid
 62
     7
370
    25
100
AcDbCircle
 10
29.84342725099871
 20
13.64514739465246
 30
0.0
 40
0.0700000000000038
100
AcDbArc
 50
270.0000000000008
 51
0.000000000000727
  0
LINE
  5
239
330
1F
100
AcDbEntity
  8
0
  6
SLD-Solid
 62
     7
370
    25
100
AcDbLine
 10
29.91342725099871
 20
13.64514739465246
 30
0.0
 11
29.91342725099871
 21
13.65354783420993
 31
0.0
  0
LINE
  5
23A
330
1F
100
AcDbEntity
  8
0
  6
SLD-Solid
 62
     7
370
    25
100
AcDbLine
 10
9.205222251849683
 20
13.57514739465253
 30
0.0
 11
9.205222251849683
 21
13.60514739465254
 31
0.0
  0
LINE
  5
23B
330
1F
100
AcDbEntity
  8
0
  6
SLD-Solid
 62
     7
370
    25
100
AcDbLine
 10
9.055222251849676
 20
13.57514739465253
 30
0.0
 11
9.205222251849683
 21
13.57514739465253
 31
0.0
  0
LINE
  5
23C
330
1F
100
AcDbEntity
  8
0
  6
SLD-Solid
 62
     7
370
    25
100
AcDbLine
 10
29.95943824532626
 20
45.76755574191397
 30
0.0
 11
29.95943824532626
 21
45.74255574191397
 31
0.0
  0
LINE
  5
23D
330
1F
100
AcDbEntity
  8
0
  6
SLD-Solid
 62
     7
370
    25
100
AcDbLine
 10
29.95943824532626
 20
45.74255574191397
 30
0.0
 11
29.95963824532627
 21
45.74255574191397
 31
0.0
  0
LINE
  5
23E
330
1F
100
AcDbEntity
  8
0
  6
SLD-Solid
 62
     7
370
    25
100
AcDbLine
 10
8.668638245326264
 20
45.7425557419139
 30
0.0
 11
8.66843824532626
 21
45.7425557419139
 31
0.0
  0
LINE
  5
23F
330
1F
100
AcDbEntity
  8
0
  6
SLD-Solid
 62
     7
370
    25
100
AcDbLine
 10
8.668638245326264
 20
45.76755574191391
 30
0.0
 11
8.668638245326264
 21
45.7425557419139
 31
0.0
  0
LINE
  5
240
330
1F
100
AcDbEntity
  8
0
  6
SLD-Solid
 62
     7
370
    25
100
AcDbLine
 10
29.95943824532626
 20
45.76755574191397
 30
0.0
 11
8.668638245326264
 21
45.76755574191391
 31
0.0
  0
LINE
  5
241
330
1F
100
AcDbEntity
  8
0
  6
SLD-Solid
 62
     7
370
    25
100
AcDbLine
 10
8.603538245326266
 20
44.64854783420999
 30
0.0
 11
8.603538245326263
 21
45.7425557419139
 31
0.0
  0
LINE
  5
242
330
1F
100
AcDbEntity
  8
0
  6
SLD-Solid
 62
     7
370
    25
100
AcDbLine
 10
30.06143824532627
 20
45.74684506379531
 30
0.0
 11
30.06143824532627
 21
44.6485478342101
 31
0.0
  0
LINE
  5
243
330
1F
100
AcDbEntity
  8
0
  6
SLD-Solid
 62
     7
370
    25
100
AcDbLine
 10
8.602538245326263
 20
45.74684506379525
 30
0.0
 11
8.602538245326263
 21
44.64854783420999
 31
0.0
  0
LINE
  5
244
330
1F
100
AcDbEntity
  8
0
  6
SLD-Solid
 62
     7
370
    25
100
AcDbLine
 10
8.566638245326264
 20
45.74684506379525
 30
0.0
 11
8.566638245326267
 21
44.64854783420999
 31
0.0
  0
LINE
  5
245
330
1F
100
AcDbEntity
  8
0
  6
SLD-Solid
 62
     7
370
    25
100
AcDbLine
 10
8.668638245326264
 20
45.80888914713357
 30
0.0
 11
8.668638245326264
 21
45.76755574191391
 31
0.0
  0
LINE
  5
246
330
1F
100
AcDbEntity
  8
0
  6
SLD-Solid
 62
     7
370
    25
100
AcDbLine
 10
8.668638245326264
 20
45.80888914713357
 30
0.0
 11
8.668000398634055
 21
45.81344697201291
 31
0.0
  0
LINE
  5
247
330
1F
100
AcDbEntity
  8
0
  6
SLD-Solid
 62
     7
370
    25
100
AcDbLine
 10
8.668000398634055
 20
45.81344697201291
 30
0.0
 11
29.96007609201848
 21
45.81344697201297
 31
0.0
  0
LINE
  5
248
330
1F
100
AcDbEntity
  8
0
  6
SLD-Solid
 62
     7
370
    25
100
AcDbLine
 10
29.95943824532626
 20
45.80888914713362
 30
0.0
 11
29.96007609201848
 21
45.81344697201297
 31
0.0
  0
LINE
  5
249
330
1F
100
AcDbEntity
  8
0
  6
SLD-Solid
 62
     7
370
    25
100
AcDbLine
 10
29.95943824532626
 20
45.80888914713362
 30
0.0
 11
29.95943824532626
 21
45.76755574191397
 31
0.0
  0
ARC
  5
24A
330
1F
100
AcDbEntity
  8
0
  6
SLD-Solid
 62
     7
370
    25
100
AcDbCircle
 10
29.98670055612167
 20
45.80108089976849
 30
0.0
 40
0.029356120853035
100
AcDbArc
 50
84.64894224957942
 51
155.0868863730682
  0
ARC
  5
24B
330
1F
100
AcDbEntity
  8
0
  6
SLD-Solid
 62
     7
370
    25
100
AcDbCircle
 10
8.641375934530823
 20
45.80108089976838
 30
0.0
 40
0.0293561208530912
100
AcDbArc
 50
24.91311362700326
 51
95.35105775033645
  0
LINE
  5
24C
330
1F
100
AcDbEntity
  8
0
  6
SLD-Solid
 62
     7
370
    25
100
AcDbLine
 10
29.98943824532627
 20
45.83030908632457
 30
0.0
 11
29.99653824532627
 21
45.83030908632457
 31
0.0
  0
LINE
  5
24D
330
1F
100
AcDbEntity
  8
0
  6
SLD-Solid
 62
     7
370
    25
100
AcDbLine
 10
8.638638245326263
 20
45.83030908632452
 30
0.0
 11
8.631538245326263
 21
45.83030908632452
 31
0.0
  0
LINE
  5
24E
330
1F
100
AcDbEntity
  8
0
  6
SLD-Solid
 62
     7
370
    25
100
AcDbLine
 10
12.81134761718079
 20
46.56943850412961
 30
0.0
 11
12.81134761718079
 21
51.34240927713877
 31
0.0
  0
ARC
  5
24F
330
1F
100
AcDbEntity
  8
0
  6
SLD-Solid
 62
     7
370
    25
100
AcDbCircle
 10
12.92072261718079
 20
46.59153559104168
 30
0.0
 40
0.1115848191959797
100
AcDbArc
 50
191.421753658958
 51
278.0494669755303
  0
LINE
  5
250
330
1F
100
AcDbEntity
  8
0
  6
SLD-Solid
 62
     7
370
    25
100
AcDbLine
 10
12.93634761718079
 20
46.48105015648129
 30
0.0
 11
25.69172887347174
 21
46.48105015648132
 31
0.0
  0
ARC
  5
251
330
1F
100
AcDbEntity
  8
0
  6
SLD-Solid
 62
     7
370
    25
100
AcDbCircle
 10
25.70735387347174
 20
46.59153559104172
 30
0.0
 40
0.1115848191959794
100
AcDbArc
 50
261.9505330244722
 51
348.5782463410399
  0
LINE
  5
252
330
1F
100
AcDbEntity
  8
0
  6
SLD-Solid
 62
     7
370
    25
100
AcDbLine
 10
25.81672887347174
 20
46.56943850412964
 30
0.0
 11
25.81672887347174
 21
51.34240927713881
 31
0.0
  0
ARC
  5
253
330
1F
100
AcDbEntity
  8
0
  6
SLD-Solid
 62
     7
370
    25
100
AcDbCircle
 10
25.70735387347172
 20
51.32031219022672
 30
0.0
 40
0.111584819195999
100
AcDbArc
 50
11.42175365896273
 51
98.04946697552164
  0
LINE
  5
254
330
1F
100
AcDbEntity
  8
0
  6
SLD-Solid
 62
     7
370
    25
100
AcDbLine
 10
25.69172887347174
 20
51.43079762478714
 30
0.0
 11
12.93634761718079
 21
51.43079762478708
 31
0.0
  0
ARC
  5
255
330
1F
100
AcDbEntity
  8
0
  6
SLD-Solid
 62
     7
370
    25
100
AcDbCircle
 10
12.92072261718077
 20
51.32031219022671
 30
0.0
 40
0.1115848191959615
100
AcDbArc
 50
81.95053302445815
 51
168.578246341044
  0
ARC
  5
256
330
1F
100
AcDbEntity
  8
0
  6
SLD-Solid
 62
     7
370
    25
100
AcDbCircle
 10
30.00465074532627
 20
45.77294504870081
 30
0.0
 40
0.0579348381265544
100
AcDbArc
 50
11.42175365897174
 51
98.04946697552805
  0
ARC
  5
257
330
1F
100
AcDbEntity
  8
0
  6
SLD-Solid
 62
     7
370
    25
100
AcDbCircle
 10
30.00465074532627
 20
52.02311304967376
 30
0.0
 40
0.0579348381265502
100
AcDbArc
 50
11.42175365895108
 51
98.04946697552903
  0
LINE
  5
258
330
1F
100
AcDbEntity
  8
0
  6
SLD-Solid
 62
     7
370
    25
100
AcDbLine
 10
30.06143824532627
 20
45.78441785622557
 30
0.0
 11
30.06143824532627
 21
52.0345858571985
 31
0.0
  0
ARC
  5
259
330
1F
100
AcDbEntity
  8
0
  6
SLD-Solid
 62
     7
370
    25
100
AcDbCircle
 10
8.623425745326253
 20
52.0231130496737
 30
0.0
 40
0.0579348381265456
100
AcDbArc
 50
81.95053302446229
 51
168.5782463410407
  0
ARC
  5
25A
330
1F
100
AcDbEntity
  8
0
  6
SLD-Solid
 62
     7
370
    25
100
AcDbCircle
 10
8.62342574532626
 20
45.77294504870076
 30
0.0
 40
0.0579348381265519
100
AcDbArc
 50
81.95053302446848
 51
168.5782463410417
  0
LINE
  5
25B
330
1F
100
AcDbEntity
  8
0
  6
SLD-Solid
 62
     7
370
    25
100
AcDbLine
 10
8.566638245326264
 20
45.78441785622551
 30
0.0
 11
8.566638245326262
 21
52.03458585719845
 31
0.0
  0
LINE
  5
25C
330
1F
100
AcDbEntity
  8
0
  6
SLD-Solid
 62
     7
370
    25
100
AcDbLine
 10
30.06143824532627
 20
45.78220040285464
 30
0.0
 11
30.06143824532627
 21
45.74684506379531
 31
0.0
  0
LINE
  5
25D
330
1F
100
AcDbEntity
  8
0
  6
SLD-Solid
 62
     7
370
    25
100
AcDbLine
 10
8.566638245326264
 20
45.78220040285458
 30
0.0
 11
8.566638245326264
 21
45.74684506379525
 31
0.0
  0
LINE
  5
25E
330
1F
100
AcDbEntity
  8
0
  6
SLD-Solid
 62
     7
370
    25
100
AcDbLine
 10
30.06143824532627
 20
45.78220040285464
 30
0.0
 11
30.06143824532627
 21
45.78441785622557
 31
0.0
  0
LINE
  5
25F
330
1F
100
AcDbEntity
  8
0
  6
SLD-Solid
 62
     7
370
    25
100
AcDbLine
 10
8.566638245326264
 20
45.78220040285458
 30
0.0
 11
8.566638245326264
 21
45.78441785622551
 31
0.0
  0
ARC
  5
260
330
1F
100
AcDbEntity
  8
0
  6
SLD-Solid
 62
     7
370
    25
100
AcDbCircle
 10
25.70735387347172
 20
51.29492705678211
 30
0.0
 40
0.1115848191960093
100
AcDbArc
 50
11.42175365897631
 51
98.04946697551752
  0
ARC
  5
261
330
1F
100
AcDbEntity
  8
0
  6
SLD-Solid
 62
     7
370
    25
100
AcDbCircle
 10
12.9207226171808
 20
51.29492705678208
 30
0.0
 40
0.1115848191959993
100
AcDbArc
 50
81.95053302447747
 51
168.5782463410258
  0
LINE
  5
262
330
1F
100
AcDbEntity
  8
0
  6
SLD-Solid
 62
     7
370
    25
100
AcDbLine
 10
25.69172887347174
 20
51.40541249134253
 30
0.0
 11
12.93634761718079
 21
51.4054124913425
 31
0.0
  0
LINE
  5
263
330
1F
100
AcDbEntity
  8
0
  6
SLD-Solid
 62
     7
370
    25
100
AcDbLine
 10
8.668638245326262
 20
52.11743762241417
 30
0.0
 11
29.95943824532626
 21
52.11743762241422
 31
0.0
  0
LINE
  5
264
330
1F
100
AcDbEntity
  8
0
  6
SLD-Solid
 62
     7
370
    25
100
AcDbLine
 10
30.06143824532627
 20
52.03789296147355
 30
0.0
 11
30.06143824532627
 21
52.0345858571985
 31
0.0
  0
LINE
  5
265
330
1F
100
AcDbEntity
  8
0
  6
SLD-Solid
 62
     7
370
    25
100
AcDbLine
 10
8.566638245326262
 20
52.0378929614735
 30
0.0
 11
8.566638245326262
 21
52.03458585719845
 31
0.0
  0
LINE
  5
266
330
1F
100
AcDbEntity
  8
0
  6
SLD-Solid
 62
     7
370
    25
100
AcDbLine
 10
30.05626661589905
 20
52.05253762241423
 30
0.0
 11
30.06143824532627
 21
52.05253762241423
 31
0.0
  0
LINE
  5
267
330
1F
100
AcDbEntity
  8
0
  6
SLD-Solid
 62
     7
370
    25
100
AcDbLine
 10
30.06143824532627
 20
52.05253762241423
 30
0.0
 11
30.06143824532627
 21
52.03789296147355
 31
0.0
  0
LINE
  5
268
330
1F
100
AcDbEntity
  8
0
  6
SLD-Solid
 62
     7
370
    25
100
AcDbLine
 10
8.571809874753486
 20
52.05253762241416
 30
0.0
 11
8.566638245326262
 21
52.05253762241419
 31
0.0
  0
LINE
  5
269
330
1F
100
AcDbEntity
  8
0
  6
SLD-Solid
 62
     7
370
    25
100
AcDbLine
 10
8.566638245326262
 20
52.05253762241419
 30
0.0
 11
8.566638245326262
 21
52.0378929614735
 31
0.0
  0
ARC
  5
26A
330
1F
100
AcDbEntity
  8
0
  6
SLD-Solid
 62
     7
370
    25
100
AcDbCircle
 10
29.95963824532627
 20
52.05253762241423
 30
0.0
 40
0.064899999999997
100
AcDbArc
 50
22.61706012285808
 51
90.0
  0
ARC
  5
26B
330
1F
100
AcDbEntity
  8
0
  6
SLD-Solid
 62
     7
370
    25
100
AcDbCircle
 10
8.668438245326254
 20
52.05253762241416
 30
0.0
 40
0.0649000000000086
100
AcDbArc
 50
90.0
 51
157.382939872379
  0
LINE
  5
26C
330
1F
100
AcDbEntity
  8
0
  6
SLD-Solid
 62
     7
370
    25
100
AcDbLine
 10
29.95963824532627
 20
52.11743762241422
 30
0.0
 11
29.95943824532626
 21
52.11743762241422
 31
0.0
  0
LINE
  5
26D
330
1F
100
AcDbEntity
  8
0
  6
SLD-Solid
 62
     7
370
    25
100
AcDbLine
 10
8.668438245326254
 20
52.11743762241417
 30
0.0
 11
8.668638245326262
 21
52.11743762241417
 31
0.0
  0
LINE
  5
26E
330
1F
100
AcDbEntity
  8
0
  6
SLD-Solid
 62
     8
370
    25
100
AcDbLine
 10
29.63342725099882
 20
43.70101935099017
 30
0.0
 11
29.63342725099871
 21
13.65354783420993
 31
0.0
  0
LINE
  5
26F
330
1F
100
AcDbEntity
  8
0
  6
SLD-Solid
 62
     8
370
    25
100
AcDbLine
 10
8.994649239653828
 20
43.70101935099007
 30
0.0
 11
8.994649239653725
 21
13.65354783421001
 31
0.0
  0
LINE
  5
270
330
1F
100
AcDbEntity
  8
0
  6
SLD-Solid
 62
     8
370
    25
100
AcDbLine
 10
29.95963824532627
 20
44.6485478342101
 30
0.0
 11
29.95963824532627
 21
45.74255574191397
 31
0.0
  0
LINE
  5
271
330
1F
100
AcDbEntity
  8
0
  6
SLD-Solid
 62
     8
370
    25
100
AcDbLine
 10
30.06143824532627
 20
52.03789296147355
 30
0.0
 11
30.06126950610982
 21
52.03789296147355
 31
0.0
  0
LINE
  5
272
330
1F
100
AcDbEntity
  8
0
  6
SLD-Solid
 62
     8
370
    25
100
AcDbLine
 10
8.566638245326262
 20
52.0378929614735
 30
0.0
 11
8.566806984542714
 21
52.0378929614735
 31
0.0
  0
LINE
  5
273
330
1F
100
AcDbEntity
  8
NOTES
100
AcDbLine
 10
3.01360100370787
 20
6.955923890634188
 30
0.0
 11
76.97567103766605
 21
6.955923890634188
 31
0.0
  0
DIMENSION
  5
274
330
1F
100
AcDbEntity
  8
DIMS
100
AcDbDimension
  2
_D
 10
6.537783050251504
 20
6.955923890634188
 30
0.0
 11
6.537783050251503
 21
28.1433183115375
 31
0.0
 70
    32
  1
48" (1220mm) Max. height above floor to center \Pof inlet door for barrier free mounting
 71
     1
 42
-1.0
  3
SLDDIMSTYLE0
100
AcDbAlignedDimension
 13
12.81134761718073
 23
48.95592389063419
 33
0.0
 14
3.01360100370787
 24
6.955923890634188
 34
0.0
 50
90.0000000000002
100
AcDbRotatedDimension
  0
DIMENSION
  5
286
330
1F
100
AcDbEntity
  8
DIMS
100
AcDbDimension
  2
_D_1
 10
6.537783050251489
 20
52.09842885251317
 30
0.0
 11
6.537783050251494
 21
50.41216975957362
 31
0.0
 70
    32
  1
<>
 71
     2
 42
-1.0
  3
SLDDIMSTYLE1
100
AcDbAlignedDimension
 13
12.81134761718073
 23
48.95592389063419
 33
0.0
 14
8.668281558931119
 24
52.09842885251318
 34
0.0
 50
90.0000000000002
100
AcDbRotatedDimension
  0
DIMENSION
  5
296
330
1F
100
AcDbEntity
  8
DIMS
100
AcDbDimension
  2
_D_2
 10
30.11143824532616
 20
54.58601974031228
 30
0.0
 11
19.1863986952611
 21
54.58601974031222
 31
0.0
 70
    32
  1
<>
 71
     2
 42
-1.0
  3
SLDDIMSTYLE1
100
AcDbAlignedDimension
 13
8.431438245326211
 23
44.64854783420999
 33
0.0
 14
30.11143824532621
 24
44.6485478342101
 34
0.0
 50
0.0000000000003005
100
AcDbRotatedDimension
  0
MTEXT
  5
2A5
330
1F
100
AcDbEntity
  8
NOTES
100
AcDbMText
 10
3.166909592407016
 20
8.030859785797611
 30
0.0
 40
0.7500000000000001
 41
0.0
 71
     1
 72
     1
  1
Floor
  7
SLDTEXTSTYLE1
 73
     1
 44
1.0
  0
LINE
  5
2A6
330
1F
100
AcDbEntity
  8
0
  6
SLD-Solid
 62
     7
370
    25
100
AcDbLine
 10
38.95919731631183
 20
43.70101935099019
 30
0.0
 11
46.64428543144543
 21
43.70101935099015
 31
0.0
  0
LINE
  5
2A7
330
1F
100
AcDbEntity
  8
0
  6
SLD-Solid
 62
     7
370
    25
100
AcDbLine
 10
46.80753659232624
 20
38.19702142733883
 30
0.0
 11
46.8985360872628
 21
38.2880209222754
 31
0.0
  0
LINE
  5
2A8
330
1F
100
AcDbEntity
  8
0
  6
SLD-Solid
 62
     7
370
    25
100
AcDbLine
 10
46.8985360872628
 20
39.07107474614456
 30
0.0
 11
46.80753659232624
 21
39.16207424108113
 31
0.0
  0
LINE
  5
2A9
330
1F
100
AcDbEntity
  8
0
  6
SLD-Solid
 62
     7
370
    25
100
AcDbLine
 10
46.80753659232624
 20
27.07202142733883
 30
0.0
 11
46.8985360872628
 21
27.1630209222754
 31
0.0
  0
LINE
  5
2AA
330
1F
100
AcDbEntity
  8
0
  6
SLD-Solid
 62
     7
370
    25
100
AcDbLine
 10
46.8985360872628
 20
27.94607474614456
 30
0.0
 11
46.80753659232624
 21
28.03707424108113
 31
0.0
  0
ARC
  5
2AB
330
1F
100
AcDbEntity
  8
0
  6
SLD-Solid
 62
     7
370
    25
100
AcDbCircle
 10
46.88863659232619
 20
39.06117525120795
 30
0.0
 40
0.0139999999999958
100
AcDbArc
 50
0.0
 51
45.00000000002056
  0
ARC
  5
2AC
330
1F
100
AcDbEntity
  8
0
  6
SLD-Solid
 62
     7
370
    25
100
AcDbCircle
 10
46.88863659232619
 20
38.297920417212
 30
0.0
 40
0.0139999999999958
100
AcDbArc
 50
315.0000000000008
 51
0.0
  0
ARC
  5
2AD
330
1F
100
AcDbEntity
  8
0
  6
SLD-Solid
 62
     7
370
    25
100
AcDbCircle
 10
46.88863659232619
 20
27.93617525120795
 30
0.0
 40
0.0139999999999958
100
AcDbArc
 50
0.0
 51
45.00000000002056
  0
ARC
  5
2AE
330
1F
100
AcDbEntity
  8
0
  6
SLD-Solid
 62
     7
370
    25
100
AcDbCircle
 10
46.88863659232619
 20
27.17292041721201
 30
0.0
 40
0.0139999999999958
100
AcDbArc
 50
314.9999999999803
 51
0.0
  0
LINE
  5
2AF
330
1F
100
AcDbEntity
  8
0
  6
SLD-Solid
 62
     7
370
    25
100
AcDbLine
 10
46.64428543144543
 20
43.78001935099014
 30
0.0
 11
46.64428543144543
 21
43.70101935099015
 31
0.0
  0
SPLINE
  5
2B0
330
1F
100
AcDbEntity
  8
0
  6
SLD-Solid
 62
     7
370
    25
100
AcDbSpline
210
0.0
220
0.0
230
1.0
 70
    12
 71
     3
 72
    12
 73
     8
 74
     0
 42
0.00000001
 43
0.00000001
 40
0.0
 40
0.0
 40
0.0
 40
0.0
 40
0.0537397903251601
 40
0.289540465107595
 40
0.525341164286348
 40
0.7611418873707225
 40
0.9999999999999999
 40
0.9999999999999999
 40
0.9999999999999999
 40
0.9999999999999999
 10
38.95919731631183
 20
43.70196726888518
 30
0.0
 41
1.0
 10
38.95819578171955
 20
43.70167831506822
 30
0.0
 41
1.0
 10
38.95279969085436
 20
43.70012148311835
 30
0.0
 41
1.0
 10
38.94300907987821
 20
43.70797782522875
 30
0.0
 41
1.0
 10
38.92982526180278
 20
43.72504780484887
 30
0.0
 41
1.0
 10
38.91658517401093
 20
43.75055041008245
 30
0.0
 41
1.0
 10
38.9077376752429
 20
43.77015427963799
 30
0.0
 41
1.0
 10
38.90328543144543
 20
43.78001935099018
 30
0.0
 41
1.0
  0
LINE
  5
2B1
330
1F
100
AcDbEntity
  8
0
  6
SLD-Solid
 62
     7
370
    25
100
AcDbLine
 10
46.64428543144543
 20
44.64854783421005
 30
0.0
 11
38.90328543144543
 21
44.6485478342101
 31
0.0
  0
LINE
  5
2B2
330
1F
100
AcDbEntity
  8
0
  6
SLD-Solid
 62
     7
370
    25
100
AcDbLine
 10
46.64428543144543
 20
43.78001935099014
 30
0.0
 11
46.64428543144543
 21
44.64854783421005
 31
0.0
  0
LINE
  5
2B3
330
1F
100
AcDbEntity
  8
0
  6
SLD-Solid
 62
     7
370
    25
100
AcDbLine
 10
38.82428543144542
 20
43.78001935099018
 30
0.0
 11
38.82428543144543
 21
44.6485478342101
 31
0.0
  0
LINE
  5
2B4
330
1F
100
AcDbEntity
  8
0
  6
SLD-Solid
 62
     7
370
    25
100
AcDbLine
 10
38.82428543144543
 20
44.6485478342101
 30
0.0
 11
38.90328543144543
 21
44.6485478342101
 31
0.0
  0
LINE
  5
2B5
330
1F
100
AcDbEntity
  8
0
  6
SLD-Solid
 62
     7
370
    25
100
AcDbLine
 10
38.82428543144542
 20
43.7485478342101
 30
0.0
 11
38.90328543144543
 21
43.7485478342101
 31
0.0
  0
LINE
  5
2B6
330
1F
100
AcDbEntity
  8
0
  6
SLD-Solid
 62
     7
370
    25
100
AcDbLine
 10
38.82428543144542
 20
43.7485478342101
 30
0.0
 11
38.82428543144542
 21
43.78001935099018
 31
0.0
  0
SPLINE
  5
2B7
330
1F
100
AcDbEntity
  8
0
  6
SLD-Solid
 62
     7
370
    25
100
AcDbSpline
210
0.0
220
0.0
230
1.0
 70
    12
 71
     3
 72
    12
 73
     8
 74
     0
 42
0.00000001
 43
0.00000001
 40
0.0
 40
0.0
 40
0.0
 40
0.0
 40
0.1968993711813305
 40
0.419866192103677
 40
0.642833037533537
 40
0.8657999065005965
 40
1.0
 40
1.0
 40
1.0
 40
1.0
 10
38.8314300136177
 20
43.74854783420999
 30
0.0
 41
1.0
 10
38.83544122204561
 20
43.740886751592
 30
0.0
 41
1.0
 10
38.84399468160343
 20
43.72455033788533
 30
0.0
 41
1.0
 10
38.86759262972996
 20
43.70759894496828
 30
0.0
 41
1.0
 10
38.89586244891539
 20
43.69975889035457
 30
0.0
 41
1.0
 10
38.92216712931354
 20
43.7011725046277
 30
0.0
 41
1.0
 10
38.93571212454524
 20
43.70902040344654
 30
0.0
 41
1.0
 10
38.94080145199588
 20
43.71196913293705
 30
0.0
 41
1.0
  0
LINE
  5
2B8
330
1F
100
AcDbEntity
  8
0
  6
SLD-Solid
 62
     7
370
    25
100
AcDbLine
 10
46.90263659232619
 20
39.06117525120795
 30
0.0
 11
46.90263659232619
 21
38.297920417212
 31
0.0
  0
LINE
  5
2B9
330
1F
100
AcDbEntity
  8
0
  6
SLD-Solid
 62
     7
370
    25
100
AcDbLine
 10
46.90263659232619
 20
27.93617525120795
 30
0.0
 11
46.90263659232619
 21
27.17292041721201
 31
0.0
  0
LINE
  5
2BA
330
1F
100
AcDbEntity
  8
0
  6
SLD-Solid
 62
     7
370
    25
100
AcDbLine
 10
39.51849210413727
 20
13.6051473946525
 30
0.0
 11
39.26849210413727
 21
13.6051473946525
 31
0.0
  0
LINE
  5
2BB
330
1F
100
AcDbEntity
  8
0
  6
SLD-Solid
 62
     7
370
    25
100
AcDbLine
 10
39.51849210413727
 20
13.6051473946525
 30
0.0
 11
39.80347808190333
 21
13.6051473946525
 31
0.0
  0
LINE
  5
2BC
330
1F
100
AcDbEntity
  8
0
  6
SLD-Solid
 62
     7
370
    25
100
AcDbLine
 10
46.67309166458048
 20
13.60514739465252
 30
0.0
 11
46.77553659232625
 21
13.60514739465252
 31
0.0
  0
LINE
  5
2BD
330
1F
100
AcDbEntity
  8
0
  6
SLD-Solid
 62
     7
370
    25
100
AcDbLine
 10
46.80753659232624
 20
14.3991918828415
 30
0.0
 11
46.83753659232624
 21
14.3991918828415
 31
0.0
  0
LINE
  5
2BE
330
1F
100
AcDbEntity
  8
0
  6
SLD-Solid
 62
     7
370
    25
100
AcDbLine
 10
46.83753659232624
 20
14.3991918828415
 30
0.0
 11
46.83753659232624
 21
14.3491918828415
 31
0.0
  0
LINE
  5
2BF
330
1F
100
AcDbEntity
  8
0
  6
SLD-Solid
 62
     7
370
    25
100
AcDbLine
 10
46.83753659232624
 20
13.66714739465252
 30
0.0
 11
46.83753659232624
 21
14.3491918828415
 31
0.0
  0
ARC
  5
2C0
330
1F
100
AcDbEntity
  8
0
  6
SLD-Solid
 62
     7
370
    25
100
AcDbCircle
 10
46.77553659232625
 20
13.66714739465252
 30
0.0
 40
0.0620000000000012
100
AcDbArc
 50
270.0000000000008
 51
0.0
  0
LINE
  5
2C1
330
1F
100
AcDbEntity
  8
0
  6
SLD-Solid
 62
     7
370
    25
100
AcDbLine
 10
46.73753659232624
 20
13.77854783420993
 30
0.0
 11
46.73753659232624
 21
43.77854783420995
 31
0.0
  0
LINE
  5
2C2
330
1F
100
AcDbEntity
  8
0
  6
SLD-Solid
 62
     7
370
    25
100
AcDbLine
 10
46.73753659232624
 20
13.77854783420993
 30
0.0
 11
46.69309166458047
 21
13.77854783420993
 31
0.0
  0
ARC
  5
2C3
330
1F
100
AcDbEntity
  8
0
  6
SLD-Solid
 62
     7
370
    25
100
AcDbCircle
 10
46.69309166458047
 20
13.75854783420993
 30
0.0
 40
0.0199999999999978
100
AcDbArc
 50
90.0
 51
180.0
  0
LINE
  5
2C4
330
1F
100
AcDbEntity
  8
0
  6
SLD-Solid
 62
     7
370
    25
100
AcDbLine
 10
46.67309166458048
 20
13.75854783420993
 30
0.0
 11
46.67309166458048
 21
13.64514739465246
 31
0.0
  0
LINE
  5
2C5
330
1F
100
AcDbEntity
  8
0
  6
SLD-Solid
 62
     7
370
    25
100
AcDbLine
 10
39.80347808190333
 20
13.64514739465246
 30
0.0
 11
39.80347808190333
 21
13.65354783420993
 31
0.0
  0
LINE
  5
2C6
330
1F
100
AcDbEntity
  8
0
  6
SLD-Solid
 62
     7
370
    25
100
AcDbLine
 10
39.80347808190333
 20
13.65354783420993
 30
0.0
 11
39.49980817071901
 21
13.65354783420993
 31
0.0
  0
LINE
  5
2C7
330
1F
100
AcDbEntity
  8
0
  6
SLD-Solid
 62
     7
370
    25
100
AcDbLine
 10
39.21980817071901
 20
43.70101935099019
 30
0.0
 11
39.21980817071901
 21
13.65354783420993
 31
0.0
  0
LINE
  5
2C8
330
1F
100
AcDbEntity
  8
0
  6
SLD-Solid
 62
     7
370
    25
100
AcDbLine
 10
39.21980817071901
 20
13.65354783420993
 30
0.0
 11
39.49980817071901
 21
13.65354783420993
 31
0.0
  0
LINE
  5
2C9
330
1F
100
AcDbEntity
  8
0
  6
SLD-Solid
 62
     7
370
    25
100
AcDbLine
 10
46.80753659232624
 20
14.39625313534705
 30
0.0
 11
46.80753659232625
 21
43.77854783420995
 31
0.0
  0
LINE
  5
2CA
330
1F
100
AcDbEntity
  8
0
  6
SLD-Solid
 62
     7
370
    25
100
AcDbLine
 10
46.73753659232624
 20
13.77854783420993
 30
0.0
 11
46.80753659232625
 21
13.77854783420993
 31
0.0
  0
LINE
  5
2CB
330
1F
100
AcDbEntity
  8
0
  6
SLD-Solid
 62
     7
370
    25
100
AcDbLine
 10
46.80753659232625
 20
43.77854783420995
 30
0.0
 11
46.74604717639174
 21
43.77854783420995
 31
0.0
  0
LINE
  5
2CC
330
1F
100
AcDbEntity
  8
0
  6
SLD-Solid
 62
     7
370
    25
100
AcDbLine
 10
39.80347808190333
 20
13.57514739465246
 30
0.0
 11
46.67309166458048
 21
13.57514739465246
 31
0.0
  0
LINE
  5
2CD
330
1F
100
AcDbEntity
  8
0
  6
SLD-Solid
 62
     7
370
    25
100
AcDbLine
 10
39.80347808190333
 20
13.64514739465246
 30
0.0
 11
39.80347808190333
 21
13.57514739465246
 31
0.0
  0
LINE
  5
2CE
330
1F
100
AcDbEntity
  8
0
  6
SLD-Solid
 62
     7
370
    25
100
AcDbLine
 10
46.67309166458048
 20
13.57514739465246
 30
0.0
 11
46.67309166458048
 21
13.64514739465246
 31
0.0
  0
SPLINE
  5
2CF
330
1F
100
AcDbEntity
  8
0
  6
SLD-Solid
 62
     7
370
    25
100
AcDbSpline
210
0.0
220
0.0
230
1.0
 70
    12
 71
     3
 72
    11
 73
     7
 74
     0
 42
0.00000001
 43
0.00000001
 40
0.0
 40
0.0
 40
0.0
 40
0.0
 40
0.2500000000000001
 40
0.5000000000000019
 40
0.749999999999996
 40
1.0
 40
1.0
 40
1.0
 40
1.0
 10
39.28980817071901
 20
13.57514739465246
 30
0.0
 41
1.0
 10
39.28063557765258
 20
13.57619960474758
 30
0.0
 41
1.0
 10
39.26229039151971
 20
13.5783040249378
 30
0.0
 41
1.0
 10
39.23915224592292
 20
13.59449146985637
 30
0.0
 41
1.0
 10
39.22296480100436
 20
13.61762961545315
 30
0.0
 41
1.0
 10
39.22086038081412
 20
13.63597480158603
 30
0.0
 41
1.0
 10
39.21980817071901
 20
13.64514739465246
 30
0.0
 41
1.0
  0
LINE
  5
2D0
330
1F
100
AcDbEntity
  8
0
  6
SLD-Solid
 62
     7
370
    25
100
AcDbLine
 10
39.21980817071901
 20
13.65354783420993
 30
0.0
 11
39.21980817071901
 21
13.64514739465246
 31
0.0
  0
LINE
  5
2D1
330
1F
100
AcDbEntity
  8
0
  6
SLD-Solid
 62
     7
370
    25
100
AcDbLine
 10
39.28980817071901
 20
13.57514739465246
 30
0.0
 11
39.56038118291645
 21
13.57514739465246
 31
0.0
  0
LINE
  5
2D2
330
1F
100
AcDbEntity
  8
0
  6
SLD-Solid
 62
     7
370
    25
100
AcDbLine
 10
39.71038118291646
 20
13.57514739465246
 30
0.0
 11
39.71038118291646
 21
13.60514739465247
 31
0.0
  0
LINE
  5
2D3
330
1F
100
AcDbEntity
  8
0
  6
SLD-Solid
 62
     7
370
    25
100
AcDbLine
 10
39.56038118291645
 20
13.57514739465246
 30
0.0
 11
39.71038118291646
 21
13.57514739465246
 31
0.0
  0
LINE
  5
2D4
330
1F
100
AcDbEntity
  8
0
  6
SLD-Solid
 62
     7
370
    25
100
AcDbLine
 10
46.80763659232627
 20
14.3991918828415
 30
0.0
 11
46.80763659232627
 21
27.07212142733887
 31
0.0
  0
LINE
  5
2D5
330
1F
100
AcDbEntity
  8
0
  6
SLD-Solid
 62
     7
370
    25
100
AcDbLine
 10
46.80763659232627
 20
28.03697424108109
 30
0.0
 11
46.80763659232627
 21
38.19712142733887
 31
0.0
  0
LINE
  5
2D6
330
1F
100
AcDbEntity
  8
0
  6
SLD-Solid
 62
     7
370
    25
100
AcDbLine
 10
46.80763659232626
 20
39.16197424108109
 30
0.0
 11
46.80763659232626
 21
43.62854783421002
 31
0.0
  0
LINE
  5
2D7
330
1F
100
AcDbEntity
  8
0
  6
SLD-Solid
 62
     7
370
    25
100
AcDbLine
 10
46.80763659232626
 20
43.77854783421002
 30
0.0
 11
46.80753659232618
 21
43.77854783421002
 31
0.0
  0
LINE
  5
2D8
330
1F
100
AcDbEntity
  8
0
  6
SLD-Solid
 62
     7
370
    25
100
AcDbLine
 10
46.80763659232626
 20
43.62854783421002
 30
0.0
 11
46.80763659232626
 21
43.77854783421002
 31
0.0
  0
LINE
  5
2D9
330
1F
100
AcDbEntity
  8
0
  6
SLD-Solid
 62
     7
370
    25
100
AcDbLine
 10
46.67319166458049
 20
13.57514739465253
 30
0.0
 11
46.67319166458049
 21
13.60514739465253
 31
0.0
  0
LINE
  5
2DA
330
1F
100
AcDbEntity
  8
0
  6
SLD-Solid
 62
     7
370
    25
100
AcDbLine
 10
46.6730916645804
 20
13.57514739465253
 30
0.0
 11
46.67319166458049
 21
13.57514739465253
 31
0.0
  0
LINE
  5
2DB
330
1F
100
AcDbEntity
  8
0
  6
SLD-Solid
 62
     7
370
    25
100
AcDbLine
 10
39.80342685089557
 20
13.57514739465253
 30
0.0
 11
39.80347808190326
 21
13.57514739465253
 31
0.0
  0
LINE
  5
2DC
330
1F
100
AcDbEntity
  8
0
  6
SLD-Solid
 62
     7
370
    25
100
AcDbLine
 10
46.67319166458049
 20
13.64514739465253
 30
0.0
 11
46.67319166458049
 21
13.63514739465252
 31
0.0
  0
LINE
  5
2DD
330
1F
100
AcDbEntity
  8
0
  6
SLD-Solid
 62
     7
370
    25
100
AcDbLine
 10
39.80338997529017
 20
13.6351473946525
 30
0.0
 11
39.80338277714964
 21
13.64514739465253
 31
0.0
  0
SPLINE
  5
2DE
330
1F
100
AcDbEntity
  8
0
  6
SLD-Solid
 62
     7
370
    25
100
AcDbSpline
210
0.0
220
0.0
230
1.0
 70
    12
 71
     3
 72
    10
 73
     6
 74
     0
 42
0.00000001
 43
0.00000001
 40
0.0
 40
0.0
 40
0.0
 40
0.0
 40
0.4135284243507527
 40
0.8270568487016314
 40
1.0
 40
1.0
 40
1.0
 40
1.0
 10
39.80342685089557
 20
13.57514739465253
 30
0.0
 41
1.0
 10
39.80342317808341
 20
13.57626655297332
 30
0.0
 41
1.0
 10
39.80341583245909
 20
13.57850486961488
 30
0.0
 41
1.0
 10
39.80340695081531
 20
13.59074362648498
 30
0.0
 41
1.0
 10
39.80340174198368
 20
13.60186719350674
 30
0.0
 41
1.0
 10
39.80340020596422
 20
13.60514739465254
 30
0.0
 41
1.0
  0
LINE
  5
2DF
330
1F
100
AcDbEntity
  8
0
  6
SLD-Solid
 62
     7
370
    25
100
AcDbLine
 10
39.8033868903728
 20
13.6351473946525
 30
0.0
 11
39.80338277714964
 21
13.64514739465253
 31
0.0
  0
ARC
  5
2E0
330
1F
100
AcDbEntity
  8
0
  6
SLD-Solid
 62
     7
370
    25
100
AcDbCircle
 10
46.6931916645805
 20
13.75854783421001
 30
0.0
 40
0.0200000000000102
100
AcDbArc
 50
90.00000000002035
 51
180.0
  0
LINE
  5
2E1
330
1F
100
AcDbEntity
  8
0
  6
SLD-Solid
 62
     7
370
    25
100
AcDbLine
 10
46.67319166458049
 20
13.64514739465253
 30
0.0
 11
46.67319166458049
 21
13.75854783421001
 31
0.0
  0
LINE
  5
2E2
330
1F
100
AcDbEntity
  8
0
  6
SLD-Solid
 62
     7
370
    25
100
AcDbLine
 10
39.80337808190333
 20
13.65354783421001
 30
0.0
 11
39.80338277714964
 21
13.64514739465253
 31
0.0
  0
LINE
  5
2E3
330
1F
100
AcDbEntity
  8
0
  6
SLD-Solid
 62
     7
370
    25
100
AcDbLine
 10
38.95604754575721
 20
45.78441785622557
 30
0.0
 11
45.20621554673022
 21
52.0345858571985
 31
0.0
  0
LINE
  5
2E4
330
1F
100
AcDbEntity
  8
0
  6
SLD-Solid
 62
     7
370
    25
100
AcDbLine
 10
45.20952265100527
 20
52.03789296147355
 30
0.0
 11
45.20621554673022
 21
52.0345858571985
 31
0.0
  0
ARC
  5
2E5
330
1F
100
AcDbEntity
  8
0
  6
SLD-Solid
 62
     7
370
    25
100
AcDbCircle
 10
45.24487799006459
 20
52.00253762241424
 30
0.0
 40
0.0499999999999972
100
AcDbArc
 50
90.0
 51
135.0000000000115
  0
LINE
  5
2E6
330
1F
100
AcDbEntity
  8
0
  6
SLD-Solid
 62
     7
370
    25
100
AcDbLine
 10
46.68114717639165
 20
52.05253762241422
 30
0.0
 11
45.24487799006459
 21
52.05253762241423
 31
0.0
  0
LINE
  5
2E7
330
1F
100
AcDbEntity
  8
0
  6
SLD-Solid
 62
     7
370
    25
100
AcDbLine
 10
46.68114717639165
 20
52.05253762241422
 30
0.0
 11
46.68114717639161
 21
43.77854783421006
 31
0.0
  0
LINE
  5
2E8
330
1F
100
AcDbEntity
  8
0
  6
SLD-Solid
 62
     7
370
    25
100
AcDbLine
 10
46.68114717639161
 20
43.77854783421006
 30
0.0
 11
46.64428543144556
 21
43.77854783421006
 31
0.0
  0
LINE
  5
2E9
330
1F
100
AcDbEntity
  8
0
  6
SLD-Solid
 62
     7
370
    25
100
AcDbLine
 10
38.9391854314456
 20
45.74684506379531
 30
0.0
 11
38.9391854314456
 21
44.64854783420998
 31
0.0
  0
ARC
  5
2EA
330
1F
100
AcDbEntity
  8
0
  6
SLD-Solid
 62
     7
370
    25
100
AcDbCircle
 10
38.98918543144561
 20
45.74684506379531
 30
0.0
 40
0.0500000000000043
100
AcDbArc
 50
135.0
 51
180.0
  0
LINE
  5
2EB
330
1F
100
AcDbEntity
  8
0
  6
SLD-Solid
 62
     7
370
    25
100
AcDbLine
 10
38.95383009238628
 20
45.78220040285464
 30
0.0
 11
38.95604754575721
 21
45.78441785622557
 31
0.0
  0
LINE
  5
2EC
330
1F
100
AcDbEntity
  8
0
  6
SLD-Solid
 62
     7
370
    25
100
AcDbLine
 10
46.74604717639161
 20
43.77854783421006
 30
0.0
 11
46.74604717639164
 21
52.0508270720826
 31
0.0
  0
LINE
  5
2ED
330
1F
100
AcDbEntity
  8
0
  6
SLD-Solid
 62
     7
370
    25
100
AcDbLine
 10
46.74604717639161
 20
43.77854783421006
 30
0.0
 11
46.68114717639161
 21
43.77854783421006
 31
0.0
  0
LINE
  5
2EE
330
1F
100
AcDbEntity
  8
0
  6
SLD-Solid
 62
     7
370
    25
100
AcDbLine
 10
38.9101563156582
 20
45.83030908632457
 30
0.0
 11
45.16032431663121
 21
52.08047708729751
 31
0.0
  0
LINE
  5
2EF
330
1F
100
AcDbEntity
  8
0
  6
SLD-Solid
 62
     7
370
    25
100
AcDbLine
 10
45.25416731194594
 20
52.11743762241422
 30
0.0
 11
46.65115511863712
 21
52.11743762241422
 31
0.0
  0
LINE
  5
2F0
330
1F
100
AcDbEntity
  8
0
  6
SLD-Solid
 62
     7
370
    25
100
AcDbLine
 10
38.87428543144559
 20
44.64854783420999
 30
0.0
 11
38.87428543144561
 21
45.74255574191397
 31
0.0
  0
LINE
  5
2F1
330
1F
100
AcDbEntity
  8
0
  6
SLD-Solid
 62
     7
370
    25
100
AcDbLine
 10
45.17827608184694
 20
52.09842885251324
 30
0.0
 11
45.18165356015268
 21
52.10157425064723
 31
0.0
  0
LINE
  5
2F2
330
1F
100
AcDbEntity
  8
0
  6
SLD-Solid
 62
     7
370
    25
100
AcDbLine
 10
45.16032431663121
 20
52.08047708729751
 30
0.0
 11
45.17827608184694
 21
52.09842885251324
 31
0.0
  0
LINE
  5
2F3
330
1F
100
AcDbEntity
  8
0
  6
SLD-Solid
 62
     7
370
    25
100
AcDbLine
 10
38.88914984797796
 20
45.80888914713362
 30
0.0
 11
38.8932942013466
 21
45.81344697201297
 31
0.0
  0
LINE
  5
2F4
330
1F
100
AcDbEntity
  8
0
  6
SLD-Solid
 62
     7
370
    25
100
AcDbLine
 10
38.8932942013466
 20
45.81344697201297
 30
0.0
 11
38.9101563156582
 21
45.83030908632457
 31
0.0
  0
LINE
  5
2F5
330
1F
100
AcDbEntity
  8
0
  6
SLD-Solid
 62
     7
370
    25
100
AcDbLine
 10
46.74605511863712
 20
52.03153762241423
 30
0.0
 11
46.74605511863712
 21
52.05253762241423
 31
0.0
  0
LINE
  5
2F6
330
1F
100
AcDbEntity
  8
0
  6
SLD-Solid
 62
     7
370
    25
100
AcDbLine
 10
46.74604717639164
 20
52.03153762241423
 30
0.0
 11
46.74605511863712
 21
52.03153762241423
 31
0.0
  0
LINE
  5
2F7
330
1F
100
AcDbEntity
  8
0
  6
SLD-Solid
 62
     7
370
    25
100
AcDbLine
 10
46.74605511863712
 20
51.53153762241423
 30
0.0
 11
46.74604717639164
 21
51.53153762241423
 31
0.0
  0
LINE
  5
2F8
330
1F
100
AcDbEntity
  8
0
  6
SLD-Solid
 62
     7
370
    25
100
AcDbLine
 10
46.74605511863712
 20
52.03153762241423
 30
0.0
 11
46.74605511863712
 21
51.53153762241423
 31
0.0
  0
LINE
  5
2F9
330
1F
100
AcDbEntity
  8
0
  6
SLD-Solid
 62
     7
370
    25
100
AcDbLine
 10
46.68115511863712
 20
52.11743762241422
 30
0.0
 11
46.65115511863712
 21
52.11743762241422
 31
0.0
  0
ARC
  5
2FA
330
1F
100
AcDbEntity
  8
0
  6
SLD-Solid
 62
     7
370
    25
100
AcDbCircle
 10
46.68115511863712
 20
52.05253762241423
 30
0.0
 40
0.0649000000000015
100
AcDbArc
 50
0.0
 51
90.0
  0
ARC
  5
2FB
330
1F
100
AcDbEntity
  8
0
  6
SLD-Solid
 62
     7
370
    25
100
AcDbCircle
 10
45.22416731194594
 20
52.05253762241423
 30
0.0
 40
0.0648999999999997
100
AcDbArc
 50
90.0
 51
130.9246176833466
  0
LINE
  5
2FC
330
1F
100
AcDbEntity
  8
0
  6
SLD-Solid
 62
     7
370
    25
100
AcDbLine
 10
45.22416731194594
 20
52.11743762241422
 30
0.0
 11
45.25416731194594
 21
52.11743762241422
 31
0.0
  0
LINE
  5
2FD
330
1F
100
AcDbEntity
  8
0
  6
SLD-Solid
 62
     7
370
    25
100
AcDbLine
 10
38.87428543144561
 20
45.76755574191397
 30
0.0
 11
38.87428543144561
 21
45.74255574191397
 31
0.0
  0
ARC
  5
2FE
330
1F
100
AcDbEntity
  8
0
  6
SLD-Solid
 62
     7
370
    25
100
AcDbCircle
 10
38.93918543144561
 20
45.76755574191397
 30
0.0
 40
0.0649000000000015
100
AcDbArc
 50
140.4405618421017
 51
180.0
  0
LINE
  5
2FF
330
1F
100
AcDbEntity
  8
0
  6
SLD-Solid
 62
     8
370
    25
100
AcDbLine
 10
46.8985360872628
 20
38.2880209222754
 30
0.0
 11
46.8985360872628
 21
39.07107474614456
 31
0.0
  0
LINE
  5
300
330
1F
100
AcDbEntity
  8
0
  6
SLD-Solid
 62
     8
370
    25
100
AcDbLine
 10
46.8985360872628
 20
27.1630209222754
 30
0.0
 11
46.8985360872628
 21
27.94607474614456
 31
0.0
  0
LINE
  5
301
330
1F
100
AcDbEntity
  8
0
  6
SLD-Solid
 62
     8
370
    25
100
AcDbLine
 10
39.49980817071901
 20
43.70101935099019
 30
0.0
 11
39.49980817071901
 21
13.65354783420993
 31
0.0
  0
LINE
  5
302
330
1F
100
AcDbEntity
  8
0
  6
SLD-Solid
 62
     8
370
    25
100
AcDbLine
 10
46.80763659232626
 20
43.62854783421002
 30
0.0
 11
46.80753659232618
 21
43.62854783421002
 31
0.0
  0
LINE
  5
303
330
1F
100
AcDbEntity
  8
0
  6
SLD-Solid
 62
     8
370
    25
100
AcDbLine
 10
46.67319166458049
 20
13.64514739465253
 30
0.0
 11
46.6730916645804
 21
13.64514739465253
 31
0.0
  0
LINE
  5
304
330
1F
100
AcDbEntity
  8
0
  6
SLD-Solid
 62
     8
370
    25
100
AcDbLine
 10
39.80347808190326
 20
13.64514739465253
 30
0.0
 11
39.80338277714964
 21
13.64514739465253
 31
0.0
  0
DIMENSION
  5
305
330
1F
100
AcDbEntity
  8
DIMS
100
AcDbDimension
  2
_D_3
 10
37.47314951059937
 20
13.57514739465246
 30
0.0
 11
37.47314951059937
 21
32.91600602829721
 31
0.0
 70
    32
  1
<>
 71
     2
 42
-1.0
  3
SLDDIMSTYLE1
100
AcDbAlignedDimension
 13
45.2241673119459
 23
52.11743762241422
 33
0.0
 14
39.80347808190329
 24
13.57514739465246
 34
0.0
 50
90.0000000000002
100
AcDbRotatedDimension
  0
MTEXT
  5
314
330
1F
100
AcDbEntity
  8
NOTES
100
AcDbMText
 10
40.85474825954302
 20
12.88867764392505
 30
0.0
 40
0.7500000000000001
 41
0.0
 71
     1
 72
     1
  1
Side view
  7
SLDTEXTSTYLE1
 73
     1
 44
1.0
  0
LINE
  5
315
330
1F
100
AcDbEntity
  8
0
  6
SLD-Solid
 62
     7
370
    25
100
AcDbLine
 10
68.42103173168793
 20
79.14053262000598
 30
0.0
 11
73.87497840439708
 21
82.28902901653073
 31
0.0
  0
LINE
  5
316
330
1F
100
AcDbEntity
  8
0
  6
SLD-Solid
 62
     7
370
    25
100
AcDbLine
 10
53.12368545009615
 20
87.90307823231902
 30
0.0
 11
68.30250486791452
 21
79.14053229844707
 31
0.0
  0
LINE
  5
317
330
1F
100
AcDbEntity
  8
0
  6
SLD-Solid
 62
     7
370
    25
100
AcDbLine
 10
53.06441587659606
 20
88.69209592400748
 30
0.0
 11
53.06441587659606
 21
87.9572091933103
 31
0.0
  0
LINE
  5
318
330
1F
100
AcDbEntity
  8
0
  6
SLD-Solid
 62
     7
370
    25
100
AcDbLine
 10
73.83776918686249
 20
57.97524152316624
 30
0.0
 11
73.83776918686256
 21
82.26754859247173
 31
0.0
  0
LINE
  5
319
330
1F
100
AcDbEntity
  8
0
  6
SLD-Solid
 62
     7
370
    25
100
AcDbLine
 10
53.62761002828248
 20
87.61216876551416
 30
0.0
 11
53.62761002828241
 21
63.42925956942211
 31
0.0
  0
LINE
  5
31A
330
1F
100
AcDbEntity
  8
0
  6
SLD-Solid
 62
     7
370
    25
100
AcDbLine
 10
53.93870981829873
 20
63.15217418930116
 30
0.0
 11
68.10328025543093
 21
54.97514172897452
 31
0.0
  0
LINE
  5
31B
330
1F
100
AcDbEntity
  8
0
  6
SLD-Solid
 62
     7
370
    25
100
AcDbLine
 10
68.89964654864042
 20
54.97518039169614
 30
0.0
 11
73.75719689708264
 21
57.77938451868867
 31
0.0
  0
LINE
  5
31C
330
1F
100
AcDbEntity
  8
0
  6
SLD-Solid
 62
     7
370
    25
100
AcDbLine
 10
73.90106167083123
 20
82.3859469625547
 30
0.0
 11
73.90106167083123
 21
89.14129893467107
 31
0.0
  0
LINE
  5
31D
330
1F
100
AcDbEntity
  8
0
  6
SLD-Solid
 62
     7
370
    25
100
AcDbLine
 10
73.84252240949512
 20
89.21326984463781
 30
0.0
 11
58.78737050989616
 21
97.90442403985763
 31
0.0
  0
LINE
  5
31E
330
1F
100
AcDbEntity
  8
0
  6
SLD-Solid
 62
     7
370
    25
100
AcDbLine
 10
57.6296860849962
 20
97.27899553400309
 30
0.0
 11
53.21014990795302
 21
89.62413435194178
 31
0.0
  0
LINE
  5
31F
330
1F
100
AcDbEntity
  8
0
  6
SLD-Solid
 62
     7
370
    25
100
AcDbLine
 10
68.30590658557912
 20
79.16529115943206
 30
0.0
 11
68.30590658557912
 21
79.87448011226637
 31
0.0
  0
ARC
  5
320
330
1F
100
AcDbEntity
  8
0
  6
SLD-Solid
 62
     7
370
    25
100
AcDbCircle
 10
68.36176802129286
 20
79.98229228797784
 30
0.0
 40
0.1214247307250114
100
AcDbArc
 50
242.6096722365965
 51
297.3903277634051
  0
LINE
  5
321
330
1F
100
AcDbEntity
  8
0
  6
SLD-Solid
 62
     7
370
    25
100
AcDbLine
 10
68.4176294570066
 20
79.16529115943207
 30
0.0
 11
68.4176294570066
 21
79.87448011226637
 31
0.0
  0
LINE
  5
322
330
1F
100
AcDbEntity
  8
0
  6
SLD-Solid
 62
     7
370
    25
100
AcDbLine
 10
68.41762945700661
 20
79.13959338156918
 30
0.0
 11
68.4176294570066
 21
79.16529115943207
 31
0.0
  0
ARC
  5
323
330
1F
100
AcDbEntity
  8
0
  6
SLD-Solid
 62
     7
370
    25
100
AcDbCircle
 10
68.36176802129287
 20
79.24740555728069
 30
0.0
 40
0.1214247307250431
100
AcDbArc
 50
242.6096722365967
 51
297.3903277633989
  0
LINE
  5
324
330
1F
100
AcDbEntity
  8
0
  6
SLD-Solid
 62
     7
370
    25
100
AcDbLine
 10
68.30590658557912
 20
79.13959338156918
 30
0.0
 11
68.30590658557912
 21
79.16529115943206
 31
0.0
  0
ARC
  5
325
330
1F
100
AcDbEntity
  8
0
  6
SLD-Solid
 62
     7
370
    25
100
AcDbCircle
 10
68.36176802129287
 20
79.93446693652572
 30
0.0
 40
0.0445736353295163
100
AcDbArc
 50
242.6096722366431
 51
297.3903277633585
  0
LINE
  5
326
330
1F
100
AcDbEntity
  8
0
  6
SLD-Solid
 62
     7
370
    25
100
AcDbLine
 10
73.85598771111239
 20
83.05479791187165
 30
0.0
 11
68.38227411794729
 21
79.89489031506193
 31
0.0
  0
LINE
  5
327
330
1F
100
AcDbEntity
  8
0
  6
SLD-Solid
 62
     7
370
    25
100
AcDbLine
 10
73.89134305017171
 20
83.03438770907609
 30
0.0
 11
73.85598771111239
 21
83.05479791187165
 31
0.0
  0
LINE
  5
328
330
1F
100
AcDbEntity
  8
0
  6
SLD-Solid
 62
     7
370
    25
100
AcDbLine
 10
73.89134305017171
 20
83.03438770907609
 30
0.0
 11
68.4176294570066
 21
79.87448011226637
 31
0.0
  0
LINE
  5
329
330
1F
100
AcDbEntity
  8
0
  6
SLD-Solid
 62
     7
370
    25
100
AcDbLine
 10
73.89134305017171
 20
82.3251987562418
 30
0.0
 11
73.89134305017171
 21
83.03438770907609
 31
0.0
  0
LINE
  5
32A
330
1F
100
AcDbEntity
  8
0
  6
SLD-Solid
 62
     7
370
    25
100
AcDbLine
 10
68.4176294570066
 20
79.16529115943207
 30
0.0
 11
73.89134305017171
 21
82.3251987562418
 31
0.0
  0
LINE
  5
32B
330
1F
100
AcDbEntity
  8
0
  6
SLD-Solid
 62
     7
370
    25
100
AcDbLine
 10
68.30590658557912
 20
79.87448011226637
 30
0.0
 11
53.08755444088232
 21
88.65984780359048
 31
0.0
  0
LINE
  5
32C
330
1F
100
AcDbEntity
  8
0
  6
SLD-Solid
 62
     7
370
    25
100
AcDbLine
 10
53.08755444088232
 20
87.95065885075617
 30
0.0
 11
68.30590658557912
 21
79.16529115943206
 31
0.0
  0
LINE
  5
32D
330
1F
100
AcDbEntity
  8
0
  6
SLD-Solid
 62
     7
370
    25
100
AcDbLine
 10
68.34126192463846
 20
79.89489031506193
 30
0.0
 11
53.12290977994165
 21
88.68025800638604
 31
0.0
  0
ARC
  5
32E
330
1F
100
AcDbEntity
  8
0
  6
SLD-Solid
 62
     7
370
    25
100
AcDbCircle
 10
73.85454423125523
 20
82.32006114076435
 30
0.0
 40
0.0371557285817688
100
AcDbArc
 50
303.3642848183391
 51
7.947895574991216
  0
SPLINE
  5
32F
330
1F
100
AcDbEntity
  8
0
  6
SLD-Solid
 62
     7
370
    25
100
AcDbSpline
210
0.0
220
0.0
230
1.0
 70
    12
 71
     3
 72
    10
 73
     6
 74
     0
 42
0.00000001
 43
0.00000001
 40
0.0
 40
0.0
 40
0.0
 40
0.0
 40
0.4715060020271067
 40
0.9431275508109431
 40
1.0
 40
1.0
 40
1.0
 40
1.0
 10
53.08755444088232
 20
87.95065885075617
 30
0.0
 41
1.0
 10
53.09149453625756
 20
87.94151727655061
 30
0.0
 41
1.0
 10
53.09937569256359
 20
87.92323188791507
 30
0.0
 41
1.0
 10
53.1131787853699
 20
87.90762205841519
 30
0.0
 41
1.0
 10
53.12288560719742
 20
87.9039862692489
 30
0.0
 41
1.0
 10
53.12393018051952
 20
87.90359501365202
 30
0.0
 41
1.0
  0
ARC
  5
330
330
1F
100
AcDbEntity
  8
0
  6
SLD-Solid
 62
     7
370
    25
100
AcDbCircle
 10
53.10395198453271
 20
87.96115179708528
 30
0.0
 40
0.0397322030009111
100
AcDbArc
 50
185.6947992511245
 51
245.6253417065078
  0
ARC
  5
331
330
1F
100
AcDbEntity
  8
0
  6
SLD-Solid
 62
     7
370
    25
100
AcDbCircle
 10
53.09979367599919
 20
88.69209592400746
 30
0.0
 40
0.0344926100299179
100
AcDbArc
 50
110.7834207994601
 51
249.2165792005239
  0
LINE
  5
332
330
1F
100
AcDbEntity
  8
0
  6
SLD-Solid
 62
     7
370
    25
100
AcDbLine
 10
53.08755444088232
 20
87.92496107289331
 30
0.0
 11
53.08755444088232
 21
87.95065885075617
 31
0.0
  0
ARC
  5
333
330
1F
100
AcDbEntity
  8
0
  6
SLD-Solid
 62
     7
370
    25
100
AcDbCircle
 10
53.12740266371873
 20
88.69209592400746
 30
0.0
 40
0.0126618441881972
100
AcDbArc
 50
110.7834207994397
 51
249.2165792005383
  0
LINE
  5
334
330
1F
100
AcDbEntity
  8
0
  6
SLD-Solid
 62
     7
370
    25
100
AcDbLine
 10
53.2085404111435
 20
88.75336735279986
 30
0.0
 11
53.12290977994165
 21
88.7039338416289
 31
0.0
  0
LINE
  5
335
330
1F
100
AcDbEntity
  8
0
  6
SLD-Solid
 62
     7
370
    25
100
AcDbLine
 10
53.2085404111435
 20
88.79418775839099
 30
0.0
 11
53.08755444088232
 21
88.72434404442447
 31
0.0
  0
LINE
  5
336
330
1F
100
AcDbEntity
  8
0
  6
SLD-Solid
 62
     7
370
    25
100
AcDbLine
 10
53.08755444088232
 20
87.92496107289331
 30
0.0
 11
53.09743006275266
 21
87.93066214804824
 31
0.0
  0
LINE
  5
337
330
1F
100
AcDbEntity
  8
0
  6
SLD-Solid
 62
     7
370
    25
100
AcDbLine
 10
73.77169721612343
 20
57.83338473049091
 30
0.0
 11
73.8180522531683
 21
57.86014492377019
 31
0.0
  0
ARC
  5
338
330
1F
100
AcDbEntity
  8
0
  6
SLD-Solid
 62
     7
370
    25
100
AcDbCircle
 10
68.5097701889008
 20
55.21447147664461
 30
0.0
 40
0.3842554769779555
100
AcDbArc
 50
242.6096722366018
 51
297.3903277633999
  0
LINE
  5
339
330
1F
100
AcDbEntity
  8
0
  6
SLD-Solid
 62
     7
370
    25
100
AcDbLine
 10
73.8180522531683
 20
57.86014492377019
 30
0.0
 11
73.8180522531683
 21
57.83564869941362
 31
0.0
  0
LINE
  5
33A
330
1F
100
AcDbEntity
  8
0
  6
SLD-Solid
 62
     7
370
    25
100
AcDbLine
 10
68.68654688419744
 20
54.87329370540569
 30
0.0
 11
68.88806240161891
 21
54.98962613740767
 31
0.0
  0
LINE
  5
33B
330
1F
100
AcDbEntity
  8
0
  6
SLD-Solid
 62
     7
370
    25
100
AcDbLine
 10
73.77164580242514
 20
57.80885882563808
 30
0.0
 11
73.8180522531683
 21
57.83564869941362
 31
0.0
  0
LINE
  5
33C
330
1F
100
AcDbEntity
  8
0
  6
SLD-Solid
 62
     7
370
    25
100
AcDbLine
 10
68.33299349360416
 20
54.87329370540569
 30
0.0
 11
68.31241771093005
 21
54.88517185191001
 31
0.0
  0
ARC
  5
33D
330
1F
100
AcDbEntity
  8
0
  6
SLD-Solid
 62
     7
370
    25
100
AcDbCircle
 10
73.77721198291309
 20
58.45512268175907
 30
0.0
 40
0.0634777679544059
100
AcDbArc
 50
1.021122687936152
 51
17.44775390264054
  0
LINE
  5
33E
330
1F
100
AcDbEntity
  8
0
  6
SLD-Solid
 62
     7
370
    25
100
AcDbLine
 10
73.84067967016627
 20
58.45625391966772
 30
0.0
 11
73.84067967016627
 21
57.89933675953969
 31
0.0
  0
LINE
  5
33F
330
1F
100
AcDbEntity
  8
0
  6
SLD-Solid
 62
     7
370
    25
100
AcDbLine
 10
73.86189287360186
 20
58.46850004134507
 30
0.0
 11
73.84067967016627
 21
58.45625391966772
 31
0.0
  0
ARC
  5
340
330
1F
100
AcDbEntity
  8
0
  6
SLD-Solid
 62
     7
370
    25
100
AcDbCircle
 10
73.78447045347106
 20
58.46486514033984
 30
0.0
 40
0.0775077005479364
100
AcDbArc
 50
2.68800263728233
 51
46.5550539812103
  0
LINE
  5
341
330
1F
100
AcDbEntity
  8
0
  6
SLD-Solid
 62
     7
370
    25
100
AcDbLine
 10
73.84067967016627
 20
57.89933675953969
 30
0.0
 11
73.86189287360187
 21
57.91158288121704
 31
0.0
  0
LINE
  5
342
330
1F
100
AcDbEntity
  8
0
  6
SLD-Solid
 62
     7
370
    25
100
AcDbLine
 10
73.86189287360187
 20
57.91158288121704
 30
0.0
 11
73.86189287360186
 21
58.46850004134507
 31
0.0
  0
ARC
  5
343
330
1F
100
AcDbEntity
  8
0
  6
SLD-Solid
 62
     7
370
    25
100
AcDbCircle
 10
73.7915527549225
 20
57.90157230681203
 30
0.0
 40
0.0491777538423068
100
AcDbArc
 50
302.6054783400402
 51
357.3945215143511
  0
ARC
  5
344
330
1F
100
AcDbEntity
  8
0
  6
SLD-Solid
 62
     7
370
    25
100
AcDbCircle
 10
73.76670947531703
 20
57.91591425405723
 30
0.0
 40
0.0952818980695328
100
AcDbArc
 50
302.6054783400415
 51
357.3945215143229
  0
ARC
  5
345
330
1F
100
AcDbEntity
  8
0
  6
SLD-Solid
 62
     7
370
    25
100
AcDbCircle
 10
68.50142991550824
 20
55.27224864426935
 30
0.0
 40
0.4303661342153144
100
AcDbArc
 50
242.6096722366026
 51
297.3903277633991
  0
LINE
  5
346
330
1F
100
AcDbEntity
  8
0
  6
SLD-Solid
 62
     7
370
    25
100
AcDbLine
 10
68.30344001677601
 20
54.89012954048176
 30
0.0
 11
68.08871296333527
 21
55.01408882988544
 31
0.0
  0
LINE
  5
347
330
1F
100
AcDbEntity
  8
0
  6
SLD-Solid
 62
     7
370
    25
100
AcDbLine
 10
68.08871296333527
 20
55.01408882988544
 30
0.0
 11
68.08870964329475
 21
55.00723144476758
 31
0.0
  0
LINE
  5
348
330
1F
100
AcDbEntity
  8
0
  6
SLD-Solid
 62
     7
370
    25
100
AcDbLine
 10
53.92427979235331
 20
63.18418274641381
 30
0.0
 11
68.08870964329475
 21
55.00723144476758
 31
0.0
  0
LINE
  5
349
330
1F
100
AcDbEntity
  8
0
  6
SLD-Solid
 62
     7
370
    25
100
AcDbLine
 10
53.92427979235331
 20
63.18418274641381
 30
0.0
 11
53.92427647231279
 21
63.19104396476885
 31
0.0
  0
LINE
  5
34A
330
1F
100
AcDbEntity
  8
0
  6
SLD-Solid
 62
     7
370
    25
100
AcDbLine
 10
53.92427647231279
 20
63.19104396476885
 30
0.0
 11
53.70962012955018
 21
63.31496243376694
 31
0.0
  0
LINE
  5
34B
330
1F
100
AcDbEntity
  8
0
  6
SLD-Solid
 62
     7
370
    25
100
AcDbLine
 10
73.81726666154555
 20
57.94666723925245
 30
0.0
 11
73.78583935174716
 21
57.92852463948193
 31
0.0
  0
ARC
  5
34C
330
1F
100
AcDbEntity
  8
0
  6
SLD-Solid
 62
     7
370
    25
100
AcDbCircle
 10
73.80240153815082
 20
57.90263252508075
 30
0.0
 40
0.0307360961514821
100
AcDbArc
 50
122.6054783400712
 51
177.3945215143007
  0
LINE
  5
34D
330
1F
100
AcDbEntity
  8
0
  6
SLD-Solid
 62
     7
370
    25
100
AcDbLine
 10
73.77169721612343
 20
57.90402974212599
 30
0.0
 11
73.77169721612344
 21
57.81143365514153
 31
0.0
  0
LINE
  5
34E
330
1F
100
AcDbEntity
  8
0
  6
SLD-Solid
 62
     7
370
    25
100
AcDbLine
 10
68.91414686768123
 20
55.00722952814899
 30
0.0
 11
73.77169721612344
 21
57.81143365514153
 31
0.0
  0
LINE
  5
34F
330
1F
100
AcDbEntity
  8
0
  6
SLD-Solid
 62
     7
370
    25
100
AcDbLine
 10
68.91414686768123
 20
55.00722952814899
 30
0.0
 11
68.91414686768123
 21
55.01408882988544
 31
0.0
  0
LINE
  5
350
330
1F
100
AcDbEntity
  8
0
  6
SLD-Solid
 62
     7
370
    25
100
AcDbLine
 10
68.91414686768123
 20
55.01408882988544
 30
0.0
 11
68.69941981424047
 21
54.89012954048176
 31
0.0
  0
ARC
  5
351
330
1F
100
AcDbEntity
  8
0
  6
SLD-Solid
 62
     7
370
    25
100
AcDbCircle
 10
73.80273719248817
 20
57.97873496954918
 30
0.0
 40
0.0352057494945531
100
AcDbArc
 50
294.3746582935636
 51
354.3052007488038
  0
ARC
  5
352
330
1F
100
AcDbEntity
  8
0
  6
SLD-Solid
 62
     7
370
    25
100
AcDbCircle
 10
53.76773800577976
 20
63.44323335495389
 30
0.0
 40
0.1408229979782648
100
AcDbArc
 50
185.694799251201
 51
245.6253417064191
  0
SPLINE
  5
353
330
1F
100
AcDbEntity
  8
0
  6
SLD-Solid
 62
     7
370
    25
100
AcDbSpline
210
0.0
220
0.0
230
1.0
 70
    12
 71
     3
 72
    11
 73
     7
 74
     0
 42
0.00000001
 43
0.00000001
 40
0.0
 40
0.0
 40
0.0
 40
0.0
 40
0.2500000000000001
 40
0.5000000000000019
 40
0.749999999999996
 40
1.0
 40
1.0
 40
1.0
 40
1.0
 10
68.13817595313319
 20
54.97866586293122
 30
0.0
 41
1.0
 10
68.13169254744523
 20
54.97577924646679
 30
0.0
 41
1.0
 10
68.11872573606931
 20
54.97000601353793
 30
0.0
 41
1.0
 10
68.10237238762491
 20
54.97377414030476
 30
0.0
 41
1.0
 10
68.09093392676405
 20
54.98605510205482
 30
0.0
 41
1.0
 10
68.08945107111786
 20
55.00017266386332
 30
0.0
 41
1.0
 10
68.08870964329475
 20
55.00723144476758
 30
0.0
 41
1.0
  0
SPLINE
  5
354
330
1F
100
AcDbEntity
  8
0
  6
SLD-Solid
 62
     7
370
    25
100
AcDbSpline
210
0.0
220
0.0
230
1.0
 70
    12
 71
     3
 72
    10
 73
     6
 74
     0
 42
0.00000001
 43
0.00000001
 40
0.0
 40
0.0
 40
0.0
 40
0.0
 40
0.499948937049121
 40
0.9998978740982221
 40
1.0
 40
1.0
 40
1.0
 40
1.0
 10
53.92427979235331
 20
63.18418274641381
 30
0.0
 41
1.0
 10
53.92512896685006
 20
63.1773546439381
 30
0.0
 41
1.0
 10
53.92682731584356
 20
63.16369843898669
 30
0.0
 41
1.0
 10
53.93343849454279
 20
63.15316728920101
 30
0.0
 41
1.0
 10
53.93879503731674
 20
63.15212583112753
 30
0.0
 41
1.0
 10
53.93879613128855
 20
63.15212561842957
 30
0.0
 41
1.0
  0
ARC
  5
355
330
1F
100
AcDbEntity
  8
0
  6
SLD-Solid
 62
     7
370
    25
100
AcDbCircle
 10
68.88432846015124
 20
55.00213130800264
 30
0.0
 40
0.0302511037201284
100
AcDbArc
 50
234.8140445552995
 51
9.702364288178805
  0
ARC
  5
356
330
1F
100
AcDbEntity
  8
0
  6
SLD-Solid
 62
     7
370
    25
100
AcDbCircle
 10
73.7373970829219
 20
57.80764758354352
 30
0.0
 40
0.0345084551347773
100
AcDbArc
 50
305.0133329089838
 51
6.298847484353798
  0
LINE
  5
357
330
1F
100
AcDbEntity
  8
0
  6
SLD-Solid
 62
     7
370
    25
100
AcDbLine
 10
68.13817595313319
 20
54.97866586293122
 30
0.0
 11
68.14412164671458
 21
54.98210207782772
 31
0.0
  0
LINE
  5
358
330
1F
100
AcDbEntity
  8
0
  6
SLD-Solid
 62
     7
370
    25
100
AcDbLine
 10
68.34124133666792
 20
80.88914377335058
 30
0.0
 11
72.7607775137111
 21
88.5440049554119
 31
0.0
  0
LINE
  5
359
330
1F
100
AcDbEntity
  8
0
  6
SLD-Solid
 62
     7
370
    25
100
AcDbLine
 10
68.41958256676692
 20
80.84391225409563
 30
0.0
 11
72.8391187438101
 21
88.49877343615695
 31
0.0
  0
LINE
  5
35A
330
1F
100
AcDbEntity
  8
0
  6
SLD-Solid
 62
     7
370
    25
100
AcDbLine
 10
68.33622087852149
 20
80.89204202214755
 30
0.0
 11
68.34124133666792
 21
80.88914377335058
 31
0.0
  0
LINE
  5
35B
330
1F
100
AcDbEntity
  8
0
  6
SLD-Solid
 62
     7
370
    25
100
AcDbLine
 10
53.2477642771031
 20
89.57488764106581
 30
0.0
 11
68.30353538543244
 21
80.88337598425473
 31
0.0
  0
LINE
  5
35C
330
1F
100
AcDbEntity
  8
0
  6
SLD-Solid
 62
     7
370
    25
100
AcDbLine
 10
53.23892541476381
 20
89.60752517909968
 30
0.0
 11
53.23390495661738
 21
89.61042342789665
 31
0.0
  0
LINE
  5
35D
330
1F
100
AcDbEntity
  8
0
  6
SLD-Solid
 62
     7
370
    25
100
AcDbLine
 10
53.23390495661738
 20
89.61042342789665
 30
0.0
 11
57.65344113366056
 21
97.26528460995797
 31
0.0
  0
LINE
  5
35E
330
1F
100
AcDbEntity
  8
0
  6
SLD-Solid
 62
     7
370
    25
100
AcDbLine
 10
57.65344113366056
 20
97.26528460995797
 30
0.0
 11
57.658461591807
 21
97.262386361161
 31
0.0
  0
ARC
  5
35F
330
1F
100
AcDbEntity
  8
0
  6
SLD-Solid
 62
     7
370
    25
100
AcDbCircle
 10
57.66962677790185
 20
97.28660545319833
 30
0.0
 40
0.0266688169899847
100
AcDbArc
 50
245.2499380808993
 51
327.489464429654
  0
LINE
  5
360
330
1F
100
AcDbEntity
  8
0
  6
SLD-Solid
 62
     7
370
    25
100
AcDbLine
 10
72.74748988241615
 20
88.58099005736888
 30
0.0
 11
57.69211639479214
 21
97.2722721726327
 31
0.0
  0
ARC
  5
361
330
1F
100
AcDbEntity
  8
0
  6
SLD-Solid
 62
     7
370
    25
100
AcDbCircle
 10
72.7711447881209
 20
88.5686811870878
 30
0.0
 40
0.0266657617835568
100
AcDbArc
 50
152.5097090031124
 51
234.7560081436834
  0
LINE
  5
362
330
1F
100
AcDbEntity
  8
0
  6
SLD-Solid
 62
     7
370
    25
100
AcDbLine
 10
72.7607775137111
 20
88.5440049554119
 30
0.0
 11
72.75575705556467
 21
88.54690320420887
 31
0.0
  0
LINE
  5
363
330
1F
100
AcDbEntity
  8
0
  6
SLD-Solid
 62
     7
370
    25
100
AcDbLine
 10
56.71211993102723
 20
88.80945325046399
 30
0.0
 11
60.08711993102726
 21
94.65512470885257
 31
0.0
  0
ARC
  5
364
330
1F
100
AcDbEntity
  8
0
  6
SLD-Solid
 62
     7
370
    25
100
AcDbCircle
 10
56.80634109106058
 20
88.74302425773517
 30
0.0
 40
0.1152841622817081
100
AcDbArc
 50
144.8149143564212
 51
233.6487565511863
  0
LINE
  5
365
330
1F
100
AcDbEntity
  8
0
  6
SLD-Solid
 62
     7
370
    25
100
AcDbLine
 10
56.73800827867555
 20
88.65017456831971
 30
0.0
 11
65.75742486161863
 21
83.44337620480609
 31
0.0
  0
ARC
  5
366
330
1F
100
AcDbEntity
  8
0
  6
SLD-Solid
 62
     7
370
    25
100
AcDbCircle
 10
65.80366320275118
 20
83.5489950956691
 30
0.0
 40
0.1152967228407782
100
AcDbArc
 50
246.3569291844928
 51
335.1837008195035
  0
LINE
  5
367
330
1F
100
AcDbEntity
  8
0
  6
SLD-Solid
 62
     7
370
    25
100
AcDbLine
 10
65.90831320926695
 20
83.50060387297252
 30
0.0
 11
69.28331320926696
 21
89.34627533136108
 31
0.0
  0
ARC
  5
368
330
1F
100
AcDbEntity
  8
0
  6
SLD-Solid
 62
     7
370
    25
100
AcDbCircle
 10
69.18909204923366
 20
89.41270432408992
 30
0.0
 40
0.1152841622816756
100
AcDbArc
 50
324.814914356402
 51
53.6487565512012
  0
LINE
  5
369
330
1F
100
AcDbEntity
  8
0
  6
SLD-Solid
 62
     7
370
    25
100
AcDbLine
 10
69.25742486161865
 20
89.50555401350536
 30
0.0
 11
60.23800827867558
 21
94.71235237701899
 31
0.0
  0
ARC
  5
36A
330
1F
100
AcDbEntity
  8
0
  6
SLD-Solid
 62
     7
370
    25
100
AcDbCircle
 10
60.19176993754303
 20
94.60673348615597
 30
0.0
 40
0.1152967228407782
100
AcDbArc
 50
66.35692918449199
 51
155.1837008194963
  0
LINE
  5
36B
330
1F
100
AcDbEntity
  8
0
  6
SLD-Solid
 62
     7
370
    25
100
AcDbLine
 10
72.74748988241615
 20
88.58099005736888
 30
0.0
 11
72.7496259048607
 21
88.58508270449124
 31
0.0
  0
LINE
  5
36C
330
1F
100
AcDbEntity
  8
0
  6
SLD-Solid
 62
     7
370
    25
100
AcDbLine
 10
72.8414572196691
 20
88.50282379514508
 30
0.0
 11
72.8391187438101
 21
88.49877343615695
 31
0.0
  0
ARC
  5
36D
330
1F
100
AcDbEntity
  8
0
  6
SLD-Solid
 62
     7
370
    25
100
AcDbCircle
 10
72.90463254191768
 20
88.46801297852801
 30
0.0
 40
0.0721312296773026
100
AcDbArc
 50
121.9546716494972
 51
151.1443911208562
  0
LINE
  5
36E
330
1F
100
AcDbEntity
  8
0
  6
SLD-Solid
 62
     7
370
    25
100
AcDbLine
 10
73.88205290093023
 20
89.1155048585207
 30
0.0
 11
72.86645721966909
 21
88.52921395128152
 31
0.0
  0
LINE
  5
36F
330
1F
100
AcDbEntity
  8
0
  6
SLD-Solid
 62
     7
370
    25
100
AcDbLine
 10
68.40765925139205
 20
80.80634935220658
 30
0.0
 11
68.40765925139205
 21
79.90954484066924
 31
0.0
  0
ARC
  5
370
330
1F
100
AcDbEntity
  8
0
  6
SLD-Solid
 62
     7
370
    25
100
AcDbCircle
 10
68.47975750889577
 20
80.80388643090492
 30
0.0
 40
0.072140312699708
100
AcDbArc
 50
148.8562722005754
 51
178.0435013570103
  0
LINE
  5
371
330
1F
100
AcDbEntity
  8
0
  6
SLD-Solid
 62
     7
370
    25
100
AcDbLine
 10
68.41801459045138
 20
80.84119643946
 30
0.0
 11
68.41958256676692
 21
80.84391225409563
 31
0.0
  0
LINE
  5
372
330
1F
100
AcDbEntity
  8
0
  6
SLD-Solid
 62
     7
370
    25
100
AcDbLine
 10
72.80104229183922
 20
88.6275545617333
 30
0.0
 11
73.78886184318549
 21
89.19781065048333
 31
0.0
  0
ARC
  5
373
330
1F
100
AcDbEntity
  8
0
  6
SLD-Solid
 62
     7
370
    25
100
AcDbCircle
 10
53.32537336707474
 20
89.52677670832796
 30
0.0
 40
0.090637142038596
100
AcDbArc
 50
152.0818672774413
 51
178.3441563466505
  0
LINE
  5
374
330
1F
100
AcDbEntity
  8
0
  6
SLD-Solid
 62
     7
370
    25
100
AcDbLine
 10
53.24528480245394
 20
89.56921387757738
 30
0.0
 11
53.2477642771031
 21
89.57488764106581
 31
0.0
  0
LINE
  5
375
330
1F
100
AcDbEntity
  8
0
  6
SLD-Solid
 62
     7
370
    25
100
AcDbLine
 10
68.289643129612
 20
80.8384048366066
 30
0.0
 11
53.23477407272553
 21
89.52939575020406
 31
0.0
  0
LINE
  5
376
330
1F
100
AcDbEntity
  8
0
  6
SLD-Solid
 62
     7
370
    25
100
AcDbLine
 10
57.69211639479214
 20
97.2722721726327
 30
0.0
 11
57.6947568479742
 21
97.27607361808872
 31
0.0
  0
ARC
  5
377
330
1F
100
AcDbEntity
  8
0
  6
SLD-Solid
 62
     7
370
    25
100
AcDbCircle
 10
57.77289623958956
 20
97.22863023381022
 30
0.0
 40
0.0914146554651681
100
AcDbArc
 50
121.7308123290398
 51
148.7354053151763
  0
LINE
  5
378
330
1F
100
AcDbEntity
  8
0
  6
SLD-Solid
 62
     7
370
    25
100
AcDbLine
 10
57.7248186101609
 20
97.3063809944646
 30
0.0
 11
72.77968766704738
 21
88.61539008086714
 31
0.0
  0
ARC
  5
379
330
1F
100
AcDbEntity
  8
0
  6
SLD-Solid
 62
     7
370
    25
100
AcDbCircle
 10
72.82776529647565
 20
88.53763932021316
 30
0.0
 40
0.0914146554646166
100
AcDbArc
 50
121.730812328955
 51
148.7354053152654
  0
LINE
  5
37A
330
1F
100
AcDbEntity
  8
0
  6
SLD-Solid
 62
     7
370
    25
100
AcDbLine
 10
68.289643129612
 20
80.8384048366066
 30
0.0
 11
68.289643129612
 21
80.81799131630946
 31
0.0
  0
LINE
  5
37B
330
1F
100
AcDbEntity
  8
0
  6
SLD-Solid
 62
     7
370
    25
100
AcDbLine
 10
68.289643129612
 20
80.81799131630946
 30
0.0
 11
68.28978455096825
 21
80.81790967549827
 31
0.0
  0
LINE
  5
37C
330
1F
100
AcDbEntity
  8
0
  6
SLD-Solid
 62
     7
370
    25
100
AcDbLine
 10
53.23477407272553
 20
89.5089822299069
 30
0.0
 11
53.23463265136928
 21
89.50906387071808
 31
0.0
  0
LINE
  5
37D
330
1F
100
AcDbEntity
  8
0
  6
SLD-Solid
 62
     7
370
    25
100
AcDbLine
 10
53.23477407272553
 20
89.52939575020406
 30
0.0
 11
53.23477407272553
 21
89.5089822299069
 31
0.0
  0
LINE
  5
37E
330
1F
100
AcDbEntity
  8
0
  6
SLD-Solid
 62
     7
370
    25
100
AcDbLine
 10
57.7248186101609
 20
97.3063809944646
 30
0.0
 11
57.7460318135965
 21
97.31862711614195
 31
0.0
  0
LINE
  5
37F
330
1F
100
AcDbEntity
  8
0
  6
SLD-Solid
 62
     7
370
    25
100
AcDbLine
 10
57.74589039224026
 20
97.31870875695314
 30
0.0
 11
57.7460318135965
 21
97.31862711614195
 31
0.0
  0
LINE
  5
380
330
1F
100
AcDbEntity
  8
0
  6
SLD-Solid
 62
     7
370
    25
100
AcDbLine
 10
57.74589039224026
 20
97.31870875695314
 30
0.0
 11
58.73370994358651
 21
97.88896484570317
 31
0.0
  0
LINE
  5
381
330
1F
100
AcDbEntity
  8
0
  6
SLD-Solid
 62
     7
370
    25
100
AcDbLine
 10
58.75492314702211
 20
97.90121096738052
 30
0.0
 11
58.73370994358651
 21
97.88896484570317
 31
0.0
  0
LINE
  5
382
330
1F
100
AcDbEntity
  8
0
  6
SLD-Solid
 62
     7
370
    25
100
AcDbLine
 10
58.75492314702211
 20
97.90121096738052
 30
0.0
 11
73.8100750466211
 21
89.21005677216068
 31
0.0
  0
LINE
  5
383
330
1F
100
AcDbEntity
  8
0
  6
SLD-Solid
 62
     7
370
    25
100
AcDbLine
 10
73.8100750466211
 20
89.21005677216068
 30
0.0
 11
73.78886184318549
 21
89.19781065048333
 31
0.0
  0
LINE
  5
384
330
1F
100
AcDbEntity
  8
0
  6
SLD-Solid
 62
     7
370
    25
100
AcDbLine
 10
72.80104229183922
 20
88.6275545617333
 30
0.0
 11
72.80090087048299
 21
88.6276362025445
 31
0.0
  0
LINE
  5
385
330
1F
100
AcDbEntity
  8
0
  6
SLD-Solid
 62
     7
370
    25
100
AcDbLine
 10
72.77968766704738
 20
88.61539008086714
 30
0.0
 11
72.80090087048299
 21
88.6276362025445
 31
0.0
  0
LINE
  5
386
330
1F
100
AcDbEntity
  8
0
  6
SLD-Solid
 62
     7
370
    25
100
AcDbLine
 10
68.38156701116625
 20
80.81790967549827
 30
0.0
 11
68.38227411794745
 21
80.81831787955417
 31
0.0
  0
LINE
  5
387
330
1F
100
AcDbEntity
  8
0
  6
SLD-Solid
 62
     7
370
    25
100
AcDbLine
 10
72.84693352193824
 20
88.54806861981326
 30
0.0
 11
72.84693352193824
 21
88.54725221170146
 31
0.0
  0
SPLINE
  5
388
330
1F
100
AcDbEntity
  8
0
  6
SLD-Solid
 62
     7
370
    25
100
AcDbSpline
210
0.0
220
0.0
230
1.0
 70
    12
 71
     3
 72
    11
 73
     7
 74
     0
 42
0.00000001
 43
0.00000001
 40
0.0
 40
0.0
 40
0.0
 40
0.0
 40
0.2500000000000347
 40
0.5000000000000331
 40
0.7500000000000314
 40
1.0
 40
1.0
 40
1.0
 40
1.0
 10
73.88205290093023
 20
89.1155048585207
 30
0.0
 41
1.0
 10
73.88737653469352
 20
89.11925817854025
 30
0.0
 41
1.0
 10
73.89802380222005
 20
89.12676481857933
 30
0.0
 41
1.0
 10
73.90258060513682
 20
89.14129893467107
 30
0.0
 41
1.0
 10
73.89802380222005
 20
89.15583305076282
 30
0.0
 41
1.0
 10
73.88737653469352
 20
89.1633396908019
 30
0.0
 41
1.0
 10
73.88205290093023
 20
89.16709301082145
 30
0.0
 41
1.0
  0
ARC
  5
389
330
1F
100
AcDbEntity
  8
0
  6
SLD-Solid
 62
     7
370
    25
100
AcDbCircle
 10
73.87359404040237
 20
82.38722780024437
 30
0.0
 40
0.0274974774582139
100
AcDbArc
 50
310.2015046753956
 51
357.330185726954
  0
LINE
  5
38A
330
1F
100
AcDbEntity
  8
0
  6
SLD-Solid
 62
     7
370
    25
100
AcDbLine
 10
73.85666776748565
 20
89.15243848521423
 30
0.0
 11
73.88205290093023
 21
89.16709301082145
 31
0.0
  0
LINE
  5
38B
330
1F
100
AcDbEntity
  8
0
  6
SLD-Solid
 62
     7
370
    25
100
AcDbLine
 10
73.8100750466211
 20
89.18074295701398
 30
0.0
 11
73.80939863858222
 21
89.18035247496479
 31
0.0
  0
ARC
  5
38C
330
1F
100
AcDbEntity
  8
0
  6
SLD-Solid
 62
     7
370
    25
100
AcDbCircle
 10
73.82798955027411
 20
89.1880939917768
 30
0.0
 40
0.0283424269131077
100
AcDbArc
 50
350.7859630095314
 51
129.2032852357025
  0
LINE
  5
38D
330
1F
100
AcDbEntity
  8
0
  6
SLD-Solid
 62
     7
370
    25
100
AcDbLine
 10
73.8305811432755
 20
89.16890119109073
 30
0.0
 11
73.8559662767201
 21
89.18355571669794
 31
0.0
  0
ARC
  5
38E
330
1F
100
AcDbEntity
  8
0
  6
SLD-Solid
 62
     7
370
    25
100
AcDbCircle
 10
58.7739336585819
 20
97.87467456912077
 30
0.0
 40
0.0326432226099855
100
AcDbArc
 50
65.6928809538398
 51
125.6175774752319
  0
LINE
  5
38F
330
1F
100
AcDbEntity
  8
0
  6
SLD-Solid
 62
     7
370
    25
100
AcDbLine
 10
73.83195356795272
 20
89.13816664348923
 30
0.0
 11
73.85666776748565
 21
89.15243848521423
 31
0.0
  0
LINE
  5
390
330
1F
100
AcDbEntity
  8
0
  6
SLD-Solid
 62
     7
370
    25
100
AcDbLine
 10
73.82787825652836
 20
89.15019298349429
 30
0.0
 11
73.8305811432755
 21
89.15175383404112
 31
0.0
  0
LINE
  5
391
330
1F
100
AcDbEntity
  8
0
  6
SLD-Solid
 62
     7
370
    25
100
AcDbLine
 10
73.8559662767201
 20
89.16640835964833
 30
0.0
 11
73.8559662767201
 21
89.18355571669794
 31
0.0
  0
LINE
  5
392
330
1F
100
AcDbEntity
  8
0
  6
SLD-Solid
 62
     7
370
    25
100
AcDbLine
 10
73.8305811432755
 20
89.15175383404112
 30
0.0
 11
73.8559662767201
 21
89.16640835964833
 31
0.0
  0
LINE
  5
393
330
1F
100
AcDbEntity
  8
0
  6
SLD-Solid
 62
     7
370
    25
100
AcDbLine
 10
73.8559662767201
 20
89.16640835964833
 30
0.0
 11
73.82787983413753
 21
89.15018913059248
 31
0.0
  0
LINE
  5
394
330
1F
100
AcDbEntity
  8
0
  6
SLD-Solid
 62
     7
370
    25
100
AcDbLine
 10
60.25595827867558
 20
94.70198669397824
 30
0.0
 11
60.23800827867558
 21
94.71235237701899
 31
0.0
  0
LINE
  5
395
330
1F
100
AcDbEntity
  8
0
  6
SLD-Solid
 62
     7
370
    25
100
AcDbLine
 10
69.2580272805851
 20
89.5052028758297
 30
0.0
 11
60.25595827867558
 21
94.70198669397824
 31
0.0
  0
LWPOLYLINE
  5
396
330
1F
100
AcDbEntity
  8
0
  6
SLD-Solid
 62
     7
370
    25
100
AcDbPolyline
 90
        6
 70
   128
 43
0.0
 10
57.65344113366056
 20
97.26528460995797
 10
57.64511171645375
 20
97.27009296314709
 10
57.63834942938084
 20
97.27399640183701
 10
57.63341414334169
 20
97.27684491906795
 10
57.63049551861107
 20
97.27852904792022
 10
57.6296860849962
 20
97.27899553400309
  0
LWPOLYLINE
  5
397
330
1F
100
AcDbEntity
  8
0
  6
SLD-Solid
 62
     7
370
    25
100
AcDbPolyline
 90
        9
 70
   128
 43
0.0
 10
53.22046372651837
 20
89.618176795099
 10
53.21501483268726
 20
89.62132356260719
 10
53.2115389110269
 20
89.62333131186863
 10
53.21016953925739
 20
89.62412288620513
 10
53.21095934156789
 20
89.62366786585889
 10
53.2138779662985
 20
89.62198373700664
 10
53.21881325233765
 20
89.6191352197757
 10
53.22557553941056
 20
89.61523178108577
 10
53.23390495661738
 20
89.61042342789665
  0
LINE
  5
398
330
1F
100
AcDbEntity
  8
0
  6
SLD-Solid
 62
     7
370
    25
100
AcDbLine
 10
53.23932053045902
 20
89.60729099389486
 30
0.0
 11
53.22046372651837
 21
89.618176795099
 31
0.0
  0
ARC
  5
399
330
1F
100
AcDbEntity
  8
0
  6
SLD-Solid
 62
     7
370
    25
100
AcDbCircle
 10
53.28063866864753
 20
89.57815097190822
 30
0.0
 40
0.0721403127000185
100
AcDbArc
 50
148.8562722006458
 51
178.0435013569622
  0
LINE
  5
39A
330
1F
100
AcDbEntity
  8
0
  6
SLD-Solid
 62
     7
370
    25
100
AcDbLine
 10
53.21889575020283
 20
89.61546098046338
 30
0.0
 11
53.22046372651837
 21
89.618176795099
 31
0.0
  0
LINE
  5
39B
330
1F
100
AcDbEntity
  8
0
  6
SLD-Solid
 62
     7
370
    25
100
AcDbLine
 10
57.64233837942054
 20
97.27708833614847
 30
0.0
 11
57.64000238983409
 21
97.27304228351063
 31
0.0
  0
ARC
  5
39C
330
1F
100
AcDbEntity
  8
0
  6
SLD-Solid
 62
     7
370
    25
100
AcDbCircle
 10
57.70551370166896
 20
97.2422775195315
 30
0.0
 40
0.0721312296771086
100
AcDbArc
 50
121.954671649436
 51
151.1443911208628
  0
LINE
  5
39D
330
1F
100
AcDbEntity
  8
0
  6
SLD-Solid
 62
     7
370
    25
100
AcDbLine
 10
53.2085404111435
 20
89.58061389320994
 30
0.0
 11
53.2085404111435
 21
88.63082449521508
 31
0.0
  0
LINE
  5
39E
330
1F
100
AcDbEntity
  8
0
  6
SLD-Solid
 62
     7
370
    25
100
AcDbLine
 10
58.68293406068169
 20
97.88976939952407
 30
0.0
 11
57.66733837942054
 21
97.30347849228488
 31
0.0
  0
SPLINE
  5
39F
330
1F
100
AcDbEntity
  8
0
  6
SLD-Solid
 62
     7
370
    25
100
AcDbSpline
210
0.0
220
0.0
230
1.0
 70
    12
 71
     3
 72
    10
 73
     6
 74
     0
 42
0.00000001
 43
0.00000001
 40
0.0
 40
0.0
 40
0.0
 40
0.0
 40
0.3581010926178107
 40
0.7162021852355828
 40
1.0
 40
1.0
 40
1.0
 40
1.0
 10
58.68293406068169
 20
97.88976939952407
 30
0.0
 41
1.0
 10
58.68961370934636
 20
97.89268973960627
 30
0.0
 41
1.0
 10
58.70297300667572
 20
97.89853041977065
 30
0.0
 41
1.0
 10
58.72730107361896
 20
97.9011641352666
 30
0.0
 41
1.0
 10
58.74200652345446
 20
97.89862865123708
 30
0.0
 41
1.0
 10
58.74850813060856
 20
97.89750765723215
 30
0.0
 41
1.0
  0
LINE
  5
3A0
330
1F
100
AcDbEntity
  8
0
  6
SLD-Solid
 62
     8
370
    25
100
AcDbLine
 10
73.8180522531683
 20
57.86014492377019
 30
0.0
 11
73.77169721612343
 21
57.88690511704946
 31
0.0
  0
LINE
  5
3A1
330
1F
100
AcDbEntity
  8
0
  6
SLD-Solid
 62
     8
370
    25
100
AcDbLine
 10
68.68654688419744
 20
54.8831526820897
 30
0.0
 11
68.68654688419744
 21
54.87329370540569
 31
0.0
  0
LINE
  5
3A2
330
1F
100
AcDbEntity
  8
0
  6
SLD-Solid
 62
     8
370
    25
100
AcDbLine
 10
68.33299349360416
 20
54.87329370540569
 30
0.0
 11
68.33299349360416
 21
54.87530356842755
 31
0.0
  0
LINE
  5
3A3
330
1F
100
AcDbEntity
  8
0
  6
SLD-Solid
 62
     8
370
    25
100
AcDbLine
 10
73.84067967016627
 20
57.89933675953969
 30
0.0
 11
73.78797932628346
 21
57.92976002048591
 31
0.0
  0
LINE
  5
3A4
330
1F
100
AcDbEntity
  8
0
  6
SLD-Solid
 62
     8
370
    25
100
AcDbLine
 10
68.30344001677608
 20
79.14110603304839
 30
0.0
 11
68.30344001677601
 21
54.89012954048176
 31
0.0
  0
LINE
  5
3A5
330
1F
100
AcDbEntity
  8
0
  6
SLD-Solid
 62
     8
370
    25
100
AcDbLine
 10
68.69941981424054
 20
79.30124263925467
 30
0.0
 11
68.69941981424047
 21
54.89012954048176
 31
0.0
  0
LINE
  5
3A6
330
1F
100
AcDbEntity
  8
0
  6
SLD-Solid
 62
     8
370
    25
100
AcDbLine
 10
53.70962012955025
 20
87.5648253417854
 30
0.0
 11
53.70962012955018
 21
63.31496243376694
 31
0.0
  0
LINE
  5
3A7
330
1F
100
AcDbEntity
  8
0
  6
SLD-Solid
 62
     8
370
    25
100
AcDbLine
 10
73.81726666154555
 20
57.94666723925245
 30
0.0
 11
73.81726666154562
 21
82.25571273653954
 31
0.0
  0
LINE
  5
3A8
330
1F
100
AcDbEntity
  8
0
  6
SLD-Solid
 62
     8
370
    25
100
AcDbLine
 10
68.91414686768123
 20
55.00722952814899
 30
0.0
 11
68.9082058944084
 21
55.01065917901721
 31
0.0
  0
LINE
  5
3A9
330
1F
100
AcDbEntity
  8
0
  6
SLD-Solid
 62
     8
370
    25
100
AcDbLine
 10
68.13817595313319
 20
54.98575947761832
 30
0.0
 11
68.13817595313319
 21
54.97866586293122
 31
0.0
  0
LINE
  5
3AA
330
1F
100
AcDbEntity
  8
0
  6
SLD-Solid
 62
     8
370
    25
100
AcDbLine
 10
68.28978455096824
 20
79.92460757033217
 30
0.0
 11
68.28978455096825
 21
80.81790967549827
 31
0.0
  0
LINE
  5
3AB
330
1F
100
AcDbEntity
  8
0
  6
SLD-Solid
 62
     8
370
    25
100
AcDbLine
 10
73.88205290093023
 20
89.1155048585207
 30
0.0
 11
73.88205290093023
 21
83.03975079807664
 31
0.0
  0
LINE
  5
3AC
330
1F
100
AcDbEntity
  8
0
  6
SLD-Solid
 62
     8
370
    25
100
AcDbLine
 10
53.23463265136927
 20
88.61576176555197
 30
0.0
 11
53.23463265136928
 21
89.50906387071808
 31
0.0
  0
LINE
  5
3AD
330
1F
100
AcDbEntity
  8
0
  6
SLD-Solid
 62
     8
370
    25
100
AcDbLine
 10
73.8100717135328
 20
89.18074103286305
 30
0.0
 11
73.8305811432755
 21
89.16890119109073
 31
0.0
  0
LINE
  5
3AE
330
1F
100
AcDbEntity
  8
0
  6
SLD-Solid
 62
     8
370
    25
100
AcDbLine
 10
56.71735158390665
 20
88.80643209973823
 30
0.0
 11
56.71211993102723
 21
88.80945325046399
 31
0.0
  0
LINE
  5
3AF
330
1F
100
AcDbEntity
  8
0
  6
SLD-Solid
 62
     8
370
    25
100
AcDbLine
 10
53.23908390069111
 20
89.6074327152084
 30
0.0
 11
53.23390495661738
 21
89.61042342789665
 31
0.0
  0
LINE
  5
3B0
330
1F
100
AcDbEntity
  8
0
  6
SLD-Solid
 62
     8
370
    25
100
AcDbLine
 10
53.23463265136928
 20
89.50906387071808
 30
0.0
 11
53.23477407272553
 21
89.50914551152927
 31
0.0
  0
LINE
  5
3B1
330
1F
100
AcDbEntity
  8
0
  6
SLD-Solid
 62
     8
370
    25
100
AcDbLine
 10
57.74589039224026
 20
97.31854547533077
 30
0.0
 11
57.74589039224026
 21
97.31870875695314
 31
0.0
  0
MTEXT
  5
3B2
330
1F
100
AcDbEntity
  8
NOTES
100
AcDbMText
 10
60.26682149735733
 20
55.90977178256276
 30
0.0
 40
0.7500000000000001
 41
0.0
 71
     1
 72
     1
  1
3D view
  7
SLDTEXTSTYLE1
 73
     1
 44
1.0
  0
LINE
  5
3B3
330
1F
100
AcDbEntity
  8
0
  6
SLD-Solid
 62
     7
370
    25
100
AcDbLine
 10
70.79463013450108
 20
47.99011462528433
 30
0.0
 11
70.82185691125147
 21
47.98621656566014
 31
0.0
  0
LINE
  5
3B4
330
1F
100
AcDbEntity
  8
0
  6
SLD-Solid
 62
     7
370
    25
100
AcDbLine
 10
53.60836895781269
 20
43.70101935099018
 30
0.0
 11
53.67146790557934
 21
43.70101935099019
 31
0.0
  0
LINE
  5
3B5
330
1F
100
AcDbEntity
  8
0
  6
SLD-Solid
 62
     7
370
    25
100
AcDbLine
 10
74.87024591692429
 20
43.70101935099007
 30
0.0
 11
75.01854486469126
 21
43.70101935099007
 31
0.0
  0
LINE
  5
3B6
330
1F
100
AcDbEntity
  8
0
  6
SLD-Solid
 62
     7
370
    25
100
AcDbLine
 10
75.10345691125198
 20
43.78001935099002
 30
0.0
 11
75.103456911252
 21
44.64854783420994
 31
0.0
  0
LINE
  5
3B7
330
1F
100
AcDbEntity
  8
0
  6
SLD-Solid
 62
     7
370
    25
100
AcDbLine
 10
75.10345691125198
 20
43.78001935099002
 30
0.0
 11
75.15345691125198
 21
43.78001935099002
 31
0.0
  0
LINE
  5
3B8
330
1F
100
AcDbEntity
  8
0
  6
SLD-Solid
 62
     7
370
    25
100
AcDbLine
 10
75.15345691125198
 20
43.78001935099002
 30
0.0
 11
75.15345691125198
 21
44.64854783420994
 31
0.0
  0
LINE
  5
3B9
330
1F
100
AcDbEntity
  8
0
  6
SLD-Solid
 62
     7
370
    25
100
AcDbLine
 10
75.15345691125198
 20
44.64854783420994
 30
0.0
 11
75.103456911252
 21
44.64854783420994
 31
0.0
  0
LINE
  5
3BA
330
1F
100
AcDbEntity
  8
0
  6
SLD-Solid
 62
     7
370
    25
100
AcDbLine
 10
75.04589748641463
 20
43.77498355383769
 30
0.0
 11
74.99665709876402
 21
43.76630114495434
 31
0.0
  0
LINE
  5
3BB
330
1F
100
AcDbEntity
  8
0
  6
SLD-Solid
 62
     7
370
    25
100
AcDbLine
 10
75.01825691125191
 20
43.93174104524174
 30
0.0
 11
75.04589748641463
 21
43.77498355383769
 31
0.0
  0
LINE
  5
3BC
330
1F
100
AcDbEntity
  8
0
  6
SLD-Solid
 62
     7
370
    25
100
AcDbLine
 10
74.99449767702389
 20
43.77854783421
 30
0.0
 11
74.99665709876402
 21
43.76630114495434
 31
0.0
  0
ARC
  5
3BD
330
1F
100
AcDbEntity
  8
0
  6
SLD-Solid
 62
     7
370
    25
100
AcDbCircle
 10
75.07445691125196
 20
43.78001935099002
 30
0.0
 40
0.0290000000000248
100
AcDbArc
 50
190.0000000000052
 51
0.0
  0
ARC
  5
3BE
330
1F
100
AcDbEntity
  8
0
  6
SLD-Solid
 62
     7
370
    25
100
AcDbCircle
 10
75.07445691125196
 20
43.78001935099002
 30
0.0
 40
0.0790000000000219
100
AcDbArc
 50
190.0000000000012
 51
0.0
  0
LINE
  5
3BF
330
1F
100
AcDbEntity
  8
0
  6
SLD-Solid
 62
     7
370
    25
100
AcDbLine
 10
53.52345691125193
 20
43.78001935099014
 30
0.0
 11
53.47345691125193
 21
43.78001935099014
 31
0.0
  0
LINE
  5
3C0
330
1F
100
AcDbEntity
  8
0
  6
SLD-Solid
 62
     7
370
    25
100
AcDbLine
 10
53.47345691125193
 20
43.78001935099014
 30
0.0
 11
53.47345691125193
 21
44.64854783421005
 31
0.0
  0
LINE
  5
3C1
330
1F
100
AcDbEntity
  8
0
  6
SLD-Solid
 62
     7
370
    25
100
AcDbLine
 10
53.47345691125193
 20
44.64854783421005
 30
0.0
 11
53.52345691125193
 21
44.64854783421005
 31
0.0
  0
ARC
  5
3C2
330
1F
100
AcDbEntity
  8
0
  6
SLD-Solid
 62
     7
370
    25
100
AcDbCircle
 10
53.55245691125194
 20
43.78001935099014
 30
0.0
 40
0.0790000000000148
100
AcDbArc
 50
180.0
 51
341.7619283103465
  0
ARC
  5
3C3
330
1F
100
AcDbEntity
  8
0
  6
SLD-Solid
 62
     7
370
    25
100
AcDbCircle
 10
53.55245691125194
 20
43.78001935099014
 30
0.0
 40
0.0289999999999905
100
AcDbArc
 50
182.9085490748933
 51
305.9319261411484
  0
SPLINE
  5
3C4
330
1F
100
AcDbEntity
  8
0
  6
SLD-Solid
 62
     7
370
    25
100
AcDbSpline
210
0.0
220
0.0
230
1.0
 70
    12
 71
     3
 72
     9
 73
     5
 74
     0
 42
0.00000001
 43
0.00000001
 40
0.0
 40
0.0
 40
0.0
 40
0.0
 40
0.8294160911371573
 40
0.9999999999999999
 40
0.9999999999999999
 40
0.9999999999999999
 40
0.9999999999999999
 10
75.07445691125197
 20
43.78001935099007
 30
0.0
 41
1.0
 10
75.06810700470237
 20
43.77451772299825
 30
0.0
 41
1.0
 10
75.06045112893933
 20
43.76788458909765
 30
0.0
 41
1.0
 10
75.05279492468867
 20
43.76374906260312
 30
0.0
 41
1.0
 10
75.05148889944054
 20
43.76304360832847
 30
0.0
 41
1.0
  0
SPLINE
  5
3C5
330
1F
100
AcDbEntity
  8
0
  6
SLD-Solid
 62
     7
370
    25
100
AcDbSpline
210
0.0
220
0.0
230
1.0
 70
    12
 71
     3
 72
     9
 73
     5
 74
     0
 42
0.00000001
 43
0.00000001
 40
0.0
 40
0.0
 40
0.0
 40
0.0
 40
0.1364074130074831
 40
1.0
 40
1.0
 40
1.0
 40
1.0
 10
74.99952703369776
 20
43.75532384327911
 30
0.0
 41
1.0
 10
74.99904187485883
 20
43.75542969413619
 30
0.0
 41
1.0
 10
74.995485185173
 20
43.75620568463955
 30
0.0
 41
1.0
 10
74.991928466839
 20
43.75889310690621
 30
0.0
 41
1.0
 10
74.98885691125173
 20
43.76121394485382
 30
0.0
 41
1.0
  0
LINE
  5
3C6
330
1F
100
AcDbEntity
  8
0
  6
SLD-Solid
 62
     7
370
    25
100
AcDbLine
 10
75.07445691125197
 20
43.78001935099007
 30
0.0
 11
75.06231398732845
 21
43.75368707553245
 31
0.0
  0
SPLINE
  5
3C7
330
1F
100
AcDbEntity
  8
0
  6
SLD-Solid
 62
     7
370
    25
100
AcDbSpline
210
0.0
220
0.0
230
1.0
 70
    12
 71
     3
 72
    13
 73
     9
 74
     0
 42
0.00000001
 43
0.00000001
 40
0.0
 40
0.0
 40
0.0
 40
0.0
 40
0.0290443783064904
 40
0.2376724699990629
 40
0.4463005837151777
 40
0.6549287190163535
 40
0.8635568754683355
 40
1.0
 40
1.0
 40
1.0
 40
1.0
 10
75.03674457291767
 20
43.7116670009495
 30
0.0
 41
1.0
 10
75.03613278040038
 20
43.71083175671097
 30
0.0
 41
1.0
 10
75.03112643331384
 20
43.70399688632308
 30
0.0
 41
1.0
 10
75.02172551943963
 20
43.7000648814422
 30
0.0
 41
1.0
 10
75.00854190381851
 20
43.70218472653002
 30
0.0
 41
1.0
 10
74.99535805197664
 20
43.71584432004318
 30
0.0
 41
1.0
 10
74.98369550318257
 20
43.7349592665398
 30
0.0
 41
1.0
 10
74.9764257945163
 20
43.75042312560151
 30
0.0
 41
1.0
 10
74.97355131083852
 20
43.75653762241411
 30
0.0
 41
1.0
  0
SPLINE
  5
3C8
330
1F
100
AcDbEntity
  8
0
  6
SLD-Solid
 62
     7
370
    25
100
AcDbSpline
210
0.0
220
0.0
230
1.0
 70
    12
 71
     3
 72
    13
 73
     9
 74
     0
 42
0.00000001
 43
0.00000001
 40
0.0
 40
0.0
 40
0.0
 40
0.0
 40
0.0290443783073575
 40
0.2376724699999267
 40
0.4463005837160437
 40
0.6549287190172238
 40
0.8635568754692291
 40
1.0
 40
1.0
 40
1.0
 40
1.0
 10
53.59016924958622
 20
43.71166700094968
 30
0.0
 41
1.0
 10
53.59078104210355
 20
43.71083175671112
 30
0.0
 41
1.0
 10
53.5957873891901
 20
43.70399688632317
 30
0.0
 41
1.0
 10
53.60518830306432
 20
43.70006488144234
 30
0.0
 41
1.0
 10
53.61837191868544
 20
43.70218472653011
 30
0.0
 41
1.0
 10
53.63155577052731
 20
43.7158443200433
 30
0.0
 41
1.0
 10
53.64321831932136
 20
43.73495926653988
 30
0.0
 41
1.0
 10
53.65048802798761
 20
43.75042312560155
 30
0.0
 41
1.0
 10
53.65336251166538
 20
43.75653762241411
 30
0.0
 41
1.0
  0
SPLINE
  5
3C9
330
1F
100
AcDbEntity
  8
0
  6
SLD-Solid
 62
     7
370
    25
100
AcDbSpline
210
0.0
220
0.0
230
1.0
 70
    12
 71
     3
 72
    11
 73
     7
 74
     0
 42
0.00000001
 43
0.00000001
 40
0.0
 40
0.0
 40
0.0
 40
0.0
 40
0.0821307641421112
 40
0.5244868035887188
 40
0.9668484963983744
 40
1.0
 40
1.0
 40
1.0
 40
1.0
 10
53.5870696984105
 20
43.75653762241411
 30
0.0
 41
1.0
 10
53.58825251294291
 20
43.75584509862546
 30
0.0
 41
1.0
 10
53.59580596285687
 20
43.75142264387167
 30
0.0
 41
1.0
 10
53.60973026088761
 20
43.75041495156096
 30
0.0
 41
1.0
 10
53.62294895354839
 20
43.75205259666279
 30
0.0
 41
1.0
 10
53.62979713977084
 20
43.75624531719352
 30
0.0
 41
1.0
 10
53.63027457693121
 20
43.75653762241411
 30
0.0
 41
1.0
  0
LINE
  5
3CA
330
1F
100
AcDbEntity
  8
0
  6
SLD-Solid
 62
     7
370
    25
100
AcDbLine
 10
75.15345691125198
 20
43.74854783420999
 30
0.0
 11
75.15345691125198
 21
43.78001935099007
 31
0.0
  0
LINE
  5
3CB
330
1F
100
AcDbEntity
  8
0
  6
SLD-Solid
 62
     7
370
    25
100
AcDbLine
 10
75.07445691125197
 20
43.75101935099004
 30
0.0
 11
75.07445691125197
 21
43.78001935099007
 31
0.0
  0
LINE
  5
3CC
330
1F
100
AcDbEntity
  8
0
  6
SLD-Solid
 62
     7
370
    25
100
AcDbLine
 10
75.07445691125197
 20
43.78001935099007
 30
0.0
 11
75.07445691125199
 21
44.64854783420999
 31
0.0
  0
LINE
  5
3CD
330
1F
100
AcDbEntity
  8
0
  6
SLD-Solid
 62
     7
370
    25
100
AcDbLine
 10
75.07445691125199
 20
44.64854783420999
 30
0.0
 11
75.10345691125198
 21
44.64854783420999
 31
0.0
  0
LINE
  5
3CE
330
1F
100
AcDbEntity
  8
0
  6
SLD-Solid
 62
     7
370
    25
100
AcDbLine
 10
75.14691754629992
 20
43.74854783420999
 30
0.0
 11
75.15345691125198
 21
43.74854783420999
 31
0.0
  0
LINE
  5
3CF
330
1F
100
AcDbEntity
  8
0
  6
SLD-Solid
 62
     7
370
    25
100
AcDbLine
 10
53.47345691125197
 20
43.7485478342101
 30
0.0
 11
53.47345691125197
 21
43.78001935099018
 31
0.0
  0
LINE
  5
3D0
330
1F
100
AcDbEntity
  8
0
  6
SLD-Solid
 62
     7
370
    25
100
AcDbLine
 10
53.55245691125197
 20
43.75101935099015
 30
0.0
 11
53.55245691125197
 21
43.77854783421006
 31
0.0
  0
LINE
  5
3D1
330
1F
100
AcDbEntity
  8
0
  6
SLD-Solid
 62
     7
370
    25
100
AcDbLine
 10
53.47999627620387
 20
43.74854783421009
 30
0.0
 11
53.47345691125197
 21
43.7485478342101
 31
0.0
  0
LINE
  5
3D2
330
1F
100
AcDbEntity
  8
0
  6
SLD-Solid
 62
     7
370
    25
100
AcDbLine
 10
75.01825691125185
 20
44.64854783420999
 30
0.0
 11
75.07445691125199
 21
44.64854783420999
 31
0.0
  0
ARC
  5
3D3
330
1F
100
AcDbEntity
  8
0
  6
SLD-Solid
 62
     7
370
    25
100
AcDbCircle
 10
71.77085691125198
 20
38.80454783420998
 30
0.0
 40
0.1000000000000085
100
AcDbArc
 50
0.0
 51
180.0
  0
LINE
  5
3D4
330
1F
100
AcDbEntity
  8
0
  6
SLD-Solid
 62
     7
370
    25
100
AcDbLine
 10
71.67085691125199
 20
38.67428087058674
 30
0.0
 11
71.67085691125199
 21
38.80454783420998
 31
0.0
  0
ARC
  5
3D5
330
1F
100
AcDbEntity
  8
0
  6
SLD-Solid
 62
     7
370
    25
100
AcDbCircle
 10
71.77085691125198
 20
38.55454783420998
 30
0.0
 40
0.1560000000000044
100
AcDbArc
 50
129.8683415500093
 51
50.13165844998669
  0
LINE
  5
3D6
330
1F
100
AcDbEntity
  8
0
  6
SLD-Solid
 62
     7
370
    25
100
AcDbLine
 10
71.87085691125199
 20
38.80454783420998
 30
0.0
 11
71.87085691125199
 21
38.67428087058674
 31
0.0
  0
ARC
  5
3D7
330
1F
100
AcDbEntity
  8
0
  6
SLD-Solid
 62
     7
370
    25
100
AcDbCircle
 10
71.77085691125198
 20
27.67954783420998
 30
0.0
 40
0.1000000000000085
100
AcDbArc
 50
0.0
 51
180.0
  0
LINE
  5
3D8
330
1F
100
AcDbEntity
  8
0
  6
SLD-Solid
 62
     7
370
    25
100
AcDbLine
 10
71.67085691125199
 20
27.54928087058675
 30
0.0
 11
71.67085691125199
 21
27.67954783420998
 31
0.0
  0
ARC
  5
3D9
330
1F
100
AcDbEntity
  8
0
  6
SLD-Solid
 62
     7
370
    25
100
AcDbCircle
 10
71.77085691125198
 20
27.42954783420998
 30
0.0
 40
0.1560000000000072
100
AcDbArc
 50
129.8683415500085
 51
50.13165844998753
  0
LINE
  5
3DA
330
1F
100
AcDbEntity
  8
0
  6
SLD-Solid
 62
     7
370
    25
100
AcDbLine
 10
71.87085691125199
 20
27.67954783420998
 30
0.0
 11
71.87085691125199
 21
27.54928087058675
 31
0.0
  0
ARC
  5
3DB
330
1F
100
AcDbEntity
  8
0
  6
SLD-Solid
 62
     7
370
    25
100
AcDbCircle
 10
56.77085691125199
 20
27.67954783420998
 30
0.0
 40
0.1000000000000014
100
AcDbArc
 50
0.0
 51
180.0
  0
LINE
  5
3DC
330
1F
100
AcDbEntity
  8
0
  6
SLD-Solid
 62
     7
370
    25
100
AcDbLine
 10
56.67085691125199
 20
27.54928087058674
 30
0.0
 11
56.67085691125199
 21
27.67954783420998
 31
0.0
  0
ARC
  5
3DD
330
1F
100
AcDbEntity
  8
0
  6
SLD-Solid
 62
     7
370
    25
100
AcDbCircle
 10
56.77085691125199
 20
27.42954783420998
 30
0.0
 40
0.1559999999999999
100
AcDbArc
 50
129.8683415500113
 51
50.1316584499907
  0
LINE
  5
3DE
330
1F
100
AcDbEntity
  8
0
  6
SLD-Solid
 62
     7
370
    25
100
AcDbLine
 10
56.87085691125198
 20
27.67954783420998
 30
0.0
 11
56.87085691125198
 21
27.54928087058674
 31
0.0
  0
ARC
  5
3DF
330
1F
100
AcDbEntity
  8
0
  6
SLD-Solid
 62
     7
370
    25
100
AcDbCircle
 10
56.77085691125199
 20
38.80454783420998
 30
0.0
 40
0.1000000000000014
100
AcDbArc
 50
0.0
 51
180.0
  0
LINE
  5
3E0
330
1F
100
AcDbEntity
  8
0
  6
SLD-Solid
 62
     7
370
    25
100
AcDbLine
 10
56.67085691125199
 20
38.67428087058674
 30
0.0
 11
56.67085691125199
 21
38.80454783420998
 31
0.0
  0
ARC
  5
3E1
330
1F
100
AcDbEntity
  8
0
  6
SLD-Solid
 62
     7
370
    25
100
AcDbCircle
 10
56.77085691125199
 20
38.55454783420998
 30
0.0
 40
0.1559999999999999
100
AcDbArc
 50
129.8683415500113
 51
50.1316584499907
  0
LINE
  5
3E2
330
1F
100
AcDbEntity
  8
0
  6
SLD-Solid
 62
     7
370
    25
100
AcDbLine
 10
56.87085691125198
 20
38.80454783420998
 30
0.0
 11
56.87085691125198
 21
38.67428087058674
 31
0.0
  0
LINE
  5
3E3
330
1F
100
AcDbEntity
  8
0
  6
SLD-Solid
 62
     7
370
    25
100
AcDbLine
 10
54.05204091777685
 20
43.77854783420997
 30
0.0
 11
74.48967290472689
 21
43.77854783420998
 31
0.0
  0
LINE
  5
3E4
330
1F
100
AcDbEntity
  8
0
  6
SLD-Solid
 62
     7
370
    25
100
AcDbLine
 10
74.83335691125211
 20
13.66714739465252
 30
0.0
 11
53.70835691125211
 21
13.66714739465252
 31
0.0
  0
LINE
  5
3E5
330
1F
100
AcDbEntity
  8
0
  6
SLD-Solid
 62
     7
370
    25
100
AcDbLine
 10
74.83335691125211
 20
13.66714739465252
 30
0.0
 11
74.83335691125211
 21
13.60514739465252
 31
0.0
  0
LINE
  5
3E6
330
1F
100
AcDbEntity
  8
0
  6
SLD-Solid
 62
     7
370
    25
100
AcDbLine
 10
53.70835691125211
 20
13.60514739465252
 30
0.0
 11
74.83335691125211
 21
13.60514739465252
 31
0.0
  0
LINE
  5
3E7
330
1F
100
AcDbEntity
  8
0
  6
SLD-Solid
 62
     7
370
    25
100
AcDbLine
 10
53.70835691125211
 20
13.66714739465252
 30
0.0
 11
53.70835691125211
 21
13.60514739465252
 31
0.0
  0
ARC
  5
3E8
330
1F
100
AcDbEntity
  8
0
  6
SLD-Solid
 62
     7
370
    25
100
AcDbCircle
 10
53.75835691125211
 20
14.3491918828415
 30
0.0
 40
0.0500000000000025
100
AcDbArc
 50
90.0
 51
179.9999999999974
  0
LINE
  5
3E9
330
1F
100
AcDbEntity
  8
0
  6
SLD-Solid
 62
     7
370
    25
100
AcDbLine
 10
74.83335691125211
 20
14.3991918828415
 30
0.0
 11
53.75835691125211
 21
14.3991918828415
 31
0.0
  0
LINE
  5
3EA
330
1F
100
AcDbEntity
  8
0
  6
SLD-Solid
 62
     7
370
    25
100
AcDbLine
 10
74.83335691125211
 20
14.3991918828415
 30
0.0
 11
74.83335691125211
 21
13.66714739465252
 31
0.0
  0
LINE
  5
3EB
330
1F
100
AcDbEntity
  8
0
  6
SLD-Solid
 62
     7
370
    25
100
AcDbLine
 10
53.70835691125211
 20
13.66714739465252
 30
0.0
 11
53.70835691125211
 21
14.3491918828415
 31
0.0
  0
LINE
  5
3EC
330
1F
100
AcDbEntity
  8
0
  6
SLD-Solid
 62
     7
370
    25
100
AcDbLine
 10
74.87024591692443
 20
13.77854783421002
 30
0.0
 11
74.87024591692433
 21
43.77854783421002
 31
0.0
  0
LINE
  5
3ED
330
1F
100
AcDbEntity
  8
0
  6
SLD-Solid
 62
     7
370
    25
100
AcDbLine
 10
74.83335691125211
 20
13.77854783421002
 30
0.0
 11
74.87024591692443
 21
13.77854783421002
 31
0.0
  0
LINE
  5
3EE
330
1F
100
AcDbEntity
  8
0
  6
SLD-Solid
 62
     7
370
    25
100
AcDbLine
 10
74.86973880919166
 20
43.77854783421002
 30
0.0
 11
74.80024591692434
 21
43.77854783421002
 31
0.0
  0
LINE
  5
3EF
330
1F
100
AcDbEntity
  8
0
  6
SLD-Solid
 62
     7
370
    25
100
AcDbLine
 10
74.339672904727
 20
14.3991918828415
 30
0.0
 11
74.33967290472688
 21
43.62854783421002
 31
0.0
  0
ARC
  5
3F0
330
1F
100
AcDbEntity
  8
0
  6
SLD-Solid
 62
     7
370
    25
100
AcDbCircle
 10
74.48967290472689
 20
43.62854783421002
 30
0.0
 40
0.1500000000000057
100
AcDbArc
 50
90.0
 51
180.0
  0
LINE
  5
3F1
330
1F
100
AcDbEntity
  8
0
  6
SLD-Solid
 62
     7
370
    25
100
AcDbLine
 10
74.48967290472689
 20
43.77854783421002
 30
0.0
 11
74.80024591692434
 21
43.77854783421002
 31
0.0
  0
LINE
  5
3F2
330
1F
100
AcDbEntity
  8
0
  6
SLD-Solid
 62
     7
370
    25
100
AcDbLine
 10
53.74146790557941
 20
43.77854783420995
 30
0.0
 11
54.05204091777685
 21
43.77854783420994
 31
0.0
  0
ARC
  5
3F3
330
1F
100
AcDbEntity
  8
0
  6
SLD-Solid
 62
     7
370
    25
100
AcDbCircle
 10
54.05204091777686
 20
43.62854783420994
 30
0.0
 40
0.1499999999999986
100
AcDbArc
 50
0.0000000000379985
 51
90.00000000000273
  0
LINE
  5
3F4
330
1F
100
AcDbEntity
  8
0
  6
SLD-Solid
 62
     7
370
    25
100
AcDbLine
 10
54.20204091777685
 20
43.62854783421004
 30
0.0
 11
54.20204091777698
 21
14.3991918828415
 31
0.0
  0
LINE
  5
3F5
330
1F
100
AcDbEntity
  8
0
  6
SLD-Solid
 62
     7
370
    25
100
AcDbLine
 10
53.6714679055795
 20
13.77854783420993
 30
0.0
 11
53.70835691125211
 21
13.77854783420993
 31
0.0
  0
LINE
  5
3F6
330
1F
100
AcDbEntity
  8
0
  6
SLD-Solid
 62
     7
370
    25
100
AcDbLine
 10
53.6714679055795
 20
13.77854783420993
 30
0.0
 11
53.67146790557939
 21
43.77854783420995
 31
0.0
  0
LINE
  5
3F7
330
1F
100
AcDbEntity
  8
0
  6
SLD-Solid
 62
     7
370
    25
100
AcDbLine
 10
53.74146790557941
 20
43.77854783420995
 30
0.0
 11
53.67198718912608
 21
43.77854783420995
 31
0.0
  0
LINE
  5
3F8
330
1F
100
AcDbEntity
  8
0
  6
SLD-Solid
 62
     7
370
    25
100
AcDbLine
 10
74.87024591692445
 20
13.75854783421001
 30
0.0
 11
74.84024591692443
 21
13.75854783421001
 31
0.0
  0
LINE
  5
3F9
330
1F
100
AcDbEntity
  8
0
  6
SLD-Solid
 62
     7
370
    25
100
AcDbLine
 10
74.87024591692445
 20
13.75854783421001
 30
0.0
 11
74.87024591692445
 21
13.77854783421002
 31
0.0
  0
LINE
  5
3FA
330
1F
100
AcDbEntity
  8
0
  6
SLD-Solid
 62
     7
370
    25
100
AcDbLine
 10
74.84024591692443
 20
13.75854783421001
 30
0.0
 11
74.84024591692443
 21
13.77854783421002
 31
0.0
  0
LINE
  5
3FB
330
1F
100
AcDbEntity
  8
0
  6
SLD-Solid
 62
     7
370
    25
100
AcDbLine
 10
53.6714679055795
 20
13.75854783420993
 30
0.0
 11
53.70146790557951
 21
13.75854783420993
 31
0.0
  0
LINE
  5
3FC
330
1F
100
AcDbEntity
  8
0
  6
SLD-Solid
 62
     7
370
    25
100
AcDbLine
 10
53.6714679055795
 20
13.77854783420993
 30
0.0
 11
53.6714679055795
 21
13.75854783420993
 31
0.0
  0
LINE
  5
3FD
330
1F
100
AcDbEntity
  8
0
  6
SLD-Solid
 62
     7
370
    25
100
AcDbLine
 10
53.70146790557951
 20
13.77854783420993
 30
0.0
 11
53.70146790557951
 21
13.75854783420993
 31
0.0
  0
LINE
  5
3FE
330
1F
100
AcDbEntity
  8
0
  6
SLD-Solid
 62
     7
370
    25
100
AcDbLine
 10
74.87024591692445
 20
13.64514739465253
 30
0.0
 11
74.84024591692443
 21
13.64514739465253
 31
0.0
  0
LINE
  5
3FF
330
1F
100
AcDbEntity
  8
0
  6
SLD-Solid
 62
     7
370
    25
100
AcDbLine
 10
74.87024591692445
 20
13.64514739465253
 30
0.0
 11
74.87024591692445
 21
13.75854783421001
 31
0.0
  0
LINE
  5
400
330
1F
100
AcDbEntity
  8
0
  6
SLD-Solid
 62
     7
370
    25
100
AcDbLine
 10
74.84024591692443
 20
13.64514739465253
 30
0.0
 11
74.84024591692443
 21
13.75854783421001
 31
0.0
  0
LINE
  5
401
330
1F
100
AcDbEntity
  8
0
  6
SLD-Solid
 62
     7
370
    25
100
AcDbLine
 10
74.80024591692444
 20
13.57514739465253
 30
0.0
 11
74.80024591692444
 21
13.60514739465254
 31
0.0
  0
ARC
  5
402
330
1F
100
AcDbEntity
  8
0
  6
SLD-Solid
 62
     7
370
    25
100
AcDbCircle
 10
74.80024591692444
 20
13.64514739465253
 30
0.0
 40
0.0399999999999963
100
AcDbArc
 50
325.8708360471634
 51
0.0
  0
ARC
  5
403
330
1F
100
AcDbEntity
  8
0
  6
SLD-Solid
 62
     7
370
    25
100
AcDbCircle
 10
74.80024591692444
 20
13.64514739465253
 30
0.0
 40
0.0700000000000074
100
AcDbArc
 50
270.0000000000008
 51
0.0
  0
LINE
  5
404
330
1F
100
AcDbEntity
  8
0
  6
SLD-Solid
 62
     7
370
    25
100
AcDbLine
 10
74.52967290472849
 20
13.57514739465253
 30
0.0
 11
74.52967290472849
 21
13.60514739465253
 31
0.0
  0
LINE
  5
405
330
1F
100
AcDbEntity
  8
0
  6
SLD-Solid
 62
     7
370
    25
100
AcDbLine
 10
74.52967290472849
 20
13.57514739465253
 30
0.0
 11
74.80024591692444
 21
13.57514739465253
 31
0.0
  0
LINE
  5
406
330
1F
100
AcDbEntity
  8
0
  6
SLD-Solid
 62
     7
370
    25
100
AcDbLine
 10
74.37967290472848
 20
13.57514739465253
 30
0.0
 11
74.37967290472848
 21
13.60514739465254
 31
0.0
  0
LINE
  5
407
330
1F
100
AcDbEntity
  8
0
  6
SLD-Solid
 62
     7
370
    25
100
AcDbLine
 10
74.37967290472848
 20
13.57514739465253
 30
0.0
 11
74.52967290472849
 21
13.57514739465253
 31
0.0
  0
LINE
  5
408
330
1F
100
AcDbEntity
  8
0
  6
SLD-Solid
 62
     7
370
    25
100
AcDbLine
 10
54.01204091777629
 20
13.57514739465246
 30
0.0
 11
54.01204091777629
 21
13.60514739465246
 31
0.0
  0
LINE
  5
409
330
1F
100
AcDbEntity
  8
0
  6
SLD-Solid
 62
     7
370
    25
100
AcDbLine
 10
53.74146790557951
 20
13.60514739465246
 30
0.0
 11
53.74146790557951
 21
13.57514739465246
 31
0.0
  0
LINE
  5
40A
330
1F
100
AcDbEntity
  8
0
  6
SLD-Solid
 62
     7
370
    25
100
AcDbLine
 10
53.74146790557951
 20
13.57514739465246
 30
0.0
 11
54.01204091777629
 21
13.57514739465246
 31
0.0
  0
LINE
  5
40B
330
1F
100
AcDbEntity
  8
0
  6
SLD-Solid
 62
     7
370
    25
100
AcDbLine
 10
53.70146790557951
 20
13.64514739465246
 30
0.0
 11
53.6714679055795
 21
13.64514739465246
 31
0.0
  0
ARC
  5
40C
330
1F
100
AcDbEntity
  8
0
  6
SLD-Solid
 62
     7
370
    25
100
AcDbCircle
 10
53.7414679055795
 20
13.64514739465246
 30
0.0
 40
0.0399999999999962
100
AcDbArc
 50
179.9999999999968
 51
214.1291639535637
  0
ARC
  5
40D
330
1F
100
AcDbEntity
  8
0
  6
SLD-Solid
 62
     7
370
    25
100
AcDbCircle
 10
53.7414679055795
 20
13.64514739465246
 30
0.0
 40
0.0700000000000038
100
AcDbArc
 50
180.0
 51
270.0000000000124
  0
LINE
  5
40E
330
1F
100
AcDbEntity
  8
0
  6
SLD-Solid
 62
     7
370
    25
100
AcDbLine
 10
54.16204091777629
 20
13.57514739465246
 30
0.0
 11
54.16204091777629
 21
13.60514739465246
 31
0.0
  0
LINE
  5
40F
330
1F
100
AcDbEntity
  8
0
  6
SLD-Solid
 62
     7
370
    25
100
AcDbLine
 10
54.01204091777629
 20
13.57514739465246
 30
0.0
 11
54.16204091777629
 21
13.57514739465246
 31
0.0
  0
LINE
  5
410
330
1F
100
AcDbEntity
  8
0
  6
SLD-Solid
 62
     7
370
    25
100
AcDbLine
 10
53.6714679055795
 20
13.75854783420993
 30
0.0
 11
53.6714679055795
 21
13.64514739465246
 31
0.0
  0
LINE
  5
411
330
1F
100
AcDbEntity
  8
0
  6
SLD-Solid
 62
     7
370
    25
100
AcDbLine
 10
53.70146790557951
 20
13.75854783420993
 30
0.0
 11
53.70146790557951
 21
13.64514739465246
 31
0.0
  0
LINE
  5
412
330
1F
100
AcDbEntity
  8
0
  6
SLD-Solid
 62
     7
370
    25
100
AcDbLine
 10
74.28647600574017
 20
13.57514739465253
 30
0.0
 11
74.28647600574017
 21
13.60514739465253
 31
0.0
  0
LINE
  5
413
330
1F
100
AcDbEntity
  8
0
  6
SLD-Solid
 62
     7
370
    25
100
AcDbLine
 10
74.13647600574018
 20
13.57514739465253
 30
0.0
 11
74.13647600574018
 21
13.60514739465253
 31
0.0
  0
LINE
  5
414
330
1F
100
AcDbEntity
  8
0
  6
SLD-Solid
 62
     7
370
    25
100
AcDbLine
 10
74.13647600574018
 20
13.57514739465253
 30
0.0
 11
74.28647600574017
 21
13.57514739465253
 31
0.0
  0
LINE
  5
415
330
1F
100
AcDbEntity
  8
0
  6
SLD-Solid
 62
     7
370
    25
100
AcDbLine
 10
54.4053378167638
 20
13.57514739465246
 30
0.0
 11
54.4053378167638
 21
13.60514739465247
 31
0.0
  0
LINE
  5
416
330
1F
100
AcDbEntity
  8
0
  6
SLD-Solid
 62
     7
370
    25
100
AcDbLine
 10
54.4053378167638
 20
13.57514739465246
 30
0.0
 11
74.13647600574018
 21
13.57514739465253
 31
0.0
  0
LINE
  5
417
330
1F
100
AcDbEntity
  8
0
  6
SLD-Solid
 62
     7
370
    25
100
AcDbLine
 10
54.25533781676379
 20
13.57514739465246
 30
0.0
 11
54.25533781676379
 21
13.60514739465246
 31
0.0
  0
LINE
  5
418
330
1F
100
AcDbEntity
  8
0
  6
SLD-Solid
 62
     7
370
    25
100
AcDbLine
 10
54.25533781676379
 20
13.57514739465246
 30
0.0
 11
54.4053378167638
 21
13.57514739465246
 31
0.0
  0
LINE
  5
419
330
1F
100
AcDbEntity
  8
0
  6
SLD-Solid
 62
     7
370
    25
100
AcDbLine
 10
74.2866272367479
 20
13.57514739465253
 30
0.0
 11
74.2866272367479
 21
13.60514739465253
 31
0.0
  0
LINE
  5
41A
330
1F
100
AcDbEntity
  8
0
  6
SLD-Solid
 62
     7
370
    25
100
AcDbLine
 10
74.28647600574017
 20
13.57514739465253
 30
0.0
 11
74.2866272367479
 21
13.57514739465253
 31
0.0
  0
LINE
  5
41B
330
1F
100
AcDbEntity
  8
0
  6
SLD-Solid
 62
     7
370
    25
100
AcDbLine
 10
54.25518658575604
 20
13.60514739465246
 30
0.0
 11
54.25518658575604
 21
13.57514739465246
 31
0.0
  0
LINE
  5
41C
330
1F
100
AcDbEntity
  8
0
  6
SLD-Solid
 62
     7
370
    25
100
AcDbLine
 10
54.25518658575604
 20
13.57514739465246
 30
0.0
 11
54.25533781676379
 21
13.57514739465246
 31
0.0
  0
LINE
  5
41D
330
1F
100
AcDbEntity
  8
0
  6
SLD-Solid
 62
     7
370
    25
100
AcDbLine
 10
74.84024591692447
 20
13.65354783421001
 30
0.0
 11
74.83335691125207
 21
13.65354783421001
 31
0.0
  0
LINE
  5
41E
330
1F
100
AcDbEntity
  8
0
  6
SLD-Solid
 62
     7
370
    25
100
AcDbLine
 10
53.70835691125206
 20
13.65354783420993
 30
0.0
 11
53.70146790557948
 21
13.65354783420993
 31
0.0
  0
SPLINE
  5
41F
330
1F
100
AcDbEntity
  8
0
  6
SLD-Solid
 62
     7
370
    25
100
AcDbSpline
210
0.0
220
0.0
230
1.0
 70
    12
 71
     3
 72
    10
 73
     6
 74
     0
 42
0.00000001
 43
0.00000001
 40
0.0
 40
0.0
 40
0.0
 40
0.0
 40
0.1729431512983488
 40
0.5864715756491758
 40
0.9999999999999999
 40
0.9999999999999999
 40
0.9999999999999999
 40
0.9999999999999999
 10
74.28665388167929
 20
13.60514739465253
 30
0.0
 41
1.0
 10
74.28665234565982
 20
13.60186719350673
 30
0.0
 41
1.0
 10
74.28664713682818
 20
13.59074362648498
 30
0.0
 41
1.0
 10
74.2866382551844
 20
13.57850486961488
 30
0.0
 41
1.0
 10
74.28663090956007
 20
13.57626655297332
 30
0.0
 41
1.0
 10
74.2866272367479
 20
13.57514739465253
 30
0.0
 41
1.0
  0
SPLINE
  5
420
330
1F
100
AcDbEntity
  8
0
  6
SLD-Solid
 62
     7
370
    25
100
AcDbSpline
210
0.0
220
0.0
230
1.0
 70
    12
 71
     3
 72
    10
 73
     6
 74
     0
 42
0.00000001
 43
0.00000001
 40
0.0
 40
0.0
 40
0.0
 40
0.0
 40
0.4135284243508242
 40
0.8270568487016513
 40
1.0
 40
1.0
 40
1.0
 40
1.0
 10
54.25518658575604
 20
13.57514739465246
 30
0.0
 41
1.0
 10
54.25518291294387
 20
13.57626655297325
 30
0.0
 41
1.0
 10
54.25517556731955
 20
13.57850486961481
 30
0.0
 41
1.0
 10
54.25516668567577
 20
13.59074362648491
 30
0.0
 41
1.0
 10
54.25516147684414
 20
13.60186719350667
 30
0.0
 41
1.0
 10
54.25515994082467
 20
13.60514739465246
 30
0.0
 41
1.0
  0
LINE
  5
421
330
1F
100
AcDbEntity
  8
0
  6
SLD-Solid
 62
     7
370
    25
100
AcDbLine
 10
53.5528569112518
 20
43.75653762241411
 30
0.0
 11
53.67146790557939
 21
43.75653762241411
 31
0.0
  0
LINE
  5
422
330
1F
100
AcDbEntity
  8
0
  6
SLD-Solid
 62
     7
370
    25
100
AcDbLine
 10
74.87024591692433
 20
43.75653762241411
 30
0.0
 11
74.98885691125179
 21
43.75653762241411
 31
0.0
  0
LINE
  5
423
330
1F
100
AcDbEntity
  8
0
  6
SLD-Solid
 62
     7
370
    25
100
AcDbLine
 10
53.5528569112518
 20
43.77854783421006
 30
0.0
 11
53.5528569112518
 21
43.75653762241411
 31
0.0
  0
LINE
  5
424
330
1F
100
AcDbEntity
  8
0
  6
SLD-Solid
 62
     7
370
    25
100
AcDbLine
 10
74.98885691125179
 20
43.75653762241411
 30
0.0
 11
74.98885691125179
 21
43.77854783421
 31
0.0
  0
LINE
  5
425
330
1F
100
AcDbEntity
  8
0
  6
SLD-Solid
 62
     7
370
    25
100
AcDbLine
 10
74.95335691125192
 20
43.77854783421
 30
0.0
 11
75.01825691125191
 21
43.77854783421
 31
0.0
  0
LINE
  5
426
330
1F
100
AcDbEntity
  8
0
  6
SLD-Solid
 62
     7
370
    25
100
AcDbLine
 10
74.95335691125192
 20
43.77854783421
 30
0.0
 11
74.95335691125193
 21
52.05082707208255
 31
0.0
  0
SPLINE
  5
427
330
1F
100
AcDbEntity
  8
0
  6
SLD-Solid
 62
     7
370
    25
100
AcDbSpline
210
0.0
220
0.0
230
1.0
 70
    12
 71
     3
 72
    11
 73
     7
 74
     0
 42
0.00000001
 43
0.00000001
 40
0.0
 40
0.0
 40
0.0
 40
0.0
 40
0.2500000000000217
 40
0.5000000000000164
 40
0.7500000000000052
 40
1.0
 40
1.0
 40
1.0
 40
1.0
 10
75.01825691125192
 20
52.05253762241416
 30
0.0
 41
1.0
 10
75.01728136217803
 20
52.05239507655319
 30
0.0
 41
1.0
 10
75.01533026403023
 20
52.05210998483125
 30
0.0
 41
1.0
 10
75.00032219009859
 20
52.05168234724834
 30
0.0
 41
1.0
 10
74.978869823681
 20
52.05125470966546
 30
0.0
 41
1.0
 10
74.96186121539495
 20
52.05096961794351
 30
0.0
 41
1.0
 10
74.95335691125193
 20
52.05082707208255
 30
0.0
 41
1.0
  0
LINE
  5
428
330
1F
100
AcDbEntity
  8
0
  6
SLD-Solid
 62
     7
370
    25
100
AcDbLine
 10
75.01825691125192
 20
52.05253762241416
 30
0.0
 11
75.01825691125191
 21
43.77854783421
 31
0.0
  0
SPLINE
  5
429
330
1F
100
AcDbEntity
  8
0
  6
SLD-Solid
 62
     7
370
    25
100
AcDbSpline
210
0.0
220
0.0
230
1.0
 70
    12
 71
     3
 72
    11
 73
     7
 74
     0
 42
0.00000001
 43
0.00000001
 40
0.0
 40
0.0
 40
0.0
 40
0.0
 40
0.2500000000000347
 40
0.5000000000000331
 40
0.7500000000000314
 40
1.0
 40
1.0
 40
1.0
 40
1.0
 10
53.52345691125192
 20
52.05253762241422
 30
0.0
 41
1.0
 10
53.52443246032581
 20
52.05239507655326
 30
0.0
 41
1.0
 10
53.5263835584736
 20
52.05210998483133
 30
0.0
 41
1.0
 10
53.54139163240525
 20
52.05168234724841
 30
0.0
 41
1.0
 10
53.56284399882284
 20
52.05125470966551
 30
0.0
 41
1.0
 10
53.57985260710889
 20
52.05096961794358
 30
0.0
 41
1.0
 10
53.58835691125191
 20
52.0508270720826
 30
0.0
 41
1.0
  0
LINE
  5
42A
330
1F
100
AcDbEntity
  8
0
  6
SLD-Solid
 62
     7
370
    25
100
AcDbLine
 10
53.58835691125188
 20
43.77854783421006
 30
0.0
 11
53.58835691125191
 21
52.0508270720826
 31
0.0
  0
LINE
  5
42B
330
1F
100
AcDbEntity
  8
0
  6
SLD-Solid
 62
     7
370
    25
100
AcDbLine
 10
53.58835691125188
 20
43.77854783421006
 30
0.0
 11
53.52345691125189
 21
43.77854783421006
 31
0.0
  0
LINE
  5
42C
330
1F
100
AcDbEntity
  8
0
  6
SLD-Solid
 62
     7
370
    25
100
AcDbLine
 10
53.52345691125192
 20
52.05253762241422
 30
0.0
 11
53.52345691125189
 21
43.77854783421006
 31
0.0
  0
ARC
  5
42D
330
1F
100
AcDbEntity
  8
0
  6
SLD-Solid
 62
     7
370
    25
100
AcDbCircle
 10
74.53235691125192
 20
43.87854783421
 30
0.0
 40
0.0999999999999943
100
AcDbArc
 50
179.9999999999992
 51
270.0000000000008
  0
LINE
  5
42E
330
1F
100
AcDbEntity
  8
0
  6
SLD-Solid
 62
     7
370
    25
100
AcDbLine
 10
74.43235691125193
 20
43.87854783421
 30
0.0
 11
74.43235691125193
 21
51.52982707208255
 31
0.0
  0
LINE
  5
42F
330
1F
100
AcDbEntity
  8
0
  6
SLD-Solid
 62
     7
370
    25
100
AcDbLine
 10
74.43235691125193
 20
51.52982707208255
 30
0.0
 11
74.95335691125193
 21
52.05082707208255
 31
0.0
  0
LINE
  5
430
330
1F
100
AcDbEntity
  8
0
  6
SLD-Solid
 62
     7
370
    25
100
AcDbLine
 10
74.95335691125192
 20
43.77854783421
 30
0.0
 11
74.86973880919166
 21
43.77854783421002
 31
0.0
  0
LINE
  5
431
330
1F
100
AcDbEntity
  8
0
  6
SLD-Solid
 62
     7
370
    25
100
AcDbLine
 10
54.10935691125191
 20
51.52982707208261
 30
0.0
 11
53.58835691125191
 21
52.0508270720826
 31
0.0
  0
LINE
  5
432
330
1F
100
AcDbEntity
  8
0
  6
SLD-Solid
 62
     7
370
    25
100
AcDbLine
 10
54.10935691125187
 20
43.87854783421005
 30
0.0
 11
54.10935691125191
 21
51.52982707208261
 31
0.0
  0
ARC
  5
433
330
1F
100
AcDbEntity
  8
0
  6
SLD-Solid
 62
     7
370
    25
100
AcDbCircle
 10
54.00935691125186
 20
43.87854783421005
 30
0.0
 40
0.1000000000000014
100
AcDbArc
 50
270.0000000000008
 51
0.0
  0
LINE
  5
434
330
1F
100
AcDbEntity
  8
0
  6
SLD-Solid
 62
     7
370
    25
100
AcDbLine
 10
53.58835691125188
 20
43.77854783421006
 30
0.0
 11
53.67198718912608
 21
43.77854783420995
 31
0.0
  0
LINE
  5
435
330
1F
100
AcDbEntity
  8
0
  6
SLD-Solid
 62
     7
370
    25
100
AcDbLine
 10
74.91645691125193
 20
52.05253762241419
 30
0.0
 11
53.62525691125191
 21
52.05253762241423
 31
0.0
  0
LINE
  5
436
330
1F
100
AcDbEntity
  8
0
  6
SLD-Solid
 62
     7
370
    25
100
AcDbLine
 10
74.91645691125193
 20
52.03153762241418
 30
0.0
 11
74.91645691125193
 21
52.05253762241419
 31
0.0
  0
LINE
  5
437
330
1F
100
AcDbEntity
  8
0
  6
SLD-Solid
 62
     7
370
    25
100
AcDbLine
 10
74.91645691125193
 20
52.03153762241418
 30
0.0
 11
74.41645691125193
 21
51.53153762241417
 31
0.0
  0
LINE
  5
438
330
1F
100
AcDbEntity
  8
0
  6
SLD-Solid
 62
     7
370
    25
100
AcDbLine
 10
74.41645691125193
 20
51.53153762241417
 30
0.0
 11
54.12525691125191
 21
51.53153762241423
 31
0.0
  0
LINE
  5
439
330
1F
100
AcDbEntity
  8
0
  6
SLD-Solid
 62
     7
370
    25
100
AcDbLine
 10
53.62525691125191
 20
52.03153762241423
 30
0.0
 11
54.12525691125191
 21
51.53153762241423
 31
0.0
  0
LINE
  5
43A
330
1F
100
AcDbEntity
  8
0
  6
SLD-Solid
 62
     7
370
    25
100
AcDbLine
 10
53.62525691125191
 20
52.03153762241423
 30
0.0
 11
53.62525691125191
 21
52.05253762241423
 31
0.0
  0
LINE
  5
43B
330
1F
100
AcDbEntity
  8
0
  6
SLD-Solid
 62
     7
370
    25
100
AcDbLine
 10
53.62525691125191
 20
52.05253762241423
 30
0.0
 11
53.62525691125191
 21
52.11743762241422
 31
0.0
  0
LINE
  5
43C
330
1F
100
AcDbEntity
  8
0
  6
SLD-Solid
 62
     7
370
    25
100
AcDbLine
 10
74.91645691125193
 20
52.11743762241417
 30
0.0
 11
53.62525691125191
 21
52.11743762241422
 31
0.0
  0
LINE
  5
43D
330
1F
100
AcDbEntity
  8
0
  6
SLD-Solid
 62
     7
370
    25
100
AcDbLine
 10
74.91645691125193
 20
52.05253762241419
 30
0.0
 11
74.91645691125193
 21
52.11743762241417
 31
0.0
  0
ARC
  5
43E
330
1F
100
AcDbEntity
  8
0
  6
SLD-Solid
 62
     7
370
    25
100
AcDbCircle
 10
74.91645691125193
 20
52.05253762241416
 30
0.0
 40
0.0649000000000086
100
AcDbArc
 50
0.0
 51
90.0
  0
ARC
  5
43F
330
1F
100
AcDbEntity
  8
0
  6
SLD-Solid
 62
     7
370
    25
100
AcDbCircle
 10
53.62525691125191
 20
52.05253762241423
 30
0.0
 40
0.0648999999999944
100
AcDbArc
 50
90.0
 51
180.0
  0
ARC
  5
440
330
1F
100
AcDbEntity
  8
0
  6
SLD-Solid
 62
     7
370
    25
100
AcDbCircle
 10
74.96278109134778
 20
52.01801977716965
 30
0.0
 40
0.0610081406032358
100
AcDbArc
 50
34.45722455325645
 51
77.13404695855495
  0
ARC
  5
441
330
1F
100
AcDbEntity
  8
0
  6
SLD-Solid
 62
     7
370
    25
100
AcDbCircle
 10
53.57893273114895
 20
52.01801977717692
 30
0.0
 40
0.061008140593287
100
AcDbArc
 50
102.8659530695135
 51
145.5427754485545
  0
LINE
  5
442
330
1F
100
AcDbEntity
  8
0
  6
SLD-Solid
 62
     8
370
    25
100
AcDbLine
 10
75.07445691125197
 20
43.78001935099007
 30
0.0
 11
75.04500953950723
 21
43.78001935099007
 31
0.0
  0
LINE
  5
443
330
1F
100
AcDbEntity
  8
0
  6
SLD-Solid
 62
     8
370
    25
100
AcDbLine
 10
74.80024591692444
 20
14.3991918828415
 30
0.0
 11
74.80024591692434
 21
43.77854783421002
 31
0.0
  0
LINE
  5
444
330
1F
100
AcDbEntity
  8
0
  6
SLD-Solid
 62
     8
370
    25
100
AcDbLine
 10
53.7414679055795
 20
14.39625313534705
 30
0.0
 11
53.74146790557941
 21
43.77854783420995
 31
0.0
  0
LINE
  5
445
330
1F
100
AcDbEntity
  8
0
  6
SLD-Solid
 62
     8
370
    25
100
AcDbLine
 10
53.62510022485677
 20
52.07304371906864
 30
0.0
 11
53.6252569112519
 21
52.07304371906864
 31
0.0
  0
LINE
  5
446
330
1F
100
AcDbEntity
  8
0
  6
SLD-Solid
 62
     8
370
    25
100
AcDbLine
 10
74.91645691125193
 20
52.07304371906858
 30
0.0
 11
74.91661359764707
 21
52.07304371906858
 31
0.0
  0
DIMENSION
  5
447
330
1F
100
AcDbEntity
  8
DIMS
100
AcDbDimension
  2
_D_4
 10
71.7967388157622
 20
27.77614041683889
 30
0.0
 11
64.9510232081053
 21
10.37309850943106
 31
0.0
 70
    35
  1
<>
 71
     1
 42
-1.0
  3
SLDDIMSTYLE2
100
AcDbDiametricDimension
 15
71.74497500674168
 25
27.58295525158108
 35
0.0
 40
0.0
  0
DIMENSION
  5
454
330
1F
100
AcDbEntity
  8
DIMS
100
AcDbDimension
  2
_D_5
 10
51.42621281676369
 20
52.11743762241423
 30
0.0
 11
51.42621281676367
 21
44.95726962130508
 31
0.0
 70
    32
  1
<>
 71
     2
 42
-1.0
  3
SLDDIMSTYLE1
100
AcDbAlignedDimension
 13
56.77085691125193
 23
38.80454783420998
 33
0.0
 14
53.62525691125187
 24
52.11743762241422
 34
0.0
 50
90.0000000000002
100
AcDbRotatedDimension
  0
DIMENSION
  5
463
330
1F
100
AcDbEntity
  8
DIMS
100
AcDbDimension
  2
_D_6
 10
56.77085691125193
 20
53.40491737810742
 30
0.0
 11
64.03334462484845
 21
53.40491737810742
 31
0.0
 70
    32
  1
<>
 71
     2
 42
-1.0
  3
SLDDIMSTYLE3
100
AcDbAlignedDimension
 13
71.77085691125194
 23
38.80454783420998
 33
0.0
 14
56.77085691125193
 24
38.80454783420998
 34
0.0
 50
0.0000000000000271
100
AcDbRotatedDimension
  0
DIMENSION
  5
46F
330
1F
100
AcDbEntity
  8
DIMS
100
AcDbDimension
  2
_D_7
 10
51.42621281676367
 20
27.67954783420997
 30
0.0
 11
51.42621281676367
 21
33.24204783420998
 31
0.0
 70
    32
  1
<>
 71
     2
 42
-1.0
  3
SLDDIMSTYLE1
100
AcDbAlignedDimension
 13
56.77085691125193
 23
38.80454783420998
 33
0.0
 14
56.77085691125193
 24
27.67954783420998
 34
0.0
 50
90.0000000000002
100
AcDbRotatedDimension
  0
MTEXT
  5
47E
330
1F
100
AcDbEntity
  8
NOTES
100
AcDbMText
 10
61.40870567328302
 20
13.06950975606224
 30
0.0
 40
0.7500000000000001
 41
0.0
 71
     1
 72
     1
  1
Back view
  7
SLDTEXTSTYLE1
 73
     1
 44
1.0
  0
MTEXT
  5
47F
330
1F
100
AcDbEntity
  8
NOTES
100
AcDbMText
 10
45.53661552036949
 20
54.14313352132619
 30
0.0
 40
0.7500000000000001
 41
0.0
 71
     1
 72
     1
  1
mounting hole (4)
  7
SLDTEXTSTYLE1
 73
     1
 44
1.0
  0
LEADER
  5
481
330
1F
100
AcDbEntity
  8
NOTES
100
AcDbLeader
  3
SLDDIMSTYLE4
 76
     3
 10
56.79832085635187
 20
38.9007025622245
 30
0.0
 10
54.64688785051284
 20
53.77894503794936
 30
0.0
 10
54.14688785051284
 20
53.77894503794936
 30
0.0
1001
ACAD
1000
DSTYLE
1002
{
1070
   176
1070
     0
1070
    77
1070
     0
1070
    40
1040
1.0
1070
   147
1040
0.0
1002
}
  0
SPLINE
  5
482
330
1F
100
AcDbEntity
  8
0
  6
SLD-Solid
 62
     7
370
    25
100
AcDbSpline
210
0.0
220
0.0
230
1.0
 70
    12
 71
     3
 72
     9
 73
     5
 74
     0
 42
0.00000001
 43
0.00000001
 40
0.0
 40
0.0
 40
0.0
 40
0.0
 40
0.4524793894705412
 40
1.0
 40
1.0
 40
1.0
 40
1.0
 10
8.510462737085547
 20
61.67878649778168
 30
0.0
 41
1.0
 10
8.510474584167666
 20
61.67879078892774
 30
0.0
 41
1.0
 10
8.510500766757184
 20
61.67880027255542
 30
0.0
 41
1.0
 10
8.510530367435996
 20
61.67880316485101
 30
0.0
 41
1.0
 10
8.510546574417727
 20
61.67880474844245
 30
0.0
 41
1.0
  0
SPLINE
  5
483
330
1F
100
AcDbEntity
  8
0
  6
SLD-Solid
 62
     7
370
    25
100
AcDbSpline
210
0.0
220
0.0
230
1.0
 70
    12
 71
     3
 72
     9
 73
     5
 74
     0
 42
0.00000001
 43
0.00000001
 40
0.0
 40
0.0
 40
0.0
 40
0.0
 40
0.4524792920166646
 40
1.0
 40
1.0
 40
1.0
 40
1.0
 10
8.566413303633166
 20
61.6229380192267
 30
0.0
 41
1.0
 10
8.566412026767134
 20
61.62292468510678
 30
0.0
 41
1.0
 10
8.566409204834605
 20
61.62289521608987
 30
0.0
 41
1.0
 10
8.566400059973196
 20
61.62286870000182
 30
0.0
 41
1.0
 10
8.566395052972203
 20
61.62285418189451
 30
0.0
 41
1.0
  0
ARC
  5
484
330
1F
100
AcDbEntity
  8
0
  6
SLD-Solid
 62
     7
370
    25
100
AcDbCircle
 10
27.33226364207062
 20
69.51118085101612
 30
0.0
 40
0.01400000000001
100
AcDbArc
 50
225.0000000000214
 51
270.0000000000008
  0
ARC
  5
485
330
1F
100
AcDbEntity
  8
0
  6
SLD-Solid
 62
     7
370
    25
100
AcDbCircle
 10
26.29581284858179
 20
69.51118085101612
 30
0.0
 40
0.01400000000001
100
AcDbArc
 50
270.0000000000008
 51
314.9999999999803
  0
ARC
  5
486
330
1F
100
AcDbEntity
  8
0
  6
SLD-Solid
 62
     7
370
    25
100
AcDbCircle
 10
12.33226364207062
 20
69.51118085101612
 30
0.0
 40
0.01400000000001
100
AcDbArc
 50
225.0000000000214
 51
270.0000000000008
  0
ARC
  5
487
330
1F
100
AcDbEntity
  8
0
  6
SLD-Solid
 62
     7
370
    25
100
AcDbCircle
 10
11.29581284858179
 20
69.51118085101612
 30
0.0
 40
0.01400000000001
100
AcDbArc
 50
270.0000000000008
 51
314.9999999999751
  0
LINE
  5
488
330
1F
100
AcDbEntity
  8
0
  6
SLD-Solid
 62
     7
370
    25
100
AcDbLine
 10
12.32236414713401
 20
69.5012813560795
 30
0.0
 11
12.20556515726079
 21
69.61808034595272
 31
0.0
  0
LINE
  5
489
330
1F
100
AcDbEntity
  8
0
  6
SLD-Solid
 62
     7
370
    25
100
AcDbLine
 10
11.42251133339162
 20
69.61808034595272
 30
0.0
 11
11.3057123435184
 21
69.5012813560795
 31
0.0
  0
LINE
  5
48A
330
1F
100
AcDbEntity
  8
0
  6
SLD-Solid
 62
     7
370
    25
100
AcDbLine
 10
27.32236414713401
 20
69.5012813560795
 30
0.0
 11
27.20556515726079
 21
69.61808034595272
 31
0.0
  0
LINE
  5
48B
330
1F
100
AcDbEntity
  8
0
  6
SLD-Solid
 62
     7
370
    25
100
AcDbLine
 10
26.42251133339162
 20
69.61808034595272
 30
0.0
 11
26.3057123435184
 21
69.5012813560795
 31
0.0
  0
ARC
  5
48C
330
1F
100
AcDbEntity
  8
0
  6
SLD-Solid
 62
     7
370
    25
100
AcDbCircle
 10
26.43241082832824
 20
69.60818085101612
 30
0.0
 40
0.0139999999999974
100
AcDbArc
 50
90.0
 51
135.0000000000308
  0
ARC
  5
48D
330
1F
100
AcDbEntity
  8
0
  6
SLD-Solid
 62
     7
370
    25
100
AcDbCircle
 10
27.19566566232417
 20
69.60818085101612
 30
0.0
 40
0.0139999999999958
100
AcDbArc
 50
44.99999999997944
 51
90.0
  0
ARC
  5
48E
330
1F
100
AcDbEntity
  8
0
  6
SLD-Solid
 62
     7
370
    25
100
AcDbCircle
 10
11.43241082832824
 20
69.60818085101612
 30
0.0
 40
0.0139999999999961
100
AcDbArc
 50
90.0
 51
135.0000000000257
  0
ARC
  5
48F
330
1F
100
AcDbEntity
  8
0
  6
SLD-Solid
 62
     7
370
    25
100
AcDbCircle
 10
12.19566566232417
 20
69.60818085101612
 30
0.0
 40
0.0139999999999961
100
AcDbArc
 50
44.9999999999743
 51
90.0
  0
LINE
  5
490
330
1F
100
AcDbEntity
  8
0
  6
SLD-Solid
 62
     7
370
    25
100
AcDbLine
 10
30.03243824532621
 20
61.54382969013535
 30
0.0
 11
8.51043824532621
 21
61.54382969013542
 31
0.0
  0
ARC
  5
491
330
1F
100
AcDbEntity
  8
0
  6
SLD-Solid
 62
     7
370
    25
100
AcDbCircle
 10
30.03243824532621
 20
61.62282969013536
 30
0.0
 40
0.0790000000000077
100
AcDbArc
 50
270.0000000000008
 51
0.0
  0
LINE
  5
492
330
1F
100
AcDbEntity
  8
0
  6
SLD-Solid
 62
     7
370
    25
100
AcDbLine
 10
30.11143824532626
 20
69.36382969013536
 30
0.0
 11
30.06143824532625
 21
69.36382969013536
 31
0.0
  0
LINE
  5
493
330
1F
100
AcDbEntity
  8
0
  6
SLD-Solid
 62
     7
370
    25
100
AcDbLine
 10
30.11143824532626
 20
69.36382969013536
 30
0.0
 11
30.11143824532621
 21
61.62282969013536
 31
0.0
  0
ARC
  5
494
330
1F
100
AcDbEntity
  8
0
  6
SLD-Solid
 62
     7
370
    25
100
AcDbCircle
 10
8.51043824532621
 20
61.62282969013541
 30
0.0
 40
0.0789999999999988
100
AcDbArc
 50
180.0
 51
270.0000000000008
  0
LINE
  5
495
330
1F
100
AcDbEntity
  8
0
  6
SLD-Solid
 62
     7
370
    25
100
AcDbLine
 10
8.431438245326206
 20
69.3638296901354
 30
0.0
 11
8.431438245326211
 21
61.62282969013541
 31
0.0
  0
LINE
  5
496
330
1F
100
AcDbEntity
  8
0
  6
SLD-Solid
 62
     7
370
    25
100
AcDbLine
 10
8.431438245326206
 20
69.3638296901354
 30
0.0
 11
8.481438245326204
 21
69.3638296901354
 31
0.0
  0
LINE
  5
497
330
1F
100
AcDbEntity
  8
0
  6
SLD-Solid
 62
     7
370
    25
100
AcDbLine
 10
8.538997670163567
 20
69.3638296901354
 30
0.0
 11
8.538997670163544
 21
61.72846835227639
 31
0.0
  0
LINE
  5
498
330
1F
100
AcDbEntity
  8
0
  6
SLD-Solid
 62
     7
370
    25
100
AcDbLine
 10
8.60353824532626
 20
69.3638296901354
 30
0.0
 11
8.602538245326262
 21
69.3638296901354
 31
0.0
  0
LINE
  5
499
330
1F
100
AcDbEntity
  8
0
  6
SLD-Solid
 62
     7
370
    25
100
AcDbLine
 10
8.566638245326262
 20
69.3638296901354
 30
0.0
 11
8.538997670163567
 21
69.3638296901354
 31
0.0
  0
LINE
  5
49A
330
1F
100
AcDbEntity
  8
0
  6
SLD-Solid
 62
     7
370
    25
100
AcDbLine
 10
8.481438245326212
 20
69.3638296901354
 30
0.0
 11
8.538997670163567
 21
69.3638296901354
 31
0.0
  0
LINE
  5
49B
330
1F
100
AcDbEntity
  8
0
  6
SLD-Solid
 62
     7
370
    25
100
AcDbLine
 10
21.16022217024189
 20
69.46718085101612
 30
0.0
 11
17.46785432041052
 21
69.46718085101612
 31
0.0
  0
LINE
  5
49C
330
1F
100
AcDbEntity
  8
0
  6
SLD-Solid
 62
     7
370
    25
100
AcDbLine
 10
28.43342725099877
 20
69.46718085101612
 30
0.0
 11
21.33342725099877
 21
69.46718085101612
 31
0.0
  0
LINE
  5
49D
330
1F
100
AcDbEntity
  8
0
  6
SLD-Solid
 62
     7
370
    25
100
AcDbLine
 10
17.29464923965363
 20
69.46718085101612
 30
0.0
 11
10.19464923965363
 21
69.46718085101612
 31
0.0
  0
LINE
  5
49E
330
1F
100
AcDbEntity
  8
0
  6
SLD-Solid
 62
     7
370
    25
100
AcDbLine
 10
26.43241082832824
 20
69.62218085101611
 30
0.0
 11
27.19566562705014
 21
69.62218085101611
 31
0.0
  0
LINE
  5
49F
330
1F
100
AcDbEntity
  8
0
  6
SLD-Solid
 62
     7
370
    25
100
AcDbLine
 10
11.43241082832824
 20
69.62218085101611
 30
0.0
 11
12.19566562705013
 21
69.62218085101611
 31
0.0
  0
LINE
  5
4A0
330
1F
100
AcDbEntity
  8
0
  6
SLD-Solid
 62
     7
370
    25
100
AcDbLine
 10
29.87653824532608
 20
69.55708085101617
 30
0.0
 11
29.87653824532608
 21
69.52708085101617
 31
0.0
  0
LINE
  5
4A1
330
1F
100
AcDbEntity
  8
0
  6
SLD-Solid
 62
     7
370
    25
100
AcDbLine
 10
29.82653824532608
 20
69.55708085101617
 30
0.0
 11
29.87653824532608
 21
69.55708085101617
 31
0.0
  0
LINE
  5
4A2
330
1F
100
AcDbEntity
  8
0
  6
SLD-Solid
 62
     7
370
    25
100
AcDbLine
 10
8.751538245326072
 20
69.52708085101602
 30
0.0
 11
8.751538245326072
 21
69.55708085101602
 31
0.0
  0
LINE
  5
4A3
330
1F
100
AcDbEntity
  8
0
  6
SLD-Solid
 62
     7
370
    25
100
AcDbLine
 10
8.751538245326072
 20
69.55708085101602
 30
0.0
 11
11.36151183845497
 21
69.55708085101604
 31
0.0
  0
LINE
  5
4A4
330
1F
100
AcDbEntity
  8
0
  6
SLD-Solid
 62
     7
370
    25
100
AcDbLine
 10
12.26656465219742
 20
69.55708085101604
 30
0.0
 11
26.36151183845508
 21
69.55708085101614
 31
0.0
  0
LINE
  5
4A5
330
1F
100
AcDbEntity
  8
0
  6
SLD-Solid
 62
     7
370
    25
100
AcDbLine
 10
27.26656465219732
 20
69.55708085101615
 30
0.0
 11
29.82653824532608
 21
69.55708085101617
 31
0.0
  0
LINE
  5
4A6
330
1F
100
AcDbEntity
  8
0
  6
SLD-Solid
 62
     7
370
    25
100
AcDbLine
 10
8.751538245326072
 20
69.52708085101602
 30
0.0
 11
8.780908918810661
 21
69.52708085101602
 31
0.0
  0
LINE
  5
4A7
330
1F
100
AcDbEntity
  8
0
  6
SLD-Solid
 62
     7
370
    25
100
AcDbLine
 10
9.245222251851306
 20
69.52708085101602
 30
0.0
 11
11.33151183845498
 21
69.52708085101604
 31
0.0
  0
LINE
  5
4A8
330
1F
100
AcDbEntity
  8
0
  6
SLD-Solid
 62
     7
370
    25
100
AcDbLine
 10
12.29656465219742
 20
69.52708085101604
 30
0.0
 11
26.33151183845508
 21
69.52708085101614
 31
0.0
  0
LINE
  5
4A9
330
1F
100
AcDbEntity
  8
0
  6
SLD-Solid
 62
     7
370
    25
100
AcDbLine
 10
27.29656465219731
 20
69.52708085101614
 30
0.0
 11
29.38285423880134
 21
69.52708085101617
 31
0.0
  0
LINE
  5
4AA
330
1F
100
AcDbEntity
  8
0
  6
SLD-Solid
 62
     7
370
    25
100
AcDbLine
 10
29.87653824532608
 20
69.52708085101617
 30
0.0
 11
29.87653824532608
 21
69.51875468707853
 31
0.0
  0
LINE
  5
4AB
330
1F
100
AcDbEntity
  8
0
  6
SLD-Solid
 62
     7
370
    25
100
AcDbLine
 10
8.751538245326072
 20
69.51885468707827
 30
0.0
 11
8.751538245326072
 21
69.52708085101602
 31
0.0
  0
LINE
  5
4AC
330
1F
100
AcDbEntity
  8
0
  6
SLD-Solid
 62
     7
370
    25
100
AcDbLine
 10
29.87653824532608
 20
69.46559937732691
 30
0.0
 11
29.87653824532608
 21
69.4795232674336
 31
0.0
  0
LINE
  5
4AD
330
1F
100
AcDbEntity
  8
0
  6
SLD-Solid
 62
     7
370
    25
100
AcDbLine
 10
8.751538245326072
 20
69.46559937732697
 30
0.0
 11
8.751538245326072
 21
69.4796232674329
 31
0.0
  0
LINE
  5
4AE
330
1F
100
AcDbEntity
  8
0
  6
SLD-Solid
 62
     7
370
    25
100
AcDbLine
 10
9.245222251851306
 20
69.5271808510162
 30
0.0
 11
9.095222251851308
 21
69.5271808510162
 31
0.0
  0
LINE
  5
4AF
330
1F
100
AcDbEntity
  8
0
  6
SLD-Solid
 62
     7
370
    25
100
AcDbLine
 10
9.095222251851308
 20
69.5271808510162
 30
0.0
 11
8.784649239653854
 21
69.5271808510162
 31
0.0
  0
LINE
  5
4B0
330
1F
100
AcDbEntity
  8
0
  6
SLD-Solid
 62
     7
370
    25
100
AcDbLine
 10
9.095222251851308
 20
69.4971808510162
 30
0.0
 11
8.784649239653854
 21
69.4971808510162
 31
0.0
  0
ARC
  5
4B1
330
1F
100
AcDbEntity
  8
0
  6
SLD-Solid
 62
     7
370
    25
100
AcDbCircle
 10
8.784649239653854
 20
69.45718085101619
 30
0.0
 40
0.0700000000000074
100
AcDbArc
 50
90.0
 51
173.0991711081925
  0
ARC
  5
4B2
330
1F
100
AcDbEntity
  8
0
  6
SLD-Solid
 62
     7
370
    25
100
AcDbCircle
 10
8.784649239653854
 20
69.4571808510162
 30
0.0
 40
0.0399999999999991
100
AcDbArc
 50
90.0
 51
167.862140977773
  0
LINE
  5
4B3
330
1F
100
AcDbEntity
  8
0
  6
SLD-Solid
 62
     7
370
    25
100
AcDbLine
 10
29.84342725099879
 20
69.52708085101618
 30
0.0
 11
29.53285423880134
 21
69.52708085101617
 31
0.0
  0
LINE
  5
4B4
330
1F
100
AcDbEntity
  8
0
  6
SLD-Solid
 62
     7
370
    25
100
AcDbLine
 10
29.53285423880134
 20
69.52708085101617
 30
0.0
 11
29.38285423880134
 21
69.52708085101617
 31
0.0
  0
ARC
  5
4B5
330
1F
100
AcDbEntity
  8
0
  6
SLD-Solid
 62
     7
370
    25
100
AcDbCircle
 10
29.84342725099879
 20
69.45708085101617
 30
0.0
 40
0.0700000000000074
100
AcDbArc
 50
6.983284503518524
 51
90.0
  0
LINE
  5
4B6
330
1F
100
AcDbEntity
  8
0
  6
SLD-Solid
 62
     7
370
    25
100
AcDbLine
 10
8.668638245326262
 20
67.94371157063591
 30
0.0
 11
8.668638245326262
 21
67.97371157063591
 31
0.0
  0
LINE
  5
4B7
330
1F
100
AcDbEntity
  8
0
  6
SLD-Solid
 62
     7
370
    25
100
AcDbLine
 10
8.668438245326254
 20
67.97371157063591
 30
0.0
 11
8.668638245326262
 21
67.97371157063591
 31
0.0
  0
LINE
  5
4B8
330
1F
100
AcDbEntity
  8
0
  6
SLD-Solid
 62
     7
370
    25
100
AcDbLine
 10
8.668438245326254
 20
67.97371157063591
 30
0.0
 11
8.668438245326259
 21
69.3706993773271
 31
0.0
  0
LINE
  5
4B9
330
1F
100
AcDbEntity
  8
0
  6
SLD-Solid
 62
     7
370
    25
100
AcDbLine
 10
8.668438245326259
 20
69.4006993773271
 30
0.0
 11
8.668438245326259
 21
69.3706993773271
 31
0.0
  0
LINE
  5
4BA
330
1F
100
AcDbEntity
  8
0
  6
SLD-Solid
 62
     7
370
    25
100
AcDbLine
 10
29.95963824532628
 20
69.40069937732704
 30
0.0
 11
29.95963824532628
 21
69.37069937732704
 31
0.0
  0
LINE
  5
4BB
330
1F
100
AcDbEntity
  8
0
  6
SLD-Solid
 62
     7
370
    25
100
AcDbLine
 10
29.95963824532627
 20
67.97371157063586
 30
0.0
 11
29.95963824532628
 21
69.37069937732704
 31
0.0
  0
LINE
  5
4BC
330
1F
100
AcDbEntity
  8
0
  6
SLD-Solid
 62
     7
370
    25
100
AcDbLine
 10
29.95963824532627
 20
67.97371157063586
 30
0.0
 11
29.95943824532626
 21
67.97371157063586
 31
0.0
  0
LINE
  5
4BD
330
1F
100
AcDbEntity
  8
0
  6
SLD-Solid
 62
     7
370
    25
100
AcDbLine
 10
29.95943824532626
 20
67.94371157063587
 30
0.0
 11
29.95943824532626
 21
67.97371157063586
 31
0.0
  0
LINE
  5
4BE
330
1F
100
AcDbEntity
  8
0
  6
SLD-Solid
 62
     7
370
    25
100
AcDbLine
 10
30.06143824532628
 20
69.40069143508157
 30
0.0
 11
30.06143824532627
 21
67.96442224875452
 31
0.0
  0
LINE
  5
4BF
330
1F
100
AcDbEntity
  8
0
  6
SLD-Solid
 62
     7
370
    25
100
AcDbLine
 10
8.566638245326262
 20
69.40069143508163
 30
0.0
 11
8.566638245326262
 21
67.96442224875457
 31
0.0
  0
LINE
  5
4C0
330
1F
100
AcDbEntity
  8
0
  6
SLD-Solid
 62
     7
370
    25
100
AcDbLine
 10
8.668438245326259
 20
69.4655993773271
 30
0.0
 11
8.668438245326259
 21
69.4006993773271
 31
0.0
  0
LINE
  5
4C1
330
1F
100
AcDbEntity
  8
0
  6
SLD-Solid
 62
     7
370
    25
100
AcDbLine
 10
8.668438245326259
 20
69.4655993773271
 30
0.0
 11
29.95963824532628
 21
69.46559937732704
 31
0.0
  0
LINE
  5
4C2
330
1F
100
AcDbEntity
  8
0
  6
SLD-Solid
 62
     7
370
    25
100
AcDbLine
 10
29.95963824532628
 20
69.46559937732704
 30
0.0
 11
29.95963824532628
 21
69.40069937732704
 31
0.0
  0
LINE
  5
4C3
330
1F
100
AcDbEntity
  8
0
  6
SLD-Solid
 62
     7
370
    25
100
AcDbLine
 10
8.668281558931119
 20
67.89782034053691
 30
0.0
 11
8.668638245326262
 21
67.90119781884266
 31
0.0
  0
LINE
  5
4C4
330
1F
100
AcDbEntity
  8
0
  6
SLD-Solid
 62
     7
370
    25
100
AcDbLine
 10
8.668638245326262
 20
67.90119781884266
 30
0.0
 11
8.668638245326262
 21
67.94371157063591
 31
0.0
  0
LINE
  5
4C5
330
1F
100
AcDbEntity
  8
0
  6
SLD-Solid
 62
     7
370
    25
100
AcDbLine
 10
29.95943824532626
 20
67.90119781884262
 30
0.0
 11
29.95943824532626
 21
67.94371157063587
 31
0.0
  0
LINE
  5
4C6
330
1F
100
AcDbEntity
  8
0
  6
SLD-Solid
 62
     7
370
    25
100
AcDbLine
 10
29.95979493172141
 20
67.89782034053685
 30
0.0
 11
29.95943824532626
 21
67.90119781884262
 31
0.0
  0
LINE
  5
4C7
330
1F
100
AcDbEntity
  8
0
  6
SLD-Solid
 62
     7
370
    25
100
AcDbLine
 10
29.95979493172141
 20
67.89782034053685
 30
0.0
 11
8.668281558931119
 21
67.89782034053691
 31
0.0
  0
ARC
  5
4C8
330
1F
100
AcDbEntity
  8
0
  6
SLD-Solid
 62
     7
370
    25
100
AcDbCircle
 10
29.98645187242692
 20
67.90838777459594
 30
0.0
 40
0.0286751312180087
100
AcDbArc
 50
201.6245313360545
 51
275.9779113283591
  0
LINE
  5
4C9
330
1F
100
AcDbEntity
  8
0
  6
SLD-Solid
 62
     7
370
    25
100
AcDbLine
 10
29.99653824532627
 20
61.62970057434813
 30
0.0
 11
29.99653824532627
 21
67.87986857532114
 31
0.0
  0
LINE
  5
4CA
330
1F
100
AcDbEntity
  8
0
  6
SLD-Solid
 62
     7
370
    25
100
AcDbLine
 10
29.98943824532627
 20
61.62970057434813
 30
0.0
 11
29.99653824532627
 21
61.62970057434813
 31
0.0
  0
ARC
  5
4CB
330
1F
100
AcDbEntity
  8
0
  6
SLD-Solid
 62
     7
370
    25
100
AcDbCircle
 10
29.9867005561217
 20
61.60047238779199
 30
0.0
 40
0.0293561208530911
100
AcDbArc
 50
84.64894224964628
 51
155.0868863729783
  0
LINE
  5
4CC
330
1F
100
AcDbEntity
  8
0
  6
SLD-Solid
 62
     7
370
    25
100
AcDbLine
 10
8.668000398634055
 20
61.61283846003658
 30
0.0
 11
29.96007609201848
 21
61.61283846003653
 31
0.0
  0
ARC
  5
4CD
330
1F
100
AcDbEntity
  8
0
  6
SLD-Solid
 62
     7
370
    25
100
AcDbCircle
 10
8.641375934530819
 20
61.60047238779202
 30
0.0
 40
0.0293561208531112
100
AcDbArc
 50
24.91311362703807
 51
95.35105775032568
  0
LINE
  5
4CE
330
1F
100
AcDbEntity
  8
0
  6
SLD-Solid
 62
     7
370
    25
100
AcDbLine
 10
8.638638245326263
 20
61.62970057434818
 30
0.0
 11
8.631538245326263
 21
61.62970057434818
 31
0.0
  0
LINE
  5
4CF
330
1F
100
AcDbEntity
  8
0
  6
SLD-Solid
 62
     7
370
    25
100
AcDbLine
 10
29.99653824532627
 20
67.87986857532114
 30
0.0
 11
29.98943824532627
 21
67.87986857532114
 31
0.0
  0
LINE
  5
4D0
330
1F
100
AcDbEntity
  8
0
  6
SLD-Solid
 62
     7
370
    25
100
AcDbLine
 10
12.81134761718079
 20
62.36882999215325
 30
0.0
 11
12.81134761718079
 21
67.14180076516247
 31
0.0
  0
ARC
  5
4D1
330
1F
100
AcDbEntity
  8
0
  6
SLD-Solid
 62
     7
370
    25
100
AcDbCircle
 10
12.92072261718079
 20
62.39092707906534
 30
0.0
 40
0.1115848191959867
100
AcDbArc
 50
191.4217536589687
 51
278.0494669755298
  0
LINE
  5
4D2
330
1F
100
AcDbEntity
  8
0
  6
SLD-Solid
 62
     7
370
    25
100
AcDbLine
 10
12.93634761718079
 20
62.28044164450494
 30
0.0
 11
25.69172887347174
 21
62.2804416445049
 31
0.0
  0
ARC
  5
4D3
330
1F
100
AcDbEntity
  8
0
  6
SLD-Solid
 62
     7
370
    25
100
AcDbCircle
 10
25.70735387347174
 20
62.39092707906531
 30
0.0
 40
0.1115848191959864
100
AcDbArc
 50
261.9505330244727
 51
348.5782463410363
  0
LINE
  5
4D4
330
1F
100
AcDbEntity
  8
0
  6
SLD-Solid
 62
     7
370
    25
100
AcDbLine
 10
25.81672887347174
 20
62.36882999215322
 30
0.0
 11
25.81672887347174
 21
67.14180076516244
 31
0.0
  0
ARC
  5
4D5
330
1F
100
AcDbEntity
  8
0
  6
SLD-Solid
 62
     7
370
    25
100
AcDbCircle
 10
25.70735387347173
 20
67.11970367825036
 30
0.0
 40
0.1115848191959897
100
AcDbArc
 50
11.42175365896345
 51
98.04946697552629
  0
LINE
  5
4D6
330
1F
100
AcDbEntity
  8
0
  6
SLD-Solid
 62
     7
370
    25
100
AcDbLine
 10
25.69172887347174
 20
67.23018911281076
 30
0.0
 11
12.93634761718079
 21
67.23018911281079
 31
0.0
  0
ARC
  5
4D7
330
1F
100
AcDbEntity
  8
0
  6
SLD-Solid
 62
     7
370
    25
100
AcDbCircle
 10
12.92072261718077
 20
67.11970367825042
 30
0.0
 40
0.111584819195961
100
AcDbArc
 50
81.95053302445996
 51
168.578246341048
  0
SPLINE
  5
4D8
330
1F
100
AcDbEntity
  8
0
  6
SLD-Solid
 62
     7
370
    25
100
AcDbSpline
210
0.0
220
0.0
230
1.0
 70
    12
 71
     3
 72
    11
 73
     7
 74
     0
 42
0.00000001
 43
0.00000001
 40
0.0
 40
0.0
 40
0.0
 40
0.0
 40
0.2500000000000347
 40
0.5000000000000331
 40
0.7500000000000314
 40
1.0
 40
1.0
 40
1.0
 40
1.0
 10
30.06143824532628
 20
69.40069143508157
 30
0.0
 41
1.0
 10
30.06046269625238
 20
69.4091957392246
 30
0.0
 41
1.0
 10
30.05851159810458
 20
69.42620434751065
 30
0.0
 41
1.0
 10
30.04350352417294
 20
69.44765671392824
 30
0.0
 41
1.0
 10
30.02205115775535
 20
69.46266478785988
 30
0.0
 41
1.0
 10
30.0050425494693
 20
69.46461588600768
 30
0.0
 41
1.0
 10
29.99653824532628
 20
69.46559143508158
 30
0.0
 41
1.0
  0
SPLINE
  5
4D9
330
1F
100
AcDbEntity
  8
0
  6
SLD-Solid
 62
     7
370
    25
100
AcDbSpline
210
0.0
220
0.0
230
1.0
 70
    12
 71
     3
 72
    11
 73
     7
 74
     0
 42
0.00000001
 43
0.00000001
 40
0.0
 40
0.0
 40
0.0
 40
0.0
 40
0.2500000000000217
 40
0.5000000000000164
 40
0.7500000000000052
 40
1.0
 40
1.0
 40
1.0
 40
1.0
 10
8.566638245326262
 20
69.40069143508163
 30
0.0
 41
1.0
 10
8.56761379440016
 20
69.40919573922466
 30
0.0
 41
1.0
 10
8.569564892547959
 20
69.4262043475107
 30
0.0
 41
1.0
 10
8.5845729664796
 20
69.4476567139283
 30
0.0
 41
1.0
 10
8.606025332897188
 20
69.46266478785992
 30
0.0
 41
1.0
 10
8.623033941183234
 20
69.46461588600773
 30
0.0
 41
1.0
 10
8.631538245326261
 20
69.46559143508162
 30
0.0
 41
1.0
  0
ARC
  5
4DA
330
1F
100
AcDbEntity
  8
0
  6
SLD-Solid
 62
     7
370
    25
100
AcDbCircle
 10
30.00465074532626
 20
61.68706461197189
 30
0.0
 40
0.0579348381265614
100
AcDbArc
 50
261.9505330244807
 51
348.5782463410305
  0
LINE
  5
4DB
330
1F
100
AcDbEntity
  8
0
  6
SLD-Solid
 62
     7
370
    25
100
AcDbLine
 10
30.06143824532627
 20
61.67559180444713
 30
0.0
 11
30.06143824532627
 21
67.92575980542014
 31
0.0
  0
ARC
  5
4DC
330
1F
100
AcDbEntity
  8
0
  6
SLD-Solid
 62
     7
370
    25
100
AcDbCircle
 10
8.623425745326257
 20
61.68706461197193
 30
0.0
 40
0.057934838126545
100
AcDbArc
 50
191.4217536589529
 51
278.0494669755378
  0
LINE
  5
4DD
330
1F
100
AcDbEntity
  8
0
  6
SLD-Solid
 62
     7
370
    25
100
AcDbLine
 10
8.566638245326264
 20
61.67559180444719
 30
0.0
 11
8.566638245326262
 21
67.9257598054202
 31
0.0
  0
LINE
  5
4DE
330
1F
100
AcDbEntity
  8
0
  6
SLD-Solid
 62
     7
370
    25
100
AcDbLine
 10
29.95963824532628
 20
69.46559143508158
 30
0.0
 11
29.99653824532628
 21
69.46559143508158
 31
0.0
  0
LINE
  5
4DF
330
1F
100
AcDbEntity
  8
0
  6
SLD-Solid
 62
     7
370
    25
100
AcDbLine
 10
8.668438245326259
 20
69.46559143508162
 30
0.0
 11
8.631538245326261
 21
69.46559143508162
 31
0.0
  0
LINE
  5
4E0
330
1F
100
AcDbEntity
  8
0
  6
SLD-Solid
 62
     7
370
    25
100
AcDbLine
 10
30.06143824532627
 20
67.96442224875452
 30
0.0
 11
30.06143824532627
 21
67.9290669096952
 31
0.0
  0
LINE
  5
4E1
330
1F
100
AcDbEntity
  8
0
  6
SLD-Solid
 62
     7
370
    25
100
AcDbLine
 10
8.566638245326262
 20
67.96442224875457
 30
0.0
 11
8.566638245326262
 21
67.92906690969524
 31
0.0
  0
LINE
  5
4E2
330
1F
100
AcDbEntity
  8
0
  6
SLD-Solid
 62
     7
370
    25
100
AcDbLine
 10
8.566638245326262
 20
67.92906690969524
 30
0.0
 11
8.566638245326262
 21
67.9257598054202
 31
0.0
  0
LINE
  5
4E3
330
1F
100
AcDbEntity
  8
0
  6
SLD-Solid
 62
     7
370
    25
100
AcDbLine
 10
30.06143824532627
 20
61.6733743510762
 30
0.0
 11
30.06143824532627
 21
61.67559180444713
 31
0.0
  0
LINE
  5
4E4
330
1F
100
AcDbEntity
  8
0
  6
SLD-Solid
 62
     7
370
    25
100
AcDbLine
 10
29.95943824532626
 20
61.59382969013553
 30
0.0
 11
29.95963824532627
 21
61.59382969013553
 31
0.0
  0
LINE
  5
4E5
330
1F
100
AcDbEntity
  8
0
  6
SLD-Solid
 62
     7
370
    25
100
AcDbLine
 10
8.668638245326264
 20
61.59382969013558
 30
0.0
 11
8.66843824532626
 21
61.59382969013558
 31
0.0
  0
LINE
  5
4E6
330
1F
100
AcDbEntity
  8
0
  6
SLD-Solid
 62
     8
370
    25
100
AcDbLine
 10
28.60663233175566
 20
69.46718085101612
 30
0.0
 11
28.60663233175566
 21
69.46559937732702
 31
0.0
  0
LINE
  5
4E7
330
1F
100
AcDbEntity
  8
0
  6
SLD-Solid
 62
     8
370
    25
100
AcDbLine
 10
28.56333106156644
 20
69.46718085101612
 30
0.0
 11
28.56333106156644
 21
69.46559937732702
 31
0.0
  0
LINE
  5
4E8
330
1F
100
AcDbEntity
  8
0
  6
SLD-Solid
 62
     8
370
    25
100
AcDbLine
 10
17.46785432041052
 20
69.46718085101612
 30
0.0
 11
17.46785432041052
 21
69.46559937732705
 31
0.0
  0
LINE
  5
4E9
330
1F
100
AcDbEntity
  8
0
  6
SLD-Solid
 62
     8
370
    25
100
AcDbLine
 10
17.4245530502213
 20
69.46718085101612
 30
0.0
 11
17.4245530502213
 21
69.46559937732705
 31
0.0
  0
LINE
  5
4EA
330
1F
100
AcDbEntity
  8
0
  6
SLD-Solid
 62
     8
370
    25
100
AcDbLine
 10
10.06474542908597
 20
69.46718085101612
 30
0.0
 11
10.06474542908597
 21
69.46559937732707
 31
0.0
  0
LINE
  5
4EB
330
1F
100
AcDbEntity
  8
0
  6
SLD-Solid
 62
     8
370
    25
100
AcDbLine
 10
10.02144415889674
 20
69.46718085101612
 30
0.0
 11
10.02144415889674
 21
69.46559937732707
 31
0.0
  0
LINE
  5
4EC
330
1F
100
AcDbEntity
  8
0
  6
SLD-Solid
 62
     8
370
    25
100
AcDbLine
 10
10.19464923965363
 20
69.46718085101612
 30
0.0
 11
10.19464923965363
 21
69.46559937732707
 31
0.0
  0
LINE
  5
4ED
330
1F
100
AcDbEntity
  8
0
  6
SLD-Solid
 62
     8
370
    25
100
AcDbLine
 10
10.15134796946441
 20
69.46718085101612
 30
0.0
 11
10.15134796946441
 21
69.46559937732707
 31
0.0
  0
LINE
  5
4EE
330
1F
100
AcDbEntity
  8
0
  6
SLD-Solid
 62
     8
370
    25
100
AcDbLine
 10
21.16022217024189
 20
69.46718085101612
 30
0.0
 11
21.16022217024189
 21
69.46559937732704
 31
0.0
  0
LINE
  5
4EF
330
1F
100
AcDbEntity
  8
0
  6
SLD-Solid
 62
     8
370
    25
100
AcDbLine
 10
21.33342725099877
 20
69.46718085101612
 30
0.0
 11
21.33342725099877
 21
69.46559937732704
 31
0.0
  0
LINE
  5
4F0
330
1F
100
AcDbEntity
  8
0
  6
SLD-Solid
 62
     8
370
    25
100
AcDbLine
 10
21.29012598080956
 20
69.46718085101612
 30
0.0
 11
21.29012598080956
 21
69.46559937732704
 31
0.0
  0
LINE
  5
4F1
330
1F
100
AcDbEntity
  8
0
  6
SLD-Solid
 62
     8
370
    25
100
AcDbLine
 10
28.476728521188
 20
69.46718085101612
 30
0.0
 11
28.476728521188
 21
69.46559937732702
 31
0.0
  0
LINE
  5
4F2
330
1F
100
AcDbEntity
  8
0
  6
SLD-Solid
 62
     8
370
    25
100
AcDbLine
 10
28.43342725099877
 20
69.46718085101612
 30
0.0
 11
28.43342725099877
 21
69.46559937732702
 31
0.0
  0
LINE
  5
4F3
330
1F
100
AcDbEntity
  8
0
  6
SLD-Solid
 62
     8
370
    25
100
AcDbLine
 10
21.20352344043111
 20
69.46718085101612
 30
0.0
 11
21.20352344043111
 21
69.46559937732704
 31
0.0
  0
LINE
  5
4F4
330
1F
100
AcDbEntity
  8
0
  6
SLD-Solid
 62
     8
370
    25
100
AcDbLine
 10
17.33795050984285
 20
69.46718085101612
 30
0.0
 11
17.33795050984285
 21
69.46559937732705
 31
0.0
  0
LINE
  5
4F5
330
1F
100
AcDbEntity
  8
0
  6
SLD-Solid
 62
     8
370
    25
100
AcDbLine
 10
17.29464923965363
 20
69.46718085101612
 30
0.0
 11
17.29464923965363
 21
69.46559937732705
 31
0.0
  0
LINE
  5
4F6
330
1F
100
AcDbEntity
  8
0
  6
SLD-Solid
 62
     8
370
    25
100
AcDbLine
 10
12.20556515726079
 20
69.61808034595272
 30
0.0
 11
11.42251133339162
 21
69.61808034595272
 31
0.0
  0
LINE
  5
4F7
330
1F
100
AcDbEntity
  8
0
  6
SLD-Solid
 62
     8
370
    25
100
AcDbLine
 10
27.20556515726079
 20
69.61808034595272
 30
0.0
 11
26.42251133339162
 21
69.61808034595272
 31
0.0
  0
LINE
  5
4F8
330
1F
100
AcDbEntity
  8
0
  6
SLD-Solid
 62
     8
370
    25
100
AcDbLine
 10
25.69172887347174
 20
62.2804416445049
 30
0.0
 11
25.69172887347174
 21
62.28571102579246
 31
0.0
  0
LINE
  5
4F9
330
1F
100
AcDbEntity
  8
0
  6
SLD-Solid
 62
     8
370
    25
100
AcDbLine
 10
12.93634761718079
 20
62.28044164450494
 30
0.0
 11
12.93634761718079
 21
62.28571102579245
 31
0.0
  0
LINE
  5
4FA
330
1F
100
AcDbEntity
  8
0
  6
SLD-Solid
 62
     8
370
    25
100
AcDbLine
 10
30.06136243680673
 20
61.6733743510762
 30
0.0
 11
30.06143824532627
 21
61.6733743510762
 31
0.0
  0
DIMENSION
  5
4FB
330
1F
100
AcDbEntity
  8
DIMS
100
AcDbDimension
  2
_D_8
 10
31.68624139493258
 20
69.55708085101614
 30
0.0
 11
31.68624139493257
 21
65.45219738098207
 31
0.0
 70
    32
  1
<>
 71
     2
 42
-1.0
  3
SLDDIMSTYLE3
100
AcDbAlignedDimension
 13
30.03243824532621
 23
61.54382969013523
 33
0.0
 14
29.82653824532608
 24
69.55708085101614
 34
0.0
 50
90.0000000000002
100
AcDbRotatedDimension
  0
MTEXT
  5
506
330
1F
100
AcDbEntity
  8
NOTES
100
AcDbMText
 10
17.03337222623254
 20
60.59649714892335
 30
0.0
 40
0.7500000000000001
 41
0.0
 71
     1
 72
     1
  1
Top view
  7
SLDTEXTSTYLE1
 73
     1
 44
1.0
  0
MTEXT
  5
50A
330
1F
100
AcDbEntity
  8
NOTES
100
AcDbMText
 10
70.64113155701669
 20
4.986500874567161
 30
0.0
 40
0.2916666666666666
 41
0.0
 71
     1
 72
     1
  1
FROST PRODUCTS LTD.
  7
SLDTEXTSTYLE0
 73
     1
 44
1.0
  0
MTEXT
  5
50B
330
1F
100
AcDbEntity
  8
NOTES
100
AcDbMText
 10
70.64113155701669
 20
4.561008512941702
 30
0.0
 40
0.2291666666666666
 41
0.0
 71
     1
 72
     1
  1
5280 JOHN LUCAS DRIVE, BURLINGTON, ON, L7L 5Z9
  7
SLDTEXTSTYLE0
 73
     1
 44
1.0
  0
ENDSEC
  0
SECTION
  2
OBJECTS
  0
DICTIONARY
  5
C
330
0
100
AcDbDictionary
281
     1
  3
ACAD_COLOR
350
6C
  3
ACAD_GROUP
350
D
  3
ACAD_LAYOUT
350
1A
  3
ACAD_MATERIAL
350
6B
  3
ACAD_MLINESTYLE
350
17
  3
ACAD_PLOTSETTINGS
350
19
  3
ACAD_PLOTSTYLENAME
350
E
  3
ACAD_SCALELIST
350
47
  3
ACAD_TABLESTYLE
350
92
  3
AcDbVariableDictionary
350
59
  0
DICTIONARY
  5
6C
102
{ACAD_REACTORS
330
C
102
}
330
C
100
AcDbDictionary
281
     1
  0
DICTIONARY
  5
D
102
{ACAD_REACTORS
330
C
102
}
330
C
100
AcDbDictionary
281
     1
  0
DICTIONARY
  5
1A
102
{ACAD_REACTORS
330
C
102
}
330
C
100
AcDbDictionary
281
     1
  3
Layout1
350
74
  3
Layout2
350
26
  3
Model
350
22
  0
DICTIONARY
  5
6B
102
{ACAD_REACTORS
330
C
102
}
330
C
100
AcDbDictionary
281
     1
  0
DICTIONARY
  5
17
102
{ACAD_REACTORS
330
C
102
}
330
C
100
AcDbDictionary
281
     1
  3
Standard
350
18
  0
DICTIONARY
  5
19
102
{ACAD_REACTORS
330
C
102
}
330
C
100
AcDbDictionary
281
     1
  0
ACDBDICTIONARYWDFLT
  5
E
102
{ACAD_REACTORS
330
C
102
}
330
C
100
AcDbDictionary
281
     1
  3
Normal
350
F
100
AcDbDictionaryWithDefault
340
F
  0
DICTIONARY
  5
47
102
{ACAD_REACTORS
330
C
102
}
330
C
100
AcDbDictionary
281
     1
  3
A0
350
48
  3
A1
350
49
  3
A2
350
4A
  3
A3
350
4B
  3
A4
350
4C
  3
A5
350
4D
  3
A6
350
4E
  3
A7
350
4F
  3
A8
350
50
  3
A9
350
51
  3
B0
350
52
  3
B1
350
53
  3
B2
350
54
  3
B3
350
55
  3
B4
350
56
  3
B5
350
57
  3
B6
350
58
  3
B7
350
51C
  3
B8
350
51D
  3
B9
350
5B
  3
C0
350
5C
  3
C1
350
5D
  3
C2
350
51E
  3
C3
350
5F
  3
C4
350
60
  3
C5
350
61
  3
C6
350
62
  3
C7
350
63
  3
C8
350
64
  3
C9
350
65
  3
D0
350
66
  3
D1
350
67
  3
D2
350
68
  0
DICTIONARY
  5
92
102
{ACAD_REACTORS
330
C
102
}
330
C
100
AcDbDictionary
281
     1
  3
Standard
350
93
  0
DICTIONARY
  5
59
102
{ACAD_REACTORS
330
C
102
}
330
C
100
AcDbDictionary
281
     1
  3
CTABLESTYLE
350
98
  3
HIDETEXT
350
509
  0
LAYOUT
  5
74
102
{ACAD_REACTORS
330
1A
102
}
330
1A
100
AcDbPlotSettings
  1

  2
none_device
  4

  6

 40
0.0
 41
0.0
 42
0.0
 43
0.0
 44
0.0
 45
0.0
 46
0.0
 47
0.0
 48
0.0
 49
0.0
140
0.0
141
0.0
142
1.0
143
1.0
 70
   688
 72
     0
 73
     0
 74
     5
  7

 75
    16
 76
     0
 77
     2
 78
   300
147
1.0
148
0.0
149
0.0
100
AcDbLayout
  1
Layout1
 70
     1
 71
     1
 10
0.0
 20
0.0
 11
12.0
 21
9.0
 12
0.0
 22
0.0
 32
0.0
 14
1.000000000000000E+20
 24
1.000000000000000E+20
 34
1.000000000000000E+20
 15
-1.000000000000000E+20
 25
-1.000000000000000E+20
 35
-1.000000000000000E+20
146
0.0
 13
0.0
 23
0.0
 33
0.0
 16
1.0
 26
0.0
 36
0.0
 17
0.0
 27
1.0
 37
0.0
 76
     0
330
73
  0
LAYOUT
  5
26
102
{ACAD_REACTORS
330
1A
102
}
330
1A
100
AcDbPlotSettings
  1

  2
none_device
  4

  6

 40
0.0
 41
0.0
 42
0.0
 43
0.0
 44
0.0
 45
0.0
 46
0.0
 47
0.0
 48
0.0
 49
0.0
140
0.0
141
0.0
142
1.0
143
1.0
 70
   688
 72
     0
 73
     0
 74
     5
  7

 75
    16
 76
     0
 77
     2
 78
   300
147
1.0
148
0.0
149
0.0
100
AcDbLayout
  1
Layout2
 70
     1
 71
     2
 10
0.0
 20
0.0
 11
0.0
 21
0.0
 12
0.0
 22
0.0
 32
0.0
 14
0.0
 24
0.0
 34
0.0
 15
0.0
 25
0.0
 35
0.0
146
0.0
 13
0.0
 23
0.0
 33
0.0
 16
1.0
 26
0.0
 36
0.0
 17
0.0
 27
1.0
 37
0.0
 76
     0
330
23
  0
LAYOUT
  5
22
102
{ACAD_REACTORS
330
1A
102
}
330
1A
100
AcDbPlotSettings
  1

  2
none_device
  4
Letter_(8.50_x_11.00_Inches)
  6

 40
6.35
 41
6.35
 42
6.35000508
 43
6.35000508
 44
215.9
 45
279.4
 46
0.0
 47
0.0
 48
0.0
 49
0.0
140
0.0
141
0.0
142
1.0
143
1.0
 70
 11952
 72
     0
 73
     0
 74
     0
  7

 75
     0
 76
     0
 77
     2
 78
   300
147
1.0
148
0.0
149
0.0
100
AcDbLayout
  1
Model
 70
     1
 71
     0
 10
0.0
 20
0.0
 11
80.375
 21
100.0
 12
0.0
 22
0.0
 32
0.0
 14
0.1653543307086614
 24
0.1653543307086614
 34
-25.74827495405623
 15
80.20964566929135
 25
99.83464566929135
 35
5.161860614139235
146
0.0
 13
0.0
 23
0.0
 33
0.0
 16
1.0
 26
0.0
 36
0.0
 17
0.0
 27
1.0
 37
0.0
 76
     0
330
1F
  0
MLINESTYLE
  5
18
102
{ACAD_REACTORS
330
17
102
}
330
17
100
AcDbMlineStyle
  2
Standard
 70
     0
  3

 62
   256
 51
90.0
 52
90.0
 71
     2
 49
0.5
 62
   256
  6
BYLAYER
 49
-0.5
 62
   256
  6
BYLAYER
  0
ACDBPLACEHOLDER
  5
F
102
{ACAD_REACTORS
330
E
102
}
330
E
  0
ACAD_PROXY_OBJECT
  5
48
102
{ACAD_REACTORS
330
47
102
}
330
47
100
AcDbProxyObject
 90
      499
 91
      505
 95
   393239
 70
     0
 93
       41
310
903313A31580
  0
ACAD_PROXY_OBJECT
  5
49
102
{ACAD_REACTORS
330
47
102
}
330
47
100
AcDbProxyObject
 90
      499
 91
      505
 95
   393239
 70
     0
 93
      105
310
903313A324000000000000004000
  0
ACAD_PROXY_OBJECT
  5
4A
102
{ACAD_REACTORS
330
47
102
}
330
47
100
AcDbProxyObject
 90
      499
 91
      505
 95
   393239
 70
     0
 93
      105
310
903313A344000000000000104000
  0
ACAD_PROXY_OBJECT
  5
4B
102
{ACAD_REACTORS
330
47
102
}
330
47
100
AcDbProxyObject
 90
      499
 91
      505
 95
   393239
 70
     0
 93
      105
310
903313A354000000000000144000
  0
ACAD_PROXY_OBJECT
  5
4C
102
{ACAD_REACTORS
330
47
102
}
330
47
100
AcDbProxyObject
 90
      499
 91
      505
 95
   393239
 70
     0
 93
      105
310
903313A384000000000000204000
  0
ACAD_PROXY_OBJECT
  5
4D
102
{ACAD_REACTORS
330
47
102
}
330
47
100
AcDbProxyObject
 90
      499
 91
      505
 95
   393239
 70
     0
 93
      113
310
904313A31304000000000000244000
  0
ACAD_PROXY_OBJECT
  5
4E
102
{ACAD_REACTORS
330
47
102
}
330
47
100
AcDbProxyObject
 90
      499
 91
      505
 95
   393239
 70
     0
 93
      113
310
904313A31364000000000000304000
  0
ACAD_PROXY_OBJECT
  5
4F
102
{ACAD_REACTORS
330
47
102
}
330
47
100
AcDbProxyObject
 90
      499
 91
      505
 95
   393239
 70
     0
 93
      113
310
904313A32304000000000000344000
  0
ACAD_PROXY_OBJECT
  5
50
102
{ACAD_REACTORS
330
47
102
}
330
47
100
AcDbProxyObject
 90
      499
 91
      505
 95
   393239
 70
     0
 93
      113
310
904313A333040000000000003E4000
  0
ACAD_PROXY_OBJECT
  5
51
102
{ACAD_REACTORS
330
47
102
}
330
47
100
AcDbProxyObject
 90
      499
 91
      505
 95
   393239
 70
     0
 93
      113
310
904313A34304000000000000444000
  0
ACAD_PROXY_OBJECT
  5
52
102
{ACAD_REACTORS
330
47
102
}
330
47
100
AcDbProxyObject
 90
      499
 91
      505
 95
   393239
 70
     0
 93
      113
310
904313A35304000000000000494000
  0
ACAD_PROXY_OBJECT
  5
53
102
{ACAD_REACTORS
330
47
102
}
330
47
100
AcDbProxyObject
 90
      499
 91
      505
 95
   393239
 70
     0
 93
      121
310
905313A3130304000000000000594000
  0
ACAD_PROXY_OBJECT
  5
54
102
{ACAD_REACTORS
330
47
102
}
330
47
100
AcDbProxyObject
 90
      499
 91
      505
 95
   393239
 70
     0
 93
      105
310
903323A310000000000000010100
  0
ACAD_PROXY_OBJECT
  5
55
102
{ACAD_REACTORS
330
47
102
}
330
47
100
AcDbProxyObject
 90
      499
 91
      505
 95
   393239
 70
     0
 93
      105
310
903343A310000000000000410100
  0
ACAD_PROXY_OBJECT
  5
56
102
{ACAD_REACTORS
330
47
102
}
330
47
100
AcDbProxyObject
 90
      499
 91
      505
 95
   393239
 70
     0
 93
      105
310
903383A310000000000000810100
  0
ACAD_PROXY_OBJECT
  5
57
102
{ACAD_REACTORS
330
47
102
}
330
47
100
AcDbProxyObject
 90
      499
 91
      505
 95
   393239
 70
     0
 93
      113
310
90431303A310000000000000910100
  0
ACAD_PROXY_OBJECT
  5
58
102
{ACAD_REACTORS
330
47
102
}
330
47
100
AcDbProxyObject
 90
      499
 91
      505
 95
   393239
 70
     0
 93
      121
310
9053130303A310000000000001650100
  0
ACAD_PROXY_OBJECT
  5
51C
102
{ACAD_REACTORS
330
47
102
}
330
47
100
AcDbProxyObject
 90
      499
 91
      505
 95
   393239
 70
     0
 93
      257
310
90E312F31323822203D2031272D3022000000000000200FC000000000000284000
  0
ACAD_PROXY_OBJECT
  5
51D
102
{ACAD_REACTORS
330
47
102
}
330
47
100
AcDbProxyObject
 90
      499
 91
      505
 95
   393239
 70
     0
 93
      249
310
90D312F363422203D2031272D3022000000000000240FC000000000000284000
  0
ACAD_PROXY_OBJECT
  5
5B
102
{ACAD_REACTORS
330
47
102
}
330
47
100
AcDbProxyObject
 90
      499
 91
      505
 95
   393239
 70
     0
 93
      249
310
90D312F333222203D2031272D3022000000000000280FC000000000000284000
  0
ACAD_PROXY_OBJECT
  5
5C
102
{ACAD_REACTORS
330
47
102
}
330
47
100
AcDbProxyObject
 90
      499
 91
      505
 95
   393239
 70
     0
 93
      249
310
90D312F313622203D2031272D30220000000000002C0FC000000000000284000
  0
ACAD_PROXY_OBJECT
  5
5D
102
{ACAD_REACTORS
330
47
102
}
330
47
100
AcDbProxyObject
 90
      499
 91
      505
 95
   393239
 70
     0
 93
      249
310
90D332F333222203D2031272D30220000000000002E0FC000000000000284000
  0
ACAD_PROXY_OBJECT
  5
51E
102
{ACAD_REACTORS
330
47
102
}
330
47
100
AcDbProxyObject
 90
      499
 91
      505
 95
   393239
 70
     0
 93
      241
310
90C312F3822203D2031272D3022000000000000300FC000000000000284000
  0
ACAD_PROXY_OBJECT
  5
5F
102
{ACAD_REACTORS
330
47
102
}
330
47
100
AcDbProxyObject
 90
      499
 91
      505
 95
   393239
 70
     0
 93
      249
310
90D332F313622203D2031272D3022000000000000320FC000000000000284000
  0
ACAD_PROXY_OBJECT
  5
60
102
{ACAD_REACTORS
330
47
102
}
330
47
100
AcDbProxyObject
 90
      499
 91
      505
 95
   393239
 70
     0
 93
      241
310
90C312F3422203D2031272D3022000000000000340FC000000000000284000
  0
ACAD_PROXY_OBJECT
  5
61
102
{ACAD_REACTORS
330
47
102
}
330
47
100
AcDbProxyObject
 90
      499
 91
      505
 95
   393239
 70
     0
 93
      241
310
90C332F3822203D2031272D3022000000000000360FC000000000000284000
  0
ACAD_PROXY_OBJECT
  5
62
102
{ACAD_REACTORS
330
47
102
}
330
47
100
AcDbProxyObject
 90
      499
 91
      505
 95
   393239
 70
     0
 93
      241
310
90C312F3222203D2031272D3022000000000000380FC000000000000284000
  0
ACAD_PROXY_OBJECT
  5
63
102
{ACAD_REACTORS
330
47
102
}
330
47
100
AcDbProxyObject
 90
      499
 91
      505
 95
   393239
 70
     0
 93
      241
310
90C332F3422203D2031272D30220000000000003A0FC000000000000284000
  0
ACAD_PROXY_OBJECT
  5
64
102
{ACAD_REACTORS
330
47
102
}
330
47
100
AcDbProxyObject
 90
      499
 91
      505
 95
   393239
 70
     0
 93
      161
310
90A3122203D2031272D30224000000000000284000
  0
ACAD_PROXY_OBJECT
  5
65
102
{ACAD_REACTORS
330
47
102
}
330
47
100
AcDbProxyObject
 90
      499
 91
      505
 95
   393239
 70
     0
 93
      257
310
90E312D312F3222203D2031272D30220000000000003E0FC000000000000284000
  0
ACAD_PROXY_OBJECT
  5
66
102
{ACAD_REACTORS
330
47
102
}
330
47
100
AcDbProxyObject
 90
      499
 91
      505
 95
   393239
 70
     0
 93
      225
310
90A3322203D2031272D302200000000000002100000000000000284000
  0
ACAD_PROXY_OBJECT
  5
67
102
{ACAD_REACTORS
330
47
102
}
330
47
100
AcDbProxyObject
 90
      499
 91
      505
 95
   393239
 70
     0
 93
      225
310
90A3622203D2031272D302200000000000006100000000000000284000
  0
ACAD_PROXY_OBJECT
  5
68
102
{ACAD_REACTORS
330
47
102
}
330
47
100
AcDbProxyObject
 90
      499
 91
      505
 95
   393239
 70
     0
 93
      249
310
90D31272D3022203D2031272D30220000000000000A100000000000000284000
  0
TABLESTYLE
  5
93
102
{ACAD_REACTORS
330
92
102
}
330
92
100
AcDbTableStyle
  3
Standard
 70
     0
 71
     0
 40
0.06
 41
0.06
280
     0
281
     0
  7
Standard
140
0.18
170
     2
 62
     0
 63
     7
283
     0
274
    -2
284
     1
 64
     0
275
    -2
285
     1
 65
     0
276
    -2
286
     1
 66
     0
277
    -2
287
     1
 67
     0
278
    -2
288
     1
 68
     0
279
    -2
289
     1
 69
     0
  7
Standard
140
0.25
170
     5
 62
     0
 63
     7
283
     0
274
    -2
284
     1
 64
     0
275
    -2
285
     1
 65
     0
276
    -2
286
     1
 66
     0
277
    -2
287
     1
 67
     0
278
    -2
288
     1
 68
     0
279
    -2
289
     1
 69
     0
  7
Standard
140
0.18
170
     5
 62
     0
 63
     7
283
     0
274
    -2
284
     1
 64
     0
275
    -2
285
     1
 65
     0
276
    -2
286
     1
 66
     0
277
    -2
287
     1
 67
     0
278
    -2
288
     1
 68
     0
279
    -2
289
     1
 69
     0
  0
DICTIONARYVAR
  5
98
102
{ACAD_REACTORS
330
59
102
}
330
59
100
DictionaryVariables
280
     0
  1
STANDARD
  0
DICTIONARYVAR
  5
509
102
{ACAD_REACTORS
330
59
102
}
330
59
100
DictionaryVariables
280
     0
  1
2
  0
ENDSEC
  0
EOF
